  0
SECTION
  2
HEADER
  9
$ACADVER
  1
AC1015
  9
$ACADMAINTVER
 70
     6
  9
$DWGCODEPAGE
  3
ANSI_1252
  9
$INSBASE
 10
0.0
 20
0.0
 30
0.0
  9
$EXTMIN
 10
-1269.250000185179
 20
-1220.57485985288
 30
0.0
  9
$EXTMAX
 10
-849.2500001851806
 20
-923.5748598528803
 30
0.0
  9
$LIMMIN
 10
0.0
 20
0.0
  9
$LIMMAX
 10
12.0
 20
9.0
  9
$ORTHOMODE
 70
     0
  9
$REGENMODE
 70
     1
  9
$FILLMODE
 70
     1
  9
$QTEXTMODE
 70
     0
  9
$MIRRTEXT
 70
     1
  9
$LTSCALE
 40
1.0
  9
$ATTMODE
 70
     1
  9
$TEXTSIZE
 40
0.2
  9
$TRACEWID
 40
0.05
  9
$TEXTSTYLE
  7
Standard
  9
$CLAYER
  8
0
  9
$CELTYPE
  6
ByLayer
  9
$CECOLOR
 62
   256
  9
$CELTSCALE
 40
1.0
  9
$DISPSILH
 70
     0
  9
$DIMSCALE
 40
1.0
  9
$DIMASZ
 40
0.18
  9
$DIMEXO
 40
0.0625
  9
$DIMDLI
 40
0.38
  9
$DIMRND
 40
0.0
  9
$DIMDLE
 40
0.0
  9
$DIMEXE
 40
0.18
  9
$DIMTP
 40
0.0
  9
$DIMTM
 40
0.0
  9
$DIMTXT
 40
0.18
  9
$DIMCEN
 40
0.09
  9
$DIMTSZ
 40
0.0
  9
$DIMTOL
 70
     0
  9
$DIMLIM
 70
     0
  9
$DIMTIH
 70
     1
  9
$DIMTOH
 70
     1
  9
$DIMSE1
 70
     0
  9
$DIMSE2
 70
     0
  9
$DIMTAD
 70
     0
  9
$DIMZIN
 70
     0
  9
$DIMBLK
  1

  9
$DIMASO
 70
     1
  9
$DIMSHO
 70
     1
  9
$DIMPOST
  1

  9
$DIMAPOST
  1

  9
$DIMALT
 70
     0
  9
$DIMALTD
 70
     2
  9
$DIMALTF
 40
25.4
  9
$DIMLFAC
 40
1.0
  9
$DIMTOFL
 70
     0
  9
$DIMTVP
 40
0.0
  9
$DIMTIX
 70
     0
  9
$DIMSOXD
 70
     0
  9
$DIMSAH
 70
     0
  9
$DIMBLK1
  1

  9
$DIMBLK2
  1

  9
$DIMSTYLE
  2
Standard
  9
$DIMCLRD
 70
     0
  9
$DIMCLRE
 70
     0
  9
$DIMCLRT
 70
     0
  9
$DIMTFAC
 40
1.0
  9
$DIMGAP
 40
0.09
  9
$DIMJUST
 70
     0
  9
$DIMSD1
 70
     0
  9
$DIMSD2
 70
     0
  9
$DIMTOLJ
 70
     1
  9
$DIMTZIN
 70
     0
  9
$DIMALTZ
 70
     0
  9
$DIMALTTZ
 70
     0
  9
$DIMUPT
 70
     0
  9
$DIMDEC
 70
     4
  9
$DIMTDEC
 70
     4
  9
$DIMALTU
 70
     2
  9
$DIMALTTD
 70
     2
  9
$DIMTXSTY
  7
Standard
  9
$DIMAUNIT
 70
     0
  9
$DIMADEC
 70
     0
  9
$DIMALTRND
 40
0.0
  9
$DIMAZIN
 70
     0
  9
$DIMDSEP
 70
    46
  9
$DIMATFIT
 70
     3
  9
$DIMFRAC
 70
     0
  9
$DIMLDRBLK
  1

  9
$DIMLUNIT
 70
     2
  9
$DIMLWD
 70
    -2
  9
$DIMLWE
 70
    -2
  9
$DIMTMOVE
 70
     0
  9
$LUNITS
 70
     2
  9
$LUPREC
 70
     4
  9
$SKETCHINC
 40
0.1
  9
$FILLETRAD
 40
0.5
  9
$AUNITS
 70
     0
  9
$AUPREC
 70
     0
  9
$MENU
  1
.
  9
$ELEVATION
 40
0.0
  9
$PELEVATION
 40
0.0
  9
$THICKNESS
 40
0.0
  9
$LIMCHECK
 70
     0
  9
$CHAMFERA
 40
0.5
  9
$CHAMFERB
 40
0.5
  9
$CHAMFERC
 40
1.0
  9
$CHAMFERD
 40
0.0
  9
$SKPOLY
 70
     0
  9
$TDCREATE
 40
2457611.569948808
  9
$TDUCREATE
 40
2457611.486615474
  9
$TDUPDATE
 40
2457611.569949711
  9
$TDUUPDATE
 40
2457611.486616377
  9
$TDINDWG
 40
0.0000000116
  9
$TDUSRTIMER
 40
0.0000000116
  9
$USRTIMER
 70
     1
  9
$ANGBASE
 50
0.0
  9
$ANGDIR
 70
     0
  9
$PDMODE
 70
     0
  9
$PDSIZE
 40
0.0
  9
$PLINEWID
 40
0.0
  9
$SPLFRAME
 70
     0
  9
$SPLINETYPE
 70
     6
  9
$SPLINESEGS
 70
     8
  9
$HANDSEED
  5
24E
  9
$SURFTAB1
 70
     6
  9
$SURFTAB2
 70
     6
  9
$SURFTYPE
 70
     6
  9
$SURFU
 70
     6
  9
$SURFV
 70
     6
  9
$UCSBASE
  2

  9
$UCSNAME
  2

  9
$UCSORG
 10
0.0
 20
0.0
 30
0.0
  9
$UCSXDIR
 10
1.0
 20
0.0
 30
0.0
  9
$UCSYDIR
 10
0.0
 20
1.0
 30
0.0
  9
$UCSORTHOREF
  2

  9
$UCSORTHOVIEW
 70
     0
  9
$UCSORGTOP
 10
0.0
 20
0.0
 30
0.0
  9
$UCSORGBOTTOM
 10
0.0
 20
0.0
 30
0.0
  9
$UCSORGLEFT
 10
0.0
 20
0.0
 30
0.0
  9
$UCSORGRIGHT
 10
0.0
 20
0.0
 30
0.0
  9
$UCSORGFRONT
 10
0.0
 20
0.0
 30
0.0
  9
$UCSORGBACK
 10
0.0
 20
0.0
 30
0.0
  9
$PUCSBASE
  2

  9
$PUCSNAME
  2

  9
$PUCSORG
 10
0.0
 20
0.0
 30
0.0
  9
$PUCSXDIR
 10
1.0
 20
0.0
 30
0.0
  9
$PUCSYDIR
 10
0.0
 20
1.0
 30
0.0
  9
$PUCSORTHOREF
  2

  9
$PUCSORTHOVIEW
 70
     0
  9
$PUCSORGTOP
 10
0.0
 20
0.0
 30
0.0
  9
$PUCSORGBOTTOM
 10
0.0
 20
0.0
 30
0.0
  9
$PUCSORGLEFT
 10
0.0
 20
0.0
 30
0.0
  9
$PUCSORGRIGHT
 10
0.0
 20
0.0
 30
0.0
  9
$PUCSORGFRONT
 10
0.0
 20
0.0
 30
0.0
  9
$PUCSORGBACK
 10
0.0
 20
0.0
 30
0.0
  9
$USERI1
 70
     0
  9
$USERI2
 70
     0
  9
$USERI3
 70
     0
  9
$USERI4
 70
     0
  9
$USERI5
 70
     0
  9
$USERR1
 40
18.1
  9
$USERR2
 40
0.0
  9
$USERR3
 40
0.0
  9
$USERR4
 40
0.0
  9
$USERR5
 40
0.0
  9
$WORLDVIEW
 70
     1
  9
$SHADEDGE
 70
     3
  9
$SHADEDIF
 70
    70
  9
$TILEMODE
 70
     1
  9
$MAXACTVP
 70
    64
  9
$PINSBASE
 10
0.0
 20
0.0
 30
0.0
  9
$PLIMCHECK
 70
     0
  9
$PEXTMIN
 10
1.00000000000000E+20
 20
1.00000000000000E+20
 30
1.00000000000000E+20
  9
$PEXTMAX
 10
-1.00000000000000E+20
 20
-1.00000000000000E+20
 30
-1.00000000000000E+20
  9
$PLIMMIN
 10
0.0
 20
0.0
  9
$PLIMMAX
 10
12.0
 20
9.0
  9
$UNITMODE
 70
     0
  9
$VISRETAIN
 70
     1
  9
$PLINEGEN
 70
     0
  9
$PSLTSCALE
 70
     1
  9
$TREEDEPTH
 70
  3020
  9
$CMLSTYLE
  2
Standard
  9
$CMLJUST
 70
     0
  9
$CMLSCALE
 40
1.0
  9
$PROXYGRAPHICS
 70
     1
  9
$MEASUREMENT
 70
     1
  9
$CELWEIGHT
370
    -1
  9
$ENDCAPS
280
     0
  9
$JOINSTYLE
280
     0
  9
$LWDISPLAY
290
     0
  9
$INSUNITS
 70
     4
  9
$HYPERLINKBASE
  1

  9
$STYLESHEET
  1

  9
$XEDIT
290
     1
  9
$CEPSNTYPE
380
     0
  9
$PSTYLEMODE
290
     1
  9
$FINGERPRINTGUID
  2
{CDD26F9E-CAB1-4137-8975-3F2438DE102B}
  9
$VERSIONGUID
  2
{FAEB1C32-E019-11D5-929B-00C0DF256EC4}
  9
$EXTNAMES
290
     1
  9
$PSVPSCALE
 40
0.0
  9
$OLESTARTUP
290
     0
  0
ENDSEC
  0
SECTION
  2
CLASSES
  0
CLASS
  1
ACDBDICTIONARYWDFLT
  2
AcDbDictionaryWithDefault
  3
ObjectDBX Classes
 90
        0
280
     0
281
     0
  0
CLASS
  1
VISUALSTYLE
  2
AcDbVisualStyle
  3
ObjectDBX Classes
 90
     4095
280
     0
281
     0
  0
CLASS
  1
MATERIAL
  2
AcDbMaterial
  3
ObjectDBX Classes
 90
     1153
280
     0
281
     0
  0
CLASS
  1
DICTIONARYVAR
  2
AcDbDictionaryVar
  3
ObjectDBX Classes
 90
        0
280
     0
281
     0
  0
CLASS
  1
ACDBPLACEHOLDER
  2
AcDbPlaceHolder
  3
ObjectDBX Classes
 90
        0
280
     0
281
     0
  0
CLASS
  1
LAYOUT
  2
AcDbLayout
  3
ObjectDBX Classes
 90
        0
280
     0
281
     0
  0
ENDSEC
  0
SECTION
  2
TABLES
  0
TABLE
  2
VPORT
  5
8
330
0
100
AcDbSymbolTable
 70
     1
  0
VPORT
  5
29
330
8
100
AcDbSymbolTableRecord
100
AcDbViewportTableRecord
  2
*Active
 70
     0
 10
0.0
 20
0.0
 11
1.0
 21
1.0
 12
-1059.25000018518
 22
-1072.07485985288
 13
0.0
 23
0.0
 14
0.5
 24
0.5
 15
0.5
 25
0.5
 16
0.0
 26
0.0
 36
1.0
 17
0.0
 27
0.0
 37
0.0
 40
326.6999999999998
 41
1.60267857142857
 42
50.0
 43
0.0
 44
0.0
 50
0.0
 51
0.0
 71
     0
 72
   100
 73
     1
 74
     3
 75
     0
 76
     0
 77
     0
 78
     0
281
     0
 65
     1
110
0.0
120
0.0
130
0.0
111
1.0
121
0.0
131
0.0
112
0.0
122
1.0
132
0.0
 79
     0
146
0.0
  0
ENDTAB
  0
TABLE
  2
LTYPE
  5
5
330
0
100
AcDbSymbolTable
 70
     8
  0
LTYPE
  5
14
330
5
100
AcDbSymbolTableRecord
100
AcDbLinetypeTableRecord
  2
ByBlock
 70
     0
  3

 72
    65
 73
     0
 40
0.0
  0
LTYPE
  5
15
330
5
100
AcDbSymbolTableRecord
100
AcDbLinetypeTableRecord
  2
ByLayer
 70
     0
  3

 72
    65
 73
     0
 40
0.0
  0
LTYPE
  5
16
330
5
100
AcDbSymbolTableRecord
100
AcDbLinetypeTableRecord
  2
Continuous
 70
     0
  3
Solid line
 72
    65
 73
     0
 40
0.0
  0
LTYPE
  5
3F
330
5
100
AcDbSymbolTableRecord
100
AcDbLinetypeTableRecord
  2
DASHED
 70
     0
  3
Dashed
 72
    65
 73
     2
 40
15.0
 49
7.0
 74
     0
 49
-8.0
 74
     0
  0
LTYPE
  5
40
330
5
100
AcDbSymbolTableRecord
100
AcDbLinetypeTableRecord
  2
DOTTED
 70
     0
  3
Dotted
 72
    65
 73
     2
 40
1.0
 49
0.0
 74
     0
 49
-1.0
 74
     0
  0
LTYPE
  5
41
330
5
100
AcDbSymbolTableRecord
100
AcDbLinetypeTableRecord
  2
DOT_CENTER
 70
     0
  3
Dot_Center
 72
    65
 73
     4
 40
14.0
 49
12.0
 74
     0
 49
-1.0
 74
     0
 49
0.0
 74
     0
 49
-1.0
 74
     0
  0
LTYPE
  5
42
330
5
100
AcDbSymbolTableRecord
100
AcDbLinetypeTableRecord
  2
LONG_DASHED
 70
     0
  3
Long_Dashed
 72
    65
 73
     2
 40
15.0
 49
10.0
 74
     0
 49
-5.0
 74
     0
  0
LTYPE
  5
43
330
5
100
AcDbSymbolTableRecord
100
AcDbLinetypeTableRecord
  2
DASH_CENTER
 70
     0
  3
Dash_Center
 72
    65
 73
     4
 40
14.0
 49
11.0
 74
     0
 49
-1.0
 74
     0
 49
1.0
 74
     0
 49
-1.0
 74
     0
  0
LTYPE
  5
44
330
5
100
AcDbSymbolTableRecord
100
AcDbLinetypeTableRecord
  2
PHANTOM
 70
     0
  3
Phantom
 72
    65
 73
     6
 40
13.0
 49
10.0
 74
     0
 49
-1.0
 74
     0
 49
0.0
 74
     0
 49
-1.0
 74
     0
 49
0.0
 74
     0
 49
-1.0
 74
     0
  0
LTYPE
  5
45
330
5
100
AcDbSymbolTableRecord
100
AcDbLinetypeTableRecord
  2
CENTER_DASH_DASH
 70
     0
  3
Center_Dash_Dash
 72
    65
 73
     6
 40
14.0
 49
9.0
 74
     0
 49
-1.0
 74
     0
 49
1.0
 74
     0
 49
-1.0
 74
     0
 49
1.0
 74
     0
 49
-1.0
 74
     0
  0
ENDTAB
  0
TABLE
  2
LAYER
  5
2
330
0
100
AcDbSymbolTable
 70
     2
  0
LAYER
  5
10
330
2
100
AcDbSymbolTableRecord
100
AcDbLayerTableRecord
  2
0
 70
     0
 62
     7
  6
Continuous
370
    -3
390
F
  0
LAYER
  5
46
330
2
100
AcDbSymbolTableRecord
100
AcDbLayerTableRecord
  2
1
 70
     0
 62
     7
  6
Continuous
370
    -3
390
F
  0
ENDTAB
  0
TABLE
  2
STYLE
  5
3
330
0
100
AcDbSymbolTable
 70
     5
  0
STYLE
  5
11
330
3
100
AcDbSymbolTableRecord
100
AcDbTextStyleTableRecord
  2
Standard
 70
     0
 40
0.0
 41
1.0
 50
0.0
 71
     0
 42
0.2
  3
txt
  4

  0
STYLE
  5
8C
330
3
100
AcDbSymbolTableRecord
100
AcDbTextStyleTableRecord
  2
CONVERTER_11
 70
     0
 40
0.0
 41
0.9
 50
0.0
 71
     0
 42
0.2
  3
txt.shx
  4

  0
STYLE
  5
1E3
330
3
100
AcDbSymbolTableRecord
100
AcDbTextStyleTableRecord
  2
CONVERTER_12
 70
     0
 40
0.0
 41
0.81
 50
0.0
 71
     0
 42
0.2
  3
txt.shx
  4

  0
STYLE
  5
1EB
330
3
100
AcDbSymbolTableRecord
100
AcDbTextStyleTableRecord
  2
CONVERTER_13
 70
     0
 40
0.0
 41
0.72
 50
0.0
 71
     0
 42
0.2
  3
txt.shx
  4

  0
STYLE
  5
1EE
330
3
100
AcDbSymbolTableRecord
100
AcDbTextStyleTableRecord
  2
CONVERTER_14
 70
     0
 40
0.0
 41
0.855
 50
0.0
 71
     0
 42
0.2
  3
txt.shx
  4

  0
ENDTAB
  0
TABLE
  2
VIEW
  5
6
330
0
100
AcDbSymbolTable
 70
     0
  0
ENDTAB
  0
TABLE
  2
UCS
  5
7
330
0
100
AcDbSymbolTable
 70
     0
  0
ENDTAB
  0
TABLE
  2
APPID
  5
9
330
0
100
AcDbSymbolTable
 70
     1
  0
APPID
  5
12
330
9
100
AcDbSymbolTableRecord
100
AcDbRegAppTableRecord
  2
ACAD
 70
     0
  0
ENDTAB
  0
TABLE
  2
DIMSTYLE
  5
A
330
0
100
AcDbSymbolTable
 70
     4
100
AcDbDimStyleTable
  0
DIMSTYLE
105
27
330
A
100
AcDbSymbolTableRecord
100
AcDbDimStyleTableRecord
  2
Standard
 70
     0
178
     0
340
11
  0
DIMSTYLE
105
AE
102
{ACAD_REACTORS
330
AF
102
}
330
A
100
AcDbSymbolTableRecord
100
AcDbDimStyleTableRecord
  2
ME10_DIM_10
 70
     0
 41
7.0
 42
0.0
 44
4.0
 73
     0
 74
     0
 77
     1
 78
     8
140
7.0
147
4.0
172
     1
173
     1
174
     1
175
     1
176
     2
177
     2
178
     3
340
8C
  0
DIMSTYLE
105
C7
102
{ACAD_REACTORS
330
C8
102
}
330
A
100
AcDbSymbolTableRecord
100
AcDbDimStyleTableRecord
  2
ME10_DIM_11
 70
     0
 41
7.0
 42
0.0
 44
4.0
 73
     0
 74
     0
 77
     1
 78
     8
140
7.0
147
4.0
172
     1
173
     1
174
     1
175
     1
176
     2
177
     2
178
     3
340
8C
  0
DIMSTYLE
105
D4
102
{ACAD_REACTORS
330
D5
102
}
330
A
100
AcDbSymbolTableRecord
100
AcDbDimStyleTableRecord
  2
ME10_DIM_12
 70
     0
 41
7.0
 42
0.0
 44
4.0
 73
     0
 74
     0
 77
     1
 78
     8
140
7.0
147
4.0
172
     1
173
     1
174
     1
175
     1
176
     2
177
     2
178
     3
340
8C
  0
ENDTAB
  0
TABLE
  2
BLOCK_RECORD
  5
1
330
0
100
AcDbSymbolTable
 70
    19
  0
BLOCK_RECORD
  5
1F
330
1
100
AcDbSymbolTableRecord
100
AcDbBlockTableRecord
  2
*Model_Space
340
22
  0
BLOCK_RECORD
  5
1B
330
1
100
AcDbSymbolTableRecord
100
AcDbBlockTableRecord
  2
*Paper_Space
340
1E
  0
BLOCK_RECORD
  5
23
330
1
100
AcDbSymbolTableRecord
100
AcDbBlockTableRecord
  2
*Paper_Space0
340
26
  0
BLOCK_RECORD
  5
47
330
1
100
AcDbSymbolTableRecord
100
AcDbBlockTableRecord
  2
3240286_CD_COVER_40-select__1
340
0
102
{BLKREFS
331
4B
102
}
  0
BLOCK_RECORD
  5
4A
330
1
100
AcDbSymbolTableRecord
100
AcDbBlockTableRecord
  2
Allg1
340
0
102
{BLKREFS
331
7C
102
}
  0
BLOCK_RECORD
  5
4E
330
1
100
AcDbSymbolTableRecord
100
AcDbBlockTableRecord
  2
3240286_CD_COVER_40-select__2
340
0
102
{BLKREFS
331
52
102
}
  0
BLOCK_RECORD
  5
51
330
1
100
AcDbSymbolTableRecord
100
AcDbBlockTableRecord
  2
Drfsicht1
340
0
102
{BLKREFS
331
7D
102
}
  0
BLOCK_RECORD
  5
55
330
1
100
AcDbSymbolTableRecord
100
AcDbBlockTableRecord
  2
3240286_CD_COVER_40-select__3
340
0
102
{BLKREFS
331
59
102
}
  0
BLOCK_RECORD
  5
58
330
1
100
AcDbSymbolTableRecord
100
AcDbBlockTableRecord
  2
Rckans1
340
0
102
{BLKREFS
331
7E
102
}
  0
BLOCK_RECORD
  5
5C
330
1
100
AcDbSymbolTableRecord
100
AcDbBlockTableRecord
  2
3240286_CD_COVER_40-select__4
340
0
102
{BLKREFS
331
60
102
}
  0
BLOCK_RECORD
  5
5F
330
1
100
AcDbSymbolTableRecord
100
AcDbBlockTableRecord
  2
SA_Links1
340
0
102
{BLKREFS
331
7F
102
}
  0
BLOCK_RECORD
  5
63
330
1
100
AcDbSymbolTableRecord
100
AcDbBlockTableRecord
  2
3240286_CD_COVER_40-select__5
340
0
102
{BLKREFS
331
67
102
}
  0
BLOCK_RECORD
  5
66
330
1
100
AcDbSymbolTableRecord
100
AcDbBlockTableRecord
  2
SA_Rechts1
340
0
102
{BLKREFS
331
80
102
}
  0
BLOCK_RECORD
  5
6A
330
1
100
AcDbSymbolTableRecord
100
AcDbBlockTableRecord
  2
3240286_CD_COVER_40-select__6
340
0
102
{BLKREFS
331
6E
102
}
  0
BLOCK_RECORD
  5
6D
330
1
100
AcDbSymbolTableRecord
100
AcDbBlockTableRecord
  2
Vordans1
340
0
102
{BLKREFS
331
81
102
}
  0
BLOCK_RECORD
  5
71
330
1
100
AcDbSymbolTableRecord
100
AcDbBlockTableRecord
  2
_rahmen
340
0
102
{BLKREFS
331
78
102
}
  0
BLOCK_RECORD
  5
74
330
1
100
AcDbSymbolTableRecord
100
AcDbBlockTableRecord
  2
_punkt
340
0
102
{BLKREFS
331
79
102
}
  0
BLOCK_RECORD
  5
77
330
1
100
AcDbSymbolTableRecord
100
AcDbBlockTableRecord
  2
A3I_CS
340
0
102
{BLKREFS
331
82
102
}
  0
BLOCK_RECORD
  5
A5
330
1
100
AcDbSymbolTableRecord
100
AcDbBlockTableRecord
  2
*D16
340
0
  0
BLOCK_RECORD
  5
BE
330
1
100
AcDbSymbolTableRecord
100
AcDbBlockTableRecord
  2
*D17
340
0
  0
BLOCK_RECORD
  5
C9
330
1
100
AcDbSymbolTableRecord
100
AcDbBlockTableRecord
  2
*D18
340
0
  0
ENDTAB
  0
ENDSEC
  0
SECTION
  2
BLOCKS
  0
BLOCK
  5
20
330
1F
100
AcDbEntity
  8
0
100
AcDbBlockBegin
  2
*Model_Space
 70
     0
 10
0.0
 20
0.0
 30
0.0
  3
*Model_Space
  1

  0
ENDBLK
  5
21
330
1F
100
AcDbEntity
  8
0
100
AcDbBlockEnd
  0
BLOCK
  5
1C
330
1B
100
AcDbEntity
 67
     1
  8
0
100
AcDbBlockBegin
  2
*Paper_Space
 70
     0
 10
0.0
 20
0.0
 30
0.0
  3
*Paper_Space
  1

  0
ENDBLK
  5
1D
330
1B
100
AcDbEntity
 67
     1
  8
0
100
AcDbBlockEnd
  0
BLOCK
  5
24
330
23
100
AcDbEntity
  8
0
100
AcDbBlockBegin
  2
*Paper_Space0
 70
     0
 10
0.0
 20
0.0
 30
0.0
  3
*Paper_Space0
  1

  0
ENDBLK
  5
25
330
23
100
AcDbEntity
  8
0
100
AcDbBlockEnd
  0
BLOCK
  5
48
330
47
100
AcDbEntity
  8
0
100
AcDbBlockBegin
  2
3240286_CD_COVER_40-select__1
 70
     0
 10
-1965.301269905818
 20
-2306.296459690348
 30
0.0
  3
3240286_CD_COVER_40-select__1
  1

  0
LINE
  5
83
330
47
100
AcDbEntity
  8
0
  6
Continuous
 62
     7
100
AcDbLine
 10
-1965.301269905818
 20
-2268.306078633581
 30
0.0
 11
-1965.301269905818
 21
-2281.296459690348
 31
0.0
  0
LINE
  5
84
330
47
100
AcDbEntity
  8
0
  6
Continuous
 62
     7
100
AcDbLine
 10
-1878.698729527375
 20
-2293.306078633581
 30
0.0
 11
-1965.301269905818
 21
-2268.306078633581
 31
0.0
  0
LINE
  5
85
330
47
100
AcDbEntity
  8
0
  6
Continuous
 62
     7
100
AcDbLine
 10
-1965.301269905818
 20
-2268.306078633581
 30
0.0
 11
-1865.301269905818
 21
-2181.703538255138
 31
0.0
  0
LINE
  5
86
330
47
100
AcDbEntity
  8
0
  6
Continuous
 62
     7
100
AcDbLine
 10
-1778.698729527375
 20
-2219.693919311904
 30
0.0
 11
-1778.698729527375
 21
-2206.703538255138
 31
0.0
  0
LINE
  5
87
330
47
100
AcDbEntity
  8
0
  6
Continuous
 62
     7
100
AcDbLine
 10
-1878.698729527375
 20
-2306.296459690348
 30
0.0
 11
-1878.698729527375
 21
-2293.306078633581
 31
0.0
  0
LINE
  5
88
330
47
100
AcDbEntity
  8
0
  6
Continuous
 62
     7
100
AcDbLine
 10
-1878.698729527375
 20
-2293.306078633581
 30
0.0
 11
-1778.698729527375
 21
-2206.703538255138
 31
0.0
  0
LINE
  5
89
330
47
100
AcDbEntity
  8
0
  6
Continuous
 62
     7
100
AcDbLine
 10
-1965.301269905818
 20
-2281.296459690348
 30
0.0
 11
-1878.698729527375
 21
-2306.296459690348
 31
0.0
  0
LINE
  5
8A
330
47
100
AcDbEntity
  8
0
  6
Continuous
 62
     7
100
AcDbLine
 10
-1778.698729527375
 20
-2206.703538255138
 30
0.0
 11
-1865.301269905818
 21
-2181.703538255138
 31
0.0
  0
LINE
  5
8B
330
47
100
AcDbEntity
  8
0
  6
Continuous
 62
     7
100
AcDbLine
 10
-1878.698729527375
 20
-2306.296459690348
 30
0.0
 11
-1778.698729527375
 21
-2219.693919311904
 31
0.0
  0
ENDBLK
  5
49
330
47
100
AcDbEntity
  8
0
100
AcDbBlockEnd
  0
BLOCK
  5
4C
330
4A
100
AcDbEntity
  8
0
100
AcDbBlockBegin
  2
Allg1
 70
     0
 10
-1904.475953
 20
-2223.799682
 30
0.0
  3
Allg1
  1

  0
INSERT
  5
4B
330
4A
100
AcDbEntity
  8
0
100
AcDbBlockReference
  2
3240286_CD_COVER_40-select__1
 10
-1965.301269905818
 20
-2306.296459690348
 30
0.0
  0
MTEXT
  5
8D
330
4A
100
AcDbEntity
  8
1
 62
     6
100
AcDbMText
 10
-1872.0
 20
-2317.746778884341
 30
0.0
 40
10.0
 41
0.0
 71
     2
 72
     1
  1
 
  7
CONVERTER_11
 73
     1
 44
1.32052821128451
  0
ENDBLK
  5
4D
330
4A
100
AcDbEntity
  8
0
100
AcDbBlockEnd
  0
BLOCK
  5
4F
330
4E
100
AcDbEntity
  8
0
100
AcDbBlockBegin
  2
3240286_CD_COVER_40-select__2
 70
     0
 10
-2218.499999259278
 20
-2262.500001999995
 30
0.0
  3
3240286_CD_COVER_40-select__2
  1

  0
LINE
  5
8E
330
4E
100
AcDbEntity
  8
0
  6
Continuous
 62
     7
100
AcDbLine
 10
-2218.499999259277
 20
-2171.240638827143
 30
0.0
 11
-2218.499999259277
 21
-2097.500001999995
 31
0.0
  0
LINE
  5
8F
330
4E
100
AcDbEntity
  8
0
  6
Continuous
 62
     7
100
AcDbLine
 10
-2118.499999259277
 20
-2097.500001999995
 30
0.0
 11
-2218.499999259277
 21
-2097.500001999995
 31
0.0
  0
LINE
  5
90
330
4E
100
AcDbEntity
  8
0
  6
Continuous
 62
     7
100
AcDbLine
 10
-2118.499999259277
 20
-2171.240637839513
 30
0.0
 11
-2118.499999259277
 21
-2097.500001999995
 31
0.0
  0
LINE
  5
91
330
4E
100
AcDbEntity
  8
0
  6
Continuous
 62
     7
100
AcDbLine
 10
-2218.499999259278
 20
-2262.500001999995
 30
0.0
 11
-2218.499999259278
 21
-2181.240638827143
 31
0.0
  0
LINE
  5
92
330
4E
100
AcDbEntity
  8
0
  6
Continuous
 62
     7
100
AcDbLine
 10
-2118.499999259278
 20
-2262.500001999995
 30
0.0
 11
-2218.499999259278
 21
-2262.500001999995
 31
0.0
  0
LINE
  5
93
330
4E
100
AcDbEntity
  8
0
  6
Continuous
 62
     7
100
AcDbLine
 10
-2118.499999259278
 20
-2262.500001999995
 30
0.0
 11
-2118.499999259278
 21
-2181.240637839514
 31
0.0
  0
SPLINE
  5
94
330
4E
100
AcDbEntity
  8
0
  6
Continuous
 62
     2
100
AcDbSpline
210
0.0
220
0.0
230
1.0
 70
     8
 71
     3
 72
   110
 73
   106
 74
   104
 42
0.000000001
 43
0.0000000001
 44
0.00000001
 40
0.0
 40
0.0
 40
0.0
 40
0.0
 40
0.3125004079900577
 40
0.6516429851558907
 40
1.853493410337713
 40
2.853493401160911
 40
4.05534382773073
 40
5.257194253166818
 40
6.257194252794835
 40
7.459044677955973
 40
8.660895103124552
 40
9.660895102849885
 40
10.86274552823666
 40
12.06459595354233
 40
13.06459595337635
 40
14.26644637855489
 40
15.4682968037376
 40
16.46829680358981
 40
17.67014722888035
 40
18.87199765414138
 40
19.87199765403269
 40
21.07384807921767
 40
22.27569850440592
 40
23.27569850430315
 40
24.47754892955762
 40
25.6793993547962
 40
26.67939935471389
 40
27.88124977990265
 40
29.08310020509481
 40
30.08310020501387
 40
31.28495063024904
 40
32.48680105547425
 40
33.48680105540603
 40
34.68865148059857
 40
35.89050190579376
 40
36.89050190572464
 40
38.09235233094834
 40
39.2942027561651
 40
40.29420275610507
 40
41.49605318130039
 40
42.69790360649873
 40
43.69790360643689
 40
44.89975403165251
 40
46.10160445686259
 40
47.10160445680756
 40
48.30345488200604
 40
49.50530530720754
 40
50.50530530714933
 40
51.70715573235928
 40
52.90900615756493
 40
53.90900615751173
 40
55.11085658271335
 40
56.31270700791888
 40
57.31270700786158
 40
58.51455743306712
 40
59.71640785826874
 40
60.71640785821553
 40
61.9182582834212
 40
63.12010870863114
 40
64.12010870857293
 40
65.32195913377443
 40
66.5238095589729
 40
67.52380955891788
 40
68.72565998412794
 40
69.92751040934357
 40
70.92751040928172
 40
72.12936083448007
 40
73.33121125967538
 40
74.33121125961536
 40
75.53306168483186
 40
76.73491211005556
 40
77.73491210998644
 40
78.93676253518137
 40
80.13861296037366
 40
81.13861296030545
 40
82.34046338553091
 40
83.54231381076646
 40
84.5423138106846
 40
85.74416423587715
 40
86.9460146610659
 40
87.9460146609836
 40
89.14786508622217
 40
90.34971551147702
 40
91.34971551137333
 40
92.55156593656197
 40
93.75341636174694
 40
94.7534163616378
 40
95.95526678689922
 40
97.15711721218976
 40
98.15711721204197
 40
99.35896763722467
 40
100.5608180624032
 40
101.5608180622368
 40
102.7626684875428
 40
103.9645189129296
 40
104.9645189126545
 40
106.1663693378234
 40
107.3682197629849
 40
108.3682197626125
 40
109.5700701880488
 40
110.7719206146184
 40
111.7719206054407
 40
112.9737710306221
 40
113.3129126446571
 40
113.6254122378531
 40
113.6254122378531
 40
113.6254122378531
 40
113.6254122378531
 10
-2118.499999259277
 20
-2171.240637839513
 30
0.0
 10
-2118.585068694144
 20
-2171.30119096557
 30
0.0
 10
-2118.762460152991
 20
-2171.427459652224
 30
0.0
 10
-2119.202609784143
 20
-2171.858849741489
 30
0.0
 10
-2119.882881479137
 20
-2172.424569218868
 30
0.0
 10
-2121.12140097918
 20
-2172.427246999272
 30
0.0
 10
-2122.000541220629
 20
-2171.657124165833
 30
0.0
 10
-2122.876615929716
 20
-2170.888025651166
 30
0.0
 10
-2124.1233023234
 20
-2170.887974536422
 30
0.0
 10
-2124.999989668044
 20
-2171.657308461999
 30
0.0
 10
-2125.876735529006
 20
-2172.426622834893
 30
0.0
 10
-2127.123266029453
 20
-2172.426623810479
 30
0.0
 10
-2128.000000196362
 20
-2171.657304944105
 30
0.0
 10
-2128.876733246235
 20
-2170.887986450819
 30
0.0
 10
-2130.123266722488
 20
-2170.887986432146
 30
0.0
 10
-2130.999999995453
 20
-2171.657305011225
 30
0.0
 10
-2131.876733289749
 20
-2172.426623583176
 30
0.0
 10
-2133.123266709199
 20
-2172.426623583481
 30
0.0
 10
-2133.999999999344
 20
-2171.657305009959
 30
0.0
 10
-2134.876733289063
 20
-2170.887986436521
 30
0.0
 10
-2136.123266709612
 20
-2170.887986436485
 30
0.0
 10
-2136.999999999333
 20
-2171.657305009975
 30
0.0
 10
-2137.876733289067
 20
-2172.42662358346
 30
0.0
 10
-2139.123266709594
 20
-2172.426623583429
 30
0.0
 10
-2139.999999999394
 20
-2171.657305009985
 30
0.0
 10
-2140.876733289185
 20
-2170.887986436513
 30
0.0
 10
-2142.123266709719
 20
-2170.887986436493
 30
0.0
 10
-2142.999999999458
 20
-2171.657305009982
 30
0.0
 10
-2143.876733289199
 20
-2172.426623583468
 30
0.0
 10
-2145.123266709734
 20
-2172.426623583448
 30
0.0
 10
-2145.99999999952
 20
-2171.657305009988
 30
0.0
 10
-2146.8767332893
 20
-2170.887986436513
 30
0.0
 10
-2148.123266709839
 20
-2170.887986436498
 30
0.0
 10
-2148.999999999584
 20
-2171.657305009988
 30
0.0
 10
-2149.876733289331
 20
-2172.426623583474
 30
0.0
 10
-2151.12326670987
 20
-2172.426623583459
 30
0.0
 10
-2151.999999999648
 20
-2171.657305009993
 30
0.0
 10
-2152.876733289419
 20
-2170.887986436512
 30
0.0
 10
-2154.123266709961
 20
-2170.887986436504
 30
0.0
 10
-2154.999999999712
 20
-2171.657305009993
 30
0.0
 10
-2155.876733289464
 20
-2172.426623583477
 30
0.0
 10
-2157.123266710004
 20
-2172.426623583469
 30
0.0
 10
-2157.999999999775
 20
-2171.657305009996
 30
0.0
 10
-2158.876733289542
 20
-2170.887986436514
 30
0.0
 10
-2160.123266710085
 20
-2170.887986436508
 30
0.0
 10
-2160.999999999839
 20
-2171.657305009995
 30
0.0
 10
-2161.876733289596
 20
-2172.426623583478
 30
0.0
 10
-2163.123266710138
 20
-2172.426623583475
 30
0.0
 10
-2163.999999999904
 20
-2171.657305009997
 30
0.0
 10
-2164.876733289665
 20
-2170.887986436512
 30
0.0
 10
-2166.12326671021
 20
-2170.88798643651
 30
0.0
 10
-2166.999999999968
 20
-2171.657305009997
 30
0.0
 10
-2167.876733289729
 20
-2172.426623583478
 30
0.0
 10
-2169.123266710271
 20
-2172.426623583478
 30
0.0
 10
-2170.000000000032
 20
-2171.657305009997
 30
0.0
 10
-2170.87673328979
 20
-2170.88798643651
 30
0.0
 10
-2172.123266710334
 20
-2170.887986436512
 30
0.0
 10
-2173.000000000097
 20
-2171.657305009997
 30
0.0
 10
-2173.876733289862
 20
-2172.426623583475
 30
0.0
 10
-2175.123266710403
 20
-2172.426623583478
 30
0.0
 10
-2176.000000000161
 20
-2171.657305009996
 30
0.0
 10
-2176.876733289914
 20
-2170.887986436507
 30
0.0
 10
-2178.123266710459
 20
-2170.887986436513
 30
0.0
 10
-2179.000000000225
 20
-2171.657305009996
 30
0.0
 10
-2179.876733289996
 20
-2172.426623583468
 30
0.0
 10
-2181.123266710536
 20
-2172.426623583477
 30
0.0
 10
-2182.000000000288
 20
-2171.657305009992
 30
0.0
 10
-2182.876733290039
 20
-2170.887986436504
 30
0.0
 10
-2184.123266710581
 20
-2170.887986436514
 30
0.0
 10
-2185.000000000353
 20
-2171.657305009992
 30
0.0
 10
-2185.87673329013
 20
-2172.426623583459
 30
0.0
 10
-2187.12326671067
 20
-2172.426623583473
 30
0.0
 10
-2188.000000000416
 20
-2171.657305009987
 30
0.0
 10
-2188.876733290161
 20
-2170.887986436499
 30
0.0
 10
-2190.123266710701
 20
-2170.887986436512
 30
0.0
 10
-2191.00000000048
 20
-2171.657305009989
 30
0.0
 10
-2191.876733290267
 20
-2172.426623583447
 30
0.0
 10
-2193.123266710801
 20
-2172.426623583468
 30
0.0
 10
-2194.000000000543
 20
-2171.657305009982
 30
0.0
 10
-2194.87673329028
 20
-2170.887986436493
 30
0.0
 10
-2196.123266710816
 20
-2170.887986436513
 30
0.0
 10
-2197.000000000606
 20
-2171.657305009985
 30
0.0
 10
-2197.876733290406
 20
-2172.426623583429
 30
0.0
 10
-2199.123266710933
 20
-2172.42662358346
 30
0.0
 10
-2200.000000000667
 20
-2171.657305009975
 30
0.0
 10
-2200.876733290389
 20
-2170.887986436485
 30
0.0
 10
-2202.123266710937
 20
-2170.887986436522
 30
0.0
 10
-2203.000000000657
 20
-2171.657305009959
 30
0.0
 10
-2203.876733290802
 20
-2172.426623583481
 30
0.0
 10
-2205.12326671025
 20
-2172.426623583177
 30
0.0
 10
-2206.000000004547
 20
-2171.657305011224
 30
0.0
 10
-2206.876733277513
 20
-2170.887986432146
 30
0.0
 10
-2208.123266753764
 20
-2170.887986450819
 30
0.0
 10
-2208.999999803638
 20
-2171.657304944105
 30
0.0
 10
-2209.876733970548
 20
-2172.42662381048
 30
0.0
 10
-2211.123264470992
 20
-2172.42662283489
 30
0.0
 10
-2212.00001033197
 20
-2171.657308462007
 30
0.0
 10
-2212.876697676553
 20
-2170.887974536397
 30
0.0
 10
-2214.123384070445
 20
-2170.888025651244
 30
0.0
 10
-2214.99945877863
 20
-2171.657124165472
 30
0.0
 10
-2215.878599023375
 20
-2172.427247000517
 30
0.0
 10
-2217.117118512445
 20
-2172.424569214764
 30
0.0
 10
-2217.797389984851
 20
-2171.858849969007
 30
0.0
 10
-2218.237539177808
 20
-2171.427460280367
 30
0.0
 10
-2218.414930080718
 20
-2171.301191841636
 30
0.0
 10
-2218.499999259277
 20
-2171.240638827143
 30
0.0
 11
-2118.499999259277
 21
-2171.240637839513
 31
0.0
 11
-2118.749999629638
 21
-2171.428138024694
 31
0.0
 11
-2119.0
 21
-2171.657304999995
 31
0.0
 11
-2120.0
 21
-2172.323971666662
 31
0.0
 11
-2121.0
 21
-2172.323971666662
 31
0.0
 11
-2122.0
 21
-2171.657304999995
 31
0.0
 11
-2123.0
 21
-2170.990638333329
 31
0.0
 11
-2124.0
 21
-2170.990638333329
 31
0.0
 11
-2125.0
 21
-2171.657304999995
 31
0.0
 11
-2126.0
 21
-2172.323971666662
 31
0.0
 11
-2127.0
 21
-2172.323971666662
 31
0.0
 11
-2128.0
 21
-2171.657304999995
 31
0.0
 11
-2129.0
 21
-2170.990638333328
 31
0.0
 11
-2130.0
 21
-2170.990638333329
 31
0.0
 11
-2131.0
 21
-2171.657304999995
 31
0.0
 11
-2132.0
 21
-2172.323971666662
 31
0.0
 11
-2133.0
 21
-2172.323971666662
 31
0.0
 11
-2134.0
 21
-2171.657304999995
 31
0.0
 11
-2135.0
 21
-2170.990638333328
 31
0.0
 11
-2136.0
 21
-2170.990638333329
 31
0.0
 11
-2137.0
 21
-2171.657304999995
 31
0.0
 11
-2138.0
 21
-2172.323971666662
 31
0.0
 11
-2139.0
 21
-2172.323971666662
 31
0.0
 11
-2140.0
 21
-2171.657304999995
 31
0.0
 11
-2141.0
 21
-2170.990638333328
 31
0.0
 11
-2142.0
 21
-2170.990638333329
 31
0.0
 11
-2143.0
 21
-2171.657304999995
 31
0.0
 11
-2144.0
 21
-2172.323971666662
 31
0.0
 11
-2145.0
 21
-2172.323971666662
 31
0.0
 11
-2146.0
 21
-2171.657304999995
 31
0.0
 11
-2147.0
 21
-2170.990638333329
 31
0.0
 11
-2148.0
 21
-2170.990638333328
 31
0.0
 11
-2149.0
 21
-2171.657304999995
 31
0.0
 11
-2150.0
 21
-2172.323971666662
 31
0.0
 11
-2151.0
 21
-2172.323971666662
 31
0.0
 11
-2152.0
 21
-2171.657304999995
 31
0.0
 11
-2153.0
 21
-2170.990638333328
 31
0.0
 11
-2154.0
 21
-2170.990638333328
 31
0.0
 11
-2155.0
 21
-2171.657304999995
 31
0.0
 11
-2156.0
 21
-2172.323971666662
 31
0.0
 11
-2157.0
 21
-2172.323971666662
 31
0.0
 11
-2158.0
 21
-2171.657304999995
 31
0.0
 11
-2159.0
 21
-2170.990638333328
 31
0.0
 11
-2160.0
 21
-2170.990638333328
 31
0.0
 11
-2161.0
 21
-2171.657304999995
 31
0.0
 11
-2162.0
 21
-2172.323971666662
 31
0.0
 11
-2163.0
 21
-2172.323971666662
 31
0.0
 11
-2164.0
 21
-2171.657304999995
 31
0.0
 11
-2165.0
 21
-2170.990638333328
 31
0.0
 11
-2166.0
 21
-2170.990638333328
 31
0.0
 11
-2167.0
 21
-2171.657304999995
 31
0.0
 11
-2168.0
 21
-2172.323971666662
 31
0.0
 11
-2169.0
 21
-2172.323971666662
 31
0.0
 11
-2170.0
 21
-2171.657304999995
 31
0.0
 11
-2171.0
 21
-2170.990638333328
 31
0.0
 11
-2172.0
 21
-2170.990638333328
 31
0.0
 11
-2173.0
 21
-2171.657304999995
 31
0.0
 11
-2174.0
 21
-2172.323971666662
 31
0.0
 11
-2175.0
 21
-2172.323971666662
 31
0.0
 11
-2176.0
 21
-2171.657304999995
 31
0.0
 11
-2177.0
 21
-2170.990638333328
 31
0.0
 11
-2178.0
 21
-2170.990638333328
 31
0.0
 11
-2179.0
 21
-2171.657304999995
 31
0.0
 11
-2180.0
 21
-2172.323971666662
 31
0.0
 11
-2181.0
 21
-2172.323971666662
 31
0.0
 11
-2182.0
 21
-2171.657304999995
 31
0.0
 11
-2183.0
 21
-2170.990638333328
 31
0.0
 11
-2184.0
 21
-2170.990638333329
 31
0.0
 11
-2185.0
 21
-2171.657304999995
 31
0.0
 11
-2186.0
 21
-2172.323971666662
 31
0.0
 11
-2187.0
 21
-2172.323971666662
 31
0.0
 11
-2188.0
 21
-2171.657304999995
 31
0.0
 11
-2189.0
 21
-2170.990638333329
 31
0.0
 11
-2190.0
 21
-2170.990638333328
 31
0.0
 11
-2191.0
 21
-2171.657304999995
 31
0.0
 11
-2192.0
 21
-2172.323971666662
 31
0.0
 11
-2193.0
 21
-2172.323971666662
 31
0.0
 11
-2194.0
 21
-2171.657304999995
 31
0.0
 11
-2195.0
 21
-2170.990638333329
 31
0.0
 11
-2196.0
 21
-2170.990638333328
 31
0.0
 11
-2197.0
 21
-2171.657304999995
 31
0.0
 11
-2198.0
 21
-2172.323971666662
 31
0.0
 11
-2199.0
 21
-2172.323971666662
 31
0.0
 11
-2200.0
 21
-2171.657304999995
 31
0.0
 11
-2201.0
 21
-2170.990638333329
 31
0.0
 11
-2202.0
 21
-2170.990638333328
 31
0.0
 11
-2203.0
 21
-2171.657304999995
 31
0.0
 11
-2204.0
 21
-2172.323971666662
 31
0.0
 11
-2205.0
 21
-2172.323971666662
 31
0.0
 11
-2206.0
 21
-2171.657304999995
 31
0.0
 11
-2207.0
 21
-2170.990638333329
 31
0.0
 11
-2208.0
 21
-2170.990638333328
 31
0.0
 11
-2209.0
 21
-2171.657304999995
 31
0.0
 11
-2210.0
 21
-2172.323971666662
 31
0.0
 11
-2211.0
 21
-2172.323971666662
 31
0.0
 11
-2212.0
 21
-2171.657304999995
 31
0.0
 11
-2213.0
 21
-2170.990638333329
 31
0.0
 11
-2214.0
 21
-2170.990638333328
 31
0.0
 11
-2215.0
 21
-2171.657304999995
 31
0.0
 11
-2216.0
 21
-2172.323971666662
 31
0.0
 11
-2217.0
 21
-2172.323971666662
 31
0.0
 11
-2217.999999999999
 21
-2171.657304999995
 31
0.0
 11
-2218.249999629638
 21
-2171.428138641963
 31
0.0
 11
-2218.499999259277
 21
-2171.240638827143
 31
0.0
  0
SPLINE
  5
95
330
4E
100
AcDbEntity
  8
0
  6
Continuous
 62
     2
100
AcDbSpline
210
0.0
220
0.0
230
1.0
 70
     8
 71
     3
 72
   110
 73
   106
 74
   104
 42
0.000000001
 43
0.0000000001
 44
0.00000001
 40
0.0
 40
0.0
 40
0.0
 40
0.0
 40
0.3124995931956684
 40
0.651641207230609
 40
1.853491632412557
 40
2.853491623235301
 40
4.055342049804867
 40
5.257192475240956
 40
6.257192474868518
 40
7.459042900030034
 40
8.660893325198865
 40
9.660893324924198
 40
10.86274375031135
 40
12.06459417561639
 40
13.06459417545041
 40
14.26644460062895
 40
15.46829502581191
 40
16.46829502566412
 40
17.67014545095504
 40
18.87199587621544
 40
19.87199587610675
 40
21.07384630129173
 40
22.27569672648023
 40
23.27569672637701
 40
24.47754715163223
 40
25.67939757687018
 40
26.67939757678787
 40
27.88124800197663
 40
29.08309842716879
 40
30.08309842708739
 40
31.28494885232294
 40
32.48679927754815
 40
33.48679927747994
 40
34.68864970267223
 40
35.89050012786717
 40
36.8905001277985
 40
38.09235055302182
 40
39.29420097823859
 40
40.29420097817856
 40
41.49605140337362
 40
42.69790182857171
 40
43.69790182850986
 40
44.89975225372523
 40
46.10160267893568
 40
47.10160267888021
 40
48.30345310407842
 40
49.50530352928004
 40
50.50530352922138
 40
51.70715395443108
 40
52.90900437963712
 40
53.90900437958346
 40
55.11085480478483
 40
56.31270522999011
 40
57.31270522993281
 40
58.51455565513809
 40
59.71640608034009
 40
60.71640608028643
 40
61.91825650549184
 40
63.12010693070154
 40
64.12010693064333
 40
65.32195735584457
 40
66.52380778104342
 40
67.52380778098794
 40
68.72565820619776
 40
69.92750863141313
 40
70.92750863135129
 40
72.12935905654938
 40
73.33120948174444
 40
74.33120948168441
 40
75.53305990690092
 40
76.73491033212449
 40
77.73491033205536
 40
78.93676075725094
 40
80.1386111824426
 40
81.13861118237485
 40
82.3404616075998
 40
83.54231203283561
 40
84.54231203275376
 40
85.74416245794654
 40
86.94601288313467
 40
87.94601288305236
 40
89.14786330829081
 40
90.34971373354516
 40
91.34971373344284
 40
92.55156415863135
 40
93.75341458381607
 40
94.75341458370693
 40
95.95526500896783
 40
97.15711543425824
 40
98.15711543411045
 40
99.35896585929379
 40
100.5608162844717
 40
101.5608162843062
 40
102.7626667096113
 40
103.9645171349984
 40
104.9645171347232
 40
106.1663675598924
 40
107.3682179850533
 40
108.3682179846809
 40
109.5700684101171
 40
110.7719188366866
 40
111.7719188275093
 40
112.9737692526909
 40
113.3129118298561
 40
113.6254122378462
 40
113.6254122378462
 40
113.6254122378462
 40
113.6254122378462
 10
-2218.499999259278
 20
-2181.240638827143
 30
0.0
 10
-2218.414930080719
 20
-2181.301191841636
 30
0.0
 10
-2218.237539177811
 20
-2181.427460280368
 30
0.0
 10
-2217.797389984851
 20
-2181.858849969007
 30
0.0
 10
-2217.117118512446
 20
-2182.424569214763
 30
0.0
 10
-2215.878599023375
 20
-2182.427247000517
 30
0.0
 10
-2214.99945877863
 20
-2181.657124165471
 30
0.0
 10
-2214.123384070444
 20
-2180.888025651245
 30
0.0
 10
-2212.876697676553
 20
-2180.887974536397
 30
0.0
 10
-2212.000010331969
 20
-2181.657308462006
 30
0.0
 10
-2211.123264470993
 20
-2182.426622834892
 30
0.0
 10
-2209.876733970548
 20
-2182.42662381048
 30
0.0
 10
-2208.999999803637
 20
-2181.657304944105
 30
0.0
 10
-2208.123266753764
 20
-2180.887986450819
 30
0.0
 10
-2206.876733277513
 20
-2180.887986432146
 30
0.0
 10
-2206.000000004547
 20
-2181.657305011224
 30
0.0
 10
-2205.123266710251
 20
-2182.426623583179
 30
0.0
 10
-2203.876733290801
 20
-2182.42662358348
 30
0.0
 10
-2203.000000000657
 20
-2181.65730500996
 30
0.0
 10
-2202.123266710937
 20
-2180.887986436523
 30
0.0
 10
-2200.876733290388
 20
-2180.887986436484
 30
0.0
 10
-2200.000000000667
 20
-2181.657305009974
 30
0.0
 10
-2199.123266710933
 20
-2182.426623583461
 30
0.0
 10
-2197.876733290406
 20
-2182.426623583429
 30
0.0
 10
-2197.000000000605
 20
-2181.657305009985
 30
0.0
 10
-2196.123266710816
 20
-2180.887986436514
 30
0.0
 10
-2194.87673329028
 20
-2180.887986436493
 30
0.0
 10
-2194.000000000542
 20
-2181.657305009982
 30
0.0
 10
-2193.123266710801
 20
-2182.426623583468
 30
0.0
 10
-2191.876733290266
 20
-2182.426623583448
 30
0.0
 10
-2191.000000000481
 20
-2181.65730500999
 30
0.0
 10
-2190.1232667107
 20
-2180.887986436512
 30
0.0
 10
-2188.876733290161
 20
-2180.887986436499
 30
0.0
 10
-2188.000000000416
 20
-2181.657305009987
 30
0.0
 10
-2187.123266710669
 20
-2182.426623583473
 30
0.0
 10
-2185.876733290129
 20
-2182.42662358346
 30
0.0
 10
-2185.000000000353
 20
-2181.657305009992
 30
0.0
 10
-2184.123266710581
 20
-2180.887986436513
 30
0.0
 10
-2182.876733290038
 20
-2180.887986436504
 30
0.0
 10
-2182.000000000289
 20
-2181.657305009992
 30
0.0
 10
-2181.123266710536
 20
-2182.426623583477
 30
0.0
 10
-2179.876733289995
 20
-2182.426623583468
 30
0.0
 10
-2179.000000000226
 20
-2181.657305009996
 30
0.0
 10
-2178.123266710459
 20
-2180.887986436513
 30
0.0
 10
-2176.876733289915
 20
-2180.887986436509
 30
0.0
 10
-2176.00000000016
 20
-2181.657305009995
 30
0.0
 10
-2175.123266710404
 20
-2182.426623583478
 30
0.0
 10
-2173.876733289861
 20
-2182.426623583474
 30
0.0
 10
-2173.000000000097
 20
-2181.657305009996
 30
0.0
 10
-2172.123266710334
 20
-2180.887986436513
 30
0.0
 10
-2170.876733289791
 20
-2180.887986436511
 30
0.0
 10
-2170.000000000032
 20
-2181.657305009996
 30
0.0
 10
-2169.123266710271
 20
-2182.426623583477
 30
0.0
 10
-2167.876733289729
 20
-2182.426623583477
 30
0.0
 10
-2166.999999999968
 20
-2181.657305009997
 30
0.0
 10
-2166.123266710209
 20
-2180.88798643651
 30
0.0
 10
-2164.876733289666
 20
-2180.887986436513
 30
0.0
 10
-2163.999999999903
 20
-2181.657305009996
 30
0.0
 10
-2163.123266710138
 20
-2182.426623583474
 30
0.0
 10
-2161.876733289596
 20
-2182.426623583478
 30
0.0
 10
-2160.99999999984
 20
-2181.657305009995
 30
0.0
 10
-2160.123266710085
 20
-2180.887986436507
 30
0.0
 10
-2158.876733289541
 20
-2180.887986436513
 30
0.0
 10
-2157.999999999775
 20
-2181.657305009996
 30
0.0
 10
-2157.123266710004
 20
-2182.426623583468
 30
0.0
 10
-2155.876733289464
 20
-2182.426623583477
 30
0.0
 10
-2154.999999999712
 20
-2181.657305009992
 30
0.0
 10
-2154.123266709961
 20
-2180.887986436504
 30
0.0
 10
-2152.876733289419
 20
-2180.887986436513
 30
0.0
 10
-2151.999999999647
 20
-2181.657305009992
 30
0.0
 10
-2151.123266709871
 20
-2182.426623583461
 30
0.0
 10
-2149.876733289331
 20
-2182.426623583473
 30
0.0
 10
-2148.999999999584
 20
-2181.657305009988
 30
0.0
 10
-2148.123266709838
 20
-2180.887986436499
 30
0.0
 10
-2146.8767332893
 20
-2180.887986436513
 30
0.0
 10
-2145.999999999519
 20
-2181.657305009988
 30
0.0
 10
-2145.123266709734
 20
-2182.426623583448
 30
0.0
 10
-2143.876733289199
 20
-2182.426623583468
 30
0.0
 10
-2142.999999999459
 20
-2181.657305009982
 30
0.0
 10
-2142.12326670972
 20
-2180.887986436493
 30
0.0
 10
-2140.876733289185
 20
-2180.887986436514
 30
0.0
 10
-2139.999999999393
 20
-2181.657305009983
 30
0.0
 10
-2139.123266709595
 20
-2182.426623583431
 30
0.0
 10
-2137.876733289067
 20
-2182.42662358346
 30
0.0
 10
-2136.999999999334
 20
-2181.657305009975
 30
0.0
 10
-2136.123266709611
 20
-2180.887986436484
 30
0.0
 10
-2134.876733289064
 20
-2180.887986436524
 30
0.0
 10
-2133.999999999343
 20
-2181.657305009959
 30
0.0
 10
-2133.1232667092
 20
-2182.426623583481
 30
0.0
 10
-2131.876733289749
 20
-2182.426623583178
 30
0.0
 10
-2130.999999995453
 20
-2181.657305011225
 30
0.0
 10
-2130.123266722487
 20
-2180.887986432146
 30
0.0
 10
-2128.876733246237
 20
-2180.88798645082
 30
0.0
 10
-2128.000000196361
 20
-2181.657304944105
 30
0.0
 10
-2127.123266029453
 20
-2182.426623810479
 30
0.0
 10
-2125.876735529004
 20
-2182.426622834892
 30
0.0
 10
-2124.999989668044
 20
-2181.657308462
 30
0.0
 10
-2124.123302323399
 20
-2180.887974536421
 30
0.0
 10
-2122.876615929717
 20
-2180.888025651167
 30
0.0
 10
-2122.000541220628
 20
-2181.657124165833
 30
0.0
 10
-2121.12140097918
 20
-2182.427246999272
 30
0.0
 10
-2119.882881479139
 20
-2182.424569218868
 30
0.0
 10
-2119.202609784144
 20
-2181.858849741488
 30
0.0
 10
-2118.762460152993
 20
-2181.427459652224
 30
0.0
 10
-2118.585068694145
 20
-2181.301190965571
 30
0.0
 10
-2118.499999259278
 20
-2181.240637839514
 30
0.0
 11
-2218.499999259278
 21
-2181.240638827143
 31
0.0
 11
-2218.249999629639
 21
-2181.428138641963
 31
0.0
 11
-2218.0
 21
-2181.657304999995
 31
0.0
 11
-2217.0
 21
-2182.323971666661
 31
0.0
 11
-2216.0
 21
-2182.323971666662
 31
0.0
 11
-2215.0
 21
-2181.657304999995
 31
0.0
 11
-2214.0
 21
-2180.990638333329
 31
0.0
 11
-2213.0
 21
-2180.990638333329
 31
0.0
 11
-2212.0
 21
-2181.657304999995
 31
0.0
 11
-2211.0
 21
-2182.323971666662
 31
0.0
 11
-2210.0
 21
-2182.323971666662
 31
0.0
 11
-2209.0
 21
-2181.657304999995
 31
0.0
 11
-2208.0
 21
-2180.990638333329
 31
0.0
 11
-2207.0
 21
-2180.990638333329
 31
0.0
 11
-2206.0
 21
-2181.657304999995
 31
0.0
 11
-2205.0
 21
-2182.323971666662
 31
0.0
 11
-2204.0
 21
-2182.323971666662
 31
0.0
 11
-2203.0
 21
-2181.657304999995
 31
0.0
 11
-2202.0
 21
-2180.990638333329
 31
0.0
 11
-2201.0
 21
-2180.990638333329
 31
0.0
 11
-2200.0
 21
-2181.657304999995
 31
0.0
 11
-2199.0
 21
-2182.323971666662
 31
0.0
 11
-2198.0
 21
-2182.323971666662
 31
0.0
 11
-2197.0
 21
-2181.657304999995
 31
0.0
 11
-2196.0
 21
-2180.990638333329
 31
0.0
 11
-2195.0
 21
-2180.990638333329
 31
0.0
 11
-2194.0
 21
-2181.657304999995
 31
0.0
 11
-2193.0
 21
-2182.323971666662
 31
0.0
 11
-2192.0
 21
-2182.323971666662
 31
0.0
 11
-2191.0
 21
-2181.657304999995
 31
0.0
 11
-2190.0
 21
-2180.990638333329
 31
0.0
 11
-2189.0
 21
-2180.990638333329
 31
0.0
 11
-2188.0
 21
-2181.657304999995
 31
0.0
 11
-2187.0
 21
-2182.323971666662
 31
0.0
 11
-2186.0
 21
-2182.323971666662
 31
0.0
 11
-2185.0
 21
-2181.657304999995
 31
0.0
 11
-2184.0
 21
-2180.990638333328
 31
0.0
 11
-2183.0
 21
-2180.990638333329
 31
0.0
 11
-2182.0
 21
-2181.657304999995
 31
0.0
 11
-2181.0
 21
-2182.323971666662
 31
0.0
 11
-2180.0
 21
-2182.323971666662
 31
0.0
 11
-2179.0
 21
-2181.657304999995
 31
0.0
 11
-2178.0
 21
-2180.990638333328
 31
0.0
 11
-2177.0
 21
-2180.990638333329
 31
0.0
 11
-2176.0
 21
-2181.657304999995
 31
0.0
 11
-2175.0
 21
-2182.323971666662
 31
0.0
 11
-2174.0
 21
-2182.323971666662
 31
0.0
 11
-2173.0
 21
-2181.657304999995
 31
0.0
 11
-2172.0
 21
-2180.990638333328
 31
0.0
 11
-2171.0
 21
-2180.990638333329
 31
0.0
 11
-2170.0
 21
-2181.657304999995
 31
0.0
 11
-2169.0
 21
-2182.323971666662
 31
0.0
 11
-2168.0
 21
-2182.323971666662
 31
0.0
 11
-2167.0
 21
-2181.657304999995
 31
0.0
 11
-2166.0
 21
-2180.990638333328
 31
0.0
 11
-2165.0
 21
-2180.990638333329
 31
0.0
 11
-2164.0
 21
-2181.657304999995
 31
0.0
 11
-2163.0
 21
-2182.323971666662
 31
0.0
 11
-2162.0
 21
-2182.323971666662
 31
0.0
 11
-2161.0
 21
-2181.657304999995
 31
0.0
 11
-2160.0
 21
-2180.990638333328
 31
0.0
 11
-2159.0
 21
-2180.990638333329
 31
0.0
 11
-2158.0
 21
-2181.657304999995
 31
0.0
 11
-2157.0
 21
-2182.323971666662
 31
0.0
 11
-2156.0
 21
-2182.323971666662
 31
0.0
 11
-2155.0
 21
-2181.657304999995
 31
0.0
 11
-2154.0
 21
-2180.990638333329
 31
0.0
 11
-2153.0
 21
-2180.990638333329
 31
0.0
 11
-2152.0
 21
-2181.657304999995
 31
0.0
 11
-2151.0
 21
-2182.323971666662
 31
0.0
 11
-2150.0
 21
-2182.323971666662
 31
0.0
 11
-2149.0
 21
-2181.657304999995
 31
0.0
 11
-2148.0
 21
-2180.990638333329
 31
0.0
 11
-2147.0
 21
-2180.990638333329
 31
0.0
 11
-2146.0
 21
-2181.657304999995
 31
0.0
 11
-2145.0
 21
-2182.323971666662
 31
0.0
 11
-2144.0
 21
-2182.323971666662
 31
0.0
 11
-2143.0
 21
-2181.657304999995
 31
0.0
 11
-2142.0
 21
-2180.990638333329
 31
0.0
 11
-2141.0
 21
-2180.990638333329
 31
0.0
 11
-2140.0
 21
-2181.657304999995
 31
0.0
 11
-2139.0
 21
-2182.323971666662
 31
0.0
 11
-2138.0
 21
-2182.323971666662
 31
0.0
 11
-2137.0
 21
-2181.657304999995
 31
0.0
 11
-2136.0
 21
-2180.990638333329
 31
0.0
 11
-2135.0
 21
-2180.990638333329
 31
0.0
 11
-2134.0
 21
-2181.657304999995
 31
0.0
 11
-2133.0
 21
-2182.323971666662
 31
0.0
 11
-2132.0
 21
-2182.323971666662
 31
0.0
 11
-2131.0
 21
-2181.657304999995
 31
0.0
 11
-2130.0
 21
-2180.990638333329
 31
0.0
 11
-2129.0
 21
-2180.990638333329
 31
0.0
 11
-2128.0
 21
-2181.657304999995
 31
0.0
 11
-2127.0
 21
-2182.323971666662
 31
0.0
 11
-2126.0
 21
-2182.323971666662
 31
0.0
 11
-2125.0
 21
-2181.657304999995
 31
0.0
 11
-2124.0
 21
-2180.990638333329
 31
0.0
 11
-2123.0
 21
-2180.990638333329
 31
0.0
 11
-2122.0
 21
-2181.657304999995
 31
0.0
 11
-2121.0
 21
-2182.323971666662
 31
0.0
 11
-2120.0
 21
-2182.323971666662
 31
0.0
 11
-2119.0
 21
-2181.657304999995
 31
0.0
 11
-2118.749999629639
 21
-2181.428138024694
 31
0.0
 11
-2118.499999259278
 21
-2181.240637839514
 31
0.0
  0
ENDBLK
  5
50
330
4E
100
AcDbEntity
  8
0
100
AcDbBlockEnd
  0
BLOCK
  5
53
330
51
100
AcDbEntity
  8
0
100
AcDbBlockBegin
  2
Drfsicht1
 70
     0
 10
-2206.0
 20
-2162.500002
 30
0.0
  3
Drfsicht1
  1

  0
INSERT
  5
52
330
51
100
AcDbEntity
  8
0
100
AcDbBlockReference
  2
3240286_CD_COVER_40-select__2
 10
-2218.499999259278
 20
-2262.500001999995
 30
0.0
  0
MTEXT
  5
96
330
51
100
AcDbEntity
  8
1
 62
     6
100
AcDbMText
 10
-2168.499999259278
 20
-2272.500001999996
 30
0.0
 40
10.0
 41
0.0
 71
     2
 72
     1
  1
 
  7
CONVERTER_11
 73
     1
 44
1.32052821128451
  0
ENDBLK
  5
54
330
51
100
AcDbEntity
  8
0
100
AcDbBlockEnd
  0
BLOCK
  5
56
330
55
100
AcDbEntity
  8
0
100
AcDbBlockBegin
  2
3240286_CD_COVER_40-select__3
 70
     0
 10
-1871.500000740723
 20
-2033.499999122724
 30
0.0
  3
3240286_CD_COVER_40-select__3
  1

  0
LINE
  5
97
330
55
100
AcDbEntity
  8
0
  6
Continuous
 62
     7
100
AcDbLine
 10
-1871.500000740723
 20
-2018.499999122724
 30
0.0
 11
-1771.500000740723
 21
-2018.499999122724
 31
0.0
  0
LINE
  5
98
330
55
100
AcDbEntity
  8
0
  6
Continuous
 62
     7
100
AcDbLine
 10
-1771.500000740723
 20
-2018.499999122724
 30
0.0
 11
-1771.500000740723
 21
-2033.499999122724
 31
0.0
  0
LINE
  5
99
330
55
100
AcDbEntity
  8
0
  6
Continuous
 62
     7
100
AcDbLine
 10
-1871.500000740723
 20
-2033.499999122724
 30
0.0
 11
-1871.500000740723
 21
-2018.499999122724
 31
0.0
  0
LINE
  5
9A
330
55
100
AcDbEntity
  8
0
  6
Continuous
 62
     7
100
AcDbLine
 10
-1771.500000740723
 20
-2033.499999122724
 30
0.0
 11
-1871.500000740723
 21
-2033.499999122724
 31
0.0
  0
ENDBLK
  5
57
330
55
100
AcDbEntity
  8
0
100
AcDbBlockEnd
  0
BLOCK
  5
5A
330
58
100
AcDbEntity
  8
0
100
AcDbBlockBegin
  2
Rckans1
 70
     0
 10
-1784.0
 20
-2013.5
 30
0.0
  3
Rckans1
  1

  0
INSERT
  5
59
330
58
100
AcDbEntity
  8
0
100
AcDbBlockReference
  2
3240286_CD_COVER_40-select__3
 10
-1871.500000740723
 20
-2033.499999122724
 30
0.0
  0
MTEXT
  5
9B
330
58
100
AcDbEntity
  8
1
 62
     6
100
AcDbMText
 10
-1821.499999999998
 20
-2056.000000715259
 30
0.0
 40
10.0
 41
0.0
 71
     2
 72
     1
  1
 
  7
CONVERTER_11
 73
     1
 44
1.32052821128451
  0
ENDBLK
  5
5B
330
58
100
AcDbEntity
  8
0
100
AcDbBlockEnd
  0
BLOCK
  5
5D
330
5C
100
AcDbEntity
  8
0
100
AcDbBlockBegin
  2
3240286_CD_COVER_40-select__4
 70
     0
 10
-2067.500000000006
 20
-2033.499999122729
 30
0.0
  3
3240286_CD_COVER_40-select__4
  1

  0
LINE
  5
9C
330
5C
100
AcDbEntity
  8
0
  6
Continuous
 62
     7
100
AcDbLine
 10
-1904.500000000005
 20
-2033.499999122729
 30
0.0
 11
-1984.575744637424
 21
-2033.499999122727
 31
0.0
  0
LINE
  5
9D
330
5C
100
AcDbEntity
  8
0
  6
Continuous
 62
     7
100
AcDbLine
 10
-1904.500000000005
 20
-2018.499999122729
 30
0.0
 11
-1982.849581545925
 21
-2018.499999122727
 31
0.0
  0
LINE
  5
9E
330
5C
100
AcDbEntity
  8
0
  6
Continuous
 62
     7
100
AcDbLine
 10
-1904.500000000005
 20
-2018.499999122729
 30
0.0
 11
-1904.500000000005
 21
-2033.499999122729
 31
0.0
  0
LINE
  5
9F
330
5C
100
AcDbEntity
  8
0
  6
Continuous
 62
     7
100
AcDbLine
 10
-1994.575744637425
 20
-2033.499999122726
 30
0.0
 11
-2067.500000000006
 21
-2033.499999122724
 31
0.0
  0
LINE
  5
A0
330
5C
100
AcDbEntity
  8
0
  6
Continuous
 62
     7
100
AcDbLine
 10
-2067.500000000005
 20
-2018.499999122724
 30
0.0
 11
-2067.500000000006
 21
-2033.499999122724
 31
0.0
  0
LINE
  5
A1
330
5C
100
AcDbEntity
  8
0
  6
Continuous
 62
     7
100
AcDbLine
 10
-1992.849581545924
 20
-2018.499999122726
 30
0.0
 11
-2067.500000000005
 21
-2018.499999122724
 31
0.0
  0
SPLINE
  5
A2
330
5C
100
AcDbEntity
  8
0
  6
Continuous
 62
     2
100
AcDbSpline
210
0.0
220
0.0
230
1.0
 70
     8
 71
     3
 72
    19
 73
    15
 74
    13
 42
0.000000001
 43
0.0000000001
 44
0.00000001
 40
0.0
 40
0.0
 40
0.0
 40
0.0
 40
0.5743261054392115
 40
1.282334951107362
 40
2.959385929466451
 40
4.636436902886108
 40
6.313487886191135
 40
7.990538868036073
 40
9.667589847372248
 40
11.34464083228043
 40
13.02169181632451
 40
14.69874279867065
 40
16.12559126458497
 40
16.99384565653826
 40
16.99384565653826
 40
16.99384565653826
 40
16.99384565653826
 10
-1992.849581545924
 20
-2018.499999122726
 30
0.0
 10
-1992.952482850418
 20
-2018.663174757106
 30
0.0
 10
-1993.182237219425
 20
-2019.027507532636
 30
0.0
 10
-1993.879407285394
 20
-2019.698255918133
 30
0.0
 10
-1994.767163851086
 20
-2021.032132224006
 30
0.0
 10
-1993.648963172202
 20
-2022.491419774278
 30
0.0
 10
-1992.522229505456
 20
-2024.002188688521
 30
0.0
 10
-1993.647364862745
 20
-2025.499825463188
 30
0.0
 10
-1994.773557098565
 20
-2026.998509439287
 30
0.0
 10
-1993.643652790721
 20
-2028.506136754412
 30
0.0
 10
-1992.537077795748
 20
-2029.976943522824
 30
0.0
 10
-1993.540756357297
 20
-2031.506065277344
 30
0.0
 10
-1994.612496980348
 20
-2032.39911521006
 30
0.0
 10
-1994.585832137961
 20
-2033.197836826287
 30
0.0
 10
-1994.575744637425
 20
-2033.499999122726
 30
0.0
 11
-1992.849581545924
 21
-2018.499999122726
 31
0.0
 11
-1993.172795739267
 21
-2018.974744383464
 31
0.0
 11
-1993.647541000005
 21
-2019.5
 31
0.0
 11
-1994.397541000005
 21
-2021.0
 31
0.0
 11
-1993.647541000005
 21
-2022.5
 31
0.0
 11
-1992.897541000005
 21
-2024.0
 31
0.0
 11
-1993.647541000005
 21
-2025.5
 31
0.0
 11
-1994.397541000005
 21
-2027.0
 31
0.0
 11
-1993.647541000005
 21
-2028.5
 31
0.0
 11
-1992.897541000005
 21
-2030.0
 31
0.0
 11
-1993.647541000005
 21
-2031.5
 31
0.0
 11
-1994.513566125705
 21
-2032.633973997026
 31
0.0
 11
-1994.575744637425
 21
-2033.499999122726
 31
0.0
  0
SPLINE
  5
A3
330
5C
100
AcDbEntity
  8
0
  6
Continuous
 62
     2
100
AcDbSpline
210
0.0
220
0.0
230
1.0
 70
     8
 71
     3
 72
    19
 73
    15
 74
    13
 42
0.000000001
 43
0.0000000001
 44
0.00000001
 40
0.0
 40
0.0
 40
0.0
 40
0.0
 40
0.8682543919536575
 40
2.295102857868707
 40
3.972153840214137
 40
5.649204824258513
 40
7.326255809166496
 40
9.003306788502876
 40
10.68035777034761
 40
12.35740875365284
 40
14.0344597270727
 40
15.71151070543199
 40
16.419519551099
 40
16.99384565653752
 40
16.99384565653752
 40
16.99384565653752
 40
16.99384565653752
 10
-1984.575744637424
 20
-2033.499999122727
 30
0.0
 10
-1984.585832137961
 20
-2033.197836826288
 30
0.0
 10
-1984.612496980348
 20
-2032.39911521006
 30
0.0
 10
-1983.540756357297
 20
-2031.506065277345
 30
0.0
 10
-1982.537077795749
 20
-2029.976943522824
 30
0.0
 10
-1983.643652790721
 20
-2028.506136754412
 30
0.0
 10
-1984.773557098565
 20
-2026.998509439288
 30
0.0
 10
-1983.647364862745
 20
-2025.499825463188
 30
0.0
 10
-1982.522229505457
 20
-2024.002188688521
 30
0.0
 10
-1983.648963172202
 20
-2022.491419774278
 30
0.0
 10
-1984.767163851086
 20
-2021.032132224006
 30
0.0
 10
-1983.879407285395
 20
-2019.698255918132
 30
0.0
 10
-1983.182237219425
 20
-2019.027507532636
 30
0.0
 10
-1982.95248285042
 20
-2018.663174757106
 30
0.0
 10
-1982.849581545925
 20
-2018.499999122727
 30
0.0
 11
-1984.575744637424
 21
-2033.499999122727
 31
0.0
 11
-1984.513566125705
 21
-2032.633973997027
 31
0.0
 11
-1983.647541000005
 21
-2031.5
 31
0.0
 11
-1982.897541000005
 21
-2030.0
 31
0.0
 11
-1983.647541000005
 21
-2028.5
 31
0.0
 11
-1984.397541000005
 21
-2027.0
 31
0.0
 11
-1983.647541000005
 21
-2025.5
 31
0.0
 11
-1982.897541000005
 21
-2024.0
 31
0.0
 11
-1983.647541000005
 21
-2022.5
 31
0.0
 11
-1984.397541000005
 21
-2021.0
 31
0.0
 11
-1983.647541000006
 21
-2019.5
 31
0.0
 11
-1983.172795739268
 21
-2018.974744383464
 31
0.0
 11
-1982.849581545925
 21
-2018.499999122727
 31
0.0
  0
ENDBLK
  5
5E
330
5C
100
AcDbEntity
  8
0
100
AcDbBlockEnd
  0
BLOCK
  5
61
330
5F
100
AcDbEntity
  8
0
100
AcDbBlockBegin
  2
SA_Links1
 70
     0
 10
-1967.5
 20
-2013.5
 30
0.0
  3
SA_Links1
  1

  0
INSERT
  5
60
330
5F
100
AcDbEntity
  8
0
100
AcDbBlockReference
  2
3240286_CD_COVER_40-select__4
 10
-2067.500000000006
 20
-2033.499999122729
 30
0.0
  0
MTEXT
  5
A4
330
5F
100
AcDbEntity
  8
1
 62
     6
100
AcDbMText
 10
-1986.000000000005
 20
-2056.200560833929
 30
0.0
 40
10.0
 41
0.0
 71
     2
 72
     1
  1
 
  7
CONVERTER_11
 73
     1
 44
1.32052821128451
  0
DIMENSION
  5
AF
330
5F
100
AcDbEntity
  8
1
100
AcDbDimension
  2
*D16
 10
-1904.500000000006
 20
-2056.90279995348
 30
0.0
 11
-1986.43786338646
 21
-2049.40279995348
 31
0.0
 70
    32
  1
2000
 71
     5
 42
-1.0
 53
0.00013888888889
  3
ME10_DIM_10
100
AcDbAlignedDimension
 13
-2067.500000000006
 23
-2033.499999122724
 33
0.0
 14
-1904.500000000005
 24
-2033.499999122729
 34
0.0
100
AcDbRotatedDimension
  0
ENDBLK
  5
62
330
5F
100
AcDbEntity
  8
0
100
AcDbBlockEnd
  0
BLOCK
  5
64
330
63
100
AcDbEntity
  8
0
100
AcDbBlockBegin
  2
3240286_CD_COVER_40-select__5
 70
     0
 10
-2413.499999999995
 20
-2033.499999122729
 30
0.0
  3
3240286_CD_COVER_40-select__5
  1

  0
LINE
  5
B0
330
63
100
AcDbEntity
  8
0
  6
Continuous
 62
     7
100
AcDbLine
 10
-2330.652860545913
 20
-2018.499999122726
 30
0.0
 11
-2248.499999999995
 21
-2018.499999122724
 31
0.0
  0
LINE
  5
B1
330
63
100
AcDbEntity
  8
0
  6
Continuous
 62
     7
100
AcDbLine
 10
-2248.499999999995
 20
-2033.499999122724
 30
0.0
 11
-2248.499999999995
 21
-2018.499999122724
 31
0.0
  0
LINE
  5
B2
330
63
100
AcDbEntity
  8
0
  6
Continuous
 62
     7
100
AcDbLine
 10
-2332.379023637413
 20
-2033.499999122726
 30
0.0
 11
-2248.499999999995
 21
-2033.499999122724
 31
0.0
  0
LINE
  5
B3
330
63
100
AcDbEntity
  8
0
  6
Continuous
 62
     7
100
AcDbLine
 10
-2413.499999999995
 20
-2018.499999122729
 30
0.0
 11
-2340.652860545914
 21
-2018.499999122727
 31
0.0
  0
LINE
  5
B4
330
63
100
AcDbEntity
  8
0
  6
Continuous
 62
     7
100
AcDbLine
 10
-2413.499999999995
 20
-2033.499999122729
 30
0.0
 11
-2342.379023637413
 21
-2033.499999122727
 31
0.0
  0
LINE
  5
B5
330
63
100
AcDbEntity
  8
0
  6
Continuous
 62
     7
100
AcDbLine
 10
-2413.499999999995
 20
-2033.499999122729
 30
0.0
 11
-2413.499999999995
 21
-2018.499999122729
 31
0.0
  0
SPLINE
  5
B6
330
63
100
AcDbEntity
  8
0
  6
Continuous
 62
     2
100
AcDbSpline
210
0.0
220
0.0
230
1.0
 70
     8
 71
     3
 72
    19
 73
    15
 74
    13
 42
0.000000001
 43
0.0000000001
 44
0.00000001
 40
0.0
 40
0.0
 40
0.0
 40
0.0
 40
0.8682543919532365
 40
2.295102857867192
 40
3.972153840212927
 40
5.649204824256998
 40
7.326255809164981
 40
9.003306788501462
 40
10.6803577703463
 40
12.35740875365173
 40
14.03445972707159
 40
15.71151070543089
 40
16.41951955109949
 40
16.99384565653839
 40
16.99384565653839
 40
16.99384565653839
 40
16.99384565653839
 10
-2332.379023637413
 20
-2033.499999122726
 30
0.0
 10
-2332.389111137949
 20
-2033.197836826287
 30
0.0
 10
-2332.415775980337
 20
-2032.399115210059
 30
0.0
 10
-2331.344035357286
 20
-2031.506065277344
 30
0.0
 10
-2330.34035679574
 20
-2029.976943522824
 30
0.0
 10
-2331.446931790711
 20
-2028.506136754413
 30
0.0
 10
-2332.576836098556
 20
-2026.998509439287
 30
0.0
 10
-2331.450643862735
 20
-2025.499825463189
 30
0.0
 10
-2330.325508505447
 20
-2024.002188688521
 30
0.0
 10
-2331.452242172192
 20
-2022.491419774278
 30
0.0
 10
-2332.570442851076
 20
-2021.032132224006
 30
0.0
 10
-2331.682686285384
 20
-2019.698255918133
 30
0.0
 10
-2330.985516219413
 20
-2019.027507532636
 30
0.0
 10
-2330.755761850407
 20
-2018.663174757105
 30
0.0
 10
-2330.652860545913
 20
-2018.499999122726
 30
0.0
 11
-2332.379023637413
 21
-2033.499999122726
 31
0.0
 11
-2332.316845125694
 21
-2032.633973997026
 31
0.0
 11
-2331.450819999995
 21
-2031.5
 31
0.0
 11
-2330.700819999995
 21
-2030.0
 31
0.0
 11
-2331.450819999995
 21
-2028.5
 31
0.0
 11
-2332.200819999995
 21
-2027.0
 31
0.0
 11
-2331.450819999995
 21
-2025.5
 31
0.0
 11
-2330.700819999995
 21
-2024.0
 31
0.0
 11
-2331.450819999995
 21
-2022.5
 31
0.0
 11
-2332.200819999995
 21
-2021.0
 31
0.0
 11
-2331.450819999995
 21
-2019.5
 31
0.0
 11
-2330.976074739256
 21
-2018.974744383464
 31
0.0
 11
-2330.652860545913
 21
-2018.499999122726
 31
0.0
  0
SPLINE
  5
B7
330
63
100
AcDbEntity
  8
0
  6
Continuous
 62
     2
100
AcDbSpline
210
0.0
220
0.0
230
1.0
 70
     8
 71
     3
 72
    19
 73
    15
 74
    13
 42
0.000000001
 43
0.0000000001
 44
0.00000001
 40
0.0
 40
0.0
 40
0.0
 40
0.0
 40
0.5743261054385196
 40
1.282334951105843
 40
2.959385929465338
 40
4.636436902885198
 40
6.313487886190429
 40
7.990538868035468
 40
9.667589847371746
 40
11.34464083227993
 40
13.02169181632421
 40
14.69874279866994
 40
16.12559126458472
 40
16.9938456565386
 40
16.9938456565386
 40
16.9938456565386
 40
16.9938456565386
 10
-2340.652860545914
 20
-2018.499999122727
 30
0.0
 10
-2340.755761850408
 20
-2018.663174757106
 30
0.0
 10
-2340.985516219414
 20
-2019.027507532636
 30
0.0
 10
-2341.682686285385
 20
-2019.698255918134
 30
0.0
 10
-2342.570442851076
 20
-2021.032132224006
 30
0.0
 10
-2341.452242172193
 20
-2022.491419774278
 30
0.0
 10
-2340.325508505446
 20
-2024.002188688521
 30
0.0
 10
-2341.450643862735
 20
-2025.499825463188
 30
0.0
 10
-2342.576836098555
 20
-2026.998509439287
 30
0.0
 10
-2341.446931790711
 20
-2028.506136754412
 30
0.0
 10
-2340.340356795738
 20
-2029.976943522824
 30
0.0
 10
-2341.344035357286
 20
-2031.506065277344
 30
0.0
 10
-2342.415775980338
 20
-2032.39911521006
 30
0.0
 10
-2342.38911113795
 20
-2033.197836826288
 30
0.0
 10
-2342.379023637413
 20
-2033.499999122727
 30
0.0
 11
-2340.652860545914
 21
-2018.499999122727
 31
0.0
 11
-2340.976074739257
 21
-2018.974744383464
 31
0.0
 11
-2341.450819999995
 21
-2019.5
 31
0.0
 11
-2342.200819999995
 21
-2021.0
 31
0.0
 11
-2341.450819999995
 21
-2022.5
 31
0.0
 11
-2340.700819999995
 21
-2024.0
 31
0.0
 11
-2341.450819999995
 21
-2025.5
 31
0.0
 11
-2342.200819999995
 21
-2027.0
 31
0.0
 11
-2341.450819999995
 21
-2028.5
 31
0.0
 11
-2340.700819999995
 21
-2030.0
 31
0.0
 11
-2341.450819999995
 21
-2031.5
 31
0.0
 11
-2342.316845125694
 21
-2032.633973997027
 31
0.0
 11
-2342.379023637413
 21
-2033.499999122727
 31
0.0
  0
ENDBLK
  5
65
330
63
100
AcDbEntity
  8
0
100
AcDbBlockEnd
  0
BLOCK
  5
68
330
66
100
AcDbEntity
  8
0
100
AcDbBlockBegin
  2
SA_Rechts1
 70
     0
 10
-2313.5
 20
-2013.5
 30
0.0
  3
SA_Rechts1
  1

  0
INSERT
  5
67
330
66
100
AcDbEntity
  8
0
100
AcDbBlockReference
  2
3240286_CD_COVER_40-select__5
 10
-2413.499999999995
 20
-2033.499999122729
 30
0.0
  0
MTEXT
  5
B8
330
66
100
AcDbEntity
  8
1
 62
     6
100
AcDbMText
 10
-2330.999999999995
 20
-2056.200560833929
 30
0.0
 40
10.0
 41
0.0
 71
     2
 72
     1
  1
 
  7
CONVERTER_11
 73
     1
 44
1.32052821128451
  0
ENDBLK
  5
69
330
66
100
AcDbEntity
  8
0
100
AcDbBlockEnd
  0
BLOCK
  5
6B
330
6A
100
AcDbEntity
  8
0
100
AcDbBlockBegin
  2
3240286_CD_COVER_40-select__6
 70
     0
 10
-2218.499999259277
 20
-2033.499999122729
 30
0.0
  3
3240286_CD_COVER_40-select__6
  1

  0
LINE
  5
B9
330
6A
100
AcDbEntity
  8
0
  6
Continuous
 62
     7
100
AcDbLine
 10
-2118.499999259277
 20
-2018.499999122729
 30
0.0
 11
-2218.499999259277
 21
-2018.499999122729
 31
0.0
  0
LINE
  5
BA
330
6A
100
AcDbEntity
  8
0
  6
Continuous
 62
     7
100
AcDbLine
 10
-2218.499999259277
 20
-2018.499999122729
 30
0.0
 11
-2218.499999259277
 21
-2033.499999122729
 31
0.0
  0
LINE
  5
BB
330
6A
100
AcDbEntity
  8
0
  6
Continuous
 62
     7
100
AcDbLine
 10
-2118.499999259277
 20
-2033.499999122729
 30
0.0
 11
-2118.499999259277
 21
-2018.499999122729
 31
0.0
  0
LINE
  5
BC
330
6A
100
AcDbEntity
  8
0
  6
Continuous
 62
     7
100
AcDbLine
 10
-2218.499999259277
 20
-2033.499999122729
 30
0.0
 11
-2118.499999259277
 21
-2033.499999122729
 31
0.0
  0
ENDBLK
  5
6C
330
6A
100
AcDbEntity
  8
0
100
AcDbBlockEnd
  0
BLOCK
  5
6F
330
6D
100
AcDbEntity
  8
0
100
AcDbBlockBegin
  2
Vordans1
 70
     0
 10
-2206.0
 20
-2013.5
 30
0.0
  3
Vordans1
  1

  0
INSERT
  5
6E
330
6D
100
AcDbEntity
  8
0
100
AcDbBlockReference
  2
3240286_CD_COVER_40-select__6
 10
-2218.499999259277
 20
-2033.499999122729
 30
0.0
  0
MTEXT
  5
BD
330
6D
100
AcDbEntity
  8
1
 62
     6
100
AcDbMText
 10
-2168.500000000001
 20
-2056.000000715258
 30
0.0
 40
10.0
 41
0.0
 71
     2
 72
     1
  1
 
  7
CONVERTER_11
 73
     1
 44
1.32052821128451
  0
DIMENSION
  5
C8
330
6D
100
AcDbEntity
  8
1
100
AcDbDimension
  2
*D17
 10
-2218.499999259277
 20
-2056.90279995348
 30
0.0
 11
-2168.500002222172
 21
-2049.40279995348
 31
0.0
 70
    32
  1
<>
 71
     5
 42
-1.0
 53
0.00013888888889
  3
ME10_DIM_11
100
AcDbAlignedDimension
 13
-2118.499999259277
 23
-2033.499999122729
 33
0.0
 14
-2218.499999259277
 24
-2033.499999122729
 34
0.0
100
AcDbRotatedDimension
  0
DIMENSION
  5
D5
330
6D
100
AcDbEntity
  8
1
100
AcDbDimension
  2
*D18
 10
-2096.30815383236
 20
-2033.499999122729
 30
0.0
 11
-2103.80815383236
 21
-2025.734548324001
 31
0.0
 70
    32
  1
<>
 71
     5
 42
-1.0
 53
90.0
  3
ME10_DIM_12
100
AcDbAlignedDimension
 13
-2118.499999259277
 23
-2018.499999122729
 33
0.0
 14
-2118.499999259277
 24
-2033.499999122729
 34
0.0
 50
90.0
100
AcDbRotatedDimension
  0
ENDBLK
  5
70
330
6D
100
AcDbEntity
  8
0
100
AcDbBlockEnd
  0
BLOCK
  5
72
330
71
100
AcDbEntity
  8
0
100
AcDbBlockBegin
  2
_rahmen
 70
     0
 10
-854.2500001851781
 20
-1220.57485985288
 30
0.0
  3
_rahmen
  1

  0
LINE
  5
D6
330
71
100
AcDbEntity
  8
1
  6
DOT_CENTER
 62
     2
100
AcDbLine
 10
-979.8081498253656
 20
-1194.449859852881
 30
0.0
 11
-974.3081498253656
 21
-1194.449859852881
 31
0.0
  0
LINE
  5
D7
330
71
100
AcDbEntity
  8
1
  6
PHANTOM
 62
     2
100
AcDbLine
 10
-971.0581498253656
 20
-1191.699859852881
 30
0.0
 11
-971.0581498253656
 21
-1197.199859852881
 31
0.0
  0
LINE
  5
D8
330
71
100
AcDbEntity
  8
1
  6
PHANTOM
 62
     2
100
AcDbLine
 10
-968.3081498253656
 20
-1194.449859852881
 30
0.0
 11
-973.8081498253656
 21
-1194.449859852881
 31
0.0
  0
LINE
  5
D9
330
71
100
AcDbEntity
  8
1
  6
Continuous
 62
     6
100
AcDbLine
 10
-983.7948047119281
 20
-1190.074859852881
 30
0.0
 11
-854.2500001851764
 21
-1190.074859852881
 31
0.0
  0
LINE
  5
DA
330
71
100
AcDbEntity
  8
1
  6
Continuous
 62
     7
100
AcDbLine
 10
-965.5948047119282
 20
-1211.324859852881
 30
0.0
 11
-947.3948047119281
 21
-1211.324859852881
 31
0.0
  0
LINE
  5
DB
330
71
100
AcDbEntity
  8
1
  6
Continuous
 62
     6
100
AcDbLine
 10
-965.5948047119282
 20
-1215.574859852881
 30
0.0
 11
-983.7948047119281
 21
-1215.574859852881
 31
0.0
  0
LINE
  5
DC
330
71
100
AcDbEntity
  8
1
  6
Continuous
 62
     7
100
AcDbLine
 10
-965.5948047119282
 20
-1211.324859852881
 30
0.0
 11
-965.5948047119282
 21
-1215.574859852881
 31
0.0
  0
LINE
  5
DD
330
71
100
AcDbEntity
  8
1
  6
Continuous
 62
     7
100
AcDbLine
 10
-947.3948047119281
 20
-1211.324859852881
 30
0.0
 11
-947.3948047119281
 21
-1215.574859852881
 31
0.0
  0
LINE
  5
DE
330
71
100
AcDbEntity
  8
1
  6
Continuous
 62
     7
100
AcDbLine
 10
-983.7948047119281
 20
-1211.324859852881
 30
0.0
 11
-983.7948047119281
 21
-1215.574859852881
 31
0.0
  0
LINE
  5
DF
330
71
100
AcDbEntity
  8
1
  6
Continuous
 62
     7
100
AcDbLine
 10
-983.7948047119281
 20
-1211.324859852881
 30
0.0
 11
-965.5948047119282
 21
-1211.324859852881
 31
0.0
  0
LINE
  5
E0
330
71
100
AcDbEntity
  8
1
  6
Continuous
 62
     2
100
AcDbLine
 10
-974.5581498253656
 20
-1191.949859852881
 30
0.0
 11
-974.5581498253656
 21
-1196.949859852881
 31
0.0
  0
LINE
  5
E1
330
71
100
AcDbEntity
  8
1
  6
Continuous
 62
     2
100
AcDbLine
 10
-974.5581498253656
 20
-1196.949859852881
 30
0.0
 11
-979.5581498253656
 21
-1195.699859852881
 31
0.0
  0
LINE
  5
E2
330
71
100
AcDbEntity
  8
1
  6
Continuous
 62
     2
100
AcDbLine
 10
-979.5581498253656
 20
-1195.699859852881
 30
0.0
 11
-979.5581498253656
 21
-1193.199859852881
 31
0.0
  0
LINE
  5
E3
330
71
100
AcDbEntity
  8
1
  6
Continuous
 62
     2
100
AcDbLine
 10
-979.5581498253656
 20
-1193.199859852881
 30
0.0
 11
-974.5581498253656
 21
-1191.949859852881
 31
0.0
  0
LINE
  5
E4
330
71
100
AcDbEntity
  8
1
  6
Continuous
 62
     6
100
AcDbLine
 10
-854.2500001851764
 20
-1198.574859852881
 30
0.0
 11
-854.2500001851769
 21
-1207.074859852881
 31
0.0
  0
LINE
  5
E5
330
71
100
AcDbEntity
  8
1
  6
Continuous
 62
     6
100
AcDbLine
 10
-947.3948047119281
 20
-1215.574859852881
 30
0.0
 11
-947.7500001851781
 21
-1215.574859852881
 31
0.0
  0
LINE
  5
E6
330
71
100
AcDbEntity
  8
1
  6
Continuous
 62
     7
100
AcDbLine
 10
-947.3948047119281
 20
-1198.574859852881
 30
0.0
 11
-947.3948047119281
 21
-1211.324859852881
 31
0.0
  0
LINE
  5
E7
330
71
100
AcDbEntity
  8
1
  6
Continuous
 62
     7
100
AcDbLine
 10
-983.7948047119281
 20
-1198.574859852881
 30
0.0
 11
-983.7948047119281
 21
-1211.324859852881
 31
0.0
  0
LINE
  5
E8
330
71
100
AcDbEntity
  8
1
  6
Continuous
 62
     6
100
AcDbLine
 10
-947.3948047119281
 20
-1215.574859852881
 30
0.0
 11
-897.7500001851781
 21
-1215.574859852881
 31
0.0
  0
LINE
  5
E9
330
71
100
AcDbEntity
  8
1
  6
Continuous
 62
     6
100
AcDbLine
 10
-854.2500001851782
 20
-1215.574859852881
 30
0.0
 11
-854.2500001851769
 21
-1207.074859852881
 31
0.0
  0
LINE
  5
EA
330
71
100
AcDbEntity
  8
1
  6
Continuous
 62
     6
100
AcDbLine
 10
-983.7948047119281
 20
-1198.574859852881
 30
0.0
 11
-947.3948047119281
 21
-1198.574859852881
 31
0.0
  0
LINE
  5
EB
330
71
100
AcDbEntity
  8
1
  6
Continuous
 62
     6
100
AcDbLine
 10
-947.7500001851781
 20
-1215.574859852881
 30
0.0
 11
-965.5948047119282
 21
-1215.574859852881
 31
0.0
  0
LINE
  5
EC
330
71
100
AcDbEntity
  8
1
  6
Continuous
 62
     6
100
AcDbLine
 10
-897.7500001851781
 20
-1215.574859852881
 30
0.0
 11
-854.2500001851782
 21
-1215.574859852881
 31
0.0
  0
LINE
  5
ED
102
{ACAD_REACTORS
330
21B
330
21C
102
}
330
71
100
AcDbEntity
  8
0
  6
Continuous
 62
     2
100
AcDbLine
 10
-976.2801787697813
 20
-1203.502345096669
 30
0.0
 11
-976.2801787697813
 21
-1202.896809808162
 31
0.0
  0
LINE
  5
EE
102
{ACAD_REACTORS
330
21B
330
21C
102
}
330
71
100
AcDbEntity
  8
0
  6
Continuous
 62
     2
100
AcDbLine
 10
-976.2801787697813
 20
-1206.3024797033
 30
0.0
 11
-976.2801787697813
 21
-1205.720628296605
 31
0.0
  0
LINE
  5
EF
102
{ACAD_REACTORS
330
21D
330
21E
102
}
330
71
100
AcDbEntity
  8
0
  6
Continuous
 62
     2
100
AcDbLine
 10
-953.6506923343022
 20
-1206.012815635177
 30
0.0
 11
-953.6506923343022
 21
-1208.281359852865
 31
0.0
  0
LINE
  5
F0
102
{ACAD_REACTORS
330
21D
330
21E
102
}
330
71
100
AcDbEntity
  8
0
  6
Continuous
 62
     2
100
AcDbLine
 10
-955.0317461132897
 20
-1205.227550329054
 30
0.0
 11
-951.646800594661
 21
-1205.227550329053
 31
0.0
  0
LINE
  5
F1
102
{ACAD_REACTORS
330
21D
330
21E
102
}
330
71
100
AcDbEntity
  8
0
  6
Continuous
 62
     2
100
AcDbLine
 10
-951.646800594661
 20
-1206.012815635177
 30
0.0
 11
-951.646800594661
 21
-1205.227550329053
 31
0.0
  0
LINE
  5
F2
102
{ACAD_REACTORS
330
21D
330
21E
102
}
330
71
100
AcDbEntity
  8
0
  6
Continuous
 62
     2
100
AcDbLine
 10
-952.4578996321345
 20
-1206.012815635177
 30
0.0
 11
-951.646800594661
 21
-1206.012815635177
 31
0.0
  0
LINE
  5
F3
102
{ACAD_REACTORS
330
21D
330
21E
102
}
330
71
100
AcDbEntity
  8
0
  6
Continuous
 62
     2
100
AcDbLine
 10
-952.4578996321345
 20
-1208.281359852865
 30
0.0
 11
-952.4578996321345
 21
-1206.012815635177
 31
0.0
  0
LINE
  5
F4
102
{ACAD_REACTORS
330
21D
330
21E
102
}
330
71
100
AcDbEntity
  8
0
  6
Continuous
 62
     2
100
AcDbLine
 10
-953.6506923343022
 20
-1208.281359852865
 30
0.0
 11
-952.4578996321345
 21
-1208.281359852865
 31
0.0
  0
LINE
  5
F5
102
{ACAD_REACTORS
330
213
330
214
102
}
330
71
100
AcDbEntity
  8
0
  6
Continuous
 62
     2
100
AcDbLine
 10
-954.3472832723667
 20
-1201.868359852879
 30
0.0
 11
-955.7500074901159
 21
-1201.868359852879
 31
0.0
  0
LINE
  5
F6
102
{ACAD_REACTORS
330
213
330
214
102
}
330
71
100
AcDbEntity
  8
0
  6
Continuous
 62
     2
100
AcDbLine
 10
-954.3472832723667
 20
-1201.868359852879
 30
0.0
 11
-953.7461157504748
 21
-1202.548183174435
 31
0.0
  0
LINE
  5
F7
102
{ACAD_REACTORS
330
213
330
214
102
}
330
71
100
AcDbEntity
  8
0
  6
Continuous
 62
     2
100
AcDbLine
 10
-953.7461157504748
 20
-1202.548183174435
 30
0.0
 11
-953.144948228582
 21
-1201.868359852879
 31
0.0
  0
LINE
  5
F8
102
{ACAD_REACTORS
330
213
330
214
102
}
330
71
100
AcDbEntity
  8
0
  6
Continuous
 62
     2
100
AcDbLine
 10
-953.0447536416013
 20
-1203.341310382915
 30
0.0
 11
-951.7422240108348
 21
-1201.868359852879
 31
0.0
  0
LINE
  5
F9
102
{ACAD_REACTORS
330
213
330
214
102
}
330
71
100
AcDbEntity
  8
0
  6
Continuous
 62
     2
100
AcDbLine
 10
-953.0447536416013
 20
-1203.341310382915
 30
0.0
 11
-951.646800594661
 21
-1204.92216937669
 31
0.0
  0
LINE
  5
FA
102
{ACAD_REACTORS
330
213
330
214
102
}
330
71
100
AcDbEntity
  8
0
  6
Continuous
 62
     2
100
AcDbLine
 10
-953.0495248124093
 20
-1204.92216937669
 30
0.0
 11
-951.646800594661
 21
-1204.92216937669
 31
0.0
  0
LINE
  5
FB
102
{ACAD_REACTORS
330
213
330
214
102
}
330
71
100
AcDbEntity
  8
0
  6
Continuous
 62
     2
100
AcDbLine
 10
-953.7461157504748
 20
-1204.134437591396
 30
0.0
 11
-953.0495248124093
 21
-1204.92216937669
 31
0.0
  0
LINE
  5
FC
102
{ACAD_REACTORS
330
211
330
212
102
}
330
71
100
AcDbEntity
  8
0
  6
Continuous
 62
     2
100
AcDbLine
 10
-957.2052145867585
 20
-1201.868359852879
 30
0.0
 11
-955.9647101765056
 21
-1201.868359852879
 31
0.0
  0
LINE
  5
FD
102
{ACAD_REACTORS
330
211
330
212
102
}
330
71
100
AcDbEntity
  8
0
  6
Continuous
 62
     2
100
AcDbLine
 10
-955.9647101765056
 20
-1201.868359852879
 30
0.0
 11
-955.9647101765056
 21
-1204.92216937669
 31
0.0
  0
LINE
  5
FE
102
{ACAD_REACTORS
330
211
330
212
102
}
330
71
100
AcDbEntity
  8
0
  6
Continuous
 62
     2
100
AcDbLine
 10
-957.2052145867585
 20
-1204.92216937669
 30
0.0
 11
-957.2052145867585
 21
-1201.868359852879
 31
0.0
  0
LINE
  5
FF
102
{ACAD_REACTORS
330
20F
330
210
102
}
330
71
100
AcDbEntity
  8
0
  6
Continuous
 62
     2
100
AcDbLine
 10
-958.6735246692961
 20
-1207.05983604334
 30
0.0
 11
-958.3733594321038
 21
-1206.292021077353
 31
0.0
  0
LINE
  5
100
102
{ACAD_REACTORS
330
20F
330
210
102
}
330
71
100
AcDbEntity
  8
0
  6
Continuous
 62
     2
100
AcDbLine
 10
-959.151060273917
 20
-1208.281359852865
 30
0.0
 11
-958.9395802204413
 21
-1207.740399308647
 31
0.0
  0
LINE
  5
101
102
{ACAD_REACTORS
330
20F
330
210
102
}
330
71
100
AcDbEntity
  8
0
  6
Continuous
 62
     2
100
AcDbLine
 10
-958.9936116372307
 20
-1205.227550329053
 30
0.0
 11
-960.3915646841699
 21
-1208.281359852865
 31
0.0
  0
LINE
  5
102
102
{ACAD_REACTORS
330
20F
330
210
102
}
330
71
100
AcDbEntity
  8
0
  6
Continuous
 62
     2
100
AcDbLine
 10
-956.3551541800376
 20
-1208.281359852865
 30
0.0
 11
-957.5956585902915
 21
-1208.281359852865
 31
0.0
  0
LINE
  5
103
102
{ACAD_REACTORS
330
20F
330
210
102
}
330
71
100
AcDbEntity
  8
0
  6
Continuous
 62
     2
100
AcDbLine
 10
-958.9395802204413
 20
-1207.740399308647
 30
0.0
 11
-957.8071386437673
 21
-1207.740399308647
 31
0.0
  0
LINE
  5
104
102
{ACAD_REACTORS
330
20D
330
20E
102
}
330
71
100
AcDbEntity
  8
0
  6
Continuous
 62
     2
100
AcDbLine
 10
-962.5490768233522
 20
-1206.012815635177
 30
0.0
 11
-961.7379777858775
 21
-1206.012815635177
 31
0.0
  0
LINE
  5
105
102
{ACAD_REACTORS
330
20D
330
20E
102
}
330
71
100
AcDbEntity
  8
0
  6
Continuous
 62
     2
100
AcDbLine
 10
-959.7340860462384
 20
-1205.227550329053
 30
0.0
 11
-962.5490768233522
 21
-1205.227550329053
 31
0.0
  0
LINE
  5
106
102
{ACAD_REACTORS
330
20D
330
20E
102
}
330
71
100
AcDbEntity
  8
0
  6
Continuous
 62
     2
100
AcDbLine
 10
-959.7340860462384
 20
-1206.012815635177
 30
0.0
 11
-959.7340860462384
 21
-1205.227550329053
 31
0.0
  0
LINE
  5
107
102
{ACAD_REACTORS
330
20D
330
20E
102
}
330
71
100
AcDbEntity
  8
0
  6
Continuous
 62
     2
100
AcDbLine
 10
-960.5451850837111
 20
-1206.012815635177
 30
0.0
 11
-959.7340860462384
 21
-1206.012815635177
 31
0.0
  0
LINE
  5
108
102
{ACAD_REACTORS
330
20D
330
20E
102
}
330
71
100
AcDbEntity
  8
0
  6
Continuous
 62
     2
100
AcDbLine
 10
-960.5451850837111
 20
-1208.281359852865
 30
0.0
 11
-960.5451850837111
 21
-1206.012815635177
 31
0.0
  0
LINE
  5
109
102
{ACAD_REACTORS
330
20B
330
20C
102
}
330
71
100
AcDbEntity
  8
0
  6
Continuous
 62
     2
100
AcDbLine
 10
-959.8770702396131
 20
-1204.92216937669
 30
0.0
 11
-959.8770702396131
 21
-1203.613393866486
 31
0.0
  0
LINE
  5
10A
102
{ACAD_REACTORS
330
20B
330
20C
102
}
330
71
100
AcDbEntity
  8
0
  6
Continuous
 62
     2
100
AcDbLine
 10
-961.0698629417795
 20
-1201.868359852879
 30
0.0
 11
-961.0698629417795
 21
-1204.92216937669
 31
0.0
  0
LINE
  5
10B
102
{ACAD_REACTORS
330
20B
330
20C
102
}
330
71
100
AcDbEntity
  8
0
  6
Continuous
 62
     2
100
AcDbLine
 10
-959.8770702396131
 20
-1201.868359852879
 30
0.0
 11
-961.0698629417795
 21
-1201.868359852879
 31
0.0
  0
LINE
  5
10C
102
{ACAD_REACTORS
330
20B
330
20C
102
}
330
71
100
AcDbEntity
  8
0
  6
Continuous
 62
     2
100
AcDbLine
 10
-958.636565829359
 20
-1201.868359852879
 30
0.0
 11
-958.636565829359
 21
-1203.177135363084
 31
0.0
  0
LINE
  5
10D
102
{ACAD_REACTORS
330
209
330
20A
102
}
330
71
100
AcDbEntity
  8
0
  6
Continuous
 62
     2
100
AcDbLine
 10
-966.3183017621992
 20
-1205.227550329053
 30
0.0
 11
-966.3183017621992
 21
-1208.281359852865
 31
0.0
  0
LINE
  5
10E
102
{ACAD_REACTORS
330
209
330
20A
102
}
330
71
100
AcDbEntity
  8
0
  6
Continuous
 62
     2
100
AcDbLine
 10
-965.1255090600316
 20
-1205.227550329053
 30
0.0
 11
-966.3183017621992
 21
-1205.227550329053
 31
0.0
  0
LINE
  5
10F
102
{ACAD_REACTORS
330
209
330
20A
102
}
330
71
100
AcDbEntity
  8
0
  6
Continuous
 62
     2
100
AcDbLine
 10
-963.8850046497787
 20
-1208.281359852865
 30
0.0
 11
-962.6922119476123
 21
-1208.281359852865
 31
0.0
  0
LINE
  5
110
102
{ACAD_REACTORS
330
209
330
20A
102
}
330
71
100
AcDbEntity
  8
0
  6
Continuous
 62
     2
100
AcDbLine
 10
-966.3183017621992
 20
-1208.281359852865
 30
0.0
 11
-965.1255090600316
 21
-1208.281359852865
 31
0.0
  0
LINE
  5
111
102
{ACAD_REACTORS
330
219
330
21A
102
}
330
71
100
AcDbEntity
  8
0
  6
Continuous
 62
     2
100
AcDbLine
 10
-962.6443493086401
 20
-1203.046257812064
 30
0.0
 11
-962.6443493086401
 21
-1202.566373458322
 31
0.0
  0
LINE
  5
112
102
{ACAD_REACTORS
330
219
330
21A
102
}
330
71
100
AcDbEntity
  8
0
  6
Continuous
 62
     2
100
AcDbLine
 10
-961.3084214822125
 20
-1203.046257812064
 30
0.0
 11
-962.6443493086401
 21
-1203.046257812064
 31
0.0
  0
LINE
  5
113
102
{ACAD_REACTORS
330
219
330
21A
102
}
330
71
100
AcDbEntity
  8
0
  6
Continuous
 62
     2
100
AcDbLine
 10
-961.3084214822125
 20
-1203.744271417506
 30
0.0
 11
-961.3084214822125
 21
-1203.046257812064
 31
0.0
  0
LINE
  5
114
102
{ACAD_REACTORS
330
219
330
21A
102
}
330
71
100
AcDbEntity
  8
0
  6
Continuous
 62
     2
100
AcDbLine
 10
-962.6443493086401
 20
-1203.744271417506
 30
0.0
 11
-961.3084214822125
 21
-1203.744271417506
 31
0.0
  0
LINE
  5
115
102
{ACAD_REACTORS
330
207
330
208
102
}
330
71
100
AcDbEntity
  8
0
  6
Continuous
 62
     2
100
AcDbLine
 10
-966.127303998967
 20
-1201.868359852879
 30
0.0
 11
-966.127303998967
 21
-1204.92216937669
 31
0.0
  0
LINE
  5
116
102
{ACAD_REACTORS
330
207
330
208
102
}
330
71
100
AcDbEntity
  8
0
  6
Continuous
 62
     2
100
AcDbLine
 10
-966.127303998967
 20
-1204.92216937669
 30
0.0
 11
-967.3200967011335
 21
-1204.92216937669
 31
0.0
  0
LINE
  5
117
102
{ACAD_REACTORS
330
207
330
208
102
}
330
71
100
AcDbEntity
  8
0
  6
Continuous
 62
     2
100
AcDbLine
 10
-967.3200967011335
 20
-1204.92216937669
 30
0.0
 11
-967.3200967011335
 21
-1203.787897267847
 31
0.0
  0
LINE
  5
118
102
{ACAD_REACTORS
330
207
330
208
102
}
330
71
100
AcDbEntity
  8
0
  6
Continuous
 62
     2
100
AcDbLine
 10
-968.3697542790409
 20
-1204.92216937669
 30
0.0
 11
-969.5625469812074
 21
-1204.92216937669
 31
0.0
  0
LINE
  5
119
102
{ACAD_REACTORS
330
207
330
208
102
}
330
71
100
AcDbEntity
  8
0
  6
Continuous
 62
     2
100
AcDbLine
 10
-969.5625469812074
 20
-1201.868359852879
 30
0.0
 11
-968.3697542790409
 21
-1201.868359852879
 31
0.0
  0
LINE
  5
11A
102
{ACAD_REACTORS
330
207
330
208
102
}
330
71
100
AcDbEntity
  8
0
  6
Continuous
 62
     2
100
AcDbLine
 10
-968.3697542790409
 20
-1201.868359852879
 30
0.0
 11
-968.3697542790409
 21
-1202.937193186214
 31
0.0
  0
LINE
  5
11B
102
{ACAD_REACTORS
330
207
330
208
102
}
330
71
100
AcDbEntity
  8
0
  6
Continuous
 62
     2
100
AcDbLine
 10
-968.3697542790409
 20
-1202.937193186214
 30
0.0
 11
-967.3200967011335
 21
-1202.937193186214
 31
0.0
  0
LINE
  5
11C
102
{ACAD_REACTORS
330
215
330
216
102
}
330
71
100
AcDbEntity
  8
0
  6
Continuous
 62
     2
100
AcDbLine
 10
-971.5187270127612
 20
-1202.531465698319
 30
0.0
 11
-971.2014319512192
 21
-1202.531465698319
 31
0.0
  0
LINE
  5
11D
102
{ACAD_REACTORS
330
215
330
216
102
}
330
71
100
AcDbEntity
  8
0
  6
Continuous
 62
     2
100
AcDbLine
 10
-971.5187270127612
 20
-1203.237193347661
 30
0.0
 11
-971.2014319512192
 21
-1203.237193347661
 31
0.0
  0
LINE
  5
11E
102
{ACAD_REACTORS
330
215
330
216
102
}
330
71
100
AcDbEntity
  8
0
  6
Continuous
 62
     2
100
AcDbLine
 10
-972.7592314230152
 20
-1201.868359852879
 30
0.0
 11
-972.7592314230152
 21
-1204.92216937669
 31
0.0
  0
LINE
  5
11F
102
{ACAD_REACTORS
330
215
330
216
102
}
330
71
100
AcDbEntity
  8
0
  6
Continuous
 62
     2
100
AcDbLine
 10
-972.7592314230152
 20
-1201.868359852879
 30
0.0
 11
-970.7599594249808
 21
-1201.868359852879
 31
0.0
  0
LINE
  5
120
102
{ACAD_REACTORS
330
215
330
216
102
}
330
71
100
AcDbEntity
  8
0
  6
Continuous
 62
     2
100
AcDbLine
 10
-971.5187270127612
 20
-1203.979091135547
 30
0.0
 11
-970.7599594249808
 21
-1203.979091135547
 31
0.0
  0
LINE
  5
121
102
{ACAD_REACTORS
330
21B
330
21C
102
}
330
71
100
AcDbEntity
  8
0
  6
Continuous
 62
     2
100
AcDbLine
 10
-978.8557274563119
 20
-1202.896632331514
 30
0.0
 11
-978.8557274563119
 21
-1207.253087374231
 31
0.0
  0
LINE
  5
122
102
{ACAD_REACTORS
330
21B
330
21C
102
}
330
71
100
AcDbEntity
  8
0
  6
Continuous
 62
     2
100
AcDbLine
 10
-978.5400105332362
 20
-1202.580915408438
 30
0.0
 11
-977.0641772722267
 21
-1202.580915408438
 31
0.0
  0
LINE
  5
123
102
{ACAD_REACTORS
330
21B
330
21C
102
}
330
71
100
AcDbEntity
  8
0
  6
Continuous
 62
     2
100
AcDbLine
 10
-976.74846034915
 20
-1203.500656950575
 30
0.0
 11
-976.74846034915
 21
-1202.896632331514
 31
0.0
  0
LINE
  5
124
102
{ACAD_REACTORS
330
21B
330
21C
102
}
330
71
100
AcDbEntity
  8
0
  6
Continuous
 62
     2
100
AcDbLine
 10
-976.74846034915
 20
-1207.253087374231
 30
0.0
 11
-976.74846034915
 21
-1205.722316442699
 31
0.0
  0
LINE
  5
125
102
{ACAD_REACTORS
330
21B
330
21C
102
}
330
71
100
AcDbEntity
  8
0
  6
Continuous
 62
     2
100
AcDbLine
 10
-973.6605931192659
 20
-1208.281359852865
 30
0.0
 11
-979.1339052099828
 21
-1208.281359852865
 31
0.0
  0
LINE
  5
126
102
{ACAD_REACTORS
330
21B
330
21C
102
}
330
71
100
AcDbEntity
  8
0
  6
Continuous
 62
     2
100
AcDbLine
 10
-973.236348503882
 20
-1202.292604468281
 30
0.0
 11
-973.236348503882
 21
-1207.857115237481
 31
0.0
  0
LINE
  5
127
102
{ACAD_REACTORS
330
21B
330
21C
102
}
330
71
100
AcDbEntity
  8
0
  6
Continuous
 62
     2
100
AcDbLine
 10
-979.1339052099828
 20
-1201.868359852897
 30
0.0
 11
-973.6605931192659
 21
-1201.868359852897
 31
0.0
  0
LINE
  5
128
102
{ACAD_REACTORS
330
21B
330
21C
102
}
330
71
100
AcDbEntity
  8
0
  6
Continuous
 62
     2
100
AcDbLine
 10
-979.5581498253656
 20
-1202.292604468281
 30
0.0
 11
-979.5581498253656
 21
-1207.857115237481
 31
0.0
  0
LINE
  5
129
102
{ACAD_REACTORS
330
21B
330
21C
102
}
330
71
100
AcDbEntity
  8
0
  6
Continuous
 62
     2
100
AcDbLine
 10
-977.0641772722267
 20
-1207.568804297308
 30
0.0
 11
-978.5400105332362
 21
-1207.568804297308
 31
0.0
  0
LINE
  5
12A
102
{ACAD_REACTORS
330
215
330
216
102
}
330
71
100
AcDbEntity
  8
0
  6
Continuous
 62
     2
100
AcDbLine
 10
-971.5187270127612
 20
-1204.92216937669
 30
0.0
 11
-971.5187270127612
 21
-1203.979091135547
 31
0.0
  0
LINE
  5
12B
102
{ACAD_REACTORS
330
215
330
216
102
}
330
71
100
AcDbEntity
  8
0
  6
Continuous
 62
     2
100
AcDbLine
 10
-972.7592314230152
 20
-1204.92216937669
 30
0.0
 11
-971.5187270127612
 21
-1204.92216937669
 31
0.0
  0
LINE
  5
12C
102
{ACAD_REACTORS
330
215
330
216
102
}
330
71
100
AcDbEntity
  8
0
  6
Continuous
 62
     2
100
AcDbLine
 10
-971.5187270127612
 20
-1203.237193347661
 30
0.0
 11
-971.5187270127612
 21
-1202.531465698319
 31
0.0
  0
LINE
  5
12D
102
{ACAD_REACTORS
330
207
330
208
102
}
330
71
100
AcDbEntity
  8
0
  6
Continuous
 62
     2
100
AcDbLine
 10
-969.5625469812074
 20
-1201.868359852879
 30
0.0
 11
-969.5625469812074
 21
-1204.92216937669
 31
0.0
  0
LINE
  5
12E
102
{ACAD_REACTORS
330
207
330
208
102
}
330
71
100
AcDbEntity
  8
0
  6
Continuous
 62
     2
100
AcDbLine
 10
-968.3697542790409
 20
-1203.787897267847
 30
0.0
 11
-968.3697542790409
 21
-1204.92216937669
 31
0.0
  0
LINE
  5
12F
102
{ACAD_REACTORS
330
207
330
208
102
}
330
71
100
AcDbEntity
  8
0
  6
Continuous
 62
     2
100
AcDbLine
 10
-967.3200967011335
 20
-1203.787897267847
 30
0.0
 11
-968.3697542790409
 21
-1203.787897267847
 31
0.0
  0
LINE
  5
130
102
{ACAD_REACTORS
330
207
330
208
102
}
330
71
100
AcDbEntity
  8
0
  6
Continuous
 62
     2
100
AcDbLine
 10
-967.3200967011335
 20
-1201.868359852879
 30
0.0
 11
-966.127303998967
 21
-1201.868359852879
 31
0.0
  0
LINE
  5
131
102
{ACAD_REACTORS
330
207
330
208
102
}
330
71
100
AcDbEntity
  8
0
  6
Continuous
 62
     2
100
AcDbLine
 10
-967.3200967011335
 20
-1202.937193186214
 30
0.0
 11
-967.3200967011335
 21
-1201.868359852879
 31
0.0
  0
LINE
  5
132
102
{ACAD_REACTORS
330
219
330
21A
102
}
330
71
100
AcDbEntity
  8
0
  6
Continuous
 62
     2
100
AcDbLine
 10
-961.3084214822125
 20
-1202.566373458322
 30
0.0
 11
-961.3084214822125
 21
-1201.868359852879
 31
0.0
  0
LINE
  5
133
102
{ACAD_REACTORS
330
219
330
21A
102
}
330
71
100
AcDbEntity
  8
0
  6
Continuous
 62
     2
100
AcDbLine
 10
-964.4587412059934
 20
-1201.868359852879
 30
0.0
 11
-961.3084214822125
 21
-1201.868359852879
 31
0.0
  0
LINE
  5
134
102
{ACAD_REACTORS
330
219
330
21A
102
}
330
71
100
AcDbEntity
  8
0
  6
Continuous
 62
     2
100
AcDbLine
 10
-964.4587412059934
 20
-1204.92216937669
 30
0.0
 11
-961.3084214822125
 21
-1204.92216937669
 31
0.0
  0
LINE
  5
135
102
{ACAD_REACTORS
330
219
330
21A
102
}
330
71
100
AcDbEntity
  8
0
  6
Continuous
 62
     2
100
AcDbLine
 10
-961.3084214822125
 20
-1204.92216937669
 30
0.0
 11
-961.3084214822125
 21
-1204.224155771248
 31
0.0
  0
LINE
  5
136
102
{ACAD_REACTORS
330
219
330
21A
102
}
330
71
100
AcDbEntity
  8
0
  6
Continuous
 62
     2
100
AcDbLine
 10
-961.3084214822125
 20
-1204.224155771248
 30
0.0
 11
-962.6443493086401
 21
-1204.224155771248
 31
0.0
  0
LINE
  5
137
102
{ACAD_REACTORS
330
219
330
21A
102
}
330
71
100
AcDbEntity
  8
0
  6
Continuous
 62
     2
100
AcDbLine
 10
-962.6443493086401
 20
-1204.224155771248
 30
0.0
 11
-962.6443493086401
 21
-1203.744271417506
 31
0.0
  0
LINE
  5
138
102
{ACAD_REACTORS
330
219
330
21A
102
}
330
71
100
AcDbEntity
  8
0
  6
Continuous
 62
     2
100
AcDbLine
 10
-962.6443493086401
 20
-1202.566373458322
 30
0.0
 11
-961.3084214822125
 21
-1202.566373458322
 31
0.0
  0
LINE
  5
139
102
{ACAD_REACTORS
330
209
330
20A
102
}
330
71
100
AcDbEntity
  8
0
  6
Continuous
 62
     2
100
AcDbLine
 10
-965.1255090600316
 20
-1208.281359852865
 30
0.0
 11
-965.1255090600316
 21
-1206.97258434266
 31
0.0
  0
LINE
  5
13A
102
{ACAD_REACTORS
330
209
330
20A
102
}
330
71
100
AcDbEntity
  8
0
  6
Continuous
 62
     2
100
AcDbLine
 10
-965.1255090600316
 20
-1206.97258434266
 30
0.0
 11
-963.8850046497787
 21
-1208.281359852865
 31
0.0
  0
LINE
  5
13B
102
{ACAD_REACTORS
330
209
330
20A
102
}
330
71
100
AcDbEntity
  8
0
  6
Continuous
 62
     2
100
AcDbLine
 10
-962.6922119476123
 20
-1208.281359852865
 30
0.0
 11
-962.6922119476123
 21
-1205.227550329053
 31
0.0
  0
LINE
  5
13C
102
{ACAD_REACTORS
330
209
330
20A
102
}
330
71
100
AcDbEntity
  8
0
  6
Continuous
 62
     2
100
AcDbLine
 10
-962.6922119476123
 20
-1205.227550329053
 30
0.0
 11
-963.8850046497787
 21
-1205.227550329053
 31
0.0
  0
LINE
  5
13D
102
{ACAD_REACTORS
330
209
330
20A
102
}
330
71
100
AcDbEntity
  8
0
  6
Continuous
 62
     2
100
AcDbLine
 10
-963.8850046497787
 20
-1205.227550329053
 30
0.0
 11
-963.8850046497787
 21
-1206.536325839259
 31
0.0
  0
LINE
  5
13E
102
{ACAD_REACTORS
330
209
330
20A
102
}
330
71
100
AcDbEntity
  8
0
  6
Continuous
 62
     2
100
AcDbLine
 10
-963.8850046497787
 20
-1206.536325839259
 30
0.0
 11
-965.1255090600316
 21
-1205.227550329053
 31
0.0
  0
LINE
  5
13F
102
{ACAD_REACTORS
330
20B
330
20C
102
}
330
71
100
AcDbEntity
  8
0
  6
Continuous
 62
     2
100
AcDbLine
 10
-959.8770702396131
 20
-1203.613393866486
 30
0.0
 11
-958.636565829359
 21
-1204.92216937669
 31
0.0
  0
LINE
  5
140
102
{ACAD_REACTORS
330
20B
330
20C
102
}
330
71
100
AcDbEntity
  8
0
  6
Continuous
 62
     2
100
AcDbLine
 10
-958.636565829359
 20
-1204.92216937669
 30
0.0
 11
-957.4437731271923
 21
-1204.92216937669
 31
0.0
  0
LINE
  5
141
102
{ACAD_REACTORS
330
20B
330
20C
102
}
330
71
100
AcDbEntity
  8
0
  6
Continuous
 62
     2
100
AcDbLine
 10
-957.4437731271923
 20
-1204.92216937669
 30
0.0
 11
-957.4437731271923
 21
-1201.868359852879
 31
0.0
  0
LINE
  5
142
102
{ACAD_REACTORS
330
20B
330
20C
102
}
330
71
100
AcDbEntity
  8
0
  6
Continuous
 62
     2
100
AcDbLine
 10
-957.4437731271923
 20
-1201.868359852879
 30
0.0
 11
-958.636565829359
 21
-1201.868359852879
 31
0.0
  0
LINE
  5
143
102
{ACAD_REACTORS
330
20B
330
20C
102
}
330
71
100
AcDbEntity
  8
0
  6
Continuous
 62
     2
100
AcDbLine
 10
-958.636565829359
 20
-1203.177135363084
 30
0.0
 11
-959.8770702396131
 21
-1201.868359852879
 31
0.0
  0
LINE
  5
144
102
{ACAD_REACTORS
330
20B
330
20C
102
}
330
71
100
AcDbEntity
  8
0
  6
Continuous
 62
     2
100
AcDbLine
 10
-961.0698629417795
 20
-1204.92216937669
 30
0.0
 11
-959.8770702396131
 21
-1204.92216937669
 31
0.0
  0
LINE
  5
145
102
{ACAD_REACTORS
330
20D
330
20E
102
}
330
71
100
AcDbEntity
  8
0
  6
Continuous
 62
     2
100
AcDbLine
 10
-962.5490768233522
 20
-1205.227550329053
 30
0.0
 11
-962.5490768233522
 21
-1206.012815635177
 31
0.0
  0
LINE
  5
146
102
{ACAD_REACTORS
330
20D
330
20E
102
}
330
71
100
AcDbEntity
  8
0
  6
Continuous
 62
     2
100
AcDbLine
 10
-961.7379777858775
 20
-1206.012815635177
 30
0.0
 11
-961.7379777858775
 21
-1208.281359852865
 31
0.0
  0
LINE
  5
147
102
{ACAD_REACTORS
330
20D
330
20E
102
}
330
71
100
AcDbEntity
  8
0
  6
Continuous
 62
     2
100
AcDbLine
 10
-961.7379777858775
 20
-1208.281359852865
 30
0.0
 11
-960.5451850837111
 21
-1208.281359852865
 31
0.0
  0
LINE
  5
148
102
{ACAD_REACTORS
330
20F
330
210
102
}
330
71
100
AcDbEntity
  8
0
  6
Continuous
 62
     2
100
AcDbLine
 10
-957.5956585902915
 20
-1208.281359852865
 30
0.0
 11
-957.8071386437673
 21
-1207.740399308647
 31
0.0
  0
LINE
  5
149
102
{ACAD_REACTORS
330
20F
330
210
102
}
330
71
100
AcDbEntity
  8
0
  6
Continuous
 62
     2
100
AcDbLine
 10
-957.7531072269778
 20
-1205.227550329053
 30
0.0
 11
-956.3551541800376
 21
-1208.281359852865
 31
0.0
  0
LINE
  5
14A
102
{ACAD_REACTORS
330
20F
330
210
102
}
330
71
100
AcDbEntity
  8
0
  6
Continuous
 62
     2
100
AcDbLine
 10
-958.9936116372307
 20
-1205.227550329053
 30
0.0
 11
-957.7531072269778
 21
-1205.227550329053
 31
0.0
  0
LINE
  5
14B
102
{ACAD_REACTORS
330
20F
330
210
102
}
330
71
100
AcDbEntity
  8
0
  6
Continuous
 62
     2
100
AcDbLine
 10
-960.3915646841699
 20
-1208.281359852865
 30
0.0
 11
-959.151060273917
 21
-1208.281359852865
 31
0.0
  0
LINE
  5
14C
102
{ACAD_REACTORS
330
20F
330
210
102
}
330
71
100
AcDbEntity
  8
0
  6
Continuous
 62
     2
100
AcDbLine
 10
-958.6735246692961
 20
-1207.05983604334
 30
0.0
 11
-958.0731941949136
 21
-1207.05983604334
 31
0.0
  0
LINE
  5
14D
102
{ACAD_REACTORS
330
20F
330
210
102
}
330
71
100
AcDbEntity
  8
0
  6
Continuous
 62
     2
100
AcDbLine
 10
-958.0731941949136
 20
-1207.05983604334
 30
0.0
 11
-958.3733594321038
 21
-1206.292021077353
 31
0.0
  0
LINE
  5
14E
102
{ACAD_REACTORS
330
211
330
212
102
}
330
71
100
AcDbEntity
  8
0
  6
Continuous
 62
     2
100
AcDbLine
 10
-955.9647101765056
 20
-1204.92216937669
 30
0.0
 11
-957.2052145867585
 21
-1204.92216937669
 31
0.0
  0
LINE
  5
14F
102
{ACAD_REACTORS
330
213
330
214
102
}
330
71
100
AcDbEntity
  8
0
  6
Continuous
 62
     2
100
AcDbLine
 10
-954.4427066885406
 20
-1204.92216937669
 30
0.0
 11
-955.8454309062887
 21
-1204.92216937669
 31
0.0
  0
LINE
  5
150
102
{ACAD_REACTORS
330
213
330
214
102
}
330
71
100
AcDbEntity
  8
0
  6
Continuous
 62
     2
100
AcDbLine
 10
-954.4427066885406
 20
-1204.92216937669
 30
0.0
 11
-953.7461157504748
 21
-1204.134437591396
 31
0.0
  0
LINE
  5
151
102
{ACAD_REACTORS
330
213
330
214
102
}
330
71
100
AcDbEntity
  8
0
  6
Continuous
 62
     2
100
AcDbLine
 10
-953.144948228582
 20
-1201.868359852879
 30
0.0
 11
-951.7422240108348
 21
-1201.868359852879
 31
0.0
  0
LINE
  5
152
102
{ACAD_REACTORS
330
213
330
214
102
}
330
71
100
AcDbEntity
  8
0
  6
Continuous
 62
     2
100
AcDbLine
 10
-955.7500074901159
 20
-1201.868359852879
 30
0.0
 11
-954.4474778593484
 21
-1203.341310382915
 31
0.0
  0
LINE
  5
153
102
{ACAD_REACTORS
330
213
330
214
102
}
330
71
100
AcDbEntity
  8
0
  6
Continuous
 62
     2
100
AcDbLine
 10
-955.8454309062887
 20
-1204.92216937669
 30
0.0
 11
-954.4474778593484
 21
-1203.341310382915
 31
0.0
  0
LINE
  5
154
102
{ACAD_REACTORS
330
21D
330
21E
102
}
330
71
100
AcDbEntity
  8
0
  6
Continuous
 62
     2
100
AcDbLine
 10
-953.9846742909089
 20
-1207.234339444701
 30
0.0
 11
-953.9846742909089
 21
-1208.106856451504
 31
0.0
  0
LINE
  5
155
102
{ACAD_REACTORS
330
21D
330
21E
102
}
330
71
100
AcDbEntity
  8
0
  6
Continuous
 62
     2
100
AcDbLine
 10
-954.7543316338703
 20
-1206.012815635177
 30
0.0
 11
-953.6506923343022
 21
-1206.012815635177
 31
0.0
  0
LINE
  5
156
102
{ACAD_REACTORS
330
21F
330
220
102
}
330
71
100
AcDbEntity
  8
0
  6
Continuous
 62
     2
100
AcDbLine
 10
-970.0873757701606
 20
-1207.2343394447
 30
0.0
 11
-970.0873757701606
 21
-1208.106856451504
 31
0.0
  0
LINE
  5
157
102
{ACAD_REACTORS
330
21F
330
220
102
}
330
71
100
AcDbEntity
  8
0
  6
Continuous
 62
     2
100
AcDbLine
 10
-970.0873757701606
 20
-1206.274570737218
 30
0.0
 11
-970.0873757701606
 21
-1205.402053730414
 31
0.0
  0
LINE
  5
158
330
71
100
AcDbEntity
  8
1
  6
Continuous
 62
     7
100
AcDbLine
 10
-854.2500001851769
 20
-1207.074859852881
 30
0.0
 11
-947.3948047119281
 21
-1207.074859852881
 31
0.0
  0
LINE
  5
159
330
71
100
AcDbEntity
  8
1
  6
Continuous
 62
     7
100
AcDbLine
 10
-863.1684084668556
 20
-1190.074859852881
 30
0.0
 11
-863.1684084668556
 21
-1198.574859852881
 31
0.0
  0
LINE
  5
15A
330
71
100
AcDbEntity
  8
1
  6
Continuous
 62
     7
100
AcDbLine
 10
-889.6684084668552
 20
-1190.074859852881
 30
0.0
 11
-889.6684084668552
 21
-1198.574859852881
 31
0.0
  0
LINE
  5
15B
330
71
100
AcDbEntity
  8
1
  6
Continuous
 62
     7
100
AcDbLine
 10
-947.3948047119281
 20
-1198.574859852881
 30
0.0
 11
-947.3948047119281
 21
-1190.074859852881
 31
0.0
  0
LINE
  5
15C
330
71
100
AcDbEntity
  8
1
  6
Continuous
 62
     7
100
AcDbLine
 10
-983.7948047119281
 20
-1198.574859852881
 30
0.0
 11
-983.7948047119281
 21
-1190.074859852881
 31
0.0
  0
LINE
  5
15D
330
71
100
AcDbEntity
  8
1
  6
Continuous
 62
     6
100
AcDbLine
 10
-947.3948047119281
 20
-1198.574859852881
 30
0.0
 11
-854.2500001851764
 21
-1198.574859852881
 31
0.0
  0
LINE
  5
15E
330
71
100
AcDbEntity
  8
1
  6
Continuous
 62
     7
100
AcDbLine
 10
-919.4948047119282
 20
-1207.074859852881
 30
0.0
 11
-919.4948047119282
 21
-1198.574859852881
 31
0.0
  0
LINE
  5
15F
330
71
100
AcDbEntity
  8
1
  6
Continuous
 62
     6
100
AcDbLine
 10
-854.2500001851764
 20
-1198.574859852881
 30
0.0
 11
-854.2500001851764
 21
-1190.074859852881
 31
0.0
  0
LINE
  5
160
330
71
100
AcDbEntity
  8
1
  6
Continuous
 62
     2
100
AcDbLine
 10
-990.9166668518448
 20
-1215.574859852883
 30
0.0
 11
-990.9166668518448
 21
-1215.57485985288
 31
0.0
  0
LINE
  5
161
330
71
100
AcDbEntity
  8
1
  6
Continuous
 62
     6
100
AcDbLine
 10
-1127.583333518511
 20
-1215.57485985288
 30
0.0
 11
-983.7948047119281
 21
-1215.574859852884
 31
0.0
  0
LINE
  5
162
330
71
100
AcDbEntity
  8
1
  6
Continuous
 62
     6
100
AcDbLine
 10
-854.2500001851782
 20
-1215.574859852881
 30
0.0
 11
-854.2500001851786
 21
-1207.074859852881
 31
0.0
  0
LINE
  5
163
330
71
100
AcDbEntity
  8
1
  6
Continuous
 62
     6
100
AcDbLine
 10
-1249.250000185178
 20
-1215.57485985288
 30
0.0
 11
-1249.250000185179
 21
-928.5748598528801
 31
0.0
  0
LINE
  5
164
330
71
100
AcDbEntity
  8
1
  6
Continuous
 62
     2
100
AcDbLine
 10
-1269.250000185179
 20
-1072.07485985288
 30
0.0
 11
-1269.250000185179
 21
-1220.57485985288
 31
0.0
  0
LINE
  5
165
330
71
100
AcDbEntity
  8
1
  6
Continuous
 62
     2
100
AcDbLine
 10
-1269.250000185179
 20
-1072.07485985288
 30
0.0
 11
-1259.250000185179
 21
-1072.07485985288
 31
0.0
  0
LINE
  5
166
330
71
100
AcDbEntity
  8
1
  6
Continuous
 62
     2
100
AcDbLine
 10
-1269.250000185179
 20
-923.5748598528803
 30
0.0
 11
-1269.250000185179
 21
-1072.07485985288
 31
0.0
  0
LINE
  5
167
330
71
100
AcDbEntity
  8
1
  6
Continuous
 62
     2
100
AcDbLine
 10
-1039.250000185181
 20
-923.5748598528803
 30
0.0
 11
-1059.250000185178
 21
-923.5748598528803
 31
0.0
  0
LINE
  5
168
330
71
100
AcDbEntity
  8
1
  6
Continuous
 62
     2
100
AcDbLine
 10
-1039.250000185181
 20
-923.5748598528803
 30
0.0
 11
-1039.250000185181
 21
-927.5748598528801
 31
0.0
  0
LINE
  5
169
330
71
100
AcDbEntity
  8
1
  6
Continuous
 62
     2
100
AcDbLine
 10
-1249.250000185179
 20
-923.5748598528803
 30
0.0
 11
-1269.250000185179
 21
-923.5748598528803
 31
0.0
  0
LINE
  5
16A
330
71
100
AcDbEntity
  8
1
  6
Continuous
 62
     2
100
AcDbLine
 10
-1249.250000185179
 20
-923.5748598528803
 30
0.0
 11
-1249.250000185179
 21
-927.5748598528801
 31
0.0
  0
LINE
  5
16B
330
71
100
AcDbEntity
  8
1
  6
Continuous
 62
     2
100
AcDbLine
 10
-1195.916666851845
 20
-923.5748598528803
 30
0.0
 11
-1249.250000185179
 21
-923.5748598528803
 31
0.0
  0
LINE
  5
16C
330
71
100
AcDbEntity
  8
1
  6
Continuous
 62
     6
100
AcDbLine
 10
-1195.916666851845
 20
-928.5748598528801
 30
0.0
 11
-1127.583333518511
 21
-928.5748598528803
 31
0.0
  0
LINE
  5
16D
330
71
100
AcDbEntity
  8
1
  6
Continuous
 62
     2
100
AcDbLine
 10
-1195.916666851845
 20
-928.5748598528801
 30
0.0
 11
-1195.916666851845
 21
-923.5748598528803
 31
0.0
  0
LINE
  5
16E
330
71
100
AcDbEntity
  8
1
  6
Continuous
 62
     2
100
AcDbLine
 10
-1127.583333518511
 20
-923.5748598528803
 30
0.0
 11
-1195.916666851845
 21
-923.5748598528803
 31
0.0
  0
LINE
  5
16F
330
71
100
AcDbEntity
  8
1
  6
Continuous
 62
     6
100
AcDbLine
 10
-1127.583333518511
 20
-928.5748598528803
 30
0.0
 11
-1059.250000185178
 21
-928.5748598528803
 31
0.0
  0
LINE
  5
170
330
71
100
AcDbEntity
  8
1
  6
Continuous
 62
     2
100
AcDbLine
 10
-1127.583333518511
 20
-928.5748598528803
 30
0.0
 11
-1127.583333518511
 21
-923.5748598528803
 31
0.0
  0
LINE
  5
171
330
71
100
AcDbEntity
  8
1
  6
Continuous
 62
     2
100
AcDbLine
 10
-1059.250000185178
 20
-923.5748598528803
 30
0.0
 11
-1127.583333518511
 21
-923.5748598528803
 31
0.0
  0
LINE
  5
172
330
71
100
AcDbEntity
  8
1
  6
Continuous
 62
     6
100
AcDbLine
 10
-1059.250000185178
 20
-928.5748598528803
 30
0.0
 11
-990.9166668518448
 21
-928.5748598528803
 31
0.0
  0
LINE
  5
173
330
71
100
AcDbEntity
  8
1
  6
Continuous
 62
     2
100
AcDbLine
 10
-1059.250000185178
 20
-928.5748598528803
 30
0.0
 11
-1059.250000185178
 21
-923.5748598528803
 31
0.0
  0
LINE
  5
174
330
71
100
AcDbEntity
  8
1
  6
Continuous
 62
     2
100
AcDbLine
 10
-990.9166668518448
 20
-923.5748598528803
 30
0.0
 11
-1039.250000185181
 21
-923.5748598528803
 31
0.0
  0
LINE
  5
175
330
71
100
AcDbEntity
  8
1
  6
Continuous
 62
     6
100
AcDbLine
 10
-990.9166668518448
 20
-928.5748598528803
 30
0.0
 11
-922.5833335185116
 21
-928.5748598528803
 31
0.0
  0
LINE
  5
176
330
71
100
AcDbEntity
  8
1
  6
Continuous
 62
     2
100
AcDbLine
 10
-990.9166668518448
 20
-928.5748598528803
 30
0.0
 11
-990.9166668518448
 21
-923.5748598528803
 31
0.0
  0
LINE
  5
177
330
71
100
AcDbEntity
  8
1
  6
Continuous
 62
     2
100
AcDbLine
 10
-922.5833335185116
 20
-923.5748598528803
 30
0.0
 11
-990.9166668518448
 21
-923.5748598528803
 31
0.0
  0
LINE
  5
178
330
71
100
AcDbEntity
  8
1
  6
Continuous
 62
     6
100
AcDbLine
 10
-922.5833335185116
 20
-928.5748598528803
 30
0.0
 11
-854.2500001851806
 21
-928.5748598528803
 31
0.0
  0
LINE
  5
179
330
71
100
AcDbEntity
  8
1
  6
Continuous
 62
     2
100
AcDbLine
 10
-922.5833335185116
 20
-928.5748598528803
 30
0.0
 11
-922.5833335185116
 21
-923.5748598528803
 31
0.0
  0
LINE
  5
17A
330
71
100
AcDbEntity
  8
1
  6
Continuous
 62
     2
100
AcDbLine
 10
-854.2500001851806
 20
-923.5748598528803
 30
0.0
 11
-922.5833335185116
 21
-923.5748598528803
 31
0.0
  0
LINE
  5
17B
330
71
100
AcDbEntity
  8
1
  6
Continuous
 62
     6
100
AcDbLine
 10
-1249.250000185179
 20
-928.5748598528801
 30
0.0
 11
-1195.916666851845
 21
-928.5748598528801
 31
0.0
  0
LINE
  5
17C
330
71
100
AcDbEntity
  8
1
  6
Continuous
 62
     6
100
AcDbLine
 10
-854.2500001851781
 20
-1100.77485985288
 30
0.0
 11
-854.2500001851782
 21
-1158.17485985288
 31
0.0
  0
LINE
  5
17D
330
71
100
AcDbEntity
  8
1
  6
Continuous
 62
     2
100
AcDbLine
 10
-854.2500001851781
 20
-1100.77485985288
 30
0.0
 11
-849.2500001851806
 21
-1100.77485985288
 31
0.0
  0
LINE
  5
17E
330
71
100
AcDbEntity
  8
1
  6
Continuous
 62
     2
100
AcDbLine
 10
-849.2500001851806
 20
-1043.37485985288
 30
0.0
 11
-849.2500001851806
 21
-1100.77485985288
 31
0.0
  0
LINE
  5
17F
330
71
100
AcDbEntity
  8
1
  6
Continuous
 62
     6
100
AcDbLine
 10
-854.2500001851781
 20
-1043.37485985288
 30
0.0
 11
-854.2500001851781
 21
-1100.77485985288
 31
0.0
  0
LINE
  5
180
330
71
100
AcDbEntity
  8
1
  6
Continuous
 62
     2
100
AcDbLine
 10
-854.2500001851781
 20
-1043.37485985288
 30
0.0
 11
-849.2500001851806
 21
-1043.37485985288
 31
0.0
  0
LINE
  5
181
330
71
100
AcDbEntity
  8
1
  6
Continuous
 62
     2
100
AcDbLine
 10
-849.2500001851806
 20
-985.9748598528804
 30
0.0
 11
-849.2500001851806
 21
-1043.37485985288
 31
0.0
  0
LINE
  5
182
330
71
100
AcDbEntity
  8
1
  6
Continuous
 62
     6
100
AcDbLine
 10
-854.2500001851802
 20
-985.9748598528804
 30
0.0
 11
-854.2500001851781
 21
-1043.37485985288
 31
0.0
  0
LINE
  5
183
330
71
100
AcDbEntity
  8
1
  6
Continuous
 62
     2
100
AcDbLine
 10
-854.2500001851802
 20
-985.9748598528804
 30
0.0
 11
-849.2500001851806
 21
-985.9748598528804
 31
0.0
  0
LINE
  5
184
330
71
100
AcDbEntity
  8
1
  6
Continuous
 62
     2
100
AcDbLine
 10
-849.2500001851806
 20
-928.5748598528803
 30
0.0
 11
-849.2500001851806
 21
-985.9748598528804
 31
0.0
  0
LINE
  5
185
330
71
100
AcDbEntity
  8
1
  6
Continuous
 62
     2
100
AcDbLine
 10
-854.2500001851806
 20
-928.5748598528803
 30
0.0
 11
-849.2500001851806
 21
-928.5748598528803
 31
0.0
  0
LINE
  5
186
330
71
100
AcDbEntity
  8
1
  6
Continuous
 62
     2
100
AcDbLine
 10
-854.2500001851806
 20
-928.5748598528803
 30
0.0
 11
-854.2500001851806
 21
-923.5748598528803
 31
0.0
  0
LINE
  5
187
330
71
100
AcDbEntity
  8
1
  6
Continuous
 62
     2
100
AcDbLine
 10
-849.2500001851806
 20
-923.5748598528803
 30
0.0
 11
-849.2500001851806
 21
-928.5748598528803
 31
0.0
  0
LINE
  5
188
330
71
100
AcDbEntity
  8
1
  6
Continuous
 62
     6
100
AcDbLine
 10
-854.2500001851806
 20
-928.5748598528803
 30
0.0
 11
-854.2500001851802
 21
-985.9748598528804
 31
0.0
  0
LINE
  5
189
330
71
100
AcDbEntity
  8
1
  6
Continuous
 62
     2
100
AcDbLine
 10
-849.2500001851806
 20
-923.5748598528803
 30
0.0
 11
-854.2500001851806
 21
-923.5748598528803
 31
0.0
  0
LINE
  5
18A
330
71
100
AcDbEntity
  8
1
  6
Continuous
 62
     2
100
AcDbLine
 10
-849.2500001851806
 20
-1215.57485985288
 30
0.0
 11
-849.2500001851806
 21
-1158.17485985288
 31
0.0
  0
LINE
  5
18B
330
71
100
AcDbEntity
  8
1
  6
Continuous
 62
     2
100
AcDbLine
 10
-849.2500001851806
 20
-1215.57485985288
 30
0.0
 11
-849.2500001851806
 21
-1220.57485985288
 31
0.0
  0
LINE
  5
18C
330
71
100
AcDbEntity
  8
1
  6
Continuous
 62
     2
100
AcDbLine
 10
-849.2500001851806
 20
-1220.57485985288
 30
0.0
 11
-854.2500001851781
 21
-1220.57485985288
 31
0.0
  0
LINE
  5
18D
330
71
100
AcDbEntity
  8
1
  6
Continuous
 62
     2
100
AcDbLine
 10
-990.9166668518448
 20
-1220.57485985288
 30
0.0
 11
-922.5833335185116
 21
-1220.57485985288
 31
0.0
  0
LINE
  5
18E
330
71
100
AcDbEntity
  8
1
  6
Continuous
 62
     2
100
AcDbLine
 10
-1039.250000185181
 20
-1220.57485985288
 30
0.0
 11
-990.9166668518448
 21
-1220.57485985288
 31
0.0
  0
LINE
  5
18F
330
71
100
AcDbEntity
  8
1
  6
Continuous
 62
     2
100
AcDbLine
 10
-1039.250000185181
 20
-1220.57485985288
 30
0.0
 11
-1039.250000185181
 21
-1216.57485985288
 31
0.0
  0
LINE
  5
190
330
71
100
AcDbEntity
  8
1
  6
Continuous
 62
     2
100
AcDbLine
 10
-1039.250000185181
 20
-1220.57485985288
 30
0.0
 11
-1059.250000185178
 21
-1220.57485985288
 31
0.0
  0
LINE
  5
191
330
71
100
AcDbEntity
  8
1
  6
Continuous
 62
     2
100
AcDbLine
 10
-1249.250000185179
 20
-1220.57485985288
 30
0.0
 11
-1195.916666851845
 21
-1220.57485985288
 31
0.0
  0
LINE
  5
192
330
71
100
AcDbEntity
  8
1
  6
Continuous
 62
     2
100
AcDbLine
 10
-1249.250000185179
 20
-1220.57485985288
 30
0.0
 11
-1249.250000185179
 21
-1216.57485985288
 31
0.0
  0
LINE
  5
193
330
71
100
AcDbEntity
  8
1
  6
Continuous
 62
     2
100
AcDbLine
 10
-1127.583333518511
 20
-1220.57485985288
 30
0.0
 11
-1127.583333518511
 21
-1215.57485985288
 31
0.0
  0
LINE
  5
194
330
71
100
AcDbEntity
  8
1
  6
Continuous
 62
     6
100
AcDbLine
 10
-1195.916666851845
 20
-1215.57485985288
 30
0.0
 11
-1249.250000185178
 21
-1215.57485985288
 31
0.0
  0
LINE
  5
195
330
71
100
AcDbEntity
  8
1
  6
Continuous
 62
     6
100
AcDbLine
 10
-1195.916666851845
 20
-1215.57485985288
 30
0.0
 11
-1127.583333518511
 21
-1215.57485985288
 31
0.0
  0
LINE
  5
196
330
71
100
AcDbEntity
  8
1
  6
Continuous
 62
     2
100
AcDbLine
 10
-1195.916666851845
 20
-1220.57485985288
 30
0.0
 11
-1127.583333518511
 21
-1220.57485985288
 31
0.0
  0
LINE
  5
197
330
71
100
AcDbEntity
  8
1
  6
Continuous
 62
     2
100
AcDbLine
 10
-1195.916666851845
 20
-1220.57485985288
 30
0.0
 11
-1195.916666851845
 21
-1215.57485985288
 31
0.0
  0
LINE
  5
198
330
71
100
AcDbEntity
  8
1
  6
Continuous
 62
     2
100
AcDbLine
 10
-1249.250000185179
 20
-1220.57485985288
 30
0.0
 11
-1269.250000185179
 21
-1220.57485985288
 31
0.0
  0
LINE
  5
199
330
71
100
AcDbEntity
  8
1
  6
Continuous
 62
     2
100
AcDbLine
 10
-849.2500001851806
 20
-1158.17485985288
 30
0.0
 11
-854.2500001851782
 21
-1158.17485985288
 31
0.0
  0
LINE
  5
19A
330
71
100
AcDbEntity
  8
1
  6
Continuous
 62
     2
100
AcDbLine
 10
-849.2500001851806
 20
-1158.17485985288
 30
0.0
 11
-849.2500001851806
 21
-1100.77485985288
 31
0.0
  0
LINE
  5
19B
330
71
100
AcDbEntity
  8
1
  6
Continuous
 62
     2
100
AcDbLine
 10
-1059.250000185178
 20
-1220.57485985288
 30
0.0
 11
-1059.250000185178
 21
-1215.57485985288
 31
0.0
  0
LINE
  5
19C
330
71
100
AcDbEntity
  8
1
  6
Continuous
 62
     2
100
AcDbLine
 10
-990.9166668518448
 20
-1220.57485985288
 30
0.0
 11
-990.9166668518448
 21
-1215.574859852883
 31
0.0
  0
LINE
  5
19D
330
71
100
AcDbEntity
  8
1
  6
Continuous
 62
     2
100
AcDbLine
 10
-922.5833335185116
 20
-1220.57485985288
 30
0.0
 11
-922.5833335185116
 21
-1215.57485985288
 31
0.0
  0
LINE
  5
19E
330
71
100
AcDbEntity
  8
1
  6
Continuous
 62
     2
100
AcDbLine
 10
-922.5833335185116
 20
-1220.57485985288
 30
0.0
 11
-854.2500001851781
 21
-1220.57485985288
 31
0.0
  0
LINE
  5
19F
330
71
100
AcDbEntity
  8
1
  6
Continuous
 62
     2
100
AcDbLine
 10
-1059.250000185178
 20
-1220.57485985288
 30
0.0
 11
-1127.583333518511
 21
-1220.57485985288
 31
0.0
  0
LINE
  5
1A0
330
71
100
AcDbEntity
  8
1
  6
Continuous
 62
     6
100
AcDbLine
 10
-854.2500001851791
 20
-1194.324859852881
 30
0.0
 11
-854.2500001851782
 21
-1158.17485985288
 31
0.0
  0
LINE
  5
1A1
330
71
100
AcDbEntity
  8
1
  6
Continuous
 62
     6
100
AcDbLine
 10
-854.2500001851781
 20
-1198.574859852881
 30
0.0
 11
-854.2500001851791
 21
-1194.324859852881
 31
0.0
  0
LINE
  5
1A2
330
71
100
AcDbEntity
  8
1
  6
Continuous
 62
     6
100
AcDbLine
 10
-854.2500001851786
 20
-1207.074859852881
 30
0.0
 11
-854.2500001851781
 21
-1198.574859852881
 31
0.0
  0
LINE
  5
1A3
330
71
100
AcDbEntity
  8
1
  6
Continuous
 62
     6
100
AcDbLine
 10
-922.5833335185116
 20
-1215.57485985288
 30
0.0
 11
-854.2500001851782
 21
-1215.574859852881
 31
0.0
  0
ARC
  5
1A4
102
{ACAD_REACTORS
330
21F
330
220
102
}
330
71
100
AcDbEntity
  8
0
  6
Continuous
 62
     2
100
AcDbCircle
 10
-971.4233036872785
 20
-1210.067136036215
 30
0.0
 40
4.852596863498158
100
AcDbArc
 50
74.02000874164733
 51
84.84185523037584
  0
ARC
  5
1A5
102
{ACAD_REACTORS
330
21F
330
220
102
}
330
71
100
AcDbEntity
  8
0
  6
Continuous
 62
     2
100
AcDbCircle
 10
-970.8472630785247
 20
-1206.911375680331
 30
0.0
 40
0.9059297849857901
100
AcDbArc
 50
71.55192388186713
 51
113.3722778881337
  0
ARC
  5
1A6
102
{ACAD_REACTORS
330
21F
330
220
102
}
330
71
100
AcDbEntity
  8
0
  6
Continuous
 62
     2
100
AcDbCircle
 10
-971.0037031112269
 20
-1206.959526520298
 30
0.0
 40
0.5115800601949912
100
AcDbArc
 50
208.5214732577276
 51
246.6277221118278
  0
ARC
  5
1A7
102
{ACAD_REACTORS
330
21F
330
220
102
}
330
71
100
AcDbEntity
  8
0
  6
Continuous
 62
     2
100
AcDbCircle
 10
-970.8472630785247
 20
-1206.597534501588
 30
0.0
 40
0.9059297849848895
100
AcDbArc
 50
246.6277221118663
 51
288.4480761181511
  0
ARC
  5
1A8
102
{ACAD_REACTORS
330
21F
330
220
102
}
330
71
100
AcDbEntity
  8
0
  6
Continuous
 62
     2
100
AcDbCircle
 10
-971.2654308121857
 20
-1205.343988725551
 30
0.0
 40
2.227384008972647
100
AcDbArc
 50
288.4480761181374
 51
301.930908949977
  0
ARC
  5
1A9
102
{ACAD_REACTORS
330
21B
330
21C
102
}
330
71
100
AcDbEntity
  8
0
  6
Continuous
 62
     2
100
AcDbCircle
 10
-976.4905045447924
 20
-1204.611486696637
 30
0.0
 40
0.9118481501437387
100
AcDbArc
 50
295.3740086782019
 51
64.62599132182261
  0
ARC
  5
1AA
102
{ACAD_REACTORS
330
21B
330
21C
102
}
330
71
100
AcDbEntity
  8
0
  6
Continuous
 62
     2
100
AcDbCircle
 10
-975.9644618467045
 20
-1202.896809808162
 30
0.0
 40
0.3157169230760149
100
AcDbArc
 50
90.18896704258206
 51
180.0
  0
ARC
  5
1AB
102
{ACAD_REACTORS
330
21D
330
21E
102
}
330
71
100
AcDbEntity
  8
0
  6
Continuous
 62
     2
100
AcDbCircle
 10
-954.7543316338703
 20
-1206.967338642003
 30
0.0
 40
0.9545230068258661
100
AcDbArc
 50
90.0
 51
109.337143219422
  0
ARC
  5
1AC
102
{ACAD_REACTORS
330
21D
330
21E
102
}
330
71
100
AcDbEntity
  8
0
  6
Continuous
 62
     2
100
AcDbCircle
 10
-954.5236443738925
 20
-1206.754455090959
 30
0.0
 40
0.9410597353349766
100
AcDbArc
 50
151.4785267423711
 51
208.5214732576775
  0
ARC
  5
1AD
102
{ACAD_REACTORS
330
21D
330
21E
102
}
330
71
100
AcDbEntity
  8
0
  6
Continuous
 62
     2
100
AcDbCircle
 10
-954.7445615992708
 20
-1206.597534501588
 30
0.0
 40
0.9059297849852503
100
AcDbArc
 50
246.6277221118135
 51
288.4480761180829
  0
ARC
  5
1AE
102
{ACAD_REACTORS
330
21D
330
21E
102
}
330
71
100
AcDbEntity
  8
0
  6
Continuous
 62
     2
100
AcDbCircle
 10
-955.1627293329328
 20
-1205.343988725551
 30
0.0
 40
2.227384008972611
100
AcDbArc
 50
288.4480761181346
 51
301.9309089499398
  0
ARC
  5
1AF
102
{ACAD_REACTORS
330
21D
330
21E
102
}
330
71
100
AcDbEntity
  8
0
  6
Continuous
 62
     2
100
AcDbCircle
 10
-955.3206022080255
 20
-1203.441774145703
 30
0.0
 40
4.852596863498941
100
AcDbArc
 50
275.1581447696365
 51
285.9799912583397
  0
ARC
  5
1B0
102
{ACAD_REACTORS
330
21D
330
21E
102
}
330
71
100
AcDbEntity
  8
0
  6
Continuous
 62
     2
100
AcDbCircle
 10
-955.0317461132897
 20
-1206.641664728924
 30
0.0
 40
1.639695123940421
100
AcDbArc
 50
195.0618917771015
 51
275.1581447696752
  0
ARC
  5
1B1
102
{ACAD_REACTORS
330
215
330
216
102
}
330
71
100
AcDbEntity
  8
0
  6
Continuous
 62
     2
100
AcDbCircle
 10
-970.7599594249808
 20
-1202.923725494213
 30
0.0
 40
1.055365641333992
100
AcDbArc
 50
270.0
 51
90.0
  0
ARC
  5
1B2
102
{ACAD_REACTORS
330
21B
330
21C
102
}
330
71
100
AcDbEntity
  8
0
  6
Continuous
 62
     2
100
AcDbCircle
 10
-978.5400105332362
 20
-1207.253087374231
 30
0.0
 40
0.3157169230756836
100
AcDbArc
 50
180.0
 51
270.0
  0
ARC
  5
1B3
102
{ACAD_REACTORS
330
21B
330
21C
102
}
330
71
100
AcDbEntity
  8
0
  6
Continuous
 62
     2
100
AcDbCircle
 10
-977.0641772722267
 20
-1202.896632331514
 30
0.0
 40
0.3157169230767067
100
AcDbArc
 50
0.0
 51
90.0
  0
ARC
  5
1B4
102
{ACAD_REACTORS
330
21B
330
21C
102
}
330
71
100
AcDbEntity
  8
0
  6
Continuous
 62
     2
100
AcDbCircle
 10
-977.0641772722267
 20
-1203.500656950575
 30
0.0
 40
0.3157169230757058
100
AcDbArc
 50
295.194410648598
 51
0.0
  0
ARC
  5
1B5
102
{ACAD_REACTORS
330
21B
330
21C
102
}
330
71
100
AcDbEntity
  8
0
  6
Continuous
 62
     2
100
AcDbCircle
 10
-977.0641772722267
 20
-1207.253087374231
 30
0.0
 40
0.3157169230769341
100
AcDbArc
 50
270.0
 51
0.0
  0
ARC
  5
1B6
102
{ACAD_REACTORS
330
21B
330
21C
102
}
330
71
100
AcDbEntity
  8
0
  6
Continuous
 62
     2
100
AcDbCircle
 10
-979.1339052099828
 20
-1202.292604468281
 30
0.0
 40
0.4242446153841684
100
AcDbArc
 50
90.0
 51
180.0
  0
ARC
  5
1B7
102
{ACAD_REACTORS
330
21B
330
21C
102
}
330
71
100
AcDbEntity
  8
0
  6
Continuous
 62
     2
100
AcDbCircle
 10
-973.6605931192659
 20
-1202.292604468281
 30
0.0
 40
0.4242446153838273
100
AcDbArc
 50
0.0
 51
90.0
  0
ARC
  5
1B8
102
{ACAD_REACTORS
330
21B
330
21C
102
}
330
71
100
AcDbEntity
  8
0
  6
Continuous
 62
     2
100
AcDbCircle
 10
-973.6605931192659
 20
-1207.857115237481
 30
0.0
 40
0.4242446153841684
100
AcDbArc
 50
270.0
 51
0.0
  0
ARC
  5
1B9
102
{ACAD_REACTORS
330
219
330
21A
102
}
330
71
100
AcDbEntity
  8
0
  6
Continuous
 62
     2
100
AcDbCircle
 10
-964.4422092321744
 20
-1203.395264614785
 30
0.0
 40
0.7717997786795957
100
AcDbArc
 50
321.8795802028306
 51
38.1204197971694
  0
ARC
  5
1BA
102
{ACAD_REACTORS
330
219
330
21A
102
}
330
71
100
AcDbEntity
  8
0
  6
Continuous
 62
     2
100
AcDbCircle
 10
-964.2424691958282
 20
-1203.551995792906
 30
0.0
 40
0.517908573013281
100
AcDbArc
 50
218.1204197971087
 51
321.8795802028835
  0
ARC
  5
1BB
102
{ACAD_REACTORS
330
217
330
218
102
}
330
71
100
AcDbEntity
  8
0
  6
Continuous
 62
     2
100
AcDbCircle
 10
-967.9224767847885
 20
-1206.754455090959
 30
0.0
 40
1.458034083652521
100
AcDbArc
 50
297.5481481756942
 51
62.45185182428927
  0
ARC
  5
1BC
102
{ACAD_REACTORS
330
217
330
218
102
}
330
71
100
AcDbEntity
  8
0
  6
Continuous
 62
     2
100
AcDbCircle
 10
-968.484356568455
 20
-1206.754455090959
 30
0.0
 40
1.458034083651189
100
AcDbArc
 50
117.5481481756711
 51
242.4518518243454
  0
ARC
  5
1BD
102
{ACAD_REACTORS
330
217
330
218
102
}
330
71
100
AcDbEntity
  8
0
  6
Continuous
 62
     2
100
AcDbCircle
 10
-968.2034166766217
 20
-1207.293030101262
 30
0.0
 40
2.065479772208441
100
AcDbArc
 50
62.45185182430455
 51
117.5481481756703
  0
ARC
  5
1BE
102
{ACAD_REACTORS
330
217
330
218
102
}
330
71
100
AcDbEntity
  8
0
  6
Continuous
 62
     2
100
AcDbCircle
 10
-968.2034166766217
 20
-1206.215880080656
 30
0.0
 40
2.065479772208775
100
AcDbArc
 50
242.4518518243414
 51
297.5481481756838
  0
ARC
  5
1BF
102
{ACAD_REACTORS
330
219
330
21A
102
}
330
71
100
AcDbEntity
  8
0
  6
Continuous
 62
     2
100
AcDbCircle
 10
-964.042729159482
 20
-1203.395264614785
 30
0.0
 40
0.7717997786797746
100
AcDbArc
 50
141.879580202841
 51
218.120419797159
  0
ARC
  5
1C0
102
{ACAD_REACTORS
330
219
330
21A
102
}
330
71
100
AcDbEntity
  8
0
  6
Continuous
 62
     2
100
AcDbCircle
 10
-964.2424691958282
 20
-1203.238533436665
 30
0.0
 40
0.5179085730137529
100
AcDbArc
 50
38.12041979719563
 51
141.8795802028121
  0
ARC
  5
1C1
102
{ACAD_REACTORS
330
21B
330
21C
102
}
330
71
100
AcDbEntity
  8
0
  6
Continuous
 62
     2
100
AcDbCircle
 10
-979.1339052099828
 20
-1207.857115237481
 30
0.0
 40
0.4242446153828041
100
AcDbArc
 50
180.0
 51
270.0
  0
ARC
  5
1C2
102
{ACAD_REACTORS
330
21B
330
21C
102
}
330
71
100
AcDbEntity
  8
0
  6
Continuous
 62
     2
100
AcDbCircle
 10
-977.0641772722267
 20
-1205.722316442699
 30
0.0
 40
0.3157169230767067
100
AcDbArc
 50
0.0
 51
64.80558935138451
  0
ARC
  5
1C3
102
{ACAD_REACTORS
330
21B
330
21C
102
}
330
71
100
AcDbEntity
  8
0
  6
Continuous
 62
     2
100
AcDbCircle
 10
-976.5415928246517
 20
-1204.611486696637
 30
0.0
 40
0.911897523557964
100
AcDbArc
 50
115.194410648512
 51
244.805589351488
  0
ARC
  5
1C4
102
{ACAD_REACTORS
330
21B
330
21C
102
}
330
71
100
AcDbEntity
  8
0
  6
Continuous
 62
     2
100
AcDbCircle
 10
-978.5400105332362
 20
-1202.896632331514
 30
0.0
 40
0.3157169230760246
100
AcDbArc
 50
90.0
 51
180.0
  0
ARC
  5
1C5
102
{ACAD_REACTORS
330
215
330
216
102
}
330
71
100
AcDbEntity
  8
0
  6
Continuous
 62
     2
100
AcDbCircle
 10
-971.2014319512192
 20
-1202.88432952299
 30
0.0
 40
0.3528638246712035
100
AcDbArc
 50
270.0
 51
90.0
  0
ARC
  5
1C6
102
{ACAD_REACTORS
330
219
330
21A
102
}
330
71
100
AcDbEntity
  8
0
  6
Continuous
 62
     2
100
AcDbCircle
 10
-964.4587412059934
 20
-1203.395264614785
 30
0.0
 40
1.526904761906053
100
AcDbArc
 50
90.0
 51
270.0
  0
ARC
  5
1C7
102
{ACAD_REACTORS
330
21D
330
21E
102
}
330
71
100
AcDbEntity
  8
0
  6
Continuous
 62
     2
100
AcDbCircle
 10
-955.0317461132897
 20
-1206.867245452994
 30
0.0
 40
1.639695123939873
100
AcDbArc
 50
90.0
 51
164.9381082228985
  0
ARC
  5
1C8
102
{ACAD_REACTORS
330
21D
330
21E
102
}
330
71
100
AcDbEntity
  8
0
  6
Continuous
 62
     2
100
AcDbCircle
 10
-955.4508739567514
 20
-1206.754455090959
 30
0.0
 40
1.205656168392903
100
AcDbArc
 50
164.9381082229099
 51
195.0618917770901
  0
ARC
  5
1C9
102
{ACAD_REACTORS
330
21D
330
21E
102
}
330
71
100
AcDbEntity
  8
0
  6
Continuous
 62
     2
100
AcDbCircle
 10
-954.9010016319739
 20
-1206.959526520298
 30
0.0
 40
0.5115800601959901
100
AcDbArc
 50
208.5214732576668
 51
246.6277221118395
  0
ARC
  5
1CA
102
{ACAD_REACTORS
330
21D
330
21E
102
}
330
71
100
AcDbEntity
  8
0
  6
Continuous
 62
     2
100
AcDbCircle
 10
-954.9010016319739
 20
-1206.54938366162
 30
0.0
 40
0.5115800601946194
100
AcDbArc
 50
109.3371432194738
 51
151.4785267424451
  0
ARC
  5
1CB
102
{ACAD_REACTORS
330
21B
330
21C
102
}
330
71
100
AcDbEntity
  8
0
  6
Continuous
 62
     2
100
AcDbCircle
 10
-975.9644618467045
 20
-1206.3024797033
 30
0.0
 40
0.3157169230768204
100
AcDbArc
 50
180.0
 51
269.8110329574181
  0
ARC
  5
1CC
102
{ACAD_REACTORS
330
21B
330
21C
102
}
330
71
100
AcDbEntity
  8
0
  6
Continuous
 62
     2
100
AcDbCircle
 10
-975.9588457113945
 20
-1204.599644755731
 30
0.0
 40
2.018561131933152
100
AcDbArc
 50
269.811032957581
 51
90.18896704241901
  0
ARC
  5
1CD
102
{ACAD_REACTORS
330
21B
330
21C
102
}
330
71
100
AcDbEntity
  8
0
  6
Continuous
 62
     2
100
AcDbCircle
 10
-975.9644618467045
 20
-1203.502345096669
 30
0.0
 40
0.3157169230768204
100
AcDbArc
 50
180.0
 51
244.6259913216126
  0
ARC
  5
1CE
102
{ACAD_REACTORS
330
21B
330
21C
102
}
330
71
100
AcDbEntity
  8
0
  6
Continuous
 62
     2
100
AcDbCircle
 10
-975.9644618467045
 20
-1205.720628296605
 30
0.0
 40
0.3157169230768018
100
AcDbArc
 50
115.3740086783344
 51
180.0
  0
ARC
  5
1CF
102
{ACAD_REACTORS
330
21F
330
220
102
}
330
71
100
AcDbEntity
  8
0
  6
Continuous
 62
     2
100
AcDbCircle
 10
-971.1344475925425
 20
-1206.867245452994
 30
0.0
 40
1.639695123940213
100
AcDbArc
 50
84.84185523036543
 51
164.9381082228913
  0
ARC
  5
1D0
102
{ACAD_REACTORS
330
21F
330
220
102
}
330
71
100
AcDbEntity
  8
0
  6
Continuous
 62
     2
100
AcDbCircle
 10
-971.5535754360054
 20
-1206.754455090959
 30
0.0
 40
1.205656168390927
100
AcDbArc
 50
164.9381082228846
 51
195.0618917771153
  0
ARC
  5
1D1
102
{ACAD_REACTORS
330
21F
330
220
102
}
330
71
100
AcDbEntity
  8
0
  6
Continuous
 62
     2
100
AcDbCircle
 10
-971.1344475925425
 20
-1206.641664728924
 30
0.0
 40
1.639695123939652
100
AcDbArc
 50
195.0618917771087
 51
275.1581447696346
  0
ARC
  5
1D2
102
{ACAD_REACTORS
330
21F
330
220
102
}
330
71
100
AcDbEntity
  8
0
  6
Continuous
 62
     2
100
AcDbCircle
 10
-971.4233036872785
 20
-1203.441774145703
 30
0.0
 40
4.852596863497932
100
AcDbArc
 50
275.1581447696242
 51
285.9799912583526
  0
ARC
  5
1D3
102
{ACAD_REACTORS
330
21F
330
220
102
}
330
71
100
AcDbEntity
  8
0
  6
Continuous
 62
     2
100
AcDbCircle
 10
-970.6263458531465
 20
-1206.754455090959
 30
0.0
 40
0.9410597353329787
100
AcDbArc
 50
151.478526742305
 51
208.5214732577436
  0
ARC
  5
1D4
102
{ACAD_REACTORS
330
21F
330
220
102
}
330
71
100
AcDbEntity
  8
0
  6
Continuous
 62
     2
100
AcDbCircle
 10
-971.0037031112269
 20
-1206.54938366162
 30
0.0
 40
0.5115800601943187
100
AcDbArc
 50
113.3722778882227
 51
151.4785267423843
  0
ARC
  5
1D5
102
{ACAD_REACTORS
330
21F
330
220
102
}
330
71
100
AcDbEntity
  8
0
  6
Continuous
 62
     2
100
AcDbCircle
 10
-971.2654308121857
 20
-1208.164921456367
 30
0.0
 40
2.227384008972802
100
AcDbArc
 50
58.069091050023
 51
71.5519238818626
  0
ARC
  5
1D6
102
{ACAD_REACTORS
330
217
330
218
102
}
330
71
100
AcDbEntity
  8
0
  6
Continuous
 62
     2
100
AcDbCircle
 10
-968.2034166766217
 20
-1206.597723912839
 30
0.0
 40
0.517908573013574
100
AcDbArc
 50
38.12041979721116
 51
141.8795802028121
  0
ARC
  5
1D7
102
{ACAD_REACTORS
330
217
330
218
102
}
330
71
100
AcDbEntity
  8
0
  6
Continuous
 62
     2
100
AcDbCircle
 10
-968.0036766402757
 20
-1206.754455090959
 30
0.0
 40
0.7717997786795957
100
AcDbArc
 50
141.8795802028306
 51
218.1204197971694
  0
ARC
  5
1D8
102
{ACAD_REACTORS
330
217
330
218
102
}
330
71
100
AcDbEntity
  8
0
  6
Continuous
 62
     2
100
AcDbCircle
 10
-968.2034166766217
 20
-1206.911186269079
 30
0.0
 40
0.5179085730138424
100
AcDbArc
 50
218.1204197971879
 51
321.8795802027889
  0
ARC
  5
1D9
102
{ACAD_REACTORS
330
217
330
218
102
}
330
71
100
AcDbEntity
  8
0
  6
Continuous
 62
     2
100
AcDbCircle
 10
-968.4031567129681
 20
-1206.754455090959
 30
0.0
 40
0.7717997786795957
100
AcDbArc
 50
321.8795802028306
 51
38.1204197971694
  0
CIRCLE
  5
1DA
330
71
100
AcDbEntity
  8
1
  6
Continuous
 62
     2
100
AcDbCircle
 10
-971.0581498253656
 20
-1194.449859852881
 30
0.0
 40
2.5
  0
CIRCLE
  5
1DB
330
71
100
AcDbEntity
  8
1
  6
Continuous
 62
     2
100
AcDbCircle
 10
-971.0581498253656
 20
-1194.449859852881
 30
0.0
 40
1.25
  0
CIRCLE
  5
1DC
102
{ACAD_REACTORS
330
21B
330
21C
102
}
330
71
100
AcDbEntity
  8
0
  6
Continuous
 62
     2
100
AcDbCircle
 10
-976.5143195594652
 20
-1204.611486696637
 30
0.0
 40
0.4709789327785074
  0
MTEXT
  5
1DD
330
71
100
AcDbEntity
  8
1
 62
     3
100
AcDbMText
 10
-1250.827326873825
 20
-1215.54794575338
 30
0.0
 40
1.8
 41
0.0
 71
     7
 72
     1
  3
Weitergabe sowie Vervielf\U+00e4ltigung dieses Dokuments, Verwertung und \PMitteilung seines Inhalts sind verboten, soweit nicht ausdr\U+00fccklich gestattet. \PZuwiderhandlungen verpflichten zu Schadenersatz. Alle Rechte f\U+00fcr den Fall\Pder Pat
  1
ent-, Gebrauchsmuster- oder Designeintragung vorbehalten.
  7
CONVERTER_11
 11
0.0
 21
1.0
 31
0.0
 73
     1
 44
0.99639855942377
  0
MTEXT
  5
1DE
330
71
100
AcDbEntity
  8
1
 62
     3
100
AcDbMText
 10
-1250.981533184919
 20
-1042.588575739227
 30
0.0
 40
1.8
 41
0.0
 71
     7
 72
     1
  3
Transfer or duplication of this document as well as the utilisation or\Pcommunication of its content are not permitted unless express consent\Pis granted. Violations give rise to claims for damages. All rights reserved\Pin case of patent, utility mo
  1
del or design patent registrations.
  7
CONVERTER_11
 11
0.0
 21
1.0
 31
0.0
 73
     1
 44
0.99639855942377
  0
TEXT
  5
1DF
330
71
100
AcDbEntity
  8
1
 62
     2
100
AcDbText
 10
-964.5948047119283
 20
-1214.333877067872
 30
0.0
 40
1.8
  1
of
 41
0.9
  7
CONVERTER_11
100
AcDbText
  0
TEXT
  5
1E0
330
71
100
AcDbEntity
  8
1
 62
     2
100
AcDbText
 10
-982.7948047119281
 20
-1214.333877067873
 30
0.0
 40
1.8
  1
page
 41
0.9
  7
CONVERTER_11
100
AcDbText
  0
TEXT
  5
1E1
330
71
100
AcDbEntity
  8
1
 62
     2
100
AcDbText
 10
-974.1485397415861
 20
-1214.374108506683
 30
0.0
 40
1.8
  1
1
 41
0.9
  7
CONVERTER_11
100
AcDbText
  0
TEXT
  5
1E2
330
71
100
AcDbEntity
  8
1
 62
     2
100
AcDbText
 10
-959.3594959021145
 20
-1214.324859852881
 30
0.0
 40
1.8
  1
1
 41
0.9
  7
CONVERTER_11
100
AcDbText
  0
MTEXT
  5
1E4
330
71
100
AcDbEntity
  8
1
 62
     7
100
AcDbMText
 10
-900.8224024485527
 20
-1212.324859852881
 30
0.0
 40
3.0
 41
0.0
 71
     5
 72
     1
  1
CD COVER 40
  7
CONVERTER_12
 73
     1
 44
1.20048019207683
  0
MTEXT
  5
1E5
330
71
100
AcDbEntity
  8
1
 62
     2
100
AcDbMText
 10
-946.3948047119281
 20
-1208.074859852881
 30
0.0
 40
1.8
 41
0.0
 71
     1
 72
     1
  1
description
  7
CONVERTER_11
 73
     1
 44
1.20048019207683
  0
MTEXT
  5
1E6
330
71
100
AcDbEntity
  8
1
 62
     3
100
AcDbMText
 10
-957.5948047119282
 20
-1194.449859852881
 30
0.0
 40
2.5
 41
0.0
 71
     5
 72
     1
  1
DIN A3
  7
CONVERTER_11
 73
     1
 44
1.20048019207683
  0
MTEXT
  5
1E7
330
71
100
AcDbEntity
  8
1
 62
     2
100
AcDbMText
 10
-1018.205827981138
 20
-1202.824859852882
 30
0.0
 40
2.0
 41
0.0
 71
     5
 72
     1
  1
General Information\P- Simplified representation\P- Document excluded from change process\P- Linear dimensions [mm]
  7
CONVERTER_11
 73
     1
 44
1.20048019207683
  0
TEXT
  5
1E8
330
71
100
AcDbEntity
  8
1
 62
     7
100
AcDbText
 10
-945.8948047119284
 20
-1205.774859852881
 30
0.0
 40
2.5
  1
3240286
 41
0.81
  7
CONVERTER_12
100
AcDbText
  0
MTEXT
  5
1E9
330
71
100
AcDbEntity
  8
1
 62
     2
100
AcDbMText
 10
-946.2948047119282
 20
-1199.574859852881
 30
0.0
 40
1.8
 41
0.0
 71
     1
 72
     1
  1
ident.-No.
  7
CONVERTER_11
 73
     1
 44
1.20048019207683
  0
MTEXT
  5
1EA
330
71
100
AcDbEntity
  8
1
 62
     2
100
AcDbMText
 10
-862.0684084668554
 20
-1191.074859852881
 30
0.0
 40
1.8
 41
0.0
 71
     1
 72
     1
  1
scale
  7
CONVERTER_11
 73
     1
 44
1.20048019207683
  0
MTEXT
  5
1EC
330
71
100
AcDbEntity
  8
1
 62
     3
100
AcDbMText
 10
-858.7092043260159
 20
-1197.274859852881
 30
0.0
 40
2.5
 41
0.0
 71
     8
 72
     1
  1
1:2
  7
CONVERTER_13
 73
     1
 44
1.32052821128451
  0
TEXT
  5
1ED
330
71
100
AcDbEntity
  8
1
 62
     7
100
AcDbText
 10
-946.2948047119282
 20
-1197.274859852881
 30
0.0
 40
2.5
  1
00962139
 41
0.81
  7
CONVERTER_12
100
AcDbText
  0
MTEXT
  5
1EF
330
71
100
AcDbEntity
  8
1
 62
     2
100
AcDbMText
 10
-946.2948047119282
 20
-1191.074859852881
 30
0.0
 40
1.8
 41
0.0
 71
     1
 72
     1
  1
document-No. / RI
  7
CONVERTER_14
 73
     1
 44
1.32052821128451
  0
TEXT
  5
1F0
330
71
100
AcDbEntity
  8
1
 62
     3
100
AcDbText
 10
-918.4948047119282
 20
-1205.774859852881
 30
0.0
 40
2.5
  1
Customer drawing select
 41
0.81
  7
CONVERTER_12
100
AcDbText
  0
MTEXT
  5
1F1
330
71
100
AcDbEntity
  8
1
 62
     2
100
AcDbMText
 10
-918.4948047119282
 20
-1199.574859852881
 30
0.0
 40
1.8
 41
0.0
 71
     1
 72
     1
  1
document-type
  7
CONVERTER_11
 73
     1
 44
1.20048019207683
  0
MTEXT
  5
1F2
330
71
100
AcDbEntity
  8
1
 62
     2
100
AcDbMText
 10
-888.6684084668552
 20
-1191.074859852881
 30
0.0
 40
1.8
 41
0.0
 71
     1
 72
     1
  1
date
  7
CONVERTER_11
 73
     1
 44
1.32052821128451
  0
TEXT
  5
1F3
330
71
100
AcDbEntity
  8
1
 62
     3
100
AcDbText
 10
-888.6684084668552
 20
-1197.274859852881
 30
0.0
 40
2.5
  1
10.08.2016
 41
0.81
  7
CONVERTER_12
100
AcDbText
  0
TEXT
  5
1F4
330
71
100
AcDbEntity
  8
1
 62
     7
100
AcDbText
 10
-926.2648924928724
 20
-1197.274859852881
 30
0.0
 40
2.5
  1
00
 41
0.81
  7
CONVERTER_12
100
AcDbText
  0
TEXT
  5
1F5
330
71
100
AcDbEntity
  8
1
 62
     7
100
AcDbText
 10
-928.4212569899144
 20
-1197.274859852881
 30
0.0
 40
2.5
  1
/
 41
0.9
  7
CONVERTER_11
100
AcDbText
  0
TEXT
  5
1F6
330
71
100
AcDbEntity
  8
1
 62
     7
100
AcDbText
 10
-1231.250000185178
 20
-927.5748598528801
 30
0.0
 40
2.5
  1
1
 41
0.9
  7
CONVERTER_11
100
AcDbText
  0
TEXT
  5
1F7
330
71
100
AcDbEntity
  8
1
 62
     7
100
AcDbText
 10
-1162.916666851845
 20
-927.5748598528801
 30
0.0
 40
2.5
  1
2
 41
0.9
  7
CONVERTER_11
100
AcDbText
  0
TEXT
  5
1F8
330
71
100
AcDbEntity
  8
1
 62
     7
100
AcDbText
 10
-1094.583333518511
 20
-927.5748598528801
 30
0.0
 40
2.5
  1
3
 41
0.9
  7
CONVERTER_11
100
AcDbText
  0
TEXT
  5
1F9
330
71
100
AcDbEntity
  8
1
 62
     7
100
AcDbText
 10
-1026.250000185178
 20
-927.5748598528801
 30
0.0
 40
2.5
  1
4
 41
0.9
  7
CONVERTER_11
100
AcDbText
  0
TEXT
  5
1FA
330
71
100
AcDbEntity
  8
1
 62
     7
100
AcDbText
 10
-957.9166668518448
 20
-927.5748598528801
 30
0.0
 40
2.5
  1
5
 41
0.9
  7
CONVERTER_11
100
AcDbText
  0
TEXT
  5
1FB
330
71
100
AcDbEntity
  8
1
 62
     7
100
AcDbText
 10
-889.5833335185116
 20
-927.5748598528801
 30
0.0
 40
2.5
  1
6
 41
0.9
  7
CONVERTER_11
100
AcDbText
  0
TEXT
  5
1FC
330
71
100
AcDbEntity
  8
1
 62
     7
100
AcDbText
 10
-853.2500001851781
 20
-958.4748598528804
 30
0.0
 40
2.5
  1
A
 41
0.9
  7
CONVERTER_11
100
AcDbText
  0
TEXT
  5
1FD
330
71
100
AcDbEntity
  8
1
 62
     7
100
AcDbText
 10
-853.2500001851781
 20
-1015.87485985288
 30
0.0
 40
2.5
  1
B
 41
0.9
  7
CONVERTER_11
100
AcDbText
  0
TEXT
  5
1FE
330
71
100
AcDbEntity
  8
1
 62
     7
100
AcDbText
 10
-853.2500001851781
 20
-1073.27485985288
 30
0.0
 40
2.5
  1
C
 41
0.9
  7
CONVERTER_11
100
AcDbText
  0
TEXT
  5
1FF
330
71
100
AcDbEntity
  8
1
 62
     7
100
AcDbText
 10
-853.2500001851781
 20
-1130.67485985288
 30
0.0
 40
2.5
  1
D
 41
0.9
  7
CONVERTER_11
100
AcDbText
  0
TEXT
  5
200
330
71
100
AcDbEntity
  8
1
 62
     7
100
AcDbText
 10
-1162.916666851845
 20
-1219.57485985288
 30
0.0
 40
2.5
  1
2
 41
0.9
  7
CONVERTER_11
100
AcDbText
  0
TEXT
  5
201
330
71
100
AcDbEntity
  8
1
 62
     7
100
AcDbText
 10
-1231.250000185178
 20
-1219.57485985288
 30
0.0
 40
2.5
  1
1
 41
0.9
  7
CONVERTER_11
100
AcDbText
  0
TEXT
  5
202
330
71
100
AcDbEntity
  8
1
 62
     7
100
AcDbText
 10
-853.2500001851781
 20
-1188.07485985288
 30
0.0
 40
2.5
  1
E
 41
0.9
  7
CONVERTER_11
100
AcDbText
  0
TEXT
  5
203
330
71
100
AcDbEntity
  8
1
 62
     7
100
AcDbText
 10
-1094.583333518511
 20
-1219.57485985288
 30
0.0
 40
2.5
  1
3
 41
0.9
  7
CONVERTER_11
100
AcDbText
  0
TEXT
  5
204
330
71
100
AcDbEntity
  8
1
 62
     7
100
AcDbText
 10
-1026.250000185178
 20
-1219.57485985288
 30
0.0
 40
2.5
  1
4
 41
0.9
  7
CONVERTER_11
100
AcDbText
  0
TEXT
  5
205
330
71
100
AcDbEntity
  8
1
 62
     7
100
AcDbText
 10
-957.916666851845
 20
-1219.57485985288
 30
0.0
 40
2.5
  1
5
 41
0.9
  7
CONVERTER_11
100
AcDbText
  0
TEXT
  5
206
330
71
100
AcDbEntity
  8
1
 62
     7
100
AcDbText
 10
-889.5833335185116
 20
-1219.57485985288
 30
0.0
 40
2.5
  1
6
 41
0.9
  7
CONVERTER_11
100
AcDbText
  0
HATCH
  5
207
330
71
100
AcDbEntity
  8
1
  6
Continuous
 62
     2
100
AcDbHatch
 10
0.0
 20
0.0
 30
0.0
210
0.0
220
0.0
230
1.0
  2
CUSTOM0
 70
     0
 71
     1
 91
        1
 92
        1
 93
       12
 72
     1
 10
-966.127303998967
 20
-1204.92216937669
 11
-967.3200967011335
 21
-1204.92216937669
 72
     1
 10
-967.3200967011335
 20
-1204.92216937669
 11
-967.3200967011335
 21
-1203.787897267847
 72
     1
 10
-967.3200967011335
 20
-1203.787897267847
 11
-968.3697542790409
 21
-1203.787897267847
 72
     1
 10
-968.3697542790409
 20
-1203.787897267847
 11
-968.3697542790409
 21
-1204.92216937669
 72
     1
 10
-968.3697542790409
 20
-1204.92216937669
 11
-969.5625469812074
 21
-1204.92216937669
 72
     1
 10
-969.5625469812074
 20
-1204.92216937669
 11
-969.5625469812074
 21
-1201.868359852879
 72
     1
 10
-969.5625469812074
 20
-1201.868359852879
 11
-968.3697542790409
 21
-1201.868359852879
 72
     1
 10
-968.3697542790409
 20
-1201.868359852879
 11
-968.3697542790409
 21
-1202.937193186214
 72
     1
 10
-968.3697542790409
 20
-1202.937193186214
 11
-967.3200967011335
 21
-1202.937193186214
 72
     1
 10
-967.3200967011335
 20
-1202.937193186214
 11
-967.3200967011335
 21
-1201.868359852879
 72
     1
 10
-967.3200967011335
 20
-1201.868359852879
 11
-966.127303998967
 21
-1201.868359852879
 72
     1
 10
-966.127303998967
 20
-1201.868359852879
 11
-966.127303998967
 21
-1204.92216937669
 97
       12
330
130
330
131
330
11B
330
11A
330
119
330
12D
330
118
330
12E
330
12F
330
117
330
116
330
115
 75
     1
 76
     2
 52
45.0
 41
0.1
 77
     0
 78
     1
 53
45.0
 43
62.7811309658083
 44
-72.3161373035813
 45
-0.1414213562373095
 46
0.0
 79
     0
 98
        1
 10
0.0
 20
0.0
  0
HATCH
  5
208
330
71
100
AcDbEntity
  8
1
  6
Continuous
 62
     2
100
AcDbHatch
 10
0.0
 20
0.0
 30
0.0
210
0.0
220
0.0
230
1.0
  2
CUSTOM1
 70
     0
 71
     1
 91
        1
 92
        1
 93
       12
 72
     1
 10
-966.127303998967
 20
-1204.92216937669
 11
-967.3200967011335
 21
-1204.92216937669
 72
     1
 10
-967.3200967011335
 20
-1204.92216937669
 11
-967.3200967011335
 21
-1203.787897267847
 72
     1
 10
-967.3200967011335
 20
-1203.787897267847
 11
-968.3697542790409
 21
-1203.787897267847
 72
     1
 10
-968.3697542790409
 20
-1203.787897267847
 11
-968.3697542790409
 21
-1204.92216937669
 72
     1
 10
-968.3697542790409
 20
-1204.92216937669
 11
-969.5625469812074
 21
-1204.92216937669
 72
     1
 10
-969.5625469812074
 20
-1204.92216937669
 11
-969.5625469812074
 21
-1201.868359852879
 72
     1
 10
-969.5625469812074
 20
-1201.868359852879
 11
-968.3697542790409
 21
-1201.868359852879
 72
     1
 10
-968.3697542790409
 20
-1201.868359852879
 11
-968.3697542790409
 21
-1202.937193186214
 72
     1
 10
-968.3697542790409
 20
-1202.937193186214
 11
-967.3200967011335
 21
-1202.937193186214
 72
     1
 10
-967.3200967011335
 20
-1202.937193186214
 11
-967.3200967011335
 21
-1201.868359852879
 72
     1
 10
-967.3200967011335
 20
-1201.868359852879
 11
-966.127303998967
 21
-1201.868359852879
 72
     1
 10
-966.127303998967
 20
-1201.868359852879
 11
-966.127303998967
 21
-1204.92216937669
 97
       12
330
130
330
131
330
11B
330
11A
330
119
330
12D
330
118
330
12E
330
12F
330
117
330
116
330
115
 75
     1
 76
     2
 52
45.0
 41
0.1
 77
     0
 78
     1
 53
45.0
 43
62.7811309658083
 44
-72.3161373035813
 45
-0.1414213562373095
 46
0.0
 79
     0
 98
        1
 10
0.0
 20
0.0
  0
HATCH
  5
209
330
71
100
AcDbEntity
  8
1
  6
Continuous
 62
     2
100
AcDbHatch
 10
0.0
 20
0.0
 30
0.0
210
0.0
220
0.0
230
1.0
  2
CUSTOM2
 70
     0
 71
     1
 91
        1
 92
        1
 93
       10
 72
     1
 10
-963.8850046497787
 20
-1206.536325839259
 11
-965.1255090600316
 21
-1205.227550329053
 72
     1
 10
-965.1255090600316
 20
-1205.227550329053
 11
-966.3183017621992
 21
-1205.227550329053
 72
     1
 10
-966.3183017621992
 20
-1205.227550329053
 11
-966.3183017621992
 21
-1208.281359852865
 72
     1
 10
-966.3183017621992
 20
-1208.281359852865
 11
-965.1255090600316
 21
-1208.281359852865
 72
     1
 10
-965.1255090600316
 20
-1208.281359852865
 11
-965.1255090600316
 21
-1206.97258434266
 72
     1
 10
-965.1255090600316
 20
-1206.97258434266
 11
-963.8850046497787
 21
-1208.281359852865
 72
     1
 10
-963.8850046497787
 20
-1208.281359852865
 11
-962.6922119476123
 21
-1208.281359852865
 72
     1
 10
-962.6922119476123
 20
-1208.281359852865
 11
-962.6922119476123
 21
-1205.227550329053
 72
     1
 10
-962.6922119476123
 20
-1205.227550329053
 11
-963.8850046497787
 21
-1205.227550329053
 72
     1
 10
-963.8850046497787
 20
-1205.227550329053
 11
-963.8850046497787
 21
-1206.536325839259
 97
       10
330
13E
330
10E
330
10D
330
110
330
139
330
13A
330
10F
330
13B
330
13C
330
13D
 75
     1
 76
     2
 52
45.0
 41
0.1
 77
     0
 78
     1
 53
45.0
 43
62.7811309658083
 44
-72.3161373035813
 45
-0.1414213562373095
 46
0.0
 79
     0
 98
        1
 10
0.0
 20
0.0
  0
HATCH
  5
20A
330
71
100
AcDbEntity
  8
1
  6
Continuous
 62
     2
100
AcDbHatch
 10
0.0
 20
0.0
 30
0.0
210
0.0
220
0.0
230
1.0
  2
CUSTOM3
 70
     0
 71
     1
 91
        1
 92
        1
 93
       10
 72
     1
 10
-963.8850046497787
 20
-1206.536325839259
 11
-965.1255090600316
 21
-1205.227550329053
 72
     1
 10
-965.1255090600316
 20
-1205.227550329053
 11
-966.3183017621992
 21
-1205.227550329053
 72
     1
 10
-966.3183017621992
 20
-1205.227550329053
 11
-966.3183017621992
 21
-1208.281359852865
 72
     1
 10
-966.3183017621992
 20
-1208.281359852865
 11
-965.1255090600316
 21
-1208.281359852865
 72
     1
 10
-965.1255090600316
 20
-1208.281359852865
 11
-965.1255090600316
 21
-1206.97258434266
 72
     1
 10
-965.1255090600316
 20
-1206.97258434266
 11
-963.8850046497787
 21
-1208.281359852865
 72
     1
 10
-963.8850046497787
 20
-1208.281359852865
 11
-962.6922119476123
 21
-1208.281359852865
 72
     1
 10
-962.6922119476123
 20
-1208.281359852865
 11
-962.6922119476123
 21
-1205.227550329053
 72
     1
 10
-962.6922119476123
 20
-1205.227550329053
 11
-963.8850046497787
 21
-1205.227550329053
 72
     1
 10
-963.8850046497787
 20
-1205.227550329053
 11
-963.8850046497787
 21
-1206.536325839259
 97
       10
330
13E
330
10E
330
10D
330
110
330
139
330
13A
330
10F
330
13B
330
13C
330
13D
 75
     1
 76
     2
 52
45.0
 41
0.1
 77
     0
 78
     1
 53
45.0
 43
62.7811309658083
 44
-72.3161373035813
 45
-0.1414213562373095
 46
0.0
 79
     0
 98
        1
 10
0.0
 20
0.0
  0
HATCH
  5
20B
330
71
100
AcDbEntity
  8
1
  6
Continuous
 62
     2
100
AcDbHatch
 10
0.0
 20
0.0
 30
0.0
210
0.0
220
0.0
230
1.0
  2
CUSTOM4
 70
     0
 71
     1
 91
        1
 92
        1
 93
       10
 72
     1
 10
-958.636565829359
 20
-1203.177135363084
 11
-959.8770702396131
 21
-1201.868359852879
 72
     1
 10
-959.8770702396131
 20
-1201.868359852879
 11
-961.0698629417795
 21
-1201.868359852879
 72
     1
 10
-961.0698629417795
 20
-1201.868359852879
 11
-961.0698629417795
 21
-1204.92216937669
 72
     1
 10
-961.0698629417795
 20
-1204.92216937669
 11
-959.8770702396131
 21
-1204.92216937669
 72
     1
 10
-959.8770702396131
 20
-1204.92216937669
 11
-959.8770702396131
 21
-1203.613393866486
 72
     1
 10
-959.8770702396131
 20
-1203.613393866486
 11
-958.636565829359
 21
-1204.92216937669
 72
     1
 10
-958.636565829359
 20
-1204.92216937669
 11
-957.4437731271923
 21
-1204.92216937669
 72
     1
 10
-957.4437731271923
 20
-1204.92216937669
 11
-957.4437731271923
 21
-1201.868359852879
 72
     1
 10
-957.4437731271923
 20
-1201.868359852879
 11
-958.636565829359
 21
-1201.868359852879
 72
     1
 10
-958.636565829359
 20
-1201.868359852879
 11
-958.636565829359
 21
-1203.177135363084
 97
       10
330
143
330
10B
330
10A
330
144
330
109
330
13F
330
140
330
141
330
142
330
10C
 75
     1
 76
     2
 52
45.0
 41
0.1
 77
     0
 78
     1
 53
45.0
 43
62.7811309658083
 44
-72.3161373035813
 45
-0.1414213562373095
 46
0.0
 79
     0
 98
        1
 10
0.0
 20
0.0
  0
HATCH
  5
20C
330
71
100
AcDbEntity
  8
1
  6
Continuous
 62
     2
100
AcDbHatch
 10
0.0
 20
0.0
 30
0.0
210
0.0
220
0.0
230
1.0
  2
CUSTOM5
 70
     0
 71
     1
 91
        1
 92
        1
 93
       10
 72
     1
 10
-958.636565829359
 20
-1203.177135363084
 11
-959.8770702396131
 21
-1201.868359852879
 72
     1
 10
-959.8770702396131
 20
-1201.868359852879
 11
-961.0698629417795
 21
-1201.868359852879
 72
     1
 10
-961.0698629417795
 20
-1201.868359852879
 11
-961.0698629417795
 21
-1204.92216937669
 72
     1
 10
-961.0698629417795
 20
-1204.92216937669
 11
-959.8770702396131
 21
-1204.92216937669
 72
     1
 10
-959.8770702396131
 20
-1204.92216937669
 11
-959.8770702396131
 21
-1203.613393866486
 72
     1
 10
-959.8770702396131
 20
-1203.613393866486
 11
-958.636565829359
 21
-1204.92216937669
 72
     1
 10
-958.636565829359
 20
-1204.92216937669
 11
-957.4437731271923
 21
-1204.92216937669
 72
     1
 10
-957.4437731271923
 20
-1204.92216937669
 11
-957.4437731271923
 21
-1201.868359852879
 72
     1
 10
-957.4437731271923
 20
-1201.868359852879
 11
-958.636565829359
 21
-1201.868359852879
 72
     1
 10
-958.636565829359
 20
-1201.868359852879
 11
-958.636565829359
 21
-1203.177135363084
 97
       10
330
143
330
10B
330
10A
330
144
330
109
330
13F
330
140
330
141
330
142
330
10C
 75
     1
 76
     2
 52
45.0
 41
0.1
 77
     0
 78
     1
 53
45.0
 43
62.7811309658083
 44
-72.3161373035813
 45
-0.1414213562373095
 46
0.0
 79
     0
 98
        1
 10
0.0
 20
0.0
  0
HATCH
  5
20D
330
71
100
AcDbEntity
  8
1
  6
Continuous
 62
     2
100
AcDbHatch
 10
0.0
 20
0.0
 30
0.0
210
0.0
220
0.0
230
1.0
  2
CUSTOM6
 70
     0
 71
     1
 91
        1
 92
        1
 93
        8
 72
     1
 10
-959.7340860462384
 20
-1205.227550329053
 11
-962.5490768233522
 21
-1205.227550329053
 72
     1
 10
-962.5490768233522
 20
-1205.227550329053
 11
-962.5490768233522
 21
-1206.012815635177
 72
     1
 10
-962.5490768233522
 20
-1206.012815635177
 11
-961.7379777858775
 21
-1206.012815635177
 72
     1
 10
-961.7379777858775
 20
-1206.012815635177
 11
-961.7379777858775
 21
-1208.281359852865
 72
     1
 10
-961.7379777858775
 20
-1208.281359852865
 11
-960.5451850837111
 21
-1208.281359852865
 72
     1
 10
-960.5451850837111
 20
-1208.281359852865
 11
-960.5451850837111
 21
-1206.012815635177
 72
     1
 10
-960.5451850837111
 20
-1206.012815635177
 11
-959.7340860462384
 21
-1206.012815635177
 72
     1
 10
-959.7340860462384
 20
-1206.012815635177
 11
-959.7340860462384
 21
-1205.227550329053
 97
        8
330
105
330
145
330
104
330
146
330
147
330
108
330
107
330
106
 75
     1
 76
     2
 52
45.0
 41
0.1
 77
     0
 78
     1
 53
45.0
 43
62.7811309658083
 44
-72.3161373035813
 45
-0.1414213562373095
 46
0.0
 79
     0
 98
        1
 10
0.0
 20
0.0
  0
HATCH
  5
20E
330
71
100
AcDbEntity
  8
1
  6
Continuous
 62
     2
100
AcDbHatch
 10
0.0
 20
0.0
 30
0.0
210
0.0
220
0.0
230
1.0
  2
CUSTOM7
 70
     0
 71
     1
 91
        1
 92
        1
 93
        8
 72
     1
 10
-959.7340860462384
 20
-1205.227550329053
 11
-962.5490768233522
 21
-1205.227550329053
 72
     1
 10
-962.5490768233522
 20
-1205.227550329053
 11
-962.5490768233522
 21
-1206.012815635177
 72
     1
 10
-962.5490768233522
 20
-1206.012815635177
 11
-961.7379777858775
 21
-1206.012815635177
 72
     1
 10
-961.7379777858775
 20
-1206.012815635177
 11
-961.7379777858775
 21
-1208.281359852865
 72
     1
 10
-961.7379777858775
 20
-1208.281359852865
 11
-960.5451850837111
 21
-1208.281359852865
 72
     1
 10
-960.5451850837111
 20
-1208.281359852865
 11
-960.5451850837111
 21
-1206.012815635177
 72
     1
 10
-960.5451850837111
 20
-1206.012815635177
 11
-959.7340860462384
 21
-1206.012815635177
 72
     1
 10
-959.7340860462384
 20
-1206.012815635177
 11
-959.7340860462384
 21
-1205.227550329053
 97
        8
330
105
330
145
330
104
330
146
330
147
330
108
330
107
330
106
 75
     1
 76
     2
 52
45.0
 41
0.1
 77
     0
 78
     1
 53
45.0
 43
62.7811309658083
 44
-72.3161373035813
 45
-0.1414213562373095
 46
0.0
 79
     0
 98
        1
 10
0.0
 20
0.0
  0
HATCH
  5
20F
330
71
100
AcDbEntity
  8
1
  6
Continuous
 62
     2
100
AcDbHatch
 10
0.0
 20
0.0
 30
0.0
210
0.0
220
0.0
230
1.0
  2
CUSTOM8
 70
     0
 71
     1
 91
        2
 92
        1
 93
        8
 72
     1
 10
-957.5956585902915
 20
-1208.281359852865
 11
-957.8071386437673
 21
-1207.740399308647
 72
     1
 10
-957.8071386437673
 20
-1207.740399308647
 11
-958.9395802204413
 21
-1207.740399308647
 72
     1
 10
-958.9395802204413
 20
-1207.740399308647
 11
-959.151060273917
 21
-1208.281359852865
 72
     1
 10
-959.151060273917
 20
-1208.281359852865
 11
-960.3915646841699
 21
-1208.281359852865
 72
     1
 10
-960.3915646841699
 20
-1208.281359852865
 11
-958.9936116372307
 21
-1205.227550329053
 72
     1
 10
-958.9936116372307
 20
-1205.227550329053
 11
-957.7531072269778
 21
-1205.227550329053
 72
     1
 10
-957.7531072269778
 20
-1205.227550329053
 11
-956.3551541800376
 21
-1208.281359852865
 72
     1
 10
-956.3551541800376
 20
-1208.281359852865
 11
-957.5956585902915
 21
-1208.281359852865
 97
        8
330
149
330
14A
330
101
330
14B
330
100
330
103
330
148
330
102
 92
       16
 93
        3
 72
     1
 10
-958.6735246692961
 20
-1207.05983604334
 11
-958.3733594321038
 21
-1206.292021077353
 72
     1
 10
-958.3733594321038
 20
-1206.292021077353
 11
-958.0731941949136
 21
-1207.05983604334
 72
     1
 10
-958.0731941949136
 20
-1207.05983604334
 11
-958.6735246692961
 21
-1207.05983604334
 97
        3
330
FF
330
14D
330
14C
 75
     1
 76
     2
 52
45.0
 41
0.1
 77
     0
 78
     1
 53
45.0
 43
62.7811309658083
 44
-72.3161373035813
 45
-0.1414213562373095
 46
0.0
 79
     0
 98
        1
 10
0.0
 20
0.0
  0
HATCH
  5
210
330
71
100
AcDbEntity
  8
1
  6
Continuous
 62
     2
100
AcDbHatch
 10
0.0
 20
0.0
 30
0.0
210
0.0
220
0.0
230
1.0
  2
CUSTOM9
 70
     0
 71
     1
 91
        2
 92
        1
 93
        8
 72
     1
 10
-957.5956585902915
 20
-1208.281359852865
 11
-957.8071386437673
 21
-1207.740399308647
 72
     1
 10
-957.8071386437673
 20
-1207.740399308647
 11
-958.9395802204413
 21
-1207.740399308647
 72
     1
 10
-958.9395802204413
 20
-1207.740399308647
 11
-959.151060273917
 21
-1208.281359852865
 72
     1
 10
-959.151060273917
 20
-1208.281359852865
 11
-960.3915646841699
 21
-1208.281359852865
 72
     1
 10
-960.3915646841699
 20
-1208.281359852865
 11
-958.9936116372307
 21
-1205.227550329053
 72
     1
 10
-958.9936116372307
 20
-1205.227550329053
 11
-957.7531072269778
 21
-1205.227550329053
 72
     1
 10
-957.7531072269778
 20
-1205.227550329053
 11
-956.3551541800376
 21
-1208.281359852865
 72
     1
 10
-956.3551541800376
 20
-1208.281359852865
 11
-957.5956585902915
 21
-1208.281359852865
 97
        8
330
149
330
14A
330
101
330
14B
330
100
330
103
330
148
330
102
 92
       16
 93
        3
 72
     1
 10
-958.6735246692961
 20
-1207.05983604334
 11
-958.3733594321038
 21
-1206.292021077353
 72
     1
 10
-958.3733594321038
 20
-1206.292021077353
 11
-958.0731941949136
 21
-1207.05983604334
 72
     1
 10
-958.0731941949136
 20
-1207.05983604334
 11
-958.6735246692961
 21
-1207.05983604334
 97
        3
330
FF
330
14D
330
14C
 75
     1
 76
     2
 52
45.0
 41
0.1
 77
     0
 78
     1
 53
45.0
 43
62.7811309658083
 44
-72.3161373035813
 45
-0.1414213562373095
 46
0.0
 79
     0
 98
        1
 10
0.0
 20
0.0
  0
HATCH
  5
211
330
71
100
AcDbEntity
  8
1
  6
Continuous
 62
     2
100
AcDbHatch
 10
0.0
 20
0.0
 30
0.0
210
0.0
220
0.0
230
1.0
  2
CUSTOM10
 70
     0
 71
     1
 91
        1
 92
        1
 93
        4
 72
     1
 10
-955.9647101765056
 20
-1204.92216937669
 11
-957.2052145867585
 21
-1204.92216937669
 72
     1
 10
-957.2052145867585
 20
-1204.92216937669
 11
-957.2052145867585
 21
-1201.868359852879
 72
     1
 10
-957.2052145867585
 20
-1201.868359852879
 11
-955.9647101765056
 21
-1201.868359852879
 72
     1
 10
-955.9647101765056
 20
-1201.868359852879
 11
-955.9647101765056
 21
-1204.92216937669
 97
        4
330
FC
330
FE
330
14E
330
FD
 75
     1
 76
     2
 52
45.0
 41
0.1
 77
     0
 78
     1
 53
45.0
 43
62.7811309658083
 44
-72.3161373035813
 45
-0.1414213562373095
 46
0.0
 79
     0
 98
        1
 10
0.0
 20
0.0
  0
HATCH
  5
212
330
71
100
AcDbEntity
  8
1
  6
Continuous
 62
     2
100
AcDbHatch
 10
0.0
 20
0.0
 30
0.0
210
0.0
220
0.0
230
1.0
  2
CUSTOM11
 70
     0
 71
     1
 91
        1
 92
        1
 93
        4
 72
     1
 10
-955.9647101765056
 20
-1204.92216937669
 11
-957.2052145867585
 21
-1204.92216937669
 72
     1
 10
-957.2052145867585
 20
-1204.92216937669
 11
-957.2052145867585
 21
-1201.868359852879
 72
     1
 10
-957.2052145867585
 20
-1201.868359852879
 11
-955.9647101765056
 21
-1201.868359852879
 72
     1
 10
-955.9647101765056
 20
-1201.868359852879
 11
-955.9647101765056
 21
-1204.92216937669
 97
        4
330
FC
330
FE
330
14E
330
FD
 75
     1
 76
     2
 52
45.0
 41
0.1
 77
     0
 78
     1
 53
45.0
 43
62.7811309658083
 44
-72.3161373035813
 45
-0.1414213562373095
 46
0.0
 79
     0
 98
        1
 10
0.0
 20
0.0
  0
HATCH
  5
213
330
71
100
AcDbEntity
  8
1
  6
Continuous
 62
     2
100
AcDbHatch
 10
0.0
 20
0.0
 30
0.0
210
0.0
220
0.0
230
1.0
  2
CUSTOM12
 70
     0
 71
     1
 91
        1
 92
        1
 93
       12
 72
     1
 10
-951.7422240108348
 20
-1201.868359852879
 11
-953.0447536416013
 21
-1203.341310382915
 72
     1
 10
-953.0447536416013
 20
-1203.341310382915
 11
-951.646800594661
 21
-1204.92216937669
 72
     1
 10
-951.646800594661
 20
-1204.92216937669
 11
-953.0495248124093
 21
-1204.92216937669
 72
     1
 10
-953.0495248124093
 20
-1204.92216937669
 11
-953.7461157504748
 21
-1204.134437591396
 72
     1
 10
-953.7461157504748
 20
-1204.134437591396
 11
-954.4427066885406
 21
-1204.92216937669
 72
     1
 10
-954.4427066885406
 20
-1204.92216937669
 11
-955.8454309062887
 21
-1204.92216937669
 72
     1
 10
-955.8454309062887
 20
-1204.92216937669
 11
-954.4474778593484
 21
-1203.341310382915
 72
     1
 10
-954.4474778593484
 20
-1203.341310382915
 11
-955.7500074901159
 21
-1201.868359852879
 72
     1
 10
-955.7500074901159
 20
-1201.868359852879
 11
-954.3472832723667
 21
-1201.868359852879
 72
     1
 10
-954.3472832723667
 20
-1201.868359852879
 11
-953.7461157504748
 21
-1202.548183174435
 72
     1
 10
-953.7461157504748
 20
-1202.548183174435
 11
-953.144948228582
 21
-1201.868359852879
 72
     1
 10
-953.144948228582
 20
-1201.868359852879
 11
-951.7422240108348
 21
-1201.868359852879
 97
       12
330
F7
330
F6
330
F5
330
152
330
153
330
14F
330
150
330
FB
330
FA
330
F9
330
F8
330
151
 75
     1
 76
     2
 52
45.0
 41
0.1
 77
     0
 78
     1
 53
45.0
 43
62.7811309658083
 44
-72.3161373035813
 45
-0.1414213562373095
 46
0.0
 79
     0
 98
        1
 10
0.0
 20
0.0
  0
HATCH
  5
214
330
71
100
AcDbEntity
  8
1
  6
Continuous
 62
     2
100
AcDbHatch
 10
0.0
 20
0.0
 30
0.0
210
0.0
220
0.0
230
1.0
  2
CUSTOM13
 70
     0
 71
     1
 91
        1
 92
        1
 93
       12
 72
     1
 10
-951.7422240108348
 20
-1201.868359852879
 11
-953.0447536416013
 21
-1203.341310382915
 72
     1
 10
-953.0447536416013
 20
-1203.341310382915
 11
-951.646800594661
 21
-1204.92216937669
 72
     1
 10
-951.646800594661
 20
-1204.92216937669
 11
-953.0495248124093
 21
-1204.92216937669
 72
     1
 10
-953.0495248124093
 20
-1204.92216937669
 11
-953.7461157504748
 21
-1204.134437591396
 72
     1
 10
-953.7461157504748
 20
-1204.134437591396
 11
-954.4427066885406
 21
-1204.92216937669
 72
     1
 10
-954.4427066885406
 20
-1204.92216937669
 11
-955.8454309062887
 21
-1204.92216937669
 72
     1
 10
-955.8454309062887
 20
-1204.92216937669
 11
-954.4474778593484
 21
-1203.341310382915
 72
     1
 10
-954.4474778593484
 20
-1203.341310382915
 11
-955.7500074901159
 21
-1201.868359852879
 72
     1
 10
-955.7500074901159
 20
-1201.868359852879
 11
-954.3472832723667
 21
-1201.868359852879
 72
     1
 10
-954.3472832723667
 20
-1201.868359852879
 11
-953.7461157504748
 21
-1202.548183174435
 72
     1
 10
-953.7461157504748
 20
-1202.548183174435
 11
-953.144948228582
 21
-1201.868359852879
 72
     1
 10
-953.144948228582
 20
-1201.868359852879
 11
-951.7422240108348
 21
-1201.868359852879
 97
       12
330
F7
330
F6
330
F5
330
152
330
153
330
14F
330
150
330
FB
330
FA
330
F9
330
F8
330
151
 75
     1
 76
     2
 52
45.0
 41
0.1
 77
     0
 78
     1
 53
45.0
 43
62.7811309658083
 44
-72.3161373035813
 45
-0.1414213562373095
 46
0.0
 79
     0
 98
        1
 10
0.0
 20
0.0
  0
HATCH
  5
215
330
71
100
AcDbEntity
  8
1
  6
Continuous
 62
     2
100
AcDbHatch
 10
0.0
 20
0.0
 30
0.0
210
0.0
220
0.0
230
1.0
  2
CUSTOM14
 70
     0
 71
     1
 91
        2
 92
        1
 93
        6
 72
     1
 10
-970.7599594249808
 20
-1203.979091135547
 11
-971.5187270127612
 21
-1203.979091135547
 72
     1
 10
-971.5187270127612
 20
-1203.979091135547
 11
-971.5187270127612
 21
-1204.92216937669
 72
     1
 10
-971.5187270127612
 20
-1204.92216937669
 11
-972.7592314230152
 21
-1204.92216937669
 72
     1
 10
-972.7592314230152
 20
-1204.92216937669
 11
-972.7592314230152
 21
-1201.868359852879
 72
     1
 10
-972.7592314230152
 20
-1201.868359852879
 11
-970.7599594249808
 21
-1201.868359852879
 72
     2
 10
-970.7599594249808
 20
-1202.923725494213
 40
1.055365641333992
 50
270.0
 51
450.0
 73
     0
 97
        6
330
11F
330
11E
330
12B
330
12A
330
120
330
1B1
 92
       16
 93
        4
 72
     2
 10
-971.2014319512192
 20
-1202.88432952299
 40
0.3528638246712035
 50
270.0
 51
450.0
 73
     1
 72
     1
 10
-971.2014319512192
 20
-1202.531465698319
 11
-971.5187270127612
 21
-1202.531465698319
 72
     1
 10
-971.5187270127612
 20
-1202.531465698319
 11
-971.5187270127612
 21
-1203.237193347661
 72
     1
 10
-971.5187270127612
 20
-1203.237193347661
 11
-971.2014319512192
 21
-1203.237193347661
 97
        4
330
1C5
330
11C
330
12C
330
11D
 75
     1
 76
     2
 52
45.0
 41
0.1
 77
     0
 78
     1
 53
45.0
 43
62.7811309658083
 44
-72.3161373035813
 45
-0.1414213562373095
 46
0.0
 79
     0
 98
        1
 10
0.0
 20
0.0
  0
HATCH
  5
216
330
71
100
AcDbEntity
  8
1
  6
Continuous
 62
     2
100
AcDbHatch
 10
0.0
 20
0.0
 30
0.0
210
0.0
220
0.0
230
1.0
  2
CUSTOM15
 70
     0
 71
     1
 91
        2
 92
        1
 93
        6
 72
     1
 10
-970.7599594249808
 20
-1203.979091135547
 11
-971.5187270127612
 21
-1203.979091135547
 72
     1
 10
-971.5187270127612
 20
-1203.979091135547
 11
-971.5187270127612
 21
-1204.92216937669
 72
     1
 10
-971.5187270127612
 20
-1204.92216937669
 11
-972.7592314230152
 21
-1204.92216937669
 72
     1
 10
-972.7592314230152
 20
-1204.92216937669
 11
-972.7592314230152
 21
-1201.868359852879
 72
     1
 10
-972.7592314230152
 20
-1201.868359852879
 11
-970.7599594249808
 21
-1201.868359852879
 72
     2
 10
-970.7599594249808
 20
-1202.923725494213
 40
1.055365641333992
 50
270.0
 51
450.0
 73
     0
 97
        6
330
11F
330
11E
330
12B
330
12A
330
120
330
1B1
 92
       16
 93
        4
 72
     2
 10
-971.2014319512192
 20
-1202.88432952299
 40
0.3528638246712035
 50
270.0
 51
450.0
 73
     1
 72
     1
 10
-971.2014319512192
 20
-1202.531465698319
 11
-971.5187270127612
 21
-1202.531465698319
 72
     1
 10
-971.5187270127612
 20
-1202.531465698319
 11
-971.5187270127612
 21
-1203.237193347661
 72
     1
 10
-971.5187270127612
 20
-1203.237193347661
 11
-971.2014319512192
 21
-1203.237193347661
 97
        4
330
1C5
330
11C
330
12C
330
11D
 75
     1
 76
     2
 52
45.0
 41
0.1
 77
     0
 78
     1
 53
45.0
 43
62.7811309658083
 44
-72.3161373035813
 45
-0.1414213562373095
 46
0.0
 79
     0
 98
        1
 10
0.0
 20
0.0
  0
HATCH
  5
217
330
71
100
AcDbEntity
  8
1
  6
Continuous
 62
     2
100
AcDbHatch
 10
0.0
 20
0.0
 30
0.0
210
0.0
220
0.0
230
1.0
  2
CUSTOM16
 70
     0
 71
     1
 91
        2
 92
        1
 93
        4
 72
     2
 10
-968.2034166766217
 20
-1207.293030101262
 40
2.065479772208441
 50
62.45185182430455
 51
117.5481481756703
 73
     1
 72
     2
 10
-968.484356568455
 20
-1206.754455090959
 40
1.458034083651189
 50
117.5481481756711
 51
242.4518518243454
 73
     1
 72
     2
 10
-968.2034166766217
 20
-1206.215880080656
 40
2.065479772208775
 50
242.4518518243414
 51
297.5481481756838
 73
     1
 72
     2
 10
-967.9224767847885
 20
-1206.754455090959
 40
1.458034083652521
 50
297.5481481756942
 51
422.4518518242893
 73
     1
 97
        4
330
1BD
330
1BC
330
1BE
330
1BB
 92
       16
 93
        4
 72
     2
 10
-968.4031567129681
 20
-1206.754455090959
 40
0.7717997786795957
 50
321.8795802028306
 51
398.1204197971695
 73
     1
 72
     2
 10
-968.2034166766217
 20
-1206.597723912839
 40
0.517908573013574
 50
38.12041979721116
 51
141.8795802028121
 73
     1
 72
     2
 10
-968.0036766402757
 20
-1206.754455090959
 40
0.7717997786795957
 50
141.8795802028306
 51
218.1204197971694
 73
     1
 72
     2
 10
-968.2034166766217
 20
-1206.911186269079
 40
0.5179085730138424
 50
218.1204197971879
 51
321.8795802027889
 73
     1
 97
        4
330
1D9
330
1D6
330
1D7
330
1D8
 75
     1
 76
     2
 52
45.0
 41
0.1
 77
     0
 78
     1
 53
45.0
 43
62.7811309658083
 44
-72.3161373035813
 45
-0.1414213562373095
 46
0.0
 79
     0
 98
        1
 10
0.0
 20
0.0
  0
HATCH
  5
218
330
71
100
AcDbEntity
  8
1
  6
Continuous
 62
     2
100
AcDbHatch
 10
0.0
 20
0.0
 30
0.0
210
0.0
220
0.0
230
1.0
  2
CUSTOM17
 70
     0
 71
     1
 91
        2
 92
        1
 93
        4
 72
     2
 10
-968.2034166766217
 20
-1207.293030101262
 40
2.065479772208441
 50
62.45185182430455
 51
117.5481481756703
 73
     1
 72
     2
 10
-968.484356568455
 20
-1206.754455090959
 40
1.458034083651189
 50
117.5481481756711
 51
242.4518518243454
 73
     1
 72
     2
 10
-968.2034166766217
 20
-1206.215880080656
 40
2.065479772208775
 50
242.4518518243414
 51
297.5481481756838
 73
     1
 72
     2
 10
-967.9224767847885
 20
-1206.754455090959
 40
1.458034083652521
 50
297.5481481756942
 51
422.4518518242893
 73
     1
 97
        4
330
1BD
330
1BC
330
1BE
330
1BB
 92
       16
 93
        4
 72
     2
 10
-968.4031567129681
 20
-1206.754455090959
 40
0.7717997786795957
 50
321.8795802028306
 51
398.1204197971695
 73
     1
 72
     2
 10
-968.2034166766217
 20
-1206.597723912839
 40
0.517908573013574
 50
38.12041979721116
 51
141.8795802028121
 73
     1
 72
     2
 10
-968.0036766402757
 20
-1206.754455090959
 40
0.7717997786795957
 50
141.8795802028306
 51
218.1204197971694
 73
     1
 72
     2
 10
-968.2034166766217
 20
-1206.911186269079
 40
0.5179085730138424
 50
218.1204197971879
 51
321.8795802027889
 73
     1
 97
        4
330
1D9
330
1D6
330
1D7
330
1D8
 75
     1
 76
     2
 52
45.0
 41
0.1
 77
     0
 78
     1
 53
45.0
 43
62.7811309658083
 44
-72.3161373035813
 45
-0.1414213562373095
 46
0.0
 79
     0
 98
        1
 10
0.0
 20
0.0
  0
HATCH
  5
219
330
71
100
AcDbEntity
  8
1
  6
Continuous
 62
     2
100
AcDbHatch
 10
0.0
 20
0.0
 30
0.0
210
0.0
220
0.0
230
1.0
  2
CUSTOM18
 70
     0
 71
     1
 91
        2
 92
        1
 93
       12
 72
     1
 10
-961.3084214822125
 20
-1202.566373458322
 11
-962.6443493086401
 21
-1202.566373458322
 72
     1
 10
-962.6443493086401
 20
-1202.566373458322
 11
-962.6443493086401
 21
-1203.046257812064
 72
     1
 10
-962.6443493086401
 20
-1203.046257812064
 11
-961.3084214822125
 21
-1203.046257812064
 72
     1
 10
-961.3084214822125
 20
-1203.046257812064
 11
-961.3084214822125
 21
-1203.744271417506
 72
     1
 10
-961.3084214822125
 20
-1203.744271417506
 11
-962.6443493086401
 21
-1203.744271417506
 72
     1
 10
-962.6443493086401
 20
-1203.744271417506
 11
-962.6443493086401
 21
-1204.224155771248
 72
     1
 10
-962.6443493086401
 20
-1204.224155771248
 11
-961.3084214822125
 21
-1204.224155771248
 72
     1
 10
-961.3084214822125
 20
-1204.224155771248
 11
-961.3084214822125
 21
-1204.92216937669
 72
     1
 10
-961.3084214822125
 20
-1204.92216937669
 11
-964.4587412059934
 21
-1204.92216937669
 72
     2
 10
-964.4587412059934
 20
-1203.395264614785
 40
1.526904761906053
 50
90.0
 51
270.0
 73
     0
 72
     1
 10
-964.4587412059934
 20
-1201.868359852879
 11
-961.3084214822125
 21
-1201.868359852879
 72
     1
 10
-961.3084214822125
 20
-1201.868359852879
 11
-961.3084214822125
 21
-1202.566373458322
 97
       12
330
133
330
1C6
330
134
330
135
330
136
330
137
330
114
330
113
330
112
330
111
330
138
330
132
 92
       16
 93
        4
 72
     2
 10
-964.2424691958282
 20
-1203.238533436665
 40
0.5179085730137529
 50
38.12041979719563
 51
141.8795802028121
 73
     1
 72
     2
 10
-964.042729159482
 20
-1203.395264614785
 40
0.7717997786797746
 50
141.879580202841
 51
218.120419797159
 73
     1
 72
     2
 10
-964.2424691958282
 20
-1203.551995792906
 40
0.517908573013281
 50
218.1204197971087
 51
321.8795802028835
 73
     1
 72
     2
 10
-964.4422092321744
 20
-1203.395264614785
 40
0.7717997786795957
 50
321.8795802028306
 51
398.1204197971695
 73
     1
 97
        4
330
1C0
330
1BF
330
1BA
330
1B9
 75
     1
 76
     2
 52
45.0
 41
0.1
 77
     0
 78
     1
 53
45.0
 43
62.7811309658083
 44
-72.3161373035813
 45
-0.1414213562373095
 46
0.0
 79
     0
 98
        1
 10
0.0
 20
0.0
  0
HATCH
  5
21A
330
71
100
AcDbEntity
  8
1
  6
Continuous
 62
     2
100
AcDbHatch
 10
0.0
 20
0.0
 30
0.0
210
0.0
220
0.0
230
1.0
  2
CUSTOM19
 70
     0
 71
     1
 91
        2
 92
        1
 93
       12
 72
     1
 10
-961.3084214822125
 20
-1202.566373458322
 11
-962.6443493086401
 21
-1202.566373458322
 72
     1
 10
-962.6443493086401
 20
-1202.566373458322
 11
-962.6443493086401
 21
-1203.046257812064
 72
     1
 10
-962.6443493086401
 20
-1203.046257812064
 11
-961.3084214822125
 21
-1203.046257812064
 72
     1
 10
-961.3084214822125
 20
-1203.046257812064
 11
-961.3084214822125
 21
-1203.744271417506
 72
     1
 10
-961.3084214822125
 20
-1203.744271417506
 11
-962.6443493086401
 21
-1203.744271417506
 72
     1
 10
-962.6443493086401
 20
-1203.744271417506
 11
-962.6443493086401
 21
-1204.224155771248
 72
     1
 10
-962.6443493086401
 20
-1204.224155771248
 11
-961.3084214822125
 21
-1204.224155771248
 72
     1
 10
-961.3084214822125
 20
-1204.224155771248
 11
-961.3084214822125
 21
-1204.92216937669
 72
     1
 10
-961.3084214822125
 20
-1204.92216937669
 11
-964.4587412059934
 21
-1204.92216937669
 72
     2
 10
-964.4587412059934
 20
-1203.395264614785
 40
1.526904761906053
 50
90.0
 51
270.0
 73
     0
 72
     1
 10
-964.4587412059934
 20
-1201.868359852879
 11
-961.3084214822125
 21
-1201.868359852879
 72
     1
 10
-961.3084214822125
 20
-1201.868359852879
 11
-961.3084214822125
 21
-1202.566373458322
 97
       12
330
133
330
1C6
330
134
330
135
330
136
330
137
330
114
330
113
330
112
330
111
330
138
330
132
 92
       16
 93
        4
 72
     2
 10
-964.2424691958282
 20
-1203.238533436665
 40
0.5179085730137529
 50
38.12041979719563
 51
141.8795802028121
 73
     1
 72
     2
 10
-964.042729159482
 20
-1203.395264614785
 40
0.7717997786797746
 50
141.879580202841
 51
218.120419797159
 73
     1
 72
     2
 10
-964.2424691958282
 20
-1203.551995792906
 40
0.517908573013281
 50
218.1204197971087
 51
321.8795802028835
 73
     1
 72
     2
 10
-964.4422092321744
 20
-1203.395264614785
 40
0.7717997786795957
 50
321.8795802028306
 51
398.1204197971695
 73
     1
 97
        4
330
1C0
330
1BF
330
1BA
330
1B9
 75
     1
 76
     2
 52
45.0
 41
0.1
 77
     0
 78
     1
 53
45.0
 43
62.7811309658083
 44
-72.3161373035813
 45
-0.1414213562373095
 46
0.0
 79
     0
 98
        1
 10
0.0
 20
0.0
  0
HATCH
  5
21B
330
71
100
AcDbEntity
  8
1
  6
Continuous
 62
     2
100
AcDbHatch
 10
0.0
 20
0.0
 30
0.0
210
0.0
220
0.0
230
1.0
  2
CUSTOM20
 70
     0
 71
     1
 91
        4
 92
        1
 93
        8
 72
     1
 10
-973.236348503882
 20
-1202.292604468281
 11
-973.236348503882
 21
-1207.857115237481
 72
     2
 10
-973.6605931192659
 20
-1207.857115237481
 40
0.4242446153841684
 50
0.0
 51
90.0
 73
     0
 72
     1
 10
-973.6605931192659
 20
-1208.281359852865
 11
-979.1339052099828
 21
-1208.281359852865
 72
     2
 10
-979.1339052099828
 20
-1207.857115237481
 40
0.4242446153828041
 50
90.0
 51
180.0
 73
     0
 72
     1
 10
-979.5581498253656
 20
-1207.857115237481
 11
-979.5581498253656
 21
-1202.292604468281
 72
     2
 10
-979.1339052099828
 20
-1202.292604468281
 40
0.4242446153841684
 50
180.0
 51
270.0
 73
     0
 72
     1
 10
-979.1339052099828
 20
-1201.868359852897
 11
-973.6605931192659
 21
-1201.868359852897
 72
     2
 10
-973.6605931192659
 20
-1202.292604468281
 40
0.4242446153838273
 50
270.0
 51
360.0
 73
     0
 97
        8
330
127
330
1B6
330
128
330
1C1
330
125
330
1B8
330
126
330
1B7
 92
       16
 93
       12
 72
     2
 10
-978.5400105332362
 20
-1207.253087374231
 40
0.3157169230756836
 50
180.0
 51
270.0
 73
     1
 72
     1
 10
-978.5400105332362
 20
-1207.568804297308
 11
-977.0641772722267
 21
-1207.568804297308
 72
     2
 10
-977.0641772722267
 20
-1207.253087374231
 40
0.3157169230769341
 50
270.0
 51
360.0
 73
     1
 72
     1
 10
-976.74846034915
 20
-1207.253087374231
 11
-976.74846034915
 21
-1205.722316442699
 72
     2
 10
-977.0641772722267
 20
-1205.722316442699
 40
0.3157169230767067
 50
0.0
 51
64.80558935138451
 73
     1
 72
     2
 10
-976.5415928246517
 20
-1204.611486696637
 40
0.911897523557964
 50
115.194410648512
 51
244.805589351488
 73
     0
 72
     2
 10
-977.0641772722267
 20
-1203.500656950575
 40
0.3157169230757058
 50
295.194410648598
 51
360.0
 73
     1
 72
     1
 10
-976.74846034915
 20
-1203.500656950575
 11
-976.74846034915
 21
-1202.896632331514
 72
     2
 10
-977.0641772722267
 20
-1202.896632331514
 40
0.3157169230767067
 50
0.0
 51
90.0
 73
     1
 72
     1
 10
-977.0641772722267
 20
-1202.580915408438
 11
-978.5400105332362
 21
-1202.580915408438
 72
     2
 10
-978.5400105332362
 20
-1202.896632331514
 40
0.3157169230760246
 50
90.0
 51
180.0
 73
     1
 72
     1
 10
-978.8557274563119
 20
-1202.896632331514
 11
-978.8557274563119
 21
-1207.253087374231
 97
       12
330
1B2
330
129
330
1B5
330
124
330
1C2
330
1C3
330
1B4
330
123
330
1B3
330
122
330
1C4
330
121
 92
       16
 93
        8
 72
     2
 10
-975.9644618467045
 20
-1205.720628296605
 40
0.3157169230768018
 50
115.3740086783344
 51
180.0
 73
     1
 72
     1
 10
-976.2801787697813
 20
-1205.720628296605
 11
-976.2801787697813
 21
-1206.3024797033
 72
     2
 10
-975.9644618467045
 20
-1206.3024797033
 40
0.3157169230768204
 50
180.0
 51
269.8110329574181
 73
     1
 72
     2
 10
-975.9588457113945
 20
-1204.599644755731
 40
2.018561131933152
 50
269.811032957581
 51
450.188967042419
 73
     1
 72
     2
 10
-975.9644618467045
 20
-1202.896809808162
 40
0.3157169230760149
 50
90.18896704258206
 51
180.0
 73
     1
 72
     1
 10
-976.2801787697813
 20
-1202.896809808162
 11
-976.2801787697813
 21
-1203.502345096669
 72
     2
 10
-975.9644618467045
 20
-1203.502345096669
 40
0.3157169230768204
 50
180.0
 51
244.6259913216126
 73
     1
 72
     2
 10
-976.4905045447924
 20
-1204.611486696637
 40
0.9118481501437387
 50
295.3740086781774
 51
424.6259913217981
 73
     0
 97
        8
330
1CE
330
EE
330
1CB
330
1CC
330
1AA
330
ED
330
1CD
330
1A9
 92
       16
 93
        1
 72
     2
 10
-976.5143195594652
 20
-1204.611486696637
 40
0.4709789327785074
 50
0.0
 51
360.0
 73
     1
 97
        1
330
1DC
 75
     1
 76
     2
 52
45.0
 41
0.1
 77
     0
 78
     1
 53
45.0
 43
62.7811309658083
 44
-72.3161373035813
 45
-0.1414213562373095
 46
0.0
 79
     0
 98
        1
 10
0.0
 20
0.0
  0
HATCH
  5
21C
330
71
100
AcDbEntity
  8
1
  6
Continuous
 62
     2
100
AcDbHatch
 10
0.0
 20
0.0
 30
0.0
210
0.0
220
0.0
230
1.0
  2
CUSTOM21
 70
     0
 71
     1
 91
        4
 92
        1
 93
        8
 72
     1
 10
-973.236348503882
 20
-1202.292604468281
 11
-973.236348503882
 21
-1207.857115237481
 72
     2
 10
-973.6605931192659
 20
-1207.857115237481
 40
0.4242446153841684
 50
0.0
 51
90.0
 73
     0
 72
     1
 10
-973.6605931192659
 20
-1208.281359852865
 11
-979.1339052099828
 21
-1208.281359852865
 72
     2
 10
-979.1339052099828
 20
-1207.857115237481
 40
0.4242446153828041
 50
90.0
 51
180.0
 73
     0
 72
     1
 10
-979.5581498253656
 20
-1207.857115237481
 11
-979.5581498253656
 21
-1202.292604468281
 72
     2
 10
-979.1339052099828
 20
-1202.292604468281
 40
0.4242446153841684
 50
180.0
 51
270.0
 73
     0
 72
     1
 10
-979.1339052099828
 20
-1201.868359852897
 11
-973.6605931192659
 21
-1201.868359852897
 72
     2
 10
-973.6605931192659
 20
-1202.292604468281
 40
0.4242446153838273
 50
270.0
 51
360.0
 73
     0
 97
        8
330
127
330
1B6
330
128
330
1C1
330
125
330
1B8
330
126
330
1B7
 92
       16
 93
       12
 72
     2
 10
-978.5400105332362
 20
-1207.253087374231
 40
0.3157169230756836
 50
180.0
 51
270.0
 73
     1
 72
     1
 10
-978.5400105332362
 20
-1207.568804297308
 11
-977.0641772722267
 21
-1207.568804297308
 72
     2
 10
-977.0641772722267
 20
-1207.253087374231
 40
0.3157169230769341
 50
270.0
 51
360.0
 73
     1
 72
     1
 10
-976.74846034915
 20
-1207.253087374231
 11
-976.74846034915
 21
-1205.722316442699
 72
     2
 10
-977.0641772722267
 20
-1205.722316442699
 40
0.3157169230767067
 50
0.0
 51
64.80558935138451
 73
     1
 72
     2
 10
-976.5415928246517
 20
-1204.611486696637
 40
0.911897523557964
 50
115.194410648512
 51
244.805589351488
 73
     0
 72
     2
 10
-977.0641772722267
 20
-1203.500656950575
 40
0.3157169230757058
 50
295.194410648598
 51
360.0
 73
     1
 72
     1
 10
-976.74846034915
 20
-1203.500656950575
 11
-976.74846034915
 21
-1202.896632331514
 72
     2
 10
-977.0641772722267
 20
-1202.896632331514
 40
0.3157169230767067
 50
0.0
 51
90.0
 73
     1
 72
     1
 10
-977.0641772722267
 20
-1202.580915408438
 11
-978.5400105332362
 21
-1202.580915408438
 72
     2
 10
-978.5400105332362
 20
-1202.896632331514
 40
0.3157169230760246
 50
90.0
 51
180.0
 73
     1
 72
     1
 10
-978.8557274563119
 20
-1202.896632331514
 11
-978.8557274563119
 21
-1207.253087374231
 97
       12
330
1B2
330
129
330
1B5
330
124
330
1C2
330
1C3
330
1B4
330
123
330
1B3
330
122
330
1C4
330
121
 92
       16
 93
        8
 72
     2
 10
-975.9644618467045
 20
-1205.720628296605
 40
0.3157169230768018
 50
115.3740086783344
 51
180.0
 73
     1
 72
     1
 10
-976.2801787697813
 20
-1205.720628296605
 11
-976.2801787697813
 21
-1206.3024797033
 72
     2
 10
-975.9644618467045
 20
-1206.3024797033
 40
0.3157169230768204
 50
180.0
 51
269.8110329574181
 73
     1
 72
     2
 10
-975.9588457113945
 20
-1204.599644755731
 40
2.018561131933152
 50
269.811032957581
 51
450.188967042419
 73
     1
 72
     2
 10
-975.9644618467045
 20
-1202.896809808162
 40
0.3157169230760149
 50
90.18896704258206
 51
180.0
 73
     1
 72
     1
 10
-976.2801787697813
 20
-1202.896809808162
 11
-976.2801787697813
 21
-1203.502345096669
 72
     2
 10
-975.9644618467045
 20
-1203.502345096669
 40
0.3157169230768204
 50
180.0
 51
244.6259913216126
 73
     1
 72
     2
 10
-976.4905045447924
 20
-1204.611486696637
 40
0.9118481501437387
 50
295.3740086781774
 51
424.6259913217981
 73
     0
 97
        8
330
1CE
330
EE
330
1CB
330
1CC
330
1AA
330
ED
330
1CD
330
1A9
 92
       16
 93
        1
 72
     2
 10
-976.5143195594652
 20
-1204.611486696637
 40
0.4709789327785074
 50
0.0
 51
360.0
 73
     1
 97
        1
330
1DC
 75
     1
 76
     2
 52
45.0
 41
0.1
 77
     0
 78
     1
 53
45.0
 43
62.7811309658083
 44
-72.3161373035813
 45
-0.1414213562373095
 46
0.0
 79
     0
 98
        1
 10
0.0
 20
0.0
  0
HATCH
  5
21D
330
71
100
AcDbEntity
  8
1
  6
Continuous
 62
     2
100
AcDbHatch
 10
0.0
 20
0.0
 30
0.0
210
0.0
220
0.0
230
1.0
  2
CUSTOM22
 70
     0
 71
     1
 91
        1
 92
        1
 93
       18
 72
     1
 10
-951.646800594661
 20
-1206.012815635177
 11
-952.4578996321345
 21
-1206.012815635177
 72
     1
 10
-952.4578996321345
 20
-1206.012815635177
 11
-952.4578996321345
 21
-1208.281359852865
 72
     1
 10
-952.4578996321345
 20
-1208.281359852865
 11
-953.6506923343022
 21
-1208.281359852865
 72
     1
 10
-953.6506923343022
 20
-1208.281359852865
 11
-953.6506923343022
 21
-1206.012815635177
 72
     1
 10
-953.6506923343022
 20
-1206.012815635177
 11
-954.7543316338703
 21
-1206.012815635177
 72
     2
 10
-954.7543316338703
 20
-1206.967338642003
 40
0.9545230068258661
 50
90.0
 51
109.337143219422
 73
     1
 72
     2
 10
-954.9010016319739
 20
-1206.54938366162
 40
0.5115800601946194
 50
109.3371432194738
 51
151.4785267424451
 73
     1
 72
     2
 10
-954.5236443738925
 20
-1206.754455090959
 40
0.9410597353349766
 50
151.4785267423711
 51
208.5214732576775
 73
     1
 72
     2
 10
-954.9010016319739
 20
-1206.959526520298
 40
0.5115800601959901
 50
208.5214732576668
 51
246.6277221118395
 73
     1
 72
     2
 10
-954.7445615992708
 20
-1206.597534501588
 40
0.9059297849852503
 50
246.6277221118135
 51
288.4480761180829
 73
     1
 72
     2
 10
-955.1627293329328
 20
-1205.343988725551
 40
2.227384008972611
 50
288.4480761181346
 51
301.9309089499398
 73
     1
 72
     1
 10
-953.9846742909089
 20
-1207.234339444701
 11
-953.9846742909089
 21
-1208.106856451504
 72
     2
 10
-955.3206022080255
 20
-1203.441774145703
 40
4.852596863498941
 50
74.02000874166028
 51
84.84185523036345
 73
     0
 72
     2
 10
-955.0317461132897
 20
-1206.641664728924
 40
1.639695123940421
 50
84.84185523032477
 51
164.9381082228985
 73
     0
 72
     2
 10
-955.4508739567514
 20
-1206.754455090959
 40
1.205656168392903
 50
164.9381082229099
 51
195.0618917770901
 73
     0
 72
     2
 10
-955.0317461132897
 20
-1206.867245452994
 40
1.639695123939873
 50
195.0618917771015
 51
270.0
 73
     0
 72
     1
 10
-955.0317461132897
 20
-1205.227550329054
 11
-951.646800594661
 21
-1205.227550329053
 72
     1
 10
-951.646800594661
 20
-1205.227550329053
 11
-951.646800594661
 21
-1206.012815635177
 97
       18
330
F0
330
1C7
330
1C8
330
1B0
330
1AF
330
154
330
1AE
330
1AD
330
1C9
330
1AC
330
1CA
330
1AB
330
155
330
EF
330
F4
330
F3
330
F2
330
F1
 75
     1
 76
     2
 52
45.0
 41
0.1
 77
     0
 78
     1
 53
45.0
 43
62.7811309658083
 44
-72.3161373035813
 45
-0.1414213562373095
 46
0.0
 79
     0
 98
        1
 10
0.0
 20
0.0
  0
HATCH
  5
21E
330
71
100
AcDbEntity
  8
1
  6
Continuous
 62
     2
100
AcDbHatch
 10
0.0
 20
0.0
 30
0.0
210
0.0
220
0.0
230
1.0
  2
CUSTOM23
 70
     0
 71
     1
 91
        1
 92
        1
 93
       18
 72
     1
 10
-951.646800594661
 20
-1206.012815635177
 11
-952.4578996321345
 21
-1206.012815635177
 72
     1
 10
-952.4578996321345
 20
-1206.012815635177
 11
-952.4578996321345
 21
-1208.281359852865
 72
     1
 10
-952.4578996321345
 20
-1208.281359852865
 11
-953.6506923343022
 21
-1208.281359852865
 72
     1
 10
-953.6506923343022
 20
-1208.281359852865
 11
-953.6506923343022
 21
-1206.012815635177
 72
     1
 10
-953.6506923343022
 20
-1206.012815635177
 11
-954.7543316338703
 21
-1206.012815635177
 72
     2
 10
-954.7543316338703
 20
-1206.967338642003
 40
0.9545230068258661
 50
90.0
 51
109.337143219422
 73
     1
 72
     2
 10
-954.9010016319739
 20
-1206.54938366162
 40
0.5115800601946194
 50
109.3371432194738
 51
151.4785267424451
 73
     1
 72
     2
 10
-954.5236443738925
 20
-1206.754455090959
 40
0.9410597353349766
 50
151.4785267423711
 51
208.5214732576775
 73
     1
 72
     2
 10
-954.9010016319739
 20
-1206.959526520298
 40
0.5115800601959901
 50
208.5214732576668
 51
246.6277221118395
 73
     1
 72
     2
 10
-954.7445615992708
 20
-1206.597534501588
 40
0.9059297849852503
 50
246.6277221118135
 51
288.4480761180829
 73
     1
 72
     2
 10
-955.1627293329328
 20
-1205.343988725551
 40
2.227384008972611
 50
288.4480761181346
 51
301.9309089499398
 73
     1
 72
     1
 10
-953.9846742909089
 20
-1207.234339444701
 11
-953.9846742909089
 21
-1208.106856451504
 72
     2
 10
-955.3206022080255
 20
-1203.441774145703
 40
4.852596863498941
 50
74.02000874166028
 51
84.84185523036345
 73
     0
 72
     2
 10
-955.0317461132897
 20
-1206.641664728924
 40
1.639695123940421
 50
84.84185523032477
 51
164.9381082228985
 73
     0
 72
     2
 10
-955.4508739567514
 20
-1206.754455090959
 40
1.205656168392903
 50
164.9381082229099
 51
195.0618917770901
 73
     0
 72
     2
 10
-955.0317461132897
 20
-1206.867245452994
 40
1.639695123939873
 50
195.0618917771015
 51
270.0
 73
     0
 72
     1
 10
-955.0317461132897
 20
-1205.227550329054
 11
-951.646800594661
 21
-1205.227550329053
 72
     1
 10
-951.646800594661
 20
-1205.227550329053
 11
-951.646800594661
 21
-1206.012815635177
 97
       18
330
F0
330
1C7
330
1C8
330
1B0
330
1AF
330
154
330
1AE
330
1AD
330
1C9
330
1AC
330
1CA
330
1AB
330
155
330
EF
330
F4
330
F3
330
F2
330
F1
 75
     1
 76
     2
 52
45.0
 41
0.1
 77
     0
 78
     1
 53
45.0
 43
62.7811309658083
 44
-72.3161373035813
 45
-0.1414213562373095
 46
0.0
 79
     0
 98
        1
 10
0.0
 20
0.0
  0
HATCH
  5
21F
330
71
100
AcDbEntity
  8
1
  6
Continuous
 62
     2
100
AcDbHatch
 10
0.0
 20
0.0
 30
0.0
210
0.0
220
0.0
230
1.0
  2
CUSTOM24
 70
     0
 71
     1
 91
        1
 92
        1
 93
       14
 72
     2
 10
-971.1344475925425
 20
-1206.867245452994
 40
1.639695123940213
 50
84.84185523036543
 51
164.9381082228913
 73
     1
 72
     2
 10
-971.5535754360054
 20
-1206.754455090959
 40
1.205656168390927
 50
164.9381082228846
 51
195.0618917771153
 73
     1
 72
     2
 10
-971.1344475925425
 20
-1206.641664728924
 40
1.639695123939652
 50
195.0618917771087
 51
275.1581447696346
 73
     1
 72
     2
 10
-971.4233036872785
 20
-1203.441774145703
 40
4.852596863497932
 50
275.1581447696242
 51
285.9799912583526
 73
     1
 72
     1
 10
-970.0873757701606
 20
-1208.106856451504
 11
-970.0873757701606
 21
-1207.2343394447
 72
     2
 10
-971.2654308121857
 20
-1205.343988725551
 40
2.227384008972647
 50
58.069091050023
 51
71.5519238818626
 73
     0
 72
     2
 10
-970.8472630785247
 20
-1206.597534501588
 40
0.9059297849848895
 50
71.55192388184892
 51
113.3722778881337
 73
     0
 72
     2
 10
-971.0037031112269
 20
-1206.959526520298
 40
0.5115800601949912
 50
113.3722778881722
 51
151.4785267422724
 73
     0
 72
     2
 10
-970.6263458531465
 20
-1206.754455090959
 40
0.9410597353329787
 50
151.4785267422564
 51
208.521473257695
 73
     0
 72
     2
 10
-971.0037031112269
 20
-1206.54938366162
 40
0.5115800601943187
 50
208.5214732576157
 51
246.6277221117773
 73
     0
 72
     2
 10
-970.8472630785247
 20
-1206.911375680331
 40
0.9059297849857901
 50
246.6277221118663
 51
288.4480761181329
 73
     0
 72
     2
 10
-971.2654308121857
 20
-1208.164921456367
 40
2.227384008972802
 50
288.4480761181374
 51
301.930908949977
 73
     0
 72
     1
 10
-970.0873757701606
 20
-1206.274570737218
 11
-970.0873757701606
 21
-1205.402053730414
 72
     2
 10
-971.4233036872785
 20
-1210.067136036215
 40
4.852596863498158
 50
74.02000874164733
 51
84.84185523037584
 73
     1
 97
       14
330
1CF
330
1D0
330
1D1
330
1D2
330
156
330
1A8
330
1A7
330
1A6
330
1D3
330
1D4
330
1A5
330
1D5
330
157
330
1A4
 75
     1
 76
     2
 52
45.0
 41
0.1
 77
     0
 78
     1
 53
45.0
 43
62.7811309658083
 44
-72.3161373035813
 45
-0.1414213562373095
 46
0.0
 79
     0
 98
        1
 10
0.0
 20
0.0
  0
HATCH
  5
220
330
71
100
AcDbEntity
  8
1
  6
Continuous
 62
     2
100
AcDbHatch
 10
0.0
 20
0.0
 30
0.0
210
0.0
220
0.0
230
1.0
  2
CUSTOM25
 70
     0
 71
     1
 91
        1
 92
        1
 93
       14
 72
     2
 10
-971.1344475925425
 20
-1206.867245452994
 40
1.639695123940213
 50
84.84185523036543
 51
164.9381082228913
 73
     1
 72
     2
 10
-971.5535754360054
 20
-1206.754455090959
 40
1.205656168390927
 50
164.9381082228846
 51
195.0618917771153
 73
     1
 72
     2
 10
-971.1344475925425
 20
-1206.641664728924
 40
1.639695123939652
 50
195.0618917771087
 51
275.1581447696346
 73
     1
 72
     2
 10
-971.4233036872785
 20
-1203.441774145703
 40
4.852596863497932
 50
275.1581447696242
 51
285.9799912583526
 73
     1
 72
     1
 10
-970.0873757701606
 20
-1208.106856451504
 11
-970.0873757701606
 21
-1207.2343394447
 72
     2
 10
-971.2654308121857
 20
-1205.343988725551
 40
2.227384008972647
 50
58.069091050023
 51
71.5519238818626
 73
     0
 72
     2
 10
-970.8472630785247
 20
-1206.597534501588
 40
0.9059297849848895
 50
71.55192388184892
 51
113.3722778881337
 73
     0
 72
     2
 10
-971.0037031112269
 20
-1206.959526520298
 40
0.5115800601949912
 50
113.3722778881722
 51
151.4785267422724
 73
     0
 72
     2
 10
-970.6263458531465
 20
-1206.754455090959
 40
0.9410597353329787
 50
151.4785267422564
 51
208.521473257695
 73
     0
 72
     2
 10
-971.0037031112269
 20
-1206.54938366162
 40
0.5115800601943187
 50
208.5214732576157
 51
246.6277221117773
 73
     0
 72
     2
 10
-970.8472630785247
 20
-1206.911375680331
 40
0.9059297849857901
 50
246.6277221118663
 51
288.4480761181329
 73
     0
 72
     2
 10
-971.2654308121857
 20
-1208.164921456367
 40
2.227384008972802
 50
288.4480761181374
 51
301.930908949977
 73
     0
 72
     1
 10
-970.0873757701606
 20
-1206.274570737218
 11
-970.0873757701606
 21
-1205.402053730414
 72
     2
 10
-971.4233036872785
 20
-1210.067136036215
 40
4.852596863498158
 50
74.02000874164733
 51
84.84185523037584
 73
     1
 97
       14
330
1CF
330
1D0
330
1D1
330
1D2
330
156
330
1A8
330
1A7
330
1A6
330
1D3
330
1D4
330
1A5
330
1D5
330
157
330
1A4
 75
     1
 76
     2
 52
45.0
 41
0.1
 77
     0
 78
     1
 53
45.0
 43
62.7811309658083
 44
-72.3161373035813
 45
-0.1414213562373095
 46
0.0
 79
     0
 98
        1
 10
0.0
 20
0.0
  0
ENDBLK
  5
73
330
71
100
AcDbEntity
  8
0
100
AcDbBlockEnd
  0
BLOCK
  5
75
330
74
100
AcDbEntity
  8
0
100
AcDbBlockBegin
  2
_punkt
 70
     0
 10
-854.2500001851782
 20
-1215.574859852881
 30
0.0
  3
_punkt
  1

  0
LINE
  5
221
330
74
100
AcDbEntity
  8
1
  6
Continuous
 62
     2
100
AcDbLine
 10
-854.2500001851781
 20
-1215.574859852881
 30
0.0
 11
-849.2500001851806
 21
-1215.574859852881
 31
0.0
  0
LINE
  5
222
330
74
100
AcDbEntity
  8
1
  6
Continuous
 62
     2
100
AcDbLine
 10
-854.2500001851781
 20
-1215.574859852881
 30
0.0
 11
-854.2500001851781
 21
-1220.57485985288
 31
0.0
  0
ENDBLK
  5
76
330
74
100
AcDbEntity
  8
0
100
AcDbBlockEnd
  0
BLOCK
  5
7A
330
77
100
AcDbEntity
  8
0
100
AcDbBlockBegin
  2
A3I_CS
 70
     0
 10
-854.2500001851781
 20
-1220.57485985288
 30
0.0
  3
A3I_CS
  1

  0
INSERT
  5
78
330
77
100
AcDbEntity
  8
1
100
AcDbBlockReference
  2
_rahmen
 10
-854.2500001851781
 20
-1220.57485985288
 30
0.0
  0
INSERT
  5
79
330
77
100
AcDbEntity
  8
1
100
AcDbBlockReference
  2
_punkt
 10
-854.2500001851782
 20
-1215.574859852881
 30
0.0
  0
ENDBLK
  5
7B
330
77
100
AcDbEntity
  8
0
100
AcDbBlockEnd
  0
BLOCK
  5
AC
330
A5
100
AcDbEntity
  8
0
100
AcDbBlockBegin
  2
*D16
 70
     1
 10
0.0
 20
0.0
 30
0.0
  3
*D16
  1

  0
LINE
  5
A6
330
A5
100
AcDbEntity
  8
1
  6
Continuous
 62
     2
100
AcDbLine
 10
-1904.500000000006
 20
-2056.90279995348
 30
0.0
 11
-2067.500000000005
 21
-2056.90279995348
 31
0.0
  0
LINE
  5
A7
330
A5
100
AcDbEntity
  8
1
  6
Continuous
 62
     2
100
AcDbLine
 10
-1904.500000000006
 20
-2033.499999122729
 30
0.0
 11
-1904.500000000006
 21
-2060.90279995348
 31
0.0
  0
LINE
  5
A8
330
A5
100
AcDbEntity
  8
1
  6
Continuous
 62
     2
100
AcDbLine
 10
-2067.500000000005
 20
-2033.499999122725
 30
0.0
 11
-2067.500000000005
 21
-2060.90279995348
 31
0.0
  0
SOLID
  5
A9
330
A5
100
AcDbEntity
  8
1
 62
     2
100
AcDbTrace
 10
-1911.500000000006
 20
-2057.824367436592
 30
0.0
 11
-1911.500000000006
 21
-2055.981232470368
 31
0.0
 12
-1904.500000000006
 22
-2056.90279995348
 32
0.0
 13
-1904.500000000006
 23
-2056.90279995348
 33
0.0
  0
SOLID
  5
AA
330
A5
100
AcDbEntity
  8
1
 62
     2
100
AcDbTrace
 10
-2060.500000000005
 20
-2055.981232470368
 30
0.0
 11
-2060.500000000005
 21
-2057.824367436592
 31
0.0
 12
-2067.500000000005
 22
-2056.90279995348
 32
0.0
 13
-2067.500000000005
 23
-2056.90279995348
 33
0.0
  0
MTEXT
  5
AB
330
A5
100
AcDbEntity
  8
1
 62
     3
100
AcDbMText
 10
-1997.98786338646
 20
-2052.90279995348
 30
0.0
 40
7.0
 41
0.0
 71
     7
 72
     1
  1
2000
  7
CONVERTER_11
 11
0.9999999999970619
 21
2.424068405545306E-6
 31
0.0
 73
     1
 44
0.60024009603842
  0
ENDBLK
  5
AD
330
A5
100
AcDbEntity
  8
0
100
AcDbBlockEnd
  0
BLOCK
  5
C5
330
BE
100
AcDbEntity
  8
0
100
AcDbBlockBegin
  2
*D17
 70
     1
 10
0.0
 20
0.0
 30
0.0
  3
*D17
  1

  0
LINE
  5
BF
330
BE
100
AcDbEntity
  8
1
  6
Continuous
 62
     2
100
AcDbLine
 10
-2218.499999259277
 20
-2056.90279995348
 30
0.0
 11
-2118.499999259277
 21
-2056.90279995348
 31
0.0
  0
LINE
  5
C0
330
BE
100
AcDbEntity
  8
1
  6
Continuous
 62
     2
100
AcDbLine
 10
-2218.499999259277
 20
-2033.499999122729
 30
0.0
 11
-2218.499999259277
 21
-2060.90279995348
 31
0.0
  0
LINE
  5
C1
330
BE
100
AcDbEntity
  8
1
  6
Continuous
 62
     2
100
AcDbLine
 10
-2118.499999259277
 20
-2033.499999122729
 30
0.0
 11
-2118.499999259277
 21
-2060.90279995348
 31
0.0
  0
SOLID
  5
C2
330
BE
100
AcDbEntity
  8
1
 62
     2
100
AcDbTrace
 10
-2211.499999259277
 20
-2055.981232470368
 30
0.0
 11
-2211.499999259277
 21
-2057.824367436592
 31
0.0
 12
-2218.499999259277
 22
-2056.90279995348
 32
0.0
 13
-2218.499999259277
 23
-2056.90279995348
 33
0.0
  0
SOLID
  5
C3
330
BE
100
AcDbEntity
  8
1
 62
     2
100
AcDbTrace
 10
-2125.499999259277
 20
-2057.824367436592
 30
0.0
 11
-2125.499999259277
 21
-2055.981232470368
 31
0.0
 12
-2118.499999259277
 22
-2056.90279995348
 32
0.0
 13
-2118.499999259277
 23
-2056.90279995348
 33
0.0
  0
MTEXT
  5
C4
330
BE
100
AcDbEntity
  8
1
 62
     3
100
AcDbMText
 10
-2175.850002222172
 20
-2052.90279995348
 30
0.0
 40
7.0
 41
0.0
 71
     7
 72
     1
  1
100
  7
CONVERTER_11
 11
0.9999999999970619
 21
2.424068405545306E-6
 31
0.0
 73
     1
 44
0.60024009603842
  0
ENDBLK
  5
C6
330
BE
100
AcDbEntity
  8
0
100
AcDbBlockEnd
  0
BLOCK
  5
D2
330
C9
100
AcDbEntity
  8
0
100
AcDbBlockBegin
  2
*D18
 70
     1
 10
0.0
 20
0.0
 30
0.0
  3
*D18
  1

  0
LINE
  5
CA
330
C9
100
AcDbEntity
  8
1
  6
Continuous
 62
     2
100
AcDbLine
 10
-2096.30815383236
 20
-2047.499999122729
 30
0.0
 11
-2096.30815383236
 21
-2033.499999122729
 31
0.0
  0
LINE
  5
CB
330
C9
100
AcDbEntity
  8
1
  6
Continuous
 62
     2
100
AcDbLine
 10
-2096.30815383236
 20
-2033.499999122729
 30
0.0
 11
-2096.30815383236
 21
-2018.499999122729
 31
0.0
  0
LINE
  5
CC
330
C9
100
AcDbEntity
  8
1
  6
Continuous
 62
     2
100
AcDbLine
 10
-2096.30815383236
 20
-2018.499999122729
 30
0.0
 11
-2096.30815383236
 21
-2004.499999122729
 31
0.0
  0
LINE
  5
CD
330
C9
100
AcDbEntity
  8
1
  6
Continuous
 62
     2
100
AcDbLine
 10
-2118.499999259277
 20
-2033.499999122729
 30
0.0
 11
-2092.30815383236
 21
-2033.499999122729
 31
0.0
  0
LINE
  5
CE
330
C9
100
AcDbEntity
  8
1
  6
Continuous
 62
     2
100
AcDbLine
 10
-2118.499999259277
 20
-2018.499999122729
 30
0.0
 11
-2092.30815383236
 21
-2018.499999122729
 31
0.0
  0
SOLID
  5
CF
330
C9
100
AcDbEntity
  8
1
 62
     2
100
AcDbTrace
 10
-2095.386586349248
 20
-2040.499999122729
 30
0.0
 11
-2097.229721315472
 21
-2040.499999122729
 31
0.0
 12
-2096.30815383236
 22
-2033.499999122729
 32
0.0
 13
-2096.30815383236
 23
-2033.499999122729
 33
0.0
  0
SOLID
  5
D0
330
C9
100
AcDbEntity
  8
1
 62
     2
100
AcDbTrace
 10
-2097.229721315472
 20
-2011.499999122729
 30
0.0
 11
-2095.386586349248
 21
-2011.499999122729
 31
0.0
 12
-2096.30815383236
 22
-2018.499999122729
 32
0.0
 13
-2096.30815383236
 23
-2018.499999122729
 33
0.0
  0
MTEXT
  5
D1
330
C9
100
AcDbEntity
  8
1
 62
     3
100
AcDbMText
 10
-2100.30815383236
 20
-2029.934548324001
 30
0.0
 40
7.0
 41
0.0
 71
     7
 72
     1
  1
15
  7
CONVERTER_11
 11
0.0
 21
1.0
 31
0.0
 73
     1
 44
0.60024009603842
  0
ENDBLK
  5
D3
330
C9
100
AcDbEntity
  8
0
100
AcDbBlockEnd
  0
ENDSEC
  0
SECTION
  2
ENTITIES
  0
INSERT
  5
7C
330
1F
100
AcDbEntity
  8
0
100
AcDbBlockReference
  2
Allg1
 10
-952.2379765
 20
-1111.899841
 30
0.0
 41
0.5
 42
0.5
 43
0.5
  0
INSERT
  5
7D
330
1F
100
AcDbEntity
  8
0
100
AcDbBlockReference
  2
Drfsicht1
 10
-1103.0
 20
-1081.250001
 30
0.0
 41
0.5
 42
0.5
 43
0.5
  0
INSERT
  5
7E
330
1F
100
AcDbEntity
  8
0
100
AcDbBlockReference
  2
Rckans1
 10
-892.0
 20
-1006.75
 30
0.0
 41
0.5
 42
0.5
 43
0.5
  0
INSERT
  5
7F
330
1F
100
AcDbEntity
  8
0
100
AcDbBlockReference
  2
SA_Links1
 10
-983.75
 20
-1006.75
 30
0.0
 41
0.5
 42
0.5
 43
0.5
  0
INSERT
  5
80
330
1F
100
AcDbEntity
  8
0
100
AcDbBlockReference
  2
SA_Rechts1
 10
-1156.75
 20
-1006.75
 30
0.0
 41
0.5
 42
0.5
 43
0.5
  0
INSERT
  5
81
330
1F
100
AcDbEntity
  8
0
100
AcDbBlockReference
  2
Vordans1
 10
-1103.0
 20
-1006.75
 30
0.0
 41
0.5
 42
0.5
 43
0.5
  0
INSERT
  5
82
330
1F
100
AcDbEntity
  8
0
100
AcDbBlockReference
  2
A3I_CS
 10
-854.2500001851781
 20
-1220.57485985288
 30
0.0
  0
ENDSEC
  0
SECTION
  2
OBJECTS
  0
DICTIONARY
  5
C
330
0
100
AcDbDictionary
281
     1
  3
ACAD_GROUP
350
D
  3
ACAD_LAYOUT
350
1A
  3
ACAD_MATERIAL
350
3B
  3
ACAD_MLEADERSTYLE
350
225
  3
ACAD_MLINESTYLE
350
17
  3
ACAD_PLOTSETTINGS
350
19
  3
ACAD_PLOTSTYLENAME
350
E
  3
ACAD_VISUALSTYLE
350
2A
  3
AcDbVariableDictionary
350
223
  0
DICTIONARY
  5
D
102
{ACAD_REACTORS
330
C
102
}
330
C
100
AcDbDictionary
281
     1
  0
DICTIONARY
  5
1A
102
{ACAD_REACTORS
330
C
102
}
330
C
100
AcDbDictionary
281
     1
  3
Layout1
350
1E
  3
Layout2
350
26
  3
Model
350
22
  0
DICTIONARY
  5
3B
102
{ACAD_REACTORS
330
C
102
}
330
C
100
AcDbDictionary
281
     1
  3
ByBlock
350
3D
  3
ByLayer
350
3C
  3
Global
350
3E
  0
DICTIONARY
  5
225
102
{ACAD_REACTORS
330
C
102
}
330
C
100
AcDbDictionary
281
     1
  0
DICTIONARY
  5
17
102
{ACAD_REACTORS
330
C
102
}
330
C
100
AcDbDictionary
281
     1
  3
Standard
350
18
  0
DICTIONARY
  5
19
102
{ACAD_REACTORS
330
C
102
}
330
C
100
AcDbDictionary
281
     1
  0
ACDBDICTIONARYWDFLT
  5
E
102
{ACAD_REACTORS
330
C
102
}
330
C
100
AcDbDictionary
281
     1
  3
Normal
350
F
100
AcDbDictionaryWithDefault
340
F
  0
DICTIONARY
  5
2A
102
{ACAD_REACTORS
330
C
102
}
330
C
100
AcDbDictionary
281
     1
  3
2dWireframe
350
2F
  3
3D Hidden
350
31
  3
3dWireframe
350
30
  3
Basic
350
32
  3
Brighten
350
36
  3
ColorChange
350
3A
  3
Conceptual
350
34
  3
Dim
350
35
  3
Facepattern
350
39
  3
Flat
350
2B
  3
FlatWithEdges
350
2C
  3
Gouraud
350
2D
  3
GouraudWithEdges
350
2E
  3
Linepattern
350
38
  3
Realistic
350
33
  3
Thicken
350
37
  0
DICTIONARY
  5
223
102
{ACAD_REACTORS
330
C
102
}
330
C
100
AcDbDictionary
281
     1
  3
DIMASSOC
350
226
  3
HIDETEXT
350
227
  0
LAYOUT
  5
1E
102
{ACAD_REACTORS
330
1A
102
}
330
1A
100
AcDbPlotSettings
  1

  2
none_device
  4

  6

 40
0.0
 41
0.0
 42
0.0
 43
0.0
 44
0.0
 45
0.0
 46
0.0
 47
0.0
 48
0.0
 49
0.0
140
0.0
141
0.0
142
1.0
143
1.0
 70
   688
 72
     0
 73
     0
 74
     5
  7

 75
    16
147
1.0
148
0.0
149
0.0
100
AcDbLayout
  1
Layout1
 70
     1
 71
     1
 10
0.0
 20
0.0
 11
12.0
 21
9.0
 12
0.0
 22
0.0
 32
0.0
 14
1.00000000000000E+20
 24
1.00000000000000E+20
 34
1.00000000000000E+20
 15
-1.00000000000000E+20
 25
-1.00000000000000E+20
 35
-1.00000000000000E+20
146
0.0
 13
0.0
 23
0.0
 33
0.0
 16
1.0
 26
0.0
 36
0.0
 17
0.0
 27
1.0
 37
0.0
 76
     0
330
1B
  0
LAYOUT
  5
26
102
{ACAD_REACTORS
330
1A
102
}
330
1A
100
AcDbPlotSettings
  1

  2
none_device
  4

  6

 40
0.0
 41
0.0
 42
0.0
 43
0.0
 44
0.0
 45
0.0
 46
0.0
 47
0.0
 48
0.0
 49
0.0
140
0.0
141
0.0
142
1.0
143
1.0
 70
   688
 72
     0
 73
     0
 74
     5
  7

 75
    16
147
1.0
148
0.0
149
0.0
100
AcDbLayout
  1
Layout2
 70
     1
 71
     2
 10
0.0
 20
0.0
 11
0.0
 21
0.0
 12
0.0
 22
0.0
 32
0.0
 14
0.0
 24
0.0
 34
0.0
 15
0.0
 25
0.0
 35
0.0
146
0.0
 13
0.0
 23
0.0
 33
0.0
 16
1.0
 26
0.0
 36
0.0
 17
0.0
 27
1.0
 37
0.0
 76
     0
330
23
  0
LAYOUT
  5
22
102
{ACAD_REACTORS
330
1A
102
}
330
1A
100
AcDbPlotSettings
  1

  2
none_device
  4

  6

 40
0.0
 41
0.0
 42
0.0
 43
0.0
 44
0.0
 45
0.0
 46
0.0
 47
0.0
 48
0.0
 49
0.0
140
0.0
141
0.0
142
1.0
143
1.0
 70
  1712
 72
     0
 73
     0
 74
     0
  7

 75
     0
147
1.0
148
0.0
149
0.0
100
AcDbLayout
  1
Model
 70
     1
 71
     0
 10
0.0
 20
0.0
 11
12.0
 21
9.0
 12
0.0
 22
0.0
 32
0.0
 14
-1269.250000185179
 24
-1220.57485985288
 34
0.0
 15
-849.2500001851806
 25
-923.5748598528803
 35
0.0
146
0.0
 13
0.0
 23
0.0
 33
0.0
 16
1.0
 26
0.0
 36
0.0
 17
0.0
 27
1.0
 37
0.0
 76
     0
330
1F
331
29
  0
MATERIAL
  5
3D
102
{ACAD_REACTORS
330
3B
102
}
102
{ACAD_XDICTIONARY
360
24A
102
}
330
3B
100
AcDbMaterial
  1
ByBlock
  0
MATERIAL
  5
3C
102
{ACAD_REACTORS
330
3B
102
}
102
{ACAD_XDICTIONARY
360
248
102
}
330
3B
100
AcDbMaterial
  1
ByLayer
  0
MATERIAL
  5
3E
102
{ACAD_REACTORS
330
3B
102
}
102
{ACAD_XDICTIONARY
360
24C
102
}
330
3B
100
AcDbMaterial
  1
Global
  0
MLINESTYLE
  5
18
102
{ACAD_REACTORS
330
17
102
}
330
17
100
AcDbMlineStyle
  2
Standard
 70
     0
  3

 62
   256
 51
90.0
 52
90.0
 71
     2
 49
0.5
 62
   256
  6
BYLAYER
 49
-0.5
 62
   256
  6
BYLAYER
  0
ACDBPLACEHOLDER
  5
F
102
{ACAD_REACTORS
330
E
102
}
330
E
  0
VISUALSTYLE
  5
2F
102
{ACAD_REACTORS
330
2A
102
}
102
{ACAD_XDICTIONARY
360
230
102
}
330
2A
100
AcDbVisualStyle
  2
2dWireframe
 70
     4
 71
     0
 72
     2
 73
     0
 90
        0
 40
-0.6
 41
-30.0
 62
     5
 63
     7
 74
     1
 91
        4
 64
     7
 65
   257
 75
     1
175
     1
 42
1.0
 92
        0
 66
   257
 43
1.0
 76
     1
 77
     6
 78
     2
 67
     7
 79
     5
170
     0
171
     0
290
     0
174
     0
 93
        1
 44
0.0
173
     0
291
     0
 45
0.0
1001
ACAD
1000
AcDbSavedByObjectVersion
1070
     0
  0
VISUALSTYLE
  5
31
102
{ACAD_REACTORS
330
2A
102
}
102
{ACAD_XDICTIONARY
360
234
102
}
330
2A
100
AcDbVisualStyle
  2
3D Hidden
 70
     6
 71
     1
 72
     2
 73
     2
 90
        0
 40
-0.6
 41
-30.0
 62
     5
 63
     7
 74
     2
 91
        2
 64
     7
 65
   257
 75
     2
175
     1
 42
40.0
 92
        0
 66
   257
 43
1.0
 76
     1
 77
     6
 78
     2
 67
     7
 79
     3
170
     0
171
     0
290
     0
174
     0
 93
        1
 44
0.0
173
     0
291
     0
 45
0.0
1001
ACAD
1000
AcDbSavedByObjectVersion
1070
     0
  0
VISUALSTYLE
  5
30
102
{ACAD_REACTORS
330
2A
102
}
102
{ACAD_XDICTIONARY
360
232
102
}
330
2A
100
AcDbVisualStyle
  2
3dWireframe
 70
     5
 71
     0
 72
     2
 73
     0
 90
        0
 40
-0.6
 41
-30.0
 62
     5
 63
     7
 74
     1
 91
        4
 64
     7
 65
   257
 75
     1
175
     1
 42
1.0
 92
        0
 66
   257
 43
1.0
 76
     1
 77
     6
 78
     2
 67
     7
 79
     5
170
     0
171
     0
290
     0
174
     0
 93
        1
 44
0.0
173
     0
291
     0
 45
0.0
1001
ACAD
1000
AcDbSavedByObjectVersion
1070
     0
  0
VISUALSTYLE
  5
32
102
{ACAD_REACTORS
330
2A
102
}
102
{ACAD_XDICTIONARY
360
236
102
}
330
2A
100
AcDbVisualStyle
  2
Basic
 70
     7
 71
     1
 72
     0
 73
     1
 90
        0
 40
-0.6
 41
-30.0
 62
     5
 63
     7
 74
     0
 91
        4
 64
     7
 65
   257
 75
     1
175
     1
 42
1.0
 92
        8
 66
     7
 43
1.0
 76
     1
 77
     6
 78
     2
 67
     7
 79
     5
170
     0
171
     0
290
     0
174
     0
 93
        1
 44
0.0
173
     0
291
     1
 45
0.0
1001
ACAD
1000
AcDbSavedByObjectVersion
1070
     0
  0
VISUALSTYLE
  5
36
102
{ACAD_REACTORS
330
2A
102
}
102
{ACAD_XDICTIONARY
360
23E
102
}
330
2A
100
AcDbVisualStyle
  2
Brighten
 70
    12
 71
     2
 72
     2
 73
     0
 90
        0
 40
-0.6
 41
-30.0
 62
     5
 63
     7
 74
     1
 91
        4
 64
     7
 65
   257
 75
     1
175
     1
 42
1.0
 92
        8
 66
     7
 43
1.0
 76
     1
 77
     6
 78
     2
 67
     7
 79
     5
170
     0
171
     0
290
     0
174
     0
 93
        1
 44
50.0
173
     0
291
     1
 45
0.0
1001
ACAD
1000
AcDbSavedByObjectVersion
1070
     0
  0
VISUALSTYLE
  5
3A
102
{ACAD_REACTORS
330
2A
102
}
102
{ACAD_XDICTIONARY
360
246
102
}
330
2A
100
AcDbVisualStyle
  2
ColorChange
 70
    16
 71
     2
 72
     2
 73
     3
 90
        0
 40
-0.6
 41
-30.0
 62
     5
 63
     8
 74
     1
 91
        4
 64
     7
 65
   257
 75
     1
175
     1
 42
1.0
 92
        8
 66
     8
 43
1.0
 76
     1
 77
     6
 78
     2
 67
     7
 79
     5
170
     0
171
     0
290
     0
174
     0
 93
        1
 44
0.0
173
     0
291
     1
 45
0.0
1001
ACAD
1000
AcDbSavedByObjectVersion
1070
     0
  0
VISUALSTYLE
  5
34
102
{ACAD_REACTORS
330
2A
102
}
102
{ACAD_XDICTIONARY
360
23A
102
}
330
2A
100
AcDbVisualStyle
  2
Conceptual
 70
     9
 71
     3
 72
     2
 73
     0
 90
        0
 40
-0.6
 41
-30.0
 62
     5
 63
     7
 74
     2
 91
        2
 64
     7
 65
   257
 75
     1
175
     1
 42
40.0
 92
        8
 66
     7
 43
1.0
 76
     1
 77
     6
 78
     2
 67
     7
 79
     3
170
     0
171
     0
290
     0
174
     0
 93
        1
 44
0.0
173
     0
291
     0
 45
0.0
1001
ACAD
1000
AcDbSavedByObjectVersion
1070
     0
  0
VISUALSTYLE
  5
35
102
{ACAD_REACTORS
330
2A
102
}
102
{ACAD_XDICTIONARY
360
23C
102
}
330
2A
100
AcDbVisualStyle
  2
Dim
 70
    11
 71
     2
 72
     2
 73
     0
 90
        0
 40
-0.6
 41
-30.0
 62
     5
 63
     7
 74
     1
 91
        4
 64
     7
 65
   257
 75
     1
175
     1
 42
1.0
 92
        8
 66
     7
 43
1.0
 76
     1
 77
     6
 78
     2
 67
     7
 79
     5
170
     0
171
     0
290
     0
174
     0
 93
        1
 44
-50.0
173
     0
291
     1
 45
0.0
1001
ACAD
1000
AcDbSavedByObjectVersion
1070
     0
  0
VISUALSTYLE
  5
39
102
{ACAD_REACTORS
330
2A
102
}
102
{ACAD_XDICTIONARY
360
244
102
}
330
2A
100
AcDbVisualStyle
  2
Facepattern
 70
    15
 71
     2
 72
     2
 73
     0
 90
        0
 40
-0.6
 41
-30.0
 62
     5
 63
     7
 74
     1
 91
        4
 64
     7
 65
   257
 75
     1
175
     1
 42
1.0
 92
        8
 66
     7
 43
1.0
 76
     1
 77
     6
 78
     2
 67
     7
 79
     5
170
     0
171
     0
290
     0
174
     0
 93
        1
 44
0.0
173
     0
291
     1
 45
0.0
1001
ACAD
1000
AcDbSavedByObjectVersion
1070
     0
  0
VISUALSTYLE
  5
2B
102
{ACAD_REACTORS
330
2A
102
}
102
{ACAD_XDICTIONARY
360
228
102
}
330
2A
100
AcDbVisualStyle
  2
Flat
 70
     0
 71
     2
 72
     1
 73
     1
 90
        2
 40
-0.6
 41
30.0
 62
     5
 63
     7
 74
     0
 91
        4
 64
     7
 65
   257
 75
     1
175
     1
 42
1.0
 92
        8
 66
     7
 43
1.0
 76
     1
 77
     6
 78
     2
 67
     7
 79
     5
170
     0
171
     0
290
     0
174
     0
 93
       13
 44
0.0
173
     0
291
     1
 45
0.0
1001
ACAD
1000
AcDbSavedByObjectVersion
1070
     0
  0
VISUALSTYLE
  5
2C
102
{ACAD_REACTORS
330
2A
102
}
102
{ACAD_XDICTIONARY
360
22A
102
}
330
2A
100
AcDbVisualStyle
  2
FlatWithEdges
 70
     1
 71
     2
 72
     1
 73
     1
 90
        2
 40
-0.6
 41
30.0
 62
     5
 63
     7
 74
     1
 91
        4
 64
     7
 65
   257
 75
     1
175
     1
 42
1.0
 92
        0
 66
   257
 43
1.0
 76
     1
 77
     6
 78
     2
 67
     7
 79
     5
170
     0
171
     0
290
     0
174
     0
 93
       13
 44
0.0
173
     0
291
     1
 45
0.0
1001
ACAD
1000
AcDbSavedByObjectVersion
1070
     0
  0
VISUALSTYLE
  5
2D
102
{ACAD_REACTORS
330
2A
102
}
102
{ACAD_XDICTIONARY
360
22C
102
}
330
2A
100
AcDbVisualStyle
  2
Gouraud
 70
     2
 71
     2
 72
     2
 73
     1
 90
        2
 40
-0.6
 41
30.0
 62
     5
 63
     7
 74
     0
 91
        4
 64
     7
 65
   257
 75
     1
175
     1
 42
1.0
 92
        0
 66
     7
 43
1.0
 76
     1
 77
     6
 78
     2
 67
     7
 79
     5
170
     0
171
     0
290
     0
174
     0
 93
       13
 44
0.0
173
     0
291
     1
 45
0.0
1001
ACAD
1000
AcDbSavedByObjectVersion
1070
     0
  0
VISUALSTYLE
  5
2E
102
{ACAD_REACTORS
330
2A
102
}
102
{ACAD_XDICTIONARY
360
22E
102
}
330
2A
100
AcDbVisualStyle
  2
GouraudWithEdges
 70
     3
 71
     2
 72
     2
 73
     1
 90
        2
 40
-0.6
 41
30.0
 62
     5
 63
     7
 74
     1
 91
        4
 64
     7
 65
   257
 75
     1
175
     1
 42
1.0
 92
        0
 66
   257
 43
1.0
 76
     1
 77
     6
 78
     2
 67
     7
 79
     5
170
     0
171
     0
290
     0
174
     0
 93
       13
 44
0.0
173
     0
291
     1
 45
0.0
1001
ACAD
1000
AcDbSavedByObjectVersion
1070
     0
  0
VISUALSTYLE
  5
38
102
{ACAD_REACTORS
330
2A
102
}
102
{ACAD_XDICTIONARY
360
242
102
}
330
2A
100
AcDbVisualStyle
  2
Linepattern
 70
    14
 71
     2
 72
     2
 73
     0
 90
        0
 40
-0.6
 41
-30.0
 62
     5
 63
     7
 74
     1
 91
        4
 64
     7
 65
   257
 75
     7
175
     7
 42
1.0
 92
        8
 66
     7
 43
1.0
 76
     1
 77
     6
 78
     2
 67
     7
 79
     5
170
     0
171
     0
290
     0
174
     0
 93
        1
 44
0.0
173
     0
291
     1
 45
0.0
1001
ACAD
1000
AcDbSavedByObjectVersion
1070
     0
  0
VISUALSTYLE
  5
33
102
{ACAD_REACTORS
330
2A
102
}
102
{ACAD_XDICTIONARY
360
238
102
}
330
2A
100
AcDbVisualStyle
  2
Realistic
 70
     8
 71
     2
 72
     2
 73
     0
 90
        0
 40
-0.6
 41
-30.0
 62
     5
 63
     7
 74
     1
 91
        0
 64
     7
 65
   257
 75
     1
175
     1
 42
1.0
 92
        8
 66
     8
 43
1.0
 76
     1
 77
     6
 78
     2
 67
     7
 79
     5
170
     0
171
     0
290
     0
174
     0
 93
       13
 44
0.0
173
     0
291
     0
 45
0.0
1001
ACAD
1000
AcDbSavedByObjectVersion
1070
     0
  0
VISUALSTYLE
  5
37
102
{ACAD_REACTORS
330
2A
102
}
102
{ACAD_XDICTIONARY
360
240
102
}
330
2A
100
AcDbVisualStyle
  2
Thicken
 70
    13
 71
     2
 72
     2
 73
     0
 90
        0
 40
-0.6
 41
-30.0
 62
     5
 63
     7
 74
     1
 91
        4
 64
     7
 65
   257
 75
     1
175
     1
 42
1.0
 92
       12
 66
     7
 43
1.0
 76
     1
 77
     6
 78
     2
 67
     7
 79
     5
170
     0
171
     0
290
     0
174
     0
 93
        1
 44
0.0
173
     0
291
     1
 45
0.0
1001
ACAD
1000
AcDbSavedByObjectVersion
1070
     0
  0
DICTIONARYVAR
  5
226
102
{ACAD_REACTORS
330
223
102
}
330
223
100
DictionaryVariables
280
     0
  1
2
  0
DICTIONARYVAR
  5
227
102
{ACAD_REACTORS
330
223
102
}
330
223
100
DictionaryVariables
280
     0
  1
1
  0
DICTIONARY
  5
24A
330
3D
100
AcDbDictionary
280
     1
281
     1
  3
ACAD_XREC_ROUNDTRIP
360
24B
  0
DICTIONARY
  5
248
330
3C
100
AcDbDictionary
280
     1
281
     1
  3
ACAD_XREC_ROUNDTRIP
360
249
  0
DICTIONARY
  5
24C
330
3E
100
AcDbDictionary
280
     1
281
     1
  3
ACAD_XREC_ROUNDTRIP
360
24D
  0
DICTIONARY
  5
230
330
2F
100
AcDbDictionary
280
     1
281
     1
  3
ACAD_XREC_ROUNDTRIP
360
231
  0
DICTIONARY
  5
234
330
31
100
AcDbDictionary
280
     1
281
     1
  3
ACAD_XREC_ROUNDTRIP
360
235
  0
DICTIONARY
  5
232
330
30
100
AcDbDictionary
280
     1
281
     1
  3
ACAD_XREC_ROUNDTRIP
360
233
  0
DICTIONARY
  5
236
330
32
100
AcDbDictionary
280
     1
281
     1
  3
ACAD_XREC_ROUNDTRIP
360
237
  0
DICTIONARY
  5
23E
330
36
100
AcDbDictionary
280
     1
281
     1
  3
ACAD_XREC_ROUNDTRIP
360
23F
  0
DICTIONARY
  5
246
330
3A
100
AcDbDictionary
280
     1
281
     1
  3
ACAD_XREC_ROUNDTRIP
360
247
  0
DICTIONARY
  5
23A
330
34
100
AcDbDictionary
280
     1
281
     1
  3
ACAD_XREC_ROUNDTRIP
360
23B
  0
DICTIONARY
  5
23C
330
35
100
AcDbDictionary
280
     1
281
     1
  3
ACAD_XREC_ROUNDTRIP
360
23D
  0
DICTIONARY
  5
244
330
39
100
AcDbDictionary
280
     1
281
     1
  3
ACAD_XREC_ROUNDTRIP
360
245
  0
DICTIONARY
  5
228
330
2B
100
AcDbDictionary
280
     1
281
     1
  3
ACAD_XREC_ROUNDTRIP
360
229
  0
DICTIONARY
  5
22A
330
2C
100
AcDbDictionary
280
     1
281
     1
  3
ACAD_XREC_ROUNDTRIP
360
22B
  0
DICTIONARY
  5
22C
330
2D
100
AcDbDictionary
280
     1
281
     1
  3
ACAD_XREC_ROUNDTRIP
360
22D
  0
DICTIONARY
  5
22E
330
2E
100
AcDbDictionary
280
     1
281
     1
  3
ACAD_XREC_ROUNDTRIP
360
22F
  0
DICTIONARY
  5
242
330
38
100
AcDbDictionary
280
     1
281
     1
  3
ACAD_XREC_ROUNDTRIP
360
243
  0
DICTIONARY
  5
238
330
33
100
AcDbDictionary
280
     1
281
     1
  3
ACAD_XREC_ROUNDTRIP
360
239
  0
DICTIONARY
  5
240
330
37
100
AcDbDictionary
280
     1
281
     1
  3
ACAD_XREC_ROUNDTRIP
360
241
  0
XRECORD
  5
24B
102
{ACAD_REACTORS
330
24A
102
}
330
24A
100
AcDbXrecord
280
     1
102
MATERIAL
148
0.0
149
0.0
149
0.0
 93
        0
 94
      127
282
     0
 72
     1
 77
     1
171
     1
175
     1
179
     1
273
     0
  0
XRECORD
  5
249
102
{ACAD_REACTORS
330
248
102
}
330
248
100
AcDbXrecord
280
     1
102
MATERIAL
148
0.0
149
0.0
149
0.0
 93
        0
 94
      127
282
     0
 72
     1
 77
     1
171
     1
175
     1
179
     1
273
     0
  0
XRECORD
  5
24D
102
{ACAD_REACTORS
330
24C
102
}
330
24C
100
AcDbXrecord
280
     1
102
MATERIAL
148
0.0
149
0.0
149
0.0
 93
        0
 94
      127
282
     0
 72
     1
 77
     1
171
     1
175
     1
179
     1
273
     0
  0
XRECORD
  5
231
102
{ACAD_REACTORS
330
230
102
}
330
230
100
AcDbXrecord
280
     1
102
RTVSPropertyOp0
 70
     1
102
RTVSPropertyOp1
 70
     1
102
RTVSPropertyOp2
 70
     1
102
RTVSPropertyOp3
 70
     1
102
RTVSPropertyOp4
 70
     1
102
RTVSPropertyOp5
 70
     1
102
RTVSPropertyOp6
 70
     1
102
RTVSPropertyOp7
 70
     1
102
RTVSPropertyOp8
 70
     1
102
RTVSPropertyOp9
 70
     1
102
RTVSPropertyOp10
 70
     1
102
RTVSPropertyOp11
 70
     1
102
RTVSPropertyOp12
 70
     1
102
RTVSPropertyOp13
 70
     1
102
RTVSPropertyOp14
 70
     1
102
RTVSPropertyOp15
 70
     1
102
RTVSPropertyOp16
 70
     1
102
RTVSPropertyOp17
 70
     1
102
RTVSPropertyOp18
 70
     1
102
RTVSPropertyOp19
 70
     1
102
RTVSPropertyOp20
 70
     1
102
RTVSPropertyOp21
 70
     1
102
RTVSPropertyOp22
 70
     1
102
RTVSPropertyOp23
 70
     1
102
RTVSPropertyOp24
 70
     1
102
RTVSPropertyOp25
 70
     1
102
RTVSPropertyOp26
 70
     1
102
RTVSPropertyOp27
 70
     1
102
RTVSPropertyOp28
 70
     1
102
RTVSPropertyOp29
 70
     1
102
RTVSPropertyOp30
 70
     1
102
RTVSPropertyOp31
 70
     1
102
RTVSPropertyOp32
 70
     1
  0
XRECORD
  5
235
102
{ACAD_REACTORS
330
234
102
}
330
234
100
AcDbXrecord
280
     1
102
RTVSPropertyOp0
 70
     1
102
RTVSPropertyOp1
 70
     1
102
RTVSPropertyOp2
 70
     1
102
RTVSPropertyOp3
 70
     1
102
RTVSPropertyOp4
 70
     1
102
RTVSPropertyOp5
 70
     1
102
RTVSPropertyOp6
 70
     1
102
RTVSPropertyOp7
 70
     1
102
RTVSPropertyOp8
 70
     1
102
RTVSPropertyOp9
 70
     1
102
RTVSPropertyOp10
 70
     1
102
RTVSPropertyOp11
 70
     1
102
RTVSPropertyOp12
 70
     1
102
RTVSPropertyOp13
 70
     1
102
RTVSPropertyOp14
 70
     1
102
RTVSPropertyOp15
 70
     1
102
RTVSPropertyOp16
 70
     1
102
RTVSPropertyOp17
 70
     1
102
RTVSPropertyOp18
 70
     1
102
RTVSPropertyOp19
 70
     1
102
RTVSPropertyOp20
 70
     1
102
RTVSPropertyOp21
 70
     1
102
RTVSPropertyOp22
 70
     1
102
RTVSPropertyOp23
 70
     1
102
RTVSPropertyOp24
 70
     1
102
RTVSPropertyOp25
 70
     1
102
RTVSPropertyOp26
 70
     1
102
RTVSPropertyOp27
 70
     1
102
RTVSPropertyOp28
 70
     1
102
RTVSPropertyOp29
 70
     1
102
RTVSPropertyOp30
 70
     1
102
RTVSPropertyOp31
 70
     1
102
RTVSPropertyOp32
 70
     1
  0
XRECORD
  5
233
102
{ACAD_REACTORS
330
232
102
}
330
232
100
AcDbXrecord
280
     1
102
RTVSPropertyOp0
 70
     1
102
RTVSPropertyOp1
 70
     1
102
RTVSPropertyOp2
 70
     1
102
RTVSPropertyOp3
 70
     1
102
RTVSPropertyOp4
 70
     1
102
RTVSPropertyOp5
 70
     1
102
RTVSPropertyOp6
 70
     1
102
RTVSPropertyOp7
 70
     1
102
RTVSPropertyOp8
 70
     1
102
RTVSPropertyOp9
 70
     1
102
RTVSPropertyOp10
 70
     1
102
RTVSPropertyOp11
 70
     1
102
RTVSPropertyOp12
 70
     1
102
RTVSPropertyOp13
 70
     1
102
RTVSPropertyOp14
 70
     1
102
RTVSPropertyOp15
 70
     1
102
RTVSPropertyOp16
 70
     1
102
RTVSPropertyOp17
 70
     1
102
RTVSPropertyOp18
 70
     1
102
RTVSPropertyOp19
 70
     1
102
RTVSPropertyOp20
 70
     1
102
RTVSPropertyOp21
 70
     1
102
RTVSPropertyOp22
 70
     1
102
RTVSPropertyOp23
 70
     1
102
RTVSPropertyOp24
 70
     1
102
RTVSPropertyOp25
 70
     1
102
RTVSPropertyOp26
 70
     1
102
RTVSPropertyOp27
 70
     1
102
RTVSPropertyOp28
 70
     1
102
RTVSPropertyOp29
 70
     1
102
RTVSPropertyOp30
 70
     1
102
RTVSPropertyOp31
 70
     1
102
RTVSPropertyOp32
 70
     1
  0
XRECORD
  5
237
102
{ACAD_REACTORS
330
236
102
}
330
236
100
AcDbXrecord
280
     1
102
RTVSPropertyOp0
 70
     1
102
RTVSPropertyOp1
 70
     1
102
RTVSPropertyOp2
 70
     1
102
RTVSPropertyOp3
 70
     1
102
RTVSPropertyOp4
 70
     1
102
RTVSPropertyOp5
 70
     1
102
RTVSPropertyOp6
 70
     1
102
RTVSPropertyOp7
 70
     1
102
RTVSPropertyOp8
 70
     1
102
RTVSPropertyOp9
 70
     1
102
RTVSPropertyOp10
 70
     1
102
RTVSPropertyOp11
 70
     1
102
RTVSPropertyOp12
 70
     1
102
RTVSPropertyOp13
 70
     1
102
RTVSPropertyOp14
 70
     1
102
RTVSPropertyOp15
 70
     1
102
RTVSPropertyOp16
 70
     1
102
RTVSPropertyOp17
 70
     1
102
RTVSPropertyOp18
 70
     1
102
RTVSPropertyOp19
 70
     1
102
RTVSPropertyOp20
 70
     1
102
RTVSPropertyOp21
 70
     1
102
RTVSPropertyOp22
 70
     1
102
RTVSPropertyOp23
 70
     1
102
RTVSPropertyOp24
 70
     1
102
RTVSPropertyOp25
 70
     1
102
RTVSPropertyOp26
 70
     1
102
RTVSPropertyOp27
 70
     1
102
RTVSPropertyOp28
 70
     1
102
RTVSPropertyOp29
 70
     1
102
RTVSPropertyOp30
 70
     1
102
RTVSPropertyOp31
 70
     1
102
RTVSPropertyOp32
 70
     1
  0
XRECORD
  5
23F
102
{ACAD_REACTORS
330
23E
102
}
330
23E
100
AcDbXrecord
280
     1
102
RTVSPropertyOp0
 70
     1
102
RTVSPropertyOp1
 70
     1
102
RTVSPropertyOp2
 70
     1
102
RTVSPropertyOp3
 70
     1
102
RTVSPropertyOp4
 70
     1
102
RTVSPropertyOp5
 70
     1
102
RTVSPropertyOp6
 70
     1
102
RTVSPropertyOp7
 70
     1
102
RTVSPropertyOp8
 70
     1
102
RTVSPropertyOp9
 70
     1
102
RTVSPropertyOp10
 70
     1
102
RTVSPropertyOp11
 70
     1
102
RTVSPropertyOp12
 70
     1
102
RTVSPropertyOp13
 70
     1
102
RTVSPropertyOp14
 70
     1
102
RTVSPropertyOp15
 70
     1
102
RTVSPropertyOp16
 70
     1
102
RTVSPropertyOp17
 70
     1
102
RTVSPropertyOp18
 70
     1
102
RTVSPropertyOp19
 70
     1
102
RTVSPropertyOp20
 70
     1
102
RTVSPropertyOp21
 70
     1
102
RTVSPropertyOp22
 70
     1
102
RTVSPropertyOp23
 70
     1
102
RTVSPropertyOp24
 70
     1
102
RTVSPropertyOp25
 70
     1
102
RTVSPropertyOp26
 70
     1
102
RTVSPropertyOp27
 70
     1
102
RTVSPropertyOp28
 70
     1
102
RTVSPropertyOp29
 70
     1
102
RTVSPropertyOp30
 70
     1
102
RTVSPropertyOp31
 70
     1
102
RTVSPropertyOp32
 70
     1
  0
XRECORD
  5
247
102
{ACAD_REACTORS
330
246
102
}
330
246
100
AcDbXrecord
280
     1
102
RTVSPropertyOp0
 70
     1
102
RTVSPropertyOp1
 70
     1
102
RTVSPropertyOp2
 70
     1
102
RTVSPropertyOp3
 70
     1
102
RTVSPropertyOp4
 70
     1
102
RTVSPropertyOp5
 70
     1
102
RTVSPropertyOp6
 70
     1
102
RTVSPropertyOp7
 70
     1
102
RTVSPropertyOp8
 70
     1
102
RTVSPropertyOp9
 70
     1
102
RTVSPropertyOp10
 70
     1
102
RTVSPropertyOp11
 70
     1
102
RTVSPropertyOp12
 70
     1
102
RTVSPropertyOp13
 70
     1
102
RTVSPropertyOp14
 70
     1
102
RTVSPropertyOp15
 70
     1
102
RTVSPropertyOp16
 70
     1
102
RTVSPropertyOp17
 70
     1
102
RTVSPropertyOp18
 70
     1
102
RTVSPropertyOp19
 70
     1
102
RTVSPropertyOp20
 70
     1
102
RTVSPropertyOp21
 70
     1
102
RTVSPropertyOp22
 70
     1
102
RTVSPropertyOp23
 70
     1
102
RTVSPropertyOp24
 70
     1
102
RTVSPropertyOp25
 70
     1
102
RTVSPropertyOp26
 70
     1
102
RTVSPropertyOp27
 70
     1
102
RTVSPropertyOp28
 70
     1
102
RTVSPropertyOp29
 70
     1
102
RTVSPropertyOp30
 70
     1
102
RTVSPropertyOp31
 70
     1
102
RTVSPropertyOp32
 70
     1
  0
XRECORD
  5
23B
102
{ACAD_REACTORS
330
23A
102
}
330
23A
100
AcDbXrecord
280
     1
102
RTVSPropertyOp0
 70
     1
102
RTVSPropertyOp1
 70
     1
102
RTVSPropertyOp2
 70
     1
102
RTVSPropertyOp3
 70
     1
102
RTVSPropertyOp4
 70
     1
102
RTVSPropertyOp5
 70
     1
102
RTVSPropertyOp6
 70
     1
102
RTVSPropertyOp7
 70
     1
102
RTVSPropertyOp8
 70
     1
102
RTVSPropertyOp9
 70
     1
102
RTVSPropertyOp10
 70
     1
102
RTVSPropertyOp11
 70
     1
102
RTVSPropertyOp12
 70
     1
102
RTVSPropertyOp13
 70
     1
102
RTVSPropertyOp14
 70
     1
102
RTVSPropertyOp15
 70
     1
102
RTVSPropertyOp16
 70
     1
102
RTVSPropertyOp17
 70
     1
102
RTVSPropertyOp18
 70
     1
102
RTVSPropertyOp19
 70
     1
102
RTVSPropertyOp20
 70
     1
102
RTVSPropertyOp21
 70
     1
102
RTVSPropertyOp22
 70
     1
102
RTVSPropertyOp23
 70
     1
102
RTVSPropertyOp24
 70
     1
102
RTVSPropertyOp25
 70
     1
102
RTVSPropertyOp26
 70
     1
102
RTVSPropertyOp27
 70
     1
102
RTVSPropertyOp28
 70
     1
102
RTVSPropertyOp29
 70
     1
102
RTVSPropertyOp30
 70
     1
102
RTVSPropertyOp31
 70
     1
102
RTVSPropertyOp32
 70
     1
  0
XRECORD
  5
23D
102
{ACAD_REACTORS
330
23C
102
}
330
23C
100
AcDbXrecord
280
     1
102
RTVSPropertyOp0
 70
     1
102
RTVSPropertyOp1
 70
     1
102
RTVSPropertyOp2
 70
     1
102
RTVSPropertyOp3
 70
     1
102
RTVSPropertyOp4
 70
     1
102
RTVSPropertyOp5
 70
     1
102
RTVSPropertyOp6
 70
     1
102
RTVSPropertyOp7
 70
     1
102
RTVSPropertyOp8
 70
     1
102
RTVSPropertyOp9
 70
     1
102
RTVSPropertyOp10
 70
     1
102
RTVSPropertyOp11
 70
     1
102
RTVSPropertyOp12
 70
     1
102
RTVSPropertyOp13
 70
     1
102
RTVSPropertyOp14
 70
     1
102
RTVSPropertyOp15
 70
     1
102
RTVSPropertyOp16
 70
     1
102
RTVSPropertyOp17
 70
     1
102
RTVSPropertyOp18
 70
     1
102
RTVSPropertyOp19
 70
     1
102
RTVSPropertyOp20
 70
     1
102
RTVSPropertyOp21
 70
     1
102
RTVSPropertyOp22
 70
     1
102
RTVSPropertyOp23
 70
     1
102
RTVSPropertyOp24
 70
     1
102
RTVSPropertyOp25
 70
     1
102
RTVSPropertyOp26
 70
     1
102
RTVSPropertyOp27
 70
     1
102
RTVSPropertyOp28
 70
     1
102
RTVSPropertyOp29
 70
     1
102
RTVSPropertyOp30
 70
     1
102
RTVSPropertyOp31
 70
     1
102
RTVSPropertyOp32
 70
     1
  0
XRECORD
  5
245
102
{ACAD_REACTORS
330
244
102
}
330
244
100
AcDbXrecord
280
     1
102
RTVSPropertyOp0
 70
     1
102
RTVSPropertyOp1
 70
     1
102
RTVSPropertyOp2
 70
     1
102
RTVSPropertyOp3
 70
     1
102
RTVSPropertyOp4
 70
     1
102
RTVSPropertyOp5
 70
     1
102
RTVSPropertyOp6
 70
     1
102
RTVSPropertyOp7
 70
     1
102
RTVSPropertyOp8
 70
     1
102
RTVSPropertyOp9
 70
     1
102
RTVSPropertyOp10
 70
     1
102
RTVSPropertyOp11
 70
     1
102
RTVSPropertyOp12
 70
     1
102
RTVSPropertyOp13
 70
     1
102
RTVSPropertyOp14
 70
     1
102
RTVSPropertyOp15
 70
     1
102
RTVSPropertyOp16
 70
     1
102
RTVSPropertyOp17
 70
     1
102
RTVSPropertyOp18
 70
     1
102
RTVSPropertyOp19
 70
     1
102
RTVSPropertyOp20
 70
     1
102
RTVSPropertyOp21
 70
     1
102
RTVSPropertyOp22
 70
     1
102
RTVSPropertyOp23
 70
     1
102
RTVSPropertyOp24
 70
     1
102
RTVSPropertyOp25
 70
     1
102
RTVSPropertyOp26
 70
     1
102
RTVSPropertyOp27
 70
     1
102
RTVSPropertyOp28
 70
     1
102
RTVSPropertyOp29
 70
     1
102
RTVSPropertyOp30
 70
     1
102
RTVSPropertyOp31
 70
     1
102
RTVSPropertyOp32
 70
     1
  0
XRECORD
  5
229
102
{ACAD_REACTORS
330
228
102
}
330
228
100
AcDbXrecord
280
     1
102
RTVSPropertyOp0
 70
     1
102
RTVSPropertyOp1
 70
     1
102
RTVSPropertyOp2
 70
     1
102
RTVSPropertyOp3
 70
     1
102
RTVSPropertyOp4
 70
     1
102
RTVSPropertyOp5
 70
     1
102
RTVSPropertyOp6
 70
     1
102
RTVSPropertyOp7
 70
     1
102
RTVSPropertyOp8
 70
     1
102
RTVSPropertyOp9
 70
     1
102
RTVSPropertyOp10
 70
     1
102
RTVSPropertyOp11
 70
     1
102
RTVSPropertyOp12
 70
     1
102
RTVSPropertyOp13
 70
     1
102
RTVSPropertyOp14
 70
     1
102
RTVSPropertyOp15
 70
     1
102
RTVSPropertyOp16
 70
     1
102
RTVSPropertyOp17
 70
     1
102
RTVSPropertyOp18
 70
     1
102
RTVSPropertyOp19
 70
     1
102
RTVSPropertyOp20
 70
     1
102
RTVSPropertyOp21
 70
     1
102
RTVSPropertyOp22
 70
     1
102
RTVSPropertyOp23
 70
     1
102
RTVSPropertyOp24
 70
     1
102
RTVSPropertyOp25
 70
     1
102
RTVSPropertyOp26
 70
     1
102
RTVSPropertyOp27
 70
     1
102
RTVSPropertyOp28
 70
     1
102
RTVSPropertyOp29
 70
     1
102
RTVSPropertyOp30
 70
     1
102
RTVSPropertyOp31
 70
     1
102
RTVSPropertyOp32
 70
     1
  0
XRECORD
  5
22B
102
{ACAD_REACTORS
330
22A
102
}
330
22A
100
AcDbXrecord
280
     1
102
RTVSPropertyOp0
 70
     1
102
RTVSPropertyOp1
 70
     1
102
RTVSPropertyOp2
 70
     1
102
RTVSPropertyOp3
 70
     1
102
RTVSPropertyOp4
 70
     1
102
RTVSPropertyOp5
 70
     1
102
RTVSPropertyOp6
 70
     1
102
RTVSPropertyOp7
 70
     1
102
RTVSPropertyOp8
 70
     1
102
RTVSPropertyOp9
 70
     1
102
RTVSPropertyOp10
 70
     1
102
RTVSPropertyOp11
 70
     1
102
RTVSPropertyOp12
 70
     1
102
RTVSPropertyOp13
 70
     1
102
RTVSPropertyOp14
 70
     1
102
RTVSPropertyOp15
 70
     1
102
RTVSPropertyOp16
 70
     1
102
RTVSPropertyOp17
 70
     1
102
RTVSPropertyOp18
 70
     1
102
RTVSPropertyOp19
 70
     1
102
RTVSPropertyOp20
 70
     1
102
RTVSPropertyOp21
 70
     1
102
RTVSPropertyOp22
 70
     1
102
RTVSPropertyOp23
 70
     1
102
RTVSPropertyOp24
 70
     1
102
RTVSPropertyOp25
 70
     1
102
RTVSPropertyOp26
 70
     1
102
RTVSPropertyOp27
 70
     1
102
RTVSPropertyOp28
 70
     1
102
RTVSPropertyOp29
 70
     1
102
RTVSPropertyOp30
 70
     1
102
RTVSPropertyOp31
 70
     1
102
RTVSPropertyOp32
 70
     1
  0
XRECORD
  5
22D
102
{ACAD_REACTORS
330
22C
102
}
330
22C
100
AcDbXrecord
280
     1
102
RTVSPropertyOp0
 70
     1
102
RTVSPropertyOp1
 70
     1
102
RTVSPropertyOp2
 70
     1
102
RTVSPropertyOp3
 70
     1
102
RTVSPropertyOp4
 70
     1
102
RTVSPropertyOp5
 70
     1
102
RTVSPropertyOp6
 70
     1
102
RTVSPropertyOp7
 70
     1
102
RTVSPropertyOp8
 70
     1
102
RTVSPropertyOp9
 70
     1
102
RTVSPropertyOp10
 70
     1
102
RTVSPropertyOp11
 70
     1
102
RTVSPropertyOp12
 70
     1
102
RTVSPropertyOp13
 70
     1
102
RTVSPropertyOp14
 70
     1
102
RTVSPropertyOp15
 70
     1
102
RTVSPropertyOp16
 70
     1
102
RTVSPropertyOp17
 70
     1
102
RTVSPropertyOp18
 70
     1
102
RTVSPropertyOp19
 70
     1
102
RTVSPropertyOp20
 70
     1
102
RTVSPropertyOp21
 70
     1
102
RTVSPropertyOp22
 70
     1
102
RTVSPropertyOp23
 70
     1
102
RTVSPropertyOp24
 70
     1
102
RTVSPropertyOp25
 70
     1
102
RTVSPropertyOp26
 70
     1
102
RTVSPropertyOp27
 70
     1
102
RTVSPropertyOp28
 70
     1
102
RTVSPropertyOp29
 70
     1
102
RTVSPropertyOp30
 70
     1
102
RTVSPropertyOp31
 70
     1
102
RTVSPropertyOp32
 70
     1
  0
XRECORD
  5
22F
102
{ACAD_REACTORS
330
22E
102
}
330
22E
100
AcDbXrecord
280
     1
102
RTVSPropertyOp0
 70
     1
102
RTVSPropertyOp1
 70
     1
102
RTVSPropertyOp2
 70
     1
102
RTVSPropertyOp3
 70
     1
102
RTVSPropertyOp4
 70
     1
102
RTVSPropertyOp5
 70
     1
102
RTVSPropertyOp6
 70
     1
102
RTVSPropertyOp7
 70
     1
102
RTVSPropertyOp8
 70
     1
102
RTVSPropertyOp9
 70
     1
102
RTVSPropertyOp10
 70
     1
102
RTVSPropertyOp11
 70
     1
102
RTVSPropertyOp12
 70
     1
102
RTVSPropertyOp13
 70
     1
102
RTVSPropertyOp14
 70
     1
102
RTVSPropertyOp15
 70
     1
102
RTVSPropertyOp16
 70
     1
102
RTVSPropertyOp17
 70
     1
102
RTVSPropertyOp18
 70
     1
102
RTVSPropertyOp19
 70
     1
102
RTVSPropertyOp20
 70
     1
102
RTVSPropertyOp21
 70
     1
102
RTVSPropertyOp22
 70
     1
102
RTVSPropertyOp23
 70
     1
102
RTVSPropertyOp24
 70
     1
102
RTVSPropertyOp25
 70
     1
102
RTVSPropertyOp26
 70
     1
102
RTVSPropertyOp27
 70
     1
102
RTVSPropertyOp28
 70
     1
102
RTVSPropertyOp29
 70
     1
102
RTVSPropertyOp30
 70
     1
102
RTVSPropertyOp31
 70
     1
102
RTVSPropertyOp32
 70
     1
  0
XRECORD
  5
243
102
{ACAD_REACTORS
330
242
102
}
330
242
100
AcDbXrecord
280
     1
102
RTVSPropertyOp0
 70
     1
102
RTVSPropertyOp1
 70
     1
102
RTVSPropertyOp2
 70
     1
102
RTVSPropertyOp3
 70
     1
102
RTVSPropertyOp4
 70
     1
102
RTVSPropertyOp5
 70
     1
102
RTVSPropertyOp6
 70
     1
102
RTVSPropertyOp7
 70
     1
102
RTVSPropertyOp8
 70
     1
102
RTVSPropertyOp9
 70
     1
102
RTVSPropertyOp10
 70
     1
102
RTVSPropertyOp11
 70
     1
102
RTVSPropertyOp12
 70
     1
102
RTVSPropertyOp13
 70
     1
102
RTVSPropertyOp14
 70
     1
102
RTVSPropertyOp15
 70
     1
102
RTVSPropertyOp16
 70
     1
102
RTVSPropertyOp17
 70
     1
102
RTVSPropertyOp18
 70
     1
102
RTVSPropertyOp19
 70
     1
102
RTVSPropertyOp20
 70
     1
102
RTVSPropertyOp21
 70
     1
102
RTVSPropertyOp22
 70
     1
102
RTVSPropertyOp23
 70
     1
102
RTVSPropertyOp24
 70
     1
102
RTVSPropertyOp25
 70
     1
102
RTVSPropertyOp26
 70
     1
102
RTVSPropertyOp27
 70
     1
102
RTVSPropertyOp28
 70
     1
102
RTVSPropertyOp29
 70
     1
102
RTVSPropertyOp30
 70
     1
102
RTVSPropertyOp31
 70
     1
102
RTVSPropertyOp32
 70
     1
  0
XRECORD
  5
239
102
{ACAD_REACTORS
330
238
102
}
330
238
100
AcDbXrecord
280
     1
102
RTVSPropertyOp0
 70
     1
102
RTVSPropertyOp1
 70
     1
102
RTVSPropertyOp2
 70
     1
102
RTVSPropertyOp3
 70
     1
102
RTVSPropertyOp4
 70
     1
102
RTVSPropertyOp5
 70
     1
102
RTVSPropertyOp6
 70
     1
102
RTVSPropertyOp7
 70
     1
102
RTVSPropertyOp8
 70
     1
102
RTVSPropertyOp9
 70
     1
102
RTVSPropertyOp10
 70
     1
102
RTVSPropertyOp11
 70
     1
102
RTVSPropertyOp12
 70
     1
102
RTVSPropertyOp13
 70
     1
102
RTVSPropertyOp14
 70
     1
102
RTVSPropertyOp15
 70
     1
102
RTVSPropertyOp16
 70
     1
102
RTVSPropertyOp17
 70
     1
102
RTVSPropertyOp18
 70
     1
102
RTVSPropertyOp19
 70
     1
102
RTVSPropertyOp20
 70
     1
102
RTVSPropertyOp21
 70
     1
102
RTVSPropertyOp22
 70
     1
102
RTVSPropertyOp23
 70
     1
102
RTVSPropertyOp24
 70
     1
102
RTVSPropertyOp25
 70
     1
102
RTVSPropertyOp26
 70
     1
102
RTVSPropertyOp27
 70
     1
102
RTVSPropertyOp28
 70
     1
102
RTVSPropertyOp29
 70
     1
102
RTVSPropertyOp30
 70
     1
102
RTVSPropertyOp31
 70
     1
102
RTVSPropertyOp32
 70
     1
  0
XRECORD
  5
241
102
{ACAD_REACTORS
330
240
102
}
330
240
100
AcDbXrecord
280
     1
102
RTVSPropertyOp0
 70
     1
102
RTVSPropertyOp1
 70
     1
102
RTVSPropertyOp2
 70
     1
102
RTVSPropertyOp3
 70
     1
102
RTVSPropertyOp4
 70
     1
102
RTVSPropertyOp5
 70
     1
102
RTVSPropertyOp6
 70
     1
102
RTVSPropertyOp7
 70
     1
102
RTVSPropertyOp8
 70
     1
102
RTVSPropertyOp9
 70
     1
102
RTVSPropertyOp10
 70
     1
102
RTVSPropertyOp11
 70
     1
102
RTVSPropertyOp12
 70
     1
102
RTVSPropertyOp13
 70
     1
102
RTVSPropertyOp14
 70
     1
102
RTVSPropertyOp15
 70
     1
102
RTVSPropertyOp16
 70
     1
102
RTVSPropertyOp17
 70
     1
102
RTVSPropertyOp18
 70
     1
102
RTVSPropertyOp19
 70
     1
102
RTVSPropertyOp20
 70
     1
102
RTVSPropertyOp21
 70
     1
102
RTVSPropertyOp22
 70
     1
102
RTVSPropertyOp23
 70
     1
102
RTVSPropertyOp24
 70
     1
102
RTVSPropertyOp25
 70
     1
102
RTVSPropertyOp26
 70
     1
102
RTVSPropertyOp27
 70
     1
102
RTVSPropertyOp28
 70
     1
102
RTVSPropertyOp29
 70
     1
102
RTVSPropertyOp30
 70
     1
102
RTVSPropertyOp31
 70
     1
102
RTVSPropertyOp32
 70
     1
  0
ENDSEC
  0
EOF
