  0
SECTION
  2
HEADER
  9
$ACADVER
  1
AC1015
  9
$ACADMAINTVER
 70
     6
  9
$DWGCODEPAGE
  3
ANSI_1252
  9
$INSBASE
 10
0.0
 20
0.0
 30
0.0
  9
$EXTMIN
 10
-104.3322077901972
 20
692.495069555058
 30
0.0
  9
$EXTMAX
 10
315.6677922098012
 20
989.495069555058
 30
0.0
  9
$LIMMIN
 10
0.0
 20
0.0
  9
$LIMMAX
 10
12.0
 20
9.0
  9
$ORTHOMODE
 70
     0
  9
$REGENMODE
 70
     1
  9
$FILLMODE
 70
     1
  9
$QTEXTMODE
 70
     0
  9
$MIRRTEXT
 70
     1
  9
$LTSCALE
 40
1.0
  9
$ATTMODE
 70
     1
  9
$TEXTSIZE
 40
0.2
  9
$TRACEWID
 40
0.05
  9
$TEXTSTYLE
  7
Standard
  9
$CLAYER
  8
0
  9
$CELTYPE
  6
ByLayer
  9
$CECOLOR
 62
   256
  9
$CELTSCALE
 40
1.0
  9
$DISPSILH
 70
     0
  9
$DIMSCALE
 40
1.0
  9
$DIMASZ
 40
0.18
  9
$DIMEXO
 40
0.0625
  9
$DIMDLI
 40
0.38
  9
$DIMRND
 40
0.0
  9
$DIMDLE
 40
0.0
  9
$DIMEXE
 40
0.18
  9
$DIMTP
 40
0.0
  9
$DIMTM
 40
0.0
  9
$DIMTXT
 40
0.18
  9
$DIMCEN
 40
0.09
  9
$DIMTSZ
 40
0.0
  9
$DIMTOL
 70
     0
  9
$DIMLIM
 70
     0
  9
$DIMTIH
 70
     1
  9
$DIMTOH
 70
     1
  9
$DIMSE1
 70
     0
  9
$DIMSE2
 70
     0
  9
$DIMTAD
 70
     0
  9
$DIMZIN
 70
     0
  9
$DIMBLK
  1

  9
$DIMASO
 70
     1
  9
$DIMSHO
 70
     1
  9
$DIMPOST
  1

  9
$DIMAPOST
  1

  9
$DIMALT
 70
     0
  9
$DIMALTD
 70
     2
  9
$DIMALTF
 40
25.4
  9
$DIMLFAC
 40
1.0
  9
$DIMTOFL
 70
     0
  9
$DIMTVP
 40
0.0
  9
$DIMTIX
 70
     0
  9
$DIMSOXD
 70
     0
  9
$DIMSAH
 70
     0
  9
$DIMBLK1
  1

  9
$DIMBLK2
  1

  9
$DIMSTYLE
  2
Standard
  9
$DIMCLRD
 70
     0
  9
$DIMCLRE
 70
     0
  9
$DIMCLRT
 70
     0
  9
$DIMTFAC
 40
1.0
  9
$DIMGAP
 40
0.09
  9
$DIMJUST
 70
     0
  9
$DIMSD1
 70
     0
  9
$DIMSD2
 70
     0
  9
$DIMTOLJ
 70
     1
  9
$DIMTZIN
 70
     0
  9
$DIMALTZ
 70
     0
  9
$DIMALTTZ
 70
     0
  9
$DIMUPT
 70
     0
  9
$DIMDEC
 70
     4
  9
$DIMTDEC
 70
     4
  9
$DIMALTU
 70
     2
  9
$DIMALTTD
 70
     2
  9
$DIMTXSTY
  7
Standard
  9
$DIMAUNIT
 70
     0
  9
$DIMADEC
 70
     0
  9
$DIMALTRND
 40
0.0
  9
$DIMAZIN
 70
     0
  9
$DIMDSEP
 70
    46
  9
$DIMATFIT
 70
     3
  9
$DIMFRAC
 70
     0
  9
$DIMLDRBLK
  1

  9
$DIMLUNIT
 70
     2
  9
$DIMLWD
 70
    -2
  9
$DIMLWE
 70
    -2
  9
$DIMTMOVE
 70
     0
  9
$LUNITS
 70
     2
  9
$LUPREC
 70
     4
  9
$SKETCHINC
 40
0.1
  9
$FILLETRAD
 40
0.5
  9
$AUNITS
 70
     0
  9
$AUPREC
 70
     0
  9
$MENU
  1
.
  9
$ELEVATION
 40
0.0
  9
$PELEVATION
 40
0.0
  9
$THICKNESS
 40
0.0
  9
$LIMCHECK
 70
     0
  9
$CHAMFERA
 40
0.5
  9
$CHAMFERB
 40
0.5
  9
$CHAMFERC
 40
1.0
  9
$CHAMFERD
 40
0.0
  9
$SKPOLY
 70
     0
  9
$TDCREATE
 40
2456006.473017859
  9
$TDUCREATE
 40
2456006.431351192
  9
$TDUPDATE
 40
2456006.47301787
  9
$TDUUPDATE
 40
2456006.431351203
  9
$TDINDWG
 40
0.0000000116
  9
$TDUSRTIMER
 40
0.0000000116
  9
$USRTIMER
 70
     1
  9
$ANGBASE
 50
0.0
  9
$ANGDIR
 70
     0
  9
$PDMODE
 70
     0
  9
$PDSIZE
 40
0.0
  9
$PLINEWID
 40
0.0
  9
$SPLFRAME
 70
     0
  9
$SPLINETYPE
 70
     6
  9
$SPLINESEGS
 70
     8
  9
$HANDSEED
  5
39E
  9
$SURFTAB1
 70
     6
  9
$SURFTAB2
 70
     6
  9
$SURFTYPE
 70
     6
  9
$SURFU
 70
     6
  9
$SURFV
 70
     6
  9
$UCSBASE
  2

  9
$UCSNAME
  2

  9
$UCSORG
 10
0.0
 20
0.0
 30
0.0
  9
$UCSXDIR
 10
1.0
 20
0.0
 30
0.0
  9
$UCSYDIR
 10
0.0
 20
1.0
 30
0.0
  9
$UCSORTHOREF
  2

  9
$UCSORTHOVIEW
 70
     0
  9
$UCSORGTOP
 10
0.0
 20
0.0
 30
0.0
  9
$UCSORGBOTTOM
 10
0.0
 20
0.0
 30
0.0
  9
$UCSORGLEFT
 10
0.0
 20
0.0
 30
0.0
  9
$UCSORGRIGHT
 10
0.0
 20
0.0
 30
0.0
  9
$UCSORGFRONT
 10
0.0
 20
0.0
 30
0.0
  9
$UCSORGBACK
 10
0.0
 20
0.0
 30
0.0
  9
$PUCSBASE
  2

  9
$PUCSNAME
  2

  9
$PUCSORG
 10
0.0
 20
0.0
 30
0.0
  9
$PUCSXDIR
 10
1.0
 20
0.0
 30
0.0
  9
$PUCSYDIR
 10
0.0
 20
1.0
 30
0.0
  9
$PUCSORTHOREF
  2

  9
$PUCSORTHOVIEW
 70
     0
  9
$PUCSORGTOP
 10
0.0
 20
0.0
 30
0.0
  9
$PUCSORGBOTTOM
 10
0.0
 20
0.0
 30
0.0
  9
$PUCSORGLEFT
 10
0.0
 20
0.0
 30
0.0
  9
$PUCSORGRIGHT
 10
0.0
 20
0.0
 30
0.0
  9
$PUCSORGFRONT
 10
0.0
 20
0.0
 30
0.0
  9
$PUCSORGBACK
 10
0.0
 20
0.0
 30
0.0
  9
$USERI1
 70
     0
  9
$USERI2
 70
     0
  9
$USERI3
 70
     0
  9
$USERI4
 70
     0
  9
$USERI5
 70
     0
  9
$USERR1
 40
16.0
  9
$USERR2
 40
0.0
  9
$USERR3
 40
0.0
  9
$USERR4
 40
0.0
  9
$USERR5
 40
0.0
  9
$WORLDVIEW
 70
     1
  9
$SHADEDGE
 70
     3
  9
$SHADEDIF
 70
    70
  9
$TILEMODE
 70
     1
  9
$MAXACTVP
 70
    64
  9
$PINSBASE
 10
0.0
 20
0.0
 30
0.0
  9
$PLIMCHECK
 70
     0
  9
$PEXTMIN
 10
1.00000000000000E+20
 20
1.00000000000000E+20
 30
1.00000000000000E+20
  9
$PEXTMAX
 10
-1.00000000000000E+20
 20
-1.00000000000000E+20
 30
-1.00000000000000E+20
  9
$PLIMMIN
 10
0.0
 20
0.0
  9
$PLIMMAX
 10
12.0
 20
9.0
  9
$UNITMODE
 70
     0
  9
$VISRETAIN
 70
     1
  9
$PLINEGEN
 70
     0
  9
$PSLTSCALE
 70
     1
  9
$TREEDEPTH
 70
  3020
  9
$CMLSTYLE
  2
Standard
  9
$CMLJUST
 70
     0
  9
$CMLSCALE
 40
1.0
  9
$PROXYGRAPHICS
 70
     1
  9
$MEASUREMENT
 70
     1
  9
$CELWEIGHT
370
    -1
  9
$ENDCAPS
280
     0
  9
$JOINSTYLE
280
     0
  9
$LWDISPLAY
290
     0
  9
$INSUNITS
 70
     1
  9
$HYPERLINKBASE
  1

  9
$STYLESHEET
  1

  9
$XEDIT
290
     1
  9
$CEPSNTYPE
380
     0
  9
$PSTYLEMODE
290
     1
  9
$FINGERPRINTGUID
  2
{6F21F6E1-0241-42D1-BDDA-388C5C6F26B3}
  9
$VERSIONGUID
  2
{FAEB1C32-E019-11D5-929B-00C0DF256EC4}
  9
$EXTNAMES
290
     1
  9
$PSVPSCALE
 40
0.0
  9
$OLESTARTUP
290
     0
  0
ENDSEC
  0
SECTION
  2
CLASSES
  0
CLASS
  1
ACDBDICTIONARYWDFLT
  2
AcDbDictionaryWithDefault
  3
ObjectDBX Classes
 90
        0
280
     0
281
     0
  0
CLASS
  1
VISUALSTYLE
  2
AcDbVisualStyle
  3
ObjectDBX Classes
 90
     4095
280
     0
281
     0
  0
CLASS
  1

  2
exOdDbCircle
  3

 90
        0
280
     0
281
     1
  0
CLASS
  1
ACDBPLACEHOLDER
  2
AcDbPlaceHolder
  3
ObjectDBX Classes
 90
        0
280
     0
281
     0
  0
CLASS
  1
LAYOUT
  2
AcDbLayout
  3
ObjectDBX Classes
 90
        0
280
     0
281
     0
  0
ENDSEC
  0
SECTION
  2
TABLES
  0
TABLE
  2
VPORT
  5
8
330
0
100
AcDbSymbolTable
 70
     1
  0
VPORT
  5
29
330
8
100
AcDbSymbolTableRecord
100
AcDbViewportTableRecord
  2
*Active
 70
     0
 10
0.0
 20
0.0
 11
1.0
 21
1.0
 12
105.667792209802
 22
840.995069555058
 13
0.0
 23
0.0
 14
0.5
 24
0.5
 15
0.5
 25
0.5
 16
0.0
 26
0.0
 36
1.0
 17
0.0
 27
0.0
 37
0.0
 40
326.7
 41
1.60267857142857
 42
50.0
 43
0.0
 44
0.0
 50
0.0
 51
0.0
 71
     0
 72
   100
 73
     1
 74
     3
 75
     0
 76
     0
 77
     0
 78
     0
281
     0
 65
     1
110
0.0
120
0.0
130
0.0
111
1.0
121
0.0
131
0.0
112
0.0
122
1.0
132
0.0
 79
     0
146
0.0
  0
ENDTAB
  0
TABLE
  2
LTYPE
  5
5
330
0
100
AcDbSymbolTable
 70
     8
  0
LTYPE
  5
14
330
5
100
AcDbSymbolTableRecord
100
AcDbLinetypeTableRecord
  2
ByBlock
 70
     0
  3

 72
    65
 73
     0
 40
0.0
  0
LTYPE
  5
15
330
5
100
AcDbSymbolTableRecord
100
AcDbLinetypeTableRecord
  2
ByLayer
 70
     0
  3

 72
    65
 73
     0
 40
0.0
  0
LTYPE
  5
16
330
5
100
AcDbSymbolTableRecord
100
AcDbLinetypeTableRecord
  2
Continuous
 70
     0
  3
Solid line
 72
    65
 73
     0
 40
0.0
  0
LTYPE
  5
3B
330
5
100
AcDbSymbolTableRecord
100
AcDbLinetypeTableRecord
  2
DASHED
 70
     0
  3
Dashed
 72
    65
 73
     2
 40
15.0
 49
7.0
 74
     0
 49
-8.0
 74
     0
  0
LTYPE
  5
3C
330
5
100
AcDbSymbolTableRecord
100
AcDbLinetypeTableRecord
  2
DOTTED
 70
     0
  3
Dotted
 72
    65
 73
     2
 40
1.0
 49
0.0
 74
     0
 49
-1.0
 74
     0
  0
LTYPE
  5
3D
330
5
100
AcDbSymbolTableRecord
100
AcDbLinetypeTableRecord
  2
DOT_CENTER
 70
     0
  3
Dot_Center
 72
    65
 73
     4
 40
14.0
 49
12.0
 74
     0
 49
-1.0
 74
     0
 49
0.0
 74
     0
 49
-1.0
 74
     0
  0
LTYPE
  5
3E
330
5
100
AcDbSymbolTableRecord
100
AcDbLinetypeTableRecord
  2
LONG_DASHED
 70
     0
  3
Long_Dashed
 72
    65
 73
     2
 40
15.0
 49
10.0
 74
     0
 49
-5.0
 74
     0
  0
LTYPE
  5
3F
330
5
100
AcDbSymbolTableRecord
100
AcDbLinetypeTableRecord
  2
DASH_CENTER
 70
     0
  3
Dash_Center
 72
    65
 73
     4
 40
14.0
 49
11.0
 74
     0
 49
-1.0
 74
     0
 49
1.0
 74
     0
 49
-1.0
 74
     0
  0
LTYPE
  5
40
330
5
100
AcDbSymbolTableRecord
100
AcDbLinetypeTableRecord
  2
PHANTOM
 70
     0
  3
Phantom
 72
    65
 73
     6
 40
13.0
 49
10.0
 74
     0
 49
-1.0
 74
     0
 49
0.0
 74
     0
 49
-1.0
 74
     0
 49
0.0
 74
     0
 49
-1.0
 74
     0
  0
LTYPE
  5
41
330
5
100
AcDbSymbolTableRecord
100
AcDbLinetypeTableRecord
  2
CENTER_DASH_DASH
 70
     0
  3
Center_Dash_Dash
 72
    65
 73
     6
 40
14.0
 49
9.0
 74
     0
 49
-1.0
 74
     0
 49
1.0
 74
     0
 49
-1.0
 74
     0
 49
1.0
 74
     0
 49
-1.0
 74
     0
  0
ENDTAB
  0
TABLE
  2
LAYER
  5
2
330
0
100
AcDbSymbolTable
 70
     2
  0
LAYER
  5
10
330
2
100
AcDbSymbolTableRecord
100
AcDbLayerTableRecord
  2
0
 70
     0
 62
     7
  6
Continuous
370
    -3
390
F
  0
LAYER
  5
42
330
2
100
AcDbSymbolTableRecord
100
AcDbLayerTableRecord
  2
1
 70
     0
 62
     7
  6
Continuous
370
    -3
390
F
  0
ENDTAB
  0
TABLE
  2
STYLE
  5
3
330
0
100
AcDbSymbolTable
 70
     9
  0
STYLE
  5
11
330
3
100
AcDbSymbolTableRecord
100
AcDbTextStyleTableRecord
  2
Standard
 70
     0
 40
0.0
 41
1.0
 50
0.0
 71
     0
 42
0.2
  3
txt
  4

  0
STYLE
  5
88
330
3
100
AcDbSymbolTableRecord
100
AcDbTextStyleTableRecord
  2
CONVERTER_11
 70
     0
 40
0.0
 41
0.9
 50
0.0
 71
     0
 42
0.2
  3
txt.shx
  4

  0
STYLE
  5
315
330
3
100
AcDbSymbolTableRecord
100
AcDbTextStyleTableRecord
  2
CONVERTER_12
 70
     0
 40
0.0
 41
0.765
 50
0.0
 71
     0
 42
0.2
  3
txt.shx
  4

  0
STYLE
  5
33C
330
3
100
AcDbSymbolTableRecord
100
AcDbTextStyleTableRecord
  2
CONVERTER_13
 70
     0
 40
0.0
 41
0.855
 50
0.0
 71
     0
 42
0.2
  3
txt.shx
  4

  0
STYLE
  5
358
330
3
100
AcDbSymbolTableRecord
100
AcDbTextStyleTableRecord
  2
CONVERTER_14
 70
     0
 40
0.0
 41
0.72
 50
0.0
 71
     0
 42
0.2
  3
txt.shx
  4

  0
STYLE
  5
35A
330
3
100
AcDbSymbolTableRecord
100
AcDbTextStyleTableRecord
  2
CONVERTER_15
 70
     0
 40
0.0
 41
0.54
 50
0.0
 71
     0
 42
0.2
  3
txt.shx
  4

  0
STYLE
  5
35C
330
3
100
AcDbSymbolTableRecord
100
AcDbTextStyleTableRecord
  2
CONVERTER_16
 70
     0
 40
0.0
 41
0.81
 50
0.0
 71
     0
 42
0.2
  3
txt.shx
  4

  0
STYLE
  5
377
330
3
100
AcDbSymbolTableRecord
100
AcDbTextStyleTableRecord
  2
CONVERTER_17
 70
     0
 40
0.0
 41
0.45
 50
0.0
 71
     0
 42
0.2
  3
txt.shx
  4

  0
STYLE
  5
37A
330
3
100
AcDbSymbolTableRecord
100
AcDbTextStyleTableRecord
  2
CONVERTER_18
 70
     0
 40
0.0
 41
0.63
 50
0.0
 71
     0
 42
0.2
  3
txt.shx
  4

  0
ENDTAB
  0
TABLE
  2
VIEW
  5
6
330
0
100
AcDbSymbolTable
 70
     0
  0
ENDTAB
  0
TABLE
  2
UCS
  5
7
330
0
100
AcDbSymbolTable
 70
     0
  0
ENDTAB
  0
TABLE
  2
APPID
  5
9
330
0
100
AcDbSymbolTable
 70
     1
  0
APPID
  5
12
330
9
100
AcDbSymbolTableRecord
100
AcDbRegAppTableRecord
  2
ACAD
 70
     0
  0
ENDTAB
  0
TABLE
  2
DIMSTYLE
  5
A
330
0
100
AcDbSymbolTable
 70
     4
100
AcDbDimStyleTable
  0
DIMSTYLE
105
27
330
A
100
AcDbSymbolTableRecord
100
AcDbDimStyleTableRecord
  2
Standard
 70
     0
340
11
  0
DIMSTYLE
105
122
102
{ACAD_REACTORS
330
123
102
}
330
A
100
AcDbSymbolTableRecord
100
AcDbDimStyleTableRecord
  2
ME10_DIM_10
 70
     0
 41
7.0
 42
0.0
 44
4.0
 73
     0
 74
     0
 77
     1
 78
     8
140
7.0
147
4.0
172
     1
173
     1
176
     2
177
     2
178
     3
340
88
  0
DIMSTYLE
105
17F
102
{ACAD_REACTORS
330
180
102
}
330
A
100
AcDbSymbolTableRecord
100
AcDbDimStyleTableRecord
  2
ME10_DIM_11
 70
     0
 41
7.0
 42
0.0
 44
4.0
 73
     0
 74
     0
 77
     1
 78
     8
140
7.0
147
4.0
172
     1
173
     1
176
     2
177
     2
178
     3
340
88
  0
DIMSTYLE
105
18A
102
{ACAD_REACTORS
330
18B
102
}
330
A
100
AcDbSymbolTableRecord
100
AcDbDimStyleTableRecord
  2
ME10_DIM_12
 70
     0
 41
7.0
 42
0.0
 44
4.0
 73
     0
 74
     0
 77
     1
 78
     8
140
7.0
147
4.0
172
     1
173
     1
176
     2
177
     2
178
     3
340
88
  0
ENDTAB
  0
TABLE
  2
BLOCK_RECORD
  5
1
330
0
100
AcDbSymbolTable
 70
    19
  0
BLOCK_RECORD
  5
1F
330
1
100
AcDbSymbolTableRecord
100
AcDbBlockTableRecord
  2
*Model_Space
340
22
  0
BLOCK_RECORD
  5
1B
330
1
100
AcDbSymbolTableRecord
100
AcDbBlockTableRecord
  2
*Paper_Space
340
1E
  0
BLOCK_RECORD
  5
23
330
1
100
AcDbSymbolTableRecord
100
AcDbBlockTableRecord
  2
*Paper_Space0
340
26
  0
BLOCK_RECORD
  5
43
330
1
100
AcDbSymbolTableRecord
100
AcDbBlockTableRecord
  2
3240264_CD_80_100-select__1
340
0
102
{BLKREFS
331
47
102
}
  0
BLOCK_RECORD
  5
46
330
1
100
AcDbSymbolTableRecord
100
AcDbBlockTableRecord
  2
AllgSicht1
340
0
102
{BLKREFS
331
78
102
}
  0
BLOCK_RECORD
  5
4A
330
1
100
AcDbSymbolTableRecord
100
AcDbBlockTableRecord
  2
3240264_CD_80_100-select__2
340
0
102
{BLKREFS
331
4E
102
}
  0
BLOCK_RECORD
  5
4D
330
1
100
AcDbSymbolTableRecord
100
AcDbBlockTableRecord
  2
Drfsicht1
340
0
102
{BLKREFS
331
79
102
}
  0
BLOCK_RECORD
  5
51
330
1
100
AcDbSymbolTableRecord
100
AcDbBlockTableRecord
  2
3240264_CD_80_100-select__3
340
0
102
{BLKREFS
331
55
102
}
  0
BLOCK_RECORD
  5
54
330
1
100
AcDbSymbolTableRecord
100
AcDbBlockTableRecord
  2
Rckans1
340
0
102
{BLKREFS
331
7A
102
}
  0
BLOCK_RECORD
  5
58
330
1
100
AcDbSymbolTableRecord
100
AcDbBlockTableRecord
  2
3240264_CD_80_100-select__4
340
0
102
{BLKREFS
331
5C
102
}
  0
BLOCK_RECORD
  5
5B
330
1
100
AcDbSymbolTableRecord
100
AcDbBlockTableRecord
  2
SA_Links1
340
0
102
{BLKREFS
331
7B
102
}
  0
BLOCK_RECORD
  5
5F
330
1
100
AcDbSymbolTableRecord
100
AcDbBlockTableRecord
  2
3240264_CD_80_100-select__5
340
0
102
{BLKREFS
331
63
102
}
  0
BLOCK_RECORD
  5
62
330
1
100
AcDbSymbolTableRecord
100
AcDbBlockTableRecord
  2
SA_Rechts1
340
0
102
{BLKREFS
331
7C
102
}
  0
BLOCK_RECORD
  5
66
330
1
100
AcDbSymbolTableRecord
100
AcDbBlockTableRecord
  2
3240264_CD_80_100-select__6
340
0
102
{BLKREFS
331
6A
102
}
  0
BLOCK_RECORD
  5
69
330
1
100
AcDbSymbolTableRecord
100
AcDbBlockTableRecord
  2
Vordans1
340
0
102
{BLKREFS
331
7D
102
}
  0
BLOCK_RECORD
  5
6D
330
1
100
AcDbSymbolTableRecord
100
AcDbBlockTableRecord
  2
_rahmen
340
0
102
{BLKREFS
331
74
102
}
  0
BLOCK_RECORD
  5
70
330
1
100
AcDbSymbolTableRecord
100
AcDbBlockTableRecord
  2
_punkt
340
0
102
{BLKREFS
331
75
102
}
  0
BLOCK_RECORD
  5
73
330
1
100
AcDbSymbolTableRecord
100
AcDbBlockTableRecord
  2
A3I
340
0
102
{BLKREFS
331
7E
102
}
  0
BLOCK_RECORD
  5
119
330
1
100
AcDbSymbolTableRecord
100
AcDbBlockTableRecord
  2
*D16
340
0
  0
BLOCK_RECORD
  5
176
330
1
100
AcDbSymbolTableRecord
100
AcDbBlockTableRecord
  2
*D17
340
0
  0
BLOCK_RECORD
  5
181
330
1
100
AcDbSymbolTableRecord
100
AcDbBlockTableRecord
  2
*D18
340
0
  0
ENDTAB
  0
ENDSEC
  0
SECTION
  2
BLOCKS
  0
BLOCK
  5
20
330
1F
100
AcDbEntity
  8
0
100
AcDbBlockBegin
  2
*Model_Space
 70
     0
 10
0.0
 20
0.0
 30
0.0
  3
*Model_Space
  1

  0
ENDBLK
  5
21
330
1F
100
AcDbEntity
  8
0
100
AcDbBlockEnd
  0
BLOCK
  5
1C
330
1B
100
AcDbEntity
 67
     1
  8
0
100
AcDbBlockBegin
  2
*Paper_Space
 70
     0
 10
0.0
 20
0.0
 30
0.0
  3
*Paper_Space
  1

  0
ENDBLK
  5
1D
330
1B
100
AcDbEntity
 67
     1
  8
0
100
AcDbBlockEnd
  0
BLOCK
  5
24
330
23
100
AcDbEntity
  8
0
100
AcDbBlockBegin
  2
*Paper_Space0
 70
     0
 10
0.0
 20
0.0
 30
0.0
  3
*Paper_Space0
  1

  0
ENDBLK
  5
25
330
23
100
AcDbEntity
  8
0
100
AcDbBlockEnd
  0
BLOCK
  5
44
330
43
100
AcDbEntity
  8
0
100
AcDbBlockBegin
  2
3240264_CD_80_100-select__1
 70
     0
 10
371.3589849471721
 20
1493.397460819926
 30
0.0
  3
3240264_CD_80_100-select__1
  1

  0
LINE
  5
7F
330
43
100
AcDbEntity
  8
0
  6
Continuous
 62
     7
100
AcDbLine
 10
440.6410172499272
 20
1580.00000119837
 30
0.0
 11
540.6410172499272
 21
1666.602541576814
 31
0.0
  0
LINE
  5
80
330
43
100
AcDbEntity
  8
0
  6
Continuous
 62
     7
100
AcDbLine
 10
371.3589849471721
 20
1600.00000119837
 30
0.0
 11
471.3589849471721
 21
1686.602541576814
 31
0.0
  0
LINE
  5
81
330
43
100
AcDbEntity
  8
0
  6
Continuous
 62
     7
100
AcDbLine
 10
440.6410172499272
 20
1580.00000119837
 30
0.0
 11
371.3589849471721
 21
1600.00000119837
 31
0.0
  0
LINE
  5
82
330
43
100
AcDbEntity
  8
0
  6
Continuous
 62
     7
100
AcDbLine
 10
371.3589849471721
 20
1600.00000119837
 30
0.0
 11
371.3589849471721
 21
1513.397460819926
 31
0.0
  0
LINE
  5
83
330
43
100
AcDbEntity
  8
0
  6
Continuous
 62
     7
100
AcDbLine
 10
371.3589849471721
 20
1513.397460819926
 30
0.0
 11
440.6410172499272
 21
1493.397460819926
 31
0.0
  0
LINE
  5
84
330
43
100
AcDbEntity
  8
0
  6
Continuous
 62
     7
100
AcDbLine
 10
540.6410172499272
 20
1666.602541576814
 30
0.0
 11
471.3589849471721
 21
1686.602541576814
 31
0.0
  0
LINE
  5
85
330
43
100
AcDbEntity
  8
0
  6
Continuous
 62
     7
100
AcDbLine
 10
440.6410172499272
 20
1493.397460819926
 30
0.0
 11
540.6410172499272
 21
1580.00000119837
 31
0.0
  0
LINE
  5
86
330
43
100
AcDbEntity
  8
0
  6
Continuous
 62
     7
100
AcDbLine
 10
440.6410172499272
 20
1493.397460819926
 30
0.0
 11
440.6410172499272
 21
1580.00000119837
 31
0.0
  0
LINE
  5
87
330
43
100
AcDbEntity
  8
0
  6
Continuous
 62
     7
100
AcDbLine
 10
540.6410172499272
 20
1580.00000119837
 30
0.0
 11
540.6410172499272
 21
1666.602541576814
 31
0.0
  0
ENDBLK
  5
45
330
43
100
AcDbEntity
  8
0
100
AcDbBlockEnd
  0
BLOCK
  5
48
330
46
100
AcDbEntity
  8
0
100
AcDbBlockBegin
  2
AllgSicht1
 70
     0
 10
455.9999999999994
 20
1590.0
 30
0.0
  3
AllgSicht1
  1

  0
INSERT
  5
47
330
46
100
AcDbEntity
  8
0
100
AcDbBlockReference
  2
3240264_CD_80_100-select__1
 10
371.3589849471721
 20
1493.397460819926
 30
0.0
  0
MTEXT
  5
89
330
46
100
AcDbEntity
  8
1
 62
     6
100
AcDbMText
 10
456.0
 20
1483.397460685881
 30
0.0
 40
10.0
 41
0.0
 71
     2
 72
     1
  1
 
  7
CONVERTER_11
 73
     1
 44
1.32052821128451
  0
ENDBLK
  5
49
330
46
100
AcDbEntity
  8
0
100
AcDbBlockEnd
  0
BLOCK
  5
4B
330
4A
100
AcDbEntity
  8
0
100
AcDbBlockBegin
  2
3240264_CD_80_100-select__2
 70
     0
 10
112.000002268493
 20
1568.500001000005
 30
0.0
  3
3240264_CD_80_100-select__2
  1

  0
LINE
  5
8A
330
4A
100
AcDbEntity
  8
0
  6
Continuous
 62
     2
100
AcDbLine
 10
180.5000009999994
 20
1646.129214000005
 30
0.0
 11
177.5000009999994
 21
1644.129214000005
 31
0.0
  0
LINE
  5
8B
330
4A
100
AcDbEntity
  8
0
  6
Continuous
 62
     2
100
AcDbLine
 10
192.0000022684931
 20
1645.795881512334
 30
0.0
 11
189.5000009999994
 21
1644.129214000005
 31
0.0
  0
LINE
  5
8C
330
4A
100
AcDbEntity
  8
0
  6
Continuous
 62
     2
100
AcDbLine
 10
189.5000009999994
 20
1634.129214000005
 30
0.0
 11
192.0000022684931
 21
1635.795881512334
 31
0.0
  0
LINE
  5
8D
330
4A
100
AcDbEntity
  8
0
  6
Continuous
 62
     7
100
AcDbLine
 10
192.000002268493
 20
1568.500001000005
 30
0.0
 11
112.000002268493
 21
1568.500001000005
 31
0.0
  0
LINE
  5
8E
330
4A
100
AcDbEntity
  8
0
  6
Continuous
 62
     2
100
AcDbLine
 10
189.5000009999994
 20
1644.129214000005
 30
0.0
 11
186.5000009999994
 21
1646.129214000005
 31
0.0
  0
LINE
  5
8F
330
4A
100
AcDbEntity
  8
0
  6
Continuous
 62
     2
100
AcDbLine
 10
186.5000009999994
 20
1636.129214000005
 30
0.0
 11
189.5000009999994
 21
1634.129214000005
 31
0.0
  0
LINE
  5
90
330
4A
100
AcDbEntity
  8
0
  6
Continuous
 62
     7
100
AcDbLine
 10
192.0000022684931
 20
1645.795881512334
 30
0.0
 11
192.000002268493
 21
1735.500001000005
 31
0.0
  0
LINE
  5
91
330
4A
100
AcDbEntity
  8
0
  6
Continuous
 62
     7
100
AcDbLine
 10
192.000002268493
 20
1568.500001000005
 30
0.0
 11
192.0000022684931
 21
1635.795881512334
 31
0.0
  0
LINE
  5
92
330
4A
100
AcDbEntity
  8
0
  6
Continuous
 62
     2
100
AcDbLine
 10
177.5000009999994
 20
1644.129214000005
 30
0.0
 11
174.5000009999994
 21
1646.129214000005
 31
0.0
  0
LINE
  5
93
330
4A
100
AcDbEntity
  8
0
  6
Continuous
 62
     2
100
AcDbLine
 10
174.5000009999994
 20
1636.129214000005
 30
0.0
 11
177.5000009999994
 21
1634.129214000005
 31
0.0
  0
LINE
  5
94
330
4A
100
AcDbEntity
  8
0
  6
Continuous
 62
     2
100
AcDbLine
 10
177.5000009999994
 20
1634.129214000005
 30
0.0
 11
180.5000009999994
 21
1636.129214000005
 31
0.0
  0
LINE
  5
95
330
4A
100
AcDbEntity
  8
0
  6
Continuous
 62
     2
100
AcDbLine
 10
180.5000009999994
 20
1636.129214000005
 30
0.0
 11
183.5000009999994
 21
1634.129214000005
 31
0.0
  0
LINE
  5
96
330
4A
100
AcDbEntity
  8
0
  6
Continuous
 62
     2
100
AcDbLine
 10
174.5000009999994
 20
1646.129214000005
 30
0.0
 11
171.5000009999994
 21
1644.129214000005
 31
0.0
  0
LINE
  5
97
330
4A
100
AcDbEntity
  8
0
  6
Continuous
 62
     2
100
AcDbLine
 10
171.5000009999994
 20
1634.129214000005
 30
0.0
 11
174.5000009999994
 21
1636.129214000005
 31
0.0
  0
LINE
  5
98
330
4A
100
AcDbEntity
  8
0
  6
Continuous
 62
     7
100
AcDbLine
 10
112.000002268493
 20
1568.500001000005
 30
0.0
 11
112.000002268493
 21
1634.462548179
 31
0.0
  0
LINE
  5
99
330
4A
100
AcDbEntity
  8
0
  6
Continuous
 62
     2
100
AcDbLine
 10
112.000002268493
 20
1634.462548179
 30
0.0
 11
114.5000009999994
 21
1636.129214000005
 31
0.0
  0
LINE
  5
9A
330
4A
100
AcDbEntity
  8
0
  6
Continuous
 62
     2
100
AcDbLine
 10
114.5000009999994
 20
1636.129214000005
 30
0.0
 11
117.5000009999994
 21
1634.129214000005
 31
0.0
  0
LINE
  5
9B
330
4A
100
AcDbEntity
  8
0
  6
Continuous
 62
     2
100
AcDbLine
 10
117.5000009999994
 20
1634.129214000005
 30
0.0
 11
120.5000009999994
 21
1636.129214000005
 31
0.0
  0
LINE
  5
9C
330
4A
100
AcDbEntity
  8
0
  6
Continuous
 62
     2
100
AcDbLine
 10
120.5000009999994
 20
1636.129214000005
 30
0.0
 11
123.5000009999994
 21
1634.129214000005
 31
0.0
  0
LINE
  5
9D
330
4A
100
AcDbEntity
  8
0
  6
Continuous
 62
     2
100
AcDbLine
 10
123.5000009999994
 20
1634.129214000005
 30
0.0
 11
126.5000009999994
 21
1636.129214000005
 31
0.0
  0
LINE
  5
9E
330
4A
100
AcDbEntity
  8
0
  6
Continuous
 62
     2
100
AcDbLine
 10
126.5000009999994
 20
1636.129214000005
 30
0.0
 11
129.5000009999994
 21
1634.129214000005
 31
0.0
  0
LINE
  5
9F
330
4A
100
AcDbEntity
  8
0
  6
Continuous
 62
     2
100
AcDbLine
 10
129.5000009999994
 20
1634.129214000005
 30
0.0
 11
132.5000009999994
 21
1636.129214000005
 31
0.0
  0
LINE
  5
A0
330
4A
100
AcDbEntity
  8
0
  6
Continuous
 62
     2
100
AcDbLine
 10
132.5000009999994
 20
1636.129214000005
 30
0.0
 11
135.5000009999994
 21
1634.129214000005
 31
0.0
  0
LINE
  5
A1
330
4A
100
AcDbEntity
  8
0
  6
Continuous
 62
     2
100
AcDbLine
 10
135.5000009999994
 20
1634.129214000005
 30
0.0
 11
138.5000009999994
 21
1636.129214000005
 31
0.0
  0
LINE
  5
A2
330
4A
100
AcDbEntity
  8
0
  6
Continuous
 62
     2
100
AcDbLine
 10
138.5000009999994
 20
1636.129214000005
 30
0.0
 11
141.5000009999994
 21
1634.129214000005
 31
0.0
  0
LINE
  5
A3
330
4A
100
AcDbEntity
  8
0
  6
Continuous
 62
     2
100
AcDbLine
 10
141.5000009999994
 20
1634.129214000005
 30
0.0
 11
144.5000009999994
 21
1636.129214000005
 31
0.0
  0
LINE
  5
A4
330
4A
100
AcDbEntity
  8
0
  6
Continuous
 62
     2
100
AcDbLine
 10
144.5000009999994
 20
1636.129214000005
 30
0.0
 11
147.5000009999994
 21
1634.129214000005
 31
0.0
  0
LINE
  5
A5
330
4A
100
AcDbEntity
  8
0
  6
Continuous
 62
     2
100
AcDbLine
 10
147.5000009999994
 20
1634.129214000005
 30
0.0
 11
150.5000009999994
 21
1636.129214000005
 31
0.0
  0
LINE
  5
A6
330
4A
100
AcDbEntity
  8
0
  6
Continuous
 62
     2
100
AcDbLine
 10
150.5000009999994
 20
1636.129214000005
 30
0.0
 11
153.5000009999994
 21
1634.129214000005
 31
0.0
  0
LINE
  5
A7
330
4A
100
AcDbEntity
  8
0
  6
Continuous
 62
     2
100
AcDbLine
 10
153.5000009999994
 20
1634.129214000005
 30
0.0
 11
156.5000009999994
 21
1636.129214000005
 31
0.0
  0
LINE
  5
A8
330
4A
100
AcDbEntity
  8
0
  6
Continuous
 62
     2
100
AcDbLine
 10
156.5000009999994
 20
1636.129214000005
 30
0.0
 11
159.5000009999994
 21
1634.129214000005
 31
0.0
  0
LINE
  5
A9
330
4A
100
AcDbEntity
  8
0
  6
Continuous
 62
     2
100
AcDbLine
 10
159.5000009999994
 20
1634.129214000005
 30
0.0
 11
162.5000009999994
 21
1636.129214000005
 31
0.0
  0
LINE
  5
AA
330
4A
100
AcDbEntity
  8
0
  6
Continuous
 62
     2
100
AcDbLine
 10
162.5000009999994
 20
1636.129214000005
 30
0.0
 11
165.5000009999994
 21
1634.129214000005
 31
0.0
  0
LINE
  5
AB
330
4A
100
AcDbEntity
  8
0
  6
Continuous
 62
     2
100
AcDbLine
 10
165.5000009999994
 20
1634.129214000005
 30
0.0
 11
168.5000009999994
 21
1636.129214000005
 31
0.0
  0
LINE
  5
AC
330
4A
100
AcDbEntity
  8
0
  6
Continuous
 62
     2
100
AcDbLine
 10
144.5000009999994
 20
1646.129214000005
 30
0.0
 11
141.5000009999994
 21
1644.129214000005
 31
0.0
  0
LINE
  5
AD
330
4A
100
AcDbEntity
  8
0
  6
Continuous
 62
     2
100
AcDbLine
 10
186.5000009999994
 20
1646.129214000005
 30
0.0
 11
183.5000009999994
 21
1644.129214000005
 31
0.0
  0
LINE
  5
AE
330
4A
100
AcDbEntity
  8
0
  6
Continuous
 62
     2
100
AcDbLine
 10
183.5000009999994
 20
1644.129214000005
 30
0.0
 11
180.5000009999994
 21
1646.129214000005
 31
0.0
  0
LINE
  5
AF
330
4A
100
AcDbEntity
  8
0
  6
Continuous
 62
     2
100
AcDbLine
 10
183.5000009999994
 20
1634.129214000005
 30
0.0
 11
186.5000009999994
 21
1636.129214000005
 31
0.0
  0
LINE
  5
B0
330
4A
100
AcDbEntity
  8
0
  6
Continuous
 62
     7
100
AcDbLine
 10
192.000002268493
 20
1735.500001000005
 30
0.0
 11
112.000002268493
 21
1735.500001000005
 31
0.0
  0
LINE
  5
B1
330
4A
100
AcDbEntity
  8
0
  6
Continuous
 62
     2
100
AcDbLine
 10
114.5000009999994
 20
1646.129214000005
 30
0.0
 11
112.000002268493
 21
1644.462548179
 31
0.0
  0
LINE
  5
B2
330
4A
100
AcDbEntity
  8
0
  6
Continuous
 62
     2
100
AcDbLine
 10
117.5000009999994
 20
1644.129214000005
 30
0.0
 11
114.5000009999994
 21
1646.129214000005
 31
0.0
  0
LINE
  5
B3
330
4A
100
AcDbEntity
  8
0
  6
Continuous
 62
     2
100
AcDbLine
 10
123.5000009999994
 20
1644.129214000005
 30
0.0
 11
120.5000009999994
 21
1646.129214000005
 31
0.0
  0
LINE
  5
B4
330
4A
100
AcDbEntity
  8
0
  6
Continuous
 62
     2
100
AcDbLine
 10
126.5000009999994
 20
1646.129214000005
 30
0.0
 11
123.5000009999994
 21
1644.129214000005
 31
0.0
  0
LINE
  5
B5
330
4A
100
AcDbEntity
  8
0
  6
Continuous
 62
     2
100
AcDbLine
 10
129.5000009999994
 20
1644.129214000005
 30
0.0
 11
126.5000009999994
 21
1646.129214000005
 31
0.0
  0
LINE
  5
B6
330
4A
100
AcDbEntity
  8
0
  6
Continuous
 62
     2
100
AcDbLine
 10
120.5000009999994
 20
1646.129214000005
 30
0.0
 11
117.5000009999994
 21
1644.129214000005
 31
0.0
  0
LINE
  5
B7
330
4A
100
AcDbEntity
  8
0
  6
Continuous
 62
     2
100
AcDbLine
 10
132.5000009999994
 20
1646.129214000005
 30
0.0
 11
129.5000009999994
 21
1644.129214000005
 31
0.0
  0
LINE
  5
B8
330
4A
100
AcDbEntity
  8
0
  6
Continuous
 62
     2
100
AcDbLine
 10
135.5000009999994
 20
1644.129214000005
 30
0.0
 11
132.5000009999994
 21
1646.129214000005
 31
0.0
  0
LINE
  5
B9
330
4A
100
AcDbEntity
  8
0
  6
Continuous
 62
     2
100
AcDbLine
 10
171.5000009999994
 20
1644.129214000005
 30
0.0
 11
168.5000009999994
 21
1646.129214000005
 31
0.0
  0
LINE
  5
BA
330
4A
100
AcDbEntity
  8
0
  6
Continuous
 62
     2
100
AcDbLine
 10
168.5000009999994
 20
1646.129214000005
 30
0.0
 11
165.5000009999994
 21
1644.129214000005
 31
0.0
  0
LINE
  5
BB
330
4A
100
AcDbEntity
  8
0
  6
Continuous
 62
     2
100
AcDbLine
 10
165.5000009999994
 20
1644.129214000005
 30
0.0
 11
162.5000009999994
 21
1646.129214000005
 31
0.0
  0
LINE
  5
BC
330
4A
100
AcDbEntity
  8
0
  6
Continuous
 62
     2
100
AcDbLine
 10
162.5000009999994
 20
1646.129214000005
 30
0.0
 11
159.5000009999994
 21
1644.129214000005
 31
0.0
  0
LINE
  5
BD
330
4A
100
AcDbEntity
  8
0
  6
Continuous
 62
     2
100
AcDbLine
 10
159.5000009999994
 20
1644.129214000005
 30
0.0
 11
156.5000009999994
 21
1646.129214000005
 31
0.0
  0
LINE
  5
BE
330
4A
100
AcDbEntity
  8
0
  6
Continuous
 62
     2
100
AcDbLine
 10
156.5000009999994
 20
1646.129214000005
 30
0.0
 11
153.5000009999994
 21
1644.129214000005
 31
0.0
  0
LINE
  5
BF
330
4A
100
AcDbEntity
  8
0
  6
Continuous
 62
     2
100
AcDbLine
 10
153.5000009999994
 20
1644.129214000005
 30
0.0
 11
150.5000009999994
 21
1646.129214000005
 31
0.0
  0
LINE
  5
C0
330
4A
100
AcDbEntity
  8
0
  6
Continuous
 62
     2
100
AcDbLine
 10
150.5000009999994
 20
1646.129214000005
 30
0.0
 11
147.5000009999994
 21
1644.129214000005
 31
0.0
  0
LINE
  5
C1
330
4A
100
AcDbEntity
  8
0
  6
Continuous
 62
     2
100
AcDbLine
 10
147.5000009999994
 20
1644.129214000005
 30
0.0
 11
144.5000009999994
 21
1646.129214000005
 31
0.0
  0
LINE
  5
C2
330
4A
100
AcDbEntity
  8
0
  6
Continuous
 62
     2
100
AcDbLine
 10
141.5000009999994
 20
1644.129214000005
 30
0.0
 11
138.5000009999994
 21
1646.129214000005
 31
0.0
  0
LINE
  5
C3
330
4A
100
AcDbEntity
  8
0
  6
Continuous
 62
     2
100
AcDbLine
 10
138.5000009999994
 20
1646.129214000005
 30
0.0
 11
135.5000009999994
 21
1644.129214000005
 31
0.0
  0
LINE
  5
C4
330
4A
100
AcDbEntity
  8
0
  6
Continuous
 62
     7
100
AcDbLine
 10
112.000002268493
 20
1644.462548179
 30
0.0
 11
112.000002268493
 21
1735.500001000005
 31
0.0
  0
LINE
  5
C5
330
4A
100
AcDbEntity
  8
0
  6
Continuous
 62
     2
100
AcDbLine
 10
168.5000009999994
 20
1636.129214000005
 30
0.0
 11
171.5000009999994
 21
1634.129214000005
 31
0.0
  0
ENDBLK
  5
4C
330
4A
100
AcDbEntity
  8
0
100
AcDbBlockEnd
  0
BLOCK
  5
4F
330
4D
100
AcDbEntity
  8
0
100
AcDbBlockBegin
  2
Drfsicht1
 70
     0
 10
152.0000009999994
 20
1668.500001
 30
0.0
  3
Drfsicht1
  1

  0
INSERT
  5
4E
330
4D
100
AcDbEntity
  8
0
100
AcDbBlockReference
  2
3240264_CD_80_100-select__2
 10
112.000002268493
 20
1568.500001000005
 30
0.0
  0
MTEXT
  5
C6
330
4D
100
AcDbEntity
  8
1
 62
     6
100
AcDbMText
 10
152.0000022684934
 20
1558.500001000005
 30
0.0
 40
10.0
 41
0.0
 71
     2
 72
     1
  1
 
  7
CONVERTER_11
 73
     1
 44
1.32052821128451
  0
ENDBLK
  5
50
330
4D
100
AcDbEntity
  8
0
100
AcDbBlockEnd
  0
BLOCK
  5
52
330
51
100
AcDbEntity
  8
0
100
AcDbBlockBegin
  2
3240264_CD_80_100-select__3
 70
     0
 10
479.9999977778319
 20
1812.000001749939
 30
0.0
  3
3240264_CD_80_100-select__3
  1

  0
LINE
  5
C7
330
51
100
AcDbEntity
  8
0
  6
Continuous
 62
     7
100
AcDbLine
 10
559.9999977778318
 20
1912.000001749939
 30
0.0
 11
559.9999977778318
 21
1812.000001749939
 31
0.0
  0
LINE
  5
C8
330
51
100
AcDbEntity
  8
0
  6
Continuous
 62
     7
100
AcDbLine
 10
559.9999977778318
 20
1812.000001749939
 30
0.0
 11
479.9999977778319
 21
1812.000001749939
 31
0.0
  0
LINE
  5
C9
330
51
100
AcDbEntity
  8
0
  6
Continuous
 62
     7
100
AcDbLine
 10
479.9999977778319
 20
1912.000001749939
 30
0.0
 11
559.9999977778318
 21
1912.000001749939
 31
0.0
  0
LINE
  5
CA
330
51
100
AcDbEntity
  8
0
  6
Continuous
 62
     7
100
AcDbLine
 10
479.9999977778319
 20
1812.000001749939
 30
0.0
 11
479.9999977778319
 21
1912.000001749939
 31
0.0
  0
ENDBLK
  5
53
330
51
100
AcDbEntity
  8
0
100
AcDbBlockEnd
  0
BLOCK
  5
56
330
54
100
AcDbEntity
  8
0
100
AcDbBlockBegin
  2
Rckans1
 70
     0
 10
519.9999990463255
 20
1862.000000000001
 30
0.0
  3
Rckans1
  1

  0
INSERT
  5
55
330
54
100
AcDbEntity
  8
0
100
AcDbBlockReference
  2
3240264_CD_80_100-select__3
 10
479.9999977778319
 20
1812.000001749939
 30
0.0
  0
MTEXT
  5
CB
330
54
100
AcDbEntity
  8
1
 62
     6
100
AcDbMText
 10
519.9999990463257
 20
1802.000000953674
 30
0.0
 40
10.0
 41
0.0
 71
     2
 72
     1
  1
 
  7
CONVERTER_11
 73
     1
 44
1.32052821128451
  0
ENDBLK
  5
57
330
54
100
AcDbEntity
  8
0
100
AcDbBlockEnd
  0
BLOCK
  5
59
330
58
100
AcDbEntity
  8
0
100
AcDbBlockBegin
  2
3240264_CD_80_100-select__4
 70
     0
 10
268.999999999995
 20
1812.000001749939
 30
0.0
  3
3240264_CD_80_100-select__4
  1

  0
LINE
  5
CC
330
58
100
AcDbEntity
  8
0
  6
Continuous
 62
     2
100
AcDbLine
 10
344.557376999995
 20
1890.5
 30
0.0
 11
346.557376999995
 21
1887.5
 31
0.0
  0
LINE
  5
CD
330
58
100
AcDbEntity
  8
0
  6
Continuous
 62
     2
100
AcDbLine
 10
354.557376999995
 20
1902.5
 30
0.0
 11
356.557376999995
 21
1905.5
 31
0.0
  0
LINE
  5
CE
330
58
100
AcDbEntity
  8
0
  6
Continuous
 62
     2
100
AcDbLine
 10
354.8907091667024
 20
1812.000001749939
 30
0.0
 11
354.557376999995
 21
1812.5
 31
0.0
  0
LINE
  5
CF
330
58
100
AcDbEntity
  8
0
  6
Continuous
 62
     2
100
AcDbLine
 10
354.557376999995
 20
1812.5
 30
0.0
 11
356.557376999995
 21
1815.5
 31
0.0
  0
LINE
  5
D0
330
58
100
AcDbEntity
  8
0
  6
Continuous
 62
     2
100
AcDbLine
 10
356.557376999995
 20
1827.5
 30
0.0
 11
354.557376999995
 21
1830.5
 31
0.0
  0
LINE
  5
D1
330
58
100
AcDbEntity
  8
0
  6
Continuous
 62
     2
100
AcDbLine
 10
354.557376999995
 20
1830.5
 30
0.0
 11
356.557376999995
 21
1833.5
 31
0.0
  0
LINE
  5
D2
330
58
100
AcDbEntity
  8
0
  6
Continuous
 62
     2
100
AcDbLine
 10
356.557376999995
 20
1833.5
 30
0.0
 11
354.557376999995
 21
1836.5
 31
0.0
  0
LINE
  5
D3
330
58
100
AcDbEntity
  8
0
  6
Continuous
 62
     2
100
AcDbLine
 10
354.557376999995
 20
1836.5
 30
0.0
 11
356.557376999995
 21
1839.5
 31
0.0
  0
LINE
  5
D4
330
58
100
AcDbEntity
  8
0
  6
Continuous
 62
     2
100
AcDbLine
 10
356.557376999995
 20
1839.5
 30
0.0
 11
354.557376999995
 21
1842.5
 31
0.0
  0
LINE
  5
D5
330
58
100
AcDbEntity
  8
0
  6
Continuous
 62
     2
100
AcDbLine
 10
354.557376999995
 20
1842.5
 30
0.0
 11
356.557376999995
 21
1845.5
 31
0.0
  0
LINE
  5
D6
330
58
100
AcDbEntity
  8
0
  6
Continuous
 62
     2
100
AcDbLine
 10
356.557376999995
 20
1845.5
 30
0.0
 11
354.557376999995
 21
1848.5
 31
0.0
  0
LINE
  5
D7
330
58
100
AcDbEntity
  8
0
  6
Continuous
 62
     2
100
AcDbLine
 10
354.557376999995
 20
1848.5
 30
0.0
 11
356.557376999995
 21
1851.5
 31
0.0
  0
LINE
  5
D8
330
58
100
AcDbEntity
  8
0
  6
Continuous
 62
     2
100
AcDbLine
 10
356.557376999995
 20
1851.5
 30
0.0
 11
354.557376999995
 21
1854.5
 31
0.0
  0
LINE
  5
D9
330
58
100
AcDbEntity
  8
0
  6
Continuous
 62
     2
100
AcDbLine
 10
354.557376999995
 20
1854.5
 30
0.0
 11
356.557376999995
 21
1857.5
 31
0.0
  0
LINE
  5
DA
330
58
100
AcDbEntity
  8
0
  6
Continuous
 62
     2
100
AcDbLine
 10
356.557376999995
 20
1857.5
 30
0.0
 11
354.557376999995
 21
1860.5
 31
0.0
  0
LINE
  5
DB
330
58
100
AcDbEntity
  8
0
  6
Continuous
 62
     2
100
AcDbLine
 10
354.557376999995
 20
1860.5
 30
0.0
 11
356.557376999995
 21
1863.5
 31
0.0
  0
LINE
  5
DC
330
58
100
AcDbEntity
  8
0
  6
Continuous
 62
     2
100
AcDbLine
 10
356.557376999995
 20
1863.5
 30
0.0
 11
354.557376999995
 21
1866.5
 31
0.0
  0
LINE
  5
DD
330
58
100
AcDbEntity
  8
0
  6
Continuous
 62
     2
100
AcDbLine
 10
354.557376999995
 20
1866.5
 30
0.0
 11
356.557376999995
 21
1869.5
 31
0.0
  0
LINE
  5
DE
330
58
100
AcDbEntity
  8
0
  6
Continuous
 62
     2
100
AcDbLine
 10
356.557376999995
 20
1869.5
 30
0.0
 11
354.557376999995
 21
1872.5
 31
0.0
  0
LINE
  5
DF
330
58
100
AcDbEntity
  8
0
  6
Continuous
 62
     2
100
AcDbLine
 10
354.557376999995
 20
1872.5
 30
0.0
 11
356.557376999995
 21
1875.5
 31
0.0
  0
LINE
  5
E0
330
58
100
AcDbEntity
  8
0
  6
Continuous
 62
     2
100
AcDbLine
 10
356.557376999995
 20
1875.5
 30
0.0
 11
354.557376999995
 21
1878.5
 31
0.0
  0
LINE
  5
E1
330
58
100
AcDbEntity
  8
0
  6
Continuous
 62
     2
100
AcDbLine
 10
354.557376999995
 20
1878.5
 30
0.0
 11
356.557376999995
 21
1881.5
 31
0.0
  0
LINE
  5
E2
330
58
100
AcDbEntity
  8
0
  6
Continuous
 62
     2
100
AcDbLine
 10
356.557376999995
 20
1881.5
 30
0.0
 11
354.557376999995
 21
1884.5
 31
0.0
  0
LINE
  5
E3
330
58
100
AcDbEntity
  8
0
  6
Continuous
 62
     2
100
AcDbLine
 10
354.557376999995
 20
1884.5
 30
0.0
 11
356.557376999995
 21
1887.5
 31
0.0
  0
LINE
  5
E4
330
58
100
AcDbEntity
  8
0
  6
Continuous
 62
     2
100
AcDbLine
 10
356.557376999995
 20
1887.5
 30
0.0
 11
354.557376999995
 21
1890.5
 31
0.0
  0
LINE
  5
E5
330
58
100
AcDbEntity
  8
0
  6
Continuous
 62
     7
100
AcDbLine
 10
426.999999999995
 20
1912.000001749939
 30
0.0
 11
356.2240425000357
 21
1912.000001749939
 31
0.0
  0
LINE
  5
E6
330
58
100
AcDbEntity
  8
0
  6
Continuous
 62
     7
100
AcDbLine
 10
426.999999999995
 20
1912.000001749939
 30
0.0
 11
426.999999999995
 21
1812.000001749939
 31
0.0
  0
LINE
  5
E7
330
58
100
AcDbEntity
  8
0
  6
Continuous
 62
     2
100
AcDbLine
 10
356.557376999995
 20
1905.5
 30
0.0
 11
354.557376999995
 21
1908.5
 31
0.0
  0
LINE
  5
E8
330
58
100
AcDbEntity
  8
0
  6
Continuous
 62
     2
100
AcDbLine
 10
354.557376999995
 20
1908.5
 30
0.0
 11
356.557376999995
 21
1911.5
 31
0.0
  0
LINE
  5
E9
330
58
100
AcDbEntity
  8
0
  6
Continuous
 62
     2
100
AcDbLine
 10
356.557376999995
 20
1899.5
 30
0.0
 11
354.557376999995
 21
1902.5
 31
0.0
  0
LINE
  5
EA
330
58
100
AcDbEntity
  8
0
  6
Continuous
 62
     2
100
AcDbLine
 10
354.557376999995
 20
1896.5
 30
0.0
 11
356.557376999995
 21
1899.5
 31
0.0
  0
LINE
  5
EB
330
58
100
AcDbEntity
  8
0
  6
Continuous
 62
     2
100
AcDbLine
 10
356.557376999995
 20
1893.5
 30
0.0
 11
354.557376999995
 21
1896.5
 31
0.0
  0
LINE
  5
EC
330
58
100
AcDbEntity
  8
0
  6
Continuous
 62
     2
100
AcDbLine
 10
354.557376999995
 20
1890.5
 30
0.0
 11
356.557376999995
 21
1893.5
 31
0.0
  0
LINE
  5
ED
330
58
100
AcDbEntity
  8
0
  6
Continuous
 62
     7
100
AcDbLine
 10
426.999999999995
 20
1812.000001749939
 30
0.0
 11
354.8907091667024
 21
1812.000001749939
 31
0.0
  0
LINE
  5
EE
330
58
100
AcDbEntity
  8
0
  6
Continuous
 62
     2
100
AcDbLine
 10
356.557376999995
 20
1815.5
 30
0.0
 11
354.557376999995
 21
1818.5
 31
0.0
  0
LINE
  5
EF
330
58
100
AcDbEntity
  8
0
  6
Continuous
 62
     2
100
AcDbLine
 10
354.557376999995
 20
1818.5
 30
0.0
 11
356.557376999995
 21
1821.5
 31
0.0
  0
LINE
  5
F0
330
58
100
AcDbEntity
  8
0
  6
Continuous
 62
     2
100
AcDbLine
 10
354.557376999995
 20
1824.5
 30
0.0
 11
356.557376999995
 21
1827.5
 31
0.0
  0
LINE
  5
F1
330
58
100
AcDbEntity
  8
0
  6
Continuous
 62
     2
100
AcDbLine
 10
346.557376999995
 20
1821.5
 30
0.0
 11
344.557376999995
 21
1818.5
 31
0.0
  0
LINE
  5
F2
330
58
100
AcDbEntity
  8
0
  6
Continuous
 62
     2
100
AcDbLine
 10
356.557376999995
 20
1821.5
 30
0.0
 11
354.557376999995
 21
1824.5
 31
0.0
  0
LINE
  5
F3
330
58
100
AcDbEntity
  8
0
  6
Continuous
 62
     7
100
AcDbLine
 10
268.999999999995
 20
1912.000001749939
 30
0.0
 11
268.999999999995
 21
1812.000001749939
 31
0.0
  0
LINE
  5
F4
330
58
100
AcDbEntity
  8
0
  6
Continuous
 62
     7
100
AcDbLine
 10
344.8907091667024
 20
1812.000001749939
 30
0.0
 11
268.999999999995
 21
1812.000001749939
 31
0.0
  0
LINE
  5
F5
330
58
100
AcDbEntity
  8
0
  6
Continuous
 62
     2
100
AcDbLine
 10
346.557376999995
 20
1857.5
 30
0.0
 11
344.557376999995
 21
1854.5
 31
0.0
  0
LINE
  5
F6
330
58
100
AcDbEntity
  8
0
  6
Continuous
 62
     2
100
AcDbLine
 10
344.557376999995
 20
1830.5
 30
0.0
 11
346.557376999995
 21
1827.5
 31
0.0
  0
LINE
  5
F7
330
58
100
AcDbEntity
  8
0
  6
Continuous
 62
     2
100
AcDbLine
 10
346.557376999995
 20
1827.5
 30
0.0
 11
344.557376999995
 21
1824.5
 31
0.0
  0
LINE
  5
F8
330
58
100
AcDbEntity
  8
0
  6
Continuous
 62
     2
100
AcDbLine
 10
346.557376999995
 20
1815.5
 30
0.0
 11
344.557376999995
 21
1812.5
 31
0.0
  0
LINE
  5
F9
330
58
100
AcDbEntity
  8
0
  6
Continuous
 62
     2
100
AcDbLine
 10
344.557376999995
 20
1812.5
 30
0.0
 11
344.8907091667024
 21
1812.000001749939
 31
0.0
  0
LINE
  5
FA
330
58
100
AcDbEntity
  8
0
  6
Continuous
 62
     2
100
AcDbLine
 10
346.557376999995
 20
1905.5
 30
0.0
 11
344.557376999995
 21
1902.5
 31
0.0
  0
LINE
  5
FB
330
58
100
AcDbEntity
  8
0
  6
Continuous
 62
     2
100
AcDbLine
 10
344.557376999995
 20
1902.5
 30
0.0
 11
346.557376999995
 21
1899.5
 31
0.0
  0
LINE
  5
FC
330
58
100
AcDbEntity
  8
0
  6
Continuous
 62
     2
100
AcDbLine
 10
346.557376999995
 20
1887.5
 30
0.0
 11
344.557376999995
 21
1884.5
 31
0.0
  0
LINE
  5
FD
330
58
100
AcDbEntity
  8
0
  6
Continuous
 62
     2
100
AcDbLine
 10
344.557376999995
 20
1878.5
 30
0.0
 11
346.557376999995
 21
1875.5
 31
0.0
  0
LINE
  5
FE
330
58
100
AcDbEntity
  8
0
  6
Continuous
 62
     2
100
AcDbLine
 10
346.557376999995
 20
1875.5
 30
0.0
 11
344.557376999995
 21
1872.5
 31
0.0
  0
LINE
  5
FF
330
58
100
AcDbEntity
  8
0
  6
Continuous
 62
     2
100
AcDbLine
 10
346.2240425000357
 20
1912.000001749939
 30
0.0
 11
346.557376999995
 21
1911.5
 31
0.0
  0
LINE
  5
100
330
58
100
AcDbEntity
  8
0
  6
Continuous
 62
     2
100
AcDbLine
 10
344.557376999995
 20
1884.5
 30
0.0
 11
346.557376999995
 21
1881.5
 31
0.0
  0
LINE
  5
101
330
58
100
AcDbEntity
  8
0
  6
Continuous
 62
     2
100
AcDbLine
 10
346.557376999995
 20
1881.5
 30
0.0
 11
344.557376999995
 21
1878.5
 31
0.0
  0
LINE
  5
102
330
58
100
AcDbEntity
  8
0
  6
Continuous
 62
     2
100
AcDbLine
 10
346.557376999995
 20
1893.5
 30
0.0
 11
344.557376999995
 21
1890.5
 31
0.0
  0
LINE
  5
103
330
58
100
AcDbEntity
  8
0
  6
Continuous
 62
     2
100
AcDbLine
 10
346.557376999995
 20
1899.5
 30
0.0
 11
344.557376999995
 21
1896.5
 31
0.0
  0
LINE
  5
104
330
58
100
AcDbEntity
  8
0
  6
Continuous
 62
     2
100
AcDbLine
 10
346.557376999995
 20
1911.5
 30
0.0
 11
344.557376999995
 21
1908.5
 31
0.0
  0
LINE
  5
105
330
58
100
AcDbEntity
  8
0
  6
Continuous
 62
     2
100
AcDbLine
 10
344.557376999995
 20
1896.5
 30
0.0
 11
346.557376999995
 21
1893.5
 31
0.0
  0
LINE
  5
106
330
58
100
AcDbEntity
  8
0
  6
Continuous
 62
     2
100
AcDbLine
 10
344.557376999995
 20
1908.5
 30
0.0
 11
346.557376999995
 21
1905.5
 31
0.0
  0
LINE
  5
107
330
58
100
AcDbEntity
  8
0
  6
Continuous
 62
     2
100
AcDbLine
 10
344.557376999995
 20
1824.5
 30
0.0
 11
346.557376999995
 21
1821.5
 31
0.0
  0
LINE
  5
108
330
58
100
AcDbEntity
  8
0
  6
Continuous
 62
     2
100
AcDbLine
 10
344.557376999995
 20
1872.5
 30
0.0
 11
346.557376999995
 21
1869.5
 31
0.0
  0
LINE
  5
109
330
58
100
AcDbEntity
  8
0
  6
Continuous
 62
     2
100
AcDbLine
 10
346.557376999995
 20
1869.5
 30
0.0
 11
344.557376999995
 21
1866.5
 31
0.0
  0
LINE
  5
10A
330
58
100
AcDbEntity
  8
0
  6
Continuous
 62
     2
100
AcDbLine
 10
344.557376999995
 20
1866.5
 30
0.0
 11
346.557376999995
 21
1863.5
 31
0.0
  0
LINE
  5
10B
330
58
100
AcDbEntity
  8
0
  6
Continuous
 62
     2
100
AcDbLine
 10
346.557376999995
 20
1863.5
 30
0.0
 11
344.557376999995
 21
1860.5
 31
0.0
  0
LINE
  5
10C
330
58
100
AcDbEntity
  8
0
  6
Continuous
 62
     2
100
AcDbLine
 10
344.557376999995
 20
1860.5
 30
0.0
 11
346.557376999995
 21
1857.5
 31
0.0
  0
LINE
  5
10D
330
58
100
AcDbEntity
  8
0
  6
Continuous
 62
     2
100
AcDbLine
 10
346.557376999995
 20
1851.5
 30
0.0
 11
344.557376999995
 21
1848.5
 31
0.0
  0
LINE
  5
10E
330
58
100
AcDbEntity
  8
0
  6
Continuous
 62
     2
100
AcDbLine
 10
344.557376999995
 20
1854.5
 30
0.0
 11
346.557376999995
 21
1851.5
 31
0.0
  0
LINE
  5
10F
330
58
100
AcDbEntity
  8
0
  6
Continuous
 62
     2
100
AcDbLine
 10
346.557376999995
 20
1845.5
 30
0.0
 11
344.557376999995
 21
1842.5
 31
0.0
  0
LINE
  5
110
330
58
100
AcDbEntity
  8
0
  6
Continuous
 62
     2
100
AcDbLine
 10
344.557376999995
 20
1848.5
 30
0.0
 11
346.557376999995
 21
1845.5
 31
0.0
  0
LINE
  5
111
330
58
100
AcDbEntity
  8
0
  6
Continuous
 62
     2
100
AcDbLine
 10
346.557376999995
 20
1839.5
 30
0.0
 11
344.557376999995
 21
1836.5
 31
0.0
  0
LINE
  5
112
330
58
100
AcDbEntity
  8
0
  6
Continuous
 62
     2
100
AcDbLine
 10
344.557376999995
 20
1842.5
 30
0.0
 11
346.557376999995
 21
1839.5
 31
0.0
  0
LINE
  5
113
330
58
100
AcDbEntity
  8
0
  6
Continuous
 62
     2
100
AcDbLine
 10
344.557376999995
 20
1836.5
 30
0.0
 11
346.557376999995
 21
1833.5
 31
0.0
  0
LINE
  5
114
330
58
100
AcDbEntity
  8
0
  6
Continuous
 62
     2
100
AcDbLine
 10
346.557376999995
 20
1833.5
 30
0.0
 11
344.557376999995
 21
1830.5
 31
0.0
  0
LINE
  5
115
330
58
100
AcDbEntity
  8
0
  6
Continuous
 62
     2
100
AcDbLine
 10
344.557376999995
 20
1818.5
 30
0.0
 11
346.557376999995
 21
1815.5
 31
0.0
  0
LINE
  5
116
330
58
100
AcDbEntity
  8
0
  6
Continuous
 62
     2
100
AcDbLine
 10
356.557376999995
 20
1911.5
 30
0.0
 11
356.2240425000357
 21
1912.000001749939
 31
0.0
  0
LINE
  5
117
330
58
100
AcDbEntity
  8
0
  6
Continuous
 62
     7
100
AcDbLine
 10
346.2240425000357
 20
1912.000001749939
 30
0.0
 11
268.999999999995
 21
1912.000001749939
 31
0.0
  0
ENDBLK
  5
5A
330
58
100
AcDbEntity
  8
0
100
AcDbBlockEnd
  0
BLOCK
  5
5D
330
5B
100
AcDbEntity
  8
0
100
AcDbBlockBegin
  2
SA_Links1
 70
     0
 10
369.0
 20
1862.0
 30
0.0
  3
SA_Links1
  1

  0
INSERT
  5
5C
330
5B
100
AcDbEntity
  8
0
100
AcDbBlockReference
  2
3240264_CD_80_100-select__4
 10
268.999999999995
 20
1812.000001749939
 30
0.0
  0
MTEXT
  5
118
330
5B
100
AcDbEntity
  8
1
 62
     6
100
AcDbMText
 10
347.999999999995
 20
1802.000001749939
 30
0.0
 40
10.0
 41
0.0
 71
     2
 72
     1
  1
 
  7
CONVERTER_11
 73
     1
 44
1.32052821128451
  0
DIMENSION
  5
123
330
5B
100
AcDbEntity
  8
1
100
AcDbDimension
  2
*D16
 10
426.999999999995
 20
1787.515108680176
 30
0.0
 11
349.277972438068
 21
1795.015108680176
 31
0.0
 70
    32
  1
2000
 71
     5
 42
-1.0
 53
0.00013888888889
  3
ME10_DIM_10
100
AcDbAlignedDimension
 13
268.999999999995
 23
1812.000001749939
 33
0.0
 14
426.999999999995
 24
1812.000001749939
 34
0.0
100
AcDbRotatedDimension
  0
ENDBLK
  5
5E
330
5B
100
AcDbEntity
  8
0
100
AcDbBlockEnd
  0
BLOCK
  5
60
330
5F
100
AcDbEntity
  8
0
100
AcDbBlockBegin
  2
3240264_CD_80_100-select__5
 70
     0
 10
-99.99999813896194
 20
1812.000001749939
 30
0.0
  3
3240264_CD_80_100-select__5
  1

  0
LINE
  5
124
330
5F
100
AcDbEntity
  8
0
  6
Continuous
 62
     2
100
AcDbLine
 10
-19.55737513896196
 20
1902.5
 30
0.0
 11
-17.55737513896199
 21
1905.5
 31
0.0
  0
LINE
  5
125
330
5F
100
AcDbEntity
  8
0
  6
Continuous
 62
     2
100
AcDbLine
 10
-19.55737513896196
 20
1812.5
 30
0.0
 11
-17.55737513896197
 21
1815.5
 31
0.0
  0
LINE
  5
126
330
5F
100
AcDbEntity
  8
0
  6
Continuous
 62
     2
100
AcDbLine
 10
-27.55737513896197
 20
1815.5
 30
0.0
 11
-29.55737513896196
 21
1812.5
 31
0.0
  0
LINE
  5
127
330
5F
100
AcDbEntity
  8
0
  6
Continuous
 62
     2
100
AcDbLine
 10
-29.55737513896196
 20
1812.5
 30
0.0
 11
-29.22404297225461
 21
1812.000001749939
 31
0.0
  0
LINE
  5
128
330
5F
100
AcDbEntity
  8
0
  6
Continuous
 62
     7
100
AcDbLine
 10
-99.99999813896194
 20
1812.000001749939
 30
0.0
 11
-99.99999813896194
 21
1912.000001749939
 31
0.0
  0
LINE
  5
129
330
5F
100
AcDbEntity
  8
0
  6
Continuous
 62
     7
100
AcDbLine
 10
-19.22404297225461
 20
1812.000001749939
 30
0.0
 11
58.00000186103806
 21
1812.000001749939
 31
0.0
  0
LINE
  5
12A
330
5F
100
AcDbEntity
  8
0
  6
Continuous
 62
     2
100
AcDbLine
 10
-19.22404297225461
 20
1812.000001749939
 30
0.0
 11
-19.55737513896196
 21
1812.5
 31
0.0
  0
LINE
  5
12B
330
5F
100
AcDbEntity
  8
0
  6
Continuous
 62
     7
100
AcDbLine
 10
-99.99999813896194
 20
1812.000001749939
 30
0.0
 11
-29.22404297225461
 21
1812.000001749939
 31
0.0
  0
LINE
  5
12C
330
5F
100
AcDbEntity
  8
0
  6
Continuous
 62
     2
100
AcDbLine
 10
-17.55737513896197
 20
1815.5
 30
0.0
 11
-19.55737513896196
 21
1818.5
 31
0.0
  0
LINE
  5
12D
330
5F
100
AcDbEntity
  8
0
  6
Continuous
 62
     2
100
AcDbLine
 10
-29.55737513896196
 20
1818.5
 30
0.0
 11
-27.55737513896197
 21
1815.5
 31
0.0
  0
LINE
  5
12E
330
5F
100
AcDbEntity
  8
0
  6
Continuous
 62
     2
100
AcDbLine
 10
-29.55737513896196
 20
1902.5
 30
0.0
 11
-27.55737513896197
 21
1899.5
 31
0.0
  0
LINE
  5
12F
330
5F
100
AcDbEntity
  8
0
  6
Continuous
 62
     2
100
AcDbLine
 10
-27.89070963892127
 20
1912.000001749939
 30
0.0
 11
-27.55737513896196
 21
1911.5
 31
0.0
  0
LINE
  5
130
330
5F
100
AcDbEntity
  8
0
  6
Continuous
 62
     2
100
AcDbLine
 10
-27.55737513896196
 20
1911.5
 30
0.0
 11
-29.55737513896196
 21
1908.5
 31
0.0
  0
LINE
  5
131
330
5F
100
AcDbEntity
  8
0
  6
Continuous
 62
     2
100
AcDbLine
 10
-29.55737513896196
 20
1908.5
 30
0.0
 11
-27.55737513896199
 21
1905.5
 31
0.0
  0
LINE
  5
132
330
5F
100
AcDbEntity
  8
0
  6
Continuous
 62
     2
100
AcDbLine
 10
-27.55737513896199
 20
1905.5
 30
0.0
 11
-29.55737513896196
 21
1902.5
 31
0.0
  0
LINE
  5
133
330
5F
100
AcDbEntity
  8
0
  6
Continuous
 62
     2
100
AcDbLine
 10
-27.55737513896197
 20
1839.5
 30
0.0
 11
-29.55737513896197
 21
1836.5
 31
0.0
  0
LINE
  5
134
330
5F
100
AcDbEntity
  8
0
  6
Continuous
 62
     2
100
AcDbLine
 10
-29.55737513896197
 20
1896.5
 30
0.0
 11
-27.55737513896196
 21
1893.5
 31
0.0
  0
LINE
  5
135
330
5F
100
AcDbEntity
  8
0
  6
Continuous
 62
     2
100
AcDbLine
 10
-27.55737513896196
 20
1893.5
 30
0.0
 11
-29.557375138962
 21
1890.5
 31
0.0
  0
LINE
  5
136
330
5F
100
AcDbEntity
  8
0
  6
Continuous
 62
     2
100
AcDbLine
 10
-29.557375138962
 20
1890.5
 30
0.0
 11
-27.55737513896197
 21
1887.5
 31
0.0
  0
LINE
  5
137
330
5F
100
AcDbEntity
  8
0
  6
Continuous
 62
     2
100
AcDbLine
 10
-27.55737513896197
 20
1887.5
 30
0.0
 11
-29.55737513896197
 21
1884.5
 31
0.0
  0
LINE
  5
138
330
5F
100
AcDbEntity
  8
0
  6
Continuous
 62
     2
100
AcDbLine
 10
-29.55737513896197
 20
1884.5
 30
0.0
 11
-27.55737513896196
 21
1881.5
 31
0.0
  0
LINE
  5
139
330
5F
100
AcDbEntity
  8
0
  6
Continuous
 62
     2
100
AcDbLine
 10
-27.55737513896196
 20
1881.5
 30
0.0
 11
-29.55737513896199
 21
1878.5
 31
0.0
  0
LINE
  5
13A
330
5F
100
AcDbEntity
  8
0
  6
Continuous
 62
     2
100
AcDbLine
 10
-29.55737513896199
 20
1878.5
 30
0.0
 11
-27.55737513896197
 21
1875.5
 31
0.0
  0
LINE
  5
13B
330
5F
100
AcDbEntity
  8
0
  6
Continuous
 62
     2
100
AcDbLine
 10
-27.55737513896197
 20
1875.5
 30
0.0
 11
-29.55737513896197
 21
1872.5
 31
0.0
  0
LINE
  5
13C
330
5F
100
AcDbEntity
  8
0
  6
Continuous
 62
     2
100
AcDbLine
 10
-29.55737513896197
 20
1872.5
 30
0.0
 11
-27.55737513896197
 21
1869.5
 31
0.0
  0
LINE
  5
13D
330
5F
100
AcDbEntity
  8
0
  6
Continuous
 62
     2
100
AcDbLine
 10
-27.55737513896197
 20
1869.5
 30
0.0
 11
-29.55737513896199
 21
1866.5
 31
0.0
  0
LINE
  5
13E
330
5F
100
AcDbEntity
  8
0
  6
Continuous
 62
     2
100
AcDbLine
 10
-29.55737513896199
 20
1866.5
 30
0.0
 11
-27.55737513896197
 21
1863.5
 31
0.0
  0
LINE
  5
13F
330
5F
100
AcDbEntity
  8
0
  6
Continuous
 62
     2
100
AcDbLine
 10
-27.55737513896197
 20
1863.5
 30
0.0
 11
-29.55737513896197
 21
1860.5
 31
0.0
  0
LINE
  5
140
330
5F
100
AcDbEntity
  8
0
  6
Continuous
 62
     2
100
AcDbLine
 10
-29.55737513896197
 20
1860.5
 30
0.0
 11
-27.55737513896197
 21
1857.5
 31
0.0
  0
LINE
  5
141
330
5F
100
AcDbEntity
  8
0
  6
Continuous
 62
     2
100
AcDbLine
 10
-27.55737513896197
 20
1857.5
 30
0.0
 11
-29.55737513896197
 21
1854.5
 31
0.0
  0
LINE
  5
142
330
5F
100
AcDbEntity
  8
0
  6
Continuous
 62
     2
100
AcDbLine
 10
-29.55737513896197
 20
1854.5
 30
0.0
 11
-27.55737513896197
 21
1851.5
 31
0.0
  0
LINE
  5
143
330
5F
100
AcDbEntity
  8
0
  6
Continuous
 62
     2
100
AcDbLine
 10
-27.55737513896197
 20
1851.5
 30
0.0
 11
-29.55737513896197
 21
1848.5
 31
0.0
  0
LINE
  5
144
330
5F
100
AcDbEntity
  8
0
  6
Continuous
 62
     2
100
AcDbLine
 10
-29.55737513896197
 20
1848.5
 30
0.0
 11
-27.55737513896197
 21
1845.5
 31
0.0
  0
LINE
  5
145
330
5F
100
AcDbEntity
  8
0
  6
Continuous
 62
     2
100
AcDbLine
 10
-27.55737513896197
 20
1845.5
 30
0.0
 11
-29.55737513896197
 21
1842.5
 31
0.0
  0
LINE
  5
146
330
5F
100
AcDbEntity
  8
0
  6
Continuous
 62
     2
100
AcDbLine
 10
-29.55737513896197
 20
1842.5
 30
0.0
 11
-27.55737513896197
 21
1839.5
 31
0.0
  0
LINE
  5
147
330
5F
100
AcDbEntity
  8
0
  6
Continuous
 62
     2
100
AcDbLine
 10
-29.55737513896197
 20
1836.5
 30
0.0
 11
-27.55737513896197
 21
1833.5
 31
0.0
  0
LINE
  5
148
330
5F
100
AcDbEntity
  8
0
  6
Continuous
 62
     2
100
AcDbLine
 10
-27.55737513896197
 20
1899.5
 30
0.0
 11
-29.55737513896197
 21
1896.5
 31
0.0
  0
LINE
  5
149
330
5F
100
AcDbEntity
  8
0
  6
Continuous
 62
     7
100
AcDbLine
 10
-99.99999813896194
 20
1912.000001749939
 30
0.0
 11
-27.89070963892127
 21
1912.000001749939
 31
0.0
  0
LINE
  5
14A
330
5F
100
AcDbEntity
  8
0
  6
Continuous
 62
     2
100
AcDbLine
 10
-19.55737513896196
 20
1854.5
 30
0.0
 11
-17.55737513896199
 21
1857.5
 31
0.0
  0
LINE
  5
14B
330
5F
100
AcDbEntity
  8
0
  6
Continuous
 62
     2
100
AcDbLine
 10
-29.55737513896196
 20
1830.5
 30
0.0
 11
-27.55737513896197
 21
1827.5
 31
0.0
  0
LINE
  5
14C
330
5F
100
AcDbEntity
  8
0
  6
Continuous
 62
     2
100
AcDbLine
 10
-19.55737513896196
 20
1878.5
 30
0.0
 11
-17.55737513896199
 21
1881.5
 31
0.0
  0
LINE
  5
14D
330
5F
100
AcDbEntity
  8
0
  6
Continuous
 62
     2
100
AcDbLine
 10
-19.55737513896196
 20
1848.5
 30
0.0
 11
-17.55737513896196
 21
1851.5
 31
0.0
  0
LINE
  5
14E
330
5F
100
AcDbEntity
  8
0
  6
Continuous
 62
     2
100
AcDbLine
 10
-19.55737513896196
 20
1836.5
 30
0.0
 11
-17.55737513896196
 21
1839.5
 31
0.0
  0
LINE
  5
14F
330
5F
100
AcDbEntity
  8
0
  6
Continuous
 62
     2
100
AcDbLine
 10
-17.55737513896197
 20
1827.5
 30
0.0
 11
-19.55737513896196
 21
1830.5
 31
0.0
  0
LINE
  5
150
330
5F
100
AcDbEntity
  8
0
  6
Continuous
 62
     2
100
AcDbLine
 10
-17.55737513896196
 20
1875.5
 30
0.0
 11
-19.55737513896196
 21
1878.5
 31
0.0
  0
LINE
  5
151
330
5F
100
AcDbEntity
  8
0
  6
Continuous
 62
     2
100
AcDbLine
 10
-17.55737513896197
 20
1833.5
 30
0.0
 11
-19.55737513896196
 21
1836.5
 31
0.0
  0
LINE
  5
152
330
5F
100
AcDbEntity
  8
0
  6
Continuous
 62
     2
100
AcDbLine
 10
-17.55737513896196
 20
1839.5
 30
0.0
 11
-19.55737513896196
 21
1842.5
 31
0.0
  0
LINE
  5
153
330
5F
100
AcDbEntity
  8
0
  6
Continuous
 62
     2
100
AcDbLine
 10
-19.55737513896196
 20
1842.5
 30
0.0
 11
-17.55737513896199
 21
1845.5
 31
0.0
  0
LINE
  5
154
330
5F
100
AcDbEntity
  8
0
  6
Continuous
 62
     2
100
AcDbLine
 10
-17.55737513896199
 20
1845.5
 30
0.0
 11
-19.55737513896196
 21
1848.5
 31
0.0
  0
LINE
  5
155
330
5F
100
AcDbEntity
  8
0
  6
Continuous
 62
     2
100
AcDbLine
 10
-17.55737513896196
 20
1851.5
 30
0.0
 11
-19.55737513896196
 21
1854.5
 31
0.0
  0
LINE
  5
156
330
5F
100
AcDbEntity
  8
0
  6
Continuous
 62
     2
100
AcDbLine
 10
-17.55737513896199
 20
1881.5
 30
0.0
 11
-19.55737513896196
 21
1884.5
 31
0.0
  0
LINE
  5
157
330
5F
100
AcDbEntity
  8
0
  6
Continuous
 62
     2
100
AcDbLine
 10
-19.55737513896196
 20
1884.5
 30
0.0
 11
-17.55737513896196
 21
1887.5
 31
0.0
  0
LINE
  5
158
330
5F
100
AcDbEntity
  8
0
  6
Continuous
 62
     2
100
AcDbLine
 10
-19.55737513896196
 20
1872.5
 30
0.0
 11
-17.55737513896196
 21
1875.5
 31
0.0
  0
LINE
  5
159
330
5F
100
AcDbEntity
  8
0
  6
Continuous
 62
     2
100
AcDbLine
 10
-17.55737513896199
 20
1869.5
 30
0.0
 11
-19.55737513896196
 21
1872.5
 31
0.0
  0
LINE
  5
15A
330
5F
100
AcDbEntity
  8
0
  6
Continuous
 62
     2
100
AcDbLine
 10
-19.55737513896196
 20
1866.5
 30
0.0
 11
-17.55737513896199
 21
1869.5
 31
0.0
  0
LINE
  5
15B
330
5F
100
AcDbEntity
  8
0
  6
Continuous
 62
     2
100
AcDbLine
 10
-17.55737513896196
 20
1863.5
 30
0.0
 11
-19.55737513896196
 21
1866.5
 31
0.0
  0
LINE
  5
15C
330
5F
100
AcDbEntity
  8
0
  6
Continuous
 62
     2
100
AcDbLine
 10
-19.55737513896196
 20
1860.5
 30
0.0
 11
-17.55737513896196
 21
1863.5
 31
0.0
  0
LINE
  5
15D
330
5F
100
AcDbEntity
  8
0
  6
Continuous
 62
     2
100
AcDbLine
 10
-17.55737513896199
 20
1857.5
 30
0.0
 11
-19.55737513896196
 21
1860.5
 31
0.0
  0
LINE
  5
15E
330
5F
100
AcDbEntity
  8
0
  6
Continuous
 62
     2
100
AcDbLine
 10
-19.55737513896196
 20
1830.5
 30
0.0
 11
-17.55737513896197
 21
1833.5
 31
0.0
  0
LINE
  5
15F
330
5F
100
AcDbEntity
  8
0
  6
Continuous
 62
     2
100
AcDbLine
 10
-27.55737513896197
 20
1833.5
 30
0.0
 11
-29.55737513896196
 21
1830.5
 31
0.0
  0
LINE
  5
160
330
5F
100
AcDbEntity
  8
0
  6
Continuous
 62
     2
100
AcDbLine
 10
-17.55737513896197
 20
1821.5
 30
0.0
 11
-19.55737513896196
 21
1824.5
 31
0.0
  0
LINE
  5
161
330
5F
100
AcDbEntity
  8
0
  6
Continuous
 62
     2
100
AcDbLine
 10
-29.55737513896196
 20
1824.5
 30
0.0
 11
-27.55737513896197
 21
1821.5
 31
0.0
  0
LINE
  5
162
330
5F
100
AcDbEntity
  8
0
  6
Continuous
 62
     2
100
AcDbLine
 10
-17.55737513896196
 20
1887.5
 30
0.0
 11
-19.55737513896193
 21
1890.5
 31
0.0
  0
LINE
  5
163
330
5F
100
AcDbEntity
  8
0
  6
Continuous
 62
     2
100
AcDbLine
 10
-19.55737513896196
 20
1818.5
 30
0.0
 11
-17.55737513896197
 21
1821.5
 31
0.0
  0
LINE
  5
164
330
5F
100
AcDbEntity
  8
0
  6
Continuous
 62
     2
100
AcDbLine
 10
-27.55737513896197
 20
1821.5
 30
0.0
 11
-29.55737513896196
 21
1818.5
 31
0.0
  0
LINE
  5
165
330
5F
100
AcDbEntity
  8
0
  6
Continuous
 62
     2
100
AcDbLine
 10
-19.55737513896196
 20
1824.5
 30
0.0
 11
-17.55737513896197
 21
1827.5
 31
0.0
  0
LINE
  5
166
330
5F
100
AcDbEntity
  8
0
  6
Continuous
 62
     2
100
AcDbLine
 10
-27.55737513896197
 20
1827.5
 30
0.0
 11
-29.55737513896196
 21
1824.5
 31
0.0
  0
LINE
  5
167
330
5F
100
AcDbEntity
  8
0
  6
Continuous
 62
     7
100
AcDbLine
 10
58.00000186103806
 20
1812.000001749939
 30
0.0
 11
58.00000186103806
 21
1912.000001749939
 31
0.0
  0
LINE
  5
168
330
5F
100
AcDbEntity
  8
0
  6
Continuous
 62
     2
100
AcDbLine
 10
-17.55737513896199
 20
1905.5
 30
0.0
 11
-19.55737513896196
 21
1908.5
 31
0.0
  0
LINE
  5
169
330
5F
100
AcDbEntity
  8
0
  6
Continuous
 62
     2
100
AcDbLine
 10
-17.55737513896196
 20
1899.5
 30
0.0
 11
-19.55737513896196
 21
1902.5
 31
0.0
  0
LINE
  5
16A
330
5F
100
AcDbEntity
  8
0
  6
Continuous
 62
     2
100
AcDbLine
 10
-19.55737513896196
 20
1896.5
 30
0.0
 11
-17.55737513896196
 21
1899.5
 31
0.0
  0
LINE
  5
16B
330
5F
100
AcDbEntity
  8
0
  6
Continuous
 62
     2
100
AcDbLine
 10
-17.55737513896199
 20
1893.5
 30
0.0
 11
-19.55737513896196
 21
1896.5
 31
0.0
  0
LINE
  5
16C
330
5F
100
AcDbEntity
  8
0
  6
Continuous
 62
     2
100
AcDbLine
 10
-19.55737513896193
 20
1890.5
 30
0.0
 11
-17.55737513896199
 21
1893.5
 31
0.0
  0
LINE
  5
16D
330
5F
100
AcDbEntity
  8
0
  6
Continuous
 62
     2
100
AcDbLine
 10
-19.55737513896196
 20
1908.5
 30
0.0
 11
-17.55737513896196
 21
1911.5
 31
0.0
  0
LINE
  5
16E
330
5F
100
AcDbEntity
  8
0
  6
Continuous
 62
     2
100
AcDbLine
 10
-17.55737513896196
 20
1911.5
 30
0.0
 11
-17.89070963892127
 21
1912.000001749939
 31
0.0
  0
LINE
  5
16F
330
5F
100
AcDbEntity
  8
0
  6
Continuous
 62
     7
100
AcDbLine
 10
-17.89070963892127
 20
1912.000001749939
 30
0.0
 11
58.00000186103806
 21
1912.000001749939
 31
0.0
  0
ENDBLK
  5
61
330
5F
100
AcDbEntity
  8
0
100
AcDbBlockEnd
  0
BLOCK
  5
64
330
62
100
AcDbEntity
  8
0
100
AcDbBlockBegin
  2
SA_Rechts1
 70
     0
 10
0.00000186103307
 20
1862.0
 30
0.0
  3
SA_Rechts1
  1

  0
INSERT
  5
63
330
62
100
AcDbEntity
  8
0
100
AcDbBlockReference
  2
3240264_CD_80_100-select__5
 10
-99.99999813896194
 20
1812.000001749939
 30
0.0
  0
MTEXT
  5
170
330
62
100
AcDbEntity
  8
1
 62
     6
100
AcDbMText
 10
-20.99999813896194
 20
1802.000001749939
 30
0.0
 40
10.0
 41
0.0
 71
     2
 72
     1
  1
 
  7
CONVERTER_11
 73
     1
 44
1.32052821128451
  0
ENDBLK
  5
65
330
62
100
AcDbEntity
  8
0
100
AcDbBlockEnd
  0
BLOCK
  5
67
330
66
100
AcDbEntity
  8
0
100
AcDbBlockBegin
  2
3240264_CD_80_100-select__6
 70
     0
 10
112.0000022221673
 20
1812.000001749939
 30
0.0
  3
3240264_CD_80_100-select__6
  1

  0
LINE
  5
171
330
66
100
AcDbEntity
  8
0
  6
Continuous
 62
     7
100
AcDbLine
 10
192.0000022221673
 20
1812.000001749939
 30
0.0
 11
192.0000022221673
 21
1912.000001749939
 31
0.0
  0
LINE
  5
172
330
66
100
AcDbEntity
  8
0
  6
Continuous
 62
     7
100
AcDbLine
 10
192.0000022221673
 20
1912.000001749939
 30
0.0
 11
112.0000022221673
 21
1912.000001749939
 31
0.0
  0
LINE
  5
173
330
66
100
AcDbEntity
  8
0
  6
Continuous
 62
     7
100
AcDbLine
 10
112.0000022221673
 20
1912.000001749939
 30
0.0
 11
112.0000022221673
 21
1812.000001749939
 31
0.0
  0
LINE
  5
174
330
66
100
AcDbEntity
  8
0
  6
Continuous
 62
     7
100
AcDbLine
 10
112.0000022221673
 20
1812.000001749939
 30
0.0
 11
192.0000022221673
 21
1812.000001749939
 31
0.0
  0
ENDBLK
  5
68
330
66
100
AcDbEntity
  8
0
100
AcDbBlockEnd
  0
BLOCK
  5
6B
330
69
100
AcDbEntity
  8
0
100
AcDbBlockBegin
  2
Vordans1
 70
     0
 10
152.0000009536738
 20
1862.0
 30
0.0
  3
Vordans1
  1

  0
INSERT
  5
6A
330
69
100
AcDbEntity
  8
0
100
AcDbBlockReference
  2
3240264_CD_80_100-select__6
 10
112.0000022221673
 20
1812.000001749939
 30
0.0
  0
MTEXT
  5
175
330
69
100
AcDbEntity
  8
1
 62
     6
100
AcDbMText
 10
152.0000009536743
 20
1802.000000953674
 30
0.0
 40
10.0
 41
0.0
 71
     2
 72
     1
  1
 
  7
CONVERTER_11
 73
     1
 44
1.32052821128451
  0
DIMENSION
  5
180
330
69
100
AcDbEntity
  8
1
100
AcDbDimension
  2
*D17
 10
218.6155661798577
 20
1812.000001749939
 30
0.0
 11
211.1155661798577
 21
1865.270807963896
 31
0.0
 70
    32
  1
<>
 71
     5
 42
-1.0
 53
90.0
  3
ME10_DIM_11
100
AcDbAlignedDimension
 13
192.0000022221673
 23
1912.000001749939
 33
0.0
 14
192.0000022221673
 24
1812.000001749939
 34
0.0
 50
90.0
100
AcDbRotatedDimension
  0
DIMENSION
  5
18B
330
69
100
AcDbEntity
  8
1
100
AcDbDimension
  2
*D18
 10
192.0000022221673
 20
1787.515108680176
 30
0.0
 11
151.0019146287973
 21
1795.015108680176
 31
0.0
 70
    33
  1
<>
 71
     5
 42
-1.0
 53
0.00013888888889
  3
ME10_DIM_12
100
AcDbAlignedDimension
 13
112.0000022221673
 23
1812.000001749939
 33
0.0
 14
192.0000022221673
 24
1812.000001749939
 34
0.0
  0
ENDBLK
  5
6C
330
69
100
AcDbEntity
  8
0
100
AcDbBlockEnd
  0
BLOCK
  5
6E
330
6D
100
AcDbEntity
  8
0
100
AcDbBlockBegin
  2
_rahmen
 70
     0
 10
310.6677922098036
 20
692.495069555058
 30
0.0
  3
_rahmen
  1

  0
POINT
  5
18C
330
6D
100
AcDbEntity
  8
1
 62
     3
 60
     1
100
AcDbPoint
 10
247.1677922098059
 20
718.7450695550574
 30
0.0
  0
LINE
  5
18D
102
{ACAD_REACTORS
330
380
330
380
330
381
330
381
102
}
330
6D
100
AcDbEntity
  8
0
  6
Continuous
 62
     2
100
AcDbLine
 10
195.6101190398845
 20
705.0035729564245
 30
0.0
 11
195.6101190398845
 21
705.724661391799
 31
0.0
  0
LINE
  5
18E
102
{ACAD_REACTORS
330
380
330
380
330
381
330
381
102
}
330
6D
100
AcDbEntity
  8
0
  6
Continuous
 62
     2
100
AcDbLine
 10
195.6101190398845
 20
704.2103756775131
 30
0.0
 11
195.6101190398845
 21
703.4892872421384
 31
0.0
  0
LINE
  5
18F
102
{ACAD_REACTORS
330
382
330
382
330
383
330
383
102
}
330
6D
100
AcDbEntity
  8
0
  6
Continuous
 62
     2
100
AcDbLine
 10
208.2820563426039
 20
705.2198994870365
 30
0.0
 11
209.1941549372883
 21
705.2198994870365
 31
0.0
  0
LINE
  5
190
102
{ACAD_REACTORS
330
382
330
382
330
383
330
383
102
}
330
6D
100
AcDbEntity
  8
0
  6
Continuous
 62
     2
100
AcDbLine
 10
208.9181367913323
 20
704.2103756775126
 30
0.0
 11
208.9181367913323
 21
703.489287242138
 31
0.0
  0
LINE
  5
191
102
{ACAD_REACTORS
330
38C
330
38C
330
38D
330
38D
102
}
330
6D
100
AcDbEntity
  8
0
  6
Continuous
 62
     2
100
AcDbLine
 10
207.3803214067209
 20
706.1212600312405
 30
0.0
 11
208.5356545033657
 21
707.4277550674182
 31
0.0
  0
LINE
  5
192
102
{ACAD_REACTORS
330
38C
330
38C
330
38D
330
38D
102
}
330
6D
100
AcDbEntity
  8
0
  6
Continuous
 62
     2
100
AcDbLine
 10
207.4591837341364
 20
708.6450695550514
 30
0.0
 11
208.5356545033657
 21
707.4277550674182
 31
0.0
  0
LINE
  5
193
102
{ACAD_REACTORS
330
38C
330
38C
330
38D
330
38D
102
}
330
6D
100
AcDbEntity
  8
0
  6
Continuous
 62
     2
100
AcDbLine
 10
209.6121252725942
 20
708.6450695550514
 30
0.0
 11
210.7714014856084
 21
708.6450695550514
 31
0.0
  0
LINE
  5
194
102
{ACAD_REACTORS
330
38C
330
38C
330
38D
330
38D
102
}
330
6D
100
AcDbEntity
  8
0
  6
Continuous
 62
     2
100
AcDbLine
 10
208.5395976197359
 20
706.1212600312405
 30
0.0
 11
209.1152926098728
 21
706.7722780356155
 31
0.0
  0
LINE
  5
195
102
{ACAD_REACTORS
330
38C
330
38C
330
38D
330
38D
102
}
330
6D
100
AcDbEntity
  8
0
  6
Continuous
 62
     2
100
AcDbLine
 10
208.5395976197359
 20
706.1212600312405
 30
0.0
 11
207.3803214067209
 21
706.1212600312405
 31
0.0
  0
LINE
  5
196
102
{ACAD_REACTORS
330
38E
330
38E
330
38F
330
38F
102
}
330
6D
100
AcDbEntity
  8
0
  6
Continuous
 62
     2
100
AcDbLine
 10
207.2817434974507
 20
706.1212600312405
 30
0.0
 11
206.2565332410433
 21
706.1212600312405
 31
0.0
  0
LINE
  5
197
102
{ACAD_REACTORS
330
390
330
390
330
391
330
391
102
}
330
6D
100
AcDbEntity
  8
0
  6
Continuous
 62
     2
100
AcDbLine
 10
205.5391947219069
 20
704.3545933645877
 30
0.0
 11
205.2911242779481
 21
704.9891511877172
 31
0.0
  0
LINE
  5
198
102
{ACAD_REACTORS
330
390
330
390
330
391
330
391
102
}
330
6D
100
AcDbEntity
  8
0
  6
Continuous
 62
     2
100
AcDbLine
 10
205.0430538339875
 20
704.3545933645877
 30
0.0
 11
205.5391947219069
 21
704.3545933645877
 31
0.0
  0
LINE
  5
199
102
{ACAD_REACTORS
330
390
330
390
330
391
330
391
102
}
330
6D
100
AcDbEntity
  8
0
  6
Continuous
 62
     2
100
AcDbLine
 10
203.6231860531
 20
703.3450695550633
 30
0.0
 11
204.6483963095074
 21
703.3450695550633
 31
0.0
  0
LINE
  5
19A
102
{ACAD_REACTORS
330
390
330
390
330
391
330
391
102
}
330
6D
100
AcDbEntity
  8
0
  6
Continuous
 62
     2
100
AcDbLine
 10
204.778519149744
 20
705.8688790788742
 30
0.0
 11
205.8037294061513
 21
705.8688790788742
 31
0.0
  0
LINE
  5
19B
102
{ACAD_REACTORS
330
390
330
390
330
391
330
391
102
}
330
6D
100
AcDbEntity
  8
0
  6
Continuous
 62
     2
100
AcDbLine
 10
205.8037294061513
 20
705.8688790788742
 30
0.0
 11
206.9590625027962
 21
703.3450695550633
 31
0.0
  0
LINE
  5
19C
102
{ACAD_REACTORS
330
390
330
390
330
391
330
391
102
}
330
6D
100
AcDbEntity
  8
0
  6
Continuous
 62
     2
100
AcDbLine
 10
205.933852246388
 20
703.3450695550633
 30
0.0
 11
205.759075342689
 21
703.7921443849955
 31
0.0
  0
LINE
  5
19D
102
{ACAD_REACTORS
330
392
330
392
330
393
330
393
102
}
330
6D
100
AcDbEntity
  8
0
  6
Continuous
 62
     2
100
AcDbLine
 10
202.5104479525152
 20
703.3450695550633
 30
0.0
 11
203.4962270452148
 21
703.3450695550633
 31
0.0
  0
LINE
  5
19E
102
{ACAD_REACTORS
330
392
330
392
330
393
330
393
102
}
330
6D
100
AcDbEntity
  8
0
  6
Continuous
 62
     2
100
AcDbLine
 10
202.5104479525152
 20
705.2198994870365
 30
0.0
 11
202.5104479525152
 21
703.3450695550633
 31
0.0
  0
LINE
  5
19F
102
{ACAD_REACTORS
330
392
330
392
330
393
330
393
102
}
330
6D
100
AcDbEntity
  8
0
  6
Continuous
 62
     2
100
AcDbLine
 10
201.8401181694783
 20
705.8688790788742
 30
0.0
 11
201.8401181694783
 21
705.2198994870365
 31
0.0
  0
LINE
  5
1A0
102
{ACAD_REACTORS
330
394
330
394
330
395
330
395
102
}
330
6D
100
AcDbEntity
  8
0
  6
Continuous
 62
     2
100
AcDbLine
 10
203.0626089806954
 20
706.1212600312405
 30
0.0
 11
204.048388073395
 21
706.1212600312405
 31
0.0
  0
LINE
  5
1A1
102
{ACAD_REACTORS
330
394
330
394
330
395
330
395
102
}
330
6D
100
AcDbEntity
  8
0
  6
Continuous
 62
     2
100
AcDbLine
 10
205.0735983298033
 20
707.5634369019892
 30
0.0
 11
204.048388073395
 21
708.6450695550514
 31
0.0
  0
LINE
  5
1A2
102
{ACAD_REACTORS
330
394
330
394
330
395
330
395
102
}
330
6D
100
AcDbEntity
  8
0
  6
Continuous
 62
     2
100
AcDbLine
 10
206.0593774225029
 20
708.6450695550514
 30
0.0
 11
205.0735983298033
 21
708.6450695550514
 31
0.0
  0
LINE
  5
1A3
102
{ACAD_REACTORS
330
394
330
394
330
395
330
395
102
}
330
6D
100
AcDbEntity
  8
0
  6
Continuous
 62
     2
100
AcDbLine
 10
206.0593774225029
 20
706.1212600312405
 30
0.0
 11
206.0593774225029
 21
708.6450695550514
 31
0.0
  0
LINE
  5
1A4
102
{ACAD_REACTORS
330
394
330
394
330
395
330
395
102
}
330
6D
100
AcDbEntity
  8
0
  6
Continuous
 62
     2
100
AcDbLine
 10
205.0735983298033
 20
706.1212600312405
 30
0.0
 11
206.0593774225029
 21
706.1212600312405
 31
0.0
  0
LINE
  5
1A5
102
{ACAD_REACTORS
330
394
330
394
330
395
330
395
102
}
330
6D
100
AcDbEntity
  8
0
  6
Continuous
 62
     2
100
AcDbLine
 10
204.048388073395
 20
707.2028926843021
 30
0.0
 11
205.0735983298033
 21
706.1212600312405
 31
0.0
  0
LINE
  5
1A6
102
{ACAD_REACTORS
330
396
330
396
330
397
330
397
102
}
330
6D
100
AcDbEntity
  8
0
  6
Continuous
 62
     2
100
AcDbLine
 10
200.7360455856547
 20
704.7872464258121
 30
0.0
 11
199.7108353292474
 21
705.8688790788742
 31
0.0
  0
LINE
  5
1A7
102
{ACAD_REACTORS
330
396
330
396
330
397
330
397
102
}
330
6D
100
AcDbEntity
  8
0
  6
Continuous
 62
     2
100
AcDbLine
 10
200.7360455856547
 20
705.8688790788742
 30
0.0
 11
200.7360455856547
 21
704.7872464258121
 31
0.0
  0
LINE
  5
1A8
102
{ACAD_REACTORS
330
396
330
396
330
397
330
397
102
}
330
6D
100
AcDbEntity
  8
0
  6
Continuous
 62
     2
100
AcDbLine
 10
201.7218246783543
 20
705.8688790788742
 30
0.0
 11
200.7360455856547
 21
705.8688790788742
 31
0.0
  0
LINE
  5
1A9
102
{ACAD_REACTORS
330
396
330
396
330
397
330
397
102
}
330
6D
100
AcDbEntity
  8
0
  6
Continuous
 62
     2
100
AcDbLine
 10
201.7218246783543
 20
703.3450695550633
 30
0.0
 11
201.7218246783543
 21
705.8688790788742
 31
0.0
  0
LINE
  5
1AA
102
{ACAD_REACTORS
330
396
330
396
330
397
330
397
102
}
330
6D
100
AcDbEntity
  8
0
  6
Continuous
 62
     2
100
AcDbLine
 10
199.7108353292474
 20
704.426702208125
 30
0.0
 11
200.7360455856547
 21
703.3450695550633
 31
0.0
  0
LINE
  5
1AB
102
{ACAD_REACTORS
330
396
330
396
330
397
330
397
102
}
330
6D
100
AcDbEntity
  8
0
  6
Continuous
 62
     2
100
AcDbLine
 10
199.7108353292474
 20
703.3450695550633
 30
0.0
 11
199.7108353292474
 21
704.426702208125
 31
0.0
  0
LINE
  5
1AC
102
{ACAD_REACTORS
330
386
330
386
330
387
330
387
102
}
330
6D
100
AcDbEntity
  8
0
  6
Continuous
 62
     2
100
AcDbLine
 10
201.7613805783313
 20
708.0681988067514
 30
0.0
 11
202.8654531621558
 21
708.0681988067514
 31
0.0
  0
LINE
  5
1AD
102
{ACAD_REACTORS
330
386
330
386
330
387
330
387
102
}
330
6D
100
AcDbEntity
  8
0
  6
Continuous
 62
     2
100
AcDbLine
 10
201.7613805783313
 20
706.69813077954
 30
0.0
 11
201.7613805783313
 21
707.0947294189959
 31
0.0
  0
LINE
  5
1AE
102
{ACAD_REACTORS
330
386
330
386
330
387
330
387
102
}
330
6D
100
AcDbEntity
  8
0
  6
Continuous
 62
     2
100
AcDbLine
 10
202.8654531621558
 20
706.69813077954
 30
0.0
 11
201.7613805783313
 21
706.69813077954
 31
0.0
  0
LINE
  5
1AF
102
{ACAD_REACTORS
330
386
330
386
330
387
330
387
102
}
330
6D
100
AcDbEntity
  8
0
  6
Continuous
 62
     2
100
AcDbLine
 10
202.8654531621558
 20
706.1212600312405
 30
0.0
 11
202.8654531621558
 21
706.69813077954
 31
0.0
  0
LINE
  5
1B0
102
{ACAD_REACTORS
330
386
330
386
330
387
330
387
102
}
330
6D
100
AcDbEntity
  8
0
  6
Continuous
 62
     2
100
AcDbLine
 10
200.2618831425021
 20
706.1212600312405
 30
0.0
 11
202.8654531621558
 21
706.1212600312405
 31
0.0
  0
LINE
  5
1B1
102
{ACAD_REACTORS
330
386
330
386
330
387
330
387
102
}
330
6D
100
AcDbEntity
  8
0
  6
Continuous
 62
     2
100
AcDbLine
 10
200.2618831425021
 20
708.6450695550514
 30
0.0
 11
202.8654531621558
 21
708.6450695550514
 31
0.0
  0
LINE
  5
1B2
102
{ACAD_REACTORS
330
386
330
386
330
387
330
387
102
}
330
6D
100
AcDbEntity
  8
0
  6
Continuous
 62
     2
100
AcDbLine
 10
202.8654531621558
 20
708.0681988067514
 30
0.0
 11
202.8654531621558
 21
708.6450695550514
 31
0.0
  0
LINE
  5
1B3
102
{ACAD_REACTORS
330
398
330
398
330
399
330
399
102
}
330
6D
100
AcDbEntity
  8
0
  6
Continuous
 62
     2
100
AcDbLine
 10
197.8971265349483
 20
707.761736221717
 30
0.0
 11
197.8971265349483
 21
708.6450695550514
 31
0.0
  0
LINE
  5
1B4
102
{ACAD_REACTORS
330
398
330
398
330
399
330
399
102
}
330
6D
100
AcDbEntity
  8
0
  6
Continuous
 62
     2
100
AcDbLine
 10
197.8971265349483
 20
708.6450695550514
 30
0.0
 11
198.8829056276479
 21
708.6450695550514
 31
0.0
  0
LINE
  5
1B5
102
{ACAD_REACTORS
330
398
330
398
330
399
330
399
102
}
330
6D
100
AcDbEntity
  8
0
  6
Continuous
 62
     2
100
AcDbLine
 10
197.8971265349483
 20
707.0586749972271
 30
0.0
 11
197.0296409333719
 21
707.0586749972271
 31
0.0
  0
LINE
  5
1B6
102
{ACAD_REACTORS
330
398
330
398
330
399
330
399
102
}
330
6D
100
AcDbEntity
  8
0
  6
Continuous
 62
     2
100
AcDbLine
 10
197.0296409333719
 20
707.0586749972271
 30
0.0
 11
197.0296409333719
 21
706.1212600312405
 31
0.0
  0
LINE
  5
1B7
102
{ACAD_REACTORS
330
398
330
398
330
399
330
399
102
}
330
6D
100
AcDbEntity
  8
0
  6
Continuous
 62
     2
100
AcDbLine
 10
196.0438618406723
 20
708.6450695550514
 30
0.0
 11
196.0438618406723
 21
706.1212600312405
 31
0.0
  0
LINE
  5
1B8
102
{ACAD_REACTORS
330
38A
330
38A
330
38B
330
38B
102
}
330
6D
100
AcDbEntity
  8
0
  6
Continuous
 62
     2
100
AcDbLine
 10
194.4271841286445
 20
707.5138022039915
 30
0.0
 11
194.4271841286445
 21
708.0970481951836
 31
0.0
  0
LINE
  5
1B9
102
{ACAD_REACTORS
330
38A
330
38A
330
38B
330
38B
102
}
330
6D
100
AcDbEntity
  8
0
  6
Continuous
 62
     2
100
AcDbLine
 10
193.4019738722362
 20
706.1212600312405
 30
0.0
 11
194.4271841286445
 21
706.1212600312405
 31
0.0
  0
LINE
  5
1BA
102
{ACAD_REACTORS
330
38A
330
38A
330
38B
330
38B
102
}
330
6D
100
AcDbEntity
  8
0
  6
Continuous
 62
     2
100
AcDbLine
 10
194.4271841286445
 20
706.1212600312405
 30
0.0
 11
194.4271841286445
 21
706.900663536318
 31
0.0
  0
LINE
  5
1BB
102
{ACAD_REACTORS
330
384
330
384
330
385
330
385
102
}
330
6D
100
AcDbEntity
  8
0
  6
Continuous
 62
     2
100
AcDbLine
 10
189.8441673852845
 20
703.9339584439534
 30
0.0
 11
188.6244704753593
 21
703.9339584439534
 31
0.0
  0
LINE
  5
1BC
102
{ACAD_REACTORS
330
384
330
384
330
385
330
385
102
}
330
6D
100
AcDbEntity
  8
0
  6
Continuous
 62
     2
100
AcDbLine
 10
187.7830330438474
 20
708.2944541704217
 30
0.0
 11
187.7830330438474
 21
703.6956849396777
 31
0.0
  0
LINE
  5
1BD
102
{ACAD_REACTORS
330
384
330
384
330
385
330
385
102
}
330
6D
100
AcDbEntity
  8
0
  6
Continuous
 62
     2
100
AcDbLine
 10
188.1336484284613
 20
708.6450695550363
 30
0.0
 11
192.6570468505414
 21
708.6450695550363
 31
0.0
  0
LINE
  5
1BE
102
{ACAD_REACTORS
330
384
330
384
330
385
330
385
102
}
330
6D
100
AcDbEntity
  8
0
  6
Continuous
 62
     2
100
AcDbLine
 10
193.0076622351562
 20
708.2944541704217
 30
0.0
 11
193.0076622351562
 21
703.6956849396777
 31
0.0
  0
LINE
  5
1BF
102
{ACAD_REACTORS
330
384
330
384
330
385
330
385
102
}
330
6D
100
AcDbEntity
  8
0
  6
Continuous
 62
     2
100
AcDbLine
 10
192.6570468505414
 20
703.3450695550633
 30
0.0
 11
188.1336484284613
 21
703.3450695550633
 31
0.0
  0
LINE
  5
1C0
102
{ACAD_REACTORS
330
384
330
384
330
385
330
385
102
}
330
6D
100
AcDbEntity
  8
0
  6
Continuous
 62
     2
100
AcDbLine
 10
190.1050904622073
 20
704.1948815208763
 30
0.0
 11
190.1050904622073
 21
705.4599814642909
 31
0.0
  0
LINE
  5
1C1
102
{ACAD_REACTORS
330
384
330
384
330
385
330
385
102
}
330
6D
100
AcDbEntity
  8
0
  6
Continuous
 62
     2
100
AcDbLine
 10
190.1050904622073
 20
707.2960636891875
 30
0.0
 11
190.1050904622073
 21
707.7952575892375
 31
0.0
  0
LINE
  5
1C2
102
{ACAD_REACTORS
330
384
330
384
330
385
330
385
102
}
330
6D
100
AcDbEntity
  8
0
  6
Continuous
 62
     2
100
AcDbLine
 10
188.6244704753593
 20
708.05618066616
 30
0.0
 11
189.8441673852845
 21
708.05618066616
 31
0.0
  0
LINE
  5
1C3
102
{ACAD_REACTORS
330
384
330
384
330
385
330
385
102
}
330
6D
100
AcDbEntity
  8
0
  6
Continuous
 62
     2
100
AcDbLine
 10
188.3635473984372
 20
707.7952575892375
 30
0.0
 11
188.3635473984372
 21
704.1948815208763
 31
0.0
  0
LINE
  5
1C4
102
{ACAD_REACTORS
330
38A
330
38A
330
38B
330
38B
102
}
330
6D
100
AcDbEntity
  8
0
  6
Continuous
 62
     2
100
AcDbLine
 10
194.4271841286445
 20
706.900663536318
 30
0.0
 11
195.0542647797026
 21
706.900663536318
 31
0.0
  0
LINE
  5
1C5
102
{ACAD_REACTORS
330
38A
330
38A
330
38B
330
38B
102
}
330
6D
100
AcDbEntity
  8
0
  6
Continuous
 62
     2
100
AcDbLine
 10
193.4019738722362
 20
708.6450695550514
 30
0.0
 11
195.0542647797026
 21
708.6450695550514
 31
0.0
  0
LINE
  5
1C6
102
{ACAD_REACTORS
330
38A
330
38A
330
38B
330
38B
102
}
330
6D
100
AcDbEntity
  8
0
  6
Continuous
 62
     2
100
AcDbLine
 10
193.4019738722362
 20
708.6450695550514
 30
0.0
 11
193.4019738722362
 21
706.1212600312405
 31
0.0
  0
LINE
  5
1C7
102
{ACAD_REACTORS
330
38A
330
38A
330
38B
330
38B
102
}
330
6D
100
AcDbEntity
  8
0
  6
Continuous
 62
     2
100
AcDbLine
 10
194.4271841286445
 20
707.5138022039915
 30
0.0
 11
194.6894114522328
 21
707.5138022039915
 31
0.0
  0
LINE
  5
1C8
102
{ACAD_REACTORS
330
38A
330
38A
330
38B
330
38B
102
}
330
6D
100
AcDbEntity
  8
0
  6
Continuous
 62
     2
100
AcDbLine
 10
194.4271841286445
 20
708.0970481951836
 30
0.0
 11
194.6894114522328
 21
708.0970481951836
 31
0.0
  0
LINE
  5
1C9
102
{ACAD_REACTORS
330
398
330
398
330
399
330
399
102
}
330
6D
100
AcDbEntity
  8
0
  6
Continuous
 62
     2
100
AcDbLine
 10
197.0296409333719
 20
707.761736221717
 30
0.0
 11
197.8971265349483
 21
707.761736221717
 31
0.0
  0
LINE
  5
1CA
102
{ACAD_REACTORS
330
398
330
398
330
399
330
399
102
}
330
6D
100
AcDbEntity
  8
0
  6
Continuous
 62
     2
100
AcDbLine
 10
197.0296409333719
 20
708.6450695550514
 30
0.0
 11
197.0296409333719
 21
707.761736221717
 31
0.0
  0
LINE
  5
1CB
102
{ACAD_REACTORS
330
398
330
398
330
399
330
399
102
}
330
6D
100
AcDbEntity
  8
0
  6
Continuous
 62
     2
100
AcDbLine
 10
196.0438618406723
 20
708.6450695550514
 30
0.0
 11
197.0296409333719
 21
708.6450695550514
 31
0.0
  0
LINE
  5
1CC
102
{ACAD_REACTORS
330
398
330
398
330
399
330
399
102
}
330
6D
100
AcDbEntity
  8
0
  6
Continuous
 62
     2
100
AcDbLine
 10
197.0296409333719
 20
706.1212600312405
 30
0.0
 11
196.0438618406723
 21
706.1212600312405
 31
0.0
  0
LINE
  5
1CD
102
{ACAD_REACTORS
330
398
330
398
330
399
330
399
102
}
330
6D
100
AcDbEntity
  8
0
  6
Continuous
 62
     2
100
AcDbLine
 10
197.8971265349483
 20
706.1212600312405
 30
0.0
 11
197.8971265349483
 21
707.0586749972271
 31
0.0
  0
LINE
  5
1CE
102
{ACAD_REACTORS
330
398
330
398
330
399
330
399
102
}
330
6D
100
AcDbEntity
  8
0
  6
Continuous
 62
     2
100
AcDbLine
 10
198.8829056276479
 20
706.1212600312405
 30
0.0
 11
197.8971265349483
 21
706.1212600312405
 31
0.0
  0
LINE
  5
1CF
102
{ACAD_REACTORS
330
398
330
398
330
399
330
399
102
}
330
6D
100
AcDbEntity
  8
0
  6
Continuous
 62
     2
100
AcDbLine
 10
198.8829056276479
 20
708.6450695550514
 30
0.0
 11
198.8829056276479
 21
706.1212600312405
 31
0.0
  0
LINE
  5
1D0
102
{ACAD_REACTORS
330
386
330
386
330
387
330
387
102
}
330
6D
100
AcDbEntity
  8
0
  6
Continuous
 62
     2
100
AcDbLine
 10
201.7613805783313
 20
707.0947294189959
 30
0.0
 11
202.8654531621558
 21
707.0947294189959
 31
0.0
  0
LINE
  5
1D1
102
{ACAD_REACTORS
330
386
330
386
330
387
330
387
102
}
330
6D
100
AcDbEntity
  8
0
  6
Continuous
 62
     2
100
AcDbLine
 10
202.8654531621558
 20
707.0947294189959
 30
0.0
 11
202.8654531621558
 21
707.6716001672954
 31
0.0
  0
LINE
  5
1D2
102
{ACAD_REACTORS
330
386
330
386
330
387
330
387
102
}
330
6D
100
AcDbEntity
  8
0
  6
Continuous
 62
     2
100
AcDbLine
 10
202.8654531621558
 20
707.6716001672954
 30
0.0
 11
201.7613805783313
 21
707.6716001672954
 31
0.0
  0
LINE
  5
1D3
102
{ACAD_REACTORS
330
386
330
386
330
387
330
387
102
}
330
6D
100
AcDbEntity
  8
0
  6
Continuous
 62
     2
100
AcDbLine
 10
201.7613805783313
 20
707.6716001672954
 30
0.0
 11
201.7613805783313
 21
708.0681988067514
 31
0.0
  0
LINE
  5
1D4
102
{ACAD_REACTORS
330
396
330
396
330
397
330
397
102
}
330
6D
100
AcDbEntity
  8
0
  6
Continuous
 62
     2
100
AcDbLine
 10
198.7250562365469
 20
703.3450695550633
 30
0.0
 11
199.7108353292474
 21
703.3450695550633
 31
0.0
  0
LINE
  5
1D5
102
{ACAD_REACTORS
330
396
330
396
330
397
330
397
102
}
330
6D
100
AcDbEntity
  8
0
  6
Continuous
 62
     2
100
AcDbLine
 10
200.7360455856547
 20
703.3450695550633
 30
0.0
 11
201.7218246783543
 21
703.3450695550633
 31
0.0
  0
LINE
  5
1D6
102
{ACAD_REACTORS
330
396
330
396
330
397
330
397
102
}
330
6D
100
AcDbEntity
  8
0
  6
Continuous
 62
     2
100
AcDbLine
 10
199.7108353292474
 20
705.8688790788742
 30
0.0
 11
198.7250562365469
 21
705.8688790788742
 31
0.0
  0
LINE
  5
1D7
102
{ACAD_REACTORS
330
396
330
396
330
397
330
397
102
}
330
6D
100
AcDbEntity
  8
0
  6
Continuous
 62
     2
100
AcDbLine
 10
198.7250562365469
 20
705.8688790788742
 30
0.0
 11
198.7250562365469
 21
703.3450695550633
 31
0.0
  0
LINE
  5
1D8
102
{ACAD_REACTORS
330
394
330
394
330
395
330
395
102
}
330
6D
100
AcDbEntity
  8
0
  6
Continuous
 62
     2
100
AcDbLine
 10
205.0735983298033
 20
708.6450695550514
 30
0.0
 11
205.0735983298033
 21
707.5634369019892
 31
0.0
  0
LINE
  5
1D9
102
{ACAD_REACTORS
330
394
330
394
330
395
330
395
102
}
330
6D
100
AcDbEntity
  8
0
  6
Continuous
 62
     2
100
AcDbLine
 10
204.048388073395
 20
708.6450695550514
 30
0.0
 11
203.0626089806954
 21
708.6450695550514
 31
0.0
  0
LINE
  5
1DA
102
{ACAD_REACTORS
330
394
330
394
330
395
330
395
102
}
330
6D
100
AcDbEntity
  8
0
  6
Continuous
 62
     2
100
AcDbLine
 10
203.0626089806954
 20
708.6450695550514
 30
0.0
 11
203.0626089806954
 21
706.1212600312405
 31
0.0
  0
LINE
  5
1DB
102
{ACAD_REACTORS
330
394
330
394
330
395
330
395
102
}
330
6D
100
AcDbEntity
  8
0
  6
Continuous
 62
     2
100
AcDbLine
 10
204.048388073395
 20
706.1212600312405
 30
0.0
 11
204.048388073395
 21
707.2028926843021
 31
0.0
  0
LINE
  5
1DC
102
{ACAD_REACTORS
330
392
330
392
330
393
330
393
102
}
330
6D
100
AcDbEntity
  8
0
  6
Continuous
 62
     2
100
AcDbLine
 10
203.4962270452148
 20
703.3450695550633
 30
0.0
 11
203.4962270452148
 21
705.2198994870365
 31
0.0
  0
LINE
  5
1DD
102
{ACAD_REACTORS
330
392
330
392
330
393
330
393
102
}
330
6D
100
AcDbEntity
  8
0
  6
Continuous
 62
     2
100
AcDbLine
 10
203.4962270452148
 20
705.2198994870365
 30
0.0
 11
204.16655682825
 21
705.2198994870365
 31
0.0
  0
LINE
  5
1DE
102
{ACAD_REACTORS
330
392
330
392
330
393
330
393
102
}
330
6D
100
AcDbEntity
  8
0
  6
Continuous
 62
     2
100
AcDbLine
 10
204.16655682825
 20
705.2198994870365
 30
0.0
 11
204.16655682825
 21
705.8688790788742
 31
0.0
  0
LINE
  5
1DF
102
{ACAD_REACTORS
330
392
330
392
330
393
330
393
102
}
330
6D
100
AcDbEntity
  8
0
  6
Continuous
 62
     2
100
AcDbLine
 10
204.16655682825
 20
705.8688790788742
 30
0.0
 11
201.8401181694783
 21
705.8688790788742
 31
0.0
  0
LINE
  5
1E0
102
{ACAD_REACTORS
330
392
330
392
330
393
330
393
102
}
330
6D
100
AcDbEntity
  8
0
  6
Continuous
 62
     2
100
AcDbLine
 10
201.8401181694783
 20
705.2198994870365
 30
0.0
 11
202.5104479525152
 21
705.2198994870365
 31
0.0
  0
LINE
  5
1E1
102
{ACAD_REACTORS
330
390
330
390
330
391
330
391
102
}
330
6D
100
AcDbEntity
  8
0
  6
Continuous
 62
     2
100
AcDbLine
 10
204.8231732132064
 20
703.7921443849955
 30
0.0
 11
205.759075342689
 21
703.7921443849955
 31
0.0
  0
LINE
  5
1E2
102
{ACAD_REACTORS
330
390
330
390
330
391
330
391
102
}
330
6D
100
AcDbEntity
  8
0
  6
Continuous
 62
     2
100
AcDbLine
 10
206.9590625027962
 20
703.3450695550633
 30
0.0
 11
205.933852246388
 21
703.3450695550633
 31
0.0
  0
LINE
  5
1E3
102
{ACAD_REACTORS
330
390
330
390
330
391
330
391
102
}
330
6D
100
AcDbEntity
  8
0
  6
Continuous
 62
     2
100
AcDbLine
 10
204.778519149744
 20
705.8688790788742
 30
0.0
 11
203.6231860531
 21
703.3450695550633
 31
0.0
  0
LINE
  5
1E4
102
{ACAD_REACTORS
330
390
330
390
330
391
330
391
102
}
330
6D
100
AcDbEntity
  8
0
  6
Continuous
 62
     2
100
AcDbLine
 10
204.6483963095074
 20
703.3450695550633
 30
0.0
 11
204.8231732132064
 21
703.7921443849955
 31
0.0
  0
LINE
  5
1E5
102
{ACAD_REACTORS
330
390
330
390
330
391
330
391
102
}
330
6D
100
AcDbEntity
  8
0
  6
Continuous
 62
     2
100
AcDbLine
 10
205.0430538339875
 20
704.3545933645877
 30
0.0
 11
205.2911242779481
 21
704.9891511877172
 31
0.0
  0
LINE
  5
1E6
102
{ACAD_REACTORS
330
38E
330
38E
330
38F
330
38F
102
}
330
6D
100
AcDbEntity
  8
0
  6
Continuous
 62
     2
100
AcDbLine
 10
206.2565332410433
 20
706.1212600312405
 30
0.0
 11
206.2565332410433
 21
708.6450695550514
 31
0.0
  0
LINE
  5
1E7
102
{ACAD_REACTORS
330
38E
330
38E
330
38F
330
38F
102
}
330
6D
100
AcDbEntity
  8
0
  6
Continuous
 62
     2
100
AcDbLine
 10
207.2817434974507
 20
708.6450695550514
 30
0.0
 11
207.2817434974507
 21
706.1212600312405
 31
0.0
  0
LINE
  5
1E8
102
{ACAD_REACTORS
330
38E
330
38E
330
38F
330
38F
102
}
330
6D
100
AcDbEntity
  8
0
  6
Continuous
 62
     2
100
AcDbLine
 10
206.2565332410433
 20
708.6450695550514
 30
0.0
 11
207.2817434974507
 21
708.6450695550514
 31
0.0
  0
LINE
  5
1E9
102
{ACAD_REACTORS
330
38C
330
38C
330
38D
330
38D
102
}
330
6D
100
AcDbEntity
  8
0
  6
Continuous
 62
     2
100
AcDbLine
 10
209.1152926098728
 20
706.7722780356155
 30
0.0
 11
209.6909876000096
 21
706.1212600312405
 31
0.0
  0
LINE
  5
1EA
102
{ACAD_REACTORS
330
38C
330
38C
330
38D
330
38D
102
}
330
6D
100
AcDbEntity
  8
0
  6
Continuous
 62
     2
100
AcDbLine
 10
209.6909876000096
 20
706.1212600312405
 30
0.0
 11
210.8502638130247
 21
706.1212600312405
 31
0.0
  0
LINE
  5
1EB
102
{ACAD_REACTORS
330
38C
330
38C
330
38D
330
38D
102
}
330
6D
100
AcDbEntity
  8
0
  6
Continuous
 62
     2
100
AcDbLine
 10
209.6949307163798
 20
707.4277550674182
 30
0.0
 11
210.8502638130247
 21
706.1212600312405
 31
0.0
  0
LINE
  5
1EC
102
{ACAD_REACTORS
330
38C
330
38C
330
38D
330
38D
102
}
330
6D
100
AcDbEntity
  8
0
  6
Continuous
 62
     2
100
AcDbLine
 10
209.6949307163798
 20
707.4277550674182
 30
0.0
 11
210.7714014856084
 21
708.6450695550514
 31
0.0
  0
LINE
  5
1ED
102
{ACAD_REACTORS
330
38C
330
38C
330
38D
330
38D
102
}
330
6D
100
AcDbEntity
  8
0
  6
Continuous
 62
     2
100
AcDbLine
 10
209.1152926098728
 20
708.0832320992204
 30
0.0
 11
209.6121252725942
 21
708.6450695550514
 31
0.0
  0
LINE
  5
1EE
102
{ACAD_REACTORS
330
38C
330
38C
330
38D
330
38D
102
}
330
6D
100
AcDbEntity
  8
0
  6
Continuous
 62
     2
100
AcDbLine
 10
208.6184599471523
 20
708.6450695550514
 30
0.0
 11
209.1152926098728
 21
708.0832320992204
 31
0.0
  0
LINE
  5
1EF
102
{ACAD_REACTORS
330
38C
330
38C
330
38D
330
38D
102
}
330
6D
100
AcDbEntity
  8
0
  6
Continuous
 62
     2
100
AcDbLine
 10
208.6184599471523
 20
708.6450695550514
 30
0.0
 11
207.4591837341364
 21
708.6450695550514
 31
0.0
  0
LINE
  5
1F0
102
{ACAD_REACTORS
330
382
330
382
330
383
330
383
102
}
330
6D
100
AcDbEntity
  8
0
  6
Continuous
 62
     2
100
AcDbLine
 10
209.1941549372883
 20
703.3450695550633
 30
0.0
 11
210.1799340299888
 21
703.3450695550633
 31
0.0
  0
LINE
  5
1F1
102
{ACAD_REACTORS
330
382
330
382
330
383
330
383
102
}
330
6D
100
AcDbEntity
  8
0
  6
Continuous
 62
     2
100
AcDbLine
 10
210.1799340299888
 20
703.3450695550633
 30
0.0
 11
210.1799340299888
 21
705.2198994870365
 31
0.0
  0
LINE
  5
1F2
102
{ACAD_REACTORS
330
382
330
382
330
383
330
383
102
}
330
6D
100
AcDbEntity
  8
0
  6
Continuous
 62
     2
100
AcDbLine
 10
210.1799340299888
 20
705.2198994870365
 30
0.0
 11
210.8502638130247
 21
705.2198994870365
 31
0.0
  0
LINE
  5
1F3
102
{ACAD_REACTORS
330
382
330
382
330
383
330
383
102
}
330
6D
100
AcDbEntity
  8
0
  6
Continuous
 62
     2
100
AcDbLine
 10
210.8502638130247
 20
705.2198994870365
 30
0.0
 11
210.8502638130247
 21
705.8688790788742
 31
0.0
  0
LINE
  5
1F4
102
{ACAD_REACTORS
330
382
330
382
330
383
330
383
102
}
330
6D
100
AcDbEntity
  8
0
  6
Continuous
 62
     2
100
AcDbLine
 10
208.0527881777944
 20
705.8688790788738
 30
0.0
 11
210.8502638130247
 21
705.8688790788742
 31
0.0
  0
LINE
  5
1F5
102
{ACAD_REACTORS
330
382
330
382
330
383
330
383
102
}
330
6D
100
AcDbEntity
  8
0
  6
Continuous
 62
     2
100
AcDbLine
 10
209.1941549372883
 20
705.2198994870365
 30
0.0
 11
209.1941549372883
 21
703.3450695550633
 31
0.0
  0
LINE
  5
1F6
102
{ACAD_REACTORS
330
384
330
384
330
385
330
385
102
}
330
6D
100
AcDbEntity
  8
0
  6
Continuous
 62
     2
100
AcDbLine
 10
190.4921000319336
 20
704.9805076951993
 30
0.0
 11
190.4921000319336
 21
705.4613766263523
 31
0.0
  0
LINE
  5
1F7
102
{ACAD_REACTORS
330
384
330
384
330
385
330
385
102
}
330
6D
100
AcDbEntity
  8
0
  6
Continuous
 62
     2
100
AcDbLine
 10
190.4921000319336
 20
707.294668527126
 30
0.0
 11
190.4921000319336
 21
707.7951109143216
 31
0.0
  0
LINE
  5
1F8
330
6D
100
AcDbEntity
  8
1
  6
Continuous
 62
     6
100
AcDbLine
 10
58.66779220980371
 20
697.4950695550575
 30
0.0
 11
64.8677922098017
 21
697.4950695550574
 31
0.0
  0
LINE
  5
1F9
330
6D
100
AcDbEntity
  8
1
  6
Continuous
 62
     6
100
AcDbLine
 10
64.8677922098017
 20
697.4950695550574
 30
0.0
 11
78.3677922098017
 21
697.4950695550575
 31
0.0
  0
LINE
  5
1FA
330
6D
100
AcDbEntity
  8
1
  6
Continuous
 62
     6
100
AcDbLine
 10
78.3677922098017
 20
697.4950695550575
 30
0.0
 11
105.6677922098036
 21
697.495069555058
 31
0.0
  0
LINE
  5
1FB
330
6D
100
AcDbEntity
  8
1
  6
Continuous
 62
     6
100
AcDbLine
 10
105.6677922098036
 20
697.495069555058
 30
0.0
 11
140.6229876830519
 21
697.4950695550574
 31
0.0
  0
LINE
  5
1FC
330
6D
100
AcDbEntity
  8
1
  6
Continuous
 62
     6
100
AcDbLine
 10
167.6229876830518
 20
697.4950695550574
 30
0.0
 11
174.001125543137
 21
697.495069555058
 31
0.0
  0
LINE
  5
1FD
330
6D
100
AcDbEntity
  8
1
  6
Continuous
 62
     6
100
AcDbLine
 10
154.1229876830519
 20
697.4950695550574
 30
0.0
 11
167.6229876830518
 21
697.4950695550574
 31
0.0
  0
LINE
  5
1FE
330
6D
100
AcDbEntity
  8
1
  6
Continuous
 62
     6
100
AcDbLine
 10
140.6229876830519
 20
697.4950695550574
 30
0.0
 11
154.1229876830519
 21
697.4950695550574
 31
0.0
  0
LINE
  5
1FF
330
6D
100
AcDbEntity
  8
1
  6
Continuous
 62
     6
100
AcDbLine
 10
174.001125543137
 20
697.495069555058
 30
0.0
 11
181.1229876830519
 21
697.4950695550574
 31
0.0
  0
LINE
  5
200
330
6D
100
AcDbEntity
  8
1
  6
Continuous
 62
     6
100
AcDbLine
 10
181.1229876830519
 20
697.4950695550574
 30
0.0
 11
199.3229876830518
 21
697.4950695550575
 31
0.0
  0
LINE
  5
201
330
6D
100
AcDbEntity
  8
1
  6
Continuous
 62
     6
100
AcDbLine
 10
199.3229876830518
 20
697.4950695550575
 30
0.0
 11
217.5229876830518
 21
697.4950695550574
 31
0.0
  0
LINE
  5
202
330
6D
100
AcDbEntity
  8
1
  6
Continuous
 62
     6
100
AcDbLine
 10
217.5229876830518
 20
697.4950695550574
 30
0.0
 11
242.3344588764702
 21
697.495069555058
 31
0.0
  0
LINE
  5
203
330
6D
100
AcDbEntity
  8
1
  6
Continuous
 62
     6
100
AcDbLine
 10
242.3344588764702
 20
697.495069555058
 30
0.0
 11
310.6677922098036
 21
697.4950695550575
 31
0.0
  0
LINE
  5
204
330
6D
100
AcDbEntity
  8
1
  6
Continuous
 62
     6
100
AcDbLine
 10
310.6677922098031
 20
705.9950695550574
 30
0.0
 11
310.6677922098036
 21
714.4950695550574
 31
0.0
  0
LINE
  5
205
330
6D
100
AcDbEntity
  8
1
  6
Continuous
 62
     6
100
AcDbLine
 10
310.6677922098036
 20
714.4950695550574
 30
0.0
 11
310.6677922098027
 21
718.7450695550574
 31
0.0
  0
LINE
  5
206
330
6D
100
AcDbEntity
  8
1
  6
Continuous
 62
     6
100
AcDbLine
 10
310.6677922098027
 20
718.7450695550574
 30
0.0
 11
310.6677922098036
 21
727.2450695550574
 31
0.0
  0
LINE
  5
207
330
6D
100
AcDbEntity
  8
1
  6
Continuous
 62
     6
100
AcDbLine
 10
310.6677922098036
 20
727.2450695550574
 30
0.0
 11
310.6677922098036
 21
754.8950695550581
 31
0.0
  0
LINE
  5
208
330
6D
100
AcDbEntity
  8
1
  6
PHANTOM
 62
     2
100
AcDbLine
 10
189.2422508978522
 20
712.3700695550574
 30
0.0
 11
193.5578458670412
 21
712.3700695550574
 31
0.0
  0
LINE
  5
209
330
6D
100
AcDbEntity
  8
1
  6
PHANTOM
 62
     2
100
AcDbLine
 10
186.2152475081552
 20
714.0200695550575
 30
0.0
 11
186.2152475081552
 21
710.7200695550574
 31
0.0
  0
LINE
  5
20A
330
6D
100
AcDbEntity
  8
1
  6
PHANTOM
 62
     2
100
AcDbLine
 10
187.8652475081552
 20
712.3700695550574
 30
0.0
 11
184.5652475081552
 21
712.3700695550574
 31
0.0
  0
LINE
  5
20B
330
6D
100
AcDbEntity
  8
1
  6
Continuous
 62
     7
100
AcDbLine
 10
217.5229876830518
 20
710.2450695550574
 30
0.0
 11
217.5229876830518
 21
714.4950695550574
 31
0.0
  0
LINE
  5
20C
330
6D
100
AcDbEntity
  8
1
  6
Continuous
 62
     7
100
AcDbLine
 10
181.1229876830519
 20
710.2450695550574
 30
0.0
 11
217.5229876830518
 21
710.2450695550574
 31
0.0
  0
LINE
  5
20D
330
6D
100
AcDbEntity
  8
1
  6
Continuous
 62
     7
100
AcDbLine
 10
78.3677922098017
 20
701.7450695550575
 30
0.0
 11
140.6229876830519
 21
701.7450695550575
 31
0.0
  0
LINE
  5
20E
330
6D
100
AcDbEntity
  8
1
  6
Continuous
 62
     2
100
AcDbLine
 10
78.3677922098017
 20
701.7450695550575
 30
0.0
 11
78.3677922098017
 21
697.4950695550575
 31
0.0
  0
LINE
  5
20F
330
6D
100
AcDbEntity
  8
1
  6
Continuous
 62
     2
100
AcDbLine
 10
78.3677922098017
 20
705.9950695550574
 30
0.0
 11
64.8677922098017
 21
705.9950695550574
 31
0.0
  0
LINE
  5
210
330
6D
100
AcDbEntity
  8
1
  6
Continuous
 62
     2
100
AcDbLine
 10
78.3677922098017
 20
705.9950695550574
 30
0.0
 11
78.3677922098017
 21
701.7450695550575
 31
0.0
  0
LINE
  5
211
330
6D
100
AcDbEntity
  8
1
  6
Continuous
 62
     2
100
AcDbLine
 10
78.3677922098017
 20
714.4950695550574
 30
0.0
 11
64.8677922098017
 21
714.4950695550574
 31
0.0
  0
LINE
  5
212
330
6D
100
AcDbEntity
  8
1
  6
Continuous
 62
     2
100
AcDbLine
 10
78.3677922098017
 20
714.4950695550574
 30
0.0
 11
78.3677922098017
 21
710.2450695550574
 31
0.0
  0
LINE
  5
213
330
6D
100
AcDbEntity
  8
1
  6
Continuous
 62
     2
100
AcDbLine
 10
78.3677922098017
 20
710.2450695550574
 30
0.0
 11
64.8677922098017
 21
710.2450695550574
 31
0.0
  0
LINE
  5
214
330
6D
100
AcDbEntity
  8
1
  6
Continuous
 62
     2
100
AcDbLine
 10
78.3677922098017
 20
710.2450695550574
 30
0.0
 11
78.3677922098017
 21
705.9950695550574
 31
0.0
  0
LINE
  5
215
330
6D
100
AcDbEntity
  8
1
  6
Continuous
 62
     2
100
AcDbLine
 10
78.3677922098017
 20
722.9950695550574
 30
0.0
 11
64.8677922098017
 21
722.9950695550574
 31
0.0
  0
LINE
  5
216
330
6D
100
AcDbEntity
  8
1
  6
Continuous
 62
     2
100
AcDbLine
 10
78.3677922098017
 20
718.7450695550574
 30
0.0
 11
64.8677922098017
 21
718.7450695550574
 31
0.0
  0
LINE
  5
217
330
6D
100
AcDbEntity
  8
1
  6
Continuous
 62
     2
100
AcDbLine
 10
78.3677922098017
 20
718.7450695550574
 30
0.0
 11
78.3677922098017
 21
714.4950695550574
 31
0.0
  0
LINE
  5
218
330
6D
100
AcDbEntity
  8
1
  6
Continuous
 62
     2
100
AcDbLine
 10
78.3677922098017
 20
722.9950695550574
 30
0.0
 11
78.3677922098017
 21
718.7450695550574
 31
0.0
  0
LINE
  5
219
330
6D
100
AcDbEntity
  8
1
  6
Continuous
 62
     6
100
AcDbLine
 10
78.3677922098017
 20
727.2450695550574
 30
0.0
 11
64.8677922098017
 21
727.2450695550574
 31
0.0
  0
LINE
  5
21A
330
6D
100
AcDbEntity
  8
1
  6
Continuous
 62
     2
100
AcDbLine
 10
78.3677922098017
 20
727.2450695550574
 30
0.0
 11
78.3677922098017
 21
722.9950695550574
 31
0.0
  0
LINE
  5
21B
330
6D
100
AcDbEntity
  8
1
  6
Continuous
 62
     6
100
AcDbLine
 10
310.6677922098036
 20
727.2450695550574
 30
0.0
 11
292.7862004914828
 21
727.2450695550574
 31
0.0
  0
LINE
  5
21C
330
6D
100
AcDbEntity
  8
1
  6
Continuous
 62
     7
100
AcDbLine
 10
310.6677922098031
 20
705.9950695550574
 30
0.0
 11
265.6677922098055
 21
705.9950695550574
 31
0.0
  0
LINE
  5
21D
330
6D
100
AcDbEntity
  8
1
  6
Continuous
 62
     7
100
AcDbLine
 10
310.6677922098027
 20
718.7450695550574
 30
0.0
 11
292.7862004914828
 21
718.7450695550574
 31
0.0
  0
LINE
  5
21E
330
6D
100
AcDbEntity
  8
1
  6
Continuous
 62
     7
100
AcDbLine
 10
265.6677922098055
 20
714.4950695550574
 30
0.0
 11
310.6677922098036
 21
714.4950695550574
 31
0.0
  0
LINE
  5
21F
330
6D
100
AcDbEntity
  8
1
  6
Continuous
 62
     7
100
AcDbLine
 10
217.5229876830518
 20
722.9950695550574
 30
0.0
 11
217.5229876830518
 21
718.7450695550574
 31
0.0
  0
LINE
  5
220
330
6D
100
AcDbEntity
  8
1
  6
Continuous
 62
     7
100
AcDbLine
 10
204.0229876830518
 20
722.9950695550574
 30
0.0
 11
217.5229876830518
 21
722.9950695550574
 31
0.0
  0
LINE
  5
221
330
6D
100
AcDbEntity
  8
1
  6
Continuous
 62
     7
100
AcDbLine
 10
204.0229876830518
 20
722.9950695550574
 30
0.0
 11
190.5229876830519
 21
722.9950695550574
 31
0.0
  0
LINE
  5
222
330
6D
100
AcDbEntity
  8
1
  6
Continuous
 62
     7
100
AcDbLine
 10
292.7862004914828
 20
718.7450695550574
 30
0.0
 11
292.7862004914828
 21
727.2450695550574
 31
0.0
  0
LINE
  5
223
330
6D
100
AcDbEntity
  8
1
  6
Continuous
 62
     6
100
AcDbLine
 10
283.8677922098035
 20
727.2450695550574
 30
0.0
 11
292.7862004914828
 21
727.2450695550574
 31
0.0
  0
LINE
  5
224
330
6D
100
AcDbEntity
  8
1
  6
Continuous
 62
     7
100
AcDbLine
 10
283.8677922098035
 20
727.2450695550574
 30
0.0
 11
283.8677922098038
 21
718.7450695550575
 31
0.0
  0
LINE
  5
225
330
6D
100
AcDbEntity
  8
1
  6
Continuous
 62
     7
100
AcDbLine
 10
265.6677922098055
 20
705.9950695550574
 30
0.0
 11
247.1677922098059
 21
705.9950695550574
 31
0.0
  0
LINE
  5
226
330
6D
100
AcDbEntity
  8
1
  6
Continuous
 62
     7
100
AcDbLine
 10
265.6677922098055
 20
714.4950695550574
 30
0.0
 11
265.6677922098055
 21
705.9950695550574
 31
0.0
  0
LINE
  5
227
330
6D
100
AcDbEntity
  8
1
  6
Continuous
 62
     2
100
AcDbLine
 10
167.6229876830518
 20
727.2450695550574
 30
0.0
 11
167.6229876830518
 21
722.9950695550574
 31
0.0
  0
LINE
  5
228
330
6D
100
AcDbEntity
  8
1
  6
Continuous
 62
     2
100
AcDbLine
 10
154.1229876830519
 20
727.2450695550574
 30
0.0
 11
154.1229876830519
 21
722.9950695550574
 31
0.0
  0
LINE
  5
229
330
6D
100
AcDbEntity
  8
1
  6
Continuous
 62
     6
100
AcDbLine
 10
167.6229876830518
 20
727.2450695550574
 30
0.0
 11
154.1229876830519
 21
727.2450695550574
 31
0.0
  0
LINE
  5
22A
330
6D
100
AcDbEntity
  8
1
  6
Continuous
 62
     6
100
AcDbLine
 10
154.1229876830519
 20
727.2450695550574
 30
0.0
 11
140.6229876830519
 21
727.2450695550574
 31
0.0
  0
LINE
  5
22B
330
6D
100
AcDbEntity
  8
1
  6
Continuous
 62
     2
100
AcDbLine
 10
140.6229876830519
 20
727.2450695550574
 30
0.0
 11
140.6229876830519
 21
722.9950695550574
 31
0.0
  0
LINE
  5
22C
330
6D
100
AcDbEntity
  8
1
  6
Continuous
 62
     7
100
AcDbLine
 10
199.3229876830518
 20
701.7450695550575
 30
0.0
 11
199.3229876830518
 21
697.4950695550575
 31
0.0
  0
LINE
  5
22D
330
6D
100
AcDbEntity
  8
1
  6
Continuous
 62
     7
100
AcDbLine
 10
199.3229876830518
 20
701.7450695550575
 30
0.0
 11
181.1229876830519
 21
701.7450695550575
 31
0.0
  0
LINE
  5
22E
330
6D
100
AcDbEntity
  8
1
  6
Continuous
 62
     7
100
AcDbLine
 10
204.0229876830518
 20
714.4950695550574
 30
0.0
 11
190.5229876830519
 21
714.4950695550575
 31
0.0
  0
LINE
  5
22F
330
6D
100
AcDbEntity
  8
1
  6
Continuous
 62
     7
100
AcDbLine
 10
217.5229876830518
 20
701.7450695550575
 30
0.0
 11
199.3229876830518
 21
701.7450695550575
 31
0.0
  0
LINE
  5
230
330
6D
100
AcDbEntity
  8
1
  6
Continuous
 62
     6
100
AcDbLine
 10
217.5229876830518
 20
727.2450695550574
 30
0.0
 11
240.4229876830518
 21
727.2450695550574
 31
0.0
  0
LINE
  5
231
330
6D
100
AcDbEntity
  8
1
  6
Continuous
 62
     6
100
AcDbLine
 10
283.8677922098035
 20
727.2450695550574
 30
0.0
 11
240.4229876830518
 21
727.2450695550574
 31
0.0
  0
LINE
  5
232
330
6D
100
AcDbEntity
  8
1
  6
Continuous
 62
     7
100
AcDbLine
 10
240.4229876830518
 20
727.2450695550574
 30
0.0
 11
240.4229876830518
 21
718.7450695550574
 31
0.0
  0
LINE
  5
233
330
6D
100
AcDbEntity
  8
1
  6
Continuous
 62
     6
100
AcDbLine
 10
64.8677922098017
 20
727.2450695550574
 30
0.0
 11
58.66779220980371
 21
727.2450695550574
 31
0.0
  0
LINE
  5
234
330
6D
100
AcDbEntity
  8
1
  6
Continuous
 62
     6
100
AcDbLine
 10
58.66779220980371
 20
697.4950695550575
 30
0.0
 11
58.66779220980371
 21
701.7450695550575
 31
0.0
  0
LINE
  5
235
330
6D
100
AcDbEntity
  8
1
  6
Continuous
 62
     6
100
AcDbLine
 10
58.66779220980371
 20
701.7450695550575
 30
0.0
 11
58.66779220980371
 21
705.9950695550574
 31
0.0
  0
LINE
  5
236
330
6D
100
AcDbEntity
  8
1
  6
Continuous
 62
     7
100
AcDbLine
 10
204.0229876830518
 20
718.7450695550574
 30
0.0
 11
204.0229876830518
 21
714.4950695550574
 31
0.0
  0
LINE
  5
237
330
6D
100
AcDbEntity
  8
1
  6
Continuous
 62
     7
100
AcDbLine
 10
190.5229876830519
 20
718.7450695550574
 30
0.0
 11
190.5229876830519
 21
714.4950695550575
 31
0.0
  0
LINE
  5
238
330
6D
100
AcDbEntity
  8
1
  6
Continuous
 62
     7
100
AcDbLine
 10
204.0229876830518
 20
718.7450695550574
 30
0.0
 11
190.5229876830519
 21
718.7450695550574
 31
0.0
  0
LINE
  5
239
330
6D
100
AcDbEntity
  8
1
  6
Continuous
 62
     2
100
AcDbLine
 10
181.1229876830519
 20
714.4950695550574
 30
0.0
 11
167.6229876830518
 21
714.4950695550574
 31
0.0
  0
LINE
  5
23A
330
6D
100
AcDbEntity
  8
1
  6
Continuous
 62
     2
100
AcDbLine
 10
64.8677922098017
 20
714.4950695550574
 30
0.0
 11
64.8677922098017
 21
718.7450695550574
 31
0.0
  0
LINE
  5
23B
330
6D
100
AcDbEntity
  8
1
  6
Continuous
 62
     2
100
AcDbLine
 10
64.8677922098017
 20
714.4950695550574
 30
0.0
 11
58.66779220980371
 21
714.4950695550574
 31
0.0
  0
LINE
  5
23C
330
6D
100
AcDbEntity
  8
1
  6
Continuous
 62
     2
100
AcDbLine
 10
181.1229876830519
 20
718.7450695550574
 30
0.0
 11
167.6229876830518
 21
718.7450695550574
 31
0.0
  0
LINE
  5
23D
330
6D
100
AcDbEntity
  8
1
  6
Continuous
 62
     2
100
AcDbLine
 10
64.8677922098017
 20
718.7450695550574
 30
0.0
 11
64.8677922098017
 21
722.9950695550574
 31
0.0
  0
LINE
  5
23E
330
6D
100
AcDbEntity
  8
1
  6
Continuous
 62
     2
100
AcDbLine
 10
181.1229876830519
 20
722.9950695550574
 30
0.0
 11
167.6229876830518
 21
722.9950695550574
 31
0.0
  0
LINE
  5
23F
330
6D
100
AcDbEntity
  8
1
  6
Continuous
 62
     2
100
AcDbLine
 10
64.8677922098017
 20
722.9950695550574
 30
0.0
 11
64.8677922098017
 21
727.2450695550574
 31
0.0
  0
LINE
  5
240
330
6D
100
AcDbEntity
  8
1
  6
Continuous
 62
     2
100
AcDbLine
 10
64.8677922098017
 20
722.9950695550574
 30
0.0
 11
58.66779220980371
 21
722.9950695550574
 31
0.0
  0
LINE
  5
241
330
6D
100
AcDbEntity
  8
1
  6
Continuous
 62
     6
100
AcDbLine
 10
181.1229876830519
 20
727.2450695550574
 30
0.0
 11
167.6229876830518
 21
727.2450695550574
 31
0.0
  0
LINE
  5
242
330
6D
100
AcDbEntity
  8
1
  6
Continuous
 62
     2
100
AcDbLine
 10
181.1229876830519
 20
705.9950695550574
 30
0.0
 11
167.6229876830518
 21
705.9950695550574
 31
0.0
  0
LINE
  5
243
330
6D
100
AcDbEntity
  8
1
  6
Continuous
 62
     2
100
AcDbLine
 10
181.1229876830519
 20
710.2450695550574
 30
0.0
 11
167.6229876830518
 21
710.2450695550574
 31
0.0
  0
LINE
  5
244
330
6D
100
AcDbEntity
  8
1
  6
Continuous
 62
     2
100
AcDbLine
 10
64.8677922098017
 20
705.9950695550574
 30
0.0
 11
64.8677922098017
 21
710.2450695550574
 31
0.0
  0
LINE
  5
245
330
6D
100
AcDbEntity
  8
1
  6
Continuous
 62
     2
100
AcDbLine
 10
64.8677922098017
 20
710.2450695550574
 30
0.0
 11
64.8677922098017
 21
714.4950695550574
 31
0.0
  0
LINE
  5
246
330
6D
100
AcDbEntity
  8
1
  6
Continuous
 62
     7
100
AcDbLine
 10
64.8677922098017
 20
701.7450695550575
 30
0.0
 11
78.3677922098017
 21
701.7450695550575
 31
0.0
  0
LINE
  5
247
330
6D
100
AcDbEntity
  8
1
  6
Continuous
 62
     2
100
AcDbLine
 10
64.8677922098017
 20
701.7450695550575
 30
0.0
 11
64.8677922098017
 21
705.9950695550574
 31
0.0
  0
LINE
  5
248
330
6D
100
AcDbEntity
  8
1
  6
Continuous
 62
     7
100
AcDbLine
 10
217.5229876830518
 20
705.9950695550574
 30
0.0
 11
217.5229876830518
 21
710.2450695550574
 31
0.0
  0
LINE
  5
249
330
6D
100
AcDbEntity
  8
1
  6
Continuous
 62
     6
100
AcDbLine
 10
204.0229876830518
 20
727.2450695550574
 30
0.0
 11
217.5229876830518
 21
727.2450695550574
 31
0.0
  0
LINE
  5
24A
330
6D
100
AcDbEntity
  8
1
  6
Continuous
 62
     7
100
AcDbLine
 10
217.5229876830518
 20
727.2450695550574
 30
0.0
 11
217.5229876830518
 21
722.9950695550574
 31
0.0
  0
LINE
  5
24B
330
6D
100
AcDbEntity
  8
1
  6
Continuous
 62
     6
100
AcDbLine
 10
190.5229876830519
 20
727.2450695550574
 30
0.0
 11
204.0229876830518
 21
727.2450695550574
 31
0.0
  0
LINE
  5
24C
330
6D
100
AcDbEntity
  8
1
  6
Continuous
 62
     7
100
AcDbLine
 10
181.1229876830519
 20
714.4950695550574
 30
0.0
 11
181.1229876830519
 21
710.2450695550574
 31
0.0
  0
LINE
  5
24D
330
6D
100
AcDbEntity
  8
1
  6
Continuous
 62
     7
100
AcDbLine
 10
181.1229876830519
 20
718.7450695550574
 30
0.0
 11
181.1229876830519
 21
714.4950695550574
 31
0.0
  0
LINE
  5
24E
330
6D
100
AcDbEntity
  8
1
  6
Continuous
 62
     2
100
AcDbLine
 10
58.66779220980371
 20
718.7450695550574
 30
0.0
 11
64.8677922098017
 21
718.7450695550574
 31
0.0
  0
LINE
  5
24F
330
6D
100
AcDbEntity
  8
1
  6
Continuous
 62
     7
100
AcDbLine
 10
181.1229876830519
 20
722.9950695550574
 30
0.0
 11
181.1229876830519
 21
718.7450695550574
 31
0.0
  0
LINE
  5
250
330
6D
100
AcDbEntity
  8
1
  6
Continuous
 62
     7
100
AcDbLine
 10
217.5229876830518
 20
718.7450695550574
 30
0.0
 11
217.5229876830518
 21
714.4950695550574
 31
0.0
  0
LINE
  5
251
330
6D
100
AcDbEntity
  8
1
  6
Continuous
 62
     7
100
AcDbLine
 10
204.0229876830518
 20
727.2450695550574
 30
0.0
 11
204.0229876830518
 21
722.9950695550574
 31
0.0
  0
LINE
  5
252
330
6D
100
AcDbEntity
  8
1
  6
Continuous
 62
     7
100
AcDbLine
 10
190.5229876830519
 20
727.2450695550574
 30
0.0
 11
190.5229876830519
 21
722.9950695550574
 31
0.0
  0
LINE
  5
253
330
6D
100
AcDbEntity
  8
1
  6
Continuous
 62
     2
100
AcDbLine
 10
64.8677922098017
 20
697.4950695550574
 30
0.0
 11
64.8677922098017
 21
701.7450695550575
 31
0.0
  0
LINE
  5
254
330
6D
100
AcDbEntity
  8
1
  6
Continuous
 62
     2
100
AcDbLine
 10
58.66779220980371
 20
705.9950695550574
 30
0.0
 11
64.8677922098017
 21
705.9950695550574
 31
0.0
  0
LINE
  5
255
330
6D
100
AcDbEntity
  8
1
  6
Continuous
 62
     2
100
AcDbLine
 10
58.66779220980371
 20
710.2450695550574
 30
0.0
 11
64.8677922098017
 21
710.2450695550574
 31
0.0
  0
LINE
  5
256
330
6D
100
AcDbEntity
  8
1
  6
Continuous
 62
     7
100
AcDbLine
 10
58.66779220980371
 20
701.7450695550575
 30
0.0
 11
64.8677922098017
 21
701.7450695550575
 31
0.0
  0
LINE
  5
257
330
6D
100
AcDbEntity
  8
1
  6
Continuous
 62
     7
100
AcDbLine
 10
217.5229876830518
 20
705.9950695550574
 30
0.0
 11
217.5229876830518
 21
701.7450695550575
 31
0.0
  0
LINE
  5
258
330
6D
100
AcDbEntity
  8
1
  6
Continuous
 62
     7
100
AcDbLine
 10
181.1229876830519
 20
710.2450695550574
 30
0.0
 11
181.1229876830519
 21
705.9950695550574
 31
0.0
  0
LINE
  5
259
330
6D
100
AcDbEntity
  8
1
  6
Continuous
 62
     7
100
AcDbLine
 10
181.1229876830519
 20
705.9950695550574
 30
0.0
 11
181.1229876830519
 21
701.7450695550575
 31
0.0
  0
LINE
  5
25A
330
6D
100
AcDbEntity
  8
1
  6
Continuous
 62
     7
100
AcDbLine
 10
204.0229876830518
 20
722.9950695550574
 30
0.0
 11
204.0229876830518
 21
718.7450695550574
 31
0.0
  0
LINE
  5
25B
330
6D
100
AcDbEntity
  8
1
  6
Continuous
 62
     7
100
AcDbLine
 10
190.5229876830519
 20
722.9950695550574
 30
0.0
 11
190.5229876830519
 21
718.7450695550574
 31
0.0
  0
LINE
  5
25C
330
6D
100
AcDbEntity
  8
1
  6
Continuous
 62
     7
100
AcDbLine
 10
181.1229876830519
 20
718.7450695550574
 30
0.0
 11
190.5229876830519
 21
718.7450695550574
 31
0.0
  0
LINE
  5
25D
330
6D
100
AcDbEntity
  8
1
  6
Continuous
 62
     7
100
AcDbLine
 10
217.5229876830518
 20
714.4950695550574
 30
0.0
 11
204.0229876830518
 21
714.4950695550574
 31
0.0
  0
LINE
  5
25E
330
6D
100
AcDbEntity
  8
1
  6
Continuous
 62
     7
100
AcDbLine
 10
217.5229876830518
 20
701.7450695550575
 30
0.0
 11
217.5229876830518
 21
697.4950695550574
 31
0.0
  0
LINE
  5
25F
330
6D
100
AcDbEntity
  8
1
  6
Continuous
 62
     7
100
AcDbLine
 10
181.1229876830519
 20
701.7450695550575
 30
0.0
 11
181.1229876830519
 21
697.4950695550574
 31
0.0
  0
LINE
  5
260
330
6D
100
AcDbEntity
  8
1
  6
Continuous
 62
     7
100
AcDbLine
 10
181.1229876830519
 20
727.2450695550574
 30
0.0
 11
181.1229876830519
 21
722.9950695550574
 31
0.0
  0
LINE
  5
261
330
6D
100
AcDbEntity
  8
1
  6
Continuous
 62
     7
100
AcDbLine
 10
217.5229876830518
 20
705.9950695550574
 30
0.0
 11
247.1677922098059
 21
705.9950695550574
 31
0.0
  0
LINE
  5
262
330
6D
100
AcDbEntity
  8
1
  6
Continuous
 62
     7
100
AcDbLine
 10
217.5229876830518
 20
714.4950695550574
 30
0.0
 11
247.1677922098059
 21
714.4950695550574
 31
0.0
  0
LINE
  5
263
330
6D
100
AcDbEntity
  8
1
  6
Continuous
 62
     7
100
AcDbLine
 10
283.8677922098038
 20
718.7450695550575
 30
0.0
 11
292.7862004914828
 21
718.7450695550574
 31
0.0
  0
LINE
  5
264
330
6D
100
AcDbEntity
  8
1
  6
Continuous
 62
     7
100
AcDbLine
 10
283.8677922098038
 20
718.7450695550575
 30
0.0
 11
247.1677922098059
 21
718.7450695550574
 31
0.0
  0
LINE
  5
265
330
6D
100
AcDbEntity
  8
1
  6
Continuous
 62
     7
100
AcDbLine
 10
247.1677922098059
 20
714.4950695550574
 30
0.0
 11
265.6677922098055
 21
714.4950695550574
 31
0.0
  0
LINE
  5
266
330
6D
100
AcDbEntity
  8
1
  6
Continuous
 62
     7
100
AcDbLine
 10
247.1677922098059
 20
714.4950695550574
 30
0.0
 11
247.1677922098059
 21
705.9950695550574
 31
0.0
  0
LINE
  5
267
330
6D
100
AcDbEntity
  8
1
  6
Continuous
 62
     6
100
AcDbLine
 10
58.66779220980371
 20
722.9950695550574
 30
0.0
 11
58.66779220980371
 21
727.2450695550574
 31
0.0
  0
LINE
  5
268
330
6D
100
AcDbEntity
  8
1
  6
Continuous
 62
     6
100
AcDbLine
 10
58.66779220980371
 20
718.7450695550574
 30
0.0
 11
58.66779220980371
 21
722.9950695550574
 31
0.0
  0
LINE
  5
269
330
6D
100
AcDbEntity
  8
1
  6
Continuous
 62
     6
100
AcDbLine
 10
58.66779220980371
 20
714.4950695550574
 30
0.0
 11
58.66779220980371
 21
718.7450695550574
 31
0.0
  0
LINE
  5
26A
330
6D
100
AcDbEntity
  8
1
  6
Continuous
 62
     6
100
AcDbLine
 10
58.66779220980371
 20
705.9950695550574
 30
0.0
 11
58.66779220980371
 21
710.2450695550574
 31
0.0
  0
LINE
  5
26B
330
6D
100
AcDbEntity
  8
1
  6
Continuous
 62
     6
100
AcDbLine
 10
140.6229876830519
 20
727.2450695550574
 30
0.0
 11
78.3677922098017
 21
727.2450695550574
 31
0.0
  0
LINE
  5
26C
330
6D
100
AcDbEntity
  8
1
  6
Continuous
 62
     2
100
AcDbLine
 10
78.3677922098017
 20
722.9950695550574
 30
0.0
 11
140.6229876830519
 21
722.9950695550574
 31
0.0
  0
LINE
  5
26D
330
6D
100
AcDbEntity
  8
1
  6
Continuous
 62
     2
100
AcDbLine
 10
78.3677922098017
 20
718.7450695550574
 30
0.0
 11
140.6229876830519
 21
718.7450695550574
 31
0.0
  0
LINE
  5
26E
330
6D
100
AcDbEntity
  8
1
  6
Continuous
 62
     7
100
AcDbLine
 10
204.0229876830518
 20
718.7450695550574
 30
0.0
 11
217.5229876830518
 21
718.7450695550574
 31
0.0
  0
LINE
  5
26F
330
6D
100
AcDbEntity
  8
1
  6
Continuous
 62
     7
100
AcDbLine
 10
240.4229876830518
 20
718.7450695550574
 30
0.0
 11
217.5229876830518
 21
718.7450695550574
 31
0.0
  0
LINE
  5
270
330
6D
100
AcDbEntity
  8
1
  6
Continuous
 62
     2
100
AcDbLine
 10
167.6229876830518
 20
705.9950695550574
 30
0.0
 11
167.6229876830518
 21
701.7450695550575
 31
0.0
  0
LINE
  5
271
330
6D
100
AcDbEntity
  8
1
  6
Continuous
 62
     2
100
AcDbLine
 10
167.6229876830518
 20
705.9950695550574
 30
0.0
 11
154.1229876830519
 21
705.9950695550574
 31
0.0
  0
LINE
  5
272
330
6D
100
AcDbEntity
  8
1
  6
Continuous
 62
     2
100
AcDbLine
 10
167.6229876830518
 20
701.7450695550575
 30
0.0
 11
167.6229876830518
 21
697.4950695550574
 31
0.0
  0
LINE
  5
273
330
6D
100
AcDbEntity
  8
1
  6
Continuous
 62
     7
100
AcDbLine
 10
167.6229876830518
 20
701.7450695550575
 30
0.0
 11
181.1229876830519
 21
701.7450695550575
 31
0.0
  0
LINE
  5
274
330
6D
100
AcDbEntity
  8
1
  6
Continuous
 62
     2
100
AcDbLine
 10
167.6229876830518
 20
714.4950695550574
 30
0.0
 11
167.6229876830518
 21
710.2450695550574
 31
0.0
  0
LINE
  5
275
330
6D
100
AcDbEntity
  8
1
  6
Continuous
 62
     2
100
AcDbLine
 10
167.6229876830518
 20
714.4950695550574
 30
0.0
 11
154.1229876830519
 21
714.4950695550574
 31
0.0
  0
LINE
  5
276
330
6D
100
AcDbEntity
  8
1
  6
Continuous
 62
     2
100
AcDbLine
 10
167.6229876830518
 20
718.7450695550574
 30
0.0
 11
167.6229876830518
 21
714.4950695550574
 31
0.0
  0
LINE
  5
277
330
6D
100
AcDbEntity
  8
1
  6
Continuous
 62
     2
100
AcDbLine
 10
167.6229876830518
 20
718.7450695550574
 30
0.0
 11
154.1229876830519
 21
718.7450695550574
 31
0.0
  0
LINE
  5
278
330
6D
100
AcDbEntity
  8
1
  6
Continuous
 62
     2
100
AcDbLine
 10
167.6229876830518
 20
722.9950695550574
 30
0.0
 11
167.6229876830518
 21
718.7450695550574
 31
0.0
  0
LINE
  5
279
330
6D
100
AcDbEntity
  8
1
  6
Continuous
 62
     2
100
AcDbLine
 10
167.6229876830518
 20
722.9950695550574
 30
0.0
 11
154.1229876830519
 21
722.9950695550574
 31
0.0
  0
LINE
  5
27A
330
6D
100
AcDbEntity
  8
1
  6
Continuous
 62
     2
100
AcDbLine
 10
167.6229876830518
 20
710.2450695550574
 30
0.0
 11
167.6229876830518
 21
705.9950695550574
 31
0.0
  0
LINE
  5
27B
330
6D
100
AcDbEntity
  8
1
  6
Continuous
 62
     2
100
AcDbLine
 10
167.6229876830518
 20
710.2450695550574
 30
0.0
 11
154.1229876830519
 21
710.2450695550574
 31
0.0
  0
LINE
  5
27C
330
6D
100
AcDbEntity
  8
1
  6
Continuous
 62
     2
100
AcDbLine
 10
154.1229876830519
 20
705.9950695550574
 30
0.0
 11
154.1229876830519
 21
701.7450695550575
 31
0.0
  0
LINE
  5
27D
330
6D
100
AcDbEntity
  8
1
  6
Continuous
 62
     2
100
AcDbLine
 10
154.1229876830519
 20
705.9950695550574
 30
0.0
 11
140.6229876830519
 21
705.9950695550574
 31
0.0
  0
LINE
  5
27E
330
6D
100
AcDbEntity
  8
1
  6
Continuous
 62
     2
100
AcDbLine
 10
154.1229876830519
 20
701.7450695550575
 30
0.0
 11
154.1229876830519
 21
697.4950695550574
 31
0.0
  0
LINE
  5
27F
330
6D
100
AcDbEntity
  8
1
  6
Continuous
 62
     7
100
AcDbLine
 10
154.1229876830519
 20
701.7450695550575
 30
0.0
 11
167.6229876830518
 21
701.7450695550575
 31
0.0
  0
LINE
  5
280
330
6D
100
AcDbEntity
  8
1
  6
Continuous
 62
     2
100
AcDbLine
 10
154.1229876830519
 20
714.4950695550574
 30
0.0
 11
154.1229876830519
 21
710.2450695550574
 31
0.0
  0
LINE
  5
281
330
6D
100
AcDbEntity
  8
1
  6
Continuous
 62
     2
100
AcDbLine
 10
154.1229876830519
 20
714.4950695550574
 30
0.0
 11
140.6229876830519
 21
714.4950695550574
 31
0.0
  0
LINE
  5
282
330
6D
100
AcDbEntity
  8
1
  6
Continuous
 62
     2
100
AcDbLine
 10
154.1229876830519
 20
718.7450695550574
 30
0.0
 11
154.1229876830519
 21
714.4950695550574
 31
0.0
  0
LINE
  5
283
330
6D
100
AcDbEntity
  8
1
  6
Continuous
 62
     2
100
AcDbLine
 10
154.1229876830519
 20
718.7450695550574
 30
0.0
 11
140.6229876830519
 21
718.7450695550574
 31
0.0
  0
LINE
  5
284
330
6D
100
AcDbEntity
  8
1
  6
Continuous
 62
     2
100
AcDbLine
 10
154.1229876830519
 20
722.9950695550574
 30
0.0
 11
154.1229876830519
 21
718.7450695550574
 31
0.0
  0
LINE
  5
285
330
6D
100
AcDbEntity
  8
1
  6
Continuous
 62
     2
100
AcDbLine
 10
154.1229876830519
 20
722.9950695550574
 30
0.0
 11
140.6229876830519
 21
722.9950695550574
 31
0.0
  0
LINE
  5
286
330
6D
100
AcDbEntity
  8
1
  6
Continuous
 62
     2
100
AcDbLine
 10
154.1229876830519
 20
710.2450695550574
 30
0.0
 11
154.1229876830519
 21
705.9950695550574
 31
0.0
  0
LINE
  5
287
330
6D
100
AcDbEntity
  8
1
  6
Continuous
 62
     2
100
AcDbLine
 10
154.1229876830519
 20
710.2450695550574
 30
0.0
 11
140.6229876830519
 21
710.2450695550574
 31
0.0
  0
LINE
  5
288
330
6D
100
AcDbEntity
  8
1
  6
Continuous
 62
     2
100
AcDbLine
 10
140.6229876830519
 20
705.9950695550574
 30
0.0
 11
140.6229876830519
 21
701.7450695550575
 31
0.0
  0
LINE
  5
289
330
6D
100
AcDbEntity
  8
1
  6
Continuous
 62
     2
100
AcDbLine
 10
140.6229876830519
 20
705.9950695550574
 30
0.0
 11
78.3677922098017
 21
705.9950695550574
 31
0.0
  0
LINE
  5
28A
330
6D
100
AcDbEntity
  8
1
  6
Continuous
 62
     2
100
AcDbLine
 10
140.6229876830519
 20
701.7450695550575
 30
0.0
 11
140.6229876830519
 21
697.4950695550574
 31
0.0
  0
LINE
  5
28B
330
6D
100
AcDbEntity
  8
1
  6
Continuous
 62
     7
100
AcDbLine
 10
140.6229876830519
 20
701.7450695550575
 30
0.0
 11
154.1229876830519
 21
701.7450695550575
 31
0.0
  0
LINE
  5
28C
330
6D
100
AcDbEntity
  8
1
  6
Continuous
 62
     2
100
AcDbLine
 10
140.6229876830519
 20
714.4950695550574
 30
0.0
 11
140.6229876830519
 21
710.2450695550574
 31
0.0
  0
LINE
  5
28D
330
6D
100
AcDbEntity
  8
1
  6
Continuous
 62
     2
100
AcDbLine
 10
140.6229876830519
 20
714.4950695550574
 30
0.0
 11
78.3677922098017
 21
714.4950695550574
 31
0.0
  0
LINE
  5
28E
330
6D
100
AcDbEntity
  8
1
  6
Continuous
 62
     2
100
AcDbLine
 10
140.6229876830519
 20
718.7450695550574
 30
0.0
 11
140.6229876830519
 21
714.4950695550574
 31
0.0
  0
LINE
  5
28F
330
6D
100
AcDbEntity
  8
1
  6
Continuous
 62
     2
100
AcDbLine
 10
140.6229876830519
 20
722.9950695550574
 30
0.0
 11
140.6229876830519
 21
718.7450695550574
 31
0.0
  0
LINE
  5
290
330
6D
100
AcDbEntity
  8
1
  6
Continuous
 62
     2
100
AcDbLine
 10
140.6229876830519
 20
710.2450695550574
 30
0.0
 11
140.6229876830519
 21
705.9950695550574
 31
0.0
  0
LINE
  5
291
330
6D
100
AcDbEntity
  8
1
  6
Continuous
 62
     2
100
AcDbLine
 10
140.6229876830519
 20
710.2450695550574
 30
0.0
 11
78.3677922098017
 21
710.2450695550574
 31
0.0
  0
LINE
  5
292
330
6D
100
AcDbEntity
  8
1
  6
Continuous
 62
     7
100
AcDbLine
 10
190.5229876830519
 20
714.4950695550575
 30
0.0
 11
181.1229876830519
 21
714.4950695550574
 31
0.0
  0
LINE
  5
293
330
6D
100
AcDbEntity
  8
1
  6
Continuous
 62
     6
100
AcDbLine
 10
190.5229876830519
 20
727.2450695550574
 30
0.0
 11
181.1229876830519
 21
727.2450695550574
 31
0.0
  0
LINE
  5
294
330
6D
100
AcDbEntity
  8
1
  6
Continuous
 62
     7
100
AcDbLine
 10
181.1229876830519
 20
722.9950695550574
 30
0.0
 11
190.5229876830519
 21
722.9950695550574
 31
0.0
  0
LINE
  5
295
330
6D
100
AcDbEntity
  8
1
  6
Continuous
 62
     6
100
AcDbLine
 10
58.66779220980371
 20
710.2450695550574
 30
0.0
 11
58.66779220980371
 21
714.4950695550574
 31
0.0
  0
LINE
  5
296
330
6D
100
AcDbEntity
  8
1
  6
Continuous
 62
     2
100
AcDbLine
 10
189.4032568175672
 20
713.8700695550574
 30
0.0
 11
193.4032568175672
 21
713.3700695550574
 31
0.0
  0
LINE
  5
297
330
6D
100
AcDbEntity
  8
1
  6
Continuous
 62
     2
100
AcDbLine
 10
193.4032568175672
 20
713.3700695550574
 30
0.0
 11
193.4032568175672
 21
711.3700695550574
 31
0.0
  0
LINE
  5
298
330
6D
100
AcDbEntity
  8
1
  6
Continuous
 62
     2
100
AcDbLine
 10
193.4032568175672
 20
711.3700695550574
 30
0.0
 11
189.4032568175672
 21
710.8700695550574
 31
0.0
  0
LINE
  5
299
330
6D
100
AcDbEntity
  8
1
  6
Continuous
 62
     2
100
AcDbLine
 10
189.4032568175672
 20
710.8700695550574
 30
0.0
 11
189.4032568175672
 21
713.8700695550574
 31
0.0
  0
LINE
  5
29A
330
6D
100
AcDbEntity
  8
1
  6
Continuous
 62
     2
100
AcDbLine
 10
105.6677922098036
 20
692.495069555058
 30
0.0
 11
37.33445887647045
 21
692.495069555058
 31
0.0
  0
LINE
  5
29B
330
6D
100
AcDbEntity
  8
1
  6
Continuous
 62
     2
100
AcDbLine
 10
242.3344588764702
 20
692.495069555058
 30
0.0
 11
310.6677922098036
 21
692.495069555058
 31
0.0
  0
LINE
  5
29C
330
6D
100
AcDbEntity
  8
1
  6
Continuous
 62
     2
100
AcDbLine
 10
242.3344588764702
 20
692.495069555058
 30
0.0
 11
242.3344588764702
 21
697.495069555058
 31
0.0
  0
LINE
  5
29D
330
6D
100
AcDbEntity
  8
1
  6
Continuous
 62
     2
100
AcDbLine
 10
174.001125543137
 20
692.495069555058
 30
0.0
 11
174.001125543137
 21
697.495069555058
 31
0.0
  0
LINE
  5
29E
330
6D
100
AcDbEntity
  8
1
  6
Continuous
 62
     2
100
AcDbLine
 10
105.6677922098036
 20
692.495069555058
 30
0.0
 11
105.6677922098036
 21
697.495069555058
 31
0.0
  0
LINE
  5
29F
330
6D
100
AcDbEntity
  8
1
  6
Continuous
 62
     2
100
AcDbLine
 10
315.6677922098011
 20
754.8950695550581
 30
0.0
 11
315.6677922098011
 21
812.2950695550581
 31
0.0
  0
LINE
  5
2A0
330
6D
100
AcDbEntity
  8
1
  6
Continuous
 62
     2
100
AcDbLine
 10
315.6677922098011
 20
754.8950695550581
 30
0.0
 11
310.6677922098036
 21
754.8950695550581
 31
0.0
  0
LINE
  5
2A1
330
6D
100
AcDbEntity
  8
1
  6
Continuous
 62
     2
100
AcDbLine
 10
-84.33220779019715
 20
692.495069555058
 30
0.0
 11
-104.3322077901972
 21
692.495069555058
 31
0.0
  0
LINE
  5
2A2
330
6D
100
AcDbEntity
  8
1
  6
Continuous
 62
     2
100
AcDbLine
 10
-30.99887445686298
 20
692.495069555058
 30
0.0
 11
-30.99887445686298
 21
697.495069555058
 31
0.0
  0
LINE
  5
2A3
330
6D
100
AcDbEntity
  8
1
  6
Continuous
 62
     2
100
AcDbLine
 10
-30.99887445686298
 20
692.495069555058
 30
0.0
 11
37.33445887647045
 21
692.495069555058
 31
0.0
  0
LINE
  5
2A4
330
6D
100
AcDbEntity
  8
1
  6
Continuous
 62
     6
100
AcDbLine
 10
-30.99887445686298
 20
697.495069555058
 30
0.0
 11
37.33445887647045
 21
697.495069555058
 31
0.0
  0
LINE
  5
2A5
330
6D
100
AcDbEntity
  8
1
  6
Continuous
 62
     6
100
AcDbLine
 10
-30.99887445686298
 20
697.495069555058
 30
0.0
 11
-84.33220779019615
 21
697.495069555058
 31
0.0
  0
LINE
  5
2A6
330
6D
100
AcDbEntity
  8
1
  6
Continuous
 62
     2
100
AcDbLine
 10
37.33445887647045
 20
692.495069555058
 30
0.0
 11
37.33445887647045
 21
697.495069555058
 31
0.0
  0
LINE
  5
2A7
330
6D
100
AcDbEntity
  8
1
  6
Continuous
 62
     2
100
AcDbLine
 10
-84.33220779019715
 20
692.495069555058
 30
0.0
 11
-84.33220779019715
 21
696.495069555058
 31
0.0
  0
LINE
  5
2A8
330
6D
100
AcDbEntity
  8
1
  6
Continuous
 62
     2
100
AcDbLine
 10
-84.33220779019715
 20
692.495069555058
 30
0.0
 11
-30.99887445686298
 21
692.495069555058
 31
0.0
  0
LINE
  5
2A9
330
6D
100
AcDbEntity
  8
1
  6
Continuous
 62
     2
100
AcDbLine
 10
125.6677922098008
 20
692.495069555058
 30
0.0
 11
105.6677922098036
 21
692.495069555058
 31
0.0
  0
LINE
  5
2AA
330
6D
100
AcDbEntity
  8
1
  6
Continuous
 62
     2
100
AcDbLine
 10
125.6677922098008
 20
692.495069555058
 30
0.0
 11
125.6677922098008
 21
696.495069555058
 31
0.0
  0
LINE
  5
2AB
330
6D
100
AcDbEntity
  8
1
  6
Continuous
 62
     2
100
AcDbLine
 10
125.6677922098008
 20
692.495069555058
 30
0.0
 11
174.001125543137
 21
692.495069555058
 31
0.0
  0
LINE
  5
2AC
330
6D
100
AcDbEntity
  8
1
  6
Continuous
 62
     2
100
AcDbLine
 10
174.001125543137
 20
692.495069555058
 30
0.0
 11
242.3344588764702
 21
692.495069555058
 31
0.0
  0
LINE
  5
2AD
330
6D
100
AcDbEntity
  8
1
  6
Continuous
 62
     2
100
AcDbLine
 10
315.6677922098011
 20
692.495069555058
 30
0.0
 11
310.6677922098036
 21
692.495069555058
 31
0.0
  0
LINE
  5
2AE
330
6D
100
AcDbEntity
  8
1
  6
Continuous
 62
     2
100
AcDbLine
 10
315.6677922098011
 20
697.495069555058
 30
0.0
 11
315.6677922098011
 21
692.495069555058
 31
0.0
  0
LINE
  5
2AF
330
6D
100
AcDbEntity
  8
1
  6
Continuous
 62
     2
100
AcDbLine
 10
315.6677922098011
 20
697.495069555058
 30
0.0
 11
315.6677922098011
 21
754.8950695550581
 31
0.0
  0
LINE
  5
2B0
330
6D
100
AcDbEntity
  8
1
  6
Continuous
 62
     2
100
AcDbLine
 10
315.6677922098011
 20
989.495069555058
 30
0.0
 11
310.6677922098011
 21
989.495069555058
 31
0.0
  0
LINE
  5
2B1
330
6D
100
AcDbEntity
  8
1
  6
Continuous
 62
     6
100
AcDbLine
 10
310.6677922098011
 20
984.495069555058
 30
0.0
 11
310.6677922098016
 21
927.0950695550579
 31
0.0
  0
LINE
  5
2B2
330
6D
100
AcDbEntity
  8
1
  6
Continuous
 62
     2
100
AcDbLine
 10
315.6677922098011
 20
989.495069555058
 30
0.0
 11
315.6677922098011
 21
984.495069555058
 31
0.0
  0
LINE
  5
2B3
330
6D
100
AcDbEntity
  8
1
  6
Continuous
 62
     2
100
AcDbLine
 10
310.6677922098011
 20
984.495069555058
 30
0.0
 11
310.6677922098011
 21
989.495069555058
 31
0.0
  0
LINE
  5
2B4
330
6D
100
AcDbEntity
  8
1
  6
Continuous
 62
     2
100
AcDbLine
 10
310.6677922098011
 20
984.495069555058
 30
0.0
 11
315.6677922098011
 21
984.495069555058
 31
0.0
  0
LINE
  5
2B5
330
6D
100
AcDbEntity
  8
1
  6
Continuous
 62
     2
100
AcDbLine
 10
315.6677922098011
 20
984.495069555058
 30
0.0
 11
315.6677922098011
 21
927.0950695550579
 31
0.0
  0
LINE
  5
2B6
330
6D
100
AcDbEntity
  8
1
  6
Continuous
 62
     2
100
AcDbLine
 10
310.6677922098016
 20
927.0950695550579
 30
0.0
 11
315.6677922098011
 21
927.0950695550579
 31
0.0
  0
LINE
  5
2B7
330
6D
100
AcDbEntity
  8
1
  6
Continuous
 62
     6
100
AcDbLine
 10
310.6677922098016
 20
927.0950695550579
 30
0.0
 11
310.6677922098036
 21
869.695069555058
 31
0.0
  0
LINE
  5
2B8
330
6D
100
AcDbEntity
  8
1
  6
Continuous
 62
     2
100
AcDbLine
 10
315.6677922098011
 20
927.0950695550579
 30
0.0
 11
315.6677922098011
 21
869.695069555058
 31
0.0
  0
LINE
  5
2B9
330
6D
100
AcDbEntity
  8
1
  6
Continuous
 62
     2
100
AcDbLine
 10
310.6677922098036
 20
869.695069555058
 30
0.0
 11
315.6677922098011
 21
869.695069555058
 31
0.0
  0
LINE
  5
2BA
330
6D
100
AcDbEntity
  8
1
  6
Continuous
 62
     6
100
AcDbLine
 10
310.6677922098036
 20
869.695069555058
 30
0.0
 11
310.6677922098036
 21
812.2950695550581
 31
0.0
  0
LINE
  5
2BB
330
6D
100
AcDbEntity
  8
1
  6
Continuous
 62
     2
100
AcDbLine
 10
315.6677922098011
 20
869.695069555058
 30
0.0
 11
315.6677922098011
 21
812.2950695550581
 31
0.0
  0
LINE
  5
2BC
330
6D
100
AcDbEntity
  8
1
  6
Continuous
 62
     2
100
AcDbLine
 10
310.6677922098036
 20
812.2950695550581
 30
0.0
 11
315.6677922098011
 21
812.2950695550581
 31
0.0
  0
LINE
  5
2BD
330
6D
100
AcDbEntity
  8
1
  6
Continuous
 62
     6
100
AcDbLine
 10
310.6677922098036
 20
812.2950695550581
 30
0.0
 11
310.6677922098036
 21
754.8950695550581
 31
0.0
  0
LINE
  5
2BE
330
6D
100
AcDbEntity
  8
1
  6
Continuous
 62
     6
100
AcDbLine
 10
-84.33220779019715
 20
984.4950695550582
 30
0.0
 11
-30.99887445686298
 21
984.4950695550582
 31
0.0
  0
LINE
  5
2BF
330
6D
100
AcDbEntity
  8
1
  6
Continuous
 62
     2
100
AcDbLine
 10
310.6677922098011
 20
989.495069555058
 30
0.0
 11
242.3344588764702
 21
989.495069555058
 31
0.0
  0
LINE
  5
2C0
330
6D
100
AcDbEntity
  8
1
  6
Continuous
 62
     2
100
AcDbLine
 10
242.3344588764702
 20
984.495069555058
 30
0.0
 11
242.3344588764702
 21
989.495069555058
 31
0.0
  0
LINE
  5
2C1
330
6D
100
AcDbEntity
  8
1
  6
Continuous
 62
     6
100
AcDbLine
 10
242.3344588764702
 20
984.495069555058
 30
0.0
 11
310.6677922098011
 21
984.495069555058
 31
0.0
  0
LINE
  5
2C2
330
6D
100
AcDbEntity
  8
1
  6
Continuous
 62
     2
100
AcDbLine
 10
242.3344588764702
 20
989.495069555058
 30
0.0
 11
174.001125543137
 21
989.495069555058
 31
0.0
  0
LINE
  5
2C3
330
6D
100
AcDbEntity
  8
1
  6
Continuous
 62
     2
100
AcDbLine
 10
174.001125543137
 20
984.495069555058
 30
0.0
 11
174.001125543137
 21
989.495069555058
 31
0.0
  0
LINE
  5
2C4
330
6D
100
AcDbEntity
  8
1
  6
Continuous
 62
     6
100
AcDbLine
 10
174.001125543137
 20
984.495069555058
 30
0.0
 11
242.3344588764702
 21
984.495069555058
 31
0.0
  0
LINE
  5
2C5
330
6D
100
AcDbEntity
  8
1
  6
Continuous
 62
     2
100
AcDbLine
 10
174.001125543137
 20
989.495069555058
 30
0.0
 11
125.6677922098008
 21
989.495069555058
 31
0.0
  0
LINE
  5
2C6
330
6D
100
AcDbEntity
  8
1
  6
Continuous
 62
     2
100
AcDbLine
 10
105.6677922098036
 20
984.495069555058
 30
0.0
 11
105.6677922098036
 21
989.495069555058
 31
0.0
  0
LINE
  5
2C7
330
6D
100
AcDbEntity
  8
1
  6
Continuous
 62
     6
100
AcDbLine
 10
105.6677922098036
 20
984.495069555058
 30
0.0
 11
174.001125543137
 21
984.495069555058
 31
0.0
  0
LINE
  5
2C8
330
6D
100
AcDbEntity
  8
1
  6
Continuous
 62
     2
100
AcDbLine
 10
105.6677922098036
 20
989.495069555058
 30
0.0
 11
37.33445887647045
 21
989.495069555058
 31
0.0
  0
LINE
  5
2C9
330
6D
100
AcDbEntity
  8
1
  6
Continuous
 62
     2
100
AcDbLine
 10
37.33445887647045
 20
984.495069555058
 30
0.0
 11
37.33445887647045
 21
989.495069555058
 31
0.0
  0
LINE
  5
2CA
330
6D
100
AcDbEntity
  8
1
  6
Continuous
 62
     6
100
AcDbLine
 10
37.33445887647045
 20
984.495069555058
 30
0.0
 11
105.6677922098036
 21
984.495069555058
 31
0.0
  0
LINE
  5
2CB
330
6D
100
AcDbEntity
  8
1
  6
Continuous
 62
     2
100
AcDbLine
 10
37.33445887647045
 20
989.495069555058
 30
0.0
 11
-30.99887445686298
 21
989.495069555058
 31
0.0
  0
LINE
  5
2CC
330
6D
100
AcDbEntity
  8
1
  6
Continuous
 62
     2
100
AcDbLine
 10
-30.99887445686298
 20
984.4950695550582
 30
0.0
 11
-30.99887445686298
 21
989.495069555058
 31
0.0
  0
LINE
  5
2CD
330
6D
100
AcDbEntity
  8
1
  6
Continuous
 62
     6
100
AcDbLine
 10
-30.99887445686298
 20
984.4950695550582
 30
0.0
 11
37.33445887647045
 21
984.495069555058
 31
0.0
  0
LINE
  5
2CE
330
6D
100
AcDbEntity
  8
1
  6
Continuous
 62
     2
100
AcDbLine
 10
-30.99887445686298
 20
989.495069555058
 30
0.0
 11
-84.33220779019715
 21
989.495069555058
 31
0.0
  0
LINE
  5
2CF
330
6D
100
AcDbEntity
  8
1
  6
Continuous
 62
     2
100
AcDbLine
 10
-84.33220779019715
 20
989.495069555058
 30
0.0
 11
-84.33220779019715
 21
985.4950695550582
 31
0.0
  0
LINE
  5
2D0
330
6D
100
AcDbEntity
  8
1
  6
Continuous
 62
     2
100
AcDbLine
 10
-84.33220779019715
 20
989.495069555058
 30
0.0
 11
-104.3322077901972
 21
989.495069555058
 31
0.0
  0
LINE
  5
2D1
330
6D
100
AcDbEntity
  8
1
  6
Continuous
 62
     2
100
AcDbLine
 10
125.6677922098008
 20
989.495069555058
 30
0.0
 11
125.6677922098008
 21
985.4950695550582
 31
0.0
  0
LINE
  5
2D2
330
6D
100
AcDbEntity
  8
1
  6
Continuous
 62
     2
100
AcDbLine
 10
125.6677922098008
 20
989.495069555058
 30
0.0
 11
105.6677922098036
 21
989.495069555058
 31
0.0
  0
LINE
  5
2D3
330
6D
100
AcDbEntity
  8
1
  6
Continuous
 62
     2
100
AcDbLine
 10
-104.3322077901972
 20
989.495069555058
 30
0.0
 11
-104.3322077901972
 21
840.995069555058
 31
0.0
  0
LINE
  5
2D4
330
6D
100
AcDbEntity
  8
1
  6
Continuous
 62
     2
100
AcDbLine
 10
-104.3322077901972
 20
840.995069555058
 30
0.0
 11
-94.33220779019715
 21
840.995069555058
 31
0.0
  0
LINE
  5
2D5
330
6D
100
AcDbEntity
  8
1
  6
Continuous
 62
     2
100
AcDbLine
 10
-104.3322077901972
 20
840.995069555058
 30
0.0
 11
-104.3322077901972
 21
692.495069555058
 31
0.0
  0
LINE
  5
2D6
330
6D
100
AcDbEntity
  8
1
  6
Continuous
 62
     6
100
AcDbLine
 10
-84.33220779019615
 20
697.495069555058
 30
0.0
 11
-84.33220779019715
 21
984.4950695550582
 31
0.0
  0
LINE
  5
2D7
330
6D
100
AcDbEntity
  8
1
  6
Continuous
 62
     6
100
AcDbLine
 10
310.6677922098036
 20
697.4950695550575
 30
0.0
 11
310.6677922098031
 21
705.9950695550574
 31
0.0
  0
LINE
  5
2D8
330
6D
100
AcDbEntity
  8
1
  6
Continuous
 62
     6
100
AcDbLine
 10
37.33445887647045
 20
697.495069555058
 30
0.0
 11
58.66779220980371
 21
697.4950695550575
 31
0.0
  0
LINE
  5
2D9
330
6D
100
AcDbEntity
  8
1
  6
Continuous
 62
     2
100
AcDbLine
 10
282.1085288945943
 20
712.9448502760252
 30
0.0
 11
282.1085288945944
 21
710.8874543111716
 31
0.0
  0
LINE
  5
2DA
330
6D
100
AcDbEntity
  8
1
  6
Continuous
 62
     7
100
AcDbLine
 10
247.1677922098059
 20
714.4950695550574
 30
0.0
 11
247.1677922098059
 21
718.7450695550574
 31
0.0
  0
LINE
  5
2DB
330
6D
100
AcDbEntity
  8
1
  6
Continuous
 62
     7
100
AcDbLine
 10
247.1677922098059
 20
718.7450695550574
 30
0.0
 11
240.4229876830518
 21
718.7450695550574
 31
0.0
  0
ARC
  5
2DC
102
{ACAD_REACTORS
330
388
330
388
330
389
330
389
102
}
330
6D
100
AcDbEntity
  8
0
  6
Continuous
 62
     2
100
AcDbCircle
 10
197.0020356160768
 20
704.6069743169686
 30
0.0
 40
0.6378510567600058
100
AcDbArc
 50
321.8795802028323
 51
38.12041979715963
  0
ARC
  5
2DD
102
{ACAD_REACTORS
330
388
330
388
330
389
330
389
102
}
330
6D
100
AcDbEntity
  8
0
  6
Continuous
 62
     2
100
AcDbCircle
 10
197.1671100262804
 20
704.4774444176959
 30
0.0
 40
0.4280236140610111
100
AcDbArc
 50
218.1204197971943
 51
321.8795802027893
  0
ARC
  5
2DE
102
{ACAD_REACTORS
330
388
330
388
330
389
330
389
102
}
330
6D
100
AcDbEntity
  8
0
  6
Continuous
 62
     2
100
AcDbCircle
 10
197.3321844364837
 20
704.6069743169686
 30
0.0
 40
0.6378510567598462
100
AcDbArc
 50
141.8795802028341
 51
218.120419797174
  0
ARC
  5
2DF
102
{ACAD_REACTORS
330
388
330
388
330
389
330
389
102
}
330
6D
100
AcDbEntity
  8
0
  6
Continuous
 62
     2
100
AcDbCircle
 10
197.1671100262804
 20
704.7365042162417
 30
0.0
 40
0.4280236140605738
100
AcDbArc
 50
38.12041979716286
 51
141.8795802028536
  0
ARC
  5
2E0
102
{ACAD_REACTORS
330
380
330
380
330
381
330
381
102
}
330
6D
100
AcDbEntity
  8
0
  6
Continuous
 62
     2
100
AcDbCircle
 10
194.6365198315994
 20
703.441299634813
 30
0.0
 40
1.840813230556584
100
AcDbArc
 50
58.069091050038
 51
71.55192388186816
  0
ARC
  5
2E1
102
{ACAD_REACTORS
330
380
330
380
330
381
330
381
102
}
330
6D
100
AcDbEntity
  8
0
  6
Continuous
 62
     2
100
AcDbCircle
 10
194.8528237166893
 20
704.7764548370834
 30
0.0
 40
0.4227934381776413
100
AcDbArc
 50
113.3722778881857
 51
151.4785267423007
  0
ARC
  5
2E2
102
{ACAD_REACTORS
330
380
330
380
330
381
330
381
102
}
330
6D
100
AcDbEntity
  8
0
  6
Continuous
 62
     2
100
AcDbCircle
 10
195.1646892192351
 20
704.6069743169686
 30
0.0
 40
0.7777353184572496
100
AcDbArc
 50
151.4785267422727
 51
208.5214732577052
  0
ARC
  5
2E3
102
{ACAD_REACTORS
330
380
330
380
330
381
330
381
102
}
330
6D
100
AcDbEntity
  8
0
  6
Continuous
 62
     2
100
AcDbCircle
 10
194.5060463811095
 20
707.3447271642879
 30
0.0
 40
4.010410630990195
100
AcDbArc
 50
275.1581447696242
 51
285.9799912583519
  0
ARC
  5
2E4
102
{ACAD_REACTORS
330
380
330
380
330
381
330
381
102
}
330
6D
100
AcDbEntity
  8
0
  6
Continuous
 62
     2
100
AcDbCircle
 10
194.7447704263457
 20
704.7001894922039
 30
0.0
 40
1.355119937139965
100
AcDbArc
 50
195.0618917770912
 51
275.1581447696416
  0
ARC
  5
2E5
102
{ACAD_REACTORS
330
380
330
380
330
381
330
381
102
}
330
6D
100
AcDbEntity
  8
0
  6
Continuous
 62
     2
100
AcDbCircle
 10
194.3983837788558
 20
704.6069743169686
 30
0.0
 40
0.9964100565213793
100
AcDbArc
 50
164.9381082228851
 51
195.0618917771023
  0
ARC
  5
2E6
102
{ACAD_REACTORS
330
380
330
380
330
381
330
381
102
}
330
6D
100
AcDbEntity
  8
0
  6
Continuous
 62
     2
100
AcDbCircle
 10
194.7447704263457
 20
704.5137591417331
 30
0.0
 40
1.355119937140984
100
AcDbArc
 50
84.84185523036052
 51
164.9381082228902
  0
ARC
  5
2E7
102
{ACAD_REACTORS
330
384
330
384
330
385
330
385
102
}
330
6D
100
AcDbEntity
  8
0
  6
Continuous
 62
     2
100
AcDbCircle
 10
190.7530231088566
 20
705.4613766263523
 30
0.0
 40
0.2609230769227867
100
AcDbArc
 50
115.374008678374
 51
180.0
  0
ARC
  5
2E8
102
{ACAD_REACTORS
330
384
330
384
330
385
330
385
102
}
330
6D
100
AcDbEntity
  8
0
  6
Continuous
 62
     2
100
AcDbCircle
 10
190.7530231088566
 20
707.294668527126
 30
0.0
 40
0.2609230769230066
100
AcDbArc
 50
180.0
 51
244.625991321626
  0
ARC
  5
2E9
102
{ACAD_REACTORS
330
384
330
384
330
385
330
385
102
}
330
6D
100
AcDbEntity
  8
0
  6
Continuous
 62
     2
100
AcDbCircle
 10
190.757664542997
 20
706.3878093047605
 30
0.0
 40
1.668232340440728
100
AcDbArc
 50
269.8110329575882
 51
90.18896704241182
  0
ARC
  5
2EA
102
{ACAD_REACTORS
330
384
330
384
330
385
330
385
102
}
330
6D
100
AcDbEntity
  8
0
  6
Continuous
 62
     2
100
AcDbCircle
 10
190.7530231088566
 20
704.9805076951993
 30
0.0
 40
0.2609230769230066
100
AcDbArc
 50
180.0
 51
269.8110329574403
  0
ARC
  5
2EB
102
{ACAD_REACTORS
330
382
330
382
330
383
330
383
102
}
330
6D
100
AcDbEntity
  8
0
  6
Continuous
 62
     2
100
AcDbCircle
 10
208.160841468138
 20
704.7764548370834
 30
0.0
 40
0.4227934381773005
100
AcDbArc
 50
109.3371432194784
 51
151.4785267424119
  0
ARC
  5
2EC
102
{ACAD_REACTORS
330
382
330
382
330
383
330
383
102
}
330
6D
100
AcDbEntity
  8
0
  6
Continuous
 62
     2
100
AcDbCircle
 10
208.160841468138
 20
704.437493796854
 30
0.0
 40
0.4227934381784311
100
AcDbArc
 50
208.5214732576829
 51
246.6277221118468
  0
ARC
  5
2ED
102
{ACAD_REACTORS
330
382
330
382
330
383
330
383
102
}
330
6D
100
AcDbEntity
  8
0
  6
Continuous
 62
     2
100
AcDbCircle
 10
207.7064015303054
 20
704.6069743169686
 30
0.0
 40
0.9964100565230534
100
AcDbArc
 50
164.938108222911
 51
195.0618917771016
  0
ARC
  5
2EE
102
{ACAD_REACTORS
330
382
330
382
330
383
330
383
102
}
330
6D
100
AcDbEntity
  8
0
  6
Continuous
 62
     2
100
AcDbCircle
 10
208.0527881777944
 20
704.5137591417331
 30
0.0
 40
1.355119937140671
100
AcDbArc
 50
90.0
 51
164.9381082228993
  0
ARC
  5
2EF
102
{ACAD_REACTORS
330
386
330
386
330
387
330
387
102
}
330
6D
100
AcDbEntity
  8
0
  6
Continuous
 62
     2
100
AcDbCircle
 10
200.2618831425021
 20
707.3831647931457
 30
0.0
 40
1.261904761905612
100
AcDbArc
 50
90.0
 51
270.0
  0
ARC
  5
2F0
102
{ACAD_REACTORS
330
38A
330
38A
330
38B
330
38B
102
}
330
6D
100
AcDbEntity
  8
0
  6
Continuous
 62
     2
100
AcDbCircle
 10
194.6894114522328
 20
707.8054251995876
 30
0.0
 40
0.2916229955960716
100
AcDbArc
 50
270.0
 51
90.0
  0
ARC
  5
2F1
102
{ACAD_REACTORS
330
384
330
384
330
385
330
385
102
}
330
6D
100
AcDbEntity
  8
0
  6
Continuous
 62
     2
100
AcDbCircle
 10
188.6244704753593
 20
707.7952575892375
 30
0.0
 40
0.2609230769224951
100
AcDbArc
 50
90.0
 51
180.0
  0
ARC
  5
2F2
102
{ACAD_REACTORS
330
384
330
384
330
385
330
385
102
}
330
6D
100
AcDbEntity
  8
0
  6
Continuous
 62
     2
100
AcDbCircle
 10
190.276055358487
 20
706.3780225767393
 30
0.0
 40
0.7536343169898702
100
AcDbArc
 50
115.1944106485246
 51
244.8055893514865
  0
ARC
  5
2F3
102
{ACAD_REACTORS
330
384
330
384
330
385
330
385
102
}
330
6D
100
AcDbEntity
  8
0
  6
Continuous
 62
     2
100
AcDbCircle
 10
189.8441673852845
 20
705.4599814642909
 30
0.0
 40
0.2609230769228077
100
AcDbArc
 50
0.0
 51
64.80558935144161
  0
ARC
  5
2F4
102
{ACAD_REACTORS
330
384
330
384
330
385
330
385
102
}
330
6D
100
AcDbEntity
  8
0
  6
Continuous
 62
     2
100
AcDbCircle
 10
188.1336484284613
 20
703.6956849396777
 30
0.0
 40
0.3506153846138886
100
AcDbArc
 50
180.0
 51
270.0
  0
ARC
  5
2F5
102
{ACAD_REACTORS
330
386
330
386
330
387
330
387
102
}
330
6D
100
AcDbEntity
  8
0
  6
Continuous
 62
     2
100
AcDbCircle
 10
200.4406203409857
 20
707.5126946924188
 30
0.0
 40
0.4280236140607304
100
AcDbArc
 50
38.12041979714642
 51
141.8795802028465
  0
ARC
  5
2F6
102
{ACAD_REACTORS
330
386
330
386
330
387
330
387
102
}
330
6D
100
AcDbEntity
  8
0
  6
Continuous
 62
     2
100
AcDbCircle
 10
200.6056947511892
 20
707.3831647931457
 30
0.0
 40
0.6378510567599356
100
AcDbArc
 50
141.8795802028404
 51
218.1204197971676
  0
ARC
  5
2F7
102
{ACAD_REACTORS
330
388
330
388
330
389
330
389
102
}
330
6D
100
AcDbEntity
  8
0
  6
Continuous
 62
     2
100
AcDbCircle
 10
197.1671100262804
 20
705.0520776312688
 30
0.0
 40
1.707008076205438
100
AcDbArc
 50
242.451851824339
 51
297.5481481756847
  0
ARC
  5
2F8
102
{ACAD_REACTORS
330
388
330
388
330
389
330
389
102
}
330
6D
100
AcDbEntity
  8
0
  6
Continuous
 62
     2
100
AcDbCircle
 10
197.1671100262804
 20
704.1618710026687
 30
0.0
 40
1.707008076205403
100
AcDbArc
 50
62.45185182430821
 51
117.5481481756681
  0
ARC
  5
2F9
102
{ACAD_REACTORS
330
388
330
388
330
389
330
389
102
}
330
6D
100
AcDbEntity
  8
0
  6
Continuous
 62
     2
100
AcDbCircle
 10
196.9349282974925
 20
704.6069743169686
 30
0.0
 40
1.20498684599291
100
AcDbArc
 50
117.548148175664
 51
242.4518518243384
  0
ARC
  5
2FA
102
{ACAD_REACTORS
330
388
330
388
330
389
330
389
102
}
330
6D
100
AcDbEntity
  8
0
  6
Continuous
 62
     2
100
AcDbCircle
 10
197.3992917550682
 20
704.6069743169686
 30
0.0
 40
1.204986845993431
100
AcDbArc
 50
297.5481481756999
 51
62.45185182429761
  0
ARC
  5
2FB
102
{ACAD_REACTORS
330
386
330
386
330
387
330
387
102
}
330
6D
100
AcDbEntity
  8
0
  6
Continuous
 62
     2
100
AcDbCircle
 10
200.4406203409857
 20
707.2536348938726
 30
0.0
 40
0.4280236140606632
100
AcDbArc
 50
218.1204197971535
 51
321.8795802028536
  0
ARC
  5
2FC
102
{ACAD_REACTORS
330
386
330
386
330
387
330
387
102
}
330
6D
100
AcDbEntity
  8
0
  6
Continuous
 62
     2
100
AcDbCircle
 10
200.2755459307823
 20
707.3831647931457
 30
0.0
 40
0.6378510567600058
100
AcDbArc
 50
321.8795802028323
 51
38.12041979715963
  0
ARC
  5
2FD
102
{ACAD_REACTORS
330
384
330
384
330
385
330
385
102
}
330
6D
100
AcDbEntity
  8
0
  6
Continuous
 62
     2
100
AcDbCircle
 10
192.6570468505414
 20
703.6956849396777
 30
0.0
 40
0.3506153846143434
100
AcDbArc
 50
270.0
 51
0.0
  0
ARC
  5
2FE
102
{ACAD_REACTORS
330
384
330
384
330
385
330
385
102
}
330
6D
100
AcDbEntity
  8
0
  6
Continuous
 62
     2
100
AcDbCircle
 10
192.6570468505414
 20
708.2944541704217
 30
0.0
 40
0.3506153846147981
100
AcDbArc
 50
0.0
 51
90.0
  0
ARC
  5
2FF
102
{ACAD_REACTORS
330
384
330
384
330
385
330
385
102
}
330
6D
100
AcDbEntity
  8
0
  6
Continuous
 62
     2
100
AcDbCircle
 10
188.1336484284613
 20
708.2944541704217
 30
0.0
 40
0.3506153846146844
100
AcDbArc
 50
90.0
 51
180.0
  0
ARC
  5
300
102
{ACAD_REACTORS
330
384
330
384
330
385
330
385
102
}
330
6D
100
AcDbEntity
  8
0
  6
Continuous
 62
     2
100
AcDbCircle
 10
189.8441673852845
 20
704.1948815208763
 30
0.0
 40
0.2609230769228361
100
AcDbArc
 50
270.0
 51
0.0
  0
ARC
  5
301
102
{ACAD_REACTORS
330
384
330
384
330
385
330
385
102
}
330
6D
100
AcDbEntity
  8
0
  6
Continuous
 62
     2
100
AcDbCircle
 10
189.8441673852845
 20
707.2960636891875
 30
0.0
 40
0.2609230769223558
100
AcDbArc
 50
295.1944106485584
 51
0.0
  0
ARC
  5
302
102
{ACAD_REACTORS
330
384
330
384
330
385
330
385
102
}
330
6D
100
AcDbEntity
  8
0
  6
Continuous
 62
     2
100
AcDbCircle
 10
189.8441673852845
 20
707.7952575892375
 30
0.0
 40
0.2609230769228077
100
AcDbArc
 50
0.0
 51
90.0
  0
ARC
  5
303
102
{ACAD_REACTORS
330
384
330
384
330
385
330
385
102
}
330
6D
100
AcDbEntity
  8
0
  6
Continuous
 62
     2
100
AcDbCircle
 10
188.6244704753593
 20
704.1948815208763
 30
0.0
 40
0.2609230769220972
100
AcDbArc
 50
180.0
 51
270.0
  0
ARC
  5
304
102
{ACAD_REACTORS
330
38A
330
38A
330
38B
330
38B
102
}
330
6D
100
AcDbEntity
  8
0
  6
Continuous
 62
     2
100
AcDbCircle
 10
195.0542647797026
 20
707.7728665456847
 30
0.0
 40
0.8722030093666717
100
AcDbArc
 50
270.0
 51
90.0
  0
ARC
  5
305
102
{ACAD_REACTORS
330
382
330
382
330
383
330
383
102
}
330
6D
100
AcDbEntity
  8
0
  6
Continuous
 62
     2
100
AcDbCircle
 10
208.0527881777944
 20
704.7001894922039
 30
0.0
 40
1.35511993714088
100
AcDbArc
 50
195.0618917771007
 51
275.1581447696771
  0
ARC
  5
306
102
{ACAD_REACTORS
330
382
330
382
330
383
330
383
102
}
330
6D
100
AcDbEntity
  8
0
  6
Continuous
 62
     2
100
AcDbCircle
 10
207.8140641325582
 20
707.3447271642879
 30
0.0
 40
4.010410630990729
100
AcDbArc
 50
275.1581447696365
 51
285.979991258338
  0
ARC
  5
307
102
{ACAD_REACTORS
330
382
330
382
330
383
330
383
102
}
330
6D
100
AcDbEntity
  8
0
  6
Continuous
 62
     2
100
AcDbCircle
 10
207.9445375830481
 20
705.772648999124
 30
0.0
 40
1.840813230556049
100
AcDbArc
 50
288.4480761181319
 51
301.9309089499387
  0
ARC
  5
308
102
{ACAD_REACTORS
330
382
330
382
330
383
330
383
102
}
330
6D
100
AcDbEntity
  8
0
  6
Continuous
 62
     2
100
AcDbCircle
 10
208.2901307513637
 20
704.7366607544657
 30
0.0
 40
0.7487023016407311
100
AcDbArc
 50
246.6277221118208
 51
288.4480761180789
  0
ARC
  5
309
102
{ACAD_REACTORS
330
382
330
382
330
383
330
383
102
}
330
6D
100
AcDbEntity
  8
0
  6
Continuous
 62
     2
100
AcDbCircle
 10
208.4727069706847
 20
704.6069743169686
 30
0.0
 40
0.7777353184586058
100
AcDbArc
 50
151.4785267423652
 51
208.5214732576716
  0
ARC
  5
30A
102
{ACAD_REACTORS
330
382
330
382
330
383
330
383
102
}
330
6D
100
AcDbEntity
  8
0
  6
Continuous
 62
     2
100
AcDbCircle
 10
208.2820563426039
 20
704.431037497924
 30
0.0
 40
0.7888619891125472
100
AcDbArc
 50
90.0
 51
109.337143219431
  0
ARC
  5
30B
102
{ACAD_REACTORS
330
384
330
384
330
385
330
385
102
}
330
6D
100
AcDbEntity
  8
0
  6
Continuous
 62
     2
100
AcDbCircle
 10
190.7530231088566
 20
707.7951109143216
 30
0.0
 40
0.2609230769224679
100
AcDbArc
 50
90.18896704255972
 51
180.0
  0
ARC
  5
30C
102
{ACAD_REACTORS
330
384
330
384
330
385
330
385
102
}
330
6D
100
AcDbEntity
  8
0
  6
Continuous
 62
     2
100
AcDbCircle
 10
190.3182770773789
 20
706.3780225767393
 30
0.0
 40
0.7535935125160714
100
AcDbArc
 50
295.3740086781789
 51
64.6259913218062
  0
ARC
  5
30D
102
{ACAD_REACTORS
330
380
330
380
330
381
330
381
102
}
330
6D
100
AcDbEntity
  8
0
  6
Continuous
 62
     2
100
AcDbCircle
 10
194.6365198315994
 20
705.7726489991245
 30
0.0
 40
1.840813230556049
100
AcDbArc
 50
288.4480761181319
 51
301.930908949962
  0
ARC
  5
30E
102
{ACAD_REACTORS
330
380
330
380
330
381
330
381
102
}
330
6D
100
AcDbEntity
  8
0
  6
Continuous
 62
     2
100
AcDbCircle
 10
194.9821129999142
 20
704.7366607544657
 30
0.0
 40
0.7487023016404492
100
AcDbArc
 50
246.6277221118707
 51
288.4480761181498
  0
ARC
  5
30F
102
{ACAD_REACTORS
330
380
330
380
330
381
330
381
102
}
330
6D
100
AcDbEntity
  8
0
  6
Continuous
 62
     2
100
AcDbCircle
 10
194.8528237166893
 20
704.437493796854
 30
0.0
 40
0.4227934381774399
100
AcDbArc
 50
208.5214732576858
 51
246.6277221118326
  0
ARC
  5
310
102
{ACAD_REACTORS
330
380
330
380
330
381
330
381
102
}
330
6D
100
AcDbEntity
  8
0
  6
Continuous
 62
     2
100
AcDbCircle
 10
194.9821129999142
 20
704.4772878794714
 30
0.0
 40
0.7487023016407734
100
AcDbArc
 50
71.55192388186123
 51
113.3722778881292
  0
ARC
  5
311
102
{ACAD_REACTORS
330
380
330
380
330
381
330
381
102
}
330
6D
100
AcDbEntity
  8
0
  6
Continuous
 62
     2
100
AcDbCircle
 10
194.5060463811095
 20
701.8692214696497
 30
0.0
 40
4.010410630989973
100
AcDbArc
 50
74.0200087416476
 51
84.84185523037583
  0
CIRCLE
  5
312
102
{ACAD_REACTORS
330
384
330
384
330
385
330
385
102
}
330
6D
100
AcDbEntity
  8
0
  6
Continuous
 62
     2
100
AcDbCircle
 10
190.2985952470709
 20
706.3780225767393
 30
0.0
 40
0.3892387874201972
  0
CIRCLE
  5
313
330
6D
100
AcDbEntity
  8
1
  6
Continuous
 62
     2
100
AcDbCircle
 10
186.2152475081552
 20
712.3700695550574
 30
0.0
 40
1.0
  0
CIRCLE
  5
314
330
6D
100
AcDbEntity
  8
1
  6
Continuous
 62
     2
100
AcDbCircle
 10
186.2152475081552
 20
712.3700695550574
 30
0.0
 40
1.5
  0
MTEXT
  5
316
330
6D
100
AcDbEntity
  8
1
 62
     2
100
AcDbMText
 10
79.3677922098017
 20
703.8700695550575
 30
0.0
 40
2.0
 41
0.0
 71
     4
 72
     1
  1
 
  7
CONVERTER_12
 73
     1
 44
1.20048019207683
  0
MTEXT
  5
317
330
6D
100
AcDbEntity
  8
1
 62
     2
100
AcDbMText
 10
79.3677922098017
 20
708.1200695550574
 30
0.0
 40
2.0
 41
0.0
 71
     4
 72
     1
  1
 
  7
CONVERTER_12
 73
     1
 44
1.20048019207683
  0
MTEXT
  5
318
330
6D
100
AcDbEntity
  8
1
 62
     2
100
AcDbMText
 10
79.3677922098017
 20
712.3700695550574
 30
0.0
 40
2.0
 41
0.0
 71
     4
 72
     1
  1
 
  7
CONVERTER_12
 73
     1
 44
1.20048019207683
  0
MTEXT
  5
319
330
6D
100
AcDbEntity
  8
1
 62
     2
100
AcDbMText
 10
79.3677922098017
 20
716.6200695550574
 30
0.0
 40
2.0
 41
0.0
 71
     4
 72
     1
  1
 
  7
CONVERTER_12
 73
     1
 44
1.20048019207683
  0
MTEXT
  5
31A
330
6D
100
AcDbEntity
  8
1
 62
     2
100
AcDbMText
 10
79.3677922098017
 20
720.8700695550574
 30
0.0
 40
2.0
 41
0.0
 71
     4
 72
     1
  1
 
  7
CONVERTER_12
 73
     1
 44
1.20048019207683
  0
MTEXT
  5
31B
330
6D
100
AcDbEntity
  8
1
 62
     2
100
AcDbMText
 10
79.3677922098017
 20
725.1200695550574
 30
0.0
 40
2.0
 41
0.0
 71
     4
 72
     1
  1
 
  7
CONVERTER_12
 73
     1
 44
1.20048019207683
  0
MTEXT
  5
31C
330
6D
100
AcDbEntity
  8
1
 62
     2
100
AcDbMText
 10
174.3729876830518
 20
703.8700695550575
 30
0.0
 40
2.0
 41
0.0
 71
     5
 72
     1
  1
 
  7
CONVERTER_11
 73
     1
 44
1.20048019207683
  0
MTEXT
  5
31D
330
6D
100
AcDbEntity
  8
1
 62
     2
100
AcDbMText
 10
174.3729876830518
 20
708.1200695550574
 30
0.0
 40
2.0
 41
0.0
 71
     5
 72
     1
  1
 
  7
CONVERTER_11
 73
     1
 44
1.20048019207683
  0
MTEXT
  5
31E
330
6D
100
AcDbEntity
  8
1
 62
     2
100
AcDbMText
 10
174.3729876830518
 20
712.3700695550574
 30
0.0
 40
2.0
 41
0.0
 71
     5
 72
     1
  1
 
  7
CONVERTER_11
 73
     1
 44
1.20048019207683
  0
MTEXT
  5
31F
330
6D
100
AcDbEntity
  8
1
 62
     2
100
AcDbMText
 10
174.3729876830518
 20
716.6200695550574
 30
0.0
 40
2.0
 41
0.0
 71
     5
 72
     1
  1
 
  7
CONVERTER_11
 73
     1
 44
1.20048019207683
  0
MTEXT
  5
320
330
6D
100
AcDbEntity
  8
1
 62
     2
100
AcDbMText
 10
174.3729876830518
 20
720.8700695550574
 30
0.0
 40
2.0
 41
0.0
 71
     5
 72
     1
  1
 
  7
CONVERTER_11
 73
     1
 44
1.20048019207683
  0
MTEXT
  5
321
330
6D
100
AcDbEntity
  8
1
 62
     2
100
AcDbMText
 10
174.3729876830518
 20
725.1200695550574
 30
0.0
 40
2.0
 41
0.0
 71
     5
 72
     1
  1
 
  7
CONVERTER_11
 73
     1
 44
1.20048019207683
  0
MTEXT
  5
322
330
6D
100
AcDbEntity
  8
1
 62
     2
100
AcDbMText
 10
160.8729876830518
 20
703.8700695550575
 30
0.0
 40
2.0
 41
0.0
 71
     5
 72
     1
  1
 
  7
CONVERTER_11
 73
     1
 44
1.20048019207683
  0
MTEXT
  5
323
330
6D
100
AcDbEntity
  8
1
 62
     2
100
AcDbMText
 10
160.8729876830519
 20
708.1200695550574
 30
0.0
 40
2.0
 41
0.0
 71
     5
 72
     1
  1
 
  7
CONVERTER_11
 73
     1
 44
1.20048019207683
  0
MTEXT
  5
324
330
6D
100
AcDbEntity
  8
1
 62
     2
100
AcDbMText
 10
160.8729876830519
 20
712.3700695550574
 30
0.0
 40
2.0
 41
0.0
 71
     5
 72
     1
  1
 
  7
CONVERTER_11
 73
     1
 44
1.20048019207683
  0
MTEXT
  5
325
330
6D
100
AcDbEntity
  8
1
 62
     2
100
AcDbMText
 10
160.8729876830519
 20
716.6200695550574
 30
0.0
 40
2.0
 41
0.0
 71
     5
 72
     1
  1
 
  7
CONVERTER_11
 73
     1
 44
1.20048019207683
  0
MTEXT
  5
326
330
6D
100
AcDbEntity
  8
1
 62
     2
100
AcDbMText
 10
160.8729876830519
 20
720.8700695550574
 30
0.0
 40
2.0
 41
0.0
 71
     5
 72
     1
  1
 
  7
CONVERTER_11
 73
     1
 44
1.20048019207683
  0
MTEXT
  5
327
330
6D
100
AcDbEntity
  8
1
 62
     2
100
AcDbMText
 10
160.8729876830519
 20
725.1200695550574
 30
0.0
 40
2.0
 41
0.0
 71
     5
 72
     1
  1
 
  7
CONVERTER_11
 73
     1
 44
1.20048019207683
  0
MTEXT
  5
328
330
6D
100
AcDbEntity
  8
1
 62
     2
100
AcDbMText
 10
147.3729876830519
 20
725.1200695550574
 30
0.0
 40
2.0
 41
0.0
 71
     5
 72
     1
  1
 
  7
CONVERTER_11
 73
     1
 44
1.20048019207683
  0
MTEXT
  5
329
330
6D
100
AcDbEntity
  8
1
 62
     2
100
AcDbMText
 10
147.3729876830519
 20
720.8700695550574
 30
0.0
 40
2.0
 41
0.0
 71
     5
 72
     1
  1
 
  7
CONVERTER_11
 73
     1
 44
1.20048019207683
  0
MTEXT
  5
32A
330
6D
100
AcDbEntity
  8
1
 62
     2
100
AcDbMText
 10
147.3729876830519
 20
716.6200695550574
 30
0.0
 40
2.0
 41
0.0
 71
     5
 72
     1
  1
 
  7
CONVERTER_11
 73
     1
 44
1.20048019207683
  0
MTEXT
  5
32B
330
6D
100
AcDbEntity
  8
1
 62
     2
100
AcDbMText
 10
147.3729876830519
 20
712.3700695550574
 30
0.0
 40
2.0
 41
0.0
 71
     5
 72
     1
  1
 
  7
CONVERTER_11
 73
     1
 44
1.20048019207683
  0
MTEXT
  5
32C
330
6D
100
AcDbEntity
  8
1
 62
     2
100
AcDbMText
 10
147.3729876830519
 20
708.1200695550574
 30
0.0
 40
2.0
 41
0.0
 71
     5
 72
     1
  1
 
  7
CONVERTER_11
 73
     1
 44
1.20048019207683
  0
MTEXT
  5
32D
330
6D
100
AcDbEntity
  8
1
 62
     2
100
AcDbMText
 10
147.3729876830519
 20
703.8700695550575
 30
0.0
 40
2.0
 41
0.0
 71
     5
 72
     1
  1
 
  7
CONVERTER_11
 73
     1
 44
1.20048019207683
  0
MTEXT
  5
32E
330
6D
100
AcDbEntity
  8
1
 62
     2
100
AcDbMText
 10
71.6177922098017
 20
725.1200695550574
 30
0.0
 40
2.0
 41
0.0
 71
     5
 72
     1
  1
 
  7
CONVERTER_11
 73
     1
 44
1.20048019207683
  0
MTEXT
  5
32F
330
6D
100
AcDbEntity
  8
1
 62
     2
100
AcDbMText
 10
71.6177922098017
 20
720.8700695550574
 30
0.0
 40
2.0
 41
0.0
 71
     5
 72
     1
  1
 
  7
CONVERTER_11
 73
     1
 44
1.20048019207683
  0
MTEXT
  5
330
330
6D
100
AcDbEntity
  8
1
 62
     2
100
AcDbMText
 10
71.6177922098017
 20
716.6200695550574
 30
0.0
 40
2.0
 41
0.0
 71
     5
 72
     1
  1
 
  7
CONVERTER_11
 73
     1
 44
1.20048019207683
  0
MTEXT
  5
331
330
6D
100
AcDbEntity
  8
1
 62
     2
100
AcDbMText
 10
71.6177922098017
 20
712.3700695550574
 30
0.0
 40
2.0
 41
0.0
 71
     5
 72
     1
  1
 
  7
CONVERTER_11
 73
     1
 44
1.20048019207683
  0
MTEXT
  5
332
330
6D
100
AcDbEntity
  8
1
 62
     2
100
AcDbMText
 10
71.6177922098017
 20
708.1200695550574
 30
0.0
 40
2.0
 41
0.0
 71
     5
 72
     1
  1
 
  7
CONVERTER_11
 73
     1
 44
1.20048019207683
  0
MTEXT
  5
333
330
6D
100
AcDbEntity
  8
1
 62
     2
100
AcDbMText
 10
71.6177922098017
 20
703.8700695550575
 30
0.0
 40
2.0
 41
0.0
 71
     5
 72
     1
  1
 
  7
CONVERTER_11
 73
     1
 44
1.20048019207683
  0
MTEXT
  5
334
330
6D
100
AcDbEntity
  8
1
 62
     2
100
AcDbMText
 10
61.76779220980271
 20
703.8700695550575
 30
0.0
 40
2.0
 41
0.0
 71
     5
 72
     1
  1
 
  7
CONVERTER_11
 73
     1
 44
1.20048019207683
  0
MTEXT
  5
335
330
6D
100
AcDbEntity
  8
1
 62
     2
100
AcDbMText
 10
61.76779220980271
 20
708.1200695550574
 30
0.0
 40
2.0
 41
0.0
 71
     5
 72
     1
  1
 
  7
CONVERTER_11
 73
     1
 44
1.20048019207683
  0
MTEXT
  5
336
330
6D
100
AcDbEntity
  8
1
 62
     2
100
AcDbMText
 10
61.76779220980271
 20
712.3700695550574
 30
0.0
 40
2.0
 41
0.0
 71
     5
 72
     1
  1
 
  7
CONVERTER_11
 73
     1
 44
1.20048019207683
  0
MTEXT
  5
337
330
6D
100
AcDbEntity
  8
1
 62
     2
100
AcDbMText
 10
61.76779220980271
 20
716.6200695550574
 30
0.0
 40
2.0
 41
0.0
 71
     5
 72
     1
  1
 
  7
CONVERTER_11
 73
     1
 44
1.20048019207683
  0
MTEXT
  5
338
330
6D
100
AcDbEntity
  8
1
 62
     2
100
AcDbMText
 10
61.76779220980271
 20
720.8700695550574
 30
0.0
 40
2.0
 41
0.0
 71
     5
 72
     1
  1
 
  7
CONVERTER_11
 73
     1
 44
1.20048019207683
  0
MTEXT
  5
339
330
6D
100
AcDbEntity
  8
1
 62
     2
100
AcDbMText
 10
61.76779220980271
 20
725.1200695550574
 30
0.0
 40
2.0
 41
0.0
 71
     5
 72
     1
  1
 
  7
CONVERTER_11
 73
     1
 44
1.20048019207683
  0
MTEXT
  5
33A
330
6D
100
AcDbEntity
  8
1
 62
     2
100
AcDbMText
 10
266.6677922098055
 20
713.4950695550574
 30
0.0
 40
1.8
 41
0.0
 71
     1
 72
     1
  1
surface in um
  7
CONVERTER_11
 73
     1
 44
1.32052821128451
  0
MTEXT
  5
33B
330
6D
100
AcDbEntity
  8
1
 62
     2
100
AcDbMText
 10
294.0862004914826
 20
726.2450695550574
 30
0.0
 40
1.8
 41
0.0
 71
     1
 72
     1
  1
dim.var.
  7
CONVERTER_11
 73
     1
 44
1.20048019207683
  0
MTEXT
  5
33D
330
6D
100
AcDbEntity
  8
1
 62
     2
100
AcDbMText
 10
248.1677922098059
 20
713.4950695550574
 30
0.0
 40
1.8
 41
0.0
 71
     1
 72
     1
  1
document-No.
  7
CONVERTER_13
 73
     1
 44
1.32052821128451
  0
TEXT
  5
33E
330
6D
100
AcDbEntity
  8
1
 62
     2
100
AcDbText
 10
200.3229876830518
 20
698.7360523400658
 30
0.0
 40
1.8
  1
of
 41
0.9
  7
CONVERTER_11
100
AcDbText
  0
TEXT
  5
33F
330
6D
100
AcDbEntity
  8
1
 62
     2
100
AcDbText
 10
182.1229876830519
 20
698.7360523400657
 30
0.0
 40
1.8
  1
page
 41
0.9
  7
CONVERTER_11
100
AcDbText
  0
MTEXT
  5
340
330
6D
100
AcDbEntity
  8
1
 62
     2
100
AcDbMText
 10
174.3729876830518
 20
698.7450695550574
 30
0.0
 40
1.8
 41
0.0
 71
     8
 72
     1
  1
name
  7
CONVERTER_11
 73
     1
 44
1.32052821128451
  0
MTEXT
  5
341
330
6D
100
AcDbEntity
  8
1
 62
     2
100
AcDbMText
 10
160.8729876830519
 20
698.7450695550574
 30
0.0
 40
1.8
 41
0.0
 71
     8
 72
     1
  1
check.on
  7
CONVERTER_11
 73
     1
 44
1.32052821128451
  0
MTEXT
  5
342
330
6D
100
AcDbEntity
  8
1
 62
     2
100
AcDbMText
 10
147.3729876830519
 20
698.7450695550574
 30
0.0
 40
1.8
 41
0.0
 71
     8
 72
     1
  1
name
  7
CONVERTER_11
 73
     1
 44
1.32052821128451
  0
MTEXT
  5
343
330
6D
100
AcDbEntity
  8
1
 62
     2
100
AcDbMText
 10
71.6177922098017
 20
698.7450695550574
 30
0.0
 40
1.8
 41
0.0
 71
     8
 72
     1
  1
date
  7
CONVERTER_11
 73
     1
 44
1.32052821128451
  0
MTEXT
  5
344
330
6D
100
AcDbEntity
  8
1
 62
     2
100
AcDbMText
 10
241.6481768406433
 20
726.2450695550572
 30
0.0
 40
1.8
 41
0.0
 71
     1
 72
     1
  1
material
  7
CONVERTER_11
 73
     1
 44
1.20048019207683
  0
MTEXT
  5
345
330
6D
100
AcDbEntity
  8
1
 62
     2
100
AcDbMText
 10
61.76779220980271
 20
698.7450695550574
 30
0.0
 40
1.8
 41
0.0
 71
     8
 72
     1
  1
RI
  7
CONVERTER_11
 73
     1
 44
1.32052821128451
  0
MTEXT
  5
346
330
6D
100
AcDbEntity
  8
1
 62
     2
100
AcDbMText
 10
197.2729876830518
 20
724.1950695550574
 30
0.0
 40
1.8
 41
0.0
 71
     8
 72
     1
  1
date
  7
CONVERTER_11
 73
     1
 44
1.32052821128451
  0
MTEXT
  5
347
330
6D
100
AcDbEntity
  8
1
 62
     2
100
AcDbMText
 10
210.7729876830518
 20
724.1950695550574
 30
0.0
 40
1.8
 41
0.0
 71
     8
 72
     1
  1
name
  7
CONVERTER_11
 73
     1
 44
1.32052821128451
  0
MTEXT
  5
348
330
6D
100
AcDbEntity
  8
1
 62
     2
100
AcDbMText
 10
109.4953899464268
 20
698.7450695550574
 30
0.0
 40
1.8
 41
0.0
 71
     8
 72
     1
  1
revision
  7
CONVERTER_11
 73
     1
 44
1.32052821128451
  0
MTEXT
  5
349
330
6D
100
AcDbEntity
  8
1
 62
     2
100
AcDbMText
 10
284.9677922098038
 20
726.2450695550574
 30
0.0
 40
1.8
 41
0.0
 71
     1
 72
     1
  1
scale
  7
CONVERTER_11
 73
     1
 44
1.20048019207683
  0
MTEXT
  5
34A
330
6D
100
AcDbEntity
  8
1
 62
     2
100
AcDbMText
 10
185.8229876830519
 20
720.8700695550574
 30
0.0
 40
1.8
 41
0.0
 71
     5
 72
     1
  1
creat.
  7
CONVERTER_11
 73
     1
 44
1.20048019207683
  0
MTEXT
  5
34B
330
6D
100
AcDbEntity
  8
1
 62
     2
100
AcDbMText
 10
185.8229876830519
 20
716.6200695550574
 30
0.0
 40
1.8
 41
0.0
 71
     5
 72
     1
  1
check.
  7
CONVERTER_11
 73
     1
 44
1.20048019207683
  0
MTEXT
  5
34C
330
6D
100
AcDbEntity
  8
1
 62
     3
100
AcDbMText
 10
207.3229876830518
 20
712.3700695550575
 30
0.0
 40
2.5
 41
0.0
 71
     5
 72
     1
  1
DIN A3
  7
CONVERTER_11
 73
     1
 44
1.20048019207683
  0
MTEXT
  5
34D
330
6D
100
AcDbEntity
  8
1
 62
     2
100
AcDbMText
 10
218.6229876830518
 20
726.2450695550574
 30
0.0
 40
1.8
 41
0.0
 71
     1
 72
     1
  1
ident.-No. / RI
  7
CONVERTER_11
 73
     1
 44
1.20048019207683
  0
TEXT
  5
34E
330
6D
100
AcDbEntity
  8
1
 62
     2
100
AcDbText
 10
190.769252653394
 20
698.6958209012555
 30
0.0
 40
1.8
  1
 
 41
0.9
  7
CONVERTER_11
100
AcDbText
  0
TEXT
  5
34F
330
6D
100
AcDbEntity
  8
1
 62
     2
100
AcDbText
 10
205.5582964928655
 20
698.7450695550574
 30
0.0
 40
1.8
  1
1
 41
0.9
  7
CONVERTER_11
100
AcDbText
  0
MTEXT
  5
350
330
6D
100
AcDbEntity
  8
1
 62
     2
100
AcDbMText
 10
218.5229876830518
 20
704.9950695550574
 30
0.0
 40
1.8
 41
0.0
 71
     1
 72
     1
  1
description
  7
CONVERTER_11
 73
     1
 44
1.20048019207683
  0
MTEXT
  5
351
330
6D
100
AcDbEntity
  8
1
 62
     2
100
AcDbMText
 10
185.8229876830519
 20
724.1950695550574
 30
0.0
 40
1.8
 41
0.0
 71
     8
 72
     1
  1
00
  7
CONVERTER_11
 73
     1
 44
1.20048019207683
  0
MTEXT
  5
352
330
6D
100
AcDbEntity
  8
1
 62
     2
100
AcDbMText
 10
218.5229876830518
 20
713.4950695550574
 30
0.0
 40
1.8
 41
0.0
 71
     1
 72
     1
  1
document-type
  7
CONVERTER_11
 73
     1
 44
1.20048019207683
  0
MTEXT
  5
353
330
6D
100
AcDbEntity
  8
1
 62
     2
100
AcDbMText
 10
210.7729876830518
 20
716.6200695550574
 30
0.0
 40
1.8
 41
0.0
 71
     5
 72
     1
  1
pbam06
  7
CONVERTER_11
 73
     1
 44
1.32052821128451
  0
MTEXT
  5
354
330
6D
100
AcDbEntity
  8
1
 62
     2
100
AcDbMText
 10
210.7729876830518
 20
720.8700695550574
 30
0.0
 40
1.8
 41
0.0
 71
     5
 72
     1
  1
pbfm09
  7
CONVERTER_11
 73
     1
 44
1.32052821128451
  0
MTEXT
  5
355
330
6D
100
AcDbEntity
  8
1
 62
     2
100
AcDbMText
 10
197.2729876830518
 20
716.6200695550574
 30
0.0
 40
1.8
 41
0.0
 71
     5
 72
     1
  1
19.03.12
  7
CONVERTER_11
 73
     1
 44
1.32052821128451
  0
MTEXT
  5
356
330
6D
100
AcDbEntity
  8
1
 62
     2
100
AcDbMText
 10
197.2729876830518
 20
720.8700695550574
 30
0.0
 40
1.8
 41
0.0
 71
     5
 72
     1
  1
09.12.11
  7
CONVERTER_11
 73
     1
 44
1.32052821128451
  0
TEXT
  5
357
330
6D
100
AcDbEntity
  8
1
 62
     7
100
AcDbText
 10
233.4965354050656
 20
720.0450695550574
 30
0.0
 40
2.5
  1
/
 41
0.9
  7
CONVERTER_11
100
AcDbText
  0
MTEXT
  5
359
330
6D
100
AcDbEntity
  8
1
 62
     3
100
AcDbMText
 10
288.3269963506433
 20
720.0450695550575
 30
0.0
 40
2.5
 41
0.0
 71
     8
 72
     1
  1
1:2
  7
CONVERTER_14
 73
     1
 44
1.32052821128451
  0
TEXT
  5
35B
330
6D
100
AcDbEntity
  8
1
 62
     3
100
AcDbText
 10
241.4229876830518
 20
720.0450695550574
 30
0.0
 40
2.5
  1
 
 41
0.54
  7
CONVERTER_15
100
AcDbText
  0
TEXT
  5
35D
330
6D
100
AcDbEntity
  8
1
 62
     7
100
AcDbText
 10
219.0229876830516
 20
720.0450695550574
 30
0.0
 40
2.5
  1
3240264
 41
0.81
  7
CONVERTER_16
100
AcDbText
  0
TEXT
  5
35E
330
6D
100
AcDbEntity
  8
1
 62
     7
100
AcDbText
 10
248.1677922098059
 20
707.2950695550574
 30
0.0
 40
2.5
  1
00630196
 41
0.81
  7
CONVERTER_16
100
AcDbText
  0
TEXT
  5
35F
330
6D
100
AcDbEntity
  8
1
 62
     3
100
AcDbText
 10
293.7862004914828
 20
720.0450695550574
 30
0.0
 40
2.5
  1
 
 41
0.54
  7
CONVERTER_15
100
AcDbText
  0
TEXT
  5
360
330
6D
100
AcDbEntity
  8
1
 62
     7
100
AcDbText
 10
235.6528999021076
 20
720.0450695550574
 30
0.0
 40
2.5
  1
03
 41
0.81
  7
CONVERTER_16
100
AcDbText
  0
TEXT
  5
361
330
6D
100
AcDbEntity
  8
1
 62
     7
100
AcDbText
 10
275.3344588764702
 20
693.495069555058
 30
0.0
 40
2.5
  1
6
 41
0.9
  7
CONVERTER_11
100
AcDbText
  0
TEXT
  5
362
330
6D
100
AcDbEntity
  8
1
 62
     7
100
AcDbText
 10
207.0011255431368
 20
693.495069555058
 30
0.0
 40
2.5
  1
5
 41
0.9
  7
CONVERTER_11
100
AcDbText
  0
TEXT
  5
363
330
6D
100
AcDbEntity
  8
1
 62
     7
100
AcDbText
 10
138.6677922098036
 20
693.495069555058
 30
0.0
 40
2.5
  1
4
 41
0.9
  7
CONVERTER_11
100
AcDbText
  0
TEXT
  5
364
330
6D
100
AcDbEntity
  8
1
 62
     7
100
AcDbText
 10
70.33445887647045
 20
693.495069555058
 30
0.0
 40
2.5
  1
3
 41
0.9
  7
CONVERTER_11
100
AcDbText
  0
TEXT
  5
365
330
6D
100
AcDbEntity
  8
1
 62
     7
100
AcDbText
 10
311.6677922098036
 20
724.995069555058
 30
0.0
 40
2.5
  1
E
 41
0.9
  7
CONVERTER_11
100
AcDbText
  0
TEXT
  5
366
330
6D
100
AcDbEntity
  8
1
 62
     7
100
AcDbText
 10
-66.33220779019615
 20
693.495069555058
 30
0.0
 40
2.5
  1
1
 41
0.9
  7
CONVERTER_11
100
AcDbText
  0
TEXT
  5
367
330
6D
100
AcDbEntity
  8
1
 62
     7
100
AcDbText
 10
2.00112554313702
 20
693.495069555058
 30
0.0
 40
2.5
  1
2
 41
0.9
  7
CONVERTER_11
100
AcDbText
  0
TEXT
  5
368
330
6D
100
AcDbEntity
  8
1
 62
     7
100
AcDbText
 10
311.6677922098036
 20
782.3950695550581
 30
0.0
 40
2.5
  1
D
 41
0.9
  7
CONVERTER_11
100
AcDbText
  0
TEXT
  5
369
330
6D
100
AcDbEntity
  8
1
 62
     7
100
AcDbText
 10
311.6677922098036
 20
839.7950695550581
 30
0.0
 40
2.5
  1
C
 41
0.9
  7
CONVERTER_11
100
AcDbText
  0
TEXT
  5
36A
330
6D
100
AcDbEntity
  8
1
 62
     7
100
AcDbText
 10
311.6677922098036
 20
897.195069555058
 30
0.0
 40
2.5
  1
B
 41
0.9
  7
CONVERTER_11
100
AcDbText
  0
TEXT
  5
36B
330
6D
100
AcDbEntity
  8
1
 62
     7
100
AcDbText
 10
311.6677922098036
 20
954.5950695550579
 30
0.0
 40
2.5
  1
A
 41
0.9
  7
CONVERTER_11
100
AcDbText
  0
TEXT
  5
36C
330
6D
100
AcDbEntity
  8
1
 62
     7
100
AcDbText
 10
275.3344588764702
 20
985.4950695550582
 30
0.0
 40
2.5
  1
6
 41
0.9
  7
CONVERTER_11
100
AcDbText
  0
TEXT
  5
36D
330
6D
100
AcDbEntity
  8
1
 62
     7
100
AcDbText
 10
207.001125543137
 20
985.4950695550582
 30
0.0
 40
2.5
  1
5
 41
0.9
  7
CONVERTER_11
100
AcDbText
  0
TEXT
  5
36E
330
6D
100
AcDbEntity
  8
1
 62
     7
100
AcDbText
 10
138.6677922098036
 20
985.4950695550582
 30
0.0
 40
2.5
  1
4
 41
0.9
  7
CONVERTER_11
100
AcDbText
  0
TEXT
  5
36F
330
6D
100
AcDbEntity
  8
1
 62
     7
100
AcDbText
 10
70.33445887647045
 20
985.4950695550582
 30
0.0
 40
2.5
  1
3
 41
0.9
  7
CONVERTER_11
100
AcDbText
  0
TEXT
  5
370
330
6D
100
AcDbEntity
  8
1
 62
     7
100
AcDbText
 10
2.00112554313702
 20
985.4950695550582
 30
0.0
 40
2.5
  1
2
 41
0.9
  7
CONVERTER_11
100
AcDbText
  0
TEXT
  5
371
330
6D
100
AcDbEntity
  8
1
 62
     7
100
AcDbText
 10
-66.33220779019615
 20
985.4950695550582
 30
0.0
 40
2.5
  1
1
 41
0.9
  7
CONVERTER_11
100
AcDbText
  0
MTEXT
  5
372
330
6D
100
AcDbEntity
  8
1
 62
     3
100
AcDbMText
 10
-85.90953447884314
 20
697.5219836545585
 30
0.0
 40
1.8
 41
0.0
 71
     7
 72
     1
  3
Weitergabe sowie Vervielf\U+00e4ltigung dieses Dokuments, Verwertung und\PMitteilung seines Inhalts gem\U+00e4\U+00df \U+00a718 UWG verboten, soweit nicht aus-\Pdr\U+00fccklich gestattet. Zuwiderhandlungen verpflichten zu Schadenersatz\P(\U+00a719 U
  1
WG). Alle Rechte vorbehalten, insbesondere das Recht, Patent-,\PGebrauchsmuster- oder Geschmacksmusteranmeldungen durchzuf\U+00fchren.\PPhoenix Contact GmbH & Co. KG
  7
CONVERTER_11
 11
6.123233764940082E-17
 21
1.0
 31
0.0
 73
     1
 44
0.99639855942377
  0
MTEXT
  5
373
330
6D
100
AcDbEntity
  8
1
 62
     3
100
AcDbMText
 10
-86.06374078993716
 20
870.4813536687117
 30
0.0
 40
1.8
 41
0.0
 71
     7
 72
     1
  3
The copying, distribution and utilistion of this document as well as the communication\Pof the contents to others without expressed authorization is prohibited according to\P\U+00a718 UWG German Law. Offenders will be held liable for the payment of 
  1
damages\Paccording to (\U+00a719 UWG German Law). All rights reserved, in particular the right to\Pcarry out patent, utility model or ornamental design registrations.\PFlachsmarktstra\U+00dfe 8  D-32825 Blomberg
  7
CONVERTER_11
 11
6.123233764940082E-17
 21
1.0
 31
0.0
 73
     1
 44
0.99639855942377
  0
TEXT
  5
374
330
6D
100
AcDbEntity
  8
1
 62
     3
100
AcDbText
 10
218.6229876830535
 20
736.5398411286623
 30
0.0
 40
2.5
  1
 
 41
0.72
  7
CONVERTER_14
100
AcDbText
  0
TEXT
  5
375
330
6D
100
AcDbEntity
  8
1
 62
     3
100
AcDbText
 10
218.6229876830535
 20
733.0398411286623
 30
0.0
 40
2.5
  1
 
 41
0.72
  7
CONVERTER_14
100
AcDbText
  0
TEXT
  5
376
330
6D
100
AcDbEntity
  8
1
 62
     3
100
AcDbText
 10
218.6229876830535
 20
729.5398411286623
 30
0.0
 40
2.5
  1
 
 41
0.72
  7
CONVERTER_14
100
AcDbText
  0
TEXT
  5
378
330
6D
100
AcDbEntity
  8
1
 62
     3
100
AcDbText
 10
218.5229876830518
 20
707.2950695550574
 30
0.0
 40
2.5
  1
KUNDENZCHNG-SELECT
 41
0.45
  7
CONVERTER_17
100
AcDbText
  0
MTEXT
  5
379
330
6D
100
AcDbEntity
  8
1
 62
     3
100
AcDbMText
 10
258.3748120964123
 20
717.8450695550574
 30
0.0
 40
2.0
 41
0.0
 71
     1
 72
     1
  1
Deckelgeom. geaendert
  7
CONVERTER_14
 73
     1
 44
1.20048019207683
  0
MTEXT
  5
37B
330
6D
100
AcDbEntity
  8
1
 62
     3
100
AcDbMText
 10
227.8552245011667
 20
716.6200695550574
 30
0.0
 40
2.5
 41
0.0
 71
     4
 72
     1
  1
A03-10025/19
  7
CONVERTER_18
 73
     1
 44
1.20048019207683
  0
MTEXT
  5
37C
330
6D
100
AcDbEntity
  8
1
 62
     2
100
AcDbMText
 10
218.6229876830518
 20
716.8200695550573
 30
0.0
 40
1.4
 41
0.0
 71
     4
 72
     1
  1
SAP\Pchange-No.
  7
CONVERTER_18
 73
     1
 44
0.66026410564226
  0
MTEXT
  5
37D
330
6D
100
AcDbEntity
  8
1
 62
     2
100
AcDbMText
 10
248.1677922098042
 20
717.7450695550574
 30
0.0
 40
1.8
 41
0.0
 71
     1
 72
     1
  1
part-rev.
  7
CONVERTER_14
 73
     1
 44
1.20048019207683
  0
TEXT
  5
37E
330
6D
100
AcDbEntity
  8
1
 62
     3
100
AcDbText
 10
266.6677922098038
 20
707.2950695550574
 30
0.0
 40
2.5
  1
 
 41
0.54
  7
CONVERTER_15
100
AcDbText
  0
MTEXT
  5
37F
330
6D
100
AcDbEntity
  8
1
 62
     7
100
AcDbMText
 10
264.0953899464273
 20
700.7450695550576
 30
0.0
 40
3.0
 41
0.0
 71
     5
 72
     1
  1
CD 80X100
  7
CONVERTER_16
 73
     1
 44
1.20048019207683
  0
HATCH
  5
380
330
6D
100
AcDbEntity
  8
1
  6
Continuous
 62
     2
100
AcDbHatch
 10
0.0
 20
0.0
 30
0.0
210
0.0
220
0.0
230
1.0
  2
_USER
 70
     0
 71
     1
 91
        1
 92
        1
 93
       14
 72
     2
 10
194.3983837788558
 20
704.6069743169686
 40
0.9964100565213793
 50
164.9381082228851
 51
195.0618917771023
 73
     1
 72
     2
 10
194.7447704263457
 20
704.7001894922039
 40
1.355119937139965
 50
195.0618917770912
 51
275.1581447696416
 73
     1
 72
     2
 10
194.5060463811095
 20
707.3447271642879
 40
4.010410630990195
 50
275.1581447696242
 51
285.9799912583519
 73
     1
 72
     1
 10
195.6101190398845
 20
703.4892872421384
 11
195.6101190398845
 21
704.2103756775131
 72
     2
 10
194.6365198315994
 20
705.7726489991245
 40
1.840813230556049
 50
58.069091050038
 51
71.55192388186815
 73
     0
 72
     2
 10
194.9821129999142
 20
704.7366607544657
 40
0.7487023016404492
 50
71.55192388185023
 51
113.3722778881293
 73
     0
 72
     2
 10
194.8528237166893
 20
704.437493796854
 40
0.4227934381774399
 50
113.3722778881673
 51
151.4785267423142
 73
     0
 72
     2
 10
195.1646892192351
 20
704.6069743169686
 40
0.7777353184572496
 50
151.4785267422948
 51
208.5214732577273
 73
     0
 72
     2
 10
194.8528237166893
 20
704.7764548370834
 40
0.4227934381776413
 50
208.5214732576993
 51
246.6277221118143
 73
     0
 72
     2
 10
194.9821129999142
 20
704.4772878794714
 40
0.7487023016407734
 50
246.6277221118707
 51
288.4480761181387
 73
     0
 72
     2
 10
194.6365198315994
 20
703.441299634813
 40
1.840813230556584
 50
288.4480761181319
 51
301.930908949962
 73
     0
 72
     1
 10
195.6101190398845
 20
705.0035729564245
 11
195.6101190398845
 21
705.724661391799
 72
     2
 10
194.5060463811095
 20
701.8692214696497
 40
4.010410630989973
 50
74.0200087416476
 51
84.84185523037583
 73
     1
 72
     2
 10
194.7447704263457
 20
704.5137591417331
 40
1.355119937140984
 50
84.84185523036052
 51
164.9381082228902
 73
     1
 97
       14
330
311
330
18D
330
2E0
330
310
330
2E1
330
2E2
330
30F
330
30E
330
30D
330
18E
330
2E3
330
2E4
330
2E5
330
2E6
 75
     1
 76
     0
 52
45.0
 41
0.1
 77
     0
 78
     1
 53
45.0
 43
0.0
 44
0.0
 45
-0.0707106781186548
 46
0.0707106781186548
 79
     0
 98
        1
 10
0.0
 20
0.0
  0
HATCH
  5
381
330
6D
100
AcDbEntity
  8
1
  6
Continuous
 62
     2
100
AcDbHatch
 10
0.0
 20
0.0
 30
0.0
210
0.0
220
0.0
230
1.0
  2
_USER
 70
     0
 71
     1
 91
        1
 92
        1
 93
       14
 72
     2
 10
194.3983837788558
 20
704.6069743169686
 40
0.9964100565213793
 50
164.9381082228851
 51
195.0618917771023
 73
     1
 72
     2
 10
194.7447704263457
 20
704.7001894922039
 40
1.355119937139965
 50
195.0618917770912
 51
275.1581447696416
 73
     1
 72
     2
 10
194.5060463811095
 20
707.3447271642879
 40
4.010410630990195
 50
275.1581447696242
 51
285.9799912583519
 73
     1
 72
     1
 10
195.6101190398845
 20
703.4892872421384
 11
195.6101190398845
 21
704.2103756775131
 72
     2
 10
194.6365198315994
 20
705.7726489991245
 40
1.840813230556049
 50
58.069091050038
 51
71.55192388186815
 73
     0
 72
     2
 10
194.9821129999142
 20
704.7366607544657
 40
0.7487023016404492
 50
71.55192388185023
 51
113.3722778881293
 73
     0
 72
     2
 10
194.8528237166893
 20
704.437493796854
 40
0.4227934381774399
 50
113.3722778881673
 51
151.4785267423142
 73
     0
 72
     2
 10
195.1646892192351
 20
704.6069743169686
 40
0.7777353184572496
 50
151.4785267422948
 51
208.5214732577273
 73
     0
 72
     2
 10
194.8528237166893
 20
704.7764548370834
 40
0.4227934381776413
 50
208.5214732576993
 51
246.6277221118143
 73
     0
 72
     2
 10
194.9821129999142
 20
704.4772878794714
 40
0.7487023016407734
 50
246.6277221118707
 51
288.4480761181387
 73
     0
 72
     2
 10
194.6365198315994
 20
703.441299634813
 40
1.840813230556584
 50
288.4480761181319
 51
301.930908949962
 73
     0
 72
     1
 10
195.6101190398845
 20
705.0035729564245
 11
195.6101190398845
 21
705.724661391799
 72
     2
 10
194.5060463811095
 20
701.8692214696497
 40
4.010410630989973
 50
74.0200087416476
 51
84.84185523037583
 73
     1
 72
     2
 10
194.7447704263457
 20
704.5137591417331
 40
1.355119937140984
 50
84.84185523036052
 51
164.9381082228902
 73
     1
 97
       14
330
311
330
18D
330
2E0
330
310
330
2E1
330
2E2
330
30F
330
30E
330
30D
330
18E
330
2E3
330
2E4
330
2E5
330
2E6
 75
     1
 76
     0
 52
45.0
 41
0.1
 77
     0
 78
     1
 53
45.0
 43
0.0
 44
0.0
 45
-0.0707106781186548
 46
0.0707106781186548
 79
     0
 98
        1
 10
0.0
 20
0.0
  0
HATCH
  5
382
330
6D
100
AcDbEntity
  8
1
  6
Continuous
 62
     2
100
AcDbHatch
 10
0.0
 20
0.0
 30
0.0
210
0.0
220
0.0
230
1.0
  2
_USER
 70
     0
 71
     1
 91
        1
 92
        1
 93
       18
 72
     2
 10
208.0527881777944
 20
704.5137591417331
 40
1.355119937140671
 50
90.0
 51
164.9381082228993
 73
     1
 72
     2
 10
207.7064015303054
 20
704.6069743169686
 40
0.9964100565230534
 50
164.938108222911
 51
195.0618917771016
 73
     1
 72
     2
 10
208.0527881777944
 20
704.7001894922039
 40
1.35511993714088
 50
195.0618917771007
 51
275.1581447696771
 73
     1
 72
     2
 10
207.8140641325582
 20
707.3447271642879
 40
4.010410630990729
 50
275.1581447696365
 51
285.979991258338
 73
     1
 72
     1
 10
208.9181367913323
 20
703.489287242138
 11
208.9181367913323
 21
704.2103756775126
 72
     2
 10
207.9445375830481
 20
705.772648999124
 40
1.840813230556049
 50
58.06909105006132
 51
71.55192388186815
 73
     0
 72
     2
 10
208.2901307513637
 20
704.7366607544657
 40
0.7487023016407311
 50
71.55192388192107
 51
113.3722778881791
 73
     0
 72
     2
 10
208.160841468138
 20
704.437493796854
 40
0.4227934381784311
 50
113.3722778881532
 51
151.4785267423171
 73
     0
 72
     2
 10
208.4727069706847
 20
704.6069743169686
 40
0.7777353184586058
 50
151.4785267423284
 51
208.5214732576348
 73
     0
 72
     2
 10
208.160841468138
 20
704.7764548370834
 40
0.4227934381773005
 50
208.5214732575882
 51
250.6628567805216
 73
     0
 72
     2
 10
208.2820563426039
 20
704.431037497924
 40
0.7888619891125472
 50
250.6628567805689
 51
270.0
 73
     0
 72
     1
 10
208.2820563426039
 20
705.2198994870365
 11
209.1941549372883
 21
705.2198994870365
 72
     1
 10
209.1941549372883
 20
705.2198994870365
 11
209.1941549372883
 21
703.3450695550633
 72
     1
 10
209.1941549372883
 20
703.3450695550633
 11
210.1799340299888
 21
703.3450695550633
 72
     1
 10
210.1799340299888
 20
703.3450695550633
 11
210.1799340299888
 21
705.2198994870365
 72
     1
 10
210.1799340299888
 20
705.2198994870365
 11
210.8502638130247
 21
705.2198994870365
 72
     1
 10
210.8502638130247
 20
705.2198994870365
 11
210.8502638130247
 21
705.8688790788742
 72
     1
 10
210.8502638130247
 20
705.8688790788742
 11
208.0527881777944
 21
705.8688790788738
 97
       18
330
1F3
330
1F2
330
1F1
330
1F0
330
1F5
330
18F
330
30A
330
2EB
330
309
330
2EC
330
308
330
307
330
190
330
306
330
305
330
2ED
330
2EE
330
1F4
 75
     1
 76
     0
 52
45.0
 41
0.1
 77
     0
 78
     1
 53
45.0
 43
0.0
 44
0.0
 45
-0.0707106781186548
 46
0.0707106781186548
 79
     0
 98
        1
 10
0.0
 20
0.0
  0
HATCH
  5
383
330
6D
100
AcDbEntity
  8
1
  6
Continuous
 62
     2
100
AcDbHatch
 10
0.0
 20
0.0
 30
0.0
210
0.0
220
0.0
230
1.0
  2
_USER
 70
     0
 71
     1
 91
        1
 92
        1
 93
       18
 72
     2
 10
208.0527881777944
 20
704.5137591417331
 40
1.355119937140671
 50
90.0
 51
164.9381082228993
 73
     1
 72
     2
 10
207.7064015303054
 20
704.6069743169686
 40
0.9964100565230534
 50
164.938108222911
 51
195.0618917771016
 73
     1
 72
     2
 10
208.0527881777944
 20
704.7001894922039
 40
1.35511993714088
 50
195.0618917771007
 51
275.1581447696771
 73
     1
 72
     2
 10
207.8140641325582
 20
707.3447271642879
 40
4.010410630990729
 50
275.1581447696365
 51
285.979991258338
 73
     1
 72
     1
 10
208.9181367913323
 20
703.489287242138
 11
208.9181367913323
 21
704.2103756775126
 72
     2
 10
207.9445375830481
 20
705.772648999124
 40
1.840813230556049
 50
58.06909105006132
 51
71.55192388186815
 73
     0
 72
     2
 10
208.2901307513637
 20
704.7366607544657
 40
0.7487023016407311
 50
71.55192388192107
 51
113.3722778881791
 73
     0
 72
     2
 10
208.160841468138
 20
704.437493796854
 40
0.4227934381784311
 50
113.3722778881532
 51
151.4785267423171
 73
     0
 72
     2
 10
208.4727069706847
 20
704.6069743169686
 40
0.7777353184586058
 50
151.4785267423284
 51
208.5214732576348
 73
     0
 72
     2
 10
208.160841468138
 20
704.7764548370834
 40
0.4227934381773005
 50
208.5214732575882
 51
250.6628567805216
 73
     0
 72
     2
 10
208.2820563426039
 20
704.431037497924
 40
0.7888619891125472
 50
250.6628567805689
 51
270.0
 73
     0
 72
     1
 10
208.2820563426039
 20
705.2198994870365
 11
209.1941549372883
 21
705.2198994870365
 72
     1
 10
209.1941549372883
 20
705.2198994870365
 11
209.1941549372883
 21
703.3450695550633
 72
     1
 10
209.1941549372883
 20
703.3450695550633
 11
210.1799340299888
 21
703.3450695550633
 72
     1
 10
210.1799340299888
 20
703.3450695550633
 11
210.1799340299888
 21
705.2198994870365
 72
     1
 10
210.1799340299888
 20
705.2198994870365
 11
210.8502638130247
 21
705.2198994870365
 72
     1
 10
210.8502638130247
 20
705.2198994870365
 11
210.8502638130247
 21
705.8688790788742
 72
     1
 10
210.8502638130247
 20
705.8688790788742
 11
208.0527881777944
 21
705.8688790788738
 97
       18
330
1F3
330
1F2
330
1F1
330
1F0
330
1F5
330
18F
330
30A
330
2EB
330
309
330
2EC
330
308
330
307
330
190
330
306
330
305
330
2ED
330
2EE
330
1F4
 75
     1
 76
     0
 52
45.0
 41
0.1
 77
     0
 78
     1
 53
45.0
 43
0.0
 44
0.0
 45
-0.0707106781186548
 46
0.0707106781186548
 79
     0
 98
        1
 10
0.0
 20
0.0
  0
HATCH
  5
384
330
6D
100
AcDbEntity
  8
1
  6
Continuous
 62
     2
100
AcDbHatch
 10
0.0
 20
0.0
 30
0.0
210
0.0
220
0.0
230
1.0
  2
_USER
 70
     0
 71
     1
 91
        4
 92
        1
 93
        8
 72
     2
 10
188.1336484284613
 20
708.2944541704217
 40
0.3506153846146844
 50
90.0
 51
180.0
 73
     1
 72
     1
 10
187.7830330438474
 20
708.2944541704217
 11
187.7830330438474
 21
703.6956849396777
 72
     2
 10
188.1336484284613
 20
703.6956849396777
 40
0.3506153846138886
 50
180.0
 51
270.0
 73
     1
 72
     1
 10
188.1336484284613
 20
703.3450695550633
 11
192.6570468505414
 21
703.3450695550633
 72
     2
 10
192.6570468505414
 20
703.6956849396777
 40
0.3506153846143434
 50
270.0
 51
360.0
 73
     1
 72
     1
 10
193.0076622351562
 20
703.6956849396777
 11
193.0076622351562
 21
708.2944541704217
 72
     2
 10
192.6570468505414
 20
708.2944541704217
 40
0.3506153846147981
 50
0.0
 51
90.0
 73
     1
 72
     1
 10
192.6570468505414
 20
708.6450695550363
 11
188.1336484284613
 21
708.6450695550363
 97
        8
330
2FE
330
1BE
330
2FD
330
1BF
330
2F4
330
1BC
330
2FF
330
1BD
 92
       16
 93
        1
 72
     2
 10
190.2985952470709
 20
706.3780225767393
 40
0.3892387874201972
 50
0.0
 51
360.0
 73
     1
 97
        1
330
312
 92
       16
 93
        8
 72
     2
 10
190.3182770773789
 20
706.3780225767393
 40
0.7535935125160714
 50
295.3740086781789
 51
424.6259913218062
 73
     1
 72
     2
 10
190.7530231088566
 20
707.294668527126
 40
0.2609230769230066
 50
115.374008678374
 51
180.0
 73
     0
 72
     1
 10
190.4921000319336
 20
707.294668527126
 11
190.4921000319336
 21
707.7951109143216
 72
     2
 10
190.7530231088566
 20
707.7951109143216
 40
0.2609230769224679
 50
180.0
 51
269.8110329574403
 73
     0
 72
     2
 10
190.757664542997
 20
706.3878093047605
 40
1.668232340440728
 50
269.8110329575882
 51
450.1889670424118
 73
     0
 72
     2
 10
190.7530231088566
 20
704.9805076951993
 40
0.2609230769230066
 50
90.18896704255974
 51
180.0
 73
     0
 72
     1
 10
190.4921000319336
 20
704.9805076951993
 11
190.4921000319336
 21
705.4613766263523
 72
     2
 10
190.7530231088566
 20
705.4613766263523
 40
0.2609230769227867
 50
180.0
 51
244.625991321626
 73
     0
 97
        8
330
30C
330
2E8
330
1F7
330
30B
330
2E9
330
2EA
330
1F6
330
2E7
 92
       16
 93
       12
 72
     1
 10
188.6244704753593
 20
703.9339584439534
 11
189.8441673852845
 21
703.9339584439534
 72
     2
 10
189.8441673852845
 20
704.1948815208763
 40
0.2609230769228361
 50
270.0
 51
360.0
 73
     1
 72
     1
 10
190.1050904622073
 20
704.1948815208763
 11
190.1050904622073
 21
705.4599814642909
 72
     2
 10
189.8441673852845
 20
705.4599814642909
 40
0.2609230769228077
 50
0.0
 51
64.80558935144161
 73
     1
 72
     2
 10
190.276055358487
 20
706.3780225767393
 40
0.7536343169898702
 50
115.1944106485135
 51
244.8055893514754
 73
     0
 72
     2
 10
189.8441673852845
 20
707.2960636891875
 40
0.2609230769223558
 50
295.1944106485584
 51
360.0
 73
     1
 72
     1
 10
190.1050904622073
 20
707.2960636891875
 11
190.1050904622073
 21
707.7952575892375
 72
     2
 10
189.8441673852845
 20
707.7952575892375
 40
0.2609230769228077
 50
0.0
 51
90.0
 73
     1
 72
     1
 10
189.8441673852845
 20
708.05618066616
 11
188.6244704753593
 21
708.05618066616
 72
     2
 10
188.6244704753593
 20
707.7952575892375
 40
0.2609230769224951
 50
90.0
 51
180.0
 73
     1
 72
     1
 10
188.3635473984372
 20
707.7952575892375
 11
188.3635473984372
 21
704.1948815208763
 72
     2
 10
188.6244704753593
 20
704.1948815208763
 40
0.2609230769220972
 50
180.0
 51
270.0
 73
     1
 97
       12
330
1C3
330
2F1
330
1C2
330
302
330
1C1
330
301
330
2F2
330
2F3
330
1C0
330
300
330
1BB
330
303
 75
     1
 76
     0
 52
45.0
 41
0.1
 77
     0
 78
     1
 53
45.0
 43
0.0
 44
0.0
 45
-0.0707106781186548
 46
0.0707106781186548
 79
     0
 98
        1
 10
0.0
 20
0.0
  0
HATCH
  5
385
330
6D
100
AcDbEntity
  8
1
  6
Continuous
 62
     2
100
AcDbHatch
 10
0.0
 20
0.0
 30
0.0
210
0.0
220
0.0
230
1.0
  2
_USER
 70
     0
 71
     1
 91
        4
 92
        1
 93
        8
 72
     2
 10
188.1336484284613
 20
708.2944541704217
 40
0.3506153846146844
 50
90.0
 51
180.0
 73
     1
 72
     1
 10
187.7830330438474
 20
708.2944541704217
 11
187.7830330438474
 21
703.6956849396777
 72
     2
 10
188.1336484284613
 20
703.6956849396777
 40
0.3506153846138886
 50
180.0
 51
270.0
 73
     1
 72
     1
 10
188.1336484284613
 20
703.3450695550633
 11
192.6570468505414
 21
703.3450695550633
 72
     2
 10
192.6570468505414
 20
703.6956849396777
 40
0.3506153846143434
 50
270.0
 51
360.0
 73
     1
 72
     1
 10
193.0076622351562
 20
703.6956849396777
 11
193.0076622351562
 21
708.2944541704217
 72
     2
 10
192.6570468505414
 20
708.2944541704217
 40
0.3506153846147981
 50
0.0
 51
90.0
 73
     1
 72
     1
 10
192.6570468505414
 20
708.6450695550363
 11
188.1336484284613
 21
708.6450695550363
 97
        8
330
2FE
330
1BE
330
2FD
330
1BF
330
2F4
330
1BC
330
2FF
330
1BD
 92
       16
 93
        1
 72
     2
 10
190.2985952470709
 20
706.3780225767393
 40
0.3892387874201972
 50
0.0
 51
360.0
 73
     1
 97
        1
330
312
 92
       16
 93
        8
 72
     2
 10
190.3182770773789
 20
706.3780225767393
 40
0.7535935125160714
 50
295.3740086781789
 51
424.6259913218062
 73
     1
 72
     2
 10
190.7530231088566
 20
707.294668527126
 40
0.2609230769230066
 50
115.374008678374
 51
180.0
 73
     0
 72
     1
 10
190.4921000319336
 20
707.294668527126
 11
190.4921000319336
 21
707.7951109143216
 72
     2
 10
190.7530231088566
 20
707.7951109143216
 40
0.2609230769224679
 50
180.0
 51
269.8110329574403
 73
     0
 72
     2
 10
190.757664542997
 20
706.3878093047605
 40
1.668232340440728
 50
269.8110329575882
 51
450.1889670424118
 73
     0
 72
     2
 10
190.7530231088566
 20
704.9805076951993
 40
0.2609230769230066
 50
90.18896704255974
 51
180.0
 73
     0
 72
     1
 10
190.4921000319336
 20
704.9805076951993
 11
190.4921000319336
 21
705.4613766263523
 72
     2
 10
190.7530231088566
 20
705.4613766263523
 40
0.2609230769227867
 50
180.0
 51
244.625991321626
 73
     0
 97
        8
330
30C
330
2E8
330
1F7
330
30B
330
2E9
330
2EA
330
1F6
330
2E7
 92
       16
 93
       12
 72
     1
 10
188.6244704753593
 20
703.9339584439534
 11
189.8441673852845
 21
703.9339584439534
 72
     2
 10
189.8441673852845
 20
704.1948815208763
 40
0.2609230769228361
 50
270.0
 51
360.0
 73
     1
 72
     1
 10
190.1050904622073
 20
704.1948815208763
 11
190.1050904622073
 21
705.4599814642909
 72
     2
 10
189.8441673852845
 20
705.4599814642909
 40
0.2609230769228077
 50
0.0
 51
64.80558935144161
 73
     1
 72
     2
 10
190.276055358487
 20
706.3780225767393
 40
0.7536343169898702
 50
115.1944106485135
 51
244.8055893514754
 73
     0
 72
     2
 10
189.8441673852845
 20
707.2960636891875
 40
0.2609230769223558
 50
295.1944106485584
 51
360.0
 73
     1
 72
     1
 10
190.1050904622073
 20
707.2960636891875
 11
190.1050904622073
 21
707.7952575892375
 72
     2
 10
189.8441673852845
 20
707.7952575892375
 40
0.2609230769228077
 50
0.0
 51
90.0
 73
     1
 72
     1
 10
189.8441673852845
 20
708.05618066616
 11
188.6244704753593
 21
708.05618066616
 72
     2
 10
188.6244704753593
 20
707.7952575892375
 40
0.2609230769224951
 50
90.0
 51
180.0
 73
     1
 72
     1
 10
188.3635473984372
 20
707.7952575892375
 11
188.3635473984372
 21
704.1948815208763
 72
     2
 10
188.6244704753593
 20
704.1948815208763
 40
0.2609230769220972
 50
180.0
 51
270.0
 73
     1
 97
       12
330
1C3
330
2F1
330
1C2
330
302
330
1C1
330
301
330
2F2
330
2F3
330
1C0
330
300
330
1BB
330
303
 75
     1
 76
     0
 52
45.0
 41
0.1
 77
     0
 78
     1
 53
45.0
 43
0.0
 44
0.0
 45
-0.0707106781186548
 46
0.0707106781186548
 79
     0
 98
        1
 10
0.0
 20
0.0
  0
HATCH
  5
386
330
6D
100
AcDbEntity
  8
1
  6
Continuous
 62
     2
100
AcDbHatch
 10
0.0
 20
0.0
 30
0.0
210
0.0
220
0.0
230
1.0
  2
_USER
 70
     0
 71
     1
 91
        2
 92
        1
 93
       12
 72
     2
 10
200.2618831425021
 20
707.3831647931457
 40
1.261904761905612
 50
90.0
 51
270.0
 73
     1
 72
     1
 10
200.2618831425021
 20
706.1212600312405
 11
202.8654531621558
 21
706.1212600312405
 72
     1
 10
202.8654531621558
 20
706.1212600312405
 11
202.8654531621558
 21
706.69813077954
 72
     1
 10
202.8654531621558
 20
706.69813077954
 11
201.7613805783313
 21
706.69813077954
 72
     1
 10
201.7613805783313
 20
706.69813077954
 11
201.7613805783313
 21
707.0947294189959
 72
     1
 10
201.7613805783313
 20
707.0947294189959
 11
202.8654531621558
 21
707.0947294189959
 72
     1
 10
202.8654531621558
 20
707.0947294189959
 11
202.8654531621558
 21
707.6716001672954
 72
     1
 10
202.8654531621558
 20
707.6716001672954
 11
201.7613805783313
 21
707.6716001672954
 72
     1
 10
201.7613805783313
 20
707.6716001672954
 11
201.7613805783313
 21
708.0681988067514
 72
     1
 10
201.7613805783313
 20
708.0681988067514
 11
202.8654531621558
 21
708.0681988067514
 72
     1
 10
202.8654531621558
 20
708.0681988067514
 11
202.8654531621558
 21
708.6450695550514
 72
     1
 10
202.8654531621558
 20
708.6450695550514
 11
200.2618831425021
 21
708.6450695550514
 97
       12
330
1B2
330
1AC
330
1D3
330
1D2
330
1D1
330
1D0
330
1AD
330
1AE
330
1AF
330
1B0
330
2EF
330
1B1
 92
       16
 93
        4
 72
     2
 10
200.6056947511892
 20
707.3831647931457
 40
0.6378510567599356
 50
141.8795802028404
 51
218.1204197971676
 73
     1
 72
     2
 10
200.4406203409857
 20
707.2536348938726
 40
0.4280236140606632
 50
218.1204197971535
 51
321.8795802028536
 73
     1
 72
     2
 10
200.2755459307823
 20
707.3831647931457
 40
0.6378510567600058
 50
321.8795802028323
 51
398.1204197971596
 73
     1
 72
     2
 10
200.4406203409857
 20
707.5126946924188
 40
0.4280236140607304
 50
38.12041979714642
 51
141.8795802028465
 73
     1
 97
        4
330
2FC
330
2FB
330
2F6
330
2F5
 75
     1
 76
     0
 52
45.0
 41
0.1
 77
     0
 78
     1
 53
45.0
 43
0.0
 44
0.0
 45
-0.0707106781186548
 46
0.0707106781186548
 79
     0
 98
        1
 10
0.0
 20
0.0
  0
HATCH
  5
387
330
6D
100
AcDbEntity
  8
1
  6
Continuous
 62
     2
100
AcDbHatch
 10
0.0
 20
0.0
 30
0.0
210
0.0
220
0.0
230
1.0
  2
_USER
 70
     0
 71
     1
 91
        2
 92
        1
 93
       12
 72
     2
 10
200.2618831425021
 20
707.3831647931457
 40
1.261904761905612
 50
90.0
 51
270.0
 73
     1
 72
     1
 10
200.2618831425021
 20
706.1212600312405
 11
202.8654531621558
 21
706.1212600312405
 72
     1
 10
202.8654531621558
 20
706.1212600312405
 11
202.8654531621558
 21
706.69813077954
 72
     1
 10
202.8654531621558
 20
706.69813077954
 11
201.7613805783313
 21
706.69813077954
 72
     1
 10
201.7613805783313
 20
706.69813077954
 11
201.7613805783313
 21
707.0947294189959
 72
     1
 10
201.7613805783313
 20
707.0947294189959
 11
202.8654531621558
 21
707.0947294189959
 72
     1
 10
202.8654531621558
 20
707.0947294189959
 11
202.8654531621558
 21
707.6716001672954
 72
     1
 10
202.8654531621558
 20
707.6716001672954
 11
201.7613805783313
 21
707.6716001672954
 72
     1
 10
201.7613805783313
 20
707.6716001672954
 11
201.7613805783313
 21
708.0681988067514
 72
     1
 10
201.7613805783313
 20
708.0681988067514
 11
202.8654531621558
 21
708.0681988067514
 72
     1
 10
202.8654531621558
 20
708.0681988067514
 11
202.8654531621558
 21
708.6450695550514
 72
     1
 10
202.8654531621558
 20
708.6450695550514
 11
200.2618831425021
 21
708.6450695550514
 97
       12
330
1B2
330
1AC
330
1D3
330
1D2
330
1D1
330
1D0
330
1AD
330
1AE
330
1AF
330
1B0
330
2EF
330
1B1
 92
       16
 93
        4
 72
     2
 10
200.6056947511892
 20
707.3831647931457
 40
0.6378510567599356
 50
141.8795802028404
 51
218.1204197971676
 73
     1
 72
     2
 10
200.4406203409857
 20
707.2536348938726
 40
0.4280236140606632
 50
218.1204197971535
 51
321.8795802028536
 73
     1
 72
     2
 10
200.2755459307823
 20
707.3831647931457
 40
0.6378510567600058
 50
321.8795802028323
 51
398.1204197971596
 73
     1
 72
     2
 10
200.4406203409857
 20
707.5126946924188
 40
0.4280236140607304
 50
38.12041979714642
 51
141.8795802028465
 73
     1
 97
        4
330
2FC
330
2FB
330
2F6
330
2F5
 75
     1
 76
     0
 52
45.0
 41
0.1
 77
     0
 78
     1
 53
45.0
 43
0.0
 44
0.0
 45
-0.0707106781186548
 46
0.0707106781186548
 79
     0
 98
        1
 10
0.0
 20
0.0
  0
HATCH
  5
388
330
6D
100
AcDbEntity
  8
1
  6
Continuous
 62
     2
100
AcDbHatch
 10
0.0
 20
0.0
 30
0.0
210
0.0
220
0.0
230
1.0
  2
_USER
 70
     0
 71
     1
 91
        2
 92
        1
 93
        4
 72
     2
 10
196.9349282974925
 20
704.6069743169686
 40
1.20498684599291
 50
117.548148175664
 51
242.4518518243384
 73
     1
 72
     2
 10
197.1671100262804
 20
705.0520776312688
 40
1.707008076205438
 50
242.451851824339
 51
297.5481481756847
 73
     1
 72
     2
 10
197.3992917550682
 20
704.6069743169686
 40
1.204986845993431
 50
297.5481481756999
 51
422.4518518242976
 73
     1
 72
     2
 10
197.1671100262804
 20
704.1618710026687
 40
1.707008076205403
 50
62.45185182430821
 51
117.5481481756681
 73
     1
 97
        4
330
2FA
330
2F7
330
2F9
330
2F8
 92
       16
 93
        4
 72
     2
 10
197.1671100262804
 20
704.7365042162417
 40
0.4280236140605738
 50
38.12041979716286
 51
141.8795802028536
 73
     1
 72
     2
 10
197.3321844364837
 20
704.6069743169686
 40
0.6378510567598462
 50
141.8795802028341
 51
218.120419797174
 73
     1
 72
     2
 10
197.1671100262804
 20
704.4774444176959
 40
0.4280236140610111
 50
218.1204197971943
 51
321.8795802027893
 73
     1
 72
     2
 10
197.0020356160768
 20
704.6069743169686
 40
0.6378510567600058
 50
321.8795802028323
 51
398.1204197971596
 73
     1
 97
        4
330
2DD
330
2DE
330
2DF
330
2DC
 75
     1
 76
     0
 52
45.0
 41
0.1
 77
     0
 78
     1
 53
45.0
 43
0.0
 44
0.0
 45
-0.0707106781186548
 46
0.0707106781186548
 79
     0
 98
        1
 10
0.0
 20
0.0
  0
HATCH
  5
389
330
6D
100
AcDbEntity
  8
1
  6
Continuous
 62
     2
100
AcDbHatch
 10
0.0
 20
0.0
 30
0.0
210
0.0
220
0.0
230
1.0
  2
_USER
 70
     0
 71
     1
 91
        2
 92
        1
 93
        4
 72
     2
 10
196.9349282974925
 20
704.6069743169686
 40
1.20498684599291
 50
117.548148175664
 51
242.4518518243384
 73
     1
 72
     2
 10
197.1671100262804
 20
705.0520776312688
 40
1.707008076205438
 50
242.451851824339
 51
297.5481481756847
 73
     1
 72
     2
 10
197.3992917550682
 20
704.6069743169686
 40
1.204986845993431
 50
297.5481481756999
 51
422.4518518242976
 73
     1
 72
     2
 10
197.1671100262804
 20
704.1618710026687
 40
1.707008076205403
 50
62.45185182430821
 51
117.5481481756681
 73
     1
 97
        4
330
2FA
330
2F7
330
2F9
330
2F8
 92
       16
 93
        4
 72
     2
 10
197.1671100262804
 20
704.7365042162417
 40
0.4280236140605738
 50
38.12041979716286
 51
141.8795802028536
 73
     1
 72
     2
 10
197.3321844364837
 20
704.6069743169686
 40
0.6378510567598462
 50
141.8795802028341
 51
218.120419797174
 73
     1
 72
     2
 10
197.1671100262804
 20
704.4774444176959
 40
0.4280236140610111
 50
218.1204197971943
 51
321.8795802027893
 73
     1
 72
     2
 10
197.0020356160768
 20
704.6069743169686
 40
0.6378510567600058
 50
321.8795802028323
 51
398.1204197971596
 73
     1
 97
        4
330
2DD
330
2DE
330
2DF
330
2DC
 75
     1
 76
     0
 52
45.0
 41
0.1
 77
     0
 78
     1
 53
45.0
 43
0.0
 44
0.0
 45
-0.0707106781186548
 46
0.0707106781186548
 79
     0
 98
        1
 10
0.0
 20
0.0
  0
HATCH
  5
38A
330
6D
100
AcDbEntity
  8
1
  6
Continuous
 62
     2
100
AcDbHatch
 10
0.0
 20
0.0
 30
0.0
210
0.0
220
0.0
230
1.0
  2
_USER
 70
     0
 71
     1
 91
        2
 92
        1
 93
        6
 72
     1
 10
193.4019738722362
 20
708.6450695550514
 11
193.4019738722362
 21
706.1212600312405
 72
     1
 10
193.4019738722362
 20
706.1212600312405
 11
194.4271841286445
 21
706.1212600312405
 72
     1
 10
194.4271841286445
 20
706.1212600312405
 11
194.4271841286445
 21
706.900663536318
 72
     1
 10
194.4271841286445
 20
706.900663536318
 11
195.0542647797026
 21
706.900663536318
 72
     2
 10
195.0542647797026
 20
707.7728665456847
 40
0.8722030093666717
 50
270.0
 51
450.0
 73
     1
 72
     1
 10
195.0542647797026
 20
708.6450695550514
 11
193.4019738722362
 21
708.6450695550514
 97
        6
330
304
330
1C4
330
1BA
330
1B9
330
1C6
330
1C5
 92
       16
 93
        4
 72
     1
 10
194.6894114522328
 20
708.0970481951836
 11
194.4271841286445
 21
708.0970481951836
 72
     1
 10
194.4271841286445
 20
708.0970481951836
 11
194.4271841286445
 21
707.5138022039915
 72
     1
 10
194.4271841286445
 20
707.5138022039915
 11
194.6894114522328
 21
707.5138022039915
 72
     2
 10
194.6894114522328
 20
707.8054251995876
 40
0.2916229955960716
 50
270.0
 51
450.0
 73
     1
 97
        4
330
1C7
330
1B8
330
1C8
330
2F0
 75
     1
 76
     0
 52
45.0
 41
0.1
 77
     0
 78
     1
 53
45.0
 43
0.0
 44
0.0
 45
-0.0707106781186548
 46
0.0707106781186548
 79
     0
 98
        1
 10
0.0
 20
0.0
  0
HATCH
  5
38B
330
6D
100
AcDbEntity
  8
1
  6
Continuous
 62
     2
100
AcDbHatch
 10
0.0
 20
0.0
 30
0.0
210
0.0
220
0.0
230
1.0
  2
_USER
 70
     0
 71
     1
 91
        2
 92
        1
 93
        6
 72
     1
 10
193.4019738722362
 20
708.6450695550514
 11
193.4019738722362
 21
706.1212600312405
 72
     1
 10
193.4019738722362
 20
706.1212600312405
 11
194.4271841286445
 21
706.1212600312405
 72
     1
 10
194.4271841286445
 20
706.1212600312405
 11
194.4271841286445
 21
706.900663536318
 72
     1
 10
194.4271841286445
 20
706.900663536318
 11
195.0542647797026
 21
706.900663536318
 72
     2
 10
195.0542647797026
 20
707.7728665456847
 40
0.8722030093666717
 50
270.0
 51
450.0
 73
     1
 72
     1
 10
195.0542647797026
 20
708.6450695550514
 11
193.4019738722362
 21
708.6450695550514
 97
        6
330
304
330
1C4
330
1BA
330
1B9
330
1C6
330
1C5
 92
       16
 93
        4
 72
     1
 10
194.6894114522328
 20
708.0970481951836
 11
194.4271841286445
 21
708.0970481951836
 72
     1
 10
194.4271841286445
 20
708.0970481951836
 11
194.4271841286445
 21
707.5138022039915
 72
     1
 10
194.4271841286445
 20
707.5138022039915
 11
194.6894114522328
 21
707.5138022039915
 72
     2
 10
194.6894114522328
 20
707.8054251995876
 40
0.2916229955960716
 50
270.0
 51
450.0
 73
     1
 97
        4
330
1C7
330
1B8
330
1C8
330
2F0
 75
     1
 76
     0
 52
45.0
 41
0.1
 77
     0
 78
     1
 53
45.0
 43
0.0
 44
0.0
 45
-0.0707106781186548
 46
0.0707106781186548
 79
     0
 98
        1
 10
0.0
 20
0.0
  0
HATCH
  5
38C
330
6D
100
AcDbEntity
  8
1
  6
Continuous
 62
     2
100
AcDbHatch
 10
0.0
 20
0.0
 30
0.0
210
0.0
220
0.0
230
1.0
  2
_USER
 70
     0
 71
     1
 91
        1
 92
        1
 93
       12
 72
     1
 10
209.6121252725942
 20
708.6450695550514
 11
210.7714014856084
 21
708.6450695550514
 72
     1
 10
210.7714014856084
 20
708.6450695550514
 11
209.6949307163798
 21
707.4277550674182
 72
     1
 10
209.6949307163798
 20
707.4277550674182
 11
210.8502638130247
 21
706.1212600312405
 72
     1
 10
210.8502638130247
 20
706.1212600312405
 11
209.6909876000096
 21
706.1212600312405
 72
     1
 10
209.6909876000096
 20
706.1212600312405
 11
209.1152926098728
 21
706.7722780356155
 72
     1
 10
209.1152926098728
 20
706.7722780356155
 11
208.5395976197359
 21
706.1212600312405
 72
     1
 10
208.5395976197359
 20
706.1212600312405
 11
207.3803214067209
 21
706.1212600312405
 72
     1
 10
207.3803214067209
 20
706.1212600312405
 11
208.5356545033657
 21
707.4277550674182
 72
     1
 10
208.5356545033657
 20
707.4277550674182
 11
207.4591837341364
 21
708.6450695550514
 72
     1
 10
207.4591837341364
 20
708.6450695550514
 11
208.6184599471523
 21
708.6450695550514
 72
     1
 10
208.6184599471523
 20
708.6450695550514
 11
209.1152926098728
 21
708.0832320992204
 72
     1
 10
209.1152926098728
 20
708.0832320992204
 11
209.6121252725942
 21
708.6450695550514
 97
       12
330
193
330
1EC
330
1EB
330
1EA
330
1E9
330
194
330
195
330
191
330
192
330
1EF
330
1EE
330
1ED
 75
     1
 76
     0
 52
45.0
 41
0.1
 77
     0
 78
     1
 53
45.0
 43
0.0
 44
0.0
 45
-0.0707106781186548
 46
0.0707106781186548
 79
     0
 98
        1
 10
0.0
 20
0.0
  0
HATCH
  5
38D
330
6D
100
AcDbEntity
  8
1
  6
Continuous
 62
     2
100
AcDbHatch
 10
0.0
 20
0.0
 30
0.0
210
0.0
220
0.0
230
1.0
  2
_USER
 70
     0
 71
     1
 91
        1
 92
        1
 93
       12
 72
     1
 10
209.6121252725942
 20
708.6450695550514
 11
210.7714014856084
 21
708.6450695550514
 72
     1
 10
210.7714014856084
 20
708.6450695550514
 11
209.6949307163798
 21
707.4277550674182
 72
     1
 10
209.6949307163798
 20
707.4277550674182
 11
210.8502638130247
 21
706.1212600312405
 72
     1
 10
210.8502638130247
 20
706.1212600312405
 11
209.6909876000096
 21
706.1212600312405
 72
     1
 10
209.6909876000096
 20
706.1212600312405
 11
209.1152926098728
 21
706.7722780356155
 72
     1
 10
209.1152926098728
 20
706.7722780356155
 11
208.5395976197359
 21
706.1212600312405
 72
     1
 10
208.5395976197359
 20
706.1212600312405
 11
207.3803214067209
 21
706.1212600312405
 72
     1
 10
207.3803214067209
 20
706.1212600312405
 11
208.5356545033657
 21
707.4277550674182
 72
     1
 10
208.5356545033657
 20
707.4277550674182
 11
207.4591837341364
 21
708.6450695550514
 72
     1
 10
207.4591837341364
 20
708.6450695550514
 11
208.6184599471523
 21
708.6450695550514
 72
     1
 10
208.6184599471523
 20
708.6450695550514
 11
209.1152926098728
 21
708.0832320992204
 72
     1
 10
209.1152926098728
 20
708.0832320992204
 11
209.6121252725942
 21
708.6450695550514
 97
       12
330
193
330
1EC
330
1EB
330
1EA
330
1E9
330
194
330
195
330
191
330
192
330
1EF
330
1EE
330
1ED
 75
     1
 76
     0
 52
45.0
 41
0.1
 77
     0
 78
     1
 53
45.0
 43
0.0
 44
0.0
 45
-0.0707106781186548
 46
0.0707106781186548
 79
     0
 98
        1
 10
0.0
 20
0.0
  0
HATCH
  5
38E
330
6D
100
AcDbEntity
  8
1
  6
Continuous
 62
     2
100
AcDbHatch
 10
0.0
 20
0.0
 30
0.0
210
0.0
220
0.0
230
1.0
  2
_USER
 70
     0
 71
     1
 91
        1
 92
        1
 93
        4
 72
     1
 10
207.2817434974507
 20
708.6450695550514
 11
207.2817434974507
 21
706.1212600312405
 72
     1
 10
207.2817434974507
 20
706.1212600312405
 11
206.2565332410433
 21
706.1212600312405
 72
     1
 10
206.2565332410433
 20
706.1212600312405
 11
206.2565332410433
 21
708.6450695550514
 72
     1
 10
206.2565332410433
 20
708.6450695550514
 11
207.2817434974507
 21
708.6450695550514
 97
        4
330
1E7
330
196
330
1E6
330
1E8
 75
     1
 76
     0
 52
45.0
 41
0.1
 77
     0
 78
     1
 53
45.0
 43
0.0
 44
0.0
 45
-0.0707106781186548
 46
0.0707106781186548
 79
     0
 98
        1
 10
0.0
 20
0.0
  0
HATCH
  5
38F
330
6D
100
AcDbEntity
  8
1
  6
Continuous
 62
     2
100
AcDbHatch
 10
0.0
 20
0.0
 30
0.0
210
0.0
220
0.0
230
1.0
  2
_USER
 70
     0
 71
     1
 91
        1
 92
        1
 93
        4
 72
     1
 10
207.2817434974507
 20
708.6450695550514
 11
207.2817434974507
 21
706.1212600312405
 72
     1
 10
207.2817434974507
 20
706.1212600312405
 11
206.2565332410433
 21
706.1212600312405
 72
     1
 10
206.2565332410433
 20
706.1212600312405
 11
206.2565332410433
 21
708.6450695550514
 72
     1
 10
206.2565332410433
 20
708.6450695550514
 11
207.2817434974507
 21
708.6450695550514
 97
        4
330
1E7
330
196
330
1E6
330
1E8
 75
     1
 76
     0
 52
45.0
 41
0.1
 77
     0
 78
     1
 53
45.0
 43
0.0
 44
0.0
 45
-0.0707106781186548
 46
0.0707106781186548
 79
     0
 98
        1
 10
0.0
 20
0.0
  0
HATCH
  5
390
330
6D
100
AcDbEntity
  8
1
  6
Continuous
 62
     2
100
AcDbHatch
 10
0.0
 20
0.0
 30
0.0
210
0.0
220
0.0
230
1.0
  2
_USER
 70
     0
 71
     1
 91
        2
 92
        1
 93
        8
 72
     1
 10
206.9590625027962
 20
703.3450695550633
 11
205.933852246388
 21
703.3450695550633
 72
     1
 10
205.933852246388
 20
703.3450695550633
 11
205.759075342689
 21
703.7921443849955
 72
     1
 10
205.759075342689
 20
703.7921443849955
 11
204.8231732132064
 21
703.7921443849955
 72
     1
 10
204.8231732132064
 20
703.7921443849955
 11
204.6483963095074
 21
703.3450695550633
 72
     1
 10
204.6483963095074
 20
703.3450695550633
 11
203.6231860531
 21
703.3450695550633
 72
     1
 10
203.6231860531
 20
703.3450695550633
 11
204.778519149744
 21
705.8688790788742
 72
     1
 10
204.778519149744
 20
705.8688790788742
 11
205.8037294061513
 21
705.8688790788742
 72
     1
 10
205.8037294061513
 20
705.8688790788742
 11
206.9590625027962
 21
703.3450695550633
 97
        8
330
1E2
330
19C
330
1E1
330
1E4
330
199
330
1E3
330
19A
330
19B
 92
       16
 93
        3
 72
     1
 10
205.0430538339875
 20
704.3545933645877
 11
205.5391947219069
 21
704.3545933645877
 72
     1
 10
205.5391947219069
 20
704.3545933645877
 11
205.2911242779481
 21
704.9891511877172
 72
     1
 10
205.2911242779481
 20
704.9891511877172
 11
205.0430538339875
 21
704.3545933645877
 97
        3
330
198
330
197
330
1E5
 75
     1
 76
     0
 52
45.0
 41
0.1
 77
     0
 78
     1
 53
45.0
 43
0.0
 44
0.0
 45
-0.0707106781186548
 46
0.0707106781186548
 79
     0
 98
        1
 10
0.0
 20
0.0
  0
HATCH
  5
391
330
6D
100
AcDbEntity
  8
1
  6
Continuous
 62
     2
100
AcDbHatch
 10
0.0
 20
0.0
 30
0.0
210
0.0
220
0.0
230
1.0
  2
_USER
 70
     0
 71
     1
 91
        2
 92
        1
 93
        8
 72
     1
 10
206.9590625027962
 20
703.3450695550633
 11
205.933852246388
 21
703.3450695550633
 72
     1
 10
205.933852246388
 20
703.3450695550633
 11
205.759075342689
 21
703.7921443849955
 72
     1
 10
205.759075342689
 20
703.7921443849955
 11
204.8231732132064
 21
703.7921443849955
 72
     1
 10
204.8231732132064
 20
703.7921443849955
 11
204.6483963095074
 21
703.3450695550633
 72
     1
 10
204.6483963095074
 20
703.3450695550633
 11
203.6231860531
 21
703.3450695550633
 72
     1
 10
203.6231860531
 20
703.3450695550633
 11
204.778519149744
 21
705.8688790788742
 72
     1
 10
204.778519149744
 20
705.8688790788742
 11
205.8037294061513
 21
705.8688790788742
 72
     1
 10
205.8037294061513
 20
705.8688790788742
 11
206.9590625027962
 21
703.3450695550633
 97
        8
330
1E2
330
19C
330
1E1
330
1E4
330
199
330
1E3
330
19A
330
19B
 92
       16
 93
        3
 72
     1
 10
205.0430538339875
 20
704.3545933645877
 11
205.5391947219069
 21
704.3545933645877
 72
     1
 10
205.5391947219069
 20
704.3545933645877
 11
205.2911242779481
 21
704.9891511877172
 72
     1
 10
205.2911242779481
 20
704.9891511877172
 11
205.0430538339875
 21
704.3545933645877
 97
        3
330
198
330
197
330
1E5
 75
     1
 76
     0
 52
45.0
 41
0.1
 77
     0
 78
     1
 53
45.0
 43
0.0
 44
0.0
 45
-0.0707106781186548
 46
0.0707106781186548
 79
     0
 98
        1
 10
0.0
 20
0.0
  0
HATCH
  5
392
330
6D
100
AcDbEntity
  8
1
  6
Continuous
 62
     2
100
AcDbHatch
 10
0.0
 20
0.0
 30
0.0
210
0.0
220
0.0
230
1.0
  2
_USER
 70
     0
 71
     1
 91
        1
 92
        1
 93
        8
 72
     1
 10
201.8401181694783
 20
705.8688790788742
 11
201.8401181694783
 21
705.2198994870365
 72
     1
 10
201.8401181694783
 20
705.2198994870365
 11
202.5104479525152
 21
705.2198994870365
 72
     1
 10
202.5104479525152
 20
705.2198994870365
 11
202.5104479525152
 21
703.3450695550633
 72
     1
 10
202.5104479525152
 20
703.3450695550633
 11
203.4962270452148
 21
703.3450695550633
 72
     1
 10
203.4962270452148
 20
703.3450695550633
 11
203.4962270452148
 21
705.2198994870365
 72
     1
 10
203.4962270452148
 20
705.2198994870365
 11
204.16655682825
 21
705.2198994870365
 72
     1
 10
204.16655682825
 20
705.2198994870365
 11
204.16655682825
 21
705.8688790788742
 72
     1
 10
204.16655682825
 20
705.8688790788742
 11
201.8401181694783
 21
705.8688790788742
 97
        8
330
1DE
330
1DD
330
1DC
330
19D
330
19E
330
1E0
330
19F
330
1DF
 75
     1
 76
     0
 52
45.0
 41
0.1
 77
     0
 78
     1
 53
45.0
 43
0.0
 44
0.0
 45
-0.0707106781186548
 46
0.0707106781186548
 79
     0
 98
        1
 10
0.0
 20
0.0
  0
HATCH
  5
393
330
6D
100
AcDbEntity
  8
1
  6
Continuous
 62
     2
100
AcDbHatch
 10
0.0
 20
0.0
 30
0.0
210
0.0
220
0.0
230
1.0
  2
_USER
 70
     0
 71
     1
 91
        1
 92
        1
 93
        8
 72
     1
 10
201.8401181694783
 20
705.8688790788742
 11
201.8401181694783
 21
705.2198994870365
 72
     1
 10
201.8401181694783
 20
705.2198994870365
 11
202.5104479525152
 21
705.2198994870365
 72
     1
 10
202.5104479525152
 20
705.2198994870365
 11
202.5104479525152
 21
703.3450695550633
 72
     1
 10
202.5104479525152
 20
703.3450695550633
 11
203.4962270452148
 21
703.3450695550633
 72
     1
 10
203.4962270452148
 20
703.3450695550633
 11
203.4962270452148
 21
705.2198994870365
 72
     1
 10
203.4962270452148
 20
705.2198994870365
 11
204.16655682825
 21
705.2198994870365
 72
     1
 10
204.16655682825
 20
705.2198994870365
 11
204.16655682825
 21
705.8688790788742
 72
     1
 10
204.16655682825
 20
705.8688790788742
 11
201.8401181694783
 21
705.8688790788742
 97
        8
330
1DE
330
1DD
330
1DC
330
19D
330
19E
330
1E0
330
19F
330
1DF
 75
     1
 76
     0
 52
45.0
 41
0.1
 77
     0
 78
     1
 53
45.0
 43
0.0
 44
0.0
 45
-0.0707106781186548
 46
0.0707106781186548
 79
     0
 98
        1
 10
0.0
 20
0.0
  0
HATCH
  5
394
330
6D
100
AcDbEntity
  8
1
  6
Continuous
 62
     2
100
AcDbHatch
 10
0.0
 20
0.0
 30
0.0
210
0.0
220
0.0
230
1.0
  2
_USER
 70
     0
 71
     1
 91
        1
 92
        1
 93
       10
 72
     1
 10
204.048388073395
 20
708.6450695550514
 11
203.0626089806954
 21
708.6450695550514
 72
     1
 10
203.0626089806954
 20
708.6450695550514
 11
203.0626089806954
 21
706.1212600312405
 72
     1
 10
203.0626089806954
 20
706.1212600312405
 11
204.048388073395
 21
706.1212600312405
 72
     1
 10
204.048388073395
 20
706.1212600312405
 11
204.048388073395
 21
707.2028926843021
 72
     1
 10
204.048388073395
 20
707.2028926843021
 11
205.0735983298033
 21
706.1212600312405
 72
     1
 10
205.0735983298033
 20
706.1212600312405
 11
206.0593774225029
 21
706.1212600312405
 72
     1
 10
206.0593774225029
 20
706.1212600312405
 11
206.0593774225029
 21
708.6450695550514
 72
     1
 10
206.0593774225029
 20
708.6450695550514
 11
205.0735983298033
 21
708.6450695550514
 72
     1
 10
205.0735983298033
 20
708.6450695550514
 11
205.0735983298033
 21
707.5634369019892
 72
     1
 10
205.0735983298033
 20
707.5634369019892
 11
204.048388073395
 21
708.6450695550514
 97
       10
330
1D8
330
1A2
330
1A3
330
1A4
330
1A5
330
1DB
330
1A0
330
1DA
330
1D9
330
1A1
 75
     1
 76
     0
 52
45.0
 41
0.1
 77
     0
 78
     1
 53
45.0
 43
0.0
 44
0.0
 45
-0.0707106781186548
 46
0.0707106781186548
 79
     0
 98
        1
 10
0.0
 20
0.0
  0
HATCH
  5
395
330
6D
100
AcDbEntity
  8
1
  6
Continuous
 62
     2
100
AcDbHatch
 10
0.0
 20
0.0
 30
0.0
210
0.0
220
0.0
230
1.0
  2
_USER
 70
     0
 71
     1
 91
        1
 92
        1
 93
       10
 72
     1
 10
204.048388073395
 20
708.6450695550514
 11
203.0626089806954
 21
708.6450695550514
 72
     1
 10
203.0626089806954
 20
708.6450695550514
 11
203.0626089806954
 21
706.1212600312405
 72
     1
 10
203.0626089806954
 20
706.1212600312405
 11
204.048388073395
 21
706.1212600312405
 72
     1
 10
204.048388073395
 20
706.1212600312405
 11
204.048388073395
 21
707.2028926843021
 72
     1
 10
204.048388073395
 20
707.2028926843021
 11
205.0735983298033
 21
706.1212600312405
 72
     1
 10
205.0735983298033
 20
706.1212600312405
 11
206.0593774225029
 21
706.1212600312405
 72
     1
 10
206.0593774225029
 20
706.1212600312405
 11
206.0593774225029
 21
708.6450695550514
 72
     1
 10
206.0593774225029
 20
708.6450695550514
 11
205.0735983298033
 21
708.6450695550514
 72
     1
 10
205.0735983298033
 20
708.6450695550514
 11
205.0735983298033
 21
707.5634369019892
 72
     1
 10
205.0735983298033
 20
707.5634369019892
 11
204.048388073395
 21
708.6450695550514
 97
       10
330
1D8
330
1A2
330
1A3
330
1A4
330
1A5
330
1DB
330
1A0
330
1DA
330
1D9
330
1A1
 75
     1
 76
     0
 52
45.0
 41
0.1
 77
     0
 78
     1
 53
45.0
 43
0.0
 44
0.0
 45
-0.0707106781186548
 46
0.0707106781186548
 79
     0
 98
        1
 10
0.0
 20
0.0
  0
HATCH
  5
396
330
6D
100
AcDbEntity
  8
1
  6
Continuous
 62
     2
100
AcDbHatch
 10
0.0
 20
0.0
 30
0.0
210
0.0
220
0.0
230
1.0
  2
_USER
 70
     0
 71
     1
 91
        1
 92
        1
 93
       10
 72
     1
 10
199.7108353292474
 20
705.8688790788742
 11
198.7250562365469
 21
705.8688790788742
 72
     1
 10
198.7250562365469
 20
705.8688790788742
 11
198.7250562365469
 21
703.3450695550633
 72
     1
 10
198.7250562365469
 20
703.3450695550633
 11
199.7108353292474
 21
703.3450695550633
 72
     1
 10
199.7108353292474
 20
703.3450695550633
 11
199.7108353292474
 21
704.426702208125
 72
     1
 10
199.7108353292474
 20
704.426702208125
 11
200.7360455856547
 21
703.3450695550633
 72
     1
 10
200.7360455856547
 20
703.3450695550633
 11
201.7218246783543
 21
703.3450695550633
 72
     1
 10
201.7218246783543
 20
703.3450695550633
 11
201.7218246783543
 21
705.8688790788742
 72
     1
 10
201.7218246783543
 20
705.8688790788742
 11
200.7360455856547
 21
705.8688790788742
 72
     1
 10
200.7360455856547
 20
705.8688790788742
 11
200.7360455856547
 21
704.7872464258121
 72
     1
 10
200.7360455856547
 20
704.7872464258121
 11
199.7108353292474
 21
705.8688790788742
 97
       10
330
1A7
330
1A8
330
1A9
330
1D5
330
1AA
330
1AB
330
1D4
330
1D7
330
1D6
330
1A6
 75
     1
 76
     0
 52
45.0
 41
0.1
 77
     0
 78
     1
 53
45.0
 43
0.0
 44
0.0
 45
-0.0707106781186548
 46
0.0707106781186548
 79
     0
 98
        1
 10
0.0
 20
0.0
  0
HATCH
  5
397
330
6D
100
AcDbEntity
  8
1
  6
Continuous
 62
     2
100
AcDbHatch
 10
0.0
 20
0.0
 30
0.0
210
0.0
220
0.0
230
1.0
  2
_USER
 70
     0
 71
     1
 91
        1
 92
        1
 93
       10
 72
     1
 10
199.7108353292474
 20
705.8688790788742
 11
198.7250562365469
 21
705.8688790788742
 72
     1
 10
198.7250562365469
 20
705.8688790788742
 11
198.7250562365469
 21
703.3450695550633
 72
     1
 10
198.7250562365469
 20
703.3450695550633
 11
199.7108353292474
 21
703.3450695550633
 72
     1
 10
199.7108353292474
 20
703.3450695550633
 11
199.7108353292474
 21
704.426702208125
 72
     1
 10
199.7108353292474
 20
704.426702208125
 11
200.7360455856547
 21
703.3450695550633
 72
     1
 10
200.7360455856547
 20
703.3450695550633
 11
201.7218246783543
 21
703.3450695550633
 72
     1
 10
201.7218246783543
 20
703.3450695550633
 11
201.7218246783543
 21
705.8688790788742
 72
     1
 10
201.7218246783543
 20
705.8688790788742
 11
200.7360455856547
 21
705.8688790788742
 72
     1
 10
200.7360455856547
 20
705.8688790788742
 11
200.7360455856547
 21
704.7872464258121
 72
     1
 10
200.7360455856547
 20
704.7872464258121
 11
199.7108353292474
 21
705.8688790788742
 97
       10
330
1A7
330
1A8
330
1A9
330
1D5
330
1AA
330
1AB
330
1D4
330
1D7
330
1D6
330
1A6
 75
     1
 76
     0
 52
45.0
 41
0.1
 77
     0
 78
     1
 53
45.0
 43
0.0
 44
0.0
 45
-0.0707106781186548
 46
0.0707106781186548
 79
     0
 98
        1
 10
0.0
 20
0.0
  0
HATCH
  5
398
330
6D
100
AcDbEntity
  8
1
  6
Continuous
 62
     2
100
AcDbHatch
 10
0.0
 20
0.0
 30
0.0
210
0.0
220
0.0
230
1.0
  2
_USER
 70
     0
 71
     1
 91
        1
 92
        1
 93
       12
 72
     1
 10
198.8829056276479
 20
708.6450695550514
 11
198.8829056276479
 21
706.1212600312405
 72
     1
 10
198.8829056276479
 20
706.1212600312405
 11
197.8971265349483
 21
706.1212600312405
 72
     1
 10
197.8971265349483
 20
706.1212600312405
 11
197.8971265349483
 21
707.0586749972271
 72
     1
 10
197.8971265349483
 20
707.0586749972271
 11
197.0296409333719
 21
707.0586749972271
 72
     1
 10
197.0296409333719
 20
707.0586749972271
 11
197.0296409333719
 21
706.1212600312405
 72
     1
 10
197.0296409333719
 20
706.1212600312405
 11
196.0438618406723
 21
706.1212600312405
 72
     1
 10
196.0438618406723
 20
706.1212600312405
 11
196.0438618406723
 21
708.6450695550514
 72
     1
 10
196.0438618406723
 20
708.6450695550514
 11
197.0296409333719
 21
708.6450695550514
 72
     1
 10
197.0296409333719
 20
708.6450695550514
 11
197.0296409333719
 21
707.761736221717
 72
     1
 10
197.0296409333719
 20
707.761736221717
 11
197.8971265349483
 21
707.761736221717
 72
     1
 10
197.8971265349483
 20
707.761736221717
 11
197.8971265349483
 21
708.6450695550514
 72
     1
 10
197.8971265349483
 20
708.6450695550514
 11
198.8829056276479
 21
708.6450695550514
 97
       12
330
1CF
330
1CE
330
1CD
330
1B5
330
1B6
330
1CC
330
1B7
330
1CB
330
1CA
330
1C9
330
1B3
330
1B4
 75
     1
 76
     0
 52
45.0
 41
0.1
 77
     0
 78
     1
 53
45.0
 43
0.0
 44
0.0
 45
-0.0707106781186548
 46
0.0707106781186548
 79
     0
 98
        1
 10
0.0
 20
0.0
  0
HATCH
  5
399
330
6D
100
AcDbEntity
  8
1
  6
Continuous
 62
     2
100
AcDbHatch
 10
0.0
 20
0.0
 30
0.0
210
0.0
220
0.0
230
1.0
  2
_USER
 70
     0
 71
     1
 91
        1
 92
        1
 93
       12
 72
     1
 10
198.8829056276479
 20
708.6450695550514
 11
198.8829056276479
 21
706.1212600312405
 72
     1
 10
198.8829056276479
 20
706.1212600312405
 11
197.8971265349483
 21
706.1212600312405
 72
     1
 10
197.8971265349483
 20
706.1212600312405
 11
197.8971265349483
 21
707.0586749972271
 72
     1
 10
197.8971265349483
 20
707.0586749972271
 11
197.0296409333719
 21
707.0586749972271
 72
     1
 10
197.0296409333719
 20
707.0586749972271
 11
197.0296409333719
 21
706.1212600312405
 72
     1
 10
197.0296409333719
 20
706.1212600312405
 11
196.0438618406723
 21
706.1212600312405
 72
     1
 10
196.0438618406723
 20
706.1212600312405
 11
196.0438618406723
 21
708.6450695550514
 72
     1
 10
196.0438618406723
 20
708.6450695550514
 11
197.0296409333719
 21
708.6450695550514
 72
     1
 10
197.0296409333719
 20
708.6450695550514
 11
197.0296409333719
 21
707.761736221717
 72
     1
 10
197.0296409333719
 20
707.761736221717
 11
197.8971265349483
 21
707.761736221717
 72
     1
 10
197.8971265349483
 20
707.761736221717
 11
197.8971265349483
 21
708.6450695550514
 72
     1
 10
197.8971265349483
 20
708.6450695550514
 11
198.8829056276479
 21
708.6450695550514
 97
       12
330
1CF
330
1CE
330
1CD
330
1B5
330
1B6
330
1CC
330
1B7
330
1CB
330
1CA
330
1C9
330
1B3
330
1B4
 75
     1
 76
     0
 52
45.0
 41
0.1
 77
     0
 78
     1
 53
45.0
 43
0.0
 44
0.0
 45
-0.0707106781186548
 46
0.0707106781186548
 79
     0
 98
        1
 10
0.0
 20
0.0
  0
ENDBLK
  5
6F
330
6D
100
AcDbEntity
  8
0
100
AcDbBlockEnd
  0
BLOCK
  5
71
330
70
100
AcDbEntity
  8
0
100
AcDbBlockBegin
  2
_punkt
 70
     0
 10
310.6677922098036
 20
697.4950695550575
 30
0.0
  3
_punkt
  1

  0
LINE
  5
39A
330
70
100
AcDbEntity
  8
1
  6
Continuous
 62
     2
100
AcDbLine
 10
310.6677922098036
 20
697.4950695550575
 30
0.0
 11
310.6677922098036
 21
692.495069555058
 31
0.0
  0
LINE
  5
39B
330
70
100
AcDbEntity
  8
1
  6
Continuous
 62
     2
100
AcDbLine
 10
310.6677922098036
 20
697.4950695550575
 30
0.0
 11
315.6677922098012
 21
697.4950695550575
 31
0.0
  0
ENDBLK
  5
72
330
70
100
AcDbEntity
  8
0
100
AcDbBlockEnd
  0
BLOCK
  5
76
330
73
100
AcDbEntity
  8
0
100
AcDbBlockBegin
  2
A3I
 70
     0
 10
310.6677922098036
 20
692.495069555058
 30
0.0
  3
A3I
  1

  0
INSERT
  5
74
330
73
100
AcDbEntity
  8
1
100
AcDbBlockReference
  2
_rahmen
 10
310.6677922098036
 20
692.495069555058
 30
0.0
  0
INSERT
  5
75
330
73
100
AcDbEntity
  8
1
100
AcDbBlockReference
  2
_punkt
 10
310.6677922098036
 20
697.4950695550575
 30
0.0
  0
ENDBLK
  5
77
330
73
100
AcDbEntity
  8
0
100
AcDbBlockEnd
  0
BLOCK
  5
120
330
119
100
AcDbEntity
  8
0
100
AcDbBlockBegin
  2
*D16
 70
     1
 10
0.0
 20
0.0
 30
0.0
  3
*D16
  1

  0
LINE
  5
11A
330
119
100
AcDbEntity
  8
1
  6
Continuous
 62
     2
100
AcDbLine
 10
426.999999999995
 20
1787.515108680176
 30
0.0
 11
268.999999999995
 21
1787.515108680176
 31
0.0
  0
LINE
  5
11B
330
119
100
AcDbEntity
  8
1
  6
Continuous
 62
     2
100
AcDbLine
 10
426.999999999995
 20
1812.000001749939
 30
0.0
 11
426.999999999995
 21
1783.515108680176
 31
0.0
  0
LINE
  5
11C
330
119
100
AcDbEntity
  8
1
  6
Continuous
 62
     2
100
AcDbLine
 10
268.999999999995
 20
1812.000001749939
 30
0.0
 11
268.999999999995
 21
1783.515108680176
 31
0.0
  0
SOLID
  5
11D
330
119
100
AcDbEntity
  8
1
 62
     2
100
AcDbTrace
 10
419.999999999995
 20
1786.593541197064
 30
0.0
 11
419.999999999995
 21
1788.436676163288
 31
0.0
 12
426.999999999995
 22
1787.515108680176
 32
0.0
 13
426.999999999995
 23
1787.515108680176
 33
0.0
  0
SOLID
  5
11E
330
119
100
AcDbEntity
  8
1
 62
     2
100
AcDbTrace
 10
275.999999999995
 20
1788.436676163288
 30
0.0
 11
275.999999999995
 21
1786.593541197064
 31
0.0
 12
268.999999999995
 22
1787.515108680176
 32
0.0
 13
268.999999999995
 23
1787.515108680176
 33
0.0
  0
MTEXT
  5
11F
330
119
100
AcDbEntity
  8
1
 62
     3
100
AcDbMText
 10
337.727972438068
 20
1791.515108680176
 30
0.0
 40
7.0
 41
0.0
 71
     7
 72
     1
  1
2000
  7
CONVERTER_11
 11
0.9999999999970619
 21
2.424068405545306E-6
 31
0.0
 73
     1
 44
0.60024009603842
  0
ENDBLK
  5
121
330
119
100
AcDbEntity
  8
0
100
AcDbBlockEnd
  0
BLOCK
  5
17D
330
176
100
AcDbEntity
  8
0
100
AcDbBlockBegin
  2
*D17
 70
     1
 10
0.0
 20
0.0
 30
0.0
  3
*D17
  1

  0
LINE
  5
177
330
176
100
AcDbEntity
  8
1
  6
Continuous
 62
     2
100
AcDbLine
 10
218.6155661798577
 20
1812.000001749939
 30
0.0
 11
218.6155661798577
 21
1912.000001749939
 31
0.0
  0
LINE
  5
178
330
176
100
AcDbEntity
  8
1
  6
Continuous
 62
     2
100
AcDbLine
 10
192.0000022221673
 20
1812.000001749939
 30
0.0
 11
222.6155661798577
 21
1812.000001749939
 31
0.0
  0
LINE
  5
179
330
176
100
AcDbEntity
  8
1
  6
Continuous
 62
     2
100
AcDbLine
 10
192.0000022221673
 20
1912.000001749939
 30
0.0
 11
222.6155661798577
 21
1912.000001749939
 31
0.0
  0
SOLID
  5
17A
330
176
100
AcDbEntity
  8
1
 62
     2
100
AcDbTrace
 10
217.6939986967459
 20
1819.000001749939
 30
0.0
 11
219.5371336629695
 21
1819.000001749939
 31
0.0
 12
218.6155661798577
 22
1812.000001749939
 32
0.0
 13
218.6155661798577
 23
1812.000001749939
 33
0.0
  0
SOLID
  5
17B
330
176
100
AcDbEntity
  8
1
 62
     2
100
AcDbTrace
 10
219.5371336629695
 20
1905.000001749939
 30
0.0
 11
217.6939986967459
 21
1905.000001749939
 31
0.0
 12
218.6155661798577
 22
1912.000001749939
 32
0.0
 13
218.6155661798577
 23
1912.000001749939
 33
0.0
  0
MTEXT
  5
17C
330
176
100
AcDbEntity
  8
1
 62
     3
100
AcDbMText
 10
214.6155661798577
 20
1857.920807963896
 30
0.0
 40
7.0
 41
0.0
 71
     7
 72
     1
  1
100
  7
CONVERTER_11
 11
0.0
 21
1.0
 31
0.0
 73
     1
 44
0.60024009603842
  0
ENDBLK
  5
17E
330
176
100
AcDbEntity
  8
0
100
AcDbBlockEnd
  0
BLOCK
  5
188
330
181
100
AcDbEntity
  8
0
100
AcDbBlockBegin
  2
*D18
 70
     1
 10
0.0
 20
0.0
 30
0.0
  3
*D18
  1

  0
LINE
  5
182
330
181
100
AcDbEntity
  8
1
  6
Continuous
 62
     2
100
AcDbLine
 10
192.0000022221673
 20
1787.515108680176
 30
0.0
 11
112.0000022221673
 21
1787.515108680176
 31
0.0
  0
LINE
  5
183
330
181
100
AcDbEntity
  8
1
  6
Continuous
 62
     2
100
AcDbLine
 10
192.0000022221673
 20
1812.000001749939
 30
0.0
 11
192.0000022221673
 21
1783.515108680176
 31
0.0
  0
LINE
  5
184
330
181
100
AcDbEntity
  8
1
  6
Continuous
 62
     2
100
AcDbLine
 10
112.0000022221673
 20
1812.000001749939
 30
0.0
 11
112.0000022221673
 21
1783.515108680176
 31
0.0
  0
SOLID
  5
185
330
181
100
AcDbEntity
  8
1
 62
     2
100
AcDbTrace
 10
185.0000022221673
 20
1786.593541197064
 30
0.0
 11
185.0000022221673
 21
1788.436676163288
 31
0.0
 12
192.0000022221673
 22
1787.515108680176
 32
0.0
 13
192.0000022221673
 23
1787.515108680176
 33
0.0
  0
SOLID
  5
186
330
181
100
AcDbEntity
  8
1
 62
     2
100
AcDbTrace
 10
119.0000022221673
 20
1788.436676163288
 30
0.0
 11
119.0000022221673
 21
1786.593541197064
 31
0.0
 12
112.0000022221673
 22
1787.515108680176
 32
0.0
 13
112.0000022221673
 23
1787.515108680176
 33
0.0
  0
MTEXT
  5
187
330
181
100
AcDbEntity
  8
1
 62
     3
100
AcDbMText
 10
145.7519146287973
 20
1791.515108680176
 30
0.0
 40
7.0
 41
0.0
 71
     7
 72
     1
  1
80
  7
CONVERTER_11
 11
0.9999999999970619
 21
2.424068405545306E-6
 31
0.0
 73
     1
 44
0.60024009603842
  0
ENDBLK
  5
189
330
181
100
AcDbEntity
  8
0
100
AcDbBlockEnd
  0
ENDSEC
  0
SECTION
  2
ENTITIES
  0
INSERT
  5
78
330
1F
100
AcDbEntity
  8
0
100
AcDbBlockReference
  2
AllgSicht1
 10
227.9999999999997
 20
795.0
 30
0.0
 41
0.5
 42
0.5
 43
0.5
  0
INSERT
  5
79
330
1F
100
AcDbEntity
  8
0
100
AcDbBlockReference
  2
Drfsicht1
 10
76.0000004999997
 20
834.2500005
 30
0.0
 41
0.5
 42
0.5
 43
0.5
  0
INSERT
  5
7A
330
1F
100
AcDbEntity
  8
0
100
AcDbBlockReference
  2
Rckans1
 10
259.9999995231627
 20
931.0000000000005
 30
0.0
 41
0.5
 42
0.5
 43
0.5
  0
INSERT
  5
7B
330
1F
100
AcDbEntity
  8
0
100
AcDbBlockReference
  2
SA_Links1
 10
184.5
 20
931.0
 30
0.0
 41
0.5
 42
0.5
 43
0.5
  0
INSERT
  5
7C
330
1F
100
AcDbEntity
  8
0
100
AcDbBlockReference
  2
SA_Rechts1
 10
0.00000093051653
 20
931.0
 30
0.0
 41
0.5
 42
0.5
 43
0.5
  0
INSERT
  5
7D
330
1F
100
AcDbEntity
  8
0
100
AcDbBlockReference
  2
Vordans1
 10
76.0000004768369
 20
931.0
 30
0.0
 41
0.5
 42
0.5
 43
0.5
  0
INSERT
  5
7E
330
1F
100
AcDbEntity
  8
0
100
AcDbBlockReference
  2
A3I
 10
310.6677922098036
 20
692.495069555058
 30
0.0
  0
ENDSEC
  0
SECTION
  2
OBJECTS
  0
DICTIONARY
  5
C
330
0
100
AcDbDictionary
281
     1
  3
ACAD_GROUP
350
D
  3
ACAD_LAYOUT
350
1A
  3
ACAD_MLEADERSTYLE
350
39D
  3
ACAD_MLINESTYLE
350
17
  3
ACAD_PLOTSETTINGS
350
19
  3
ACAD_PLOTSTYLENAME
350
E
  3
ACAD_TABLESTYLE
350
39C
  3
ACAD_VISUALSTYLE
350
2A
  0
DICTIONARY
  5
D
102
{ACAD_REACTORS
330
C
102
}
330
C
100
AcDbDictionary
281
     1
  0
DICTIONARY
  5
1A
102
{ACAD_REACTORS
330
C
102
}
330
C
100
AcDbDictionary
281
     1
  3
Layout1
350
1E
  3
Layout2
350
26
  3
Model
350
22
  0
DICTIONARY
  5
39D
102
{ACAD_REACTORS
330
C
102
}
330
C
100
AcDbDictionary
281
     1
  0
DICTIONARY
  5
17
102
{ACAD_REACTORS
330
C
102
}
330
C
100
AcDbDictionary
281
     1
  3
Standard
350
18
  0
DICTIONARY
  5
19
102
{ACAD_REACTORS
330
C
102
}
330
C
100
AcDbDictionary
281
     1
  0
ACDBDICTIONARYWDFLT
  5
E
102
{ACAD_REACTORS
330
C
102
}
330
C
100
AcDbDictionary
281
     1
  3
Normal
350
F
100
AcDbDictionaryWithDefault
340
F
  0
DICTIONARY
  5
39C
102
{ACAD_REACTORS
330
C
102
}
330
C
100
AcDbDictionary
281
     1
  0
DICTIONARY
  5
2A
102
{ACAD_REACTORS
330
C
102
}
330
C
100
AcDbDictionary
281
     1
  3
2dWireframe
350
2F
  3
3D Hidden
350
31
  3
3dWireframe
350
30
  3
Basic
350
32
  3
Brighten
350
36
  3
ColorChange
350
3A
  3
Conceptual
350
34
  3
Dim
350
35
  3
Facepattern
350
39
  3
Flat
350
2B
  3
FlatWithEdges
350
2C
  3
Gouraud
350
2D
  3
GouraudWithEdges
350
2E
  3
Linepattern
350
38
  3
Realistic
350
33
  3
Thicken
350
37
  0
LAYOUT
  5
1E
102
{ACAD_REACTORS
330
1A
102
}
330
1A
100
AcDbPlotSettings
  1

  2
none_device
  4

  6

 40
0.0
 41
0.0
 42
0.0
 43
0.0
 44
0.0
 45
0.0
 46
0.0
 47
0.0
 48
0.0
 49
0.0
140
0.0
141
0.0
142
1.0
143
1.0
 70
   688
 72
     0
 73
     0
 74
     5
  7

 75
    16
147
1.0
148
0.0
149
0.0
100
AcDbLayout
  1
Layout1
 70
     1
 71
     1
 10
0.0
 20
0.0
 11
12.0
 21
9.0
 12
0.0
 22
0.0
 32
0.0
 14
1.00000000000000E+20
 24
1.00000000000000E+20
 34
1.00000000000000E+20
 15
-1.00000000000000E+20
 25
-1.00000000000000E+20
 35
-1.00000000000000E+20
146
0.0
 13
0.0
 23
0.0
 33
0.0
 16
1.0
 26
0.0
 36
0.0
 17
0.0
 27
1.0
 37
0.0
 76
     0
330
1B
  0
LAYOUT
  5
26
102
{ACAD_REACTORS
330
1A
102
}
330
1A
100
AcDbPlotSettings
  1

  2
none_device
  4

  6

 40
0.0
 41
0.0
 42
0.0
 43
0.0
 44
0.0
 45
0.0
 46
0.0
 47
0.0
 48
0.0
 49
0.0
140
0.0
141
0.0
142
1.0
143
1.0
 70
   688
 72
     0
 73
     0
 74
     5
  7

 75
    16
147
1.0
148
0.0
149
0.0
100
AcDbLayout
  1
Layout2
 70
     1
 71
     2
 10
0.0
 20
0.0
 11
0.0
 21
0.0
 12
0.0
 22
0.0
 32
0.0
 14
0.0
 24
0.0
 34
0.0
 15
0.0
 25
0.0
 35
0.0
146
0.0
 13
0.0
 23
0.0
 33
0.0
 16
1.0
 26
0.0
 36
0.0
 17
0.0
 27
1.0
 37
0.0
 76
     0
330
23
  0
LAYOUT
  5
22
102
{ACAD_REACTORS
330
1A
102
}
330
1A
100
AcDbPlotSettings
  1

  2
none_device
  4

  6

 40
0.0
 41
0.0
 42
0.0
 43
0.0
 44
0.0
 45
0.0
 46
0.0
 47
0.0
 48
0.0
 49
0.0
140
0.0
141
0.0
142
1.0
143
1.0
 70
  1712
 72
     0
 73
     0
 74
     0
  7

 75
     0
147
1.0
148
0.0
149
0.0
100
AcDbLayout
  1
Model
 70
     1
 71
     0
 10
0.0
 20
0.0
 11
12.0
 21
9.0
 12
0.0
 22
0.0
 32
0.0
 14
-104.3322077901972
 24
692.495069555058
 34
0.0
 15
315.6677922098012
 25
989.495069555058
 35
0.0
146
0.0
 13
0.0
 23
0.0
 33
0.0
 16
1.0
 26
0.0
 36
0.0
 17
0.0
 27
1.0
 37
0.0
 76
     0
330
1F
331
29
  0
MLINESTYLE
  5
18
102
{ACAD_REACTORS
330
17
102
}
330
17
100
AcDbMlineStyle
  2
Standard
 70
     0
  3

 62
   256
 51
90.0
 52
90.0
 71
     2
 49
0.5
 62
   256
  6
BYLAYER
 49
-0.5
 62
   256
  6
BYLAYER
  0
ACDBPLACEHOLDER
  5
F
102
{ACAD_REACTORS
330
E
102
}
330
E
  0
VISUALSTYLE
  5
2F
102
{ACAD_REACTORS
330
2A
102
}
330
2A
100
AcDbVisualStyle
  2
2dWireframe
 70
     4
 71
     0
 72
     2
 73
     0
 90
        0
 40
-0.6
 41
-30.0
 62
     5
 63
     7
 74
     1
 91
        4
 64
     7
 65
   257
 75
     1
175
     1
 42
1.0
 92
        0
 66
   257
 43
1.0
 76
     1
 77
     6
 78
     2
 67
     7
 79
     5
170
     0
171
     0
290
     0
174
     0
 93
        1
 44
0.0
173
     0
291
     0
 45
0.0
1001
ACAD
1000
AcDbSavedByObjectVersion
1070
     0
  0
VISUALSTYLE
  5
31
102
{ACAD_REACTORS
330
2A
102
}
330
2A
100
AcDbVisualStyle
  2
3D Hidden
 70
     6
 71
     1
 72
     2
 73
     2
 90
        0
 40
-0.6
 41
-30.0
 62
     5
 63
     7
 74
     2
 91
        2
 64
     7
 65
   257
 75
     2
175
     1
 42
40.0
 92
        0
 66
   257
 43
1.0
 76
     1
 77
     6
 78
     2
 67
     7
 79
     3
170
     0
171
     0
290
     0
174
     0
 93
        1
 44
0.0
173
     0
291
     0
 45
0.0
1001
ACAD
1000
AcDbSavedByObjectVersion
1070
     0
  0
VISUALSTYLE
  5
30
102
{ACAD_REACTORS
330
2A
102
}
330
2A
100
AcDbVisualStyle
  2
3dWireframe
 70
     5
 71
     0
 72
     2
 73
     0
 90
        0
 40
-0.6
 41
-30.0
 62
     5
 63
     7
 74
     1
 91
        4
 64
     7
 65
   257
 75
     1
175
     1
 42
1.0
 92
        0
 66
   257
 43
1.0
 76
     1
 77
     6
 78
     2
 67
     7
 79
     5
170
     0
171
     0
290
     0
174
     0
 93
        1
 44
0.0
173
     0
291
     0
 45
0.0
1001
ACAD
1000
AcDbSavedByObjectVersion
1070
     0
  0
VISUALSTYLE
  5
32
102
{ACAD_REACTORS
330
2A
102
}
330
2A
100
AcDbVisualStyle
  2
Basic
 70
     7
 71
     1
 72
     0
 73
     1
 90
        0
 40
-0.6
 41
-30.0
 62
     5
 63
     7
 74
     0
 91
        4
 64
     7
 65
   257
 75
     1
175
     1
 42
1.0
 92
        8
 66
     7
 43
1.0
 76
     1
 77
     6
 78
     2
 67
     7
 79
     5
170
     0
171
     0
290
     0
174
     0
 93
        1
 44
0.0
173
     0
291
     1
 45
0.0
1001
ACAD
1000
AcDbSavedByObjectVersion
1070
     0
  0
VISUALSTYLE
  5
36
102
{ACAD_REACTORS
330
2A
102
}
330
2A
100
AcDbVisualStyle
  2
Brighten
 70
    12
 71
     2
 72
     2
 73
     0
 90
        0
 40
-0.6
 41
-30.0
 62
     5
 63
     7
 74
     1
 91
        4
 64
     7
 65
   257
 75
     1
175
     1
 42
1.0
 92
        8
 66
     7
 43
1.0
 76
     1
 77
     6
 78
     2
 67
     7
 79
     5
170
     0
171
     0
290
     0
174
     0
 93
        1
 44
50.0
173
     0
291
     1
 45
0.0
1001
ACAD
1000
AcDbSavedByObjectVersion
1070
     0
  0
VISUALSTYLE
  5
3A
102
{ACAD_REACTORS
330
2A
102
}
330
2A
100
AcDbVisualStyle
  2
ColorChange
 70
    16
 71
     2
 72
     2
 73
     3
 90
        0
 40
-0.6
 41
-30.0
 62
     5
 63
     8
 74
     1
 91
        4
 64
     7
 65
   257
 75
     1
175
     1
 42
1.0
 92
        8
 66
     8
 43
1.0
 76
     1
 77
     6
 78
     2
 67
     7
 79
     5
170
     0
171
     0
290
     0
174
     0
 93
        1
 44
0.0
173
     0
291
     1
 45
0.0
1001
ACAD
1000
AcDbSavedByObjectVersion
1070
     0
  0
VISUALSTYLE
  5
34
102
{ACAD_REACTORS
330
2A
102
}
330
2A
100
AcDbVisualStyle
  2
Conceptual
 70
     9
 71
     3
 72
     2
 73
     0
 90
        0
 40
-0.6
 41
-30.0
 62
     5
 63
     7
 74
     2
 91
        2
 64
     7
 65
   257
 75
     1
175
     1
 42
40.0
 92
        8
 66
     7
 43
1.0
 76
     1
 77
     6
 78
     2
 67
     7
 79
     3
170
     0
171
     0
290
     0
174
     0
 93
        1
 44
0.0
173
     0
291
     0
 45
0.0
1001
ACAD
1000
AcDbSavedByObjectVersion
1070
     0
  0
VISUALSTYLE
  5
35
102
{ACAD_REACTORS
330
2A
102
}
330
2A
100
AcDbVisualStyle
  2
Dim
 70
    11
 71
     2
 72
     2
 73
     0
 90
        0
 40
-0.6
 41
-30.0
 62
     5
 63
     7
 74
     1
 91
        4
 64
     7
 65
   257
 75
     1
175
     1
 42
1.0
 92
        8
 66
     7
 43
1.0
 76
     1
 77
     6
 78
     2
 67
     7
 79
     5
170
     0
171
     0
290
     0
174
     0
 93
        1
 44
-50.0
173
     0
291
     1
 45
0.0
1001
ACAD
1000
AcDbSavedByObjectVersion
1070
     0
  0
VISUALSTYLE
  5
39
102
{ACAD_REACTORS
330
2A
102
}
330
2A
100
AcDbVisualStyle
  2
Facepattern
 70
    15
 71
     2
 72
     2
 73
     0
 90
        0
 40
-0.6
 41
-30.0
 62
     5
 63
     7
 74
     1
 91
        4
 64
     7
 65
   257
 75
     1
175
     1
 42
1.0
 92
        8
 66
     7
 43
1.0
 76
     1
 77
     6
 78
     2
 67
     7
 79
     5
170
     0
171
     0
290
     0
174
     0
 93
        1
 44
0.0
173
     0
291
     1
 45
0.0
1001
ACAD
1000
AcDbSavedByObjectVersion
1070
     0
  0
VISUALSTYLE
  5
2B
102
{ACAD_REACTORS
330
2A
102
}
330
2A
100
AcDbVisualStyle
  2
Flat
 70
     0
 71
     2
 72
     1
 73
     1
 90
        2
 40
-0.6
 41
30.0
 62
     5
 63
     7
 74
     0
 91
        4
 64
     7
 65
   257
 75
     1
175
     1
 42
1.0
 92
        8
 66
     7
 43
1.0
 76
     1
 77
     6
 78
     2
 67
     7
 79
     5
170
     0
171
     0
290
     0
174
     0
 93
       13
 44
0.0
173
     0
291
     1
 45
0.0
1001
ACAD
1000
AcDbSavedByObjectVersion
1070
     0
  0
VISUALSTYLE
  5
2C
102
{ACAD_REACTORS
330
2A
102
}
330
2A
100
AcDbVisualStyle
  2
FlatWithEdges
 70
     1
 71
     2
 72
     1
 73
     1
 90
        2
 40
-0.6
 41
30.0
 62
     5
 63
     7
 74
     1
 91
        4
 64
     7
 65
   257
 75
     1
175
     1
 42
1.0
 92
        0
 66
   257
 43
1.0
 76
     1
 77
     6
 78
     2
 67
     7
 79
     5
170
     0
171
     0
290
     0
174
     0
 93
       13
 44
0.0
173
     0
291
     1
 45
0.0
1001
ACAD
1000
AcDbSavedByObjectVersion
1070
     0
  0
VISUALSTYLE
  5
2D
102
{ACAD_REACTORS
330
2A
102
}
330
2A
100
AcDbVisualStyle
  2
Gouraud
 70
     2
 71
     2
 72
     2
 73
     1
 90
        2
 40
-0.6
 41
30.0
 62
     5
 63
     7
 74
     0
 91
        4
 64
     7
 65
   257
 75
     1
175
     1
 42
1.0
 92
        0
 66
     7
 43
1.0
 76
     1
 77
     6
 78
     2
 67
     7
 79
     5
170
     0
171
     0
290
     0
174
     0
 93
       13
 44
0.0
173
     0
291
     1
 45
0.0
1001
ACAD
1000
AcDbSavedByObjectVersion
1070
     0
  0
VISUALSTYLE
  5
2E
102
{ACAD_REACTORS
330
2A
102
}
330
2A
100
AcDbVisualStyle
  2
GouraudWithEdges
 70
     3
 71
     2
 72
     2
 73
     1
 90
        2
 40
-0.6
 41
30.0
 62
     5
 63
     7
 74
     1
 91
        4
 64
     7
 65
   257
 75
     1
175
     1
 42
1.0
 92
        0
 66
   257
 43
1.0
 76
     1
 77
     6
 78
     2
 67
     7
 79
     5
170
     0
171
     0
290
     0
174
     0
 93
       13
 44
0.0
173
     0
291
     1
 45
0.0
1001
ACAD
1000
AcDbSavedByObjectVersion
1070
     0
  0
VISUALSTYLE
  5
38
102
{ACAD_REACTORS
330
2A
102
}
330
2A
100
AcDbVisualStyle
  2
Linepattern
 70
    14
 71
     2
 72
     2
 73
     0
 90
        0
 40
-0.6
 41
-30.0
 62
     5
 63
     7
 74
     1
 91
        4
 64
     7
 65
   257
 75
     7
175
     7
 42
1.0
 92
        8
 66
     7
 43
1.0
 76
     1
 77
     6
 78
     2
 67
     7
 79
     5
170
     0
171
     0
290
     0
174
     0
 93
        1
 44
0.0
173
     0
291
     1
 45
0.0
1001
ACAD
1000
AcDbSavedByObjectVersion
1070
     0
  0
VISUALSTYLE
  5
33
102
{ACAD_REACTORS
330
2A
102
}
330
2A
100
AcDbVisualStyle
  2
Realistic
 70
     8
 71
     2
 72
     2
 73
     0
 90
        0
 40
-0.6
 41
-30.0
 62
     5
 63
     7
 74
     1
 91
        0
 64
     7
 65
   257
 75
     1
175
     1
 42
1.0
 92
        8
 66
     8
 43
1.0
 76
     1
 77
     6
 78
     2
 67
     7
 79
     5
170
     0
171
     0
290
     0
174
     0
 93
       13
 44
0.0
173
     0
291
     0
 45
0.0
1001
ACAD
1000
AcDbSavedByObjectVersion
1070
     0
  0
VISUALSTYLE
  5
37
102
{ACAD_REACTORS
330
2A
102
}
330
2A
100
AcDbVisualStyle
  2
Thicken
 70
    13
 71
     2
 72
     2
 73
     0
 90
        0
 40
-0.6
 41
-30.0
 62
     5
 63
     7
 74
     1
 91
        4
 64
     7
 65
   257
 75
     1
175
     1
 42
1.0
 92
       12
 66
     7
 43
1.0
 76
     1
 77
     6
 78
     2
 67
     7
 79
     5
170
     0
171
     0
290
     0
174
     0
 93
        1
 44
0.0
173
     0
291
     1
 45
0.0
1001
ACAD
1000
AcDbSavedByObjectVersion
1070
     0
  0
ENDSEC
  0
EOF
