  0
SECTION
  2
HEADER
  9
$ACADVER
  1
AC1015
  9
$ACADMAINTVER
 70
     6
  9
$DWGCODEPAGE
  3
ANSI_1252
  9
$INSBASE
 10
0.0
 20
0.0
 30
0.0
  9
$EXTMIN
 10
-112.6517565313616
 20
710.43777019455
 30
0.0
  9
$EXTMAX
 10
307.3482434686368
 20
1007.43777019455
 30
0.0
  9
$LIMMIN
 10
0.0
 20
0.0
  9
$LIMMAX
 10
12.0
 20
9.0
  9
$ORTHOMODE
 70
     0
  9
$REGENMODE
 70
     1
  9
$FILLMODE
 70
     1
  9
$QTEXTMODE
 70
     0
  9
$MIRRTEXT
 70
     1
  9
$LTSCALE
 40
1.0
  9
$ATTMODE
 70
     1
  9
$TEXTSIZE
 40
0.2
  9
$TRACEWID
 40
0.05
  9
$TEXTSTYLE
  7
Standard
  9
$CLAYER
  8
0
  9
$CELTYPE
  6
ByLayer
  9
$CECOLOR
 62
   256
  9
$CELTSCALE
 40
1.0
  9
$DISPSILH
 70
     0
  9
$DIMSCALE
 40
1.0
  9
$DIMASZ
 40
0.18
  9
$DIMEXO
 40
0.0625
  9
$DIMDLI
 40
0.38
  9
$DIMRND
 40
0.0
  9
$DIMDLE
 40
0.0
  9
$DIMEXE
 40
0.18
  9
$DIMTP
 40
0.0
  9
$DIMTM
 40
0.0
  9
$DIMTXT
 40
0.18
  9
$DIMCEN
 40
0.09
  9
$DIMTSZ
 40
0.0
  9
$DIMTOL
 70
     0
  9
$DIMLIM
 70
     0
  9
$DIMTIH
 70
     1
  9
$DIMTOH
 70
     1
  9
$DIMSE1
 70
     0
  9
$DIMSE2
 70
     0
  9
$DIMTAD
 70
     0
  9
$DIMZIN
 70
     0
  9
$DIMBLK
  1

  9
$DIMASO
 70
     1
  9
$DIMSHO
 70
     1
  9
$DIMPOST
  1

  9
$DIMAPOST
  1

  9
$DIMALT
 70
     0
  9
$DIMALTD
 70
     2
  9
$DIMALTF
 40
25.4
  9
$DIMLFAC
 40
1.0
  9
$DIMTOFL
 70
     0
  9
$DIMTVP
 40
0.0
  9
$DIMTIX
 70
     0
  9
$DIMSOXD
 70
     0
  9
$DIMSAH
 70
     0
  9
$DIMBLK1
  1

  9
$DIMBLK2
  1

  9
$DIMSTYLE
  2
Standard
  9
$DIMCLRD
 70
     0
  9
$DIMCLRE
 70
     0
  9
$DIMCLRT
 70
     0
  9
$DIMTFAC
 40
1.0
  9
$DIMGAP
 40
0.09
  9
$DIMJUST
 70
     0
  9
$DIMSD1
 70
     0
  9
$DIMSD2
 70
     0
  9
$DIMTOLJ
 70
     1
  9
$DIMTZIN
 70
     0
  9
$DIMALTZ
 70
     0
  9
$DIMALTTZ
 70
     0
  9
$DIMUPT
 70
     0
  9
$DIMDEC
 70
     4
  9
$DIMTDEC
 70
     4
  9
$DIMALTU
 70
     2
  9
$DIMALTTD
 70
     2
  9
$DIMTXSTY
  7
Standard
  9
$DIMAUNIT
 70
     0
  9
$DIMADEC
 70
     0
  9
$DIMALTRND
 40
0.0
  9
$DIMAZIN
 70
     0
  9
$DIMDSEP
 70
    46
  9
$DIMATFIT
 70
     3
  9
$DIMFRAC
 70
     0
  9
$DIMLDRBLK
  1

  9
$DIMLUNIT
 70
     2
  9
$DIMLWD
 70
    -2
  9
$DIMLWE
 70
    -2
  9
$DIMTMOVE
 70
     0
  9
$LUNITS
 70
     2
  9
$LUPREC
 70
     4
  9
$SKETCHINC
 40
0.1
  9
$FILLETRAD
 40
0.5
  9
$AUNITS
 70
     0
  9
$AUPREC
 70
     0
  9
$MENU
  1
.
  9
$ELEVATION
 40
0.0
  9
$PELEVATION
 40
0.0
  9
$THICKNESS
 40
0.0
  9
$LIMCHECK
 70
     0
  9
$CHAMFERA
 40
0.5
  9
$CHAMFERB
 40
0.5
  9
$CHAMFERC
 40
1.0
  9
$CHAMFERD
 40
0.0
  9
$SKPOLY
 70
     0
  9
$TDCREATE
 40
2457203.630022408
  9
$TDUCREATE
 40
2457203.546689074
  9
$TDUPDATE
 40
2457203.630023322
  9
$TDUUPDATE
 40
2457203.546689989
  9
$TDINDWG
 40
0.0000000116
  9
$TDUSRTIMER
 40
0.0000000116
  9
$USRTIMER
 70
     1
  9
$ANGBASE
 50
0.0
  9
$ANGDIR
 70
     0
  9
$PDMODE
 70
     0
  9
$PDSIZE
 40
0.0
  9
$PLINEWID
 40
0.0
  9
$SPLFRAME
 70
     0
  9
$SPLINETYPE
 70
     6
  9
$SPLINESEGS
 70
     8
  9
$HANDSEED
  5
4B1
  9
$SURFTAB1
 70
     6
  9
$SURFTAB2
 70
     6
  9
$SURFTYPE
 70
     6
  9
$SURFU
 70
     6
  9
$SURFV
 70
     6
  9
$UCSBASE
  2

  9
$UCSNAME
  2

  9
$UCSORG
 10
0.0
 20
0.0
 30
0.0
  9
$UCSXDIR
 10
1.0
 20
0.0
 30
0.0
  9
$UCSYDIR
 10
0.0
 20
1.0
 30
0.0
  9
$UCSORTHOREF
  2

  9
$UCSORTHOVIEW
 70
     0
  9
$UCSORGTOP
 10
0.0
 20
0.0
 30
0.0
  9
$UCSORGBOTTOM
 10
0.0
 20
0.0
 30
0.0
  9
$UCSORGLEFT
 10
0.0
 20
0.0
 30
0.0
  9
$UCSORGRIGHT
 10
0.0
 20
0.0
 30
0.0
  9
$UCSORGFRONT
 10
0.0
 20
0.0
 30
0.0
  9
$UCSORGBACK
 10
0.0
 20
0.0
 30
0.0
  9
$PUCSBASE
  2

  9
$PUCSNAME
  2

  9
$PUCSORG
 10
0.0
 20
0.0
 30
0.0
  9
$PUCSXDIR
 10
1.0
 20
0.0
 30
0.0
  9
$PUCSYDIR
 10
0.0
 20
1.0
 30
0.0
  9
$PUCSORTHOREF
  2

  9
$PUCSORTHOVIEW
 70
     0
  9
$PUCSORGTOP
 10
0.0
 20
0.0
 30
0.0
  9
$PUCSORGBOTTOM
 10
0.0
 20
0.0
 30
0.0
  9
$PUCSORGLEFT
 10
0.0
 20
0.0
 30
0.0
  9
$PUCSORGRIGHT
 10
0.0
 20
0.0
 30
0.0
  9
$PUCSORGFRONT
 10
0.0
 20
0.0
 30
0.0
  9
$PUCSORGBACK
 10
0.0
 20
0.0
 30
0.0
  9
$USERI1
 70
     0
  9
$USERI2
 70
     0
  9
$USERI3
 70
     0
  9
$USERI4
 70
     0
  9
$USERI5
 70
     0
  9
$USERR1
 40
18.1
  9
$USERR2
 40
0.0
  9
$USERR3
 40
0.0
  9
$USERR4
 40
0.0
  9
$USERR5
 40
0.0
  9
$WORLDVIEW
 70
     1
  9
$SHADEDGE
 70
     3
  9
$SHADEDIF
 70
    70
  9
$TILEMODE
 70
     1
  9
$MAXACTVP
 70
    64
  9
$PINSBASE
 10
0.0
 20
0.0
 30
0.0
  9
$PLIMCHECK
 70
     0
  9
$PEXTMIN
 10
1.00000000000000E+20
 20
1.00000000000000E+20
 30
1.00000000000000E+20
  9
$PEXTMAX
 10
-1.00000000000000E+20
 20
-1.00000000000000E+20
 30
-1.00000000000000E+20
  9
$PLIMMIN
 10
0.0
 20
0.0
  9
$PLIMMAX
 10
12.0
 20
9.0
  9
$UNITMODE
 70
     0
  9
$VISRETAIN
 70
     1
  9
$PLINEGEN
 70
     0
  9
$PSLTSCALE
 70
     1
  9
$TREEDEPTH
 70
  3020
  9
$CMLSTYLE
  2
Standard
  9
$CMLJUST
 70
     0
  9
$CMLSCALE
 40
1.0
  9
$PROXYGRAPHICS
 70
     1
  9
$MEASUREMENT
 70
     1
  9
$CELWEIGHT
370
    -1
  9
$ENDCAPS
280
     0
  9
$JOINSTYLE
280
     0
  9
$LWDISPLAY
290
     0
  9
$INSUNITS
 70
     4
  9
$HYPERLINKBASE
  1

  9
$STYLESHEET
  1

  9
$XEDIT
290
     1
  9
$CEPSNTYPE
380
     0
  9
$PSTYLEMODE
290
     1
  9
$FINGERPRINTGUID
  2
{88374972-E334-43C8-836A-84ECC0A78D27}
  9
$VERSIONGUID
  2
{FAEB1C32-E019-11D5-929B-00C0DF256EC4}
  9
$EXTNAMES
290
     1
  9
$PSVPSCALE
 40
0.0
  9
$OLESTARTUP
290
     0
  0
ENDSEC
  0
SECTION
  2
CLASSES
  0
CLASS
  1
ACDBDICTIONARYWDFLT
  2
AcDbDictionaryWithDefault
  3
ObjectDBX Classes
 90
        0
280
     0
281
     0
  0
CLASS
  1
VISUALSTYLE
  2
AcDbVisualStyle
  3
ObjectDBX Classes
 90
     4095
280
     0
281
     0
  0
CLASS
  1
MATERIAL
  2
AcDbMaterial
  3
ObjectDBX Classes
 90
     1153
280
     0
281
     0
  0
CLASS
  1
DICTIONARYVAR
  2
AcDbDictionaryVar
  3
ObjectDBX Classes
 90
        0
280
     0
281
     0
  0
CLASS
  1
ACDBPLACEHOLDER
  2
AcDbPlaceHolder
  3
ObjectDBX Classes
 90
        0
280
     0
281
     0
  0
CLASS
  1
LAYOUT
  2
AcDbLayout
  3
ObjectDBX Classes
 90
        0
280
     0
281
     0
  0
ENDSEC
  0
SECTION
  2
TABLES
  0
TABLE
  2
VPORT
  5
8
330
0
100
AcDbSymbolTable
 70
     1
  0
VPORT
  5
29
330
8
100
AcDbSymbolTableRecord
100
AcDbViewportTableRecord
  2
*Active
 70
     0
 10
0.0
 20
0.0
 11
1.0
 21
1.0
 12
97.34824346863759
 22
858.93777019455
 13
0.0
 23
0.0
 14
0.5
 24
0.5
 15
0.5
 25
0.5
 16
0.0
 26
0.0
 36
1.0
 17
0.0
 27
0.0
 37
0.0
 40
326.7
 41
1.60267857142857
 42
50.0
 43
0.0
 44
0.0
 50
0.0
 51
0.0
 71
     0
 72
   100
 73
     1
 74
     3
 75
     0
 76
     0
 77
     0
 78
     0
281
     0
 65
     1
110
0.0
120
0.0
130
0.0
111
1.0
121
0.0
131
0.0
112
0.0
122
1.0
132
0.0
 79
     0
146
0.0
  0
ENDTAB
  0
TABLE
  2
LTYPE
  5
5
330
0
100
AcDbSymbolTable
 70
     8
  0
LTYPE
  5
14
330
5
100
AcDbSymbolTableRecord
100
AcDbLinetypeTableRecord
  2
ByBlock
 70
     0
  3

 72
    65
 73
     0
 40
0.0
  0
LTYPE
  5
15
330
5
100
AcDbSymbolTableRecord
100
AcDbLinetypeTableRecord
  2
ByLayer
 70
     0
  3

 72
    65
 73
     0
 40
0.0
  0
LTYPE
  5
16
330
5
100
AcDbSymbolTableRecord
100
AcDbLinetypeTableRecord
  2
Continuous
 70
     0
  3
Solid line
 72
    65
 73
     0
 40
0.0
  0
LTYPE
  5
3F
330
5
100
AcDbSymbolTableRecord
100
AcDbLinetypeTableRecord
  2
DASHED
 70
     0
  3
Dashed
 72
    65
 73
     2
 40
15.0
 49
7.0
 74
     0
 49
-8.0
 74
     0
  0
LTYPE
  5
40
330
5
100
AcDbSymbolTableRecord
100
AcDbLinetypeTableRecord
  2
DOTTED
 70
     0
  3
Dotted
 72
    65
 73
     2
 40
1.0
 49
0.0
 74
     0
 49
-1.0
 74
     0
  0
LTYPE
  5
41
330
5
100
AcDbSymbolTableRecord
100
AcDbLinetypeTableRecord
  2
DOT_CENTER
 70
     0
  3
Dot_Center
 72
    65
 73
     4
 40
14.0
 49
12.0
 74
     0
 49
-1.0
 74
     0
 49
0.0
 74
     0
 49
-1.0
 74
     0
  0
LTYPE
  5
42
330
5
100
AcDbSymbolTableRecord
100
AcDbLinetypeTableRecord
  2
LONG_DASHED
 70
     0
  3
Long_Dashed
 72
    65
 73
     2
 40
15.0
 49
10.0
 74
     0
 49
-5.0
 74
     0
  0
LTYPE
  5
43
330
5
100
AcDbSymbolTableRecord
100
AcDbLinetypeTableRecord
  2
DASH_CENTER
 70
     0
  3
Dash_Center
 72
    65
 73
     4
 40
14.0
 49
11.0
 74
     0
 49
-1.0
 74
     0
 49
1.0
 74
     0
 49
-1.0
 74
     0
  0
LTYPE
  5
44
330
5
100
AcDbSymbolTableRecord
100
AcDbLinetypeTableRecord
  2
PHANTOM
 70
     0
  3
Phantom
 72
    65
 73
     6
 40
13.0
 49
10.0
 74
     0
 49
-1.0
 74
     0
 49
0.0
 74
     0
 49
-1.0
 74
     0
 49
0.0
 74
     0
 49
-1.0
 74
     0
  0
LTYPE
  5
45
330
5
100
AcDbSymbolTableRecord
100
AcDbLinetypeTableRecord
  2
CENTER_DASH_DASH
 70
     0
  3
Center_Dash_Dash
 72
    65
 73
     6
 40
14.0
 49
9.0
 74
     0
 49
-1.0
 74
     0
 49
1.0
 74
     0
 49
-1.0
 74
     0
 49
1.0
 74
     0
 49
-1.0
 74
     0
  0
ENDTAB
  0
TABLE
  2
LAYER
  5
2
330
0
100
AcDbSymbolTable
 70
     2
  0
LAYER
  5
10
330
2
100
AcDbSymbolTableRecord
100
AcDbLayerTableRecord
  2
0
 70
     0
 62
     7
  6
Continuous
370
    -3
390
F
  0
LAYER
  5
46
330
2
100
AcDbSymbolTableRecord
100
AcDbLayerTableRecord
  2
1
 70
     0
 62
     7
  6
Continuous
370
    -3
390
F
  0
ENDTAB
  0
TABLE
  2
STYLE
  5
3
330
0
100
AcDbSymbolTable
 70
     9
  0
STYLE
  5
11
330
3
100
AcDbSymbolTableRecord
100
AcDbTextStyleTableRecord
  2
Standard
 70
     0
 40
0.0
 41
1.0
 50
0.0
 71
     0
 42
0.2
  3
txt
  4

  0
STYLE
  5
125
330
3
100
AcDbSymbolTableRecord
100
AcDbTextStyleTableRecord
  2
CONVERTER_11
 70
     0
 40
0.0
 41
0.9
 50
0.0
 71
     0
 42
0.2
  3
txt.shx
  4

  0
STYLE
  5
402
330
3
100
AcDbSymbolTableRecord
100
AcDbTextStyleTableRecord
  2
CONVERTER_12
 70
     0
 40
0.0
 41
0.765
 50
0.0
 71
     0
 42
0.2
  3
txt.shx
  4

  0
STYLE
  5
429
330
3
100
AcDbSymbolTableRecord
100
AcDbTextStyleTableRecord
  2
CONVERTER_13
 70
     0
 40
0.0
 41
0.855
 50
0.0
 71
     0
 42
0.2
  3
txt.shx
  4

  0
STYLE
  5
445
330
3
100
AcDbSymbolTableRecord
100
AcDbTextStyleTableRecord
  2
CONVERTER_14
 70
     0
 40
0.0
 41
0.72
 50
0.0
 71
     0
 42
0.2
  3
txt.shx
  4

  0
STYLE
  5
447
330
3
100
AcDbSymbolTableRecord
100
AcDbTextStyleTableRecord
  2
CONVERTER_15
 70
     0
 40
0.0
 41
0.54
 50
0.0
 71
     0
 42
0.2
  3
txt.shx
  4

  0
STYLE
  5
449
330
3
100
AcDbSymbolTableRecord
100
AcDbTextStyleTableRecord
  2
CONVERTER_16
 70
     0
 40
0.0
 41
0.81
 50
0.0
 71
     0
 42
0.2
  3
txt.shx
  4

  0
STYLE
  5
461
330
3
100
AcDbSymbolTableRecord
100
AcDbTextStyleTableRecord
  2
CONVERTER_17
 70
     0
 40
0.0
 41
0.45
 50
0.0
 71
     0
 42
0.2
  3
txt.shx
  4

  0
STYLE
  5
464
330
3
100
AcDbSymbolTableRecord
100
AcDbTextStyleTableRecord
  2
CONVERTER_18
 70
     0
 40
0.0
 41
0.63
 50
0.0
 71
     0
 42
0.2
  3
txt.shx
  4

  0
ENDTAB
  0
TABLE
  2
VIEW
  5
6
330
0
100
AcDbSymbolTable
 70
     0
  0
ENDTAB
  0
TABLE
  2
UCS
  5
7
330
0
100
AcDbSymbolTable
 70
     0
  0
ENDTAB
  0
TABLE
  2
APPID
  5
9
330
0
100
AcDbSymbolTable
 70
     1
  0
APPID
  5
12
330
9
100
AcDbSymbolTableRecord
100
AcDbRegAppTableRecord
  2
ACAD
 70
     0
  0
ENDTAB
  0
TABLE
  2
DIMSTYLE
  5
A
330
0
100
AcDbSymbolTable
 70
     6
100
AcDbDimStyleTable
  0
DIMSTYLE
105
27
330
A
100
AcDbSymbolTableRecord
100
AcDbDimStyleTableRecord
  2
Standard
 70
     0
178
     0
340
11
  0
DIMSTYLE
105
1C0
102
{ACAD_REACTORS
330
1C1
102
}
330
A
100
AcDbSymbolTableRecord
100
AcDbDimStyleTableRecord
  2
ME10_DIM_10
 70
     0
 41
3.5
 42
0.0
 44
2.0
 73
     0
 74
     0
 77
     1
 78
     8
140
3.5
147
2.0
172
     1
173
     1
174
     1
175
     1
176
     2
177
     2
178
     3
340
125
  0
DIMSTYLE
105
1CB
102
{ACAD_REACTORS
330
1CC
102
}
330
A
100
AcDbSymbolTableRecord
100
AcDbDimStyleTableRecord
  2
ME10_DIM_11
 70
     0
 41
3.5
 42
0.0
 44
2.0
 73
     0
 74
     0
 77
     1
 78
     8
140
3.5
147
2.0
172
     1
173
     1
174
     1
175
     1
176
     2
177
     2
178
     3
340
125
  0
DIMSTYLE
105
1D6
102
{ACAD_REACTORS
330
1D7
102
}
330
A
100
AcDbSymbolTableRecord
100
AcDbDimStyleTableRecord
  2
ME10_DIM_12
 70
     0
 41
3.5
 42
0.0
 44
2.0
 73
     0
 74
     0
 77
     1
 78
     8
140
3.5
147
2.0
172
     1
173
     1
174
     1
175
     1
176
     2
177
     2
178
     3
340
125
  0
DIMSTYLE
105
1E1
102
{ACAD_REACTORS
330
1E2
102
}
330
A
100
AcDbSymbolTableRecord
100
AcDbDimStyleTableRecord
  2
ME10_DIM_13
 70
     0
 41
3.5
 42
0.0
 44
2.0
 73
     0
 74
     0
 77
     1
 78
     8
140
3.5
147
2.0
172
     1
173
     1
174
     1
175
     1
176
     2
177
     2
178
     3
340
125
  0
DIMSTYLE
105
277
102
{ACAD_REACTORS
330
278
102
}
330
A
100
AcDbSymbolTableRecord
100
AcDbDimStyleTableRecord
  2
ME10_DIM_14
 70
     0
 41
3.5
 42
0.0
 44
2.0
 73
     0
 74
     0
 77
     1
 78
     8
140
3.5
147
2.0
172
     1
173
     1
174
     1
175
     1
176
     2
177
     2
178
     3
340
125
  0
ENDTAB
  0
TABLE
  2
BLOCK_RECORD
  5
1
330
0
100
AcDbSymbolTable
 70
    21
  0
BLOCK_RECORD
  5
1F
330
1
100
AcDbSymbolTableRecord
100
AcDbBlockTableRecord
  2
*Model_Space
340
22
  0
BLOCK_RECORD
  5
1B
330
1
100
AcDbSymbolTableRecord
100
AcDbBlockTableRecord
  2
*Paper_Space
340
1E
  0
BLOCK_RECORD
  5
23
330
1
100
AcDbSymbolTableRecord
100
AcDbBlockTableRecord
  2
*Paper_Space0
340
26
  0
BLOCK_RECORD
  5
47
330
1
100
AcDbSymbolTableRecord
100
AcDbBlockTableRecord
  2
3240258_WCC_38-select__1
340
0
102
{BLKREFS
331
4B
102
}
  0
BLOCK_RECORD
  5
4A
330
1
100
AcDbSymbolTableRecord
100
AcDbBlockTableRecord
  2
Allg1
340
0
102
{BLKREFS
331
7C
102
}
  0
BLOCK_RECORD
  5
4E
330
1
100
AcDbSymbolTableRecord
100
AcDbBlockTableRecord
  2
3240258_WCC_38-select__2
340
0
102
{BLKREFS
331
52
102
}
  0
BLOCK_RECORD
  5
51
330
1
100
AcDbSymbolTableRecord
100
AcDbBlockTableRecord
  2
Drfsicht1
340
0
102
{BLKREFS
331
7D
102
}
  0
BLOCK_RECORD
  5
55
330
1
100
AcDbSymbolTableRecord
100
AcDbBlockTableRecord
  2
3240258_WCC_38-select__3
340
0
102
{BLKREFS
331
59
102
}
  0
BLOCK_RECORD
  5
58
330
1
100
AcDbSymbolTableRecord
100
AcDbBlockTableRecord
  2
Rckans1
340
0
102
{BLKREFS
331
7E
102
}
  0
BLOCK_RECORD
  5
5C
330
1
100
AcDbSymbolTableRecord
100
AcDbBlockTableRecord
  2
3240258_WCC_38-select__4
340
0
102
{BLKREFS
331
60
102
}
  0
BLOCK_RECORD
  5
5F
330
1
100
AcDbSymbolTableRecord
100
AcDbBlockTableRecord
  2
SA_Links1
340
0
102
{BLKREFS
331
7F
102
}
  0
BLOCK_RECORD
  5
63
330
1
100
AcDbSymbolTableRecord
100
AcDbBlockTableRecord
  2
3240258_WCC_38-select__5
340
0
102
{BLKREFS
331
67
102
}
  0
BLOCK_RECORD
  5
66
330
1
100
AcDbSymbolTableRecord
100
AcDbBlockTableRecord
  2
SA_Rechts1
340
0
102
{BLKREFS
331
80
102
}
  0
BLOCK_RECORD
  5
6A
330
1
100
AcDbSymbolTableRecord
100
AcDbBlockTableRecord
  2
3240258_WCC_38-select__6
340
0
102
{BLKREFS
331
6E
102
}
  0
BLOCK_RECORD
  5
6D
330
1
100
AcDbSymbolTableRecord
100
AcDbBlockTableRecord
  2
Vordans1
340
0
102
{BLKREFS
331
81
102
}
  0
BLOCK_RECORD
  5
71
330
1
100
AcDbSymbolTableRecord
100
AcDbBlockTableRecord
  2
_rahmen
340
0
102
{BLKREFS
331
78
102
}
  0
BLOCK_RECORD
  5
74
330
1
100
AcDbSymbolTableRecord
100
AcDbBlockTableRecord
  2
_punkt
340
0
102
{BLKREFS
331
79
102
}
  0
BLOCK_RECORD
  5
77
330
1
100
AcDbSymbolTableRecord
100
AcDbBlockTableRecord
  2
A3I
340
0
102
{BLKREFS
331
82
102
}
  0
BLOCK_RECORD
  5
1B7
330
1
100
AcDbSymbolTableRecord
100
AcDbBlockTableRecord
  2
*D16
340
0
  0
BLOCK_RECORD
  5
1C2
330
1
100
AcDbSymbolTableRecord
100
AcDbBlockTableRecord
  2
*D17
340
0
  0
BLOCK_RECORD
  5
1CD
330
1
100
AcDbSymbolTableRecord
100
AcDbBlockTableRecord
  2
*D18
340
0
  0
BLOCK_RECORD
  5
1D8
330
1
100
AcDbSymbolTableRecord
100
AcDbBlockTableRecord
  2
*D19
340
0
  0
BLOCK_RECORD
  5
26E
330
1
100
AcDbSymbolTableRecord
100
AcDbBlockTableRecord
  2
*D20
340
0
  0
ENDTAB
  0
ENDSEC
  0
SECTION
  2
BLOCKS
  0
BLOCK
  5
20
330
1F
100
AcDbEntity
  8
0
100
AcDbBlockBegin
  2
*Model_Space
 70
     0
 10
0.0
 20
0.0
 30
0.0
  3
*Model_Space
  1

  0
ENDBLK
  5
21
330
1F
100
AcDbEntity
  8
0
100
AcDbBlockEnd
  0
BLOCK
  5
1C
330
1B
100
AcDbEntity
 67
     1
  8
0
100
AcDbBlockBegin
  2
*Paper_Space
 70
     0
 10
0.0
 20
0.0
 30
0.0
  3
*Paper_Space
  1

  0
ENDBLK
  5
1D
330
1B
100
AcDbEntity
 67
     1
  8
0
100
AcDbBlockEnd
  0
BLOCK
  5
24
330
23
100
AcDbEntity
  8
0
100
AcDbBlockBegin
  2
*Paper_Space0
 70
     0
 10
0.0
 20
0.0
 30
0.0
  3
*Paper_Space0
  1

  0
ENDBLK
  5
25
330
23
100
AcDbEntity
  8
0
100
AcDbBlockEnd
  0
BLOCK
  5
48
330
47
100
AcDbEntity
  8
0
100
AcDbBlockBegin
  2
3240258_WCC_38-select__1
 70
     0
 10
230.5878681096182
 20
770.932863597459
 30
0.0
  3
3240258_WCC_38-select__1
  1

  0
LINE
  5
83
330
47
100
AcDbEntity
  8
0
  6
Continuous
 62
     7
100
AcDbLine
 10
282.2182115512187
 20
813.2635699106997
 30
0.0
 11
280.8060796608378
 21
812.0406278201357
 31
0.0
  0
LINE
  5
84
330
47
100
AcDbEntity
  8
0
  6
Continuous
 62
     7
100
AcDbLine
 10
230.5878681096182
 20
807.3833565620537
 30
0.0
 11
231.9111064455888
 21
807.0013705573164
 31
0.0
  0
LINE
  5
85
330
47
100
AcDbEntity
  8
0
  6
Continuous
 62
     7
100
AcDbLine
 10
231.9999999999992
 20
823.6397105080052
 30
0.0
 11
231.9999999999992
 21
809.7168577553476
 31
0.0
  0
LINE
  5
86
330
47
100
AcDbEntity
  8
0
  6
Continuous
 62
     7
100
AcDbLine
 10
233.2990381056758
 20
823.2647105080052
 30
0.0
 11
233.2990381056758
 21
811.1541058284007
 31
0.0
  0
LINE
  5
87
330
47
100
AcDbEntity
  8
0
  6
Continuous
 62
     7
100
AcDbLine
 10
242.724836600143
 20
820.3341982213827
 30
0.0
 11
242.724836600143
 21
816.3647602513564
 31
0.0
  0
LINE
  5
88
330
47
100
AcDbEntity
  8
0
  6
Continuous
 62
     7
100
AcDbLine
 10
242.724836600143
 20
820.3341982213827
 30
0.0
 11
256.581243060694
 21
816.3341982213827
 31
0.0
  0
LINE
  5
89
330
47
100
AcDbEntity
  8
0
  6
Continuous
 62
     7
100
AcDbLine
 10
242.724836600143
 20
820.3341982213827
 30
0.0
 11
253.0598393349359
 21
829.2845731378951
 31
0.0
  0
LINE
  5
8A
330
47
100
AcDbEntity
  8
0
  6
Continuous
 62
     7
100
AcDbLine
 10
245.2990381056758
 20
831.0022300710655
 30
0.0
 11
245.2990381056758
 21
822.5635221196343
 31
0.0
  0
LINE
  5
8B
330
47
100
AcDbEntity
  8
0
  6
Continuous
 62
     7
100
AcDbLine
 10
245.2990381056758
 20
811.6542185674064
 30
0.0
 11
245.2990381056758
 21
806.6007091985323
 31
0.0
  0
LINE
  5
8C
330
47
100
AcDbEntity
  8
0
  6
Continuous
 62
     7
100
AcDbLine
 10
256.581243060694
 20
812.3647602513564
 30
0.0
 11
256.581243060694
 21
816.3341982213827
 31
0.0
  0
LINE
  5
8D
330
47
100
AcDbEntity
  8
0
  6
Continuous
 62
     7
100
AcDbLine
 10
256.4030398304185
 20
854.606228883221
 30
0.0
 11
258.2102195073909
 21
854.084541046734
 31
0.0
  0
LINE
  5
8E
330
47
100
AcDbEntity
  8
0
  6
Continuous
 62
     7
100
AcDbLine
 10
269.3060796608378
 20
773.66084361938
 30
0.0
 11
269.3060796608378
 21
770.932863597459
 31
0.0
  0
LINE
  5
8F
330
47
100
AcDbEntity
  8
0
  6
Continuous
 62
     7
100
AcDbLine
 10
279.0070415551611
 20
783.5621230610088
 30
0.0
 11
280.3060796608378
 21
783.1871230610088
 31
0.0
  0
LINE
  5
90
330
47
100
AcDbEntity
  8
0
  6
Continuous
 62
     7
100
AcDbLine
 10
280.3060796608378
 20
783.1871230610088
 30
0.0
 11
278.9310796608378
 21
781.9963381308053
 31
0.0
  0
LINE
  5
91
330
47
100
AcDbEntity
  8
0
  6
Continuous
 62
     7
100
AcDbLine
 10
277.6320415551611
 20
782.3713381308053
 30
0.0
 11
279.0070415551611
 21
783.5621230610088
 31
0.0
  0
LINE
  5
92
330
47
100
AcDbEntity
  8
0
  6
Continuous
 62
     7
100
AcDbLine
 10
276.1060796608377
 20
782.5757782594376
 30
0.0
 11
277.6320415551611
 21
782.3713381308053
 31
0.0
  0
LINE
  5
93
330
47
100
AcDbEntity
  8
0
  6
Continuous
 62
     7
100
AcDbLine
 10
278.9310796608378
 20
781.9963381308053
 30
0.0
 11
277.6320415551611
 21
782.3713381308053
 31
0.0
  0
LINE
  5
94
330
47
100
AcDbEntity
  8
0
  6
Continuous
 62
     7
100
AcDbLine
 10
278.9310796608378
 20
781.9963381308053
 30
0.0
 11
276.1060796608377
 21
782.3748163651142
 31
0.0
  0
LINE
  5
95
330
47
100
AcDbEntity
  8
0
  6
Continuous
 62
     7
100
AcDbLine
 10
280.3060796608378
 20
779.2788009283688
 30
0.0
 11
280.3060796608378
 21
783.1871230610088
 31
0.0
  0
LINE
  5
96
330
47
100
AcDbEntity
  8
0
  6
Continuous
 62
     7
100
AcDbLine
 10
276.1060796608377
 20
782.3748163651142
 30
0.0
 11
276.1060796608377
 21
787.5803898007455
 31
0.0
  0
LINE
  5
97
330
47
100
AcDbEntity
  8
0
  6
Continuous
 62
     7
100
AcDbLine
 10
268.0070415551611
 20
771.307863597459
 30
0.0
 11
269.3060796608378
 21
770.932863597459
 31
0.0
  0
LINE
  5
98
330
47
100
AcDbEntity
  8
0
  6
Continuous
 62
     7
100
AcDbLine
 10
268.0070415551611
 20
771.307863597459
 30
0.0
 11
268.0070415551611
 21
774.03584361938
 31
0.0
  0
LINE
  5
99
330
47
100
AcDbEntity
  8
0
  6
Continuous
 62
     7
100
AcDbLine
 10
271.0060796608378
 20
775.1330868058136
 30
0.0
 11
269.7070415551611
 21
775.5080868058136
 31
0.0
  0
LINE
  5
9A
330
47
100
AcDbEntity
  8
0
  6
Continuous
 62
     7
100
AcDbLine
 10
269.3060796608378
 20
773.66084361938
 30
0.0
 11
268.0070415551611
 21
774.03584361938
 31
0.0
  0
LINE
  5
9B
330
47
100
AcDbEntity
  8
0
  6
Continuous
 62
     7
100
AcDbLine
 10
269.7070415551611
 20
775.5080868058136
 30
0.0
 11
269.7070415551611
 21
782.328280953644
 31
0.0
  0
LINE
  5
9C
330
47
100
AcDbEntity
  8
0
  6
Continuous
 62
     7
100
AcDbLine
 10
271.0060796608378
 20
781.9640384409537
 30
0.0
 11
271.0060796608378
 21
775.1330868058136
 31
0.0
  0
LINE
  5
9D
330
47
100
AcDbEntity
  8
0
  6
Continuous
 62
     7
100
AcDbLine
 10
267.5070415551612
 20
813.3897105080054
 30
0.0
 11
267.5070415551612
 21
782.9559052783598
 31
0.0
  0
LINE
  5
9E
330
47
100
AcDbEntity
  8
0
  6
Continuous
 62
     7
100
AcDbLine
 10
268.8060796608378
 20
813.0147105080054
 30
0.0
 11
268.8060796608378
 21
782.5809052783598
 31
0.0
  0
LINE
  5
9F
330
47
100
AcDbEntity
  8
0
  6
Continuous
 62
     7
100
AcDbLine
 10
262.9054355454692
 20
821.8111095716208
 30
0.0
 11
256.581243060694
 21
816.3341982213827
 31
0.0
  0
LINE
  5
A0
330
47
100
AcDbEntity
  8
0
  6
Continuous
 62
     7
100
AcDbLine
 10
262.8949732152482
 20
798.0570986473172
 30
0.0
 11
264.2182115512187
 21
797.6751126425798
 31
0.0
  0
LINE
  5
A1
330
47
100
AcDbEntity
  8
0
  6
Continuous
 62
     7
100
AcDbLine
 10
264.7118149770303
 20
819.4060420782
 30
0.0
 11
256.581243060694
 21
812.3647602513564
 31
0.0
  0
LINE
  5
A2
330
47
100
AcDbEntity
  8
0
  6
Continuous
 62
     7
100
AcDbLine
 10
267.5070415551612
 20
782.9559052783598
 30
0.0
 11
268.8060796608378
 21
782.5809052783598
 31
0.0
  0
LINE
  5
A3
330
47
100
AcDbEntity
  8
0
  6
Continuous
 62
     7
100
AcDbLine
 10
268.8060796608378
 20
782.5809052783598
 30
0.0
 11
271.0060796608378
 21
781.9640384409537
 31
0.0
  0
LINE
  5
A4
330
47
100
AcDbEntity
  8
0
  6
Continuous
 62
     7
100
AcDbLine
 10
271.0060796608378
 20
775.1330868058136
 30
0.0
 11
269.3060796608378
 21
773.66084361938
 31
0.0
  0
LINE
  5
A5
330
47
100
AcDbEntity
  8
0
  6
Continuous
 62
     7
100
AcDbLine
 10
269.3060796608378
 20
770.932863597459
 30
0.0
 11
274.8060796608378
 21
772.9680232963525
 31
0.0
  0
LINE
  5
A6
330
47
100
AcDbEntity
  8
0
  6
Continuous
 62
     7
100
AcDbLine
 10
277.5560796608378
 20
775.3495931567597
 30
0.0
 11
274.8060796608378
 21
772.9680232963525
 31
0.0
  0
LINE
  5
A7
330
47
100
AcDbEntity
  8
0
  6
Continuous
 62
     7
100
AcDbLine
 10
277.5560796608378
 20
775.3495931567597
 30
0.0
 11
280.3060796608378
 21
779.2788009283688
 31
0.0
  0
LINE
  5
A8
330
47
100
AcDbEntity
  8
0
  6
Continuous
 62
     7
100
AcDbLine
 10
268.0070415551611
 20
774.03584361938
 30
0.0
 11
269.7070415551611
 21
775.5080868058136
 31
0.0
  0
LINE
  5
A9
330
47
100
AcDbEntity
  8
0
  6
Continuous
 62
     7
100
AcDbLine
 10
251.4030398304185
 20
853.1628532102469
 30
0.0
 11
256.4030398304185
 21
854.606228883221
 31
0.0
  0
LINE
  5
AA
330
47
100
AcDbEntity
  8
0
  6
Continuous
 62
     7
100
AcDbLine
 10
232.4999999999991
 20
781.5578635974591
 30
0.0
 11
232.4999999999991
 21
784.28584361938
 31
0.0
  0
LINE
  5
AB
330
47
100
AcDbEntity
  8
0
  6
Continuous
 62
     7
100
AcDbLine
 10
232.4999999999991
 20
784.28584361938
 30
0.0
 11
234.1999999999991
 21
785.7580868058136
 31
0.0
  0
LINE
  5
AC
330
47
100
AcDbEntity
  8
0
  6
Continuous
 62
     7
100
AcDbLine
 10
233.7990381056758
 20
783.91084361938
 30
0.0
 11
232.4999999999991
 21
784.28584361938
 31
0.0
  0
LINE
  5
AD
330
47
100
AcDbEntity
  8
0
  6
Continuous
 62
     7
100
AcDbLine
 10
232.4999999999991
 20
781.5578635974591
 30
0.0
 11
233.7990381056758
 21
781.1828635974591
 31
0.0
  0
LINE
  5
AE
330
47
100
AcDbEntity
  8
0
  6
Continuous
 62
     7
100
AcDbLine
 10
233.7990381056758
 20
783.91084361938
 30
0.0
 11
233.7990381056758
 21
781.1828635974591
 31
0.0
  0
LINE
  5
AF
330
47
100
AcDbEntity
  8
0
  6
Continuous
 62
     7
100
AcDbLine
 10
233.7990381056758
 20
781.1828635974591
 30
0.0
 11
239.2990381056758
 21
783.2180232963525
 31
0.0
  0
LINE
  5
B0
330
47
100
AcDbEntity
  8
0
  6
Continuous
 62
     7
100
AcDbLine
 10
242.0490381056758
 20
785.5995931567597
 30
0.0
 11
239.2990381056758
 21
783.2180232963525
 31
0.0
  0
LINE
  5
B1
330
47
100
AcDbEntity
  8
0
  6
Continuous
 62
     7
100
AcDbLine
 10
235.4990381056758
 20
785.3830868058136
 30
0.0
 11
234.1999999999991
 21
785.7580868058136
 31
0.0
  0
LINE
  5
B2
330
47
100
AcDbEntity
  8
0
  6
Continuous
 62
     7
100
AcDbLine
 10
235.4990381056758
 20
785.3830868058136
 30
0.0
 11
233.7990381056758
 21
783.91084361938
 31
0.0
  0
LINE
  5
B3
330
47
100
AcDbEntity
  8
0
  6
Continuous
 62
     7
100
AcDbLine
 10
234.1999999999991
 20
785.7580868058136
 30
0.0
 11
234.1999999999991
 21
792.578280953644
 31
0.0
  0
LINE
  5
B4
330
47
100
AcDbEntity
  8
0
  6
Continuous
 62
     7
100
AcDbLine
 10
235.4990381056758
 20
792.2140384409537
 30
0.0
 11
235.4990381056758
 21
785.3830868058136
 31
0.0
  0
LINE
  5
B5
330
47
100
AcDbEntity
  8
0
  6
Continuous
 62
     7
100
AcDbLine
 10
244.7990381056758
 20
789.5288009283688
 30
0.0
 11
244.7990381056758
 21
793.4371230610088
 31
0.0
  0
LINE
  5
B6
330
47
100
AcDbEntity
  8
0
  6
Continuous
 62
     7
100
AcDbLine
 10
244.7990381056758
 20
793.4371230610088
 30
0.0
 11
243.4240381056758
 21
792.2463381308053
 31
0.0
  0
LINE
  5
B7
330
47
100
AcDbEntity
  8
0
  6
Continuous
 62
     7
100
AcDbLine
 10
243.4240381056758
 20
792.2463381308053
 30
0.0
 11
240.5990381056758
 21
792.6248163651143
 31
0.0
  0
LINE
  5
B8
330
47
100
AcDbEntity
  8
0
  6
Continuous
 62
     7
100
AcDbLine
 10
243.4240381056758
 20
792.2463381308053
 30
0.0
 11
242.1249999999991
 21
792.6213381308053
 31
0.0
  0
LINE
  5
B9
330
47
100
AcDbEntity
  8
0
  6
Continuous
 62
     7
100
AcDbLine
 10
240.5990381056758
 20
792.8257782594376
 30
0.0
 11
242.1249999999991
 21
792.6213381308053
 31
0.0
  0
LINE
  5
BA
330
47
100
AcDbEntity
  8
0
  6
Continuous
 62
     7
100
AcDbLine
 10
233.2990381056758
 20
792.8309052783598
 30
0.0
 11
235.4990381056758
 21
792.2140384409537
 31
0.0
  0
LINE
  5
BB
330
47
100
AcDbEntity
  8
0
  6
Continuous
 62
     7
100
AcDbLine
 10
240.5990381056758
 20
792.6248163651143
 30
0.0
 11
240.5990381056758
 21
797.8303898007455
 31
0.0
  0
LINE
  5
BC
330
47
100
AcDbEntity
  8
0
  6
Continuous
 62
     7
100
AcDbLine
 10
233.2990381056758
 20
807.0025054398162
 30
0.0
 11
233.2990381056758
 21
792.8309052783598
 31
0.0
  0
LINE
  5
BD
330
47
100
AcDbEntity
  8
0
  6
Continuous
 62
     2
100
AcDbLine
 10
240.0754464888969
 20
830.0966679854499
 30
0.0
 11
233.5937273055747
 21
824.483334512496
 31
0.0
  0
LINE
  5
BE
330
47
100
AcDbEntity
  8
0
  6
Continuous
 62
     7
100
AcDbLine
 10
243.4999999999991
 20
793.8121230610088
 30
0.0
 11
244.7990381056758
 21
793.4371230610088
 31
0.0
  0
LINE
  5
BF
330
47
100
AcDbEntity
  8
0
  6
Continuous
 62
     7
100
AcDbLine
 10
242.1249999999991
 20
792.6213381308053
 30
0.0
 11
243.4999999999991
 21
793.8121230610088
 31
0.0
  0
LINE
  5
C0
330
47
100
AcDbEntity
  8
0
  6
Continuous
 62
     7
100
AcDbLine
 10
242.0490381056758
 20
785.5995931567597
 30
0.0
 11
244.7990381056758
 21
789.5288009283688
 31
0.0
  0
LINE
  5
C1
330
47
100
AcDbEntity
  8
0
  6
Continuous
 62
     7
100
AcDbLine
 10
240.5990381056758
 20
797.8303898007455
 30
0.0
 11
245.2990381056758
 21
806.6007091985323
 31
0.0
  0
LINE
  5
C2
330
47
100
AcDbEntity
  8
0
  6
Continuous
 62
     2
100
AcDbLine
 10
241.7875330613219
 20
830.6159627794909
 30
0.0
 11
233.2990381056758
 21
823.2647105080052
 31
0.0
  0
LINE
  5
C3
330
47
100
AcDbEntity
  8
0
  6
Continuous
 62
     2
100
AcDbLine
 10
237.4244357424801
 20
810.457726676117
 30
0.0
 11
234.1242397862788
 21
807.5996731405799
 31
0.0
  0
LINE
  5
C4
330
47
100
AcDbEntity
  8
0
  6
Continuous
 62
     7
100
AcDbLine
 10
237.5815073075638
 20
810.5415309981843
 30
0.0
 11
233.8750674577127
 21
807.3316599306143
 31
0.0
  0
LINE
  5
C5
330
47
100
AcDbEntity
  8
0
  6
Continuous
 62
     7
100
AcDbLine
 10
242.724836600143
 20
819.3299772967345
 30
0.0
 11
233.6553127455509
 21
811.4755392384287
 31
0.0
  0
LINE
  5
C6
330
47
100
AcDbEntity
  8
0
  6
Continuous
 62
     7
100
AcDbLine
 10
259.595860153446
 20
853.684541046734
 30
0.0
 11
261.4030398304185
 21
853.1628532102469
 31
0.0
  0
LINE
  5
C7
330
47
100
AcDbEntity
  8
0
  6
Continuous
 62
     7
100
AcDbLine
 10
261.4030398304185
 20
853.1628532102469
 30
0.0
 11
261.4030398304185
 21
850.2761018642988
 31
0.0
  0
LINE
  5
C8
330
47
100
AcDbEntity
  8
0
  6
Continuous
 62
     7
100
AcDbLine
 10
253.2102195073909
 20
849.7544140278118
 30
0.0
 11
253.2102195073909
 21
848.3687733817567
 31
0.0
  0
LINE
  5
C9
330
47
100
AcDbEntity
  8
0
  6
Continuous
 62
     7
100
AcDbLine
 10
256.4030398304185
 20
848.8327261913247
 30
0.0
 11
254.595860153446
 21
849.3544140278118
 31
0.0
  0
LINE
  5
CA
330
47
100
AcDbEntity
  8
0
  6
Continuous
 62
     7
100
AcDbLine
 10
254.595860153446
 20
847.9687733817567
 30
0.0
 11
254.595860153446
 21
849.3544140278118
 31
0.0
  0
LINE
  5
CB
330
47
100
AcDbEntity
  8
0
  6
Continuous
 62
     7
100
AcDbLine
 10
261.4030398304185
 20
850.2761018642988
 30
0.0
 11
256.4030398304185
 21
848.8327261913247
 31
0.0
  0
LINE
  5
CC
330
47
100
AcDbEntity
  8
0
  6
Continuous
 62
     7
100
AcDbLine
 10
261.4030398304185
 20
846.8120002491611
 30
0.0
 11
261.4030398304185
 21
850.2761018642988
 31
0.0
  0
LINE
  5
CD
330
47
100
AcDbEntity
  8
0
  6
Continuous
 62
     7
100
AcDbLine
 10
258.2102195073909
 20
852.6989004006789
 30
0.0
 11
258.2102195073909
 21
854.084541046734
 31
0.0
  0
LINE
  5
CE
330
47
100
AcDbEntity
  8
0
  6
Continuous
 62
     7
100
AcDbLine
 10
253.2102195073909
 20
849.7544140278118
 30
0.0
 11
251.4030398304185
 21
850.2761018642988
 31
0.0
  0
LINE
  5
CF
330
47
100
AcDbEntity
  8
0
  6
Continuous
 62
     7
100
AcDbLine
 10
258.3958601534459
 20
852.6453105621927
 30
0.0
 11
258.2102195073909
 21
852.6989004006789
 31
0.0
  0
LINE
  5
D0
330
47
100
AcDbEntity
  8
0
  6
Continuous
 62
     7
100
AcDbLine
 10
253.2102195073909
 20
849.7544140278118
 30
0.0
 11
258.2102195073909
 21
854.084541046734
 31
0.0
  0
LINE
  5
D1
330
47
100
AcDbEntity
  8
0
  6
Continuous
 62
     7
100
AcDbLine
 10
258.2102195073909
 20
852.6989004006789
 30
0.0
 11
253.2102195073909
 21
848.3687733817567
 31
0.0
  0
LINE
  5
D2
330
47
100
AcDbEntity
  8
0
  6
Continuous
 62
     7
100
AcDbLine
 10
259.595860153446
 20
853.684541046734
 30
0.0
 11
254.595860153446
 21
849.3544140278118
 31
0.0
  0
LINE
  5
D3
330
47
100
AcDbEntity
  8
0
  6
Continuous
 62
     7
100
AcDbLine
 10
276.1060796608377
 20
787.5803898007455
 30
0.0
 11
280.8060796608378
 21
796.3507091985323
 31
0.0
  0
LINE
  5
D4
330
47
100
AcDbEntity
  8
0
  6
Continuous
 62
     7
100
AcDbLine
 10
253.2102195073909
 20
848.3687733817567
 30
0.0
 11
254.595860153446
 21
847.9687733817567
 31
0.0
  0
LINE
  5
D5
330
47
100
AcDbEntity
  8
0
  6
Continuous
 62
     7
100
AcDbLine
 10
256.4030398304185
 20
845.368624576187
 30
0.0
 11
256.4030398304185
 21
848.8327261913247
 31
0.0
  0
LINE
  5
D6
330
47
100
AcDbEntity
  8
0
  6
Continuous
 62
     2
100
AcDbLine
 10
280.3850950895537
 20
825.3909623439607
 30
0.0
 11
268.3850950895537
 21
814.9986574985475
 31
0.0
  0
LINE
  5
D7
330
47
100
AcDbEntity
  8
0
  6
Continuous
 62
     7
100
AcDbLine
 10
253.4030398304185
 20
838.469288859371
 30
0.0
 11
253.4030398304185
 21
846.2346499799714
 31
0.0
  0
LINE
  5
D8
330
47
100
AcDbEntity
  8
0
  6
Continuous
 62
     7
100
AcDbLine
 10
259.4030398304185
 20
838.469288859371
 30
0.0
 11
259.4030398304185
 21
846.2346499799714
 31
0.0
  0
LINE
  5
D9
330
47
100
AcDbEntity
  8
0
  6
Continuous
 62
     7
100
AcDbLine
 10
267.5070415551612
 20
800.5233229747224
 30
0.0
 11
264.2182115512187
 21
797.6751126425798
 31
0.0
  0
LINE
  5
DA
330
47
100
AcDbEntity
  8
0
  6
Continuous
 62
     2
100
AcDbLine
 10
280.8060796608378
 20
823.4070153534186
 30
0.0
 11
268.8060796608378
 21
813.0147105080054
 31
0.0
  0
LINE
  5
DB
330
47
100
AcDbEntity
  8
0
  6
Continuous
 62
     7
100
AcDbLine
 10
280.8060796608378
 20
823.4070153534186
 30
0.0
 11
280.8060796608378
 21
796.3507091985323
 31
0.0
  0
LINE
  5
DC
330
47
100
AcDbEntity
  8
0
  6
Continuous
 62
     7
100
AcDbLine
 10
259.4030398304185
 20
824.1798696969278
 30
0.0
 11
259.4030398304185
 21
825.3243484434031
 31
0.0
  0
LINE
  5
DD
330
47
100
AcDbEntity
  8
0
  6
Continuous
 62
     7
100
AcDbLine
 10
259.9030398304185
 20
836.5635106900456
 30
0.0
 11
259.9030398304185
 21
838.469288859371
 31
0.0
  0
LINE
  5
DE
330
47
100
AcDbEntity
  8
0
  6
Continuous
 62
     7
100
AcDbLine
 10
253.4030398304185
 20
824.1798696969278
 30
0.0
 11
253.4030398304185
 21
829.1327514042059
 31
0.0
  0
LINE
  5
DF
330
47
100
AcDbEntity
  8
0
  6
Continuous
 62
     7
100
AcDbLine
 10
252.9030398304185
 20
836.5635106900456
 30
0.0
 11
252.9030398304185
 21
838.469288859371
 31
0.0
  0
LINE
  5
E0
330
47
100
AcDbEntity
  8
0
  6
Continuous
 62
     7
100
AcDbLine
 10
256.4030398304185
 20
845.368624576187
 30
0.0
 11
251.4030398304185
 21
846.8120002491611
 31
0.0
  0
LINE
  5
E1
330
47
100
AcDbEntity
  8
0
  6
Continuous
 62
     7
100
AcDbLine
 10
261.4030398304185
 20
846.8120002491611
 30
0.0
 11
256.4030398304185
 21
845.368624576187
 31
0.0
  0
LINE
  5
E2
330
47
100
AcDbEntity
  8
0
  6
Continuous
 62
     7
100
AcDbLine
 10
251.4030398304185
 20
850.2761018642988
 30
0.0
 11
251.4030398304185
 21
853.1628532102469
 31
0.0
  0
LINE
  5
E3
330
47
100
AcDbEntity
  8
0
  6
Continuous
 62
     7
100
AcDbLine
 10
251.4030398304185
 20
846.8120002491611
 30
0.0
 11
251.4030398304185
 21
850.2761018642988
 31
0.0
  0
LINE
  5
E4
330
47
100
AcDbEntity
  8
0
  6
Continuous
 62
     7
100
AcDbLine
 10
235.346005404135
 20
829.0088671004778
 30
0.0
 11
247.346005404135
 21
839.4011719458911
 31
0.0
  0
LINE
  5
E5
330
47
100
AcDbEntity
  8
0
  6
Continuous
 62
     7
100
AcDbLine
 10
231.9999999999992
 20
806.9772303967992
 30
0.0
 11
231.9999999999992
 21
793.2059052783598
 31
0.0
  0
LINE
  5
E6
330
47
100
AcDbEntity
  8
0
  6
Continuous
 62
     7
100
AcDbLine
 10
231.9999999999992
 20
793.2059052783598
 30
0.0
 11
233.2990381056758
 21
792.8309052783598
 31
0.0
  0
SPLINE
  5
E7
330
47
100
AcDbEntity
  8
0
  6
Continuous
 62
     7
100
AcDbSpline
210
0.0
220
0.0
230
1.0
 70
     8
 71
     3
 72
     9
 73
     5
 74
     3
 42
0.000000001
 43
0.0000000001
 44
0.00000001
 40
0.0
 40
0.0
 40
0.0
 40
0.0
 40
1.714683331945054
 40
3.452929304308523
 40
3.452929304308523
 40
3.452929304308523
 40
3.452929304308523
 10
282.2182115512187
 20
813.2635699106997
 30
0.0
 10
282.0110323995964
 20
813.7966964639655
 30
0.0
 10
281.5938270870752
 20
814.8702756204826
 30
0.0
 10
281.0698539988961
 20
815.8960025915156
 30
0.0
 10
280.8060796608378
 20
816.4123658310364
 30
0.0
 11
282.2182115512187
 21
813.2635699106997
 31
0.0
 11
281.5703451897142
 21
814.8511492339599
 31
0.0
 11
280.8060796608378
 21
816.4123658310364
 31
0.0
  0
SPLINE
  5
E8
330
47
100
AcDbEntity
  8
0
  6
Continuous
 62
     7
100
AcDbSpline
210
0.0
220
0.0
230
1.0
 70
     8
 71
     3
 72
    11
 73
     7
 74
     5
 42
0.000000001
 43
0.0000000001
 44
0.00000001
 40
0.0
 40
0.0
 40
0.0
 40
0.0
 40
0.5614235730781642
 40
1.089108831600822
 40
1.58861459424819
 40
2.071930684026527
 40
2.071930684026527
 40
2.071930684026527
 40
2.071930684026527
 10
231.9111064455888
 20
807.0013705573164
 30
0.0
 10
232.0942882897183
 20
806.9591281552806
 30
0.0
 10
232.449643809327
 20
806.8771818900151
 30
0.0
 10
232.9838374721251
 20
806.9040228585776
 30
0.0
 10
233.4772609125141
 20
807.0418105150334
 30
0.0
 10
233.743929524091
 20
807.2361103317812
 30
0.0
 10
233.8750674577127
 20
807.3316599306143
 30
0.0
 11
231.9111064455888
 21
807.0013705573164
 31
0.0
 11
232.4635410924411
 21
806.9013086276321
 31
0.0
 11
232.9907100123486
 21
806.9246466728034
 31
0.0
 11
233.4685026742379
 21
807.0703181593852
 31
0.0
 11
233.8750674577127
 21
807.3316599306143
 31
0.0
  0
SPLINE
  5
E9
330
47
100
AcDbEntity
  8
0
  6
Continuous
 62
     7
100
AcDbSpline
210
0.0
220
0.0
230
1.0
 70
     8
 71
     3
 72
     9
 73
     5
 74
     3
 42
0.000000001
 43
0.0000000001
 44
0.00000001
 40
0.0
 40
0.0
 40
0.0
 40
0.0
 40
0.1827751382284213
 40
0.3664789817612339
 40
0.3664789817612339
 40
0.3664789817612339
 40
0.3664789817612339
 10
233.8750674577127
 20
807.3316599306143
 30
0.0
 10
233.9200951912924
 20
807.3728638057472
 30
0.0
 10
234.0103794362468
 20
807.4554809324763
 30
0.0
 10
234.0862222760701
 20
807.5515279349478
 30
0.0
 10
234.1242397862788
 20
807.5996731405799
 30
0.0
 11
233.8750674577127
 21
807.3316599306143
 31
0.0
 11
234.0065585753048
 21
807.4586120371171
 31
0.0
 11
234.1242397862788
 21
807.5996731405799
 31
0.0
  0
SPLINE
  5
EA
330
47
100
AcDbEntity
  8
0
  6
Continuous
 62
     7
100
AcDbSpline
210
0.0
220
0.0
230
1.0
 70
     8
 71
     3
 72
     9
 73
     5
 74
     3
 42
0.000000001
 43
0.0000000001
 44
0.00000001
 40
0.0
 40
0.0
 40
0.0
 40
0.0
 40
0.651046856728413
 40
1.263804655615214
 40
1.263804655615214
 40
1.263804655615214
 40
1.263804655615214
 10
233.2990381056758
 20
823.2647105080052
 30
0.0
 10
233.3102276636059
 20
823.4836594861134
 30
0.0
 10
233.3319487239199
 20
823.9086807156835
 30
0.0
 10
233.5082482006103
 20
824.2956916279544
 30
0.0
 10
233.5937273055747
 20
824.483334512496
 30
0.0
 11
233.2990381056758
 21
823.2647105080052
 31
0.0
 11
233.3736284699781
 21
823.9114703466233
 31
0.0
 11
233.5937273055747
 21
824.483334512496
 31
0.0
  0
SPLINE
  5
EB
330
47
100
AcDbEntity
  8
0
  6
Continuous
 62
     7
100
AcDbSpline
210
0.0
220
0.0
230
1.0
 70
     8
 71
     3
 72
     9
 73
     5
 74
     3
 42
0.000000001
 43
0.0000000001
 44
0.00000001
 40
0.0
 40
0.0
 40
0.0
 40
0.0
 40
0.9300669387232919
 40
1.80543522338696
 40
1.80543522338696
 40
1.80543522338696
 40
1.80543522338696
 10
231.9999999999992
 20
823.6397105080052
 30
0.0
 10
232.0159850827657
 20
823.9524947626265
 30
0.0
 10
232.0470151606293
 20
824.5596679496181
 30
0.0
 10
232.2988715641161
 20
825.1125406791962
 30
0.0
 10
232.4209845712832
 20
825.3806019429919
 30
0.0
 11
231.9999999999992
 21
823.6397105080052
 31
0.0
 11
232.1065576632883
 21
824.5636531346025
 31
0.0
 11
232.4209845712832
 21
825.3806019429919
 31
0.0
  0
SPLINE
  5
EC
330
47
100
AcDbEntity
  8
0
  6
Continuous
 62
     7
100
AcDbSpline
210
0.0
220
0.0
230
1.0
 70
     8
 71
     3
 72
     9
 73
     5
 74
     3
 42
0.000000001
 43
0.0000000001
 44
0.00000001
 40
0.0
 40
0.0
 40
0.0
 40
0.0
 40
1.096650832061239
 40
2.198873895948277
 40
2.198873895948277
 40
2.198873895948277
 40
2.198873895948277
 10
235.6192737576749
 20
809.2077524003735
 30
0.0
 10
235.3491073555339
 20
808.960529148968
 30
0.0
 10
234.8074018133038
 20
808.4648264572617
 30
0.0
 10
234.3523448480879
 20
807.888544375077
 30
0.0
 10
234.1242397862788
 20
807.5996731405799
 30
0.0
 11
235.6192737576749
 21
809.2077524003735
 31
0.0
 11
234.8303270521224
 21
808.4460397613561
 31
0.0
 11
234.1242397862788
 21
807.5996731405799
 31
0.0
  0
SPLINE
  5
ED
330
47
100
AcDbEntity
  8
0
  6
Continuous
 62
     7
100
AcDbSpline
210
0.0
220
0.0
230
1.0
 70
     8
 71
     3
 72
    13
 73
     9
 74
     7
 42
0.000000001
 43
0.0000000001
 44
0.00000001
 40
0.0
 40
0.0
 40
0.0
 40
0.0
 40
2.646847648243353
 40
5.229751969225864
 40
7.73590390931291
 40
10.15672573530924
 40
12.48878834956544
 40
14.73460416528632
 40
14.73460416528632
 40
14.73460416528632
 40
14.73460416528632
 10
256.581243060694
 20
812.3647602513564
 30
0.0
 10
255.8435792732114
 20
812.8502830919332
 30
0.0
 10
254.3860723902139
 20
813.8095993565945
 30
0.0
 10
252.0561257676505
 20
814.931222490571
 30
0.0
 10
249.6945319829601
 20
815.7774576959519
 30
0.0
 10
247.3283466147709
 20
816.305294211586
 30
0.0
 10
244.9963002804904
 20
816.5433187077703
 30
0.0
 10
243.4724212475343
 20
816.4235274563416
 30
0.0
 10
242.724836600143
 20
816.3647602513564
 30
0.0
 11
256.581243060694
 21
812.3647602513564
 31
0.0
 11
254.3381228186111
 21
813.7698275272509
 31
0.0
 11
252.0156013069509
 21
814.8999994443154
 31
0.0
 11
249.6530398304185
 21
815.7361219364633
 31
0.0
 11
247.290478353886
 21
816.2640249487686
 31
0.0
 11
244.9679568422258
 21
816.4747614516597
 31
0.0
 11
242.724836600143
 21
816.3647602513564
 31
0.0
  0
SPLINE
  5
EE
330
47
100
AcDbEntity
  8
0
  6
Continuous
 62
     7
100
AcDbSpline
210
0.0
220
0.0
230
1.0
 70
     8
 71
     3
 72
     9
 73
     5
 74
     3
 42
0.000000001
 43
0.0000000001
 44
0.00000001
 40
0.0
 40
0.0
 40
0.0
 40
0.0
 40
2.546477799360467
 40
5.142728186035722
 40
5.142728186035722
 40
5.142728186035722
 40
5.142728186035722
 10
233.6553127455509
 20
811.4755392384287
 30
0.0
 10
233.0416149089818
 20
810.8807907922268
 30
0.0
 10
231.8022241222327
 20
809.6796691366303
 30
0.0
 10
230.9952567843679
 20
808.1537169374407
 30
0.0
 10
230.5878681096182
 20
807.3833565620537
 30
0.0
 11
233.6553127455509
 21
811.4755392384287
 31
0.0
 11
231.9202426809981
 21
809.6116505456457
 31
0.0
 11
230.5878681096182
 21
807.3833565620537
 31
0.0
  0
SPLINE
  5
EF
330
47
100
AcDbEntity
  8
0
  6
Continuous
 62
     7
100
AcDbSpline
210
0.0
220
0.0
230
1.0
 70
     8
 71
     3
 72
     9
 73
     5
 74
     3
 42
0.000000001
 43
0.0000000001
 44
0.00000001
 40
0.0
 40
0.0
 40
0.0
 40
0.0
 40
2.201707874132953
 40
4.373600297735809
 40
4.373600297735809
 40
4.373600297735809
 40
4.373600297735809
 10
233.5937273055747
 20
824.483334512496
 30
0.0
 10
233.9771121864558
 20
825.1133475610261
 30
0.0
 10
234.7386901796429
 20
826.36484203177
 30
0.0
 10
235.8006338016039
 20
827.3738894087087
 30
0.0
 10
236.327985910197
 20
827.8749736814501
 30
0.0
 11
233.5937273055747
 21
824.483334512496
 31
0.0
 11
234.8200006709223
 21
826.3119326641806
 31
0.0
 11
236.327985910197
 21
827.8749736814501
 31
0.0
  0
SPLINE
  5
F0
330
47
100
AcDbEntity
  8
0
  6
Continuous
 62
     7
100
AcDbSpline
210
0.0
220
0.0
230
1.0
 70
     8
 71
     3
 72
     9
 73
     5
 74
     3
 42
0.000000001
 43
0.0000000001
 44
0.00000001
 40
0.0
 40
0.0
 40
0.0
 40
0.0
 40
2.355315400296953
 40
4.678735202352228
 40
4.678735202352228
 40
4.678735202352228
 40
4.678735202352228
 10
232.4209845712832
 20
825.3806019429919
 30
0.0
 10
232.831117234562
 20
826.0545693902741
 30
0.0
 10
233.6458285750172
 20
827.3933774296022
 30
0.0
 10
234.7818612879508
 20
828.4728234598568
 30
0.0
 10
235.346005404135
 20
829.0088671004778
 30
0.0
 11
232.4209845712832
 21
825.3806019429919
 31
0.0
 11
233.7328118923528
 21
827.3367767099105
 31
0.0
 11
235.346005404135
 21
829.0088671004778
 31
0.0
  0
SPLINE
  5
F1
330
47
100
AcDbEntity
  8
0
  6
Continuous
 62
     7
100
AcDbSpline
210
0.0
220
0.0
230
1.0
 70
     8
 71
     3
 72
    17
 73
    13
 74
    11
 42
0.000000001
 43
0.0000000001
 44
0.00000001
 40
0.0
 40
0.0
 40
0.0
 40
0.0
 40
3.340034664722603
 40
6.712438382255444
 40
10.0656994608411
 40
13.35013468556954
 40
16.52285692774121
 40
19.55283065113399
 40
22.42589401335915
 40
25.14919628473734
 40
27.75362657761681
 40
30.29187579552892
 40
30.29187579552892
 40
30.29187579552892
 40
30.29187579552892
 10
260.6818398745581
 20
799.9331543605806
 30
0.0
 10
260.1239447711702
 20
800.8988008661332
 30
0.0
 10
259.0027478611629
 20
802.8394521746675
 30
0.0
 10
256.8203838559713
 20
805.4102974704034
 30
0.0
 10
254.343490417053
 20
807.658860437743
 30
0.0
 10
251.6166597779219
 20
809.4868835834778
 30
0.0
 10
248.7424018311349
 20
810.8368612035398
 30
0.0
 10
245.8156929120363
 20
811.6581589990028
 30
0.0
 10
242.9322168494956
 20
811.9230527328646
 30
0.0
 10
240.2022422594245
 20
811.6020577501799
 30
0.0
 10
237.6831580213079
 20
810.7451494350739
 30
0.0
 10
236.3013075044024
 20
809.7158025317897
 30
0.0
 10
235.6192737576749
 20
809.2077524003735
 30
0.0
 11
260.6818398745581
 21
799.9331543605806
 31
0.0
 11
258.9254232737687
 21
802.7740753847502
 31
0.0
 11
256.7644424229748
 21
805.363142512066
 31
0.0
 11
254.2747705372051
 21
807.6094492055219
 31
0.0
 11
251.5438242143112
 21
809.4341264176792
 31
0.0
 11
248.6674895597761
 21
810.7731056500185
 31
0.0
 11
245.7467586083341
 21
811.5793757530826
 31
0.0
 11
242.8841818473263
 21
811.8246253787258
 31
0.0
 11
240.180267432507
 21
811.5002457975336
 31
0.0
 11
237.729953961712
 21
810.6176240946992
 31
0.0
 11
235.6192737576749
 21
809.2077524003735
 31
0.0
  0
SPLINE
  5
F2
330
47
100
AcDbEntity
  8
0
  6
Continuous
 62
     7
100
AcDbSpline
210
0.0
220
0.0
230
1.0
 70
     8
 71
     3
 72
    19
 73
    15
 74
    13
 42
0.000000001
 43
0.0000000001
 44
0.00000001
 40
0.0
 40
0.0
 40
0.0
 40
0.0
 40
3.450964836681859
 40
6.976981318719238
 40
10.53616200397748
 40
14.08401439989218
 40
17.57692886882003
 40
20.97568043486357
 40
24.24898453446114
 40
27.37708797767002
 40
30.35520048040442
 40
33.19623051285588
 40
35.9317354282573
 40
38.60959725076317
 40
38.60959725076317
 40
38.60959725076317
 40
38.60959725076317
 10
264.2182115512187
 20
797.6751126425798
 30
0.0
 10
263.7762899700343
 20
798.7390231753549
 30
0.0
 10
262.8828358760991
 20
800.8899821804281
 30
0.0
 10
261.0004367225212
 20
803.8732877221346
 30
0.0
 10
258.7660938305816
 20
806.6337446102102
 30
0.0
 10
256.1998632405842
 20
809.0777386311127
 30
0.0
 10
253.3853008810288
 20
811.1406748003583
 30
0.0
 10
250.3980441673966
 20
812.7628256247963
 30
0.0
 10
247.3217063221712
 20
813.8981498044495
 30
0.0
 10
244.2422836593518
 20
814.5115806442446
 30
0.0
 10
241.2424069149066
 20
814.5859098669705
 30
0.0
 10
238.4183737175521
 20
814.100967120443
 30
0.0
 10
235.8156898454357
 20
813.1092036648837
 30
0.0
 10
234.3703081624803
 20
812.0162145630537
 30
0.0
 10
233.6553127455509
 20
811.4755392384287
 30
0.0
 11
264.2182115512187
 21
797.6751126425798
 31
0.0
 11
262.8060707794534
 21
800.8239245971769
 31
0.0
 11
260.9511377802243
 21
803.8225936005188
 31
0.0
 11
258.7067354108693
 21
806.5849160204185
 31
0.0
 11
256.1373847530118
 21
809.0314837836048
 31
0.0
 11
253.3169464643984
 21
811.0919641520427
 31
0.0
 11
250.3265006038898
 21
812.7071253716814
 31
0.0
 11
247.2520135421551
 21
813.8305349314165
 31
0.0
 11
244.1818680458438
 21
814.4298994175995
 31
0.0
 11
241.2043220975026
 21
814.4879873788374
 31
0.0
 11
238.4049712096958
 21
814.0031304256664
 31
0.0
 11
235.8642892605877
 21
812.9892653450105
 31
0.0
 11
233.6553127455509
 21
811.4755392384287
 31
0.0
  0
SPLINE
  5
F3
330
47
100
AcDbEntity
  8
0
  6
Continuous
 62
     7
100
AcDbSpline
210
0.0
220
0.0
230
1.0
 70
     8
 71
     3
 72
    19
 73
    15
 74
    13
 42
0.000000001
 43
0.0000000001
 44
0.00000001
 40
0.0
 40
0.0
 40
0.0
 40
0.0
 40
2.669012789765111
 40
5.39259785023957
 40
8.216536228820143
 40
11.17178411357029
 40
14.27216237767808
 40
17.51500658102979
 40
20.88349781704982
 40
24.34969003135642
 40
27.87772224398704
 40
31.42701394620948
 40
34.95541019760601
 40
38.42230352727854
 40
38.42230352727854
 40
38.42230352727854
 40
38.42230352727854
 10
236.327985910197
 20
827.8749736814501
 30
0.0
 10
237.0394932451677
 20
828.4150246327033
 30
0.0
 10
238.4770558375099
 20
829.5061687365933
 30
0.0
 10
241.0571753381798
 20
830.5162886321873
 30
0.0
 10
243.8568419508297
 20
831.035902625219
 30
0.0
 10
246.8342049048006
 20
831.0131187920517
 30
0.0
 10
249.8981065082578
 20
830.4657393830099
 30
0.0
 10
252.9704283025908
 20
829.4082859075997
 30
0.0
 10
255.9695827355189
 20
827.8720506309334
 30
0.0
 10
258.8159298363073
 20
825.8984691170677
 30
0.0
 10
261.4368057559886
 20
823.5420045391493
 30
0.0
 10
263.7517290161408
 20
820.8612103105768
 30
0.0
 10
265.738926260049
 20
817.9446195325813
 30
0.0
 10
266.7240975521643
 20
815.8276512850806
 30
0.0
 10
267.2123523552623
 20
814.7784734013849
 30
0.0
 11
236.327985910197
 21
827.8749736814501
 31
0.0
 11
238.5251693016343
 21
829.3902342019996
 31
0.0
 11
241.0460541318733
 21
830.4212799235186
 31
0.0
 11
243.8219406580615
 21
830.9400110413296
 31
0.0
 11
246.7771784632375
 21
830.9322920965168
 31
0.0
 11
249.8312302270639
 21
830.3983321645471
 31
0.0
 11
252.90086522114
 21
829.352684263155
 31
0.0
 11
255.9024281104442
 21
827.8238437119038
 31
0.0
 11
258.7541190261099
 21
825.8534763884145
 31
0.0
 11
261.3782217604407
 21
823.4952787434148
 31
0.0
 11
263.7032235596967
 21
820.8135184599712
 31
0.0
 11
265.6657614718987
 21
817.8812795471828
 31
0.0
 11
267.2123523552623
 21
814.7784734013849
 31
0.0
  0
SPLINE
  5
F4
330
47
100
AcDbEntity
  8
0
  6
Continuous
 62
     7
100
AcDbSpline
210
0.0
220
0.0
230
1.0
 70
     8
 71
     3
 72
     9
 73
     5
 74
     3
 42
0.000000001
 43
0.0000000001
 44
0.00000001
 40
0.0
 40
0.0
 40
0.0
 40
0.0
 40
0.4410298852387631
 40
0.8223218392526452
 40
0.8223218392526452
 40
0.8223218392526452
 40
0.8223218392526452
 10
259.0382323177269
 20
823.4629735128757
 30
0.0
 10
259.1437088021668
 20
823.5714278707442
 30
0.0
 10
259.3403748611132
 20
823.7736463471749
 30
0.0
 10
259.3831882453464
 20
824.0511824900451
 30
0.0
 10
259.4030398304185
 20
824.1798696969278
 30
0.0
 11
259.0382323177269
 21
823.4629735128757
 31
0.0
 11
259.3104072621062
 21
823.8100011215228
 31
0.0
 11
259.4030398304185
 21
824.1798696969278
 31
0.0
  0
SPLINE
  5
F5
330
47
100
AcDbEntity
  8
0
  6
Continuous
 62
     7
100
AcDbSpline
210
0.0
220
0.0
230
1.0
 70
     8
 71
     3
 72
    17
 73
    13
 74
    11
 42
0.000000001
 43
0.0000000001
 44
0.00000001
 40
0.0
 40
0.0
 40
0.0
 40
0.0
 40
0.4055085981428196
 40
0.8811382087888017
 40
1.458137502714445
 40
2.132981607835745
 40
2.881475656781793
 40
3.668107781896772
 40
4.452372606559486
 40
5.19406151188936
 40
5.858606658215944
 40
6.423625930000178
 40
6.423625930000178
 40
6.423625930000178
 40
6.423625930000178
 10
253.4030398304185
 20
824.1798696969278
 30
0.0
 10
253.4263951817439
 20
824.0441018352162
 30
0.0
 10
253.4771445297446
 20
823.749088982433
 30
0.0
 10
253.8278075076147
 20
823.3813008025943
 30
0.0
 10
254.316852571497
 20
823.0776941040198
 30
0.0
 10
254.948805990742
 20
822.8487243857688
 30
0.0
 10
255.6737294794851
 20
822.7073279422584
 30
0.0
 10
256.4477867839836
 20
822.6632734661362
 30
0.0
 10
257.2195934117932
 20
822.7180611586534
 30
0.0
 10
257.9337622001381
 20
822.8732893693712
 30
0.0
 10
258.5583256244392
 20
823.1012731040363
 30
0.0
 10
258.8871351424227
 20
823.3490932246369
 30
0.0
 10
259.0382323177269
 20
823.4629735128757
 30
0.0
 11
253.4030398304185
 21
824.1798696969278
 31
0.0
 11
253.5072369754886
 21
823.7879766179818
 31
0.0
 11
253.8125872226392
 21
823.4233058716543
 31
0.0
 11
254.2978826472365
 21
823.1111896524311
 31
0.0
 11
254.9294100216516
 21
822.8733078741736
 31
0.0
 11
255.6633027420424
 21
822.7261861037751
 31
0.0
 11
256.4485803175167
 21
822.6800425348824
 31
0.0
 11
257.2306944338305
 21
822.7380841049122
 31
0.0
 11
257.9553166215608
 21
822.8962773975895
 31
0.0
 11
258.5721102692941
 21
823.1436351256169
 31
0.0
 11
259.0382323177269
 21
823.4629735128757
 31
0.0
  0
SPLINE
  5
F6
330
47
100
AcDbEntity
  8
0
  6
Continuous
 62
     7
100
AcDbSpline
210
0.0
220
0.0
230
1.0
 70
     8
 71
     3
 72
    11
 73
     7
 74
     5
 42
0.000000001
 43
0.0000000001
 44
0.00000001
 40
0.0
 40
0.0
 40
0.0
 40
0.0
 40
0.7572753564661108
 40
1.518840810698096
 40
2.263512206938977
 40
2.973157996868956
 40
2.973157996868956
 40
2.973157996868956
 40
2.973157996868956
 10
260.6818398745581
 20
799.9331543605806
 30
0.0
 10
260.8117744772969
 20
799.71569426434
 30
0.0
 10
261.0723797974683
 20
799.2795421306097
 30
0.0
 10
261.6094206254289
 20
798.7415579514297
 30
0.0
 10
262.2146506613267
 20
798.3058646974945
 30
0.0
 10
262.6718695643342
 20
798.138678495188
 30
0.0
 10
262.8949732152482
 20
798.0570986473172
 30
0.0
 11
260.6818398745581
 21
799.9331543605806
 31
0.0
 11
261.0964417025224
 21
799.2994578317424
 31
0.0
 11
261.6272418331554
 21
798.7533505479707
 31
0.0
 11
262.2399478057739
 21
798.3301167085872
 31
0.0
 11
262.8949732152482
 21
798.0570986473172
 31
0.0
  0
SPLINE
  5
F7
330
47
100
AcDbEntity
  8
0
  6
Continuous
 62
     7
100
AcDbSpline
210
0.0
220
0.0
230
1.0
 70
     8
 71
     3
 72
     9
 73
     5
 74
     3
 42
0.000000001
 43
0.0000000001
 44
0.00000001
 40
0.0
 40
0.0
 40
0.0
 40
0.0
 40
1.046820479167703
 40
2.038028470150488
 40
2.038028470150488
 40
2.038028470150488
 40
2.038028470150488
 10
268.3850950895537
 20
814.9986574985475
 30
0.0
 10
268.5071873768891
 20
814.6694484186869
 30
0.0
 10
268.7448857620652
 20
814.0285195336091
 30
0.0
 10
268.7860561787489
 20
813.3464428185808
 30
0.0
 10
268.8060796608378
 20
813.0147105080054
 30
0.0
 11
268.3850950895537
 21
814.9986574985475
 31
0.0
 11
268.6995219975487
 21
814.0001742301868
 31
0.0
 11
268.8060796608378
 21
813.0147105080054
 31
0.0
  0
SPLINE
  5
F8
330
47
100
AcDbEntity
  8
0
  6
Continuous
 62
     7
100
AcDbSpline
210
0.0
220
0.0
230
1.0
 70
     8
 71
     3
 72
    11
 73
     7
 74
     5
 42
0.000000001
 43
0.0000000001
 44
0.00000001
 40
0.0
 40
0.0
 40
0.0
 40
0.0
 40
1.67518419774506
 40
3.362480986173547
 40
5.073298688148246
 40
6.817724046677711
 40
6.817724046677711
 40
6.817724046677711
 40
6.817724046677711
 10
247.346005404135
 20
839.4011719458911
 30
0.0
 10
247.7820997532802
 20
839.7513009035537
 30
0.0
 10
248.6574416853015
 20
840.4540904501376
 30
0.0
 10
250.1377875135616
 20
841.2843867109785
 30
0.0
 10
251.7202484304656
 20
841.9573104538894
 30
0.0
 10
252.8384838314858
 20
842.2396800223256
 30
0.0
 10
253.4030398304185
 20
842.3822380427368
 30
0.0
 11
247.346005404135
 21
839.4011719458911
 31
0.0
 11
248.6805486596585
 21
840.4137115243461
 31
0.0
 11
250.1442690427527
 21
841.2530523947612
 31
0.0
 11
251.7233878066158
 21
841.9112933409176
 31
0.0
 11
253.4030398304185
 21
842.3822380427368
 31
0.0
  0
SPLINE
  5
F9
330
47
100
AcDbEntity
  8
0
  6
Continuous
 62
     7
100
AcDbSpline
210
0.0
220
0.0
230
1.0
 70
     8
 71
     3
 72
     9
 73
     5
 74
     3
 42
0.000000001
 43
0.0000000001
 44
0.00000001
 40
0.0
 40
0.0
 40
0.0
 40
0.0
 40
0.0204552151910738
 40
0.040778401317267
 40
0.040778401317267
 40
0.040778401317267
 40
0.040778401317267
 10
253.4030398304185
 20
839.3706766782369
 30
0.0
 10
253.3978089362814
 20
839.3663029137936
 30
0.0
 10
253.387380923943
 20
839.3575836002785
 30
0.0
 10
253.3770831346626
 20
839.3487108689209
 30
0.0
 10
253.371950917173
 20
839.344288859371
 30
0.0
 11
253.4030398304185
 21
839.3706766782369
 31
0.0
 11
253.3873799214014
 21
839.3575167739777
 31
0.0
 11
253.371950917173
 21
839.344288859371
 31
0.0
  0
SPLINE
  5
FA
330
47
100
AcDbEntity
  8
0
  6
Continuous
 62
     7
100
AcDbSpline
210
0.0
220
0.0
230
1.0
 70
     8
 71
     3
 72
    11
 73
     7
 74
     5
 42
0.000000001
 43
0.0000000001
 44
0.00000001
 40
0.0
 40
0.0
 40
0.0
 40
0.0
 40
0.2381658594868541
 40
0.4887123701108262
 40
0.7615392976393494
 40
1.062965126966634
 40
1.062965126966634
 40
1.062965126966634
 40
1.062965126966634
 10
259.9030398304185
 20
838.469288859371
 30
0.0
 10
259.8966262516816
 20
838.5489141570122
 30
0.0
 10
259.8834656804551
 20
838.7123039371465
 30
0.0
 10
259.7794056190834
 20
838.9481013284189
 30
0.0
 10
259.6204491093484
 20
839.1745586203449
 30
0.0
 10
259.4778763929916
 20
839.3031689806392
 30
0.0
 10
259.4030398304185
 20
839.3706766782369
 30
0.0
 11
259.9030398304185
 21
838.469288859371
 31
0.0
 11
259.8710648536763
 21
838.7052985592916
 31
0.0
 11
259.7757242212265
 21
838.9369960327177
 31
0.0
 11
259.6187598716597
 21
839.1601478341496
 31
0.0
 11
259.4030398304185
 21
839.3706766782369
 31
0.0
  0
SPLINE
  5
FB
330
47
100
AcDbEntity
  8
0
  6
Continuous
 62
     7
100
AcDbSpline
210
0.0
220
0.0
230
1.0
 70
     8
 71
     3
 72
     9
 73
     5
 74
     3
 42
0.000000001
 43
0.0000000001
 44
0.00000001
 40
0.0
 40
0.0
 40
0.0
 40
0.0
 40
0.7327743351219336
 40
1.426619928514279
 40
1.426619928514279
 40
1.426619928514279
 40
1.426619928514279
 10
267.2123523552623
 20
814.7784734013849
 30
0.0
 10
267.2978169563626
 20
814.5480270455752
 30
0.0
 10
267.4642058201543
 20
814.099376824716
 30
0.0
 10
267.493025117705
 20
813.6219231253094
 30
0.0
 10
267.5070415551612
 20
813.3897105080054
 30
0.0
 11
267.2123523552623
 21
814.7784734013849
 31
0.0
 11
267.4324511908588
 21
814.0795351135323
 31
0.0
 11
267.5070415551612
 21
813.3897105080054
 31
0.0
  0
SPLINE
  5
FC
330
47
100
AcDbEntity
  8
0
  6
Continuous
 62
     7
100
AcDbSpline
210
0.0
220
0.0
230
1.0
 70
     8
 71
     3
 72
     9
 73
     5
 74
     3
 42
0.000000001
 43
0.0000000001
 44
0.00000001
 40
0.0
 40
0.0
 40
0.0
 40
0.0
 40
1.046820479167812
 40
2.038028470150483
 40
2.038028470150483
 40
2.038028470150483
 40
2.038028470150483
 10
280.3850950895537
 20
825.3909623439607
 30
0.0
 10
280.5071873768891
 20
825.0617532640996
 30
0.0
 10
280.7448857620652
 20
824.4208243790226
 30
0.0
 10
280.7860561787489
 20
823.7387476639941
 30
0.0
 10
280.8060796608378
 20
823.4070153534186
 30
0.0
 11
280.3850950895537
 21
825.3909623439607
 31
0.0
 11
280.6995219975487
 21
824.3924790755999
 31
0.0
 11
280.8060796608378
 21
823.4070153534186
 31
0.0
  0
SPLINE
  5
FD
330
47
100
AcDbEntity
  8
0
  6
Continuous
 62
     7
100
AcDbSpline
210
0.0
220
0.0
230
1.0
 70
     8
 71
     3
 72
    19
 73
    15
 74
    13
 42
0.000000001
 43
0.0000000001
 44
0.00000001
 40
0.0
 40
0.0
 40
0.0
 40
0.0
 40
0.4014610051777953
 40
0.8712471558980852
 40
1.440286931547087
 40
2.105766040141333
 40
2.844663649928908
 40
3.622801020616916
 40
4.400938391304868
 40
5.139836001092386
 40
5.805315109686672
 40
6.374354885335784
 40
6.844141036056092
 40
7.245602041233873
 40
7.245602041233873
 40
7.245602041233873
 40
7.245602041233873
 10
253.4030398304185
 20
838.469288859371
 30
0.0
 10
253.4258991501644
 20
838.3348674645589
 30
0.0
 10
253.4755082638448
 20
838.043147338772
 30
0.0
 10
253.8194747222219
 20
837.6779605568992
 30
0.0
 10
254.3002364096976
 20
837.3754885078777
 30
0.0
 10
254.922275830933
 20
837.1458219764015
 30
0.0
 10
255.6372597362756
 20
837.0017567131408
 30
0.0
 10
256.4030398304184
 20
836.9526350091692
 30
0.0
 10
257.1688199245615
 20
837.0017567131405
 30
0.0
 10
257.883803829904
 20
837.1458219764017
 30
0.0
 10
258.5058432511393
 20
837.3754885078772
 30
0.0
 10
258.9866049386151
 20
837.6779605568995
 30
0.0
 10
259.3305713969921
 20
838.0431473387717
 30
0.0
 10
259.3801805106728
 20
838.334867464559
 30
0.0
 10
259.4030398304185
 20
838.469288859371
 30
0.0
 11
253.4030398304185
 21
838.469288859371
 31
0.0
 11
253.5052631241155
 21
838.0810603952211
 31
0.0
 11
253.8049636190652
 21
837.719288859371
 31
0.0
 11
254.2817200524151
 21
837.4086289703693
 31
0.0
 11
254.9030398304184
 21
837.1702507536943
 31
0.0
 11
255.6265829021189
 21
837.0204005062194
 31
0.0
 11
256.4030398304185
 21
836.969288859371
 31
0.0
 11
257.1794967587181
 21
837.0204005062194
 31
0.0
 11
257.9030398304184
 21
837.1702507536943
 31
0.0
 11
258.5243596084218
 21
837.4086289703691
 31
0.0
 11
259.0011160417718
 21
837.719288859371
 31
0.0
 11
259.3008165367215
 21
838.0810603952211
 31
0.0
 11
259.4030398304185
 21
838.469288859371
 31
0.0
  0
SPLINE
  5
FE
330
47
100
AcDbEntity
  8
0
  6
Continuous
 62
     7
100
AcDbSpline
210
0.0
220
0.0
230
1.0
 70
     8
 71
     3
 72
    21
 73
    17
 74
    15
 42
0.000000001
 43
0.0000000001
 44
0.00000001
 40
0.0
 40
0.0
 40
0.0
 40
0.0
 40
0.3991765463468159
 40
0.8506424425765334
 40
1.383532183908384
 40
2.003141811389911
 40
2.698743368954691
 40
3.449749950554084
 40
4.2298081471338
 40
5.009866343713544
 40
5.760872925312956
 40
6.456474482877729
 40
7.076084110359282
 40
7.608973851691176
 40
8.060439747920878
 40
8.459616294267693
 40
8.459616294267693
 40
8.459616294267693
 40
8.459616294267693
 10
252.9030398304185
 20
838.469288859371
 30
0.0
 10
252.9219991482567
 20
838.3355861656204
 30
0.0
 10
252.9624013401114
 20
838.0506666619551
 30
0.0
 10
253.2561526957467
 20
837.6736474028314
 30
0.0
 10
253.6802428996286
 20
837.3462203864963
 30
0.0
 10
254.2387566618777
 20
837.0759048490218
 30
0.0
 10
254.8988225162379
 20
836.8732355056948
 30
0.0
 10
255.6322718673348
 20
836.7475181600477
 30
0.0
 10
256.4030398304184
 20
836.7049066507955
 30
0.0
 10
257.1738077935022
 20
836.7475181600477
 30
0.0
 10
257.9072571445988
 20
836.8732355056948
 30
0.0
 10
258.5673229989592
 20
837.0759048490222
 30
0.0
 10
259.1258367612085
 20
837.3462203864958
 30
0.0
 10
259.5499269650902
 20
837.6736474028316
 30
0.0
 10
259.8436783207255
 20
838.050666661955
 30
0.0
 10
259.8840805125802
 20
838.3355861656206
 30
0.0
 10
259.9030398304185
 20
838.469288859371
 30
0.0
 11
252.9030398304185
 21
838.469288859371
 31
0.0
 11
252.9907924984612
 21
838.0798772661087
 31
0.0
 11
253.24964879276
 21
837.7099923159152
 31
0.0
 11
253.6666299310225
 21
837.3781818214496
 31
0.0
 11
254.2208255239129
 21
837.101083765052
 31
0.0
 11
254.8844469040243
 21
836.8925935072004
 31
0.0
 11
255.6242165615714
 21
836.7631650130527
 31
0.0
 11
256.4030398304184
 21
836.7192890443482
 31
0.0
 11
257.1818630992656
 21
836.7631650130527
 31
0.0
 11
257.9216327568126
 21
836.8925935072006
 31
0.0
 11
258.585254136924
 21
837.101083765052
 31
0.0
 11
259.1394497298144
 21
837.3781818214496
 31
0.0
 11
259.556430868077
 21
837.7099923159152
 31
0.0
 11
259.8152871623758
 21
838.0798772661087
 31
0.0
 11
259.9030398304185
 21
838.469288859371
 31
0.0
  0
SPLINE
  5
FF
330
47
100
AcDbEntity
  8
0
  6
Continuous
 62
     7
100
AcDbSpline
210
0.0
220
0.0
230
1.0
 70
     8
 71
     3
 72
    47
 73
    43
 74
    41
 42
0.000000001
 43
0.0000000001
 44
0.00000001
 40
0.0
 40
0.0
 40
0.0
 40
0.0
 40
0.1145898298714696
 40
0.2321219024512677
 40
0.3473722094807613
 40
0.4798521928951691
 40
0.6168602082441248
 40
0.7622014522606315
 40
0.9101651207307861
 40
1.087924903501058
 40
1.225557837443889
 40
1.38609721732415
 40
1.553755138310503
 40
1.713603751130036
 40
2.10798672673343
 40
2.444586843439294
 40
2.654102353931953
 40
2.843180659618938
 40
3.048504282724827
 40
3.256626992258548
 40
3.681220350992355
 40
4.111693177437555
 40
4.324673092871651
 40
4.537559013530739
 40
4.740260431555767
 40
4.958216438675759
 40
5.367169279115251
 40
5.762556217319622
 40
6.1747893820082
 40
6.49818001869897
 40
6.668581026098558
 40
6.831570448562188
 40
6.995788577650812
 40
7.140258415484741
 40
7.32432561634827
 40
7.481178490339295
 40
7.641099851570975
 40
7.793573412944642
 40
7.952078527166747
 40
8.087345248076641
 40
8.241731946547992
 40
8.374769680218519
 40
8.374769680218519
 40
8.374769680218519
 40
8.374769680218519
 10
252.9030398304185
 20
836.5635106900456
 30
0.0
 10
252.9049083908963
 20
836.52526850509
 30
0.0
 10
252.908693489638
 20
836.4478022179651
 30
0.0
 10
252.9390545274952
 20
836.3352008221875
 30
0.0
 10
252.9875031816202
 20
836.2231775784489
 30
0.0
 10
253.055424722433
 20
836.1138221148942
 30
0.0
 10
253.1429871110851
 20
836.0064225489677
 30
0.0
 10
253.2453174547922
 20
835.9055597751719
 30
0.0
 10
253.3667090022486
 20
835.805702420283
 30
0.0
 10
253.4936287843863
 20
835.7173907128174
 30
0.0
 10
253.6292504262982
 20
835.6349755227131
 30
0.0
 10
253.7658685508115
 20
835.5610349981171
 30
0.0
 10
253.9124345963253
 20
835.4903172195409
 30
0.0
 10
254.1332052769474
 20
835.3944779228914
 30
0.0
 10
254.412397972367
 20
835.292416515851
 30
0.0
 10
254.7129452107253
 20
835.2028092332496
 30
0.0
 10
254.9503963757654
 20
835.1420641176835
 30
0.0
 10
255.1467086422565
 20
835.0974147347426
 30
0.0
 10
255.3436347430939
 20
835.0578311533219
 30
0.0
 10
255.6188431407872
 20
835.0097806551025
 30
0.0
 10
255.9701783505272
 20
834.9621035686157
 30
0.0
 10
256.325100394027
 20
834.932128378141
 30
0.0
 10
256.610289507102
 20
834.9193571405508
 30
0.0
 10
256.8198066203303
 20
834.9156552291931
 30
0.0
 10
257.0310053513439
 20
834.9177480144527
 30
0.0
 10
257.3073634709154
 20
834.9286054517138
 30
0.0
 10
257.6471342713364
 20
834.9578067047157
 30
0.0
 10
258.0481648901473
 20
835.0202787877392
 30
0.0
 10
258.4152126114866
 20
835.1087604013038
 30
0.0
 10
258.7014068439822
 20
835.2065944651195
 30
0.0
 10
258.9026669544833
 20
835.2930251409794
 30
0.0
 10
259.0511221395514
 20
835.3672290745162
 30
0.0
 10
259.1870997729473
 20
835.4464143768405
 30
0.0
 10
259.3231756312764
 20
835.5385995273472
 30
0.0
 10
259.4495530065151
 20
835.6400698266984
 30
0.0
 10
259.5691301352634
 20
835.7569168681846
 30
0.0
 10
259.6694652574976
 20
835.8773361673805
 30
0.0
 10
259.7557923448235
 20
836.0088323270431
 30
0.0
 10
259.8215734302801
 20
836.1427994819106
 30
0.0
 10
259.8695007701278
 20
836.2845591275382
 30
0.0
 10
259.8980241521283
 20
836.4232743964906
 30
0.0
 10
259.9014528326597
 20
836.5191387575069
 30
0.0
 10
259.9030398304185
 20
836.5635106900456
 30
0.0
 11
252.9030398304185
 21
836.5635106900456
 31
0.0
 11
252.9126672946769
 21
836.4493260007323
 31
0.0
 11
252.9419385241052
 21
836.335497261774
 31
0.0
 11
252.9875715759387
 21
836.2296659925273
 31
0.0
 11
253.056874905705
 21
836.1167589765943
 31
0.0
 11
253.1430048033059
 21
836.0102092848291
 31
0.0
 11
253.2461264537821
 21
835.9077885728641
 31
0.0
 11
253.3601207374746
 21
835.81345644515
 31
0.0
 11
253.5057267842267
 21
835.7114887084477
 31
0.0
 11
253.6232514993989
 21
835.6398593448747
 31
0.0
 11
253.7643331518601
 21
835.563250861664
 31
0.0
 11
253.9152528625328
 21
835.4902274458043
 31
0.0
 11
254.0618288126362
 21
835.4264538638815
 31
0.0
 11
254.4318171371619
 21
835.2899014181692
 31
0.0
 11
254.7542652749243
 21
835.1933258702411
 31
0.0
 11
254.9572269975312
 21
835.1413327162793
 31
0.0
 11
255.1415883278666
 21
835.0993624249506
 31
0.0
 11
255.3428790273084
 21
835.0588674343418
 31
0.0
 11
255.5478961157927
 21
835.0230476721426
 31
0.0
 11
255.9686266653214
 21
834.9659046620224
 31
0.0
 11
256.3975837305745
 21
834.9298118812458
 31
0.0
 11
256.6103518917737
 21
834.9203169609359
 31
0.0
 11
256.823205320566
 21
834.9165977406949
 31
0.0
 11
257.0258963147324
 21
834.9186532985537
 31
0.0
 11
257.2436815867795
 21
834.9272785992484
 31
0.0
 11
257.6510772814497
 21
834.962932097387
 31
0.0
 11
258.0416227740457
 21
835.024617165412
 31
0.0
 11
258.4420461090568
 21
835.122583146196
 31
0.0
 11
258.7477326817343
 21
835.228116185409
 31
0.0
 11
258.9042329191161
 21
835.2955267098332
 31
0.0
 11
259.0499394496032
 21
835.3685688799088
 31
0.0
 11
259.1917330140984
 21
835.4514071487504
 31
0.0
 11
259.3112375379994
 21
835.5325872118675
 31
0.0
 11
259.4544909689523
 21
835.648169168388
 31
0.0
 11
259.5664611851757
 21
835.7580122133824
 31
0.0
 11
259.6685609978086
 21
835.8810994579387
 31
0.0
 11
259.7520017846246
 21
836.0087153727782
 31
0.0
 11
259.8215381639922
 21
836.1511532987299
 31
0.0
 11
259.8649632241484
 21
836.279260087983
 31
0.0
 11
259.8948580795437
 21
836.4307247743103
 31
0.0
 11
259.9030398304185
 21
836.5635106900456
 31
0.0
  0
SPLINE
  5
100
330
47
100
AcDbEntity
  8
0
  6
Continuous
 62
     7
100
AcDbSpline
210
0.0
220
0.0
230
1.0
 70
     8
 71
     3
 72
    11
 73
     7
 74
     5
 42
0.000000001
 43
0.0000000001
 44
0.00000001
 40
0.0
 40
0.0
 40
0.0
 40
0.0
 40
0.2883603701977573
 40
0.5503579325762391
 40
0.7919843279901906
 40
1.022359370880289
 40
1.022359370880289
 40
1.022359370880289
 40
1.022359370880289
 10
253.371950917173
 20
839.344288859371
 30
0.0
 10
253.3016426495485
 20
839.2783231240908
 30
0.0
 10
253.1674539267458
 20
839.1524224375976
 30
0.0
 10
253.0185691778905
 20
838.9324211328405
 30
0.0
 10
252.9212968002614
 20
838.7040773669823
 30
0.0
 10
252.9090279962254
 20
838.5462980053796
 30
0.0
 10
252.9030398304185
 20
838.469288859371
 30
0.0
 11
253.371950917173
 21
839.344288859371
 31
0.0
 11
253.1694614800898
 21
839.138984863222
 31
0.0
 11
253.0222994384067
 21
838.9222221883003
 31
0.0
 11
252.9329828300553
 21
838.6977096948051
 31
0.0
 11
252.9030398304185
 21
838.469288859371
 31
0.0
  0
SPLINE
  5
101
330
47
100
AcDbEntity
  8
0
  6
Continuous
 62
     7
100
AcDbSpline
210
0.0
220
0.0
230
1.0
 70
     8
 71
     3
 72
    15
 73
    11
 74
     9
 42
0.000000001
 43
0.0000000001
 44
0.00000001
 40
0.0
 40
0.0
 40
0.0
 40
0.0
 40
3.242860420061481
 40
6.625210563742606
 40
10.12818147888729
 40
13.7231362891755
 40
17.37456906475787
 40
21.04297528953942
 40
24.68767916479566
 40
28.2696444982764
 40
28.2696444982764
 40
28.2696444982764
 40
28.2696444982764
 10
259.4030398304185
 20
842.5722002587663
 30
0.0
 10
260.4679690017927
 20
842.3751804612933
 30
0.0
 10
262.6436346400707
 20
841.9726661618504
 30
0.0
 10
265.8049210529136
 20
840.7368272710148
 30
0.0
 10
268.8831715625174
 20
839.0704802881812
 30
0.0
 10
271.7941767837959
 20
836.9639608292133
 30
0.0
 10
274.4706671477475
 20
834.4859712671864
 30
0.0
 10
276.8346881206357
 20
831.6899545537733
 30
0.0
 10
278.8673566667914
 20
828.6636914777137
 30
0.0
 10
279.8821188489173
 20
826.4755398898636
 30
0.0
 10
280.3850950895537
 20
825.3909623439607
 30
0.0
 11
259.4030398304185
 21
842.5722002587663
 31
0.0
 11
262.5720113400352
 21
841.88389561334
 31
0.0
 11
265.7366840647671
 21
840.6901037322592
 31
0.0
 11
268.8165457465844
 21
839.0211947270427
 31
0.0
 11
271.7332421566105
 21
836.919628132589
 31
0.0
 11
274.4125694491598
 21
834.4388688574653
 31
0.0
 11
276.7863636697916
 21
831.6420304223939
 31
0.0
 11
278.7942326117668
 21
828.6002663532897
 31
0.0
 11
280.3850950895537
 21
825.3909623439607
 31
0.0
  0
SPLINE
  5
102
330
47
100
AcDbEntity
  8
0
  6
Continuous
 62
     7
100
AcDbSpline
210
0.0
220
0.0
230
1.0
 70
     8
 71
     3
 72
    19
 73
    15
 74
    13
 42
0.000000001
 43
0.0000000001
 44
0.00000001
 40
0.0
 40
0.0
 40
0.0
 40
0.0
 40
2.855222984776552
 40
5.768825607936924
 40
8.789782943321276
 40
11.95121091313577
 40
15.26789463758109
 40
18.73698378538849
 40
22.3404860379005
 40
26.04850561601049
 40
29.82267961091608
 40
33.61959631558921
 40
37.39415974723286
 40
41.10292935551429
 40
41.10292935551429
 40
41.10292935551429
 40
41.10292935551429
 10
235.346005404135
 20
829.0088671004778
 30
0.0
 10
236.107152785832
 20
829.5865960251505
 30
0.0
 10
237.6450104424196
 20
830.7538664627966
 30
0.0
 10
240.4051382809674
 20
831.8344598389656
 30
0.0
 10
243.4001304713949
 20
832.3903259709655
 30
0.0
 10
246.585216422267
 20
832.3659525678653
 30
0.0
 10
249.8628786027395
 20
831.7803838976267
 30
0.0
 10
253.1495484292478
 20
830.6491545982706
 30
0.0
 10
256.3579461947088
 20
829.0057401162069
 30
0.0
 10
259.4028756513569
 20
826.894466868788
 30
0.0
 10
262.2066033794119
 20
824.3735977854533
 30
0.0
 10
264.6830329134209
 20
821.5057714013952
 30
0.0
 10
266.808871825866
 20
818.3856975461695
 30
0.0
 10
267.8627759978964
 20
816.121033839183
 30
0.0
 10
268.3850950895537
 20
814.9986574985475
 30
0.0
 11
235.346005404135
 21
829.0088671004778
 31
0.0
 11
237.6964806600913
 21
830.6298434712983
 31
0.0
 11
240.3932411761609
 21
831.7328226152487
 31
0.0
 11
243.3627942041762
 21
832.2877442761629
 31
0.0
 11
246.5242113911086
 21
832.2794868003166
 31
0.0
 11
249.7913365338065
 21
831.7082738498373
 31
0.0
 11
253.0751321088647
 21
830.5896737692783
 31
0.0
 11
256.2861063625391
 21
828.9541699237539
 31
0.0
 11
259.3367524583675
 21
826.8463351125793
 31
0.0
 11
262.1439321276516
 21
824.3236120504866
 31
0.0
 11
264.6311433547627
 21
821.4547522123839
 31
0.0
 11
266.7306025166531
 21
818.3179384917266
 31
0.0
 11
268.3850950895537
 21
814.9986574985475
 31
0.0
  0
ENDBLK
  5
49
330
47
100
AcDbEntity
  8
0
100
AcDbBlockEnd
  0
BLOCK
  5
4C
330
4A
100
AcDbEntity
  8
0
100
AcDbBlockBegin
  2
Allg1
 70
     0
 10
256.4030398214563
 20
814.9999999980851
 30
0.0
  3
Allg1
  1

  0
INSERT
  5
4B
330
4A
100
AcDbEntity
  8
0
100
AcDbBlockReference
  2
3240258_WCC_38-select__1
 10
230.5878681096182
 20
770.932863597459
 30
0.0
  0
ENDBLK
  5
4D
330
4A
100
AcDbEntity
  8
0
100
AcDbBlockEnd
  0
BLOCK
  5
4F
330
4E
100
AcDbEntity
  8
0
100
AcDbBlockBegin
  2
3240258_WCC_38-select__2
 70
     0
 10
34.68565434659785
 20
789.575367711713
 30
0.0
  3
3240258_WCC_38-select__2
  1

  0
LINE
  5
103
330
4E
100
AcDbEntity
  8
0
  6
Continuous
 62
     7
100
AcDbLine
 10
63.93565434659785
 20
821.075367711713
 30
0.0
 11
47.93565434659785
 21
821.075367711713
 31
0.0
  0
LINE
  5
104
330
4E
100
AcDbEntity
  8
0
  6
Continuous
 62
     7
100
AcDbLine
 10
75.35214218554545
 20
825.575367711713
 30
0.0
 11
36.51916650765024
 21
825.575367711713
 31
0.0
  0
LINE
  5
105
330
4E
100
AcDbEntity
  8
0
  6
Continuous
 62
     7
100
AcDbLine
 10
35.17176545770896
 20
819.575367711713
 30
0.0
 11
76.69954323548674
 21
819.575367711713
 31
0.0
  0
LINE
  5
106
330
4E
100
AcDbEntity
  8
0
  6
Continuous
 62
     7
100
AcDbLine
 10
34.68565434659785
 20
819.575367711713
 30
0.0
 11
35.17176545770896
 21
819.575367711713
 31
0.0
  0
LINE
  5
107
330
4E
100
AcDbEntity
  8
0
  6
Continuous
 62
     7
100
AcDbLine
 10
53.04890300064973
 20
812.575367711713
 30
0.0
 11
55.13565434659786
 21
812.575367711713
 31
0.0
  0
LINE
  5
108
330
4E
100
AcDbEntity
  8
0
  6
Continuous
 62
     7
100
AcDbLine
 10
55.13565434659785
 20
802.575367711713
 30
0.0
 11
55.13565434659786
 21
812.575367711713
 31
0.0
  0
LINE
  5
109
330
4E
100
AcDbEntity
  8
0
  6
Continuous
 62
     2
100
AcDbLine
 10
35.17176545770896
 20
819.575367711713
 30
0.0
 11
35.17176545770897
 21
795.575367711713
 31
0.0
  0
LINE
  5
10A
330
4E
100
AcDbEntity
  8
0
  6
Continuous
 62
     7
100
AcDbLine
 10
36.51916650765024
 20
825.575367711713
 30
0.0
 11
36.51916650765026
 21
819.575367711713
 31
0.0
  0
LINE
  5
10B
330
4E
100
AcDbEntity
  8
0
  6
Continuous
 62
     7
100
AcDbLine
 10
36.51916650765026
 20
795.575367711713
 30
0.0
 11
36.51916650765026
 21
789.575367711713
 31
0.0
  0
LINE
  5
10C
330
4E
100
AcDbEntity
  8
0
  6
Continuous
 62
     7
100
AcDbLine
 10
47.93565434659785
 20
819.575367711713
 30
0.0
 11
47.93565434659785
 21
821.075367711713
 31
0.0
  0
LINE
  5
10D
330
4E
100
AcDbEntity
  8
0
  6
Continuous
 62
     7
100
AcDbLine
 10
50.1621516547016
 20
807.575367711713
 30
0.0
 11
53.04890300064973
 21
812.575367711713
 31
0.0
  0
LINE
  5
10E
330
4E
100
AcDbEntity
  8
0
  6
Continuous
 62
     7
100
AcDbLine
 10
53.04890300064973
 20
802.575367711713
 30
0.0
 11
50.1621516547016
 21
807.575367711713
 31
0.0
  0
LINE
  5
10F
330
4E
100
AcDbEntity
  8
0
  6
Continuous
 62
     7
100
AcDbLine
 10
76.69954323548674
 20
819.575367711713
 30
0.0
 11
77.18565434659786
 21
819.575367711713
 31
0.0
  0
LINE
  5
110
330
4E
100
AcDbEntity
  8
0
  6
Continuous
 62
     7
100
AcDbLine
 10
58.82240569254599
 20
812.575367711713
 30
0.0
 11
61.70915703849411
 21
807.575367711713
 31
0.0
  0
LINE
  5
111
330
4E
100
AcDbEntity
  8
0
  6
Continuous
 62
     2
100
AcDbLine
 10
76.69954323548674
 20
819.575367711713
 30
0.0
 11
76.69954323548676
 21
795.575367711713
 31
0.0
  0
LINE
  5
112
330
4E
100
AcDbEntity
  8
0
  6
Continuous
 62
     7
100
AcDbLine
 10
77.18565434659787
 20
795.575367711713
 30
0.0
 11
77.18565434659786
 21
819.575367711713
 31
0.0
  0
LINE
  5
113
330
4E
100
AcDbEntity
  8
0
  6
Continuous
 62
     7
100
AcDbLine
 10
47.93565434659787
 20
794.075367711713
 30
0.0
 11
47.93565434659786
 21
795.575367711713
 31
0.0
  0
LINE
  5
114
330
4E
100
AcDbEntity
  8
0
  6
Continuous
 62
     7
100
AcDbLine
 10
58.82240569254599
 20
802.575367711713
 30
0.0
 11
56.73565434659786
 21
802.575367711713
 31
0.0
  0
LINE
  5
115
330
4E
100
AcDbEntity
  8
0
  6
Continuous
 62
     7
100
AcDbLine
 10
55.13565434659785
 20
802.575367711713
 30
0.0
 11
53.04890300064973
 21
802.575367711713
 31
0.0
  0
LINE
  5
116
330
4E
100
AcDbEntity
  8
0
  6
Continuous
 62
     7
100
AcDbLine
 10
55.13565434659785
 20
802.575367711713
 30
0.0
 11
56.73565434659786
 21
802.575367711713
 31
0.0
  0
LINE
  5
117
330
4E
100
AcDbEntity
  8
0
  6
Continuous
 62
     7
100
AcDbLine
 10
47.93565434659787
 20
794.075367711713
 30
0.0
 11
63.93565434659786
 21
794.075367711713
 31
0.0
  0
LINE
  5
118
330
4E
100
AcDbEntity
  8
0
  6
Continuous
 62
     7
100
AcDbLine
 10
75.35214218554546
 20
789.575367711713
 30
0.0
 11
36.51916650765026
 21
789.575367711713
 31
0.0
  0
LINE
  5
119
330
4E
100
AcDbEntity
  8
0
  6
Continuous
 62
     7
100
AcDbLine
 10
76.69954323548676
 20
795.575367711713
 30
0.0
 11
77.18565434659787
 21
795.575367711713
 31
0.0
  0
LINE
  5
11A
330
4E
100
AcDbEntity
  8
0
  6
Continuous
 62
     7
100
AcDbLine
 10
34.68565434659786
 20
795.575367711713
 30
0.0
 11
35.17176545770897
 21
795.575367711713
 31
0.0
  0
LINE
  5
11B
330
4E
100
AcDbEntity
  8
0
  6
Continuous
 62
     7
100
AcDbLine
 10
35.17176545770897
 20
795.575367711713
 30
0.0
 11
76.69954323548676
 21
795.575367711713
 31
0.0
  0
LINE
  5
11C
330
4E
100
AcDbEntity
  8
0
  6
Continuous
 62
     7
100
AcDbLine
 10
34.68565434659786
 20
795.575367711713
 30
0.0
 11
34.68565434659785
 21
819.575367711713
 31
0.0
  0
LINE
  5
11D
330
4E
100
AcDbEntity
  8
0
  6
Continuous
 62
     7
100
AcDbLine
 10
75.35214218554546
 20
795.575367711713
 30
0.0
 11
75.35214218554546
 21
789.575367711713
 31
0.0
  0
LINE
  5
11E
330
4E
100
AcDbEntity
  8
0
  6
Continuous
 62
     7
100
AcDbLine
 10
75.35214218554545
 20
825.575367711713
 30
0.0
 11
75.35214218554545
 21
819.575367711713
 31
0.0
  0
LINE
  5
11F
330
4E
100
AcDbEntity
  8
0
  6
Continuous
 62
     7
100
AcDbLine
 10
63.93565434659786
 20
795.575367711713
 30
0.0
 11
63.93565434659786
 21
794.075367711713
 31
0.0
  0
LINE
  5
120
330
4E
100
AcDbEntity
  8
0
  6
Continuous
 62
     7
100
AcDbLine
 10
63.93565434659785
 20
821.075367711713
 30
0.0
 11
63.93565434659785
 21
819.575367711713
 31
0.0
  0
LINE
  5
121
330
4E
100
AcDbEntity
  8
0
  6
Continuous
 62
     7
100
AcDbLine
 10
56.73565434659786
 20
812.575367711713
 30
0.0
 11
55.13565434659786
 21
812.575367711713
 31
0.0
  0
LINE
  5
122
330
4E
100
AcDbEntity
  8
0
  6
Continuous
 62
     7
100
AcDbLine
 10
56.73565434659786
 20
812.575367711713
 30
0.0
 11
58.82240569254599
 21
812.575367711713
 31
0.0
  0
LINE
  5
123
330
4E
100
AcDbEntity
  8
0
  6
Continuous
 62
     7
100
AcDbLine
 10
61.70915703849411
 20
807.575367711713
 30
0.0
 11
58.82240569254599
 21
802.575367711713
 31
0.0
  0
LINE
  5
124
330
4E
100
AcDbEntity
  8
0
  6
Continuous
 62
     7
100
AcDbLine
 10
56.73565434659786
 20
812.575367711713
 30
0.0
 11
56.73565434659786
 21
802.575367711713
 31
0.0
  0
ENDBLK
  5
50
330
4E
100
AcDbEntity
  8
0
100
AcDbBlockEnd
  0
BLOCK
  5
53
330
51
100
AcDbEntity
  8
0
100
AcDbBlockBegin
  2
Drfsicht1
 70
     0
 10
55.93565433629192
 20
807.575367711639
 30
0.0
  3
Drfsicht1
  1

  0
INSERT
  5
52
330
51
100
AcDbEntity
  8
0
100
AcDbBlockReference
  2
3240258_WCC_38-select__2
 10
34.68565434659785
 20
789.575367711713
 30
0.0
  0
MTEXT
  5
126
330
51
100
AcDbEntity
  8
1
 62
     6
100
AcDbMText
 10
55.93565433629192
 20
783.5507350418136
 30
0.0
 40
5.0
 41
0.0
 71
     2
 72
     1
  1
 
  7
CONVERTER_11
 73
     1
 44
1.32052821128451
  0
ENDBLK
  5
54
330
51
100
AcDbEntity
  8
0
100
AcDbBlockEnd
  0
BLOCK
  5
56
330
55
100
AcDbEntity
  8
0
100
AcDbBlockBegin
  2
3240258_WCC_38-select__3
 70
     0
 10
176.7499999825091
 20
856.6000004863085
 30
0.0
  3
3240258_WCC_38-select__3
  1

  0
LINE
  5
127
330
55
100
AcDbEntity
  8
0
  6
Continuous
 62
     7
100
AcDbLine
 10
219.2499999825091
 20
858.3870588155896
 30
0.0
 11
219.2499999825091
 21
856.6000004863085
 31
0.0
  0
LINE
  5
128
330
55
100
AcDbEntity
  8
0
  6
Continuous
 62
     7
100
AcDbLine
 10
219.2499999825091
 20
856.6000004863085
 30
0.0
 11
217.7499999825091
 21
856.6000004863085
 31
0.0
  0
LINE
  5
129
330
55
100
AcDbEntity
  8
0
  6
Continuous
 62
     7
100
AcDbLine
 10
219.2499999825091
 20
862.9000004863086
 30
0.0
 11
219.2499999825091
 21
858.3870588155896
 31
0.0
  0
LINE
  5
12A
330
55
100
AcDbEntity
  8
0
  6
Continuous
 62
     7
100
AcDbLine
 10
219.2499999825091
 20
872.1729079559261
 30
0.0
 11
219.2499999825091
 21
866.16202950723
 31
0.0
  0
LINE
  5
12B
330
55
100
AcDbEntity
  8
0
  6
Continuous
 62
     7
100
AcDbLine
 10
219.2499999825091
 20
877.6000004863085
 30
0.0
 11
219.2499999825091
 21
872.1729079559261
 31
0.0
  0
LINE
  5
12C
330
55
100
AcDbEntity
  8
0
  6
Continuous
 62
     7
100
AcDbLine
 10
217.7499999825091
 20
872.1729079559261
 30
0.0
 11
219.2499999825091
 21
872.1729079559261
 31
0.0
  0
LINE
  5
12D
330
55
100
AcDbEntity
  8
0
  6
Continuous
 62
     7
100
AcDbLine
 10
217.7499999825091
 20
866.16202950723
 30
0.0
 11
219.2499999825091
 21
866.16202950723
 31
0.0
  0
LINE
  5
12E
330
55
100
AcDbEntity
  8
0
  6
Continuous
 62
     7
100
AcDbLine
 10
219.2499999825091
 20
866.16202950723
 30
0.0
 11
219.2499999825091
 21
862.9000004863086
 31
0.0
  0
LINE
  5
12F
330
55
100
AcDbEntity
  8
0
  6
Continuous
 62
     7
100
AcDbLine
 10
219.2499999825091
 20
908.8419317699096
 30
0.0
 11
219.2499999825091
 21
877.6000004863085
 31
0.0
  0
LINE
  5
130
330
55
100
AcDbEntity
  8
0
  6
Continuous
 62
     7
100
AcDbLine
 10
219.2499999825091
 20
877.6000004863085
 30
0.0
 11
217.7499999825091
 21
877.6000004863085
 31
0.0
  0
LINE
  5
131
330
55
100
AcDbEntity
  8
0
  6
Continuous
 62
     7
100
AcDbLine
 10
217.7499999825091
 20
858.3870588155896
 30
0.0
 11
219.2499999825091
 21
858.3870588155896
 31
0.0
  0
LINE
  5
132
330
55
100
AcDbEntity
  8
0
  6
Continuous
 62
     7
100
AcDbLine
 10
219.2499999825091
 20
862.9000004863086
 30
0.0
 11
217.7499999825091
 21
862.9000004863086
 31
0.0
  0
LINE
  5
133
330
55
100
AcDbEntity
  8
0
  6
Continuous
 62
     7
100
AcDbLine
 10
217.7499999825091
 20
866.16202950723
 30
0.0
 11
217.7499999825091
 21
872.1729079559261
 31
0.0
  0
LINE
  5
134
330
55
100
AcDbEntity
  8
0
  6
Continuous
 62
     7
100
AcDbLine
 10
217.7499999825091
 20
872.1729079559261
 30
0.0
 11
217.7499999825091
 21
877.6000004863085
 31
0.0
  0
LINE
  5
135
330
55
100
AcDbEntity
  8
0
  6
Continuous
 62
     7
100
AcDbLine
 10
217.7499999825091
 20
862.9000004863086
 30
0.0
 11
217.7499999825091
 21
866.16202950723
 31
0.0
  0
LINE
  5
136
330
55
100
AcDbEntity
  8
0
  6
Continuous
 62
     7
100
AcDbLine
 10
217.7499999825091
 20
908.8419317699096
 30
0.0
 11
217.7499999825091
 21
877.6000004863085
 31
0.0
  0
LINE
  5
137
330
55
100
AcDbEntity
  8
0
  6
Continuous
 62
     7
100
AcDbLine
 10
217.7499999825091
 20
858.3870588155896
 30
0.0
 11
217.7499999825091
 21
862.9000004863086
 31
0.0
  0
LINE
  5
138
330
55
100
AcDbEntity
  8
0
  6
Continuous
 62
     7
100
AcDbLine
 10
217.4164878214567
 20
893.6000004863085
 30
0.0
 11
215.8885438025074
 21
893.6000004863085
 31
0.0
  0
LINE
  5
139
330
55
100
AcDbEntity
  8
0
  6
Continuous
 62
     7
100
AcDbLine
 10
203.7735026744053
 20
937.4000004863086
 30
0.0
 11
203.7735026744053
 21
941.4000004863086
 31
0.0
  0
LINE
  5
13A
330
55
100
AcDbEntity
  8
0
  6
Continuous
 62
     7
100
AcDbLine
 10
205.9999999825091
 20
905.0164883252562
 30
0.0
 11
205.9999999825091
 21
909.6000004863085
 31
0.0
  0
LINE
  5
13B
330
55
100
AcDbEntity
  8
0
  6
Continuous
 62
     7
100
AcDbLine
 10
217.7499999825091
 20
856.6000004863085
 30
0.0
 11
217.7499999825091
 21
858.3870588155896
 31
0.0
  0
LINE
  5
13C
330
55
100
AcDbEntity
  8
0
  6
Continuous
 62
     7
100
AcDbLine
 10
200.8867513284572
 20
941.4000004863086
 30
0.0
 11
198.7999999825091
 21
941.4000004863086
 31
0.0
  0
LINE
  5
13D
330
55
100
AcDbEntity
  8
0
  6
Continuous
 62
     7
100
AcDbLine
 10
197.1999999825091
 20
941.4000004863086
 30
0.0
 11
195.1132486365609
 21
941.4000004863086
 31
0.0
  0
LINE
  5
13E
330
55
100
AcDbEntity
  8
0
  6
Continuous
 62
     7
100
AcDbLine
 10
195.1132486365609
 20
941.4000004863086
 30
0.0
 11
192.2264972906128
 21
941.4000004863086
 31
0.0
  0
LINE
  5
13F
330
55
100
AcDbEntity
  8
0
  6
Continuous
 62
     7
100
AcDbLine
 10
200.8867513284572
 20
937.4000004863086
 30
0.0
 11
195.1132486365609
 21
937.4000004863086
 31
0.0
  0
LINE
  5
140
330
55
100
AcDbEntity
  8
0
  6
Continuous
 62
     7
100
AcDbLine
 10
194.9999999825091
 20
926.1000004863085
 30
0.0
 11
200.9999999825091
 21
926.1000004863085
 31
0.0
  0
LINE
  5
141
330
55
100
AcDbEntity
  8
0
  6
Continuous
 62
     7
100
AcDbLine
 10
198.7999999825091
 20
939.8000004863086
 30
0.0
 11
198.7999999825091
 21
941.4000004863086
 31
0.0
  0
LINE
  5
142
330
55
100
AcDbEntity
  8
0
  6
Continuous
 62
     7
100
AcDbLine
 10
197.1999999825091
 20
939.8000004863086
 30
0.0
 11
198.7999999825091
 21
939.8000004863086
 31
0.0
  0
LINE
  5
143
330
55
100
AcDbEntity
  8
0
  6
Continuous
 62
     7
100
AcDbLine
 10
197.1999999825091
 20
941.4000004863086
 30
0.0
 11
197.1999999825091
 21
939.8000004863086
 31
0.0
  0
LINE
  5
144
330
55
100
AcDbEntity
  8
0
  6
Continuous
 62
     7
100
AcDbLine
 10
200.9999999825091
 20
909.6000004863085
 30
0.0
 11
205.9999999825091
 21
909.6000004863085
 31
0.0
  0
LINE
  5
145
330
55
100
AcDbEntity
  8
0
  6
Continuous
 62
     7
100
AcDbLine
 10
189.9999999825091
 20
909.6000004863085
 30
0.0
 11
189.9999999825091
 21
905.0164883252562
 31
0.0
  0
LINE
  5
146
330
55
100
AcDbEntity
  8
0
  6
Continuous
 62
     7
100
AcDbLine
 10
189.9999999825091
 20
909.6000004863085
 30
0.0
 11
194.9999999825091
 21
909.6000004863085
 31
0.0
  0
LINE
  5
147
330
55
100
AcDbEntity
  8
0
  6
Continuous
 62
     7
100
AcDbLine
 10
180.1114561625108
 20
893.6000004863085
 30
0.0
 11
178.5835121435615
 21
893.6000004863085
 31
0.0
  0
LINE
  5
148
330
55
100
AcDbEntity
  8
0
  6
Continuous
 62
     7
100
AcDbLine
 10
200.9999999825091
 20
909.6000004863085
 30
0.0
 11
200.9999999825091
 21
922.3896693423524
 31
0.0
  0
LINE
  5
149
330
55
100
AcDbEntity
  8
0
  6
Continuous
 62
     7
100
AcDbLine
 10
194.9999999825091
 20
909.6000004863085
 30
0.0
 11
194.9999999825091
 21
922.3896693423524
 31
0.0
  0
LINE
  5
14A
330
55
100
AcDbEntity
  8
0
  6
Continuous
 62
     7
100
AcDbLine
 10
194.9999999825091
 20
909.6000004863085
 30
0.0
 11
200.9999999825091
 21
909.6000004863085
 31
0.0
  0
LINE
  5
14B
330
55
100
AcDbEntity
  8
0
  6
Continuous
 62
     7
100
AcDbLine
 10
200.9999999825091
 20
926.1000004863085
 30
0.0
 11
201.4999999825091
 21
926.1000004863085
 31
0.0
  0
LINE
  5
14C
330
55
100
AcDbEntity
  8
0
  6
Continuous
 62
     7
100
AcDbLine
 10
201.4999999825091
 20
923.8321363296473
 30
0.0
 11
201.4999999825091
 21
926.1000004863085
 31
0.0
  0
LINE
  5
14D
330
55
100
AcDbEntity
  8
0
  6
Continuous
 62
     7
100
AcDbLine
 10
200.9999999825091
 20
937.4000004863086
 30
0.0
 11
200.8867513284572
 21
937.4000004863086
 31
0.0
  0
LINE
  5
14E
330
55
100
AcDbEntity
  8
0
  6
Continuous
 62
     7
100
AcDbLine
 10
203.7735026744053
 20
937.4000004863086
 30
0.0
 11
200.9999999825091
 21
937.4000004863086
 31
0.0
  0
LINE
  5
14F
330
55
100
AcDbEntity
  8
0
  6
Continuous
 62
     7
100
AcDbLine
 10
176.7499999825091
 20
862.9000004863086
 30
0.0
 11
176.7499999825091
 21
866.16202950723
 31
0.0
  0
LINE
  5
150
330
55
100
AcDbEntity
  8
0
  6
Continuous
 62
     7
100
AcDbLine
 10
178.2499999825091
 20
866.16202950723
 30
0.0
 11
178.2499999825091
 21
862.9000004863086
 31
0.0
  0
LINE
  5
151
330
55
100
AcDbEntity
  8
0
  6
Continuous
 62
     7
100
AcDbLine
 10
178.2499999825091
 20
858.3870588155896
 30
0.0
 11
178.2499999825091
 21
856.6000004863085
 31
0.0
  0
LINE
  5
152
330
55
100
AcDbEntity
  8
0
  6
Continuous
 62
     7
100
AcDbLine
 10
178.2499999825091
 20
862.9000004863086
 30
0.0
 11
178.2499999825091
 21
858.3870588155896
 31
0.0
  0
LINE
  5
153
330
55
100
AcDbEntity
  8
0
  6
Continuous
 62
     7
100
AcDbLine
 10
178.2499999825091
 20
862.9000004863086
 30
0.0
 11
176.7499999825091
 21
862.9000004863086
 31
0.0
  0
LINE
  5
154
330
55
100
AcDbEntity
  8
0
  6
Continuous
 62
     7
100
AcDbLine
 10
176.7499999825091
 20
856.6000004863085
 30
0.0
 11
176.7499999825091
 21
858.3870588155896
 31
0.0
  0
LINE
  5
155
330
55
100
AcDbEntity
  8
0
  6
Continuous
 62
     7
100
AcDbLine
 10
176.7499999825091
 20
858.3870588155896
 30
0.0
 11
178.2499999825091
 21
858.3870588155896
 31
0.0
  0
LINE
  5
156
330
55
100
AcDbEntity
  8
0
  6
Continuous
 62
     7
100
AcDbLine
 10
178.2499999825091
 20
856.6000004863085
 30
0.0
 11
176.7499999825091
 21
856.6000004863085
 31
0.0
  0
LINE
  5
157
330
55
100
AcDbEntity
  8
0
  6
Continuous
 62
     7
100
AcDbLine
 10
178.2499999825091
 20
877.6000004863085
 30
0.0
 11
178.2499999825091
 21
872.1729079559261
 31
0.0
  0
LINE
  5
158
330
55
100
AcDbEntity
  8
0
  6
Continuous
 62
     7
100
AcDbLine
 10
176.7499999825091
 20
872.1729079559261
 30
0.0
 11
176.7499999825091
 21
877.6000004863085
 31
0.0
  0
LINE
  5
159
330
55
100
AcDbEntity
  8
0
  6
Continuous
 62
     7
100
AcDbLine
 10
176.7499999825091
 20
872.1729079559261
 30
0.0
 11
178.2499999825091
 21
872.1729079559261
 31
0.0
  0
LINE
  5
15A
330
55
100
AcDbEntity
  8
0
  6
Continuous
 62
     7
100
AcDbLine
 10
178.2499999825091
 20
872.1729079559261
 30
0.0
 11
178.2499999825091
 21
866.16202950723
 31
0.0
  0
LINE
  5
15B
330
55
100
AcDbEntity
  8
0
  6
Continuous
 62
     7
100
AcDbLine
 10
176.7499999825091
 20
866.16202950723
 30
0.0
 11
178.2499999825091
 21
866.16202950723
 31
0.0
  0
LINE
  5
15C
330
55
100
AcDbEntity
  8
0
  6
Continuous
 62
     7
100
AcDbLine
 10
178.2499999825091
 20
908.8419317699096
 30
0.0
 11
178.2499999825091
 21
877.6000004863085
 31
0.0
  0
LINE
  5
15D
330
55
100
AcDbEntity
  8
0
  6
Continuous
 62
     7
100
AcDbLine
 10
178.2499999825091
 20
877.6000004863085
 30
0.0
 11
176.7499999825091
 21
877.6000004863085
 31
0.0
  0
LINE
  5
15E
330
55
100
AcDbEntity
  8
0
  6
Continuous
 62
     7
100
AcDbLine
 10
194.4999999825091
 20
923.8321363296473
 30
0.0
 11
194.4999999825091
 21
926.1000004863085
 31
0.0
  0
LINE
  5
15F
330
55
100
AcDbEntity
  8
0
  6
Continuous
 62
     7
100
AcDbLine
 10
194.4999999825091
 20
926.1000004863085
 30
0.0
 11
194.9999999825091
 21
926.1000004863085
 31
0.0
  0
LINE
  5
160
330
55
100
AcDbEntity
  8
0
  6
Continuous
 62
     7
100
AcDbLine
 10
194.9999999825091
 20
926.1000004863085
 30
0.0
 11
194.9999999825091
 21
937.4000004863086
 31
0.0
  0
LINE
  5
161
330
55
100
AcDbEntity
  8
0
  6
Continuous
 62
     7
100
AcDbLine
 10
195.1132486365609
 20
937.4000004863086
 30
0.0
 11
194.9999999825091
 21
937.4000004863086
 31
0.0
  0
LINE
  5
162
330
55
100
AcDbEntity
  8
0
  6
Continuous
 62
     7
100
AcDbLine
 10
194.9999999825091
 20
937.4000004863086
 30
0.0
 11
192.2264972906128
 21
937.4000004863086
 31
0.0
  0
LINE
  5
163
330
55
100
AcDbEntity
  8
0
  6
Continuous
 62
     7
100
AcDbLine
 10
195.1132486365609
 20
937.4000004863086
 30
0.0
 11
195.1132486365609
 21
941.4000004863086
 31
0.0
  0
LINE
  5
164
330
55
100
AcDbEntity
  8
0
  6
Continuous
 62
     7
100
AcDbLine
 10
192.2264972906128
 20
937.4000004863086
 30
0.0
 11
192.2264972906128
 21
941.4000004863086
 31
0.0
  0
LINE
  5
165
330
55
100
AcDbEntity
  8
0
  6
Continuous
 62
     7
100
AcDbLine
 10
176.7499999825091
 20
908.8419317699096
 30
0.0
 11
176.7499999825091
 21
877.6000004863085
 31
0.0
  0
LINE
  5
166
330
55
100
AcDbEntity
  8
0
  6
Continuous
 62
     7
100
AcDbLine
 10
176.7499999825091
 20
866.16202950723
 30
0.0
 11
176.7499999825091
 21
872.1729079559261
 31
0.0
  0
LINE
  5
167
330
55
100
AcDbEntity
  8
0
  6
Continuous
 62
     7
100
AcDbLine
 10
176.7499999825091
 20
858.3870588155896
 30
0.0
 11
176.7499999825091
 21
862.9000004863086
 31
0.0
  0
LINE
  5
168
330
55
100
AcDbEntity
  8
0
  6
Continuous
 62
     7
100
AcDbLine
 10
203.7735026744053
 20
941.4000004863086
 30
0.0
 11
200.8867513284572
 21
941.4000004863086
 31
0.0
  0
LINE
  5
169
330
55
100
AcDbEntity
  8
0
  6
Continuous
 62
     7
100
AcDbLine
 10
200.8867513284572
 20
937.4000004863086
 30
0.0
 11
200.8867513284572
 21
941.4000004863086
 31
0.0
  0
LINE
  5
16A
330
55
100
AcDbEntity
  8
0
  6
Continuous
 62
     7
100
AcDbLine
 10
200.9999999825091
 20
926.1000004863085
 30
0.0
 11
200.9999999825091
 21
937.4000004863086
 31
0.0
  0
LINE
  5
16B
330
55
100
AcDbEntity
  8
1
  6
DOT_CENTER
 62
     2
100
AcDbLine
 10
197.9999999825091
 20
923.8321363296473
 30
0.0
 11
197.9999999825091
 21
937.4000004863092
 31
0.0
  0
LINE
  5
16C
330
55
100
AcDbEntity
  8
1
  6
DOT_CENTER
 62
     2
100
AcDbLine
 10
197.9999999825091
 20
909.6000004863085
 30
0.0
 11
197.9999999825091
 21
922.3896693423524
 31
0.0
  0
ARC
  5
16D
330
55
100
AcDbEntity
  8
0
  6
Continuous
 62
     7
100
AcDbCircle
 10
215.8885438025074
 20
896.6000004863085
 30
0.0
 40
2.999999999999956
100
AcDbArc
 50
211.5881355051988
 51
270.0
  0
ARC
  5
16E
330
55
100
AcDbEntity
  8
0
  6
Continuous
 62
     7
100
AcDbCircle
 10
214.2499999825091
 20
908.8419317699096
 30
0.0
 40
3.5
100
AcDbArc
 50
0.0
 51
25.47436945121559
  0
ARC
  5
16F
330
55
100
AcDbEntity
  8
0
  6
Continuous
 62
     7
100
AcDbCircle
 10
214.2499999825091
 20
908.8419317699096
 30
0.0
 40
5.0
100
AcDbArc
 50
0.0
 51
25.47436945121428
  0
ARC
  5
170
330
55
100
AcDbEntity
  8
0
  6
Continuous
 62
     7
100
AcDbCircle
 10
197.9999999825091
 20
885.6000004863085
 30
0.0
 40
21.0
100
AcDbArc
 50
22.39268780540162
 51
67.60731219459844
  0
ARC
  5
171
330
55
100
AcDbEntity
  8
0
  6
Continuous
 62
     7
100
AcDbCircle
 10
181.7499999825091
 20
908.8419317699096
 30
0.0
 40
5.00000000000002
100
AcDbArc
 50
154.5256305487859
 51
180.0
  0
ARC
  5
172
330
55
100
AcDbEntity
  8
0
  6
Continuous
 62
     7
100
AcDbCircle
 10
197.9999999825091
 20
901.1000004863085
 30
0.0
 40
21.50000000000005
100
AcDbArc
 50
81.97906712475549
 51
98.02093287524451
  0
ARC
  5
173
330
55
100
AcDbEntity
  8
0
  6
Continuous
 62
     7
100
AcDbCircle
 10
197.9999999825091
 20
901.1000004863085
 30
0.0
 40
23.0000000000001
100
AcDbArc
 50
81.24707092311749
 51
98.75292907688252
  0
ARC
  5
174
330
55
100
AcDbEntity
  8
0
  6
Continuous
 62
     7
100
AcDbCircle
 10
197.9999999825091
 20
885.6000004863085
 30
0.0
 40
21.00000000000006
100
AcDbArc
 50
67.60731219459844
 51
112.3926878054016
  0
ARC
  5
175
330
55
100
AcDbEntity
  8
0
  6
Continuous
 62
     7
100
AcDbCircle
 10
180.1114561625108
 20
896.6000004863085
 30
0.0
 40
3.0
100
AcDbArc
 50
270.0
 51
328.4118644947985
  0
ARC
  5
176
330
55
100
AcDbEntity
  8
0
  6
Continuous
 62
     7
100
AcDbCircle
 10
197.9999999825091
 20
901.1000004863085
 30
0.0
 40
21.50000000000005
100
AcDbArc
 50
98.02093287524451
 51
154.5256305487855
  0
ARC
  5
177
330
55
100
AcDbEntity
  8
0
  6
Continuous
 62
     7
100
AcDbCircle
 10
197.9999999825091
 20
885.6000004863085
 30
0.0
 40
18.00000000000002
100
AcDbArc
 50
31.58813550520161
 51
148.4118644947989
  0
ARC
  5
178
330
55
100
AcDbEntity
  8
0
  6
Continuous
 62
     7
100
AcDbCircle
 10
197.9999999825091
 20
901.1000004863085
 30
0.0
 40
21.50000000000002
100
AcDbArc
 50
25.47436945121464
 51
81.97906712475549
  0
ARC
  5
179
330
55
100
AcDbEntity
  8
0
  6
Continuous
 62
     7
100
AcDbCircle
 10
197.9999999825091
 20
901.1000004863085
 30
0.0
 40
23.00000000000001
100
AcDbArc
 50
25.47436945121441
 51
81.24707092311749
  0
ARC
  5
17A
330
55
100
AcDbEntity
  8
0
  6
Continuous
 62
     7
100
AcDbCircle
 10
197.9999999825091
 20
885.6000004863085
 30
0.0
 40
21.00000000000006
100
AcDbArc
 50
112.3926878054016
 51
157.6073121945984
  0
ARC
  5
17B
330
55
100
AcDbEntity
  8
0
  6
Continuous
 62
     7
100
AcDbCircle
 10
181.7499999825091
 20
908.8419317699096
 30
0.0
 40
3.500000000000114
100
AcDbArc
 50
154.5256305487852
 51
180.0
  0
ARC
  5
17C
330
55
100
AcDbEntity
  8
0
  6
Continuous
 62
     7
100
AcDbCircle
 10
197.9999999825091
 20
901.1000004863085
 30
0.0
 40
23.0000000000001
100
AcDbArc
 50
98.75292907688252
 51
154.5256305487856
  0
ENDBLK
  5
57
330
55
100
AcDbEntity
  8
0
100
AcDbBlockEnd
  0
BLOCK
  5
5A
330
58
100
AcDbEntity
  8
0
100
AcDbBlockBegin
  2
Rckans1
 70
     0
 10
197.999999992815
 20
898.9999999998655
 30
0.0
  3
Rckans1
  1

  0
INSERT
  5
59
330
58
100
AcDbEntity
  8
0
100
AcDbBlockReference
  2
3240258_WCC_38-select__3
 10
176.7499999825091
 20
856.6000004863085
 30
0.0
  0
MTEXT
  5
17D
330
58
100
AcDbEntity
  8
1
 62
     6
100
AcDbMText
 10
197.999999992815
 20
851.6000003813347
 30
0.0
 40
5.0
 41
0.0
 71
     2
 72
     1
  1
 
  7
CONVERTER_11
 73
     1
 44
1.32052821128451
  0
ENDBLK
  5
5B
330
58
100
AcDbEntity
  8
0
100
AcDbBlockEnd
  0
BLOCK
  5
5D
330
5C
100
AcDbEntity
  8
0
100
AcDbBlockBegin
  2
3240258_WCC_38-select__4
 70
     0
 10
98.96782716448729
 20
856.6000004863082
 30
0.0
  3
3240258_WCC_38-select__4
  1

  0
LINE
  5
17E
330
5C
100
AcDbEntity
  8
0
  6
Continuous
 62
     7
100
AcDbLine
 10
116.9678271644873
 20
941.4000004863082
 30
0.0
 11
121.9678271644873
 21
941.4000004863082
 31
0.0
  0
LINE
  5
17F
330
5C
100
AcDbEntity
  8
0
  6
Continuous
 62
     7
100
AcDbLine
 10
128.9678271644873
 20
924.1000004863082
 30
0.0
 11
120.4678271644873
 21
924.1000004863082
 31
0.0
  0
LINE
  5
180
330
5C
100
AcDbEntity
  8
0
  6
Continuous
 62
     7
100
AcDbLine
 10
113.9678271644873
 20
926.1000004863082
 30
0.0
 11
116.9678271644873
 21
926.1000004863082
 31
0.0
  0
LINE
  5
181
330
5C
100
AcDbEntity
  8
0
  6
Continuous
 62
     7
100
AcDbLine
 10
116.9678271644873
 20
937.4000004863082
 30
0.0
 11
116.9678271644873
 21
941.4000004863082
 31
0.0
  0
LINE
  5
182
330
5C
100
AcDbEntity
  8
0
  6
Continuous
 62
     7
100
AcDbLine
 10
113.4678271644873
 20
924.1000004863082
 30
0.0
 11
104.9678271644873
 21
924.1000004863082
 31
0.0
  0
LINE
  5
183
330
5C
100
AcDbEntity
  8
0
  6
Continuous
 62
     2
100
AcDbLine
 10
104.9678271644873
 20
910.9924682375761
 30
0.0
 11
128.9678271644873
 21
910.9924682375761
 31
0.0
  0
LINE
  5
184
330
5C
100
AcDbEntity
  8
0
  6
Continuous
 62
     7
100
AcDbLine
 10
104.9678271644873
 20
909.6000004863082
 30
0.0
 11
103.4678271644873
 21
909.6000004863082
 31
0.0
  0
LINE
  5
185
330
5C
100
AcDbEntity
  8
0
  6
Continuous
 62
     7
100
AcDbLine
 10
103.4678271644873
 20
905.0164883252558
 30
0.0
 11
104.9678271644873
 21
905.0164883252558
 31
0.0
  0
LINE
  5
186
330
5C
100
AcDbEntity
  8
0
  6
Continuous
 62
     7
100
AcDbLine
 10
98.96782716448729
 20
893.6000004863082
 30
0.0
 11
104.9678271644873
 21
893.6000004863082
 31
0.0
  0
LINE
  5
187
330
5C
100
AcDbEntity
  8
0
  6
Continuous
 62
     7
100
AcDbLine
 10
128.9678271644873
 20
905.0164883252558
 30
0.0
 11
130.4678271644873
 21
905.0164883252558
 31
0.0
  0
LINE
  5
188
330
5C
100
AcDbEntity
  8
0
  6
Continuous
 62
     7
100
AcDbLine
 10
103.4678271644873
 20
905.0164883252558
 30
0.0
 11
103.4678271644873
 21
906.6000004863082
 31
0.0
  0
LINE
  5
189
330
5C
100
AcDbEntity
  8
0
  6
Continuous
 62
     7
100
AcDbLine
 10
130.4678271644873
 20
906.6000004863082
 30
0.0
 11
130.4678271644873
 21
905.0164883252558
 31
0.0
  0
LINE
  5
18A
330
5C
100
AcDbEntity
  8
0
  6
Continuous
 62
     7
100
AcDbLine
 10
134.9678271644873
 20
906.6000004863082
 30
0.0
 11
134.9678271644873
 21
893.6000004863082
 31
0.0
  0
LINE
  5
18B
330
5C
100
AcDbEntity
  8
0
  6
Continuous
 62
     7
100
AcDbLine
 10
130.4678271644873
 20
906.6000004863082
 30
0.0
 11
134.9678271644873
 21
906.6000004863082
 31
0.0
  0
LINE
  5
18C
330
5C
100
AcDbEntity
  8
0
  6
Continuous
 62
     7
100
AcDbLine
 10
98.96782716448729
 20
906.6000004863082
 30
0.0
 11
98.96782716448729
 21
893.6000004863082
 31
0.0
  0
LINE
  5
18D
330
5C
100
AcDbEntity
  8
0
  6
Continuous
 62
     7
100
AcDbLine
 10
128.9678271644873
 20
893.6000004863082
 30
0.0
 11
134.9678271644873
 21
893.6000004863082
 31
0.0
  0
LINE
  5
18E
330
5C
100
AcDbEntity
  8
0
  6
Continuous
 62
     2
100
AcDbLine
 10
104.9678271644873
 20
908.8419317699091
 30
0.0
 11
128.9678271644873
 21
908.8419317699091
 31
0.0
  0
LINE
  5
18F
330
5C
100
AcDbEntity
  8
0
  6
Continuous
 62
     7
100
AcDbLine
 10
104.9678271644873
 20
910.9924682375761
 30
0.0
 11
104.9678271644873
 21
924.1000004863082
 31
0.0
  0
LINE
  5
190
330
5C
100
AcDbEntity
  8
0
  6
Continuous
 62
     7
100
AcDbLine
 10
98.96782716448729
 20
906.6000004863082
 30
0.0
 11
103.4678271644873
 21
906.6000004863082
 31
0.0
  0
LINE
  5
191
330
5C
100
AcDbEntity
  8
0
  6
Continuous
 62
     7
100
AcDbLine
 10
104.9678271644873
 20
908.8419317699091
 30
0.0
 11
104.9678271644873
 21
910.9924682375761
 31
0.0
  0
LINE
  5
192
330
5C
100
AcDbEntity
  8
0
  6
Continuous
 62
     7
100
AcDbLine
 10
103.4678271644873
 20
906.6000004863082
 30
0.0
 11
103.4678271644873
 21
909.6000004863082
 31
0.0
  0
LINE
  5
193
330
5C
100
AcDbEntity
  8
0
  6
Continuous
 62
     7
100
AcDbLine
 10
111.9678271644873
 20
937.4000004863082
 30
0.0
 11
111.9678271644873
 21
941.4000004863082
 31
0.0
  0
LINE
  5
194
330
5C
100
AcDbEntity
  8
0
  6
Continuous
 62
     7
100
AcDbLine
 10
121.9678271644873
 20
937.4000004863082
 30
0.0
 11
121.9678271644873
 21
941.4000004863082
 31
0.0
  0
LINE
  5
195
330
5C
100
AcDbEntity
  8
0
  6
Continuous
 62
     7
100
AcDbLine
 10
119.9678271644873
 20
926.1000004863082
 30
0.0
 11
119.9678271644873
 21
937.4000004863082
 31
0.0
  0
LINE
  5
196
330
5C
100
AcDbEntity
  8
0
  6
Continuous
 62
     7
100
AcDbLine
 10
104.9678271644873
 20
908.8419317699091
 30
0.0
 11
104.9678271644873
 21
877.6000004863082
 31
0.0
  0
LINE
  5
197
330
5C
100
AcDbEntity
  8
0
  6
Continuous
 62
     7
100
AcDbLine
 10
105.9678271644873
 20
862.9000004863082
 30
0.0
 11
105.9678271644873
 21
858.3870588155892
 31
0.0
  0
LINE
  5
198
330
5C
100
AcDbEntity
  8
0
  6
Continuous
 62
     7
100
AcDbLine
 10
108.7178271644873
 20
862.9000004863082
 30
0.0
 11
105.9678271644873
 21
862.9000004863082
 31
0.0
  0
LINE
  5
199
330
5C
100
AcDbEntity
  8
0
  6
Continuous
 62
     7
100
AcDbLine
 10
113.9678271644873
 20
926.1000004863082
 30
0.0
 11
113.9678271644873
 21
937.4000004863082
 31
0.0
  0
LINE
  5
19A
330
5C
100
AcDbEntity
  8
0
  6
Continuous
 62
     7
100
AcDbLine
 10
105.9678271644873
 20
858.3870588155892
 30
0.0
 11
111.4678271644873
 21
856.6000004863082
 31
0.0
  0
LINE
  5
19B
330
5C
100
AcDbEntity
  8
0
  6
Continuous
 62
     7
100
AcDbLine
 10
111.9678271644873
 20
941.4000004863082
 30
0.0
 11
116.9678271644873
 21
941.4000004863082
 31
0.0
  0
LINE
  5
19C
330
5C
100
AcDbEntity
  8
0
  6
Continuous
 62
     7
100
AcDbLine
 10
114.3678271644873
 20
866.1620295072296
 30
0.0
 11
108.7178271644873
 21
862.9000004863082
 31
0.0
  0
LINE
  5
19D
330
5C
100
AcDbEntity
  8
0
  6
Continuous
 62
     7
100
AcDbLine
 10
124.5678271644873
 20
862.9000004863082
 30
0.0
 11
124.5678271644873
 21
870.7877040170471
 31
0.0
  0
LINE
  5
19E
330
5C
100
AcDbEntity
  8
0
  6
Continuous
 62
     7
100
AcDbLine
 10
127.9678271644873
 20
862.9000004863082
 30
0.0
 11
124.5678271644873
 21
862.9000004863082
 31
0.0
  0
LINE
  5
19F
330
5C
100
AcDbEntity
  8
0
  6
Continuous
 62
     7
100
AcDbLine
 10
127.9678271644873
 20
859.7500004863082
 30
0.0
 11
127.9678271644873
 21
862.9000004863082
 31
0.0
  0
LINE
  5
1A0
330
5C
100
AcDbEntity
  8
0
  6
Continuous
 62
     7
100
AcDbLine
 10
119.9678271644873
 20
926.1000004863082
 30
0.0
 11
120.4678271644873
 21
926.1000004863082
 31
0.0
  0
LINE
  5
1A1
330
5C
100
AcDbEntity
  8
0
  6
Continuous
 62
     7
100
AcDbLine
 10
116.9678271644873
 20
926.1000004863082
 30
0.0
 11
119.9678271644873
 21
926.1000004863082
 31
0.0
  0
LINE
  5
1A2
330
5C
100
AcDbEntity
  8
0
  6
Continuous
 62
     7
100
AcDbLine
 10
120.4678271644873
 20
924.1000004863082
 30
0.0
 11
120.4678271644873
 21
926.1000004863082
 31
0.0
  0
LINE
  5
1A3
330
5C
100
AcDbEntity
  8
0
  6
Continuous
 62
     7
100
AcDbLine
 10
121.9678271644873
 20
937.4000004863082
 30
0.0
 11
119.9678271644873
 21
937.4000004863082
 31
0.0
  0
LINE
  5
1A4
330
5C
100
AcDbEntity
  8
0
  6
Continuous
 62
     7
100
AcDbLine
 10
119.9678271644873
 20
937.4000004863082
 30
0.0
 11
116.9678271644873
 21
937.4000004863082
 31
0.0
  0
LINE
  5
1A5
330
5C
100
AcDbEntity
  8
0
  6
Continuous
 62
     7
100
AcDbLine
 10
116.9678271644873
 20
856.6000004863082
 30
0.0
 11
127.9678271644873
 21
859.7500004863082
 31
0.0
  0
LINE
  5
1A6
330
5C
100
AcDbEntity
  8
0
  6
Continuous
 62
     7
100
AcDbLine
 10
128.9678271644873
 20
908.8419317699091
 30
0.0
 11
128.9678271644873
 21
873.7000004863081
 31
0.0
  0
LINE
  5
1A7
330
5C
100
AcDbEntity
  8
0
  6
Continuous
 62
     7
100
AcDbLine
 10
128.9678271644873
 20
910.9924682375761
 30
0.0
 11
128.9678271644873
 21
924.1000004863082
 31
0.0
  0
LINE
  5
1A8
330
5C
100
AcDbEntity
  8
0
  6
Continuous
 62
     7
100
AcDbLine
 10
130.4678271644873
 20
909.6000004863082
 30
0.0
 11
130.4678271644873
 21
906.6000004863082
 31
0.0
  0
LINE
  5
1A9
330
5C
100
AcDbEntity
  8
0
  6
Continuous
 62
     7
100
AcDbLine
 10
130.4678271644873
 20
909.6000004863082
 30
0.0
 11
128.9678271644873
 21
909.6000004863082
 31
0.0
  0
LINE
  5
1AA
330
5C
100
AcDbEntity
  8
0
  6
Continuous
 62
     7
100
AcDbLine
 10
128.9678271644873
 20
908.8419317699091
 30
0.0
 11
128.9678271644873
 21
910.9924682375761
 31
0.0
  0
LINE
  5
1AB
330
5C
100
AcDbEntity
  8
0
  6
Continuous
 62
     7
100
AcDbLine
 10
124.5678271644873
 20
870.7877040170471
 30
0.0
 11
128.9678271644873
 21
873.7000004863081
 31
0.0
  0
LINE
  5
1AC
330
5C
100
AcDbEntity
  8
0
  6
Continuous
 62
     7
100
AcDbLine
 10
114.3678271644873
 20
872.1729079559257
 30
0.0
 11
114.3678271644873
 21
866.1620295072296
 31
0.0
  0
LINE
  5
1AD
330
5C
100
AcDbEntity
  8
0
  6
Continuous
 62
     7
100
AcDbLine
 10
113.4678271644873
 20
924.1000004863082
 30
0.0
 11
113.4678271644873
 21
926.1000004863082
 31
0.0
  0
LINE
  5
1AE
330
5C
100
AcDbEntity
  8
0
  6
Continuous
 62
     7
100
AcDbLine
 10
113.4678271644873
 20
926.1000004863082
 30
0.0
 11
113.9678271644873
 21
926.1000004863082
 31
0.0
  0
LINE
  5
1AF
330
5C
100
AcDbEntity
  8
0
  6
Continuous
 62
     7
100
AcDbLine
 10
111.4678271644873
 20
856.6000004863082
 30
0.0
 11
116.9678271644873
 21
856.6000004863082
 31
0.0
  0
LINE
  5
1B0
330
5C
100
AcDbEntity
  8
0
  6
Continuous
 62
     7
100
AcDbLine
 10
113.9678271644873
 20
937.4000004863082
 30
0.0
 11
111.9678271644873
 21
937.4000004863082
 31
0.0
  0
LINE
  5
1B1
330
5C
100
AcDbEntity
  8
0
  6
Continuous
 62
     7
100
AcDbLine
 10
116.9678271644873
 20
937.4000004863082
 30
0.0
 11
113.9678271644873
 21
937.4000004863082
 31
0.0
  0
LINE
  5
1B2
330
5C
100
AcDbEntity
  8
0
  6
Continuous
 62
     7
100
AcDbLine
 10
104.9678271644873
 20
877.6000004863082
 30
0.0
 11
114.3678271644873
 21
872.1729079559257
 31
0.0
  0
LINE
  5
1B3
330
5C
100
AcDbEntity
  8
1
  6
DOT_CENTER
 62
     2
100
AcDbLine
 10
116.9678271644873
 20
924.1000004863082
 30
0.0
 11
116.9678271644873
 21
937.4000004863082
 31
0.0
  0
SPLINE
  5
1B4
330
5C
100
AcDbEntity
  8
0
  6
Continuous
 62
     7
100
AcDbSpline
210
0.0
220
0.0
230
1.0
 70
     8
 71
     3
 72
    17
 73
    13
 74
    11
 42
0.000000001
 43
0.0000000001
 44
0.00000001
 40
0.0
 40
0.0
 40
0.0
 40
0.0
 40
0.0337752870838428
 40
0.06755057422197
 40
0.1681125737586008
 40
0.2684785574801166
 40
0.6514798078136641
 40
1.032927596284684
 40
1.604048245160069
 40
2.172813376060044
 40
2.843738714647238
 40
3.513502626998499
 40
3.513502626998499
 40
3.513502626998499
 40
3.513502626998499
 10
113.4678271644873
 20
924.1000004863082
 30
0.0
 10
113.4789581412111
 20
924.0983112168536
 30
0.0
 10
113.5012200968424
 20
924.0949326922404
 30
0.0
 10
113.5566378577986
 20
924.0866213903313
 30
0.0
 10
113.634037911231
 20
924.0752239920477
 30
0.0
 10
113.8267217101557
 20
924.0476747003879
 30
0.0
 10
114.1124994864569
 20
924.0097271819145
 30
0.0
 10
114.55471653573
 20
923.9582307331358
 30
0.0
 10
115.0595602963894
 20
923.9096996400131
 30
0.0
 10
115.6616942597101
 20
923.8670273928007
 30
0.0
 10
116.29765252631
 20
923.8378352078776
 30
0.0
 10
116.7445646702568
 20
923.8340348534297
 30
0.0
 10
116.9678271644873
 20
923.8321363296468
 30
0.0
 11
113.4678271644873
 21
924.1000004863082
 31
0.0
 11
113.5012215631702
 21
924.0949424068406
 31
0.0
 11
113.5346229525233
 21
924.0899306984912
 31
0.0
 11
113.6341126011831
 21
924.0752840055452
 31
0.0
 11
113.7334681183579
 21
924.0610779531711
 31
0.0
 11
114.113139058476
 21
924.0106801833972
 31
0.0
 11
114.4920267843475
 21
923.9665609518065
 31
0.0
 11
115.0605361892645
 21
923.9120095794189
 31
0.0
 11
115.6278636171696
 21
923.8715946840832
 31
0.0
 11
116.2981358697548
 21
923.8419987808785
 31
0.0
 11
116.9678271644873
 21
923.8321363296468
 31
0.0
  0
SPLINE
  5
1B5
330
5C
100
AcDbEntity
  8
0
  6
Continuous
 62
     7
100
AcDbSpline
210
0.0
220
0.0
230
1.0
 70
     8
 71
     3
 72
    17
 73
    13
 74
    11
 42
0.000000001
 43
0.0000000001
 44
0.00000001
 40
0.0
 40
0.0
 40
0.0
 40
0.0
 40
0.6709419355328957
 40
1.34305159829083
 40
1.911540054761042
 40
2.482384194230105
 40
2.863414018689267
 40
3.245993844072021
 40
3.345924686130355
 40
3.445977941126517
 40
3.479740193850608
 40
3.513502446520175
 40
3.513502446520175
 40
3.513502446520175
 40
3.513502446520175
 10
116.9678271644873
 20
923.8321363296468
 30
0.0
 10
117.1914823725007
 20
923.8340415201544
 30
0.0
 10
117.639182044461
 20
923.8378552317045
 30
0.0
 10
118.2758331343889
 20
923.8671309450074
 30
0.0
 10
118.878172731799
 20
923.9098759793692
 30
0.0
 10
119.3826901389187
 20
923.9584181658926
 30
0.0
 10
119.8245341849665
 20
924.0099014302771
 30
0.0
 10
120.1098888987773
 20
924.0478070628353
 30
0.0
 10
120.3021213162772
 20
924.0752979229829
 30
0.0
 10
120.3792056648847
 20
924.0866497373773
 30
0.0
 10
120.4344471198209
 20
924.0949346425793
 30
0.0
 10
120.4567004836597
 20
924.0983118669666
 30
0.0
 10
120.4678271644873
 20
924.1000004863082
 30
0.0
 11
116.9678271644873
 21
923.8321363296468
 31
0.0
 11
117.6386960987628
 21
923.8420334896915
 31
0.0
 11
118.3101492266607
 21
923.8717335894032
 31
0.0
 11
118.8771967843064
 21
923.9121834670112
 31
0.0
 11
119.4454263977932
 21
923.9667557865444
 31
0.0
 11
119.8238959844584
 21
924.0108522623622
 31
0.0
 11
120.2031466827545
 21
924.061213267546
 31
0.0
 11
120.3020709987778
 21
924.0753608087603
 31
0.0
 11
120.4010571593759
 21
924.0899345488035
 31
0.0
 11
120.4344456545794
 21
924.0949443499063
 31
0.0
 11
120.4678271644873
 21
924.1000004863082
 31
0.0
  0
ENDBLK
  5
5E
330
5C
100
AcDbEntity
  8
0
100
AcDbBlockEnd
  0
BLOCK
  5
61
330
5F
100
AcDbEntity
  8
0
100
AcDbBlockBegin
  2
SA_Links1
 70
     0
 10
116.9678271645613
 20
898.999999999865
 30
0.0
  3
SA_Links1
  1

  0
INSERT
  5
60
330
5F
100
AcDbEntity
  8
0
100
AcDbBlockReference
  2
3240258_WCC_38-select__4
 10
98.96782716448729
 20
856.6000004863082
 30
0.0
  0
MTEXT
  5
1B6
330
5F
100
AcDbEntity
  8
1
 62
     6
100
AcDbMText
 10
116.9678271645612
 20
851.6000003813347
 30
0.0
 40
5.0
 41
0.0
 71
     2
 72
     1
  1
 
  7
CONVERTER_11
 73
     1
 44
1.32052821128451
  0
DIMENSION
  5
1C1
330
5F
100
AcDbEntity
  8
1
100
AcDbDimension
  2
*D16
 10
128.9678271644873
 20
951.4000004863082
 30
0.0
 11
116.9678271644873
 21
955.1500004863082
 31
0.0
 70
    32
  1
<>
 71
     5
 42
-1.0
 53
0.00013888888889
  3
ME10_DIM_10
100
AcDbAlignedDimension
 13
104.9678271644873
 23
924.1000004863082
 33
0.0
 14
128.9678271644873
 24
924.1000004863082
 34
0.0
100
AcDbRotatedDimension
  0
DIMENSION
  5
1CC
330
5F
100
AcDbEntity
  8
1
100
AcDbDimension
  2
*D17
 10
144.9678271644873
 20
926.1000004863082
 30
0.0
 11
141.0428271644873
 21
891.3500004863082
 31
0.0
 70
    32
  1
<>
 71
     5
 42
-1.0
 53
90.0
  3
ME10_DIM_11
100
AcDbAlignedDimension
 13
116.9678271644873
 23
856.6000004863082
 33
0.0
 14
120.4678271644873
 24
926.1000004863082
 34
0.0
 50
90.0
100
AcDbRotatedDimension
  0
DIMENSION
  5
1D7
330
5F
100
AcDbEntity
  8
1
100
AcDbDimension
  2
*D18
 10
134.9678271644873
 20
959.4000004863082
 30
0.0
 11
116.9678271644873
 21
963.1500004863082
 31
0.0
 70
    32
  1
<>
 71
     5
 42
-1.0
 53
0.00013888888889
  3
ME10_DIM_12
100
AcDbAlignedDimension
 13
98.96782716448729
 23
906.6000004863082
 33
0.0
 14
134.9678271644873
 24
906.6000004863082
 34
0.0
100
AcDbRotatedDimension
  0
DIMENSION
  5
1E2
330
5F
100
AcDbEntity
  8
1
100
AcDbDimension
  2
*D19
 10
152.9678271644873
 20
941.4000004863082
 30
0.0
 11
149.0428271644873
 21
899.0000004863082
 31
0.0
 70
    32
  1
<>
 71
     5
 42
-1.0
 53
90.0
  3
ME10_DIM_13
100
AcDbAlignedDimension
 13
116.9678271644873
 23
856.6000004863082
 33
0.0
 14
121.9678271644873
 24
941.4000004863082
 34
0.0
 50
90.0
100
AcDbRotatedDimension
  0
ENDBLK
  5
62
330
5F
100
AcDbEntity
  8
0
100
AcDbBlockEnd
  0
BLOCK
  5
64
330
63
100
AcDbEntity
  8
0
100
AcDbBlockBegin
  2
3240258_WCC_38-select__5
 70
     0
 10
-23.09651850627798
 20
856.6000004863088
 30
0.0
  3
3240258_WCC_38-select__5
  1

  0
LINE
  5
1E3
330
63
100
AcDbEntity
  8
0
  6
Continuous
 62
     7
100
AcDbLine
 10
-17.09651850627796
 20
924.1000004863088
 30
0.0
 11
-8.59651850627796
 21
924.1000004863088
 31
0.0
  0
LINE
  5
1E4
330
63
100
AcDbEntity
  8
0
  6
Continuous
 62
     7
100
AcDbLine
 10
-2.09651850627796
 20
926.1000004863088
 30
0.0
 11
-1.59651850627796
 21
926.1000004863088
 31
0.0
  0
LINE
  5
1E5
330
63
100
AcDbEntity
  8
0
  6
Continuous
 62
     7
100
AcDbLine
 10
-8.09651850627796
 20
926.1000004863088
 30
0.0
 11
-2.09651850627796
 21
926.1000004863088
 31
0.0
  0
LINE
  5
1E6
330
63
100
AcDbEntity
  8
0
  6
Continuous
 62
     7
100
AcDbLine
 10
-10.09651850627796
 20
941.4000004863087
 30
0.0
 11
-5.09651850627796
 21
941.4000004863087
 31
0.0
  0
LINE
  5
1E7
330
63
100
AcDbEntity
  8
0
  6
Continuous
 62
     7
100
AcDbLine
 10
-5.09651850627796
 20
941.4000004863087
 30
0.0
 11
-0.09651850627796
 21
941.4000004863087
 31
0.0
  0
LINE
  5
1E8
330
63
100
AcDbEntity
  8
0
  6
Continuous
 62
     7
100
AcDbLine
 10
-1.59651850627796
 20
924.1000004863088
 30
0.0
 11
6.90348149372204
 21
924.1000004863088
 31
0.0
  0
LINE
  5
1E9
330
63
100
AcDbEntity
  8
0
  6
Continuous
 62
     7
100
AcDbLine
 10
-8.09651850627796
 20
926.1000004863088
 30
0.0
 11
-8.09651850627796
 21
937.4000004863087
 31
0.0
  0
LINE
  5
1EA
330
63
100
AcDbEntity
  8
0
  6
Continuous
 62
     7
100
AcDbLine
 10
-2.09651850627796
 20
926.1000004863088
 30
0.0
 11
-2.09651850627796
 21
937.4000004863087
 31
0.0
  0
LINE
  5
1EB
330
63
100
AcDbEntity
  8
0
  6
Continuous
 62
     7
100
AcDbLine
 10
-5.09651850627796
 20
937.4000004863087
 30
0.0
 11
-5.09651850627796
 21
941.4000004863087
 31
0.0
  0
LINE
  5
1EC
330
63
100
AcDbEntity
  8
0
  6
Continuous
 62
     7
100
AcDbLine
 10
3.15348149372204
 20
862.9000004863087
 30
0.0
 11
-2.49651850627797
 21
866.16202950723
 31
0.0
  0
LINE
  5
1ED
330
63
100
AcDbEntity
  8
0
  6
Continuous
 62
     7
100
AcDbLine
 10
-8.59651850627796
 20
926.1000004863088
 30
0.0
 11
-8.09651850627796
 21
926.1000004863088
 31
0.0
  0
LINE
  5
1EE
330
63
100
AcDbEntity
  8
0
  6
Continuous
 62
     7
100
AcDbLine
 10
-8.59651850627796
 20
924.1000004863088
 30
0.0
 11
-8.59651850627796
 21
926.1000004863088
 31
0.0
  0
LINE
  5
1EF
330
63
100
AcDbEntity
  8
0
  6
Continuous
 62
     7
100
AcDbLine
 10
-8.09651850627796
 20
937.4000004863087
 30
0.0
 11
-10.09651850627796
 21
937.4000004863087
 31
0.0
  0
LINE
  5
1F0
330
63
100
AcDbEntity
  8
0
  6
Continuous
 62
     7
100
AcDbLine
 10
-5.09651850627796
 20
937.4000004863087
 30
0.0
 11
-8.09651850627796
 21
937.4000004863087
 31
0.0
  0
LINE
  5
1F1
330
63
100
AcDbEntity
  8
0
  6
Continuous
 62
     7
100
AcDbLine
 10
-16.09651850627797
 20
859.7500004863086
 30
0.0
 11
-5.09651850627794
 21
856.6000004863088
 31
0.0
  0
LINE
  5
1F2
330
63
100
AcDbEntity
  8
0
  6
Continuous
 62
     7
100
AcDbLine
 10
-16.09651850627797
 20
862.9000004863087
 30
0.0
 11
-16.09651850627797
 21
859.7500004863086
 31
0.0
  0
LINE
  5
1F3
330
63
100
AcDbEntity
  8
0
  6
Continuous
 62
     7
100
AcDbLine
 10
-10.09651850627796
 20
941.4000004863087
 30
0.0
 11
-10.09651850627796
 21
937.4000004863087
 31
0.0
  0
LINE
  5
1F4
330
63
100
AcDbEntity
  8
0
  6
Continuous
 62
     7
100
AcDbLine
 10
-12.69651850627798
 20
862.9000004863087
 30
0.0
 11
-16.09651850627797
 21
862.9000004863087
 31
0.0
  0
LINE
  5
1F5
330
63
100
AcDbEntity
  8
0
  6
Continuous
 62
     7
100
AcDbLine
 10
-12.69651850627798
 20
870.7877040170476
 30
0.0
 11
-12.69651850627798
 21
862.9000004863087
 31
0.0
  0
LINE
  5
1F6
330
63
100
AcDbEntity
  8
0
  6
Continuous
 62
     7
100
AcDbLine
 10
-17.09651850627796
 20
924.1000004863088
 30
0.0
 11
-17.09651850627796
 21
910.9924682375768
 31
0.0
  0
LINE
  5
1F7
330
63
100
AcDbEntity
  8
0
  6
Continuous
 62
     7
100
AcDbLine
 10
-17.09651850627797
 20
893.6000004863087
 30
0.0
 11
-17.09651850627797
 21
873.7000004863087
 31
0.0
  0
LINE
  5
1F8
330
63
100
AcDbEntity
  8
0
  6
Continuous
 62
     7
100
AcDbLine
 10
-17.09651850627797
 20
873.7000004863087
 30
0.0
 11
-12.69651850627798
 21
870.7877040170476
 31
0.0
  0
LINE
  5
1F9
330
63
100
AcDbEntity
  8
0
  6
Continuous
 62
     7
100
AcDbLine
 10
5.90348149372203
 20
858.3870588155897
 30
0.0
 11
5.90348149372203
 21
862.9000004863087
 31
0.0
  0
LINE
  5
1FA
330
63
100
AcDbEntity
  8
0
  6
Continuous
 62
     7
100
AcDbLine
 10
5.90348149372203
 20
862.9000004863087
 30
0.0
 11
3.15348149372204
 21
862.9000004863087
 31
0.0
  0
LINE
  5
1FB
330
63
100
AcDbEntity
  8
0
  6
Continuous
 62
     7
100
AcDbLine
 10
-0.09651850627796
 20
937.4000004863087
 30
0.0
 11
-0.09651850627796
 21
941.4000004863087
 31
0.0
  0
LINE
  5
1FC
330
63
100
AcDbEntity
  8
0
  6
Continuous
 62
     7
100
AcDbLine
 10
0.40348149372204
 20
856.6000004863088
 30
0.0
 11
5.90348149372203
 21
858.3870588155897
 31
0.0
  0
LINE
  5
1FD
330
63
100
AcDbEntity
  8
0
  6
Continuous
 62
     7
100
AcDbLine
 10
6.90348149372204
 20
924.1000004863088
 30
0.0
 11
6.90348149372204
 21
910.9924682375768
 31
0.0
  0
LINE
  5
1FE
330
63
100
AcDbEntity
  8
0
  6
Continuous
 62
     7
100
AcDbLine
 10
6.90348149372203
 20
893.6000004863087
 30
0.0
 11
6.90348149372203
 21
877.6000004863088
 31
0.0
  0
LINE
  5
1FF
330
63
100
AcDbEntity
  8
0
  6
Continuous
 62
     7
100
AcDbLine
 10
-1.59651850627796
 20
924.1000004863088
 30
0.0
 11
-1.59651850627796
 21
926.1000004863088
 31
0.0
  0
LINE
  5
200
330
63
100
AcDbEntity
  8
0
  6
Continuous
 62
     7
100
AcDbLine
 10
0.40348149372204
 20
856.6000004863088
 30
0.0
 11
-5.09651850627794
 21
856.6000004863088
 31
0.0
  0
LINE
  5
201
330
63
100
AcDbEntity
  8
0
  6
Continuous
 62
     7
100
AcDbLine
 10
-0.09651850627796
 20
937.4000004863087
 30
0.0
 11
-2.09651850627796
 21
937.4000004863087
 31
0.0
  0
LINE
  5
202
330
63
100
AcDbEntity
  8
0
  6
Continuous
 62
     7
100
AcDbLine
 10
-2.09651850627796
 20
937.4000004863087
 30
0.0
 11
-5.09651850627796
 21
937.4000004863087
 31
0.0
  0
LINE
  5
203
330
63
100
AcDbEntity
  8
0
  6
Continuous
 62
     7
100
AcDbLine
 10
-2.49651850627797
 20
866.16202950723
 30
0.0
 11
-2.49651850627797
 21
872.1729079559262
 31
0.0
  0
LINE
  5
204
330
63
100
AcDbEntity
  8
0
  6
Continuous
 62
     7
100
AcDbLine
 10
-23.09651850627798
 20
893.6000004863087
 30
0.0
 11
-23.09651850627797
 21
906.6000004863087
 31
0.0
  0
LINE
  5
205
330
63
100
AcDbEntity
  8
0
  6
Continuous
 62
     7
100
AcDbLine
 10
-18.59651850627796
 20
905.0164883252563
 30
0.0
 11
-18.59651850627797
 21
906.6000004863087
 31
0.0
  0
LINE
  5
206
330
63
100
AcDbEntity
  8
0
  6
Continuous
 62
     7
100
AcDbLine
 10
-18.59651850627797
 20
906.6000004863087
 30
0.0
 11
-18.59651850627796
 21
909.6000004863087
 31
0.0
  0
LINE
  5
207
330
63
100
AcDbEntity
  8
0
  6
Continuous
 62
     7
100
AcDbLine
 10
-18.59651850627797
 20
906.6000004863087
 30
0.0
 11
-23.09651850627797
 21
906.6000004863087
 31
0.0
  0
LINE
  5
208
330
63
100
AcDbEntity
  8
0
  6
Continuous
 62
     7
100
AcDbLine
 10
-17.09651850627797
 20
893.6000004863087
 30
0.0
 11
-23.09651850627798
 21
893.6000004863087
 31
0.0
  0
LINE
  5
209
330
63
100
AcDbEntity
  8
0
  6
Continuous
 62
     7
100
AcDbLine
 10
-17.09651850627796
 20
910.9924682375768
 30
0.0
 11
-17.09651850627796
 21
909.6000004863087
 31
0.0
  0
LINE
  5
20A
330
63
100
AcDbEntity
  8
0
  6
Continuous
 62
     7
100
AcDbLine
 10
-17.09651850627797
 20
908.8419317699097
 30
0.0
 11
-17.09651850627797
 21
893.6000004863087
 31
0.0
  0
LINE
  5
20B
330
63
100
AcDbEntity
  8
0
  6
Continuous
 62
     7
100
AcDbLine
 10
-17.09651850627796
 20
909.6000004863087
 30
0.0
 11
-17.09651850627797
 21
908.8419317699097
 31
0.0
  0
LINE
  5
20C
330
63
100
AcDbEntity
  8
0
  6
Continuous
 62
     2
100
AcDbLine
 10
6.90348149372204
 20
910.9924682375768
 30
0.0
 11
-17.09651850627796
 21
910.9924682375768
 31
0.0
  0
LINE
  5
20D
330
63
100
AcDbEntity
  8
0
  6
Continuous
 62
     7
100
AcDbLine
 10
-17.09651850627796
 20
909.6000004863087
 30
0.0
 11
-18.59651850627796
 21
909.6000004863087
 31
0.0
  0
LINE
  5
20E
330
63
100
AcDbEntity
  8
0
  6
Continuous
 62
     7
100
AcDbLine
 10
-17.09651850627796
 20
905.0164883252563
 30
0.0
 11
-18.59651850627796
 21
905.0164883252563
 31
0.0
  0
LINE
  5
20F
330
63
100
AcDbEntity
  8
0
  6
Continuous
 62
     2
100
AcDbLine
 10
6.90348149372203
 20
908.8419317699097
 30
0.0
 11
-17.09651850627797
 21
908.8419317699097
 31
0.0
  0
LINE
  5
210
330
63
100
AcDbEntity
  8
0
  6
Continuous
 62
     7
100
AcDbLine
 10
12.90348149372203
 20
893.6000004863087
 30
0.0
 11
12.90348149372204
 21
906.6000004863087
 31
0.0
  0
LINE
  5
211
330
63
100
AcDbEntity
  8
0
  6
Continuous
 62
     7
100
AcDbLine
 10
8.40348149372204
 20
909.6000004863087
 30
0.0
 11
6.90348149372206
 21
909.6000004863087
 31
0.0
  0
LINE
  5
212
330
63
100
AcDbEntity
  8
0
  6
Continuous
 62
     7
100
AcDbLine
 10
6.90348149372203
 20
908.8419317699097
 30
0.0
 11
6.90348149372204
 21
910.9924682375768
 31
0.0
  0
LINE
  5
213
330
63
100
AcDbEntity
  8
0
  6
Continuous
 62
     7
100
AcDbLine
 10
8.40348149372204
 20
905.0164883252563
 30
0.0
 11
6.90348149372203
 21
905.0164883252563
 31
0.0
  0
LINE
  5
214
330
63
100
AcDbEntity
  8
0
  6
Continuous
 62
     7
100
AcDbLine
 10
12.90348149372203
 20
893.6000004863087
 30
0.0
 11
6.90348149372203
 21
893.6000004863087
 31
0.0
  0
LINE
  5
215
330
63
100
AcDbEntity
  8
0
  6
Continuous
 62
     7
100
AcDbLine
 10
8.40348149372204
 20
906.6000004863087
 30
0.0
 11
8.40348149372204
 21
905.0164883252563
 31
0.0
  0
LINE
  5
216
330
63
100
AcDbEntity
  8
0
  6
Continuous
 62
     7
100
AcDbLine
 10
8.40348149372204
 20
909.6000004863087
 30
0.0
 11
8.40348149372204
 21
906.6000004863087
 31
0.0
  0
LINE
  5
217
330
63
100
AcDbEntity
  8
0
  6
Continuous
 62
     7
100
AcDbLine
 10
12.90348149372204
 20
906.6000004863087
 30
0.0
 11
8.40348149372204
 21
906.6000004863087
 31
0.0
  0
LINE
  5
218
330
63
100
AcDbEntity
  8
0
  6
Continuous
 62
     7
100
AcDbLine
 10
6.90348149372203
 20
908.8419317699097
 30
0.0
 11
6.90348149372203
 21
893.6000004863087
 31
0.0
  0
LINE
  5
219
330
63
100
AcDbEntity
  8
0
  6
Continuous
 62
     7
100
AcDbLine
 10
-2.49651850627797
 20
872.1729079559262
 30
0.0
 11
6.90348149372203
 21
877.6000004863088
 31
0.0
  0
LINE
  5
21A
330
63
100
AcDbEntity
  8
1
  6
DOT_CENTER
 62
     2
100
AcDbLine
 10
-5.09651850627796
 20
924.1000004863088
 30
0.0
 11
-5.09651850627796
 21
937.4000004863087
 31
0.0
  0
SPLINE
  5
21B
330
63
100
AcDbEntity
  8
0
  6
Continuous
 62
     7
100
AcDbSpline
210
0.0
220
0.0
230
1.0
 70
     8
 71
     3
 72
    23
 73
    19
 74
    17
 42
0.000000001
 43
0.0000000001
 44
0.00000001
 40
0.0
 40
0.0
 40
0.0
 40
0.0
 40
0.078406673389731
 40
0.156813346767735
 40
0.38654639954983
 40
0.6156529475838705
 40
1.25308194272901
 40
1.887067789970887
 40
2.7007957681618
 40
3.512455065028729
 40
4.324448704959187
 40
5.138508793157532
 40
5.771633298996832
 40
6.408188360032724
 40
6.638222291882932
 40
6.868867008693323
 40
6.947894796323219
 40
7.026922583965005
 40
7.026922583965005
 40
7.026922583965005
 40
7.026922583965005
 10
-8.59651850627796
 20
924.1000004863088
 30
0.0
 10
-8.570676724814533
 20
924.0960926572709
 30
0.0
 10
-8.51899315973836
 20
924.0882770135006
 30
0.0
 10
-8.391515313316043
 20
924.0695295176629
 30
0.0
 10
-8.214179524293243
 20
924.0445584962947
 30
0.0
 10
-7.851848651878058
 20
923.9970949576837
 30
0.0
 10
-7.354746117316903
 20
923.9411341880315
 30
0.0
 10
-6.662124479357329
 20
923.8821718520046
 30
0.0
 10
-5.909914629845763
 20
923.841852616958
 30
0.0
 10
-5.09741349024242
 20
923.827300377229
 30
0.0
 10
-4.284800305833951
 20
923.8417886453753
 30
0.0
 10
-3.532652513575592
 20
923.8820548076602
 30
0.0
 10
-2.840492685804561
 20
923.9409243922587
 30
0.0
 10
-2.343651715299952
 20
923.9967992756556
 30
0.0
 10
-1.98099661704585
 20
924.0442649159663
 30
0.0
 10
-1.802846998644921
 20
924.0693378536421
 30
0.0
 10
-1.674658073395195
 20
924.0881847170799
 30
0.0
 10
-1.622565027933979
 20
924.0960618917975
 30
0.0
 10
-1.59651850627796
 20
924.1000004863088
 30
0.0
 11
-8.59651850627796
 21
924.1000004863088
 31
0.0
 11
-8.51898531494456
 21
924.0883295531789
 31
0.0
 11
-8.441414826627494
 21
924.076909142472
 31
0.0
 11
-8.213923267149912
 21
924.0448956144872
 31
0.0
 11
-7.986757609343293
 21
924.0151370137852
 31
0.0
 11
-7.353323153209011
 21
923.9438873537927
 31
0.0
 11
-6.721618763116559
 21
923.8901507895598
 31
0.0
 11
-5.90905418636139
 21
923.8466533001056
 31
0.0
 11
-5.097524721174743
 21
923.8321363519169
 31
0.0
 11
-4.28565979163931
 21
923.8465934587762
 31
0.0
 11
-3.472760712241652
 21
923.8900551017258
 31
0.0
 11
-2.841910464882494
 21
923.9436704502249
 31
0.0
 11
-2.209336506935514
 21
924.0147516282549
 31
0.0
 11
-1.981248054351671
 21
924.0446057343522
 31
0.0
 11
-1.752851463251631
 21
924.0767302208601
 31
0.0
 11
-1.674666042318943
 21
924.0882380955359
 31
0.0
 11
-1.59651850627796
 21
924.1000004863088
 31
0.0
  0
ENDBLK
  5
65
330
63
100
AcDbEntity
  8
0
100
AcDbBlockEnd
  0
BLOCK
  5
68
330
66
100
AcDbEntity
  8
0
100
AcDbBlockBegin
  2
SA_Rechts1
 70
     0
 10
-5.09651850635194
 20
898.9999999998656
 30
0.0
  3
SA_Rechts1
  1

  0
INSERT
  5
67
330
66
100
AcDbEntity
  8
0
100
AcDbBlockReference
  2
3240258_WCC_38-select__5
 10
-23.09651850627798
 20
856.6000004863088
 30
0.0
  0
MTEXT
  5
21C
330
66
100
AcDbEntity
  8
1
 62
     6
100
AcDbMText
 10
-5.09651850635191
 20
851.6000003813347
 30
0.0
 40
5.0
 41
0.0
 71
     2
 72
     1
  1
 
  7
CONVERTER_11
 73
     1
 44
1.32052821128451
  0
ENDBLK
  5
69
330
66
100
AcDbEntity
  8
0
100
AcDbBlockEnd
  0
BLOCK
  5
6B
330
6A
100
AcDbEntity
  8
0
100
AcDbBlockBegin
  2
3240258_WCC_38-select__6
 70
     0
 10
34.68565434659742
 20
856.6000004863085
 30
0.0
  3
3240258_WCC_38-select__6
  1

  0
LINE
  5
21D
330
6A
100
AcDbEntity
  8
0
  6
Continuous
 62
     7
100
AcDbLine
 10
53.04890300064922
 20
937.4000004863086
 30
0.0
 11
53.04890300064922
 21
941.4000004863086
 31
0.0
  0
LINE
  5
21E
330
6A
100
AcDbEntity
  8
0
  6
Continuous
 62
     7
100
AcDbLine
 10
52.43565434659742
 20
926.1000004863085
 30
0.0
 11
52.93565434659742
 21
926.1000004863085
 31
0.0
  0
LINE
  5
21F
330
6A
100
AcDbEntity
  8
0
  6
Continuous
 62
     7
100
AcDbLine
 10
52.93565434659742
 20
926.1000004863085
 30
0.0
 11
58.93565434659742
 21
926.1000004863085
 31
0.0
  0
LINE
  5
220
330
6A
100
AcDbEntity
  8
0
  6
Continuous
 62
     7
100
AcDbLine
 10
52.43565434659742
 20
923.8321363296473
 30
0.0
 11
52.43565434659742
 21
926.1000004863085
 31
0.0
  0
LINE
  5
221
330
6A
100
AcDbEntity
  8
0
  6
Continuous
 62
     7
100
AcDbLine
 10
58.93565434659742
 20
926.1000004863085
 30
0.0
 11
58.93565434659742
 21
937.4000004863086
 31
0.0
  0
LINE
  5
222
330
6A
100
AcDbEntity
  8
0
  6
Continuous
 62
     7
100
AcDbLine
 10
52.93565434659742
 20
926.1000004863085
 30
0.0
 11
52.93565434659742
 21
937.4000004863086
 31
0.0
  0
LINE
  5
223
330
6A
100
AcDbEntity
  8
0
  6
Continuous
 62
     7
100
AcDbLine
 10
58.93565434659742
 20
909.6000004863085
 30
0.0
 11
58.93565434659742
 21
922.3896693423524
 31
0.0
  0
LINE
  5
224
330
6A
100
AcDbEntity
  8
0
  6
Continuous
 62
     7
100
AcDbLine
 10
52.93565434659742
 20
909.6000004863085
 30
0.0
 11
52.93565434659742
 21
922.3896693423524
 31
0.0
  0
LINE
  5
225
330
6A
100
AcDbEntity
  8
0
  6
Continuous
 62
     7
100
AcDbLine
 10
47.93565434659742
 20
909.6000004863085
 30
0.0
 11
52.93565434659742
 21
909.6000004863085
 31
0.0
  0
LINE
  5
226
330
6A
100
AcDbEntity
  8
0
  6
Continuous
 62
     7
100
AcDbLine
 10
58.93565434659742
 20
909.6000004863085
 30
0.0
 11
63.93565434659742
 21
909.6000004863085
 31
0.0
  0
LINE
  5
227
330
6A
100
AcDbEntity
  8
0
  6
Continuous
 62
     7
100
AcDbLine
 10
52.93565434659742
 20
909.6000004863085
 30
0.0
 11
58.93565434659742
 21
909.6000004863085
 31
0.0
  0
LINE
  5
228
330
6A
100
AcDbEntity
  8
0
  6
Continuous
 62
     7
100
AcDbLine
 10
58.93565434659742
 20
937.4000004863086
 30
0.0
 11
58.8224056925455
 21
937.4000004863086
 31
0.0
  0
LINE
  5
229
330
6A
100
AcDbEntity
  8
0
  6
Continuous
 62
     7
100
AcDbLine
 10
53.04890300064922
 20
937.4000004863086
 30
0.0
 11
52.93565434659742
 21
937.4000004863086
 31
0.0
  0
LINE
  5
22A
330
6A
100
AcDbEntity
  8
0
  6
Continuous
 62
     7
100
AcDbLine
 10
52.93565434659742
 20
937.4000004863086
 30
0.0
 11
50.16215165470112
 21
937.4000004863086
 31
0.0
  0
LINE
  5
22B
330
6A
100
AcDbEntity
  8
0
  6
Continuous
 62
     7
100
AcDbLine
 10
61.70915703849362
 20
937.4000004863086
 30
0.0
 11
58.93565434659742
 21
937.4000004863086
 31
0.0
  0
LINE
  5
22C
330
6A
100
AcDbEntity
  8
0
  6
Continuous
 62
     7
100
AcDbLine
 10
58.8224056925455
 20
937.4000004863086
 30
0.0
 11
53.04890300064922
 21
937.4000004863086
 31
0.0
  0
LINE
  5
22D
330
6A
100
AcDbEntity
  8
0
  6
Continuous
 62
     7
100
AcDbLine
 10
53.04890300064922
 20
941.4000004863086
 30
0.0
 11
50.16215165470112
 21
941.4000004863086
 31
0.0
  0
LINE
  5
22E
330
6A
100
AcDbEntity
  8
0
  6
Continuous
 62
     7
100
AcDbLine
 10
77.18565434659742
 20
859.7500004863086
 30
0.0
 11
77.18565434659742
 21
856.6000004863085
 31
0.0
  0
LINE
  5
22F
330
6A
100
AcDbEntity
  8
0
  6
Continuous
 62
     7
100
AcDbLine
 10
77.18565434659742
 20
856.6000004863085
 30
0.0
 11
75.68565434659742
 21
856.6000004863085
 31
0.0
  0
LINE
  5
230
330
6A
100
AcDbEntity
  8
0
  6
Continuous
 62
     7
100
AcDbLine
 10
75.68565434659742
 20
859.7500004863086
 30
0.0
 11
75.68565434659742
 21
862.9000004863086
 31
0.0
  0
LINE
  5
231
330
6A
100
AcDbEntity
  8
0
  6
Continuous
 62
     7
100
AcDbLine
 10
77.18565434659742
 20
862.9000004863086
 30
0.0
 11
77.18565434659742
 21
859.7500004863086
 31
0.0
  0
LINE
  5
232
330
6A
100
AcDbEntity
  8
0
  6
Continuous
 62
     7
100
AcDbLine
 10
75.68565434659742
 20
859.7500004863086
 30
0.0
 11
77.18565434659742
 21
859.7500004863086
 31
0.0
  0
LINE
  5
233
330
6A
100
AcDbEntity
  8
0
  6
Continuous
 62
     7
100
AcDbLine
 10
75.68565434659742
 20
870.7877040170476
 30
0.0
 11
75.68565434659742
 21
873.7000004863086
 31
0.0
  0
LINE
  5
234
330
6A
100
AcDbEntity
  8
0
  6
Continuous
 62
     7
100
AcDbLine
 10
77.18565434659742
 20
873.7000004863086
 30
0.0
 11
77.18565434659742
 21
870.7877040170476
 31
0.0
  0
LINE
  5
235
330
6A
100
AcDbEntity
  8
0
  6
Continuous
 62
     7
100
AcDbLine
 10
77.18565434659742
 20
870.7877040170476
 30
0.0
 11
75.68565434659742
 21
870.7877040170476
 31
0.0
  0
LINE
  5
236
330
6A
100
AcDbEntity
  8
0
  6
Continuous
 62
     7
100
AcDbLine
 10
77.18565434659742
 20
862.9000004863086
 30
0.0
 11
75.68565434659742
 21
862.9000004863086
 31
0.0
  0
LINE
  5
237
330
6A
100
AcDbEntity
  8
0
  6
Continuous
 62
     7
100
AcDbLine
 10
75.68565434659742
 20
908.8419317699096
 30
0.0
 11
75.68565434659742
 21
873.7000004863086
 31
0.0
  0
LINE
  5
238
330
6A
100
AcDbEntity
  8
0
  6
Continuous
 62
     7
100
AcDbLine
 10
77.18565434659742
 20
908.8419317699096
 30
0.0
 11
77.18565434659742
 21
873.7000004863086
 31
0.0
  0
LINE
  5
239
330
6A
100
AcDbEntity
  8
0
  6
Continuous
 62
     7
100
AcDbLine
 10
75.68565434659742
 20
873.7000004863086
 30
0.0
 11
77.18565434659742
 21
873.7000004863086
 31
0.0
  0
LINE
  5
23A
330
6A
100
AcDbEntity
  8
0
  6
Continuous
 62
     7
100
AcDbLine
 10
73.8241981665957
 20
893.6000004863085
 30
0.0
 11
75.35214218554502
 21
893.6000004863085
 31
0.0
  0
LINE
  5
23B
330
6A
100
AcDbEntity
  8
0
  6
Continuous
 62
     7
100
AcDbLine
 10
58.93565434659742
 20
926.1000004863085
 30
0.0
 11
59.43565434659742
 21
926.1000004863085
 31
0.0
  0
LINE
  5
23C
330
6A
100
AcDbEntity
  8
0
  6
Continuous
 62
     7
100
AcDbLine
 10
58.8224056925455
 20
937.4000004863086
 30
0.0
 11
58.8224056925455
 21
941.4000004863086
 31
0.0
  0
LINE
  5
23D
330
6A
100
AcDbEntity
  8
0
  6
Continuous
 62
     7
100
AcDbLine
 10
61.70915703849362
 20
937.4000004863086
 30
0.0
 11
61.70915703849362
 21
941.4000004863086
 31
0.0
  0
LINE
  5
23E
330
6A
100
AcDbEntity
  8
0
  6
Continuous
 62
     7
100
AcDbLine
 10
63.93565434659742
 20
905.0164883252562
 30
0.0
 11
63.93565434659742
 21
909.6000004863085
 31
0.0
  0
LINE
  5
23F
330
6A
100
AcDbEntity
  8
0
  6
Continuous
 62
     7
100
AcDbLine
 10
59.43565434659742
 20
923.8321363296473
 30
0.0
 11
59.43565434659742
 21
926.1000004863085
 31
0.0
  0
LINE
  5
240
330
6A
100
AcDbEntity
  8
0
  6
Continuous
 62
     7
100
AcDbLine
 10
75.68565434659742
 20
862.9000004863086
 30
0.0
 11
75.68565434659742
 21
870.7877040170476
 31
0.0
  0
LINE
  5
241
330
6A
100
AcDbEntity
  8
0
  6
Continuous
 62
     7
100
AcDbLine
 10
77.18565434659742
 20
870.7877040170476
 30
0.0
 11
77.18565434659742
 21
862.9000004863086
 31
0.0
  0
LINE
  5
242
330
6A
100
AcDbEntity
  8
0
  6
Continuous
 62
     7
100
AcDbLine
 10
75.68565434659742
 20
856.6000004863085
 30
0.0
 11
75.68565434659742
 21
859.7500004863086
 31
0.0
  0
LINE
  5
243
330
6A
100
AcDbEntity
  8
0
  6
Continuous
 62
     7
100
AcDbLine
 10
55.13565434659741
 20
941.4000004863086
 30
0.0
 11
53.04890300064922
 21
941.4000004863086
 31
0.0
  0
LINE
  5
244
330
6A
100
AcDbEntity
  8
0
  6
Continuous
 62
     7
100
AcDbLine
 10
55.13565434659741
 20
941.4000004863086
 30
0.0
 11
55.13565434659741
 21
939.8000004863086
 31
0.0
  0
LINE
  5
245
330
6A
100
AcDbEntity
  8
0
  6
Continuous
 62
     7
100
AcDbLine
 10
55.13565434659741
 20
939.8000004863086
 30
0.0
 11
56.7356543465974
 21
939.8000004863086
 31
0.0
  0
LINE
  5
246
330
6A
100
AcDbEntity
  8
0
  6
Continuous
 62
     7
100
AcDbLine
 10
56.7356543465974
 20
939.8000004863086
 30
0.0
 11
56.7356543465974
 21
941.4000004863086
 31
0.0
  0
LINE
  5
247
330
6A
100
AcDbEntity
  8
0
  6
Continuous
 62
     7
100
AcDbLine
 10
58.8224056925455
 20
941.4000004863086
 30
0.0
 11
56.7356543465974
 21
941.4000004863086
 31
0.0
  0
LINE
  5
248
330
6A
100
AcDbEntity
  8
0
  6
Continuous
 62
     7
100
AcDbLine
 10
61.70915703849362
 20
941.4000004863086
 30
0.0
 11
58.8224056925455
 21
941.4000004863086
 31
0.0
  0
LINE
  5
249
330
6A
100
AcDbEntity
  8
0
  6
Continuous
 62
     7
100
AcDbLine
 10
36.18565434659742
 20
859.7500004863086
 30
0.0
 11
36.18565434659742
 21
856.6000004863085
 31
0.0
  0
LINE
  5
24A
330
6A
100
AcDbEntity
  8
0
  6
Continuous
 62
     7
100
AcDbLine
 10
36.18565434659742
 20
856.6000004863085
 30
0.0
 11
34.68565434659742
 21
856.6000004863085
 31
0.0
  0
LINE
  5
24B
330
6A
100
AcDbEntity
  8
0
  6
Continuous
 62
     7
100
AcDbLine
 10
34.68565434659742
 20
856.6000004863085
 30
0.0
 11
34.68565434659742
 21
859.7500004863086
 31
0.0
  0
LINE
  5
24C
330
6A
100
AcDbEntity
  8
0
  6
Continuous
 62
     7
100
AcDbLine
 10
34.68565434659742
 20
870.7877040170476
 30
0.0
 11
34.68565434659742
 21
873.7000004863086
 31
0.0
  0
LINE
  5
24D
330
6A
100
AcDbEntity
  8
0
  6
Continuous
 62
     7
100
AcDbLine
 10
34.68565434659742
 20
862.9000004863086
 30
0.0
 11
34.68565434659742
 21
870.7877040170476
 31
0.0
  0
LINE
  5
24E
330
6A
100
AcDbEntity
  8
0
  6
Continuous
 62
     7
100
AcDbLine
 10
34.68565434659742
 20
859.7500004863086
 30
0.0
 11
34.68565434659742
 21
862.9000004863086
 31
0.0
  0
LINE
  5
24F
330
6A
100
AcDbEntity
  8
0
  6
Continuous
 62
     7
100
AcDbLine
 10
36.18565434659742
 20
862.9000004863086
 30
0.0
 11
36.18565434659742
 21
859.7500004863086
 31
0.0
  0
LINE
  5
250
330
6A
100
AcDbEntity
  8
0
  6
Continuous
 62
     7
100
AcDbLine
 10
36.18565434659742
 20
873.7000004863086
 30
0.0
 11
36.18565434659742
 21
870.7877040170476
 31
0.0
  0
LINE
  5
251
330
6A
100
AcDbEntity
  8
0
  6
Continuous
 62
     7
100
AcDbLine
 10
36.18565434659742
 20
870.7877040170476
 30
0.0
 11
36.18565434659742
 21
862.9000004863086
 31
0.0
  0
LINE
  5
252
330
6A
100
AcDbEntity
  8
0
  6
Continuous
 62
     7
100
AcDbLine
 10
34.68565434659742
 20
873.7000004863086
 30
0.0
 11
36.18565434659742
 21
873.7000004863086
 31
0.0
  0
LINE
  5
253
330
6A
100
AcDbEntity
  8
0
  6
Continuous
 62
     7
100
AcDbLine
 10
36.18565434659742
 20
870.7877040170476
 30
0.0
 11
34.68565434659742
 21
870.7877040170476
 31
0.0
  0
LINE
  5
254
330
6A
100
AcDbEntity
  8
0
  6
Continuous
 62
     7
100
AcDbLine
 10
34.68565434659742
 20
859.7500004863086
 30
0.0
 11
36.18565434659742
 21
859.7500004863086
 31
0.0
  0
LINE
  5
255
330
6A
100
AcDbEntity
  8
0
  6
Continuous
 62
     7
100
AcDbLine
 10
36.18565434659742
 20
862.9000004863086
 30
0.0
 11
34.68565434659742
 21
862.9000004863086
 31
0.0
  0
LINE
  5
256
330
6A
100
AcDbEntity
  8
0
  6
Continuous
 62
     7
100
AcDbLine
 10
36.51916650764981
 20
893.6000004863085
 30
0.0
 11
38.04711052659901
 21
893.6000004863085
 31
0.0
  0
LINE
  5
257
330
6A
100
AcDbEntity
  8
0
  6
Continuous
 62
     7
100
AcDbLine
 10
50.16215165470112
 20
937.4000004863086
 30
0.0
 11
50.16215165470112
 21
941.4000004863086
 31
0.0
  0
LINE
  5
258
330
6A
100
AcDbEntity
  8
0
  6
Continuous
 62
     7
100
AcDbLine
 10
47.93565434659742
 20
909.6000004863085
 30
0.0
 11
47.93565434659742
 21
905.0164883252562
 31
0.0
  0
LINE
  5
259
330
6A
100
AcDbEntity
  8
0
  6
Continuous
 62
     7
100
AcDbLine
 10
34.68565434659742
 20
908.8419317699096
 30
0.0
 11
34.68565434659742
 21
873.7000004863086
 31
0.0
  0
LINE
  5
25A
330
6A
100
AcDbEntity
  8
0
  6
Continuous
 62
     7
100
AcDbLine
 10
36.18565434659742
 20
908.8419317699096
 30
0.0
 11
36.18565434659742
 21
873.7000004863086
 31
0.0
  0
LINE
  5
25B
330
6A
100
AcDbEntity
  8
1
  6
DOT_CENTER
 62
     2
100
AcDbLine
 10
55.93565434659742
 20
923.8321363296473
 30
0.0
 11
55.93565434659791
 21
937.4000004863083
 31
0.0
  0
LINE
  5
25C
330
6A
100
AcDbEntity
  8
1
  6
DOT_CENTER
 62
     2
100
AcDbLine
 10
55.93565434659742
 20
909.6000004863085
 30
0.0
 11
55.93565434659742
 21
922.3896693423524
 31
0.0
  0
ARC
  5
25D
330
6A
100
AcDbEntity
  8
0
  6
Continuous
 62
     7
100
AcDbCircle
 10
55.93565434659742
 20
901.1000004863085
 30
0.0
 40
23.0000000000001
100
AcDbArc
 50
98.75292907688252
 51
154.5256305487856
  0
ARC
  5
25E
330
6A
100
AcDbEntity
  8
0
  6
Continuous
 62
     7
100
AcDbCircle
 10
55.93565434659742
 20
901.1000004863085
 30
0.0
 40
21.50000000000005
100
AcDbArc
 50
98.02093287524451
 51
154.5256305487854
  0
ARC
  5
25F
330
6A
100
AcDbEntity
  8
0
  6
Continuous
 62
     7
100
AcDbCircle
 10
55.93565434659742
 20
901.1000004863085
 30
0.0
 40
21.50000000000005
100
AcDbArc
 50
81.97906712475549
 51
98.02093287524451
  0
ARC
  5
260
330
6A
100
AcDbEntity
  8
0
  6
Continuous
 62
     7
100
AcDbCircle
 10
55.93565434659742
 20
901.1000004863085
 30
0.0
 40
23.0000000000001
100
AcDbArc
 50
81.24707092311749
 51
98.75292907688252
  0
ARC
  5
261
330
6A
100
AcDbEntity
  8
0
  6
Continuous
 62
     7
100
AcDbCircle
 10
55.93565434659742
 20
885.6000004863085
 30
0.0
 40
21.00000000000006
100
AcDbArc
 50
67.60731219459844
 51
112.3926878054016
  0
ARC
  5
262
330
6A
100
AcDbEntity
  8
0
  6
Continuous
 62
     7
100
AcDbCircle
 10
55.93565434659742
 20
885.6000004863085
 30
0.0
 40
17.99999999999996
100
AcDbArc
 50
31.58813550520131
 51
148.4118644947986
  0
ARC
  5
263
330
6A
100
AcDbEntity
  8
0
  6
Continuous
 62
     7
100
AcDbCircle
 10
55.93565434659742
 20
901.1000004863085
 30
0.0
 40
21.50000000000002
100
AcDbArc
 50
25.47436945121464
 51
81.97906712475549
  0
ARC
  5
264
330
6A
100
AcDbEntity
  8
0
  6
Continuous
 62
     7
100
AcDbCircle
 10
55.93565434659742
 20
885.6000004863085
 30
0.0
 40
21.0
100
AcDbArc
 50
22.39268780540162
 51
67.60731219459844
  0
ARC
  5
265
330
6A
100
AcDbEntity
  8
0
  6
Continuous
 62
     7
100
AcDbCircle
 10
73.8241981665957
 20
896.6000004863085
 30
0.0
 40
3.000000000000016
100
AcDbArc
 50
211.5881355052006
 51
270.0
  0
ARC
  5
266
330
6A
100
AcDbEntity
  8
0
  6
Continuous
 62
     7
100
AcDbCircle
 10
72.18565434659742
 20
908.8419317699096
 30
0.0
 40
3.5
100
AcDbArc
 50
0.0
 51
25.47436945121559
  0
ARC
  5
267
330
6A
100
AcDbEntity
  8
0
  6
Continuous
 62
     7
100
AcDbCircle
 10
72.18565434659742
 20
908.8419317699096
 30
0.0
 40
5.0
100
AcDbArc
 50
0.0
 51
25.47436945121428
  0
ARC
  5
268
330
6A
100
AcDbEntity
  8
0
  6
Continuous
 62
     7
100
AcDbCircle
 10
38.04711052659901
 20
896.6000004863085
 30
0.0
 40
3.0
100
AcDbArc
 50
270.0
 51
328.4118644948015
  0
ARC
  5
269
330
6A
100
AcDbEntity
  8
0
  6
Continuous
 62
     7
100
AcDbCircle
 10
55.93565434659742
 20
885.6000004863085
 30
0.0
 40
21.00000000000006
100
AcDbArc
 50
112.3926878054016
 51
157.6073121945984
  0
ARC
  5
26A
330
6A
100
AcDbEntity
  8
0
  6
Continuous
 62
     7
100
AcDbCircle
 10
39.68565434659742
 20
908.8419317699096
 30
0.0
 40
3.500000000000012
100
AcDbArc
 50
154.5256305487844
 51
180.0
  0
ARC
  5
26B
330
6A
100
AcDbEntity
  8
0
  6
Continuous
 62
     7
100
AcDbCircle
 10
39.68565434659742
 20
908.8419317699096
 30
0.0
 40
5.000000000000006
100
AcDbArc
 50
154.5256305487858
 51
180.0
  0
ARC
  5
26C
330
6A
100
AcDbEntity
  8
0
  6
Continuous
 62
     7
100
AcDbCircle
 10
55.93565434659742
 20
901.1000004863085
 30
0.0
 40
23.00000000000001
100
AcDbArc
 50
25.47436945121441
 51
81.24707092311749
  0
ENDBLK
  5
6C
330
6A
100
AcDbEntity
  8
0
100
AcDbBlockEnd
  0
BLOCK
  5
6F
330
6D
100
AcDbEntity
  8
0
100
AcDbBlockBegin
  2
Vordans1
 70
     0
 10
55.93565433629141
 20
898.9999999998655
 30
0.0
  3
Vordans1
  1

  0
INSERT
  5
6E
330
6D
100
AcDbEntity
  8
0
100
AcDbBlockReference
  2
3240258_WCC_38-select__6
 10
34.68565434659742
 20
856.6000004863085
 30
0.0
  0
MTEXT
  5
26D
330
6D
100
AcDbEntity
  8
1
 62
     6
100
AcDbMText
 10
55.93565433629192
 20
851.6000003813347
 30
0.0
 40
5.0
 41
0.0
 71
     2
 72
     1
  1
 
  7
CONVERTER_11
 73
     1
 44
1.32052821128451
  0
DIMENSION
  5
278
330
6D
100
AcDbEntity
  8
1
100
AcDbDimension
  2
*D20
 10
77.18565434659742
 20
951.4000004863085
 30
0.0
 11
55.93565434659742
 21
955.3250004863085
 31
0.0
 70
    32
  1
<>
 71
     5
 42
-1.0
 53
0.00013888888889
  3
ME10_DIM_14
100
AcDbAlignedDimension
 13
34.68565434659742
 23
908.8419317699096
 33
0.0
 14
77.18565434659742
 24
908.8419317699096
 34
0.0
100
AcDbRotatedDimension
  0
ENDBLK
  5
70
330
6D
100
AcDbEntity
  8
0
100
AcDbBlockEnd
  0
BLOCK
  5
72
330
71
100
AcDbEntity
  8
0
100
AcDbBlockBegin
  2
_rahmen
 70
     0
 10
302.3482434686392
 20
710.43777019455
 30
0.0
  3
_rahmen
  1

  0
POINT
  5
279
330
71
100
AcDbEntity
  8
1
 62
     3
 60
     1
100
AcDbPoint
 10
238.8482434686415
 20
736.6877701945494
 30
0.0
  0
LINE
  5
27A
102
{ACAD_REACTORS
330
46A
330
46B
102
}
330
71
100
AcDbEntity
  8
0
  6
Continuous
 62
     2
100
AcDbLine
 10
187.2905702987201
 20
722.9462735959165
 30
0.0
 11
187.2905702987201
 21
723.6673620312911
 31
0.0
  0
LINE
  5
27B
102
{ACAD_REACTORS
330
46A
330
46B
102
}
330
71
100
AcDbEntity
  8
0
  6
Continuous
 62
     2
100
AcDbLine
 10
187.2905702987201
 20
722.1530763170051
 30
0.0
 11
187.2905702987201
 21
721.4319878816304
 31
0.0
  0
LINE
  5
27C
102
{ACAD_REACTORS
330
46C
330
46D
102
}
330
71
100
AcDbEntity
  8
0
  6
Continuous
 62
     2
100
AcDbLine
 10
199.9625076014395
 20
723.1626001265286
 30
0.0
 11
200.8746061961239
 21
723.1626001265286
 31
0.0
  0
LINE
  5
27D
102
{ACAD_REACTORS
330
46C
330
46D
102
}
330
71
100
AcDbEntity
  8
0
  6
Continuous
 62
     2
100
AcDbLine
 10
200.5985880501679
 20
722.1530763170047
 30
0.0
 11
200.5985880501679
 21
721.43198788163
 31
0.0
  0
LINE
  5
27E
102
{ACAD_REACTORS
330
476
330
477
102
}
330
71
100
AcDbEntity
  8
0
  6
Continuous
 62
     2
100
AcDbLine
 10
199.0607726655565
 20
724.0639606707325
 30
0.0
 11
200.2161057622013
 21
725.3704557069102
 31
0.0
  0
LINE
  5
27F
102
{ACAD_REACTORS
330
476
330
477
102
}
330
71
100
AcDbEntity
  8
0
  6
Continuous
 62
     2
100
AcDbLine
 10
199.139634992972
 20
726.5877701945434
 30
0.0
 11
200.2161057622013
 21
725.3704557069102
 31
0.0
  0
LINE
  5
280
102
{ACAD_REACTORS
330
476
330
477
102
}
330
71
100
AcDbEntity
  8
0
  6
Continuous
 62
     2
100
AcDbLine
 10
201.2925765314298
 20
726.5877701945434
 30
0.0
 11
202.451852744444
 21
726.5877701945434
 31
0.0
  0
LINE
  5
281
102
{ACAD_REACTORS
330
476
330
477
102
}
330
71
100
AcDbEntity
  8
0
  6
Continuous
 62
     2
100
AcDbLine
 10
200.2200488785715
 20
724.0639606707325
 30
0.0
 11
200.7957438687084
 21
724.7149786751075
 31
0.0
  0
LINE
  5
282
102
{ACAD_REACTORS
330
476
330
477
102
}
330
71
100
AcDbEntity
  8
0
  6
Continuous
 62
     2
100
AcDbLine
 10
200.2200488785715
 20
724.0639606707325
 30
0.0
 11
199.0607726655565
 21
724.0639606707325
 31
0.0
  0
LINE
  5
283
102
{ACAD_REACTORS
330
478
330
479
102
}
330
71
100
AcDbEntity
  8
0
  6
Continuous
 62
     2
100
AcDbLine
 10
198.9621947562863
 20
724.0639606707325
 30
0.0
 11
197.9369844998789
 21
724.0639606707325
 31
0.0
  0
LINE
  5
284
102
{ACAD_REACTORS
330
47A
330
47B
102
}
330
71
100
AcDbEntity
  8
0
  6
Continuous
 62
     2
100
AcDbLine
 10
197.2196459807425
 20
722.2972940040797
 30
0.0
 11
196.9715755367837
 21
722.9318518272092
 31
0.0
  0
LINE
  5
285
102
{ACAD_REACTORS
330
47A
330
47B
102
}
330
71
100
AcDbEntity
  8
0
  6
Continuous
 62
     2
100
AcDbLine
 10
196.7235050928231
 20
722.2972940040797
 30
0.0
 11
197.2196459807425
 21
722.2972940040797
 31
0.0
  0
LINE
  5
286
102
{ACAD_REACTORS
330
47A
330
47B
102
}
330
71
100
AcDbEntity
  8
0
  6
Continuous
 62
     2
100
AcDbLine
 10
195.3036373119356
 20
721.2877701945554
 30
0.0
 11
196.328847568343
 21
721.2877701945554
 31
0.0
  0
LINE
  5
287
102
{ACAD_REACTORS
330
47A
330
47B
102
}
330
71
100
AcDbEntity
  8
0
  6
Continuous
 62
     2
100
AcDbLine
 10
196.4589704085796
 20
723.8115797183663
 30
0.0
 11
197.4841806649869
 21
723.8115797183663
 31
0.0
  0
LINE
  5
288
102
{ACAD_REACTORS
330
47A
330
47B
102
}
330
71
100
AcDbEntity
  8
0
  6
Continuous
 62
     2
100
AcDbLine
 10
197.4841806649869
 20
723.8115797183663
 30
0.0
 11
198.6395137616318
 21
721.2877701945554
 31
0.0
  0
LINE
  5
289
102
{ACAD_REACTORS
330
47A
330
47B
102
}
330
71
100
AcDbEntity
  8
0
  6
Continuous
 62
     2
100
AcDbLine
 10
197.6143035052236
 20
721.2877701945554
 30
0.0
 11
197.4395266015246
 21
721.7348450244875
 31
0.0
  0
LINE
  5
28A
102
{ACAD_REACTORS
330
47C
330
47D
102
}
330
71
100
AcDbEntity
  8
0
  6
Continuous
 62
     2
100
AcDbLine
 10
194.1908992113508
 20
721.2877701945554
 30
0.0
 11
195.1766783040504
 21
721.2877701945554
 31
0.0
  0
LINE
  5
28B
102
{ACAD_REACTORS
330
47C
330
47D
102
}
330
71
100
AcDbEntity
  8
0
  6
Continuous
 62
     2
100
AcDbLine
 10
194.1908992113508
 20
723.1626001265286
 30
0.0
 11
194.1908992113508
 21
721.2877701945554
 31
0.0
  0
LINE
  5
28C
102
{ACAD_REACTORS
330
47C
330
47D
102
}
330
71
100
AcDbEntity
  8
0
  6
Continuous
 62
     2
100
AcDbLine
 10
193.5205694283139
 20
723.8115797183663
 30
0.0
 11
193.5205694283139
 21
723.1626001265286
 31
0.0
  0
LINE
  5
28D
102
{ACAD_REACTORS
330
47E
330
47F
102
}
330
71
100
AcDbEntity
  8
0
  6
Continuous
 62
     2
100
AcDbLine
 10
194.743060239531
 20
724.0639606707325
 30
0.0
 11
195.7288393322306
 21
724.0639606707325
 31
0.0
  0
LINE
  5
28E
102
{ACAD_REACTORS
330
47E
330
47F
102
}
330
71
100
AcDbEntity
  8
0
  6
Continuous
 62
     2
100
AcDbLine
 10
196.7540495886389
 20
725.5061375414813
 30
0.0
 11
195.7288393322306
 21
726.5877701945434
 31
0.0
  0
LINE
  5
28F
102
{ACAD_REACTORS
330
47E
330
47F
102
}
330
71
100
AcDbEntity
  8
0
  6
Continuous
 62
     2
100
AcDbLine
 10
197.7398286813385
 20
726.5877701945434
 30
0.0
 11
196.7540495886389
 21
726.5877701945434
 31
0.0
  0
LINE
  5
290
102
{ACAD_REACTORS
330
47E
330
47F
102
}
330
71
100
AcDbEntity
  8
0
  6
Continuous
 62
     2
100
AcDbLine
 10
197.7398286813385
 20
724.0639606707325
 30
0.0
 11
197.7398286813385
 21
726.5877701945434
 31
0.0
  0
LINE
  5
291
102
{ACAD_REACTORS
330
47E
330
47F
102
}
330
71
100
AcDbEntity
  8
0
  6
Continuous
 62
     2
100
AcDbLine
 10
196.7540495886389
 20
724.0639606707325
 30
0.0
 11
197.7398286813385
 21
724.0639606707325
 31
0.0
  0
LINE
  5
292
102
{ACAD_REACTORS
330
47E
330
47F
102
}
330
71
100
AcDbEntity
  8
0
  6
Continuous
 62
     2
100
AcDbLine
 10
195.7288393322306
 20
725.1455933237942
 30
0.0
 11
196.7540495886389
 21
724.0639606707325
 31
0.0
  0
LINE
  5
293
102
{ACAD_REACTORS
330
480
330
481
102
}
330
71
100
AcDbEntity
  8
0
  6
Continuous
 62
     2
100
AcDbLine
 10
192.4164968444903
 20
722.7299470653041
 30
0.0
 11
191.391286588083
 21
723.8115797183663
 31
0.0
  0
LINE
  5
294
102
{ACAD_REACTORS
330
480
330
481
102
}
330
71
100
AcDbEntity
  8
0
  6
Continuous
 62
     2
100
AcDbLine
 10
192.4164968444903
 20
723.8115797183663
 30
0.0
 11
192.4164968444903
 21
722.7299470653041
 31
0.0
  0
LINE
  5
295
102
{ACAD_REACTORS
330
480
330
481
102
}
330
71
100
AcDbEntity
  8
0
  6
Continuous
 62
     2
100
AcDbLine
 10
193.4022759371899
 20
723.8115797183663
 30
0.0
 11
192.4164968444903
 21
723.8115797183663
 31
0.0
  0
LINE
  5
296
102
{ACAD_REACTORS
330
480
330
481
102
}
330
71
100
AcDbEntity
  8
0
  6
Continuous
 62
     2
100
AcDbLine
 10
193.4022759371899
 20
721.2877701945554
 30
0.0
 11
193.4022759371899
 21
723.8115797183663
 31
0.0
  0
LINE
  5
297
102
{ACAD_REACTORS
330
480
330
481
102
}
330
71
100
AcDbEntity
  8
0
  6
Continuous
 62
     2
100
AcDbLine
 10
191.391286588083
 20
722.369402847617
 30
0.0
 11
192.4164968444903
 21
721.2877701945554
 31
0.0
  0
LINE
  5
298
102
{ACAD_REACTORS
330
480
330
481
102
}
330
71
100
AcDbEntity
  8
0
  6
Continuous
 62
     2
100
AcDbLine
 10
191.391286588083
 20
721.2877701945554
 30
0.0
 11
191.391286588083
 21
722.369402847617
 31
0.0
  0
LINE
  5
299
102
{ACAD_REACTORS
330
470
330
471
102
}
330
71
100
AcDbEntity
  8
0
  6
Continuous
 62
     2
100
AcDbLine
 10
193.4418318371669
 20
726.0108994462435
 30
0.0
 11
194.5459044209914
 21
726.0108994462435
 31
0.0
  0
LINE
  5
29A
102
{ACAD_REACTORS
330
470
330
471
102
}
330
71
100
AcDbEntity
  8
0
  6
Continuous
 62
     2
100
AcDbLine
 10
193.4418318371669
 20
724.640831419032
 30
0.0
 11
193.4418318371669
 21
725.037430058488
 31
0.0
  0
LINE
  5
29B
102
{ACAD_REACTORS
330
470
330
471
102
}
330
71
100
AcDbEntity
  8
0
  6
Continuous
 62
     2
100
AcDbLine
 10
194.5459044209914
 20
724.640831419032
 30
0.0
 11
193.4418318371669
 21
724.640831419032
 31
0.0
  0
LINE
  5
29C
102
{ACAD_REACTORS
330
470
330
471
102
}
330
71
100
AcDbEntity
  8
0
  6
Continuous
 62
     2
100
AcDbLine
 10
194.5459044209914
 20
724.0639606707325
 30
0.0
 11
194.5459044209914
 21
724.640831419032
 31
0.0
  0
LINE
  5
29D
102
{ACAD_REACTORS
330
470
330
471
102
}
330
71
100
AcDbEntity
  8
0
  6
Continuous
 62
     2
100
AcDbLine
 10
191.9423344013377
 20
724.0639606707325
 30
0.0
 11
194.5459044209914
 21
724.0639606707325
 31
0.0
  0
LINE
  5
29E
102
{ACAD_REACTORS
330
470
330
471
102
}
330
71
100
AcDbEntity
  8
0
  6
Continuous
 62
     2
100
AcDbLine
 10
191.9423344013377
 20
726.5877701945434
 30
0.0
 11
194.5459044209914
 21
726.5877701945434
 31
0.0
  0
LINE
  5
29F
102
{ACAD_REACTORS
330
470
330
471
102
}
330
71
100
AcDbEntity
  8
0
  6
Continuous
 62
     2
100
AcDbLine
 10
194.5459044209914
 20
726.0108994462435
 30
0.0
 11
194.5459044209914
 21
726.5877701945434
 31
0.0
  0
LINE
  5
2A0
102
{ACAD_REACTORS
330
482
330
483
102
}
330
71
100
AcDbEntity
  8
0
  6
Continuous
 62
     2
100
AcDbLine
 10
189.5775777937839
 20
725.704436861209
 30
0.0
 11
189.5775777937839
 21
726.5877701945434
 31
0.0
  0
LINE
  5
2A1
102
{ACAD_REACTORS
330
482
330
483
102
}
330
71
100
AcDbEntity
  8
0
  6
Continuous
 62
     2
100
AcDbLine
 10
189.5775777937839
 20
726.5877701945434
 30
0.0
 11
190.5633568864835
 21
726.5877701945434
 31
0.0
  0
LINE
  5
2A2
102
{ACAD_REACTORS
330
482
330
483
102
}
330
71
100
AcDbEntity
  8
0
  6
Continuous
 62
     2
100
AcDbLine
 10
189.5775777937839
 20
725.0013756367191
 30
0.0
 11
188.7100921922075
 21
725.0013756367191
 31
0.0
  0
LINE
  5
2A3
102
{ACAD_REACTORS
330
482
330
483
102
}
330
71
100
AcDbEntity
  8
0
  6
Continuous
 62
     2
100
AcDbLine
 10
188.7100921922075
 20
725.0013756367191
 30
0.0
 11
188.7100921922075
 21
724.0639606707325
 31
0.0
  0
LINE
  5
2A4
102
{ACAD_REACTORS
330
482
330
483
102
}
330
71
100
AcDbEntity
  8
0
  6
Continuous
 62
     2
100
AcDbLine
 10
187.7243130995079
 20
726.5877701945434
 30
0.0
 11
187.7243130995079
 21
724.0639606707325
 31
0.0
  0
LINE
  5
2A5
102
{ACAD_REACTORS
330
474
330
475
102
}
330
71
100
AcDbEntity
  8
0
  6
Continuous
 62
     2
100
AcDbLine
 10
186.1076353874801
 20
725.4565028434836
 30
0.0
 11
186.1076353874801
 21
726.0397488346756
 31
0.0
  0
LINE
  5
2A6
102
{ACAD_REACTORS
330
474
330
475
102
}
330
71
100
AcDbEntity
  8
0
  6
Continuous
 62
     2
100
AcDbLine
 10
185.0824251310718
 20
724.0639606707325
 30
0.0
 11
186.1076353874801
 21
724.0639606707325
 31
0.0
  0
LINE
  5
2A7
102
{ACAD_REACTORS
330
474
330
475
102
}
330
71
100
AcDbEntity
  8
0
  6
Continuous
 62
     2
100
AcDbLine
 10
186.1076353874801
 20
724.0639606707325
 30
0.0
 11
186.1076353874801
 21
724.84336417581
 31
0.0
  0
LINE
  5
2A8
102
{ACAD_REACTORS
330
46E
330
46F
102
}
330
71
100
AcDbEntity
  8
0
  6
Continuous
 62
     2
100
AcDbLine
 10
181.5246186441201
 20
721.8766590834455
 30
0.0
 11
180.3049217341949
 21
721.8766590834455
 31
0.0
  0
LINE
  5
2A9
102
{ACAD_REACTORS
330
46E
330
46F
102
}
330
71
100
AcDbEntity
  8
0
  6
Continuous
 62
     2
100
AcDbLine
 10
179.463484302683
 20
726.2371548099137
 30
0.0
 11
179.463484302683
 21
721.6383855791697
 31
0.0
  0
LINE
  5
2AA
102
{ACAD_REACTORS
330
46E
330
46F
102
}
330
71
100
AcDbEntity
  8
0
  6
Continuous
 62
     2
100
AcDbLine
 10
179.8140996872969
 20
726.5877701945284
 30
0.0
 11
184.337498109377
 21
726.5877701945284
 31
0.0
  0
LINE
  5
2AB
102
{ACAD_REACTORS
330
46E
330
46F
102
}
330
71
100
AcDbEntity
  8
0
  6
Continuous
 62
     2
100
AcDbLine
 10
184.6881134939918
 20
726.2371548099137
 30
0.0
 11
184.6881134939918
 21
721.6383855791697
 31
0.0
  0
LINE
  5
2AC
102
{ACAD_REACTORS
330
46E
330
46F
102
}
330
71
100
AcDbEntity
  8
0
  6
Continuous
 62
     2
100
AcDbLine
 10
184.337498109377
 20
721.2877701945554
 30
0.0
 11
179.8140996872969
 21
721.2877701945554
 31
0.0
  0
LINE
  5
2AD
102
{ACAD_REACTORS
330
46E
330
46F
102
}
330
71
100
AcDbEntity
  8
0
  6
Continuous
 62
     2
100
AcDbLine
 10
181.7855417210429
 20
722.1375821603683
 30
0.0
 11
181.7855417210429
 21
723.4026821037829
 31
0.0
  0
LINE
  5
2AE
102
{ACAD_REACTORS
330
46E
330
46F
102
}
330
71
100
AcDbEntity
  8
0
  6
Continuous
 62
     2
100
AcDbLine
 10
181.7855417210429
 20
725.2387643286795
 30
0.0
 11
181.7855417210429
 21
725.7379582287296
 31
0.0
  0
LINE
  5
2AF
102
{ACAD_REACTORS
330
46E
330
46F
102
}
330
71
100
AcDbEntity
  8
0
  6
Continuous
 62
     2
100
AcDbLine
 10
180.3049217341949
 20
725.998881305652
 30
0.0
 11
181.5246186441201
 21
725.998881305652
 31
0.0
  0
LINE
  5
2B0
102
{ACAD_REACTORS
330
46E
330
46F
102
}
330
71
100
AcDbEntity
  8
0
  6
Continuous
 62
     2
100
AcDbLine
 10
180.0439986572728
 20
725.7379582287296
 30
0.0
 11
180.0439986572728
 21
722.1375821603683
 31
0.0
  0
LINE
  5
2B1
102
{ACAD_REACTORS
330
474
330
475
102
}
330
71
100
AcDbEntity
  8
0
  6
Continuous
 62
     2
100
AcDbLine
 10
186.1076353874801
 20
724.84336417581
 30
0.0
 11
186.7347160385382
 21
724.84336417581
 31
0.0
  0
LINE
  5
2B2
102
{ACAD_REACTORS
330
474
330
475
102
}
330
71
100
AcDbEntity
  8
0
  6
Continuous
 62
     2
100
AcDbLine
 10
185.0824251310718
 20
726.5877701945434
 30
0.0
 11
186.7347160385382
 21
726.5877701945434
 31
0.0
  0
LINE
  5
2B3
102
{ACAD_REACTORS
330
474
330
475
102
}
330
71
100
AcDbEntity
  8
0
  6
Continuous
 62
     2
100
AcDbLine
 10
185.0824251310718
 20
726.5877701945434
 30
0.0
 11
185.0824251310718
 21
724.0639606707325
 31
0.0
  0
LINE
  5
2B4
102
{ACAD_REACTORS
330
474
330
475
102
}
330
71
100
AcDbEntity
  8
0
  6
Continuous
 62
     2
100
AcDbLine
 10
186.1076353874801
 20
725.4565028434836
 30
0.0
 11
186.3698627110684
 21
725.4565028434836
 31
0.0
  0
LINE
  5
2B5
102
{ACAD_REACTORS
330
474
330
475
102
}
330
71
100
AcDbEntity
  8
0
  6
Continuous
 62
     2
100
AcDbLine
 10
186.1076353874801
 20
726.0397488346756
 30
0.0
 11
186.3698627110684
 21
726.0397488346756
 31
0.0
  0
LINE
  5
2B6
102
{ACAD_REACTORS
330
482
330
483
102
}
330
71
100
AcDbEntity
  8
0
  6
Continuous
 62
     2
100
AcDbLine
 10
188.7100921922075
 20
725.704436861209
 30
0.0
 11
189.5775777937839
 21
725.704436861209
 31
0.0
  0
LINE
  5
2B7
102
{ACAD_REACTORS
330
482
330
483
102
}
330
71
100
AcDbEntity
  8
0
  6
Continuous
 62
     2
100
AcDbLine
 10
188.7100921922075
 20
726.5877701945434
 30
0.0
 11
188.7100921922075
 21
725.704436861209
 31
0.0
  0
LINE
  5
2B8
102
{ACAD_REACTORS
330
482
330
483
102
}
330
71
100
AcDbEntity
  8
0
  6
Continuous
 62
     2
100
AcDbLine
 10
187.7243130995079
 20
726.5877701945434
 30
0.0
 11
188.7100921922075
 21
726.5877701945434
 31
0.0
  0
LINE
  5
2B9
102
{ACAD_REACTORS
330
482
330
483
102
}
330
71
100
AcDbEntity
  8
0
  6
Continuous
 62
     2
100
AcDbLine
 10
188.7100921922075
 20
724.0639606707325
 30
0.0
 11
187.7243130995079
 21
724.0639606707325
 31
0.0
  0
LINE
  5
2BA
102
{ACAD_REACTORS
330
482
330
483
102
}
330
71
100
AcDbEntity
  8
0
  6
Continuous
 62
     2
100
AcDbLine
 10
189.5775777937839
 20
724.0639606707325
 30
0.0
 11
189.5775777937839
 21
725.0013756367191
 31
0.0
  0
LINE
  5
2BB
102
{ACAD_REACTORS
330
482
330
483
102
}
330
71
100
AcDbEntity
  8
0
  6
Continuous
 62
     2
100
AcDbLine
 10
190.5633568864835
 20
724.0639606707325
 30
0.0
 11
189.5775777937839
 21
724.0639606707325
 31
0.0
  0
LINE
  5
2BC
102
{ACAD_REACTORS
330
482
330
483
102
}
330
71
100
AcDbEntity
  8
0
  6
Continuous
 62
     2
100
AcDbLine
 10
190.5633568864835
 20
726.5877701945434
 30
0.0
 11
190.5633568864835
 21
724.0639606707325
 31
0.0
  0
LINE
  5
2BD
102
{ACAD_REACTORS
330
470
330
471
102
}
330
71
100
AcDbEntity
  8
0
  6
Continuous
 62
     2
100
AcDbLine
 10
193.4418318371669
 20
725.037430058488
 30
0.0
 11
194.5459044209914
 21
725.037430058488
 31
0.0
  0
LINE
  5
2BE
102
{ACAD_REACTORS
330
470
330
471
102
}
330
71
100
AcDbEntity
  8
0
  6
Continuous
 62
     2
100
AcDbLine
 10
194.5459044209914
 20
725.037430058488
 30
0.0
 11
194.5459044209914
 21
725.6143008067875
 31
0.0
  0
LINE
  5
2BF
102
{ACAD_REACTORS
330
470
330
471
102
}
330
71
100
AcDbEntity
  8
0
  6
Continuous
 62
     2
100
AcDbLine
 10
194.5459044209914
 20
725.6143008067875
 30
0.0
 11
193.4418318371669
 21
725.6143008067875
 31
0.0
  0
LINE
  5
2C0
102
{ACAD_REACTORS
330
470
330
471
102
}
330
71
100
AcDbEntity
  8
0
  6
Continuous
 62
     2
100
AcDbLine
 10
193.4418318371669
 20
725.6143008067875
 30
0.0
 11
193.4418318371669
 21
726.0108994462435
 31
0.0
  0
LINE
  5
2C1
102
{ACAD_REACTORS
330
480
330
481
102
}
330
71
100
AcDbEntity
  8
0
  6
Continuous
 62
     2
100
AcDbLine
 10
190.4055074953825
 20
721.2877701945554
 30
0.0
 11
191.391286588083
 21
721.2877701945554
 31
0.0
  0
LINE
  5
2C2
102
{ACAD_REACTORS
330
480
330
481
102
}
330
71
100
AcDbEntity
  8
0
  6
Continuous
 62
     2
100
AcDbLine
 10
192.4164968444903
 20
721.2877701945554
 30
0.0
 11
193.4022759371899
 21
721.2877701945554
 31
0.0
  0
LINE
  5
2C3
102
{ACAD_REACTORS
330
480
330
481
102
}
330
71
100
AcDbEntity
  8
0
  6
Continuous
 62
     2
100
AcDbLine
 10
191.391286588083
 20
723.8115797183663
 30
0.0
 11
190.4055074953825
 21
723.8115797183663
 31
0.0
  0
LINE
  5
2C4
102
{ACAD_REACTORS
330
480
330
481
102
}
330
71
100
AcDbEntity
  8
0
  6
Continuous
 62
     2
100
AcDbLine
 10
190.4055074953825
 20
723.8115797183663
 30
0.0
 11
190.4055074953825
 21
721.2877701945554
 31
0.0
  0
LINE
  5
2C5
102
{ACAD_REACTORS
330
47E
330
47F
102
}
330
71
100
AcDbEntity
  8
0
  6
Continuous
 62
     2
100
AcDbLine
 10
196.7540495886389
 20
726.5877701945434
 30
0.0
 11
196.7540495886389
 21
725.5061375414813
 31
0.0
  0
LINE
  5
2C6
102
{ACAD_REACTORS
330
47E
330
47F
102
}
330
71
100
AcDbEntity
  8
0
  6
Continuous
 62
     2
100
AcDbLine
 10
195.7288393322306
 20
726.5877701945434
 30
0.0
 11
194.743060239531
 21
726.5877701945434
 31
0.0
  0
LINE
  5
2C7
102
{ACAD_REACTORS
330
47E
330
47F
102
}
330
71
100
AcDbEntity
  8
0
  6
Continuous
 62
     2
100
AcDbLine
 10
194.743060239531
 20
726.5877701945434
 30
0.0
 11
194.743060239531
 21
724.0639606707325
 31
0.0
  0
LINE
  5
2C8
102
{ACAD_REACTORS
330
47E
330
47F
102
}
330
71
100
AcDbEntity
  8
0
  6
Continuous
 62
     2
100
AcDbLine
 10
195.7288393322306
 20
724.0639606707325
 30
0.0
 11
195.7288393322306
 21
725.1455933237942
 31
0.0
  0
LINE
  5
2C9
102
{ACAD_REACTORS
330
47C
330
47D
102
}
330
71
100
AcDbEntity
  8
0
  6
Continuous
 62
     2
100
AcDbLine
 10
195.1766783040504
 20
721.2877701945554
 30
0.0
 11
195.1766783040504
 21
723.1626001265286
 31
0.0
  0
LINE
  5
2CA
102
{ACAD_REACTORS
330
47C
330
47D
102
}
330
71
100
AcDbEntity
  8
0
  6
Continuous
 62
     2
100
AcDbLine
 10
195.1766783040504
 20
723.1626001265286
 30
0.0
 11
195.8470080870856
 21
723.1626001265286
 31
0.0
  0
LINE
  5
2CB
102
{ACAD_REACTORS
330
47C
330
47D
102
}
330
71
100
AcDbEntity
  8
0
  6
Continuous
 62
     2
100
AcDbLine
 10
195.8470080870856
 20
723.1626001265286
 30
0.0
 11
195.8470080870856
 21
723.8115797183663
 31
0.0
  0
LINE
  5
2CC
102
{ACAD_REACTORS
330
47C
330
47D
102
}
330
71
100
AcDbEntity
  8
0
  6
Continuous
 62
     2
100
AcDbLine
 10
195.8470080870856
 20
723.8115797183663
 30
0.0
 11
193.5205694283139
 21
723.8115797183663
 31
0.0
  0
LINE
  5
2CD
102
{ACAD_REACTORS
330
47C
330
47D
102
}
330
71
100
AcDbEntity
  8
0
  6
Continuous
 62
     2
100
AcDbLine
 10
193.5205694283139
 20
723.1626001265286
 30
0.0
 11
194.1908992113508
 21
723.1626001265286
 31
0.0
  0
LINE
  5
2CE
102
{ACAD_REACTORS
330
47A
330
47B
102
}
330
71
100
AcDbEntity
  8
0
  6
Continuous
 62
     2
100
AcDbLine
 10
196.503624472042
 20
721.7348450244875
 30
0.0
 11
197.4395266015246
 21
721.7348450244875
 31
0.0
  0
LINE
  5
2CF
102
{ACAD_REACTORS
330
47A
330
47B
102
}
330
71
100
AcDbEntity
  8
0
  6
Continuous
 62
     2
100
AcDbLine
 10
198.6395137616318
 20
721.2877701945554
 30
0.0
 11
197.6143035052236
 21
721.2877701945554
 31
0.0
  0
LINE
  5
2D0
102
{ACAD_REACTORS
330
47A
330
47B
102
}
330
71
100
AcDbEntity
  8
0
  6
Continuous
 62
     2
100
AcDbLine
 10
196.4589704085796
 20
723.8115797183663
 30
0.0
 11
195.3036373119356
 21
721.2877701945554
 31
0.0
  0
LINE
  5
2D1
102
{ACAD_REACTORS
330
47A
330
47B
102
}
330
71
100
AcDbEntity
  8
0
  6
Continuous
 62
     2
100
AcDbLine
 10
196.328847568343
 20
721.2877701945554
 30
0.0
 11
196.503624472042
 21
721.7348450244875
 31
0.0
  0
LINE
  5
2D2
102
{ACAD_REACTORS
330
47A
330
47B
102
}
330
71
100
AcDbEntity
  8
0
  6
Continuous
 62
     2
100
AcDbLine
 10
196.7235050928231
 20
722.2972940040797
 30
0.0
 11
196.9715755367837
 21
722.9318518272092
 31
0.0
  0
LINE
  5
2D3
102
{ACAD_REACTORS
330
478
330
479
102
}
330
71
100
AcDbEntity
  8
0
  6
Continuous
 62
     2
100
AcDbLine
 10
197.9369844998789
 20
724.0639606707325
 30
0.0
 11
197.9369844998789
 21
726.5877701945434
 31
0.0
  0
LINE
  5
2D4
102
{ACAD_REACTORS
330
478
330
479
102
}
330
71
100
AcDbEntity
  8
0
  6
Continuous
 62
     2
100
AcDbLine
 10
198.9621947562863
 20
726.5877701945434
 30
0.0
 11
198.9621947562863
 21
724.0639606707325
 31
0.0
  0
LINE
  5
2D5
102
{ACAD_REACTORS
330
478
330
479
102
}
330
71
100
AcDbEntity
  8
0
  6
Continuous
 62
     2
100
AcDbLine
 10
197.9369844998789
 20
726.5877701945434
 30
0.0
 11
198.9621947562863
 21
726.5877701945434
 31
0.0
  0
LINE
  5
2D6
102
{ACAD_REACTORS
330
476
330
477
102
}
330
71
100
AcDbEntity
  8
0
  6
Continuous
 62
     2
100
AcDbLine
 10
200.7957438687084
 20
724.7149786751075
 30
0.0
 11
201.3714388588452
 21
724.0639606707325
 31
0.0
  0
LINE
  5
2D7
102
{ACAD_REACTORS
330
476
330
477
102
}
330
71
100
AcDbEntity
  8
0
  6
Continuous
 62
     2
100
AcDbLine
 10
201.3714388588452
 20
724.0639606707325
 30
0.0
 11
202.5307150718603
 21
724.0639606707325
 31
0.0
  0
LINE
  5
2D8
102
{ACAD_REACTORS
330
476
330
477
102
}
330
71
100
AcDbEntity
  8
0
  6
Continuous
 62
     2
100
AcDbLine
 10
201.3753819752154
 20
725.3704557069102
 30
0.0
 11
202.5307150718603
 21
724.0639606707325
 31
0.0
  0
LINE
  5
2D9
102
{ACAD_REACTORS
330
476
330
477
102
}
330
71
100
AcDbEntity
  8
0
  6
Continuous
 62
     2
100
AcDbLine
 10
201.3753819752154
 20
725.3704557069102
 30
0.0
 11
202.451852744444
 21
726.5877701945434
 31
0.0
  0
LINE
  5
2DA
102
{ACAD_REACTORS
330
476
330
477
102
}
330
71
100
AcDbEntity
  8
0
  6
Continuous
 62
     2
100
AcDbLine
 10
200.7957438687084
 20
726.0259327387124
 30
0.0
 11
201.2925765314298
 21
726.5877701945434
 31
0.0
  0
LINE
  5
2DB
102
{ACAD_REACTORS
330
476
330
477
102
}
330
71
100
AcDbEntity
  8
0
  6
Continuous
 62
     2
100
AcDbLine
 10
200.2989112059879
 20
726.5877701945434
 30
0.0
 11
200.7957438687084
 21
726.0259327387124
 31
0.0
  0
LINE
  5
2DC
102
{ACAD_REACTORS
330
476
330
477
102
}
330
71
100
AcDbEntity
  8
0
  6
Continuous
 62
     2
100
AcDbLine
 10
200.2989112059879
 20
726.5877701945434
 30
0.0
 11
199.139634992972
 21
726.5877701945434
 31
0.0
  0
LINE
  5
2DD
102
{ACAD_REACTORS
330
46C
330
46D
102
}
330
71
100
AcDbEntity
  8
0
  6
Continuous
 62
     2
100
AcDbLine
 10
200.8746061961239
 20
721.2877701945554
 30
0.0
 11
201.8603852888244
 21
721.2877701945554
 31
0.0
  0
LINE
  5
2DE
102
{ACAD_REACTORS
330
46C
330
46D
102
}
330
71
100
AcDbEntity
  8
0
  6
Continuous
 62
     2
100
AcDbLine
 10
201.8603852888244
 20
721.2877701945554
 30
0.0
 11
201.8603852888244
 21
723.1626001265286
 31
0.0
  0
LINE
  5
2DF
102
{ACAD_REACTORS
330
46C
330
46D
102
}
330
71
100
AcDbEntity
  8
0
  6
Continuous
 62
     2
100
AcDbLine
 10
201.8603852888244
 20
723.1626001265286
 30
0.0
 11
202.5307150718603
 21
723.1626001265286
 31
0.0
  0
LINE
  5
2E0
102
{ACAD_REACTORS
330
46C
330
46D
102
}
330
71
100
AcDbEntity
  8
0
  6
Continuous
 62
     2
100
AcDbLine
 10
202.5307150718603
 20
723.1626001265286
 30
0.0
 11
202.5307150718603
 21
723.8115797183663
 31
0.0
  0
LINE
  5
2E1
102
{ACAD_REACTORS
330
46C
330
46D
102
}
330
71
100
AcDbEntity
  8
0
  6
Continuous
 62
     2
100
AcDbLine
 10
199.73323943663
 20
723.8115797183658
 30
0.0
 11
202.5307150718603
 21
723.8115797183663
 31
0.0
  0
LINE
  5
2E2
102
{ACAD_REACTORS
330
46C
330
46D
102
}
330
71
100
AcDbEntity
  8
0
  6
Continuous
 62
     2
100
AcDbLine
 10
200.8746061961239
 20
723.1626001265286
 30
0.0
 11
200.8746061961239
 21
721.2877701945554
 31
0.0
  0
LINE
  5
2E3
102
{ACAD_REACTORS
330
46E
330
46F
102
}
330
71
100
AcDbEntity
  8
0
  6
Continuous
 62
     2
100
AcDbLine
 10
182.1725512907692
 20
722.9232083346914
 30
0.0
 11
182.1725512907692
 21
723.4040772658443
 31
0.0
  0
LINE
  5
2E4
102
{ACAD_REACTORS
330
46E
330
46F
102
}
330
71
100
AcDbEntity
  8
0
  6
Continuous
 62
     2
100
AcDbLine
 10
182.1725512907692
 20
725.237369166618
 30
0.0
 11
182.1725512907692
 21
725.7378115538137
 31
0.0
  0
LINE
  5
2E5
330
71
100
AcDbEntity
  8
1
  6
Continuous
 62
     6
100
AcDbLine
 10
50.34824346863931
 20
715.4377701945496
 30
0.0
 11
56.54824346863731
 21
715.4377701945494
 31
0.0
  0
LINE
  5
2E6
330
71
100
AcDbEntity
  8
1
  6
Continuous
 62
     6
100
AcDbLine
 10
56.54824346863731
 20
715.4377701945494
 30
0.0
 11
70.04824346863731
 21
715.4377701945496
 31
0.0
  0
LINE
  5
2E7
330
71
100
AcDbEntity
  8
1
  6
Continuous
 62
     6
100
AcDbLine
 10
70.04824346863731
 20
715.4377701945496
 30
0.0
 11
97.34824346863923
 21
715.43777019455
 31
0.0
  0
LINE
  5
2E8
330
71
100
AcDbEntity
  8
1
  6
Continuous
 62
     6
100
AcDbLine
 10
97.34824346863923
 20
715.43777019455
 30
0.0
 11
132.3034389418875
 21
715.4377701945494
 31
0.0
  0
LINE
  5
2E9
330
71
100
AcDbEntity
  8
1
  6
Continuous
 62
     6
100
AcDbLine
 10
159.3034389418874
 20
715.4377701945494
 30
0.0
 11
165.6815768019726
 21
715.43777019455
 31
0.0
  0
LINE
  5
2EA
330
71
100
AcDbEntity
  8
1
  6
Continuous
 62
     6
100
AcDbLine
 10
145.8034389418875
 20
715.4377701945494
 30
0.0
 11
159.3034389418874
 21
715.4377701945494
 31
0.0
  0
LINE
  5
2EB
330
71
100
AcDbEntity
  8
1
  6
Continuous
 62
     6
100
AcDbLine
 10
132.3034389418875
 20
715.4377701945494
 30
0.0
 11
145.8034389418875
 21
715.4377701945494
 31
0.0
  0
LINE
  5
2EC
330
71
100
AcDbEntity
  8
1
  6
Continuous
 62
     6
100
AcDbLine
 10
165.6815768019726
 20
715.43777019455
 30
0.0
 11
172.8034389418875
 21
715.4377701945494
 31
0.0
  0
LINE
  5
2ED
330
71
100
AcDbEntity
  8
1
  6
Continuous
 62
     6
100
AcDbLine
 10
172.8034389418875
 20
715.4377701945494
 30
0.0
 11
191.0034389418874
 21
715.4377701945496
 31
0.0
  0
LINE
  5
2EE
330
71
100
AcDbEntity
  8
1
  6
Continuous
 62
     6
100
AcDbLine
 10
191.0034389418874
 20
715.4377701945496
 30
0.0
 11
209.2034389418874
 21
715.4377701945494
 31
0.0
  0
LINE
  5
2EF
330
71
100
AcDbEntity
  8
1
  6
Continuous
 62
     6
100
AcDbLine
 10
209.2034389418874
 20
715.4377701945494
 30
0.0
 11
234.0149101353058
 21
715.43777019455
 31
0.0
  0
LINE
  5
2F0
330
71
100
AcDbEntity
  8
1
  6
Continuous
 62
     6
100
AcDbLine
 10
234.0149101353058
 20
715.43777019455
 30
0.0
 11
302.3482434686391
 21
715.4377701945496
 31
0.0
  0
LINE
  5
2F1
330
71
100
AcDbEntity
  8
1
  6
Continuous
 62
     6
100
AcDbLine
 10
302.3482434686388
 20
723.9377701945494
 30
0.0
 11
302.3482434686392
 21
732.4377701945494
 31
0.0
  0
LINE
  5
2F2
330
71
100
AcDbEntity
  8
1
  6
Continuous
 62
     6
100
AcDbLine
 10
302.3482434686392
 20
732.4377701945494
 30
0.0
 11
302.3482434686382
 21
736.6877701945494
 31
0.0
  0
LINE
  5
2F3
330
71
100
AcDbEntity
  8
1
  6
Continuous
 62
     6
100
AcDbLine
 10
302.3482434686382
 20
736.6877701945494
 30
0.0
 11
302.3482434686391
 21
745.1877701945494
 31
0.0
  0
LINE
  5
2F4
330
71
100
AcDbEntity
  8
1
  6
Continuous
 62
     6
100
AcDbLine
 10
302.3482434686391
 20
745.1877701945494
 30
0.0
 11
302.3482434686391
 21
772.8377701945501
 31
0.0
  0
LINE
  5
2F5
330
71
100
AcDbEntity
  8
1
  6
PHANTOM
 62
     2
100
AcDbLine
 10
180.9227021566878
 20
730.3127701945494
 30
0.0
 11
185.2382971258768
 21
730.3127701945494
 31
0.0
  0
LINE
  5
2F6
330
71
100
AcDbEntity
  8
1
  6
PHANTOM
 62
     2
100
AcDbLine
 10
177.8956987669908
 20
731.9627701945495
 30
0.0
 11
177.8956987669908
 21
728.6627701945495
 31
0.0
  0
LINE
  5
2F7
330
71
100
AcDbEntity
  8
1
  6
PHANTOM
 62
     2
100
AcDbLine
 10
179.5456987669908
 20
730.3127701945494
 30
0.0
 11
176.2456987669908
 21
730.3127701945494
 31
0.0
  0
LINE
  5
2F8
330
71
100
AcDbEntity
  8
1
  6
Continuous
 62
     7
100
AcDbLine
 10
209.2034389418874
 20
728.1877701945494
 30
0.0
 11
209.2034389418874
 21
732.4377701945494
 31
0.0
  0
LINE
  5
2F9
330
71
100
AcDbEntity
  8
1
  6
Continuous
 62
     7
100
AcDbLine
 10
172.8034389418875
 20
728.1877701945494
 30
0.0
 11
209.2034389418874
 21
728.1877701945494
 31
0.0
  0
LINE
  5
2FA
330
71
100
AcDbEntity
  8
1
  6
Continuous
 62
     7
100
AcDbLine
 10
70.04824346863731
 20
719.6877701945496
 30
0.0
 11
132.3034389418875
 21
719.6877701945496
 31
0.0
  0
LINE
  5
2FB
330
71
100
AcDbEntity
  8
1
  6
Continuous
 62
     2
100
AcDbLine
 10
70.04824346863731
 20
719.6877701945496
 30
0.0
 11
70.04824346863731
 21
715.4377701945496
 31
0.0
  0
LINE
  5
2FC
330
71
100
AcDbEntity
  8
1
  6
Continuous
 62
     2
100
AcDbLine
 10
70.04824346863731
 20
723.9377701945494
 30
0.0
 11
56.54824346863731
 21
723.9377701945494
 31
0.0
  0
LINE
  5
2FD
330
71
100
AcDbEntity
  8
1
  6
Continuous
 62
     2
100
AcDbLine
 10
70.04824346863731
 20
723.9377701945494
 30
0.0
 11
70.04824346863731
 21
719.6877701945496
 31
0.0
  0
LINE
  5
2FE
330
71
100
AcDbEntity
  8
1
  6
Continuous
 62
     2
100
AcDbLine
 10
70.04824346863731
 20
732.4377701945494
 30
0.0
 11
56.54824346863731
 21
732.4377701945494
 31
0.0
  0
LINE
  5
2FF
330
71
100
AcDbEntity
  8
1
  6
Continuous
 62
     2
100
AcDbLine
 10
70.04824346863731
 20
732.4377701945494
 30
0.0
 11
70.04824346863731
 21
728.1877701945494
 31
0.0
  0
LINE
  5
300
330
71
100
AcDbEntity
  8
1
  6
Continuous
 62
     2
100
AcDbLine
 10
70.04824346863731
 20
728.1877701945494
 30
0.0
 11
56.54824346863731
 21
728.1877701945494
 31
0.0
  0
LINE
  5
301
330
71
100
AcDbEntity
  8
1
  6
Continuous
 62
     2
100
AcDbLine
 10
70.04824346863731
 20
728.1877701945494
 30
0.0
 11
70.04824346863731
 21
723.9377701945494
 31
0.0
  0
LINE
  5
302
330
71
100
AcDbEntity
  8
1
  6
Continuous
 62
     2
100
AcDbLine
 10
70.04824346863731
 20
740.9377701945494
 30
0.0
 11
56.54824346863731
 21
740.9377701945494
 31
0.0
  0
LINE
  5
303
330
71
100
AcDbEntity
  8
1
  6
Continuous
 62
     2
100
AcDbLine
 10
70.04824346863731
 20
736.6877701945494
 30
0.0
 11
56.54824346863731
 21
736.6877701945494
 31
0.0
  0
LINE
  5
304
330
71
100
AcDbEntity
  8
1
  6
Continuous
 62
     2
100
AcDbLine
 10
70.04824346863731
 20
736.6877701945494
 30
0.0
 11
70.04824346863731
 21
732.4377701945494
 31
0.0
  0
LINE
  5
305
330
71
100
AcDbEntity
  8
1
  6
Continuous
 62
     2
100
AcDbLine
 10
70.04824346863731
 20
740.9377701945494
 30
0.0
 11
70.04824346863731
 21
736.6877701945494
 31
0.0
  0
LINE
  5
306
330
71
100
AcDbEntity
  8
1
  6
Continuous
 62
     6
100
AcDbLine
 10
70.04824346863731
 20
745.1877701945494
 30
0.0
 11
56.54824346863731
 21
745.1877701945494
 31
0.0
  0
LINE
  5
307
330
71
100
AcDbEntity
  8
1
  6
Continuous
 62
     2
100
AcDbLine
 10
70.04824346863731
 20
745.1877701945494
 30
0.0
 11
70.04824346863731
 21
740.9377701945494
 31
0.0
  0
LINE
  5
308
330
71
100
AcDbEntity
  8
1
  6
Continuous
 62
     6
100
AcDbLine
 10
302.3482434686391
 20
745.1877701945494
 30
0.0
 11
284.4666517503183
 21
745.1877701945494
 31
0.0
  0
LINE
  5
309
330
71
100
AcDbEntity
  8
1
  6
Continuous
 62
     7
100
AcDbLine
 10
302.3482434686388
 20
723.9377701945494
 30
0.0
 11
257.3482434686412
 21
723.9377701945494
 31
0.0
  0
LINE
  5
30A
330
71
100
AcDbEntity
  8
1
  6
Continuous
 62
     7
100
AcDbLine
 10
302.3482434686382
 20
736.6877701945494
 30
0.0
 11
284.4666517503183
 21
736.6877701945494
 31
0.0
  0
LINE
  5
30B
330
71
100
AcDbEntity
  8
1
  6
Continuous
 62
     7
100
AcDbLine
 10
257.3482434686412
 20
732.4377701945494
 30
0.0
 11
302.3482434686392
 21
732.4377701945494
 31
0.0
  0
LINE
  5
30C
330
71
100
AcDbEntity
  8
1
  6
Continuous
 62
     7
100
AcDbLine
 10
209.2034389418874
 20
740.9377701945494
 30
0.0
 11
209.2034389418874
 21
736.6877701945494
 31
0.0
  0
LINE
  5
30D
330
71
100
AcDbEntity
  8
1
  6
Continuous
 62
     7
100
AcDbLine
 10
195.7034389418874
 20
740.9377701945494
 30
0.0
 11
209.2034389418874
 21
740.9377701945494
 31
0.0
  0
LINE
  5
30E
330
71
100
AcDbEntity
  8
1
  6
Continuous
 62
     7
100
AcDbLine
 10
195.7034389418874
 20
740.9377701945494
 30
0.0
 11
182.2034389418875
 21
740.9377701945494
 31
0.0
  0
LINE
  5
30F
330
71
100
AcDbEntity
  8
1
  6
Continuous
 62
     7
100
AcDbLine
 10
284.4666517503183
 20
736.6877701945494
 30
0.0
 11
284.4666517503183
 21
745.1877701945494
 31
0.0
  0
LINE
  5
310
330
71
100
AcDbEntity
  8
1
  6
Continuous
 62
     6
100
AcDbLine
 10
275.5482434686392
 20
745.1877701945494
 30
0.0
 11
284.4666517503183
 21
745.1877701945494
 31
0.0
  0
LINE
  5
311
330
71
100
AcDbEntity
  8
1
  6
Continuous
 62
     7
100
AcDbLine
 10
275.5482434686392
 20
745.1877701945494
 30
0.0
 11
275.5482434686394
 21
736.6877701945496
 31
0.0
  0
LINE
  5
312
330
71
100
AcDbEntity
  8
1
  6
Continuous
 62
     7
100
AcDbLine
 10
257.3482434686412
 20
723.9377701945494
 30
0.0
 11
238.8482434686415
 21
723.9377701945494
 31
0.0
  0
LINE
  5
313
330
71
100
AcDbEntity
  8
1
  6
Continuous
 62
     7
100
AcDbLine
 10
257.3482434686412
 20
732.4377701945494
 30
0.0
 11
257.3482434686412
 21
723.9377701945494
 31
0.0
  0
LINE
  5
314
330
71
100
AcDbEntity
  8
1
  6
Continuous
 62
     2
100
AcDbLine
 10
159.3034389418874
 20
745.1877701945494
 30
0.0
 11
159.3034389418874
 21
740.9377701945494
 31
0.0
  0
LINE
  5
315
330
71
100
AcDbEntity
  8
1
  6
Continuous
 62
     2
100
AcDbLine
 10
145.8034389418875
 20
745.1877701945494
 30
0.0
 11
145.8034389418875
 21
740.9377701945494
 31
0.0
  0
LINE
  5
316
330
71
100
AcDbEntity
  8
1
  6
Continuous
 62
     6
100
AcDbLine
 10
159.3034389418874
 20
745.1877701945494
 30
0.0
 11
145.8034389418875
 21
745.1877701945494
 31
0.0
  0
LINE
  5
317
330
71
100
AcDbEntity
  8
1
  6
Continuous
 62
     6
100
AcDbLine
 10
145.8034389418875
 20
745.1877701945494
 30
0.0
 11
132.3034389418875
 21
745.1877701945494
 31
0.0
  0
LINE
  5
318
330
71
100
AcDbEntity
  8
1
  6
Continuous
 62
     2
100
AcDbLine
 10
132.3034389418875
 20
745.1877701945494
 30
0.0
 11
132.3034389418875
 21
740.9377701945494
 31
0.0
  0
LINE
  5
319
330
71
100
AcDbEntity
  8
1
  6
Continuous
 62
     7
100
AcDbLine
 10
191.0034389418874
 20
719.6877701945496
 30
0.0
 11
191.0034389418874
 21
715.4377701945496
 31
0.0
  0
LINE
  5
31A
330
71
100
AcDbEntity
  8
1
  6
Continuous
 62
     7
100
AcDbLine
 10
191.0034389418874
 20
719.6877701945496
 30
0.0
 11
172.8034389418875
 21
719.6877701945496
 31
0.0
  0
LINE
  5
31B
330
71
100
AcDbEntity
  8
1
  6
Continuous
 62
     7
100
AcDbLine
 10
195.7034389418874
 20
732.4377701945494
 30
0.0
 11
182.2034389418875
 21
732.4377701945496
 31
0.0
  0
LINE
  5
31C
330
71
100
AcDbEntity
  8
1
  6
Continuous
 62
     7
100
AcDbLine
 10
209.2034389418874
 20
719.6877701945496
 30
0.0
 11
191.0034389418874
 21
719.6877701945496
 31
0.0
  0
LINE
  5
31D
330
71
100
AcDbEntity
  8
1
  6
Continuous
 62
     6
100
AcDbLine
 10
209.2034389418874
 20
745.1877701945494
 30
0.0
 11
232.1034389418874
 21
745.1877701945494
 31
0.0
  0
LINE
  5
31E
330
71
100
AcDbEntity
  8
1
  6
Continuous
 62
     6
100
AcDbLine
 10
275.5482434686392
 20
745.1877701945494
 30
0.0
 11
232.1034389418874
 21
745.1877701945494
 31
0.0
  0
LINE
  5
31F
330
71
100
AcDbEntity
  8
1
  6
Continuous
 62
     7
100
AcDbLine
 10
232.1034389418874
 20
745.1877701945494
 30
0.0
 11
232.1034389418874
 21
736.6877701945494
 31
0.0
  0
LINE
  5
320
330
71
100
AcDbEntity
  8
1
  6
Continuous
 62
     6
100
AcDbLine
 10
56.54824346863731
 20
745.1877701945494
 30
0.0
 11
50.34824346863931
 21
745.1877701945494
 31
0.0
  0
LINE
  5
321
330
71
100
AcDbEntity
  8
1
  6
Continuous
 62
     6
100
AcDbLine
 10
50.34824346863931
 20
715.4377701945496
 30
0.0
 11
50.34824346863931
 21
719.6877701945496
 31
0.0
  0
LINE
  5
322
330
71
100
AcDbEntity
  8
1
  6
Continuous
 62
     6
100
AcDbLine
 10
50.34824346863931
 20
719.6877701945496
 30
0.0
 11
50.34824346863931
 21
723.9377701945494
 31
0.0
  0
LINE
  5
323
330
71
100
AcDbEntity
  8
1
  6
Continuous
 62
     7
100
AcDbLine
 10
195.7034389418874
 20
736.6877701945494
 30
0.0
 11
195.7034389418874
 21
732.4377701945494
 31
0.0
  0
LINE
  5
324
330
71
100
AcDbEntity
  8
1
  6
Continuous
 62
     7
100
AcDbLine
 10
182.2034389418875
 20
736.6877701945494
 30
0.0
 11
182.2034389418875
 21
732.4377701945496
 31
0.0
  0
LINE
  5
325
330
71
100
AcDbEntity
  8
1
  6
Continuous
 62
     7
100
AcDbLine
 10
195.7034389418874
 20
736.6877701945494
 30
0.0
 11
182.2034389418875
 21
736.6877701945494
 31
0.0
  0
LINE
  5
326
330
71
100
AcDbEntity
  8
1
  6
Continuous
 62
     2
100
AcDbLine
 10
172.8034389418875
 20
732.4377701945494
 30
0.0
 11
159.3034389418874
 21
732.4377701945494
 31
0.0
  0
LINE
  5
327
330
71
100
AcDbEntity
  8
1
  6
Continuous
 62
     2
100
AcDbLine
 10
56.54824346863731
 20
732.4377701945494
 30
0.0
 11
56.54824346863731
 21
736.6877701945494
 31
0.0
  0
LINE
  5
328
330
71
100
AcDbEntity
  8
1
  6
Continuous
 62
     2
100
AcDbLine
 10
56.54824346863731
 20
732.4377701945494
 30
0.0
 11
50.34824346863931
 21
732.4377701945494
 31
0.0
  0
LINE
  5
329
330
71
100
AcDbEntity
  8
1
  6
Continuous
 62
     2
100
AcDbLine
 10
172.8034389418875
 20
736.6877701945494
 30
0.0
 11
159.3034389418874
 21
736.6877701945494
 31
0.0
  0
LINE
  5
32A
330
71
100
AcDbEntity
  8
1
  6
Continuous
 62
     2
100
AcDbLine
 10
56.54824346863731
 20
736.6877701945494
 30
0.0
 11
56.54824346863731
 21
740.9377701945494
 31
0.0
  0
LINE
  5
32B
330
71
100
AcDbEntity
  8
1
  6
Continuous
 62
     2
100
AcDbLine
 10
172.8034389418875
 20
740.9377701945494
 30
0.0
 11
159.3034389418874
 21
740.9377701945494
 31
0.0
  0
LINE
  5
32C
330
71
100
AcDbEntity
  8
1
  6
Continuous
 62
     2
100
AcDbLine
 10
56.54824346863731
 20
740.9377701945494
 30
0.0
 11
56.54824346863731
 21
745.1877701945494
 31
0.0
  0
LINE
  5
32D
330
71
100
AcDbEntity
  8
1
  6
Continuous
 62
     2
100
AcDbLine
 10
56.54824346863731
 20
740.9377701945494
 30
0.0
 11
50.34824346863931
 21
740.9377701945494
 31
0.0
  0
LINE
  5
32E
330
71
100
AcDbEntity
  8
1
  6
Continuous
 62
     6
100
AcDbLine
 10
172.8034389418875
 20
745.1877701945494
 30
0.0
 11
159.3034389418874
 21
745.1877701945494
 31
0.0
  0
LINE
  5
32F
330
71
100
AcDbEntity
  8
1
  6
Continuous
 62
     2
100
AcDbLine
 10
172.8034389418875
 20
723.9377701945494
 30
0.0
 11
159.3034389418874
 21
723.9377701945494
 31
0.0
  0
LINE
  5
330
330
71
100
AcDbEntity
  8
1
  6
Continuous
 62
     2
100
AcDbLine
 10
172.8034389418875
 20
728.1877701945494
 30
0.0
 11
159.3034389418874
 21
728.1877701945494
 31
0.0
  0
LINE
  5
331
330
71
100
AcDbEntity
  8
1
  6
Continuous
 62
     2
100
AcDbLine
 10
56.54824346863731
 20
723.9377701945494
 30
0.0
 11
56.54824346863731
 21
728.1877701945494
 31
0.0
  0
LINE
  5
332
330
71
100
AcDbEntity
  8
1
  6
Continuous
 62
     2
100
AcDbLine
 10
56.54824346863731
 20
728.1877701945494
 30
0.0
 11
56.54824346863731
 21
732.4377701945494
 31
0.0
  0
LINE
  5
333
330
71
100
AcDbEntity
  8
1
  6
Continuous
 62
     7
100
AcDbLine
 10
56.54824346863731
 20
719.6877701945496
 30
0.0
 11
70.04824346863731
 21
719.6877701945496
 31
0.0
  0
LINE
  5
334
330
71
100
AcDbEntity
  8
1
  6
Continuous
 62
     2
100
AcDbLine
 10
56.54824346863731
 20
719.6877701945496
 30
0.0
 11
56.54824346863731
 21
723.9377701945494
 31
0.0
  0
LINE
  5
335
330
71
100
AcDbEntity
  8
1
  6
Continuous
 62
     7
100
AcDbLine
 10
209.2034389418874
 20
723.9377701945494
 30
0.0
 11
209.2034389418874
 21
728.1877701945494
 31
0.0
  0
LINE
  5
336
330
71
100
AcDbEntity
  8
1
  6
Continuous
 62
     6
100
AcDbLine
 10
195.7034389418874
 20
745.1877701945494
 30
0.0
 11
209.2034389418874
 21
745.1877701945494
 31
0.0
  0
LINE
  5
337
330
71
100
AcDbEntity
  8
1
  6
Continuous
 62
     7
100
AcDbLine
 10
209.2034389418874
 20
745.1877701945494
 30
0.0
 11
209.2034389418874
 21
740.9377701945494
 31
0.0
  0
LINE
  5
338
330
71
100
AcDbEntity
  8
1
  6
Continuous
 62
     6
100
AcDbLine
 10
182.2034389418875
 20
745.1877701945494
 30
0.0
 11
195.7034389418874
 21
745.1877701945494
 31
0.0
  0
LINE
  5
339
330
71
100
AcDbEntity
  8
1
  6
Continuous
 62
     7
100
AcDbLine
 10
172.8034389418875
 20
732.4377701945494
 30
0.0
 11
172.8034389418875
 21
728.1877701945494
 31
0.0
  0
LINE
  5
33A
330
71
100
AcDbEntity
  8
1
  6
Continuous
 62
     7
100
AcDbLine
 10
172.8034389418875
 20
736.6877701945494
 30
0.0
 11
172.8034389418875
 21
732.4377701945494
 31
0.0
  0
LINE
  5
33B
330
71
100
AcDbEntity
  8
1
  6
Continuous
 62
     2
100
AcDbLine
 10
50.34824346863931
 20
736.6877701945494
 30
0.0
 11
56.54824346863731
 21
736.6877701945494
 31
0.0
  0
LINE
  5
33C
330
71
100
AcDbEntity
  8
1
  6
Continuous
 62
     7
100
AcDbLine
 10
172.8034389418875
 20
740.9377701945494
 30
0.0
 11
172.8034389418875
 21
736.6877701945494
 31
0.0
  0
LINE
  5
33D
330
71
100
AcDbEntity
  8
1
  6
Continuous
 62
     7
100
AcDbLine
 10
209.2034389418874
 20
736.6877701945494
 30
0.0
 11
209.2034389418874
 21
732.4377701945494
 31
0.0
  0
LINE
  5
33E
330
71
100
AcDbEntity
  8
1
  6
Continuous
 62
     7
100
AcDbLine
 10
195.7034389418874
 20
745.1877701945494
 30
0.0
 11
195.7034389418874
 21
740.9377701945494
 31
0.0
  0
LINE
  5
33F
330
71
100
AcDbEntity
  8
1
  6
Continuous
 62
     7
100
AcDbLine
 10
182.2034389418875
 20
745.1877701945494
 30
0.0
 11
182.2034389418875
 21
740.9377701945494
 31
0.0
  0
LINE
  5
340
330
71
100
AcDbEntity
  8
1
  6
Continuous
 62
     2
100
AcDbLine
 10
56.54824346863731
 20
715.4377701945494
 30
0.0
 11
56.54824346863731
 21
719.6877701945496
 31
0.0
  0
LINE
  5
341
330
71
100
AcDbEntity
  8
1
  6
Continuous
 62
     2
100
AcDbLine
 10
50.34824346863931
 20
723.9377701945494
 30
0.0
 11
56.54824346863731
 21
723.9377701945494
 31
0.0
  0
LINE
  5
342
330
71
100
AcDbEntity
  8
1
  6
Continuous
 62
     2
100
AcDbLine
 10
50.34824346863931
 20
728.1877701945494
 30
0.0
 11
56.54824346863731
 21
728.1877701945494
 31
0.0
  0
LINE
  5
343
330
71
100
AcDbEntity
  8
1
  6
Continuous
 62
     7
100
AcDbLine
 10
50.34824346863931
 20
719.6877701945496
 30
0.0
 11
56.54824346863731
 21
719.6877701945496
 31
0.0
  0
LINE
  5
344
330
71
100
AcDbEntity
  8
1
  6
Continuous
 62
     7
100
AcDbLine
 10
209.2034389418874
 20
723.9377701945494
 30
0.0
 11
209.2034389418874
 21
719.6877701945496
 31
0.0
  0
LINE
  5
345
330
71
100
AcDbEntity
  8
1
  6
Continuous
 62
     7
100
AcDbLine
 10
172.8034389418875
 20
728.1877701945494
 30
0.0
 11
172.8034389418875
 21
723.9377701945494
 31
0.0
  0
LINE
  5
346
330
71
100
AcDbEntity
  8
1
  6
Continuous
 62
     7
100
AcDbLine
 10
172.8034389418875
 20
723.9377701945494
 30
0.0
 11
172.8034389418875
 21
719.6877701945496
 31
0.0
  0
LINE
  5
347
330
71
100
AcDbEntity
  8
1
  6
Continuous
 62
     7
100
AcDbLine
 10
195.7034389418874
 20
740.9377701945494
 30
0.0
 11
195.7034389418874
 21
736.6877701945494
 31
0.0
  0
LINE
  5
348
330
71
100
AcDbEntity
  8
1
  6
Continuous
 62
     7
100
AcDbLine
 10
182.2034389418875
 20
740.9377701945494
 30
0.0
 11
182.2034389418875
 21
736.6877701945494
 31
0.0
  0
LINE
  5
349
330
71
100
AcDbEntity
  8
1
  6
Continuous
 62
     7
100
AcDbLine
 10
172.8034389418875
 20
736.6877701945494
 30
0.0
 11
182.2034389418875
 21
736.6877701945494
 31
0.0
  0
LINE
  5
34A
330
71
100
AcDbEntity
  8
1
  6
Continuous
 62
     7
100
AcDbLine
 10
209.2034389418874
 20
732.4377701945494
 30
0.0
 11
195.7034389418874
 21
732.4377701945494
 31
0.0
  0
LINE
  5
34B
330
71
100
AcDbEntity
  8
1
  6
Continuous
 62
     7
100
AcDbLine
 10
209.2034389418874
 20
719.6877701945496
 30
0.0
 11
209.2034389418874
 21
715.4377701945494
 31
0.0
  0
LINE
  5
34C
330
71
100
AcDbEntity
  8
1
  6
Continuous
 62
     7
100
AcDbLine
 10
172.8034389418875
 20
719.6877701945496
 30
0.0
 11
172.8034389418875
 21
715.4377701945494
 31
0.0
  0
LINE
  5
34D
330
71
100
AcDbEntity
  8
1
  6
Continuous
 62
     7
100
AcDbLine
 10
172.8034389418875
 20
745.1877701945494
 30
0.0
 11
172.8034389418875
 21
740.9377701945494
 31
0.0
  0
LINE
  5
34E
330
71
100
AcDbEntity
  8
1
  6
Continuous
 62
     7
100
AcDbLine
 10
209.2034389418874
 20
723.9377701945494
 30
0.0
 11
238.8482434686415
 21
723.9377701945494
 31
0.0
  0
LINE
  5
34F
330
71
100
AcDbEntity
  8
1
  6
Continuous
 62
     7
100
AcDbLine
 10
209.2034389418874
 20
732.4377701945494
 30
0.0
 11
238.8482434686415
 21
732.4377701945494
 31
0.0
  0
LINE
  5
350
330
71
100
AcDbEntity
  8
1
  6
Continuous
 62
     7
100
AcDbLine
 10
275.5482434686394
 20
736.6877701945496
 30
0.0
 11
284.4666517503183
 21
736.6877701945494
 31
0.0
  0
LINE
  5
351
330
71
100
AcDbEntity
  8
1
  6
Continuous
 62
     7
100
AcDbLine
 10
275.5482434686394
 20
736.6877701945496
 30
0.0
 11
238.8482434686415
 21
736.6877701945494
 31
0.0
  0
LINE
  5
352
330
71
100
AcDbEntity
  8
1
  6
Continuous
 62
     7
100
AcDbLine
 10
238.8482434686415
 20
732.4377701945494
 30
0.0
 11
257.3482434686412
 21
732.4377701945494
 31
0.0
  0
LINE
  5
353
330
71
100
AcDbEntity
  8
1
  6
Continuous
 62
     7
100
AcDbLine
 10
238.8482434686415
 20
732.4377701945494
 30
0.0
 11
238.8482434686415
 21
723.9377701945494
 31
0.0
  0
LINE
  5
354
330
71
100
AcDbEntity
  8
1
  6
Continuous
 62
     6
100
AcDbLine
 10
50.34824346863931
 20
740.9377701945494
 30
0.0
 11
50.34824346863931
 21
745.1877701945494
 31
0.0
  0
LINE
  5
355
330
71
100
AcDbEntity
  8
1
  6
Continuous
 62
     6
100
AcDbLine
 10
50.34824346863931
 20
736.6877701945494
 30
0.0
 11
50.34824346863931
 21
740.9377701945494
 31
0.0
  0
LINE
  5
356
330
71
100
AcDbEntity
  8
1
  6
Continuous
 62
     6
100
AcDbLine
 10
50.34824346863931
 20
732.4377701945494
 30
0.0
 11
50.34824346863931
 21
736.6877701945494
 31
0.0
  0
LINE
  5
357
330
71
100
AcDbEntity
  8
1
  6
Continuous
 62
     6
100
AcDbLine
 10
50.34824346863931
 20
723.9377701945494
 30
0.0
 11
50.34824346863931
 21
728.1877701945494
 31
0.0
  0
LINE
  5
358
330
71
100
AcDbEntity
  8
1
  6
Continuous
 62
     6
100
AcDbLine
 10
132.3034389418875
 20
745.1877701945494
 30
0.0
 11
70.04824346863731
 21
745.1877701945494
 31
0.0
  0
LINE
  5
359
330
71
100
AcDbEntity
  8
1
  6
Continuous
 62
     2
100
AcDbLine
 10
70.04824346863731
 20
740.9377701945494
 30
0.0
 11
132.3034389418875
 21
740.9377701945494
 31
0.0
  0
LINE
  5
35A
330
71
100
AcDbEntity
  8
1
  6
Continuous
 62
     2
100
AcDbLine
 10
70.04824346863731
 20
736.6877701945494
 30
0.0
 11
132.3034389418875
 21
736.6877701945494
 31
0.0
  0
LINE
  5
35B
330
71
100
AcDbEntity
  8
1
  6
Continuous
 62
     7
100
AcDbLine
 10
195.7034389418874
 20
736.6877701945494
 30
0.0
 11
209.2034389418874
 21
736.6877701945494
 31
0.0
  0
LINE
  5
35C
330
71
100
AcDbEntity
  8
1
  6
Continuous
 62
     7
100
AcDbLine
 10
232.1034389418874
 20
736.6877701945494
 30
0.0
 11
209.2034389418874
 21
736.6877701945494
 31
0.0
  0
LINE
  5
35D
330
71
100
AcDbEntity
  8
1
  6
Continuous
 62
     2
100
AcDbLine
 10
159.3034389418874
 20
723.9377701945494
 30
0.0
 11
159.3034389418874
 21
719.6877701945496
 31
0.0
  0
LINE
  5
35E
330
71
100
AcDbEntity
  8
1
  6
Continuous
 62
     2
100
AcDbLine
 10
159.3034389418874
 20
723.9377701945494
 30
0.0
 11
145.8034389418875
 21
723.9377701945494
 31
0.0
  0
LINE
  5
35F
330
71
100
AcDbEntity
  8
1
  6
Continuous
 62
     2
100
AcDbLine
 10
159.3034389418874
 20
719.6877701945496
 30
0.0
 11
159.3034389418874
 21
715.4377701945494
 31
0.0
  0
LINE
  5
360
330
71
100
AcDbEntity
  8
1
  6
Continuous
 62
     7
100
AcDbLine
 10
159.3034389418874
 20
719.6877701945496
 30
0.0
 11
172.8034389418875
 21
719.6877701945496
 31
0.0
  0
LINE
  5
361
330
71
100
AcDbEntity
  8
1
  6
Continuous
 62
     2
100
AcDbLine
 10
159.3034389418874
 20
732.4377701945494
 30
0.0
 11
159.3034389418874
 21
728.1877701945494
 31
0.0
  0
LINE
  5
362
330
71
100
AcDbEntity
  8
1
  6
Continuous
 62
     2
100
AcDbLine
 10
159.3034389418874
 20
732.4377701945494
 30
0.0
 11
145.8034389418875
 21
732.4377701945494
 31
0.0
  0
LINE
  5
363
330
71
100
AcDbEntity
  8
1
  6
Continuous
 62
     2
100
AcDbLine
 10
159.3034389418874
 20
736.6877701945494
 30
0.0
 11
159.3034389418874
 21
732.4377701945494
 31
0.0
  0
LINE
  5
364
330
71
100
AcDbEntity
  8
1
  6
Continuous
 62
     2
100
AcDbLine
 10
159.3034389418874
 20
736.6877701945494
 30
0.0
 11
145.8034389418875
 21
736.6877701945494
 31
0.0
  0
LINE
  5
365
330
71
100
AcDbEntity
  8
1
  6
Continuous
 62
     2
100
AcDbLine
 10
159.3034389418874
 20
740.9377701945494
 30
0.0
 11
159.3034389418874
 21
736.6877701945494
 31
0.0
  0
LINE
  5
366
330
71
100
AcDbEntity
  8
1
  6
Continuous
 62
     2
100
AcDbLine
 10
159.3034389418874
 20
740.9377701945494
 30
0.0
 11
145.8034389418875
 21
740.9377701945494
 31
0.0
  0
LINE
  5
367
330
71
100
AcDbEntity
  8
1
  6
Continuous
 62
     2
100
AcDbLine
 10
159.3034389418874
 20
728.1877701945494
 30
0.0
 11
159.3034389418874
 21
723.9377701945494
 31
0.0
  0
LINE
  5
368
330
71
100
AcDbEntity
  8
1
  6
Continuous
 62
     2
100
AcDbLine
 10
159.3034389418874
 20
728.1877701945494
 30
0.0
 11
145.8034389418875
 21
728.1877701945494
 31
0.0
  0
LINE
  5
369
330
71
100
AcDbEntity
  8
1
  6
Continuous
 62
     2
100
AcDbLine
 10
145.8034389418875
 20
723.9377701945494
 30
0.0
 11
145.8034389418875
 21
719.6877701945496
 31
0.0
  0
LINE
  5
36A
330
71
100
AcDbEntity
  8
1
  6
Continuous
 62
     2
100
AcDbLine
 10
145.8034389418875
 20
723.9377701945494
 30
0.0
 11
132.3034389418875
 21
723.9377701945494
 31
0.0
  0
LINE
  5
36B
330
71
100
AcDbEntity
  8
1
  6
Continuous
 62
     2
100
AcDbLine
 10
145.8034389418875
 20
719.6877701945496
 30
0.0
 11
145.8034389418875
 21
715.4377701945494
 31
0.0
  0
LINE
  5
36C
330
71
100
AcDbEntity
  8
1
  6
Continuous
 62
     7
100
AcDbLine
 10
145.8034389418875
 20
719.6877701945496
 30
0.0
 11
159.3034389418874
 21
719.6877701945496
 31
0.0
  0
LINE
  5
36D
330
71
100
AcDbEntity
  8
1
  6
Continuous
 62
     2
100
AcDbLine
 10
145.8034389418875
 20
732.4377701945494
 30
0.0
 11
145.8034389418875
 21
728.1877701945494
 31
0.0
  0
LINE
  5
36E
330
71
100
AcDbEntity
  8
1
  6
Continuous
 62
     2
100
AcDbLine
 10
145.8034389418875
 20
732.4377701945494
 30
0.0
 11
132.3034389418875
 21
732.4377701945494
 31
0.0
  0
LINE
  5
36F
330
71
100
AcDbEntity
  8
1
  6
Continuous
 62
     2
100
AcDbLine
 10
145.8034389418875
 20
736.6877701945494
 30
0.0
 11
145.8034389418875
 21
732.4377701945494
 31
0.0
  0
LINE
  5
370
330
71
100
AcDbEntity
  8
1
  6
Continuous
 62
     2
100
AcDbLine
 10
145.8034389418875
 20
736.6877701945494
 30
0.0
 11
132.3034389418875
 21
736.6877701945494
 31
0.0
  0
LINE
  5
371
330
71
100
AcDbEntity
  8
1
  6
Continuous
 62
     2
100
AcDbLine
 10
145.8034389418875
 20
740.9377701945494
 30
0.0
 11
145.8034389418875
 21
736.6877701945494
 31
0.0
  0
LINE
  5
372
330
71
100
AcDbEntity
  8
1
  6
Continuous
 62
     2
100
AcDbLine
 10
145.8034389418875
 20
740.9377701945494
 30
0.0
 11
132.3034389418875
 21
740.9377701945494
 31
0.0
  0
LINE
  5
373
330
71
100
AcDbEntity
  8
1
  6
Continuous
 62
     2
100
AcDbLine
 10
145.8034389418875
 20
728.1877701945494
 30
0.0
 11
145.8034389418875
 21
723.9377701945494
 31
0.0
  0
LINE
  5
374
330
71
100
AcDbEntity
  8
1
  6
Continuous
 62
     2
100
AcDbLine
 10
145.8034389418875
 20
728.1877701945494
 30
0.0
 11
132.3034389418875
 21
728.1877701945494
 31
0.0
  0
LINE
  5
375
330
71
100
AcDbEntity
  8
1
  6
Continuous
 62
     2
100
AcDbLine
 10
132.3034389418875
 20
723.9377701945494
 30
0.0
 11
132.3034389418875
 21
719.6877701945496
 31
0.0
  0
LINE
  5
376
330
71
100
AcDbEntity
  8
1
  6
Continuous
 62
     2
100
AcDbLine
 10
132.3034389418875
 20
723.9377701945494
 30
0.0
 11
70.04824346863731
 21
723.9377701945494
 31
0.0
  0
LINE
  5
377
330
71
100
AcDbEntity
  8
1
  6
Continuous
 62
     2
100
AcDbLine
 10
132.3034389418875
 20
719.6877701945496
 30
0.0
 11
132.3034389418875
 21
715.4377701945494
 31
0.0
  0
LINE
  5
378
330
71
100
AcDbEntity
  8
1
  6
Continuous
 62
     7
100
AcDbLine
 10
132.3034389418875
 20
719.6877701945496
 30
0.0
 11
145.8034389418875
 21
719.6877701945496
 31
0.0
  0
LINE
  5
379
330
71
100
AcDbEntity
  8
1
  6
Continuous
 62
     2
100
AcDbLine
 10
132.3034389418875
 20
732.4377701945494
 30
0.0
 11
132.3034389418875
 21
728.1877701945494
 31
0.0
  0
LINE
  5
37A
330
71
100
AcDbEntity
  8
1
  6
Continuous
 62
     2
100
AcDbLine
 10
132.3034389418875
 20
732.4377701945494
 30
0.0
 11
70.04824346863731
 21
732.4377701945494
 31
0.0
  0
LINE
  5
37B
330
71
100
AcDbEntity
  8
1
  6
Continuous
 62
     2
100
AcDbLine
 10
132.3034389418875
 20
736.6877701945494
 30
0.0
 11
132.3034389418875
 21
732.4377701945494
 31
0.0
  0
LINE
  5
37C
330
71
100
AcDbEntity
  8
1
  6
Continuous
 62
     2
100
AcDbLine
 10
132.3034389418875
 20
740.9377701945494
 30
0.0
 11
132.3034389418875
 21
736.6877701945494
 31
0.0
  0
LINE
  5
37D
330
71
100
AcDbEntity
  8
1
  6
Continuous
 62
     2
100
AcDbLine
 10
132.3034389418875
 20
728.1877701945494
 30
0.0
 11
132.3034389418875
 21
723.9377701945494
 31
0.0
  0
LINE
  5
37E
330
71
100
AcDbEntity
  8
1
  6
Continuous
 62
     2
100
AcDbLine
 10
132.3034389418875
 20
728.1877701945494
 30
0.0
 11
70.04824346863731
 21
728.1877701945494
 31
0.0
  0
LINE
  5
37F
330
71
100
AcDbEntity
  8
1
  6
Continuous
 62
     7
100
AcDbLine
 10
182.2034389418875
 20
732.4377701945496
 30
0.0
 11
172.8034389418875
 21
732.4377701945494
 31
0.0
  0
LINE
  5
380
330
71
100
AcDbEntity
  8
1
  6
Continuous
 62
     6
100
AcDbLine
 10
182.2034389418875
 20
745.1877701945494
 30
0.0
 11
172.8034389418875
 21
745.1877701945494
 31
0.0
  0
LINE
  5
381
330
71
100
AcDbEntity
  8
1
  6
Continuous
 62
     7
100
AcDbLine
 10
172.8034389418875
 20
740.9377701945494
 30
0.0
 11
182.2034389418875
 21
740.9377701945494
 31
0.0
  0
LINE
  5
382
330
71
100
AcDbEntity
  8
1
  6
Continuous
 62
     6
100
AcDbLine
 10
50.34824346863931
 20
728.1877701945494
 30
0.0
 11
50.34824346863931
 21
732.4377701945494
 31
0.0
  0
LINE
  5
383
330
71
100
AcDbEntity
  8
1
  6
Continuous
 62
     2
100
AcDbLine
 10
181.0837080764028
 20
731.8127701945494
 30
0.0
 11
185.0837080764028
 21
731.3127701945494
 31
0.0
  0
LINE
  5
384
330
71
100
AcDbEntity
  8
1
  6
Continuous
 62
     2
100
AcDbLine
 10
185.0837080764028
 20
731.3127701945494
 30
0.0
 11
185.0837080764028
 21
729.3127701945494
 31
0.0
  0
LINE
  5
385
330
71
100
AcDbEntity
  8
1
  6
Continuous
 62
     2
100
AcDbLine
 10
185.0837080764028
 20
729.3127701945494
 30
0.0
 11
181.0837080764028
 21
728.8127701945494
 31
0.0
  0
LINE
  5
386
330
71
100
AcDbEntity
  8
1
  6
Continuous
 62
     2
100
AcDbLine
 10
181.0837080764028
 20
728.8127701945494
 30
0.0
 11
181.0837080764028
 21
731.8127701945494
 31
0.0
  0
LINE
  5
387
330
71
100
AcDbEntity
  8
1
  6
Continuous
 62
     2
100
AcDbLine
 10
97.34824346863923
 20
710.43777019455
 30
0.0
 11
29.01491013530605
 21
710.43777019455
 31
0.0
  0
LINE
  5
388
330
71
100
AcDbEntity
  8
1
  6
Continuous
 62
     2
100
AcDbLine
 10
234.0149101353058
 20
710.43777019455
 30
0.0
 11
302.3482434686392
 21
710.43777019455
 31
0.0
  0
LINE
  5
389
330
71
100
AcDbEntity
  8
1
  6
Continuous
 62
     2
100
AcDbLine
 10
234.0149101353058
 20
710.43777019455
 30
0.0
 11
234.0149101353058
 21
715.43777019455
 31
0.0
  0
LINE
  5
38A
330
71
100
AcDbEntity
  8
1
  6
Continuous
 62
     2
100
AcDbLine
 10
165.6815768019726
 20
710.43777019455
 30
0.0
 11
165.6815768019726
 21
715.43777019455
 31
0.0
  0
LINE
  5
38B
330
71
100
AcDbEntity
  8
1
  6
Continuous
 62
     2
100
AcDbLine
 10
97.34824346863923
 20
710.43777019455
 30
0.0
 11
97.34824346863923
 21
715.43777019455
 31
0.0
  0
LINE
  5
38C
330
71
100
AcDbEntity
  8
1
  6
Continuous
 62
     2
100
AcDbLine
 10
307.3482434686367
 20
772.8377701945501
 30
0.0
 11
307.3482434686367
 21
830.2377701945502
 31
0.0
  0
LINE
  5
38D
330
71
100
AcDbEntity
  8
1
  6
Continuous
 62
     2
100
AcDbLine
 10
307.3482434686367
 20
772.8377701945501
 30
0.0
 11
302.3482434686391
 21
772.8377701945501
 31
0.0
  0
LINE
  5
38E
330
71
100
AcDbEntity
  8
1
  6
Continuous
 62
     2
100
AcDbLine
 10
-92.65175653136154
 20
710.43777019455
 30
0.0
 11
-112.6517565313616
 21
710.43777019455
 31
0.0
  0
LINE
  5
38F
330
71
100
AcDbEntity
  8
1
  6
Continuous
 62
     2
100
AcDbLine
 10
-39.31842319802738
 20
710.43777019455
 30
0.0
 11
-39.31842319802738
 21
715.43777019455
 31
0.0
  0
LINE
  5
390
330
71
100
AcDbEntity
  8
1
  6
Continuous
 62
     2
100
AcDbLine
 10
-39.31842319802738
 20
710.43777019455
 30
0.0
 11
29.01491013530605
 21
710.43777019455
 31
0.0
  0
LINE
  5
391
330
71
100
AcDbEntity
  8
1
  6
Continuous
 62
     6
100
AcDbLine
 10
-39.31842319802738
 20
715.43777019455
 30
0.0
 11
29.01491013530605
 21
715.43777019455
 31
0.0
  0
LINE
  5
392
330
71
100
AcDbEntity
  8
1
  6
Continuous
 62
     6
100
AcDbLine
 10
-39.31842319802738
 20
715.43777019455
 30
0.0
 11
-92.65175653136055
 21
715.43777019455
 31
0.0
  0
LINE
  5
393
330
71
100
AcDbEntity
  8
1
  6
Continuous
 62
     2
100
AcDbLine
 10
29.01491013530605
 20
710.43777019455
 30
0.0
 11
29.01491013530605
 21
715.43777019455
 31
0.0
  0
LINE
  5
394
330
71
100
AcDbEntity
  8
1
  6
Continuous
 62
     2
100
AcDbLine
 10
-92.65175653136154
 20
710.43777019455
 30
0.0
 11
-92.65175653136154
 21
714.43777019455
 31
0.0
  0
LINE
  5
395
330
71
100
AcDbEntity
  8
1
  6
Continuous
 62
     2
100
AcDbLine
 10
-92.65175653136154
 20
710.43777019455
 30
0.0
 11
-39.31842319802738
 21
710.43777019455
 31
0.0
  0
LINE
  5
396
330
71
100
AcDbEntity
  8
1
  6
Continuous
 62
     2
100
AcDbLine
 10
117.3482434686364
 20
710.43777019455
 30
0.0
 11
97.34824346863923
 21
710.43777019455
 31
0.0
  0
LINE
  5
397
330
71
100
AcDbEntity
  8
1
  6
Continuous
 62
     2
100
AcDbLine
 10
117.3482434686364
 20
710.43777019455
 30
0.0
 11
117.3482434686364
 21
714.43777019455
 31
0.0
  0
LINE
  5
398
330
71
100
AcDbEntity
  8
1
  6
Continuous
 62
     2
100
AcDbLine
 10
117.3482434686364
 20
710.43777019455
 30
0.0
 11
165.6815768019726
 21
710.43777019455
 31
0.0
  0
LINE
  5
399
330
71
100
AcDbEntity
  8
1
  6
Continuous
 62
     2
100
AcDbLine
 10
165.6815768019726
 20
710.43777019455
 30
0.0
 11
234.0149101353058
 21
710.43777019455
 31
0.0
  0
LINE
  5
39A
330
71
100
AcDbEntity
  8
1
  6
Continuous
 62
     2
100
AcDbLine
 10
307.3482434686367
 20
710.43777019455
 30
0.0
 11
302.3482434686392
 21
710.43777019455
 31
0.0
  0
LINE
  5
39B
330
71
100
AcDbEntity
  8
1
  6
Continuous
 62
     2
100
AcDbLine
 10
307.3482434686367
 20
715.43777019455
 30
0.0
 11
307.3482434686367
 21
710.43777019455
 31
0.0
  0
LINE
  5
39C
330
71
100
AcDbEntity
  8
1
  6
Continuous
 62
     2
100
AcDbLine
 10
307.3482434686367
 20
715.43777019455
 30
0.0
 11
307.3482434686367
 21
772.8377701945501
 31
0.0
  0
LINE
  5
39D
330
71
100
AcDbEntity
  8
1
  6
Continuous
 62
     2
100
AcDbLine
 10
307.3482434686367
 20
1007.43777019455
 30
0.0
 11
302.3482434686367
 21
1007.43777019455
 31
0.0
  0
LINE
  5
39E
330
71
100
AcDbEntity
  8
1
  6
Continuous
 62
     6
100
AcDbLine
 10
302.3482434686367
 20
1002.43777019455
 30
0.0
 11
302.3482434686372
 21
945.0377701945499
 31
0.0
  0
LINE
  5
39F
330
71
100
AcDbEntity
  8
1
  6
Continuous
 62
     2
100
AcDbLine
 10
307.3482434686367
 20
1007.43777019455
 30
0.0
 11
307.3482434686367
 21
1002.43777019455
 31
0.0
  0
LINE
  5
3A0
330
71
100
AcDbEntity
  8
1
  6
Continuous
 62
     2
100
AcDbLine
 10
302.3482434686367
 20
1002.43777019455
 30
0.0
 11
302.3482434686367
 21
1007.43777019455
 31
0.0
  0
LINE
  5
3A1
330
71
100
AcDbEntity
  8
1
  6
Continuous
 62
     2
100
AcDbLine
 10
302.3482434686367
 20
1002.43777019455
 30
0.0
 11
307.3482434686367
 21
1002.43777019455
 31
0.0
  0
LINE
  5
3A2
330
71
100
AcDbEntity
  8
1
  6
Continuous
 62
     2
100
AcDbLine
 10
307.3482434686367
 20
1002.43777019455
 30
0.0
 11
307.3482434686367
 21
945.0377701945499
 31
0.0
  0
LINE
  5
3A3
330
71
100
AcDbEntity
  8
1
  6
Continuous
 62
     2
100
AcDbLine
 10
302.3482434686372
 20
945.0377701945499
 30
0.0
 11
307.3482434686367
 21
945.0377701945499
 31
0.0
  0
LINE
  5
3A4
330
71
100
AcDbEntity
  8
1
  6
Continuous
 62
     6
100
AcDbLine
 10
302.3482434686372
 20
945.0377701945499
 30
0.0
 11
302.3482434686392
 21
887.6377701945501
 31
0.0
  0
LINE
  5
3A5
330
71
100
AcDbEntity
  8
1
  6
Continuous
 62
     2
100
AcDbLine
 10
307.3482434686367
 20
945.0377701945499
 30
0.0
 11
307.3482434686367
 21
887.6377701945501
 31
0.0
  0
LINE
  5
3A6
330
71
100
AcDbEntity
  8
1
  6
Continuous
 62
     2
100
AcDbLine
 10
302.3482434686392
 20
887.6377701945501
 30
0.0
 11
307.3482434686367
 21
887.6377701945501
 31
0.0
  0
LINE
  5
3A7
330
71
100
AcDbEntity
  8
1
  6
Continuous
 62
     6
100
AcDbLine
 10
302.3482434686392
 20
887.6377701945501
 30
0.0
 11
302.3482434686392
 21
830.2377701945502
 31
0.0
  0
LINE
  5
3A8
330
71
100
AcDbEntity
  8
1
  6
Continuous
 62
     2
100
AcDbLine
 10
307.3482434686367
 20
887.6377701945501
 30
0.0
 11
307.3482434686367
 21
830.2377701945502
 31
0.0
  0
LINE
  5
3A9
330
71
100
AcDbEntity
  8
1
  6
Continuous
 62
     2
100
AcDbLine
 10
302.3482434686392
 20
830.2377701945502
 30
0.0
 11
307.3482434686367
 21
830.2377701945502
 31
0.0
  0
LINE
  5
3AA
330
71
100
AcDbEntity
  8
1
  6
Continuous
 62
     6
100
AcDbLine
 10
302.3482434686392
 20
830.2377701945502
 30
0.0
 11
302.3482434686391
 21
772.8377701945501
 31
0.0
  0
LINE
  5
3AB
330
71
100
AcDbEntity
  8
1
  6
Continuous
 62
     6
100
AcDbLine
 10
-92.65175653136154
 20
1002.43777019455
 30
0.0
 11
-39.31842319802738
 21
1002.43777019455
 31
0.0
  0
LINE
  5
3AC
330
71
100
AcDbEntity
  8
1
  6
Continuous
 62
     2
100
AcDbLine
 10
302.3482434686367
 20
1007.43777019455
 30
0.0
 11
234.0149101353058
 21
1007.43777019455
 31
0.0
  0
LINE
  5
3AD
330
71
100
AcDbEntity
  8
1
  6
Continuous
 62
     2
100
AcDbLine
 10
234.0149101353058
 20
1002.43777019455
 30
0.0
 11
234.0149101353058
 21
1007.43777019455
 31
0.0
  0
LINE
  5
3AE
330
71
100
AcDbEntity
  8
1
  6
Continuous
 62
     6
100
AcDbLine
 10
234.0149101353058
 20
1002.43777019455
 30
0.0
 11
302.3482434686367
 21
1002.43777019455
 31
0.0
  0
LINE
  5
3AF
330
71
100
AcDbEntity
  8
1
  6
Continuous
 62
     2
100
AcDbLine
 10
234.0149101353058
 20
1007.43777019455
 30
0.0
 11
165.6815768019726
 21
1007.43777019455
 31
0.0
  0
LINE
  5
3B0
330
71
100
AcDbEntity
  8
1
  6
Continuous
 62
     2
100
AcDbLine
 10
165.6815768019726
 20
1002.43777019455
 30
0.0
 11
165.6815768019726
 21
1007.43777019455
 31
0.0
  0
LINE
  5
3B1
330
71
100
AcDbEntity
  8
1
  6
Continuous
 62
     6
100
AcDbLine
 10
165.6815768019726
 20
1002.43777019455
 30
0.0
 11
234.0149101353058
 21
1002.43777019455
 31
0.0
  0
LINE
  5
3B2
330
71
100
AcDbEntity
  8
1
  6
Continuous
 62
     2
100
AcDbLine
 10
165.6815768019726
 20
1007.43777019455
 30
0.0
 11
117.3482434686364
 21
1007.43777019455
 31
0.0
  0
LINE
  5
3B3
330
71
100
AcDbEntity
  8
1
  6
Continuous
 62
     2
100
AcDbLine
 10
97.34824346863923
 20
1002.43777019455
 30
0.0
 11
97.34824346863923
 21
1007.43777019455
 31
0.0
  0
LINE
  5
3B4
330
71
100
AcDbEntity
  8
1
  6
Continuous
 62
     6
100
AcDbLine
 10
97.34824346863923
 20
1002.43777019455
 30
0.0
 11
165.6815768019726
 21
1002.43777019455
 31
0.0
  0
LINE
  5
3B5
330
71
100
AcDbEntity
  8
1
  6
Continuous
 62
     2
100
AcDbLine
 10
97.34824346863923
 20
1007.43777019455
 30
0.0
 11
29.01491013530605
 21
1007.43777019455
 31
0.0
  0
LINE
  5
3B6
330
71
100
AcDbEntity
  8
1
  6
Continuous
 62
     2
100
AcDbLine
 10
29.01491013530605
 20
1002.43777019455
 30
0.0
 11
29.01491013530605
 21
1007.43777019455
 31
0.0
  0
LINE
  5
3B7
330
71
100
AcDbEntity
  8
1
  6
Continuous
 62
     6
100
AcDbLine
 10
29.01491013530605
 20
1002.43777019455
 30
0.0
 11
97.34824346863923
 21
1002.43777019455
 31
0.0
  0
LINE
  5
3B8
330
71
100
AcDbEntity
  8
1
  6
Continuous
 62
     2
100
AcDbLine
 10
29.01491013530605
 20
1007.43777019455
 30
0.0
 11
-39.31842319802738
 21
1007.43777019455
 31
0.0
  0
LINE
  5
3B9
330
71
100
AcDbEntity
  8
1
  6
Continuous
 62
     2
100
AcDbLine
 10
-39.31842319802738
 20
1002.43777019455
 30
0.0
 11
-39.31842319802738
 21
1007.43777019455
 31
0.0
  0
LINE
  5
3BA
330
71
100
AcDbEntity
  8
1
  6
Continuous
 62
     6
100
AcDbLine
 10
-39.31842319802738
 20
1002.43777019455
 30
0.0
 11
29.01491013530605
 21
1002.43777019455
 31
0.0
  0
LINE
  5
3BB
330
71
100
AcDbEntity
  8
1
  6
Continuous
 62
     2
100
AcDbLine
 10
-39.31842319802738
 20
1007.43777019455
 30
0.0
 11
-92.65175653136154
 21
1007.43777019455
 31
0.0
  0
LINE
  5
3BC
330
71
100
AcDbEntity
  8
1
  6
Continuous
 62
     2
100
AcDbLine
 10
-92.65175653136154
 20
1007.43777019455
 30
0.0
 11
-92.65175653136154
 21
1003.43777019455
 31
0.0
  0
LINE
  5
3BD
330
71
100
AcDbEntity
  8
1
  6
Continuous
 62
     2
100
AcDbLine
 10
-92.65175653136154
 20
1007.43777019455
 30
0.0
 11
-112.6517565313616
 21
1007.43777019455
 31
0.0
  0
LINE
  5
3BE
330
71
100
AcDbEntity
  8
1
  6
Continuous
 62
     2
100
AcDbLine
 10
117.3482434686364
 20
1007.43777019455
 30
0.0
 11
117.3482434686364
 21
1003.43777019455
 31
0.0
  0
LINE
  5
3BF
330
71
100
AcDbEntity
  8
1
  6
Continuous
 62
     2
100
AcDbLine
 10
117.3482434686364
 20
1007.43777019455
 30
0.0
 11
97.34824346863923
 21
1007.43777019455
 31
0.0
  0
LINE
  5
3C0
330
71
100
AcDbEntity
  8
1
  6
Continuous
 62
     2
100
AcDbLine
 10
-112.6517565313616
 20
1007.43777019455
 30
0.0
 11
-112.6517565313616
 21
858.93777019455
 31
0.0
  0
LINE
  5
3C1
330
71
100
AcDbEntity
  8
1
  6
Continuous
 62
     2
100
AcDbLine
 10
-112.6517565313616
 20
858.93777019455
 30
0.0
 11
-102.6517565313615
 21
858.93777019455
 31
0.0
  0
LINE
  5
3C2
330
71
100
AcDbEntity
  8
1
  6
Continuous
 62
     2
100
AcDbLine
 10
-112.6517565313616
 20
858.93777019455
 30
0.0
 11
-112.6517565313616
 21
710.43777019455
 31
0.0
  0
LINE
  5
3C3
330
71
100
AcDbEntity
  8
1
  6
Continuous
 62
     6
100
AcDbLine
 10
-92.65175653136055
 20
715.43777019455
 30
0.0
 11
-92.65175653136154
 21
1002.43777019455
 31
0.0
  0
LINE
  5
3C4
330
71
100
AcDbEntity
  8
1
  6
Continuous
 62
     6
100
AcDbLine
 10
302.3482434686391
 20
715.4377701945496
 30
0.0
 11
302.3482434686388
 21
723.9377701945494
 31
0.0
  0
LINE
  5
3C5
330
71
100
AcDbEntity
  8
1
  6
Continuous
 62
     6
100
AcDbLine
 10
29.01491013530605
 20
715.43777019455
 30
0.0
 11
50.34824346863931
 21
715.4377701945496
 31
0.0
  0
LINE
  5
3C6
330
71
100
AcDbEntity
  8
1
  6
Continuous
 62
     2
100
AcDbLine
 10
273.78898015343
 20
730.8875509155173
 30
0.0
 11
273.78898015343
 21
728.8301549506637
 31
0.0
  0
LINE
  5
3C7
330
71
100
AcDbEntity
  8
1
  6
Continuous
 62
     7
100
AcDbLine
 10
238.8482434686415
 20
732.4377701945494
 30
0.0
 11
238.8482434686415
 21
736.6877701945494
 31
0.0
  0
LINE
  5
3C8
330
71
100
AcDbEntity
  8
1
  6
Continuous
 62
     7
100
AcDbLine
 10
238.8482434686415
 20
736.6877701945494
 30
0.0
 11
232.1034389418874
 21
736.6877701945494
 31
0.0
  0
ARC
  5
3C9
102
{ACAD_REACTORS
330
472
330
473
102
}
330
71
100
AcDbEntity
  8
0
  6
Continuous
 62
     2
100
AcDbCircle
 10
188.6824868749124
 20
722.5496749564606
 30
0.0
 40
0.6378510567600058
100
AcDbArc
 50
321.8795802028323
 51
38.12041979715963
  0
ARC
  5
3CA
102
{ACAD_REACTORS
330
472
330
473
102
}
330
71
100
AcDbEntity
  8
0
  6
Continuous
 62
     2
100
AcDbCircle
 10
188.847561285116
 20
722.4201450571879
 30
0.0
 40
0.4280236140610111
100
AcDbArc
 50
218.1204197971943
 51
321.8795802027893
  0
ARC
  5
3CB
102
{ACAD_REACTORS
330
472
330
473
102
}
330
71
100
AcDbEntity
  8
0
  6
Continuous
 62
     2
100
AcDbCircle
 10
189.0126356953193
 20
722.5496749564606
 30
0.0
 40
0.6378510567598462
100
AcDbArc
 50
141.8795802028341
 51
218.120419797174
  0
ARC
  5
3CC
102
{ACAD_REACTORS
330
472
330
473
102
}
330
71
100
AcDbEntity
  8
0
  6
Continuous
 62
     2
100
AcDbCircle
 10
188.847561285116
 20
722.6792048557337
 30
0.0
 40
0.4280236140605738
100
AcDbArc
 50
38.12041979716286
 51
141.8795802028536
  0
ARC
  5
3CD
102
{ACAD_REACTORS
330
46A
330
46B
102
}
330
71
100
AcDbEntity
  8
0
  6
Continuous
 62
     2
100
AcDbCircle
 10
186.316971090435
 20
721.3840002743051
 30
0.0
 40
1.840813230556584
100
AcDbArc
 50
58.069091050038
 51
71.55192388186816
  0
ARC
  5
3CE
102
{ACAD_REACTORS
330
46A
330
46B
102
}
330
71
100
AcDbEntity
  8
0
  6
Continuous
 62
     2
100
AcDbCircle
 10
186.5332749755249
 20
722.7191554765755
 30
0.0
 40
0.4227934381776413
100
AcDbArc
 50
113.3722778881857
 51
151.4785267423007
  0
ARC
  5
3CF
102
{ACAD_REACTORS
330
46A
330
46B
102
}
330
71
100
AcDbEntity
  8
0
  6
Continuous
 62
     2
100
AcDbCircle
 10
186.8451404780707
 20
722.5496749564606
 30
0.0
 40
0.7777353184572496
100
AcDbArc
 50
151.4785267422727
 51
208.5214732577052
  0
ARC
  5
3D0
102
{ACAD_REACTORS
330
46A
330
46B
102
}
330
71
100
AcDbEntity
  8
0
  6
Continuous
 62
     2
100
AcDbCircle
 10
186.1864976399451
 20
725.2874278037799
 30
0.0
 40
4.010410630990197
100
AcDbArc
 50
275.1581447696246
 51
285.9799912583524
  0
ARC
  5
3D1
102
{ACAD_REACTORS
330
46A
330
46B
102
}
330
71
100
AcDbEntity
  8
0
  6
Continuous
 62
     2
100
AcDbCircle
 10
186.4252216851813
 20
722.6428901316959
 30
0.0
 40
1.355119937139965
100
AcDbArc
 50
195.0618917770912
 51
275.1581447696416
  0
ARC
  5
3D2
102
{ACAD_REACTORS
330
46A
330
46B
102
}
330
71
100
AcDbEntity
  8
0
  6
Continuous
 62
     2
100
AcDbCircle
 10
186.0788350376914
 20
722.5496749564606
 30
0.0
 40
0.9964100565213793
100
AcDbArc
 50
164.9381082228851
 51
195.0618917771023
  0
ARC
  5
3D3
102
{ACAD_REACTORS
330
46A
330
46B
102
}
330
71
100
AcDbEntity
  8
0
  6
Continuous
 62
     2
100
AcDbCircle
 10
186.4252216851813
 20
722.4564597812251
 30
0.0
 40
1.355119937140984
100
AcDbArc
 50
84.84185523036052
 51
164.9381082228902
  0
ARC
  5
3D4
102
{ACAD_REACTORS
330
46E
330
46F
102
}
330
71
100
AcDbEntity
  8
0
  6
Continuous
 62
     2
100
AcDbCircle
 10
182.4334743676922
 20
723.4040772658443
 30
0.0
 40
0.2609230769227867
100
AcDbArc
 50
115.374008678374
 51
180.0
  0
ARC
  5
3D5
102
{ACAD_REACTORS
330
46E
330
46F
102
}
330
71
100
AcDbEntity
  8
0
  6
Continuous
 62
     2
100
AcDbCircle
 10
182.4334743676922
 20
725.237369166618
 30
0.0
 40
0.2609230769230066
100
AcDbArc
 50
180.0
 51
244.625991321626
  0
ARC
  5
3D6
102
{ACAD_REACTORS
330
46E
330
46F
102
}
330
71
100
AcDbEntity
  8
0
  6
Continuous
 62
     2
100
AcDbCircle
 10
182.4381158018326
 20
724.3305099442525
 30
0.0
 40
1.668232340440728
100
AcDbArc
 50
269.8110329575882
 51
90.18896704241182
  0
ARC
  5
3D7
102
{ACAD_REACTORS
330
46E
330
46F
102
}
330
71
100
AcDbEntity
  8
0
  6
Continuous
 62
     2
100
AcDbCircle
 10
182.4334743676922
 20
722.9232083346914
 30
0.0
 40
0.2609230769230066
100
AcDbArc
 50
180.0
 51
269.8110329574403
  0
ARC
  5
3D8
102
{ACAD_REACTORS
330
46C
330
46D
102
}
330
71
100
AcDbEntity
  8
0
  6
Continuous
 62
     2
100
AcDbCircle
 10
199.8412927269736
 20
722.7191554765755
 30
0.0
 40
0.4227934381773005
100
AcDbArc
 50
109.3371432194784
 51
151.4785267424119
  0
ARC
  5
3D9
102
{ACAD_REACTORS
330
46C
330
46D
102
}
330
71
100
AcDbEntity
  8
0
  6
Continuous
 62
     2
100
AcDbCircle
 10
199.8412927269736
 20
722.3801944363461
 30
0.0
 40
0.4227934381784311
100
AcDbArc
 50
208.5214732576829
 51
246.6277221118468
  0
ARC
  5
3DA
102
{ACAD_REACTORS
330
46C
330
46D
102
}
330
71
100
AcDbEntity
  8
0
  6
Continuous
 62
     2
100
AcDbCircle
 10
199.386852789141
 20
722.5496749564606
 30
0.0
 40
0.9964100565230259
100
AcDbArc
 50
164.9381082229105
 51
195.0618917771021
  0
ARC
  5
3DB
102
{ACAD_REACTORS
330
46C
330
46D
102
}
330
71
100
AcDbEntity
  8
0
  6
Continuous
 62
     2
100
AcDbCircle
 10
199.73323943663
 20
722.4564597812251
 30
0.0
 40
1.355119937140671
100
AcDbArc
 50
90.0
 51
164.938108222899
  0
ARC
  5
3DC
102
{ACAD_REACTORS
330
470
330
471
102
}
330
71
100
AcDbEntity
  8
0
  6
Continuous
 62
     2
100
AcDbCircle
 10
191.9423344013377
 20
725.3258654326378
 30
0.0
 40
1.261904761905612
100
AcDbArc
 50
90.0
 51
270.0
  0
ARC
  5
3DD
102
{ACAD_REACTORS
330
474
330
475
102
}
330
71
100
AcDbEntity
  8
0
  6
Continuous
 62
     2
100
AcDbCircle
 10
186.3698627110684
 20
725.7481258390796
 30
0.0
 40
0.2916229955960716
100
AcDbArc
 50
270.0
 51
90.0
  0
ARC
  5
3DE
102
{ACAD_REACTORS
330
46E
330
46F
102
}
330
71
100
AcDbEntity
  8
0
  6
Continuous
 62
     2
100
AcDbCircle
 10
180.3049217341949
 20
725.7379582287296
 30
0.0
 40
0.2609230769224951
100
AcDbArc
 50
90.0
 51
180.0
  0
ARC
  5
3DF
102
{ACAD_REACTORS
330
46E
330
46F
102
}
330
71
100
AcDbEntity
  8
0
  6
Continuous
 62
     2
100
AcDbCircle
 10
181.9565066173226
 20
724.3207232162314
 30
0.0
 40
0.753634316989858
100
AcDbArc
 50
115.1944106485226
 51
244.8055893514885
  0
ARC
  5
3E0
102
{ACAD_REACTORS
330
46E
330
46F
102
}
330
71
100
AcDbEntity
  8
0
  6
Continuous
 62
     2
100
AcDbCircle
 10
181.5246186441201
 20
723.4026821037829
 30
0.0
 40
0.2609230769228077
100
AcDbArc
 50
0.0
 51
64.80558935144161
  0
ARC
  5
3E1
102
{ACAD_REACTORS
330
46E
330
46F
102
}
330
71
100
AcDbEntity
  8
0
  6
Continuous
 62
     2
100
AcDbCircle
 10
179.8140996872969
 20
721.6383855791697
 30
0.0
 40
0.3506153846138886
100
AcDbArc
 50
180.0
 51
270.0
  0
ARC
  5
3E2
102
{ACAD_REACTORS
330
470
330
471
102
}
330
71
100
AcDbEntity
  8
0
  6
Continuous
 62
     2
100
AcDbCircle
 10
192.1210715998213
 20
725.4553953319108
 30
0.0
 40
0.4280236140607304
100
AcDbArc
 50
38.12041979714642
 51
141.8795802028465
  0
ARC
  5
3E3
102
{ACAD_REACTORS
330
470
330
471
102
}
330
71
100
AcDbEntity
  8
0
  6
Continuous
 62
     2
100
AcDbCircle
 10
192.2861460100248
 20
725.3258654326378
 30
0.0
 40
0.6378510567599356
100
AcDbArc
 50
141.8795802028404
 51
218.1204197971676
  0
ARC
  5
3E4
102
{ACAD_REACTORS
330
472
330
473
102
}
330
71
100
AcDbEntity
  8
0
  6
Continuous
 62
     2
100
AcDbCircle
 10
188.847561285116
 20
722.9947782707609
 30
0.0
 40
1.707008076205438
100
AcDbArc
 50
242.451851824339
 51
297.5481481756847
  0
ARC
  5
3E5
102
{ACAD_REACTORS
330
472
330
473
102
}
330
71
100
AcDbEntity
  8
0
  6
Continuous
 62
     2
100
AcDbCircle
 10
188.847561285116
 20
722.1045716421607
 30
0.0
 40
1.707008076205403
100
AcDbArc
 50
62.45185182430821
 51
117.5481481756681
  0
ARC
  5
3E6
102
{ACAD_REACTORS
330
472
330
473
102
}
330
71
100
AcDbEntity
  8
0
  6
Continuous
 62
     2
100
AcDbCircle
 10
188.6153795563281
 20
722.5496749564606
 30
0.0
 40
1.20498684599291
100
AcDbArc
 50
117.548148175664
 51
242.4518518243384
  0
ARC
  5
3E7
102
{ACAD_REACTORS
330
472
330
473
102
}
330
71
100
AcDbEntity
  8
0
  6
Continuous
 62
     2
100
AcDbCircle
 10
189.0797430139038
 20
722.5496749564606
 30
0.0
 40
1.204986845993431
100
AcDbArc
 50
297.5481481756999
 51
62.45185182429761
  0
ARC
  5
3E8
102
{ACAD_REACTORS
330
470
330
471
102
}
330
71
100
AcDbEntity
  8
0
  6
Continuous
 62
     2
100
AcDbCircle
 10
192.1210715998213
 20
725.1963355333646
 30
0.0
 40
0.4280236140606632
100
AcDbArc
 50
218.1204197971535
 51
321.8795802028536
  0
ARC
  5
3E9
102
{ACAD_REACTORS
330
470
330
471
102
}
330
71
100
AcDbEntity
  8
0
  6
Continuous
 62
     2
100
AcDbCircle
 10
191.9559971896179
 20
725.3258654326378
 30
0.0
 40
0.6378510567600058
100
AcDbArc
 50
321.8795802028323
 51
38.12041979715963
  0
ARC
  5
3EA
102
{ACAD_REACTORS
330
46E
330
46F
102
}
330
71
100
AcDbEntity
  8
0
  6
Continuous
 62
     2
100
AcDbCircle
 10
184.337498109377
 20
721.6383855791697
 30
0.0
 40
0.3506153846143434
100
AcDbArc
 50
270.0
 51
0.0
  0
ARC
  5
3EB
102
{ACAD_REACTORS
330
46E
330
46F
102
}
330
71
100
AcDbEntity
  8
0
  6
Continuous
 62
     2
100
AcDbCircle
 10
184.337498109377
 20
726.2371548099137
 30
0.0
 40
0.3506153846147981
100
AcDbArc
 50
0.0
 51
90.0
  0
ARC
  5
3EC
102
{ACAD_REACTORS
330
46E
330
46F
102
}
330
71
100
AcDbEntity
  8
0
  6
Continuous
 62
     2
100
AcDbCircle
 10
179.8140996872969
 20
726.2371548099137
 30
0.0
 40
0.3506153846146844
100
AcDbArc
 50
90.0
 51
180.0
  0
ARC
  5
3ED
102
{ACAD_REACTORS
330
46E
330
46F
102
}
330
71
100
AcDbEntity
  8
0
  6
Continuous
 62
     2
100
AcDbCircle
 10
181.5246186441201
 20
722.1375821603683
 30
0.0
 40
0.2609230769228361
100
AcDbArc
 50
270.0
 51
0.0
  0
ARC
  5
3EE
102
{ACAD_REACTORS
330
46E
330
46F
102
}
330
71
100
AcDbEntity
  8
0
  6
Continuous
 62
     2
100
AcDbCircle
 10
181.5246186441201
 20
725.2387643286795
 30
0.0
 40
0.2609230769223558
100
AcDbArc
 50
295.1944106485584
 51
0.0
  0
ARC
  5
3EF
102
{ACAD_REACTORS
330
46E
330
46F
102
}
330
71
100
AcDbEntity
  8
0
  6
Continuous
 62
     2
100
AcDbCircle
 10
181.5246186441201
 20
725.7379582287296
 30
0.0
 40
0.2609230769228077
100
AcDbArc
 50
0.0
 51
90.0
  0
ARC
  5
3F0
102
{ACAD_REACTORS
330
46E
330
46F
102
}
330
71
100
AcDbEntity
  8
0
  6
Continuous
 62
     2
100
AcDbCircle
 10
180.3049217341949
 20
722.1375821603683
 30
0.0
 40
0.2609230769220972
100
AcDbArc
 50
180.0
 51
270.0
  0
ARC
  5
3F1
102
{ACAD_REACTORS
330
474
330
475
102
}
330
71
100
AcDbEntity
  8
0
  6
Continuous
 62
     2
100
AcDbCircle
 10
186.7347160385382
 20
725.7155671851767
 30
0.0
 40
0.8722030093666717
100
AcDbArc
 50
270.0
 51
90.0
  0
ARC
  5
3F2
102
{ACAD_REACTORS
330
46C
330
46D
102
}
330
71
100
AcDbEntity
  8
0
  6
Continuous
 62
     2
100
AcDbCircle
 10
199.73323943663
 20
722.6428901316959
 30
0.0
 40
1.355119937140852
100
AcDbArc
 50
195.061891777101
 51
275.1581447696782
  0
ARC
  5
3F3
102
{ACAD_REACTORS
330
46C
330
46D
102
}
330
71
100
AcDbEntity
  8
0
  6
Continuous
 62
     2
100
AcDbCircle
 10
199.4945153913938
 20
725.2874278037799
 30
0.0
 40
4.010410630990729
100
AcDbArc
 50
275.1581447696365
 51
285.979991258338
  0
ARC
  5
3F4
102
{ACAD_REACTORS
330
46C
330
46D
102
}
330
71
100
AcDbEntity
  8
0
  6
Continuous
 62
     2
100
AcDbCircle
 10
199.6249888418837
 20
723.7153496386161
 30
0.0
 40
1.840813230556049
100
AcDbArc
 50
288.4480761181319
 51
301.9309089499387
  0
ARC
  5
3F5
102
{ACAD_REACTORS
330
46C
330
46D
102
}
330
71
100
AcDbEntity
  8
0
  6
Continuous
 62
     2
100
AcDbCircle
 10
199.9705820101993
 20
722.6793613939577
 30
0.0
 40
0.7487023016407311
100
AcDbArc
 50
246.6277221118208
 51
288.4480761180789
  0
ARC
  5
3F6
102
{ACAD_REACTORS
330
46C
330
46D
102
}
330
71
100
AcDbEntity
  8
0
  6
Continuous
 62
     2
100
AcDbCircle
 10
200.1531582295203
 20
722.5496749564606
 30
0.0
 40
0.7777353184586058
100
AcDbArc
 50
151.4785267423652
 51
208.5214732576716
  0
ARC
  5
3F7
102
{ACAD_REACTORS
330
46C
330
46D
102
}
330
71
100
AcDbEntity
  8
0
  6
Continuous
 62
     2
100
AcDbCircle
 10
199.9625076014395
 20
722.373738137416
 30
0.0
 40
0.7888619891125472
100
AcDbArc
 50
90.0
 51
109.337143219431
  0
ARC
  5
3F8
102
{ACAD_REACTORS
330
46E
330
46F
102
}
330
71
100
AcDbEntity
  8
0
  6
Continuous
 62
     2
100
AcDbCircle
 10
182.4334743676922
 20
725.7378115538137
 30
0.0
 40
0.2609230769224679
100
AcDbArc
 50
90.18896704255972
 51
180.0
  0
ARC
  5
3F9
102
{ACAD_REACTORS
330
46E
330
46F
102
}
330
71
100
AcDbEntity
  8
0
  6
Continuous
 62
     2
100
AcDbCircle
 10
181.9987283362145
 20
724.3207232162314
 30
0.0
 40
0.7535935125160714
100
AcDbArc
 50
295.3740086781789
 51
64.6259913218062
  0
ARC
  5
3FA
102
{ACAD_REACTORS
330
46A
330
46B
102
}
330
71
100
AcDbEntity
  8
0
  6
Continuous
 62
     2
100
AcDbCircle
 10
186.316971090435
 20
723.7153496386165
 30
0.0
 40
1.840813230556049
100
AcDbArc
 50
288.4480761181319
 51
301.930908949962
  0
ARC
  5
3FB
102
{ACAD_REACTORS
330
46A
330
46B
102
}
330
71
100
AcDbEntity
  8
0
  6
Continuous
 62
     2
100
AcDbCircle
 10
186.6625642587498
 20
722.6793613939577
 30
0.0
 40
0.7487023016404492
100
AcDbArc
 50
246.6277221118707
 51
288.4480761181498
  0
ARC
  5
3FC
102
{ACAD_REACTORS
330
46A
330
46B
102
}
330
71
100
AcDbEntity
  8
0
  6
Continuous
 62
     2
100
AcDbCircle
 10
186.5332749755249
 20
722.3801944363461
 30
0.0
 40
0.4227934381774399
100
AcDbArc
 50
208.5214732576858
 51
246.6277221118326
  0
ARC
  5
3FD
102
{ACAD_REACTORS
330
46A
330
46B
102
}
330
71
100
AcDbEntity
  8
0
  6
Continuous
 62
     2
100
AcDbCircle
 10
186.6625642587498
 20
722.4199885189635
 30
0.0
 40
0.7487023016407734
100
AcDbArc
 50
71.55192388186123
 51
113.3722778881292
  0
ARC
  5
3FE
102
{ACAD_REACTORS
330
46A
330
46B
102
}
330
71
100
AcDbEntity
  8
0
  6
Continuous
 62
     2
100
AcDbCircle
 10
186.1864976399451
 20
719.8119221091417
 30
0.0
 40
4.010410630989981
100
AcDbArc
 50
74.0200087416472
 51
84.84185523037543
  0
CIRCLE
  5
3FF
102
{ACAD_REACTORS
330
46E
330
46F
102
}
330
71
100
AcDbEntity
  8
0
  6
Continuous
 62
     2
100
AcDbCircle
 10
181.9790465059065
 20
724.3207232162314
 30
0.0
 40
0.3892387874201972
  0
CIRCLE
  5
400
330
71
100
AcDbEntity
  8
1
  6
Continuous
 62
     2
100
AcDbCircle
 10
177.8956987669908
 20
730.3127701945494
 30
0.0
 40
1.0
  0
CIRCLE
  5
401
330
71
100
AcDbEntity
  8
1
  6
Continuous
 62
     2
100
AcDbCircle
 10
177.8956987669908
 20
730.3127701945494
 30
0.0
 40
1.5
  0
MTEXT
  5
403
330
71
100
AcDbEntity
  8
1
 62
     2
100
AcDbMText
 10
71.04824346863731
 20
721.8127701945496
 30
0.0
 40
2.0
 41
0.0
 71
     4
 72
     1
  1
 
  7
CONVERTER_12
 73
     1
 44
1.20048019207683
  0
MTEXT
  5
404
330
71
100
AcDbEntity
  8
1
 62
     2
100
AcDbMText
 10
71.04824346863731
 20
726.0627701945494
 30
0.0
 40
2.0
 41
0.0
 71
     4
 72
     1
  1
 
  7
CONVERTER_12
 73
     1
 44
1.20048019207683
  0
MTEXT
  5
405
330
71
100
AcDbEntity
  8
1
 62
     2
100
AcDbMText
 10
71.04824346863731
 20
730.3127701945494
 30
0.0
 40
2.0
 41
0.0
 71
     4
 72
     1
  1
 
  7
CONVERTER_12
 73
     1
 44
1.20048019207683
  0
MTEXT
  5
406
330
71
100
AcDbEntity
  8
1
 62
     2
100
AcDbMText
 10
71.04824346863731
 20
734.5627701945494
 30
0.0
 40
2.0
 41
0.0
 71
     4
 72
     1
  1
 
  7
CONVERTER_12
 73
     1
 44
1.20048019207683
  0
MTEXT
  5
407
330
71
100
AcDbEntity
  8
1
 62
     2
100
AcDbMText
 10
71.04824346863731
 20
738.8127701945494
 30
0.0
 40
2.0
 41
0.0
 71
     4
 72
     1
  1
 
  7
CONVERTER_12
 73
     1
 44
1.20048019207683
  0
MTEXT
  5
408
330
71
100
AcDbEntity
  8
1
 62
     2
100
AcDbMText
 10
71.04824346863731
 20
743.0627701945494
 30
0.0
 40
2.0
 41
0.0
 71
     4
 72
     1
  1
 
  7
CONVERTER_12
 73
     1
 44
1.20048019207683
  0
MTEXT
  5
409
330
71
100
AcDbEntity
  8
1
 62
     2
100
AcDbMText
 10
166.0534389418874
 20
721.8127701945496
 30
0.0
 40
2.0
 41
0.0
 71
     5
 72
     1
  1
 
  7
CONVERTER_11
 73
     1
 44
1.20048019207683
  0
MTEXT
  5
40A
330
71
100
AcDbEntity
  8
1
 62
     2
100
AcDbMText
 10
166.0534389418874
 20
726.0627701945494
 30
0.0
 40
2.0
 41
0.0
 71
     5
 72
     1
  1
 
  7
CONVERTER_11
 73
     1
 44
1.20048019207683
  0
MTEXT
  5
40B
330
71
100
AcDbEntity
  8
1
 62
     2
100
AcDbMText
 10
166.0534389418874
 20
730.3127701945494
 30
0.0
 40
2.0
 41
0.0
 71
     5
 72
     1
  1
 
  7
CONVERTER_11
 73
     1
 44
1.20048019207683
  0
MTEXT
  5
40C
330
71
100
AcDbEntity
  8
1
 62
     2
100
AcDbMText
 10
166.0534389418874
 20
734.5627701945494
 30
0.0
 40
2.0
 41
0.0
 71
     5
 72
     1
  1
 
  7
CONVERTER_11
 73
     1
 44
1.20048019207683
  0
MTEXT
  5
40D
330
71
100
AcDbEntity
  8
1
 62
     2
100
AcDbMText
 10
166.0534389418874
 20
738.8127701945494
 30
0.0
 40
2.0
 41
0.0
 71
     5
 72
     1
  1
 
  7
CONVERTER_11
 73
     1
 44
1.20048019207683
  0
MTEXT
  5
40E
330
71
100
AcDbEntity
  8
1
 62
     2
100
AcDbMText
 10
166.0534389418874
 20
743.0627701945494
 30
0.0
 40
2.0
 41
0.0
 71
     5
 72
     1
  1
 
  7
CONVERTER_11
 73
     1
 44
1.20048019207683
  0
MTEXT
  5
40F
330
71
100
AcDbEntity
  8
1
 62
     2
100
AcDbMText
 10
152.5534389418874
 20
721.8127701945496
 30
0.0
 40
2.0
 41
0.0
 71
     5
 72
     1
  1
 
  7
CONVERTER_11
 73
     1
 44
1.20048019207683
  0
MTEXT
  5
410
330
71
100
AcDbEntity
  8
1
 62
     2
100
AcDbMText
 10
152.5534389418875
 20
726.0627701945494
 30
0.0
 40
2.0
 41
0.0
 71
     5
 72
     1
  1
 
  7
CONVERTER_11
 73
     1
 44
1.20048019207683
  0
MTEXT
  5
411
330
71
100
AcDbEntity
  8
1
 62
     2
100
AcDbMText
 10
152.5534389418875
 20
730.3127701945494
 30
0.0
 40
2.0
 41
0.0
 71
     5
 72
     1
  1
 
  7
CONVERTER_11
 73
     1
 44
1.20048019207683
  0
MTEXT
  5
412
330
71
100
AcDbEntity
  8
1
 62
     2
100
AcDbMText
 10
152.5534389418875
 20
734.5627701945494
 30
0.0
 40
2.0
 41
0.0
 71
     5
 72
     1
  1
 
  7
CONVERTER_11
 73
     1
 44
1.20048019207683
  0
MTEXT
  5
413
330
71
100
AcDbEntity
  8
1
 62
     2
100
AcDbMText
 10
152.5534389418875
 20
738.8127701945494
 30
0.0
 40
2.0
 41
0.0
 71
     5
 72
     1
  1
 
  7
CONVERTER_11
 73
     1
 44
1.20048019207683
  0
MTEXT
  5
414
330
71
100
AcDbEntity
  8
1
 62
     2
100
AcDbMText
 10
152.5534389418875
 20
743.0627701945494
 30
0.0
 40
2.0
 41
0.0
 71
     5
 72
     1
  1
 
  7
CONVERTER_11
 73
     1
 44
1.20048019207683
  0
MTEXT
  5
415
330
71
100
AcDbEntity
  8
1
 62
     2
100
AcDbMText
 10
139.0534389418875
 20
743.0627701945494
 30
0.0
 40
2.0
 41
0.0
 71
     5
 72
     1
  1
 
  7
CONVERTER_11
 73
     1
 44
1.20048019207683
  0
MTEXT
  5
416
330
71
100
AcDbEntity
  8
1
 62
     2
100
AcDbMText
 10
139.0534389418875
 20
738.8127701945494
 30
0.0
 40
2.0
 41
0.0
 71
     5
 72
     1
  1
 
  7
CONVERTER_11
 73
     1
 44
1.20048019207683
  0
MTEXT
  5
417
330
71
100
AcDbEntity
  8
1
 62
     2
100
AcDbMText
 10
139.0534389418875
 20
734.5627701945494
 30
0.0
 40
2.0
 41
0.0
 71
     5
 72
     1
  1
 
  7
CONVERTER_11
 73
     1
 44
1.20048019207683
  0
MTEXT
  5
418
330
71
100
AcDbEntity
  8
1
 62
     2
100
AcDbMText
 10
139.0534389418875
 20
730.3127701945494
 30
0.0
 40
2.0
 41
0.0
 71
     5
 72
     1
  1
 
  7
CONVERTER_11
 73
     1
 44
1.20048019207683
  0
MTEXT
  5
419
330
71
100
AcDbEntity
  8
1
 62
     2
100
AcDbMText
 10
139.0534389418875
 20
726.0627701945494
 30
0.0
 40
2.0
 41
0.0
 71
     5
 72
     1
  1
 
  7
CONVERTER_11
 73
     1
 44
1.20048019207683
  0
MTEXT
  5
41A
330
71
100
AcDbEntity
  8
1
 62
     2
100
AcDbMText
 10
139.0534389418875
 20
721.8127701945496
 30
0.0
 40
2.0
 41
0.0
 71
     5
 72
     1
  1
 
  7
CONVERTER_11
 73
     1
 44
1.20048019207683
  0
MTEXT
  5
41B
330
71
100
AcDbEntity
  8
1
 62
     2
100
AcDbMText
 10
63.29824346863731
 20
743.0627701945494
 30
0.0
 40
2.0
 41
0.0
 71
     5
 72
     1
  1
 
  7
CONVERTER_11
 73
     1
 44
1.20048019207683
  0
MTEXT
  5
41C
330
71
100
AcDbEntity
  8
1
 62
     2
100
AcDbMText
 10
63.29824346863731
 20
738.8127701945494
 30
0.0
 40
2.0
 41
0.0
 71
     5
 72
     1
  1
 
  7
CONVERTER_11
 73
     1
 44
1.20048019207683
  0
MTEXT
  5
41D
330
71
100
AcDbEntity
  8
1
 62
     2
100
AcDbMText
 10
63.29824346863731
 20
734.5627701945494
 30
0.0
 40
2.0
 41
0.0
 71
     5
 72
     1
  1
 
  7
CONVERTER_11
 73
     1
 44
1.20048019207683
  0
MTEXT
  5
41E
330
71
100
AcDbEntity
  8
1
 62
     2
100
AcDbMText
 10
63.29824346863731
 20
730.3127701945494
 30
0.0
 40
2.0
 41
0.0
 71
     5
 72
     1
  1
 
  7
CONVERTER_11
 73
     1
 44
1.20048019207683
  0
MTEXT
  5
41F
330
71
100
AcDbEntity
  8
1
 62
     2
100
AcDbMText
 10
63.29824346863731
 20
726.0627701945494
 30
0.0
 40
2.0
 41
0.0
 71
     5
 72
     1
  1
 
  7
CONVERTER_11
 73
     1
 44
1.20048019207683
  0
MTEXT
  5
420
330
71
100
AcDbEntity
  8
1
 62
     2
100
AcDbMText
 10
63.29824346863731
 20
721.8127701945496
 30
0.0
 40
2.0
 41
0.0
 71
     5
 72
     1
  1
 
  7
CONVERTER_11
 73
     1
 44
1.20048019207683
  0
MTEXT
  5
421
330
71
100
AcDbEntity
  8
1
 62
     2
100
AcDbMText
 10
53.44824346863831
 20
721.8127701945496
 30
0.0
 40
2.0
 41
0.0
 71
     5
 72
     1
  1
 
  7
CONVERTER_11
 73
     1
 44
1.20048019207683
  0
MTEXT
  5
422
330
71
100
AcDbEntity
  8
1
 62
     2
100
AcDbMText
 10
53.44824346863831
 20
726.0627701945494
 30
0.0
 40
2.0
 41
0.0
 71
     5
 72
     1
  1
 
  7
CONVERTER_11
 73
     1
 44
1.20048019207683
  0
MTEXT
  5
423
330
71
100
AcDbEntity
  8
1
 62
     2
100
AcDbMText
 10
53.44824346863831
 20
730.3127701945494
 30
0.0
 40
2.0
 41
0.0
 71
     5
 72
     1
  1
 
  7
CONVERTER_11
 73
     1
 44
1.20048019207683
  0
MTEXT
  5
424
330
71
100
AcDbEntity
  8
1
 62
     2
100
AcDbMText
 10
53.44824346863831
 20
734.5627701945494
 30
0.0
 40
2.0
 41
0.0
 71
     5
 72
     1
  1
 
  7
CONVERTER_11
 73
     1
 44
1.20048019207683
  0
MTEXT
  5
425
330
71
100
AcDbEntity
  8
1
 62
     2
100
AcDbMText
 10
53.44824346863831
 20
738.8127701945494
 30
0.0
 40
2.0
 41
0.0
 71
     5
 72
     1
  1
 
  7
CONVERTER_11
 73
     1
 44
1.20048019207683
  0
MTEXT
  5
426
330
71
100
AcDbEntity
  8
1
 62
     2
100
AcDbMText
 10
53.44824346863831
 20
743.0627701945494
 30
0.0
 40
2.0
 41
0.0
 71
     5
 72
     1
  1
 
  7
CONVERTER_11
 73
     1
 44
1.20048019207683
  0
MTEXT
  5
427
330
71
100
AcDbEntity
  8
1
 62
     2
100
AcDbMText
 10
258.3482434686412
 20
731.4377701945494
 30
0.0
 40
1.8
 41
0.0
 71
     1
 72
     1
  1
surface in um
  7
CONVERTER_11
 73
     1
 44
1.32052821128451
  0
MTEXT
  5
428
330
71
100
AcDbEntity
  8
1
 62
     2
100
AcDbMText
 10
285.7666517503183
 20
744.1877701945494
 30
0.0
 40
1.8
 41
0.0
 71
     1
 72
     1
  1
dim.var.
  7
CONVERTER_11
 73
     1
 44
1.20048019207683
  0
MTEXT
  5
42A
330
71
100
AcDbEntity
  8
1
 62
     2
100
AcDbMText
 10
239.8482434686415
 20
731.4377701945494
 30
0.0
 40
1.8
 41
0.0
 71
     1
 72
     1
  1
document-No.
  7
CONVERTER_13
 73
     1
 44
1.32052821128451
  0
TEXT
  5
42B
330
71
100
AcDbEntity
  8
1
 62
     2
100
AcDbText
 10
192.0034389418874
 20
716.6787529795579
 30
0.0
 40
1.8
  1
of
 41
0.9
  7
CONVERTER_11
100
AcDbText
  0
TEXT
  5
42C
330
71
100
AcDbEntity
  8
1
 62
     2
100
AcDbText
 10
173.8034389418875
 20
716.6787529795578
 30
0.0
 40
1.8
  1
page
 41
0.9
  7
CONVERTER_11
100
AcDbText
  0
MTEXT
  5
42D
330
71
100
AcDbEntity
  8
1
 62
     2
100
AcDbMText
 10
166.0534389418874
 20
716.6877701945494
 30
0.0
 40
1.8
 41
0.0
 71
     8
 72
     1
  1
name
  7
CONVERTER_11
 73
     1
 44
1.32052821128451
  0
MTEXT
  5
42E
330
71
100
AcDbEntity
  8
1
 62
     2
100
AcDbMText
 10
152.5534389418875
 20
716.6877701945494
 30
0.0
 40
1.8
 41
0.0
 71
     8
 72
     1
  1
check.on
  7
CONVERTER_11
 73
     1
 44
1.32052821128451
  0
MTEXT
  5
42F
330
71
100
AcDbEntity
  8
1
 62
     2
100
AcDbMText
 10
139.0534389418875
 20
716.6877701945494
 30
0.0
 40
1.8
 41
0.0
 71
     8
 72
     1
  1
name
  7
CONVERTER_11
 73
     1
 44
1.32052821128451
  0
MTEXT
  5
430
330
71
100
AcDbEntity
  8
1
 62
     2
100
AcDbMText
 10
63.29824346863731
 20
716.6877701945494
 30
0.0
 40
1.8
 41
0.0
 71
     8
 72
     1
  1
date
  7
CONVERTER_11
 73
     1
 44
1.32052821128451
  0
MTEXT
  5
431
330
71
100
AcDbEntity
  8
1
 62
     2
100
AcDbMText
 10
233.3286280994789
 20
744.1877701945492
 30
0.0
 40
1.8
 41
0.0
 71
     1
 72
     1
  1
material
  7
CONVERTER_11
 73
     1
 44
1.20048019207683
  0
MTEXT
  5
432
330
71
100
AcDbEntity
  8
1
 62
     2
100
AcDbMText
 10
53.44824346863831
 20
716.6877701945494
 30
0.0
 40
1.8
 41
0.0
 71
     8
 72
     1
  1
RI
  7
CONVERTER_11
 73
     1
 44
1.32052821128451
  0
MTEXT
  5
433
330
71
100
AcDbEntity
  8
1
 62
     2
100
AcDbMText
 10
188.9534389418874
 20
742.1377701945495
 30
0.0
 40
1.8
 41
0.0
 71
     8
 72
     1
  1
date
  7
CONVERTER_11
 73
     1
 44
1.32052821128451
  0
MTEXT
  5
434
330
71
100
AcDbEntity
  8
1
 62
     2
100
AcDbMText
 10
202.4534389418874
 20
742.1377701945495
 30
0.0
 40
1.8
 41
0.0
 71
     8
 72
     1
  1
name
  7
CONVERTER_11
 73
     1
 44
1.32052821128451
  0
MTEXT
  5
435
330
71
100
AcDbEntity
  8
1
 62
     2
100
AcDbMText
 10
101.1758412052624
 20
716.6877701945494
 30
0.0
 40
1.8
 41
0.0
 71
     8
 72
     1
  1
revision
  7
CONVERTER_11
 73
     1
 44
1.32052821128451
  0
MTEXT
  5
436
330
71
100
AcDbEntity
  8
1
 62
     2
100
AcDbMText
 10
276.6482434686393
 20
744.1877701945494
 30
0.0
 40
1.8
 41
0.0
 71
     1
 72
     1
  1
scale
  7
CONVERTER_11
 73
     1
 44
1.20048019207683
  0
MTEXT
  5
437
330
71
100
AcDbEntity
  8
1
 62
     2
100
AcDbMText
 10
177.5034389418875
 20
738.8127701945494
 30
0.0
 40
1.8
 41
0.0
 71
     5
 72
     1
  1
creat.
  7
CONVERTER_11
 73
     1
 44
1.20048019207683
  0
MTEXT
  5
438
330
71
100
AcDbEntity
  8
1
 62
     2
100
AcDbMText
 10
177.5034389418875
 20
734.5627701945494
 30
0.0
 40
1.8
 41
0.0
 71
     5
 72
     1
  1
check.
  7
CONVERTER_11
 73
     1
 44
1.20048019207683
  0
MTEXT
  5
439
330
71
100
AcDbEntity
  8
1
 62
     3
100
AcDbMText
 10
199.0034389418874
 20
730.3127701945496
 30
0.0
 40
2.5
 41
0.0
 71
     5
 72
     1
  1
DIN A3
  7
CONVERTER_11
 73
     1
 44
1.20048019207683
  0
MTEXT
  5
43A
330
71
100
AcDbEntity
  8
1
 62
     2
100
AcDbMText
 10
210.3034389418874
 20
744.1877701945494
 30
0.0
 40
1.8
 41
0.0
 71
     1
 72
     1
  1
ident.-No. / RI
  7
CONVERTER_11
 73
     1
 44
1.20048019207683
  0
TEXT
  5
43B
330
71
100
AcDbEntity
  8
1
 62
     2
100
AcDbText
 10
182.4497039122296
 20
716.6385215407475
 30
0.0
 40
1.8
  1
1
 41
0.9
  7
CONVERTER_11
100
AcDbText
  0
TEXT
  5
43C
330
71
100
AcDbEntity
  8
1
 62
     2
100
AcDbText
 10
197.2387477517011
 20
716.6877701945494
 30
0.0
 40
1.8
  1
1
 41
0.9
  7
CONVERTER_11
100
AcDbText
  0
MTEXT
  5
43D
330
71
100
AcDbEntity
  8
1
 62
     2
100
AcDbMText
 10
210.2034389418874
 20
722.9377701945494
 30
0.0
 40
1.8
 41
0.0
 71
     1
 72
     1
  1
description
  7
CONVERTER_11
 73
     1
 44
1.20048019207683
  0
MTEXT
  5
43E
330
71
100
AcDbEntity
  8
1
 62
     2
100
AcDbMText
 10
177.5034389418875
 20
742.1377701945495
 30
0.0
 40
1.8
 41
0.0
 71
     8
 72
     1
  1
00
  7
CONVERTER_11
 73
     1
 44
1.20048019207683
  0
MTEXT
  5
43F
330
71
100
AcDbEntity
  8
1
 62
     2
100
AcDbMText
 10
210.2034389418874
 20
731.4377701945494
 30
0.0
 40
1.8
 41
0.0
 71
     1
 72
     1
  1
document-type
  7
CONVERTER_11
 73
     1
 44
1.20048019207683
  0
MTEXT
  5
440
330
71
100
AcDbEntity
  8
1
 62
     2
100
AcDbMText
 10
202.4534389418874
 20
734.5627701945494
 30
0.0
 40
1.8
 41
0.0
 71
     5
 72
     1
  1
pbam06
  7
CONVERTER_11
 73
     1
 44
1.32052821128451
  0
MTEXT
  5
441
330
71
100
AcDbEntity
  8
1
 62
     2
100
AcDbMText
 10
202.4534389418874
 20
738.8127701945494
 30
0.0
 40
1.8
 41
0.0
 71
     5
 72
     1
  1
pbsc11
  7
CONVERTER_11
 73
     1
 44
1.32052821128451
  0
MTEXT
  5
442
330
71
100
AcDbEntity
  8
1
 62
     2
100
AcDbMText
 10
188.9534389418874
 20
734.5627701945494
 30
0.0
 40
1.8
 41
0.0
 71
     5
 72
     1
  1
29.06.15
  7
CONVERTER_11
 73
     1
 44
1.32052821128451
  0
MTEXT
  5
443
330
71
100
AcDbEntity
  8
1
 62
     2
100
AcDbMText
 10
188.9534389418874
 20
738.8127701945494
 30
0.0
 40
1.8
 41
0.0
 71
     5
 72
     1
  1
13.09.13
  7
CONVERTER_11
 73
     1
 44
1.32052821128451
  0
TEXT
  5
444
330
71
100
AcDbEntity
  8
1
 62
     7
100
AcDbText
 10
225.1769866639012
 20
737.9877701945494
 30
0.0
 40
2.5
  1
/
 41
0.9
  7
CONVERTER_11
100
AcDbText
  0
MTEXT
  5
446
330
71
100
AcDbEntity
  8
1
 62
     3
100
AcDbMText
 10
280.007447609479
 20
737.9877701945495
 30
0.0
 40
2.5
 41
0.0
 71
     8
 72
     1
  1
1:1
  7
CONVERTER_14
 73
     1
 44
1.32052821128451
  0
TEXT
  5
448
330
71
100
AcDbEntity
  8
1
 62
     3
100
AcDbText
 10
233.1034389418874
 20
737.9877701945494
 30
0.0
 40
2.5
  1
 
 41
0.54
  7
CONVERTER_15
100
AcDbText
  0
TEXT
  5
44A
330
71
100
AcDbEntity
  8
1
 62
     7
100
AcDbText
 10
210.7034389418872
 20
737.9877701945494
 30
0.0
 40
2.5
  1
3240258
 41
0.81
  7
CONVERTER_16
100
AcDbText
  0
TEXT
  5
44B
330
71
100
AcDbEntity
  8
1
 62
     7
100
AcDbText
 10
239.8482434686415
 20
725.2377701945494
 30
0.0
 40
2.5
  1
00747286
 41
0.81
  7
CONVERTER_16
100
AcDbText
  0
TEXT
  5
44C
330
71
100
AcDbEntity
  8
1
 62
     3
100
AcDbText
 10
285.4666517503183
 20
737.9877701945494
 30
0.0
 40
2.5
  1
 
 41
0.54
  7
CONVERTER_15
100
AcDbText
  0
TEXT
  5
44D
330
71
100
AcDbEntity
  8
1
 62
     7
100
AcDbText
 10
227.3333511609432
 20
737.9877701945494
 30
0.0
 40
2.5
  1
00
 41
0.81
  7
CONVERTER_16
100
AcDbText
  0
TEXT
  5
44E
330
71
100
AcDbEntity
  8
1
 62
     7
100
AcDbText
 10
267.0149101353059
 20
711.43777019455
 30
0.0
 40
2.5
  1
6
 41
0.9
  7
CONVERTER_11
100
AcDbText
  0
TEXT
  5
44F
330
71
100
AcDbEntity
  8
1
 62
     7
100
AcDbText
 10
198.6815768019724
 20
711.43777019455
 30
0.0
 40
2.5
  1
5
 41
0.9
  7
CONVERTER_11
100
AcDbText
  0
TEXT
  5
450
330
71
100
AcDbEntity
  8
1
 62
     7
100
AcDbText
 10
130.3482434686392
 20
711.43777019455
 30
0.0
 40
2.5
  1
4
 41
0.9
  7
CONVERTER_11
100
AcDbText
  0
TEXT
  5
451
330
71
100
AcDbEntity
  8
1
 62
     7
100
AcDbText
 10
62.01491013530605
 20
711.43777019455
 30
0.0
 40
2.5
  1
3
 41
0.9
  7
CONVERTER_11
100
AcDbText
  0
TEXT
  5
452
330
71
100
AcDbEntity
  8
1
 62
     7
100
AcDbText
 10
303.3482434686392
 20
742.93777019455
 30
0.0
 40
2.5
  1
E
 41
0.9
  7
CONVERTER_11
100
AcDbText
  0
TEXT
  5
453
330
71
100
AcDbEntity
  8
1
 62
     7
100
AcDbText
 10
-74.65175653136055
 20
711.43777019455
 30
0.0
 40
2.5
  1
1
 41
0.9
  7
CONVERTER_11
100
AcDbText
  0
TEXT
  5
454
330
71
100
AcDbEntity
  8
1
 62
     7
100
AcDbText
 10
-6.31842319802738
 20
711.43777019455
 30
0.0
 40
2.5
  1
2
 41
0.9
  7
CONVERTER_11
100
AcDbText
  0
TEXT
  5
455
330
71
100
AcDbEntity
  8
1
 62
     7
100
AcDbText
 10
303.3482434686392
 20
800.3377701945501
 30
0.0
 40
2.5
  1
D
 41
0.9
  7
CONVERTER_11
100
AcDbText
  0
TEXT
  5
456
330
71
100
AcDbEntity
  8
1
 62
     7
100
AcDbText
 10
303.3482434686392
 20
857.7377701945502
 30
0.0
 40
2.5
  1
C
 41
0.9
  7
CONVERTER_11
100
AcDbText
  0
TEXT
  5
457
330
71
100
AcDbEntity
  8
1
 62
     7
100
AcDbText
 10
303.3482434686392
 20
915.1377701945501
 30
0.0
 40
2.5
  1
B
 41
0.9
  7
CONVERTER_11
100
AcDbText
  0
TEXT
  5
458
330
71
100
AcDbEntity
  8
1
 62
     7
100
AcDbText
 10
303.3482434686392
 20
972.5377701945499
 30
0.0
 40
2.5
  1
A
 41
0.9
  7
CONVERTER_11
100
AcDbText
  0
TEXT
  5
459
330
71
100
AcDbEntity
  8
1
 62
     7
100
AcDbText
 10
267.0149101353059
 20
1003.43777019455
 30
0.0
 40
2.5
  1
6
 41
0.9
  7
CONVERTER_11
100
AcDbText
  0
TEXT
  5
45A
330
71
100
AcDbEntity
  8
1
 62
     7
100
AcDbText
 10
198.6815768019726
 20
1003.43777019455
 30
0.0
 40
2.5
  1
5
 41
0.9
  7
CONVERTER_11
100
AcDbText
  0
TEXT
  5
45B
330
71
100
AcDbEntity
  8
1
 62
     7
100
AcDbText
 10
130.3482434686392
 20
1003.43777019455
 30
0.0
 40
2.5
  1
4
 41
0.9
  7
CONVERTER_11
100
AcDbText
  0
TEXT
  5
45C
330
71
100
AcDbEntity
  8
1
 62
     7
100
AcDbText
 10
62.01491013530605
 20
1003.43777019455
 30
0.0
 40
2.5
  1
3
 41
0.9
  7
CONVERTER_11
100
AcDbText
  0
TEXT
  5
45D
330
71
100
AcDbEntity
  8
1
 62
     7
100
AcDbText
 10
-6.31842319802738
 20
1003.43777019455
 30
0.0
 40
2.5
  1
2
 41
0.9
  7
CONVERTER_11
100
AcDbText
  0
TEXT
  5
45E
330
71
100
AcDbEntity
  8
1
 62
     7
100
AcDbText
 10
-74.65175653136055
 20
1003.43777019455
 30
0.0
 40
2.5
  1
1
 41
0.9
  7
CONVERTER_11
100
AcDbText
  0
MTEXT
  5
45F
330
71
100
AcDbEntity
  8
1
 62
     3
100
AcDbMText
 10
-94.22908322000754
 20
715.4646842940506
 30
0.0
 40
1.8
 41
0.0
 71
     7
 72
     1
  3
Weitergabe sowie Vervielf\U+00e4ltigung dieses Dokuments, Verwertung und\PMitteilung seines Inhalts gem\U+00e4\U+00df \U+00a718 UWG verboten, soweit nicht aus-\Pdr\U+00fccklich gestattet. Zuwiderhandlungen verpflichten zu Schadenersatz\P(\U+00a719 U
  1
WG). Alle Rechte vorbehalten, insbesondere das Recht, Patent-,\PGebrauchsmuster- oder Geschmacksmusteranmeldungen durchzuf\U+00fchren.\PPhoenix Contact GmbH & Co. KG
  7
CONVERTER_11
 11
6.123233764940082E-17
 21
1.0
 31
0.0
 73
     1
 44
0.99639855942377
  0
MTEXT
  5
460
330
71
100
AcDbEntity
  8
1
 62
     3
100
AcDbMText
 10
-94.38328953110155
 20
888.4240543082037
 30
0.0
 40
1.8
 41
0.0
 71
     7
 72
     1
  3
The copying, distribution and utilistion of this document as well as the communication\Pof the contents to others without expressed authorization is prohibited according to\P\U+00a718 UWG German Law. Offenders will be held liable for the payment of 
  1
damages\Paccording to (\U+00a719 UWG German Law). All rights reserved, in particular the right to\Pcarry out patent, utility model or ornamental design registrations.\PFlachsmarktstra\U+00dfe 8  D-32825 Blomberg
  7
CONVERTER_11
 11
6.123233764940082E-17
 21
1.0
 31
0.0
 73
     1
 44
0.99639855942377
  0
TEXT
  5
462
330
71
100
AcDbEntity
  8
1
 62
     3
100
AcDbText
 10
210.2034389418874
 20
725.2377701945494
 30
0.0
 40
2.5
  1
KUNDENZCHNG-SELECT
 41
0.45
  7
CONVERTER_17
100
AcDbText
  0
MTEXT
  5
463
330
71
100
AcDbEntity
  8
1
 62
     3
100
AcDbMText
 10
250.0552633552478
 20
735.7877701945495
 30
0.0
 40
2.0
 41
0.0
 71
     1
 72
     1
  1
 
  7
CONVERTER_14
 73
     1
 44
1.20048019207683
  0
MTEXT
  5
465
330
71
100
AcDbEntity
  8
1
 62
     3
100
AcDbMText
 10
219.5356757600023
 20
734.5627701945494
 30
0.0
 40
2.5
 41
0.0
 71
     4
 72
     1
  1
N03-08036/04
  7
CONVERTER_18
 73
     1
 44
1.20048019207683
  0
MTEXT
  5
466
330
71
100
AcDbEntity
  8
1
 62
     2
100
AcDbMText
 10
210.3034389418874
 20
734.7627701945494
 30
0.0
 40
1.4
 41
0.0
 71
     4
 72
     1
  1
SAP\Pchange-No.
  7
CONVERTER_18
 73
     1
 44
0.66026410564226
  0
MTEXT
  5
467
330
71
100
AcDbEntity
  8
1
 62
     2
100
AcDbMText
 10
239.8482434686398
 20
735.6877701945494
 30
0.0
 40
1.8
 41
0.0
 71
     1
 72
     1
  1
part-rev.
  7
CONVERTER_14
 73
     1
 44
1.20048019207683
  0
TEXT
  5
468
330
71
100
AcDbEntity
  8
1
 62
     3
100
AcDbText
 10
258.3482434686395
 20
725.2377701945494
 30
0.0
 40
2.5
  1
 
 41
0.54
  7
CONVERTER_15
100
AcDbText
  0
MTEXT
  5
469
330
71
100
AcDbEntity
  8
1
 62
     7
100
AcDbMText
 10
255.7758412052629
 20
718.6877701945497
 30
0.0
 40
3.0
 41
0.0
 71
     5
 72
     1
  1
WCC 38
  7
CONVERTER_16
 73
     1
 44
1.20048019207683
  0
HATCH
  5
46A
330
71
100
AcDbEntity
  8
1
  6
Continuous
 62
     2
100
AcDbHatch
 10
0.0
 20
0.0
 30
0.0
210
0.0
220
0.0
230
1.0
  2
_USER
 70
     0
 71
     1
 91
        1
 92
        1
 93
       14
 72
     2
 10
186.0788350376914
 20
722.5496749564606
 40
0.9964100565213793
 50
164.9381082228851
 51
195.0618917771023
 73
     1
 72
     2
 10
186.4252216851813
 20
722.6428901316959
 40
1.355119937139965
 50
195.0618917770912
 51
275.1581447696416
 73
     1
 72
     2
 10
186.1864976399451
 20
725.2874278037799
 40
4.010410630990197
 50
275.1581447696246
 51
285.9799912583524
 73
     1
 72
     1
 10
187.2905702987201
 20
721.4319878816304
 11
187.2905702987201
 21
722.1530763170051
 72
     2
 10
186.316971090435
 20
723.7153496386165
 40
1.840813230556049
 50
58.069091050038
 51
71.55192388186815
 73
     0
 72
     2
 10
186.6625642587498
 20
722.6793613939577
 40
0.7487023016404492
 50
71.55192388185023
 51
113.3722778881293
 73
     0
 72
     2
 10
186.5332749755249
 20
722.3801944363461
 40
0.4227934381774399
 50
113.3722778881673
 51
151.4785267423142
 73
     0
 72
     2
 10
186.8451404780707
 20
722.5496749564606
 40
0.7777353184572496
 50
151.4785267422948
 51
208.5214732577273
 73
     0
 72
     2
 10
186.5332749755249
 20
722.7191554765755
 40
0.4227934381776413
 50
208.5214732576993
 51
246.6277221118143
 73
     0
 72
     2
 10
186.6625642587498
 20
722.4199885189635
 40
0.7487023016407734
 50
246.6277221118707
 51
288.4480761181387
 73
     0
 72
     2
 10
186.316971090435
 20
721.3840002743051
 40
1.840813230556584
 50
288.4480761181319
 51
301.930908949962
 73
     0
 72
     1
 10
187.2905702987201
 20
722.9462735959165
 11
187.2905702987201
 21
723.6673620312911
 72
     2
 10
186.1864976399451
 20
719.8119221091417
 40
4.010410630989981
 50
74.0200087416472
 51
84.84185523037543
 73
     1
 72
     2
 10
186.4252216851813
 20
722.4564597812251
 40
1.355119937140984
 50
84.84185523036052
 51
164.9381082228902
 73
     1
 97
       14
330
3FE
330
27A
330
3CD
330
3FD
330
3CE
330
3CF
330
3FC
330
3FB
330
3FA
330
27B
330
3D0
330
3D1
330
3D2
330
3D3
 75
     1
 76
     0
 52
45.0
 41
0.1
 77
     0
 78
     1
 53
45.0
 43
0.0
 44
0.0
 45
-0.0707106781186548
 46
0.0707106781186548
 79
     0
 98
        1
 10
0.0
 20
0.0
  0
HATCH
  5
46B
330
71
100
AcDbEntity
  8
1
  6
Continuous
 62
     2
100
AcDbHatch
 10
0.0
 20
0.0
 30
0.0
210
0.0
220
0.0
230
1.0
  2
_USER
 70
     0
 71
     1
 91
        1
 92
        1
 93
       14
 72
     2
 10
186.0788350376914
 20
722.5496749564606
 40
0.9964100565213793
 50
164.9381082228851
 51
195.0618917771023
 73
     1
 72
     2
 10
186.4252216851813
 20
722.6428901316959
 40
1.355119937139965
 50
195.0618917770912
 51
275.1581447696416
 73
     1
 72
     2
 10
186.1864976399451
 20
725.2874278037799
 40
4.010410630990197
 50
275.1581447696246
 51
285.9799912583524
 73
     1
 72
     1
 10
187.2905702987201
 20
721.4319878816304
 11
187.2905702987201
 21
722.1530763170051
 72
     2
 10
186.316971090435
 20
723.7153496386165
 40
1.840813230556049
 50
58.069091050038
 51
71.55192388186815
 73
     0
 72
     2
 10
186.6625642587498
 20
722.6793613939577
 40
0.7487023016404492
 50
71.55192388185023
 51
113.3722778881293
 73
     0
 72
     2
 10
186.5332749755249
 20
722.3801944363461
 40
0.4227934381774399
 50
113.3722778881673
 51
151.4785267423142
 73
     0
 72
     2
 10
186.8451404780707
 20
722.5496749564606
 40
0.7777353184572496
 50
151.4785267422948
 51
208.5214732577273
 73
     0
 72
     2
 10
186.5332749755249
 20
722.7191554765755
 40
0.4227934381776413
 50
208.5214732576993
 51
246.6277221118143
 73
     0
 72
     2
 10
186.6625642587498
 20
722.4199885189635
 40
0.7487023016407734
 50
246.6277221118707
 51
288.4480761181387
 73
     0
 72
     2
 10
186.316971090435
 20
721.3840002743051
 40
1.840813230556584
 50
288.4480761181319
 51
301.930908949962
 73
     0
 72
     1
 10
187.2905702987201
 20
722.9462735959165
 11
187.2905702987201
 21
723.6673620312911
 72
     2
 10
186.1864976399451
 20
719.8119221091417
 40
4.010410630989981
 50
74.0200087416472
 51
84.84185523037543
 73
     1
 72
     2
 10
186.4252216851813
 20
722.4564597812251
 40
1.355119937140984
 50
84.84185523036052
 51
164.9381082228902
 73
     1
 97
       14
330
3FE
330
27A
330
3CD
330
3FD
330
3CE
330
3CF
330
3FC
330
3FB
330
3FA
330
27B
330
3D0
330
3D1
330
3D2
330
3D3
 75
     1
 76
     0
 52
45.0
 41
0.1
 77
     0
 78
     1
 53
45.0
 43
0.0
 44
0.0
 45
-0.0707106781186548
 46
0.0707106781186548
 79
     0
 98
        1
 10
0.0
 20
0.0
  0
HATCH
  5
46C
330
71
100
AcDbEntity
  8
1
  6
Continuous
 62
     2
100
AcDbHatch
 10
0.0
 20
0.0
 30
0.0
210
0.0
220
0.0
230
1.0
  2
_USER
 70
     0
 71
     1
 91
        1
 92
        1
 93
       18
 72
     2
 10
199.73323943663
 20
722.4564597812251
 40
1.355119937140671
 50
90.0
 51
164.938108222899
 73
     1
 72
     2
 10
199.386852789141
 20
722.5496749564606
 40
0.9964100565230259
 50
164.9381082229105
 51
195.0618917771021
 73
     1
 72
     2
 10
199.73323943663
 20
722.6428901316959
 40
1.355119937140852
 50
195.061891777101
 51
275.1581447696782
 73
     1
 72
     2
 10
199.4945153913938
 20
725.2874278037799
 40
4.010410630990729
 50
275.1581447696365
 51
285.979991258338
 73
     1
 72
     1
 10
200.5985880501679
 20
721.43198788163
 11
200.5985880501679
 21
722.1530763170047
 72
     2
 10
199.6249888418837
 20
723.7153496386161
 40
1.840813230556049
 50
58.06909105006132
 51
71.55192388186815
 73
     0
 72
     2
 10
199.9705820101993
 20
722.6793613939577
 40
0.7487023016407311
 50
71.55192388192107
 51
113.3722778881791
 73
     0
 72
     2
 10
199.8412927269736
 20
722.3801944363461
 40
0.4227934381784311
 50
113.3722778881532
 51
151.4785267423171
 73
     0
 72
     2
 10
200.1531582295203
 20
722.5496749564606
 40
0.7777353184586058
 50
151.4785267423284
 51
208.5214732576348
 73
     0
 72
     2
 10
199.8412927269736
 20
722.7191554765755
 40
0.4227934381773005
 50
208.5214732575882
 51
250.6628567805216
 73
     0
 72
     2
 10
199.9625076014395
 20
722.373738137416
 40
0.7888619891125472
 50
250.6628567805689
 51
270.0
 73
     0
 72
     1
 10
199.9625076014395
 20
723.1626001265286
 11
200.8746061961239
 21
723.1626001265286
 72
     1
 10
200.8746061961239
 20
723.1626001265286
 11
200.8746061961239
 21
721.2877701945554
 72
     1
 10
200.8746061961239
 20
721.2877701945554
 11
201.8603852888244
 21
721.2877701945554
 72
     1
 10
201.8603852888244
 20
721.2877701945554
 11
201.8603852888244
 21
723.1626001265286
 72
     1
 10
201.8603852888244
 20
723.1626001265286
 11
202.5307150718603
 21
723.1626001265286
 72
     1
 10
202.5307150718603
 20
723.1626001265286
 11
202.5307150718603
 21
723.8115797183663
 72
     1
 10
202.5307150718603
 20
723.8115797183663
 11
199.73323943663
 21
723.8115797183658
 97
       18
330
2E0
330
2DF
330
2DE
330
2DD
330
2E2
330
27C
330
3F7
330
3D8
330
3F6
330
3D9
330
3F5
330
3F4
330
27D
330
3F3
330
3F2
330
3DA
330
3DB
330
2E1
 75
     1
 76
     0
 52
45.0
 41
0.1
 77
     0
 78
     1
 53
45.0
 43
0.0
 44
0.0
 45
-0.0707106781186548
 46
0.0707106781186548
 79
     0
 98
        1
 10
0.0
 20
0.0
  0
HATCH
  5
46D
330
71
100
AcDbEntity
  8
1
  6
Continuous
 62
     2
100
AcDbHatch
 10
0.0
 20
0.0
 30
0.0
210
0.0
220
0.0
230
1.0
  2
_USER
 70
     0
 71
     1
 91
        1
 92
        1
 93
       18
 72
     2
 10
199.73323943663
 20
722.4564597812251
 40
1.355119937140671
 50
90.0
 51
164.938108222899
 73
     1
 72
     2
 10
199.386852789141
 20
722.5496749564606
 40
0.9964100565230259
 50
164.9381082229105
 51
195.0618917771021
 73
     1
 72
     2
 10
199.73323943663
 20
722.6428901316959
 40
1.355119937140852
 50
195.061891777101
 51
275.1581447696782
 73
     1
 72
     2
 10
199.4945153913938
 20
725.2874278037799
 40
4.010410630990729
 50
275.1581447696365
 51
285.979991258338
 73
     1
 72
     1
 10
200.5985880501679
 20
721.43198788163
 11
200.5985880501679
 21
722.1530763170047
 72
     2
 10
199.6249888418837
 20
723.7153496386161
 40
1.840813230556049
 50
58.06909105006132
 51
71.55192388186815
 73
     0
 72
     2
 10
199.9705820101993
 20
722.6793613939577
 40
0.7487023016407311
 50
71.55192388192107
 51
113.3722778881791
 73
     0
 72
     2
 10
199.8412927269736
 20
722.3801944363461
 40
0.4227934381784311
 50
113.3722778881532
 51
151.4785267423171
 73
     0
 72
     2
 10
200.1531582295203
 20
722.5496749564606
 40
0.7777353184586058
 50
151.4785267423284
 51
208.5214732576348
 73
     0
 72
     2
 10
199.8412927269736
 20
722.7191554765755
 40
0.4227934381773005
 50
208.5214732575882
 51
250.6628567805216
 73
     0
 72
     2
 10
199.9625076014395
 20
722.373738137416
 40
0.7888619891125472
 50
250.6628567805689
 51
270.0
 73
     0
 72
     1
 10
199.9625076014395
 20
723.1626001265286
 11
200.8746061961239
 21
723.1626001265286
 72
     1
 10
200.8746061961239
 20
723.1626001265286
 11
200.8746061961239
 21
721.2877701945554
 72
     1
 10
200.8746061961239
 20
721.2877701945554
 11
201.8603852888244
 21
721.2877701945554
 72
     1
 10
201.8603852888244
 20
721.2877701945554
 11
201.8603852888244
 21
723.1626001265286
 72
     1
 10
201.8603852888244
 20
723.1626001265286
 11
202.5307150718603
 21
723.1626001265286
 72
     1
 10
202.5307150718603
 20
723.1626001265286
 11
202.5307150718603
 21
723.8115797183663
 72
     1
 10
202.5307150718603
 20
723.8115797183663
 11
199.73323943663
 21
723.8115797183658
 97
       18
330
2E0
330
2DF
330
2DE
330
2DD
330
2E2
330
27C
330
3F7
330
3D8
330
3F6
330
3D9
330
3F5
330
3F4
330
27D
330
3F3
330
3F2
330
3DA
330
3DB
330
2E1
 75
     1
 76
     0
 52
45.0
 41
0.1
 77
     0
 78
     1
 53
45.0
 43
0.0
 44
0.0
 45
-0.0707106781186548
 46
0.0707106781186548
 79
     0
 98
        1
 10
0.0
 20
0.0
  0
HATCH
  5
46E
330
71
100
AcDbEntity
  8
1
  6
Continuous
 62
     2
100
AcDbHatch
 10
0.0
 20
0.0
 30
0.0
210
0.0
220
0.0
230
1.0
  2
_USER
 70
     0
 71
     1
 91
        4
 92
        1
 93
        8
 72
     2
 10
179.8140996872969
 20
726.2371548099137
 40
0.3506153846146844
 50
90.0
 51
180.0
 73
     1
 72
     1
 10
179.463484302683
 20
726.2371548099137
 11
179.463484302683
 21
721.6383855791697
 72
     2
 10
179.8140996872969
 20
721.6383855791697
 40
0.3506153846138886
 50
180.0
 51
270.0
 73
     1
 72
     1
 10
179.8140996872969
 20
721.2877701945554
 11
184.337498109377
 21
721.2877701945554
 72
     2
 10
184.337498109377
 20
721.6383855791697
 40
0.3506153846143434
 50
270.0
 51
360.0
 73
     1
 72
     1
 10
184.6881134939918
 20
721.6383855791697
 11
184.6881134939918
 21
726.2371548099137
 72
     2
 10
184.337498109377
 20
726.2371548099137
 40
0.3506153846147981
 50
0.0
 51
90.0
 73
     1
 72
     1
 10
184.337498109377
 20
726.5877701945284
 11
179.8140996872969
 21
726.5877701945284
 97
        8
330
3EB
330
2AB
330
3EA
330
2AC
330
3E1
330
2A9
330
3EC
330
2AA
 92
       16
 93
        1
 72
     2
 10
181.9790465059065
 20
724.3207232162314
 40
0.3892387874201972
 50
0.0
 51
360.0
 73
     1
 97
        1
330
3FF
 92
       16
 93
        8
 72
     2
 10
181.9987283362145
 20
724.3207232162314
 40
0.7535935125160714
 50
295.3740086781789
 51
424.6259913218062
 73
     1
 72
     2
 10
182.4334743676922
 20
725.237369166618
 40
0.2609230769230066
 50
115.374008678374
 51
180.0
 73
     0
 72
     1
 10
182.1725512907692
 20
725.237369166618
 11
182.1725512907692
 21
725.7378115538137
 72
     2
 10
182.4334743676922
 20
725.7378115538137
 40
0.2609230769224679
 50
180.0
 51
269.8110329574403
 73
     0
 72
     2
 10
182.4381158018326
 20
724.3305099442525
 40
1.668232340440728
 50
269.8110329575882
 51
450.1889670424118
 73
     0
 72
     2
 10
182.4334743676922
 20
722.9232083346914
 40
0.2609230769230066
 50
90.18896704255974
 51
180.0
 73
     0
 72
     1
 10
182.1725512907692
 20
722.9232083346914
 11
182.1725512907692
 21
723.4040772658443
 72
     2
 10
182.4334743676922
 20
723.4040772658443
 40
0.2609230769227867
 50
180.0
 51
244.625991321626
 73
     0
 97
        8
330
3F9
330
3D5
330
2E4
330
3F8
330
3D6
330
3D7
330
2E3
330
3D4
 92
       16
 93
       12
 72
     1
 10
180.3049217341949
 20
721.8766590834455
 11
181.5246186441201
 21
721.8766590834455
 72
     2
 10
181.5246186441201
 20
722.1375821603683
 40
0.2609230769228361
 50
270.0
 51
360.0
 73
     1
 72
     1
 10
181.7855417210429
 20
722.1375821603683
 11
181.7855417210429
 21
723.4026821037829
 72
     2
 10
181.5246186441201
 20
723.4026821037829
 40
0.2609230769228077
 50
0.0
 51
64.80558935144161
 73
     1
 72
     2
 10
181.9565066173226
 20
724.3207232162314
 40
0.753634316989858
 50
115.1944106485115
 51
244.8055893514774
 73
     0
 72
     2
 10
181.5246186441201
 20
725.2387643286795
 40
0.2609230769223558
 50
295.1944106485584
 51
360.0
 73
     1
 72
     1
 10
181.7855417210429
 20
725.2387643286795
 11
181.7855417210429
 21
725.7379582287296
 72
     2
 10
181.5246186441201
 20
725.7379582287296
 40
0.2609230769228077
 50
0.0
 51
90.0
 73
     1
 72
     1
 10
181.5246186441201
 20
725.998881305652
 11
180.3049217341949
 21
725.998881305652
 72
     2
 10
180.3049217341949
 20
725.7379582287296
 40
0.2609230769224951
 50
90.0
 51
180.0
 73
     1
 72
     1
 10
180.0439986572728
 20
725.7379582287296
 11
180.0439986572728
 21
722.1375821603683
 72
     2
 10
180.3049217341949
 20
722.1375821603683
 40
0.2609230769220972
 50
180.0
 51
270.0
 73
     1
 97
       12
330
2B0
330
3DE
330
2AF
330
3EF
330
2AE
330
3EE
330
3DF
330
3E0
330
2AD
330
3ED
330
2A8
330
3F0
 75
     1
 76
     0
 52
45.0
 41
0.1
 77
     0
 78
     1
 53
45.0
 43
0.0
 44
0.0
 45
-0.0707106781186548
 46
0.0707106781186548
 79
     0
 98
        1
 10
0.0
 20
0.0
  0
HATCH
  5
46F
330
71
100
AcDbEntity
  8
1
  6
Continuous
 62
     2
100
AcDbHatch
 10
0.0
 20
0.0
 30
0.0
210
0.0
220
0.0
230
1.0
  2
_USER
 70
     0
 71
     1
 91
        4
 92
        1
 93
        8
 72
     2
 10
179.8140996872969
 20
726.2371548099137
 40
0.3506153846146844
 50
90.0
 51
180.0
 73
     1
 72
     1
 10
179.463484302683
 20
726.2371548099137
 11
179.463484302683
 21
721.6383855791697
 72
     2
 10
179.8140996872969
 20
721.6383855791697
 40
0.3506153846138886
 50
180.0
 51
270.0
 73
     1
 72
     1
 10
179.8140996872969
 20
721.2877701945554
 11
184.337498109377
 21
721.2877701945554
 72
     2
 10
184.337498109377
 20
721.6383855791697
 40
0.3506153846143434
 50
270.0
 51
360.0
 73
     1
 72
     1
 10
184.6881134939918
 20
721.6383855791697
 11
184.6881134939918
 21
726.2371548099137
 72
     2
 10
184.337498109377
 20
726.2371548099137
 40
0.3506153846147981
 50
0.0
 51
90.0
 73
     1
 72
     1
 10
184.337498109377
 20
726.5877701945284
 11
179.8140996872969
 21
726.5877701945284
 97
        8
330
3EB
330
2AB
330
3EA
330
2AC
330
3E1
330
2A9
330
3EC
330
2AA
 92
       16
 93
        1
 72
     2
 10
181.9790465059065
 20
724.3207232162314
 40
0.3892387874201972
 50
0.0
 51
360.0
 73
     1
 97
        1
330
3FF
 92
       16
 93
        8
 72
     2
 10
181.9987283362145
 20
724.3207232162314
 40
0.7535935125160714
 50
295.3740086781789
 51
424.6259913218062
 73
     1
 72
     2
 10
182.4334743676922
 20
725.237369166618
 40
0.2609230769230066
 50
115.374008678374
 51
180.0
 73
     0
 72
     1
 10
182.1725512907692
 20
725.237369166618
 11
182.1725512907692
 21
725.7378115538137
 72
     2
 10
182.4334743676922
 20
725.7378115538137
 40
0.2609230769224679
 50
180.0
 51
269.8110329574403
 73
     0
 72
     2
 10
182.4381158018326
 20
724.3305099442525
 40
1.668232340440728
 50
269.8110329575882
 51
450.1889670424118
 73
     0
 72
     2
 10
182.4334743676922
 20
722.9232083346914
 40
0.2609230769230066
 50
90.18896704255974
 51
180.0
 73
     0
 72
     1
 10
182.1725512907692
 20
722.9232083346914
 11
182.1725512907692
 21
723.4040772658443
 72
     2
 10
182.4334743676922
 20
723.4040772658443
 40
0.2609230769227867
 50
180.0
 51
244.625991321626
 73
     0
 97
        8
330
3F9
330
3D5
330
2E4
330
3F8
330
3D6
330
3D7
330
2E3
330
3D4
 92
       16
 93
       12
 72
     1
 10
180.3049217341949
 20
721.8766590834455
 11
181.5246186441201
 21
721.8766590834455
 72
     2
 10
181.5246186441201
 20
722.1375821603683
 40
0.2609230769228361
 50
270.0
 51
360.0
 73
     1
 72
     1
 10
181.7855417210429
 20
722.1375821603683
 11
181.7855417210429
 21
723.4026821037829
 72
     2
 10
181.5246186441201
 20
723.4026821037829
 40
0.2609230769228077
 50
0.0
 51
64.80558935144161
 73
     1
 72
     2
 10
181.9565066173226
 20
724.3207232162314
 40
0.753634316989858
 50
115.1944106485115
 51
244.8055893514774
 73
     0
 72
     2
 10
181.5246186441201
 20
725.2387643286795
 40
0.2609230769223558
 50
295.1944106485584
 51
360.0
 73
     1
 72
     1
 10
181.7855417210429
 20
725.2387643286795
 11
181.7855417210429
 21
725.7379582287296
 72
     2
 10
181.5246186441201
 20
725.7379582287296
 40
0.2609230769228077
 50
0.0
 51
90.0
 73
     1
 72
     1
 10
181.5246186441201
 20
725.998881305652
 11
180.3049217341949
 21
725.998881305652
 72
     2
 10
180.3049217341949
 20
725.7379582287296
 40
0.2609230769224951
 50
90.0
 51
180.0
 73
     1
 72
     1
 10
180.0439986572728
 20
725.7379582287296
 11
180.0439986572728
 21
722.1375821603683
 72
     2
 10
180.3049217341949
 20
722.1375821603683
 40
0.2609230769220972
 50
180.0
 51
270.0
 73
     1
 97
       12
330
2B0
330
3DE
330
2AF
330
3EF
330
2AE
330
3EE
330
3DF
330
3E0
330
2AD
330
3ED
330
2A8
330
3F0
 75
     1
 76
     0
 52
45.0
 41
0.1
 77
     0
 78
     1
 53
45.0
 43
0.0
 44
0.0
 45
-0.0707106781186548
 46
0.0707106781186548
 79
     0
 98
        1
 10
0.0
 20
0.0
  0
HATCH
  5
470
330
71
100
AcDbEntity
  8
1
  6
Continuous
 62
     2
100
AcDbHatch
 10
0.0
 20
0.0
 30
0.0
210
0.0
220
0.0
230
1.0
  2
_USER
 70
     0
 71
     1
 91
        2
 92
        1
 93
       12
 72
     2
 10
191.9423344013377
 20
725.3258654326378
 40
1.261904761905612
 50
90.0
 51
270.0
 73
     1
 72
     1
 10
191.9423344013377
 20
724.0639606707325
 11
194.5459044209914
 21
724.0639606707325
 72
     1
 10
194.5459044209914
 20
724.0639606707325
 11
194.5459044209914
 21
724.640831419032
 72
     1
 10
194.5459044209914
 20
724.640831419032
 11
193.4418318371669
 21
724.640831419032
 72
     1
 10
193.4418318371669
 20
724.640831419032
 11
193.4418318371669
 21
725.037430058488
 72
     1
 10
193.4418318371669
 20
725.037430058488
 11
194.5459044209914
 21
725.037430058488
 72
     1
 10
194.5459044209914
 20
725.037430058488
 11
194.5459044209914
 21
725.6143008067875
 72
     1
 10
194.5459044209914
 20
725.6143008067875
 11
193.4418318371669
 21
725.6143008067875
 72
     1
 10
193.4418318371669
 20
725.6143008067875
 11
193.4418318371669
 21
726.0108994462435
 72
     1
 10
193.4418318371669
 20
726.0108994462435
 11
194.5459044209914
 21
726.0108994462435
 72
     1
 10
194.5459044209914
 20
726.0108994462435
 11
194.5459044209914
 21
726.5877701945434
 72
     1
 10
194.5459044209914
 20
726.5877701945434
 11
191.9423344013377
 21
726.5877701945434
 97
       12
330
29F
330
299
330
2C0
330
2BF
330
2BE
330
2BD
330
29A
330
29B
330
29C
330
29D
330
3DC
330
29E
 92
       16
 93
        4
 72
     2
 10
192.2861460100248
 20
725.3258654326378
 40
0.6378510567599356
 50
141.8795802028404
 51
218.1204197971676
 73
     1
 72
     2
 10
192.1210715998213
 20
725.1963355333646
 40
0.4280236140606632
 50
218.1204197971535
 51
321.8795802028536
 73
     1
 72
     2
 10
191.9559971896179
 20
725.3258654326378
 40
0.6378510567600058
 50
321.8795802028323
 51
398.1204197971596
 73
     1
 72
     2
 10
192.1210715998213
 20
725.4553953319108
 40
0.4280236140607304
 50
38.12041979714642
 51
141.8795802028465
 73
     1
 97
        4
330
3E9
330
3E8
330
3E3
330
3E2
 75
     1
 76
     0
 52
45.0
 41
0.1
 77
     0
 78
     1
 53
45.0
 43
0.0
 44
0.0
 45
-0.0707106781186548
 46
0.0707106781186548
 79
     0
 98
        1
 10
0.0
 20
0.0
  0
HATCH
  5
471
330
71
100
AcDbEntity
  8
1
  6
Continuous
 62
     2
100
AcDbHatch
 10
0.0
 20
0.0
 30
0.0
210
0.0
220
0.0
230
1.0
  2
_USER
 70
     0
 71
     1
 91
        2
 92
        1
 93
       12
 72
     2
 10
191.9423344013377
 20
725.3258654326378
 40
1.261904761905612
 50
90.0
 51
270.0
 73
     1
 72
     1
 10
191.9423344013377
 20
724.0639606707325
 11
194.5459044209914
 21
724.0639606707325
 72
     1
 10
194.5459044209914
 20
724.0639606707325
 11
194.5459044209914
 21
724.640831419032
 72
     1
 10
194.5459044209914
 20
724.640831419032
 11
193.4418318371669
 21
724.640831419032
 72
     1
 10
193.4418318371669
 20
724.640831419032
 11
193.4418318371669
 21
725.037430058488
 72
     1
 10
193.4418318371669
 20
725.037430058488
 11
194.5459044209914
 21
725.037430058488
 72
     1
 10
194.5459044209914
 20
725.037430058488
 11
194.5459044209914
 21
725.6143008067875
 72
     1
 10
194.5459044209914
 20
725.6143008067875
 11
193.4418318371669
 21
725.6143008067875
 72
     1
 10
193.4418318371669
 20
725.6143008067875
 11
193.4418318371669
 21
726.0108994462435
 72
     1
 10
193.4418318371669
 20
726.0108994462435
 11
194.5459044209914
 21
726.0108994462435
 72
     1
 10
194.5459044209914
 20
726.0108994462435
 11
194.5459044209914
 21
726.5877701945434
 72
     1
 10
194.5459044209914
 20
726.5877701945434
 11
191.9423344013377
 21
726.5877701945434
 97
       12
330
29F
330
299
330
2C0
330
2BF
330
2BE
330
2BD
330
29A
330
29B
330
29C
330
29D
330
3DC
330
29E
 92
       16
 93
        4
 72
     2
 10
192.2861460100248
 20
725.3258654326378
 40
0.6378510567599356
 50
141.8795802028404
 51
218.1204197971676
 73
     1
 72
     2
 10
192.1210715998213
 20
725.1963355333646
 40
0.4280236140606632
 50
218.1204197971535
 51
321.8795802028536
 73
     1
 72
     2
 10
191.9559971896179
 20
725.3258654326378
 40
0.6378510567600058
 50
321.8795802028323
 51
398.1204197971596
 73
     1
 72
     2
 10
192.1210715998213
 20
725.4553953319108
 40
0.4280236140607304
 50
38.12041979714642
 51
141.8795802028465
 73
     1
 97
        4
330
3E9
330
3E8
330
3E3
330
3E2
 75
     1
 76
     0
 52
45.0
 41
0.1
 77
     0
 78
     1
 53
45.0
 43
0.0
 44
0.0
 45
-0.0707106781186548
 46
0.0707106781186548
 79
     0
 98
        1
 10
0.0
 20
0.0
  0
HATCH
  5
472
330
71
100
AcDbEntity
  8
1
  6
Continuous
 62
     2
100
AcDbHatch
 10
0.0
 20
0.0
 30
0.0
210
0.0
220
0.0
230
1.0
  2
_USER
 70
     0
 71
     1
 91
        2
 92
        1
 93
        4
 72
     2
 10
188.6153795563281
 20
722.5496749564606
 40
1.20498684599291
 50
117.548148175664
 51
242.4518518243384
 73
     1
 72
     2
 10
188.847561285116
 20
722.9947782707609
 40
1.707008076205438
 50
242.451851824339
 51
297.5481481756847
 73
     1
 72
     2
 10
189.0797430139038
 20
722.5496749564606
 40
1.204986845993431
 50
297.5481481756999
 51
422.4518518242976
 73
     1
 72
     2
 10
188.847561285116
 20
722.1045716421607
 40
1.707008076205403
 50
62.45185182430821
 51
117.5481481756681
 73
     1
 97
        4
330
3E7
330
3E4
330
3E6
330
3E5
 92
       16
 93
        4
 72
     2
 10
188.847561285116
 20
722.6792048557337
 40
0.4280236140605738
 50
38.12041979716286
 51
141.8795802028536
 73
     1
 72
     2
 10
189.0126356953193
 20
722.5496749564606
 40
0.6378510567598462
 50
141.8795802028341
 51
218.120419797174
 73
     1
 72
     2
 10
188.847561285116
 20
722.4201450571879
 40
0.4280236140610111
 50
218.1204197971943
 51
321.8795802027893
 73
     1
 72
     2
 10
188.6824868749124
 20
722.5496749564606
 40
0.6378510567600058
 50
321.8795802028323
 51
398.1204197971596
 73
     1
 97
        4
330
3CA
330
3CB
330
3CC
330
3C9
 75
     1
 76
     0
 52
45.0
 41
0.1
 77
     0
 78
     1
 53
45.0
 43
0.0
 44
0.0
 45
-0.0707106781186548
 46
0.0707106781186548
 79
     0
 98
        1
 10
0.0
 20
0.0
  0
HATCH
  5
473
330
71
100
AcDbEntity
  8
1
  6
Continuous
 62
     2
100
AcDbHatch
 10
0.0
 20
0.0
 30
0.0
210
0.0
220
0.0
230
1.0
  2
_USER
 70
     0
 71
     1
 91
        2
 92
        1
 93
        4
 72
     2
 10
188.6153795563281
 20
722.5496749564606
 40
1.20498684599291
 50
117.548148175664
 51
242.4518518243384
 73
     1
 72
     2
 10
188.847561285116
 20
722.9947782707609
 40
1.707008076205438
 50
242.451851824339
 51
297.5481481756847
 73
     1
 72
     2
 10
189.0797430139038
 20
722.5496749564606
 40
1.204986845993431
 50
297.5481481756999
 51
422.4518518242976
 73
     1
 72
     2
 10
188.847561285116
 20
722.1045716421607
 40
1.707008076205403
 50
62.45185182430821
 51
117.5481481756681
 73
     1
 97
        4
330
3E7
330
3E4
330
3E6
330
3E5
 92
       16
 93
        4
 72
     2
 10
188.847561285116
 20
722.6792048557337
 40
0.4280236140605738
 50
38.12041979716286
 51
141.8795802028536
 73
     1
 72
     2
 10
189.0126356953193
 20
722.5496749564606
 40
0.6378510567598462
 50
141.8795802028341
 51
218.120419797174
 73
     1
 72
     2
 10
188.847561285116
 20
722.4201450571879
 40
0.4280236140610111
 50
218.1204197971943
 51
321.8795802027893
 73
     1
 72
     2
 10
188.6824868749124
 20
722.5496749564606
 40
0.6378510567600058
 50
321.8795802028323
 51
398.1204197971596
 73
     1
 97
        4
330
3CA
330
3CB
330
3CC
330
3C9
 75
     1
 76
     0
 52
45.0
 41
0.1
 77
     0
 78
     1
 53
45.0
 43
0.0
 44
0.0
 45
-0.0707106781186548
 46
0.0707106781186548
 79
     0
 98
        1
 10
0.0
 20
0.0
  0
HATCH
  5
474
330
71
100
AcDbEntity
  8
1
  6
Continuous
 62
     2
100
AcDbHatch
 10
0.0
 20
0.0
 30
0.0
210
0.0
220
0.0
230
1.0
  2
_USER
 70
     0
 71
     1
 91
        2
 92
        1
 93
        6
 72
     1
 10
185.0824251310718
 20
726.5877701945434
 11
185.0824251310718
 21
724.0639606707325
 72
     1
 10
185.0824251310718
 20
724.0639606707325
 11
186.1076353874801
 21
724.0639606707325
 72
     1
 10
186.1076353874801
 20
724.0639606707325
 11
186.1076353874801
 21
724.84336417581
 72
     1
 10
186.1076353874801
 20
724.84336417581
 11
186.7347160385382
 21
724.84336417581
 72
     2
 10
186.7347160385382
 20
725.7155671851767
 40
0.8722030093666717
 50
270.0
 51
450.0
 73
     1
 72
     1
 10
186.7347160385382
 20
726.5877701945434
 11
185.0824251310718
 21
726.5877701945434
 97
        6
330
3F1
330
2B1
330
2A7
330
2A6
330
2B3
330
2B2
 92
       16
 93
        4
 72
     1
 10
186.3698627110684
 20
726.0397488346756
 11
186.1076353874801
 21
726.0397488346756
 72
     1
 10
186.1076353874801
 20
726.0397488346756
 11
186.1076353874801
 21
725.4565028434836
 72
     1
 10
186.1076353874801
 20
725.4565028434836
 11
186.3698627110684
 21
725.4565028434836
 72
     2
 10
186.3698627110684
 20
725.7481258390796
 40
0.2916229955960716
 50
270.0
 51
450.0
 73
     1
 97
        4
330
2B4
330
2A5
330
2B5
330
3DD
 75
     1
 76
     0
 52
45.0
 41
0.1
 77
     0
 78
     1
 53
45.0
 43
0.0
 44
0.0
 45
-0.0707106781186548
 46
0.0707106781186548
 79
     0
 98
        1
 10
0.0
 20
0.0
  0
HATCH
  5
475
330
71
100
AcDbEntity
  8
1
  6
Continuous
 62
     2
100
AcDbHatch
 10
0.0
 20
0.0
 30
0.0
210
0.0
220
0.0
230
1.0
  2
_USER
 70
     0
 71
     1
 91
        2
 92
        1
 93
        6
 72
     1
 10
185.0824251310718
 20
726.5877701945434
 11
185.0824251310718
 21
724.0639606707325
 72
     1
 10
185.0824251310718
 20
724.0639606707325
 11
186.1076353874801
 21
724.0639606707325
 72
     1
 10
186.1076353874801
 20
724.0639606707325
 11
186.1076353874801
 21
724.84336417581
 72
     1
 10
186.1076353874801
 20
724.84336417581
 11
186.7347160385382
 21
724.84336417581
 72
     2
 10
186.7347160385382
 20
725.7155671851767
 40
0.8722030093666717
 50
270.0
 51
450.0
 73
     1
 72
     1
 10
186.7347160385382
 20
726.5877701945434
 11
185.0824251310718
 21
726.5877701945434
 97
        6
330
3F1
330
2B1
330
2A7
330
2A6
330
2B3
330
2B2
 92
       16
 93
        4
 72
     1
 10
186.3698627110684
 20
726.0397488346756
 11
186.1076353874801
 21
726.0397488346756
 72
     1
 10
186.1076353874801
 20
726.0397488346756
 11
186.1076353874801
 21
725.4565028434836
 72
     1
 10
186.1076353874801
 20
725.4565028434836
 11
186.3698627110684
 21
725.4565028434836
 72
     2
 10
186.3698627110684
 20
725.7481258390796
 40
0.2916229955960716
 50
270.0
 51
450.0
 73
     1
 97
        4
330
2B4
330
2A5
330
2B5
330
3DD
 75
     1
 76
     0
 52
45.0
 41
0.1
 77
     0
 78
     1
 53
45.0
 43
0.0
 44
0.0
 45
-0.0707106781186548
 46
0.0707106781186548
 79
     0
 98
        1
 10
0.0
 20
0.0
  0
HATCH
  5
476
330
71
100
AcDbEntity
  8
1
  6
Continuous
 62
     2
100
AcDbHatch
 10
0.0
 20
0.0
 30
0.0
210
0.0
220
0.0
230
1.0
  2
_USER
 70
     0
 71
     1
 91
        1
 92
        1
 93
       12
 72
     1
 10
201.2925765314298
 20
726.5877701945434
 11
202.451852744444
 21
726.5877701945434
 72
     1
 10
202.451852744444
 20
726.5877701945434
 11
201.3753819752154
 21
725.3704557069102
 72
     1
 10
201.3753819752154
 20
725.3704557069102
 11
202.5307150718603
 21
724.0639606707325
 72
     1
 10
202.5307150718603
 20
724.0639606707325
 11
201.3714388588452
 21
724.0639606707325
 72
     1
 10
201.3714388588452
 20
724.0639606707325
 11
200.7957438687084
 21
724.7149786751075
 72
     1
 10
200.7957438687084
 20
724.7149786751075
 11
200.2200488785715
 21
724.0639606707325
 72
     1
 10
200.2200488785715
 20
724.0639606707325
 11
199.0607726655565
 21
724.0639606707325
 72
     1
 10
199.0607726655565
 20
724.0639606707325
 11
200.2161057622013
 21
725.3704557069102
 72
     1
 10
200.2161057622013
 20
725.3704557069102
 11
199.139634992972
 21
726.5877701945434
 72
     1
 10
199.139634992972
 20
726.5877701945434
 11
200.2989112059879
 21
726.5877701945434
 72
     1
 10
200.2989112059879
 20
726.5877701945434
 11
200.7957438687084
 21
726.0259327387124
 72
     1
 10
200.7957438687084
 20
726.0259327387124
 11
201.2925765314298
 21
726.5877701945434
 97
       12
330
280
330
2D9
330
2D8
330
2D7
330
2D6
330
281
330
282
330
27E
330
27F
330
2DC
330
2DB
330
2DA
 75
     1
 76
     0
 52
45.0
 41
0.1
 77
     0
 78
     1
 53
45.0
 43
0.0
 44
0.0
 45
-0.0707106781186548
 46
0.0707106781186548
 79
     0
 98
        1
 10
0.0
 20
0.0
  0
HATCH
  5
477
330
71
100
AcDbEntity
  8
1
  6
Continuous
 62
     2
100
AcDbHatch
 10
0.0
 20
0.0
 30
0.0
210
0.0
220
0.0
230
1.0
  2
_USER
 70
     0
 71
     1
 91
        1
 92
        1
 93
       12
 72
     1
 10
201.2925765314298
 20
726.5877701945434
 11
202.451852744444
 21
726.5877701945434
 72
     1
 10
202.451852744444
 20
726.5877701945434
 11
201.3753819752154
 21
725.3704557069102
 72
     1
 10
201.3753819752154
 20
725.3704557069102
 11
202.5307150718603
 21
724.0639606707325
 72
     1
 10
202.5307150718603
 20
724.0639606707325
 11
201.3714388588452
 21
724.0639606707325
 72
     1
 10
201.3714388588452
 20
724.0639606707325
 11
200.7957438687084
 21
724.7149786751075
 72
     1
 10
200.7957438687084
 20
724.7149786751075
 11
200.2200488785715
 21
724.0639606707325
 72
     1
 10
200.2200488785715
 20
724.0639606707325
 11
199.0607726655565
 21
724.0639606707325
 72
     1
 10
199.0607726655565
 20
724.0639606707325
 11
200.2161057622013
 21
725.3704557069102
 72
     1
 10
200.2161057622013
 20
725.3704557069102
 11
199.139634992972
 21
726.5877701945434
 72
     1
 10
199.139634992972
 20
726.5877701945434
 11
200.2989112059879
 21
726.5877701945434
 72
     1
 10
200.2989112059879
 20
726.5877701945434
 11
200.7957438687084
 21
726.0259327387124
 72
     1
 10
200.7957438687084
 20
726.0259327387124
 11
201.2925765314298
 21
726.5877701945434
 97
       12
330
280
330
2D9
330
2D8
330
2D7
330
2D6
330
281
330
282
330
27E
330
27F
330
2DC
330
2DB
330
2DA
 75
     1
 76
     0
 52
45.0
 41
0.1
 77
     0
 78
     1
 53
45.0
 43
0.0
 44
0.0
 45
-0.0707106781186548
 46
0.0707106781186548
 79
     0
 98
        1
 10
0.0
 20
0.0
  0
HATCH
  5
478
330
71
100
AcDbEntity
  8
1
  6
Continuous
 62
     2
100
AcDbHatch
 10
0.0
 20
0.0
 30
0.0
210
0.0
220
0.0
230
1.0
  2
_USER
 70
     0
 71
     1
 91
        1
 92
        1
 93
        4
 72
     1
 10
198.9621947562863
 20
726.5877701945434
 11
198.9621947562863
 21
724.0639606707325
 72
     1
 10
198.9621947562863
 20
724.0639606707325
 11
197.9369844998789
 21
724.0639606707325
 72
     1
 10
197.9369844998789
 20
724.0639606707325
 11
197.9369844998789
 21
726.5877701945434
 72
     1
 10
197.9369844998789
 20
726.5877701945434
 11
198.9621947562863
 21
726.5877701945434
 97
        4
330
2D4
330
283
330
2D3
330
2D5
 75
     1
 76
     0
 52
45.0
 41
0.1
 77
     0
 78
     1
 53
45.0
 43
0.0
 44
0.0
 45
-0.0707106781186548
 46
0.0707106781186548
 79
     0
 98
        1
 10
0.0
 20
0.0
  0
HATCH
  5
479
330
71
100
AcDbEntity
  8
1
  6
Continuous
 62
     2
100
AcDbHatch
 10
0.0
 20
0.0
 30
0.0
210
0.0
220
0.0
230
1.0
  2
_USER
 70
     0
 71
     1
 91
        1
 92
        1
 93
        4
 72
     1
 10
198.9621947562863
 20
726.5877701945434
 11
198.9621947562863
 21
724.0639606707325
 72
     1
 10
198.9621947562863
 20
724.0639606707325
 11
197.9369844998789
 21
724.0639606707325
 72
     1
 10
197.9369844998789
 20
724.0639606707325
 11
197.9369844998789
 21
726.5877701945434
 72
     1
 10
197.9369844998789
 20
726.5877701945434
 11
198.9621947562863
 21
726.5877701945434
 97
        4
330
2D4
330
283
330
2D3
330
2D5
 75
     1
 76
     0
 52
45.0
 41
0.1
 77
     0
 78
     1
 53
45.0
 43
0.0
 44
0.0
 45
-0.0707106781186548
 46
0.0707106781186548
 79
     0
 98
        1
 10
0.0
 20
0.0
  0
HATCH
  5
47A
330
71
100
AcDbEntity
  8
1
  6
Continuous
 62
     2
100
AcDbHatch
 10
0.0
 20
0.0
 30
0.0
210
0.0
220
0.0
230
1.0
  2
_USER
 70
     0
 71
     1
 91
        2
 92
        1
 93
        8
 72
     1
 10
198.6395137616318
 20
721.2877701945554
 11
197.6143035052236
 21
721.2877701945554
 72
     1
 10
197.6143035052236
 20
721.2877701945554
 11
197.4395266015246
 21
721.7348450244875
 72
     1
 10
197.4395266015246
 20
721.7348450244875
 11
196.503624472042
 21
721.7348450244875
 72
     1
 10
196.503624472042
 20
721.7348450244875
 11
196.328847568343
 21
721.2877701945554
 72
     1
 10
196.328847568343
 20
721.2877701945554
 11
195.3036373119356
 21
721.2877701945554
 72
     1
 10
195.3036373119356
 20
721.2877701945554
 11
196.4589704085796
 21
723.8115797183663
 72
     1
 10
196.4589704085796
 20
723.8115797183663
 11
197.4841806649869
 21
723.8115797183663
 72
     1
 10
197.4841806649869
 20
723.8115797183663
 11
198.6395137616318
 21
721.2877701945554
 97
        8
330
2CF
330
289
330
2CE
330
2D1
330
286
330
2D0
330
287
330
288
 92
       16
 93
        3
 72
     1
 10
196.7235050928231
 20
722.2972940040797
 11
197.2196459807425
 21
722.2972940040797
 72
     1
 10
197.2196459807425
 20
722.2972940040797
 11
196.9715755367837
 21
722.9318518272092
 72
     1
 10
196.9715755367837
 20
722.9318518272092
 11
196.7235050928231
 21
722.2972940040797
 97
        3
330
285
330
284
330
2D2
 75
     1
 76
     0
 52
45.0
 41
0.1
 77
     0
 78
     1
 53
45.0
 43
0.0
 44
0.0
 45
-0.0707106781186548
 46
0.0707106781186548
 79
     0
 98
        1
 10
0.0
 20
0.0
  0
HATCH
  5
47B
330
71
100
AcDbEntity
  8
1
  6
Continuous
 62
     2
100
AcDbHatch
 10
0.0
 20
0.0
 30
0.0
210
0.0
220
0.0
230
1.0
  2
_USER
 70
     0
 71
     1
 91
        2
 92
        1
 93
        8
 72
     1
 10
198.6395137616318
 20
721.2877701945554
 11
197.6143035052236
 21
721.2877701945554
 72
     1
 10
197.6143035052236
 20
721.2877701945554
 11
197.4395266015246
 21
721.7348450244875
 72
     1
 10
197.4395266015246
 20
721.7348450244875
 11
196.503624472042
 21
721.7348450244875
 72
     1
 10
196.503624472042
 20
721.7348450244875
 11
196.328847568343
 21
721.2877701945554
 72
     1
 10
196.328847568343
 20
721.2877701945554
 11
195.3036373119356
 21
721.2877701945554
 72
     1
 10
195.3036373119356
 20
721.2877701945554
 11
196.4589704085796
 21
723.8115797183663
 72
     1
 10
196.4589704085796
 20
723.8115797183663
 11
197.4841806649869
 21
723.8115797183663
 72
     1
 10
197.4841806649869
 20
723.8115797183663
 11
198.6395137616318
 21
721.2877701945554
 97
        8
330
2CF
330
289
330
2CE
330
2D1
330
286
330
2D0
330
287
330
288
 92
       16
 93
        3
 72
     1
 10
196.7235050928231
 20
722.2972940040797
 11
197.2196459807425
 21
722.2972940040797
 72
     1
 10
197.2196459807425
 20
722.2972940040797
 11
196.9715755367837
 21
722.9318518272092
 72
     1
 10
196.9715755367837
 20
722.9318518272092
 11
196.7235050928231
 21
722.2972940040797
 97
        3
330
285
330
284
330
2D2
 75
     1
 76
     0
 52
45.0
 41
0.1
 77
     0
 78
     1
 53
45.0
 43
0.0
 44
0.0
 45
-0.0707106781186548
 46
0.0707106781186548
 79
     0
 98
        1
 10
0.0
 20
0.0
  0
HATCH
  5
47C
330
71
100
AcDbEntity
  8
1
  6
Continuous
 62
     2
100
AcDbHatch
 10
0.0
 20
0.0
 30
0.0
210
0.0
220
0.0
230
1.0
  2
_USER
 70
     0
 71
     1
 91
        1
 92
        1
 93
        8
 72
     1
 10
193.5205694283139
 20
723.8115797183663
 11
193.5205694283139
 21
723.1626001265286
 72
     1
 10
193.5205694283139
 20
723.1626001265286
 11
194.1908992113508
 21
723.1626001265286
 72
     1
 10
194.1908992113508
 20
723.1626001265286
 11
194.1908992113508
 21
721.2877701945554
 72
     1
 10
194.1908992113508
 20
721.2877701945554
 11
195.1766783040504
 21
721.2877701945554
 72
     1
 10
195.1766783040504
 20
721.2877701945554
 11
195.1766783040504
 21
723.1626001265286
 72
     1
 10
195.1766783040504
 20
723.1626001265286
 11
195.8470080870856
 21
723.1626001265286
 72
     1
 10
195.8470080870856
 20
723.1626001265286
 11
195.8470080870856
 21
723.8115797183663
 72
     1
 10
195.8470080870856
 20
723.8115797183663
 11
193.5205694283139
 21
723.8115797183663
 97
        8
330
2CB
330
2CA
330
2C9
330
28A
330
28B
330
2CD
330
28C
330
2CC
 75
     1
 76
     0
 52
45.0
 41
0.1
 77
     0
 78
     1
 53
45.0
 43
0.0
 44
0.0
 45
-0.0707106781186548
 46
0.0707106781186548
 79
     0
 98
        1
 10
0.0
 20
0.0
  0
HATCH
  5
47D
330
71
100
AcDbEntity
  8
1
  6
Continuous
 62
     2
100
AcDbHatch
 10
0.0
 20
0.0
 30
0.0
210
0.0
220
0.0
230
1.0
  2
_USER
 70
     0
 71
     1
 91
        1
 92
        1
 93
        8
 72
     1
 10
193.5205694283139
 20
723.8115797183663
 11
193.5205694283139
 21
723.1626001265286
 72
     1
 10
193.5205694283139
 20
723.1626001265286
 11
194.1908992113508
 21
723.1626001265286
 72
     1
 10
194.1908992113508
 20
723.1626001265286
 11
194.1908992113508
 21
721.2877701945554
 72
     1
 10
194.1908992113508
 20
721.2877701945554
 11
195.1766783040504
 21
721.2877701945554
 72
     1
 10
195.1766783040504
 20
721.2877701945554
 11
195.1766783040504
 21
723.1626001265286
 72
     1
 10
195.1766783040504
 20
723.1626001265286
 11
195.8470080870856
 21
723.1626001265286
 72
     1
 10
195.8470080870856
 20
723.1626001265286
 11
195.8470080870856
 21
723.8115797183663
 72
     1
 10
195.8470080870856
 20
723.8115797183663
 11
193.5205694283139
 21
723.8115797183663
 97
        8
330
2CB
330
2CA
330
2C9
330
28A
330
28B
330
2CD
330
28C
330
2CC
 75
     1
 76
     0
 52
45.0
 41
0.1
 77
     0
 78
     1
 53
45.0
 43
0.0
 44
0.0
 45
-0.0707106781186548
 46
0.0707106781186548
 79
     0
 98
        1
 10
0.0
 20
0.0
  0
HATCH
  5
47E
330
71
100
AcDbEntity
  8
1
  6
Continuous
 62
     2
100
AcDbHatch
 10
0.0
 20
0.0
 30
0.0
210
0.0
220
0.0
230
1.0
  2
_USER
 70
     0
 71
     1
 91
        1
 92
        1
 93
       10
 72
     1
 10
195.7288393322306
 20
726.5877701945434
 11
194.743060239531
 21
726.5877701945434
 72
     1
 10
194.743060239531
 20
726.5877701945434
 11
194.743060239531
 21
724.0639606707325
 72
     1
 10
194.743060239531
 20
724.0639606707325
 11
195.7288393322306
 21
724.0639606707325
 72
     1
 10
195.7288393322306
 20
724.0639606707325
 11
195.7288393322306
 21
725.1455933237942
 72
     1
 10
195.7288393322306
 20
725.1455933237942
 11
196.7540495886389
 21
724.0639606707325
 72
     1
 10
196.7540495886389
 20
724.0639606707325
 11
197.7398286813385
 21
724.0639606707325
 72
     1
 10
197.7398286813385
 20
724.0639606707325
 11
197.7398286813385
 21
726.5877701945434
 72
     1
 10
197.7398286813385
 20
726.5877701945434
 11
196.7540495886389
 21
726.5877701945434
 72
     1
 10
196.7540495886389
 20
726.5877701945434
 11
196.7540495886389
 21
725.5061375414813
 72
     1
 10
196.7540495886389
 20
725.5061375414813
 11
195.7288393322306
 21
726.5877701945434
 97
       10
330
2C5
330
28F
330
290
330
291
330
292
330
2C8
330
28D
330
2C7
330
2C6
330
28E
 75
     1
 76
     0
 52
45.0
 41
0.1
 77
     0
 78
     1
 53
45.0
 43
0.0
 44
0.0
 45
-0.0707106781186548
 46
0.0707106781186548
 79
     0
 98
        1
 10
0.0
 20
0.0
  0
HATCH
  5
47F
330
71
100
AcDbEntity
  8
1
  6
Continuous
 62
     2
100
AcDbHatch
 10
0.0
 20
0.0
 30
0.0
210
0.0
220
0.0
230
1.0
  2
_USER
 70
     0
 71
     1
 91
        1
 92
        1
 93
       10
 72
     1
 10
195.7288393322306
 20
726.5877701945434
 11
194.743060239531
 21
726.5877701945434
 72
     1
 10
194.743060239531
 20
726.5877701945434
 11
194.743060239531
 21
724.0639606707325
 72
     1
 10
194.743060239531
 20
724.0639606707325
 11
195.7288393322306
 21
724.0639606707325
 72
     1
 10
195.7288393322306
 20
724.0639606707325
 11
195.7288393322306
 21
725.1455933237942
 72
     1
 10
195.7288393322306
 20
725.1455933237942
 11
196.7540495886389
 21
724.0639606707325
 72
     1
 10
196.7540495886389
 20
724.0639606707325
 11
197.7398286813385
 21
724.0639606707325
 72
     1
 10
197.7398286813385
 20
724.0639606707325
 11
197.7398286813385
 21
726.5877701945434
 72
     1
 10
197.7398286813385
 20
726.5877701945434
 11
196.7540495886389
 21
726.5877701945434
 72
     1
 10
196.7540495886389
 20
726.5877701945434
 11
196.7540495886389
 21
725.5061375414813
 72
     1
 10
196.7540495886389
 20
725.5061375414813
 11
195.7288393322306
 21
726.5877701945434
 97
       10
330
2C5
330
28F
330
290
330
291
330
292
330
2C8
330
28D
330
2C7
330
2C6
330
28E
 75
     1
 76
     0
 52
45.0
 41
0.1
 77
     0
 78
     1
 53
45.0
 43
0.0
 44
0.0
 45
-0.0707106781186548
 46
0.0707106781186548
 79
     0
 98
        1
 10
0.0
 20
0.0
  0
HATCH
  5
480
330
71
100
AcDbEntity
  8
1
  6
Continuous
 62
     2
100
AcDbHatch
 10
0.0
 20
0.0
 30
0.0
210
0.0
220
0.0
230
1.0
  2
_USER
 70
     0
 71
     1
 91
        1
 92
        1
 93
       10
 72
     1
 10
191.391286588083
 20
723.8115797183663
 11
190.4055074953825
 21
723.8115797183663
 72
     1
 10
190.4055074953825
 20
723.8115797183663
 11
190.4055074953825
 21
721.2877701945554
 72
     1
 10
190.4055074953825
 20
721.2877701945554
 11
191.391286588083
 21
721.2877701945554
 72
     1
 10
191.391286588083
 20
721.2877701945554
 11
191.391286588083
 21
722.369402847617
 72
     1
 10
191.391286588083
 20
722.369402847617
 11
192.4164968444903
 21
721.2877701945554
 72
     1
 10
192.4164968444903
 20
721.2877701945554
 11
193.4022759371899
 21
721.2877701945554
 72
     1
 10
193.4022759371899
 20
721.2877701945554
 11
193.4022759371899
 21
723.8115797183663
 72
     1
 10
193.4022759371899
 20
723.8115797183663
 11
192.4164968444903
 21
723.8115797183663
 72
     1
 10
192.4164968444903
 20
723.8115797183663
 11
192.4164968444903
 21
722.7299470653041
 72
     1
 10
192.4164968444903
 20
722.7299470653041
 11
191.391286588083
 21
723.8115797183663
 97
       10
330
294
330
295
330
296
330
2C2
330
297
330
298
330
2C1
330
2C4
330
2C3
330
293
 75
     1
 76
     0
 52
45.0
 41
0.1
 77
     0
 78
     1
 53
45.0
 43
0.0
 44
0.0
 45
-0.0707106781186548
 46
0.0707106781186548
 79
     0
 98
        1
 10
0.0
 20
0.0
  0
HATCH
  5
481
330
71
100
AcDbEntity
  8
1
  6
Continuous
 62
     2
100
AcDbHatch
 10
0.0
 20
0.0
 30
0.0
210
0.0
220
0.0
230
1.0
  2
_USER
 70
     0
 71
     1
 91
        1
 92
        1
 93
       10
 72
     1
 10
191.391286588083
 20
723.8115797183663
 11
190.4055074953825
 21
723.8115797183663
 72
     1
 10
190.4055074953825
 20
723.8115797183663
 11
190.4055074953825
 21
721.2877701945554
 72
     1
 10
190.4055074953825
 20
721.2877701945554
 11
191.391286588083
 21
721.2877701945554
 72
     1
 10
191.391286588083
 20
721.2877701945554
 11
191.391286588083
 21
722.369402847617
 72
     1
 10
191.391286588083
 20
722.369402847617
 11
192.4164968444903
 21
721.2877701945554
 72
     1
 10
192.4164968444903
 20
721.2877701945554
 11
193.4022759371899
 21
721.2877701945554
 72
     1
 10
193.4022759371899
 20
721.2877701945554
 11
193.4022759371899
 21
723.8115797183663
 72
     1
 10
193.4022759371899
 20
723.8115797183663
 11
192.4164968444903
 21
723.8115797183663
 72
     1
 10
192.4164968444903
 20
723.8115797183663
 11
192.4164968444903
 21
722.7299470653041
 72
     1
 10
192.4164968444903
 20
722.7299470653041
 11
191.391286588083
 21
723.8115797183663
 97
       10
330
294
330
295
330
296
330
2C2
330
297
330
298
330
2C1
330
2C4
330
2C3
330
293
 75
     1
 76
     0
 52
45.0
 41
0.1
 77
     0
 78
     1
 53
45.0
 43
0.0
 44
0.0
 45
-0.0707106781186548
 46
0.0707106781186548
 79
     0
 98
        1
 10
0.0
 20
0.0
  0
HATCH
  5
482
330
71
100
AcDbEntity
  8
1
  6
Continuous
 62
     2
100
AcDbHatch
 10
0.0
 20
0.0
 30
0.0
210
0.0
220
0.0
230
1.0
  2
_USER
 70
     0
 71
     1
 91
        1
 92
        1
 93
       12
 72
     1
 10
190.5633568864835
 20
726.5877701945434
 11
190.5633568864835
 21
724.0639606707325
 72
     1
 10
190.5633568864835
 20
724.0639606707325
 11
189.5775777937839
 21
724.0639606707325
 72
     1
 10
189.5775777937839
 20
724.0639606707325
 11
189.5775777937839
 21
725.0013756367191
 72
     1
 10
189.5775777937839
 20
725.0013756367191
 11
188.7100921922075
 21
725.0013756367191
 72
     1
 10
188.7100921922075
 20
725.0013756367191
 11
188.7100921922075
 21
724.0639606707325
 72
     1
 10
188.7100921922075
 20
724.0639606707325
 11
187.7243130995079
 21
724.0639606707325
 72
     1
 10
187.7243130995079
 20
724.0639606707325
 11
187.7243130995079
 21
726.5877701945434
 72
     1
 10
187.7243130995079
 20
726.5877701945434
 11
188.7100921922075
 21
726.5877701945434
 72
     1
 10
188.7100921922075
 20
726.5877701945434
 11
188.7100921922075
 21
725.704436861209
 72
     1
 10
188.7100921922075
 20
725.704436861209
 11
189.5775777937839
 21
725.704436861209
 72
     1
 10
189.5775777937839
 20
725.704436861209
 11
189.5775777937839
 21
726.5877701945434
 72
     1
 10
189.5775777937839
 20
726.5877701945434
 11
190.5633568864835
 21
726.5877701945434
 97
       12
330
2BC
330
2BB
330
2BA
330
2A2
330
2A3
330
2B9
330
2A4
330
2B8
330
2B7
330
2B6
330
2A0
330
2A1
 75
     1
 76
     0
 52
45.0
 41
0.1
 77
     0
 78
     1
 53
45.0
 43
0.0
 44
0.0
 45
-0.0707106781186548
 46
0.0707106781186548
 79
     0
 98
        1
 10
0.0
 20
0.0
  0
HATCH
  5
483
330
71
100
AcDbEntity
  8
1
  6
Continuous
 62
     2
100
AcDbHatch
 10
0.0
 20
0.0
 30
0.0
210
0.0
220
0.0
230
1.0
  2
_USER
 70
     0
 71
     1
 91
        1
 92
        1
 93
       12
 72
     1
 10
190.5633568864835
 20
726.5877701945434
 11
190.5633568864835
 21
724.0639606707325
 72
     1
 10
190.5633568864835
 20
724.0639606707325
 11
189.5775777937839
 21
724.0639606707325
 72
     1
 10
189.5775777937839
 20
724.0639606707325
 11
189.5775777937839
 21
725.0013756367191
 72
     1
 10
189.5775777937839
 20
725.0013756367191
 11
188.7100921922075
 21
725.0013756367191
 72
     1
 10
188.7100921922075
 20
725.0013756367191
 11
188.7100921922075
 21
724.0639606707325
 72
     1
 10
188.7100921922075
 20
724.0639606707325
 11
187.7243130995079
 21
724.0639606707325
 72
     1
 10
187.7243130995079
 20
724.0639606707325
 11
187.7243130995079
 21
726.5877701945434
 72
     1
 10
187.7243130995079
 20
726.5877701945434
 11
188.7100921922075
 21
726.5877701945434
 72
     1
 10
188.7100921922075
 20
726.5877701945434
 11
188.7100921922075
 21
725.704436861209
 72
     1
 10
188.7100921922075
 20
725.704436861209
 11
189.5775777937839
 21
725.704436861209
 72
     1
 10
189.5775777937839
 20
725.704436861209
 11
189.5775777937839
 21
726.5877701945434
 72
     1
 10
189.5775777937839
 20
726.5877701945434
 11
190.5633568864835
 21
726.5877701945434
 97
       12
330
2BC
330
2BB
330
2BA
330
2A2
330
2A3
330
2B9
330
2A4
330
2B8
330
2B7
330
2B6
330
2A0
330
2A1
 75
     1
 76
     0
 52
45.0
 41
0.1
 77
     0
 78
     1
 53
45.0
 43
0.0
 44
0.0
 45
-0.0707106781186548
 46
0.0707106781186548
 79
     0
 98
        1
 10
0.0
 20
0.0
  0
ENDBLK
  5
73
330
71
100
AcDbEntity
  8
0
100
AcDbBlockEnd
  0
BLOCK
  5
75
330
74
100
AcDbEntity
  8
0
100
AcDbBlockBegin
  2
_punkt
 70
     0
 10
302.3482434686391
 20
715.4377701945496
 30
0.0
  3
_punkt
  1

  0
LINE
  5
484
330
74
100
AcDbEntity
  8
1
  6
Continuous
 62
     2
100
AcDbLine
 10
302.3482434686392
 20
715.4377701945496
 30
0.0
 11
302.3482434686392
 21
710.43777019455
 31
0.0
  0
LINE
  5
485
330
74
100
AcDbEntity
  8
1
  6
Continuous
 62
     2
100
AcDbLine
 10
302.3482434686392
 20
715.4377701945496
 30
0.0
 11
307.3482434686368
 21
715.4377701945496
 31
0.0
  0
ENDBLK
  5
76
330
74
100
AcDbEntity
  8
0
100
AcDbBlockEnd
  0
BLOCK
  5
7A
330
77
100
AcDbEntity
  8
0
100
AcDbBlockBegin
  2
A3I
 70
     0
 10
302.3482434686392
 20
710.43777019455
 30
0.0
  3
A3I
  1

  0
INSERT
  5
78
330
77
100
AcDbEntity
  8
1
100
AcDbBlockReference
  2
_rahmen
 10
302.3482434686392
 20
710.43777019455
 30
0.0
  0
INSERT
  5
79
330
77
100
AcDbEntity
  8
1
100
AcDbBlockReference
  2
_punkt
 10
302.3482434686391
 20
715.4377701945496
 30
0.0
  0
ENDBLK
  5
7B
330
77
100
AcDbEntity
  8
0
100
AcDbBlockEnd
  0
BLOCK
  5
1BE
330
1B7
100
AcDbEntity
  8
0
100
AcDbBlockBegin
  2
*D16
 70
     1
 10
0.0
 20
0.0
 30
0.0
  3
*D16
  1

  0
LINE
  5
1B8
330
1B7
100
AcDbEntity
  8
1
  6
Continuous
 62
     2
100
AcDbLine
 10
128.9678271644873
 20
951.4000004863082
 30
0.0
 11
104.9678271644873
 21
951.4000004863082
 31
0.0
  0
LINE
  5
1B9
330
1B7
100
AcDbEntity
  8
1
  6
Continuous
 62
     2
100
AcDbLine
 10
128.9678271644873
 20
924.1000004863082
 30
0.0
 11
128.9678271644873
 21
953.4000004863082
 31
0.0
  0
LINE
  5
1BA
330
1B7
100
AcDbEntity
  8
1
  6
Continuous
 62
     2
100
AcDbLine
 10
104.9678271644873
 20
924.1000004863082
 30
0.0
 11
104.9678271644873
 21
953.4000004863082
 31
0.0
  0
SOLID
  5
1BB
330
1B7
100
AcDbEntity
  8
1
 62
     2
100
AcDbTrace
 10
125.4678271644873
 20
950.9392167447522
 30
0.0
 11
125.4678271644873
 21
951.8607842278641
 31
0.0
 12
128.9678271644873
 22
951.4000004863082
 32
0.0
 13
128.9678271644873
 23
951.4000004863082
 33
0.0
  0
SOLID
  5
1BC
330
1B7
100
AcDbEntity
  8
1
 62
     2
100
AcDbTrace
 10
108.4678271644873
 20
951.8607842278641
 30
0.0
 11
108.4678271644873
 21
950.9392167447522
 31
0.0
 12
104.9678271644873
 22
951.4000004863082
 32
0.0
 13
104.9678271644873
 23
951.4000004863082
 33
0.0
  0
MTEXT
  5
1BD
330
1B7
100
AcDbEntity
  8
1
 62
     3
100
AcDbMText
 10
114.3428271644873
 20
953.4000004863082
 30
0.0
 40
3.5
 41
0.0
 71
     7
 72
     1
  1
24
  7
CONVERTER_11
 11
0.9999999999970619
 21
2.424068405545306E-6
 31
0.0
 73
     1
 44
0.60024009603842
  0
ENDBLK
  5
1BF
330
1B7
100
AcDbEntity
  8
0
100
AcDbBlockEnd
  0
BLOCK
  5
1C9
330
1C2
100
AcDbEntity
  8
0
100
AcDbBlockBegin
  2
*D17
 70
     1
 10
0.0
 20
0.0
 30
0.0
  3
*D17
  1

  0
LINE
  5
1C3
330
1C2
100
AcDbEntity
  8
1
  6
Continuous
 62
     2
100
AcDbLine
 10
144.9678271644873
 20
926.1000004863082
 30
0.0
 11
144.9678271644873
 21
856.6000004863082
 31
0.0
  0
LINE
  5
1C4
330
1C2
100
AcDbEntity
  8
1
  6
Continuous
 62
     2
100
AcDbLine
 10
120.4678271644873
 20
926.1000004863082
 30
0.0
 11
146.9678271644873
 21
926.1000004863082
 31
0.0
  0
LINE
  5
1C5
330
1C2
100
AcDbEntity
  8
1
  6
Continuous
 62
     2
100
AcDbLine
 10
116.9678271644873
 20
856.6000004863082
 30
0.0
 11
146.9678271644873
 21
856.6000004863082
 31
0.0
  0
SOLID
  5
1C6
330
1C2
100
AcDbEntity
  8
1
 62
     2
100
AcDbTrace
 10
145.4286109060432
 20
922.6000004863082
 30
0.0
 11
144.5070434229314
 21
922.6000004863082
 31
0.0
 12
144.9678271644873
 22
926.1000004863082
 32
0.0
 13
144.9678271644873
 23
926.1000004863082
 33
0.0
  0
SOLID
  5
1C7
330
1C2
100
AcDbEntity
  8
1
 62
     2
100
AcDbTrace
 10
144.5070434229314
 20
860.1000004863082
 30
0.0
 11
145.4286109060432
 21
860.1000004863082
 31
0.0
 12
144.9678271644873
 22
856.6000004863082
 32
0.0
 13
144.9678271644873
 23
856.6000004863082
 33
0.0
  0
MTEXT
  5
1C8
330
1C2
100
AcDbEntity
  8
1
 62
     3
100
AcDbMText
 10
142.6178271644873
 20
886.5375004863082
 30
0.0
 40
3.5
 41
0.0
 71
     7
 72
     1
  1
69,5
  7
CONVERTER_11
 11
0.0
 21
1.0
 31
0.0
 73
     1
 44
0.60024009603842
  0
ENDBLK
  5
1CA
330
1C2
100
AcDbEntity
  8
0
100
AcDbBlockEnd
  0
BLOCK
  5
1D4
330
1CD
100
AcDbEntity
  8
0
100
AcDbBlockBegin
  2
*D18
 70
     1
 10
0.0
 20
0.0
 30
0.0
  3
*D18
  1

  0
LINE
  5
1CE
330
1CD
100
AcDbEntity
  8
1
  6
Continuous
 62
     2
100
AcDbLine
 10
134.9678271644873
 20
959.4000004863082
 30
0.0
 11
98.9678271644873
 21
959.4000004863082
 31
0.0
  0
LINE
  5
1CF
330
1CD
100
AcDbEntity
  8
1
  6
Continuous
 62
     2
100
AcDbLine
 10
134.9678271644873
 20
906.6000004863082
 30
0.0
 11
134.9678271644873
 21
961.4000004863082
 31
0.0
  0
LINE
  5
1D0
330
1CD
100
AcDbEntity
  8
1
  6
Continuous
 62
     2
100
AcDbLine
 10
98.9678271644873
 20
906.6000004863082
 30
0.0
 11
98.9678271644873
 21
961.4000004863082
 31
0.0
  0
SOLID
  5
1D1
330
1CD
100
AcDbEntity
  8
1
 62
     2
100
AcDbTrace
 10
131.4678271644873
 20
958.9392167447522
 30
0.0
 11
131.4678271644873
 21
959.8607842278641
 31
0.0
 12
134.9678271644873
 22
959.4000004863082
 32
0.0
 13
134.9678271644873
 23
959.4000004863082
 33
0.0
  0
SOLID
  5
1D2
330
1CD
100
AcDbEntity
  8
1
 62
     2
100
AcDbTrace
 10
102.4678271644873
 20
959.8607842278641
 30
0.0
 11
102.4678271644873
 21
958.9392167447522
 31
0.0
 12
98.9678271644873
 22
959.4000004863082
 32
0.0
 13
98.9678271644873
 23
959.4000004863082
 33
0.0
  0
MTEXT
  5
1D3
330
1CD
100
AcDbEntity
  8
1
 62
     3
100
AcDbMText
 10
114.3428271644873
 20
961.4000004863082
 30
0.0
 40
3.5
 41
0.0
 71
     7
 72
     1
  1
36
  7
CONVERTER_11
 11
0.9999999999970619
 21
2.424068405545306E-6
 31
0.0
 73
     1
 44
0.60024009603842
  0
ENDBLK
  5
1D5
330
1CD
100
AcDbEntity
  8
0
100
AcDbBlockEnd
  0
BLOCK
  5
1DF
330
1D8
100
AcDbEntity
  8
0
100
AcDbBlockBegin
  2
*D19
 70
     1
 10
0.0
 20
0.0
 30
0.0
  3
*D19
  1

  0
LINE
  5
1D9
330
1D8
100
AcDbEntity
  8
1
  6
Continuous
 62
     2
100
AcDbLine
 10
152.9678271644873
 20
941.4000004863082
 30
0.0
 11
152.9678271644873
 21
856.6000004863082
 31
0.0
  0
LINE
  5
1DA
330
1D8
100
AcDbEntity
  8
1
  6
Continuous
 62
     2
100
AcDbLine
 10
121.9678271644873
 20
941.4000004863082
 30
0.0
 11
154.9678271644873
 21
941.4000004863082
 31
0.0
  0
LINE
  5
1DB
330
1D8
100
AcDbEntity
  8
1
  6
Continuous
 62
     2
100
AcDbLine
 10
116.9678271644873
 20
856.6000004863082
 30
0.0
 11
154.9678271644873
 21
856.6000004863082
 31
0.0
  0
SOLID
  5
1DC
330
1D8
100
AcDbEntity
  8
1
 62
     2
100
AcDbTrace
 10
153.4286109060432
 20
937.9000004863082
 30
0.0
 11
152.5070434229314
 21
937.9000004863082
 31
0.0
 12
152.9678271644873
 22
941.4000004863082
 32
0.0
 13
152.9678271644873
 23
941.4000004863082
 33
0.0
  0
SOLID
  5
1DD
330
1D8
100
AcDbEntity
  8
1
 62
     2
100
AcDbTrace
 10
152.5070434229314
 20
860.1000004863082
 30
0.0
 11
153.4286109060432
 21
860.1000004863082
 31
0.0
 12
152.9678271644873
 22
856.6000004863082
 32
0.0
 13
152.9678271644873
 23
856.6000004863082
 33
0.0
  0
MTEXT
  5
1DE
330
1D8
100
AcDbEntity
  8
1
 62
     3
100
AcDbMText
 10
150.6178271644873
 20
894.1875004863082
 30
0.0
 40
3.5
 41
0.0
 71
     7
 72
     1
  1
84,8
  7
CONVERTER_11
 11
0.0
 21
1.0
 31
0.0
 73
     1
 44
0.60024009603842
  0
ENDBLK
  5
1E0
330
1D8
100
AcDbEntity
  8
0
100
AcDbBlockEnd
  0
BLOCK
  5
275
330
26E
100
AcDbEntity
  8
0
100
AcDbBlockBegin
  2
*D20
 70
     1
 10
0.0
 20
0.0
 30
0.0
  3
*D20
  1

  0
LINE
  5
26F
330
26E
100
AcDbEntity
  8
1
  6
Continuous
 62
     2
100
AcDbLine
 10
77.18565434659742
 20
951.4000004863085
 30
0.0
 11
34.68565434659742
 21
951.4000004863085
 31
0.0
  0
LINE
  5
270
330
26E
100
AcDbEntity
  8
1
  6
Continuous
 62
     2
100
AcDbLine
 10
77.18565434659742
 20
908.8419317699096
 30
0.0
 11
77.18565434659742
 21
953.4000004863085
 31
0.0
  0
LINE
  5
271
330
26E
100
AcDbEntity
  8
1
  6
Continuous
 62
     2
100
AcDbLine
 10
34.68565434659742
 20
908.8419317699096
 30
0.0
 11
34.68565434659742
 21
953.4000004863085
 31
0.0
  0
SOLID
  5
272
330
26E
100
AcDbEntity
  8
1
 62
     2
100
AcDbTrace
 10
73.68565434659742
 20
950.9392167447526
 30
0.0
 11
73.68565434659742
 21
951.8607842278644
 31
0.0
 12
77.18565434659742
 22
951.4000004863085
 32
0.0
 13
77.18565434659742
 23
951.4000004863085
 33
0.0
  0
SOLID
  5
273
330
26E
100
AcDbEntity
  8
1
 62
     2
100
AcDbTrace
 10
38.18565434659742
 20
951.8607842278644
 30
0.0
 11
38.18565434659742
 21
950.9392167447526
 31
0.0
 12
34.68565434659742
 22
951.4000004863085
 32
0.0
 13
34.68565434659742
 23
951.4000004863085
 33
0.0
  0
MTEXT
  5
274
330
26E
100
AcDbEntity
  8
1
 62
     3
100
AcDbMText
 10
51.12315434659742
 20
953.7500004863084
 30
0.0
 40
3.5
 41
0.0
 71
     7
 72
     1
  1
42,5
  7
CONVERTER_11
 11
0.9999999999970619
 21
2.424068405545306E-6
 31
0.0
 73
     1
 44
0.60024009603842
  0
ENDBLK
  5
276
330
26E
100
AcDbEntity
  8
0
100
AcDbBlockEnd
  0
ENDSEC
  0
SECTION
  2
ENTITIES
  0
INSERT
  5
7C
330
1F
100
AcDbEntity
  8
0
100
AcDbBlockReference
  2
Allg1
 10
256.4030398214563
 20
814.9999999980851
 30
0.0
  0
INSERT
  5
7D
330
1F
100
AcDbEntity
  8
0
100
AcDbBlockReference
  2
Drfsicht1
 10
55.93565433629192
 20
807.575367711639
 30
0.0
  0
INSERT
  5
7E
330
1F
100
AcDbEntity
  8
0
100
AcDbBlockReference
  2
Rckans1
 10
197.999999992815
 20
898.9999999998655
 30
0.0
  0
INSERT
  5
7F
330
1F
100
AcDbEntity
  8
0
100
AcDbBlockReference
  2
SA_Links1
 10
116.9678271645613
 20
898.999999999865
 30
0.0
  0
INSERT
  5
80
330
1F
100
AcDbEntity
  8
0
100
AcDbBlockReference
  2
SA_Rechts1
 10
-5.09651850635194
 20
898.9999999998656
 30
0.0
  0
INSERT
  5
81
330
1F
100
AcDbEntity
  8
0
100
AcDbBlockReference
  2
Vordans1
 10
55.93565433629141
 20
898.9999999998655
 30
0.0
  0
INSERT
  5
82
330
1F
100
AcDbEntity
  8
0
100
AcDbBlockReference
  2
A3I
 10
302.3482434686392
 20
710.43777019455
 30
0.0
  0
ENDSEC
  0
SECTION
  2
OBJECTS
  0
DICTIONARY
  5
C
330
0
100
AcDbDictionary
281
     1
  3
ACAD_GROUP
350
D
  3
ACAD_LAYOUT
350
1A
  3
ACAD_MATERIAL
350
3B
  3
ACAD_MLEADERSTYLE
350
488
  3
ACAD_MLINESTYLE
350
17
  3
ACAD_PLOTSETTINGS
350
19
  3
ACAD_PLOTSTYLENAME
350
E
  3
ACAD_VISUALSTYLE
350
2A
  3
AcDbVariableDictionary
350
486
  0
DICTIONARY
  5
D
102
{ACAD_REACTORS
330
C
102
}
330
C
100
AcDbDictionary
281
     1
  0
DICTIONARY
  5
1A
102
{ACAD_REACTORS
330
C
102
}
330
C
100
AcDbDictionary
281
     1
  3
Layout1
350
1E
  3
Layout2
350
26
  3
Model
350
22
  0
DICTIONARY
  5
3B
102
{ACAD_REACTORS
330
C
102
}
330
C
100
AcDbDictionary
281
     1
  3
ByBlock
350
3D
  3
ByLayer
350
3C
  3
Global
350
3E
  0
DICTIONARY
  5
488
102
{ACAD_REACTORS
330
C
102
}
330
C
100
AcDbDictionary
281
     1
  0
DICTIONARY
  5
17
102
{ACAD_REACTORS
330
C
102
}
330
C
100
AcDbDictionary
281
     1
  3
Standard
350
18
  0
DICTIONARY
  5
19
102
{ACAD_REACTORS
330
C
102
}
330
C
100
AcDbDictionary
281
     1
  0
ACDBDICTIONARYWDFLT
  5
E
102
{ACAD_REACTORS
330
C
102
}
330
C
100
AcDbDictionary
281
     1
  3
Normal
350
F
100
AcDbDictionaryWithDefault
340
F
  0
DICTIONARY
  5
2A
102
{ACAD_REACTORS
330
C
102
}
330
C
100
AcDbDictionary
281
     1
  3
2dWireframe
350
2F
  3
3D Hidden
350
31
  3
3dWireframe
350
30
  3
Basic
350
32
  3
Brighten
350
36
  3
ColorChange
350
3A
  3
Conceptual
350
34
  3
Dim
350
35
  3
Facepattern
350
39
  3
Flat
350
2B
  3
FlatWithEdges
350
2C
  3
Gouraud
350
2D
  3
GouraudWithEdges
350
2E
  3
Linepattern
350
38
  3
Realistic
350
33
  3
Thicken
350
37
  0
DICTIONARY
  5
486
102
{ACAD_REACTORS
330
C
102
}
330
C
100
AcDbDictionary
281
     1
  3
DIMASSOC
350
489
  3
HIDETEXT
350
48A
  0
LAYOUT
  5
1E
102
{ACAD_REACTORS
330
1A
102
}
330
1A
100
AcDbPlotSettings
  1

  2
none_device
  4

  6

 40
0.0
 41
0.0
 42
0.0
 43
0.0
 44
0.0
 45
0.0
 46
0.0
 47
0.0
 48
0.0
 49
0.0
140
0.0
141
0.0
142
1.0
143
1.0
 70
   688
 72
     0
 73
     0
 74
     5
  7

 75
    16
147
1.0
148
0.0
149
0.0
100
AcDbLayout
  1
Layout1
 70
     1
 71
     1
 10
0.0
 20
0.0
 11
12.0
 21
9.0
 12
0.0
 22
0.0
 32
0.0
 14
1.00000000000000E+20
 24
1.00000000000000E+20
 34
1.00000000000000E+20
 15
-1.00000000000000E+20
 25
-1.00000000000000E+20
 35
-1.00000000000000E+20
146
0.0
 13
0.0
 23
0.0
 33
0.0
 16
1.0
 26
0.0
 36
0.0
 17
0.0
 27
1.0
 37
0.0
 76
     0
330
1B
  0
LAYOUT
  5
26
102
{ACAD_REACTORS
330
1A
102
}
330
1A
100
AcDbPlotSettings
  1

  2
none_device
  4

  6

 40
0.0
 41
0.0
 42
0.0
 43
0.0
 44
0.0
 45
0.0
 46
0.0
 47
0.0
 48
0.0
 49
0.0
140
0.0
141
0.0
142
1.0
143
1.0
 70
   688
 72
     0
 73
     0
 74
     5
  7

 75
    16
147
1.0
148
0.0
149
0.0
100
AcDbLayout
  1
Layout2
 70
     1
 71
     2
 10
0.0
 20
0.0
 11
0.0
 21
0.0
 12
0.0
 22
0.0
 32
0.0
 14
0.0
 24
0.0
 34
0.0
 15
0.0
 25
0.0
 35
0.0
146
0.0
 13
0.0
 23
0.0
 33
0.0
 16
1.0
 26
0.0
 36
0.0
 17
0.0
 27
1.0
 37
0.0
 76
     0
330
23
  0
LAYOUT
  5
22
102
{ACAD_REACTORS
330
1A
102
}
330
1A
100
AcDbPlotSettings
  1

  2
none_device
  4

  6

 40
0.0
 41
0.0
 42
0.0
 43
0.0
 44
0.0
 45
0.0
 46
0.0
 47
0.0
 48
0.0
 49
0.0
140
0.0
141
0.0
142
1.0
143
1.0
 70
  1712
 72
     0
 73
     0
 74
     0
  7

 75
     0
147
1.0
148
0.0
149
0.0
100
AcDbLayout
  1
Model
 70
     1
 71
     0
 10
0.0
 20
0.0
 11
12.0
 21
9.0
 12
0.0
 22
0.0
 32
0.0
 14
-112.6517565313616
 24
710.43777019455
 34
0.0
 15
307.3482434686368
 25
1007.43777019455
 35
0.0
146
0.0
 13
0.0
 23
0.0
 33
0.0
 16
1.0
 26
0.0
 36
0.0
 17
0.0
 27
1.0
 37
0.0
 76
     0
330
1F
331
29
  0
MATERIAL
  5
3D
102
{ACAD_REACTORS
330
3B
102
}
102
{ACAD_XDICTIONARY
360
4AD
102
}
330
3B
100
AcDbMaterial
  1
ByBlock
  0
MATERIAL
  5
3C
102
{ACAD_REACTORS
330
3B
102
}
102
{ACAD_XDICTIONARY
360
4AB
102
}
330
3B
100
AcDbMaterial
  1
ByLayer
  0
MATERIAL
  5
3E
102
{ACAD_REACTORS
330
3B
102
}
102
{ACAD_XDICTIONARY
360
4AF
102
}
330
3B
100
AcDbMaterial
  1
Global
  0
MLINESTYLE
  5
18
102
{ACAD_REACTORS
330
17
102
}
330
17
100
AcDbMlineStyle
  2
Standard
 70
     0
  3

 62
   256
 51
90.0
 52
90.0
 71
     2
 49
0.5
 62
   256
  6
BYLAYER
 49
-0.5
 62
   256
  6
BYLAYER
  0
ACDBPLACEHOLDER
  5
F
102
{ACAD_REACTORS
330
E
102
}
330
E
  0
VISUALSTYLE
  5
2F
102
{ACAD_REACTORS
330
2A
102
}
102
{ACAD_XDICTIONARY
360
493
102
}
330
2A
100
AcDbVisualStyle
  2
2dWireframe
 70
     4
 71
     0
 72
     2
 73
     0
 90
        0
 40
-0.6
 41
-30.0
 62
     5
 63
     7
 74
     1
 91
        4
 64
     7
 65
   257
 75
     1
175
     1
 42
1.0
 92
        0
 66
   257
 43
1.0
 76
     1
 77
     6
 78
     2
 67
     7
 79
     5
170
     0
171
     0
290
     0
174
     0
 93
        1
 44
0.0
173
     0
291
     0
 45
0.0
1001
ACAD
1000
AcDbSavedByObjectVersion
1070
     0
  0
VISUALSTYLE
  5
31
102
{ACAD_REACTORS
330
2A
102
}
102
{ACAD_XDICTIONARY
360
497
102
}
330
2A
100
AcDbVisualStyle
  2
3D Hidden
 70
     6
 71
     1
 72
     2
 73
     2
 90
        0
 40
-0.6
 41
-30.0
 62
     5
 63
     7
 74
     2
 91
        2
 64
     7
 65
   257
 75
     2
175
     1
 42
40.0
 92
        0
 66
   257
 43
1.0
 76
     1
 77
     6
 78
     2
 67
     7
 79
     3
170
     0
171
     0
290
     0
174
     0
 93
        1
 44
0.0
173
     0
291
     0
 45
0.0
1001
ACAD
1000
AcDbSavedByObjectVersion
1070
     0
  0
VISUALSTYLE
  5
30
102
{ACAD_REACTORS
330
2A
102
}
102
{ACAD_XDICTIONARY
360
495
102
}
330
2A
100
AcDbVisualStyle
  2
3dWireframe
 70
     5
 71
     0
 72
     2
 73
     0
 90
        0
 40
-0.6
 41
-30.0
 62
     5
 63
     7
 74
     1
 91
        4
 64
     7
 65
   257
 75
     1
175
     1
 42
1.0
 92
        0
 66
   257
 43
1.0
 76
     1
 77
     6
 78
     2
 67
     7
 79
     5
170
     0
171
     0
290
     0
174
     0
 93
        1
 44
0.0
173
     0
291
     0
 45
0.0
1001
ACAD
1000
AcDbSavedByObjectVersion
1070
     0
  0
VISUALSTYLE
  5
32
102
{ACAD_REACTORS
330
2A
102
}
102
{ACAD_XDICTIONARY
360
499
102
}
330
2A
100
AcDbVisualStyle
  2
Basic
 70
     7
 71
     1
 72
     0
 73
     1
 90
        0
 40
-0.6
 41
-30.0
 62
     5
 63
     7
 74
     0
 91
        4
 64
     7
 65
   257
 75
     1
175
     1
 42
1.0
 92
        8
 66
     7
 43
1.0
 76
     1
 77
     6
 78
     2
 67
     7
 79
     5
170
     0
171
     0
290
     0
174
     0
 93
        1
 44
0.0
173
     0
291
     1
 45
0.0
1001
ACAD
1000
AcDbSavedByObjectVersion
1070
     0
  0
VISUALSTYLE
  5
36
102
{ACAD_REACTORS
330
2A
102
}
102
{ACAD_XDICTIONARY
360
4A1
102
}
330
2A
100
AcDbVisualStyle
  2
Brighten
 70
    12
 71
     2
 72
     2
 73
     0
 90
        0
 40
-0.6
 41
-30.0
 62
     5
 63
     7
 74
     1
 91
        4
 64
     7
 65
   257
 75
     1
175
     1
 42
1.0
 92
        8
 66
     7
 43
1.0
 76
     1
 77
     6
 78
     2
 67
     7
 79
     5
170
     0
171
     0
290
     0
174
     0
 93
        1
 44
50.0
173
     0
291
     1
 45
0.0
1001
ACAD
1000
AcDbSavedByObjectVersion
1070
     0
  0
VISUALSTYLE
  5
3A
102
{ACAD_REACTORS
330
2A
102
}
102
{ACAD_XDICTIONARY
360
4A9
102
}
330
2A
100
AcDbVisualStyle
  2
ColorChange
 70
    16
 71
     2
 72
     2
 73
     3
 90
        0
 40
-0.6
 41
-30.0
 62
     5
 63
     8
 74
     1
 91
        4
 64
     7
 65
   257
 75
     1
175
     1
 42
1.0
 92
        8
 66
     8
 43
1.0
 76
     1
 77
     6
 78
     2
 67
     7
 79
     5
170
     0
171
     0
290
     0
174
     0
 93
        1
 44
0.0
173
     0
291
     1
 45
0.0
1001
ACAD
1000
AcDbSavedByObjectVersion
1070
     0
  0
VISUALSTYLE
  5
34
102
{ACAD_REACTORS
330
2A
102
}
102
{ACAD_XDICTIONARY
360
49D
102
}
330
2A
100
AcDbVisualStyle
  2
Conceptual
 70
     9
 71
     3
 72
     2
 73
     0
 90
        0
 40
-0.6
 41
-30.0
 62
     5
 63
     7
 74
     2
 91
        2
 64
     7
 65
   257
 75
     1
175
     1
 42
40.0
 92
        8
 66
     7
 43
1.0
 76
     1
 77
     6
 78
     2
 67
     7
 79
     3
170
     0
171
     0
290
     0
174
     0
 93
        1
 44
0.0
173
     0
291
     0
 45
0.0
1001
ACAD
1000
AcDbSavedByObjectVersion
1070
     0
  0
VISUALSTYLE
  5
35
102
{ACAD_REACTORS
330
2A
102
}
102
{ACAD_XDICTIONARY
360
49F
102
}
330
2A
100
AcDbVisualStyle
  2
Dim
 70
    11
 71
     2
 72
     2
 73
     0
 90
        0
 40
-0.6
 41
-30.0
 62
     5
 63
     7
 74
     1
 91
        4
 64
     7
 65
   257
 75
     1
175
     1
 42
1.0
 92
        8
 66
     7
 43
1.0
 76
     1
 77
     6
 78
     2
 67
     7
 79
     5
170
     0
171
     0
290
     0
174
     0
 93
        1
 44
-50.0
173
     0
291
     1
 45
0.0
1001
ACAD
1000
AcDbSavedByObjectVersion
1070
     0
  0
VISUALSTYLE
  5
39
102
{ACAD_REACTORS
330
2A
102
}
102
{ACAD_XDICTIONARY
360
4A7
102
}
330
2A
100
AcDbVisualStyle
  2
Facepattern
 70
    15
 71
     2
 72
     2
 73
     0
 90
        0
 40
-0.6
 41
-30.0
 62
     5
 63
     7
 74
     1
 91
        4
 64
     7
 65
   257
 75
     1
175
     1
 42
1.0
 92
        8
 66
     7
 43
1.0
 76
     1
 77
     6
 78
     2
 67
     7
 79
     5
170
     0
171
     0
290
     0
174
     0
 93
        1
 44
0.0
173
     0
291
     1
 45
0.0
1001
ACAD
1000
AcDbSavedByObjectVersion
1070
     0
  0
VISUALSTYLE
  5
2B
102
{ACAD_REACTORS
330
2A
102
}
102
{ACAD_XDICTIONARY
360
48B
102
}
330
2A
100
AcDbVisualStyle
  2
Flat
 70
     0
 71
     2
 72
     1
 73
     1
 90
        2
 40
-0.6
 41
30.0
 62
     5
 63
     7
 74
     0
 91
        4
 64
     7
 65
   257
 75
     1
175
     1
 42
1.0
 92
        8
 66
     7
 43
1.0
 76
     1
 77
     6
 78
     2
 67
     7
 79
     5
170
     0
171
     0
290
     0
174
     0
 93
       13
 44
0.0
173
     0
291
     1
 45
0.0
1001
ACAD
1000
AcDbSavedByObjectVersion
1070
     0
  0
VISUALSTYLE
  5
2C
102
{ACAD_REACTORS
330
2A
102
}
102
{ACAD_XDICTIONARY
360
48D
102
}
330
2A
100
AcDbVisualStyle
  2
FlatWithEdges
 70
     1
 71
     2
 72
     1
 73
     1
 90
        2
 40
-0.6
 41
30.0
 62
     5
 63
     7
 74
     1
 91
        4
 64
     7
 65
   257
 75
     1
175
     1
 42
1.0
 92
        0
 66
   257
 43
1.0
 76
     1
 77
     6
 78
     2
 67
     7
 79
     5
170
     0
171
     0
290
     0
174
     0
 93
       13
 44
0.0
173
     0
291
     1
 45
0.0
1001
ACAD
1000
AcDbSavedByObjectVersion
1070
     0
  0
VISUALSTYLE
  5
2D
102
{ACAD_REACTORS
330
2A
102
}
102
{ACAD_XDICTIONARY
360
48F
102
}
330
2A
100
AcDbVisualStyle
  2
Gouraud
 70
     2
 71
     2
 72
     2
 73
     1
 90
        2
 40
-0.6
 41
30.0
 62
     5
 63
     7
 74
     0
 91
        4
 64
     7
 65
   257
 75
     1
175
     1
 42
1.0
 92
        0
 66
     7
 43
1.0
 76
     1
 77
     6
 78
     2
 67
     7
 79
     5
170
     0
171
     0
290
     0
174
     0
 93
       13
 44
0.0
173
     0
291
     1
 45
0.0
1001
ACAD
1000
AcDbSavedByObjectVersion
1070
     0
  0
VISUALSTYLE
  5
2E
102
{ACAD_REACTORS
330
2A
102
}
102
{ACAD_XDICTIONARY
360
491
102
}
330
2A
100
AcDbVisualStyle
  2
GouraudWithEdges
 70
     3
 71
     2
 72
     2
 73
     1
 90
        2
 40
-0.6
 41
30.0
 62
     5
 63
     7
 74
     1
 91
        4
 64
     7
 65
   257
 75
     1
175
     1
 42
1.0
 92
        0
 66
   257
 43
1.0
 76
     1
 77
     6
 78
     2
 67
     7
 79
     5
170
     0
171
     0
290
     0
174
     0
 93
       13
 44
0.0
173
     0
291
     1
 45
0.0
1001
ACAD
1000
AcDbSavedByObjectVersion
1070
     0
  0
VISUALSTYLE
  5
38
102
{ACAD_REACTORS
330
2A
102
}
102
{ACAD_XDICTIONARY
360
4A5
102
}
330
2A
100
AcDbVisualStyle
  2
Linepattern
 70
    14
 71
     2
 72
     2
 73
     0
 90
        0
 40
-0.6
 41
-30.0
 62
     5
 63
     7
 74
     1
 91
        4
 64
     7
 65
   257
 75
     7
175
     7
 42
1.0
 92
        8
 66
     7
 43
1.0
 76
     1
 77
     6
 78
     2
 67
     7
 79
     5
170
     0
171
     0
290
     0
174
     0
 93
        1
 44
0.0
173
     0
291
     1
 45
0.0
1001
ACAD
1000
AcDbSavedByObjectVersion
1070
     0
  0
VISUALSTYLE
  5
33
102
{ACAD_REACTORS
330
2A
102
}
102
{ACAD_XDICTIONARY
360
49B
102
}
330
2A
100
AcDbVisualStyle
  2
Realistic
 70
     8
 71
     2
 72
     2
 73
     0
 90
        0
 40
-0.6
 41
-30.0
 62
     5
 63
     7
 74
     1
 91
        0
 64
     7
 65
   257
 75
     1
175
     1
 42
1.0
 92
        8
 66
     8
 43
1.0
 76
     1
 77
     6
 78
     2
 67
     7
 79
     5
170
     0
171
     0
290
     0
174
     0
 93
       13
 44
0.0
173
     0
291
     0
 45
0.0
1001
ACAD
1000
AcDbSavedByObjectVersion
1070
     0
  0
VISUALSTYLE
  5
37
102
{ACAD_REACTORS
330
2A
102
}
102
{ACAD_XDICTIONARY
360
4A3
102
}
330
2A
100
AcDbVisualStyle
  2
Thicken
 70
    13
 71
     2
 72
     2
 73
     0
 90
        0
 40
-0.6
 41
-30.0
 62
     5
 63
     7
 74
     1
 91
        4
 64
     7
 65
   257
 75
     1
175
     1
 42
1.0
 92
       12
 66
     7
 43
1.0
 76
     1
 77
     6
 78
     2
 67
     7
 79
     5
170
     0
171
     0
290
     0
174
     0
 93
        1
 44
0.0
173
     0
291
     1
 45
0.0
1001
ACAD
1000
AcDbSavedByObjectVersion
1070
     0
  0
DICTIONARYVAR
  5
489
102
{ACAD_REACTORS
330
486
102
}
330
486
100
DictionaryVariables
280
     0
  1
2
  0
DICTIONARYVAR
  5
48A
102
{ACAD_REACTORS
330
486
102
}
330
486
100
DictionaryVariables
280
     0
  1
1
  0
DICTIONARY
  5
4AD
330
3D
100
AcDbDictionary
280
     1
281
     1
  3
ACAD_XREC_ROUNDTRIP
360
4AE
  0
DICTIONARY
  5
4AB
330
3C
100
AcDbDictionary
280
     1
281
     1
  3
ACAD_XREC_ROUNDTRIP
360
4AC
  0
DICTIONARY
  5
4AF
330
3E
100
AcDbDictionary
280
     1
281
     1
  3
ACAD_XREC_ROUNDTRIP
360
4B0
  0
DICTIONARY
  5
493
330
2F
100
AcDbDictionary
280
     1
281
     1
  3
ACAD_XREC_ROUNDTRIP
360
494
  0
DICTIONARY
  5
497
330
31
100
AcDbDictionary
280
     1
281
     1
  3
ACAD_XREC_ROUNDTRIP
360
498
  0
DICTIONARY
  5
495
330
30
100
AcDbDictionary
280
     1
281
     1
  3
ACAD_XREC_ROUNDTRIP
360
496
  0
DICTIONARY
  5
499
330
32
100
AcDbDictionary
280
     1
281
     1
  3
ACAD_XREC_ROUNDTRIP
360
49A
  0
DICTIONARY
  5
4A1
330
36
100
AcDbDictionary
280
     1
281
     1
  3
ACAD_XREC_ROUNDTRIP
360
4A2
  0
DICTIONARY
  5
4A9
330
3A
100
AcDbDictionary
280
     1
281
     1
  3
ACAD_XREC_ROUNDTRIP
360
4AA
  0
DICTIONARY
  5
49D
330
34
100
AcDbDictionary
280
     1
281
     1
  3
ACAD_XREC_ROUNDTRIP
360
49E
  0
DICTIONARY
  5
49F
330
35
100
AcDbDictionary
280
     1
281
     1
  3
ACAD_XREC_ROUNDTRIP
360
4A0
  0
DICTIONARY
  5
4A7
330
39
100
AcDbDictionary
280
     1
281
     1
  3
ACAD_XREC_ROUNDTRIP
360
4A8
  0
DICTIONARY
  5
48B
330
2B
100
AcDbDictionary
280
     1
281
     1
  3
ACAD_XREC_ROUNDTRIP
360
48C
  0
DICTIONARY
  5
48D
330
2C
100
AcDbDictionary
280
     1
281
     1
  3
ACAD_XREC_ROUNDTRIP
360
48E
  0
DICTIONARY
  5
48F
330
2D
100
AcDbDictionary
280
     1
281
     1
  3
ACAD_XREC_ROUNDTRIP
360
490
  0
DICTIONARY
  5
491
330
2E
100
AcDbDictionary
280
     1
281
     1
  3
ACAD_XREC_ROUNDTRIP
360
492
  0
DICTIONARY
  5
4A5
330
38
100
AcDbDictionary
280
     1
281
     1
  3
ACAD_XREC_ROUNDTRIP
360
4A6
  0
DICTIONARY
  5
49B
330
33
100
AcDbDictionary
280
     1
281
     1
  3
ACAD_XREC_ROUNDTRIP
360
49C
  0
DICTIONARY
  5
4A3
330
37
100
AcDbDictionary
280
     1
281
     1
  3
ACAD_XREC_ROUNDTRIP
360
4A4
  0
XRECORD
  5
4AE
102
{ACAD_REACTORS
330
4AD
102
}
330
4AD
100
AcDbXrecord
280
     1
102
MATERIAL
148
0.0
149
0.0
149
0.0
 93
        0
 94
      127
282
     0
 72
     1
 77
     1
171
     1
175
     1
179
     1
273
     0
  0
XRECORD
  5
4AC
102
{ACAD_REACTORS
330
4AB
102
}
330
4AB
100
AcDbXrecord
280
     1
102
MATERIAL
148
0.0
149
0.0
149
0.0
 93
        0
 94
      127
282
     0
 72
     1
 77
     1
171
     1
175
     1
179
     1
273
     0
  0
XRECORD
  5
4B0
102
{ACAD_REACTORS
330
4AF
102
}
330
4AF
100
AcDbXrecord
280
     1
102
MATERIAL
148
0.0
149
0.0
149
0.0
 93
        0
 94
      127
282
     0
 72
     1
 77
     1
171
     1
175
     1
179
     1
273
     0
  0
XRECORD
  5
494
102
{ACAD_REACTORS
330
493
102
}
330
493
100
AcDbXrecord
280
     1
102
RTVSPropertyOp0
 70
     1
102
RTVSPropertyOp1
 70
     1
102
RTVSPropertyOp2
 70
     1
102
RTVSPropertyOp3
 70
     1
102
RTVSPropertyOp4
 70
     1
102
RTVSPropertyOp5
 70
     1
102
RTVSPropertyOp6
 70
     1
102
RTVSPropertyOp7
 70
     1
102
RTVSPropertyOp8
 70
     1
102
RTVSPropertyOp9
 70
     1
102
RTVSPropertyOp10
 70
     1
102
RTVSPropertyOp11
 70
     1
102
RTVSPropertyOp12
 70
     1
102
RTVSPropertyOp13
 70
     1
102
RTVSPropertyOp14
 70
     1
102
RTVSPropertyOp15
 70
     1
102
RTVSPropertyOp16
 70
     1
102
RTVSPropertyOp17
 70
     1
102
RTVSPropertyOp18
 70
     1
102
RTVSPropertyOp19
 70
     1
102
RTVSPropertyOp20
 70
     1
102
RTVSPropertyOp21
 70
     1
102
RTVSPropertyOp22
 70
     1
102
RTVSPropertyOp23
 70
     1
102
RTVSPropertyOp24
 70
     1
102
RTVSPropertyOp25
 70
     1
102
RTVSPropertyOp26
 70
     1
102
RTVSPropertyOp27
 70
     1
102
RTVSPropertyOp28
 70
     1
102
RTVSPropertyOp29
 70
     1
102
RTVSPropertyOp30
 70
     1
102
RTVSPropertyOp31
 70
     1
102
RTVSPropertyOp32
 70
     1
  0
XRECORD
  5
498
102
{ACAD_REACTORS
330
497
102
}
330
497
100
AcDbXrecord
280
     1
102
RTVSPropertyOp0
 70
     1
102
RTVSPropertyOp1
 70
     1
102
RTVSPropertyOp2
 70
     1
102
RTVSPropertyOp3
 70
     1
102
RTVSPropertyOp4
 70
     1
102
RTVSPropertyOp5
 70
     1
102
RTVSPropertyOp6
 70
     1
102
RTVSPropertyOp7
 70
     1
102
RTVSPropertyOp8
 70
     1
102
RTVSPropertyOp9
 70
     1
102
RTVSPropertyOp10
 70
     1
102
RTVSPropertyOp11
 70
     1
102
RTVSPropertyOp12
 70
     1
102
RTVSPropertyOp13
 70
     1
102
RTVSPropertyOp14
 70
     1
102
RTVSPropertyOp15
 70
     1
102
RTVSPropertyOp16
 70
     1
102
RTVSPropertyOp17
 70
     1
102
RTVSPropertyOp18
 70
     1
102
RTVSPropertyOp19
 70
     1
102
RTVSPropertyOp20
 70
     1
102
RTVSPropertyOp21
 70
     1
102
RTVSPropertyOp22
 70
     1
102
RTVSPropertyOp23
 70
     1
102
RTVSPropertyOp24
 70
     1
102
RTVSPropertyOp25
 70
     1
102
RTVSPropertyOp26
 70
     1
102
RTVSPropertyOp27
 70
     1
102
RTVSPropertyOp28
 70
     1
102
RTVSPropertyOp29
 70
     1
102
RTVSPropertyOp30
 70
     1
102
RTVSPropertyOp31
 70
     1
102
RTVSPropertyOp32
 70
     1
  0
XRECORD
  5
496
102
{ACAD_REACTORS
330
495
102
}
330
495
100
AcDbXrecord
280
     1
102
RTVSPropertyOp0
 70
     1
102
RTVSPropertyOp1
 70
     1
102
RTVSPropertyOp2
 70
     1
102
RTVSPropertyOp3
 70
     1
102
RTVSPropertyOp4
 70
     1
102
RTVSPropertyOp5
 70
     1
102
RTVSPropertyOp6
 70
     1
102
RTVSPropertyOp7
 70
     1
102
RTVSPropertyOp8
 70
     1
102
RTVSPropertyOp9
 70
     1
102
RTVSPropertyOp10
 70
     1
102
RTVSPropertyOp11
 70
     1
102
RTVSPropertyOp12
 70
     1
102
RTVSPropertyOp13
 70
     1
102
RTVSPropertyOp14
 70
     1
102
RTVSPropertyOp15
 70
     1
102
RTVSPropertyOp16
 70
     1
102
RTVSPropertyOp17
 70
     1
102
RTVSPropertyOp18
 70
     1
102
RTVSPropertyOp19
 70
     1
102
RTVSPropertyOp20
 70
     1
102
RTVSPropertyOp21
 70
     1
102
RTVSPropertyOp22
 70
     1
102
RTVSPropertyOp23
 70
     1
102
RTVSPropertyOp24
 70
     1
102
RTVSPropertyOp25
 70
     1
102
RTVSPropertyOp26
 70
     1
102
RTVSPropertyOp27
 70
     1
102
RTVSPropertyOp28
 70
     1
102
RTVSPropertyOp29
 70
     1
102
RTVSPropertyOp30
 70
     1
102
RTVSPropertyOp31
 70
     1
102
RTVSPropertyOp32
 70
     1
  0
XRECORD
  5
49A
102
{ACAD_REACTORS
330
499
102
}
330
499
100
AcDbXrecord
280
     1
102
RTVSPropertyOp0
 70
     1
102
RTVSPropertyOp1
 70
     1
102
RTVSPropertyOp2
 70
     1
102
RTVSPropertyOp3
 70
     1
102
RTVSPropertyOp4
 70
     1
102
RTVSPropertyOp5
 70
     1
102
RTVSPropertyOp6
 70
     1
102
RTVSPropertyOp7
 70
     1
102
RTVSPropertyOp8
 70
     1
102
RTVSPropertyOp9
 70
     1
102
RTVSPropertyOp10
 70
     1
102
RTVSPropertyOp11
 70
     1
102
RTVSPropertyOp12
 70
     1
102
RTVSPropertyOp13
 70
     1
102
RTVSPropertyOp14
 70
     1
102
RTVSPropertyOp15
 70
     1
102
RTVSPropertyOp16
 70
     1
102
RTVSPropertyOp17
 70
     1
102
RTVSPropertyOp18
 70
     1
102
RTVSPropertyOp19
 70
     1
102
RTVSPropertyOp20
 70
     1
102
RTVSPropertyOp21
 70
     1
102
RTVSPropertyOp22
 70
     1
102
RTVSPropertyOp23
 70
     1
102
RTVSPropertyOp24
 70
     1
102
RTVSPropertyOp25
 70
     1
102
RTVSPropertyOp26
 70
     1
102
RTVSPropertyOp27
 70
     1
102
RTVSPropertyOp28
 70
     1
102
RTVSPropertyOp29
 70
     1
102
RTVSPropertyOp30
 70
     1
102
RTVSPropertyOp31
 70
     1
102
RTVSPropertyOp32
 70
     1
  0
XRECORD
  5
4A2
102
{ACAD_REACTORS
330
4A1
102
}
330
4A1
100
AcDbXrecord
280
     1
102
RTVSPropertyOp0
 70
     1
102
RTVSPropertyOp1
 70
     1
102
RTVSPropertyOp2
 70
     1
102
RTVSPropertyOp3
 70
     1
102
RTVSPropertyOp4
 70
     1
102
RTVSPropertyOp5
 70
     1
102
RTVSPropertyOp6
 70
     1
102
RTVSPropertyOp7
 70
     1
102
RTVSPropertyOp8
 70
     1
102
RTVSPropertyOp9
 70
     1
102
RTVSPropertyOp10
 70
     1
102
RTVSPropertyOp11
 70
     1
102
RTVSPropertyOp12
 70
     1
102
RTVSPropertyOp13
 70
     1
102
RTVSPropertyOp14
 70
     1
102
RTVSPropertyOp15
 70
     1
102
RTVSPropertyOp16
 70
     1
102
RTVSPropertyOp17
 70
     1
102
RTVSPropertyOp18
 70
     1
102
RTVSPropertyOp19
 70
     1
102
RTVSPropertyOp20
 70
     1
102
RTVSPropertyOp21
 70
     1
102
RTVSPropertyOp22
 70
     1
102
RTVSPropertyOp23
 70
     1
102
RTVSPropertyOp24
 70
     1
102
RTVSPropertyOp25
 70
     1
102
RTVSPropertyOp26
 70
     1
102
RTVSPropertyOp27
 70
     1
102
RTVSPropertyOp28
 70
     1
102
RTVSPropertyOp29
 70
     1
102
RTVSPropertyOp30
 70
     1
102
RTVSPropertyOp31
 70
     1
102
RTVSPropertyOp32
 70
     1
  0
XRECORD
  5
4AA
102
{ACAD_REACTORS
330
4A9
102
}
330
4A9
100
AcDbXrecord
280
     1
102
RTVSPropertyOp0
 70
     1
102
RTVSPropertyOp1
 70
     1
102
RTVSPropertyOp2
 70
     1
102
RTVSPropertyOp3
 70
     1
102
RTVSPropertyOp4
 70
     1
102
RTVSPropertyOp5
 70
     1
102
RTVSPropertyOp6
 70
     1
102
RTVSPropertyOp7
 70
     1
102
RTVSPropertyOp8
 70
     1
102
RTVSPropertyOp9
 70
     1
102
RTVSPropertyOp10
 70
     1
102
RTVSPropertyOp11
 70
     1
102
RTVSPropertyOp12
 70
     1
102
RTVSPropertyOp13
 70
     1
102
RTVSPropertyOp14
 70
     1
102
RTVSPropertyOp15
 70
     1
102
RTVSPropertyOp16
 70
     1
102
RTVSPropertyOp17
 70
     1
102
RTVSPropertyOp18
 70
     1
102
RTVSPropertyOp19
 70
     1
102
RTVSPropertyOp20
 70
     1
102
RTVSPropertyOp21
 70
     1
102
RTVSPropertyOp22
 70
     1
102
RTVSPropertyOp23
 70
     1
102
RTVSPropertyOp24
 70
     1
102
RTVSPropertyOp25
 70
     1
102
RTVSPropertyOp26
 70
     1
102
RTVSPropertyOp27
 70
     1
102
RTVSPropertyOp28
 70
     1
102
RTVSPropertyOp29
 70
     1
102
RTVSPropertyOp30
 70
     1
102
RTVSPropertyOp31
 70
     1
102
RTVSPropertyOp32
 70
     1
  0
XRECORD
  5
49E
102
{ACAD_REACTORS
330
49D
102
}
330
49D
100
AcDbXrecord
280
     1
102
RTVSPropertyOp0
 70
     1
102
RTVSPropertyOp1
 70
     1
102
RTVSPropertyOp2
 70
     1
102
RTVSPropertyOp3
 70
     1
102
RTVSPropertyOp4
 70
     1
102
RTVSPropertyOp5
 70
     1
102
RTVSPropertyOp6
 70
     1
102
RTVSPropertyOp7
 70
     1
102
RTVSPropertyOp8
 70
     1
102
RTVSPropertyOp9
 70
     1
102
RTVSPropertyOp10
 70
     1
102
RTVSPropertyOp11
 70
     1
102
RTVSPropertyOp12
 70
     1
102
RTVSPropertyOp13
 70
     1
102
RTVSPropertyOp14
 70
     1
102
RTVSPropertyOp15
 70
     1
102
RTVSPropertyOp16
 70
     1
102
RTVSPropertyOp17
 70
     1
102
RTVSPropertyOp18
 70
     1
102
RTVSPropertyOp19
 70
     1
102
RTVSPropertyOp20
 70
     1
102
RTVSPropertyOp21
 70
     1
102
RTVSPropertyOp22
 70
     1
102
RTVSPropertyOp23
 70
     1
102
RTVSPropertyOp24
 70
     1
102
RTVSPropertyOp25
 70
     1
102
RTVSPropertyOp26
 70
     1
102
RTVSPropertyOp27
 70
     1
102
RTVSPropertyOp28
 70
     1
102
RTVSPropertyOp29
 70
     1
102
RTVSPropertyOp30
 70
     1
102
RTVSPropertyOp31
 70
     1
102
RTVSPropertyOp32
 70
     1
  0
XRECORD
  5
4A0
102
{ACAD_REACTORS
330
49F
102
}
330
49F
100
AcDbXrecord
280
     1
102
RTVSPropertyOp0
 70
     1
102
RTVSPropertyOp1
 70
     1
102
RTVSPropertyOp2
 70
     1
102
RTVSPropertyOp3
 70
     1
102
RTVSPropertyOp4
 70
     1
102
RTVSPropertyOp5
 70
     1
102
RTVSPropertyOp6
 70
     1
102
RTVSPropertyOp7
 70
     1
102
RTVSPropertyOp8
 70
     1
102
RTVSPropertyOp9
 70
     1
102
RTVSPropertyOp10
 70
     1
102
RTVSPropertyOp11
 70
     1
102
RTVSPropertyOp12
 70
     1
102
RTVSPropertyOp13
 70
     1
102
RTVSPropertyOp14
 70
     1
102
RTVSPropertyOp15
 70
     1
102
RTVSPropertyOp16
 70
     1
102
RTVSPropertyOp17
 70
     1
102
RTVSPropertyOp18
 70
     1
102
RTVSPropertyOp19
 70
     1
102
RTVSPropertyOp20
 70
     1
102
RTVSPropertyOp21
 70
     1
102
RTVSPropertyOp22
 70
     1
102
RTVSPropertyOp23
 70
     1
102
RTVSPropertyOp24
 70
     1
102
RTVSPropertyOp25
 70
     1
102
RTVSPropertyOp26
 70
     1
102
RTVSPropertyOp27
 70
     1
102
RTVSPropertyOp28
 70
     1
102
RTVSPropertyOp29
 70
     1
102
RTVSPropertyOp30
 70
     1
102
RTVSPropertyOp31
 70
     1
102
RTVSPropertyOp32
 70
     1
  0
XRECORD
  5
4A8
102
{ACAD_REACTORS
330
4A7
102
}
330
4A7
100
AcDbXrecord
280
     1
102
RTVSPropertyOp0
 70
     1
102
RTVSPropertyOp1
 70
     1
102
RTVSPropertyOp2
 70
     1
102
RTVSPropertyOp3
 70
     1
102
RTVSPropertyOp4
 70
     1
102
RTVSPropertyOp5
 70
     1
102
RTVSPropertyOp6
 70
     1
102
RTVSPropertyOp7
 70
     1
102
RTVSPropertyOp8
 70
     1
102
RTVSPropertyOp9
 70
     1
102
RTVSPropertyOp10
 70
     1
102
RTVSPropertyOp11
 70
     1
102
RTVSPropertyOp12
 70
     1
102
RTVSPropertyOp13
 70
     1
102
RTVSPropertyOp14
 70
     1
102
RTVSPropertyOp15
 70
     1
102
RTVSPropertyOp16
 70
     1
102
RTVSPropertyOp17
 70
     1
102
RTVSPropertyOp18
 70
     1
102
RTVSPropertyOp19
 70
     1
102
RTVSPropertyOp20
 70
     1
102
RTVSPropertyOp21
 70
     1
102
RTVSPropertyOp22
 70
     1
102
RTVSPropertyOp23
 70
     1
102
RTVSPropertyOp24
 70
     1
102
RTVSPropertyOp25
 70
     1
102
RTVSPropertyOp26
 70
     1
102
RTVSPropertyOp27
 70
     1
102
RTVSPropertyOp28
 70
     1
102
RTVSPropertyOp29
 70
     1
102
RTVSPropertyOp30
 70
     1
102
RTVSPropertyOp31
 70
     1
102
RTVSPropertyOp32
 70
     1
  0
XRECORD
  5
48C
102
{ACAD_REACTORS
330
48B
102
}
330
48B
100
AcDbXrecord
280
     1
102
RTVSPropertyOp0
 70
     1
102
RTVSPropertyOp1
 70
     1
102
RTVSPropertyOp2
 70
     1
102
RTVSPropertyOp3
 70
     1
102
RTVSPropertyOp4
 70
     1
102
RTVSPropertyOp5
 70
     1
102
RTVSPropertyOp6
 70
     1
102
RTVSPropertyOp7
 70
     1
102
RTVSPropertyOp8
 70
     1
102
RTVSPropertyOp9
 70
     1
102
RTVSPropertyOp10
 70
     1
102
RTVSPropertyOp11
 70
     1
102
RTVSPropertyOp12
 70
     1
102
RTVSPropertyOp13
 70
     1
102
RTVSPropertyOp14
 70
     1
102
RTVSPropertyOp15
 70
     1
102
RTVSPropertyOp16
 70
     1
102
RTVSPropertyOp17
 70
     1
102
RTVSPropertyOp18
 70
     1
102
RTVSPropertyOp19
 70
     1
102
RTVSPropertyOp20
 70
     1
102
RTVSPropertyOp21
 70
     1
102
RTVSPropertyOp22
 70
     1
102
RTVSPropertyOp23
 70
     1
102
RTVSPropertyOp24
 70
     1
102
RTVSPropertyOp25
 70
     1
102
RTVSPropertyOp26
 70
     1
102
RTVSPropertyOp27
 70
     1
102
RTVSPropertyOp28
 70
     1
102
RTVSPropertyOp29
 70
     1
102
RTVSPropertyOp30
 70
     1
102
RTVSPropertyOp31
 70
     1
102
RTVSPropertyOp32
 70
     1
  0
XRECORD
  5
48E
102
{ACAD_REACTORS
330
48D
102
}
330
48D
100
AcDbXrecord
280
     1
102
RTVSPropertyOp0
 70
     1
102
RTVSPropertyOp1
 70
     1
102
RTVSPropertyOp2
 70
     1
102
RTVSPropertyOp3
 70
     1
102
RTVSPropertyOp4
 70
     1
102
RTVSPropertyOp5
 70
     1
102
RTVSPropertyOp6
 70
     1
102
RTVSPropertyOp7
 70
     1
102
RTVSPropertyOp8
 70
     1
102
RTVSPropertyOp9
 70
     1
102
RTVSPropertyOp10
 70
     1
102
RTVSPropertyOp11
 70
     1
102
RTVSPropertyOp12
 70
     1
102
RTVSPropertyOp13
 70
     1
102
RTVSPropertyOp14
 70
     1
102
RTVSPropertyOp15
 70
     1
102
RTVSPropertyOp16
 70
     1
102
RTVSPropertyOp17
 70
     1
102
RTVSPropertyOp18
 70
     1
102
RTVSPropertyOp19
 70
     1
102
RTVSPropertyOp20
 70
     1
102
RTVSPropertyOp21
 70
     1
102
RTVSPropertyOp22
 70
     1
102
RTVSPropertyOp23
 70
     1
102
RTVSPropertyOp24
 70
     1
102
RTVSPropertyOp25
 70
     1
102
RTVSPropertyOp26
 70
     1
102
RTVSPropertyOp27
 70
     1
102
RTVSPropertyOp28
 70
     1
102
RTVSPropertyOp29
 70
     1
102
RTVSPropertyOp30
 70
     1
102
RTVSPropertyOp31
 70
     1
102
RTVSPropertyOp32
 70
     1
  0
XRECORD
  5
490
102
{ACAD_REACTORS
330
48F
102
}
330
48F
100
AcDbXrecord
280
     1
102
RTVSPropertyOp0
 70
     1
102
RTVSPropertyOp1
 70
     1
102
RTVSPropertyOp2
 70
     1
102
RTVSPropertyOp3
 70
     1
102
RTVSPropertyOp4
 70
     1
102
RTVSPropertyOp5
 70
     1
102
RTVSPropertyOp6
 70
     1
102
RTVSPropertyOp7
 70
     1
102
RTVSPropertyOp8
 70
     1
102
RTVSPropertyOp9
 70
     1
102
RTVSPropertyOp10
 70
     1
102
RTVSPropertyOp11
 70
     1
102
RTVSPropertyOp12
 70
     1
102
RTVSPropertyOp13
 70
     1
102
RTVSPropertyOp14
 70
     1
102
RTVSPropertyOp15
 70
     1
102
RTVSPropertyOp16
 70
     1
102
RTVSPropertyOp17
 70
     1
102
RTVSPropertyOp18
 70
     1
102
RTVSPropertyOp19
 70
     1
102
RTVSPropertyOp20
 70
     1
102
RTVSPropertyOp21
 70
     1
102
RTVSPropertyOp22
 70
     1
102
RTVSPropertyOp23
 70
     1
102
RTVSPropertyOp24
 70
     1
102
RTVSPropertyOp25
 70
     1
102
RTVSPropertyOp26
 70
     1
102
RTVSPropertyOp27
 70
     1
102
RTVSPropertyOp28
 70
     1
102
RTVSPropertyOp29
 70
     1
102
RTVSPropertyOp30
 70
     1
102
RTVSPropertyOp31
 70
     1
102
RTVSPropertyOp32
 70
     1
  0
XRECORD
  5
492
102
{ACAD_REACTORS
330
491
102
}
330
491
100
AcDbXrecord
280
     1
102
RTVSPropertyOp0
 70
     1
102
RTVSPropertyOp1
 70
     1
102
RTVSPropertyOp2
 70
     1
102
RTVSPropertyOp3
 70
     1
102
RTVSPropertyOp4
 70
     1
102
RTVSPropertyOp5
 70
     1
102
RTVSPropertyOp6
 70
     1
102
RTVSPropertyOp7
 70
     1
102
RTVSPropertyOp8
 70
     1
102
RTVSPropertyOp9
 70
     1
102
RTVSPropertyOp10
 70
     1
102
RTVSPropertyOp11
 70
     1
102
RTVSPropertyOp12
 70
     1
102
RTVSPropertyOp13
 70
     1
102
RTVSPropertyOp14
 70
     1
102
RTVSPropertyOp15
 70
     1
102
RTVSPropertyOp16
 70
     1
102
RTVSPropertyOp17
 70
     1
102
RTVSPropertyOp18
 70
     1
102
RTVSPropertyOp19
 70
     1
102
RTVSPropertyOp20
 70
     1
102
RTVSPropertyOp21
 70
     1
102
RTVSPropertyOp22
 70
     1
102
RTVSPropertyOp23
 70
     1
102
RTVSPropertyOp24
 70
     1
102
RTVSPropertyOp25
 70
     1
102
RTVSPropertyOp26
 70
     1
102
RTVSPropertyOp27
 70
     1
102
RTVSPropertyOp28
 70
     1
102
RTVSPropertyOp29
 70
     1
102
RTVSPropertyOp30
 70
     1
102
RTVSPropertyOp31
 70
     1
102
RTVSPropertyOp32
 70
     1
  0
XRECORD
  5
4A6
102
{ACAD_REACTORS
330
4A5
102
}
330
4A5
100
AcDbXrecord
280
     1
102
RTVSPropertyOp0
 70
     1
102
RTVSPropertyOp1
 70
     1
102
RTVSPropertyOp2
 70
     1
102
RTVSPropertyOp3
 70
     1
102
RTVSPropertyOp4
 70
     1
102
RTVSPropertyOp5
 70
     1
102
RTVSPropertyOp6
 70
     1
102
RTVSPropertyOp7
 70
     1
102
RTVSPropertyOp8
 70
     1
102
RTVSPropertyOp9
 70
     1
102
RTVSPropertyOp10
 70
     1
102
RTVSPropertyOp11
 70
     1
102
RTVSPropertyOp12
 70
     1
102
RTVSPropertyOp13
 70
     1
102
RTVSPropertyOp14
 70
     1
102
RTVSPropertyOp15
 70
     1
102
RTVSPropertyOp16
 70
     1
102
RTVSPropertyOp17
 70
     1
102
RTVSPropertyOp18
 70
     1
102
RTVSPropertyOp19
 70
     1
102
RTVSPropertyOp20
 70
     1
102
RTVSPropertyOp21
 70
     1
102
RTVSPropertyOp22
 70
     1
102
RTVSPropertyOp23
 70
     1
102
RTVSPropertyOp24
 70
     1
102
RTVSPropertyOp25
 70
     1
102
RTVSPropertyOp26
 70
     1
102
RTVSPropertyOp27
 70
     1
102
RTVSPropertyOp28
 70
     1
102
RTVSPropertyOp29
 70
     1
102
RTVSPropertyOp30
 70
     1
102
RTVSPropertyOp31
 70
     1
102
RTVSPropertyOp32
 70
     1
  0
XRECORD
  5
49C
102
{ACAD_REACTORS
330
49B
102
}
330
49B
100
AcDbXrecord
280
     1
102
RTVSPropertyOp0
 70
     1
102
RTVSPropertyOp1
 70
     1
102
RTVSPropertyOp2
 70
     1
102
RTVSPropertyOp3
 70
     1
102
RTVSPropertyOp4
 70
     1
102
RTVSPropertyOp5
 70
     1
102
RTVSPropertyOp6
 70
     1
102
RTVSPropertyOp7
 70
     1
102
RTVSPropertyOp8
 70
     1
102
RTVSPropertyOp9
 70
     1
102
RTVSPropertyOp10
 70
     1
102
RTVSPropertyOp11
 70
     1
102
RTVSPropertyOp12
 70
     1
102
RTVSPropertyOp13
 70
     1
102
RTVSPropertyOp14
 70
     1
102
RTVSPropertyOp15
 70
     1
102
RTVSPropertyOp16
 70
     1
102
RTVSPropertyOp17
 70
     1
102
RTVSPropertyOp18
 70
     1
102
RTVSPropertyOp19
 70
     1
102
RTVSPropertyOp20
 70
     1
102
RTVSPropertyOp21
 70
     1
102
RTVSPropertyOp22
 70
     1
102
RTVSPropertyOp23
 70
     1
102
RTVSPropertyOp24
 70
     1
102
RTVSPropertyOp25
 70
     1
102
RTVSPropertyOp26
 70
     1
102
RTVSPropertyOp27
 70
     1
102
RTVSPropertyOp28
 70
     1
102
RTVSPropertyOp29
 70
     1
102
RTVSPropertyOp30
 70
     1
102
RTVSPropertyOp31
 70
     1
102
RTVSPropertyOp32
 70
     1
  0
XRECORD
  5
4A4
102
{ACAD_REACTORS
330
4A3
102
}
330
4A3
100
AcDbXrecord
280
     1
102
RTVSPropertyOp0
 70
     1
102
RTVSPropertyOp1
 70
     1
102
RTVSPropertyOp2
 70
     1
102
RTVSPropertyOp3
 70
     1
102
RTVSPropertyOp4
 70
     1
102
RTVSPropertyOp5
 70
     1
102
RTVSPropertyOp6
 70
     1
102
RTVSPropertyOp7
 70
     1
102
RTVSPropertyOp8
 70
     1
102
RTVSPropertyOp9
 70
     1
102
RTVSPropertyOp10
 70
     1
102
RTVSPropertyOp11
 70
     1
102
RTVSPropertyOp12
 70
     1
102
RTVSPropertyOp13
 70
     1
102
RTVSPropertyOp14
 70
     1
102
RTVSPropertyOp15
 70
     1
102
RTVSPropertyOp16
 70
     1
102
RTVSPropertyOp17
 70
     1
102
RTVSPropertyOp18
 70
     1
102
RTVSPropertyOp19
 70
     1
102
RTVSPropertyOp20
 70
     1
102
RTVSPropertyOp21
 70
     1
102
RTVSPropertyOp22
 70
     1
102
RTVSPropertyOp23
 70
     1
102
RTVSPropertyOp24
 70
     1
102
RTVSPropertyOp25
 70
     1
102
RTVSPropertyOp26
 70
     1
102
RTVSPropertyOp27
 70
     1
102
RTVSPropertyOp28
 70
     1
102
RTVSPropertyOp29
 70
     1
102
RTVSPropertyOp30
 70
     1
102
RTVSPropertyOp31
 70
     1
102
RTVSPropertyOp32
 70
     1
  0
ENDSEC
  0
EOF
