  0
SECTION
  2
HEADER
  9
$ACADVER
  1
AC1015
  9
$ACADMAINTVER
 70
     6
  9
$DWGCODEPAGE
  3
ANSI_1252
  9
$INSBASE
 10
0.0
 20
0.0
 30
0.0
  9
$EXTMIN
 10
-103.048531077561
 20
705.4912841497555
 30
0.0
  9
$EXTMAX
 10
316.9514689224374
 20
1002.491284149756
 30
0.0
  9
$LIMMIN
 10
0.0
 20
0.0
  9
$LIMMAX
 10
12.0
 20
9.0
  9
$ORTHOMODE
 70
     0
  9
$REGENMODE
 70
     1
  9
$FILLMODE
 70
     1
  9
$QTEXTMODE
 70
     0
  9
$MIRRTEXT
 70
     1
  9
$LTSCALE
 40
1.0
  9
$ATTMODE
 70
     1
  9
$TEXTSIZE
 40
0.2
  9
$TRACEWID
 40
0.05
  9
$TEXTSTYLE
  7
Standard
  9
$CLAYER
  8
0
  9
$CELTYPE
  6
ByLayer
  9
$CECOLOR
 62
   256
  9
$CELTSCALE
 40
1.0
  9
$DISPSILH
 70
     0
  9
$DIMSCALE
 40
1.0
  9
$DIMASZ
 40
0.18
  9
$DIMEXO
 40
0.0625
  9
$DIMDLI
 40
0.38
  9
$DIMRND
 40
0.0
  9
$DIMDLE
 40
0.0
  9
$DIMEXE
 40
0.18
  9
$DIMTP
 40
0.0
  9
$DIMTM
 40
0.0
  9
$DIMTXT
 40
0.18
  9
$DIMCEN
 40
0.09
  9
$DIMTSZ
 40
0.0
  9
$DIMTOL
 70
     0
  9
$DIMLIM
 70
     0
  9
$DIMTIH
 70
     1
  9
$DIMTOH
 70
     1
  9
$DIMSE1
 70
     0
  9
$DIMSE2
 70
     0
  9
$DIMTAD
 70
     0
  9
$DIMZIN
 70
     0
  9
$DIMBLK
  1

  9
$DIMASO
 70
     1
  9
$DIMSHO
 70
     1
  9
$DIMPOST
  1

  9
$DIMAPOST
  1

  9
$DIMALT
 70
     0
  9
$DIMALTD
 70
     2
  9
$DIMALTF
 40
25.4
  9
$DIMLFAC
 40
1.0
  9
$DIMTOFL
 70
     0
  9
$DIMTVP
 40
0.0
  9
$DIMTIX
 70
     0
  9
$DIMSOXD
 70
     0
  9
$DIMSAH
 70
     0
  9
$DIMBLK1
  1

  9
$DIMBLK2
  1

  9
$DIMSTYLE
  2
Standard
  9
$DIMCLRD
 70
     0
  9
$DIMCLRE
 70
     0
  9
$DIMCLRT
 70
     0
  9
$DIMTFAC
 40
1.0
  9
$DIMGAP
 40
0.09
  9
$DIMJUST
 70
     0
  9
$DIMSD1
 70
     0
  9
$DIMSD2
 70
     0
  9
$DIMTOLJ
 70
     1
  9
$DIMTZIN
 70
     0
  9
$DIMALTZ
 70
     0
  9
$DIMALTTZ
 70
     0
  9
$DIMUPT
 70
     0
  9
$DIMDEC
 70
     4
  9
$DIMTDEC
 70
     4
  9
$DIMALTU
 70
     2
  9
$DIMALTTD
 70
     2
  9
$DIMTXSTY
  7
Standard
  9
$DIMAUNIT
 70
     0
  9
$DIMADEC
 70
     0
  9
$DIMALTRND
 40
0.0
  9
$DIMAZIN
 70
     0
  9
$DIMDSEP
 70
    46
  9
$DIMATFIT
 70
     3
  9
$DIMFRAC
 70
     0
  9
$DIMLDRBLK
  1

  9
$DIMLUNIT
 70
     2
  9
$DIMLWD
 70
    -2
  9
$DIMLWE
 70
    -2
  9
$DIMTMOVE
 70
     0
  9
$LUNITS
 70
     2
  9
$LUPREC
 70
     4
  9
$SKETCHINC
 40
0.1
  9
$FILLETRAD
 40
0.5
  9
$AUNITS
 70
     0
  9
$AUPREC
 70
     0
  9
$MENU
  1
.
  9
$ELEVATION
 40
0.0
  9
$PELEVATION
 40
0.0
  9
$THICKNESS
 40
0.0
  9
$LIMCHECK
 70
     0
  9
$CHAMFERA
 40
0.5
  9
$CHAMFERB
 40
0.5
  9
$CHAMFERC
 40
1.0
  9
$CHAMFERD
 40
0.0
  9
$SKPOLY
 70
     0
  9
$TDCREATE
 40
2457203.632669745
  9
$TDUCREATE
 40
2457203.549336412
  9
$TDUPDATE
 40
2457203.632670718
  9
$TDUUPDATE
 40
2457203.549337384
  9
$TDINDWG
 40
0.0000000116
  9
$TDUSRTIMER
 40
0.0000000116
  9
$USRTIMER
 70
     1
  9
$ANGBASE
 50
0.0
  9
$ANGDIR
 70
     0
  9
$PDMODE
 70
     0
  9
$PDSIZE
 40
0.0
  9
$PLINEWID
 40
0.0
  9
$SPLFRAME
 70
     0
  9
$SPLINETYPE
 70
     6
  9
$SPLINESEGS
 70
     8
  9
$HANDSEED
  5
470
  9
$SURFTAB1
 70
     6
  9
$SURFTAB2
 70
     6
  9
$SURFTYPE
 70
     6
  9
$SURFU
 70
     6
  9
$SURFV
 70
     6
  9
$UCSBASE
  2

  9
$UCSNAME
  2

  9
$UCSORG
 10
0.0
 20
0.0
 30
0.0
  9
$UCSXDIR
 10
1.0
 20
0.0
 30
0.0
  9
$UCSYDIR
 10
0.0
 20
1.0
 30
0.0
  9
$UCSORTHOREF
  2

  9
$UCSORTHOVIEW
 70
     0
  9
$UCSORGTOP
 10
0.0
 20
0.0
 30
0.0
  9
$UCSORGBOTTOM
 10
0.0
 20
0.0
 30
0.0
  9
$UCSORGLEFT
 10
0.0
 20
0.0
 30
0.0
  9
$UCSORGRIGHT
 10
0.0
 20
0.0
 30
0.0
  9
$UCSORGFRONT
 10
0.0
 20
0.0
 30
0.0
  9
$UCSORGBACK
 10
0.0
 20
0.0
 30
0.0
  9
$PUCSBASE
  2

  9
$PUCSNAME
  2

  9
$PUCSORG
 10
0.0
 20
0.0
 30
0.0
  9
$PUCSXDIR
 10
1.0
 20
0.0
 30
0.0
  9
$PUCSYDIR
 10
0.0
 20
1.0
 30
0.0
  9
$PUCSORTHOREF
  2

  9
$PUCSORTHOVIEW
 70
     0
  9
$PUCSORGTOP
 10
0.0
 20
0.0
 30
0.0
  9
$PUCSORGBOTTOM
 10
0.0
 20
0.0
 30
0.0
  9
$PUCSORGLEFT
 10
0.0
 20
0.0
 30
0.0
  9
$PUCSORGRIGHT
 10
0.0
 20
0.0
 30
0.0
  9
$PUCSORGFRONT
 10
0.0
 20
0.0
 30
0.0
  9
$PUCSORGBACK
 10
0.0
 20
0.0
 30
0.0
  9
$USERI1
 70
     0
  9
$USERI2
 70
     0
  9
$USERI3
 70
     0
  9
$USERI4
 70
     0
  9
$USERI5
 70
     0
  9
$USERR1
 40
18.1
  9
$USERR2
 40
0.0
  9
$USERR3
 40
0.0
  9
$USERR4
 40
0.0
  9
$USERR5
 40
0.0
  9
$WORLDVIEW
 70
     1
  9
$SHADEDGE
 70
     3
  9
$SHADEDIF
 70
    70
  9
$TILEMODE
 70
     1
  9
$MAXACTVP
 70
    64
  9
$PINSBASE
 10
0.0
 20
0.0
 30
0.0
  9
$PLIMCHECK
 70
     0
  9
$PEXTMIN
 10
1.00000000000000E+20
 20
1.00000000000000E+20
 30
1.00000000000000E+20
  9
$PEXTMAX
 10
-1.00000000000000E+20
 20
-1.00000000000000E+20
 30
-1.00000000000000E+20
  9
$PLIMMIN
 10
0.0
 20
0.0
  9
$PLIMMAX
 10
12.0
 20
9.0
  9
$UNITMODE
 70
     0
  9
$VISRETAIN
 70
     1
  9
$PLINEGEN
 70
     0
  9
$PSLTSCALE
 70
     1
  9
$TREEDEPTH
 70
  3020
  9
$CMLSTYLE
  2
Standard
  9
$CMLJUST
 70
     0
  9
$CMLSCALE
 40
1.0
  9
$PROXYGRAPHICS
 70
     1
  9
$MEASUREMENT
 70
     1
  9
$CELWEIGHT
370
    -1
  9
$ENDCAPS
280
     0
  9
$JOINSTYLE
280
     0
  9
$LWDISPLAY
290
     0
  9
$INSUNITS
 70
     4
  9
$HYPERLINKBASE
  1

  9
$STYLESHEET
  1

  9
$XEDIT
290
     1
  9
$CEPSNTYPE
380
     0
  9
$PSTYLEMODE
290
     1
  9
$FINGERPRINTGUID
  2
{EC462AC6-367C-46E4-A1F8-C994C11537AE}
  9
$VERSIONGUID
  2
{FAEB1C32-E019-11D5-929B-00C0DF256EC4}
  9
$EXTNAMES
290
     1
  9
$PSVPSCALE
 40
0.0
  9
$OLESTARTUP
290
     0
  0
ENDSEC
  0
SECTION
  2
CLASSES
  0
CLASS
  1
ACDBDICTIONARYWDFLT
  2
AcDbDictionaryWithDefault
  3
ObjectDBX Classes
 90
        0
280
     0
281
     0
  0
CLASS
  1
VISUALSTYLE
  2
AcDbVisualStyle
  3
ObjectDBX Classes
 90
     4095
280
     0
281
     0
  0
CLASS
  1
MATERIAL
  2
AcDbMaterial
  3
ObjectDBX Classes
 90
     1153
280
     0
281
     0
  0
CLASS
  1
DICTIONARYVAR
  2
AcDbDictionaryVar
  3
ObjectDBX Classes
 90
        0
280
     0
281
     0
  0
CLASS
  1
ACDBPLACEHOLDER
  2
AcDbPlaceHolder
  3
ObjectDBX Classes
 90
        0
280
     0
281
     0
  0
CLASS
  1
LAYOUT
  2
AcDbLayout
  3
ObjectDBX Classes
 90
        0
280
     0
281
     0
  0
ENDSEC
  0
SECTION
  2
TABLES
  0
TABLE
  2
VPORT
  5
8
330
0
100
AcDbSymbolTable
 70
     1
  0
VPORT
  5
29
330
8
100
AcDbSymbolTableRecord
100
AcDbViewportTableRecord
  2
*Active
 70
     0
 10
0.0
 20
0.0
 11
1.0
 21
1.0
 12
106.9514689224382
 22
853.9912841497558
 13
0.0
 23
0.0
 14
0.5
 24
0.5
 15
0.5
 25
0.5
 16
0.0
 26
0.0
 36
1.0
 17
0.0
 27
0.0
 37
0.0
 40
326.7000000000005
 41
1.60267857142857
 42
50.0
 43
0.0
 44
0.0
 50
0.0
 51
0.0
 71
     0
 72
   100
 73
     1
 74
     3
 75
     0
 76
     0
 77
     0
 78
     0
281
     0
 65
     1
110
0.0
120
0.0
130
0.0
111
1.0
121
0.0
131
0.0
112
0.0
122
1.0
132
0.0
 79
     0
146
0.0
  0
ENDTAB
  0
TABLE
  2
LTYPE
  5
5
330
0
100
AcDbSymbolTable
 70
     8
  0
LTYPE
  5
14
330
5
100
AcDbSymbolTableRecord
100
AcDbLinetypeTableRecord
  2
ByBlock
 70
     0
  3

 72
    65
 73
     0
 40
0.0
  0
LTYPE
  5
15
330
5
100
AcDbSymbolTableRecord
100
AcDbLinetypeTableRecord
  2
ByLayer
 70
     0
  3

 72
    65
 73
     0
 40
0.0
  0
LTYPE
  5
16
330
5
100
AcDbSymbolTableRecord
100
AcDbLinetypeTableRecord
  2
Continuous
 70
     0
  3
Solid line
 72
    65
 73
     0
 40
0.0
  0
LTYPE
  5
3F
330
5
100
AcDbSymbolTableRecord
100
AcDbLinetypeTableRecord
  2
DASHED
 70
     0
  3
Dashed
 72
    65
 73
     2
 40
15.0
 49
7.0
 74
     0
 49
-8.0
 74
     0
  0
LTYPE
  5
40
330
5
100
AcDbSymbolTableRecord
100
AcDbLinetypeTableRecord
  2
DOTTED
 70
     0
  3
Dotted
 72
    65
 73
     2
 40
1.0
 49
0.0
 74
     0
 49
-1.0
 74
     0
  0
LTYPE
  5
41
330
5
100
AcDbSymbolTableRecord
100
AcDbLinetypeTableRecord
  2
DOT_CENTER
 70
     0
  3
Dot_Center
 72
    65
 73
     4
 40
14.0
 49
12.0
 74
     0
 49
-1.0
 74
     0
 49
0.0
 74
     0
 49
-1.0
 74
     0
  0
LTYPE
  5
42
330
5
100
AcDbSymbolTableRecord
100
AcDbLinetypeTableRecord
  2
LONG_DASHED
 70
     0
  3
Long_Dashed
 72
    65
 73
     2
 40
15.0
 49
10.0
 74
     0
 49
-5.0
 74
     0
  0
LTYPE
  5
43
330
5
100
AcDbSymbolTableRecord
100
AcDbLinetypeTableRecord
  2
DASH_CENTER
 70
     0
  3
Dash_Center
 72
    65
 73
     4
 40
14.0
 49
11.0
 74
     0
 49
-1.0
 74
     0
 49
1.0
 74
     0
 49
-1.0
 74
     0
  0
LTYPE
  5
44
330
5
100
AcDbSymbolTableRecord
100
AcDbLinetypeTableRecord
  2
PHANTOM
 70
     0
  3
Phantom
 72
    65
 73
     6
 40
13.0
 49
10.0
 74
     0
 49
-1.0
 74
     0
 49
0.0
 74
     0
 49
-1.0
 74
     0
 49
0.0
 74
     0
 49
-1.0
 74
     0
  0
LTYPE
  5
45
330
5
100
AcDbSymbolTableRecord
100
AcDbLinetypeTableRecord
  2
CENTER_DASH_DASH
 70
     0
  3
Center_Dash_Dash
 72
    65
 73
     6
 40
14.0
 49
9.0
 74
     0
 49
-1.0
 74
     0
 49
1.0
 74
     0
 49
-1.0
 74
     0
 49
1.0
 74
     0
 49
-1.0
 74
     0
  0
ENDTAB
  0
TABLE
  2
LAYER
  5
2
330
0
100
AcDbSymbolTable
 70
     2
  0
LAYER
  5
10
330
2
100
AcDbSymbolTableRecord
100
AcDbLayerTableRecord
  2
0
 70
     0
 62
     7
  6
Continuous
370
    -3
390
F
  0
LAYER
  5
46
330
2
100
AcDbSymbolTableRecord
100
AcDbLayerTableRecord
  2
1
 70
     0
 62
     7
  6
Continuous
370
    -3
390
F
  0
ENDTAB
  0
TABLE
  2
STYLE
  5
3
330
0
100
AcDbSymbolTable
 70
     9
  0
STYLE
  5
11
330
3
100
AcDbSymbolTableRecord
100
AcDbTextStyleTableRecord
  2
Standard
 70
     0
 40
0.0
 41
1.0
 50
0.0
 71
     0
 42
0.2
  3
txt
  4

  0
STYLE
  5
114
330
3
100
AcDbSymbolTableRecord
100
AcDbTextStyleTableRecord
  2
CONVERTER_11
 70
     0
 40
0.0
 41
0.9
 50
0.0
 71
     0
 42
0.2
  3
txt.shx
  4

  0
STYLE
  5
3C1
330
3
100
AcDbSymbolTableRecord
100
AcDbTextStyleTableRecord
  2
CONVERTER_12
 70
     0
 40
0.0
 41
0.81
 50
0.0
 71
     0
 42
0.2
  3
txt.shx
  4

  0
STYLE
  5
3C3
330
3
100
AcDbSymbolTableRecord
100
AcDbTextStyleTableRecord
  2
CONVERTER_13
 70
     0
 40
0.0
 41
0.54
 50
0.0
 71
     0
 42
0.2
  3
txt.shx
  4

  0
STYLE
  5
3C5
330
3
100
AcDbSymbolTableRecord
100
AcDbTextStyleTableRecord
  2
CONVERTER_14
 70
     0
 40
0.0
 41
0.72
 50
0.0
 71
     0
 42
0.2
  3
txt.shx
  4

  0
STYLE
  5
3C7
330
3
100
AcDbSymbolTableRecord
100
AcDbTextStyleTableRecord
  2
CONVERTER_15
 70
     0
 40
0.0
 41
0.63
 50
0.0
 71
     0
 42
0.2
  3
txt.shx
  4

  0
STYLE
  5
3CB
330
3
100
AcDbSymbolTableRecord
100
AcDbTextStyleTableRecord
  2
CONVERTER_16
 70
     0
 40
0.0
 41
0.45
 50
0.0
 71
     0
 42
0.2
  3
txt.shx
  4

  0
STYLE
  5
400
330
3
100
AcDbSymbolTableRecord
100
AcDbTextStyleTableRecord
  2
CONVERTER_17
 70
     0
 40
0.0
 41
0.855
 50
0.0
 71
     0
 42
0.2
  3
txt.shx
  4

  0
STYLE
  5
422
330
3
100
AcDbSymbolTableRecord
100
AcDbTextStyleTableRecord
  2
CONVERTER_18
 70
     0
 40
0.0
 41
0.765
 50
0.0
 71
     0
 42
0.2
  3
txt.shx
  4

  0
ENDTAB
  0
TABLE
  2
VIEW
  5
6
330
0
100
AcDbSymbolTable
 70
     0
  0
ENDTAB
  0
TABLE
  2
UCS
  5
7
330
0
100
AcDbSymbolTable
 70
     0
  0
ENDTAB
  0
TABLE
  2
APPID
  5
9
330
0
100
AcDbSymbolTable
 70
     1
  0
APPID
  5
12
330
9
100
AcDbSymbolTableRecord
100
AcDbRegAppTableRecord
  2
ACAD
 70
     0
  0
ENDTAB
  0
TABLE
  2
DIMSTYLE
  5
A
330
0
100
AcDbSymbolTable
 70
     5
100
AcDbDimStyleTable
  0
DIMSTYLE
105
27
330
A
100
AcDbSymbolTableRecord
100
AcDbDimStyleTableRecord
  2
Standard
 70
     0
178
     0
340
11
  0
DIMSTYLE
105
19C
102
{ACAD_REACTORS
330
19D
102
}
330
A
100
AcDbSymbolTableRecord
100
AcDbDimStyleTableRecord
  2
ME10_DIM_10
 70
     0
 41
3.5
 42
0.0
 44
2.0
 73
     0
 74
     0
 77
     1
 78
     8
140
3.5
147
2.0
172
     1
173
     1
174
     1
175
     1
176
     2
177
     2
271
     1
178
     3
271
     1
340
114
  0
DIMSTYLE
105
1A7
102
{ACAD_REACTORS
330
1A8
102
}
330
A
100
AcDbSymbolTableRecord
100
AcDbDimStyleTableRecord
  2
ME10_DIM_11
 70
     0
 41
3.5
 42
0.0
 44
2.0
 73
     0
 74
     0
 77
     1
 78
     8
140
3.5
147
2.0
172
     1
173
     1
174
     1
175
     1
176
     2
177
     2
271
     1
178
     3
271
     1
340
114
  0
DIMSTYLE
105
1B2
102
{ACAD_REACTORS
330
1B3
102
}
330
A
100
AcDbSymbolTableRecord
100
AcDbDimStyleTableRecord
  2
ME10_DIM_12
 70
     0
 41
3.5
 42
0.0
 44
2.0
 73
     0
 74
     0
 77
     1
 78
     8
140
3.5
147
2.0
172
     1
173
     1
174
     1
175
     1
176
     2
177
     2
271
     1
178
     3
271
     1
340
114
  0
DIMSTYLE
105
236
102
{ACAD_REACTORS
330
237
102
}
330
A
100
AcDbSymbolTableRecord
100
AcDbDimStyleTableRecord
  2
ME10_DIM_13
 70
     0
 41
3.5
 42
0.0
 44
2.0
 73
     0
 74
     0
 77
     1
 78
     8
140
3.5
147
2.0
172
     1
173
     1
174
     1
175
     1
176
     2
177
     2
271
     1
178
     3
271
     1
340
114
  0
ENDTAB
  0
TABLE
  2
BLOCK_RECORD
  5
1
330
0
100
AcDbSymbolTable
 70
    20
  0
BLOCK_RECORD
  5
1F
330
1
100
AcDbSymbolTableRecord
100
AcDbBlockTableRecord
  2
*Model_Space
340
22
  0
BLOCK_RECORD
  5
1B
330
1
100
AcDbSymbolTableRecord
100
AcDbBlockTableRecord
  2
*Paper_Space
340
1E
  0
BLOCK_RECORD
  5
23
330
1
100
AcDbSymbolTableRecord
100
AcDbBlockTableRecord
  2
*Paper_Space0
340
26
  0
BLOCK_RECORD
  5
47
330
1
100
AcDbSymbolTableRecord
100
AcDbBlockTableRecord
  2
3240257_WCC_34-select__1
340
0
102
{BLKREFS
331
4B
102
}
  0
BLOCK_RECORD
  5
4A
330
1
100
AcDbSymbolTableRecord
100
AcDbBlockTableRecord
  2
Allg1
340
0
102
{BLKREFS
331
7C
102
}
  0
BLOCK_RECORD
  5
4E
330
1
100
AcDbSymbolTableRecord
100
AcDbBlockTableRecord
  2
3240257_WCC_34-select__2
340
0
102
{BLKREFS
331
52
102
}
  0
BLOCK_RECORD
  5
51
330
1
100
AcDbSymbolTableRecord
100
AcDbBlockTableRecord
  2
Drfsicht1
340
0
102
{BLKREFS
331
7D
102
}
  0
BLOCK_RECORD
  5
55
330
1
100
AcDbSymbolTableRecord
100
AcDbBlockTableRecord
  2
3240257_WCC_34-select__3
340
0
102
{BLKREFS
331
59
102
}
  0
BLOCK_RECORD
  5
58
330
1
100
AcDbSymbolTableRecord
100
AcDbBlockTableRecord
  2
Rckans1
340
0
102
{BLKREFS
331
7E
102
}
  0
BLOCK_RECORD
  5
5C
330
1
100
AcDbSymbolTableRecord
100
AcDbBlockTableRecord
  2
3240257_WCC_34-select__4
340
0
102
{BLKREFS
331
60
102
}
  0
BLOCK_RECORD
  5
5F
330
1
100
AcDbSymbolTableRecord
100
AcDbBlockTableRecord
  2
SA_Links1
340
0
102
{BLKREFS
331
7F
102
}
  0
BLOCK_RECORD
  5
63
330
1
100
AcDbSymbolTableRecord
100
AcDbBlockTableRecord
  2
3240257_WCC_34-select__5
340
0
102
{BLKREFS
331
67
102
}
  0
BLOCK_RECORD
  5
66
330
1
100
AcDbSymbolTableRecord
100
AcDbBlockTableRecord
  2
SA_Rechts1
340
0
102
{BLKREFS
331
80
102
}
  0
BLOCK_RECORD
  5
6A
330
1
100
AcDbSymbolTableRecord
100
AcDbBlockTableRecord
  2
3240257_WCC_34-select__6
340
0
102
{BLKREFS
331
6E
102
}
  0
BLOCK_RECORD
  5
6D
330
1
100
AcDbSymbolTableRecord
100
AcDbBlockTableRecord
  2
Vordans1
340
0
102
{BLKREFS
331
81
102
}
  0
BLOCK_RECORD
  5
71
330
1
100
AcDbSymbolTableRecord
100
AcDbBlockTableRecord
  2
_rahmen
340
0
102
{BLKREFS
331
78
102
}
  0
BLOCK_RECORD
  5
74
330
1
100
AcDbSymbolTableRecord
100
AcDbBlockTableRecord
  2
_punkt
340
0
102
{BLKREFS
331
79
102
}
  0
BLOCK_RECORD
  5
77
330
1
100
AcDbSymbolTableRecord
100
AcDbBlockTableRecord
  2
A3I
340
0
102
{BLKREFS
331
82
102
}
  0
BLOCK_RECORD
  5
193
330
1
100
AcDbSymbolTableRecord
100
AcDbBlockTableRecord
  2
*D16
340
0
  0
BLOCK_RECORD
  5
19E
330
1
100
AcDbSymbolTableRecord
100
AcDbBlockTableRecord
  2
*D17
340
0
  0
BLOCK_RECORD
  5
1A9
330
1
100
AcDbSymbolTableRecord
100
AcDbBlockTableRecord
  2
*D18
340
0
  0
BLOCK_RECORD
  5
22D
330
1
100
AcDbSymbolTableRecord
100
AcDbBlockTableRecord
  2
*D19
340
0
  0
ENDTAB
  0
ENDSEC
  0
SECTION
  2
BLOCKS
  0
BLOCK
  5
20
330
1F
100
AcDbEntity
  8
0
100
AcDbBlockBegin
  2
*Model_Space
 70
     0
 10
0.0
 20
0.0
 30
0.0
  3
*Model_Space
  1

  0
ENDBLK
  5
21
330
1F
100
AcDbEntity
  8
0
100
AcDbBlockEnd
  0
BLOCK
  5
1C
330
1B
100
AcDbEntity
 67
     1
  8
0
100
AcDbBlockBegin
  2
*Paper_Space
 70
     0
 10
0.0
 20
0.0
 30
0.0
  3
*Paper_Space
  1

  0
ENDBLK
  5
1D
330
1B
100
AcDbEntity
 67
     1
  8
0
100
AcDbBlockEnd
  0
BLOCK
  5
24
330
23
100
AcDbEntity
  8
0
100
AcDbBlockBegin
  2
*Paper_Space0
 70
     0
 10
0.0
 20
0.0
 30
0.0
  3
*Paper_Space0
  1

  0
ENDBLK
  5
25
330
23
100
AcDbEntity
  8
0
100
AcDbBlockEnd
  0
BLOCK
  5
48
330
47
100
AcDbEntity
  8
0
100
AcDbBlockBegin
  2
3240257_WCC_34-select__1
 70
     0
 10
244.5459083416578
 20
764.1780067199936
 30
0.0
  3
3240257_WCC_34-select__1
  1

  0
LINE
  5
83
330
47
100
AcDbEntity
  8
0
  6
Continuous
 62
     7
100
AcDbLine
 10
249.1974039662855
 20
797.9770335898587
 30
0.0
 11
247.052478202065
 21
798.5962203235409
 31
0.0
  0
LINE
  5
84
330
47
100
AcDbEntity
  8
0
  6
Continuous
 62
     7
100
AcDbLine
 10
246.3449464473345
 20
773.3030067199936
 30
0.0
 11
246.3449464473345
 21
776.0309867419146
 31
0.0
  0
LINE
  5
85
330
47
100
AcDbEntity
  8
0
  6
Continuous
 62
     7
100
AcDbLine
 10
245.8449464473345
 20
784.9510484008943
 30
0.0
 11
245.8449464473345
 21
812.4432262630637
 31
0.0
  0
LINE
  5
86
330
47
100
AcDbEntity
  8
0
  6
Continuous
 62
     2
100
AcDbLine
 10
245.8449464473345
 20
812.4432262630637
 30
0.0
 11
250.3322190065856
 21
816.32931829308
 31
0.0
  0
LINE
  5
87
330
47
100
AcDbEntity
  8
0
  6
Continuous
 62
     7
100
AcDbLine
 10
245.6027670070401
 20
815.3478709931559
 30
0.0
 11
257.6027670070401
 21
825.7401758385691
 31
0.0
  0
LINE
  5
88
330
47
100
AcDbEntity
  8
0
  6
Continuous
 62
     7
100
AcDbLine
 10
289.4548736854665
 20
789.5958523210669
 30
0.0
 11
284.7548736854665
 21
780.82553292328
 31
0.0
  0
LINE
  5
89
330
47
100
AcDbEntity
  8
0
  6
Continuous
 62
     7
100
AcDbLine
 10
284.7548736854665
 20
780.82553292328
 30
0.0
 11
284.7548736854665
 21
775.6199594876488
 31
0.0
  0
LINE
  5
8A
330
47
100
AcDbEntity
  8
0
  6
Continuous
 62
     7
100
AcDbLine
 10
288.9548736854665
 20
776.4322661835434
 30
0.0
 11
288.9548736854665
 21
772.5239440509033
 31
0.0
  0
LINE
  5
8B
330
47
100
AcDbEntity
  8
0
  6
Continuous
 62
     7
100
AcDbLine
 10
288.9548736854665
 20
772.5239440509033
 30
0.0
 11
286.2048736854665
 21
768.5947362792942
 31
0.0
  0
LINE
  5
8C
330
47
100
AcDbEntity
  8
0
  6
Continuous
 62
     7
100
AcDbLine
 10
284.7548736854665
 20
775.6199594876488
 30
0.0
 11
287.5798736854665
 21
775.2414812533398
 31
0.0
  0
LINE
  5
8D
330
47
100
AcDbEntity
  8
0
  6
Continuous
 62
     7
100
AcDbLine
 10
279.6548736854664
 20
768.3782299283481
 30
0.0
 11
279.6548736854664
 21
775.2091815634883
 31
0.0
  0
LINE
  5
8E
330
47
100
AcDbEntity
  8
0
  6
Continuous
 62
     7
100
AcDbLine
 10
287.6558355797898
 20
776.8072661835434
 30
0.0
 11
286.2808355797898
 21
775.6164812533398
 31
0.0
  0
LINE
  5
8F
330
47
100
AcDbEntity
  8
0
  6
Continuous
 62
     2
100
AcDbLine
 10
277.4548736854665
 20
803.3182262630637
 30
0.0
 11
289.4548736854665
 21
813.710531108477
 31
0.0
  0
LINE
  5
90
330
47
100
AcDbEntity
  8
0
  6
Continuous
 62
     7
100
AcDbLine
 10
289.4548736854665
 20
813.710531108477
 30
0.0
 11
289.4548736854665
 21
789.5958523210669
 31
0.0
  0
LINE
  5
91
330
47
100
AcDbEntity
  8
0
  6
Continuous
 62
     7
100
AcDbLine
 10
256.0459083416578
 20
785.9322661835434
 30
0.0
 11
257.3449464473345
 21
785.5572661835434
 31
0.0
  0
LINE
  5
92
330
47
100
AcDbEntity
  8
0
  6
Continuous
 62
     7
100
AcDbLine
 10
255.9699464473345
 20
784.3664812533398
 30
0.0
 11
257.3449464473345
 21
785.5572661835434
 31
0.0
  0
LINE
  5
93
330
47
100
AcDbEntity
  8
0
  6
Continuous
 62
     7
100
AcDbLine
 10
257.3449464473345
 20
785.5572661835434
 30
0.0
 11
257.3449464473345
 21
781.6489440509033
 31
0.0
  0
LINE
  5
94
330
47
100
AcDbEntity
  8
0
  6
Continuous
 62
     7
100
AcDbLine
 10
253.1449464473345
 20
789.95053292328
 30
0.0
 11
253.1449464473345
 21
784.7449594876488
 31
0.0
  0
LINE
  5
95
330
47
100
AcDbEntity
  8
0
  6
Continuous
 62
     7
100
AcDbLine
 10
257.8449464473345
 20
798.7208523210669
 30
0.0
 11
253.1449464473345
 21
789.95053292328
 31
0.0
  0
LINE
  5
96
330
47
100
AcDbEntity
  8
0
  6
Continuous
 62
     7
100
AcDbLine
 10
256.0459083416578
 20
785.9322661835434
 30
0.0
 11
254.6709083416578
 21
784.7414812533398
 31
0.0
  0
LINE
  5
97
330
47
100
AcDbEntity
  8
0
  6
Continuous
 62
     7
100
AcDbLine
 10
257.3449464473345
 20
781.6489440509033
 30
0.0
 11
254.5949464473345
 21
777.7197362792942
 31
0.0
  0
LINE
  5
98
330
47
100
AcDbEntity
  8
0
  6
Continuous
 62
     7
100
AcDbLine
 10
257.8449464473345
 20
802.0601455235908
 30
0.0
 11
257.8449464473345
 21
798.7208523210669
 31
0.0
  0
LINE
  5
99
330
47
100
AcDbEntity
  8
0
  6
Continuous
 62
     7
100
AcDbLine
 10
264.0003910135621
 20
810.4972261016467
 30
0.0
 11
264.0003910135621
 21
815.3311496081259
 31
0.0
  0
LINE
  5
9A
330
47
100
AcDbEntity
  8
0
  6
Continuous
 62
     7
100
AcDbLine
 10
254.846706836125
 20
807.221826854413
 30
0.0
 11
264.0003910135621
 21
815.1491498902933
 31
0.0
  0
LINE
  5
9B
330
47
100
AcDbEntity
  8
0
  6
Continuous
 62
     7
100
AcDbLine
 10
254.846706836125
 20
803.9095917923485
 30
0.0
 11
254.846706836125
 21
807.221826854413
 31
0.0
  0
LINE
  5
9C
330
47
100
AcDbEntity
  8
0
  6
Continuous
 62
     7
100
AcDbLine
 10
254.846706836125
 20
806.2032729571703
 30
0.0
 11
249.3416249408185
 21
801.4357321859211
 31
0.0
  0
LINE
  5
9D
330
47
100
AcDbEntity
  8
0
  6
Continuous
 62
     7
100
AcDbLine
 10
249.1974039662855
 20
797.9770335898587
 30
0.0
 11
252.7854517637217
 21
801.0843741324313
 31
0.0
  0
LINE
  5
9E
330
47
100
AcDbEntity
  8
0
  6
Continuous
 62
     7
100
AcDbLine
 10
267.4040751909993
 20
803.596826854413
 30
0.0
 11
267.4040751909993
 21
800.2845917923485
 31
0.0
  0
LINE
  5
9F
330
47
100
AcDbEntity
  8
0
  6
Continuous
 62
     7
100
AcDbLine
 10
267.4040751909993
 20
803.596826854413
 30
0.0
 11
273.1999694501031
 21
808.6162185204453
 31
0.0
  0
LINE
  5
A0
330
47
100
AcDbEntity
  8
0
  6
Continuous
 62
     7
100
AcDbLine
 10
267.4040751909993
 20
800.2845917923485
 30
0.0
 11
274.8128741738003
 21
806.7007999229863
 31
0.0
  0
LINE
  5
A1
330
47
100
AcDbEntity
  8
0
  6
Continuous
 62
     7
100
AcDbLine
 10
257.8449464473345
 20
817.0832087938071
 30
0.0
 11
257.8449464473345
 21
809.8183785243533
 31
0.0
  0
LINE
  5
A2
330
47
100
AcDbEntity
  8
0
  6
Continuous
 62
     7
100
AcDbLine
 10
254.846706836125
 20
807.221826854413
 30
0.0
 11
267.4040751909993
 21
803.596826854413
 31
0.0
  0
LINE
  5
A3
330
47
100
AcDbEntity
  8
0
  6
Continuous
 62
     7
100
AcDbLine
 10
270.0003910135621
 20
810.4972261016467
 30
0.0
 11
270.0003910135621
 21
811.6284302537713
 31
0.0
  0
LINE
  5
A4
330
47
100
AcDbEntity
  8
0
  6
Continuous
 62
     7
100
AcDbLine
 10
254.6709083416578
 20
784.7414812533398
 30
0.0
 11
255.9699464473345
 21
784.3664812533398
 31
0.0
  0
LINE
  5
A5
330
47
100
AcDbEntity
  8
0
  6
Continuous
 62
     7
100
AcDbLine
 10
253.1449464473345
 20
784.7449594876488
 30
0.0
 11
255.9699464473345
 21
784.3664812533398
 31
0.0
  0
LINE
  5
A6
330
47
100
AcDbEntity
  8
0
  6
Continuous
 62
     7
100
AcDbLine
 10
254.6709083416578
 20
784.7414812533398
 30
0.0
 11
253.1449464473345
 21
784.9459213819721
 31
0.0
  0
LINE
  5
A7
330
47
100
AcDbEntity
  8
0
  6
Continuous
 62
     7
100
AcDbLine
 10
248.0449464473344
 20
784.3341815634883
 30
0.0
 11
245.8449464473345
 21
784.9510484008943
 31
0.0
  0
LINE
  5
A8
330
47
100
AcDbEntity
  8
0
  6
Continuous
 62
     7
100
AcDbLine
 10
270.1932113365897
 20
840.0018974514529
 30
0.0
 11
272.0003910135621
 21
839.4802096149658
 31
0.0
  0
LINE
  5
A9
330
47
100
AcDbEntity
  8
0
  6
Continuous
 62
     7
100
AcDbLine
 10
272.0003910135621
 20
836.5934582690177
 30
0.0
 11
267.0003910135621
 21
835.1500825960437
 31
0.0
  0
LINE
  5
AA
330
47
100
AcDbEntity
  8
0
  6
Continuous
 62
     7
100
AcDbLine
 10
272.0003910135621
 20
833.12935665388
 30
0.0
 11
272.0003910135621
 21
836.5934582690177
 31
0.0
  0
LINE
  5
AB
330
47
100
AcDbEntity
  8
0
  6
Continuous
 62
     7
100
AcDbLine
 10
272.0003910135621
 20
833.12935665388
 30
0.0
 11
267.0003910135621
 21
831.6859809809059
 31
0.0
  0
LINE
  5
AC
330
47
100
AcDbEntity
  8
0
  6
Continuous
 62
     7
100
AcDbLine
 10
267.0003910135621
 20
840.9235852879399
 30
0.0
 11
268.8075706905346
 21
840.4018974514529
 31
0.0
  0
LINE
  5
AD
330
47
100
AcDbEntity
  8
0
  6
Continuous
 62
     7
100
AcDbLine
 10
268.9932113365897
 20
838.9626669669116
 30
0.0
 11
268.8075706905346
 21
839.0162568053978
 31
0.0
  0
LINE
  5
AE
330
47
100
AcDbEntity
  8
0
  6
Continuous
 62
     7
100
AcDbLine
 10
268.8075706905346
 20
839.0162568053978
 30
0.0
 11
268.8075706905346
 21
840.4018974514529
 31
0.0
  0
LINE
  5
AF
330
47
100
AcDbEntity
  8
0
  6
Continuous
 62
     7
100
AcDbLine
 10
262.0003910135621
 20
839.4802096149658
 30
0.0
 11
267.0003910135621
 21
840.9235852879399
 31
0.0
  0
LINE
  5
B0
330
47
100
AcDbEntity
  8
0
  6
Continuous
 62
     7
100
AcDbLine
 10
262.0003910135621
 20
836.5934582690177
 30
0.0
 11
262.0003910135621
 21
839.4802096149658
 31
0.0
  0
LINE
  5
B1
330
47
100
AcDbEntity
  8
0
  6
Continuous
 62
     7
100
AcDbLine
 10
262.0003910135621
 20
833.12935665388
 30
0.0
 11
262.0003910135621
 21
836.5934582690177
 31
0.0
  0
LINE
  5
B2
330
47
100
AcDbEntity
  8
0
  6
Continuous
 62
     7
100
AcDbLine
 10
263.8075706905346
 20
836.0717704325307
 30
0.0
 11
263.8075706905346
 21
834.6861297864756
 31
0.0
  0
LINE
  5
B3
330
47
100
AcDbEntity
  8
0
  6
Continuous
 62
     7
100
AcDbLine
 10
265.1932113365897
 20
834.2861297864756
 30
0.0
 11
265.1932113365897
 21
835.6717704325307
 31
0.0
  0
LINE
  5
B4
330
47
100
AcDbEntity
  8
0
  6
Continuous
 62
     7
100
AcDbLine
 10
267.0003910135621
 20
831.6859809809059
 30
0.0
 11
267.0003910135621
 21
835.1500825960437
 31
0.0
  0
LINE
  5
B5
330
47
100
AcDbEntity
  8
0
  6
Continuous
 62
     7
100
AcDbLine
 10
264.0003910135621
 20
824.6567414535222
 30
0.0
 11
264.0003910135621
 21
832.5520063846903
 31
0.0
  0
LINE
  5
B6
330
47
100
AcDbEntity
  8
0
  6
Continuous
 62
     2
100
AcDbLine
 10
245.6854154519005
 20
815.4167256658645
 30
0.0
 11
257.6854154519005
 21
825.8090305112778
 31
0.0
  0
LINE
  5
B7
330
47
100
AcDbEntity
  8
0
  6
Continuous
 62
     7
100
AcDbLine
 10
267.0003910135621
 20
831.6859809809059
 30
0.0
 11
262.0003910135621
 21
833.12935665388
 31
0.0
  0
LINE
  5
B8
330
47
100
AcDbEntity
  8
0
  6
Continuous
 62
     7
100
AcDbLine
 10
270.0003910135621
 20
824.6567414535222
 30
0.0
 11
270.0003910135621
 21
832.5520063846903
 31
0.0
  0
LINE
  5
B9
330
47
100
AcDbEntity
  8
0
  6
Continuous
 62
     7
100
AcDbLine
 10
267.0003910135621
 20
835.1500825960437
 30
0.0
 11
265.1932113365897
 21
835.6717704325307
 31
0.0
  0
LINE
  5
BA
330
47
100
AcDbEntity
  8
0
  6
Continuous
 62
     7
100
AcDbLine
 10
263.8075706905346
 20
834.6861297864756
 30
0.0
 11
265.1932113365897
 21
834.2861297864756
 31
0.0
  0
LINE
  5
BB
330
47
100
AcDbEntity
  8
0
  6
Continuous
 62
     7
100
AcDbLine
 10
263.8075706905346
 20
836.0717704325307
 30
0.0
 11
262.0003910135621
 21
836.5934582690177
 31
0.0
  0
LINE
  5
BC
330
47
100
AcDbEntity
  8
0
  6
Continuous
 62
     7
100
AcDbLine
 10
263.8075706905346
 20
836.0717704325307
 30
0.0
 11
268.8075706905346
 21
840.4018974514529
 31
0.0
  0
LINE
  5
BD
330
47
100
AcDbEntity
  8
0
  6
Continuous
 62
     7
100
AcDbLine
 10
268.8075706905346
 20
839.0162568053978
 30
0.0
 11
263.8075706905346
 21
834.6861297864756
 31
0.0
  0
LINE
  5
BE
330
47
100
AcDbEntity
  8
0
  6
Continuous
 62
     7
100
AcDbLine
 10
270.1932113365897
 20
840.0018974514529
 30
0.0
 11
265.1932113365897
 21
835.6717704325307
 31
0.0
  0
LINE
  5
BF
330
47
100
AcDbEntity
  8
0
  6
Continuous
 62
     7
100
AcDbLine
 10
263.5003910135621
 20
822.7582616459637
 30
0.0
 11
263.5003910135621
 21
824.6567414535222
 31
0.0
  0
LINE
  5
C0
330
47
100
AcDbEntity
  8
0
  6
Continuous
 62
     7
100
AcDbLine
 10
270.5003910135622
 20
822.7582616459637
 30
0.0
 11
270.5003910135621
 21
824.6567414535222
 31
0.0
  0
LINE
  5
C1
330
47
100
AcDbEntity
  8
0
  6
Continuous
 62
     7
100
AcDbLine
 10
244.5459083416578
 20
785.3260484008943
 30
0.0
 11
245.8449464473345
 21
784.9510484008943
 31
0.0
  0
LINE
  5
C2
330
47
100
AcDbEntity
  8
0
  6
Continuous
 62
     7
100
AcDbLine
 10
244.5459083416578
 20
812.8182262630637
 30
0.0
 11
244.5459083416578
 21
785.3260484008943
 31
0.0
  0
LINE
  5
C3
330
47
100
AcDbEntity
  8
0
  6
Continuous
 62
     7
100
AcDbLine
 10
246.7459083416578
 20
784.6984240761785
 30
0.0
 11
246.7459083416578
 21
777.8782299283481
 31
0.0
  0
LINE
  5
C4
330
47
100
AcDbEntity
  8
0
  6
Continuous
 62
     7
100
AcDbLine
 10
248.0449464473344
 20
777.5032299283481
 30
0.0
 11
248.0449464473344
 21
784.3341815634883
 31
0.0
  0
LINE
  5
C5
330
47
100
AcDbEntity
  8
0
  6
Continuous
 62
     7
100
AcDbLine
 10
245.0459083416578
 20
776.4059867419146
 30
0.0
 11
245.0459083416578
 21
773.6780067199936
 31
0.0
  0
LINE
  5
C6
330
47
100
AcDbEntity
  8
0
  6
Continuous
 62
     7
100
AcDbLine
 10
246.3449464473345
 20
776.0309867419146
 30
0.0
 11
248.0449464473344
 21
777.5032299283481
 31
0.0
  0
LINE
  5
C7
330
47
100
AcDbEntity
  8
0
  6
Continuous
 62
     7
100
AcDbLine
 10
246.7459083416578
 20
777.8782299283481
 30
0.0
 11
248.0449464473344
 21
777.5032299283481
 31
0.0
  0
LINE
  5
C8
330
47
100
AcDbEntity
  8
0
  6
Continuous
 62
     7
100
AcDbLine
 10
246.7459083416578
 20
777.8782299283481
 30
0.0
 11
245.0459083416578
 21
776.4059867419146
 31
0.0
  0
LINE
  5
C9
330
47
100
AcDbEntity
  8
0
  6
Continuous
 62
     7
100
AcDbLine
 10
287.6558355797898
 20
776.8072661835434
 30
0.0
 11
288.9548736854665
 21
776.4322661835434
 31
0.0
  0
LINE
  5
CA
330
47
100
AcDbEntity
  8
0
  6
Continuous
 62
     7
100
AcDbLine
 10
276.1558355797898
 20
776.2010484008943
 30
0.0
 11
277.4548736854665
 21
775.8260484008943
 31
0.0
  0
LINE
  5
CB
330
47
100
AcDbEntity
  8
0
  6
Continuous
 62
     7
100
AcDbLine
 10
245.0459083416578
 20
776.4059867419146
 30
0.0
 11
246.3449464473345
 21
776.0309867419146
 31
0.0
  0
LINE
  5
CC
330
47
100
AcDbEntity
  8
0
  6
Continuous
 62
     7
100
AcDbLine
 10
286.2808355797898
 20
775.6164812533398
 30
0.0
 11
287.5798736854665
 21
775.2414812533398
 31
0.0
  0
LINE
  5
CD
330
47
100
AcDbEntity
  8
0
  6
Continuous
 62
     7
100
AcDbLine
 10
287.5798736854665
 20
775.2414812533398
 30
0.0
 11
288.9548736854665
 21
776.4322661835434
 31
0.0
  0
LINE
  5
CE
330
47
100
AcDbEntity
  8
0
  6
Continuous
 62
     7
100
AcDbLine
 10
286.2808355797898
 20
775.6164812533398
 30
0.0
 11
284.7548736854665
 21
775.8209213819721
 31
0.0
  0
LINE
  5
CF
330
47
100
AcDbEntity
  8
0
  6
Continuous
 62
     7
100
AcDbLine
 10
245.0459083416578
 20
773.6780067199936
 30
0.0
 11
246.3449464473345
 21
773.3030067199936
 31
0.0
  0
LINE
  5
D0
330
47
100
AcDbEntity
  8
0
  6
Continuous
 62
     7
100
AcDbLine
 10
251.8449464473345
 20
775.338166418887
 30
0.0
 11
246.3449464473345
 21
773.3030067199936
 31
0.0
  0
LINE
  5
D1
330
47
100
AcDbEntity
  8
0
  6
Continuous
 62
     7
100
AcDbLine
 10
254.5949464473345
 20
777.7197362792942
 30
0.0
 11
251.8449464473345
 21
775.338166418887
 31
0.0
  0
LINE
  5
D2
330
47
100
AcDbEntity
  8
0
  6
Continuous
 62
     7
100
AcDbLine
 10
275.1983038250592
 20
790.4712203235409
 30
0.0
 11
276.1558355797898
 21
791.3004671480679
 31
0.0
  0
LINE
  5
D3
330
47
100
AcDbEntity
  8
0
  6
Continuous
 62
     7
100
AcDbLine
 10
277.4548736854665
 20
775.8260484008943
 30
0.0
 11
277.4548736854665
 21
803.3182262630637
 31
0.0
  0
LINE
  5
D4
330
47
100
AcDbEntity
  8
0
  6
Continuous
 62
     7
100
AcDbLine
 10
276.1558355797898
 20
803.6932262630637
 30
0.0
 11
276.1558355797898
 21
776.2010484008943
 31
0.0
  0
LINE
  5
D5
330
47
100
AcDbEntity
  8
0
  6
Continuous
 62
     7
100
AcDbLine
 10
278.3558355797898
 20
775.5734240761785
 30
0.0
 11
278.3558355797898
 21
768.7532299283481
 31
0.0
  0
LINE
  5
D6
330
47
100
AcDbEntity
  8
0
  6
Continuous
 62
     7
100
AcDbLine
 10
277.9548736854665
 20
764.1780067199936
 30
0.0
 11
277.9548736854665
 21
766.9059867419146
 31
0.0
  0
LINE
  5
D7
330
47
100
AcDbEntity
  8
0
  6
Continuous
 62
     7
100
AcDbLine
 10
275.1983038250592
 20
790.4712203235409
 30
0.0
 11
273.0533780608388
 21
791.0904070572232
 31
0.0
  0
LINE
  5
D8
330
47
100
AcDbEntity
  8
0
  6
Continuous
 62
     7
100
AcDbLine
 10
272.0003910135621
 20
839.4802096149658
 30
0.0
 11
272.0003910135621
 21
836.5934582690177
 31
0.0
  0
LINE
  5
D9
330
47
100
AcDbEntity
  8
0
  6
Continuous
 62
     7
100
AcDbLine
 10
276.6558355797898
 20
764.5530067199936
 30
0.0
 11
277.9548736854665
 21
764.1780067199936
 31
0.0
  0
LINE
  5
DA
330
47
100
AcDbEntity
  8
0
  6
Continuous
 62
     7
100
AcDbLine
 10
276.6558355797898
 20
767.2809867419146
 30
0.0
 11
276.6558355797898
 21
764.5530067199936
 31
0.0
  0
LINE
  5
DB
330
47
100
AcDbEntity
  8
0
  6
Continuous
 62
     7
100
AcDbLine
 10
278.3558355797898
 20
768.7532299283481
 30
0.0
 11
279.6548736854664
 21
768.3782299283481
 31
0.0
  0
LINE
  5
DC
330
47
100
AcDbEntity
  8
0
  6
Continuous
 62
     7
100
AcDbLine
 10
276.6558355797898
 20
767.2809867419146
 30
0.0
 11
277.9548736854665
 21
766.9059867419146
 31
0.0
  0
LINE
  5
DD
330
47
100
AcDbEntity
  8
0
  6
Continuous
 62
     7
100
AcDbLine
 10
277.9548736854665
 20
766.9059867419146
 30
0.0
 11
279.6548736854664
 21
768.3782299283481
 31
0.0
  0
LINE
  5
DE
330
47
100
AcDbEntity
  8
0
  6
Continuous
 62
     7
100
AcDbLine
 10
278.3558355797898
 20
768.7532299283481
 30
0.0
 11
276.6558355797898
 21
767.2809867419146
 31
0.0
  0
LINE
  5
DF
330
47
100
AcDbEntity
  8
0
  6
Continuous
 62
     7
100
AcDbLine
 10
279.6548736854664
 20
775.2091815634883
 30
0.0
 11
277.4548736854665
 21
775.8260484008943
 31
0.0
  0
LINE
  5
E0
330
47
100
AcDbEntity
  8
0
  6
Continuous
 62
     7
100
AcDbLine
 10
283.4548736854665
 20
766.213166418887
 30
0.0
 11
277.9548736854665
 21
764.1780067199936
 31
0.0
  0
LINE
  5
E1
330
47
100
AcDbEntity
  8
0
  6
Continuous
 62
     7
100
AcDbLine
 10
286.2048736854665
 20
768.5947362792942
 30
0.0
 11
283.4548736854665
 21
766.213166418887
 31
0.0
  0
LINE
  5
E2
330
47
100
AcDbEntity
  8
0
  6
Continuous
 62
     2
100
AcDbLine
 10
276.3153665752238
 20
806.5746204027067
 30
0.0
 11
288.3153665752238
 21
816.96692524812
 31
0.0
  0
SPLINE
  5
E3
330
47
100
AcDbEntity
  8
0
  6
Continuous
 62
     7
100
AcDbSpline
210
0.0
220
0.0
230
1.0
 70
     8
 71
     3
 72
     9
 73
     5
 74
     3
 42
0.000000001
 43
0.0000000001
 44
0.00000001
 40
0.0
 40
0.0
 40
0.0
 40
0.0
 40
1.818328540546897
 40
3.66161885363093
 40
3.66161885363093
 40
3.66161885363093
 40
3.66161885363093
 10
249.3416249408185
 20
801.4357321859211
 30
0.0
 10
248.9001208499383
 20
801.0162197715663
 30
0.0
 10
248.0110517735797
 20
800.1714359190303
 30
0.0
 10
247.3734515906845
 20
799.1236731083158
 30
0.0
 10
247.052478202065
 20
798.5962203235409
 30
0.0
 11
249.3416249408185
 21
801.4357321859211
 31
0.0
 11
248.0791256707282
 21
800.1271397063468
 31
0.0
 11
247.052478202065
 21
798.5962203235409
 31
0.0
  0
SPLINE
  5
E4
330
47
100
AcDbEntity
  8
0
  6
Continuous
 62
     7
100
AcDbSpline
210
0.0
220
0.0
230
1.0
 70
     8
 71
     3
 72
    11
 73
     7
 74
     5
 42
0.000000001
 43
0.0000000001
 44
0.00000001
 40
0.0
 40
0.0
 40
0.0
 40
0.0
 40
0.5262879529531139
 40
1.026763202960004
 40
1.507077892636719
 40
1.976280232637704
 40
1.976280232637704
 40
1.976280232637704
 40
1.976280232637704
 10
245.8449464473345
 20
812.4432262630637
 30
0.0
 10
245.8536408546464
 20
812.6190687440395
 30
0.0
 10
245.8706032516054
 20
812.9621292057824
 30
0.0
 10
246.0186344884477
 20
813.4464291460054
 30
0.0
 10
246.2479147710893
 20
813.878655236248
 30
0.0
 10
246.4733493611344
 20
814.1030789536289
 30
0.0
 10
246.5847475131021
 20
814.2139775741283
 30
0.0
 11
245.8449464473345
 21
812.4432262630637
 31
0.0
 11
245.8930700276243
 21
812.9673093967169
 31
0.0
 11
246.0359123710297
 21
813.4469671317738
 31
0.0
 11
246.2689380713952
 21
813.8669685917249
 31
0.0
 11
246.5847475131021
 21
814.2139775741283
 31
0.0
  0
SPLINE
  5
E5
330
47
100
AcDbEntity
  8
0
  6
Continuous
 62
     7
100
AcDbSpline
210
0.0
220
0.0
230
1.0
 70
     8
 71
     3
 72
     9
 73
     5
 74
     3
 42
0.000000001
 43
0.0000000001
 44
0.00000001
 40
0.0
 40
0.0
 40
0.0
 40
0.0
 40
0.0376489034050813
 40
0.0753038284870652
 40
0.0753038284870652
 40
0.0753038284870652
 40
0.0753038284870652
 10
246.5847475131021
 20
814.2139775741283
 30
0.0
 10
246.5942738709379
 20
814.2221482424745
 30
0.0
 10
246.6133281231576
 20
814.2384908707043
 30
0.0
 10
246.6328431329729
 20
814.2542804378554
 30
0.0
 10
246.6426014245043
 20
814.2621758450243
 30
0.0
 11
246.5847475131021
 21
814.2139775741283
 31
0.0
 11
246.6134417640593
 21
814.23835132839
 31
0.0
 11
246.6426014245043
 21
814.2621758450243
 31
0.0
  0
SPLINE
  5
E6
330
47
100
AcDbEntity
  8
0
  6
Continuous
 62
     7
100
AcDbSpline
210
0.0
220
0.0
230
1.0
 70
     8
 71
     3
 72
    33
 73
    29
 74
    27
 42
0.000000001
 43
0.0000000001
 44
0.00000001
 40
0.0
 40
0.0
 40
0.0
 40
0.0
 40
0.159244157899945
 40
0.3255055351335037
 40
0.511775074553058
 40
0.6947460493484944
 40
1.150853760833038
 40
1.672824274750701
 40
2.026358266046004
 40
2.398544428253667
 40
2.794024123261042
 40
3.202614391740068
 40
3.412684019149106
 40
3.624792884467294
 40
3.851800486652464
 40
4.052403990282239
 40
4.255218830893752
 40
4.477013681638339
 40
4.699819848317722
 40
4.896881199717289
 40
5.221882501353281
 40
5.582460625307739
 40
5.907484159578039
 40
6.217494207163663
 40
6.492843114673286
 40
6.793181651506361
 40
7.057410985604261
 40
7.301381027450804
 40
7.301381027450804
 40
7.301381027450804
 40
7.301381027450804
 10
263.5003910135621
 20
822.7582616459637
 30
0.0
 10
263.50400561151
 20
822.705062209455
 30
0.0
 10
263.5113940829316
 20
822.5963190613357
 30
0.0
 10
263.5723233838338
 20
822.4346433180056
 30
0.0
 10
263.6668835703334
 20
822.2823019860564
 30
0.0
 10
263.8504815979678
 20
822.075988297606
 30
0.0
 10
264.1656543564347
 20
821.8448319653298
 30
0.0
 10
264.5643794209491
 20
821.6472067112268
 30
0.0
 10
264.953247960381
 20
821.4988839620684
 30
0.0
 10
265.3104977247594
 20
821.3883330394563
 30
0.0
 10
265.69120963543
 20
821.2937983633791
 30
0.0
 10
266.0232805514814
 20
821.229662997207
 30
0.0
 10
266.2969905078522
 20
821.1874456816669
 30
0.0
 10
266.5116501104964
 20
821.1599014391875
 30
0.0
 10
266.7238233131361
 20
821.1383304776539
 30
0.0
 10
266.9333871795028
 20
821.1224803295179
 30
0.0
 10
267.1415459020593
 20
821.1119205402774
 30
0.0
 10
267.3573188622869
 20
821.1067709977779
 30
0.0
 10
267.5712370879424
 20
821.1079200014061
 30
0.0
 10
267.8194071105946
 20
821.1164673443948
 30
0.0
 10
268.1129709286098
 20
821.1377882494368
 30
0.0
 10
268.4473030296256
 20
821.1808186241743
 30
0.0
 10
268.7733124490376
 20
821.2441727905092
 30
0.0
 10
269.0667319649079
 20
821.3226003557738
 30
0.0
 10
269.3457864609135
 20
821.4200068501143
 30
0.0
 10
269.6009886587642
 20
821.5359047694712
 30
0.0
 10
269.8353963380067
 20
821.6707505437321
 30
0.0
 10
269.9678792028084
 20
821.7766480203496
 30
0.0
 10
270.0314799268077
 20
821.827485970105
 30
0.0
 11
263.5003910135621
 21
822.7582616459637
 31
0.0
 11
263.5187415105614
 21
822.6000783223253
 31
0.0
 11
263.5744522039097
 21
822.4434285139617
 31
0.0
 11
263.6717760051866
 21
822.2846065428145
 31
0.0
 11
263.7922897630663
 21
822.1469300688213
 31
0.0
 11
264.1537258071975
 21
821.8687246960859
 31
0.0
 11
264.6186235651341
 21
821.6313994104421
 31
0.0
 11
264.9486334893129
 21
821.5045935247755
 31
0.0
 11
265.3039837675464
 21
821.3939195946926
 31
0.0
 11
265.6877008891833
 21
821.2981837110729
 31
0.0
 11
266.0888307687901
 21
821.2204609547097
 31
0.0
 11
266.2964434316234
 21
821.1884261220349
 31
0.0
 11
266.506826795953
 21
821.1614259244337
 31
0.0
 11
266.7326711076817
 21
821.138473839452
 31
0.0
 11
266.9327043799984
 21
821.1233590933127
 31
0.0
 11
267.1352599268124
 21
821.1131067794806
 31
0.0
 11
267.3569926445969
 21
821.1078572488769
 31
0.0
 11
267.579795282819
 21
821.1091111218652
 31
0.0
 11
267.776738189268
 21
821.1159424996575
 31
0.0
 11
268.1008650558259
 21
821.1397672804679
 31
0.0
 11
268.4584247545701
 21
821.1863252548998
 31
0.0
 11
268.7773730420669
 21
821.248873536134
 31
0.0
 11
269.0767153378738
 21
821.3294987145008
 31
0.0
 11
269.3364346987895
 21
821.420947467683
 31
0.0
 11
269.6097350367027
 21
821.5454872709537
 31
0.0
 11
269.8372548897834
 21
821.6798444697894
 31
0.0
 11
270.0314799268077
 21
821.827485970105
 31
0.0
  0
SPLINE
  5
E7
330
47
100
AcDbEntity
  8
0
  6
Continuous
 62
     7
100
AcDbSpline
210
0.0
220
0.0
230
1.0
 70
     8
 71
     3
 72
    11
 73
     7
 74
     5
 42
0.000000001
 43
0.0000000001
 44
0.00000001
 40
0.0
 40
0.0
 40
0.0
 40
0.0
 40
1.573347768346046
 40
3.108774331005294
 40
4.617282374094868
 40
6.111806950027618
 40
6.111806950027618
 40
6.111806950027618
 40
6.111806950027618
 10
254.846706836125
 20
803.9095917923485
 30
0.0
 10
254.3304701574091
 20
803.8121421315243
 30
0.0
 10
253.3104392636884
 20
803.6195915505393
 30
0.0
 10
251.8640192681956
 20
803.0760636989376
 30
0.0
 10
250.5179394743278
 20
802.3699798361231
 30
0.0
 10
249.7325106794518
 20
801.7461798424447
 30
0.0
 10
249.3416249408185
 20
801.4357321859211
 30
0.0
 11
254.846706836125
 21
803.9095917923485
 31
0.0
 11
253.3098224667336
 21
803.5728283190186
 31
0.0
 11
251.8684962592084
 21
803.0435708230607
 31
0.0
 11
250.5403508495138
 21
802.3282902548658
 31
0.0
 11
249.3416249408185
 21
801.4357321859211
 31
0.0
  0
SPLINE
  5
E8
330
47
100
AcDbEntity
  8
0
  6
Continuous
 62
     7
100
AcDbSpline
210
0.0
220
0.0
230
1.0
 70
     8
 71
     3
 72
     9
 73
     5
 74
     3
 42
0.000000001
 43
0.0000000001
 44
0.00000001
 40
0.0
 40
0.0
 40
0.0
 40
0.0
 40
1.195387359967475
 40
2.400090669038424
 40
2.400090669038424
 40
2.400090669038424
 40
2.400090669038424
 10
250.7818630163761
 20
799.7726885046806
 30
0.0
 10
250.4889331525058
 20
799.5009523206309
 30
0.0
 10
249.9007905644302
 20
798.9553622316167
 30
0.0
 10
249.4324720863997
 20
798.3039859134933
 30
0.0
 10
249.1974039662855
 20
797.9770335898587
 30
0.0
 11
250.7818630163761
 21
799.7726885046806
 31
0.0
 11
249.932797361955
 21
798.9312382943623
 31
0.0
 11
249.1974039662855
 21
797.9770335898587
 31
0.0
  0
SPLINE
  5
E9
330
47
100
AcDbEntity
  8
0
  6
Continuous
 62
     7
100
AcDbSpline
210
0.0
220
0.0
230
1.0
 70
     8
 71
     3
 72
    11
 73
     7
 74
     5
 42
0.000000001
 43
0.0000000001
 44
0.00000001
 40
0.0
 40
0.0
 40
0.0
 40
0.0
 40
3.126639102342263
 40
6.310015184776534
 40
9.507420956275256
 40
12.67494647783296
 40
12.67494647783296
 40
12.67494647783296
 40
12.67494647783296
 10
275.1983038250592
 20
790.4712203235409
 30
0.0
 10
274.7552947390901
 20
791.4166495913556
 30
0.0
 10
273.861237571102
 20
793.324664178023
 30
0.0
 10
272.0253849937363
 20
795.92360313628
 30
0.0
 10
269.8995496568987
 20
798.3087653015484
 30
0.0
 10
268.2332925946259
 20
799.6280474280326
 30
0.0
 10
267.4040751909993
 20
800.2845917923485
 30
0.0
 11
275.1983038250592
 21
790.4712203235409
 31
0.0
 11
273.7896317338445
 21
793.2625488638445
 31
0.0
 11
271.9811738961457
 21
795.8823510587537
 31
0.0
 11
269.8300187295391
 21
798.2479239546095
 31
0.0
 11
267.4040751909993
 21
800.2845917923485
 31
0.0
  0
SPLINE
  5
EA
330
47
100
AcDbEntity
  8
0
  6
Continuous
 62
     7
100
AcDbSpline
210
0.0
220
0.0
230
1.0
 70
     8
 71
     3
 72
    17
 73
    13
 74
    11
 42
0.000000001
 43
0.0000000001
 44
0.00000001
 40
0.0
 40
0.0
 40
0.0
 40
0.0
 40
2.981826830178825
 40
6.001944507577047
 40
9.01243925583362
 40
11.9663538059143
 40
14.82251307595851
 40
17.55043433768355
 40
20.13523221376303
 40
22.58202598042442
 40
24.91849939766572
 40
27.19328203016439
 40
27.19328203016439
 40
27.19328203016439
 40
27.19328203016439
 10
273.0533780608388
 20
791.0904070572232
 30
0.0
 10
272.5807902056135
 20
791.966820429331
 30
0.0
 10
271.6295457906512
 20
793.7309015458397
 30
0.0
 10
269.7321477665028
 20
796.0806011021175
 30
0.0
 10
267.5542499443756
 20
798.1478119148683
 30
0.0
 10
265.1356435361863
 20
799.840289589761
 30
0.0
 10
262.571245748976
 20
801.102202474627
 30
0.0
 10
259.9491961768044
 20
801.8846335358933
 30
0.0
 10
257.3586715034279
 20
802.1600714720813
 30
0.0
 10
254.9023946013631
 20
801.8997742062528
 30
0.0
 10
252.634747792802
 20
801.148330239808
 30
0.0
 10
251.3939580520212
 20
800.2271277110349
 30
0.0
 10
250.7818630163761
 20
799.7726885046806
 30
0.0
 11
273.0533780608388
 21
791.0904070572232
 31
0.0
 11
271.5585199036584
 21
793.6704633196305
 31
0.0
 11
269.6819128632804
 21
796.036780457121
 31
0.0
 11
267.4922207417557
 21
798.1027734486196
 31
0.0
 11
265.0695658950648
 21
799.7928487914289
 31
0.0
 11
262.5025927921336
 21
801.0451645933633
 31
0.0
 11
259.8852277841041
 21
801.813900458021
 31
0.0
 11
257.313240630786
 21
802.0709260415204
 31
0.0
 11
254.8807403146895
 21
801.8068390078166
 31
0.0
 11
252.6767331883645
 21
801.0313000730242
 31
0.0
 11
250.7818630163761
 21
799.7726885046806
 31
0.0
  0
SPLINE
  5
EB
330
47
100
AcDbEntity
  8
0
  6
Continuous
 62
     7
100
AcDbSpline
210
0.0
220
0.0
230
1.0
 70
     8
 71
     3
 72
     9
 73
     5
 74
     3
 42
0.000000001
 43
0.0000000001
 44
0.00000001
 40
0.0
 40
0.0
 40
0.0
 40
0.0
 40
0.4410298852386386
 40
0.8223218392526173
 40
0.8223218392526173
 40
0.8223218392526173
 40
0.8223218392526173
 10
269.6355835008706
 20
809.7803299175946
 30
0.0
 10
269.7410599853105
 20
809.8887842754631
 30
0.0
 10
269.9377260442569
 20
810.0910027518935
 30
0.0
 10
269.98053942849
 20
810.3685388947639
 30
0.0
 10
270.0003910135621
 20
810.4972261016467
 30
0.0
 11
269.6355835008706
 21
809.7803299175946
 31
0.0
 11
269.9077584452498
 21
810.1273575262416
 31
0.0
 11
270.0003910135621
 21
810.4972261016467
 31
0.0
  0
SPLINE
  5
EC
330
47
100
AcDbEntity
  8
0
  6
Continuous
 62
     7
100
AcDbSpline
210
0.0
220
0.0
230
1.0
 70
     8
 71
     3
 72
    17
 73
    13
 74
    11
 42
0.000000001
 43
0.0000000001
 44
0.00000001
 40
0.0
 40
0.0
 40
0.0
 40
0.0
 40
0.4055085981428415
 40
0.8811382087888235
 40
1.458137502714443
 40
2.132981607835703
 40
2.881475656781717
 40
3.668107781896803
 40
4.452372606559509
 40
5.194061511889352
 40
5.858606658215989
 40
6.423625930000159
 40
6.423625930000159
 40
6.423625930000159
 40
6.423625930000159
 10
264.0003910135621
 20
810.4972261016467
 30
0.0
 10
264.0237463648875
 20
810.361458239935
 30
0.0
 10
264.0744957128884
 20
810.066445387152
 30
0.0
 10
264.4251586907583
 20
809.6986572073129
 30
0.0
 10
264.9142037546407
 20
809.3950505087391
 30
0.0
 10
265.5461571738857
 20
809.1660807904881
 30
0.0
 10
266.2710806626287
 20
809.0246843469772
 30
0.0
 10
267.0451379671273
 20
808.9806298708553
 30
0.0
 10
267.8169445949369
 20
809.0354175633723
 30
0.0
 10
268.5311133832818
 20
809.1906457740902
 30
0.0
 10
269.1556768075828
 20
809.4186295087552
 30
0.0
 10
269.4844863255665
 20
809.6664496293558
 30
0.0
 10
269.6355835008706
 20
809.7803299175946
 30
0.0
 11
264.0003910135621
 21
810.4972261016467
 31
0.0
 11
264.1045881586322
 21
810.1053330227007
 31
0.0
 11
264.4099384057829
 21
809.7406622763732
 31
0.0
 11
264.8952338303802
 21
809.42854605715
 31
0.0
 11
265.5267612047952
 21
809.1906642788927
 31
0.0
 11
266.260653925186
 21
809.043542508494
 31
0.0
 11
267.0459315006604
 21
808.9973989396015
 31
0.0
 11
267.8280456169742
 21
809.0554405096311
 31
0.0
 11
268.5526678047045
 21
809.2136338023086
 31
0.0
 11
269.1694614524378
 21
809.460991530336
 31
0.0
 11
269.6355835008706
 21
809.7803299175946
 31
0.0
  0
SPLINE
  5
ED
330
47
100
AcDbEntity
  8
0
  6
Continuous
 62
     7
100
AcDbSpline
210
0.0
220
0.0
230
1.0
 70
     8
 71
     3
 72
    17
 73
    13
 74
    11
 42
0.000000001
 43
0.0000000001
 44
0.00000001
 40
0.0
 40
0.0
 40
0.0
 40
0.0
 40
2.806030074815561
 40
5.678823888478625
 40
8.664224845160525
 40
11.79169283188196
 40
15.07251254354871
 40
18.50090353581776
 40
22.05668817492122
 40
25.70856348282812
 40
29.41751000338829
 40
33.14016653518256
 40
33.14016653518256
 40
33.14016653518256
 40
33.14016653518256
 10
246.6426014245043
 20
814.2621758450243
 30
0.0
 10
247.4119036209917
 20
814.8007381307647
 30
0.0
 10
248.9688119915092
 20
815.890676677086
 30
0.0
 10
251.7271303765426
 20
816.8530758047548
 30
0.0
 10
254.7026937839025
 20
817.2982677697493
 30
0.0
 10
257.8494970884149
 20
817.1725678395352
 30
0.0
 10
261.0718327676585
 20
816.4979046487498
 30
0.0
 10
264.2866781588942
 20
815.2914291419206
 30
0.0
 10
267.4103256221115
 20
813.5901028350454
 30
0.0
 10
270.3513921564269
 20
811.4338402584319
 30
0.0
 10
273.0649950386652
 20
808.9054218282857
 30
0.0
 10
274.5928458788188
 20
806.9514769487743
 30
0.0
 10
275.3581806026199
 20
805.9727021608138
 30
0.0
 11
246.6426014245043
 21
814.2621758450243
 31
0.0
 11
249.0117878488669
 21
815.7657583978413
 31
0.0
 11
251.7092973172794
 21
816.7538813603196
 31
0.0
 11
254.6612557523049
 21
817.199482399063
 31
0.0
 11
257.7868194153147
 21
817.0903595043294
 31
0.0
 11
261.0003910135622
 21
816.4294997840603
 31
0.0
 11
264.2139626118097
 21
815.235003077021
 31
0.0
 11
267.3395262748194
 21
813.5395809495467
 31
0.0
 11
270.2914847098449
 21
811.3896659137048
 31
0.0
 11
272.9889941782574
 21
808.8441351334968
 31
0.0
 11
275.3581806026199
 21
805.9727021608138
 31
0.0
  0
SPLINE
  5
EE
330
47
100
AcDbEntity
  8
0
  6
Continuous
 62
     7
100
AcDbSpline
210
0.0
220
0.0
230
1.0
 70
     8
 71
     3
 72
    17
 73
    13
 74
    11
 42
0.000000001
 43
0.0000000001
 44
0.00000001
 40
0.0
 40
0.0
 40
0.0
 40
0.0
 40
2.99309874677573
 40
6.057412148310329
 40
9.241839835612865
 40
12.57780568821928
 40
16.07734671406295
 40
19.73429710585865
 40
23.52713405425607
 40
27.42246771601385
 40
31.37867733787982
 40
35.34951097158141
 40
35.34951097158141
 40
35.34951097158141
 40
35.34951097158141
 10
245.6854154519005
 20
815.4167256658645
 30
0.0
 10
246.5060044615709
 20
815.9911921040461
 30
0.0
 10
248.1667067231329
 20
817.1537932210222
 30
0.0
 10
251.1089130010321
 20
818.1803522901017
 30
0.0
 10
254.2828473023648
 20
818.6552237193891
 30
0.0
 10
257.6394374939697
 20
818.5211437936744
 30
0.0
 10
261.0765955518763
 20
817.8015030567515
 30
0.0
 10
264.505763969212
 20
816.5145958493996
 30
0.0
 10
267.837654596668
 20
814.6998477887239
 30
0.0
 10
270.9747922331821
 20
812.3998343736232
 30
0.0
 10
273.8693019744932
 20
809.7028547151443
 30
0.0
 10
275.4990095365462
 20
807.6186468431424
 30
0.0
 10
276.3153665752238
 20
806.5746204027067
 30
0.0
 11
245.6854154519005
 21
815.4167256658645
 31
0.0
 11
248.2125476378872
 21
817.0205470555359
 31
0.0
 11
251.0898910708606
 21
818.0745448821796
 31
0.0
 11
254.2386467348878
 21
818.5498526568392
 31
0.0
 11
257.5725813087648
 21
818.4334549024568
 31
0.0
 11
261.0003910135622
 21
817.7285378675031
 31
0.0
 11
264.4282007183596
 21
816.4544080466611
 31
0.0
 11
267.7621352922366
 21
814.6459577773551
 31
0.0
 11
270.9108909562637
 21
812.352715072457
 31
0.0
 11
273.788234389237
 21
809.6374822402353
 31
0.0
 11
276.3153665752238
 21
806.5746204027067
 31
0.0
  0
SPLINE
  5
EF
330
47
100
AcDbEntity
  8
0
  6
Continuous
 62
     7
100
AcDbSpline
210
0.0
220
0.0
230
1.0
 70
     8
 71
     3
 72
    11
 73
     7
 74
     5
 42
0.000000001
 43
0.0000000001
 44
0.00000001
 40
0.0
 40
0.0
 40
0.0
 40
0.0
 40
1.715710809106693
 40
3.446819303604636
 40
5.204247102566912
 40
6.997511403988281
 40
6.997511403988281
 40
6.997511403988281
 40
6.997511403988281
 10
257.6854154519005
 20
825.8090305112778
 30
0.0
 10
258.1451622223474
 20
826.1506008974201
 30
0.0
 10
259.0687817795082
 20
826.8368070885382
 30
0.0
 10
260.6148664235309
 20
827.6368296273741
 30
0.0
 10
262.2602454061804
 20
828.2778304717328
 30
0.0
 10
263.4164526785336
 20
828.5379374804521
 30
0.0
 10
264.0003910135621
 20
828.669303584382
 30
0.0
 11
257.6854154519005
 21
825.8090305112778
 31
0.0
 11
259.0895236140851
 21
826.7950040666116
 31
0.0
 11
260.6194493855904
 21
827.6049816945831
 31
0.0
 11
262.2613552984351
 21
828.2316374582342
 31
0.0
 11
264.0003910135621
 21
828.669303584382
 31
0.0
  0
SPLINE
  5
F0
330
47
100
AcDbEntity
  8
0
  6
Continuous
 62
     7
100
AcDbSpline
210
0.0
220
0.0
230
1.0
 70
     8
 71
     3
 72
     9
 73
     5
 74
     3
 42
0.000000001
 43
0.0000000001
 44
0.00000001
 40
0.0
 40
0.0
 40
0.0
 40
0.0
 40
0.053784147762716
 40
0.1075768979207122
 40
0.1075768979207122
 40
0.1075768979207122
 40
0.1075768979207122
 10
257.6027670070401
 20
825.7401758385691
 30
0.0
 10
257.6163760896731
 20
825.7518482219299
 30
0.0
 10
257.6435964444901
 20
825.7751948402631
 30
0.0
 10
257.6714750354164
 20
825.7977513581709
 30
0.0
 10
257.6854154519005
 20
825.8090305112778
 30
0.0
 11
257.6027670070401
 21
825.7401758385691
 31
0.0
 11
257.6437587941219
 21
825.7749954875146
 31
0.0
 11
257.6854154519005
 21
825.8090305112778
 31
0.0
  0
SPLINE
  5
F1
330
47
100
AcDbEntity
  8
0
  6
Continuous
 62
     7
100
AcDbSpline
210
0.0
220
0.0
230
1.0
 70
     8
 71
     3
 72
    11
 73
     7
 74
     5
 42
0.000000001
 43
0.0000000001
 44
0.00000001
 40
0.0
 40
0.0
 40
0.0
 40
0.0
 40
0.9180389024375258
 40
1.814486453947022
 40
2.678408014125331
 40
3.502314629676627
 40
3.502314629676627
 40
3.502314629676627
 40
3.502314629676627
 10
288.3153665752238
 20
816.96692524812
 30
0.0
 10
288.4854829806708
 20
816.711816108116
 30
0.0
 10
288.821714812229
 20
816.2075977305958
 30
0.0
 10
289.1743304758199
 20
815.3833056027595
 30
0.0
 10
289.4089249734236
 20
814.5487738265208
 30
0.0
 10
289.4398014590478
 20
813.9854939447077
 30
0.0
 10
289.4548736854665
 20
813.710531108477
 30
0.0
 11
288.3153665752238
 21
816.96692524812
 31
0.0
 11
288.8007949993937
 21
816.1877239442481
 31
0.0
 11
289.1599535679116
 21
815.3663693692006
 31
0.0
 11
289.3805048821511
 21
814.5310744613834
 31
0.0
 11
289.4548736854665
 21
813.710531108477
 31
0.0
  0
SPLINE
  5
F2
330
47
100
AcDbEntity
  8
0
  6
Continuous
 62
     7
100
AcDbSpline
210
0.0
220
0.0
230
1.0
 70
     8
 71
     3
 72
    11
 73
     7
 74
     5
 42
0.000000001
 43
0.0000000001
 44
0.00000001
 40
0.0
 40
0.0
 40
0.0
 40
0.0
 40
0.3014258293273231
 40
0.5742527568558788
 40
0.8247992674798292
 40
1.062965126966691
 40
1.062965126966691
 40
1.062965126966691
 40
1.062965126966691
 10
264.0003910135621
 20
825.5581292723882
 30
0.0
 10
263.9255544509888
 20
825.4906215747906
 30
0.0
 10
263.7829817346324
 20
825.3620112144961
 30
0.0
 10
263.6240252248971
 20
825.1355539225704
 30
0.0
 10
263.5199651635256
 20
824.8997565312975
 30
0.0
 10
263.506804592299
 20
824.7363667511638
 30
0.0
 10
263.5003910135621
 20
824.6567414535222
 30
0.0
 11
264.0003910135621
 21
825.5581292723882
 31
0.0
 11
263.784670972321
 21
825.3476004283008
 31
0.0
 11
263.6277066227541
 21
825.1244486268689
 31
0.0
 11
263.5323659903043
 21
824.8927511534428
 31
0.0
 11
263.5003910135621
 21
824.6567414535222
 31
0.0
  0
SPLINE
  5
F3
330
47
100
AcDbEntity
  8
0
  6
Continuous
 62
     7
100
AcDbSpline
210
0.0
220
0.0
230
1.0
 70
     8
 71
     3
 72
    11
 73
     7
 74
     5
 42
0.000000001
 43
0.0000000001
 44
0.00000001
 40
0.0
 40
0.0
 40
0.0
 40
0.0
 40
0.2883603701976974
 40
0.5503579325761314
 40
0.7919843279899877
 40
1.022359370880199
 40
1.022359370880199
 40
1.022359370880199
 40
1.022359370880199
 10
270.0314799268077
 20
823.7817414535222
 30
0.0
 10
270.1017881944322
 20
823.8477071888025
 30
0.0
 10
270.235976917235
 20
823.9736078752954
 30
0.0
 10
270.3848616660899
 20
824.1936091800527
 30
0.0
 10
270.4821340437193
 20
824.4219529459106
 30
0.0
 10
270.4944028477551
 20
824.5797323075133
 30
0.0
 10
270.5003910135621
 20
824.6567414535222
 30
0.0
 11
270.0314799268077
 21
823.7817414535222
 31
0.0
 11
270.2339693638909
 21
823.9870454496711
 31
0.0
 11
270.3811314055738
 21
824.2038081245928
 31
0.0
 11
270.4704480139252
 21
824.4283206180879
 31
0.0
 11
270.5003910135621
 21
824.6567414535222
 31
0.0
  0
SPLINE
  5
F4
330
47
100
AcDbEntity
  8
0
  6
Continuous
 62
     7
100
AcDbSpline
210
0.0
220
0.0
230
1.0
 70
     8
 71
     3
 72
     9
 73
     5
 74
     3
 42
0.000000001
 43
0.0000000001
 44
0.00000001
 40
0.0
 40
0.0
 40
0.0
 40
0.0
 40
0.4410298852386386
 40
0.8223218392525069
 40
0.8223218392525069
 40
0.8223218392525069
 40
0.8223218392525069
 10
269.6355835008706
 20
823.9398452694702
 30
0.0
 10
269.7410599853105
 20
824.0482996273386
 30
0.0
 10
269.9377260442569
 20
824.2505181037691
 30
0.0
 10
269.98053942849
 20
824.5280542466394
 30
0.0
 10
270.0003910135621
 20
824.6567414535222
 30
0.0
 11
269.6355835008706
 21
823.9398452694702
 31
0.0
 11
269.9077584452498
 21
824.2868728781172
 31
0.0
 11
270.0003910135621
 21
824.6567414535222
 31
0.0
  0
SPLINE
  5
F5
330
47
100
AcDbEntity
  8
0
  6
Continuous
 62
     7
100
AcDbSpline
210
0.0
220
0.0
230
1.0
 70
     8
 71
     3
 72
    19
 73
    15
 74
    13
 42
0.000000001
 43
0.0000000001
 44
0.00000001
 40
0.0
 40
0.0
 40
0.0
 40
0.0
 40
0.3877489392284824
 40
0.8238572193182186
 40
1.336114686713071
 40
1.930646211511724
 40
2.598709442171254
 40
3.322264418576748
 40
4.077690315721763
 40
4.83853501458494
 40
5.577887029953612
 40
6.270693524969649
 40
6.896307809459381
 40
7.441724807536022
 40
7.441724807536022
 40
7.441724807536022
 40
7.441724807536022
 10
263.5003910135621
 20
824.6567414535222
 30
0.0
 10
263.5182151543862
 20
824.5268717987232
 30
0.0
 10
263.5560864393088
 20
824.2509353863076
 30
0.0
 10
263.8334270997152
 20
823.8827890830337
 30
0.0
 10
264.2359577504228
 20
823.5606725879769
 30
0.0
 10
264.7675869312848
 20
823.2916387303964
 30
0.0
 10
265.3984956724473
 20
823.0854940104775
 30
0.0
 10
266.1032917206151
 20
822.9511465252376
 30
0.0
 10
266.8492676803312
 20
822.8947094430451
 30
0.0
 10
267.6020644077585
 20
822.9191496386359
 30
0.0
 10
268.327837010229
 20
823.022166082126
 30
0.0
 10
268.9902107411598
 20
823.202932083344
 30
0.0
 10
269.5700356855779
 20
823.4403370683076
 30
0.0
 10
269.8848518390756
 20
823.6732571124071
 30
0.0
 10
270.0314799268077
 20
823.7817414535222
 30
0.0
 11
263.5003910135621
 21
824.6567414535222
 31
0.0
 11
263.5833552936473
 21
824.2779721629394
 31
0.0
 11
263.8283137589339
 21
823.917159495476
 31
0.0
 11
264.2236545703946
 21
823.5914090478487
 31
0.0
 11
264.7506343796592
 21
823.316163678064
 31
0.0
 11
265.3842710114945
 21
823.104472634016
 31
0.0
 11
266.0945243557033
 21
822.9663712575164
 31
0.0
 11
266.8477231714106
 21
822.9084072218104
 31
0.0
 11
267.6081596353964
 21
822.9333278857509
 31
0.0
 11
268.3397829072857
 21
823.0399524159424
 31
0.0
 11
269.0079085407908
 21
823.2232253760164
 31
0.0
 11
269.5808614620646
 21
823.4744586957254
 31
0.0
 11
270.0314799268077
 21
823.7817414535222
 31
0.0
  0
SPLINE
  5
F6
330
47
100
AcDbEntity
  8
0
  6
Continuous
 62
     7
100
AcDbSpline
210
0.0
220
0.0
230
1.0
 70
     8
 71
     3
 72
    17
 73
    13
 74
    11
 42
0.000000001
 43
0.0000000001
 44
0.00000001
 40
0.0
 40
0.0
 40
0.0
 40
0.0
 40
0.4055085981427317
 40
0.8811382087888009
 40
1.458137502714358
 40
2.132981607835659
 40
2.88147565678165
 40
3.668107781896737
 40
4.452372606559442
 40
5.194061511889316
 40
5.8586066582159
 40
6.423625930000134
 40
6.423625930000134
 40
6.423625930000134
 40
6.423625930000134
 10
264.0003910135621
 20
824.6567414535222
 30
0.0
 10
264.0237463648875
 20
824.5209735918107
 30
0.0
 10
264.0744957128883
 20
824.2259607390276
 30
0.0
 10
264.4251586907583
 20
823.8581725591886
 30
0.0
 10
264.9142037546408
 20
823.5545658606146
 30
0.0
 10
265.5461571738857
 20
823.3255961423632
 30
0.0
 10
266.2710806626287
 20
823.1841996988531
 30
0.0
 10
267.0451379671273
 20
823.1401452227306
 30
0.0
 10
267.816944594937
 20
823.1949329152483
 30
0.0
 10
268.5311133832818
 20
823.3501611259653
 30
0.0
 10
269.1556768075829
 20
823.5781448606309
 30
0.0
 10
269.4844863255664
 20
823.8259649812312
 30
0.0
 10
269.6355835008706
 20
823.9398452694702
 30
0.0
 11
264.0003910135621
 21
824.6567414535222
 31
0.0
 11
264.1045881586322
 21
824.2648483745763
 31
0.0
 11
264.4099384057829
 21
823.9001776282487
 31
0.0
 11
264.8952338303802
 21
823.5880614090256
 31
0.0
 11
265.5267612047952
 21
823.3501796307681
 31
0.0
 11
266.260653925186
 21
823.2030578603697
 31
0.0
 11
267.0459315006604
 21
823.156914291477
 31
0.0
 11
267.8280456169742
 21
823.2149558615067
 31
0.0
 11
268.5526678047045
 21
823.373149154184
 31
0.0
 11
269.1694614524378
 21
823.6205068822114
 31
0.0
 11
269.6355835008706
 21
823.9398452694702
 31
0.0
  0
SPLINE
  5
F7
330
47
100
AcDbEntity
  8
0
  6
Continuous
 62
     7
100
AcDbSpline
210
0.0
220
0.0
230
1.0
 70
     8
 71
     3
 72
    11
 73
     7
 74
     5
 42
0.000000001
 43
0.0000000001
 44
0.00000001
 40
0.0
 40
0.0
 40
0.0
 40
0.0
 40
0.2381658594868465
 40
0.4887123701107969
 40
0.7615392976393527
 40
1.062965126966757
 40
1.062965126966757
 40
1.062965126966757
 40
1.062965126966757
 10
270.5003910135621
 20
824.6567414535222
 30
0.0
 10
270.4939774348253
 20
824.7363667511637
 30
0.0
 10
270.4808168635988
 20
824.8997565312977
 30
0.0
 10
270.3767568022271
 20
825.1355539225699
 30
0.0
 10
270.217800292492
 20
825.3620112144965
 30
0.0
 10
270.0752275761353
 20
825.4906215747908
 30
0.0
 10
270.0003910135621
 20
825.5581292723882
 30
0.0
 11
270.5003910135621
 21
824.6567414535222
 31
0.0
 11
270.46841603682
 21
824.8927511534428
 31
0.0
 11
270.3730754043702
 21
825.1244486268689
 31
0.0
 11
270.2161110548033
 21
825.3476004283008
 31
0.0
 11
270.0003910135621
 21
825.5581292723882
 31
0.0
  0
SPLINE
  5
F8
330
47
100
AcDbEntity
  8
0
  6
Continuous
 62
     7
100
AcDbSpline
210
0.0
220
0.0
230
1.0
 70
     8
 71
     3
 72
     9
 73
     5
 74
     3
 42
0.000000001
 43
0.0000000001
 44
0.00000001
 40
0.0
 40
0.0
 40
0.0
 40
0.0
 40
0.053784147762716
 40
0.1075768979207122
 40
0.1075768979207122
 40
0.1075768979207122
 40
0.1075768979207122
 10
245.6027670070401
 20
815.3478709931559
 30
0.0
 10
245.6163760896732
 20
815.3595433765166
 30
0.0
 10
245.64359644449
 20
815.3828899948498
 30
0.0
 10
245.6714750354164
 20
815.4054465127577
 30
0.0
 10
245.6854154519005
 20
815.4167256658645
 30
0.0
 11
245.6027670070401
 21
815.3478709931559
 31
0.0
 11
245.6437587941219
 21
815.3826906421014
 31
0.0
 11
245.6854154519005
 21
815.4167256658645
 31
0.0
  0
SPLINE
  5
F9
330
47
100
AcDbEntity
  8
0
  6
Continuous
 62
     7
100
AcDbSpline
210
0.0
220
0.0
230
1.0
 70
     8
 71
     3
 72
    11
 73
     7
 74
     5
 42
0.000000001
 43
0.0000000001
 44
0.00000001
 40
0.0
 40
0.0
 40
0.0
 40
0.0
 40
0.751839933008357
 40
1.466804576731732
 40
2.152968420141125
 40
2.823257477959912
 40
2.823257477959912
 40
2.823257477959912
 40
2.823257477959912
 10
244.5459083416578
 20
812.8182262630637
 30
0.0
 10
244.5583289235356
 20
813.0694298073876
 30
0.0
 10
244.5825609129605
 20
813.5595161823436
 30
0.0
 10
244.7940341115358
 20
814.2513732397605
 30
0.0
 10
245.1215773702808
 20
814.8688390855552
 30
0.0
 10
245.4436267897833
 20
815.189444392283
 30
0.0
 10
245.6027670070401
 20
815.3478709931559
 30
0.0
 11
244.5459083416578
 21
812.8182262630637
 31
0.0
 11
244.6146563135004
 21
813.5669164539968
 31
0.0
 11
244.8187168040795
 21
814.2521417897924
 31
0.0
 11
245.1516106617445
 21
814.852143875437
 31
0.0
 11
245.6027670070401
 21
815.3478709931559
 31
0.0
  0
SPLINE
  5
FA
330
47
100
AcDbEntity
  8
0
  6
Continuous
 62
     7
100
AcDbSpline
210
0.0
220
0.0
230
1.0
 70
     8
 71
     3
 72
    15
 73
    11
 74
     9
 42
0.000000001
 43
0.0000000001
 44
0.00000001
 40
0.0
 40
0.0
 40
0.0
 40
0.0
 40
0.149577396646339
 40
0.2921177420464977
 40
0.4211298652022838
 40
0.5627751817021852
 40
0.7011219049664772
 40
0.8214027395617679
 40
0.9487499911297186
 40
1.075388953184289
 40
1.075388953184289
 40
1.075388953184289
 40
1.075388953184289
 10
270.0314799268077
 20
821.827485970105
 30
0.0
 10
270.0684025752893
 20
821.861041118221
 30
0.0
 10
270.1405107912902
 20
821.926572782003
 30
0.0
 10
270.2332035857555
 20
822.0323966126684
 30
0.0
 10
270.314464371407
 20
822.1438071158199
 30
0.0
 10
270.3829332165492
 20
822.2620514172522
 30
0.0
 10
270.4360949181071
 20
822.3848078977583
 30
0.0
 10
270.4730706625535
 20
822.508234686849
 30
0.0
 10
270.4960719247247
 20
822.6313115853063
 30
0.0
 10
270.4989540011817
 20
822.7160237041473
 30
0.0
 10
270.5003910135622
 20
822.7582616459637
 30
0.0
 11
270.0314799268077
 21
821.827485970105
 31
0.0
 11
270.1401997358851
 21
821.9302157153287
 31
0.0
 11
270.2344272865353
 21
822.037168596963
 31
0.0
 11
270.3101805838424
 21
822.1415983151251
 31
0.0
 11
270.3810067954031
 21
822.2642647070817
 31
0.0
 11
270.435754993056
 21
822.3913176528257
 31
0.0
 11
270.4703873442188
 21
822.5065048037173
 31
0.0
 11
270.4929159158768
 21
822.6318434904031
 31
0.0
 11
270.5003910135622
 21
822.7582616459637
 31
0.0
  0
SPLINE
  5
FB
330
47
100
AcDbEntity
  8
0
  6
Continuous
 62
     7
100
AcDbSpline
210
0.0
220
0.0
230
1.0
 70
     8
 71
     3
 72
    11
 73
     7
 74
     5
 42
0.000000001
 43
0.0000000001
 44
0.00000001
 40
0.0
 40
0.0
 40
0.0
 40
0.0
 40
0.6426272316149262
 40
1.270140517222416
 40
1.874885608809583
 40
2.451620239375717
 40
2.451620239375717
 40
2.451620239375717
 40
2.451620239375717
 10
275.3581806026199
 20
805.9727021608138
 30
0.0
 10
275.4772620864158
 20
805.7941257628362
 30
0.0
 10
275.7126243645931
 20
805.4411728964119
 30
0.0
 10
275.9594553309393
 20
804.8641684082033
 30
0.0
 10
276.1236714768843
 20
804.2799961648514
 30
0.0
 10
276.1452850213026
 20
803.8857002483189
 30
0.0
 10
276.1558355797898
 20
803.6932262630637
 30
0.0
 11
275.3581806026199
 21
805.9727021608138
 31
0.0
 11
275.6979804995389
 21
805.4272612481035
 31
0.0
 11
275.9493914975014
 21
804.8523130455703
 31
0.0
 11
276.103777417469
 21
804.2676066100981
 31
0.0
 11
276.1558355797898
 21
803.6932262630637
 31
0.0
  0
SPLINE
  5
FC
330
47
100
AcDbEntity
  8
0
  6
Continuous
 62
     7
100
AcDbSpline
210
0.0
220
0.0
230
1.0
 70
     8
 71
     3
 72
    11
 73
     7
 74
     5
 42
0.000000001
 43
0.0000000001
 44
0.00000001
 40
0.0
 40
0.0
 40
0.0
 40
0.0
 40
0.9180389024373329
 40
1.814486453947037
 40
2.678408014125456
 40
3.502314629676639
 40
3.502314629676639
 40
3.502314629676639
 40
3.502314629676639
 10
276.3153665752238
 20
806.5746204027067
 30
0.0
 10
276.4854829806708
 20
806.3195112627026
 30
0.0
 10
276.8217148122292
 20
805.8152928851828
 30
0.0
 10
277.1743304758198
 20
804.991000757346
 30
0.0
 10
277.4089249734236
 20
804.1564689811077
 30
0.0
 10
277.4398014590478
 20
803.5931890992944
 30
0.0
 10
277.4548736854665
 20
803.3182262630637
 30
0.0
 11
276.3153665752238
 21
806.5746204027067
 31
0.0
 11
276.8007949993937
 21
805.795419098835
 31
0.0
 11
277.1599535679116
 21
804.9740645237873
 31
0.0
 11
277.3805048821511
 21
804.13876961597
 31
0.0
 11
277.4548736854665
 21
803.3182262630637
 31
0.0
  0
SPLINE
  5
FD
330
47
100
AcDbEntity
  8
0
  6
Continuous
 62
     7
100
AcDbSpline
210
0.0
220
0.0
230
1.0
 70
     8
 71
     3
 72
    13
 73
     9
 74
     7
 42
0.000000001
 43
0.0000000001
 44
0.00000001
 40
0.0
 40
0.0
 40
0.0
 40
0.0
 40
3.444745731294239
 40
7.038877416318511
 40
10.76099018787199
 40
14.57905391810086
 40
18.45368568593354
 40
22.34138509908465
 40
22.34138509908465
 40
22.34138509908465
 40
22.34138509908465
 10
270.0003910135621
 20
828.769222582821
 30
0.0
 10
271.1302053640979
 20
828.5520881881317
 30
0.0
 10
273.4388299552124
 20
828.1084030642019
 30
0.0
 10
276.7856410913972
 20
826.7644955119544
 30
0.0
 10
280.038910216621
 20
824.9612396357095
 30
0.0
 10
283.0984554413384
 20
822.6838022975223
 30
0.0
 10
285.9227081732126
 20
820.031777740342
 30
0.0
 10
287.5169191766207
 20
817.9896886799661
 30
0.0
 10
288.3153665752238
 20
816.96692524812
 30
0.0
 11
270.0003910135621
 21
828.769222582821
 31
0.0
 11
273.3612280394697
 21
828.0135456362422
 31
0.0
 11
276.7125920671345
 21
826.7150304313195
 31
0.0
 11
279.9665000378184
 21
824.9077655324526
 31
0.0
 11
283.0375278332212
 21
822.6391979365985
 31
0.0
 11
285.8450516417158
 21
819.9688830850081
 31
0.0
 11
288.3153665752238
 21
816.96692524812
 31
0.0
  0
ENDBLK
  5
49
330
47
100
AcDbEntity
  8
0
100
AcDbBlockEnd
  0
BLOCK
  5
4C
330
4A
100
AcDbEntity
  8
0
100
AcDbBlockBegin
  2
Allg1
 70
     0
 10
267.0003910067298
 20
804.5000000835998
 30
0.0
  3
Allg1
  1

  0
INSERT
  5
4B
330
4A
100
AcDbEntity
  8
0
100
AcDbBlockReference
  2
3240257_WCC_34-select__1
 10
244.5459083416578
 20
764.1780067199936
 30
0.0
  0
ENDBLK
  5
4D
330
4A
100
AcDbEntity
  8
0
100
AcDbBlockEnd
  0
BLOCK
  5
4F
330
4E
100
AcDbEntity
  8
0
100
AcDbBlockBegin
  2
3240257_WCC_34-select__2
 70
     0
 10
52.26862527508001
 20
788.441283053769
 30
0.0
  3
3240257_WCC_34-select__2
  1

  0
LINE
  5
FE
330
4E
100
AcDbEntity
  8
0
  6
Continuous
 62
     2
100
AcDbLine
 10
88.95283580139582
 20
788.441283053769
 30
0.0
 11
88.95283580139582
 21
812.441283053769
 31
0.0
  0
LINE
  5
FF
330
4E
100
AcDbEntity
  8
0
  6
Continuous
 62
     7
100
AcDbLine
 10
72.06862527508001
 20
805.441283053769
 30
0.0
 11
74.15537662102814
 21
805.441283053769
 31
0.0
  0
LINE
  5
100
330
4E
100
AcDbEntity
  8
0
  6
Continuous
 62
     7
100
AcDbLine
 10
68.38187392913188
 20
805.441283053769
 30
0.0
 11
70.46862527508002
 21
805.441283053769
 31
0.0
  0
LINE
  5
101
330
4E
100
AcDbEntity
  8
0
  6
Continuous
 62
     7
100
AcDbLine
 10
72.06862527508001
 20
805.441283053769
 30
0.0
 11
70.46862527508002
 21
805.441283053769
 31
0.0
  0
LINE
  5
102
330
4E
100
AcDbEntity
  8
0
  6
Continuous
 62
     7
100
AcDbLine
 10
74.15537662102814
 20
805.441283053769
 30
0.0
 11
77.04212796697627
 21
800.441283053769
 31
0.0
  0
LINE
  5
103
330
4E
100
AcDbEntity
  8
0
  6
Continuous
 62
     7
100
AcDbLine
 10
70.46862527508
 20
795.441283053769
 30
0.0
 11
68.38187392913188
 21
795.441283053769
 31
0.0
  0
LINE
  5
104
330
4E
100
AcDbEntity
  8
0
  6
Continuous
 62
     7
100
AcDbLine
 10
70.46862527508
 20
795.441283053769
 30
0.0
 11
72.06862527508001
 21
795.441283053769
 31
0.0
  0
LINE
  5
105
330
4E
100
AcDbEntity
  8
0
  6
Continuous
 62
     7
100
AcDbLine
 10
74.15537662102814
 20
795.441283053769
 30
0.0
 11
72.06862527508001
 21
795.441283053769
 31
0.0
  0
LINE
  5
106
330
4E
100
AcDbEntity
  8
0
  6
Continuous
 62
     7
100
AcDbLine
 10
68.38187392913188
 20
795.441283053769
 30
0.0
 11
65.49512258318376
 21
800.441283053769
 31
0.0
  0
LINE
  5
107
330
4E
100
AcDbEntity
  8
0
  6
Continuous
 62
     7
100
AcDbLine
 10
70.46862527508
 20
795.441283053769
 30
0.0
 11
70.46862527508002
 21
805.441283053769
 31
0.0
  0
LINE
  5
108
330
4E
100
AcDbEntity
  8
0
  6
Continuous
 62
     7
100
AcDbLine
 10
72.06862527508001
 20
805.441283053769
 30
0.0
 11
72.06862527508001
 21
795.441283053769
 31
0.0
  0
LINE
  5
109
330
4E
100
AcDbEntity
  8
0
  6
Continuous
 62
     7
100
AcDbLine
 10
65.49512258318376
 20
800.441283053769
 30
0.0
 11
68.38187392913188
 21
805.441283053769
 31
0.0
  0
LINE
  5
10A
330
4E
100
AcDbEntity
  8
0
  6
Continuous
 62
     7
100
AcDbLine
 10
53.58441474876423
 20
788.441283053769
 30
0.0
 11
88.95283580139582
 21
788.441283053769
 31
0.0
  0
LINE
  5
10B
330
4E
100
AcDbEntity
  8
0
  6
Continuous
 62
     7
100
AcDbLine
 10
90.26862527508004
 20
788.441283053769
 30
0.0
 11
90.26862527508003
 21
812.441283053769
 31
0.0
  0
LINE
  5
10C
330
4E
100
AcDbEntity
  8
0
  6
Continuous
 62
     7
100
AcDbLine
 10
77.04212796697627
 20
800.441283053769
 30
0.0
 11
74.15537662102814
 21
795.441283053769
 31
0.0
  0
LINE
  5
10D
330
4E
100
AcDbEntity
  8
0
  6
Continuous
 62
     7
100
AcDbLine
 10
88.95283580139582
 20
788.441283053769
 30
0.0
 11
90.26862527508004
 21
788.441283053769
 31
0.0
  0
LINE
  5
10E
330
4E
100
AcDbEntity
  8
0
  6
Continuous
 62
     7
100
AcDbLine
 10
88.95283580139582
 20
812.441283053769
 30
0.0
 11
90.26862527508003
 21
812.441283053769
 31
0.0
  0
LINE
  5
10F
330
4E
100
AcDbEntity
  8
0
  6
Continuous
 62
     7
100
AcDbLine
 10
52.26862527508001
 20
788.441283053769
 30
0.0
 11
52.26862527508001
 21
812.441283053769
 31
0.0
  0
LINE
  5
110
330
4E
100
AcDbEntity
  8
0
  6
Continuous
 62
     7
100
AcDbLine
 10
52.26862527508001
 20
812.441283053769
 30
0.0
 11
53.58441474876423
 21
812.441283053769
 31
0.0
  0
LINE
  5
111
330
4E
100
AcDbEntity
  8
0
  6
Continuous
 62
     2
100
AcDbLine
 10
53.58441474876423
 20
788.441283053769
 30
0.0
 11
53.58441474876423
 21
812.441283053769
 31
0.0
  0
LINE
  5
112
330
4E
100
AcDbEntity
  8
0
  6
Continuous
 62
     7
100
AcDbLine
 10
53.58441474876423
 20
812.441283053769
 30
0.0
 11
88.95283580139582
 21
812.441283053769
 31
0.0
  0
LINE
  5
113
330
4E
100
AcDbEntity
  8
0
  6
Continuous
 62
     7
100
AcDbLine
 10
52.26862527508001
 20
788.441283053769
 30
0.0
 11
53.58441474876423
 21
788.441283053769
 31
0.0
  0
ENDBLK
  5
50
330
4E
100
AcDbEntity
  8
0
100
AcDbBlockEnd
  0
BLOCK
  5
53
330
51
100
AcDbEntity
  8
0
100
AcDbBlockBegin
  2
Drfsicht1
 70
     0
 10
71.26862527508001
 20
800.4412830401043
 30
0.0
  3
Drfsicht1
  1

  0
INSERT
  5
52
330
51
100
AcDbEntity
  8
0
100
AcDbBlockReference
  2
3240257_WCC_34-select__2
 10
52.26862527508001
 20
788.441283053769
 30
0.0
  0
MTEXT
  5
115
330
51
100
AcDbEntity
  8
1
 62
     6
100
AcDbMText
 10
71.26862527508001
 20
782.6825680895327
 30
0.0
 40
5.0
 41
0.0
 71
     2
 72
     1
  1
 
  7
CONVERTER_11
 73
     1
 44
1.32052821128451
  0
ENDBLK
  5
54
330
51
100
AcDbEntity
  8
0
100
AcDbBlockEnd
  0
BLOCK
  5
56
330
55
100
AcDbEntity
  8
0
100
AcDbBlockBegin
  2
3240257_WCC_34-select__3
 70
     0
 10
168.999999986843
 20
840.2750002099784
 30
0.0
  3
3240257_WCC_34-select__3
  1

  0
LINE
  5
116
330
55
100
AcDbEntity
  8
0
  6
Continuous
 62
     7
100
AcDbLine
 10
205.499999986843
 20
842.0620585392594
 30
0.0
 11
205.499999986843
 21
840.2750002099784
 31
0.0
  0
LINE
  5
117
330
55
100
AcDbEntity
  8
0
  6
Continuous
 62
     7
100
AcDbLine
 10
205.499999986843
 20
889.1202327886435
 30
0.0
 11
205.499999986843
 21
861.2750002099784
 31
0.0
  0
LINE
  5
118
330
55
100
AcDbEntity
  8
0
  6
Continuous
 62
     7
100
AcDbLine
 10
205.499999986843
 20
855.8479076795959
 30
0.0
 11
205.499999986843
 21
849.8370292308998
 31
0.0
  0
LINE
  5
119
330
55
100
AcDbEntity
  8
0
  6
Continuous
 62
     7
100
AcDbLine
 10
205.499999986843
 20
849.8370292308998
 30
0.0
 11
205.499999986843
 21
846.5750002099784
 31
0.0
  0
LINE
  5
11A
330
55
100
AcDbEntity
  8
0
  6
Continuous
 62
     7
100
AcDbLine
 10
205.499999986843
 20
846.5750002099784
 30
0.0
 11
205.499999986843
 21
842.0620585392594
 31
0.0
  0
LINE
  5
11B
330
55
100
AcDbEntity
  8
0
  6
Continuous
 62
     7
100
AcDbLine
 10
205.499999986843
 20
861.2750002099784
 30
0.0
 11
205.499999986843
 21
855.8479076795959
 31
0.0
  0
LINE
  5
11C
330
55
100
AcDbEntity
  8
0
  6
Continuous
 62
     7
100
AcDbLine
 10
193.7735026787393
 20
913.7250002099784
 30
0.0
 11
193.7735026787393
 21
917.7250002099784
 31
0.0
  0
LINE
  5
11D
330
55
100
AcDbEntity
  8
0
  6
Continuous
 62
     7
100
AcDbLine
 10
170.499999986843
 20
840.2750002099784
 30
0.0
 11
168.999999986843
 21
840.2750002099784
 31
0.0
  0
LINE
  5
11E
330
55
100
AcDbEntity
  8
0
  6
Continuous
 62
     7
100
AcDbLine
 10
170.499999986843
 20
846.5750002099784
 30
0.0
 11
168.999999986843
 21
846.5750002099784
 31
0.0
  0
LINE
  5
11F
330
55
100
AcDbEntity
  8
0
  6
Continuous
 62
     7
100
AcDbLine
 10
170.499999986843
 20
861.2750002099784
 30
0.0
 11
168.999999986843
 21
861.2750002099784
 31
0.0
  0
LINE
  5
120
330
55
100
AcDbEntity
  8
0
  6
Continuous
 62
     7
100
AcDbLine
 10
170.499999986843
 20
849.8370292308998
 30
0.0
 11
168.999999986843
 21
849.8370292308998
 31
0.0
  0
LINE
  5
121
330
55
100
AcDbEntity
  8
0
  6
Continuous
 62
     7
100
AcDbLine
 10
170.499999986843
 20
842.0620585392593
 30
0.0
 11
168.999999986843
 21
842.0620585392593
 31
0.0
  0
LINE
  5
122
330
55
100
AcDbEntity
  8
0
  6
Continuous
 62
     7
100
AcDbLine
 10
170.499999986843
 20
855.8479076795959
 30
0.0
 11
168.999999986843
 21
855.8479076795959
 31
0.0
  0
LINE
  5
123
330
55
100
AcDbEntity
  8
0
  6
Continuous
 62
     7
100
AcDbLine
 10
174.2267469215719
 20
873.3669314935794
 30
0.0
 11
171.749999986843
 21
873.3669314935794
 31
0.0
  0
LINE
  5
124
330
55
100
AcDbEntity
  8
0
  6
Continuous
 62
     7
100
AcDbLine
 10
195.249999986843
 20
885.9250002099784
 30
0.0
 11
195.249999986843
 21
882.1003606005738
 31
0.0
  0
LINE
  5
125
330
55
100
AcDbEntity
  8
0
  6
Continuous
 62
     7
100
AcDbLine
 10
204.249999986843
 20
873.3669314935794
 30
0.0
 11
201.7732530521141
 21
873.3669314935794
 31
0.0
  0
LINE
  5
126
330
55
100
AcDbEntity
  8
0
  6
Continuous
 62
     7
100
AcDbLine
 10
190.999999986843
 20
885.9250002099784
 30
0.0
 11
195.249999986843
 21
885.9250002099784
 31
0.0
  0
LINE
  5
127
330
55
100
AcDbEntity
  8
0
  6
Continuous
 62
     7
100
AcDbLine
 10
190.999999986843
 20
885.9250002099784
 30
0.0
 11
190.999999986843
 21
898.5741033309562
 31
0.0
  0
LINE
  5
128
330
55
100
AcDbEntity
  8
0
  6
Continuous
 62
     7
100
AcDbLine
 10
184.999999986843
 20
885.9250002099784
 30
0.0
 11
190.999999986843
 21
885.9250002099784
 31
0.0
  0
LINE
  5
129
330
55
100
AcDbEntity
  8
0
  6
Continuous
 62
     7
100
AcDbLine
 10
206.999999986843
 20
861.2750002099784
 30
0.0
 11
205.499999986843
 21
861.2750002099784
 31
0.0
  0
LINE
  5
12A
330
55
100
AcDbEntity
  8
0
  6
Continuous
 62
     7
100
AcDbLine
 10
206.999999986843
 20
855.8479076795959
 30
0.0
 11
205.499999986843
 21
855.8479076795959
 31
0.0
  0
LINE
  5
12B
330
55
100
AcDbEntity
  8
0
  6
Continuous
 62
     7
100
AcDbLine
 10
193.7735026787393
 20
917.7250002099784
 30
0.0
 11
190.8867513327911
 21
917.7250002099784
 31
0.0
  0
LINE
  5
12C
330
55
100
AcDbEntity
  8
0
  6
Continuous
 62
     7
100
AcDbLine
 10
190.8867513327911
 20
917.7250002099784
 30
0.0
 11
188.799999986843
 21
917.7250002099784
 31
0.0
  0
LINE
  5
12D
330
55
100
AcDbEntity
  8
0
  6
Continuous
 62
     7
100
AcDbLine
 10
187.199999986843
 20
917.7250002099784
 30
0.0
 11
187.199999986843
 21
916.1250002099785
 31
0.0
  0
LINE
  5
12E
330
55
100
AcDbEntity
  8
0
  6
Continuous
 62
     7
100
AcDbLine
 10
187.199999986843
 20
916.1250002099785
 30
0.0
 11
188.799999986843
 21
916.1250002099785
 31
0.0
  0
LINE
  5
12F
330
55
100
AcDbEntity
  8
0
  6
Continuous
 62
     7
100
AcDbLine
 10
188.799999986843
 20
916.1250002099785
 30
0.0
 11
188.799999986843
 21
917.7250002099784
 31
0.0
  0
LINE
  5
130
330
55
100
AcDbEntity
  8
0
  6
Continuous
 62
     7
100
AcDbLine
 10
182.2264972949467
 20
913.7250002099784
 30
0.0
 11
182.2264972949467
 21
917.7250002099784
 31
0.0
  0
LINE
  5
131
330
55
100
AcDbEntity
  8
0
  6
Continuous
 62
     7
100
AcDbLine
 10
185.1132486408949
 20
917.7250002099784
 30
0.0
 11
182.2264972949467
 21
917.7250002099784
 31
0.0
  0
LINE
  5
132
330
55
100
AcDbEntity
  8
0
  6
Continuous
 62
     7
100
AcDbLine
 10
187.199999986843
 20
917.7250002099784
 30
0.0
 11
185.1132486408949
 21
917.7250002099784
 31
0.0
  0
LINE
  5
133
330
55
100
AcDbEntity
  8
0
  6
Continuous
 62
     7
100
AcDbLine
 10
184.999999986843
 20
885.9250002099784
 30
0.0
 11
184.999999986843
 21
898.5741033309562
 31
0.0
  0
LINE
  5
134
330
55
100
AcDbEntity
  8
0
  6
Continuous
 62
     7
100
AcDbLine
 10
180.749999986843
 20
885.9250002099784
 30
0.0
 11
184.999999986843
 21
885.9250002099784
 31
0.0
  0
LINE
  5
135
330
55
100
AcDbEntity
  8
0
  6
Continuous
 62
     7
100
AcDbLine
 10
180.749999986843
 20
882.1003606005738
 30
0.0
 11
180.749999986843
 21
885.9250002099784
 31
0.0
  0
LINE
  5
136
330
55
100
AcDbEntity
  8
0
  6
Continuous
 62
     7
100
AcDbLine
 10
185.1132486408949
 20
913.7250002099784
 30
0.0
 11
185.1132486408949
 21
917.7250002099784
 31
0.0
  0
LINE
  5
137
330
55
100
AcDbEntity
  8
0
  6
Continuous
 62
     7
100
AcDbLine
 10
190.8867513327911
 20
913.7250002099784
 30
0.0
 11
190.8867513327911
 21
917.7250002099784
 31
0.0
  0
LINE
  5
138
330
55
100
AcDbEntity
  8
0
  6
Continuous
 62
     7
100
AcDbLine
 10
184.499999986843
 20
902.2750002099784
 30
0.0
 11
184.999999986843
 21
902.2750002099784
 31
0.0
  0
LINE
  5
139
330
55
100
AcDbEntity
  8
0
  6
Continuous
 62
     7
100
AcDbLine
 10
190.999999986843
 20
902.2750002099784
 30
0.0
 11
191.499999986843
 21
902.2750002099784
 31
0.0
  0
LINE
  5
13A
330
55
100
AcDbEntity
  8
0
  6
Continuous
 62
     7
100
AcDbLine
 10
184.999999986843
 20
902.2750002099784
 30
0.0
 11
190.999999986843
 21
902.2750002099784
 31
0.0
  0
LINE
  5
13B
330
55
100
AcDbEntity
  8
0
  6
Continuous
 62
     7
100
AcDbLine
 10
190.999999986843
 20
902.2750002099784
 30
0.0
 11
190.999999986843
 21
913.7250002099784
 31
0.0
  0
LINE
  5
13C
330
55
100
AcDbEntity
  8
0
  6
Continuous
 62
     7
100
AcDbLine
 10
191.499999986843
 20
900.018420351146
 30
0.0
 11
191.499999986843
 21
902.2750002099784
 31
0.0
  0
LINE
  5
13D
330
55
100
AcDbEntity
  8
0
  6
Continuous
 62
     7
100
AcDbLine
 10
184.499999986843
 20
900.018420351146
 30
0.0
 11
184.499999986843
 21
902.2750002099784
 31
0.0
  0
LINE
  5
13E
330
55
100
AcDbEntity
  8
0
  6
Continuous
 62
     7
100
AcDbLine
 10
190.999999986843
 20
913.7250002099784
 30
0.0
 11
190.8867513327911
 21
913.7250002099784
 31
0.0
  0
LINE
  5
13F
330
55
100
AcDbEntity
  8
0
  6
Continuous
 62
     7
100
AcDbLine
 10
193.7735026787393
 20
913.7250002099784
 30
0.0
 11
190.999999986843
 21
913.7250002099784
 31
0.0
  0
LINE
  5
140
330
55
100
AcDbEntity
  8
0
  6
Continuous
 62
     7
100
AcDbLine
 10
185.1132486408949
 20
913.7250002099784
 30
0.0
 11
184.999999986843
 21
913.7250002099784
 31
0.0
  0
LINE
  5
141
330
55
100
AcDbEntity
  8
0
  6
Continuous
 62
     7
100
AcDbLine
 10
184.999999986843
 20
913.7250002099784
 30
0.0
 11
182.2264972949467
 21
913.7250002099784
 31
0.0
  0
LINE
  5
142
330
55
100
AcDbEntity
  8
0
  6
Continuous
 62
     7
100
AcDbLine
 10
190.8867513327911
 20
913.7250002099784
 30
0.0
 11
185.1132486408949
 21
913.7250002099784
 31
0.0
  0
LINE
  5
143
330
55
100
AcDbEntity
  8
0
  6
Continuous
 62
     7
100
AcDbLine
 10
184.999999986843
 20
902.2750002099784
 30
0.0
 11
184.999999986843
 21
913.7250002099784
 31
0.0
  0
LINE
  5
144
330
55
100
AcDbEntity
  8
0
  6
Continuous
 62
     7
100
AcDbLine
 10
206.999999986843
 20
840.2750002099784
 30
0.0
 11
205.499999986843
 21
840.2750002099784
 31
0.0
  0
LINE
  5
145
330
55
100
AcDbEntity
  8
0
  6
Continuous
 62
     7
100
AcDbLine
 10
206.999999986843
 20
846.5750002099784
 30
0.0
 11
205.499999986843
 21
846.5750002099784
 31
0.0
  0
LINE
  5
146
330
55
100
AcDbEntity
  8
0
  6
Continuous
 62
     7
100
AcDbLine
 10
206.999999986843
 20
842.0620585392594
 30
0.0
 11
205.499999986843
 21
842.0620585392594
 31
0.0
  0
LINE
  5
147
330
55
100
AcDbEntity
  8
0
  6
Continuous
 62
     7
100
AcDbLine
 10
206.999999986843
 20
849.8370292308998
 30
0.0
 11
206.999999986843
 21
855.8479076795959
 31
0.0
  0
LINE
  5
148
330
55
100
AcDbEntity
  8
0
  6
Continuous
 62
     7
100
AcDbLine
 10
206.999999986843
 20
849.8370292308998
 30
0.0
 11
205.499999986843
 21
849.8370292308998
 31
0.0
  0
LINE
  5
149
330
55
100
AcDbEntity
  8
0
  6
Continuous
 62
     7
100
AcDbLine
 10
206.999999986843
 20
842.0620585392594
 30
0.0
 11
206.999999986843
 21
846.5750002099784
 31
0.0
  0
LINE
  5
14A
330
55
100
AcDbEntity
  8
0
  6
Continuous
 62
     7
100
AcDbLine
 10
206.999999986843
 20
840.2750002099784
 30
0.0
 11
206.999999986843
 21
842.0620585392594
 31
0.0
  0
LINE
  5
14B
330
55
100
AcDbEntity
  8
0
  6
Continuous
 62
     7
100
AcDbLine
 10
170.499999986843
 20
842.0620585392593
 30
0.0
 11
170.499999986843
 21
846.5750002099784
 31
0.0
  0
LINE
  5
14C
330
55
100
AcDbEntity
  8
0
  6
Continuous
 62
     7
100
AcDbLine
 10
170.499999986843
 20
840.2750002099784
 30
0.0
 11
170.499999986843
 21
842.0620585392593
 31
0.0
  0
LINE
  5
14D
330
55
100
AcDbEntity
  8
0
  6
Continuous
 62
     7
100
AcDbLine
 10
170.499999986843
 20
846.5750002099784
 30
0.0
 11
170.499999986843
 21
849.8370292308998
 31
0.0
  0
LINE
  5
14E
330
55
100
AcDbEntity
  8
0
  6
Continuous
 62
     7
100
AcDbLine
 10
170.499999986843
 20
861.2750002099784
 30
0.0
 11
170.499999986843
 21
889.1202327886435
 31
0.0
  0
LINE
  5
14F
330
55
100
AcDbEntity
  8
0
  6
Continuous
 62
     7
100
AcDbLine
 10
170.499999986843
 20
855.8479076795959
 30
0.0
 11
170.499999986843
 21
861.2750002099784
 31
0.0
  0
LINE
  5
150
330
55
100
AcDbEntity
  8
0
  6
Continuous
 62
     7
100
AcDbLine
 10
170.499999986843
 20
849.8370292308998
 30
0.0
 11
170.499999986843
 21
855.8479076795959
 31
0.0
  0
LINE
  5
151
330
55
100
AcDbEntity
  8
0
  6
Continuous
 62
     7
100
AcDbLine
 10
206.999999986843
 20
846.5750002099784
 30
0.0
 11
206.999999986843
 21
849.8370292308998
 31
0.0
  0
LINE
  5
152
330
55
100
AcDbEntity
  8
0
  6
Continuous
 62
     7
100
AcDbLine
 10
206.999999986843
 20
861.2750002099784
 30
0.0
 11
206.999999986843
 21
889.1202327886435
 31
0.0
  0
LINE
  5
153
330
55
100
AcDbEntity
  8
0
  6
Continuous
 62
     7
100
AcDbLine
 10
206.999999986843
 20
855.8479076795959
 30
0.0
 11
206.999999986843
 21
861.2750002099784
 31
0.0
  0
LINE
  5
154
330
55
100
AcDbEntity
  8
0
  6
Continuous
 62
     7
100
AcDbLine
 10
168.999999986843
 20
846.5750002099784
 30
0.0
 11
168.999999986843
 21
842.0620585392593
 31
0.0
  0
LINE
  5
155
330
55
100
AcDbEntity
  8
0
  6
Continuous
 62
     7
100
AcDbLine
 10
168.999999986843
 20
842.0620585392593
 30
0.0
 11
168.999999986843
 21
840.2750002099784
 31
0.0
  0
LINE
  5
156
330
55
100
AcDbEntity
  8
0
  6
Continuous
 62
     7
100
AcDbLine
 10
168.999999986843
 20
849.8370292308998
 30
0.0
 11
168.999999986843
 21
846.5750002099784
 31
0.0
  0
LINE
  5
157
330
55
100
AcDbEntity
  8
0
  6
Continuous
 62
     7
100
AcDbLine
 10
168.999999986843
 20
889.1202327886435
 30
0.0
 11
168.999999986843
 21
861.2750002099784
 31
0.0
  0
LINE
  5
158
330
55
100
AcDbEntity
  8
0
  6
Continuous
 62
     7
100
AcDbLine
 10
168.999999986843
 20
861.2750002099784
 30
0.0
 11
168.999999986843
 21
855.8479076795959
 31
0.0
  0
LINE
  5
159
330
55
100
AcDbEntity
  8
0
  6
Continuous
 62
     7
100
AcDbLine
 10
168.999999986843
 20
855.8479076795959
 30
0.0
 11
168.999999986843
 21
849.8370292308998
 31
0.0
  0
LINE
  5
15A
330
55
100
AcDbEntity
  8
1
  6
DOT_CENTER
 62
     2
100
AcDbLine
 10
187.999999986843
 20
885.9250002099784
 30
0.0
 11
187.999999986843
 21
898.5741033309562
 31
0.0
  0
LINE
  5
15B
330
55
100
AcDbEntity
  8
1
  6
DOT_CENTER
 62
     2
100
AcDbLine
 10
187.999999986843
 20
900.018420351146
 30
0.0
 11
187.999999986843
 21
913.7250002099772
 31
0.0
  0
ARC
  5
15C
330
55
100
AcDbEntity
  8
0
  6
Continuous
 62
     7
100
AcDbCircle
 10
187.999999986843
 20
865.6250002099785
 30
0.0
 40
17.99999999999997
100
AcDbArc
 50
25.47436945121413
 51
66.24805397407785
  0
ARC
  5
15D
330
55
100
AcDbEntity
  8
0
  6
Continuous
 62
     7
100
AcDbCircle
 10
201.999999986843
 20
889.1202327886435
 30
0.0
 40
5.0
100
AcDbArc
 50
0.0
 51
42.53689836298611
  0
ARC
  5
15E
330
55
100
AcDbEntity
  8
0
  6
Continuous
 62
     7
100
AcDbCircle
 10
187.999999986843
 20
865.6250002099785
 30
0.0
 40
15.79999999999995
100
AcDbArc
 50
29.34029571915872
 51
150.6597042808413
  0
ARC
  5
15F
330
55
100
AcDbEntity
  8
0
  6
Continuous
 62
     7
100
AcDbCircle
 10
173.999999986843
 20
889.1202327886435
 30
0.0
 40
4.999999999999997
100
AcDbArc
 50
137.4631016370137
 51
180.0
  0
ARC
  5
160
330
55
100
AcDbEntity
  8
0
  6
Continuous
 62
     7
100
AcDbCircle
 10
187.999999986843
 20
865.6250002099785
 30
0.0
 40
17.99999999999997
100
AcDbArc
 50
113.7519460259222
 51
154.5256305487859
  0
ARC
  5
161
330
55
100
AcDbEntity
  8
0
  6
Continuous
 62
     7
100
AcDbCircle
 10
187.999999986843
 20
876.2750002099784
 30
0.0
 40
24.00000000000005
100
AcDbArc
 50
98.38553864708132
 51
137.4631016370138
  0
ARC
  5
162
330
55
100
AcDbEntity
  8
0
  6
Continuous
 62
     7
100
AcDbCircle
 10
187.999999986843
 20
876.2750002099784
 30
0.0
 40
22.49999999999999
100
AcDbArc
 50
82.33774433923394
 51
97.66225566076608
  0
ARC
  5
163
330
55
100
AcDbEntity
  8
0
  6
Continuous
 62
     7
100
AcDbCircle
 10
187.999999986843
 20
876.2750002099784
 30
0.0
 40
22.50000000000001
100
AcDbArc
 50
42.53689836298608
 51
82.33774433923394
  0
ARC
  5
164
330
55
100
AcDbEntity
  8
0
  6
Continuous
 62
     7
100
AcDbCircle
 10
201.999999986843
 20
889.1202327886435
 30
0.0
 40
3.5
100
AcDbArc
 50
0.0
 51
42.53689836298562
  0
ARC
  5
165
330
55
100
AcDbEntity
  8
0
  6
Continuous
 62
     7
100
AcDbCircle
 10
173.999999986843
 20
889.1202327886435
 30
0.0
 40
3.500000000000028
100
AcDbArc
 50
137.4631016370144
 51
180.0
  0
ARC
  5
166
330
55
100
AcDbEntity
  8
0
  6
Continuous
 62
     7
100
AcDbCircle
 10
187.999999986843
 20
876.2750002099784
 30
0.0
 40
22.49999999999999
100
AcDbArc
 50
97.66225566076608
 51
137.4631016370139
  0
ARC
  5
167
330
55
100
AcDbEntity
  8
0
  6
Continuous
 62
     7
100
AcDbCircle
 10
187.999999986843
 20
876.2750002099784
 30
0.0
 40
24.00000000000005
100
AcDbArc
 50
81.61446135291871
 51
98.38553864708132
  0
ARC
  5
168
330
55
100
AcDbEntity
  8
0
  6
Continuous
 62
     7
100
AcDbCircle
 10
187.999999986843
 20
876.2750002099784
 30
0.0
 40
24.0
100
AcDbArc
 50
42.53689836298614
 51
81.61446135291871
  0
ENDBLK
  5
57
330
55
100
AcDbEntity
  8
0
100
AcDbBlockEnd
  0
BLOCK
  5
5A
330
58
100
AcDbEntity
  8
0
100
AcDbBlockBegin
  2
Rckans1
 70
     0
 10
187.999999986843
 20
879.00000010499
 30
0.0
  3
Rckans1
  1

  0
INSERT
  5
59
330
58
100
AcDbEntity
  8
0
100
AcDbBlockReference
  2
3240257_WCC_34-select__3
 10
168.999999986843
 20
840.2750002099784
 30
0.0
  0
MTEXT
  5
169
330
58
100
AcDbEntity
  8
1
 62
     6
100
AcDbMText
 10
187.999999986843
 20
838.1999981049901
 30
0.0
 40
5.0
 41
0.0
 71
     2
 72
     1
  1
 
  7
CONVERTER_11
 73
     1
 44
1.32052821128451
  0
ENDBLK
  5
5B
330
58
100
AcDbEntity
  8
0
100
AcDbBlockEnd
  0
BLOCK
  5
5D
330
5C
100
AcDbEntity
  8
0
100
AcDbBlockBegin
  2
3240257_WCC_34-select__4
 70
     0
 10
107.6343126266153
 20
840.2750002099783
 30
0.0
  3
3240257_WCC_34-select__4
  1

  0
LINE
  5
16A
330
5C
100
AcDbEntity
  8
0
  6
Continuous
 62
     7
100
AcDbLine
 10
131.6343126266153
 20
900.2750002099783
 30
0.0
 11
123.1343126266153
 21
900.2750002099783
 31
0.0
  0
LINE
  5
16B
330
5C
100
AcDbEntity
  8
0
  6
Continuous
 62
     7
100
AcDbLine
 10
131.6343126266153
 20
892.50055715145
 30
0.0
 11
131.6343126266153
 21
889.1202327886434
 31
0.0
  0
LINE
  5
16C
330
5C
100
AcDbEntity
  8
0
  6
Continuous
 62
     7
100
AcDbLine
 10
107.6343126266153
 20
892.50055715145
 30
0.0
 11
107.6343126266153
 21
889.1202327886434
 31
0.0
  0
LINE
  5
16D
330
5C
100
AcDbEntity
  8
0
  6
Continuous
 62
     2
100
AcDbLine
 10
131.6343126266153
 20
889.1202327886434
 30
0.0
 11
107.6343126266153
 21
889.1202327886434
 31
0.0
  0
LINE
  5
16E
330
5C
100
AcDbEntity
  8
0
  6
Continuous
 62
     2
100
AcDbLine
 10
131.6343126266153
 20
892.50055715145
 30
0.0
 11
107.6343126266153
 21
892.50055715145
 31
0.0
  0
LINE
  5
16F
330
5C
100
AcDbEntity
  8
0
  6
Continuous
 62
     7
100
AcDbLine
 10
116.1343126266153
 20
900.2750002099783
 30
0.0
 11
107.6343126266153
 21
900.2750002099783
 31
0.0
  0
LINE
  5
170
330
5C
100
AcDbEntity
  8
0
  6
Continuous
 62
     7
100
AcDbLine
 10
130.6343126266153
 20
843.4250002099783
 30
0.0
 11
119.6343126266153
 21
840.2750002099783
 31
0.0
  0
LINE
  5
171
330
5C
100
AcDbEntity
  8
0
  6
Continuous
 62
     7
100
AcDbLine
 10
131.6343126266153
 20
892.50055715145
 30
0.0
 11
131.6343126266153
 21
900.2750002099783
 31
0.0
  0
LINE
  5
172
330
5C
100
AcDbEntity
  8
0
  6
Continuous
 62
     7
100
AcDbLine
 10
124.6343126266153
 20
913.7250002099784
 30
0.0
 11
124.6343126266153
 21
917.7250002099784
 31
0.0
  0
LINE
  5
173
330
5C
100
AcDbEntity
  8
0
  6
Continuous
 62
     7
100
AcDbLine
 10
131.6343126266153
 20
889.1202327886434
 30
0.0
 11
131.6343126266153
 21
857.3750002099783
 31
0.0
  0
LINE
  5
174
330
5C
100
AcDbEntity
  8
0
  6
Continuous
 62
     7
100
AcDbLine
 10
130.6343126266153
 20
846.5750002099784
 30
0.0
 11
130.6343126266153
 21
843.4250002099783
 31
0.0
  0
LINE
  5
175
330
5C
100
AcDbEntity
  8
0
  6
Continuous
 62
     7
100
AcDbLine
 10
127.2343126266153
 20
854.4627037407173
 30
0.0
 11
127.2343126266153
 21
846.5750002099784
 31
0.0
  0
LINE
  5
176
330
5C
100
AcDbEntity
  8
0
  6
Continuous
 62
     7
100
AcDbLine
 10
131.6343126266153
 20
857.3750002099783
 30
0.0
 11
127.2343126266153
 21
854.4627037407173
 31
0.0
  0
LINE
  5
177
330
5C
100
AcDbEntity
  8
0
  6
Continuous
 62
     7
100
AcDbLine
 10
114.1343126266153
 20
840.2750002099783
 30
0.0
 11
108.6343126266153
 21
842.0620585392593
 31
0.0
  0
LINE
  5
178
330
5C
100
AcDbEntity
  8
0
  6
Continuous
 62
     7
100
AcDbLine
 10
108.6343126266153
 20
842.0620585392593
 30
0.0
 11
108.6343126266153
 21
846.5750002099784
 31
0.0
  0
LINE
  5
179
330
5C
100
AcDbEntity
  8
0
  6
Continuous
 62
     7
100
AcDbLine
 10
108.6343126266153
 20
846.5750002099784
 30
0.0
 11
111.3843126266153
 21
846.5750002099784
 31
0.0
  0
LINE
  5
17A
330
5C
100
AcDbEntity
  8
0
  6
Continuous
 62
     7
100
AcDbLine
 10
127.2343126266153
 20
846.5750002099784
 30
0.0
 11
130.6343126266153
 21
846.5750002099784
 31
0.0
  0
LINE
  5
17B
330
5C
100
AcDbEntity
  8
0
  6
Continuous
 62
     7
100
AcDbLine
 10
111.3843126266153
 20
846.5750002099784
 30
0.0
 11
117.0343126266153
 21
849.8370292308997
 31
0.0
  0
LINE
  5
17C
330
5C
100
AcDbEntity
  8
0
  6
Continuous
 62
     7
100
AcDbLine
 10
117.0343126266153
 20
849.8370292308997
 30
0.0
 11
117.0343126266153
 21
855.8479076795959
 31
0.0
  0
LINE
  5
17D
330
5C
100
AcDbEntity
  8
0
  6
Continuous
 62
     7
100
AcDbLine
 10
116.1343126266153
 20
900.2750002099783
 30
0.0
 11
116.1343126266153
 21
902.2750002099783
 31
0.0
  0
LINE
  5
17E
330
5C
100
AcDbEntity
  8
0
  6
Continuous
 62
     7
100
AcDbLine
 10
116.1343126266153
 20
902.2750002099783
 30
0.0
 11
116.6343126266153
 21
902.2750002099783
 31
0.0
  0
LINE
  5
17F
330
5C
100
AcDbEntity
  8
0
  6
Continuous
 62
     7
100
AcDbLine
 10
116.6343126266153
 20
902.2750002099783
 30
0.0
 11
122.6343126266153
 21
902.2750002099783
 31
0.0
  0
LINE
  5
180
330
5C
100
AcDbEntity
  8
0
  6
Continuous
 62
     7
100
AcDbLine
 10
116.6343126266153
 20
902.2750002099783
 30
0.0
 11
116.6343126266153
 21
913.7250002099784
 31
0.0
  0
LINE
  5
181
330
5C
100
AcDbEntity
  8
0
  6
Continuous
 62
     7
100
AcDbLine
 10
122.6343126266153
 20
902.2750002099783
 30
0.0
 11
122.6343126266153
 21
913.7250002099784
 31
0.0
  0
LINE
  5
182
330
5C
100
AcDbEntity
  8
0
  6
Continuous
 62
     7
100
AcDbLine
 10
123.1343126266153
 20
900.2750002099783
 30
0.0
 11
123.1343126266153
 21
902.2750002099783
 31
0.0
  0
LINE
  5
183
330
5C
100
AcDbEntity
  8
0
  6
Continuous
 62
     7
100
AcDbLine
 10
122.6343126266153
 20
902.2750002099783
 30
0.0
 11
123.1343126266153
 21
902.2750002099783
 31
0.0
  0
LINE
  5
184
330
5C
100
AcDbEntity
  8
0
  6
Continuous
 62
     7
100
AcDbLine
 10
124.6343126266153
 20
913.7250002099784
 30
0.0
 11
122.6343126266153
 21
913.7250002099784
 31
0.0
  0
LINE
  5
185
330
5C
100
AcDbEntity
  8
0
  6
Continuous
 62
     7
100
AcDbLine
 10
122.6343126266153
 20
913.7250002099784
 30
0.0
 11
119.6343126266153
 21
913.7250002099784
 31
0.0
  0
LINE
  5
186
330
5C
100
AcDbEntity
  8
0
  6
Continuous
 62
     7
100
AcDbLine
 10
119.6343126266153
 20
917.7250002099784
 30
0.0
 11
124.6343126266153
 21
917.7250002099784
 31
0.0
  0
LINE
  5
187
330
5C
100
AcDbEntity
  8
0
  6
Continuous
 62
     7
100
AcDbLine
 10
119.6343126266153
 20
913.7250002099784
 30
0.0
 11
119.6343126266153
 21
917.7250002099784
 31
0.0
  0
LINE
  5
188
330
5C
100
AcDbEntity
  8
0
  6
Continuous
 62
     7
100
AcDbLine
 10
116.6343126266153
 20
913.7250002099784
 30
0.0
 11
114.6343126266153
 21
913.7250002099784
 31
0.0
  0
LINE
  5
189
330
5C
100
AcDbEntity
  8
0
  6
Continuous
 62
     7
100
AcDbLine
 10
119.6343126266153
 20
913.7250002099784
 30
0.0
 11
116.6343126266153
 21
913.7250002099784
 31
0.0
  0
LINE
  5
18A
330
5C
100
AcDbEntity
  8
0
  6
Continuous
 62
     7
100
AcDbLine
 10
114.6343126266153
 20
913.7250002099784
 30
0.0
 11
114.6343126266153
 21
917.7250002099784
 31
0.0
  0
LINE
  5
18B
330
5C
100
AcDbEntity
  8
0
  6
Continuous
 62
     7
100
AcDbLine
 10
114.6343126266153
 20
917.7250002099784
 30
0.0
 11
119.6343126266153
 21
917.7250002099784
 31
0.0
  0
LINE
  5
18C
330
5C
100
AcDbEntity
  8
0
  6
Continuous
 62
     7
100
AcDbLine
 10
119.6343126266153
 20
840.2750002099783
 30
0.0
 11
114.1343126266153
 21
840.2750002099783
 31
0.0
  0
LINE
  5
18D
330
5C
100
AcDbEntity
  8
0
  6
Continuous
 62
     7
100
AcDbLine
 10
107.6343126266153
 20
892.50055715145
 30
0.0
 11
107.6343126266153
 21
900.2750002099783
 31
0.0
  0
LINE
  5
18E
330
5C
100
AcDbEntity
  8
0
  6
Continuous
 62
     7
100
AcDbLine
 10
107.6343126266153
 20
861.2750002099783
 30
0.0
 11
107.6343126266153
 21
889.1202327886434
 31
0.0
  0
LINE
  5
18F
330
5C
100
AcDbEntity
  8
0
  6
Continuous
 62
     7
100
AcDbLine
 10
117.0343126266153
 20
855.8479076795959
 30
0.0
 11
107.6343126266153
 21
861.2750002099783
 31
0.0
  0
LINE
  5
190
330
5C
100
AcDbEntity
  8
1
  6
DOT_CENTER
 62
     2
100
AcDbLine
 10
119.6343126266153
 20
900.2750002099783
 30
0.0
 11
119.6343126266153
 21
913.7250002099784
 31
0.0
  0
SPLINE
  5
191
330
5C
100
AcDbEntity
  8
0
  6
Continuous
 62
     7
100
AcDbSpline
210
0.0
220
0.0
230
1.0
 70
     8
 71
     3
 72
    23
 73
    19
 74
    17
 42
0.000000001
 43
0.0000000001
 44
0.00000001
 40
0.0
 40
0.0
 40
0.0
 40
0.0
 40
0.0772603298482276
 40
0.1545206596844934
 40
0.3810024361143483
 40
0.6069110425924017
 40
1.24170155743013
 40
1.87334027856552
 40
2.693765782196961
 40
3.512248924279736
 40
4.331374560873872
 40
5.152446993144222
 40
5.784015505102086
 40
6.418736556089562
 40
6.644155557458032
 40
6.870105632567795
 40
6.947408050664454
 40
7.024710468773087
 40
7.024710468773087
 40
7.024710468773087
 40
7.024710468773087
 10
116.1343126266153
 20
900.2750002099783
 30
0.0
 10
116.1597998059584
 20
900.2713063276177
 30
0.0
 10
116.2107741667062
 20
900.2639185772136
 30
0.0
 10
116.3365313139854
 20
900.2461873707596
 30
0.0
 10
116.5114954845692
 20
900.2225543039256
 30
0.0
 10
116.8710591522614
 20
900.1773284887889
 30
0.0
 10
117.3656798182104
 20
900.1238018889303
 30
0.0
 10
118.0590425583626
 20
900.0669407835267
 30
0.0
 10
118.8150367356357
 20
900.0278471573624
 30
0.0
 10
119.6344203709849
 20
900.0137106852826
 30
0.0
 10
120.4540198857532
 20
900.0278546389253
 30
0.0
 10
121.2104190215278
 20
900.0669931588516
 30
0.0
 10
121.9039478148225
 20
900.1238979132975
 30
0.0
 10
122.3983577908661
 20
900.1774214844768
 30
0.0
 10
122.7575594337167
 20
900.2226119005124
 30
0.0
 10
122.9321999477162
 20
900.2462025283147
 30
0.0
 10
123.0578094281613
 20
900.2639125763519
 30
0.0
 10
123.1088115611512
 20
900.2713043273299
 30
0.0
 10
123.1343126266153
 20
900.2750002099783
 30
0.0
 11
116.1343126266153
 21
900.2750002099783
 31
0.0
 11
116.2107812005308
 21
900.2639677226282
 31
0.0
 11
116.2872832167089
 21
900.2531695702638
 31
0.0
 11
116.5117292161369
 21
900.2228712459398
 31
0.0
 11
116.7358716032337
 21
900.1946774729771
 31
0.0
 11
117.3669829341868
 21
900.1264316960373
 31
0.0
 11
117.9965111810396
 21
900.0748404106
 31
0.0
 11
118.8158445964933
 21
900.0325230167932
 31
0.0
 11
119.6342062336401
 21
900.0184203513843
 31
0.0
 11
120.4532102055999
 21
900.0325378190165
 31
0.0
 11
121.2731883565909
 21
900.0749143623088
 31
0.0
 11
121.902644410388
 21
900.1265269762309
 31
0.0
 11
122.5336839829363
 21
900.1947902228893
 31
0.0
 11
122.7573398101241
 21
900.2229291139334
 31
0.0
 11
122.9812586681555
 21
900.2531579333101
 31
0.0
 11
123.057802386576
 21
900.2639617762077
 31
0.0
 11
123.1343126266153
 21
900.2750002099783
 31
0.0
  0
ENDBLK
  5
5E
330
5C
100
AcDbEntity
  8
0
100
AcDbBlockEnd
  0
BLOCK
  5
61
330
5F
100
AcDbEntity
  8
0
100
AcDbBlockBegin
  2
SA_Links1
 70
     0
 10
119.63431264028
 20
879.00000010499
 30
0.0
  3
SA_Links1
  1

  0
INSERT
  5
60
330
5F
100
AcDbEntity
  8
0
100
AcDbBlockReference
  2
3240257_WCC_34-select__4
 10
107.6343126266153
 20
840.2750002099783
 30
0.0
  0
MTEXT
  5
192
330
5F
100
AcDbEntity
  8
1
 62
     6
100
AcDbMText
 10
119.6343126402801
 20
838.1999981049901
 30
0.0
 40
5.0
 41
0.0
 71
     2
 72
     1
  1
 
  7
CONVERTER_11
 73
     1
 44
1.32052821128451
  0
DIMENSION
  5
19D
330
5F
100
AcDbEntity
  8
1
100
AcDbDimension
  2
*D16
 10
107.6343126266153
 20
927.7250002099784
 30
0.0
 11
119.6343126266153
 21
931.4750002099784
 31
0.0
 70
    32
  1
<>
 71
     5
 42
-1.0
 53
0.00013888888889
  3
ME10_DIM_10
100
AcDbAlignedDimension
 13
131.6343126266153
 23
900.2750002099783
 33
0.0
 14
107.6343126266153
 24
900.2750002099783
 34
0.0
100
AcDbRotatedDimension
  0
DIMENSION
  5
1A8
330
5F
100
AcDbEntity
  8
1
100
AcDbDimension
  2
*D17
 10
141.6343126266153
 20
900.2750002099783
 30
0.0
 11
137.8843126266153
 21
870.2750002099783
 31
0.0
 70
    32
  1
<>
 71
     5
 42
-1.0
 53
90.0
  3
ME10_DIM_11
100
AcDbAlignedDimension
 13
119.6343126266153
 23
840.2750002099783
 33
0.0
 14
131.6343126266153
 24
900.2750002099783
 34
0.0
 50
90.0
100
AcDbRotatedDimension
  0
DIMENSION
  5
1B3
330
5F
100
AcDbEntity
  8
1
100
AcDbDimension
  2
*D18
 10
149.6343126266153
 20
917.7250002099784
 30
0.0
 11
145.7093126266153
 21
879.0000002099783
 31
0.0
 70
    32
  1
<>
 71
     5
 42
-1.0
 53
90.0
  3
ME10_DIM_12
100
AcDbAlignedDimension
 13
119.6343126266153
 23
840.2750002099783
 33
0.0
 14
124.6343126266153
 24
917.7250002099784
 34
0.0
 50
90.0
100
AcDbRotatedDimension
  0
ENDBLK
  5
62
330
5F
100
AcDbEntity
  8
0
100
AcDbBlockEnd
  0
BLOCK
  5
64
330
63
100
AcDbEntity
  8
0
100
AcDbBlockBegin
  2
3240257_WCC_34-select__5
 70
     0
 10
10.90293789722092
 20
840.2750002099784
 30
0.0
  3
3240257_WCC_34-select__5
  1

  0
LINE
  5
1B4
330
63
100
AcDbEntity
  8
0
  6
Continuous
 62
     7
100
AcDbLine
 10
17.90293789722093
 20
917.7250002099784
 30
0.0
 11
22.90293789722093
 21
917.7250002099784
 31
0.0
  0
LINE
  5
1B5
330
63
100
AcDbEntity
  8
0
  6
Continuous
 62
     7
100
AcDbLine
 10
22.90293789722093
 20
913.7250002099784
 30
0.0
 11
19.90293789722093
 21
913.7250002099784
 31
0.0
  0
LINE
  5
1B6
330
63
100
AcDbEntity
  8
0
  6
Continuous
 62
     7
100
AcDbLine
 10
19.90293789722093
 20
913.7250002099784
 30
0.0
 11
17.90293789722093
 21
913.7250002099784
 31
0.0
  0
LINE
  5
1B7
330
63
100
AcDbEntity
  8
0
  6
Continuous
 62
     7
100
AcDbLine
 10
25.90293789722093
 20
913.7250002099784
 30
0.0
 11
22.90293789722093
 21
913.7250002099784
 31
0.0
  0
LINE
  5
1B8
330
63
100
AcDbEntity
  8
0
  6
Continuous
 62
     7
100
AcDbLine
 10
22.90293789722093
 20
913.7250002099784
 30
0.0
 11
22.90293789722093
 21
917.7250002099784
 31
0.0
  0
LINE
  5
1B9
330
63
100
AcDbEntity
  8
0
  6
Continuous
 62
     7
100
AcDbLine
 10
22.90293789722093
 20
917.7250002099784
 30
0.0
 11
27.90293789722093
 21
917.7250002099784
 31
0.0
  0
LINE
  5
1BA
330
63
100
AcDbEntity
  8
0
  6
Continuous
 62
     7
100
AcDbLine
 10
26.40293789722093
 20
900.2750002099784
 30
0.0
 11
26.40293789722093
 21
902.2750002099784
 31
0.0
  0
LINE
  5
1BB
330
63
100
AcDbEntity
  8
0
  6
Continuous
 62
     7
100
AcDbLine
 10
19.40293789722093
 20
902.2750002099784
 30
0.0
 11
19.90293789722093
 21
902.2750002099784
 31
0.0
  0
LINE
  5
1BC
330
63
100
AcDbEntity
  8
0
  6
Continuous
 62
     7
100
AcDbLine
 10
19.90293789722093
 20
902.2750002099784
 30
0.0
 11
22.90293789722093
 21
902.2750002099784
 31
0.0
  0
LINE
  5
1BD
330
63
100
AcDbEntity
  8
0
  6
Continuous
 62
     7
100
AcDbLine
 10
25.90293789722093
 20
902.2750002099784
 30
0.0
 11
26.40293789722093
 21
902.2750002099784
 31
0.0
  0
LINE
  5
1BE
330
63
100
AcDbEntity
  8
0
  6
Continuous
 62
     7
100
AcDbLine
 10
22.90293789722093
 20
902.2750002099784
 30
0.0
 11
25.90293789722093
 21
902.2750002099784
 31
0.0
  0
LINE
  5
1BF
330
63
100
AcDbEntity
  8
0
  6
Continuous
 62
     7
100
AcDbLine
 10
10.90293789722093
 20
900.2750002099784
 30
0.0
 11
10.90293789722094
 21
892.5005571514502
 31
0.0
  0
LINE
  5
1C0
330
63
100
AcDbEntity
  8
0
  6
Continuous
 62
     7
100
AcDbLine
 10
10.90293789722093
 20
900.2750002099784
 30
0.0
 11
19.40293789722093
 21
900.2750002099784
 31
0.0
  0
LINE
  5
1C1
330
63
100
AcDbEntity
  8
0
  6
Continuous
 62
     7
100
AcDbLine
 10
26.40293789722093
 20
900.2750002099784
 30
0.0
 11
34.90293789722094
 21
900.2750002099784
 31
0.0
  0
LINE
  5
1C2
330
63
100
AcDbEntity
  8
0
  6
Continuous
 62
     2
100
AcDbLine
 10
10.90293789722092
 20
889.1202327886435
 30
0.0
 11
34.90293789722092
 21
889.1202327886435
 31
0.0
  0
LINE
  5
1C3
330
63
100
AcDbEntity
  8
0
  6
Continuous
 62
     2
100
AcDbLine
 10
10.90293789722094
 20
892.5005571514502
 30
0.0
 11
34.90293789722094
 21
892.5005571514502
 31
0.0
  0
LINE
  5
1C4
330
63
100
AcDbEntity
  8
0
  6
Continuous
 62
     7
100
AcDbLine
 10
28.40293789722094
 20
840.2750002099784
 30
0.0
 11
22.90293789722094
 21
840.2750002099784
 31
0.0
  0
LINE
  5
1C5
330
63
100
AcDbEntity
  8
0
  6
Continuous
 62
     7
100
AcDbLine
 10
22.90293789722094
 20
840.2750002099784
 30
0.0
 11
11.90293789722092
 21
843.4250002099784
 31
0.0
  0
LINE
  5
1C6
330
63
100
AcDbEntity
  8
0
  6
Continuous
 62
     7
100
AcDbLine
 10
17.90293789722093
 20
917.7250002099784
 30
0.0
 11
17.90293789722093
 21
913.7250002099784
 31
0.0
  0
LINE
  5
1C7
330
63
100
AcDbEntity
  8
0
  6
Continuous
 62
     7
100
AcDbLine
 10
15.30293789722093
 20
846.5750002099784
 30
0.0
 11
15.30293789722093
 21
854.4627037407173
 31
0.0
  0
LINE
  5
1C8
330
63
100
AcDbEntity
  8
0
  6
Continuous
 62
     7
100
AcDbLine
 10
19.40293789722093
 20
900.2750002099784
 30
0.0
 11
19.40293789722093
 21
902.2750002099784
 31
0.0
  0
LINE
  5
1C9
330
63
100
AcDbEntity
  8
0
  6
Continuous
 62
     7
100
AcDbLine
 10
19.90293789722093
 20
902.2750002099784
 30
0.0
 11
19.90293789722093
 21
913.7250002099784
 31
0.0
  0
LINE
  5
1CA
330
63
100
AcDbEntity
  8
0
  6
Continuous
 62
     7
100
AcDbLine
 10
27.90293789722093
 20
913.7250002099784
 30
0.0
 11
27.90293789722093
 21
917.7250002099784
 31
0.0
  0
LINE
  5
1CB
330
63
100
AcDbEntity
  8
0
  6
Continuous
 62
     7
100
AcDbLine
 10
33.90293789722094
 20
842.0620585392594
 30
0.0
 11
28.40293789722094
 21
840.2750002099784
 31
0.0
  0
LINE
  5
1CC
330
63
100
AcDbEntity
  8
0
  6
Continuous
 62
     7
100
AcDbLine
 10
10.90293789722094
 20
892.5005571514502
 30
0.0
 11
10.90293789722092
 21
889.1202327886435
 31
0.0
  0
LINE
  5
1CD
330
63
100
AcDbEntity
  8
0
  6
Continuous
 62
     7
100
AcDbLine
 10
10.90293789722092
 20
857.3750002099785
 30
0.0
 11
10.90293789722092
 21
889.1202327886435
 31
0.0
  0
LINE
  5
1CE
330
63
100
AcDbEntity
  8
0
  6
Continuous
 62
     7
100
AcDbLine
 10
11.90293789722092
 20
843.4250002099784
 30
0.0
 11
11.90293789722092
 21
846.5750002099784
 31
0.0
  0
LINE
  5
1CF
330
63
100
AcDbEntity
  8
0
  6
Continuous
 62
     7
100
AcDbLine
 10
11.90293789722092
 20
846.5750002099784
 30
0.0
 11
15.30293789722093
 21
846.5750002099784
 31
0.0
  0
LINE
  5
1D0
330
63
100
AcDbEntity
  8
0
  6
Continuous
 62
     7
100
AcDbLine
 10
27.90293789722093
 20
913.7250002099784
 30
0.0
 11
25.90293789722093
 21
913.7250002099784
 31
0.0
  0
LINE
  5
1D1
330
63
100
AcDbEntity
  8
0
  6
Continuous
 62
     7
100
AcDbLine
 10
25.50293789722094
 20
855.8479076795959
 30
0.0
 11
25.50293789722094
 21
849.8370292308998
 31
0.0
  0
LINE
  5
1D2
330
63
100
AcDbEntity
  8
0
  6
Continuous
 62
     7
100
AcDbLine
 10
31.15293789722094
 20
846.5750002099784
 30
0.0
 11
33.90293789722094
 21
846.5750002099784
 31
0.0
  0
LINE
  5
1D3
330
63
100
AcDbEntity
  8
0
  6
Continuous
 62
     7
100
AcDbLine
 10
25.50293789722094
 20
849.8370292308998
 30
0.0
 11
31.15293789722094
 21
846.5750002099784
 31
0.0
  0
LINE
  5
1D4
330
63
100
AcDbEntity
  8
0
  6
Continuous
 62
     7
100
AcDbLine
 10
25.90293789722093
 20
902.2750002099784
 30
0.0
 11
25.90293789722093
 21
913.7250002099784
 31
0.0
  0
LINE
  5
1D5
330
63
100
AcDbEntity
  8
0
  6
Continuous
 62
     7
100
AcDbLine
 10
15.30293789722093
 20
854.4627037407173
 30
0.0
 11
10.90293789722092
 21
857.3750002099785
 31
0.0
  0
LINE
  5
1D6
330
63
100
AcDbEntity
  8
0
  6
Continuous
 62
     7
100
AcDbLine
 10
34.90293789722094
 20
900.2750002099784
 30
0.0
 11
34.90293789722094
 21
892.5005571514502
 31
0.0
  0
LINE
  5
1D7
330
63
100
AcDbEntity
  8
0
  6
Continuous
 62
     7
100
AcDbLine
 10
34.90293789722094
 20
892.5005571514502
 30
0.0
 11
34.90293789722092
 21
889.1202327886435
 31
0.0
  0
LINE
  5
1D8
330
63
100
AcDbEntity
  8
0
  6
Continuous
 62
     7
100
AcDbLine
 10
33.90293789722094
 20
846.5750002099784
 30
0.0
 11
33.90293789722094
 21
842.0620585392594
 31
0.0
  0
LINE
  5
1D9
330
63
100
AcDbEntity
  8
0
  6
Continuous
 62
     7
100
AcDbLine
 10
34.90293789722092
 20
889.1202327886435
 30
0.0
 11
34.90293789722092
 21
861.2750002099784
 31
0.0
  0
LINE
  5
1DA
330
63
100
AcDbEntity
  8
0
  6
Continuous
 62
     7
100
AcDbLine
 10
34.90293789722092
 20
861.2750002099784
 30
0.0
 11
25.50293789722094
 21
855.8479076795959
 31
0.0
  0
LINE
  5
1DB
330
63
100
AcDbEntity
  8
1
  6
DOT_CENTER
 62
     2
100
AcDbLine
 10
22.90293789722093
 20
900.2750002099784
 30
0.0
 11
22.90293789722093
 21
913.7250002099784
 31
0.0
  0
SPLINE
  5
1DC
330
63
100
AcDbEntity
  8
0
  6
Continuous
 62
     7
100
AcDbSpline
210
0.0
220
0.0
230
1.0
 70
     8
 71
     3
 72
    17
 73
    13
 74
    11
 42
0.000000001
 43
0.0000000001
 44
0.00000001
 40
0.0
 40
0.0
 40
0.0
 40
0.0
 40
0.6704361122396736
 40
1.341940321027507
 40
1.91012572249841
 40
2.480469323070946
 40
2.861475869958622
 40
3.243906161621892
 40
3.344414658620521
 40
3.445037127440357
 40
3.478715941791898
 40
3.512394756091104
 40
3.512394756091104
 40
3.512394756091104
 40
3.512394756091104
 10
22.90293789722094
 20
900.018420351146
 30
0.0
 10
23.12642382460945
 20
900.0202415431003
 30
0.0
 10
23.57375172286864
 20
900.0238868431011
 30
0.0
 10
24.20997653963477
 20
900.0518755670962
 30
0.0
 10
24.81197156947598
 20
900.0927549648587
 30
0.0
 10
25.31640385985717
 20
900.1392087706781
 30
0.0
 10
25.7582704629494
 20
900.1885028903043
 30
0.0
 10
26.04396302154493
 20
900.224848273938
 30
0.0
 10
26.23668350224817
 20
900.2512506751883
 30
0.0
 10
26.31418586714987
 20
900.2621871112237
 30
0.0
 10
26.3696097193307
 20
900.2701529938727
 30
0.0
 10
26.39182850528904
 20
900.2733844665071
 30
0.0
 10
26.40293789722093
 20
900.2750002099784
 30
0.0
 11
22.90293789722094
 21
900.018420351146
 31
0.0
 11
23.57330724094438
 21
900.0278820363379
 31
0.0
 11
24.2442109320764
 21
900.0562746365947
 31
0.0
 11
24.81107710976153
 21
900.0949707232774
 31
0.0
 11
25.37902597847181
 21
900.1471809269992
 31
0.0
 11
25.75768370440416
 21
900.1894220851487
 31
0.0
 11
26.13705830078218
 21
900.2376698188666
 31
0.0
 11
26.23663659922376
 21
900.2513124167323
 31
0.0
 11
26.33627243026961
 21
900.2653688193977
 31
0.0
 11
26.36960837307478
 21
900.2701623007151
 31
0.0
 11
26.40293789722093
 21
900.2750002099784
 31
0.0
  0
SPLINE
  5
1DD
330
63
100
AcDbEntity
  8
0
  6
Continuous
 62
     7
100
AcDbSpline
210
0.0
220
0.0
230
1.0
 70
     8
 71
     3
 72
    17
 73
    13
 74
    11
 42
0.000000001
 43
0.0000000001
 44
0.00000001
 40
0.0
 40
0.0
 40
0.0
 40
0.0
 40
0.0336982454104892
 40
0.0673964908732784
 40
0.1678292316926123
 40
0.2680725673888112
 40
0.6504593063551527
 40
1.031422540179149
 40
1.601854113646054
 40
2.170126528378832
 40
2.841795016106989
 40
3.512394715716177
 40
3.512394715716177
 40
3.512394715716177
 40
3.512394715716177
 10
19.40293789722093
 20
900.2750002099784
 30
0.0
 10
19.41405369911064
 20
900.2733835367268
 30
0.0
 10
19.43628530498466
 20
900.2701502045339
 30
0.0
 10
19.49165938973905
 20
900.2621915432146
 30
0.0
 10
19.5690180002407
 20
900.2512752175927
 30
0.0
 10
19.76157357129525
 20
900.2248931956973
 30
0.0
 10
20.04714908059733
 20
900.1885576057007
 30
0.0
 10
20.48901508189882
 20
900.1392548192565
 30
0.0
 10
20.99349022385958
 20
900.0927874578006
 30
0.0
 10
21.59559746803327
 20
900.0518911467715
 30
0.0
 10
22.23196023808374
 20
900.0238895112516
 30
0.0
 10
22.67939743551475
 20
900.0202424316217
 30
0.0
 10
22.90293789722094
 20
900.018420351146
 30
0.0
 11
19.40293789722093
 21
900.2750002099784
 31
0.0
 11
19.43628665281245
 21
900.2701595222688
 31
0.0
 11
19.46964183444322
 21
900.2653633138309
 31
0.0
 11
19.56908976663311
 21
900.2513331939404
 31
0.0
 11
19.66840520423559
 21
900.2377254669685
 31
0.0
 11
20.04773574842031
 21
900.1894765644905
 31
0.0
 11
20.42634960353302
 21
900.14723281559
 31
0.0
 11
20.99438509200676
 21
900.0950038583887
 31
0.0
 11
21.56133748405988
 21
900.0562931031034
 31
0.0
 11
22.23240501499037
 21
900.0278866523911
 31
0.0
 11
22.90293789722094
 21
900.018420351146
 31
0.0
  0
ENDBLK
  5
65
330
63
100
AcDbEntity
  8
0
100
AcDbBlockEnd
  0
BLOCK
  5
68
330
66
100
AcDbEntity
  8
0
100
AcDbBlockBegin
  2
SA_Rechts1
 70
     0
 10
22.90293788355622
 20
879.00000010499
 30
0.0
  3
SA_Rechts1
  1

  0
INSERT
  5
67
330
66
100
AcDbEntity
  8
0
100
AcDbBlockReference
  2
3240257_WCC_34-select__5
 10
10.90293789722092
 20
840.2750002099784
 30
0.0
  0
MTEXT
  5
1DE
330
66
100
AcDbEntity
  8
1
 62
     6
100
AcDbMText
 10
22.90293788355621
 20
838.1999981049901
 30
0.0
 40
5.0
 41
0.0
 71
     2
 72
     1
  1
 
  7
CONVERTER_11
 73
     1
 44
1.32052821128451
  0
ENDBLK
  5
69
330
66
100
AcDbEntity
  8
0
100
AcDbBlockEnd
  0
BLOCK
  5
6B
330
6A
100
AcDbEntity
  8
0
100
AcDbBlockBegin
  2
3240257_WCC_34-select__6
 70
     0
 10
52.26862527508006
 20
840.2750002099784
 30
0.0
  3
3240257_WCC_34-select__6
  1

  0
LINE
  5
1DF
330
6A
100
AcDbEntity
  8
0
  6
Continuous
 62
     7
100
AcDbLine
 10
65.4951225831838
 20
913.7250002099784
 30
0.0
 11
65.4951225831838
 21
917.7250002099784
 31
0.0
  0
LINE
  5
1E0
330
6A
100
AcDbEntity
  8
0
  6
Continuous
 62
     7
100
AcDbLine
 10
70.46862527508006
 20
917.7250002099784
 30
0.0
 11
68.38187392913193
 21
917.7250002099784
 31
0.0
  0
LINE
  5
1E1
330
6A
100
AcDbEntity
  8
0
  6
Continuous
 62
     7
100
AcDbLine
 10
70.46862527508006
 20
917.7250002099784
 30
0.0
 11
70.46862527508006
 21
916.1250002099785
 31
0.0
  0
LINE
  5
1E2
330
6A
100
AcDbEntity
  8
0
  6
Continuous
 62
     7
100
AcDbLine
 10
52.26862527508007
 20
843.4250002099784
 30
0.0
 11
52.26862527508006
 21
840.2750002099784
 31
0.0
  0
LINE
  5
1E3
330
6A
100
AcDbEntity
  8
0
  6
Continuous
 62
     7
100
AcDbLine
 10
68.38187392913193
 20
917.7250002099784
 30
0.0
 11
65.4951225831838
 21
917.7250002099784
 31
0.0
  0
LINE
  5
1E4
330
6A
100
AcDbEntity
  8
0
  6
Continuous
 62
     7
100
AcDbLine
 10
68.38187392913193
 20
913.7250002099784
 30
0.0
 11
68.38187392913193
 21
917.7250002099784
 31
0.0
  0
LINE
  5
1E5
330
6A
100
AcDbEntity
  8
0
  6
Continuous
 62
     7
100
AcDbLine
 10
53.76862527508007
 20
843.4250002099784
 30
0.0
 11
53.76862527508007
 21
846.5750002099784
 31
0.0
  0
LINE
  5
1E6
330
6A
100
AcDbEntity
  8
0
  6
Continuous
 62
     7
100
AcDbLine
 10
53.76862527508007
 20
846.5750002099784
 30
0.0
 11
53.76862527508007
 21
854.4627037407174
 31
0.0
  0
LINE
  5
1E7
330
6A
100
AcDbEntity
  8
0
  6
Continuous
 62
     7
100
AcDbLine
 10
53.76862527508007
 20
854.4627037407174
 30
0.0
 11
53.76862527508007
 21
857.3750002099785
 31
0.0
  0
LINE
  5
1E8
330
6A
100
AcDbEntity
  8
0
  6
Continuous
 62
     7
100
AcDbLine
 10
52.26862527508007
 20
857.3750002099785
 30
0.0
 11
53.76862527508007
 21
857.3750002099785
 31
0.0
  0
LINE
  5
1E9
330
6A
100
AcDbEntity
  8
0
  6
Continuous
 62
     7
100
AcDbLine
 10
74.1553766210282
 20
913.7250002099784
 30
0.0
 11
68.38187392913193
 21
913.7250002099784
 31
0.0
  0
LINE
  5
1EA
330
6A
100
AcDbEntity
  8
0
  6
Continuous
 62
     7
100
AcDbLine
 10
52.26862527508007
 20
846.5750002099784
 30
0.0
 11
53.76862527508007
 21
846.5750002099784
 31
0.0
  0
LINE
  5
1EB
330
6A
100
AcDbEntity
  8
0
  6
Continuous
 62
     7
100
AcDbLine
 10
88.76862527508004
 20
846.5750002099784
 30
0.0
 11
90.26862527508004
 21
846.5750002099784
 31
0.0
  0
LINE
  5
1EC
330
6A
100
AcDbEntity
  8
0
  6
Continuous
 62
     7
100
AcDbLine
 10
74.26862527508007
 20
902.2750002099784
 30
0.0
 11
74.76862527508008
 21
902.2750002099784
 31
0.0
  0
LINE
  5
1ED
330
6A
100
AcDbEntity
  8
0
  6
Continuous
 62
     7
100
AcDbLine
 10
68.26862527508007
 20
902.2750002099784
 30
0.0
 11
74.26862527508007
 21
902.2750002099784
 31
0.0
  0
LINE
  5
1EE
330
6A
100
AcDbEntity
  8
0
  6
Continuous
 62
     7
100
AcDbLine
 10
74.76862527508008
 20
900.018420351146
 30
0.0
 11
74.76862527508008
 21
902.2750002099784
 31
0.0
  0
LINE
  5
1EF
330
6A
100
AcDbEntity
  8
0
  6
Continuous
 62
     7
100
AcDbLine
 10
67.76862527508008
 20
900.018420351146
 30
0.0
 11
67.76862527508008
 21
902.2750002099784
 31
0.0
  0
LINE
  5
1F0
330
6A
100
AcDbEntity
  8
0
  6
Continuous
 62
     7
100
AcDbLine
 10
53.76862527508006
 20
840.2750002099784
 30
0.0
 11
53.76862527508007
 21
843.4250002099784
 31
0.0
  0
LINE
  5
1F1
330
6A
100
AcDbEntity
  8
0
  6
Continuous
 62
     7
100
AcDbLine
 10
53.76862527508007
 20
857.3750002099785
 30
0.0
 11
53.76862527508008
 21
889.1202327886435
 31
0.0
  0
LINE
  5
1F2
330
6A
100
AcDbEntity
  8
0
  6
Continuous
 62
     7
100
AcDbLine
 10
88.76862527508004
 20
846.5750002099784
 30
0.0
 11
88.76862527508004
 21
843.4250002099784
 31
0.0
  0
LINE
  5
1F3
330
6A
100
AcDbEntity
  8
0
  6
Continuous
 62
     7
100
AcDbLine
 10
88.76862527508004
 20
854.4627037407173
 30
0.0
 11
88.76862527508004
 21
846.5750002099784
 31
0.0
  0
LINE
  5
1F4
330
6A
100
AcDbEntity
  8
0
  6
Continuous
 62
     7
100
AcDbLine
 10
88.76862527508004
 20
843.4250002099784
 30
0.0
 11
88.76862527508004
 21
840.2750002099784
 31
0.0
  0
LINE
  5
1F5
330
6A
100
AcDbEntity
  8
0
  6
Continuous
 62
     7
100
AcDbLine
 10
90.26862527508004
 20
840.2750002099784
 30
0.0
 11
90.26862527508004
 21
843.4250002099784
 31
0.0
  0
LINE
  5
1F6
330
6A
100
AcDbEntity
  8
0
  6
Continuous
 62
     7
100
AcDbLine
 10
90.26862527508014
 20
857.3750002099785
 30
0.0
 11
90.26862527508014
 21
889.1202327886435
 31
0.0
  0
LINE
  5
1F7
330
6A
100
AcDbEntity
  8
0
  6
Continuous
 62
     7
100
AcDbLine
 10
72.06862527508005
 20
916.1250002099785
 30
0.0
 11
72.06862527508005
 21
917.7250002099784
 31
0.0
  0
LINE
  5
1F8
330
6A
100
AcDbEntity
  8
0
  6
Continuous
 62
     7
100
AcDbLine
 10
74.26862527508007
 20
913.7250002099784
 30
0.0
 11
74.1553766210282
 21
913.7250002099784
 31
0.0
  0
LINE
  5
1F9
330
6A
100
AcDbEntity
  8
0
  6
Continuous
 62
     7
100
AcDbLine
 10
77.04212796697632
 20
917.7250002099784
 30
0.0
 11
74.15537662102818
 21
917.7250002099784
 31
0.0
  0
LINE
  5
1FA
330
6A
100
AcDbEntity
  8
0
  6
Continuous
 62
     7
100
AcDbLine
 10
74.15537662102818
 20
917.7250002099784
 30
0.0
 11
72.06862527508005
 21
917.7250002099784
 31
0.0
  0
LINE
  5
1FB
330
6A
100
AcDbEntity
  8
0
  6
Continuous
 62
     7
100
AcDbLine
 10
77.04212796697632
 20
913.7250002099784
 30
0.0
 11
74.26862527508007
 21
913.7250002099784
 31
0.0
  0
LINE
  5
1FC
330
6A
100
AcDbEntity
  8
0
  6
Continuous
 62
     7
100
AcDbLine
 10
88.76862527508014
 20
889.1202327886435
 30
0.0
 11
88.76862527508004
 21
857.3750002099785
 31
0.0
  0
LINE
  5
1FD
330
6A
100
AcDbEntity
  8
0
  6
Continuous
 62
     7
100
AcDbLine
 10
88.76862527508004
 20
857.3750002099785
 30
0.0
 11
90.26862527508014
 21
857.3750002099785
 31
0.0
  0
LINE
  5
1FE
330
6A
100
AcDbEntity
  8
0
  6
Continuous
 62
     7
100
AcDbLine
 10
90.26862527508004
 20
846.5750002099784
 30
0.0
 11
90.26862527508004
 21
854.4627037407173
 31
0.0
  0
LINE
  5
1FF
330
6A
100
AcDbEntity
  8
0
  6
Continuous
 62
     7
100
AcDbLine
 10
90.26862527508004
 20
843.4250002099784
 30
0.0
 11
90.26862527508004
 21
846.5750002099784
 31
0.0
  0
LINE
  5
200
330
6A
100
AcDbEntity
  8
0
  6
Continuous
 62
     7
100
AcDbLine
 10
90.26862527508004
 20
854.4627037407173
 30
0.0
 11
90.26862527508014
 21
857.3750002099785
 31
0.0
  0
LINE
  5
201
330
6A
100
AcDbEntity
  8
0
  6
Continuous
 62
     7
100
AcDbLine
 10
88.76862527508004
 20
857.3750002099785
 30
0.0
 11
88.76862527508004
 21
854.4627037407173
 31
0.0
  0
LINE
  5
202
330
6A
100
AcDbEntity
  8
0
  6
Continuous
 62
     7
100
AcDbLine
 10
74.1553766210282
 20
913.7250002099784
 30
0.0
 11
74.15537662102818
 21
917.7250002099784
 31
0.0
  0
LINE
  5
203
330
6A
100
AcDbEntity
  8
0
  6
Continuous
 62
     7
100
AcDbLine
 10
77.04212796697632
 20
913.7250002099784
 30
0.0
 11
77.04212796697632
 21
917.7250002099784
 31
0.0
  0
LINE
  5
204
330
6A
100
AcDbEntity
  8
0
  6
Continuous
 62
     7
100
AcDbLine
 10
74.26862527508007
 20
902.2750002099784
 30
0.0
 11
74.26862527508007
 21
913.7250002099784
 31
0.0
  0
LINE
  5
205
330
6A
100
AcDbEntity
  8
0
  6
Continuous
 62
     7
100
AcDbLine
 10
52.26862527508006
 20
840.2750002099784
 30
0.0
 11
53.76862527508006
 21
840.2750002099784
 31
0.0
  0
LINE
  5
206
330
6A
100
AcDbEntity
  8
0
  6
Continuous
 62
     7
100
AcDbLine
 10
88.76862527508004
 20
840.2750002099784
 30
0.0
 11
90.26862527508004
 21
840.2750002099784
 31
0.0
  0
LINE
  5
207
330
6A
100
AcDbEntity
  8
0
  6
Continuous
 62
     7
100
AcDbLine
 10
67.76862527508008
 20
902.2750002099784
 30
0.0
 11
68.26862527508007
 21
902.2750002099784
 31
0.0
  0
LINE
  5
208
330
6A
100
AcDbEntity
  8
0
  6
Continuous
 62
     7
100
AcDbLine
 10
68.38187392913193
 20
913.7250002099784
 30
0.0
 11
68.26862527508007
 21
913.7250002099784
 31
0.0
  0
LINE
  5
209
330
6A
100
AcDbEntity
  8
0
  6
Continuous
 62
     7
100
AcDbLine
 10
68.26862527508007
 20
913.7250002099784
 30
0.0
 11
65.4951225831838
 21
913.7250002099784
 31
0.0
  0
LINE
  5
20A
330
6A
100
AcDbEntity
  8
0
  6
Continuous
 62
     7
100
AcDbLine
 10
70.46862527508006
 20
916.1250002099785
 30
0.0
 11
72.06862527508005
 21
916.1250002099785
 31
0.0
  0
LINE
  5
20B
330
6A
100
AcDbEntity
  8
0
  6
Continuous
 62
     7
100
AcDbLine
 10
52.26862527508007
 20
846.5750002099784
 30
0.0
 11
52.26862527508007
 21
843.4250002099784
 31
0.0
  0
LINE
  5
20C
330
6A
100
AcDbEntity
  8
0
  6
Continuous
 62
     7
100
AcDbLine
 10
52.26862527508007
 20
857.3750002099785
 30
0.0
 11
52.26862527508007
 21
854.4627037407174
 31
0.0
  0
LINE
  5
20D
330
6A
100
AcDbEntity
  8
0
  6
Continuous
 62
     7
100
AcDbLine
 10
52.26862527508007
 20
854.4627037407174
 30
0.0
 11
52.26862527508007
 21
846.5750002099784
 31
0.0
  0
LINE
  5
20E
330
6A
100
AcDbEntity
  8
0
  6
Continuous
 62
     7
100
AcDbLine
 10
68.26862527508007
 20
902.2750002099784
 30
0.0
 11
68.26862527508007
 21
913.7250002099784
 31
0.0
  0
LINE
  5
20F
330
6A
100
AcDbEntity
  8
0
  6
Continuous
 62
     7
100
AcDbLine
 10
68.26862527508005
 20
885.9250002099784
 30
0.0
 11
68.26862527508007
 21
898.5741033309562
 31
0.0
  0
LINE
  5
210
330
6A
100
AcDbEntity
  8
0
  6
Continuous
 62
     7
100
AcDbLine
 10
78.51862527508007
 20
885.9250002099784
 30
0.0
 11
78.51862527508005
 21
882.1003606005738
 31
0.0
  0
LINE
  5
211
330
6A
100
AcDbEntity
  8
0
  6
Continuous
 62
     7
100
AcDbLine
 10
74.26862527508005
 20
885.9250002099784
 30
0.0
 11
74.26862527508007
 21
898.5741033309562
 31
0.0
  0
LINE
  5
212
330
6A
100
AcDbEntity
  8
0
  6
Continuous
 62
     7
100
AcDbLine
 10
57.49537220980895
 20
873.3669314935794
 30
0.0
 11
55.01862527508006
 21
873.3669314935794
 31
0.0
  0
LINE
  5
213
330
6A
100
AcDbEntity
  8
0
  6
Continuous
 62
     7
100
AcDbLine
 10
64.01862527508005
 20
882.1003606005738
 30
0.0
 11
64.01862527508007
 21
885.9250002099784
 31
0.0
  0
LINE
  5
214
330
6A
100
AcDbEntity
  8
0
  6
Continuous
 62
     7
100
AcDbLine
 10
74.26862527508005
 20
885.9250002099784
 30
0.0
 11
78.51862527508007
 21
885.9250002099784
 31
0.0
  0
LINE
  5
215
330
6A
100
AcDbEntity
  8
0
  6
Continuous
 62
     7
100
AcDbLine
 10
64.01862527508007
 20
885.9250002099784
 30
0.0
 11
68.26862527508005
 21
885.9250002099784
 31
0.0
  0
LINE
  5
216
330
6A
100
AcDbEntity
  8
0
  6
Continuous
 62
     7
100
AcDbLine
 10
68.26862527508005
 20
885.9250002099784
 30
0.0
 11
74.26862527508005
 21
885.9250002099784
 31
0.0
  0
LINE
  5
217
330
6A
100
AcDbEntity
  8
0
  6
Continuous
 62
     7
100
AcDbLine
 10
87.51862527508004
 20
873.3669314935794
 30
0.0
 11
85.04187834035113
 21
873.3669314935794
 31
0.0
  0
LINE
  5
218
330
6A
100
AcDbEntity
  8
0
  6
Continuous
 62
     7
100
AcDbLine
 10
52.26862527508007
 20
889.1202327886435
 30
0.0
 11
52.26862527508007
 21
857.3750002099785
 31
0.0
  0
LINE
  5
219
330
6A
100
AcDbEntity
  8
0
  6
Continuous
 62
     7
100
AcDbLine
 10
88.76862527508004
 20
854.4627037407173
 30
0.0
 11
90.26862527508004
 21
854.4627037407173
 31
0.0
  0
LINE
  5
21A
330
6A
100
AcDbEntity
  8
0
  6
Continuous
 62
     7
100
AcDbLine
 10
52.26862527508007
 20
854.4627037407174
 30
0.0
 11
53.76862527508007
 21
854.4627037407174
 31
0.0
  0
LINE
  5
21B
330
6A
100
AcDbEntity
  8
0
  6
Continuous
 62
     7
100
AcDbLine
 10
52.26862527508007
 20
843.4250002099784
 30
0.0
 11
53.76862527508007
 21
843.4250002099784
 31
0.0
  0
LINE
  5
21C
330
6A
100
AcDbEntity
  8
0
  6
Continuous
 62
     7
100
AcDbLine
 10
88.76862527508004
 20
843.4250002099784
 30
0.0
 11
90.26862527508004
 21
843.4250002099784
 31
0.0
  0
LINE
  5
21D
330
6A
100
AcDbEntity
  8
1
  6
DOT_CENTER
 62
     2
100
AcDbLine
 10
71.26862527508005
 20
885.9250002099784
 30
0.0
 11
71.26862527508005
 21
898.5741033309562
 31
0.0
  0
LINE
  5
21E
330
6A
100
AcDbEntity
  8
1
  6
DOT_CENTER
 62
     2
100
AcDbLine
 10
71.26862527508008
 20
900.018420351146
 30
0.0
 11
71.26862527508007
 21
913.7250002099772
 31
0.0
  0
ARC
  5
21F
330
6A
100
AcDbEntity
  8
0
  6
Continuous
 62
     7
100
AcDbCircle
 10
71.26862527508007
 20
876.2750002099784
 30
0.0
 40
24.00000000000004
100
AcDbArc
 50
98.38553864708128
 51
137.4631016370138
  0
ARC
  5
220
330
6A
100
AcDbEntity
  8
0
  6
Continuous
 62
     7
100
AcDbCircle
 10
57.26862527508007
 20
889.1202327886435
 30
0.0
 40
3.500000000000002
100
AcDbArc
 50
137.463101637014
 51
180.0
  0
ARC
  5
221
330
6A
100
AcDbEntity
  8
0
  6
Continuous
 62
     7
100
AcDbCircle
 10
71.26862527508007
 20
876.2750002099784
 30
0.0
 40
24.00000000000005
100
AcDbArc
 50
81.61446135291867
 51
98.38553864708128
  0
ARC
  5
222
330
6A
100
AcDbEntity
  8
0
  6
Continuous
 62
     7
100
AcDbCircle
 10
85.26862527508014
 20
889.1202327886435
 30
0.0
 40
5.0
100
AcDbArc
 50
0.0
 51
42.53689836298699
  0
ARC
  5
223
330
6A
100
AcDbEntity
  8
0
  6
Continuous
 62
     7
100
AcDbCircle
 10
85.26862527508014
 20
889.1202327886435
 30
0.0
 40
3.5
100
AcDbArc
 50
0.0
 51
42.53689836298673
  0
ARC
  5
224
330
6A
100
AcDbEntity
  8
0
  6
Continuous
 62
     7
100
AcDbCircle
 10
71.26862527508007
 20
876.2750002099784
 30
0.0
 40
23.99999999999997
100
AcDbArc
 50
42.53689836298621
 51
81.61446135291867
  0
ARC
  5
225
330
6A
100
AcDbEntity
  8
0
  6
Continuous
 62
     7
100
AcDbCircle
 10
71.26862527508007
 20
876.2750002099784
 30
0.0
 40
22.49999999999999
100
AcDbArc
 50
82.33774433923394
 51
97.66225566076608
  0
ARC
  5
226
330
6A
100
AcDbEntity
  8
0
  6
Continuous
 62
     7
100
AcDbCircle
 10
71.26862527508005
 20
865.6250002099785
 30
0.0
 40
17.99999999999997
100
AcDbArc
 50
113.7519460259222
 51
154.5256305487859
  0
ARC
  5
227
330
6A
100
AcDbEntity
  8
0
  6
Continuous
 62
     7
100
AcDbCircle
 10
71.26862527508007
 20
876.2750002099784
 30
0.0
 40
22.49999999999999
100
AcDbArc
 50
97.66225566076608
 51
137.4631016370139
  0
ARC
  5
228
330
6A
100
AcDbEntity
  8
0
  6
Continuous
 62
     7
100
AcDbCircle
 10
71.26862527508005
 20
865.6250002099785
 30
0.0
 40
17.99999999999995
100
AcDbArc
 50
25.47436945121415
 51
66.24805397407785
  0
ARC
  5
229
330
6A
100
AcDbEntity
  8
0
  6
Continuous
 62
     7
100
AcDbCircle
 10
57.26862527508007
 20
889.1202327886435
 30
0.0
 40
4.999999999999997
100
AcDbArc
 50
137.4631016370137
 51
180.0
  0
ARC
  5
22A
330
6A
100
AcDbEntity
  8
0
  6
Continuous
 62
     7
100
AcDbCircle
 10
71.26862527508007
 20
876.2750002099784
 30
0.0
 40
22.49999999999999
100
AcDbArc
 50
42.53689836298612
 51
82.33774433923394
  0
ARC
  5
22B
330
6A
100
AcDbEntity
  8
0
  6
Continuous
 62
     7
100
AcDbCircle
 10
71.26862527508005
 20
865.6250002099785
 30
0.0
 40
15.79999999999993
100
AcDbArc
 50
29.34029571915875
 51
150.6597042808413
  0
ENDBLK
  5
6C
330
6A
100
AcDbEntity
  8
0
100
AcDbBlockEnd
  0
BLOCK
  5
6F
330
6D
100
AcDbEntity
  8
0
100
AcDbBlockBegin
  2
Vordans1
 70
     0
 10
71.26862527508007
 20
879.00000010499
 30
0.0
  3
Vordans1
  1

  0
INSERT
  5
6E
330
6D
100
AcDbEntity
  8
0
100
AcDbBlockReference
  2
3240257_WCC_34-select__6
 10
52.26862527508006
 20
840.2750002099784
 30
0.0
  0
MTEXT
  5
22C
330
6D
100
AcDbEntity
  8
1
 62
     6
100
AcDbMText
 10
71.26862527508001
 20
838.1999981049901
 30
0.0
 40
5.0
 41
0.0
 71
     2
 72
     1
  1
 
  7
CONVERTER_11
 73
     1
 44
1.32052821128451
  0
DIMENSION
  5
237
330
6D
100
AcDbEntity
  8
1
100
AcDbDimension
  2
*D19
 10
52.26862527508007
 20
927.7250002099784
 30
0.0
 11
71.2686252750801
 21
931.4750002099784
 31
0.0
 70
    32
  1
<>
 71
     5
 42
-1.0
 53
0.00013888888889
  3
ME10_DIM_13
100
AcDbAlignedDimension
 13
90.26862527508014
 23
889.1202327886435
 33
0.0
 14
52.26862527508007
 24
889.1202327886435
 34
0.0
100
AcDbRotatedDimension
  0
ENDBLK
  5
70
330
6D
100
AcDbEntity
  8
0
100
AcDbBlockEnd
  0
BLOCK
  5
72
330
71
100
AcDbEntity
  8
0
100
AcDbBlockBegin
  2
_rahmen
 70
     0
 10
311.9514689224397
 20
705.4912841497555
 30
0.0
  3
_rahmen
  1

  0
POINT
  5
238
330
71
100
AcDbEntity
  8
1
 62
     3
 60
     1
100
AcDbPoint
 10
248.4514689224421
 20
731.741284149755
 30
0.0
  0
LINE
  5
239
330
71
100
AcDbEntity
  8
1
  6
Continuous
 62
     7
100
AcDbLine
 10
248.4514689224421
 20
731.741284149755
 30
0.0
 11
241.706664395688
 21
731.741284149755
 31
0.0
  0
LINE
  5
23A
330
71
100
AcDbEntity
  8
1
  6
Continuous
 62
     7
100
AcDbLine
 10
248.4514689224421
 20
727.491284149755
 30
0.0
 11
248.4514689224421
 21
731.741284149755
 31
0.0
  0
LINE
  5
23B
330
71
100
AcDbEntity
  8
1
  6
Continuous
 62
     2
100
AcDbLine
 10
283.3922056072305
 20
725.9410648707228
 30
0.0
 11
283.3922056072306
 21
723.8836689058692
 31
0.0
  0
LINE
  5
23C
330
71
100
AcDbEntity
  8
1
  6
Continuous
 62
     6
100
AcDbLine
 10
38.61813558910663
 20
710.4912841497555
 30
0.0
 11
59.95146892243989
 21
710.4912841497551
 31
0.0
  0
LINE
  5
23D
330
71
100
AcDbEntity
  8
1
  6
Continuous
 62
     6
100
AcDbLine
 10
311.9514689224397
 20
710.4912841497551
 30
0.0
 11
311.9514689224393
 21
718.991284149755
 31
0.0
  0
LINE
  5
23E
330
71
100
AcDbEntity
  8
1
  6
Continuous
 62
     6
100
AcDbLine
 10
-83.04853107755997
 20
710.4912841497555
 30
0.0
 11
-83.04853107756097
 21
997.4912841497558
 31
0.0
  0
LINE
  5
23F
330
71
100
AcDbEntity
  8
1
  6
Continuous
 62
     2
100
AcDbLine
 10
-103.048531077561
 20
853.9912841497555
 30
0.0
 11
-103.048531077561
 21
705.4912841497555
 31
0.0
  0
LINE
  5
240
330
71
100
AcDbEntity
  8
1
  6
Continuous
 62
     2
100
AcDbLine
 10
-103.048531077561
 20
853.9912841497555
 30
0.0
 11
-93.04853107756097
 21
853.9912841497555
 31
0.0
  0
LINE
  5
241
330
71
100
AcDbEntity
  8
1
  6
Continuous
 62
     2
100
AcDbLine
 10
-103.048531077561
 20
1002.491284149756
 30
0.0
 11
-103.048531077561
 21
853.9912841497555
 31
0.0
  0
LINE
  5
242
330
71
100
AcDbEntity
  8
1
  6
Continuous
 62
     2
100
AcDbLine
 10
126.951468922437
 20
1002.491284149756
 30
0.0
 11
106.9514689224398
 21
1002.491284149756
 31
0.0
  0
LINE
  5
243
330
71
100
AcDbEntity
  8
1
  6
Continuous
 62
     2
100
AcDbLine
 10
126.951468922437
 20
1002.491284149756
 30
0.0
 11
126.951468922437
 21
998.4912841497558
 31
0.0
  0
LINE
  5
244
330
71
100
AcDbEntity
  8
1
  6
Continuous
 62
     2
100
AcDbLine
 10
-83.04853107756097
 20
1002.491284149756
 30
0.0
 11
-103.048531077561
 21
1002.491284149756
 31
0.0
  0
LINE
  5
245
330
71
100
AcDbEntity
  8
1
  6
Continuous
 62
     2
100
AcDbLine
 10
-83.04853107756097
 20
1002.491284149756
 30
0.0
 11
-83.04853107756097
 21
998.4912841497558
 31
0.0
  0
LINE
  5
246
330
71
100
AcDbEntity
  8
1
  6
Continuous
 62
     2
100
AcDbLine
 10
-29.7151977442268
 20
1002.491284149756
 30
0.0
 11
-83.04853107756097
 21
1002.491284149756
 31
0.0
  0
LINE
  5
247
330
71
100
AcDbEntity
  8
1
  6
Continuous
 62
     6
100
AcDbLine
 10
-29.7151977442268
 20
997.4912841497558
 30
0.0
 11
38.61813558910663
 21
997.4912841497555
 31
0.0
  0
LINE
  5
248
330
71
100
AcDbEntity
  8
1
  6
Continuous
 62
     2
100
AcDbLine
 10
-29.7151977442268
 20
997.4912841497558
 30
0.0
 11
-29.7151977442268
 21
1002.491284149756
 31
0.0
  0
LINE
  5
249
330
71
100
AcDbEntity
  8
1
  6
Continuous
 62
     2
100
AcDbLine
 10
38.61813558910663
 20
1002.491284149756
 30
0.0
 11
-29.7151977442268
 21
1002.491284149756
 31
0.0
  0
LINE
  5
24A
330
71
100
AcDbEntity
  8
1
  6
Continuous
 62
     6
100
AcDbLine
 10
38.61813558910663
 20
997.4912841497555
 30
0.0
 11
106.9514689224398
 21
997.4912841497555
 31
0.0
  0
LINE
  5
24B
330
71
100
AcDbEntity
  8
1
  6
Continuous
 62
     2
100
AcDbLine
 10
38.61813558910663
 20
997.4912841497555
 30
0.0
 11
38.61813558910663
 21
1002.491284149756
 31
0.0
  0
LINE
  5
24C
330
71
100
AcDbEntity
  8
1
  6
Continuous
 62
     2
100
AcDbLine
 10
106.9514689224398
 20
1002.491284149756
 30
0.0
 11
38.61813558910663
 21
1002.491284149756
 31
0.0
  0
LINE
  5
24D
330
71
100
AcDbEntity
  8
1
  6
Continuous
 62
     6
100
AcDbLine
 10
106.9514689224398
 20
997.4912841497555
 30
0.0
 11
175.2848022557732
 21
997.4912841497555
 31
0.0
  0
LINE
  5
24E
330
71
100
AcDbEntity
  8
1
  6
Continuous
 62
     2
100
AcDbLine
 10
106.9514689224398
 20
997.4912841497555
 30
0.0
 11
106.9514689224398
 21
1002.491284149756
 31
0.0
  0
LINE
  5
24F
330
71
100
AcDbEntity
  8
1
  6
Continuous
 62
     2
100
AcDbLine
 10
175.2848022557732
 20
1002.491284149756
 30
0.0
 11
126.951468922437
 21
1002.491284149756
 31
0.0
  0
LINE
  5
250
330
71
100
AcDbEntity
  8
1
  6
Continuous
 62
     6
100
AcDbLine
 10
175.2848022557732
 20
997.4912841497555
 30
0.0
 11
243.6181355891064
 21
997.4912841497555
 31
0.0
  0
LINE
  5
251
330
71
100
AcDbEntity
  8
1
  6
Continuous
 62
     2
100
AcDbLine
 10
175.2848022557732
 20
997.4912841497555
 30
0.0
 11
175.2848022557732
 21
1002.491284149756
 31
0.0
  0
LINE
  5
252
330
71
100
AcDbEntity
  8
1
  6
Continuous
 62
     2
100
AcDbLine
 10
243.6181355891064
 20
1002.491284149756
 30
0.0
 11
175.2848022557732
 21
1002.491284149756
 31
0.0
  0
LINE
  5
253
330
71
100
AcDbEntity
  8
1
  6
Continuous
 62
     6
100
AcDbLine
 10
243.6181355891064
 20
997.4912841497555
 30
0.0
 11
311.9514689224372
 21
997.4912841497555
 31
0.0
  0
LINE
  5
254
330
71
100
AcDbEntity
  8
1
  6
Continuous
 62
     2
100
AcDbLine
 10
243.6181355891064
 20
997.4912841497555
 30
0.0
 11
243.6181355891064
 21
1002.491284149756
 31
0.0
  0
LINE
  5
255
330
71
100
AcDbEntity
  8
1
  6
Continuous
 62
     2
100
AcDbLine
 10
311.9514689224372
 20
1002.491284149756
 30
0.0
 11
243.6181355891064
 21
1002.491284149756
 31
0.0
  0
LINE
  5
256
330
71
100
AcDbEntity
  8
1
  6
Continuous
 62
     6
100
AcDbLine
 10
-83.04853107756097
 20
997.4912841497558
 30
0.0
 11
-29.7151977442268
 21
997.4912841497558
 31
0.0
  0
LINE
  5
257
330
71
100
AcDbEntity
  8
1
  6
Continuous
 62
     6
100
AcDbLine
 10
311.9514689224397
 20
825.2912841497557
 30
0.0
 11
311.9514689224397
 21
767.8912841497556
 31
0.0
  0
LINE
  5
258
330
71
100
AcDbEntity
  8
1
  6
Continuous
 62
     2
100
AcDbLine
 10
311.9514689224397
 20
825.2912841497557
 30
0.0
 11
316.9514689224372
 21
825.2912841497557
 31
0.0
  0
LINE
  5
259
330
71
100
AcDbEntity
  8
1
  6
Continuous
 62
     2
100
AcDbLine
 10
316.9514689224372
 20
882.6912841497556
 30
0.0
 11
316.9514689224372
 21
825.2912841497557
 31
0.0
  0
LINE
  5
25A
330
71
100
AcDbEntity
  8
1
  6
Continuous
 62
     6
100
AcDbLine
 10
311.9514689224397
 20
882.6912841497556
 30
0.0
 11
311.9514689224397
 21
825.2912841497557
 31
0.0
  0
LINE
  5
25B
330
71
100
AcDbEntity
  8
1
  6
Continuous
 62
     2
100
AcDbLine
 10
311.9514689224397
 20
882.6912841497556
 30
0.0
 11
316.9514689224372
 21
882.6912841497556
 31
0.0
  0
LINE
  5
25C
330
71
100
AcDbEntity
  8
1
  6
Continuous
 62
     2
100
AcDbLine
 10
316.9514689224372
 20
940.0912841497554
 30
0.0
 11
316.9514689224372
 21
882.6912841497556
 31
0.0
  0
LINE
  5
25D
330
71
100
AcDbEntity
  8
1
  6
Continuous
 62
     6
100
AcDbLine
 10
311.9514689224378
 20
940.0912841497554
 30
0.0
 11
311.9514689224397
 21
882.6912841497556
 31
0.0
  0
LINE
  5
25E
330
71
100
AcDbEntity
  8
1
  6
Continuous
 62
     2
100
AcDbLine
 10
311.9514689224378
 20
940.0912841497554
 30
0.0
 11
316.9514689224372
 21
940.0912841497554
 31
0.0
  0
LINE
  5
25F
330
71
100
AcDbEntity
  8
1
  6
Continuous
 62
     2
100
AcDbLine
 10
316.9514689224372
 20
997.4912841497555
 30
0.0
 11
316.9514689224372
 21
940.0912841497554
 31
0.0
  0
LINE
  5
260
330
71
100
AcDbEntity
  8
1
  6
Continuous
 62
     2
100
AcDbLine
 10
311.9514689224372
 20
997.4912841497555
 30
0.0
 11
316.9514689224372
 21
997.4912841497555
 31
0.0
  0
LINE
  5
261
330
71
100
AcDbEntity
  8
1
  6
Continuous
 62
     2
100
AcDbLine
 10
311.9514689224372
 20
997.4912841497555
 30
0.0
 11
311.9514689224372
 21
1002.491284149756
 31
0.0
  0
LINE
  5
262
330
71
100
AcDbEntity
  8
1
  6
Continuous
 62
     2
100
AcDbLine
 10
316.9514689224372
 20
1002.491284149756
 30
0.0
 11
316.9514689224372
 21
997.4912841497555
 31
0.0
  0
LINE
  5
263
330
71
100
AcDbEntity
  8
1
  6
Continuous
 62
     6
100
AcDbLine
 10
311.9514689224372
 20
997.4912841497555
 30
0.0
 11
311.9514689224378
 21
940.0912841497554
 31
0.0
  0
LINE
  5
264
330
71
100
AcDbEntity
  8
1
  6
Continuous
 62
     2
100
AcDbLine
 10
316.9514689224372
 20
1002.491284149756
 30
0.0
 11
311.9514689224372
 21
1002.491284149756
 31
0.0
  0
LINE
  5
265
330
71
100
AcDbEntity
  8
1
  6
Continuous
 62
     2
100
AcDbLine
 10
316.9514689224372
 20
710.4912841497555
 30
0.0
 11
316.9514689224372
 21
767.8912841497556
 31
0.0
  0
LINE
  5
266
330
71
100
AcDbEntity
  8
1
  6
Continuous
 62
     2
100
AcDbLine
 10
316.9514689224372
 20
710.4912841497555
 30
0.0
 11
316.9514689224372
 21
705.4912841497555
 31
0.0
  0
LINE
  5
267
330
71
100
AcDbEntity
  8
1
  6
Continuous
 62
     2
100
AcDbLine
 10
316.9514689224372
 20
705.4912841497555
 30
0.0
 11
311.9514689224397
 21
705.4912841497555
 31
0.0
  0
LINE
  5
268
330
71
100
AcDbEntity
  8
1
  6
Continuous
 62
     2
100
AcDbLine
 10
175.2848022557732
 20
705.4912841497555
 30
0.0
 11
243.6181355891064
 21
705.4912841497555
 31
0.0
  0
LINE
  5
269
330
71
100
AcDbEntity
  8
1
  6
Continuous
 62
     2
100
AcDbLine
 10
126.951468922437
 20
705.4912841497555
 30
0.0
 11
175.2848022557732
 21
705.4912841497555
 31
0.0
  0
LINE
  5
26A
330
71
100
AcDbEntity
  8
1
  6
Continuous
 62
     2
100
AcDbLine
 10
126.951468922437
 20
705.4912841497555
 30
0.0
 11
126.951468922437
 21
709.4912841497555
 31
0.0
  0
LINE
  5
26B
330
71
100
AcDbEntity
  8
1
  6
Continuous
 62
     2
100
AcDbLine
 10
126.951468922437
 20
705.4912841497555
 30
0.0
 11
106.9514689224398
 21
705.4912841497555
 31
0.0
  0
LINE
  5
26C
330
71
100
AcDbEntity
  8
1
  6
Continuous
 62
     2
100
AcDbLine
 10
-83.04853107756097
 20
705.4912841497555
 30
0.0
 11
-29.7151977442268
 21
705.4912841497555
 31
0.0
  0
LINE
  5
26D
330
71
100
AcDbEntity
  8
1
  6
Continuous
 62
     2
100
AcDbLine
 10
-83.04853107756097
 20
705.4912841497555
 30
0.0
 11
-83.04853107756097
 21
709.4912841497555
 31
0.0
  0
LINE
  5
26E
330
71
100
AcDbEntity
  8
1
  6
Continuous
 62
     2
100
AcDbLine
 10
38.61813558910663
 20
705.4912841497555
 30
0.0
 11
38.61813558910663
 21
710.4912841497555
 31
0.0
  0
LINE
  5
26F
330
71
100
AcDbEntity
  8
1
  6
Continuous
 62
     6
100
AcDbLine
 10
-29.7151977442268
 20
710.4912841497555
 30
0.0
 11
-83.04853107755997
 21
710.4912841497555
 31
0.0
  0
LINE
  5
270
330
71
100
AcDbEntity
  8
1
  6
Continuous
 62
     6
100
AcDbLine
 10
-29.7151977442268
 20
710.4912841497555
 30
0.0
 11
38.61813558910663
 21
710.4912841497555
 31
0.0
  0
LINE
  5
271
330
71
100
AcDbEntity
  8
1
  6
Continuous
 62
     2
100
AcDbLine
 10
-29.7151977442268
 20
705.4912841497555
 30
0.0
 11
38.61813558910663
 21
705.4912841497555
 31
0.0
  0
LINE
  5
272
330
71
100
AcDbEntity
  8
1
  6
Continuous
 62
     2
100
AcDbLine
 10
-29.7151977442268
 20
705.4912841497555
 30
0.0
 11
-29.7151977442268
 21
710.4912841497555
 31
0.0
  0
LINE
  5
273
330
71
100
AcDbEntity
  8
1
  6
Continuous
 62
     2
100
AcDbLine
 10
-83.04853107756097
 20
705.4912841497555
 30
0.0
 11
-103.048531077561
 21
705.4912841497555
 31
0.0
  0
LINE
  5
274
330
71
100
AcDbEntity
  8
1
  6
Continuous
 62
     2
100
AcDbLine
 10
316.9514689224372
 20
767.8912841497556
 30
0.0
 11
311.9514689224397
 21
767.8912841497556
 31
0.0
  0
LINE
  5
275
330
71
100
AcDbEntity
  8
1
  6
Continuous
 62
     2
100
AcDbLine
 10
316.9514689224372
 20
767.8912841497556
 30
0.0
 11
316.9514689224372
 21
825.2912841497557
 31
0.0
  0
LINE
  5
276
330
71
100
AcDbEntity
  8
1
  6
Continuous
 62
     2
100
AcDbLine
 10
106.9514689224398
 20
705.4912841497555
 30
0.0
 11
106.9514689224398
 21
710.4912841497555
 31
0.0
  0
LINE
  5
277
330
71
100
AcDbEntity
  8
1
  6
Continuous
 62
     2
100
AcDbLine
 10
175.2848022557732
 20
705.4912841497555
 30
0.0
 11
175.2848022557732
 21
710.4912841497555
 31
0.0
  0
LINE
  5
278
330
71
100
AcDbEntity
  8
1
  6
Continuous
 62
     2
100
AcDbLine
 10
243.6181355891064
 20
705.4912841497555
 30
0.0
 11
243.6181355891064
 21
710.4912841497555
 31
0.0
  0
LINE
  5
279
330
71
100
AcDbEntity
  8
1
  6
Continuous
 62
     2
100
AcDbLine
 10
243.6181355891064
 20
705.4912841497555
 30
0.0
 11
311.9514689224397
 21
705.4912841497555
 31
0.0
  0
LINE
  5
27A
330
71
100
AcDbEntity
  8
1
  6
Continuous
 62
     2
100
AcDbLine
 10
106.9514689224398
 20
705.4912841497555
 30
0.0
 11
38.61813558910663
 21
705.4912841497555
 31
0.0
  0
LINE
  5
27B
330
71
100
AcDbEntity
  8
1
  6
Continuous
 62
     2
100
AcDbLine
 10
190.6869335302034
 20
723.866284149755
 30
0.0
 11
190.6869335302034
 21
726.866284149755
 31
0.0
  0
LINE
  5
27C
330
71
100
AcDbEntity
  8
1
  6
Continuous
 62
     2
100
AcDbLine
 10
194.6869335302034
 20
724.366284149755
 30
0.0
 11
190.6869335302034
 21
723.866284149755
 31
0.0
  0
LINE
  5
27D
330
71
100
AcDbEntity
  8
1
  6
Continuous
 62
     2
100
AcDbLine
 10
194.6869335302034
 20
726.366284149755
 30
0.0
 11
194.6869335302034
 21
724.366284149755
 31
0.0
  0
LINE
  5
27E
330
71
100
AcDbEntity
  8
1
  6
Continuous
 62
     2
100
AcDbLine
 10
190.6869335302034
 20
726.866284149755
 30
0.0
 11
194.6869335302034
 21
726.366284149755
 31
0.0
  0
LINE
  5
27F
330
71
100
AcDbEntity
  8
1
  6
Continuous
 62
     6
100
AcDbLine
 10
59.95146892243989
 20
723.241284149755
 30
0.0
 11
59.95146892243989
 21
727.491284149755
 31
0.0
  0
LINE
  5
280
330
71
100
AcDbEntity
  8
1
  6
Continuous
 62
     7
100
AcDbLine
 10
182.4066643956881
 20
735.991284149755
 30
0.0
 11
191.8066643956881
 21
735.991284149755
 31
0.0
  0
LINE
  5
281
330
71
100
AcDbEntity
  8
1
  6
Continuous
 62
     6
100
AcDbLine
 10
191.8066643956881
 20
740.241284149755
 30
0.0
 11
182.4066643956881
 21
740.241284149755
 31
0.0
  0
LINE
  5
282
330
71
100
AcDbEntity
  8
1
  6
Continuous
 62
     7
100
AcDbLine
 10
191.8066643956881
 20
727.4912841497551
 30
0.0
 11
182.4066643956881
 21
727.491284149755
 31
0.0
  0
LINE
  5
283
330
71
100
AcDbEntity
  8
1
  6
Continuous
 62
     2
100
AcDbLine
 10
141.9066643956881
 20
723.241284149755
 30
0.0
 11
79.65146892243789
 21
723.241284149755
 31
0.0
  0
LINE
  5
284
330
71
100
AcDbEntity
  8
1
  6
Continuous
 62
     2
100
AcDbLine
 10
141.9066643956881
 20
723.241284149755
 30
0.0
 11
141.9066643956881
 21
718.991284149755
 31
0.0
  0
LINE
  5
285
330
71
100
AcDbEntity
  8
1
  6
Continuous
 62
     2
100
AcDbLine
 10
141.9066643956881
 20
735.991284149755
 30
0.0
 11
141.9066643956881
 21
731.741284149755
 31
0.0
  0
LINE
  5
286
330
71
100
AcDbEntity
  8
1
  6
Continuous
 62
     2
100
AcDbLine
 10
141.9066643956881
 20
731.741284149755
 30
0.0
 11
141.9066643956881
 21
727.491284149755
 31
0.0
  0
LINE
  5
287
330
71
100
AcDbEntity
  8
1
  6
Continuous
 62
     2
100
AcDbLine
 10
141.9066643956881
 20
727.491284149755
 30
0.0
 11
79.65146892243789
 21
727.491284149755
 31
0.0
  0
LINE
  5
288
330
71
100
AcDbEntity
  8
1
  6
Continuous
 62
     2
100
AcDbLine
 10
141.9066643956881
 20
727.491284149755
 30
0.0
 11
141.9066643956881
 21
723.241284149755
 31
0.0
  0
LINE
  5
289
330
71
100
AcDbEntity
  8
1
  6
Continuous
 62
     7
100
AcDbLine
 10
141.9066643956881
 20
714.7412841497551
 30
0.0
 11
155.4066643956881
 21
714.7412841497551
 31
0.0
  0
LINE
  5
28A
330
71
100
AcDbEntity
  8
1
  6
Continuous
 62
     2
100
AcDbLine
 10
141.9066643956881
 20
714.7412841497551
 30
0.0
 11
141.9066643956881
 21
710.491284149755
 31
0.0
  0
LINE
  5
28B
330
71
100
AcDbEntity
  8
1
  6
Continuous
 62
     2
100
AcDbLine
 10
141.9066643956881
 20
718.991284149755
 30
0.0
 11
79.65146892243789
 21
718.991284149755
 31
0.0
  0
LINE
  5
28C
330
71
100
AcDbEntity
  8
1
  6
Continuous
 62
     2
100
AcDbLine
 10
141.9066643956881
 20
718.991284149755
 30
0.0
 11
141.9066643956881
 21
714.7412841497551
 31
0.0
  0
LINE
  5
28D
330
71
100
AcDbEntity
  8
1
  6
Continuous
 62
     2
100
AcDbLine
 10
155.4066643956881
 20
723.241284149755
 30
0.0
 11
141.9066643956881
 21
723.241284149755
 31
0.0
  0
LINE
  5
28E
330
71
100
AcDbEntity
  8
1
  6
Continuous
 62
     2
100
AcDbLine
 10
155.4066643956881
 20
723.241284149755
 30
0.0
 11
155.4066643956881
 21
718.991284149755
 31
0.0
  0
LINE
  5
28F
330
71
100
AcDbEntity
  8
1
  6
Continuous
 62
     2
100
AcDbLine
 10
155.4066643956881
 20
735.991284149755
 30
0.0
 11
141.9066643956881
 21
735.991284149755
 31
0.0
  0
LINE
  5
290
330
71
100
AcDbEntity
  8
1
  6
Continuous
 62
     2
100
AcDbLine
 10
155.4066643956881
 20
735.991284149755
 30
0.0
 11
155.4066643956881
 21
731.741284149755
 31
0.0
  0
LINE
  5
291
330
71
100
AcDbEntity
  8
1
  6
Continuous
 62
     2
100
AcDbLine
 10
155.4066643956881
 20
731.741284149755
 30
0.0
 11
141.9066643956881
 21
731.741284149755
 31
0.0
  0
LINE
  5
292
330
71
100
AcDbEntity
  8
1
  6
Continuous
 62
     2
100
AcDbLine
 10
155.4066643956881
 20
731.741284149755
 30
0.0
 11
155.4066643956881
 21
727.491284149755
 31
0.0
  0
LINE
  5
293
330
71
100
AcDbEntity
  8
1
  6
Continuous
 62
     2
100
AcDbLine
 10
155.4066643956881
 20
727.491284149755
 30
0.0
 11
141.9066643956881
 21
727.491284149755
 31
0.0
  0
LINE
  5
294
330
71
100
AcDbEntity
  8
1
  6
Continuous
 62
     2
100
AcDbLine
 10
155.4066643956881
 20
727.491284149755
 30
0.0
 11
155.4066643956881
 21
723.241284149755
 31
0.0
  0
LINE
  5
295
330
71
100
AcDbEntity
  8
1
  6
Continuous
 62
     7
100
AcDbLine
 10
155.4066643956881
 20
714.7412841497551
 30
0.0
 11
168.906664395688
 21
714.7412841497551
 31
0.0
  0
LINE
  5
296
330
71
100
AcDbEntity
  8
1
  6
Continuous
 62
     2
100
AcDbLine
 10
155.4066643956881
 20
714.7412841497551
 30
0.0
 11
155.4066643956881
 21
710.491284149755
 31
0.0
  0
LINE
  5
297
330
71
100
AcDbEntity
  8
1
  6
Continuous
 62
     2
100
AcDbLine
 10
155.4066643956881
 20
718.991284149755
 30
0.0
 11
141.9066643956881
 21
718.991284149755
 31
0.0
  0
LINE
  5
298
330
71
100
AcDbEntity
  8
1
  6
Continuous
 62
     2
100
AcDbLine
 10
155.4066643956881
 20
718.991284149755
 30
0.0
 11
155.4066643956881
 21
714.7412841497551
 31
0.0
  0
LINE
  5
299
330
71
100
AcDbEntity
  8
1
  6
Continuous
 62
     2
100
AcDbLine
 10
168.906664395688
 20
723.241284149755
 30
0.0
 11
155.4066643956881
 21
723.241284149755
 31
0.0
  0
LINE
  5
29A
330
71
100
AcDbEntity
  8
1
  6
Continuous
 62
     2
100
AcDbLine
 10
168.906664395688
 20
723.241284149755
 30
0.0
 11
168.906664395688
 21
718.991284149755
 31
0.0
  0
LINE
  5
29B
330
71
100
AcDbEntity
  8
1
  6
Continuous
 62
     2
100
AcDbLine
 10
168.906664395688
 20
735.991284149755
 30
0.0
 11
155.4066643956881
 21
735.991284149755
 31
0.0
  0
LINE
  5
29C
330
71
100
AcDbEntity
  8
1
  6
Continuous
 62
     2
100
AcDbLine
 10
168.906664395688
 20
735.991284149755
 30
0.0
 11
168.906664395688
 21
731.741284149755
 31
0.0
  0
LINE
  5
29D
330
71
100
AcDbEntity
  8
1
  6
Continuous
 62
     2
100
AcDbLine
 10
168.906664395688
 20
731.741284149755
 30
0.0
 11
155.4066643956881
 21
731.741284149755
 31
0.0
  0
LINE
  5
29E
330
71
100
AcDbEntity
  8
1
  6
Continuous
 62
     2
100
AcDbLine
 10
168.906664395688
 20
731.741284149755
 30
0.0
 11
168.906664395688
 21
727.491284149755
 31
0.0
  0
LINE
  5
29F
330
71
100
AcDbEntity
  8
1
  6
Continuous
 62
     2
100
AcDbLine
 10
168.906664395688
 20
727.491284149755
 30
0.0
 11
155.4066643956881
 21
727.491284149755
 31
0.0
  0
LINE
  5
2A0
330
71
100
AcDbEntity
  8
1
  6
Continuous
 62
     2
100
AcDbLine
 10
168.906664395688
 20
727.491284149755
 30
0.0
 11
168.906664395688
 21
723.241284149755
 31
0.0
  0
LINE
  5
2A1
330
71
100
AcDbEntity
  8
1
  6
Continuous
 62
     7
100
AcDbLine
 10
168.906664395688
 20
714.7412841497551
 30
0.0
 11
182.4066643956881
 21
714.7412841497551
 31
0.0
  0
LINE
  5
2A2
330
71
100
AcDbEntity
  8
1
  6
Continuous
 62
     2
100
AcDbLine
 10
168.906664395688
 20
714.7412841497551
 30
0.0
 11
168.906664395688
 21
710.491284149755
 31
0.0
  0
LINE
  5
2A3
330
71
100
AcDbEntity
  8
1
  6
Continuous
 62
     2
100
AcDbLine
 10
168.906664395688
 20
718.991284149755
 30
0.0
 11
155.4066643956881
 21
718.991284149755
 31
0.0
  0
LINE
  5
2A4
330
71
100
AcDbEntity
  8
1
  6
Continuous
 62
     2
100
AcDbLine
 10
168.906664395688
 20
718.991284149755
 30
0.0
 11
168.906664395688
 21
714.7412841497551
 31
0.0
  0
LINE
  5
2A5
330
71
100
AcDbEntity
  8
1
  6
Continuous
 62
     7
100
AcDbLine
 10
241.706664395688
 20
731.741284149755
 30
0.0
 11
218.806664395688
 21
731.741284149755
 31
0.0
  0
LINE
  5
2A6
330
71
100
AcDbEntity
  8
1
  6
Continuous
 62
     7
100
AcDbLine
 10
205.306664395688
 20
731.741284149755
 30
0.0
 11
218.806664395688
 21
731.741284149755
 31
0.0
  0
LINE
  5
2A7
330
71
100
AcDbEntity
  8
1
  6
Continuous
 62
     2
100
AcDbLine
 10
79.65146892243789
 20
731.741284149755
 30
0.0
 11
141.9066643956881
 21
731.741284149755
 31
0.0
  0
LINE
  5
2A8
330
71
100
AcDbEntity
  8
1
  6
Continuous
 62
     2
100
AcDbLine
 10
79.65146892243789
 20
735.991284149755
 30
0.0
 11
141.9066643956881
 21
735.991284149755
 31
0.0
  0
LINE
  5
2A9
330
71
100
AcDbEntity
  8
1
  6
Continuous
 62
     6
100
AcDbLine
 10
141.9066643956881
 20
740.241284149755
 30
0.0
 11
79.65146892243789
 21
740.241284149755
 31
0.0
  0
LINE
  5
2AA
330
71
100
AcDbEntity
  8
1
  6
Continuous
 62
     6
100
AcDbLine
 10
59.95146892243989
 20
718.991284149755
 30
0.0
 11
59.95146892243989
 21
723.241284149755
 31
0.0
  0
LINE
  5
2AB
330
71
100
AcDbEntity
  8
1
  6
Continuous
 62
     6
100
AcDbLine
 10
59.95146892243989
 20
727.491284149755
 30
0.0
 11
59.95146892243989
 21
731.741284149755
 31
0.0
  0
LINE
  5
2AC
330
71
100
AcDbEntity
  8
1
  6
Continuous
 62
     6
100
AcDbLine
 10
59.95146892243989
 20
731.741284149755
 30
0.0
 11
59.95146892243989
 21
735.991284149755
 31
0.0
  0
LINE
  5
2AD
330
71
100
AcDbEntity
  8
1
  6
Continuous
 62
     6
100
AcDbLine
 10
59.95146892243989
 20
735.991284149755
 30
0.0
 11
59.95146892243989
 21
740.241284149755
 31
0.0
  0
LINE
  5
2AE
330
71
100
AcDbEntity
  8
1
  6
Continuous
 62
     7
100
AcDbLine
 10
248.4514689224421
 20
727.491284149755
 30
0.0
 11
248.4514689224421
 21
718.991284149755
 31
0.0
  0
LINE
  5
2AF
330
71
100
AcDbEntity
  8
1
  6
Continuous
 62
     7
100
AcDbLine
 10
248.4514689224421
 20
727.491284149755
 30
0.0
 11
266.9514689224417
 21
727.491284149755
 31
0.0
  0
LINE
  5
2B0
330
71
100
AcDbEntity
  8
1
  6
Continuous
 62
     7
100
AcDbLine
 10
285.15146892244
 20
731.7412841497551
 30
0.0
 11
248.4514689224421
 21
731.741284149755
 31
0.0
  0
LINE
  5
2B1
330
71
100
AcDbEntity
  8
1
  6
Continuous
 62
     7
100
AcDbLine
 10
285.15146892244
 20
731.7412841497551
 30
0.0
 11
294.0698772041189
 21
731.741284149755
 31
0.0
  0
LINE
  5
2B2
330
71
100
AcDbEntity
  8
1
  6
Continuous
 62
     7
100
AcDbLine
 10
218.806664395688
 20
727.491284149755
 30
0.0
 11
248.4514689224421
 21
727.491284149755
 31
0.0
  0
LINE
  5
2B3
330
71
100
AcDbEntity
  8
1
  6
Continuous
 62
     7
100
AcDbLine
 10
218.806664395688
 20
718.991284149755
 30
0.0
 11
248.4514689224421
 21
718.991284149755
 31
0.0
  0
LINE
  5
2B4
330
71
100
AcDbEntity
  8
1
  6
Continuous
 62
     7
100
AcDbLine
 10
182.4066643956881
 20
740.241284149755
 30
0.0
 11
182.4066643956881
 21
735.991284149755
 31
0.0
  0
LINE
  5
2B5
330
71
100
AcDbEntity
  8
1
  6
Continuous
 62
     7
100
AcDbLine
 10
182.4066643956881
 20
714.7412841497551
 30
0.0
 11
182.4066643956881
 21
710.491284149755
 31
0.0
  0
LINE
  5
2B6
330
71
100
AcDbEntity
  8
1
  6
Continuous
 62
     7
100
AcDbLine
 10
218.806664395688
 20
714.7412841497551
 30
0.0
 11
218.806664395688
 21
710.491284149755
 31
0.0
  0
LINE
  5
2B7
330
71
100
AcDbEntity
  8
1
  6
Continuous
 62
     7
100
AcDbLine
 10
218.806664395688
 20
727.491284149755
 30
0.0
 11
205.306664395688
 21
727.491284149755
 31
0.0
  0
LINE
  5
2B8
330
71
100
AcDbEntity
  8
1
  6
Continuous
 62
     7
100
AcDbLine
 10
182.4066643956881
 20
731.741284149755
 30
0.0
 11
191.8066643956881
 21
731.741284149755
 31
0.0
  0
LINE
  5
2B9
330
71
100
AcDbEntity
  8
1
  6
Continuous
 62
     7
100
AcDbLine
 10
191.8066643956881
 20
735.991284149755
 30
0.0
 11
191.8066643956881
 21
731.741284149755
 31
0.0
  0
LINE
  5
2BA
330
71
100
AcDbEntity
  8
1
  6
Continuous
 62
     7
100
AcDbLine
 10
205.306664395688
 20
735.991284149755
 30
0.0
 11
205.306664395688
 21
731.741284149755
 31
0.0
  0
LINE
  5
2BB
330
71
100
AcDbEntity
  8
1
  6
Continuous
 62
     7
100
AcDbLine
 10
182.4066643956881
 20
718.991284149755
 30
0.0
 11
182.4066643956881
 21
714.7412841497551
 31
0.0
  0
LINE
  5
2BC
330
71
100
AcDbEntity
  8
1
  6
Continuous
 62
     7
100
AcDbLine
 10
182.4066643956881
 20
723.241284149755
 30
0.0
 11
182.4066643956881
 21
718.991284149755
 31
0.0
  0
LINE
  5
2BD
330
71
100
AcDbEntity
  8
1
  6
Continuous
 62
     7
100
AcDbLine
 10
218.806664395688
 20
718.991284149755
 30
0.0
 11
218.806664395688
 21
714.7412841497551
 31
0.0
  0
LINE
  5
2BE
330
71
100
AcDbEntity
  8
1
  6
Continuous
 62
     7
100
AcDbLine
 10
59.95146892243989
 20
714.7412841497551
 30
0.0
 11
66.15146892243789
 21
714.7412841497551
 31
0.0
  0
LINE
  5
2BF
330
71
100
AcDbEntity
  8
1
  6
Continuous
 62
     2
100
AcDbLine
 10
59.95146892243989
 20
723.241284149755
 30
0.0
 11
66.15146892243789
 21
723.241284149755
 31
0.0
  0
LINE
  5
2C0
330
71
100
AcDbEntity
  8
1
  6
Continuous
 62
     2
100
AcDbLine
 10
59.95146892243989
 20
718.991284149755
 30
0.0
 11
66.15146892243789
 21
718.991284149755
 31
0.0
  0
LINE
  5
2C1
330
71
100
AcDbEntity
  8
1
  6
Continuous
 62
     2
100
AcDbLine
 10
66.15146892243789
 20
710.491284149755
 30
0.0
 11
66.15146892243789
 21
714.7412841497551
 31
0.0
  0
LINE
  5
2C2
330
71
100
AcDbEntity
  8
1
  6
Continuous
 62
     7
100
AcDbLine
 10
191.8066643956881
 20
740.241284149755
 30
0.0
 11
191.8066643956881
 21
735.991284149755
 31
0.0
  0
LINE
  5
2C3
330
71
100
AcDbEntity
  8
1
  6
Continuous
 62
     7
100
AcDbLine
 10
205.306664395688
 20
740.241284149755
 30
0.0
 11
205.306664395688
 21
735.991284149755
 31
0.0
  0
LINE
  5
2C4
330
71
100
AcDbEntity
  8
1
  6
Continuous
 62
     7
100
AcDbLine
 10
218.806664395688
 20
731.741284149755
 30
0.0
 11
218.806664395688
 21
727.491284149755
 31
0.0
  0
LINE
  5
2C5
330
71
100
AcDbEntity
  8
1
  6
Continuous
 62
     7
100
AcDbLine
 10
182.4066643956881
 20
735.991284149755
 30
0.0
 11
182.4066643956881
 21
731.741284149755
 31
0.0
  0
LINE
  5
2C6
330
71
100
AcDbEntity
  8
1
  6
Continuous
 62
     2
100
AcDbLine
 10
59.95146892243989
 20
731.741284149755
 30
0.0
 11
66.15146892243789
 21
731.741284149755
 31
0.0
  0
LINE
  5
2C7
330
71
100
AcDbEntity
  8
1
  6
Continuous
 62
     7
100
AcDbLine
 10
182.4066643956881
 20
731.741284149755
 30
0.0
 11
182.4066643956881
 21
727.491284149755
 31
0.0
  0
LINE
  5
2C8
330
71
100
AcDbEntity
  8
1
  6
Continuous
 62
     7
100
AcDbLine
 10
182.4066643956881
 20
727.491284149755
 30
0.0
 11
182.4066643956881
 21
723.241284149755
 31
0.0
  0
LINE
  5
2C9
330
71
100
AcDbEntity
  8
1
  6
Continuous
 62
     6
100
AcDbLine
 10
191.8066643956881
 20
740.241284149755
 30
0.0
 11
205.306664395688
 21
740.241284149755
 31
0.0
  0
LINE
  5
2CA
330
71
100
AcDbEntity
  8
1
  6
Continuous
 62
     7
100
AcDbLine
 10
218.806664395688
 20
740.241284149755
 30
0.0
 11
218.806664395688
 21
735.991284149755
 31
0.0
  0
LINE
  5
2CB
330
71
100
AcDbEntity
  8
1
  6
Continuous
 62
     6
100
AcDbLine
 10
205.306664395688
 20
740.241284149755
 30
0.0
 11
218.806664395688
 21
740.241284149755
 31
0.0
  0
LINE
  5
2CC
330
71
100
AcDbEntity
  8
1
  6
Continuous
 62
     7
100
AcDbLine
 10
218.806664395688
 20
718.991284149755
 30
0.0
 11
218.806664395688
 21
723.241284149755
 31
0.0
  0
LINE
  5
2CD
330
71
100
AcDbEntity
  8
1
  6
Continuous
 62
     2
100
AcDbLine
 10
66.15146892243789
 20
714.7412841497551
 30
0.0
 11
66.15146892243789
 21
718.991284149755
 31
0.0
  0
LINE
  5
2CE
330
71
100
AcDbEntity
  8
1
  6
Continuous
 62
     7
100
AcDbLine
 10
66.15146892243789
 20
714.7412841497551
 30
0.0
 11
79.65146892243789
 21
714.7412841497551
 31
0.0
  0
LINE
  5
2CF
330
71
100
AcDbEntity
  8
1
  6
Continuous
 62
     2
100
AcDbLine
 10
66.15146892243789
 20
723.241284149755
 30
0.0
 11
66.15146892243789
 21
727.491284149755
 31
0.0
  0
LINE
  5
2D0
330
71
100
AcDbEntity
  8
1
  6
Continuous
 62
     2
100
AcDbLine
 10
66.15146892243789
 20
718.991284149755
 30
0.0
 11
66.15146892243789
 21
723.241284149755
 31
0.0
  0
LINE
  5
2D1
330
71
100
AcDbEntity
  8
1
  6
Continuous
 62
     2
100
AcDbLine
 10
182.4066643956881
 20
723.241284149755
 30
0.0
 11
168.906664395688
 21
723.241284149755
 31
0.0
  0
LINE
  5
2D2
330
71
100
AcDbEntity
  8
1
  6
Continuous
 62
     2
100
AcDbLine
 10
182.4066643956881
 20
718.991284149755
 30
0.0
 11
168.906664395688
 21
718.991284149755
 31
0.0
  0
LINE
  5
2D3
330
71
100
AcDbEntity
  8
1
  6
Continuous
 62
     6
100
AcDbLine
 10
182.4066643956881
 20
740.241284149755
 30
0.0
 11
168.906664395688
 21
740.241284149755
 31
0.0
  0
LINE
  5
2D4
330
71
100
AcDbEntity
  8
1
  6
Continuous
 62
     2
100
AcDbLine
 10
66.15146892243789
 20
735.991284149755
 30
0.0
 11
59.95146892243989
 21
735.991284149755
 31
0.0
  0
LINE
  5
2D5
330
71
100
AcDbEntity
  8
1
  6
Continuous
 62
     2
100
AcDbLine
 10
66.15146892243789
 20
735.991284149755
 30
0.0
 11
66.15146892243789
 21
740.241284149755
 31
0.0
  0
LINE
  5
2D6
330
71
100
AcDbEntity
  8
1
  6
Continuous
 62
     2
100
AcDbLine
 10
182.4066643956881
 20
735.991284149755
 30
0.0
 11
168.906664395688
 21
735.991284149755
 31
0.0
  0
LINE
  5
2D7
330
71
100
AcDbEntity
  8
1
  6
Continuous
 62
     2
100
AcDbLine
 10
66.15146892243789
 20
731.741284149755
 30
0.0
 11
66.15146892243789
 21
735.991284149755
 31
0.0
  0
LINE
  5
2D8
330
71
100
AcDbEntity
  8
1
  6
Continuous
 62
     2
100
AcDbLine
 10
182.4066643956881
 20
731.741284149755
 30
0.0
 11
168.906664395688
 21
731.741284149755
 31
0.0
  0
LINE
  5
2D9
330
71
100
AcDbEntity
  8
1
  6
Continuous
 62
     2
100
AcDbLine
 10
66.15146892243789
 20
727.491284149755
 30
0.0
 11
59.95146892243989
 21
727.491284149755
 31
0.0
  0
LINE
  5
2DA
330
71
100
AcDbEntity
  8
1
  6
Continuous
 62
     2
100
AcDbLine
 10
66.15146892243789
 20
727.491284149755
 30
0.0
 11
66.15146892243789
 21
731.741284149755
 31
0.0
  0
LINE
  5
2DB
330
71
100
AcDbEntity
  8
1
  6
Continuous
 62
     2
100
AcDbLine
 10
182.4066643956881
 20
727.491284149755
 30
0.0
 11
168.906664395688
 21
727.491284149755
 31
0.0
  0
LINE
  5
2DC
330
71
100
AcDbEntity
  8
1
  6
Continuous
 62
     7
100
AcDbLine
 10
205.306664395688
 20
731.741284149755
 30
0.0
 11
191.8066643956881
 21
731.741284149755
 31
0.0
  0
LINE
  5
2DD
330
71
100
AcDbEntity
  8
1
  6
Continuous
 62
     7
100
AcDbLine
 10
191.8066643956881
 20
731.741284149755
 30
0.0
 11
191.8066643956881
 21
727.4912841497551
 31
0.0
  0
LINE
  5
2DE
330
71
100
AcDbEntity
  8
1
  6
Continuous
 62
     7
100
AcDbLine
 10
205.306664395688
 20
731.741284149755
 30
0.0
 11
205.306664395688
 21
727.491284149755
 31
0.0
  0
LINE
  5
2DF
330
71
100
AcDbEntity
  8
1
  6
Continuous
 62
     6
100
AcDbLine
 10
59.95146892243989
 20
714.7412841497551
 30
0.0
 11
59.95146892243989
 21
718.991284149755
 31
0.0
  0
LINE
  5
2E0
330
71
100
AcDbEntity
  8
1
  6
Continuous
 62
     6
100
AcDbLine
 10
59.95146892243989
 20
710.4912841497551
 30
0.0
 11
59.95146892243989
 21
714.7412841497551
 31
0.0
  0
LINE
  5
2E1
330
71
100
AcDbEntity
  8
1
  6
Continuous
 62
     6
100
AcDbLine
 10
66.15146892243789
 20
740.241284149755
 30
0.0
 11
59.95146892243989
 21
740.241284149755
 31
0.0
  0
LINE
  5
2E2
330
71
100
AcDbEntity
  8
1
  6
Continuous
 62
     7
100
AcDbLine
 10
241.706664395688
 20
740.241284149755
 30
0.0
 11
241.706664395688
 21
731.741284149755
 31
0.0
  0
LINE
  5
2E3
330
71
100
AcDbEntity
  8
1
  6
Continuous
 62
     6
100
AcDbLine
 10
285.1514689224397
 20
740.241284149755
 30
0.0
 11
241.706664395688
 21
740.241284149755
 31
0.0
  0
LINE
  5
2E4
330
71
100
AcDbEntity
  8
1
  6
Continuous
 62
     6
100
AcDbLine
 10
218.806664395688
 20
740.241284149755
 30
0.0
 11
241.706664395688
 21
740.241284149755
 31
0.0
  0
LINE
  5
2E5
330
71
100
AcDbEntity
  8
1
  6
Continuous
 62
     7
100
AcDbLine
 10
218.806664395688
 20
714.7412841497551
 30
0.0
 11
200.606664395688
 21
714.7412841497551
 31
0.0
  0
LINE
  5
2E6
330
71
100
AcDbEntity
  8
1
  6
Continuous
 62
     7
100
AcDbLine
 10
205.306664395688
 20
727.491284149755
 30
0.0
 11
191.8066643956881
 21
727.4912841497551
 31
0.0
  0
LINE
  5
2E7
330
71
100
AcDbEntity
  8
1
  6
Continuous
 62
     7
100
AcDbLine
 10
200.606664395688
 20
714.7412841497551
 30
0.0
 11
182.4066643956881
 21
714.7412841497551
 31
0.0
  0
LINE
  5
2E8
330
71
100
AcDbEntity
  8
1
  6
Continuous
 62
     7
100
AcDbLine
 10
200.606664395688
 20
714.7412841497551
 30
0.0
 11
200.606664395688
 21
710.4912841497551
 31
0.0
  0
LINE
  5
2E9
330
71
100
AcDbEntity
  8
1
  6
Continuous
 62
     2
100
AcDbLine
 10
141.9066643956881
 20
740.241284149755
 30
0.0
 11
141.9066643956881
 21
735.991284149755
 31
0.0
  0
LINE
  5
2EA
330
71
100
AcDbEntity
  8
1
  6
Continuous
 62
     6
100
AcDbLine
 10
155.4066643956881
 20
740.241284149755
 30
0.0
 11
141.9066643956881
 21
740.241284149755
 31
0.0
  0
LINE
  5
2EB
330
71
100
AcDbEntity
  8
1
  6
Continuous
 62
     6
100
AcDbLine
 10
168.906664395688
 20
740.241284149755
 30
0.0
 11
155.4066643956881
 21
740.241284149755
 31
0.0
  0
LINE
  5
2EC
330
71
100
AcDbEntity
  8
1
  6
Continuous
 62
     2
100
AcDbLine
 10
155.4066643956881
 20
740.241284149755
 30
0.0
 11
155.4066643956881
 21
735.991284149755
 31
0.0
  0
LINE
  5
2ED
330
71
100
AcDbEntity
  8
1
  6
Continuous
 62
     2
100
AcDbLine
 10
168.906664395688
 20
740.241284149755
 30
0.0
 11
168.906664395688
 21
735.991284149755
 31
0.0
  0
LINE
  5
2EE
330
71
100
AcDbEntity
  8
1
  6
Continuous
 62
     7
100
AcDbLine
 10
266.9514689224417
 20
727.491284149755
 30
0.0
 11
266.9514689224417
 21
718.991284149755
 31
0.0
  0
LINE
  5
2EF
330
71
100
AcDbEntity
  8
1
  6
Continuous
 62
     7
100
AcDbLine
 10
266.9514689224417
 20
718.991284149755
 30
0.0
 11
248.4514689224421
 21
718.991284149755
 31
0.0
  0
LINE
  5
2F0
330
71
100
AcDbEntity
  8
1
  6
Continuous
 62
     7
100
AcDbLine
 10
285.1514689224397
 20
740.241284149755
 30
0.0
 11
285.15146892244
 21
731.7412841497551
 31
0.0
  0
LINE
  5
2F1
330
71
100
AcDbEntity
  8
1
  6
Continuous
 62
     6
100
AcDbLine
 10
285.1514689224397
 20
740.241284149755
 30
0.0
 11
294.0698772041189
 21
740.241284149755
 31
0.0
  0
LINE
  5
2F2
330
71
100
AcDbEntity
  8
1
  6
Continuous
 62
     7
100
AcDbLine
 10
294.0698772041189
 20
731.741284149755
 30
0.0
 11
294.0698772041189
 21
740.241284149755
 31
0.0
  0
LINE
  5
2F3
330
71
100
AcDbEntity
  8
1
  6
Continuous
 62
     7
100
AcDbLine
 10
205.306664395688
 20
735.991284149755
 30
0.0
 11
191.8066643956881
 21
735.991284149755
 31
0.0
  0
LINE
  5
2F4
330
71
100
AcDbEntity
  8
1
  6
Continuous
 62
     7
100
AcDbLine
 10
205.306664395688
 20
735.991284149755
 30
0.0
 11
218.806664395688
 21
735.991284149755
 31
0.0
  0
LINE
  5
2F5
330
71
100
AcDbEntity
  8
1
  6
Continuous
 62
     7
100
AcDbLine
 10
218.806664395688
 20
735.991284149755
 30
0.0
 11
218.806664395688
 21
731.741284149755
 31
0.0
  0
LINE
  5
2F6
330
71
100
AcDbEntity
  8
1
  6
Continuous
 62
     7
100
AcDbLine
 10
266.9514689224417
 20
727.491284149755
 30
0.0
 11
311.9514689224397
 21
727.491284149755
 31
0.0
  0
LINE
  5
2F7
330
71
100
AcDbEntity
  8
1
  6
Continuous
 62
     7
100
AcDbLine
 10
311.9514689224388
 20
731.741284149755
 30
0.0
 11
294.0698772041189
 21
731.741284149755
 31
0.0
  0
LINE
  5
2F8
330
71
100
AcDbEntity
  8
1
  6
Continuous
 62
     7
100
AcDbLine
 10
311.9514689224393
 20
718.991284149755
 30
0.0
 11
266.9514689224417
 21
718.991284149755
 31
0.0
  0
LINE
  5
2F9
330
71
100
AcDbEntity
  8
1
  6
Continuous
 62
     6
100
AcDbLine
 10
311.9514689224397
 20
740.241284149755
 30
0.0
 11
294.0698772041189
 21
740.241284149755
 31
0.0
  0
LINE
  5
2FA
330
71
100
AcDbEntity
  8
1
  6
Continuous
 62
     2
100
AcDbLine
 10
79.65146892243789
 20
740.241284149755
 30
0.0
 11
79.65146892243789
 21
735.991284149755
 31
0.0
  0
LINE
  5
2FB
330
71
100
AcDbEntity
  8
1
  6
Continuous
 62
     6
100
AcDbLine
 10
79.65146892243789
 20
740.241284149755
 30
0.0
 11
66.15146892243789
 21
740.241284149755
 31
0.0
  0
LINE
  5
2FC
330
71
100
AcDbEntity
  8
1
  6
Continuous
 62
     2
100
AcDbLine
 10
79.65146892243789
 20
735.991284149755
 30
0.0
 11
79.65146892243789
 21
731.741284149755
 31
0.0
  0
LINE
  5
2FD
330
71
100
AcDbEntity
  8
1
  6
Continuous
 62
     2
100
AcDbLine
 10
79.65146892243789
 20
731.741284149755
 30
0.0
 11
79.65146892243789
 21
727.491284149755
 31
0.0
  0
LINE
  5
2FE
330
71
100
AcDbEntity
  8
1
  6
Continuous
 62
     2
100
AcDbLine
 10
79.65146892243789
 20
731.741284149755
 30
0.0
 11
66.15146892243789
 21
731.741284149755
 31
0.0
  0
LINE
  5
2FF
330
71
100
AcDbEntity
  8
1
  6
Continuous
 62
     2
100
AcDbLine
 10
79.65146892243789
 20
735.991284149755
 30
0.0
 11
66.15146892243789
 21
735.991284149755
 31
0.0
  0
LINE
  5
300
330
71
100
AcDbEntity
  8
1
  6
Continuous
 62
     2
100
AcDbLine
 10
79.65146892243789
 20
723.241284149755
 30
0.0
 11
79.65146892243789
 21
718.991284149755
 31
0.0
  0
LINE
  5
301
330
71
100
AcDbEntity
  8
1
  6
Continuous
 62
     2
100
AcDbLine
 10
79.65146892243789
 20
723.241284149755
 30
0.0
 11
66.15146892243789
 21
723.241284149755
 31
0.0
  0
LINE
  5
302
330
71
100
AcDbEntity
  8
1
  6
Continuous
 62
     2
100
AcDbLine
 10
79.65146892243789
 20
727.491284149755
 30
0.0
 11
79.65146892243789
 21
723.241284149755
 31
0.0
  0
LINE
  5
303
330
71
100
AcDbEntity
  8
1
  6
Continuous
 62
     2
100
AcDbLine
 10
79.65146892243789
 20
727.491284149755
 30
0.0
 11
66.15146892243789
 21
727.491284149755
 31
0.0
  0
LINE
  5
304
330
71
100
AcDbEntity
  8
1
  6
Continuous
 62
     2
100
AcDbLine
 10
79.65146892243789
 20
718.991284149755
 30
0.0
 11
79.65146892243789
 21
714.7412841497551
 31
0.0
  0
LINE
  5
305
330
71
100
AcDbEntity
  8
1
  6
Continuous
 62
     2
100
AcDbLine
 10
79.65146892243789
 20
718.991284149755
 30
0.0
 11
66.15146892243789
 21
718.991284149755
 31
0.0
  0
LINE
  5
306
330
71
100
AcDbEntity
  8
1
  6
Continuous
 62
     2
100
AcDbLine
 10
79.65146892243789
 20
714.7412841497551
 30
0.0
 11
79.65146892243789
 21
710.4912841497551
 31
0.0
  0
LINE
  5
307
330
71
100
AcDbEntity
  8
1
  6
Continuous
 62
     7
100
AcDbLine
 10
79.65146892243789
 20
714.7412841497551
 30
0.0
 11
141.9066643956881
 21
714.7412841497551
 31
0.0
  0
LINE
  5
308
330
71
100
AcDbEntity
  8
1
  6
Continuous
 62
     7
100
AcDbLine
 10
182.4066643956881
 20
723.241284149755
 30
0.0
 11
218.806664395688
 21
723.241284149755
 31
0.0
  0
LINE
  5
309
330
71
100
AcDbEntity
  8
1
  6
Continuous
 62
     7
100
AcDbLine
 10
218.806664395688
 20
723.241284149755
 30
0.0
 11
218.806664395688
 21
727.491284149755
 31
0.0
  0
LINE
  5
30A
330
71
100
AcDbEntity
  8
1
  6
PHANTOM
 62
     2
100
AcDbLine
 10
189.1489242207914
 20
725.366284149755
 30
0.0
 11
185.8489242207914
 21
725.366284149755
 31
0.0
  0
LINE
  5
30B
330
71
100
AcDbEntity
  8
1
  6
PHANTOM
 62
     2
100
AcDbLine
 10
187.4989242207914
 20
727.016284149755
 30
0.0
 11
187.4989242207914
 21
723.716284149755
 31
0.0
  0
LINE
  5
30C
330
71
100
AcDbEntity
  8
1
  6
PHANTOM
 62
     2
100
AcDbLine
 10
190.5259276104884
 20
725.366284149755
 30
0.0
 11
194.8415225796774
 21
725.366284149755
 31
0.0
  0
LINE
  5
30D
330
71
100
AcDbEntity
  8
1
  6
Continuous
 62
     6
100
AcDbLine
 10
311.9514689224397
 20
740.241284149755
 30
0.0
 11
311.9514689224397
 21
767.8912841497556
 31
0.0
  0
LINE
  5
30E
330
71
100
AcDbEntity
  8
1
  6
Continuous
 62
     6
100
AcDbLine
 10
311.9514689224388
 20
731.741284149755
 30
0.0
 11
311.9514689224397
 21
740.241284149755
 31
0.0
  0
LINE
  5
30F
330
71
100
AcDbEntity
  8
1
  6
Continuous
 62
     6
100
AcDbLine
 10
311.9514689224397
 20
727.491284149755
 30
0.0
 11
311.9514689224388
 21
731.741284149755
 31
0.0
  0
LINE
  5
310
330
71
100
AcDbEntity
  8
1
  6
Continuous
 62
     6
100
AcDbLine
 10
311.9514689224393
 20
718.991284149755
 30
0.0
 11
311.9514689224397
 21
727.491284149755
 31
0.0
  0
LINE
  5
311
330
71
100
AcDbEntity
  8
1
  6
Continuous
 62
     6
100
AcDbLine
 10
243.6181355891064
 20
710.4912841497555
 30
0.0
 11
311.9514689224397
 21
710.4912841497551
 31
0.0
  0
LINE
  5
312
330
71
100
AcDbEntity
  8
1
  6
Continuous
 62
     6
100
AcDbLine
 10
218.806664395688
 20
710.491284149755
 30
0.0
 11
243.6181355891064
 21
710.4912841497555
 31
0.0
  0
LINE
  5
313
330
71
100
AcDbEntity
  8
1
  6
Continuous
 62
     6
100
AcDbLine
 10
200.606664395688
 20
710.4912841497551
 30
0.0
 11
218.806664395688
 21
710.491284149755
 31
0.0
  0
LINE
  5
314
330
71
100
AcDbEntity
  8
1
  6
Continuous
 62
     6
100
AcDbLine
 10
182.4066643956881
 20
710.491284149755
 30
0.0
 11
200.606664395688
 21
710.4912841497551
 31
0.0
  0
LINE
  5
315
330
71
100
AcDbEntity
  8
1
  6
Continuous
 62
     6
100
AcDbLine
 10
175.2848022557732
 20
710.4912841497555
 30
0.0
 11
182.4066643956881
 21
710.491284149755
 31
0.0
  0
LINE
  5
316
330
71
100
AcDbEntity
  8
1
  6
Continuous
 62
     6
100
AcDbLine
 10
141.9066643956881
 20
710.491284149755
 30
0.0
 11
155.4066643956881
 21
710.491284149755
 31
0.0
  0
LINE
  5
317
330
71
100
AcDbEntity
  8
1
  6
Continuous
 62
     6
100
AcDbLine
 10
155.4066643956881
 20
710.491284149755
 30
0.0
 11
168.906664395688
 21
710.491284149755
 31
0.0
  0
LINE
  5
318
330
71
100
AcDbEntity
  8
1
  6
Continuous
 62
     6
100
AcDbLine
 10
168.906664395688
 20
710.491284149755
 30
0.0
 11
175.2848022557732
 21
710.4912841497555
 31
0.0
  0
LINE
  5
319
330
71
100
AcDbEntity
  8
1
  6
Continuous
 62
     6
100
AcDbLine
 10
106.9514689224398
 20
710.4912841497555
 30
0.0
 11
141.9066643956881
 21
710.491284149755
 31
0.0
  0
LINE
  5
31A
330
71
100
AcDbEntity
  8
1
  6
Continuous
 62
     6
100
AcDbLine
 10
79.65146892243789
 20
710.4912841497551
 30
0.0
 11
106.9514689224398
 21
710.4912841497555
 31
0.0
  0
LINE
  5
31B
330
71
100
AcDbEntity
  8
1
  6
Continuous
 62
     6
100
AcDbLine
 10
66.15146892243789
 20
710.491284149755
 30
0.0
 11
79.65146892243789
 21
710.4912841497551
 31
0.0
  0
LINE
  5
31C
330
71
100
AcDbEntity
  8
1
  6
Continuous
 62
     6
100
AcDbLine
 10
59.95146892243989
 20
710.4912841497551
 30
0.0
 11
66.15146892243789
 21
710.491284149755
 31
0.0
  0
LINE
  5
31D
102
{ACAD_REACTORS
330
43D
330
43E
102
}
330
71
100
AcDbEntity
  8
0
  6
Continuous
 62
     2
100
AcDbLine
 10
191.7757767445698
 20
720.2908831218235
 30
0.0
 11
191.7757767445698
 21
720.7913255090192
 31
0.0
  0
LINE
  5
31E
102
{ACAD_REACTORS
330
43D
330
43E
102
}
330
71
100
AcDbEntity
  8
0
  6
Continuous
 62
     2
100
AcDbLine
 10
191.7757767445698
 20
717.9767222898969
 30
0.0
 11
191.7757767445698
 21
718.4575912210498
 31
0.0
  0
LINE
  5
31F
102
{ACAD_REACTORS
330
43F
330
440
102
}
330
71
100
AcDbEntity
  8
0
  6
Continuous
 62
     2
100
AcDbLine
 10
210.4778316499245
 20
718.2161140817341
 30
0.0
 11
210.4778316499245
 21
716.3412841497609
 31
0.0
  0
LINE
  5
320
102
{ACAD_REACTORS
330
43F
330
440
102
}
330
71
100
AcDbEntity
  8
0
  6
Continuous
 62
     2
100
AcDbLine
 10
209.3364648904306
 20
718.8650936735713
 30
0.0
 11
212.1339405256609
 21
718.8650936735718
 31
0.0
  0
LINE
  5
321
102
{ACAD_REACTORS
330
43F
330
440
102
}
330
71
100
AcDbEntity
  8
0
  6
Continuous
 62
     2
100
AcDbLine
 10
212.1339405256609
 20
718.2161140817341
 30
0.0
 11
212.1339405256609
 21
718.8650936735718
 31
0.0
  0
LINE
  5
322
102
{ACAD_REACTORS
330
43F
330
440
102
}
330
71
100
AcDbEntity
  8
0
  6
Continuous
 62
     2
100
AcDbLine
 10
211.463610742625
 20
718.2161140817341
 30
0.0
 11
212.1339405256609
 21
718.2161140817341
 31
0.0
  0
LINE
  5
323
102
{ACAD_REACTORS
330
43F
330
440
102
}
330
71
100
AcDbEntity
  8
0
  6
Continuous
 62
     2
100
AcDbLine
 10
211.463610742625
 20
716.3412841497609
 30
0.0
 11
211.463610742625
 21
718.2161140817341
 31
0.0
  0
LINE
  5
324
102
{ACAD_REACTORS
330
43F
330
440
102
}
330
71
100
AcDbEntity
  8
0
  6
Continuous
 62
     2
100
AcDbLine
 10
210.4778316499245
 20
716.3412841497609
 30
0.0
 11
211.463610742625
 21
716.3412841497609
 31
0.0
  0
LINE
  5
325
102
{ACAD_REACTORS
330
435
330
436
102
}
330
71
100
AcDbEntity
  8
0
  6
Continuous
 62
     2
100
AcDbLine
 10
209.9021366597885
 20
721.6412841497489
 30
0.0
 11
208.7428604467726
 21
721.6412841497489
 31
0.0
  0
LINE
  5
326
102
{ACAD_REACTORS
330
435
330
436
102
}
330
71
100
AcDbEntity
  8
0
  6
Continuous
 62
     2
100
AcDbLine
 10
209.9021366597885
 20
721.6412841497489
 30
0.0
 11
210.398969322509
 21
721.0794466939179
 31
0.0
  0
LINE
  5
327
102
{ACAD_REACTORS
330
435
330
436
102
}
330
71
100
AcDbEntity
  8
0
  6
Continuous
 62
     2
100
AcDbLine
 10
210.398969322509
 20
721.0794466939179
 30
0.0
 11
210.8958019852304
 21
721.6412841497489
 31
0.0
  0
LINE
  5
328
102
{ACAD_REACTORS
330
435
330
436
102
}
330
71
100
AcDbEntity
  8
0
  6
Continuous
 62
     2
100
AcDbLine
 10
210.978607429016
 20
720.4239696621157
 30
0.0
 11
212.0550781982446
 21
721.6412841497489
 31
0.0
  0
LINE
  5
329
102
{ACAD_REACTORS
330
435
330
436
102
}
330
71
100
AcDbEntity
  8
0
  6
Continuous
 62
     2
100
AcDbLine
 10
210.978607429016
 20
720.4239696621157
 30
0.0
 11
212.1339405256609
 21
719.117474625938
 31
0.0
  0
LINE
  5
32A
102
{ACAD_REACTORS
330
435
330
436
102
}
330
71
100
AcDbEntity
  8
0
  6
Continuous
 62
     2
100
AcDbLine
 10
210.9746643126458
 20
719.117474625938
 30
0.0
 11
212.1339405256609
 21
719.117474625938
 31
0.0
  0
LINE
  5
32B
102
{ACAD_REACTORS
330
435
330
436
102
}
330
71
100
AcDbEntity
  8
0
  6
Continuous
 62
     2
100
AcDbLine
 10
210.398969322509
 20
719.7684926303131
 30
0.0
 11
210.9746643126458
 21
719.117474625938
 31
0.0
  0
LINE
  5
32C
102
{ACAD_REACTORS
330
433
330
434
102
}
330
71
100
AcDbEntity
  8
0
  6
Continuous
 62
     2
100
AcDbLine
 10
207.5402099536795
 20
721.6412841497489
 30
0.0
 11
208.5654202100869
 21
721.6412841497489
 31
0.0
  0
LINE
  5
32D
102
{ACAD_REACTORS
330
433
330
434
102
}
330
71
100
AcDbEntity
  8
0
  6
Continuous
 62
     2
100
AcDbLine
 10
208.5654202100869
 20
721.6412841497489
 30
0.0
 11
208.5654202100869
 21
719.117474625938
 31
0.0
  0
LINE
  5
32E
102
{ACAD_REACTORS
330
433
330
434
102
}
330
71
100
AcDbEntity
  8
0
  6
Continuous
 62
     2
100
AcDbLine
 10
207.5402099536795
 20
719.117474625938
 30
0.0
 11
207.5402099536795
 21
721.6412841497489
 31
0.0
  0
LINE
  5
32F
102
{ACAD_REACTORS
330
431
330
432
102
}
330
71
100
AcDbEntity
  8
0
  6
Continuous
 62
     2
100
AcDbLine
 10
206.3267305466237
 20
717.3508079592852
 30
0.0
 11
206.5748009905843
 21
717.9853657824148
 31
0.0
  0
LINE
  5
330
102
{ACAD_REACTORS
330
431
330
432
102
}
330
71
100
AcDbEntity
  8
0
  6
Continuous
 62
     2
100
AcDbLine
 10
205.9320730221436
 20
716.3412841497609
 30
0.0
 11
206.1068499258426
 21
716.788358979693
 31
0.0
  0
LINE
  5
331
102
{ACAD_REACTORS
330
431
330
432
102
}
330
71
100
AcDbEntity
  8
0
  6
Continuous
 62
     2
100
AcDbLine
 10
206.0621958623802
 20
718.8650936735718
 30
0.0
 11
204.9068627657362
 21
716.3412841497609
 31
0.0
  0
LINE
  5
332
102
{ACAD_REACTORS
330
431
330
432
102
}
330
71
100
AcDbEntity
  8
0
  6
Continuous
 62
     2
100
AcDbLine
 10
208.2427392154324
 20
716.3412841497609
 30
0.0
 11
207.2175289590242
 21
716.3412841497609
 31
0.0
  0
LINE
  5
333
102
{ACAD_REACTORS
330
431
330
432
102
}
330
71
100
AcDbEntity
  8
0
  6
Continuous
 62
     2
100
AcDbLine
 10
206.1068499258426
 20
716.788358979693
 30
0.0
 11
207.0427520553252
 21
716.788358979693
 31
0.0
  0
LINE
  5
334
102
{ACAD_REACTORS
330
42F
330
430
102
}
330
71
100
AcDbEntity
  8
0
  6
Continuous
 62
     2
100
AcDbLine
 10
203.1237948821145
 20
718.2161140817341
 30
0.0
 11
203.7941246651514
 21
718.2161140817341
 31
0.0
  0
LINE
  5
335
102
{ACAD_REACTORS
330
42F
330
430
102
}
330
71
100
AcDbEntity
  8
0
  6
Continuous
 62
     2
100
AcDbLine
 10
205.4502335408862
 20
718.8650936735718
 30
0.0
 11
203.1237948821145
 21
718.8650936735718
 31
0.0
  0
LINE
  5
336
102
{ACAD_REACTORS
330
42F
330
430
102
}
330
71
100
AcDbEntity
  8
0
  6
Continuous
 62
     2
100
AcDbLine
 10
205.4502335408862
 20
718.2161140817341
 30
0.0
 11
205.4502335408862
 21
718.8650936735718
 31
0.0
  0
LINE
  5
337
102
{ACAD_REACTORS
330
42F
330
430
102
}
330
71
100
AcDbEntity
  8
0
  6
Continuous
 62
     2
100
AcDbLine
 10
204.779903757851
 20
718.2161140817341
 30
0.0
 11
205.4502335408862
 21
718.2161140817341
 31
0.0
  0
LINE
  5
338
102
{ACAD_REACTORS
330
42F
330
430
102
}
330
71
100
AcDbEntity
  8
0
  6
Continuous
 62
     2
100
AcDbLine
 10
204.779903757851
 20
716.3412841497609
 30
0.0
 11
204.779903757851
 21
718.2161140817341
 31
0.0
  0
LINE
  5
339
102
{ACAD_REACTORS
330
42D
330
42E
102
}
330
71
100
AcDbEntity
  8
0
  6
Continuous
 62
     2
100
AcDbLine
 10
205.3320647860312
 20
719.117474625938
 30
0.0
 11
205.3320647860312
 21
720.1991072789997
 31
0.0
  0
LINE
  5
33A
102
{ACAD_REACTORS
330
42D
330
42E
102
}
330
71
100
AcDbEntity
  8
0
  6
Continuous
 62
     2
100
AcDbLine
 10
204.3462856933316
 20
721.6412841497489
 30
0.0
 11
204.3462856933316
 21
719.117474625938
 31
0.0
  0
LINE
  5
33B
102
{ACAD_REACTORS
330
42D
330
42E
102
}
330
71
100
AcDbEntity
  8
0
  6
Continuous
 62
     2
100
AcDbLine
 10
205.3320647860312
 20
721.6412841497489
 30
0.0
 11
204.3462856933316
 21
721.6412841497489
 31
0.0
  0
LINE
  5
33C
102
{ACAD_REACTORS
330
42D
330
42E
102
}
330
71
100
AcDbEntity
  8
0
  6
Continuous
 62
     2
100
AcDbLine
 10
206.3572750424395
 20
721.6412841497489
 30
0.0
 11
206.3572750424395
 21
720.5596514966868
 31
0.0
  0
LINE
  5
33D
102
{ACAD_REACTORS
330
42B
330
42C
102
}
330
71
100
AcDbEntity
  8
0
  6
Continuous
 62
     2
100
AcDbLine
 10
200.0087329491831
 20
718.8650936735718
 30
0.0
 11
200.0087329491831
 21
716.3412841497609
 31
0.0
  0
LINE
  5
33E
102
{ACAD_REACTORS
330
42B
330
42C
102
}
330
71
100
AcDbEntity
  8
0
  6
Continuous
 62
     2
100
AcDbLine
 10
200.9945120418836
 20
718.8650936735718
 30
0.0
 11
200.0087329491831
 21
718.8650936735718
 31
0.0
  0
LINE
  5
33F
102
{ACAD_REACTORS
330
42B
330
42C
102
}
330
71
100
AcDbEntity
  8
0
  6
Continuous
 62
     2
100
AcDbLine
 10
202.0197222982909
 20
716.3412841497609
 30
0.0
 11
203.0055013909905
 21
716.3412841497609
 31
0.0
  0
LINE
  5
340
102
{ACAD_REACTORS
330
42B
330
42C
102
}
330
71
100
AcDbEntity
  8
0
  6
Continuous
 62
     2
100
AcDbLine
 10
200.0087329491831
 20
716.3412841497609
 30
0.0
 11
200.9945120418836
 21
716.3412841497609
 31
0.0
  0
LINE
  5
341
102
{ACAD_REACTORS
330
43B
330
43C
102
}
330
71
100
AcDbEntity
  8
0
  6
Continuous
 62
     2
100
AcDbLine
 10
203.0450572909675
 20
720.667814761993
 30
0.0
 11
203.0450572909675
 21
721.064413401449
 31
0.0
  0
LINE
  5
342
102
{ACAD_REACTORS
330
43B
330
43C
102
}
330
71
100
AcDbEntity
  8
0
  6
Continuous
 62
     2
100
AcDbLine
 10
204.149129874792
 20
720.667814761993
 30
0.0
 11
203.0450572909675
 21
720.667814761993
 31
0.0
  0
LINE
  5
343
102
{ACAD_REACTORS
330
43B
330
43C
102
}
330
71
100
AcDbEntity
  8
0
  6
Continuous
 62
     2
100
AcDbLine
 10
204.149129874792
 20
720.0909440136935
 30
0.0
 11
204.149129874792
 21
720.667814761993
 31
0.0
  0
LINE
  5
344
102
{ACAD_REACTORS
330
43B
330
43C
102
}
330
71
100
AcDbEntity
  8
0
  6
Continuous
 62
     2
100
AcDbLine
 10
203.0450572909675
 20
720.0909440136935
 30
0.0
 11
204.149129874792
 21
720.0909440136935
 31
0.0
  0
LINE
  5
345
102
{ACAD_REACTORS
330
429
330
42A
102
}
330
71
100
AcDbEntity
  8
0
  6
Continuous
 62
     2
100
AcDbLine
 10
200.1665823402841
 20
721.6412841497489
 30
0.0
 11
200.1665823402841
 21
719.117474625938
 31
0.0
  0
LINE
  5
346
102
{ACAD_REACTORS
330
429
330
42A
102
}
330
71
100
AcDbEntity
  8
0
  6
Continuous
 62
     2
100
AcDbLine
 10
200.1665823402841
 20
719.117474625938
 30
0.0
 11
199.1808032475845
 21
719.117474625938
 31
0.0
  0
LINE
  5
347
102
{ACAD_REACTORS
330
429
330
42A
102
}
330
71
100
AcDbEntity
  8
0
  6
Continuous
 62
     2
100
AcDbLine
 10
199.1808032475845
 20
719.117474625938
 30
0.0
 11
199.1808032475845
 21
720.0548895919246
 31
0.0
  0
LINE
  5
348
102
{ACAD_REACTORS
330
429
330
42A
102
}
330
71
100
AcDbEntity
  8
0
  6
Continuous
 62
     2
100
AcDbLine
 10
198.3133176460081
 20
719.117474625938
 30
0.0
 11
197.3275385533085
 21
719.117474625938
 31
0.0
  0
LINE
  5
349
102
{ACAD_REACTORS
330
429
330
42A
102
}
330
71
100
AcDbEntity
  8
0
  6
Continuous
 62
     2
100
AcDbLine
 10
197.3275385533085
 20
721.6412841497489
 30
0.0
 11
198.3133176460081
 21
721.6412841497489
 31
0.0
  0
LINE
  5
34A
102
{ACAD_REACTORS
330
429
330
42A
102
}
330
71
100
AcDbEntity
  8
0
  6
Continuous
 62
     2
100
AcDbLine
 10
198.3133176460081
 20
721.6412841497489
 30
0.0
 11
198.3133176460081
 21
720.7579508164146
 31
0.0
  0
LINE
  5
34B
102
{ACAD_REACTORS
330
429
330
42A
102
}
330
71
100
AcDbEntity
  8
0
  6
Continuous
 62
     2
100
AcDbLine
 10
198.3133176460081
 20
720.7579508164146
 30
0.0
 11
199.1808032475845
 21
720.7579508164146
 31
0.0
  0
LINE
  5
34C
102
{ACAD_REACTORS
330
437
330
438
102
}
330
71
100
AcDbEntity
  8
0
  6
Continuous
 62
     2
100
AcDbLine
 10
195.7108608412807
 20
721.0932627898811
 30
0.0
 11
195.973088164869
 21
721.0932627898811
 31
0.0
  0
LINE
  5
34D
102
{ACAD_REACTORS
330
437
330
438
102
}
330
71
100
AcDbEntity
  8
0
  6
Continuous
 62
     2
100
AcDbLine
 10
195.7108608412807
 20
720.5100167986891
 30
0.0
 11
195.973088164869
 21
720.5100167986891
 31
0.0
  0
LINE
  5
34E
102
{ACAD_REACTORS
330
437
330
438
102
}
330
71
100
AcDbEntity
  8
0
  6
Continuous
 62
     2
100
AcDbLine
 10
194.6856505848724
 20
721.6412841497489
 30
0.0
 11
194.6856505848724
 21
719.117474625938
 31
0.0
  0
LINE
  5
34F
102
{ACAD_REACTORS
330
437
330
438
102
}
330
71
100
AcDbEntity
  8
0
  6
Continuous
 62
     2
100
AcDbLine
 10
194.6856505848724
 20
721.6412841497489
 30
0.0
 11
196.3379414923388
 21
721.6412841497489
 31
0.0
  0
LINE
  5
350
102
{ACAD_REACTORS
330
437
330
438
102
}
330
71
100
AcDbEntity
  8
0
  6
Continuous
 62
     2
100
AcDbLine
 10
195.7108608412807
 20
719.8968781310156
 30
0.0
 11
196.3379414923388
 21
719.8968781310156
 31
0.0
  0
LINE
  5
351
102
{ACAD_REACTORS
330
43D
330
43E
102
}
330
71
100
AcDbEntity
  8
0
  6
Continuous
 62
     2
100
AcDbLine
 10
189.6472241110734
 20
720.7914721839351
 30
0.0
 11
189.6472241110734
 21
717.1910961155738
 31
0.0
  0
LINE
  5
352
102
{ACAD_REACTORS
330
43D
330
43E
102
}
330
71
100
AcDbEntity
  8
0
  6
Continuous
 62
     2
100
AcDbLine
 10
189.9081471879955
 20
721.0523952608576
 30
0.0
 11
191.1278440979207
 21
721.0523952608576
 31
0.0
  0
LINE
  5
353
102
{ACAD_REACTORS
330
43D
330
43E
102
}
330
71
100
AcDbEntity
  8
0
  6
Continuous
 62
     2
100
AcDbLine
 10
191.3887671748435
 20
720.292278283885
 30
0.0
 11
191.3887671748435
 21
720.7914721839351
 31
0.0
  0
LINE
  5
354
102
{ACAD_REACTORS
330
43D
330
43E
102
}
330
71
100
AcDbEntity
  8
0
  6
Continuous
 62
     2
100
AcDbLine
 10
191.3887671748435
 20
717.1910961155738
 30
0.0
 11
191.3887671748435
 21
718.4561960589884
 31
0.0
  0
LINE
  5
355
102
{ACAD_REACTORS
330
43D
330
43E
102
}
330
71
100
AcDbEntity
  8
0
  6
Continuous
 62
     2
100
AcDbLine
 10
193.9407235631776
 20
716.3412841497609
 30
0.0
 11
189.4173251410975
 21
716.3412841497609
 31
0.0
  0
LINE
  5
356
102
{ACAD_REACTORS
330
43D
330
43E
102
}
330
71
100
AcDbEntity
  8
0
  6
Continuous
 62
     2
100
AcDbLine
 10
194.2913389477924
 20
721.2906687651192
 30
0.0
 11
194.2913389477924
 21
716.6918995343752
 31
0.0
  0
LINE
  5
357
102
{ACAD_REACTORS
330
43D
330
43E
102
}
330
71
100
AcDbEntity
  8
0
  6
Continuous
 62
     2
100
AcDbLine
 10
189.4173251410975
 20
721.6412841497339
 30
0.0
 11
193.9407235631776
 21
721.6412841497339
 31
0.0
  0
LINE
  5
358
102
{ACAD_REACTORS
330
43D
330
43E
102
}
330
71
100
AcDbEntity
  8
0
  6
Continuous
 62
     2
100
AcDbLine
 10
189.0667097564836
 20
721.2906687651192
 30
0.0
 11
189.0667097564836
 21
716.6918995343752
 31
0.0
  0
LINE
  5
359
102
{ACAD_REACTORS
330
43D
330
43E
102
}
330
71
100
AcDbEntity
  8
0
  6
Continuous
 62
     2
100
AcDbLine
 10
191.1278440979207
 20
716.930173038651
 30
0.0
 11
189.9081471879955
 21
716.930173038651
 31
0.0
  0
LINE
  5
35A
102
{ACAD_REACTORS
330
437
330
438
102
}
330
71
100
AcDbEntity
  8
0
  6
Continuous
 62
     2
100
AcDbLine
 10
195.7108608412807
 20
719.117474625938
 30
0.0
 11
195.7108608412807
 21
719.8968781310156
 31
0.0
  0
LINE
  5
35B
102
{ACAD_REACTORS
330
437
330
438
102
}
330
71
100
AcDbEntity
  8
0
  6
Continuous
 62
     2
100
AcDbLine
 10
194.6856505848724
 20
719.117474625938
 30
0.0
 11
195.7108608412807
 21
719.117474625938
 31
0.0
  0
LINE
  5
35C
102
{ACAD_REACTORS
330
437
330
438
102
}
330
71
100
AcDbEntity
  8
0
  6
Continuous
 62
     2
100
AcDbLine
 10
195.7108608412807
 20
720.5100167986891
 30
0.0
 11
195.7108608412807
 21
721.0932627898811
 31
0.0
  0
LINE
  5
35D
102
{ACAD_REACTORS
330
429
330
42A
102
}
330
71
100
AcDbEntity
  8
0
  6
Continuous
 62
     2
100
AcDbLine
 10
197.3275385533085
 20
721.6412841497489
 30
0.0
 11
197.3275385533085
 21
719.117474625938
 31
0.0
  0
LINE
  5
35E
102
{ACAD_REACTORS
330
429
330
42A
102
}
330
71
100
AcDbEntity
  8
0
  6
Continuous
 62
     2
100
AcDbLine
 10
198.3133176460081
 20
720.0548895919246
 30
0.0
 11
198.3133176460081
 21
719.117474625938
 31
0.0
  0
LINE
  5
35F
102
{ACAD_REACTORS
330
429
330
42A
102
}
330
71
100
AcDbEntity
  8
0
  6
Continuous
 62
     2
100
AcDbLine
 10
199.1808032475845
 20
720.0548895919246
 30
0.0
 11
198.3133176460081
 21
720.0548895919246
 31
0.0
  0
LINE
  5
360
102
{ACAD_REACTORS
330
429
330
42A
102
}
330
71
100
AcDbEntity
  8
0
  6
Continuous
 62
     2
100
AcDbLine
 10
199.1808032475845
 20
721.6412841497489
 30
0.0
 11
200.1665823402841
 21
721.6412841497489
 31
0.0
  0
LINE
  5
361
102
{ACAD_REACTORS
330
429
330
42A
102
}
330
71
100
AcDbEntity
  8
0
  6
Continuous
 62
     2
100
AcDbLine
 10
199.1808032475845
 20
720.7579508164146
 30
0.0
 11
199.1808032475845
 21
721.6412841497489
 31
0.0
  0
LINE
  5
362
102
{ACAD_REACTORS
330
43B
330
43C
102
}
330
71
100
AcDbEntity
  8
0
  6
Continuous
 62
     2
100
AcDbLine
 10
204.149129874792
 20
721.064413401449
 30
0.0
 11
204.149129874792
 21
721.6412841497489
 31
0.0
  0
LINE
  5
363
102
{ACAD_REACTORS
330
43B
330
43C
102
}
330
71
100
AcDbEntity
  8
0
  6
Continuous
 62
     2
100
AcDbLine
 10
201.5455598551383
 20
721.6412841497489
 30
0.0
 11
204.149129874792
 21
721.6412841497489
 31
0.0
  0
LINE
  5
364
102
{ACAD_REACTORS
330
43B
330
43C
102
}
330
71
100
AcDbEntity
  8
0
  6
Continuous
 62
     2
100
AcDbLine
 10
201.5455598551383
 20
719.117474625938
 30
0.0
 11
204.149129874792
 21
719.117474625938
 31
0.0
  0
LINE
  5
365
102
{ACAD_REACTORS
330
43B
330
43C
102
}
330
71
100
AcDbEntity
  8
0
  6
Continuous
 62
     2
100
AcDbLine
 10
204.149129874792
 20
719.117474625938
 30
0.0
 11
204.149129874792
 21
719.6943453742375
 31
0.0
  0
LINE
  5
366
102
{ACAD_REACTORS
330
43B
330
43C
102
}
330
71
100
AcDbEntity
  8
0
  6
Continuous
 62
     2
100
AcDbLine
 10
204.149129874792
 20
719.6943453742375
 30
0.0
 11
203.0450572909675
 21
719.6943453742375
 31
0.0
  0
LINE
  5
367
102
{ACAD_REACTORS
330
43B
330
43C
102
}
330
71
100
AcDbEntity
  8
0
  6
Continuous
 62
     2
100
AcDbLine
 10
203.0450572909675
 20
719.6943453742375
 30
0.0
 11
203.0450572909675
 21
720.0909440136935
 31
0.0
  0
LINE
  5
368
102
{ACAD_REACTORS
330
43B
330
43C
102
}
330
71
100
AcDbEntity
  8
0
  6
Continuous
 62
     2
100
AcDbLine
 10
203.0450572909675
 20
721.064413401449
 30
0.0
 11
204.149129874792
 21
721.064413401449
 31
0.0
  0
LINE
  5
369
102
{ACAD_REACTORS
330
42B
330
42C
102
}
330
71
100
AcDbEntity
  8
0
  6
Continuous
 62
     2
100
AcDbLine
 10
200.9945120418836
 20
716.3412841497609
 30
0.0
 11
200.9945120418836
 21
717.4229168028226
 31
0.0
  0
LINE
  5
36A
102
{ACAD_REACTORS
330
42B
330
42C
102
}
330
71
100
AcDbEntity
  8
0
  6
Continuous
 62
     2
100
AcDbLine
 10
200.9945120418836
 20
717.4229168028226
 30
0.0
 11
202.0197222982909
 21
716.3412841497609
 31
0.0
  0
LINE
  5
36B
102
{ACAD_REACTORS
330
42B
330
42C
102
}
330
71
100
AcDbEntity
  8
0
  6
Continuous
 62
     2
100
AcDbLine
 10
203.0055013909905
 20
716.3412841497609
 30
0.0
 11
203.0055013909905
 21
718.8650936735718
 31
0.0
  0
LINE
  5
36C
102
{ACAD_REACTORS
330
42B
330
42C
102
}
330
71
100
AcDbEntity
  8
0
  6
Continuous
 62
     2
100
AcDbLine
 10
203.0055013909905
 20
718.8650936735718
 30
0.0
 11
202.0197222982909
 21
718.8650936735718
 31
0.0
  0
LINE
  5
36D
102
{ACAD_REACTORS
330
42B
330
42C
102
}
330
71
100
AcDbEntity
  8
0
  6
Continuous
 62
     2
100
AcDbLine
 10
202.0197222982909
 20
718.8650936735718
 30
0.0
 11
202.0197222982909
 21
717.7834610205097
 31
0.0
  0
LINE
  5
36E
102
{ACAD_REACTORS
330
42B
330
42C
102
}
330
71
100
AcDbEntity
  8
0
  6
Continuous
 62
     2
100
AcDbLine
 10
202.0197222982909
 20
717.7834610205097
 30
0.0
 11
200.9945120418836
 21
718.8650936735718
 31
0.0
  0
LINE
  5
36F
102
{ACAD_REACTORS
330
42D
330
42E
102
}
330
71
100
AcDbEntity
  8
0
  6
Continuous
 62
     2
100
AcDbLine
 10
205.3320647860312
 20
720.1991072789997
 30
0.0
 11
206.3572750424395
 21
719.117474625938
 31
0.0
  0
LINE
  5
370
102
{ACAD_REACTORS
330
42D
330
42E
102
}
330
71
100
AcDbEntity
  8
0
  6
Continuous
 62
     2
100
AcDbLine
 10
206.3572750424395
 20
719.117474625938
 30
0.0
 11
207.3430541351391
 21
719.117474625938
 31
0.0
  0
LINE
  5
371
102
{ACAD_REACTORS
330
42D
330
42E
102
}
330
71
100
AcDbEntity
  8
0
  6
Continuous
 62
     2
100
AcDbLine
 10
207.3430541351391
 20
719.117474625938
 30
0.0
 11
207.3430541351391
 21
721.6412841497489
 31
0.0
  0
LINE
  5
372
102
{ACAD_REACTORS
330
42D
330
42E
102
}
330
71
100
AcDbEntity
  8
0
  6
Continuous
 62
     2
100
AcDbLine
 10
207.3430541351391
 20
721.6412841497489
 30
0.0
 11
206.3572750424395
 21
721.6412841497489
 31
0.0
  0
LINE
  5
373
102
{ACAD_REACTORS
330
42D
330
42E
102
}
330
71
100
AcDbEntity
  8
0
  6
Continuous
 62
     2
100
AcDbLine
 10
206.3572750424395
 20
720.5596514966868
 30
0.0
 11
205.3320647860312
 21
721.6412841497489
 31
0.0
  0
LINE
  5
374
102
{ACAD_REACTORS
330
42D
330
42E
102
}
330
71
100
AcDbEntity
  8
0
  6
Continuous
 62
     2
100
AcDbLine
 10
204.3462856933316
 20
719.117474625938
 30
0.0
 11
205.3320647860312
 21
719.117474625938
 31
0.0
  0
LINE
  5
375
102
{ACAD_REACTORS
330
42F
330
430
102
}
330
71
100
AcDbEntity
  8
0
  6
Continuous
 62
     2
100
AcDbLine
 10
203.1237948821145
 20
718.8650936735718
 30
0.0
 11
203.1237948821145
 21
718.2161140817341
 31
0.0
  0
LINE
  5
376
102
{ACAD_REACTORS
330
42F
330
430
102
}
330
71
100
AcDbEntity
  8
0
  6
Continuous
 62
     2
100
AcDbLine
 10
203.7941246651514
 20
718.2161140817341
 30
0.0
 11
203.7941246651514
 21
716.3412841497609
 31
0.0
  0
LINE
  5
377
102
{ACAD_REACTORS
330
42F
330
430
102
}
330
71
100
AcDbEntity
  8
0
  6
Continuous
 62
     2
100
AcDbLine
 10
203.7941246651514
 20
716.3412841497609
 30
0.0
 11
204.779903757851
 21
716.3412841497609
 31
0.0
  0
LINE
  5
378
102
{ACAD_REACTORS
330
431
330
432
102
}
330
71
100
AcDbEntity
  8
0
  6
Continuous
 62
     2
100
AcDbLine
 10
207.2175289590242
 20
716.3412841497609
 30
0.0
 11
207.0427520553252
 21
716.788358979693
 31
0.0
  0
LINE
  5
379
102
{ACAD_REACTORS
330
431
330
432
102
}
330
71
100
AcDbEntity
  8
0
  6
Continuous
 62
     2
100
AcDbLine
 10
207.0874061187875
 20
718.8650936735718
 30
0.0
 11
208.2427392154324
 21
716.3412841497609
 31
0.0
  0
LINE
  5
37A
102
{ACAD_REACTORS
330
431
330
432
102
}
330
71
100
AcDbEntity
  8
0
  6
Continuous
 62
     2
100
AcDbLine
 10
206.0621958623802
 20
718.8650936735718
 30
0.0
 11
207.0874061187875
 21
718.8650936735718
 31
0.0
  0
LINE
  5
37B
102
{ACAD_REACTORS
330
431
330
432
102
}
330
71
100
AcDbEntity
  8
0
  6
Continuous
 62
     2
100
AcDbLine
 10
204.9068627657362
 20
716.3412841497609
 30
0.0
 11
205.9320730221436
 21
716.3412841497609
 31
0.0
  0
LINE
  5
37C
102
{ACAD_REACTORS
330
431
330
432
102
}
330
71
100
AcDbEntity
  8
0
  6
Continuous
 62
     2
100
AcDbLine
 10
206.3267305466237
 20
717.3508079592852
 30
0.0
 11
206.8228714345431
 21
717.3508079592852
 31
0.0
  0
LINE
  5
37D
102
{ACAD_REACTORS
330
431
330
432
102
}
330
71
100
AcDbEntity
  8
0
  6
Continuous
 62
     2
100
AcDbLine
 10
206.8228714345431
 20
717.3508079592852
 30
0.0
 11
206.5748009905843
 21
717.9853657824148
 31
0.0
  0
LINE
  5
37E
102
{ACAD_REACTORS
330
433
330
434
102
}
330
71
100
AcDbEntity
  8
0
  6
Continuous
 62
     2
100
AcDbLine
 10
208.5654202100869
 20
719.117474625938
 30
0.0
 11
207.5402099536795
 21
719.117474625938
 31
0.0
  0
LINE
  5
37F
102
{ACAD_REACTORS
330
435
330
436
102
}
330
71
100
AcDbEntity
  8
0
  6
Continuous
 62
     2
100
AcDbLine
 10
209.8232743323721
 20
719.117474625938
 30
0.0
 11
208.6639981193571
 21
719.117474625938
 31
0.0
  0
LINE
  5
380
102
{ACAD_REACTORS
330
435
330
436
102
}
330
71
100
AcDbEntity
  8
0
  6
Continuous
 62
     2
100
AcDbLine
 10
209.8232743323721
 20
719.117474625938
 30
0.0
 11
210.398969322509
 21
719.7684926303131
 31
0.0
  0
LINE
  5
381
102
{ACAD_REACTORS
330
435
330
436
102
}
330
71
100
AcDbEntity
  8
0
  6
Continuous
 62
     2
100
AcDbLine
 10
210.8958019852304
 20
721.6412841497489
 30
0.0
 11
212.0550781982446
 21
721.6412841497489
 31
0.0
  0
LINE
  5
382
102
{ACAD_REACTORS
330
435
330
436
102
}
330
71
100
AcDbEntity
  8
0
  6
Continuous
 62
     2
100
AcDbLine
 10
208.7428604467726
 20
721.6412841497489
 30
0.0
 11
209.8193312160019
 21
720.4239696621157
 31
0.0
  0
LINE
  5
383
102
{ACAD_REACTORS
330
435
330
436
102
}
330
71
100
AcDbEntity
  8
0
  6
Continuous
 62
     2
100
AcDbLine
 10
208.6639981193571
 20
719.117474625938
 30
0.0
 11
209.8193312160019
 21
720.4239696621157
 31
0.0
  0
LINE
  5
384
102
{ACAD_REACTORS
330
43F
330
440
102
}
330
71
100
AcDbEntity
  8
0
  6
Continuous
 62
     2
100
AcDbLine
 10
210.2018135039685
 20
717.2065902722102
 30
0.0
 11
210.2018135039685
 21
716.4855018368355
 31
0.0
  0
LINE
  5
385
102
{ACAD_REACTORS
330
43F
330
440
102
}
330
71
100
AcDbEntity
  8
0
  6
Continuous
 62
     2
100
AcDbLine
 10
209.5657330552401
 20
718.2161140817341
 30
0.0
 11
210.4778316499245
 21
718.2161140817341
 31
0.0
  0
LINE
  5
386
102
{ACAD_REACTORS
330
441
330
442
102
}
330
71
100
AcDbEntity
  8
0
  6
Continuous
 62
     2
100
AcDbLine
 10
196.8937957525207
 20
717.2065902722106
 30
0.0
 11
196.8937957525207
 21
716.485501836836
 31
0.0
  0
LINE
  5
387
102
{ACAD_REACTORS
330
441
330
442
102
}
330
71
100
AcDbEntity
  8
0
  6
Continuous
 62
     2
100
AcDbLine
 10
196.8937957525207
 20
717.999787551122
 30
0.0
 11
196.8937957525207
 21
718.7208759864966
 31
0.0
  0
ARC
  5
388
102
{ACAD_REACTORS
330
441
330
442
102
}
330
71
100
AcDbEntity
  8
0
  6
Continuous
 62
     2
100
AcDbCircle
 10
195.7897230937457
 20
714.8654360643473
 30
0.0
 40
4.010410630989981
100
AcDbArc
 50
74.0200087416472
 51
84.84185523037543
  0
ARC
  5
389
102
{ACAD_REACTORS
330
441
330
442
102
}
330
71
100
AcDbEntity
  8
0
  6
Continuous
 62
     2
100
AcDbCircle
 10
196.2657897125504
 20
717.473502474169
 30
0.0
 40
0.7487023016407734
100
AcDbArc
 50
71.55192388186123
 51
113.3722778881292
  0
ARC
  5
38A
102
{ACAD_REACTORS
330
441
330
442
102
}
330
71
100
AcDbEntity
  8
0
  6
Continuous
 62
     2
100
AcDbCircle
 10
196.1365004293255
 20
717.4337083915516
 30
0.0
 40
0.4227934381774399
100
AcDbArc
 50
208.5214732576858
 51
246.6277221118326
  0
ARC
  5
38B
102
{ACAD_REACTORS
330
441
330
442
102
}
330
71
100
AcDbEntity
  8
0
  6
Continuous
 62
     2
100
AcDbCircle
 10
196.2657897125504
 20
717.7328753491632
 30
0.0
 40
0.7487023016404492
100
AcDbArc
 50
246.6277221118707
 51
288.4480761181498
  0
ARC
  5
38C
102
{ACAD_REACTORS
330
441
330
442
102
}
330
71
100
AcDbEntity
  8
0
  6
Continuous
 62
     2
100
AcDbCircle
 10
195.9201965442356
 20
718.7688635938221
 30
0.0
 40
1.840813230556049
100
AcDbArc
 50
288.4480761181319
 51
301.930908949962
  0
ARC
  5
38D
102
{ACAD_REACTORS
330
43D
330
43E
102
}
330
71
100
AcDbEntity
  8
0
  6
Continuous
 62
     2
100
AcDbCircle
 10
191.6019537900151
 20
719.3742371714369
 30
0.0
 40
0.7535935125160714
100
AcDbArc
 50
295.3740086781789
 51
64.6259913218062
  0
ARC
  5
38E
102
{ACAD_REACTORS
330
43D
330
43E
102
}
330
71
100
AcDbEntity
  8
0
  6
Continuous
 62
     2
100
AcDbCircle
 10
192.0366998214928
 20
720.7913255090192
 30
0.0
 40
0.2609230769224678
100
AcDbArc
 50
90.18896704255349
 51
180.0
  0
ARC
  5
38F
102
{ACAD_REACTORS
330
43F
330
440
102
}
330
71
100
AcDbEntity
  8
0
  6
Continuous
 62
     2
100
AcDbCircle
 10
209.5657330552401
 20
717.4272520926215
 30
0.0
 40
0.7888619891125472
100
AcDbArc
 50
90.0
 51
109.3371432194291
  0
ARC
  5
390
102
{ACAD_REACTORS
330
43F
330
440
102
}
330
71
100
AcDbEntity
  8
0
  6
Continuous
 62
     2
100
AcDbCircle
 10
209.7563836833209
 20
717.6031889116662
 30
0.0
 40
0.7777353184586058
100
AcDbArc
 50
151.4785267423652
 51
208.5214732576716
  0
ARC
  5
391
102
{ACAD_REACTORS
330
43F
330
440
102
}
330
71
100
AcDbEntity
  8
0
  6
Continuous
 62
     2
100
AcDbCircle
 10
209.5738074639999
 20
717.7328753491632
 30
0.0
 40
0.7487023016407311
100
AcDbArc
 50
246.6277221118208
 51
288.4480761180789
  0
ARC
  5
392
102
{ACAD_REACTORS
330
43F
330
440
102
}
330
71
100
AcDbEntity
  8
0
  6
Continuous
 62
     2
100
AcDbCircle
 10
209.2282142956843
 20
718.7688635938216
 30
0.0
 40
1.840813230556049
100
AcDbArc
 50
288.4480761181319
 51
301.9309089499387
  0
ARC
  5
393
102
{ACAD_REACTORS
330
43F
330
440
102
}
330
71
100
AcDbEntity
  8
0
  6
Continuous
 62
     2
100
AcDbCircle
 10
209.0977408451944
 20
720.3409417589854
 30
0.0
 40
4.010410630990729
100
AcDbArc
 50
275.1581447696365
 51
285.979991258338
  0
ARC
  5
394
102
{ACAD_REACTORS
330
43F
330
440
102
}
330
71
100
AcDbEntity
  8
0
  6
Continuous
 62
     2
100
AcDbCircle
 10
209.3364648904306
 20
717.6964040869015
 30
0.0
 40
1.355119937140852
100
AcDbArc
 50
195.061891777101
 51
275.1581447696782
  0
ARC
  5
395
102
{ACAD_REACTORS
330
437
330
438
102
}
330
71
100
AcDbEntity
  8
0
  6
Continuous
 62
     2
100
AcDbCircle
 10
196.3379414923388
 20
720.7690811403822
 30
0.0
 40
0.8722030093666717
100
AcDbArc
 50
270.0
 51
90.0
  0
ARC
  5
396
102
{ACAD_REACTORS
330
43D
330
43E
102
}
330
71
100
AcDbEntity
  8
0
  6
Continuous
 62
     2
100
AcDbCircle
 10
189.9081471879955
 20
717.1910961155738
 30
0.0
 40
0.2609230769220972
100
AcDbArc
 50
180.0
 51
270.0
  0
ARC
  5
397
102
{ACAD_REACTORS
330
43D
330
43E
102
}
330
71
100
AcDbEntity
  8
0
  6
Continuous
 62
     2
100
AcDbCircle
 10
191.1278440979207
 20
720.7914721839351
 30
0.0
 40
0.2609230769228077
100
AcDbArc
 50
0.0
 51
90.0
  0
ARC
  5
398
102
{ACAD_REACTORS
330
43D
330
43E
102
}
330
71
100
AcDbEntity
  8
0
  6
Continuous
 62
     2
100
AcDbCircle
 10
191.1278440979207
 20
720.292278283885
 30
0.0
 40
0.2609230769223558
100
AcDbArc
 50
295.1944106485584
 51
0.0
  0
ARC
  5
399
102
{ACAD_REACTORS
330
43D
330
43E
102
}
330
71
100
AcDbEntity
  8
0
  6
Continuous
 62
     2
100
AcDbCircle
 10
191.1278440979207
 20
717.1910961155738
 30
0.0
 40
0.2609230769228361
100
AcDbArc
 50
270.0
 51
0.0
  0
ARC
  5
39A
102
{ACAD_REACTORS
330
43D
330
43E
102
}
330
71
100
AcDbEntity
  8
0
  6
Continuous
 62
     2
100
AcDbCircle
 10
189.4173251410975
 20
721.2906687651192
 30
0.0
 40
0.3506153846146844
100
AcDbArc
 50
90.0
 51
180.0
  0
ARC
  5
39B
102
{ACAD_REACTORS
330
43D
330
43E
102
}
330
71
100
AcDbEntity
  8
0
  6
Continuous
 62
     2
100
AcDbCircle
 10
193.9407235631776
 20
721.2906687651192
 30
0.0
 40
0.3506153846147981
100
AcDbArc
 50
0.0
 51
90.0
  0
ARC
  5
39C
102
{ACAD_REACTORS
330
43D
330
43E
102
}
330
71
100
AcDbEntity
  8
0
  6
Continuous
 62
     2
100
AcDbCircle
 10
193.9407235631776
 20
716.6918995343752
 30
0.0
 40
0.3506153846143434
100
AcDbArc
 50
270.0
 51
0.0
  0
ARC
  5
39D
102
{ACAD_REACTORS
330
43B
330
43C
102
}
330
71
100
AcDbEntity
  8
0
  6
Continuous
 62
     2
100
AcDbCircle
 10
201.5592226434185
 20
720.3793793878433
 30
0.0
 40
0.6378510567600058
100
AcDbArc
 50
321.8795802028323
 51
38.12041979715963
  0
ARC
  5
39E
102
{ACAD_REACTORS
330
43B
330
43C
102
}
330
71
100
AcDbEntity
  8
0
  6
Continuous
 62
     2
100
AcDbCircle
 10
201.7242970536219
 20
720.2498494885701
 30
0.0
 40
0.4280236140606632
100
AcDbArc
 50
218.1204197971535
 51
321.8795802028536
  0
ARC
  5
39F
102
{ACAD_REACTORS
330
439
330
43A
102
}
330
71
100
AcDbEntity
  8
0
  6
Continuous
 62
     2
100
AcDbCircle
 10
198.6829684677044
 20
717.6031889116662
 30
0.0
 40
1.204986845993431
100
AcDbArc
 50
297.5481481756999
 51
62.45185182429761
  0
ARC
  5
3A0
102
{ACAD_REACTORS
330
439
330
43A
102
}
330
71
100
AcDbEntity
  8
0
  6
Continuous
 62
     2
100
AcDbCircle
 10
198.2186050101287
 20
717.6031889116662
 30
0.0
 40
1.20498684599291
100
AcDbArc
 50
117.548148175664
 51
242.4518518243384
  0
ARC
  5
3A1
102
{ACAD_REACTORS
330
439
330
43A
102
}
330
71
100
AcDbEntity
  8
0
  6
Continuous
 62
     2
100
AcDbCircle
 10
198.4507867389166
 20
717.1580855973663
 30
0.0
 40
1.707008076205403
100
AcDbArc
 50
62.45185182430821
 51
117.5481481756681
  0
ARC
  5
3A2
102
{ACAD_REACTORS
330
439
330
43A
102
}
330
71
100
AcDbEntity
  8
0
  6
Continuous
 62
     2
100
AcDbCircle
 10
198.4507867389166
 20
718.0482922259664
 30
0.0
 40
1.707008076205438
100
AcDbArc
 50
242.451851824339
 51
297.5481481756847
  0
ARC
  5
3A3
102
{ACAD_REACTORS
330
43B
330
43C
102
}
330
71
100
AcDbEntity
  8
0
  6
Continuous
 62
     2
100
AcDbCircle
 10
201.8893714638254
 20
720.3793793878433
 30
0.0
 40
0.6378510567599356
100
AcDbArc
 50
141.8795802028404
 51
218.1204197971676
  0
ARC
  5
3A4
102
{ACAD_REACTORS
330
43B
330
43C
102
}
330
71
100
AcDbEntity
  8
0
  6
Continuous
 62
     2
100
AcDbCircle
 10
201.7242970536219
 20
720.5089092871164
 30
0.0
 40
0.4280236140607304
100
AcDbArc
 50
38.12041979714642
 51
141.8795802028465
  0
ARC
  5
3A5
102
{ACAD_REACTORS
330
43D
330
43E
102
}
330
71
100
AcDbEntity
  8
0
  6
Continuous
 62
     2
100
AcDbCircle
 10
189.4173251410975
 20
716.6918995343752
 30
0.0
 40
0.3506153846139171
100
AcDbArc
 50
180.0
 51
270.0
  0
ARC
  5
3A6
102
{ACAD_REACTORS
330
43D
330
43E
102
}
330
71
100
AcDbEntity
  8
0
  6
Continuous
 62
     2
100
AcDbCircle
 10
191.1278440979207
 20
718.4561960589884
 30
0.0
 40
0.2609230769228077
100
AcDbArc
 50
0.0
 51
64.80558935144161
  0
ARC
  5
3A7
102
{ACAD_REACTORS
330
43D
330
43E
102
}
330
71
100
AcDbEntity
  8
0
  6
Continuous
 62
     2
100
AcDbCircle
 10
191.5597320711232
 20
719.3742371714369
 30
0.0
 40
0.753634316989858
100
AcDbArc
 50
115.1944106485226
 51
244.8055893514885
  0
ARC
  5
3A8
102
{ACAD_REACTORS
330
43D
330
43E
102
}
330
71
100
AcDbEntity
  8
0
  6
Continuous
 62
     2
100
AcDbCircle
 10
189.9081471879955
 20
720.7914721839351
 30
0.0
 40
0.2609230769224951
100
AcDbArc
 50
90.0
 51
180.0
  0
ARC
  5
3A9
102
{ACAD_REACTORS
330
437
330
438
102
}
330
71
100
AcDbEntity
  8
0
  6
Continuous
 62
     2
100
AcDbCircle
 10
195.973088164869
 20
720.8016397942852
 30
0.0
 40
0.2916229955960716
100
AcDbArc
 50
270.0
 51
90.0
  0
ARC
  5
3AA
102
{ACAD_REACTORS
330
43B
330
43C
102
}
330
71
100
AcDbEntity
  8
0
  6
Continuous
 62
     2
100
AcDbCircle
 10
201.5455598551383
 20
720.3793793878433
 30
0.0
 40
1.261904761905612
100
AcDbArc
 50
90.0
 51
270.0
  0
ARC
  5
3AB
102
{ACAD_REACTORS
330
43F
330
440
102
}
330
71
100
AcDbEntity
  8
0
  6
Continuous
 62
     2
100
AcDbCircle
 10
209.3364648904306
 20
717.5099737364307
 30
0.0
 40
1.355119937140671
100
AcDbArc
 50
90.0
 51
164.938108222899
  0
ARC
  5
3AC
102
{ACAD_REACTORS
330
43F
330
440
102
}
330
71
100
AcDbEntity
  8
0
  6
Continuous
 62
     2
100
AcDbCircle
 10
208.9900782429416
 20
717.6031889116662
 30
0.0
 40
0.9964100565230259
100
AcDbArc
 50
164.9381082229105
 51
195.0618917771021
  0
ARC
  5
3AD
102
{ACAD_REACTORS
330
43F
330
440
102
}
330
71
100
AcDbEntity
  8
0
  6
Continuous
 62
     2
100
AcDbCircle
 10
209.4445181807742
 20
717.4337083915516
 30
0.0
 40
0.4227934381784311
100
AcDbArc
 50
208.5214732576829
 51
246.6277221118468
  0
ARC
  5
3AE
102
{ACAD_REACTORS
330
43F
330
440
102
}
330
71
100
AcDbEntity
  8
0
  6
Continuous
 62
     2
100
AcDbCircle
 10
209.4445181807742
 20
717.772669431781
 30
0.0
 40
0.4227934381773005
100
AcDbArc
 50
109.3371432194784
 51
151.4785267424119
  0
ARC
  5
3AF
102
{ACAD_REACTORS
330
43D
330
43E
102
}
330
71
100
AcDbEntity
  8
0
  6
Continuous
 62
     2
100
AcDbCircle
 10
192.0366998214928
 20
717.9767222898969
 30
0.0
 40
0.2609230769229782
100
AcDbArc
 50
180.0
 51
269.8110329574465
  0
ARC
  5
3B0
102
{ACAD_REACTORS
330
43D
330
43E
102
}
330
71
100
AcDbEntity
  8
0
  6
Continuous
 62
     2
100
AcDbCircle
 10
192.0413412556332
 20
719.384023899458
 30
0.0
 40
1.668232340440728
100
AcDbArc
 50
269.8110329575882
 51
90.18896704241182
  0
ARC
  5
3B1
102
{ACAD_REACTORS
330
43D
330
43E
102
}
330
71
100
AcDbEntity
  8
0
  6
Continuous
 62
     2
100
AcDbCircle
 10
192.0366998214928
 20
720.2908831218235
 30
0.0
 40
0.2609230769229782
100
AcDbArc
 50
180.0
 51
244.6259913216317
  0
ARC
  5
3B2
102
{ACAD_REACTORS
330
43D
330
43E
102
}
330
71
100
AcDbEntity
  8
0
  6
Continuous
 62
     2
100
AcDbCircle
 10
192.0366998214928
 20
718.4575912210498
 30
0.0
 40
0.2609230769227745
100
AcDbArc
 50
115.3740086783684
 51
180.0
  0
ARC
  5
3B3
102
{ACAD_REACTORS
330
441
330
442
102
}
330
71
100
AcDbEntity
  8
0
  6
Continuous
 62
     2
100
AcDbCircle
 10
196.0284471389819
 20
717.5099737364307
 30
0.0
 40
1.355119937140984
100
AcDbArc
 50
84.84185523036052
 51
164.9381082228905
  0
ARC
  5
3B4
102
{ACAD_REACTORS
330
441
330
442
102
}
330
71
100
AcDbEntity
  8
0
  6
Continuous
 62
     2
100
AcDbCircle
 10
195.682060491492
 20
717.6031889116662
 30
0.0
 40
0.9964100565214067
100
AcDbArc
 50
164.9381082228855
 51
195.0618917771019
  0
ARC
  5
3B5
102
{ACAD_REACTORS
330
441
330
442
102
}
330
71
100
AcDbEntity
  8
0
  6
Continuous
 62
     2
100
AcDbCircle
 10
196.0284471389819
 20
717.6964040869015
 30
0.0
 40
1.355119937139993
100
AcDbArc
 50
195.0618917770909
 51
275.1581447696416
  0
ARC
  5
3B6
102
{ACAD_REACTORS
330
441
330
442
102
}
330
71
100
AcDbEntity
  8
0
  6
Continuous
 62
     2
100
AcDbCircle
 10
195.7897230937457
 20
720.3409417589854
 30
0.0
 40
4.010410630990197
100
AcDbArc
 50
275.1581447696246
 51
285.9799912583524
  0
ARC
  5
3B7
102
{ACAD_REACTORS
330
441
330
442
102
}
330
71
100
AcDbEntity
  8
0
  6
Continuous
 62
     2
100
AcDbCircle
 10
196.4483659318713
 20
717.6031889116662
 30
0.0
 40
0.7777353184572496
100
AcDbArc
 50
151.4785267422727
 51
208.5214732577052
  0
ARC
  5
3B8
102
{ACAD_REACTORS
330
441
330
442
102
}
330
71
100
AcDbEntity
  8
0
  6
Continuous
 62
     2
100
AcDbCircle
 10
196.1365004293255
 20
717.772669431781
 30
0.0
 40
0.4227934381776413
100
AcDbArc
 50
113.3722778881857
 51
151.4785267423007
  0
ARC
  5
3B9
102
{ACAD_REACTORS
330
441
330
442
102
}
330
71
100
AcDbEntity
  8
0
  6
Continuous
 62
     2
100
AcDbCircle
 10
195.9201965442356
 20
716.4375142295106
 30
0.0
 40
1.840813230556584
100
AcDbArc
 50
58.069091050038
 51
71.55192388186816
  0
ARC
  5
3BA
102
{ACAD_REACTORS
330
439
330
43A
102
}
330
71
100
AcDbEntity
  8
0
  6
Continuous
 62
     2
100
AcDbCircle
 10
198.4507867389166
 20
717.7327188109392
 30
0.0
 40
0.4280236140605738
100
AcDbArc
 50
38.12041979716286
 51
141.8795802028536
  0
ARC
  5
3BB
102
{ACAD_REACTORS
330
439
330
43A
102
}
330
71
100
AcDbEntity
  8
0
  6
Continuous
 62
     2
100
AcDbCircle
 10
198.6158611491199
 20
717.6031889116662
 30
0.0
 40
0.6378510567598462
100
AcDbArc
 50
141.8795802028341
 51
218.120419797174
  0
ARC
  5
3BC
102
{ACAD_REACTORS
330
439
330
43A
102
}
330
71
100
AcDbEntity
  8
0
  6
Continuous
 62
     2
100
AcDbCircle
 10
198.4507867389166
 20
717.4736590123935
 30
0.0
 40
0.4280236140610111
100
AcDbArc
 50
218.1204197971943
 51
321.8795802027893
  0
ARC
  5
3BD
102
{ACAD_REACTORS
330
439
330
43A
102
}
330
71
100
AcDbEntity
  8
0
  6
Continuous
 62
     2
100
AcDbCircle
 10
198.285712328713
 20
717.6031889116662
 30
0.0
 40
0.6378510567600058
100
AcDbArc
 50
321.8795802028323
 51
38.12041979715963
  0
CIRCLE
  5
3BE
330
71
100
AcDbEntity
  8
1
  6
Continuous
 62
     2
100
AcDbCircle
 10
187.4989242207914
 20
725.366284149755
 30
0.0
 40
1.5
  0
CIRCLE
  5
3BF
330
71
100
AcDbEntity
  8
1
  6
Continuous
 62
     2
100
AcDbCircle
 10
187.4989242207914
 20
725.366284149755
 30
0.0
 40
1.0
  0
CIRCLE
  5
3C0
102
{ACAD_REACTORS
330
43D
330
43E
102
}
330
71
100
AcDbEntity
  8
0
  6
Continuous
 62
     2
100
AcDbCircle
 10
191.5822719597071
 20
719.3742371714369
 30
0.0
 40
0.3892387874201972
  0
MTEXT
  5
3C2
330
71
100
AcDbEntity
  8
1
 62
     7
100
AcDbMText
 10
265.3790666590635
 20
713.7412841497552
 30
0.0
 40
3.0
 41
0.0
 71
     5
 72
     1
  1
WCC 34
  7
CONVERTER_12
 73
     1
 44
1.20048019207683
  0
TEXT
  5
3C4
330
71
100
AcDbEntity
  8
1
 62
     3
100
AcDbText
 10
267.95146892244
 20
720.2912841497549
 30
0.0
 40
2.5
  1
 
 41
0.54
  7
CONVERTER_13
100
AcDbText
  0
MTEXT
  5
3C6
330
71
100
AcDbEntity
  8
1
 62
     2
100
AcDbMText
 10
249.4514689224404
 20
730.741284149755
 30
0.0
 40
1.8
 41
0.0
 71
     1
 72
     1
  1
part-rev.
  7
CONVERTER_14
 73
     1
 44
1.20048019207683
  0
MTEXT
  5
3C8
330
71
100
AcDbEntity
  8
1
 62
     2
100
AcDbMText
 10
219.906664395688
 20
729.8162841497549
 30
0.0
 40
1.4
 41
0.0
 71
     4
 72
     1
  1
SAP\Pchange-No.
  7
CONVERTER_15
 73
     1
 44
0.66026410564226
  0
MTEXT
  5
3C9
330
71
100
AcDbEntity
  8
1
 62
     3
100
AcDbMText
 10
229.1389012138029
 20
729.616284149755
 30
0.0
 40
2.5
 41
0.0
 71
     4
 72
     1
  1
N03-08036/03
  7
CONVERTER_15
 73
     1
 44
1.20048019207683
  0
MTEXT
  5
3CA
330
71
100
AcDbEntity
  8
1
 62
     3
100
AcDbMText
 10
259.6584888090484
 20
730.841284149755
 30
0.0
 40
2.0
 41
0.0
 71
     1
 72
     1
  1
 
  7
CONVERTER_14
 73
     1
 44
1.20048019207683
  0
TEXT
  5
3CC
330
71
100
AcDbEntity
  8
1
 62
     3
100
AcDbText
 10
219.806664395688
 20
720.2912841497549
 30
0.0
 40
2.5
  1
KUNDENZCHNG-SELECT
 41
0.45
  7
CONVERTER_16
100
AcDbText
  0
MTEXT
  5
3CD
330
71
100
AcDbEntity
  8
1
 62
     3
100
AcDbMText
 10
-84.78006407730098
 20
883.4775682634092
 30
0.0
 40
1.8
 41
0.0
 71
     7
 72
     1
  3
The copying, distribution and utilistion of this document as well as the communication\Pof the contents to others without expressed authorization is prohibited according to\P\U+00a718 UWG German Law. Offenders will be held liable for the payment of 
  1
damages\Paccording to (\U+00a719 UWG German Law). All rights reserved, in particular the right to\Pcarry out patent, utility model or ornamental design registrations.\PFlachsmarktstra\U+00dfe 8  D-32825 Blomberg
  7
CONVERTER_11
 11
6.123233764940082E-17
 21
1.0
 31
0.0
 73
     1
 44
0.99639855942377
  0
MTEXT
  5
3CE
330
71
100
AcDbEntity
  8
1
 62
     3
100
AcDbMText
 10
-84.62585776620696
 20
710.5181982492561
 30
0.0
 40
1.8
 41
0.0
 71
     7
 72
     1
  3
Weitergabe sowie Vervielf\U+00e4ltigung dieses Dokuments, Verwertung und\PMitteilung seines Inhalts gem\U+00e4\U+00df \U+00a718 UWG verboten, soweit nicht aus-\Pdr\U+00fccklich gestattet. Zuwiderhandlungen verpflichten zu Schadenersatz\P(\U+00a719 U
  1
WG). Alle Rechte vorbehalten, insbesondere das Recht, Patent-,\PGebrauchsmuster- oder Geschmacksmusteranmeldungen durchzuf\U+00fchren.\PPhoenix Contact GmbH & Co. KG
  7
CONVERTER_11
 11
6.123233764940082E-17
 21
1.0
 31
0.0
 73
     1
 44
0.99639855942377
  0
TEXT
  5
3CF
330
71
100
AcDbEntity
  8
1
 62
     7
100
AcDbText
 10
-65.04853107755997
 20
998.4912841497558
 30
0.0
 40
2.5
  1
1
 41
0.9
  7
CONVERTER_11
100
AcDbText
  0
TEXT
  5
3D0
330
71
100
AcDbEntity
  8
1
 62
     7
100
AcDbText
 10
3.2848022557732
 20
998.4912841497558
 30
0.0
 40
2.5
  1
2
 41
0.9
  7
CONVERTER_11
100
AcDbText
  0
TEXT
  5
3D1
330
71
100
AcDbEntity
  8
1
 62
     7
100
AcDbText
 10
71.61813558910663
 20
998.4912841497558
 30
0.0
 40
2.5
  1
3
 41
0.9
  7
CONVERTER_11
100
AcDbText
  0
TEXT
  5
3D2
330
71
100
AcDbEntity
  8
1
 62
     7
100
AcDbText
 10
139.9514689224398
 20
998.4912841497558
 30
0.0
 40
2.5
  1
4
 41
0.9
  7
CONVERTER_11
100
AcDbText
  0
TEXT
  5
3D3
330
71
100
AcDbEntity
  8
1
 62
     7
100
AcDbText
 10
208.2848022557732
 20
998.4912841497558
 30
0.0
 40
2.5
  1
5
 41
0.9
  7
CONVERTER_11
100
AcDbText
  0
TEXT
  5
3D4
330
71
100
AcDbEntity
  8
1
 62
     7
100
AcDbText
 10
276.6181355891064
 20
998.4912841497558
 30
0.0
 40
2.5
  1
6
 41
0.9
  7
CONVERTER_11
100
AcDbText
  0
TEXT
  5
3D5
330
71
100
AcDbEntity
  8
1
 62
     7
100
AcDbText
 10
312.9514689224397
 20
967.5912841497554
 30
0.0
 40
2.5
  1
A
 41
0.9
  7
CONVERTER_11
100
AcDbText
  0
TEXT
  5
3D6
330
71
100
AcDbEntity
  8
1
 62
     7
100
AcDbText
 10
312.9514689224397
 20
910.1912841497556
 30
0.0
 40
2.5
  1
B
 41
0.9
  7
CONVERTER_11
100
AcDbText
  0
TEXT
  5
3D7
330
71
100
AcDbEntity
  8
1
 62
     7
100
AcDbText
 10
312.9514689224397
 20
852.7912841497557
 30
0.0
 40
2.5
  1
C
 41
0.9
  7
CONVERTER_11
100
AcDbText
  0
TEXT
  5
3D8
330
71
100
AcDbEntity
  8
1
 62
     7
100
AcDbText
 10
312.9514689224397
 20
795.3912841497556
 30
0.0
 40
2.5
  1
D
 41
0.9
  7
CONVERTER_11
100
AcDbText
  0
TEXT
  5
3D9
330
71
100
AcDbEntity
  8
1
 62
     7
100
AcDbText
 10
3.2848022557732
 20
706.4912841497555
 30
0.0
 40
2.5
  1
2
 41
0.9
  7
CONVERTER_11
100
AcDbText
  0
TEXT
  5
3DA
330
71
100
AcDbEntity
  8
1
 62
     7
100
AcDbText
 10
-65.04853107755997
 20
706.4912841497555
 30
0.0
 40
2.5
  1
1
 41
0.9
  7
CONVERTER_11
100
AcDbText
  0
TEXT
  5
3DB
330
71
100
AcDbEntity
  8
1
 62
     7
100
AcDbText
 10
312.9514689224397
 20
737.9912841497555
 30
0.0
 40
2.5
  1
E
 41
0.9
  7
CONVERTER_11
100
AcDbText
  0
TEXT
  5
3DC
330
71
100
AcDbEntity
  8
1
 62
     7
100
AcDbText
 10
71.61813558910663
 20
706.4912841497555
 30
0.0
 40
2.5
  1
3
 41
0.9
  7
CONVERTER_11
100
AcDbText
  0
TEXT
  5
3DD
330
71
100
AcDbEntity
  8
1
 62
     7
100
AcDbText
 10
139.9514689224398
 20
706.4912841497555
 30
0.0
 40
2.5
  1
4
 41
0.9
  7
CONVERTER_11
100
AcDbText
  0
TEXT
  5
3DE
330
71
100
AcDbEntity
  8
1
 62
     7
100
AcDbText
 10
208.284802255773
 20
706.4912841497555
 30
0.0
 40
2.5
  1
5
 41
0.9
  7
CONVERTER_11
100
AcDbText
  0
TEXT
  5
3DF
330
71
100
AcDbEntity
  8
1
 62
     7
100
AcDbText
 10
276.6181355891064
 20
706.4912841497555
 30
0.0
 40
2.5
  1
6
 41
0.9
  7
CONVERTER_11
100
AcDbText
  0
TEXT
  5
3E0
330
71
100
AcDbEntity
  8
1
 62
     7
100
AcDbText
 10
236.9365766147438
 20
733.0412841497549
 30
0.0
 40
2.5
  1
00
 41
0.81
  7
CONVERTER_12
100
AcDbText
  0
TEXT
  5
3E1
330
71
100
AcDbEntity
  8
1
 62
     3
100
AcDbText
 10
295.0698772041189
 20
733.0412841497549
 30
0.0
 40
2.5
  1
 
 41
0.54
  7
CONVERTER_13
100
AcDbText
  0
TEXT
  5
3E2
330
71
100
AcDbEntity
  8
1
 62
     7
100
AcDbText
 10
249.4514689224421
 20
720.2912841497549
 30
0.0
 40
2.5
  1
00835543
 41
0.81
  7
CONVERTER_12
100
AcDbText
  0
TEXT
  5
3E3
330
71
100
AcDbEntity
  8
1
 62
     7
100
AcDbText
 10
220.3066643956878
 20
733.0412841497549
 30
0.0
 40
2.5
  1
3240257
 41
0.81
  7
CONVERTER_12
100
AcDbText
  0
TEXT
  5
3E4
330
71
100
AcDbEntity
  8
1
 62
     3
100
AcDbText
 10
242.706664395688
 20
733.0412841497549
 30
0.0
 40
2.5
  1
 
 41
0.54
  7
CONVERTER_13
100
AcDbText
  0
MTEXT
  5
3E5
330
71
100
AcDbEntity
  8
1
 62
     3
100
AcDbMText
 10
289.6106730632795
 20
733.041284149755
 30
0.0
 40
2.5
 41
0.0
 71
     8
 72
     1
  1
1:1
  7
CONVERTER_14
 73
     1
 44
1.32052821128451
  0
TEXT
  5
3E6
330
71
100
AcDbEntity
  8
1
 62
     7
100
AcDbText
 10
234.7802121177018
 20
733.0412841497549
 30
0.0
 40
2.5
  1
/
 41
0.9
  7
CONVERTER_11
100
AcDbText
  0
MTEXT
  5
3E7
330
71
100
AcDbEntity
  8
1
 62
     2
100
AcDbMText
 10
198.556664395688
 20
733.866284149755
 30
0.0
 40
1.8
 41
0.0
 71
     5
 72
     1
  1
19.11.14
  7
CONVERTER_11
 73
     1
 44
1.32052821128451
  0
MTEXT
  5
3E8
330
71
100
AcDbEntity
  8
1
 62
     2
100
AcDbMText
 10
198.556664395688
 20
729.616284149755
 30
0.0
 40
1.8
 41
0.0
 71
     5
 72
     1
  1
29.06.15
  7
CONVERTER_11
 73
     1
 44
1.32052821128451
  0
MTEXT
  5
3E9
330
71
100
AcDbEntity
  8
1
 62
     2
100
AcDbMText
 10
212.056664395688
 20
733.866284149755
 30
0.0
 40
1.8
 41
0.0
 71
     5
 72
     1
  1
pbsc11
  7
CONVERTER_11
 73
     1
 44
1.32052821128451
  0
MTEXT
  5
3EA
330
71
100
AcDbEntity
  8
1
 62
     2
100
AcDbMText
 10
212.056664395688
 20
729.616284149755
 30
0.0
 40
1.8
 41
0.0
 71
     5
 72
     1
  1
pbam06
  7
CONVERTER_11
 73
     1
 44
1.32052821128451
  0
MTEXT
  5
3EB
330
71
100
AcDbEntity
  8
1
 62
     2
100
AcDbMText
 10
219.806664395688
 20
726.491284149755
 30
0.0
 40
1.8
 41
0.0
 71
     1
 72
     1
  1
document-type
  7
CONVERTER_11
 73
     1
 44
1.20048019207683
  0
MTEXT
  5
3EC
330
71
100
AcDbEntity
  8
1
 62
     2
100
AcDbMText
 10
187.1066643956881
 20
737.191284149755
 30
0.0
 40
1.8
 41
0.0
 71
     8
 72
     1
  1
00
  7
CONVERTER_11
 73
     1
 44
1.20048019207683
  0
MTEXT
  5
3ED
330
71
100
AcDbEntity
  8
1
 62
     2
100
AcDbMText
 10
219.806664395688
 20
717.991284149755
 30
0.0
 40
1.8
 41
0.0
 71
     1
 72
     1
  1
description
  7
CONVERTER_11
 73
     1
 44
1.20048019207683
  0
TEXT
  5
3EE
330
71
100
AcDbEntity
  8
1
 62
     2
100
AcDbText
 10
206.8419732055017
 20
711.741284149755
 30
0.0
 40
1.8
  1
1
 41
0.9
  7
CONVERTER_11
100
AcDbText
  0
TEXT
  5
3EF
330
71
100
AcDbEntity
  8
1
 62
     2
100
AcDbText
 10
192.0529293660302
 20
711.6920354959531
 30
0.0
 40
1.8
  1
1
 41
0.9
  7
CONVERTER_11
100
AcDbText
  0
MTEXT
  5
3F0
330
71
100
AcDbEntity
  8
1
 62
     2
100
AcDbMText
 10
219.906664395688
 20
739.241284149755
 30
0.0
 40
1.8
 41
0.0
 71
     1
 72
     1
  1
ident.-No. / RI
  7
CONVERTER_11
 73
     1
 44
1.20048019207683
  0
MTEXT
  5
3F1
330
71
100
AcDbEntity
  8
1
 62
     3
100
AcDbMText
 10
208.606664395688
 20
725.3662841497551
 30
0.0
 40
2.5
 41
0.0
 71
     5
 72
     1
  1
DIN A3
  7
CONVERTER_11
 73
     1
 44
1.20048019207683
  0
MTEXT
  5
3F2
330
71
100
AcDbEntity
  8
1
 62
     2
100
AcDbMText
 10
187.1066643956881
 20
729.616284149755
 30
0.0
 40
1.8
 41
0.0
 71
     5
 72
     1
  1
check.
  7
CONVERTER_11
 73
     1
 44
1.20048019207683
  0
MTEXT
  5
3F3
330
71
100
AcDbEntity
  8
1
 62
     2
100
AcDbMText
 10
187.1066643956881
 20
733.866284149755
 30
0.0
 40
1.8
 41
0.0
 71
     5
 72
     1
  1
creat.
  7
CONVERTER_11
 73
     1
 44
1.20048019207683
  0
MTEXT
  5
3F4
330
71
100
AcDbEntity
  8
1
 62
     2
100
AcDbMText
 10
286.2514689224399
 20
739.241284149755
 30
0.0
 40
1.8
 41
0.0
 71
     1
 72
     1
  1
scale
  7
CONVERTER_11
 73
     1
 44
1.20048019207683
  0
MTEXT
  5
3F5
330
71
100
AcDbEntity
  8
1
 62
     2
100
AcDbMText
 10
110.779066659063
 20
711.741284149755
 30
0.0
 40
1.8
 41
0.0
 71
     8
 72
     1
  1
revision
  7
CONVERTER_11
 73
     1
 44
1.32052821128451
  0
MTEXT
  5
3F6
330
71
100
AcDbEntity
  8
1
 62
     2
100
AcDbMText
 10
212.056664395688
 20
737.191284149755
 30
0.0
 40
1.8
 41
0.0
 71
     8
 72
     1
  1
name
  7
CONVERTER_11
 73
     1
 44
1.32052821128451
  0
MTEXT
  5
3F7
330
71
100
AcDbEntity
  8
1
 62
     2
100
AcDbMText
 10
198.556664395688
 20
737.191284149755
 30
0.0
 40
1.8
 41
0.0
 71
     8
 72
     1
  1
date
  7
CONVERTER_11
 73
     1
 44
1.32052821128451
  0
MTEXT
  5
3F8
330
71
100
AcDbEntity
  8
1
 62
     2
100
AcDbMText
 10
63.05146892243889
 20
711.741284149755
 30
0.0
 40
1.8
 41
0.0
 71
     8
 72
     1
  1
RI
  7
CONVERTER_11
 73
     1
 44
1.32052821128451
  0
MTEXT
  5
3F9
330
71
100
AcDbEntity
  8
1
 62
     2
100
AcDbMText
 10
242.9318535532795
 20
739.2412841497547
 30
0.0
 40
1.8
 41
0.0
 71
     1
 72
     1
  1
material
  7
CONVERTER_11
 73
     1
 44
1.20048019207683
  0
MTEXT
  5
3FA
330
71
100
AcDbEntity
  8
1
 62
     2
100
AcDbMText
 10
72.90146892243789
 20
711.741284149755
 30
0.0
 40
1.8
 41
0.0
 71
     8
 72
     1
  1
date
  7
CONVERTER_11
 73
     1
 44
1.32052821128451
  0
MTEXT
  5
3FB
330
71
100
AcDbEntity
  8
1
 62
     2
100
AcDbMText
 10
148.6566643956881
 20
711.741284149755
 30
0.0
 40
1.8
 41
0.0
 71
     8
 72
     1
  1
name
  7
CONVERTER_11
 73
     1
 44
1.32052821128451
  0
MTEXT
  5
3FC
330
71
100
AcDbEntity
  8
1
 62
     2
100
AcDbMText
 10
162.1566643956881
 20
711.741284149755
 30
0.0
 40
1.8
 41
0.0
 71
     8
 72
     1
  1
check.on
  7
CONVERTER_11
 73
     1
 44
1.32052821128451
  0
MTEXT
  5
3FD
330
71
100
AcDbEntity
  8
1
 62
     2
100
AcDbMText
 10
175.656664395688
 20
711.741284149755
 30
0.0
 40
1.8
 41
0.0
 71
     8
 72
     1
  1
name
  7
CONVERTER_11
 73
     1
 44
1.32052821128451
  0
TEXT
  5
3FE
330
71
100
AcDbEntity
  8
1
 62
     2
100
AcDbText
 10
183.4066643956881
 20
711.7322669347633
 30
0.0
 40
1.8
  1
page
 41
0.9
  7
CONVERTER_11
100
AcDbText
  0
TEXT
  5
3FF
330
71
100
AcDbEntity
  8
1
 62
     2
100
AcDbText
 10
201.606664395688
 20
711.7322669347634
 30
0.0
 40
1.8
  1
of
 41
0.9
  7
CONVERTER_11
100
AcDbText
  0
MTEXT
  5
401
330
71
100
AcDbEntity
  8
1
 62
     2
100
AcDbMText
 10
249.4514689224421
 20
726.491284149755
 30
0.0
 40
1.8
 41
0.0
 71
     1
 72
     1
  1
document-No.
  7
CONVERTER_17
 73
     1
 44
1.32052821128451
  0
MTEXT
  5
402
330
71
100
AcDbEntity
  8
1
 62
     2
100
AcDbMText
 10
295.3698772041188
 20
739.241284149755
 30
0.0
 40
1.8
 41
0.0
 71
     1
 72
     1
  1
dim.var.
  7
CONVERTER_11
 73
     1
 44
1.20048019207683
  0
MTEXT
  5
403
330
71
100
AcDbEntity
  8
1
 62
     2
100
AcDbMText
 10
267.9514689224417
 20
726.491284149755
 30
0.0
 40
1.8
 41
0.0
 71
     1
 72
     1
  1
surface in um
  7
CONVERTER_11
 73
     1
 44
1.32052821128451
  0
MTEXT
  5
404
330
71
100
AcDbEntity
  8
1
 62
     2
100
AcDbMText
 10
63.05146892243889
 20
738.116284149755
 30
0.0
 40
2.0
 41
0.0
 71
     5
 72
     1
  1
 
  7
CONVERTER_11
 73
     1
 44
1.20048019207683
  0
MTEXT
  5
405
330
71
100
AcDbEntity
  8
1
 62
     2
100
AcDbMText
 10
63.05146892243889
 20
733.866284149755
 30
0.0
 40
2.0
 41
0.0
 71
     5
 72
     1
  1
 
  7
CONVERTER_11
 73
     1
 44
1.20048019207683
  0
MTEXT
  5
406
330
71
100
AcDbEntity
  8
1
 62
     2
100
AcDbMText
 10
63.05146892243889
 20
729.616284149755
 30
0.0
 40
2.0
 41
0.0
 71
     5
 72
     1
  1
 
  7
CONVERTER_11
 73
     1
 44
1.20048019207683
  0
MTEXT
  5
407
330
71
100
AcDbEntity
  8
1
 62
     2
100
AcDbMText
 10
63.05146892243889
 20
725.366284149755
 30
0.0
 40
2.0
 41
0.0
 71
     5
 72
     1
  1
 
  7
CONVERTER_11
 73
     1
 44
1.20048019207683
  0
MTEXT
  5
408
330
71
100
AcDbEntity
  8
1
 62
     2
100
AcDbMText
 10
63.05146892243889
 20
721.116284149755
 30
0.0
 40
2.0
 41
0.0
 71
     5
 72
     1
  1
 
  7
CONVERTER_11
 73
     1
 44
1.20048019207683
  0
MTEXT
  5
409
330
71
100
AcDbEntity
  8
1
 62
     2
100
AcDbMText
 10
63.05146892243889
 20
716.8662841497551
 30
0.0
 40
2.0
 41
0.0
 71
     5
 72
     1
  1
 
  7
CONVERTER_11
 73
     1
 44
1.20048019207683
  0
MTEXT
  5
40A
330
71
100
AcDbEntity
  8
1
 62
     2
100
AcDbMText
 10
72.90146892243789
 20
716.8662841497551
 30
0.0
 40
2.0
 41
0.0
 71
     5
 72
     1
  1
 
  7
CONVERTER_11
 73
     1
 44
1.20048019207683
  0
MTEXT
  5
40B
330
71
100
AcDbEntity
  8
1
 62
     2
100
AcDbMText
 10
72.90146892243789
 20
721.116284149755
 30
0.0
 40
2.0
 41
0.0
 71
     5
 72
     1
  1
 
  7
CONVERTER_11
 73
     1
 44
1.20048019207683
  0
MTEXT
  5
40C
330
71
100
AcDbEntity
  8
1
 62
     2
100
AcDbMText
 10
72.90146892243789
 20
725.366284149755
 30
0.0
 40
2.0
 41
0.0
 71
     5
 72
     1
  1
 
  7
CONVERTER_11
 73
     1
 44
1.20048019207683
  0
MTEXT
  5
40D
330
71
100
AcDbEntity
  8
1
 62
     2
100
AcDbMText
 10
72.90146892243789
 20
729.616284149755
 30
0.0
 40
2.0
 41
0.0
 71
     5
 72
     1
  1
 
  7
CONVERTER_11
 73
     1
 44
1.20048019207683
  0
MTEXT
  5
40E
330
71
100
AcDbEntity
  8
1
 62
     2
100
AcDbMText
 10
72.90146892243789
 20
733.866284149755
 30
0.0
 40
2.0
 41
0.0
 71
     5
 72
     1
  1
 
  7
CONVERTER_11
 73
     1
 44
1.20048019207683
  0
MTEXT
  5
40F
330
71
100
AcDbEntity
  8
1
 62
     2
100
AcDbMText
 10
72.90146892243789
 20
738.116284149755
 30
0.0
 40
2.0
 41
0.0
 71
     5
 72
     1
  1
 
  7
CONVERTER_11
 73
     1
 44
1.20048019207683
  0
MTEXT
  5
410
330
71
100
AcDbEntity
  8
1
 62
     2
100
AcDbMText
 10
148.6566643956881
 20
716.8662841497551
 30
0.0
 40
2.0
 41
0.0
 71
     5
 72
     1
  1
 
  7
CONVERTER_11
 73
     1
 44
1.20048019207683
  0
MTEXT
  5
411
330
71
100
AcDbEntity
  8
1
 62
     2
100
AcDbMText
 10
148.6566643956881
 20
721.116284149755
 30
0.0
 40
2.0
 41
0.0
 71
     5
 72
     1
  1
 
  7
CONVERTER_11
 73
     1
 44
1.20048019207683
  0
MTEXT
  5
412
330
71
100
AcDbEntity
  8
1
 62
     2
100
AcDbMText
 10
148.6566643956881
 20
725.366284149755
 30
0.0
 40
2.0
 41
0.0
 71
     5
 72
     1
  1
 
  7
CONVERTER_11
 73
     1
 44
1.20048019207683
  0
MTEXT
  5
413
330
71
100
AcDbEntity
  8
1
 62
     2
100
AcDbMText
 10
148.6566643956881
 20
729.616284149755
 30
0.0
 40
2.0
 41
0.0
 71
     5
 72
     1
  1
 
  7
CONVERTER_11
 73
     1
 44
1.20048019207683
  0
MTEXT
  5
414
330
71
100
AcDbEntity
  8
1
 62
     2
100
AcDbMText
 10
148.6566643956881
 20
733.866284149755
 30
0.0
 40
2.0
 41
0.0
 71
     5
 72
     1
  1
 
  7
CONVERTER_11
 73
     1
 44
1.20048019207683
  0
MTEXT
  5
415
330
71
100
AcDbEntity
  8
1
 62
     2
100
AcDbMText
 10
148.6566643956881
 20
738.116284149755
 30
0.0
 40
2.0
 41
0.0
 71
     5
 72
     1
  1
 
  7
CONVERTER_11
 73
     1
 44
1.20048019207683
  0
MTEXT
  5
416
330
71
100
AcDbEntity
  8
1
 62
     2
100
AcDbMText
 10
162.1566643956881
 20
738.116284149755
 30
0.0
 40
2.0
 41
0.0
 71
     5
 72
     1
  1
 
  7
CONVERTER_11
 73
     1
 44
1.20048019207683
  0
MTEXT
  5
417
330
71
100
AcDbEntity
  8
1
 62
     2
100
AcDbMText
 10
162.1566643956881
 20
733.866284149755
 30
0.0
 40
2.0
 41
0.0
 71
     5
 72
     1
  1
 
  7
CONVERTER_11
 73
     1
 44
1.20048019207683
  0
MTEXT
  5
418
330
71
100
AcDbEntity
  8
1
 62
     2
100
AcDbMText
 10
162.1566643956881
 20
729.616284149755
 30
0.0
 40
2.0
 41
0.0
 71
     5
 72
     1
  1
 
  7
CONVERTER_11
 73
     1
 44
1.20048019207683
  0
MTEXT
  5
419
330
71
100
AcDbEntity
  8
1
 62
     2
100
AcDbMText
 10
162.1566643956881
 20
725.366284149755
 30
0.0
 40
2.0
 41
0.0
 71
     5
 72
     1
  1
 
  7
CONVERTER_11
 73
     1
 44
1.20048019207683
  0
MTEXT
  5
41A
330
71
100
AcDbEntity
  8
1
 62
     2
100
AcDbMText
 10
162.1566643956881
 20
721.116284149755
 30
0.0
 40
2.0
 41
0.0
 71
     5
 72
     1
  1
 
  7
CONVERTER_11
 73
     1
 44
1.20048019207683
  0
MTEXT
  5
41B
330
71
100
AcDbEntity
  8
1
 62
     2
100
AcDbMText
 10
162.156664395688
 20
716.8662841497551
 30
0.0
 40
2.0
 41
0.0
 71
     5
 72
     1
  1
 
  7
CONVERTER_11
 73
     1
 44
1.20048019207683
  0
MTEXT
  5
41C
330
71
100
AcDbEntity
  8
1
 62
     2
100
AcDbMText
 10
175.656664395688
 20
738.116284149755
 30
0.0
 40
2.0
 41
0.0
 71
     5
 72
     1
  1
 
  7
CONVERTER_11
 73
     1
 44
1.20048019207683
  0
MTEXT
  5
41D
330
71
100
AcDbEntity
  8
1
 62
     2
100
AcDbMText
 10
175.656664395688
 20
733.866284149755
 30
0.0
 40
2.0
 41
0.0
 71
     5
 72
     1
  1
 
  7
CONVERTER_11
 73
     1
 44
1.20048019207683
  0
MTEXT
  5
41E
330
71
100
AcDbEntity
  8
1
 62
     2
100
AcDbMText
 10
175.656664395688
 20
729.616284149755
 30
0.0
 40
2.0
 41
0.0
 71
     5
 72
     1
  1
 
  7
CONVERTER_11
 73
     1
 44
1.20048019207683
  0
MTEXT
  5
41F
330
71
100
AcDbEntity
  8
1
 62
     2
100
AcDbMText
 10
175.656664395688
 20
725.366284149755
 30
0.0
 40
2.0
 41
0.0
 71
     5
 72
     1
  1
 
  7
CONVERTER_11
 73
     1
 44
1.20048019207683
  0
MTEXT
  5
420
330
71
100
AcDbEntity
  8
1
 62
     2
100
AcDbMText
 10
175.656664395688
 20
721.116284149755
 30
0.0
 40
2.0
 41
0.0
 71
     5
 72
     1
  1
 
  7
CONVERTER_11
 73
     1
 44
1.20048019207683
  0
MTEXT
  5
421
330
71
100
AcDbEntity
  8
1
 62
     2
100
AcDbMText
 10
175.656664395688
 20
716.8662841497551
 30
0.0
 40
2.0
 41
0.0
 71
     5
 72
     1
  1
 
  7
CONVERTER_11
 73
     1
 44
1.20048019207683
  0
MTEXT
  5
423
330
71
100
AcDbEntity
  8
1
 62
     2
100
AcDbMText
 10
80.65146892243789
 20
738.116284149755
 30
0.0
 40
2.0
 41
0.0
 71
     4
 72
     1
  1
 
  7
CONVERTER_18
 73
     1
 44
1.20048019207683
  0
MTEXT
  5
424
330
71
100
AcDbEntity
  8
1
 62
     2
100
AcDbMText
 10
80.65146892243789
 20
733.866284149755
 30
0.0
 40
2.0
 41
0.0
 71
     4
 72
     1
  1
 
  7
CONVERTER_18
 73
     1
 44
1.20048019207683
  0
MTEXT
  5
425
330
71
100
AcDbEntity
  8
1
 62
     2
100
AcDbMText
 10
80.65146892243789
 20
729.616284149755
 30
0.0
 40
2.0
 41
0.0
 71
     4
 72
     1
  1
 
  7
CONVERTER_18
 73
     1
 44
1.20048019207683
  0
MTEXT
  5
426
330
71
100
AcDbEntity
  8
1
 62
     2
100
AcDbMText
 10
80.65146892243789
 20
725.366284149755
 30
0.0
 40
2.0
 41
0.0
 71
     4
 72
     1
  1
 
  7
CONVERTER_18
 73
     1
 44
1.20048019207683
  0
MTEXT
  5
427
330
71
100
AcDbEntity
  8
1
 62
     2
100
AcDbMText
 10
80.65146892243789
 20
721.116284149755
 30
0.0
 40
2.0
 41
0.0
 71
     4
 72
     1
  1
 
  7
CONVERTER_18
 73
     1
 44
1.20048019207683
  0
MTEXT
  5
428
330
71
100
AcDbEntity
  8
1
 62
     2
100
AcDbMText
 10
80.65146892243789
 20
716.8662841497551
 30
0.0
 40
2.0
 41
0.0
 71
     4
 72
     1
  1
 
  7
CONVERTER_18
 73
     1
 44
1.20048019207683
  0
HATCH
  5
429
330
71
100
AcDbEntity
  8
1
  6
Continuous
 62
     2
100
AcDbHatch
 10
0.0
 20
0.0
 30
0.0
210
0.0
220
0.0
230
1.0
  2
_USER
 70
     0
 71
     1
 91
        1
 92
        1
 93
       12
 72
     1
 10
200.1665823402841
 20
719.117474625938
 11
199.1808032475845
 21
719.117474625938
 72
     1
 10
199.1808032475845
 20
719.117474625938
 11
199.1808032475845
 21
720.0548895919246
 72
     1
 10
199.1808032475845
 20
720.0548895919246
 11
198.3133176460081
 21
720.0548895919246
 72
     1
 10
198.3133176460081
 20
720.0548895919246
 11
198.3133176460081
 21
719.117474625938
 72
     1
 10
198.3133176460081
 20
719.117474625938
 11
197.3275385533085
 21
719.117474625938
 72
     1
 10
197.3275385533085
 20
719.117474625938
 11
197.3275385533085
 21
721.6412841497489
 72
     1
 10
197.3275385533085
 20
721.6412841497489
 11
198.3133176460081
 21
721.6412841497489
 72
     1
 10
198.3133176460081
 20
721.6412841497489
 11
198.3133176460081
 21
720.7579508164146
 72
     1
 10
198.3133176460081
 20
720.7579508164146
 11
199.1808032475845
 21
720.7579508164146
 72
     1
 10
199.1808032475845
 20
720.7579508164146
 11
199.1808032475845
 21
721.6412841497489
 72
     1
 10
199.1808032475845
 20
721.6412841497489
 11
200.1665823402841
 21
721.6412841497489
 72
     1
 10
200.1665823402841
 20
721.6412841497489
 11
200.1665823402841
 21
719.117474625938
 97
       12
330
360
330
361
330
34B
330
34A
330
349
330
35D
330
348
330
35E
330
35F
330
347
330
346
330
345
 75
     1
 76
     0
 52
45.0
 41
0.1
 77
     0
 78
     1
 53
45.0
 43
0.0
 44
0.0
 45
-0.0707106781186548
 46
0.0707106781186548
 79
     0
 98
        1
 10
0.0
 20
0.0
  0
HATCH
  5
42A
330
71
100
AcDbEntity
  8
1
  6
Continuous
 62
     2
100
AcDbHatch
 10
0.0
 20
0.0
 30
0.0
210
0.0
220
0.0
230
1.0
  2
_USER
 70
     0
 71
     1
 91
        1
 92
        1
 93
       12
 72
     1
 10
200.1665823402841
 20
719.117474625938
 11
199.1808032475845
 21
719.117474625938
 72
     1
 10
199.1808032475845
 20
719.117474625938
 11
199.1808032475845
 21
720.0548895919246
 72
     1
 10
199.1808032475845
 20
720.0548895919246
 11
198.3133176460081
 21
720.0548895919246
 72
     1
 10
198.3133176460081
 20
720.0548895919246
 11
198.3133176460081
 21
719.117474625938
 72
     1
 10
198.3133176460081
 20
719.117474625938
 11
197.3275385533085
 21
719.117474625938
 72
     1
 10
197.3275385533085
 20
719.117474625938
 11
197.3275385533085
 21
721.6412841497489
 72
     1
 10
197.3275385533085
 20
721.6412841497489
 11
198.3133176460081
 21
721.6412841497489
 72
     1
 10
198.3133176460081
 20
721.6412841497489
 11
198.3133176460081
 21
720.7579508164146
 72
     1
 10
198.3133176460081
 20
720.7579508164146
 11
199.1808032475845
 21
720.7579508164146
 72
     1
 10
199.1808032475845
 20
720.7579508164146
 11
199.1808032475845
 21
721.6412841497489
 72
     1
 10
199.1808032475845
 20
721.6412841497489
 11
200.1665823402841
 21
721.6412841497489
 72
     1
 10
200.1665823402841
 20
721.6412841497489
 11
200.1665823402841
 21
719.117474625938
 97
       12
330
360
330
361
330
34B
330
34A
330
349
330
35D
330
348
330
35E
330
35F
330
347
330
346
330
345
 75
     1
 76
     0
 52
45.0
 41
0.1
 77
     0
 78
     1
 53
45.0
 43
0.0
 44
0.0
 45
-0.0707106781186548
 46
0.0707106781186548
 79
     0
 98
        1
 10
0.0
 20
0.0
  0
HATCH
  5
42B
330
71
100
AcDbEntity
  8
1
  6
Continuous
 62
     2
100
AcDbHatch
 10
0.0
 20
0.0
 30
0.0
210
0.0
220
0.0
230
1.0
  2
_USER
 70
     0
 71
     1
 91
        1
 92
        1
 93
       10
 72
     1
 10
202.0197222982909
 20
717.7834610205097
 11
200.9945120418836
 21
718.8650936735718
 72
     1
 10
200.9945120418836
 20
718.8650936735718
 11
200.0087329491831
 21
718.8650936735718
 72
     1
 10
200.0087329491831
 20
718.8650936735718
 11
200.0087329491831
 21
716.3412841497609
 72
     1
 10
200.0087329491831
 20
716.3412841497609
 11
200.9945120418836
 21
716.3412841497609
 72
     1
 10
200.9945120418836
 20
716.3412841497609
 11
200.9945120418836
 21
717.4229168028226
 72
     1
 10
200.9945120418836
 20
717.4229168028226
 11
202.0197222982909
 21
716.3412841497609
 72
     1
 10
202.0197222982909
 20
716.3412841497609
 11
203.0055013909905
 21
716.3412841497609
 72
     1
 10
203.0055013909905
 20
716.3412841497609
 11
203.0055013909905
 21
718.8650936735718
 72
     1
 10
203.0055013909905
 20
718.8650936735718
 11
202.0197222982909
 21
718.8650936735718
 72
     1
 10
202.0197222982909
 20
718.8650936735718
 11
202.0197222982909
 21
717.7834610205097
 97
       10
330
36E
330
33E
330
33D
330
340
330
369
330
36A
330
33F
330
36B
330
36C
330
36D
 75
     1
 76
     0
 52
45.0
 41
0.1
 77
     0
 78
     1
 53
45.0
 43
0.0
 44
0.0
 45
-0.0707106781186548
 46
0.0707106781186548
 79
     0
 98
        1
 10
0.0
 20
0.0
  0
HATCH
  5
42C
330
71
100
AcDbEntity
  8
1
  6
Continuous
 62
     2
100
AcDbHatch
 10
0.0
 20
0.0
 30
0.0
210
0.0
220
0.0
230
1.0
  2
_USER
 70
     0
 71
     1
 91
        1
 92
        1
 93
       10
 72
     1
 10
202.0197222982909
 20
717.7834610205097
 11
200.9945120418836
 21
718.8650936735718
 72
     1
 10
200.9945120418836
 20
718.8650936735718
 11
200.0087329491831
 21
718.8650936735718
 72
     1
 10
200.0087329491831
 20
718.8650936735718
 11
200.0087329491831
 21
716.3412841497609
 72
     1
 10
200.0087329491831
 20
716.3412841497609
 11
200.9945120418836
 21
716.3412841497609
 72
     1
 10
200.9945120418836
 20
716.3412841497609
 11
200.9945120418836
 21
717.4229168028226
 72
     1
 10
200.9945120418836
 20
717.4229168028226
 11
202.0197222982909
 21
716.3412841497609
 72
     1
 10
202.0197222982909
 20
716.3412841497609
 11
203.0055013909905
 21
716.3412841497609
 72
     1
 10
203.0055013909905
 20
716.3412841497609
 11
203.0055013909905
 21
718.8650936735718
 72
     1
 10
203.0055013909905
 20
718.8650936735718
 11
202.0197222982909
 21
718.8650936735718
 72
     1
 10
202.0197222982909
 20
718.8650936735718
 11
202.0197222982909
 21
717.7834610205097
 97
       10
330
36E
330
33E
330
33D
330
340
330
369
330
36A
330
33F
330
36B
330
36C
330
36D
 75
     1
 76
     0
 52
45.0
 41
0.1
 77
     0
 78
     1
 53
45.0
 43
0.0
 44
0.0
 45
-0.0707106781186548
 46
0.0707106781186548
 79
     0
 98
        1
 10
0.0
 20
0.0
  0
HATCH
  5
42D
330
71
100
AcDbEntity
  8
1
  6
Continuous
 62
     2
100
AcDbHatch
 10
0.0
 20
0.0
 30
0.0
210
0.0
220
0.0
230
1.0
  2
_USER
 70
     0
 71
     1
 91
        1
 92
        1
 93
       10
 72
     1
 10
206.3572750424395
 20
720.5596514966868
 11
205.3320647860312
 21
721.6412841497489
 72
     1
 10
205.3320647860312
 20
721.6412841497489
 11
204.3462856933316
 21
721.6412841497489
 72
     1
 10
204.3462856933316
 20
721.6412841497489
 11
204.3462856933316
 21
719.117474625938
 72
     1
 10
204.3462856933316
 20
719.117474625938
 11
205.3320647860312
 21
719.117474625938
 72
     1
 10
205.3320647860312
 20
719.117474625938
 11
205.3320647860312
 21
720.1991072789997
 72
     1
 10
205.3320647860312
 20
720.1991072789997
 11
206.3572750424395
 21
719.117474625938
 72
     1
 10
206.3572750424395
 20
719.117474625938
 11
207.3430541351391
 21
719.117474625938
 72
     1
 10
207.3430541351391
 20
719.117474625938
 11
207.3430541351391
 21
721.6412841497489
 72
     1
 10
207.3430541351391
 20
721.6412841497489
 11
206.3572750424395
 21
721.6412841497489
 72
     1
 10
206.3572750424395
 20
721.6412841497489
 11
206.3572750424395
 21
720.5596514966868
 97
       10
330
373
330
33B
330
33A
330
374
330
339
330
36F
330
370
330
371
330
372
330
33C
 75
     1
 76
     0
 52
45.0
 41
0.1
 77
     0
 78
     1
 53
45.0
 43
0.0
 44
0.0
 45
-0.0707106781186548
 46
0.0707106781186548
 79
     0
 98
        1
 10
0.0
 20
0.0
  0
HATCH
  5
42E
330
71
100
AcDbEntity
  8
1
  6
Continuous
 62
     2
100
AcDbHatch
 10
0.0
 20
0.0
 30
0.0
210
0.0
220
0.0
230
1.0
  2
_USER
 70
     0
 71
     1
 91
        1
 92
        1
 93
       10
 72
     1
 10
206.3572750424395
 20
720.5596514966868
 11
205.3320647860312
 21
721.6412841497489
 72
     1
 10
205.3320647860312
 20
721.6412841497489
 11
204.3462856933316
 21
721.6412841497489
 72
     1
 10
204.3462856933316
 20
721.6412841497489
 11
204.3462856933316
 21
719.117474625938
 72
     1
 10
204.3462856933316
 20
719.117474625938
 11
205.3320647860312
 21
719.117474625938
 72
     1
 10
205.3320647860312
 20
719.117474625938
 11
205.3320647860312
 21
720.1991072789997
 72
     1
 10
205.3320647860312
 20
720.1991072789997
 11
206.3572750424395
 21
719.117474625938
 72
     1
 10
206.3572750424395
 20
719.117474625938
 11
207.3430541351391
 21
719.117474625938
 72
     1
 10
207.3430541351391
 20
719.117474625938
 11
207.3430541351391
 21
721.6412841497489
 72
     1
 10
207.3430541351391
 20
721.6412841497489
 11
206.3572750424395
 21
721.6412841497489
 72
     1
 10
206.3572750424395
 20
721.6412841497489
 11
206.3572750424395
 21
720.5596514966868
 97
       10
330
373
330
33B
330
33A
330
374
330
339
330
36F
330
370
330
371
330
372
330
33C
 75
     1
 76
     0
 52
45.0
 41
0.1
 77
     0
 78
     1
 53
45.0
 43
0.0
 44
0.0
 45
-0.0707106781186548
 46
0.0707106781186548
 79
     0
 98
        1
 10
0.0
 20
0.0
  0
HATCH
  5
42F
330
71
100
AcDbEntity
  8
1
  6
Continuous
 62
     2
100
AcDbHatch
 10
0.0
 20
0.0
 30
0.0
210
0.0
220
0.0
230
1.0
  2
_USER
 70
     0
 71
     1
 91
        1
 92
        1
 93
        8
 72
     1
 10
205.4502335408862
 20
718.8650936735718
 11
203.1237948821145
 21
718.8650936735718
 72
     1
 10
203.1237948821145
 20
718.8650936735718
 11
203.1237948821145
 21
718.2161140817341
 72
     1
 10
203.1237948821145
 20
718.2161140817341
 11
203.7941246651514
 21
718.2161140817341
 72
     1
 10
203.7941246651514
 20
718.2161140817341
 11
203.7941246651514
 21
716.3412841497609
 72
     1
 10
203.7941246651514
 20
716.3412841497609
 11
204.779903757851
 21
716.3412841497609
 72
     1
 10
204.779903757851
 20
716.3412841497609
 11
204.779903757851
 21
718.2161140817341
 72
     1
 10
204.779903757851
 20
718.2161140817341
 11
205.4502335408862
 21
718.2161140817341
 72
     1
 10
205.4502335408862
 20
718.2161140817341
 11
205.4502335408862
 21
718.8650936735718
 97
        8
330
335
330
375
330
334
330
376
330
377
330
338
330
337
330
336
 75
     1
 76
     0
 52
45.0
 41
0.1
 77
     0
 78
     1
 53
45.0
 43
0.0
 44
0.0
 45
-0.0707106781186548
 46
0.0707106781186548
 79
     0
 98
        1
 10
0.0
 20
0.0
  0
HATCH
  5
430
330
71
100
AcDbEntity
  8
1
  6
Continuous
 62
     2
100
AcDbHatch
 10
0.0
 20
0.0
 30
0.0
210
0.0
220
0.0
230
1.0
  2
_USER
 70
     0
 71
     1
 91
        1
 92
        1
 93
        8
 72
     1
 10
205.4502335408862
 20
718.8650936735718
 11
203.1237948821145
 21
718.8650936735718
 72
     1
 10
203.1237948821145
 20
718.8650936735718
 11
203.1237948821145
 21
718.2161140817341
 72
     1
 10
203.1237948821145
 20
718.2161140817341
 11
203.7941246651514
 21
718.2161140817341
 72
     1
 10
203.7941246651514
 20
718.2161140817341
 11
203.7941246651514
 21
716.3412841497609
 72
     1
 10
203.7941246651514
 20
716.3412841497609
 11
204.779903757851
 21
716.3412841497609
 72
     1
 10
204.779903757851
 20
716.3412841497609
 11
204.779903757851
 21
718.2161140817341
 72
     1
 10
204.779903757851
 20
718.2161140817341
 11
205.4502335408862
 21
718.2161140817341
 72
     1
 10
205.4502335408862
 20
718.2161140817341
 11
205.4502335408862
 21
718.8650936735718
 97
        8
330
335
330
375
330
334
330
376
330
377
330
338
330
337
330
336
 75
     1
 76
     0
 52
45.0
 41
0.1
 77
     0
 78
     1
 53
45.0
 43
0.0
 44
0.0
 45
-0.0707106781186548
 46
0.0707106781186548
 79
     0
 98
        1
 10
0.0
 20
0.0
  0
HATCH
  5
431
330
71
100
AcDbEntity
  8
1
  6
Continuous
 62
     2
100
AcDbHatch
 10
0.0
 20
0.0
 30
0.0
210
0.0
220
0.0
230
1.0
  2
_USER
 70
     0
 71
     1
 91
        2
 92
        1
 93
        8
 72
     1
 10
207.2175289590242
 20
716.3412841497609
 11
207.0427520553252
 21
716.788358979693
 72
     1
 10
207.0427520553252
 20
716.788358979693
 11
206.1068499258426
 21
716.788358979693
 72
     1
 10
206.1068499258426
 20
716.788358979693
 11
205.9320730221436
 21
716.3412841497609
 72
     1
 10
205.9320730221436
 20
716.3412841497609
 11
204.9068627657362
 21
716.3412841497609
 72
     1
 10
204.9068627657362
 20
716.3412841497609
 11
206.0621958623802
 21
718.8650936735718
 72
     1
 10
206.0621958623802
 20
718.8650936735718
 11
207.0874061187875
 21
718.8650936735718
 72
     1
 10
207.0874061187875
 20
718.8650936735718
 11
208.2427392154324
 21
716.3412841497609
 72
     1
 10
208.2427392154324
 20
716.3412841497609
 11
207.2175289590242
 21
716.3412841497609
 97
        8
330
379
330
37A
330
331
330
37B
330
330
330
333
330
378
330
332
 92
       16
 93
        3
 72
     1
 10
206.3267305466237
 20
717.3508079592852
 11
206.5748009905843
 21
717.9853657824148
 72
     1
 10
206.5748009905843
 20
717.9853657824148
 11
206.8228714345431
 21
717.3508079592852
 72
     1
 10
206.8228714345431
 20
717.3508079592852
 11
206.3267305466237
 21
717.3508079592852
 97
        3
330
32F
330
37D
330
37C
 75
     1
 76
     0
 52
45.0
 41
0.1
 77
     0
 78
     1
 53
45.0
 43
0.0
 44
0.0
 45
-0.0707106781186548
 46
0.0707106781186548
 79
     0
 98
        1
 10
0.0
 20
0.0
  0
HATCH
  5
432
330
71
100
AcDbEntity
  8
1
  6
Continuous
 62
     2
100
AcDbHatch
 10
0.0
 20
0.0
 30
0.0
210
0.0
220
0.0
230
1.0
  2
_USER
 70
     0
 71
     1
 91
        2
 92
        1
 93
        8
 72
     1
 10
207.2175289590242
 20
716.3412841497609
 11
207.0427520553252
 21
716.788358979693
 72
     1
 10
207.0427520553252
 20
716.788358979693
 11
206.1068499258426
 21
716.788358979693
 72
     1
 10
206.1068499258426
 20
716.788358979693
 11
205.9320730221436
 21
716.3412841497609
 72
     1
 10
205.9320730221436
 20
716.3412841497609
 11
204.9068627657362
 21
716.3412841497609
 72
     1
 10
204.9068627657362
 20
716.3412841497609
 11
206.0621958623802
 21
718.8650936735718
 72
     1
 10
206.0621958623802
 20
718.8650936735718
 11
207.0874061187875
 21
718.8650936735718
 72
     1
 10
207.0874061187875
 20
718.8650936735718
 11
208.2427392154324
 21
716.3412841497609
 72
     1
 10
208.2427392154324
 20
716.3412841497609
 11
207.2175289590242
 21
716.3412841497609
 97
        8
330
379
330
37A
330
331
330
37B
330
330
330
333
330
378
330
332
 92
       16
 93
        3
 72
     1
 10
206.3267305466237
 20
717.3508079592852
 11
206.5748009905843
 21
717.9853657824148
 72
     1
 10
206.5748009905843
 20
717.9853657824148
 11
206.8228714345431
 21
717.3508079592852
 72
     1
 10
206.8228714345431
 20
717.3508079592852
 11
206.3267305466237
 21
717.3508079592852
 97
        3
330
32F
330
37D
330
37C
 75
     1
 76
     0
 52
45.0
 41
0.1
 77
     0
 78
     1
 53
45.0
 43
0.0
 44
0.0
 45
-0.0707106781186548
 46
0.0707106781186548
 79
     0
 98
        1
 10
0.0
 20
0.0
  0
HATCH
  5
433
330
71
100
AcDbEntity
  8
1
  6
Continuous
 62
     2
100
AcDbHatch
 10
0.0
 20
0.0
 30
0.0
210
0.0
220
0.0
230
1.0
  2
_USER
 70
     0
 71
     1
 91
        1
 92
        1
 93
        4
 72
     1
 10
208.5654202100869
 20
719.117474625938
 11
207.5402099536795
 21
719.117474625938
 72
     1
 10
207.5402099536795
 20
719.117474625938
 11
207.5402099536795
 21
721.6412841497489
 72
     1
 10
207.5402099536795
 20
721.6412841497489
 11
208.5654202100869
 21
721.6412841497489
 72
     1
 10
208.5654202100869
 20
721.6412841497489
 11
208.5654202100869
 21
719.117474625938
 97
        4
330
32C
330
32E
330
37E
330
32D
 75
     1
 76
     0
 52
45.0
 41
0.1
 77
     0
 78
     1
 53
45.0
 43
0.0
 44
0.0
 45
-0.0707106781186548
 46
0.0707106781186548
 79
     0
 98
        1
 10
0.0
 20
0.0
  0
HATCH
  5
434
330
71
100
AcDbEntity
  8
1
  6
Continuous
 62
     2
100
AcDbHatch
 10
0.0
 20
0.0
 30
0.0
210
0.0
220
0.0
230
1.0
  2
_USER
 70
     0
 71
     1
 91
        1
 92
        1
 93
        4
 72
     1
 10
208.5654202100869
 20
719.117474625938
 11
207.5402099536795
 21
719.117474625938
 72
     1
 10
207.5402099536795
 20
719.117474625938
 11
207.5402099536795
 21
721.6412841497489
 72
     1
 10
207.5402099536795
 20
721.6412841497489
 11
208.5654202100869
 21
721.6412841497489
 72
     1
 10
208.5654202100869
 20
721.6412841497489
 11
208.5654202100869
 21
719.117474625938
 97
        4
330
32C
330
32E
330
37E
330
32D
 75
     1
 76
     0
 52
45.0
 41
0.1
 77
     0
 78
     1
 53
45.0
 43
0.0
 44
0.0
 45
-0.0707106781186548
 46
0.0707106781186548
 79
     0
 98
        1
 10
0.0
 20
0.0
  0
HATCH
  5
435
330
71
100
AcDbEntity
  8
1
  6
Continuous
 62
     2
100
AcDbHatch
 10
0.0
 20
0.0
 30
0.0
210
0.0
220
0.0
230
1.0
  2
_USER
 70
     0
 71
     1
 91
        1
 92
        1
 93
       12
 72
     1
 10
212.0550781982446
 20
721.6412841497489
 11
210.978607429016
 21
720.4239696621157
 72
     1
 10
210.978607429016
 20
720.4239696621157
 11
212.1339405256609
 21
719.117474625938
 72
     1
 10
212.1339405256609
 20
719.117474625938
 11
210.9746643126458
 21
719.117474625938
 72
     1
 10
210.9746643126458
 20
719.117474625938
 11
210.398969322509
 21
719.7684926303131
 72
     1
 10
210.398969322509
 20
719.7684926303131
 11
209.8232743323721
 21
719.117474625938
 72
     1
 10
209.8232743323721
 20
719.117474625938
 11
208.6639981193571
 21
719.117474625938
 72
     1
 10
208.6639981193571
 20
719.117474625938
 11
209.8193312160019
 21
720.4239696621157
 72
     1
 10
209.8193312160019
 20
720.4239696621157
 11
208.7428604467726
 21
721.6412841497489
 72
     1
 10
208.7428604467726
 20
721.6412841497489
 11
209.9021366597885
 21
721.6412841497489
 72
     1
 10
209.9021366597885
 20
721.6412841497489
 11
210.398969322509
 21
721.0794466939179
 72
     1
 10
210.398969322509
 20
721.0794466939179
 11
210.8958019852304
 21
721.6412841497489
 72
     1
 10
210.8958019852304
 20
721.6412841497489
 11
212.0550781982446
 21
721.6412841497489
 97
       12
330
327
330
326
330
325
330
382
330
383
330
37F
330
380
330
32B
330
32A
330
329
330
328
330
381
 75
     1
 76
     0
 52
45.0
 41
0.1
 77
     0
 78
     1
 53
45.0
 43
0.0
 44
0.0
 45
-0.0707106781186548
 46
0.0707106781186548
 79
     0
 98
        1
 10
0.0
 20
0.0
  0
HATCH
  5
436
330
71
100
AcDbEntity
  8
1
  6
Continuous
 62
     2
100
AcDbHatch
 10
0.0
 20
0.0
 30
0.0
210
0.0
220
0.0
230
1.0
  2
_USER
 70
     0
 71
     1
 91
        1
 92
        1
 93
       12
 72
     1
 10
212.0550781982446
 20
721.6412841497489
 11
210.978607429016
 21
720.4239696621157
 72
     1
 10
210.978607429016
 20
720.4239696621157
 11
212.1339405256609
 21
719.117474625938
 72
     1
 10
212.1339405256609
 20
719.117474625938
 11
210.9746643126458
 21
719.117474625938
 72
     1
 10
210.9746643126458
 20
719.117474625938
 11
210.398969322509
 21
719.7684926303131
 72
     1
 10
210.398969322509
 20
719.7684926303131
 11
209.8232743323721
 21
719.117474625938
 72
     1
 10
209.8232743323721
 20
719.117474625938
 11
208.6639981193571
 21
719.117474625938
 72
     1
 10
208.6639981193571
 20
719.117474625938
 11
209.8193312160019
 21
720.4239696621157
 72
     1
 10
209.8193312160019
 20
720.4239696621157
 11
208.7428604467726
 21
721.6412841497489
 72
     1
 10
208.7428604467726
 20
721.6412841497489
 11
209.9021366597885
 21
721.6412841497489
 72
     1
 10
209.9021366597885
 20
721.6412841497489
 11
210.398969322509
 21
721.0794466939179
 72
     1
 10
210.398969322509
 20
721.0794466939179
 11
210.8958019852304
 21
721.6412841497489
 72
     1
 10
210.8958019852304
 20
721.6412841497489
 11
212.0550781982446
 21
721.6412841497489
 97
       12
330
327
330
326
330
325
330
382
330
383
330
37F
330
380
330
32B
330
32A
330
329
330
328
330
381
 75
     1
 76
     0
 52
45.0
 41
0.1
 77
     0
 78
     1
 53
45.0
 43
0.0
 44
0.0
 45
-0.0707106781186548
 46
0.0707106781186548
 79
     0
 98
        1
 10
0.0
 20
0.0
  0
HATCH
  5
437
330
71
100
AcDbEntity
  8
1
  6
Continuous
 62
     2
100
AcDbHatch
 10
0.0
 20
0.0
 30
0.0
210
0.0
220
0.0
230
1.0
  2
_USER
 70
     0
 71
     1
 91
        2
 92
        1
 93
        6
 72
     1
 10
196.3379414923388
 20
719.8968781310156
 11
195.7108608412807
 21
719.8968781310156
 72
     1
 10
195.7108608412807
 20
719.8968781310156
 11
195.7108608412807
 21
719.117474625938
 72
     1
 10
195.7108608412807
 20
719.117474625938
 11
194.6856505848724
 21
719.117474625938
 72
     1
 10
194.6856505848724
 20
719.117474625938
 11
194.6856505848724
 21
721.6412841497489
 72
     1
 10
194.6856505848724
 20
721.6412841497489
 11
196.3379414923388
 21
721.6412841497489
 72
     2
 10
196.3379414923388
 20
720.7690811403822
 40
0.8722030093666717
 50
270.0
 51
450.0
 73
     0
 97
        6
330
34F
330
34E
330
35B
330
35A
330
350
330
395
 92
       16
 93
        4
 72
     2
 10
195.973088164869
 20
720.8016397942852
 40
0.2916229955960716
 50
270.0
 51
450.0
 73
     1
 72
     1
 10
195.973088164869
 20
721.0932627898811
 11
195.7108608412807
 21
721.0932627898811
 72
     1
 10
195.7108608412807
 20
721.0932627898811
 11
195.7108608412807
 21
720.5100167986891
 72
     1
 10
195.7108608412807
 20
720.5100167986891
 11
195.973088164869
 21
720.5100167986891
 97
        4
330
3A9
330
34C
330
35C
330
34D
 75
     1
 76
     0
 52
45.0
 41
0.1
 77
     0
 78
     1
 53
45.0
 43
0.0
 44
0.0
 45
-0.0707106781186548
 46
0.0707106781186548
 79
     0
 98
        1
 10
0.0
 20
0.0
  0
HATCH
  5
438
330
71
100
AcDbEntity
  8
1
  6
Continuous
 62
     2
100
AcDbHatch
 10
0.0
 20
0.0
 30
0.0
210
0.0
220
0.0
230
1.0
  2
_USER
 70
     0
 71
     1
 91
        2
 92
        1
 93
        6
 72
     1
 10
196.3379414923388
 20
719.8968781310156
 11
195.7108608412807
 21
719.8968781310156
 72
     1
 10
195.7108608412807
 20
719.8968781310156
 11
195.7108608412807
 21
719.117474625938
 72
     1
 10
195.7108608412807
 20
719.117474625938
 11
194.6856505848724
 21
719.117474625938
 72
     1
 10
194.6856505848724
 20
719.117474625938
 11
194.6856505848724
 21
721.6412841497489
 72
     1
 10
194.6856505848724
 20
721.6412841497489
 11
196.3379414923388
 21
721.6412841497489
 72
     2
 10
196.3379414923388
 20
720.7690811403822
 40
0.8722030093666717
 50
270.0
 51
450.0
 73
     0
 97
        6
330
34F
330
34E
330
35B
330
35A
330
350
330
395
 92
       16
 93
        4
 72
     2
 10
195.973088164869
 20
720.8016397942852
 40
0.2916229955960716
 50
270.0
 51
450.0
 73
     1
 72
     1
 10
195.973088164869
 20
721.0932627898811
 11
195.7108608412807
 21
721.0932627898811
 72
     1
 10
195.7108608412807
 20
721.0932627898811
 11
195.7108608412807
 21
720.5100167986891
 72
     1
 10
195.7108608412807
 20
720.5100167986891
 11
195.973088164869
 21
720.5100167986891
 97
        4
330
3A9
330
34C
330
35C
330
34D
 75
     1
 76
     0
 52
45.0
 41
0.1
 77
     0
 78
     1
 53
45.0
 43
0.0
 44
0.0
 45
-0.0707106781186548
 46
0.0707106781186548
 79
     0
 98
        1
 10
0.0
 20
0.0
  0
HATCH
  5
439
330
71
100
AcDbEntity
  8
1
  6
Continuous
 62
     2
100
AcDbHatch
 10
0.0
 20
0.0
 30
0.0
210
0.0
220
0.0
230
1.0
  2
_USER
 70
     0
 71
     1
 91
        2
 92
        1
 93
        4
 72
     2
 10
198.4507867389166
 20
717.1580855973663
 40
1.707008076205403
 50
62.45185182430821
 51
117.5481481756681
 73
     1
 72
     2
 10
198.2186050101287
 20
717.6031889116662
 40
1.20498684599291
 50
117.548148175664
 51
242.4518518243384
 73
     1
 72
     2
 10
198.4507867389166
 20
718.0482922259664
 40
1.707008076205438
 50
242.451851824339
 51
297.5481481756847
 73
     1
 72
     2
 10
198.6829684677044
 20
717.6031889116662
 40
1.204986845993431
 50
297.5481481756999
 51
422.4518518242976
 73
     1
 97
        4
330
3A1
330
3A0
330
3A2
330
39F
 92
       16
 93
        4
 72
     2
 10
198.285712328713
 20
717.6031889116662
 40
0.6378510567600058
 50
321.8795802028323
 51
398.1204197971596
 73
     1
 72
     2
 10
198.4507867389166
 20
717.7327188109392
 40
0.4280236140605738
 50
38.12041979716286
 51
141.8795802028536
 73
     1
 72
     2
 10
198.6158611491199
 20
717.6031889116662
 40
0.6378510567598462
 50
141.8795802028341
 51
218.120419797174
 73
     1
 72
     2
 10
198.4507867389166
 20
717.4736590123935
 40
0.4280236140610111
 50
218.1204197971943
 51
321.8795802027893
 73
     1
 97
        4
330
3BD
330
3BA
330
3BB
330
3BC
 75
     1
 76
     0
 52
45.0
 41
0.1
 77
     0
 78
     1
 53
45.0
 43
0.0
 44
0.0
 45
-0.0707106781186548
 46
0.0707106781186548
 79
     0
 98
        1
 10
0.0
 20
0.0
  0
HATCH
  5
43A
330
71
100
AcDbEntity
  8
1
  6
Continuous
 62
     2
100
AcDbHatch
 10
0.0
 20
0.0
 30
0.0
210
0.0
220
0.0
230
1.0
  2
_USER
 70
     0
 71
     1
 91
        2
 92
        1
 93
        4
 72
     2
 10
198.4507867389166
 20
717.1580855973663
 40
1.707008076205403
 50
62.45185182430821
 51
117.5481481756681
 73
     1
 72
     2
 10
198.2186050101287
 20
717.6031889116662
 40
1.20498684599291
 50
117.548148175664
 51
242.4518518243384
 73
     1
 72
     2
 10
198.4507867389166
 20
718.0482922259664
 40
1.707008076205438
 50
242.451851824339
 51
297.5481481756847
 73
     1
 72
     2
 10
198.6829684677044
 20
717.6031889116662
 40
1.204986845993431
 50
297.5481481756999
 51
422.4518518242976
 73
     1
 97
        4
330
3A1
330
3A0
330
3A2
330
39F
 92
       16
 93
        4
 72
     2
 10
198.285712328713
 20
717.6031889116662
 40
0.6378510567600058
 50
321.8795802028323
 51
398.1204197971596
 73
     1
 72
     2
 10
198.4507867389166
 20
717.7327188109392
 40
0.4280236140605738
 50
38.12041979716286
 51
141.8795802028536
 73
     1
 72
     2
 10
198.6158611491199
 20
717.6031889116662
 40
0.6378510567598462
 50
141.8795802028341
 51
218.120419797174
 73
     1
 72
     2
 10
198.4507867389166
 20
717.4736590123935
 40
0.4280236140610111
 50
218.1204197971943
 51
321.8795802027893
 73
     1
 97
        4
330
3BD
330
3BA
330
3BB
330
3BC
 75
     1
 76
     0
 52
45.0
 41
0.1
 77
     0
 78
     1
 53
45.0
 43
0.0
 44
0.0
 45
-0.0707106781186548
 46
0.0707106781186548
 79
     0
 98
        1
 10
0.0
 20
0.0
  0
HATCH
  5
43B
330
71
100
AcDbEntity
  8
1
  6
Continuous
 62
     2
100
AcDbHatch
 10
0.0
 20
0.0
 30
0.0
210
0.0
220
0.0
230
1.0
  2
_USER
 70
     0
 71
     1
 91
        2
 92
        1
 93
       12
 72
     1
 10
204.149129874792
 20
721.064413401449
 11
203.0450572909675
 21
721.064413401449
 72
     1
 10
203.0450572909675
 20
721.064413401449
 11
203.0450572909675
 21
720.667814761993
 72
     1
 10
203.0450572909675
 20
720.667814761993
 11
204.149129874792
 21
720.667814761993
 72
     1
 10
204.149129874792
 20
720.667814761993
 11
204.149129874792
 21
720.0909440136935
 72
     1
 10
204.149129874792
 20
720.0909440136935
 11
203.0450572909675
 21
720.0909440136935
 72
     1
 10
203.0450572909675
 20
720.0909440136935
 11
203.0450572909675
 21
719.6943453742375
 72
     1
 10
203.0450572909675
 20
719.6943453742375
 11
204.149129874792
 21
719.6943453742375
 72
     1
 10
204.149129874792
 20
719.6943453742375
 11
204.149129874792
 21
719.117474625938
 72
     1
 10
204.149129874792
 20
719.117474625938
 11
201.5455598551383
 21
719.117474625938
 72
     2
 10
201.5455598551383
 20
720.3793793878433
 40
1.261904761905612
 50
90.0
 51
270.0
 73
     0
 72
     1
 10
201.5455598551383
 20
721.6412841497489
 11
204.149129874792
 21
721.6412841497489
 72
     1
 10
204.149129874792
 20
721.6412841497489
 11
204.149129874792
 21
721.064413401449
 97
       12
330
363
330
3AA
330
364
330
365
330
366
330
367
330
344
330
343
330
342
330
341
330
368
330
362
 92
       16
 93
        4
 72
     2
 10
201.7242970536219
 20
720.5089092871164
 40
0.4280236140607304
 50
38.12041979714642
 51
141.8795802028465
 73
     1
 72
     2
 10
201.8893714638254
 20
720.3793793878433
 40
0.6378510567599356
 50
141.8795802028404
 51
218.1204197971676
 73
     1
 72
     2
 10
201.7242970536219
 20
720.2498494885701
 40
0.4280236140606632
 50
218.1204197971535
 51
321.8795802028536
 73
     1
 72
     2
 10
201.5592226434185
 20
720.3793793878433
 40
0.6378510567600058
 50
321.8795802028323
 51
398.1204197971596
 73
     1
 97
        4
330
3A4
330
3A3
330
39E
330
39D
 75
     1
 76
     0
 52
45.0
 41
0.1
 77
     0
 78
     1
 53
45.0
 43
0.0
 44
0.0
 45
-0.0707106781186548
 46
0.0707106781186548
 79
     0
 98
        1
 10
0.0
 20
0.0
  0
HATCH
  5
43C
330
71
100
AcDbEntity
  8
1
  6
Continuous
 62
     2
100
AcDbHatch
 10
0.0
 20
0.0
 30
0.0
210
0.0
220
0.0
230
1.0
  2
_USER
 70
     0
 71
     1
 91
        2
 92
        1
 93
       12
 72
     1
 10
204.149129874792
 20
721.064413401449
 11
203.0450572909675
 21
721.064413401449
 72
     1
 10
203.0450572909675
 20
721.064413401449
 11
203.0450572909675
 21
720.667814761993
 72
     1
 10
203.0450572909675
 20
720.667814761993
 11
204.149129874792
 21
720.667814761993
 72
     1
 10
204.149129874792
 20
720.667814761993
 11
204.149129874792
 21
720.0909440136935
 72
     1
 10
204.149129874792
 20
720.0909440136935
 11
203.0450572909675
 21
720.0909440136935
 72
     1
 10
203.0450572909675
 20
720.0909440136935
 11
203.0450572909675
 21
719.6943453742375
 72
     1
 10
203.0450572909675
 20
719.6943453742375
 11
204.149129874792
 21
719.6943453742375
 72
     1
 10
204.149129874792
 20
719.6943453742375
 11
204.149129874792
 21
719.117474625938
 72
     1
 10
204.149129874792
 20
719.117474625938
 11
201.5455598551383
 21
719.117474625938
 72
     2
 10
201.5455598551383
 20
720.3793793878433
 40
1.261904761905612
 50
90.0
 51
270.0
 73
     0
 72
     1
 10
201.5455598551383
 20
721.6412841497489
 11
204.149129874792
 21
721.6412841497489
 72
     1
 10
204.149129874792
 20
721.6412841497489
 11
204.149129874792
 21
721.064413401449
 97
       12
330
363
330
3AA
330
364
330
365
330
366
330
367
330
344
330
343
330
342
330
341
330
368
330
362
 92
       16
 93
        4
 72
     2
 10
201.7242970536219
 20
720.5089092871164
 40
0.4280236140607304
 50
38.12041979714642
 51
141.8795802028465
 73
     1
 72
     2
 10
201.8893714638254
 20
720.3793793878433
 40
0.6378510567599356
 50
141.8795802028404
 51
218.1204197971676
 73
     1
 72
     2
 10
201.7242970536219
 20
720.2498494885701
 40
0.4280236140606632
 50
218.1204197971535
 51
321.8795802028536
 73
     1
 72
     2
 10
201.5592226434185
 20
720.3793793878433
 40
0.6378510567600058
 50
321.8795802028323
 51
398.1204197971596
 73
     1
 97
        4
330
3A4
330
3A3
330
39E
330
39D
 75
     1
 76
     0
 52
45.0
 41
0.1
 77
     0
 78
     1
 53
45.0
 43
0.0
 44
0.0
 45
-0.0707106781186548
 46
0.0707106781186548
 79
     0
 98
        1
 10
0.0
 20
0.0
  0
HATCH
  5
43D
330
71
100
AcDbEntity
  8
1
  6
Continuous
 62
     2
100
AcDbHatch
 10
0.0
 20
0.0
 30
0.0
210
0.0
220
0.0
230
1.0
  2
_USER
 70
     0
 71
     1
 91
        4
 92
        1
 93
        8
 72
     1
 10
194.2913389477924
 20
721.2906687651192
 11
194.2913389477924
 21
716.6918995343752
 72
     2
 10
193.9407235631776
 20
716.6918995343752
 40
0.3506153846143434
 50
0.0
 51
90.0
 73
     0
 72
     1
 10
193.9407235631776
 20
716.3412841497609
 11
189.4173251410975
 21
716.3412841497609
 72
     2
 10
189.4173251410975
 20
716.6918995343752
 40
0.3506153846139171
 50
90.0
 51
180.0
 73
     0
 72
     1
 10
189.0667097564836
 20
716.6918995343752
 11
189.0667097564836
 21
721.2906687651192
 72
     2
 10
189.4173251410975
 20
721.2906687651192
 40
0.3506153846146844
 50
180.0
 51
270.0
 73
     0
 72
     1
 10
189.4173251410975
 20
721.6412841497339
 11
193.9407235631776
 21
721.6412841497339
 72
     2
 10
193.9407235631776
 20
721.2906687651192
 40
0.3506153846147981
 50
270.0
 51
360.0
 73
     0
 97
        8
330
357
330
39A
330
358
330
3A5
330
355
330
39C
330
356
330
39B
 92
       16
 93
        1
 72
     2
 10
191.5822719597071
 20
719.3742371714369
 40
0.3892387874201972
 50
0.0
 51
360.0
 73
     1
 97
        1
330
3C0
 92
       16
 93
        8
 72
     2
 10
192.0366998214928
 20
718.4575912210498
 40
0.2609230769227745
 50
115.3740086783684
 51
180.0
 73
     1
 72
     1
 10
191.7757767445698
 20
718.4575912210498
 11
191.7757767445698
 21
717.9767222898969
 72
     2
 10
192.0366998214928
 20
717.9767222898969
 40
0.2609230769229782
 50
180.0
 51
269.8110329574465
 73
     1
 72
     2
 10
192.0413412556332
 20
719.384023899458
 40
1.668232340440728
 50
269.8110329575882
 51
450.1889670424118
 73
     1
 72
     2
 10
192.0366998214928
 20
720.7913255090192
 40
0.2609230769224678
 50
90.18896704255349
 51
180.0
 73
     1
 72
     1
 10
191.7757767445698
 20
720.7913255090192
 11
191.7757767445698
 21
720.2908831218235
 72
     2
 10
192.0366998214928
 20
720.2908831218235
 40
0.2609230769229782
 50
180.0
 51
244.6259913216317
 73
     1
 72
     2
 10
191.6019537900151
 20
719.3742371714369
 40
0.7535935125160714
 50
295.3740086781938
 51
424.625991321821
 73
     0
 97
        8
330
3B2
330
31E
330
3AF
330
3B0
330
38E
330
31D
330
3B1
330
38D
 92
       16
 93
       12
 72
     2
 10
189.9081471879955
 20
717.1910961155738
 40
0.2609230769220972
 50
180.0
 51
270.0
 73
     1
 72
     1
 10
189.9081471879955
 20
716.930173038651
 11
191.1278440979207
 21
716.930173038651
 72
     2
 10
191.1278440979207
 20
717.1910961155738
 40
0.2609230769228361
 50
270.0
 51
360.0
 73
     1
 72
     1
 10
191.3887671748435
 20
717.1910961155738
 11
191.3887671748435
 21
718.4561960589884
 72
     2
 10
191.1278440979207
 20
718.4561960589884
 40
0.2609230769228077
 50
0.0
 51
64.80558935144161
 73
     1
 72
     2
 10
191.5597320711232
 20
719.3742371714369
 40
0.753634316989858
 50
115.1944106485115
 51
244.8055893514774
 73
     0
 72
     2
 10
191.1278440979207
 20
720.292278283885
 40
0.2609230769223558
 50
295.1944106485584
 51
360.0
 73
     1
 72
     1
 10
191.3887671748435
 20
720.292278283885
 11
191.3887671748435
 21
720.7914721839351
 72
     2
 10
191.1278440979207
 20
720.7914721839351
 40
0.2609230769228077
 50
0.0
 51
90.0
 73
     1
 72
     1
 10
191.1278440979207
 20
721.0523952608576
 11
189.9081471879955
 21
721.0523952608576
 72
     2
 10
189.9081471879955
 20
720.7914721839351
 40
0.2609230769224951
 50
90.0
 51
180.0
 73
     1
 72
     1
 10
189.6472241110734
 20
720.7914721839351
 11
189.6472241110734
 21
717.1910961155738
 97
       12
330
396
330
359
330
399
330
354
330
3A6
330
3A7
330
398
330
353
330
397
330
352
330
3A8
330
351
 75
     1
 76
     0
 52
45.0
 41
0.1
 77
     0
 78
     1
 53
45.0
 43
0.0
 44
0.0
 45
-0.0707106781186548
 46
0.0707106781186548
 79
     0
 98
        1
 10
0.0
 20
0.0
  0
HATCH
  5
43E
330
71
100
AcDbEntity
  8
1
  6
Continuous
 62
     2
100
AcDbHatch
 10
0.0
 20
0.0
 30
0.0
210
0.0
220
0.0
230
1.0
  2
_USER
 70
     0
 71
     1
 91
        4
 92
        1
 93
        8
 72
     1
 10
194.2913389477924
 20
721.2906687651192
 11
194.2913389477924
 21
716.6918995343752
 72
     2
 10
193.9407235631776
 20
716.6918995343752
 40
0.3506153846143434
 50
0.0
 51
90.0
 73
     0
 72
     1
 10
193.9407235631776
 20
716.3412841497609
 11
189.4173251410975
 21
716.3412841497609
 72
     2
 10
189.4173251410975
 20
716.6918995343752
 40
0.3506153846139171
 50
90.0
 51
180.0
 73
     0
 72
     1
 10
189.0667097564836
 20
716.6918995343752
 11
189.0667097564836
 21
721.2906687651192
 72
     2
 10
189.4173251410975
 20
721.2906687651192
 40
0.3506153846146844
 50
180.0
 51
270.0
 73
     0
 72
     1
 10
189.4173251410975
 20
721.6412841497339
 11
193.9407235631776
 21
721.6412841497339
 72
     2
 10
193.9407235631776
 20
721.2906687651192
 40
0.3506153846147981
 50
270.0
 51
360.0
 73
     0
 97
        8
330
357
330
39A
330
358
330
3A5
330
355
330
39C
330
356
330
39B
 92
       16
 93
        1
 72
     2
 10
191.5822719597071
 20
719.3742371714369
 40
0.3892387874201972
 50
0.0
 51
360.0
 73
     1
 97
        1
330
3C0
 92
       16
 93
        8
 72
     2
 10
192.0366998214928
 20
718.4575912210498
 40
0.2609230769227745
 50
115.3740086783684
 51
180.0
 73
     1
 72
     1
 10
191.7757767445698
 20
718.4575912210498
 11
191.7757767445698
 21
717.9767222898969
 72
     2
 10
192.0366998214928
 20
717.9767222898969
 40
0.2609230769229782
 50
180.0
 51
269.8110329574465
 73
     1
 72
     2
 10
192.0413412556332
 20
719.384023899458
 40
1.668232340440728
 50
269.8110329575882
 51
450.1889670424118
 73
     1
 72
     2
 10
192.0366998214928
 20
720.7913255090192
 40
0.2609230769224678
 50
90.18896704255349
 51
180.0
 73
     1
 72
     1
 10
191.7757767445698
 20
720.7913255090192
 11
191.7757767445698
 21
720.2908831218235
 72
     2
 10
192.0366998214928
 20
720.2908831218235
 40
0.2609230769229782
 50
180.0
 51
244.6259913216317
 73
     1
 72
     2
 10
191.6019537900151
 20
719.3742371714369
 40
0.7535935125160714
 50
295.3740086781938
 51
424.625991321821
 73
     0
 97
        8
330
3B2
330
31E
330
3AF
330
3B0
330
38E
330
31D
330
3B1
330
38D
 92
       16
 93
       12
 72
     2
 10
189.9081471879955
 20
717.1910961155738
 40
0.2609230769220972
 50
180.0
 51
270.0
 73
     1
 72
     1
 10
189.9081471879955
 20
716.930173038651
 11
191.1278440979207
 21
716.930173038651
 72
     2
 10
191.1278440979207
 20
717.1910961155738
 40
0.2609230769228361
 50
270.0
 51
360.0
 73
     1
 72
     1
 10
191.3887671748435
 20
717.1910961155738
 11
191.3887671748435
 21
718.4561960589884
 72
     2
 10
191.1278440979207
 20
718.4561960589884
 40
0.2609230769228077
 50
0.0
 51
64.80558935144161
 73
     1
 72
     2
 10
191.5597320711232
 20
719.3742371714369
 40
0.753634316989858
 50
115.1944106485115
 51
244.8055893514774
 73
     0
 72
     2
 10
191.1278440979207
 20
720.292278283885
 40
0.2609230769223558
 50
295.1944106485584
 51
360.0
 73
     1
 72
     1
 10
191.3887671748435
 20
720.292278283885
 11
191.3887671748435
 21
720.7914721839351
 72
     2
 10
191.1278440979207
 20
720.7914721839351
 40
0.2609230769228077
 50
0.0
 51
90.0
 73
     1
 72
     1
 10
191.1278440979207
 20
721.0523952608576
 11
189.9081471879955
 21
721.0523952608576
 72
     2
 10
189.9081471879955
 20
720.7914721839351
 40
0.2609230769224951
 50
90.0
 51
180.0
 73
     1
 72
     1
 10
189.6472241110734
 20
720.7914721839351
 11
189.6472241110734
 21
717.1910961155738
 97
       12
330
396
330
359
330
399
330
354
330
3A6
330
3A7
330
398
330
353
330
397
330
352
330
3A8
330
351
 75
     1
 76
     0
 52
45.0
 41
0.1
 77
     0
 78
     1
 53
45.0
 43
0.0
 44
0.0
 45
-0.0707106781186548
 46
0.0707106781186548
 79
     0
 98
        1
 10
0.0
 20
0.0
  0
HATCH
  5
43F
330
71
100
AcDbEntity
  8
1
  6
Continuous
 62
     2
100
AcDbHatch
 10
0.0
 20
0.0
 30
0.0
210
0.0
220
0.0
230
1.0
  2
_USER
 70
     0
 71
     1
 91
        1
 92
        1
 93
       18
 72
     1
 10
212.1339405256609
 20
718.2161140817341
 11
211.463610742625
 21
718.2161140817341
 72
     1
 10
211.463610742625
 20
718.2161140817341
 11
211.463610742625
 21
716.3412841497609
 72
     1
 10
211.463610742625
 20
716.3412841497609
 11
210.4778316499245
 21
716.3412841497609
 72
     1
 10
210.4778316499245
 20
716.3412841497609
 11
210.4778316499245
 21
718.2161140817341
 72
     1
 10
210.4778316499245
 20
718.2161140817341
 11
209.5657330552401
 21
718.2161140817341
 72
     2
 10
209.5657330552401
 20
717.4272520926215
 40
0.7888619891125472
 50
90.0
 51
109.3371432194291
 73
     1
 72
     2
 10
209.4445181807742
 20
717.772669431781
 40
0.4227934381773005
 50
109.3371432194784
 51
151.4785267424119
 73
     1
 72
     2
 10
209.7563836833209
 20
717.6031889116662
 40
0.7777353184586058
 50
151.4785267423652
 51
208.5214732576716
 73
     1
 72
     2
 10
209.4445181807742
 20
717.4337083915516
 40
0.4227934381784311
 50
208.5214732576829
 51
246.6277221118468
 73
     1
 72
     2
 10
209.5738074639999
 20
717.7328753491632
 40
0.7487023016407311
 50
246.6277221118208
 51
288.4480761180789
 73
     1
 72
     2
 10
209.2282142956843
 20
718.7688635938216
 40
1.840813230556049
 50
288.4480761181319
 51
301.9309089499387
 73
     1
 72
     1
 10
210.2018135039685
 20
717.2065902722102
 11
210.2018135039685
 21
716.4855018368355
 72
     2
 10
209.0977408451944
 20
720.3409417589854
 40
4.010410630990729
 50
74.02000874166195
 51
84.84185523036345
 73
     0
 72
     2
 10
209.3364648904306
 20
717.6964040869015
 40
1.355119937140852
 50
84.84185523032178
 51
164.938108222899
 73
     0
 72
     2
 10
208.9900782429416
 20
717.6031889116662
 40
0.9964100565230259
 50
164.9381082228979
 51
195.0618917770894
 73
     0
 72
     2
 10
209.3364648904306
 20
717.5099737364307
 40
1.355119937140671
 50
195.061891777101
 51
270.0
 73
     0
 72
     1
 10
209.3364648904306
 20
718.8650936735713
 11
212.1339405256609
 21
718.8650936735718
 72
     1
 10
212.1339405256609
 20
718.8650936735718
 11
212.1339405256609
 21
718.2161140817341
 97
       18
330
320
330
3AB
330
3AC
330
394
330
393
330
384
330
392
330
391
330
3AD
330
390
330
3AE
330
38F
330
385
330
31F
330
324
330
323
330
322
330
321
 75
     1
 76
     0
 52
45.0
 41
0.1
 77
     0
 78
     1
 53
45.0
 43
0.0
 44
0.0
 45
-0.0707106781186548
 46
0.0707106781186548
 79
     0
 98
        1
 10
0.0
 20
0.0
  0
HATCH
  5
440
330
71
100
AcDbEntity
  8
1
  6
Continuous
 62
     2
100
AcDbHatch
 10
0.0
 20
0.0
 30
0.0
210
0.0
220
0.0
230
1.0
  2
_USER
 70
     0
 71
     1
 91
        1
 92
        1
 93
       18
 72
     1
 10
212.1339405256609
 20
718.2161140817341
 11
211.463610742625
 21
718.2161140817341
 72
     1
 10
211.463610742625
 20
718.2161140817341
 11
211.463610742625
 21
716.3412841497609
 72
     1
 10
211.463610742625
 20
716.3412841497609
 11
210.4778316499245
 21
716.3412841497609
 72
     1
 10
210.4778316499245
 20
716.3412841497609
 11
210.4778316499245
 21
718.2161140817341
 72
     1
 10
210.4778316499245
 20
718.2161140817341
 11
209.5657330552401
 21
718.2161140817341
 72
     2
 10
209.5657330552401
 20
717.4272520926215
 40
0.7888619891125472
 50
90.0
 51
109.3371432194291
 73
     1
 72
     2
 10
209.4445181807742
 20
717.772669431781
 40
0.4227934381773005
 50
109.3371432194784
 51
151.4785267424119
 73
     1
 72
     2
 10
209.7563836833209
 20
717.6031889116662
 40
0.7777353184586058
 50
151.4785267423652
 51
208.5214732576716
 73
     1
 72
     2
 10
209.4445181807742
 20
717.4337083915516
 40
0.4227934381784311
 50
208.5214732576829
 51
246.6277221118468
 73
     1
 72
     2
 10
209.5738074639999
 20
717.7328753491632
 40
0.7487023016407311
 50
246.6277221118208
 51
288.4480761180789
 73
     1
 72
     2
 10
209.2282142956843
 20
718.7688635938216
 40
1.840813230556049
 50
288.4480761181319
 51
301.9309089499387
 73
     1
 72
     1
 10
210.2018135039685
 20
717.2065902722102
 11
210.2018135039685
 21
716.4855018368355
 72
     2
 10
209.0977408451944
 20
720.3409417589854
 40
4.010410630990729
 50
74.02000874166195
 51
84.84185523036345
 73
     0
 72
     2
 10
209.3364648904306
 20
717.6964040869015
 40
1.355119937140852
 50
84.84185523032178
 51
164.938108222899
 73
     0
 72
     2
 10
208.9900782429416
 20
717.6031889116662
 40
0.9964100565230259
 50
164.9381082228979
 51
195.0618917770894
 73
     0
 72
     2
 10
209.3364648904306
 20
717.5099737364307
 40
1.355119937140671
 50
195.061891777101
 51
270.0
 73
     0
 72
     1
 10
209.3364648904306
 20
718.8650936735713
 11
212.1339405256609
 21
718.8650936735718
 72
     1
 10
212.1339405256609
 20
718.8650936735718
 11
212.1339405256609
 21
718.2161140817341
 97
       18
330
320
330
3AB
330
3AC
330
394
330
393
330
384
330
392
330
391
330
3AD
330
390
330
3AE
330
38F
330
385
330
31F
330
324
330
323
330
322
330
321
 75
     1
 76
     0
 52
45.0
 41
0.1
 77
     0
 78
     1
 53
45.0
 43
0.0
 44
0.0
 45
-0.0707106781186548
 46
0.0707106781186548
 79
     0
 98
        1
 10
0.0
 20
0.0
  0
HATCH
  5
441
330
71
100
AcDbEntity
  8
1
  6
Continuous
 62
     2
100
AcDbHatch
 10
0.0
 20
0.0
 30
0.0
210
0.0
220
0.0
230
1.0
  2
_USER
 70
     0
 71
     1
 91
        1
 92
        1
 93
       14
 72
     2
 10
196.0284471389819
 20
717.5099737364307
 40
1.355119937140984
 50
84.84185523036052
 51
164.9381082228905
 73
     1
 72
     2
 10
195.682060491492
 20
717.6031889116662
 40
0.9964100565214067
 50
164.9381082228855
 51
195.0618917771019
 73
     1
 72
     2
 10
196.0284471389819
 20
717.6964040869015
 40
1.355119937139993
 50
195.0618917770909
 51
275.1581447696416
 73
     1
 72
     2
 10
195.7897230937457
 20
720.3409417589854
 40
4.010410630990197
 50
275.1581447696246
 51
285.9799912583524
 73
     1
 72
     1
 10
196.8937957525207
 20
716.485501836836
 11
196.8937957525207
 21
717.2065902722106
 72
     2
 10
195.9201965442356
 20
718.7688635938221
 40
1.840813230556049
 50
58.069091050038
 51
71.55192388186815
 73
     0
 72
     2
 10
196.2657897125504
 20
717.7328753491632
 40
0.7487023016404492
 50
71.55192388185023
 51
113.3722778881293
 73
     0
 72
     2
 10
196.1365004293255
 20
717.4337083915516
 40
0.4227934381774399
 50
113.3722778881673
 51
151.4785267423142
 73
     0
 72
     2
 10
196.4483659318713
 20
717.6031889116662
 40
0.7777353184572496
 50
151.4785267422948
 51
208.5214732577273
 73
     0
 72
     2
 10
196.1365004293255
 20
717.772669431781
 40
0.4227934381776413
 50
208.5214732576993
 51
246.6277221118143
 73
     0
 72
     2
 10
196.2657897125504
 20
717.473502474169
 40
0.7487023016407734
 50
246.6277221118707
 51
288.4480761181387
 73
     0
 72
     2
 10
195.9201965442356
 20
716.4375142295106
 40
1.840813230556584
 50
288.4480761181319
 51
301.930908949962
 73
     0
 72
     1
 10
196.8937957525207
 20
717.999787551122
 11
196.8937957525207
 21
718.7208759864966
 72
     2
 10
195.7897230937457
 20
714.8654360643473
 40
4.010410630989981
 50
74.0200087416472
 51
84.84185523037543
 73
     1
 97
       14
330
3B3
330
3B4
330
3B5
330
3B6
330
386
330
38C
330
38B
330
38A
330
3B7
330
3B8
330
389
330
3B9
330
387
330
388
 75
     1
 76
     0
 52
45.0
 41
0.1
 77
     0
 78
     1
 53
45.0
 43
0.0
 44
0.0
 45
-0.0707106781186548
 46
0.0707106781186548
 79
     0
 98
        1
 10
0.0
 20
0.0
  0
HATCH
  5
442
330
71
100
AcDbEntity
  8
1
  6
Continuous
 62
     2
100
AcDbHatch
 10
0.0
 20
0.0
 30
0.0
210
0.0
220
0.0
230
1.0
  2
_USER
 70
     0
 71
     1
 91
        1
 92
        1
 93
       14
 72
     2
 10
196.0284471389819
 20
717.5099737364307
 40
1.355119937140984
 50
84.84185523036052
 51
164.9381082228905
 73
     1
 72
     2
 10
195.682060491492
 20
717.6031889116662
 40
0.9964100565214067
 50
164.9381082228855
 51
195.0618917771019
 73
     1
 72
     2
 10
196.0284471389819
 20
717.6964040869015
 40
1.355119937139993
 50
195.0618917770909
 51
275.1581447696416
 73
     1
 72
     2
 10
195.7897230937457
 20
720.3409417589854
 40
4.010410630990197
 50
275.1581447696246
 51
285.9799912583524
 73
     1
 72
     1
 10
196.8937957525207
 20
716.485501836836
 11
196.8937957525207
 21
717.2065902722106
 72
     2
 10
195.9201965442356
 20
718.7688635938221
 40
1.840813230556049
 50
58.069091050038
 51
71.55192388186815
 73
     0
 72
     2
 10
196.2657897125504
 20
717.7328753491632
 40
0.7487023016404492
 50
71.55192388185023
 51
113.3722778881293
 73
     0
 72
     2
 10
196.1365004293255
 20
717.4337083915516
 40
0.4227934381774399
 50
113.3722778881673
 51
151.4785267423142
 73
     0
 72
     2
 10
196.4483659318713
 20
717.6031889116662
 40
0.7777353184572496
 50
151.4785267422948
 51
208.5214732577273
 73
     0
 72
     2
 10
196.1365004293255
 20
717.772669431781
 40
0.4227934381776413
 50
208.5214732576993
 51
246.6277221118143
 73
     0
 72
     2
 10
196.2657897125504
 20
717.473502474169
 40
0.7487023016407734
 50
246.6277221118707
 51
288.4480761181387
 73
     0
 72
     2
 10
195.9201965442356
 20
716.4375142295106
 40
1.840813230556584
 50
288.4480761181319
 51
301.930908949962
 73
     0
 72
     1
 10
196.8937957525207
 20
717.999787551122
 11
196.8937957525207
 21
718.7208759864966
 72
     2
 10
195.7897230937457
 20
714.8654360643473
 40
4.010410630989981
 50
74.0200087416472
 51
84.84185523037543
 73
     1
 97
       14
330
3B3
330
3B4
330
3B5
330
3B6
330
386
330
38C
330
38B
330
38A
330
3B7
330
3B8
330
389
330
3B9
330
387
330
388
 75
     1
 76
     0
 52
45.0
 41
0.1
 77
     0
 78
     1
 53
45.0
 43
0.0
 44
0.0
 45
-0.0707106781186548
 46
0.0707106781186548
 79
     0
 98
        1
 10
0.0
 20
0.0
  0
ENDBLK
  5
73
330
71
100
AcDbEntity
  8
0
100
AcDbBlockEnd
  0
BLOCK
  5
75
330
74
100
AcDbEntity
  8
0
100
AcDbBlockBegin
  2
_punkt
 70
     0
 10
311.9514689224397
 20
710.4912841497551
 30
0.0
  3
_punkt
  1

  0
LINE
  5
443
330
74
100
AcDbEntity
  8
1
  6
Continuous
 62
     2
100
AcDbLine
 10
311.9514689224397
 20
710.4912841497551
 30
0.0
 11
316.9514689224374
 21
710.4912841497551
 31
0.0
  0
LINE
  5
444
330
74
100
AcDbEntity
  8
1
  6
Continuous
 62
     2
100
AcDbLine
 10
311.9514689224397
 20
710.4912841497551
 30
0.0
 11
311.9514689224397
 21
705.4912841497555
 31
0.0
  0
ENDBLK
  5
76
330
74
100
AcDbEntity
  8
0
100
AcDbBlockEnd
  0
BLOCK
  5
7A
330
77
100
AcDbEntity
  8
0
100
AcDbBlockBegin
  2
A3I
 70
     0
 10
311.9514689224397
 20
705.4912841497555
 30
0.0
  3
A3I
  1

  0
INSERT
  5
78
330
77
100
AcDbEntity
  8
1
100
AcDbBlockReference
  2
_rahmen
 10
311.9514689224397
 20
705.4912841497555
 30
0.0
  0
INSERT
  5
79
330
77
100
AcDbEntity
  8
1
100
AcDbBlockReference
  2
_punkt
 10
311.9514689224397
 20
710.4912841497551
 30
0.0
  0
ENDBLK
  5
7B
330
77
100
AcDbEntity
  8
0
100
AcDbBlockEnd
  0
BLOCK
  5
19A
330
193
100
AcDbEntity
  8
0
100
AcDbBlockBegin
  2
*D16
 70
     1
 10
0.0
 20
0.0
 30
0.0
  3
*D16
  1

  0
LINE
  5
194
330
193
100
AcDbEntity
  8
1
  6
Continuous
 62
     2
100
AcDbLine
 10
107.6343126266153
 20
927.7250002099784
 30
0.0
 11
131.6343126266153
 21
927.7250002099784
 31
0.0
  0
LINE
  5
195
330
193
100
AcDbEntity
  8
1
  6
Continuous
 62
     2
100
AcDbLine
 10
131.6343126266153
 20
900.2750002099783
 30
0.0
 11
131.6343126266153
 21
929.7250002099784
 31
0.0
  0
LINE
  5
196
330
193
100
AcDbEntity
  8
1
  6
Continuous
 62
     2
100
AcDbLine
 10
107.6343126266153
 20
900.2750002099783
 30
0.0
 11
107.6343126266153
 21
929.7250002099784
 31
0.0
  0
SOLID
  5
197
330
193
100
AcDbEntity
  8
1
 62
     2
100
AcDbTrace
 10
111.1343126266153
 20
928.1857839515343
 30
0.0
 11
111.1343126266153
 21
927.2642164684224
 31
0.0
 12
107.6343126266153
 22
927.7250002099784
 32
0.0
 13
107.6343126266153
 23
927.7250002099784
 33
0.0
  0
SOLID
  5
198
330
193
100
AcDbEntity
  8
1
 62
     2
100
AcDbTrace
 10
128.1343126266153
 20
927.2642164684224
 30
0.0
 11
128.1343126266153
 21
928.1857839515343
 31
0.0
 12
131.6343126266153
 22
927.7250002099784
 32
0.0
 13
131.6343126266153
 23
927.7250002099784
 33
0.0
  0
MTEXT
  5
199
330
193
100
AcDbEntity
  8
1
 62
     3
100
AcDbMText
 10
117.0093126266153
 20
929.7250002099784
 30
0.0
 40
3.5
 41
0.0
 71
     7
 72
     1
  1
24
  7
CONVERTER_11
 11
0.9999999999970619
 21
2.424068405545306E-6
 31
0.0
 73
     1
 44
0.60024009603842
  0
ENDBLK
  5
19B
330
193
100
AcDbEntity
  8
0
100
AcDbBlockEnd
  0
BLOCK
  5
1A5
330
19E
100
AcDbEntity
  8
0
100
AcDbBlockBegin
  2
*D17
 70
     1
 10
0.0
 20
0.0
 30
0.0
  3
*D17
  1

  0
LINE
  5
19F
330
19E
100
AcDbEntity
  8
1
  6
Continuous
 62
     2
100
AcDbLine
 10
141.6343126266153
 20
900.2750002099783
 30
0.0
 11
141.6343126266153
 21
840.2750002099783
 31
0.0
  0
LINE
  5
1A0
330
19E
100
AcDbEntity
  8
1
  6
Continuous
 62
     2
100
AcDbLine
 10
131.6343126266153
 20
900.2750002099783
 30
0.0
 11
143.6343126266153
 21
900.2750002099783
 31
0.0
  0
LINE
  5
1A1
330
19E
100
AcDbEntity
  8
1
  6
Continuous
 62
     2
100
AcDbLine
 10
119.6343126266153
 20
840.2750002099783
 30
0.0
 11
143.6343126266153
 21
840.2750002099783
 31
0.0
  0
SOLID
  5
1A2
330
19E
100
AcDbEntity
  8
1
 62
     2
100
AcDbTrace
 10
142.0950963681712
 20
896.7750002099783
 30
0.0
 11
141.1735288850594
 21
896.7750002099783
 31
0.0
 12
141.6343126266153
 22
900.2750002099783
 32
0.0
 13
141.6343126266153
 23
900.2750002099783
 33
0.0
  0
SOLID
  5
1A3
330
19E
100
AcDbEntity
  8
1
 62
     2
100
AcDbTrace
 10
141.1735288850594
 20
843.7750002099783
 30
0.0
 11
142.0950963681712
 21
843.7750002099783
 31
0.0
 12
141.6343126266153
 22
840.2750002099783
 32
0.0
 13
141.6343126266153
 23
840.2750002099783
 33
0.0
  0
MTEXT
  5
1A4
330
19E
100
AcDbEntity
  8
1
 62
     3
100
AcDbMText
 10
139.6343126266153
 20
867.6500002099783
 30
0.0
 40
3.5
 41
0.0
 71
     7
 72
     1
  1
60
  7
CONVERTER_11
 11
0.0
 21
1.0
 31
0.0
 73
     1
 44
0.60024009603842
  0
ENDBLK
  5
1A6
330
19E
100
AcDbEntity
  8
0
100
AcDbBlockEnd
  0
BLOCK
  5
1B0
330
1A9
100
AcDbEntity
  8
0
100
AcDbBlockBegin
  2
*D18
 70
     1
 10
0.0
 20
0.0
 30
0.0
  3
*D18
  1

  0
LINE
  5
1AA
330
1A9
100
AcDbEntity
  8
1
  6
Continuous
 62
     2
100
AcDbLine
 10
149.6343126266153
 20
917.7250002099784
 30
0.0
 11
149.6343126266153
 21
840.2750002099783
 31
0.0
  0
LINE
  5
1AB
330
1A9
100
AcDbEntity
  8
1
  6
Continuous
 62
     2
100
AcDbLine
 10
124.6343126266153
 20
917.7250002099784
 30
0.0
 11
151.6343126266153
 21
917.7250002099784
 31
0.0
  0
LINE
  5
1AC
330
1A9
100
AcDbEntity
  8
1
  6
Continuous
 62
     2
100
AcDbLine
 10
119.6343126266153
 20
840.2750002099783
 30
0.0
 11
151.6343126266153
 21
840.2750002099783
 31
0.0
  0
SOLID
  5
1AD
330
1A9
100
AcDbEntity
  8
1
 62
     2
100
AcDbTrace
 10
150.0950963681712
 20
914.2250002099784
 30
0.0
 11
149.1735288850594
 21
914.2250002099784
 31
0.0
 12
149.6343126266153
 22
917.7250002099784
 32
0.0
 13
149.6343126266153
 23
917.7250002099784
 33
0.0
  0
SOLID
  5
1AE
330
1A9
100
AcDbEntity
  8
1
 62
     2
100
AcDbTrace
 10
149.1735288850594
 20
843.7750002099783
 30
0.0
 11
150.0950963681712
 21
843.7750002099783
 31
0.0
 12
149.6343126266153
 22
840.2750002099783
 32
0.0
 13
149.6343126266153
 23
840.2750002099783
 33
0.0
  0
MTEXT
  5
1AF
330
1A9
100
AcDbEntity
  8
1
 62
     3
100
AcDbMText
 10
147.2843126266153
 20
874.1875002099783
 30
0.0
 40
3.5
 41
0.0
 71
     7
 72
     1
  1
77,5
  7
CONVERTER_11
 11
0.0
 21
1.0
 31
0.0
 73
     1
 44
0.60024009603842
  0
ENDBLK
  5
1B1
330
1A9
100
AcDbEntity
  8
0
100
AcDbBlockEnd
  0
BLOCK
  5
234
330
22D
100
AcDbEntity
  8
0
100
AcDbBlockBegin
  2
*D19
 70
     1
 10
0.0
 20
0.0
 30
0.0
  3
*D19
  1

  0
LINE
  5
22E
330
22D
100
AcDbEntity
  8
1
  6
Continuous
 62
     2
100
AcDbLine
 10
52.26862527508007
 20
927.7250002099784
 30
0.0
 11
90.26862527508014
 21
927.7250002099784
 31
0.0
  0
LINE
  5
22F
330
22D
100
AcDbEntity
  8
1
  6
Continuous
 62
     2
100
AcDbLine
 10
90.26862527508014
 20
889.1202327886435
 30
0.0
 11
90.26862527508014
 21
929.7250002099784
 31
0.0
  0
LINE
  5
230
330
22D
100
AcDbEntity
  8
1
  6
Continuous
 62
     2
100
AcDbLine
 10
52.26862527508007
 20
889.1202327886435
 30
0.0
 11
52.26862527508007
 21
929.7250002099784
 31
0.0
  0
SOLID
  5
231
330
22D
100
AcDbEntity
  8
1
 62
     2
100
AcDbTrace
 10
55.76862527508007
 20
928.1857839515343
 30
0.0
 11
55.76862527508007
 21
927.2642164684224
 31
0.0
 12
52.26862527508007
 22
927.7250002099784
 32
0.0
 13
52.26862527508007
 23
927.7250002099784
 33
0.0
  0
SOLID
  5
232
330
22D
100
AcDbEntity
  8
1
 62
     2
100
AcDbTrace
 10
86.76862527508014
 20
927.2642164684224
 30
0.0
 11
86.76862527508014
 21
928.1857839515343
 31
0.0
 12
90.26862527508014
 22
927.7250002099784
 32
0.0
 13
90.26862527508014
 23
927.7250002099784
 33
0.0
  0
MTEXT
  5
233
330
22D
100
AcDbEntity
  8
1
 62
     3
100
AcDbMText
 10
68.6436252750801
 20
929.7250002099784
 30
0.0
 40
3.5
 41
0.0
 71
     7
 72
     1
  1
38
  7
CONVERTER_11
 11
0.9999999999970619
 21
2.424068405545306E-6
 31
0.0
 73
     1
 44
0.60024009603842
  0
ENDBLK
  5
235
330
22D
100
AcDbEntity
  8
0
100
AcDbBlockEnd
  0
ENDSEC
  0
SECTION
  2
ENTITIES
  0
INSERT
  5
7C
330
1F
100
AcDbEntity
  8
0
100
AcDbBlockReference
  2
Allg1
 10
267.0003910067298
 20
804.5000000835998
 30
0.0
  0
INSERT
  5
7D
330
1F
100
AcDbEntity
  8
0
100
AcDbBlockReference
  2
Drfsicht1
 10
71.26862527508001
 20
800.4412830401043
 30
0.0
  0
INSERT
  5
7E
330
1F
100
AcDbEntity
  8
0
100
AcDbBlockReference
  2
Rckans1
 10
187.999999986843
 20
879.00000010499
 30
0.0
  0
INSERT
  5
7F
330
1F
100
AcDbEntity
  8
0
100
AcDbBlockReference
  2
SA_Links1
 10
119.63431264028
 20
879.00000010499
 30
0.0
  0
INSERT
  5
80
330
1F
100
AcDbEntity
  8
0
100
AcDbBlockReference
  2
SA_Rechts1
 10
22.90293788355622
 20
879.00000010499
 30
0.0
  0
INSERT
  5
81
330
1F
100
AcDbEntity
  8
0
100
AcDbBlockReference
  2
Vordans1
 10
71.26862527508007
 20
879.00000010499
 30
0.0
  0
INSERT
  5
82
330
1F
100
AcDbEntity
  8
0
100
AcDbBlockReference
  2
A3I
 10
311.9514689224397
 20
705.4912841497555
 30
0.0
  0
ENDSEC
  0
SECTION
  2
OBJECTS
  0
DICTIONARY
  5
C
330
0
100
AcDbDictionary
281
     1
  3
ACAD_GROUP
350
D
  3
ACAD_LAYOUT
350
1A
  3
ACAD_MATERIAL
350
3B
  3
ACAD_MLEADERSTYLE
350
447
  3
ACAD_MLINESTYLE
350
17
  3
ACAD_PLOTSETTINGS
350
19
  3
ACAD_PLOTSTYLENAME
350
E
  3
ACAD_VISUALSTYLE
350
2A
  3
AcDbVariableDictionary
350
445
  0
DICTIONARY
  5
D
102
{ACAD_REACTORS
330
C
102
}
330
C
100
AcDbDictionary
281
     1
  0
DICTIONARY
  5
1A
102
{ACAD_REACTORS
330
C
102
}
330
C
100
AcDbDictionary
281
     1
  3
Layout1
350
1E
  3
Layout2
350
26
  3
Model
350
22
  0
DICTIONARY
  5
3B
102
{ACAD_REACTORS
330
C
102
}
330
C
100
AcDbDictionary
281
     1
  3
ByBlock
350
3D
  3
ByLayer
350
3C
  3
Global
350
3E
  0
DICTIONARY
  5
447
102
{ACAD_REACTORS
330
C
102
}
330
C
100
AcDbDictionary
281
     1
  0
DICTIONARY
  5
17
102
{ACAD_REACTORS
330
C
102
}
330
C
100
AcDbDictionary
281
     1
  3
Standard
350
18
  0
DICTIONARY
  5
19
102
{ACAD_REACTORS
330
C
102
}
330
C
100
AcDbDictionary
281
     1
  0
ACDBDICTIONARYWDFLT
  5
E
102
{ACAD_REACTORS
330
C
102
}
330
C
100
AcDbDictionary
281
     1
  3
Normal
350
F
100
AcDbDictionaryWithDefault
340
F
  0
DICTIONARY
  5
2A
102
{ACAD_REACTORS
330
C
102
}
330
C
100
AcDbDictionary
281
     1
  3
2dWireframe
350
2F
  3
3D Hidden
350
31
  3
3dWireframe
350
30
  3
Basic
350
32
  3
Brighten
350
36
  3
ColorChange
350
3A
  3
Conceptual
350
34
  3
Dim
350
35
  3
Facepattern
350
39
  3
Flat
350
2B
  3
FlatWithEdges
350
2C
  3
Gouraud
350
2D
  3
GouraudWithEdges
350
2E
  3
Linepattern
350
38
  3
Realistic
350
33
  3
Thicken
350
37
  0
DICTIONARY
  5
445
102
{ACAD_REACTORS
330
C
102
}
330
C
100
AcDbDictionary
281
     1
  3
DIMASSOC
350
448
  3
HIDETEXT
350
449
  0
LAYOUT
  5
1E
102
{ACAD_REACTORS
330
1A
102
}
330
1A
100
AcDbPlotSettings
  1

  2
none_device
  4

  6

 40
0.0
 41
0.0
 42
0.0
 43
0.0
 44
0.0
 45
0.0
 46
0.0
 47
0.0
 48
0.0
 49
0.0
140
0.0
141
0.0
142
1.0
143
1.0
 70
   688
 72
     0
 73
     0
 74
     5
  7

 75
    16
147
1.0
148
0.0
149
0.0
100
AcDbLayout
  1
Layout1
 70
     1
 71
     1
 10
0.0
 20
0.0
 11
12.0
 21
9.0
 12
0.0
 22
0.0
 32
0.0
 14
1.00000000000000E+20
 24
1.00000000000000E+20
 34
1.00000000000000E+20
 15
-1.00000000000000E+20
 25
-1.00000000000000E+20
 35
-1.00000000000000E+20
146
0.0
 13
0.0
 23
0.0
 33
0.0
 16
1.0
 26
0.0
 36
0.0
 17
0.0
 27
1.0
 37
0.0
 76
     0
330
1B
  0
LAYOUT
  5
26
102
{ACAD_REACTORS
330
1A
102
}
330
1A
100
AcDbPlotSettings
  1

  2
none_device
  4

  6

 40
0.0
 41
0.0
 42
0.0
 43
0.0
 44
0.0
 45
0.0
 46
0.0
 47
0.0
 48
0.0
 49
0.0
140
0.0
141
0.0
142
1.0
143
1.0
 70
   688
 72
     0
 73
     0
 74
     5
  7

 75
    16
147
1.0
148
0.0
149
0.0
100
AcDbLayout
  1
Layout2
 70
     1
 71
     2
 10
0.0
 20
0.0
 11
0.0
 21
0.0
 12
0.0
 22
0.0
 32
0.0
 14
0.0
 24
0.0
 34
0.0
 15
0.0
 25
0.0
 35
0.0
146
0.0
 13
0.0
 23
0.0
 33
0.0
 16
1.0
 26
0.0
 36
0.0
 17
0.0
 27
1.0
 37
0.0
 76
     0
330
23
  0
LAYOUT
  5
22
102
{ACAD_REACTORS
330
1A
102
}
330
1A
100
AcDbPlotSettings
  1

  2
none_device
  4

  6

 40
0.0
 41
0.0
 42
0.0
 43
0.0
 44
0.0
 45
0.0
 46
0.0
 47
0.0
 48
0.0
 49
0.0
140
0.0
141
0.0
142
1.0
143
1.0
 70
  1712
 72
     0
 73
     0
 74
     0
  7

 75
     0
147
1.0
148
0.0
149
0.0
100
AcDbLayout
  1
Model
 70
     1
 71
     0
 10
0.0
 20
0.0
 11
12.0
 21
9.0
 12
0.0
 22
0.0
 32
0.0
 14
-103.048531077561
 24
705.4912841497555
 34
0.0
 15
316.9514689224374
 25
1002.491284149756
 35
0.0
146
0.0
 13
0.0
 23
0.0
 33
0.0
 16
1.0
 26
0.0
 36
0.0
 17
0.0
 27
1.0
 37
0.0
 76
     0
330
1F
331
29
  0
MATERIAL
  5
3D
102
{ACAD_REACTORS
330
3B
102
}
102
{ACAD_XDICTIONARY
360
46C
102
}
330
3B
100
AcDbMaterial
  1
ByBlock
  0
MATERIAL
  5
3C
102
{ACAD_REACTORS
330
3B
102
}
102
{ACAD_XDICTIONARY
360
46A
102
}
330
3B
100
AcDbMaterial
  1
ByLayer
  0
MATERIAL
  5
3E
102
{ACAD_REACTORS
330
3B
102
}
102
{ACAD_XDICTIONARY
360
46E
102
}
330
3B
100
AcDbMaterial
  1
Global
  0
MLINESTYLE
  5
18
102
{ACAD_REACTORS
330
17
102
}
330
17
100
AcDbMlineStyle
  2
Standard
 70
     0
  3

 62
   256
 51
90.0
 52
90.0
 71
     2
 49
0.5
 62
   256
  6
BYLAYER
 49
-0.5
 62
   256
  6
BYLAYER
  0
ACDBPLACEHOLDER
  5
F
102
{ACAD_REACTORS
330
E
102
}
330
E
  0
VISUALSTYLE
  5
2F
102
{ACAD_REACTORS
330
2A
102
}
102
{ACAD_XDICTIONARY
360
452
102
}
330
2A
100
AcDbVisualStyle
  2
2dWireframe
 70
     4
 71
     0
 72
     2
 73
     0
 90
        0
 40
-0.6
 41
-30.0
 62
     5
 63
     7
 74
     1
 91
        4
 64
     7
 65
   257
 75
     1
175
     1
 42
1.0
 92
        0
 66
   257
 43
1.0
 76
     1
 77
     6
 78
     2
 67
     7
 79
     5
170
     0
171
     0
290
     0
174
     0
 93
        1
 44
0.0
173
     0
291
     0
 45
0.0
1001
ACAD
1000
AcDbSavedByObjectVersion
1070
     0
  0
VISUALSTYLE
  5
31
102
{ACAD_REACTORS
330
2A
102
}
102
{ACAD_XDICTIONARY
360
456
102
}
330
2A
100
AcDbVisualStyle
  2
3D Hidden
 70
     6
 71
     1
 72
     2
 73
     2
 90
        0
 40
-0.6
 41
-30.0
 62
     5
 63
     7
 74
     2
 91
        2
 64
     7
 65
   257
 75
     2
175
     1
 42
40.0
 92
        0
 66
   257
 43
1.0
 76
     1
 77
     6
 78
     2
 67
     7
 79
     3
170
     0
171
     0
290
     0
174
     0
 93
        1
 44
0.0
173
     0
291
     0
 45
0.0
1001
ACAD
1000
AcDbSavedByObjectVersion
1070
     0
  0
VISUALSTYLE
  5
30
102
{ACAD_REACTORS
330
2A
102
}
102
{ACAD_XDICTIONARY
360
454
102
}
330
2A
100
AcDbVisualStyle
  2
3dWireframe
 70
     5
 71
     0
 72
     2
 73
     0
 90
        0
 40
-0.6
 41
-30.0
 62
     5
 63
     7
 74
     1
 91
        4
 64
     7
 65
   257
 75
     1
175
     1
 42
1.0
 92
        0
 66
   257
 43
1.0
 76
     1
 77
     6
 78
     2
 67
     7
 79
     5
170
     0
171
     0
290
     0
174
     0
 93
        1
 44
0.0
173
     0
291
     0
 45
0.0
1001
ACAD
1000
AcDbSavedByObjectVersion
1070
     0
  0
VISUALSTYLE
  5
32
102
{ACAD_REACTORS
330
2A
102
}
102
{ACAD_XDICTIONARY
360
458
102
}
330
2A
100
AcDbVisualStyle
  2
Basic
 70
     7
 71
     1
 72
     0
 73
     1
 90
        0
 40
-0.6
 41
-30.0
 62
     5
 63
     7
 74
     0
 91
        4
 64
     7
 65
   257
 75
     1
175
     1
 42
1.0
 92
        8
 66
     7
 43
1.0
 76
     1
 77
     6
 78
     2
 67
     7
 79
     5
170
     0
171
     0
290
     0
174
     0
 93
        1
 44
0.0
173
     0
291
     1
 45
0.0
1001
ACAD
1000
AcDbSavedByObjectVersion
1070
     0
  0
VISUALSTYLE
  5
36
102
{ACAD_REACTORS
330
2A
102
}
102
{ACAD_XDICTIONARY
360
460
102
}
330
2A
100
AcDbVisualStyle
  2
Brighten
 70
    12
 71
     2
 72
     2
 73
     0
 90
        0
 40
-0.6
 41
-30.0
 62
     5
 63
     7
 74
     1
 91
        4
 64
     7
 65
   257
 75
     1
175
     1
 42
1.0
 92
        8
 66
     7
 43
1.0
 76
     1
 77
     6
 78
     2
 67
     7
 79
     5
170
     0
171
     0
290
     0
174
     0
 93
        1
 44
50.0
173
     0
291
     1
 45
0.0
1001
ACAD
1000
AcDbSavedByObjectVersion
1070
     0
  0
VISUALSTYLE
  5
3A
102
{ACAD_REACTORS
330
2A
102
}
102
{ACAD_XDICTIONARY
360
468
102
}
330
2A
100
AcDbVisualStyle
  2
ColorChange
 70
    16
 71
     2
 72
     2
 73
     3
 90
        0
 40
-0.6
 41
-30.0
 62
     5
 63
     8
 74
     1
 91
        4
 64
     7
 65
   257
 75
     1
175
     1
 42
1.0
 92
        8
 66
     8
 43
1.0
 76
     1
 77
     6
 78
     2
 67
     7
 79
     5
170
     0
171
     0
290
     0
174
     0
 93
        1
 44
0.0
173
     0
291
     1
 45
0.0
1001
ACAD
1000
AcDbSavedByObjectVersion
1070
     0
  0
VISUALSTYLE
  5
34
102
{ACAD_REACTORS
330
2A
102
}
102
{ACAD_XDICTIONARY
360
45C
102
}
330
2A
100
AcDbVisualStyle
  2
Conceptual
 70
     9
 71
     3
 72
     2
 73
     0
 90
        0
 40
-0.6
 41
-30.0
 62
     5
 63
     7
 74
     2
 91
        2
 64
     7
 65
   257
 75
     1
175
     1
 42
40.0
 92
        8
 66
     7
 43
1.0
 76
     1
 77
     6
 78
     2
 67
     7
 79
     3
170
     0
171
     0
290
     0
174
     0
 93
        1
 44
0.0
173
     0
291
     0
 45
0.0
1001
ACAD
1000
AcDbSavedByObjectVersion
1070
     0
  0
VISUALSTYLE
  5
35
102
{ACAD_REACTORS
330
2A
102
}
102
{ACAD_XDICTIONARY
360
45E
102
}
330
2A
100
AcDbVisualStyle
  2
Dim
 70
    11
 71
     2
 72
     2
 73
     0
 90
        0
 40
-0.6
 41
-30.0
 62
     5
 63
     7
 74
     1
 91
        4
 64
     7
 65
   257
 75
     1
175
     1
 42
1.0
 92
        8
 66
     7
 43
1.0
 76
     1
 77
     6
 78
     2
 67
     7
 79
     5
170
     0
171
     0
290
     0
174
     0
 93
        1
 44
-50.0
173
     0
291
     1
 45
0.0
1001
ACAD
1000
AcDbSavedByObjectVersion
1070
     0
  0
VISUALSTYLE
  5
39
102
{ACAD_REACTORS
330
2A
102
}
102
{ACAD_XDICTIONARY
360
466
102
}
330
2A
100
AcDbVisualStyle
  2
Facepattern
 70
    15
 71
     2
 72
     2
 73
     0
 90
        0
 40
-0.6
 41
-30.0
 62
     5
 63
     7
 74
     1
 91
        4
 64
     7
 65
   257
 75
     1
175
     1
 42
1.0
 92
        8
 66
     7
 43
1.0
 76
     1
 77
     6
 78
     2
 67
     7
 79
     5
170
     0
171
     0
290
     0
174
     0
 93
        1
 44
0.0
173
     0
291
     1
 45
0.0
1001
ACAD
1000
AcDbSavedByObjectVersion
1070
     0
  0
VISUALSTYLE
  5
2B
102
{ACAD_REACTORS
330
2A
102
}
102
{ACAD_XDICTIONARY
360
44A
102
}
330
2A
100
AcDbVisualStyle
  2
Flat
 70
     0
 71
     2
 72
     1
 73
     1
 90
        2
 40
-0.6
 41
30.0
 62
     5
 63
     7
 74
     0
 91
        4
 64
     7
 65
   257
 75
     1
175
     1
 42
1.0
 92
        8
 66
     7
 43
1.0
 76
     1
 77
     6
 78
     2
 67
     7
 79
     5
170
     0
171
     0
290
     0
174
     0
 93
       13
 44
0.0
173
     0
291
     1
 45
0.0
1001
ACAD
1000
AcDbSavedByObjectVersion
1070
     0
  0
VISUALSTYLE
  5
2C
102
{ACAD_REACTORS
330
2A
102
}
102
{ACAD_XDICTIONARY
360
44C
102
}
330
2A
100
AcDbVisualStyle
  2
FlatWithEdges
 70
     1
 71
     2
 72
     1
 73
     1
 90
        2
 40
-0.6
 41
30.0
 62
     5
 63
     7
 74
     1
 91
        4
 64
     7
 65
   257
 75
     1
175
     1
 42
1.0
 92
        0
 66
   257
 43
1.0
 76
     1
 77
     6
 78
     2
 67
     7
 79
     5
170
     0
171
     0
290
     0
174
     0
 93
       13
 44
0.0
173
     0
291
     1
 45
0.0
1001
ACAD
1000
AcDbSavedByObjectVersion
1070
     0
  0
VISUALSTYLE
  5
2D
102
{ACAD_REACTORS
330
2A
102
}
102
{ACAD_XDICTIONARY
360
44E
102
}
330
2A
100
AcDbVisualStyle
  2
Gouraud
 70
     2
 71
     2
 72
     2
 73
     1
 90
        2
 40
-0.6
 41
30.0
 62
     5
 63
     7
 74
     0
 91
        4
 64
     7
 65
   257
 75
     1
175
     1
 42
1.0
 92
        0
 66
     7
 43
1.0
 76
     1
 77
     6
 78
     2
 67
     7
 79
     5
170
     0
171
     0
290
     0
174
     0
 93
       13
 44
0.0
173
     0
291
     1
 45
0.0
1001
ACAD
1000
AcDbSavedByObjectVersion
1070
     0
  0
VISUALSTYLE
  5
2E
102
{ACAD_REACTORS
330
2A
102
}
102
{ACAD_XDICTIONARY
360
450
102
}
330
2A
100
AcDbVisualStyle
  2
GouraudWithEdges
 70
     3
 71
     2
 72
     2
 73
     1
 90
        2
 40
-0.6
 41
30.0
 62
     5
 63
     7
 74
     1
 91
        4
 64
     7
 65
   257
 75
     1
175
     1
 42
1.0
 92
        0
 66
   257
 43
1.0
 76
     1
 77
     6
 78
     2
 67
     7
 79
     5
170
     0
171
     0
290
     0
174
     0
 93
       13
 44
0.0
173
     0
291
     1
 45
0.0
1001
ACAD
1000
AcDbSavedByObjectVersion
1070
     0
  0
VISUALSTYLE
  5
38
102
{ACAD_REACTORS
330
2A
102
}
102
{ACAD_XDICTIONARY
360
464
102
}
330
2A
100
AcDbVisualStyle
  2
Linepattern
 70
    14
 71
     2
 72
     2
 73
     0
 90
        0
 40
-0.6
 41
-30.0
 62
     5
 63
     7
 74
     1
 91
        4
 64
     7
 65
   257
 75
     7
175
     7
 42
1.0
 92
        8
 66
     7
 43
1.0
 76
     1
 77
     6
 78
     2
 67
     7
 79
     5
170
     0
171
     0
290
     0
174
     0
 93
        1
 44
0.0
173
     0
291
     1
 45
0.0
1001
ACAD
1000
AcDbSavedByObjectVersion
1070
     0
  0
VISUALSTYLE
  5
33
102
{ACAD_REACTORS
330
2A
102
}
102
{ACAD_XDICTIONARY
360
45A
102
}
330
2A
100
AcDbVisualStyle
  2
Realistic
 70
     8
 71
     2
 72
     2
 73
     0
 90
        0
 40
-0.6
 41
-30.0
 62
     5
 63
     7
 74
     1
 91
        0
 64
     7
 65
   257
 75
     1
175
     1
 42
1.0
 92
        8
 66
     8
 43
1.0
 76
     1
 77
     6
 78
     2
 67
     7
 79
     5
170
     0
171
     0
290
     0
174
     0
 93
       13
 44
0.0
173
     0
291
     0
 45
0.0
1001
ACAD
1000
AcDbSavedByObjectVersion
1070
     0
  0
VISUALSTYLE
  5
37
102
{ACAD_REACTORS
330
2A
102
}
102
{ACAD_XDICTIONARY
360
462
102
}
330
2A
100
AcDbVisualStyle
  2
Thicken
 70
    13
 71
     2
 72
     2
 73
     0
 90
        0
 40
-0.6
 41
-30.0
 62
     5
 63
     7
 74
     1
 91
        4
 64
     7
 65
   257
 75
     1
175
     1
 42
1.0
 92
       12
 66
     7
 43
1.0
 76
     1
 77
     6
 78
     2
 67
     7
 79
     5
170
     0
171
     0
290
     0
174
     0
 93
        1
 44
0.0
173
     0
291
     1
 45
0.0
1001
ACAD
1000
AcDbSavedByObjectVersion
1070
     0
  0
DICTIONARYVAR
  5
448
102
{ACAD_REACTORS
330
445
102
}
330
445
100
DictionaryVariables
280
     0
  1
2
  0
DICTIONARYVAR
  5
449
102
{ACAD_REACTORS
330
445
102
}
330
445
100
DictionaryVariables
280
     0
  1
1
  0
DICTIONARY
  5
46C
330
3D
100
AcDbDictionary
280
     1
281
     1
  3
ACAD_XREC_ROUNDTRIP
360
46D
  0
DICTIONARY
  5
46A
330
3C
100
AcDbDictionary
280
     1
281
     1
  3
ACAD_XREC_ROUNDTRIP
360
46B
  0
DICTIONARY
  5
46E
330
3E
100
AcDbDictionary
280
     1
281
     1
  3
ACAD_XREC_ROUNDTRIP
360
46F
  0
DICTIONARY
  5
452
330
2F
100
AcDbDictionary
280
     1
281
     1
  3
ACAD_XREC_ROUNDTRIP
360
453
  0
DICTIONARY
  5
456
330
31
100
AcDbDictionary
280
     1
281
     1
  3
ACAD_XREC_ROUNDTRIP
360
457
  0
DICTIONARY
  5
454
330
30
100
AcDbDictionary
280
     1
281
     1
  3
ACAD_XREC_ROUNDTRIP
360
455
  0
DICTIONARY
  5
458
330
32
100
AcDbDictionary
280
     1
281
     1
  3
ACAD_XREC_ROUNDTRIP
360
459
  0
DICTIONARY
  5
460
330
36
100
AcDbDictionary
280
     1
281
     1
  3
ACAD_XREC_ROUNDTRIP
360
461
  0
DICTIONARY
  5
468
330
3A
100
AcDbDictionary
280
     1
281
     1
  3
ACAD_XREC_ROUNDTRIP
360
469
  0
DICTIONARY
  5
45C
330
34
100
AcDbDictionary
280
     1
281
     1
  3
ACAD_XREC_ROUNDTRIP
360
45D
  0
DICTIONARY
  5
45E
330
35
100
AcDbDictionary
280
     1
281
     1
  3
ACAD_XREC_ROUNDTRIP
360
45F
  0
DICTIONARY
  5
466
330
39
100
AcDbDictionary
280
     1
281
     1
  3
ACAD_XREC_ROUNDTRIP
360
467
  0
DICTIONARY
  5
44A
330
2B
100
AcDbDictionary
280
     1
281
     1
  3
ACAD_XREC_ROUNDTRIP
360
44B
  0
DICTIONARY
  5
44C
330
2C
100
AcDbDictionary
280
     1
281
     1
  3
ACAD_XREC_ROUNDTRIP
360
44D
  0
DICTIONARY
  5
44E
330
2D
100
AcDbDictionary
280
     1
281
     1
  3
ACAD_XREC_ROUNDTRIP
360
44F
  0
DICTIONARY
  5
450
330
2E
100
AcDbDictionary
280
     1
281
     1
  3
ACAD_XREC_ROUNDTRIP
360
451
  0
DICTIONARY
  5
464
330
38
100
AcDbDictionary
280
     1
281
     1
  3
ACAD_XREC_ROUNDTRIP
360
465
  0
DICTIONARY
  5
45A
330
33
100
AcDbDictionary
280
     1
281
     1
  3
ACAD_XREC_ROUNDTRIP
360
45B
  0
DICTIONARY
  5
462
330
37
100
AcDbDictionary
280
     1
281
     1
  3
ACAD_XREC_ROUNDTRIP
360
463
  0
XRECORD
  5
46D
102
{ACAD_REACTORS
330
46C
102
}
330
46C
100
AcDbXrecord
280
     1
102
MATERIAL
148
0.0
149
0.0
149
0.0
 93
        0
 94
      127
282
     0
 72
     1
 77
     1
171
     1
175
     1
179
     1
273
     0
  0
XRECORD
  5
46B
102
{ACAD_REACTORS
330
46A
102
}
330
46A
100
AcDbXrecord
280
     1
102
MATERIAL
148
0.0
149
0.0
149
0.0
 93
        0
 94
      127
282
     0
 72
     1
 77
     1
171
     1
175
     1
179
     1
273
     0
  0
XRECORD
  5
46F
102
{ACAD_REACTORS
330
46E
102
}
330
46E
100
AcDbXrecord
280
     1
102
MATERIAL
148
0.0
149
0.0
149
0.0
 93
        0
 94
      127
282
     0
 72
     1
 77
     1
171
     1
175
     1
179
     1
273
     0
  0
XRECORD
  5
453
102
{ACAD_REACTORS
330
452
102
}
330
452
100
AcDbXrecord
280
     1
102
RTVSPropertyOp0
 70
     1
102
RTVSPropertyOp1
 70
     1
102
RTVSPropertyOp2
 70
     1
102
RTVSPropertyOp3
 70
     1
102
RTVSPropertyOp4
 70
     1
102
RTVSPropertyOp5
 70
     1
102
RTVSPropertyOp6
 70
     1
102
RTVSPropertyOp7
 70
     1
102
RTVSPropertyOp8
 70
     1
102
RTVSPropertyOp9
 70
     1
102
RTVSPropertyOp10
 70
     1
102
RTVSPropertyOp11
 70
     1
102
RTVSPropertyOp12
 70
     1
102
RTVSPropertyOp13
 70
     1
102
RTVSPropertyOp14
 70
     1
102
RTVSPropertyOp15
 70
     1
102
RTVSPropertyOp16
 70
     1
102
RTVSPropertyOp17
 70
     1
102
RTVSPropertyOp18
 70
     1
102
RTVSPropertyOp19
 70
     1
102
RTVSPropertyOp20
 70
     1
102
RTVSPropertyOp21
 70
     1
102
RTVSPropertyOp22
 70
     1
102
RTVSPropertyOp23
 70
     1
102
RTVSPropertyOp24
 70
     1
102
RTVSPropertyOp25
 70
     1
102
RTVSPropertyOp26
 70
     1
102
RTVSPropertyOp27
 70
     1
102
RTVSPropertyOp28
 70
     1
102
RTVSPropertyOp29
 70
     1
102
RTVSPropertyOp30
 70
     1
102
RTVSPropertyOp31
 70
     1
102
RTVSPropertyOp32
 70
     1
  0
XRECORD
  5
457
102
{ACAD_REACTORS
330
456
102
}
330
456
100
AcDbXrecord
280
     1
102
RTVSPropertyOp0
 70
     1
102
RTVSPropertyOp1
 70
     1
102
RTVSPropertyOp2
 70
     1
102
RTVSPropertyOp3
 70
     1
102
RTVSPropertyOp4
 70
     1
102
RTVSPropertyOp5
 70
     1
102
RTVSPropertyOp6
 70
     1
102
RTVSPropertyOp7
 70
     1
102
RTVSPropertyOp8
 70
     1
102
RTVSPropertyOp9
 70
     1
102
RTVSPropertyOp10
 70
     1
102
RTVSPropertyOp11
 70
     1
102
RTVSPropertyOp12
 70
     1
102
RTVSPropertyOp13
 70
     1
102
RTVSPropertyOp14
 70
     1
102
RTVSPropertyOp15
 70
     1
102
RTVSPropertyOp16
 70
     1
102
RTVSPropertyOp17
 70
     1
102
RTVSPropertyOp18
 70
     1
102
RTVSPropertyOp19
 70
     1
102
RTVSPropertyOp20
 70
     1
102
RTVSPropertyOp21
 70
     1
102
RTVSPropertyOp22
 70
     1
102
RTVSPropertyOp23
 70
     1
102
RTVSPropertyOp24
 70
     1
102
RTVSPropertyOp25
 70
     1
102
RTVSPropertyOp26
 70
     1
102
RTVSPropertyOp27
 70
     1
102
RTVSPropertyOp28
 70
     1
102
RTVSPropertyOp29
 70
     1
102
RTVSPropertyOp30
 70
     1
102
RTVSPropertyOp31
 70
     1
102
RTVSPropertyOp32
 70
     1
  0
XRECORD
  5
455
102
{ACAD_REACTORS
330
454
102
}
330
454
100
AcDbXrecord
280
     1
102
RTVSPropertyOp0
 70
     1
102
RTVSPropertyOp1
 70
     1
102
RTVSPropertyOp2
 70
     1
102
RTVSPropertyOp3
 70
     1
102
RTVSPropertyOp4
 70
     1
102
RTVSPropertyOp5
 70
     1
102
RTVSPropertyOp6
 70
     1
102
RTVSPropertyOp7
 70
     1
102
RTVSPropertyOp8
 70
     1
102
RTVSPropertyOp9
 70
     1
102
RTVSPropertyOp10
 70
     1
102
RTVSPropertyOp11
 70
     1
102
RTVSPropertyOp12
 70
     1
102
RTVSPropertyOp13
 70
     1
102
RTVSPropertyOp14
 70
     1
102
RTVSPropertyOp15
 70
     1
102
RTVSPropertyOp16
 70
     1
102
RTVSPropertyOp17
 70
     1
102
RTVSPropertyOp18
 70
     1
102
RTVSPropertyOp19
 70
     1
102
RTVSPropertyOp20
 70
     1
102
RTVSPropertyOp21
 70
     1
102
RTVSPropertyOp22
 70
     1
102
RTVSPropertyOp23
 70
     1
102
RTVSPropertyOp24
 70
     1
102
RTVSPropertyOp25
 70
     1
102
RTVSPropertyOp26
 70
     1
102
RTVSPropertyOp27
 70
     1
102
RTVSPropertyOp28
 70
     1
102
RTVSPropertyOp29
 70
     1
102
RTVSPropertyOp30
 70
     1
102
RTVSPropertyOp31
 70
     1
102
RTVSPropertyOp32
 70
     1
  0
XRECORD
  5
459
102
{ACAD_REACTORS
330
458
102
}
330
458
100
AcDbXrecord
280
     1
102
RTVSPropertyOp0
 70
     1
102
RTVSPropertyOp1
 70
     1
102
RTVSPropertyOp2
 70
     1
102
RTVSPropertyOp3
 70
     1
102
RTVSPropertyOp4
 70
     1
102
RTVSPropertyOp5
 70
     1
102
RTVSPropertyOp6
 70
     1
102
RTVSPropertyOp7
 70
     1
102
RTVSPropertyOp8
 70
     1
102
RTVSPropertyOp9
 70
     1
102
RTVSPropertyOp10
 70
     1
102
RTVSPropertyOp11
 70
     1
102
RTVSPropertyOp12
 70
     1
102
RTVSPropertyOp13
 70
     1
102
RTVSPropertyOp14
 70
     1
102
RTVSPropertyOp15
 70
     1
102
RTVSPropertyOp16
 70
     1
102
RTVSPropertyOp17
 70
     1
102
RTVSPropertyOp18
 70
     1
102
RTVSPropertyOp19
 70
     1
102
RTVSPropertyOp20
 70
     1
102
RTVSPropertyOp21
 70
     1
102
RTVSPropertyOp22
 70
     1
102
RTVSPropertyOp23
 70
     1
102
RTVSPropertyOp24
 70
     1
102
RTVSPropertyOp25
 70
     1
102
RTVSPropertyOp26
 70
     1
102
RTVSPropertyOp27
 70
     1
102
RTVSPropertyOp28
 70
     1
102
RTVSPropertyOp29
 70
     1
102
RTVSPropertyOp30
 70
     1
102
RTVSPropertyOp31
 70
     1
102
RTVSPropertyOp32
 70
     1
  0
XRECORD
  5
461
102
{ACAD_REACTORS
330
460
102
}
330
460
100
AcDbXrecord
280
     1
102
RTVSPropertyOp0
 70
     1
102
RTVSPropertyOp1
 70
     1
102
RTVSPropertyOp2
 70
     1
102
RTVSPropertyOp3
 70
     1
102
RTVSPropertyOp4
 70
     1
102
RTVSPropertyOp5
 70
     1
102
RTVSPropertyOp6
 70
     1
102
RTVSPropertyOp7
 70
     1
102
RTVSPropertyOp8
 70
     1
102
RTVSPropertyOp9
 70
     1
102
RTVSPropertyOp10
 70
     1
102
RTVSPropertyOp11
 70
     1
102
RTVSPropertyOp12
 70
     1
102
RTVSPropertyOp13
 70
     1
102
RTVSPropertyOp14
 70
     1
102
RTVSPropertyOp15
 70
     1
102
RTVSPropertyOp16
 70
     1
102
RTVSPropertyOp17
 70
     1
102
RTVSPropertyOp18
 70
     1
102
RTVSPropertyOp19
 70
     1
102
RTVSPropertyOp20
 70
     1
102
RTVSPropertyOp21
 70
     1
102
RTVSPropertyOp22
 70
     1
102
RTVSPropertyOp23
 70
     1
102
RTVSPropertyOp24
 70
     1
102
RTVSPropertyOp25
 70
     1
102
RTVSPropertyOp26
 70
     1
102
RTVSPropertyOp27
 70
     1
102
RTVSPropertyOp28
 70
     1
102
RTVSPropertyOp29
 70
     1
102
RTVSPropertyOp30
 70
     1
102
RTVSPropertyOp31
 70
     1
102
RTVSPropertyOp32
 70
     1
  0
XRECORD
  5
469
102
{ACAD_REACTORS
330
468
102
}
330
468
100
AcDbXrecord
280
     1
102
RTVSPropertyOp0
 70
     1
102
RTVSPropertyOp1
 70
     1
102
RTVSPropertyOp2
 70
     1
102
RTVSPropertyOp3
 70
     1
102
RTVSPropertyOp4
 70
     1
102
RTVSPropertyOp5
 70
     1
102
RTVSPropertyOp6
 70
     1
102
RTVSPropertyOp7
 70
     1
102
RTVSPropertyOp8
 70
     1
102
RTVSPropertyOp9
 70
     1
102
RTVSPropertyOp10
 70
     1
102
RTVSPropertyOp11
 70
     1
102
RTVSPropertyOp12
 70
     1
102
RTVSPropertyOp13
 70
     1
102
RTVSPropertyOp14
 70
     1
102
RTVSPropertyOp15
 70
     1
102
RTVSPropertyOp16
 70
     1
102
RTVSPropertyOp17
 70
     1
102
RTVSPropertyOp18
 70
     1
102
RTVSPropertyOp19
 70
     1
102
RTVSPropertyOp20
 70
     1
102
RTVSPropertyOp21
 70
     1
102
RTVSPropertyOp22
 70
     1
102
RTVSPropertyOp23
 70
     1
102
RTVSPropertyOp24
 70
     1
102
RTVSPropertyOp25
 70
     1
102
RTVSPropertyOp26
 70
     1
102
RTVSPropertyOp27
 70
     1
102
RTVSPropertyOp28
 70
     1
102
RTVSPropertyOp29
 70
     1
102
RTVSPropertyOp30
 70
     1
102
RTVSPropertyOp31
 70
     1
102
RTVSPropertyOp32
 70
     1
  0
XRECORD
  5
45D
102
{ACAD_REACTORS
330
45C
102
}
330
45C
100
AcDbXrecord
280
     1
102
RTVSPropertyOp0
 70
     1
102
RTVSPropertyOp1
 70
     1
102
RTVSPropertyOp2
 70
     1
102
RTVSPropertyOp3
 70
     1
102
RTVSPropertyOp4
 70
     1
102
RTVSPropertyOp5
 70
     1
102
RTVSPropertyOp6
 70
     1
102
RTVSPropertyOp7
 70
     1
102
RTVSPropertyOp8
 70
     1
102
RTVSPropertyOp9
 70
     1
102
RTVSPropertyOp10
 70
     1
102
RTVSPropertyOp11
 70
     1
102
RTVSPropertyOp12
 70
     1
102
RTVSPropertyOp13
 70
     1
102
RTVSPropertyOp14
 70
     1
102
RTVSPropertyOp15
 70
     1
102
RTVSPropertyOp16
 70
     1
102
RTVSPropertyOp17
 70
     1
102
RTVSPropertyOp18
 70
     1
102
RTVSPropertyOp19
 70
     1
102
RTVSPropertyOp20
 70
     1
102
RTVSPropertyOp21
 70
     1
102
RTVSPropertyOp22
 70
     1
102
RTVSPropertyOp23
 70
     1
102
RTVSPropertyOp24
 70
     1
102
RTVSPropertyOp25
 70
     1
102
RTVSPropertyOp26
 70
     1
102
RTVSPropertyOp27
 70
     1
102
RTVSPropertyOp28
 70
     1
102
RTVSPropertyOp29
 70
     1
102
RTVSPropertyOp30
 70
     1
102
RTVSPropertyOp31
 70
     1
102
RTVSPropertyOp32
 70
     1
  0
XRECORD
  5
45F
102
{ACAD_REACTORS
330
45E
102
}
330
45E
100
AcDbXrecord
280
     1
102
RTVSPropertyOp0
 70
     1
102
RTVSPropertyOp1
 70
     1
102
RTVSPropertyOp2
 70
     1
102
RTVSPropertyOp3
 70
     1
102
RTVSPropertyOp4
 70
     1
102
RTVSPropertyOp5
 70
     1
102
RTVSPropertyOp6
 70
     1
102
RTVSPropertyOp7
 70
     1
102
RTVSPropertyOp8
 70
     1
102
RTVSPropertyOp9
 70
     1
102
RTVSPropertyOp10
 70
     1
102
RTVSPropertyOp11
 70
     1
102
RTVSPropertyOp12
 70
     1
102
RTVSPropertyOp13
 70
     1
102
RTVSPropertyOp14
 70
     1
102
RTVSPropertyOp15
 70
     1
102
RTVSPropertyOp16
 70
     1
102
RTVSPropertyOp17
 70
     1
102
RTVSPropertyOp18
 70
     1
102
RTVSPropertyOp19
 70
     1
102
RTVSPropertyOp20
 70
     1
102
RTVSPropertyOp21
 70
     1
102
RTVSPropertyOp22
 70
     1
102
RTVSPropertyOp23
 70
     1
102
RTVSPropertyOp24
 70
     1
102
RTVSPropertyOp25
 70
     1
102
RTVSPropertyOp26
 70
     1
102
RTVSPropertyOp27
 70
     1
102
RTVSPropertyOp28
 70
     1
102
RTVSPropertyOp29
 70
     1
102
RTVSPropertyOp30
 70
     1
102
RTVSPropertyOp31
 70
     1
102
RTVSPropertyOp32
 70
     1
  0
XRECORD
  5
467
102
{ACAD_REACTORS
330
466
102
}
330
466
100
AcDbXrecord
280
     1
102
RTVSPropertyOp0
 70
     1
102
RTVSPropertyOp1
 70
     1
102
RTVSPropertyOp2
 70
     1
102
RTVSPropertyOp3
 70
     1
102
RTVSPropertyOp4
 70
     1
102
RTVSPropertyOp5
 70
     1
102
RTVSPropertyOp6
 70
     1
102
RTVSPropertyOp7
 70
     1
102
RTVSPropertyOp8
 70
     1
102
RTVSPropertyOp9
 70
     1
102
RTVSPropertyOp10
 70
     1
102
RTVSPropertyOp11
 70
     1
102
RTVSPropertyOp12
 70
     1
102
RTVSPropertyOp13
 70
     1
102
RTVSPropertyOp14
 70
     1
102
RTVSPropertyOp15
 70
     1
102
RTVSPropertyOp16
 70
     1
102
RTVSPropertyOp17
 70
     1
102
RTVSPropertyOp18
 70
     1
102
RTVSPropertyOp19
 70
     1
102
RTVSPropertyOp20
 70
     1
102
RTVSPropertyOp21
 70
     1
102
RTVSPropertyOp22
 70
     1
102
RTVSPropertyOp23
 70
     1
102
RTVSPropertyOp24
 70
     1
102
RTVSPropertyOp25
 70
     1
102
RTVSPropertyOp26
 70
     1
102
RTVSPropertyOp27
 70
     1
102
RTVSPropertyOp28
 70
     1
102
RTVSPropertyOp29
 70
     1
102
RTVSPropertyOp30
 70
     1
102
RTVSPropertyOp31
 70
     1
102
RTVSPropertyOp32
 70
     1
  0
XRECORD
  5
44B
102
{ACAD_REACTORS
330
44A
102
}
330
44A
100
AcDbXrecord
280
     1
102
RTVSPropertyOp0
 70
     1
102
RTVSPropertyOp1
 70
     1
102
RTVSPropertyOp2
 70
     1
102
RTVSPropertyOp3
 70
     1
102
RTVSPropertyOp4
 70
     1
102
RTVSPropertyOp5
 70
     1
102
RTVSPropertyOp6
 70
     1
102
RTVSPropertyOp7
 70
     1
102
RTVSPropertyOp8
 70
     1
102
RTVSPropertyOp9
 70
     1
102
RTVSPropertyOp10
 70
     1
102
RTVSPropertyOp11
 70
     1
102
RTVSPropertyOp12
 70
     1
102
RTVSPropertyOp13
 70
     1
102
RTVSPropertyOp14
 70
     1
102
RTVSPropertyOp15
 70
     1
102
RTVSPropertyOp16
 70
     1
102
RTVSPropertyOp17
 70
     1
102
RTVSPropertyOp18
 70
     1
102
RTVSPropertyOp19
 70
     1
102
RTVSPropertyOp20
 70
     1
102
RTVSPropertyOp21
 70
     1
102
RTVSPropertyOp22
 70
     1
102
RTVSPropertyOp23
 70
     1
102
RTVSPropertyOp24
 70
     1
102
RTVSPropertyOp25
 70
     1
102
RTVSPropertyOp26
 70
     1
102
RTVSPropertyOp27
 70
     1
102
RTVSPropertyOp28
 70
     1
102
RTVSPropertyOp29
 70
     1
102
RTVSPropertyOp30
 70
     1
102
RTVSPropertyOp31
 70
     1
102
RTVSPropertyOp32
 70
     1
  0
XRECORD
  5
44D
102
{ACAD_REACTORS
330
44C
102
}
330
44C
100
AcDbXrecord
280
     1
102
RTVSPropertyOp0
 70
     1
102
RTVSPropertyOp1
 70
     1
102
RTVSPropertyOp2
 70
     1
102
RTVSPropertyOp3
 70
     1
102
RTVSPropertyOp4
 70
     1
102
RTVSPropertyOp5
 70
     1
102
RTVSPropertyOp6
 70
     1
102
RTVSPropertyOp7
 70
     1
102
RTVSPropertyOp8
 70
     1
102
RTVSPropertyOp9
 70
     1
102
RTVSPropertyOp10
 70
     1
102
RTVSPropertyOp11
 70
     1
102
RTVSPropertyOp12
 70
     1
102
RTVSPropertyOp13
 70
     1
102
RTVSPropertyOp14
 70
     1
102
RTVSPropertyOp15
 70
     1
102
RTVSPropertyOp16
 70
     1
102
RTVSPropertyOp17
 70
     1
102
RTVSPropertyOp18
 70
     1
102
RTVSPropertyOp19
 70
     1
102
RTVSPropertyOp20
 70
     1
102
RTVSPropertyOp21
 70
     1
102
RTVSPropertyOp22
 70
     1
102
RTVSPropertyOp23
 70
     1
102
RTVSPropertyOp24
 70
     1
102
RTVSPropertyOp25
 70
     1
102
RTVSPropertyOp26
 70
     1
102
RTVSPropertyOp27
 70
     1
102
RTVSPropertyOp28
 70
     1
102
RTVSPropertyOp29
 70
     1
102
RTVSPropertyOp30
 70
     1
102
RTVSPropertyOp31
 70
     1
102
RTVSPropertyOp32
 70
     1
  0
XRECORD
  5
44F
102
{ACAD_REACTORS
330
44E
102
}
330
44E
100
AcDbXrecord
280
     1
102
RTVSPropertyOp0
 70
     1
102
RTVSPropertyOp1
 70
     1
102
RTVSPropertyOp2
 70
     1
102
RTVSPropertyOp3
 70
     1
102
RTVSPropertyOp4
 70
     1
102
RTVSPropertyOp5
 70
     1
102
RTVSPropertyOp6
 70
     1
102
RTVSPropertyOp7
 70
     1
102
RTVSPropertyOp8
 70
     1
102
RTVSPropertyOp9
 70
     1
102
RTVSPropertyOp10
 70
     1
102
RTVSPropertyOp11
 70
     1
102
RTVSPropertyOp12
 70
     1
102
RTVSPropertyOp13
 70
     1
102
RTVSPropertyOp14
 70
     1
102
RTVSPropertyOp15
 70
     1
102
RTVSPropertyOp16
 70
     1
102
RTVSPropertyOp17
 70
     1
102
RTVSPropertyOp18
 70
     1
102
RTVSPropertyOp19
 70
     1
102
RTVSPropertyOp20
 70
     1
102
RTVSPropertyOp21
 70
     1
102
RTVSPropertyOp22
 70
     1
102
RTVSPropertyOp23
 70
     1
102
RTVSPropertyOp24
 70
     1
102
RTVSPropertyOp25
 70
     1
102
RTVSPropertyOp26
 70
     1
102
RTVSPropertyOp27
 70
     1
102
RTVSPropertyOp28
 70
     1
102
RTVSPropertyOp29
 70
     1
102
RTVSPropertyOp30
 70
     1
102
RTVSPropertyOp31
 70
     1
102
RTVSPropertyOp32
 70
     1
  0
XRECORD
  5
451
102
{ACAD_REACTORS
330
450
102
}
330
450
100
AcDbXrecord
280
     1
102
RTVSPropertyOp0
 70
     1
102
RTVSPropertyOp1
 70
     1
102
RTVSPropertyOp2
 70
     1
102
RTVSPropertyOp3
 70
     1
102
RTVSPropertyOp4
 70
     1
102
RTVSPropertyOp5
 70
     1
102
RTVSPropertyOp6
 70
     1
102
RTVSPropertyOp7
 70
     1
102
RTVSPropertyOp8
 70
     1
102
RTVSPropertyOp9
 70
     1
102
RTVSPropertyOp10
 70
     1
102
RTVSPropertyOp11
 70
     1
102
RTVSPropertyOp12
 70
     1
102
RTVSPropertyOp13
 70
     1
102
RTVSPropertyOp14
 70
     1
102
RTVSPropertyOp15
 70
     1
102
RTVSPropertyOp16
 70
     1
102
RTVSPropertyOp17
 70
     1
102
RTVSPropertyOp18
 70
     1
102
RTVSPropertyOp19
 70
     1
102
RTVSPropertyOp20
 70
     1
102
RTVSPropertyOp21
 70
     1
102
RTVSPropertyOp22
 70
     1
102
RTVSPropertyOp23
 70
     1
102
RTVSPropertyOp24
 70
     1
102
RTVSPropertyOp25
 70
     1
102
RTVSPropertyOp26
 70
     1
102
RTVSPropertyOp27
 70
     1
102
RTVSPropertyOp28
 70
     1
102
RTVSPropertyOp29
 70
     1
102
RTVSPropertyOp30
 70
     1
102
RTVSPropertyOp31
 70
     1
102
RTVSPropertyOp32
 70
     1
  0
XRECORD
  5
465
102
{ACAD_REACTORS
330
464
102
}
330
464
100
AcDbXrecord
280
     1
102
RTVSPropertyOp0
 70
     1
102
RTVSPropertyOp1
 70
     1
102
RTVSPropertyOp2
 70
     1
102
RTVSPropertyOp3
 70
     1
102
RTVSPropertyOp4
 70
     1
102
RTVSPropertyOp5
 70
     1
102
RTVSPropertyOp6
 70
     1
102
RTVSPropertyOp7
 70
     1
102
RTVSPropertyOp8
 70
     1
102
RTVSPropertyOp9
 70
     1
102
RTVSPropertyOp10
 70
     1
102
RTVSPropertyOp11
 70
     1
102
RTVSPropertyOp12
 70
     1
102
RTVSPropertyOp13
 70
     1
102
RTVSPropertyOp14
 70
     1
102
RTVSPropertyOp15
 70
     1
102
RTVSPropertyOp16
 70
     1
102
RTVSPropertyOp17
 70
     1
102
RTVSPropertyOp18
 70
     1
102
RTVSPropertyOp19
 70
     1
102
RTVSPropertyOp20
 70
     1
102
RTVSPropertyOp21
 70
     1
102
RTVSPropertyOp22
 70
     1
102
RTVSPropertyOp23
 70
     1
102
RTVSPropertyOp24
 70
     1
102
RTVSPropertyOp25
 70
     1
102
RTVSPropertyOp26
 70
     1
102
RTVSPropertyOp27
 70
     1
102
RTVSPropertyOp28
 70
     1
102
RTVSPropertyOp29
 70
     1
102
RTVSPropertyOp30
 70
     1
102
RTVSPropertyOp31
 70
     1
102
RTVSPropertyOp32
 70
     1
  0
XRECORD
  5
45B
102
{ACAD_REACTORS
330
45A
102
}
330
45A
100
AcDbXrecord
280
     1
102
RTVSPropertyOp0
 70
     1
102
RTVSPropertyOp1
 70
     1
102
RTVSPropertyOp2
 70
     1
102
RTVSPropertyOp3
 70
     1
102
RTVSPropertyOp4
 70
     1
102
RTVSPropertyOp5
 70
     1
102
RTVSPropertyOp6
 70
     1
102
RTVSPropertyOp7
 70
     1
102
RTVSPropertyOp8
 70
     1
102
RTVSPropertyOp9
 70
     1
102
RTVSPropertyOp10
 70
     1
102
RTVSPropertyOp11
 70
     1
102
RTVSPropertyOp12
 70
     1
102
RTVSPropertyOp13
 70
     1
102
RTVSPropertyOp14
 70
     1
102
RTVSPropertyOp15
 70
     1
102
RTVSPropertyOp16
 70
     1
102
RTVSPropertyOp17
 70
     1
102
RTVSPropertyOp18
 70
     1
102
RTVSPropertyOp19
 70
     1
102
RTVSPropertyOp20
 70
     1
102
RTVSPropertyOp21
 70
     1
102
RTVSPropertyOp22
 70
     1
102
RTVSPropertyOp23
 70
     1
102
RTVSPropertyOp24
 70
     1
102
RTVSPropertyOp25
 70
     1
102
RTVSPropertyOp26
 70
     1
102
RTVSPropertyOp27
 70
     1
102
RTVSPropertyOp28
 70
     1
102
RTVSPropertyOp29
 70
     1
102
RTVSPropertyOp30
 70
     1
102
RTVSPropertyOp31
 70
     1
102
RTVSPropertyOp32
 70
     1
  0
XRECORD
  5
463
102
{ACAD_REACTORS
330
462
102
}
330
462
100
AcDbXrecord
280
     1
102
RTVSPropertyOp0
 70
     1
102
RTVSPropertyOp1
 70
     1
102
RTVSPropertyOp2
 70
     1
102
RTVSPropertyOp3
 70
     1
102
RTVSPropertyOp4
 70
     1
102
RTVSPropertyOp5
 70
     1
102
RTVSPropertyOp6
 70
     1
102
RTVSPropertyOp7
 70
     1
102
RTVSPropertyOp8
 70
     1
102
RTVSPropertyOp9
 70
     1
102
RTVSPropertyOp10
 70
     1
102
RTVSPropertyOp11
 70
     1
102
RTVSPropertyOp12
 70
     1
102
RTVSPropertyOp13
 70
     1
102
RTVSPropertyOp14
 70
     1
102
RTVSPropertyOp15
 70
     1
102
RTVSPropertyOp16
 70
     1
102
RTVSPropertyOp17
 70
     1
102
RTVSPropertyOp18
 70
     1
102
RTVSPropertyOp19
 70
     1
102
RTVSPropertyOp20
 70
     1
102
RTVSPropertyOp21
 70
     1
102
RTVSPropertyOp22
 70
     1
102
RTVSPropertyOp23
 70
     1
102
RTVSPropertyOp24
 70
     1
102
RTVSPropertyOp25
 70
     1
102
RTVSPropertyOp26
 70
     1
102
RTVSPropertyOp27
 70
     1
102
RTVSPropertyOp28
 70
     1
102
RTVSPropertyOp29
 70
     1
102
RTVSPropertyOp30
 70
     1
102
RTVSPropertyOp31
 70
     1
102
RTVSPropertyOp32
 70
     1
  0
ENDSEC
  0
EOF
