  0
SECTION
  2
HEADER
  9
$ACADVER
  1
AC1015
  9
$ACADMAINTVER
 70
     6
  9
$DWGCODEPAGE
  3
ANSI_1252
  9
$INSBASE
 10
0.0
 20
0.0
 30
0.0
  9
$EXTMIN
 10
-103.048531077561
 20
705.4912841497555
 30
0.0
  9
$EXTMAX
 10
316.9514689224374
 20
1002.491284149756
 30
0.0
  9
$LIMMIN
 10
0.0
 20
0.0
  9
$LIMMAX
 10
12.0
 20
9.0
  9
$ORTHOMODE
 70
     0
  9
$REGENMODE
 70
     1
  9
$FILLMODE
 70
     1
  9
$QTEXTMODE
 70
     0
  9
$MIRRTEXT
 70
     1
  9
$LTSCALE
 40
1.0
  9
$ATTMODE
 70
     1
  9
$TEXTSIZE
 40
0.2
  9
$TRACEWID
 40
0.05
  9
$TEXTSTYLE
  7
Standard
  9
$CLAYER
  8
0
  9
$CELTYPE
  6
ByLayer
  9
$CECOLOR
 62
   256
  9
$CELTSCALE
 40
1.0
  9
$DISPSILH
 70
     0
  9
$DIMSCALE
 40
1.0
  9
$DIMASZ
 40
0.18
  9
$DIMEXO
 40
0.0625
  9
$DIMDLI
 40
0.38
  9
$DIMRND
 40
0.0
  9
$DIMDLE
 40
0.0
  9
$DIMEXE
 40
0.18
  9
$DIMTP
 40
0.0
  9
$DIMTM
 40
0.0
  9
$DIMTXT
 40
0.18
  9
$DIMCEN
 40
0.09
  9
$DIMTSZ
 40
0.0
  9
$DIMTOL
 70
     0
  9
$DIMLIM
 70
     0
  9
$DIMTIH
 70
     1
  9
$DIMTOH
 70
     1
  9
$DIMSE1
 70
     0
  9
$DIMSE2
 70
     0
  9
$DIMTAD
 70
     0
  9
$DIMZIN
 70
     0
  9
$DIMBLK
  1

  9
$DIMASO
 70
     1
  9
$DIMSHO
 70
     1
  9
$DIMPOST
  1

  9
$DIMAPOST
  1

  9
$DIMALT
 70
     0
  9
$DIMALTD
 70
     2
  9
$DIMALTF
 40
25.4
  9
$DIMLFAC
 40
1.0
  9
$DIMTOFL
 70
     0
  9
$DIMTVP
 40
0.0
  9
$DIMTIX
 70
     0
  9
$DIMSOXD
 70
     0
  9
$DIMSAH
 70
     0
  9
$DIMBLK1
  1

  9
$DIMBLK2
  1

  9
$DIMSTYLE
  2
Standard
  9
$DIMCLRD
 70
     0
  9
$DIMCLRE
 70
     0
  9
$DIMCLRT
 70
     0
  9
$DIMTFAC
 40
1.0
  9
$DIMGAP
 40
0.09
  9
$DIMJUST
 70
     0
  9
$DIMSD1
 70
     0
  9
$DIMSD2
 70
     0
  9
$DIMTOLJ
 70
     1
  9
$DIMTZIN
 70
     0
  9
$DIMALTZ
 70
     0
  9
$DIMALTTZ
 70
     0
  9
$DIMUPT
 70
     0
  9
$DIMDEC
 70
     4
  9
$DIMTDEC
 70
     4
  9
$DIMALTU
 70
     2
  9
$DIMALTTD
 70
     2
  9
$DIMTXSTY
  7
Standard
  9
$DIMAUNIT
 70
     0
  9
$DIMADEC
 70
     0
  9
$DIMALTRND
 40
0.0
  9
$DIMAZIN
 70
     0
  9
$DIMDSEP
 70
    46
  9
$DIMATFIT
 70
     3
  9
$DIMFRAC
 70
     0
  9
$DIMLDRBLK
  1

  9
$DIMLUNIT
 70
     2
  9
$DIMLWD
 70
    -2
  9
$DIMLWE
 70
    -2
  9
$DIMTMOVE
 70
     0
  9
$LUNITS
 70
     2
  9
$LUPREC
 70
     4
  9
$SKETCHINC
 40
0.1
  9
$FILLETRAD
 40
0.5
  9
$AUNITS
 70
     0
  9
$AUPREC
 70
     0
  9
$MENU
  1
.
  9
$ELEVATION
 40
0.0
  9
$PELEVATION
 40
0.0
  9
$THICKNESS
 40
0.0
  9
$LIMCHECK
 70
     0
  9
$CHAMFERA
 40
0.5
  9
$CHAMFERB
 40
0.5
  9
$CHAMFERC
 40
1.0
  9
$CHAMFERD
 40
0.0
  9
$SKPOLY
 70
     0
  9
$TDCREATE
 40
2457203.629759213
  9
$TDUCREATE
 40
2457203.546425879
  9
$TDUPDATE
 40
2457203.629760197
  9
$TDUUPDATE
 40
2457203.546426863
  9
$TDINDWG
 40
0.0000000116
  9
$TDUSRTIMER
 40
0.0000000116
  9
$USRTIMER
 70
     1
  9
$ANGBASE
 50
0.0
  9
$ANGDIR
 70
     0
  9
$PDMODE
 70
     0
  9
$PDSIZE
 40
0.0
  9
$PLINEWID
 40
0.0
  9
$SPLFRAME
 70
     0
  9
$SPLINETYPE
 70
     6
  9
$SPLINESEGS
 70
     8
  9
$HANDSEED
  5
46C
  9
$SURFTAB1
 70
     6
  9
$SURFTAB2
 70
     6
  9
$SURFTYPE
 70
     6
  9
$SURFU
 70
     6
  9
$SURFV
 70
     6
  9
$UCSBASE
  2

  9
$UCSNAME
  2

  9
$UCSORG
 10
0.0
 20
0.0
 30
0.0
  9
$UCSXDIR
 10
1.0
 20
0.0
 30
0.0
  9
$UCSYDIR
 10
0.0
 20
1.0
 30
0.0
  9
$UCSORTHOREF
  2

  9
$UCSORTHOVIEW
 70
     0
  9
$UCSORGTOP
 10
0.0
 20
0.0
 30
0.0
  9
$UCSORGBOTTOM
 10
0.0
 20
0.0
 30
0.0
  9
$UCSORGLEFT
 10
0.0
 20
0.0
 30
0.0
  9
$UCSORGRIGHT
 10
0.0
 20
0.0
 30
0.0
  9
$UCSORGFRONT
 10
0.0
 20
0.0
 30
0.0
  9
$UCSORGBACK
 10
0.0
 20
0.0
 30
0.0
  9
$PUCSBASE
  2

  9
$PUCSNAME
  2

  9
$PUCSORG
 10
0.0
 20
0.0
 30
0.0
  9
$PUCSXDIR
 10
1.0
 20
0.0
 30
0.0
  9
$PUCSYDIR
 10
0.0
 20
1.0
 30
0.0
  9
$PUCSORTHOREF
  2

  9
$PUCSORTHOVIEW
 70
     0
  9
$PUCSORGTOP
 10
0.0
 20
0.0
 30
0.0
  9
$PUCSORGBOTTOM
 10
0.0
 20
0.0
 30
0.0
  9
$PUCSORGLEFT
 10
0.0
 20
0.0
 30
0.0
  9
$PUCSORGRIGHT
 10
0.0
 20
0.0
 30
0.0
  9
$PUCSORGFRONT
 10
0.0
 20
0.0
 30
0.0
  9
$PUCSORGBACK
 10
0.0
 20
0.0
 30
0.0
  9
$USERI1
 70
     0
  9
$USERI2
 70
     0
  9
$USERI3
 70
     0
  9
$USERI4
 70
     0
  9
$USERI5
 70
     0
  9
$USERR1
 40
18.1
  9
$USERR2
 40
0.0
  9
$USERR3
 40
0.0
  9
$USERR4
 40
0.0
  9
$USERR5
 40
0.0
  9
$WORLDVIEW
 70
     1
  9
$SHADEDGE
 70
     3
  9
$SHADEDIF
 70
    70
  9
$TILEMODE
 70
     1
  9
$MAXACTVP
 70
    64
  9
$PINSBASE
 10
0.0
 20
0.0
 30
0.0
  9
$PLIMCHECK
 70
     0
  9
$PEXTMIN
 10
1.00000000000000E+20
 20
1.00000000000000E+20
 30
1.00000000000000E+20
  9
$PEXTMAX
 10
-1.00000000000000E+20
 20
-1.00000000000000E+20
 30
-1.00000000000000E+20
  9
$PLIMMIN
 10
0.0
 20
0.0
  9
$PLIMMAX
 10
12.0
 20
9.0
  9
$UNITMODE
 70
     0
  9
$VISRETAIN
 70
     1
  9
$PLINEGEN
 70
     0
  9
$PSLTSCALE
 70
     1
  9
$TREEDEPTH
 70
  3020
  9
$CMLSTYLE
  2
Standard
  9
$CMLJUST
 70
     0
  9
$CMLSCALE
 40
1.0
  9
$PROXYGRAPHICS
 70
     1
  9
$MEASUREMENT
 70
     1
  9
$CELWEIGHT
370
    -1
  9
$ENDCAPS
280
     0
  9
$JOINSTYLE
280
     0
  9
$LWDISPLAY
290
     0
  9
$INSUNITS
 70
     4
  9
$HYPERLINKBASE
  1

  9
$STYLESHEET
  1

  9
$XEDIT
290
     1
  9
$CEPSNTYPE
380
     0
  9
$PSTYLEMODE
290
     1
  9
$FINGERPRINTGUID
  2
{216E8F7C-6E2A-4875-9ADA-81A22E1B9C36}
  9
$VERSIONGUID
  2
{FAEB1C32-E019-11D5-929B-00C0DF256EC4}
  9
$EXTNAMES
290
     1
  9
$PSVPSCALE
 40
0.0
  9
$OLESTARTUP
290
     0
  0
ENDSEC
  0
SECTION
  2
CLASSES
  0
CLASS
  1
ACDBDICTIONARYWDFLT
  2
AcDbDictionaryWithDefault
  3
ObjectDBX Classes
 90
        0
280
     0
281
     0
  0
CLASS
  1
VISUALSTYLE
  2
AcDbVisualStyle
  3
ObjectDBX Classes
 90
     4095
280
     0
281
     0
  0
CLASS
  1
MATERIAL
  2
AcDbMaterial
  3
ObjectDBX Classes
 90
     1153
280
     0
281
     0
  0
CLASS
  1
DICTIONARYVAR
  2
AcDbDictionaryVar
  3
ObjectDBX Classes
 90
        0
280
     0
281
     0
  0
CLASS
  1
ACDBPLACEHOLDER
  2
AcDbPlaceHolder
  3
ObjectDBX Classes
 90
        0
280
     0
281
     0
  0
CLASS
  1
LAYOUT
  2
AcDbLayout
  3
ObjectDBX Classes
 90
        0
280
     0
281
     0
  0
ENDSEC
  0
SECTION
  2
TABLES
  0
TABLE
  2
VPORT
  5
8
330
0
100
AcDbSymbolTable
 70
     1
  0
VPORT
  5
29
330
8
100
AcDbSymbolTableRecord
100
AcDbViewportTableRecord
  2
*Active
 70
     0
 10
0.0
 20
0.0
 11
1.0
 21
1.0
 12
106.9514689224382
 22
853.9912841497558
 13
0.0
 23
0.0
 14
0.5
 24
0.5
 15
0.5
 25
0.5
 16
0.0
 26
0.0
 36
1.0
 17
0.0
 27
0.0
 37
0.0
 40
326.7000000000005
 41
1.60267857142857
 42
50.0
 43
0.0
 44
0.0
 50
0.0
 51
0.0
 71
     0
 72
   100
 73
     1
 74
     3
 75
     0
 76
     0
 77
     0
 78
     0
281
     0
 65
     1
110
0.0
120
0.0
130
0.0
111
1.0
121
0.0
131
0.0
112
0.0
122
1.0
132
0.0
 79
     0
146
0.0
  0
ENDTAB
  0
TABLE
  2
LTYPE
  5
5
330
0
100
AcDbSymbolTable
 70
     8
  0
LTYPE
  5
14
330
5
100
AcDbSymbolTableRecord
100
AcDbLinetypeTableRecord
  2
ByBlock
 70
     0
  3

 72
    65
 73
     0
 40
0.0
  0
LTYPE
  5
15
330
5
100
AcDbSymbolTableRecord
100
AcDbLinetypeTableRecord
  2
ByLayer
 70
     0
  3

 72
    65
 73
     0
 40
0.0
  0
LTYPE
  5
16
330
5
100
AcDbSymbolTableRecord
100
AcDbLinetypeTableRecord
  2
Continuous
 70
     0
  3
Solid line
 72
    65
 73
     0
 40
0.0
  0
LTYPE
  5
3F
330
5
100
AcDbSymbolTableRecord
100
AcDbLinetypeTableRecord
  2
DASHED
 70
     0
  3
Dashed
 72
    65
 73
     2
 40
15.0
 49
7.0
 74
     0
 49
-8.0
 74
     0
  0
LTYPE
  5
40
330
5
100
AcDbSymbolTableRecord
100
AcDbLinetypeTableRecord
  2
DOTTED
 70
     0
  3
Dotted
 72
    65
 73
     2
 40
1.0
 49
0.0
 74
     0
 49
-1.0
 74
     0
  0
LTYPE
  5
41
330
5
100
AcDbSymbolTableRecord
100
AcDbLinetypeTableRecord
  2
DOT_CENTER
 70
     0
  3
Dot_Center
 72
    65
 73
     4
 40
14.0
 49
12.0
 74
     0
 49
-1.0
 74
     0
 49
0.0
 74
     0
 49
-1.0
 74
     0
  0
LTYPE
  5
42
330
5
100
AcDbSymbolTableRecord
100
AcDbLinetypeTableRecord
  2
LONG_DASHED
 70
     0
  3
Long_Dashed
 72
    65
 73
     2
 40
15.0
 49
10.0
 74
     0
 49
-5.0
 74
     0
  0
LTYPE
  5
43
330
5
100
AcDbSymbolTableRecord
100
AcDbLinetypeTableRecord
  2
DASH_CENTER
 70
     0
  3
Dash_Center
 72
    65
 73
     4
 40
14.0
 49
11.0
 74
     0
 49
-1.0
 74
     0
 49
1.0
 74
     0
 49
-1.0
 74
     0
  0
LTYPE
  5
44
330
5
100
AcDbSymbolTableRecord
100
AcDbLinetypeTableRecord
  2
PHANTOM
 70
     0
  3
Phantom
 72
    65
 73
     6
 40
13.0
 49
10.0
 74
     0
 49
-1.0
 74
     0
 49
0.0
 74
     0
 49
-1.0
 74
     0
 49
0.0
 74
     0
 49
-1.0
 74
     0
  0
LTYPE
  5
45
330
5
100
AcDbSymbolTableRecord
100
AcDbLinetypeTableRecord
  2
CENTER_DASH_DASH
 70
     0
  3
Center_Dash_Dash
 72
    65
 73
     6
 40
14.0
 49
9.0
 74
     0
 49
-1.0
 74
     0
 49
1.0
 74
     0
 49
-1.0
 74
     0
 49
1.0
 74
     0
 49
-1.0
 74
     0
  0
ENDTAB
  0
TABLE
  2
LAYER
  5
2
330
0
100
AcDbSymbolTable
 70
     2
  0
LAYER
  5
10
330
2
100
AcDbSymbolTableRecord
100
AcDbLayerTableRecord
  2
0
 70
     0
 62
     7
  6
Continuous
370
    -3
390
F
  0
LAYER
  5
46
330
2
100
AcDbSymbolTableRecord
100
AcDbLayerTableRecord
  2
1
 70
     0
 62
     7
  6
Continuous
370
    -3
390
F
  0
ENDTAB
  0
TABLE
  2
STYLE
  5
3
330
0
100
AcDbSymbolTable
 70
     9
  0
STYLE
  5
11
330
3
100
AcDbSymbolTableRecord
100
AcDbTextStyleTableRecord
  2
Standard
 70
     0
 40
0.0
 41
1.0
 50
0.0
 71
     0
 42
0.2
  3
txt
  4

  0
STYLE
  5
110
330
3
100
AcDbSymbolTableRecord
100
AcDbTextStyleTableRecord
  2
CONVERTER_11
 70
     0
 40
0.0
 41
0.9
 50
0.0
 71
     0
 42
0.2
  3
txt.shx
  4

  0
STYLE
  5
3BD
330
3
100
AcDbSymbolTableRecord
100
AcDbTextStyleTableRecord
  2
CONVERTER_12
 70
     0
 40
0.0
 41
0.765
 50
0.0
 71
     0
 42
0.2
  3
txt.shx
  4

  0
STYLE
  5
3E4
330
3
100
AcDbSymbolTableRecord
100
AcDbTextStyleTableRecord
  2
CONVERTER_13
 70
     0
 40
0.0
 41
0.855
 50
0.0
 71
     0
 42
0.2
  3
txt.shx
  4

  0
STYLE
  5
400
330
3
100
AcDbSymbolTableRecord
100
AcDbTextStyleTableRecord
  2
CONVERTER_14
 70
     0
 40
0.0
 41
0.72
 50
0.0
 71
     0
 42
0.2
  3
txt.shx
  4

  0
STYLE
  5
402
330
3
100
AcDbSymbolTableRecord
100
AcDbTextStyleTableRecord
  2
CONVERTER_15
 70
     0
 40
0.0
 41
0.54
 50
0.0
 71
     0
 42
0.2
  3
txt.shx
  4

  0
STYLE
  5
404
330
3
100
AcDbSymbolTableRecord
100
AcDbTextStyleTableRecord
  2
CONVERTER_16
 70
     0
 40
0.0
 41
0.81
 50
0.0
 71
     0
 42
0.2
  3
txt.shx
  4

  0
STYLE
  5
41C
330
3
100
AcDbSymbolTableRecord
100
AcDbTextStyleTableRecord
  2
CONVERTER_17
 70
     0
 40
0.0
 41
0.45
 50
0.0
 71
     0
 42
0.2
  3
txt.shx
  4

  0
STYLE
  5
41F
330
3
100
AcDbSymbolTableRecord
100
AcDbTextStyleTableRecord
  2
CONVERTER_18
 70
     0
 40
0.0
 41
0.63
 50
0.0
 71
     0
 42
0.2
  3
txt.shx
  4

  0
ENDTAB
  0
TABLE
  2
VIEW
  5
6
330
0
100
AcDbSymbolTable
 70
     0
  0
ENDTAB
  0
TABLE
  2
UCS
  5
7
330
0
100
AcDbSymbolTable
 70
     0
  0
ENDTAB
  0
TABLE
  2
APPID
  5
9
330
0
100
AcDbSymbolTable
 70
     1
  0
APPID
  5
12
330
9
100
AcDbSymbolTableRecord
100
AcDbRegAppTableRecord
  2
ACAD
 70
     0
  0
ENDTAB
  0
TABLE
  2
DIMSTYLE
  5
A
330
0
100
AcDbSymbolTable
 70
     5
100
AcDbDimStyleTable
  0
DIMSTYLE
105
27
330
A
100
AcDbSymbolTableRecord
100
AcDbDimStyleTableRecord
  2
Standard
 70
     0
178
     0
340
11
  0
DIMSTYLE
105
199
102
{ACAD_REACTORS
330
19A
102
}
330
A
100
AcDbSymbolTableRecord
100
AcDbDimStyleTableRecord
  2
ME10_DIM_10
 70
     0
 41
3.5
 42
0.0
 44
2.0
 73
     0
 74
     0
 77
     1
 78
     8
140
3.5
147
2.0
172
     1
173
     1
174
     1
175
     1
176
     2
177
     2
178
     3
340
110
  0
DIMSTYLE
105
1A4
102
{ACAD_REACTORS
330
1A5
102
}
330
A
100
AcDbSymbolTableRecord
100
AcDbDimStyleTableRecord
  2
ME10_DIM_11
 70
     0
 41
3.5
 42
0.0
 44
2.0
 73
     0
 74
     0
 77
     1
 78
     8
140
3.5
147
2.0
172
     1
173
     1
174
     1
175
     1
176
     2
177
     2
178
     3
340
110
  0
DIMSTYLE
105
1AF
102
{ACAD_REACTORS
330
1B0
102
}
330
A
100
AcDbSymbolTableRecord
100
AcDbDimStyleTableRecord
  2
ME10_DIM_12
 70
     0
 41
3.5
 42
0.0
 44
2.0
 73
     0
 74
     0
 77
     1
 78
     8
140
3.5
147
2.0
172
     1
173
     1
174
     1
175
     1
176
     2
177
     2
178
     3
340
110
  0
DIMSTYLE
105
232
102
{ACAD_REACTORS
330
233
102
}
330
A
100
AcDbSymbolTableRecord
100
AcDbDimStyleTableRecord
  2
ME10_DIM_13
 70
     0
 41
3.5
 42
0.0
 44
2.0
 73
     0
 74
     0
 77
     1
 78
     8
140
3.5
147
2.0
172
     1
173
     1
174
     1
175
     1
176
     2
177
     2
178
     3
340
110
  0
ENDTAB
  0
TABLE
  2
BLOCK_RECORD
  5
1
330
0
100
AcDbSymbolTable
 70
    20
  0
BLOCK_RECORD
  5
1F
330
1
100
AcDbSymbolTableRecord
100
AcDbBlockTableRecord
  2
*Model_Space
340
22
  0
BLOCK_RECORD
  5
1B
330
1
100
AcDbSymbolTableRecord
100
AcDbBlockTableRecord
  2
*Paper_Space
340
1E
  0
BLOCK_RECORD
  5
23
330
1
100
AcDbSymbolTableRecord
100
AcDbBlockTableRecord
  2
*Paper_Space0
340
26
  0
BLOCK_RECORD
  5
47
330
1
100
AcDbSymbolTableRecord
100
AcDbBlockTableRecord
  2
3240255_WCC_26-select__1
340
0
102
{BLKREFS
331
4B
102
}
  0
BLOCK_RECORD
  5
4A
330
1
100
AcDbSymbolTableRecord
100
AcDbBlockTableRecord
  2
Allg1
340
0
102
{BLKREFS
331
7C
102
}
  0
BLOCK_RECORD
  5
4E
330
1
100
AcDbSymbolTableRecord
100
AcDbBlockTableRecord
  2
3240255_WCC_26-select__2
340
0
102
{BLKREFS
331
52
102
}
  0
BLOCK_RECORD
  5
51
330
1
100
AcDbSymbolTableRecord
100
AcDbBlockTableRecord
  2
Drfsicht1
340
0
102
{BLKREFS
331
7D
102
}
  0
BLOCK_RECORD
  5
55
330
1
100
AcDbSymbolTableRecord
100
AcDbBlockTableRecord
  2
3240255_WCC_26-select__3
340
0
102
{BLKREFS
331
59
102
}
  0
BLOCK_RECORD
  5
58
330
1
100
AcDbSymbolTableRecord
100
AcDbBlockTableRecord
  2
Rckans1
340
0
102
{BLKREFS
331
7E
102
}
  0
BLOCK_RECORD
  5
5C
330
1
100
AcDbSymbolTableRecord
100
AcDbBlockTableRecord
  2
3240255_WCC_26-select__4
340
0
102
{BLKREFS
331
60
102
}
  0
BLOCK_RECORD
  5
5F
330
1
100
AcDbSymbolTableRecord
100
AcDbBlockTableRecord
  2
SA_Links1
340
0
102
{BLKREFS
331
7F
102
}
  0
BLOCK_RECORD
  5
63
330
1
100
AcDbSymbolTableRecord
100
AcDbBlockTableRecord
  2
3240255_WCC_26-select__5
340
0
102
{BLKREFS
331
67
102
}
  0
BLOCK_RECORD
  5
66
330
1
100
AcDbSymbolTableRecord
100
AcDbBlockTableRecord
  2
SA_Rechts1
340
0
102
{BLKREFS
331
80
102
}
  0
BLOCK_RECORD
  5
6A
330
1
100
AcDbSymbolTableRecord
100
AcDbBlockTableRecord
  2
3240255_WCC_26-select__6
340
0
102
{BLKREFS
331
6E
102
}
  0
BLOCK_RECORD
  5
6D
330
1
100
AcDbSymbolTableRecord
100
AcDbBlockTableRecord
  2
Vordans1
340
0
102
{BLKREFS
331
81
102
}
  0
BLOCK_RECORD
  5
71
330
1
100
AcDbSymbolTableRecord
100
AcDbBlockTableRecord
  2
_rahmen
340
0
102
{BLKREFS
331
78
102
}
  0
BLOCK_RECORD
  5
74
330
1
100
AcDbSymbolTableRecord
100
AcDbBlockTableRecord
  2
_punkt
340
0
102
{BLKREFS
331
79
102
}
  0
BLOCK_RECORD
  5
77
330
1
100
AcDbSymbolTableRecord
100
AcDbBlockTableRecord
  2
A3I
340
0
102
{BLKREFS
331
82
102
}
  0
BLOCK_RECORD
  5
190
330
1
100
AcDbSymbolTableRecord
100
AcDbBlockTableRecord
  2
*D16
340
0
  0
BLOCK_RECORD
  5
19B
330
1
100
AcDbSymbolTableRecord
100
AcDbBlockTableRecord
  2
*D17
340
0
  0
BLOCK_RECORD
  5
1A6
330
1
100
AcDbSymbolTableRecord
100
AcDbBlockTableRecord
  2
*D18
340
0
  0
BLOCK_RECORD
  5
229
330
1
100
AcDbSymbolTableRecord
100
AcDbBlockTableRecord
  2
*D19
340
0
  0
ENDTAB
  0
ENDSEC
  0
SECTION
  2
BLOCKS
  0
BLOCK
  5
20
330
1F
100
AcDbEntity
  8
0
100
AcDbBlockBegin
  2
*Model_Space
 70
     0
 10
0.0
 20
0.0
 30
0.0
  3
*Model_Space
  1

  0
ENDBLK
  5
21
330
1F
100
AcDbEntity
  8
0
100
AcDbBlockEnd
  0
BLOCK
  5
1C
330
1B
100
AcDbEntity
 67
     1
  8
0
100
AcDbBlockBegin
  2
*Paper_Space
 70
     0
 10
0.0
 20
0.0
 30
0.0
  3
*Paper_Space
  1

  0
ENDBLK
  5
1D
330
1B
100
AcDbEntity
 67
     1
  8
0
100
AcDbBlockEnd
  0
BLOCK
  5
24
330
23
100
AcDbEntity
  8
0
100
AcDbBlockBegin
  2
*Paper_Space0
 70
     0
 10
0.0
 20
0.0
 30
0.0
  3
*Paper_Space0
  1

  0
ENDBLK
  5
25
330
23
100
AcDbEntity
  8
0
100
AcDbBlockEnd
  0
BLOCK
  5
48
330
47
100
AcDbEntity
  8
0
100
AcDbBlockBegin
  2
3240255_WCC_26-select__1
 70
     0
 10
248.0096189594375
 20
767.2111310120732
 30
0.0
  3
3240255_WCC_26-select__1
  1

  0
LINE
  5
83
330
47
100
AcDbEntity
  8
0
  6
Continuous
 62
     7
100
AcDbLine
 10
263.8071796931765
 20
833.0386461124714
 30
0.0
 11
263.8071796931765
 21
831.6530054664163
 31
0.0
  0
LINE
  5
84
330
47
100
AcDbEntity
  8
0
  6
Continuous
 62
     7
100
AcDbLine
 10
267.0000000162041
 20
832.1169582759843
 30
0.0
 11
265.1928203392316
 21
832.6386461124714
 31
0.0
  0
LINE
  5
85
330
47
100
AcDbEntity
  8
0
  6
Continuous
 62
     7
100
AcDbLine
 10
272.0000000162041
 20
833.5603339489584
 30
0.0
 11
267.0000000162041
 21
832.1169582759843
 31
0.0
  0
LINE
  5
86
330
47
100
AcDbEntity
  8
0
  6
Continuous
 62
     7
100
AcDbLine
 10
268.8071796931765
 20
835.9831324853385
 30
0.0
 11
268.8071796931765
 21
837.3687731313936
 31
0.0
  0
LINE
  5
87
330
47
100
AcDbEntity
  8
0
  6
Continuous
 62
     7
100
AcDbLine
 10
262.0000000162041
 20
833.5603339489584
 30
0.0
 11
262.0000000162041
 21
836.4470852949065
 31
0.0
  0
LINE
  5
88
330
47
100
AcDbEntity
  8
0
  6
Continuous
 62
     7
100
AcDbLine
 10
263.8071796931765
 20
833.0386461124714
 30
0.0
 11
262.0000000162041
 21
833.5603339489584
 31
0.0
  0
LINE
  5
89
330
47
100
AcDbEntity
  8
0
  6
Continuous
 62
     7
100
AcDbLine
 10
268.9928203392316
 20
835.9295426468523
 30
0.0
 11
268.8071796931765
 21
835.9831324853385
 31
0.0
  0
LINE
  5
8A
330
47
100
AcDbEntity
  8
0
  6
Continuous
 62
     7
100
AcDbLine
 10
263.8071796931765
 20
833.0386461124714
 30
0.0
 11
268.8071796931765
 21
837.3687731313936
 31
0.0
  0
LINE
  5
8B
330
47
100
AcDbEntity
  8
0
  6
Continuous
 62
     7
100
AcDbLine
 10
270.1928203392316
 20
836.9687731313935
 30
0.0
 11
265.1928203392316
 21
832.6386461124714
 31
0.0
  0
LINE
  5
8C
330
47
100
AcDbEntity
  8
0
  6
Continuous
 62
     7
100
AcDbLine
 10
268.8071796931765
 20
835.9831324853385
 30
0.0
 11
263.8071796931765
 21
831.6530054664163
 31
0.0
  0
LINE
  5
8D
330
47
100
AcDbEntity
  8
0
  6
Continuous
 62
     7
100
AcDbLine
 10
248.0096189594375
 20
807.5750275028437
 30
0.0
 11
248.0096189594375
 21
786.359172692974
 31
0.0
  0
LINE
  5
8E
330
47
100
AcDbEntity
  8
0
  6
Continuous
 62
     7
100
AcDbLine
 10
281.2903810729707
 20
783.8586572153596
 30
0.0
 11
285.9903810729707
 21
792.6289766131465
 31
0.0
  0
LINE
  5
8F
330
47
100
AcDbEntity
  8
0
  6
Continuous
 62
     7
100
AcDbLine
 10
256.6086570651141
 20
785.9790456740517
 30
0.0
 11
258.1346189594375
 21
785.7746055454195
 31
0.0
  0
LINE
  5
90
330
47
100
AcDbEntity
  8
0
  6
Continuous
 62
     7
100
AcDbLine
 10
259.4336570651141
 20
785.3996055454195
 30
0.0
 11
256.6086570651141
 21
785.7780837797284
 31
0.0
  0
LINE
  5
91
330
47
100
AcDbEntity
  8
0
  6
Continuous
 62
     7
100
AcDbLine
 10
259.4336570651141
 20
785.3996055454195
 30
0.0
 11
258.1346189594375
 21
785.7746055454195
 31
0.0
  0
LINE
  5
92
330
47
100
AcDbEntity
  8
0
  6
Continuous
 62
     7
100
AcDbLine
 10
256.6086570651141
 20
785.7780837797284
 30
0.0
 11
256.6086570651141
 21
790.9836572153597
 31
0.0
  0
LINE
  5
93
330
47
100
AcDbEntity
  8
0
  6
Continuous
 62
     7
100
AcDbLine
 10
256.6086570651141
 20
790.9836572153597
 30
0.0
 11
260.6880173661662
 21
798.5958471683125
 31
0.0
  0
LINE
  5
94
330
47
100
AcDbEntity
  8
0
  6
Continuous
 62
     7
100
AcDbLine
 10
260.8086570651141
 20
786.590390475623
 30
0.0
 11
259.4336570651141
 21
785.3996055454195
 31
0.0
  0
LINE
  5
95
330
47
100
AcDbEntity
  8
0
  6
Continuous
 62
     7
100
AcDbLine
 10
252.2508803415546
 20
795.844673486107
 30
0.0
 11
250.3083461898121
 21
796.4054347938163
 31
0.0
  0
LINE
  5
96
330
47
100
AcDbEntity
  8
0
  6
Continuous
 62
     7
100
AcDbLine
 10
254.8463158387669
 20
804.1887025343538
 30
0.0
 11
267.4036841936412
 21
800.5637025343538
 31
0.0
  0
LINE
  5
97
330
47
100
AcDbEntity
  8
0
  6
Continuous
 62
     7
100
AcDbLine
 10
254.8463158387669
 20
800.2338428952806
 30
0.0
 11
254.8463158387669
 21
804.1887025343538
 31
0.0
  0
LINE
  5
98
330
47
100
AcDbEntity
  8
0
  6
Continuous
 62
     7
100
AcDbLine
 10
254.9286972055398
 20
798.1637309170006
 30
0.0
 11
252.2508803415546
 21
795.844673486107
 31
0.0
  0
LINE
  5
99
330
47
100
AcDbEntity
  8
0
  6
Continuous
 62
     7
100
AcDbLine
 10
248.0096189594375
 20
786.359172692974
 30
0.0
 11
249.3086570651141
 21
785.984172692974
 31
0.0
  0
LINE
  5
9A
330
47
100
AcDbEntity
  8
0
  6
Continuous
 62
     7
100
AcDbLine
 10
251.5086570651141
 20
785.3673058555679
 30
0.0
 11
251.5086570651141
 21
778.5363542204277
 31
0.0
  0
LINE
  5
9B
330
47
100
AcDbEntity
  8
0
  6
Continuous
 62
     7
100
AcDbLine
 10
250.2096189594375
 20
778.9113542204277
 30
0.0
 11
250.2096189594375
 21
785.7315483682582
 31
0.0
  0
LINE
  5
9C
330
47
100
AcDbEntity
  8
0
  6
Continuous
 62
     7
100
AcDbLine
 10
258.0586570651141
 20
778.7528605713738
 30
0.0
 11
255.3086570651141
 21
776.3712907109667
 31
0.0
  0
LINE
  5
9D
330
47
100
AcDbEntity
  8
0
  6
Continuous
 62
     7
100
AcDbLine
 10
248.5096189594375
 20
774.7111310120732
 30
0.0
 11
249.8086570651141
 21
774.3361310120732
 31
0.0
  0
LINE
  5
9E
330
47
100
AcDbEntity
  8
0
  6
Continuous
 62
     7
100
AcDbLine
 10
249.8086570651141
 20
777.0641110339942
 30
0.0
 11
249.8086570651141
 21
774.3361310120732
 31
0.0
  0
LINE
  5
9F
330
47
100
AcDbEntity
  8
0
  6
Continuous
 62
     7
100
AcDbLine
 10
249.8086570651141
 20
774.3361310120732
 30
0.0
 11
255.3086570651141
 21
776.3712907109667
 31
0.0
  0
LINE
  5
A0
330
47
100
AcDbEntity
  8
0
  6
Continuous
 62
     7
100
AcDbLine
 10
261.3086570651141
 20
810.4029456860999
 30
0.0
 11
261.3086570651141
 21
809.7852542042939
 31
0.0
  0
LINE
  5
A1
330
47
100
AcDbEntity
  8
0
  6
Continuous
 62
     7
100
AcDbLine
 10
263.8071796931765
 20
831.6530054664163
 30
0.0
 11
265.1928203392316
 21
831.2530054664163
 31
0.0
  0
LINE
  5
A2
330
47
100
AcDbEntity
  8
0
  6
Continuous
 62
     7
100
AcDbLine
 10
265.1928203392316
 20
831.2530054664163
 30
0.0
 11
265.1928203392316
 21
832.6386461124714
 31
0.0
  0
LINE
  5
A3
330
47
100
AcDbEntity
  8
0
  6
Continuous
 62
     7
100
AcDbLine
 10
262.0000000162041
 20
830.0962323338207
 30
0.0
 11
262.0000000162041
 21
833.5603339489584
 31
0.0
  0
LINE
  5
A4
330
47
100
AcDbEntity
  8
0
  6
Continuous
 62
     7
100
AcDbLine
 10
251.5086570651141
 20
778.5363542204277
 30
0.0
 11
250.2096189594375
 21
778.9113542204277
 31
0.0
  0
LINE
  5
A5
330
47
100
AcDbEntity
  8
0
  6
Continuous
 62
     7
100
AcDbLine
 10
251.5086570651141
 20
778.5363542204277
 30
0.0
 11
249.8086570651141
 21
777.0641110339942
 31
0.0
  0
LINE
  5
A6
330
47
100
AcDbEntity
  8
0
  6
Continuous
 62
     7
100
AcDbLine
 10
259.5096189594375
 20
786.965390475623
 30
0.0
 11
260.8086570651141
 21
786.590390475623
 31
0.0
  0
LINE
  5
A7
330
47
100
AcDbEntity
  8
0
  6
Continuous
 62
     7
100
AcDbLine
 10
249.3086570651141
 20
807.2000275028438
 30
0.0
 11
249.3086570651141
 21
785.984172692974
 31
0.0
  0
LINE
  5
A8
330
47
100
AcDbEntity
  8
0
  6
Continuous
 62
     7
100
AcDbLine
 10
261.0664776248198
 20
820.4969770783492
 30
0.0
 11
249.0664776248198
 21
810.104672232936
 31
0.0
  0
LINE
  5
A9
330
47
100
AcDbEntity
  8
0
  6
Continuous
 62
     7
100
AcDbLine
 10
248.5096189594375
 20
774.7111310120732
 30
0.0
 11
248.5096189594375
 21
777.4391110339942
 31
0.0
  0
LINE
  5
AA
330
47
100
AcDbEntity
  8
0
  6
Continuous
 62
     7
100
AcDbLine
 10
249.8086570651141
 20
777.0641110339942
 30
0.0
 11
248.5096189594375
 21
777.4391110339942
 31
0.0
  0
LINE
  5
AB
330
47
100
AcDbEntity
  8
0
  6
Continuous
 62
     7
100
AcDbLine
 10
248.5096189594375
 20
777.4391110339942
 30
0.0
 11
250.2096189594375
 21
778.9113542204277
 31
0.0
  0
LINE
  5
AC
330
47
100
AcDbEntity
  8
0
  6
Continuous
 62
     7
100
AcDbLine
 10
249.3086570651141
 20
785.984172692974
 30
0.0
 11
251.5086570651141
 21
785.3673058555679
 31
0.0
  0
LINE
  5
AD
330
47
100
AcDbEntity
  8
0
  6
Continuous
 62
     7
100
AcDbLine
 10
258.1346189594375
 20
785.7746055454195
 30
0.0
 11
259.5096189594375
 21
786.965390475623
 31
0.0
  0
LINE
  5
AE
330
47
100
AcDbEntity
  8
0
  6
Continuous
 62
     7
100
AcDbLine
 10
258.0586570651141
 20
778.7528605713738
 30
0.0
 11
260.8086570651141
 21
782.682068342983
 31
0.0
  0
LINE
  5
AF
330
47
100
AcDbEntity
  8
0
  6
Continuous
 62
     7
100
AcDbLine
 10
260.8086570651141
 20
782.682068342983
 30
0.0
 11
260.8086570651141
 21
786.590390475623
 31
0.0
  0
LINE
  5
B0
330
47
100
AcDbEntity
  8
0
  6
Continuous
 62
     2
100
AcDbLine
 10
249.246798107701
 20
810.2483422793575
 30
0.0
 11
261.246798107701
 21
820.6406471247708
 31
0.0
  0
LINE
  5
B1
330
47
100
AcDbEntity
  8
0
  6
Continuous
 62
     7
100
AcDbLine
 10
262.0000000162041
 20
836.4470852949065
 30
0.0
 11
267.0000000162041
 21
837.8904609678806
 31
0.0
  0
LINE
  5
B2
330
47
100
AcDbEntity
  8
0
  6
Continuous
 62
     7
100
AcDbLine
 10
270.1928203392316
 20
836.9687731313935
 30
0.0
 11
272.0000000162041
 21
836.4470852949065
 31
0.0
  0
LINE
  5
B3
330
47
100
AcDbEntity
  8
0
  6
Continuous
 62
     7
100
AcDbLine
 10
264.0000000162041
 20
818.7224320307851
 30
0.0
 11
264.0000000162041
 21
829.518882064631
 31
0.0
  0
LINE
  5
B4
330
47
100
AcDbEntity
  8
0
  6
Continuous
 62
     7
100
AcDbLine
 10
263.5000000162041
 20
816.7796473489262
 30
0.0
 11
263.5000000162041
 21
818.7224320307851
 31
0.0
  0
LINE
  5
B5
330
47
100
AcDbEntity
  8
0
  6
Continuous
 62
     7
100
AcDbLine
 10
267.0000000162041
 20
828.6528566608466
 30
0.0
 11
262.0000000162041
 21
830.0962323338207
 31
0.0
  0
LINE
  5
B6
330
47
100
AcDbEntity
  8
0
  6
Continuous
 62
     7
100
AcDbLine
 10
272.0000000162041
 20
830.0962323338206
 30
0.0
 11
267.0000000162041
 21
828.6528566608466
 31
0.0
  0
LINE
  5
B7
330
47
100
AcDbEntity
  8
0
  6
Continuous
 62
     2
100
AcDbLine
 10
249.3086570651141
 20
807.2000275028438
 30
0.0
 11
253.2279122833901
 21
810.5942020857855
 31
0.0
  0
LINE
  5
B8
330
47
100
AcDbEntity
  8
0
  6
Continuous
 62
     7
100
AcDbLine
 10
254.8463158387669
 20
801.0553299864257
 30
0.0
 11
252.1235120439694
 21
798.6973127306104
 31
0.0
  0
LINE
  5
B9
330
47
100
AcDbEntity
  8
0
  6
Continuous
 62
     7
100
AcDbLine
 10
285.9903810729707
 20
810.467332348257
 30
0.0
 11
285.9903810729707
 21
792.6289766131465
 31
0.0
  0
LINE
  5
BA
330
47
100
AcDbEntity
  8
0
  6
Continuous
 62
     7
100
AcDbLine
 10
254.8463158387669
 20
804.1887025343538
 30
0.0
 11
261.8267712667355
 21
810.2339542649595
 31
0.0
  0
LINE
  5
BB
330
47
100
AcDbEntity
  8
0
  6
Continuous
 62
     2
100
AcDbLine
 10
273.9903810729707
 20
800.0750275028437
 30
0.0
 11
285.9903810729707
 21
810.467332348257
 31
0.0
  0
LINE
  5
BC
330
47
100
AcDbEntity
  8
0
  6
Continuous
 62
     7
100
AcDbLine
 10
276.1903810729707
 20
771.4113542204277
 30
0.0
 11
274.4903810729707
 21
769.9391110339942
 31
0.0
  0
LINE
  5
BD
330
47
100
AcDbEntity
  8
0
  6
Continuous
 62
     7
100
AcDbLine
 10
271.941653842596
 20
790.1604367954179
 30
0.0
 11
269.9991196908535
 21
790.7211981031272
 31
0.0
  0
LINE
  5
BE
330
47
100
AcDbEntity
  8
0
  6
Continuous
 62
     7
100
AcDbLine
 10
267.4036841936412
 20
796.6088428952806
 30
0.0
 11
267.4036841936412
 21
800.5637025343538
 31
0.0
  0
LINE
  5
BF
330
47
100
AcDbEntity
  8
0
  6
Continuous
 62
     7
100
AcDbLine
 10
264.0000000162041
 20
807.4641017815873
 30
0.0
 11
264.0000000162041
 21
809.3292752415663
 31
0.0
  0
LINE
  5
C0
330
47
100
AcDbEntity
  8
0
  6
Continuous
 62
     7
100
AcDbLine
 10
273.9903810729707
 20
778.859172692974
 30
0.0
 11
276.1903810729707
 21
778.2423058555679
 31
0.0
  0
LINE
  5
C1
330
47
100
AcDbEntity
  8
0
  6
Continuous
 62
     7
100
AcDbLine
 10
276.1903810729707
 20
778.2423058555679
 30
0.0
 11
276.1903810729707
 21
771.4113542204277
 31
0.0
  0
LINE
  5
C2
330
47
100
AcDbEntity
  8
0
  6
Continuous
 62
     7
100
AcDbLine
 10
274.4903810729707
 20
767.2111310120732
 30
0.0
 11
279.9903810729707
 21
769.2462907109666
 31
0.0
  0
LINE
  5
C3
330
47
100
AcDbEntity
  8
0
  6
Continuous
 62
     7
100
AcDbLine
 10
282.7403810729707
 20
771.6278605713738
 30
0.0
 11
285.4903810729707
 21
775.557068342983
 31
0.0
  0
LINE
  5
C4
330
47
100
AcDbEntity
  8
0
  6
Continuous
 62
     7
100
AcDbLine
 10
284.1153810729707
 20
778.2746055454194
 30
0.0
 11
281.2903810729707
 21
778.6530837797284
 31
0.0
  0
LINE
  5
C5
330
47
100
AcDbEntity
  8
0
  6
Continuous
 62
     7
100
AcDbLine
 10
284.1153810729707
 20
778.2746055454194
 30
0.0
 11
282.816342967294
 21
778.6496055454194
 31
0.0
  0
LINE
  5
C6
330
47
100
AcDbEntity
  8
0
  6
Continuous
 62
     7
100
AcDbLine
 10
284.191342967294
 20
779.840390475623
 30
0.0
 11
285.4903810729707
 21
779.465390475623
 31
0.0
  0
LINE
  5
C7
330
47
100
AcDbEntity
  8
0
  6
Continuous
 62
     7
100
AcDbLine
 10
282.816342967294
 20
778.6496055454194
 30
0.0
 11
284.191342967294
 21
779.840390475623
 31
0.0
  0
LINE
  5
C8
330
47
100
AcDbEntity
  8
0
  6
Continuous
 62
     7
100
AcDbLine
 10
285.4903810729707
 20
779.465390475623
 30
0.0
 11
284.1153810729707
 21
778.2746055454194
 31
0.0
  0
LINE
  5
C9
330
47
100
AcDbEntity
  8
0
  6
Continuous
 62
     7
100
AcDbLine
 10
285.4903810729707
 20
775.557068342983
 30
0.0
 11
285.4903810729707
 21
779.465390475623
 31
0.0
  0
LINE
  5
CA
330
47
100
AcDbEntity
  8
0
  6
Continuous
 62
     7
100
AcDbLine
 10
281.2903810729707
 20
778.8540456740517
 30
0.0
 11
282.816342967294
 21
778.6496055454194
 31
0.0
  0
LINE
  5
CB
330
47
100
AcDbEntity
  8
0
  6
Continuous
 62
     7
100
AcDbLine
 10
274.891342967294
 20
771.7863542204277
 30
0.0
 11
274.891342967294
 21
778.6065483682582
 31
0.0
  0
LINE
  5
CC
330
47
100
AcDbEntity
  8
0
  6
Continuous
 62
     7
100
AcDbLine
 10
273.191342967294
 20
770.3141110339942
 30
0.0
 11
274.891342967294
 21
771.7863542204277
 31
0.0
  0
LINE
  5
CD
330
47
100
AcDbEntity
  8
0
  6
Continuous
 62
     7
100
AcDbLine
 10
276.1903810729707
 20
771.4113542204277
 30
0.0
 11
274.891342967294
 21
771.7863542204277
 31
0.0
  0
LINE
  5
CE
330
47
100
AcDbEntity
  8
0
  6
Continuous
 62
     7
100
AcDbLine
 10
282.7403810729707
 20
771.6278605713738
 30
0.0
 11
279.9903810729707
 21
769.2462907109666
 31
0.0
  0
LINE
  5
CF
330
47
100
AcDbEntity
  8
0
  6
Continuous
 62
     7
100
AcDbLine
 10
281.2903810729707
 20
778.6530837797284
 30
0.0
 11
281.2903810729707
 21
783.8586572153596
 31
0.0
  0
LINE
  5
D0
330
47
100
AcDbEntity
  8
0
  6
Continuous
 62
     7
100
AcDbLine
 10
272.691342967294
 20
790.8096866223473
 30
0.0
 11
271.941653842596
 21
790.1604367954179
 31
0.0
  0
LINE
  5
D1
330
47
100
AcDbEntity
  8
0
  6
Continuous
 62
     7
100
AcDbLine
 10
272.6196615677366
 20
801.126011806812
 30
0.0
 11
267.4036841936412
 21
796.6088428952806
 31
0.0
  0
LINE
  5
D2
330
47
100
AcDbEntity
  8
0
  6
Continuous
 62
     2
100
AcDbLine
 10
272.7532019247072
 20
803.4626279936432
 30
0.0
 11
284.7532019247072
 21
813.8549328390565
 31
0.0
  0
LINE
  5
D3
330
47
100
AcDbEntity
  8
0
  6
Continuous
 62
     7
100
AcDbLine
 10
274.4903810729707
 20
769.9391110339942
 30
0.0
 11
274.4903810729707
 21
767.2111310120732
 31
0.0
  0
LINE
  5
D4
330
47
100
AcDbEntity
  8
0
  6
Continuous
 62
     7
100
AcDbLine
 10
273.191342967294
 20
767.5861310120732
 30
0.0
 11
274.4903810729707
 21
767.2111310120732
 31
0.0
  0
LINE
  5
D5
330
47
100
AcDbEntity
  8
0
  6
Continuous
 62
     7
100
AcDbLine
 10
273.9903810729707
 20
800.0750275028437
 30
0.0
 11
273.9903810729707
 21
778.859172692974
 31
0.0
  0
LINE
  5
D6
330
47
100
AcDbEntity
  8
0
  6
Continuous
 62
     7
100
AcDbLine
 10
267.0000000162041
 20
828.6528566608466
 30
0.0
 11
267.0000000162041
 21
832.1169582759843
 31
0.0
  0
LINE
  5
D7
330
47
100
AcDbEntity
  8
0
  6
Continuous
 62
     7
100
AcDbLine
 10
272.0000000162041
 20
830.0962323338206
 30
0.0
 11
272.0000000162041
 21
833.5603339489584
 31
0.0
  0
LINE
  5
D8
330
47
100
AcDbEntity
  8
0
  6
Continuous
 62
     7
100
AcDbLine
 10
274.4903810729707
 20
769.9391110339942
 30
0.0
 11
273.191342967294
 21
770.3141110339942
 31
0.0
  0
LINE
  5
D9
330
47
100
AcDbEntity
  8
0
  6
Continuous
 62
     7
100
AcDbLine
 10
272.691342967294
 20
779.234172692974
 30
0.0
 11
273.9903810729707
 21
778.859172692974
 31
0.0
  0
LINE
  5
DA
330
47
100
AcDbEntity
  8
0
  6
Continuous
 62
     7
100
AcDbLine
 10
270.0000000162041
 20
818.7224320307851
 30
0.0
 11
270.0000000162041
 21
829.518882064631
 31
0.0
  0
LINE
  5
DB
330
47
100
AcDbEntity
  8
0
  6
Continuous
 62
     7
100
AcDbLine
 10
272.691342967294
 20
800.4500275028437
 30
0.0
 11
272.691342967294
 21
779.234172692974
 31
0.0
  0
LINE
  5
DC
330
47
100
AcDbEntity
  8
0
  6
Continuous
 62
     7
100
AcDbLine
 10
270.5000000162041
 20
816.7796473489262
 30
0.0
 11
270.5000000162041
 21
818.7224320307851
 31
0.0
  0
LINE
  5
DD
330
47
100
AcDbEntity
  8
0
  6
Continuous
 62
     7
100
AcDbLine
 10
273.191342967294
 20
767.5861310120732
 30
0.0
 11
273.191342967294
 21
770.3141110339942
 31
0.0
  0
LINE
  5
DE
330
47
100
AcDbEntity
  8
0
  6
Continuous
 62
     7
100
AcDbLine
 10
267.0000000162041
 20
837.8904609678806
 30
0.0
 11
268.8071796931765
 21
837.3687731313936
 31
0.0
  0
LINE
  5
DF
330
47
100
AcDbEntity
  8
0
  6
Continuous
 62
     7
100
AcDbLine
 10
272.0000000162041
 20
836.4470852949065
 30
0.0
 11
272.0000000162041
 21
833.5603339489584
 31
0.0
  0
LINE
  5
E0
330
47
100
AcDbEntity
  8
0
  6
Continuous
 62
     7
100
AcDbLine
 10
267.4036841936412
 20
800.5637025343538
 30
0.0
 11
271.0798569714752
 21
803.7473615486588
 31
0.0
  0
SPLINE
  5
E1
330
47
100
AcDbEntity
  8
0
  6
Continuous
 62
     7
100
AcDbSpline
210
0.0
220
0.0
230
1.0
 70
     8
 71
     3
 72
    11
 73
     7
 74
     5
 42
0.000000001
 43
0.0000000001
 44
0.00000001
 40
0.0
 40
0.0
 40
0.0
 40
0.0
 40
0.8611523178358057
 40
1.765645415744298
 40
2.704659508794301
 40
3.665419784588819
 40
3.665419784588819
 40
3.665419784588819
 40
3.665419784588819
 10
285.9903810729707
 20
810.467332348257
 30
0.0
 10
285.9739101540086
 20
810.7547488989866
 30
0.0
 10
285.9401393391855
 20
811.344047334755
 30
0.0
 10
285.6846075244737
 20
812.2150602786621
 30
0.0
 10
285.3015212822108
 20
813.0723271652454
 30
0.0
 10
284.9373645147936
 20
813.5920811246896
 30
0.0
 10
284.7532019247072
 20
813.8549328390565
 30
0.0
 11
285.9903810729707
 21
810.467332348257
 31
0.0
 11
285.9093200516491
 21
811.3246610059176
 31
0.0
 11
285.6691726827348
 21
812.1966914003112
 31
0.0
 11
285.2789294681254
 21
813.0507743607521
 31
0.0
 11
284.7532019247072
 21
813.8549328390565
 31
0.0
  0
SPLINE
  5
E2
330
47
100
AcDbEntity
  8
0
  6
Continuous
 62
     7
100
AcDbSpline
210
0.0
220
0.0
230
1.0
 70
     8
 71
     3
 72
     9
 73
     5
 74
     3
 42
0.000000001
 43
0.0000000001
 44
0.00000001
 40
0.0
 40
0.0
 40
0.0
 40
0.0
 40
1.584209478162893
 40
3.141722328418266
 40
3.141722328418266
 40
3.141722328418266
 40
3.141722328418266
 10
254.8463158387669
 20
800.2338428952806
 30
0.0
 10
254.3503504226304
 20
800.0433298890163
 30
0.0
 10
253.3667774612494
 20
799.6655143274053
 30
0.0
 10
252.5355794918688
 20
799.0182131319311
 30
0.0
 10
252.1235120439694
 20
798.6973127306104
 30
0.0
 11
254.8463158387669
 21
800.2338428952806
 31
0.0
 11
253.3971634924689
 21
799.5937826238669
 31
0.0
 11
252.1235120439694
 21
798.6973127306104
 31
0.0
  0
SPLINE
  5
E3
330
47
100
AcDbEntity
  8
0
  6
Continuous
 62
     7
100
AcDbSpline
210
0.0
220
0.0
230
1.0
 70
     8
 71
     3
 72
     9
 73
     5
 74
     3
 42
0.000000001
 43
0.0000000001
 44
0.00000001
 40
0.0
 40
0.0
 40
0.0
 40
0.0
 40
1.457115825157103
 40
2.936184607610938
 40
2.936184607610938
 40
2.936184607610938
 40
2.936184607610938
 10
252.1235120439694
 20
798.6973127306104
 30
0.0
 10
251.7703545411833
 20
798.3601390340481
 30
0.0
 10
251.0587188674457
 20
797.6807117573228
 30
0.0
 10
250.5597140459307
 20
796.8326407084586
 30
0.0
 10
250.3083461898121
 20
796.4054347938163
 30
0.0
 11
252.1235120439694
 21
798.6973127306104
 31
0.0
 11
251.1164053392107
 21
797.6442587833471
 31
0.0
 11
250.3083461898121
 21
796.4054347938163
 31
0.0
  0
SPLINE
  5
E4
330
47
100
AcDbEntity
  8
0
  6
Continuous
 62
     7
100
AcDbSpline
210
0.0
220
0.0
230
1.0
 70
     8
 71
     3
 72
     9
 73
     5
 74
     3
 42
0.000000001
 43
0.0000000001
 44
0.00000001
 40
0.0
 40
0.0
 40
0.0
 40
0.0
 40
0.8921839211200383
 40
1.791370362977719
 40
1.791370362977719
 40
1.791370362977719
 40
1.791370362977719
 10
253.4328193853853
 20
797.1854548385735
 30
0.0
 10
253.214211111029
 20
796.98261133741
 30
0.0
 10
252.775278777026
 20
796.5753322552553
 30
0.0
 10
252.4261347530723
 20
796.0888602912537
 30
0.0
 10
252.2508803415546
 20
795.844673486107
 30
0.0
 11
253.4328193853853
 21
797.1854548385735
 31
0.0
 11
252.7992664971588
 21
796.557280588769
 31
0.0
 11
252.2508803415546
 21
795.844673486107
 31
0.0
  0
SPLINE
  5
E5
330
47
100
AcDbEntity
  8
0
  6
Continuous
 62
     7
100
AcDbSpline
210
0.0
220
0.0
230
1.0
 70
     8
 71
     3
 72
    17
 73
    13
 74
    11
 42
0.000000001
 43
0.0000000001
 44
0.00000001
 40
0.0
 40
0.0
 40
0.0
 40
0.0
 40
2.218171999306688
 40
4.464960215121692
 40
6.704695734007027
 40
8.90241119073174
 40
11.02743617524513
 40
13.05705555510657
 40
14.98016429336444
 40
16.80055239419787
 40
18.53881480526227
 40
20.23114901547649
 40
20.23114901547649
 40
20.23114901547649
 40
20.23114901547649
 10
269.9991196908535
 20
790.7211981031272
 30
0.0
 10
269.6479187165053
 20
791.3733525634473
 30
0.0
 10
268.9409859783386
 20
792.6860747980361
 30
0.0
 10
267.5302280816304
 20
794.4347560528245
 30
0.0
 10
265.9105623260443
 20
795.9733711228326
 30
0.0
 10
264.111587813193
 20
797.2332363095975
 30
0.0
 10
262.2039603959644
 20
798.1727549945749
 30
0.0
 10
260.2532934921661
 20
798.7554853363534
 30
0.0
 10
258.3259779350668
 20
798.9609225326044
 30
0.0
 10
256.4984889578308
 20
798.7676510686102
 30
0.0
 10
254.8113255574921
 20
798.2088393582719
 30
0.0
 10
253.8882019033821
 20
797.5235247265445
 30
0.0
 10
253.4328193853853
 20
797.1854548385735
 30
0.0
 11
269.9991196908535
 21
790.7211981031272
 31
0.0
 11
268.8881209142144
 21
792.6410857882552
 31
0.0
 11
267.4928540356066
 21
794.4021330958549
 31
0.0
 11
265.8644095778918
 21
795.9398534351014
 31
0.0
 11
264.0624185558181
 21
797.1979399131003
 31
0.0
 11
262.1528653720169
 21
798.1303227879628
 31
0.0
 11
260.2056740607648
 21
798.7028617193779
 31
0.0
 11
258.2921465552542
 21
798.8945899389723
 31
0.0
 11
256.4823517993787
 21
798.6984884636064
 31
0.0
 11
254.8425611718243
 21
798.1217364159568
 31
0.0
 11
253.4328193853853
 21
797.1854548385735
 31
0.0
  0
SPLINE
  5
E6
330
47
100
AcDbEntity
  8
0
  6
Continuous
 62
     7
100
AcDbSpline
210
0.0
220
0.0
230
1.0
 70
     8
 71
     3
 72
     9
 73
     5
 74
     3
 42
0.000000001
 43
0.0000000001
 44
0.00000001
 40
0.0
 40
0.0
 40
0.0
 40
0.0
 40
0.1153449790779602
 40
0.2306053899793293
 40
0.2306053899793293
 40
0.2306053899793293
 40
0.2306053899793293
 10
261.246798107701
 20
820.6406471247708
 30
0.0
 10
261.2159980303336
 20
820.6176166274491
 30
0.0
 10
261.154420469776
 20
820.571572502452
 30
0.0
 10
261.0957847345869
 20
820.5218361450711
 30
0.0
 10
261.0664776248198
 20
820.4969770783492
 30
0.0
 11
261.246798107701
 21
820.6406471247708
 31
0.0
 11
261.1551338775275
 21
820.5706318896257
 31
0.0
 11
261.0664776248198
 21
820.4969770783492
 31
0.0
  0
SPLINE
  5
E7
330
47
100
AcDbEntity
  8
0
  6
Continuous
 62
     7
100
AcDbSpline
210
0.0
220
0.0
230
1.0
 70
     8
 71
     3
 72
     9
 73
     5
 74
     3
 42
0.000000001
 43
0.0000000001
 44
0.00000001
 40
0.0
 40
0.0
 40
0.0
 40
0.0
 40
0.1153449790780744
 40
0.2306053899793272
 40
0.2306053899793272
 40
0.2306053899793272
 40
0.2306053899793272
 10
249.246798107701
 20
810.2483422793575
 30
0.0
 10
249.2159980303336
 20
810.225311782036
 30
0.0
 10
249.1544204697759
 20
810.1792676570385
 30
0.0
 10
249.0957847345869
 20
810.1295312996576
 30
0.0
 10
249.0664776248198
 20
810.104672232936
 30
0.0
 11
249.246798107701
 21
810.2483422793575
 31
0.0
 11
249.1551338775275
 21
810.1783270442123
 31
0.0
 11
249.0664776248198
 21
810.104672232936
 31
0.0
  0
SPLINE
  5
E8
330
47
100
AcDbEntity
  8
0
  6
Continuous
 62
     7
100
AcDbSpline
210
0.0
220
0.0
230
1.0
 70
     8
 71
     3
 72
     9
 73
     5
 74
     3
 42
0.000000001
 43
0.0000000001
 44
0.00000001
 40
0.0
 40
0.0
 40
0.0
 40
0.0
 40
1.573831882236407
 40
3.126257682212526
 40
3.126257682212526
 40
3.126257682212526
 40
3.126257682212526
 10
264.0000000162041
 20
822.1051044993277
 30
0.0
 10
263.511932142001
 20
821.9082910100467
 30
0.0
 10
262.5424347359354
 20
821.5173409232357
 30
0.0
 10
261.6767010325777
 20
820.9315413695614
 30
0.0
 10
261.246798107701
 20
820.6406471247708
 30
0.0
 11
264.0000000162041
 21
822.1051044993277
 31
0.0
 11
262.5620937845129
 21
821.4652822860293
 31
0.0
 11
261.246798107701
 21
820.6406471247708
 31
0.0
  0
SPLINE
  5
E9
330
47
100
AcDbEntity
  8
0
  6
Continuous
 62
     7
100
AcDbSpline
210
0.0
220
0.0
230
1.0
 70
     8
 71
     3
 72
    11
 73
     7
 74
     5
 42
0.000000001
 43
0.0000000001
 44
0.00000001
 40
0.0
 40
0.0
 40
0.0
 40
0.0
 40
0.6702890578188259
 40
1.356452901228218
 40
2.071417544951609
 40
2.823257477960072
 40
2.823257477960072
 40
2.823257477960072
 40
2.823257477960072
 10
249.0664776248198
 20
810.104672232936
 30
0.0
 10
248.9073374075629
 20
809.946245632063
 30
0.0
 10
248.5852879880605
 20
809.6256403253352
 30
0.0
 10
248.2577447293156
 20
809.0081744795408
 30
0.0
 10
248.04627153074
 20
808.3163174221236
 30
0.0
 10
248.0220395413153
 20
807.8262310471675
 30
0.0
 10
248.0096189594375
 20
807.5750275028437
 30
0.0
 11
249.0664776248198
 21
810.104672232936
 31
0.0
 11
248.6153212795242
 21
809.6089451152171
 31
0.0
 11
248.2824274218592
 21
809.0089430295725
 31
0.0
 11
248.07836693128
 21
808.3237176937769
 31
0.0
 11
248.0096189594375
 21
807.5750275028437
 31
0.0
  0
SPLINE
  5
EA
330
47
100
AcDbEntity
  8
0
  6
Continuous
 62
     7
100
AcDbSpline
210
0.0
220
0.0
230
1.0
 70
     8
 71
     3
 72
    11
 73
     7
 74
     5
 42
0.000000001
 43
0.0000000001
 44
0.00000001
 40
0.0
 40
0.0
 40
0.0
 40
0.0
 40
0.2883603701976974
 40
0.5503579325761954
 40
0.7919843279900307
 40
1.022359370880235
 40
1.022359370880235
 40
1.022359370880235
 40
1.022359370880235
 10
263.9689111029585
 20
819.5974320307851
 30
0.0
 10
263.8986028353339
 20
819.5314662955045
 30
0.0
 10
263.7644141125314
 20
819.4055656090118
 30
0.0
 10
263.6155293636761
 20
819.1855643042543
 30
0.0
 10
263.5182569860469
 20
818.9572205383965
 30
0.0
 10
263.5059881820111
 20
818.799441176794
 30
0.0
 10
263.5000000162041
 20
818.7224320307851
 30
0.0
 11
263.9689111029585
 21
819.5974320307851
 31
0.0
 11
263.7664216658753
 21
819.3921280346361
 31
0.0
 11
263.6192596241923
 21
819.1753653597144
 31
0.0
 11
263.5299430158409
 21
818.9508528662193
 31
0.0
 11
263.5000000162041
 21
818.7224320307851
 31
0.0
  0
SPLINE
  5
EB
330
47
100
AcDbEntity
  8
0
  6
Continuous
 62
     7
100
AcDbSpline
210
0.0
220
0.0
230
1.0
 70
     8
 71
     3
 72
     9
 73
     5
 74
     3
 42
0.000000001
 43
0.0000000001
 44
0.00000001
 40
0.0
 40
0.0
 40
0.0
 40
0.0
 40
0.0204552151911391
 40
0.0407784013173754
 40
0.0407784013173754
 40
0.0407784013173754
 40
0.0407784013173754
 10
264.0000000162041
 20
819.623819849651
 30
0.0
 10
263.9947691220671
 20
819.6194460852079
 30
0.0
 10
263.9843411097286
 20
819.6107267716925
 30
0.0
 10
263.9740433204481
 20
819.6018540403348
 30
0.0
 10
263.9689111029585
 20
819.5974320307851
 30
0.0
 11
264.0000000162041
 21
819.623819849651
 31
0.0
 11
263.984340107187
 21
819.6106599453918
 31
0.0
 11
263.9689111029585
 21
819.5974320307851
 31
0.0
  0
SPLINE
  5
EC
330
47
100
AcDbEntity
  8
0
  6
Continuous
 62
     7
100
AcDbSpline
210
0.0
220
0.0
230
1.0
 70
     8
 71
     3
 72
    19
 73
    15
 74
    13
 42
0.000000001
 43
0.0000000001
 44
0.00000001
 40
0.0
 40
0.0
 40
0.0
 40
0.0
 40
0.4014610051777809
 40
0.871247155898089
 40
1.440286931547105
 40
2.105766040141391
 40
2.84466364992891
 40
3.622801020616918
 40
4.400938391304926
 40
5.139836001092445
 40
5.805315109686731
 40
6.374354885335794
 40
6.844141036056015
 40
7.24560204123392
 40
7.24560204123392
 40
7.24560204123392
 40
7.24560204123392
 10
264.0000000162041
 20
818.7224320307851
 30
0.0
 10
264.0228593359499
 20
818.588010635973
 30
0.0
 10
264.0724684496304
 20
818.2962905101863
 30
0.0
 10
264.4164349080076
 20
817.9311037283132
 30
0.0
 10
264.8971965954831
 20
817.6286316792915
 30
0.0
 10
265.5192360167187
 20
817.3989651478157
 30
0.0
 10
266.234219922061
 20
817.2548998845547
 30
0.0
 10
267.0000000162041
 20
817.2057781805831
 30
0.0
 10
267.7657801103471
 20
817.2548998845548
 30
0.0
 10
268.4807640156895
 20
817.3989651478157
 30
0.0
 10
269.1028034369249
 20
817.6286316792915
 30
0.0
 10
269.5835651244006
 20
817.9311037283134
 30
0.0
 10
269.9275315827778
 20
818.2962905101859
 30
0.0
 10
269.9771406964584
 20
818.588010635973
 30
0.0
 10
270.0000000162041
 20
818.7224320307851
 30
0.0
 11
264.0000000162041
 21
818.7224320307851
 31
0.0
 11
264.1022233099011
 21
818.3342035666352
 31
0.0
 11
264.4019238048508
 21
817.9724320307851
 31
0.0
 11
264.8786802382007
 21
817.6617721417832
 31
0.0
 11
265.5000000162041
 21
817.4233939251084
 31
0.0
 11
266.2235430879044
 21
817.2735436776335
 31
0.0
 11
267.0000000162041
 21
817.2224320307851
 31
0.0
 11
267.7764569445037
 21
817.2735436776335
 31
0.0
 11
268.5000000162041
 21
817.4233939251084
 31
0.0
 11
269.1213197942075
 21
817.6617721417832
 31
0.0
 11
269.5980762275574
 21
817.9724320307851
 31
0.0
 11
269.8977767225071
 21
818.3342035666351
 31
0.0
 11
270.0000000162041
 21
818.7224320307851
 31
0.0
  0
SPLINE
  5
ED
330
47
100
AcDbEntity
  8
0
  6
Continuous
 62
     7
100
AcDbSpline
210
0.0
220
0.0
230
1.0
 70
     8
 71
     3
 72
    29
 73
    25
 74
    23
 42
0.000000001
 43
0.0000000001
 44
0.00000001
 40
0.0
 40
0.0
 40
0.0
 40
0.0
 40
0.4970710647942548
 40
1.080845821629687
 40
1.410153717864032
 40
1.716777731961403
 40
2.05461634621472
 40
2.400224630933465
 40
2.854544450220857
 40
3.244822723682015
 40
3.714351179273482
 40
4.0888260572789
 40
4.496884500304861
 40
4.891989684166202
 40
5.081088253770124
 40
5.266018524592424
 40
5.443297266103445
 40
5.615956870486587
 40
6.130364600863505
 40
6.588409217190428
 40
6.787227760739611
 40
6.948756091269025
 40
7.100659224528542
 40
7.263102786235192
 40
7.263102786235192
 40
7.263102786235192
 40
7.263102786235192
 10
270.0310889294496
 20
815.8337925409477
 30
0.0
 10
269.8967596446201
 20
815.7356292916033
 30
0.0
 10
269.6046701237173
 20
815.5221802688923
 30
0.0
 10
269.1568467305684
 20
815.3614786028359
 30
0.0
 10
268.7627926034436
 20
815.2627813687275
 30
0.0
 10
268.4425902181517
 20
815.2073476669912
 30
0.0
 10
268.1144749831113
 20
815.1705869385721
 30
0.0
 10
267.7356228377427
 20
815.1494985703571
 30
0.0
 10
267.3386280095121
 20
815.1501750191852
 30
0.0
 10
266.9011024466701
 20
815.1742535805303
 30
0.0
 10
266.491741210186
 20
815.2175106120615
 30
0.0
 10
266.0791294931634
 20
815.2809956325232
 30
0.0
 10
265.6940422479724
 20
815.3579046637971
 30
0.0
 10
265.3730685687091
 20
815.4383864562813
 30
0.0
 10
265.1270557841074
 20
815.5106471480956
 30
0.0
 10
264.9522297332921
 20
815.5673594692364
 30
0.0
 10
264.7843259195356
 20
815.6274169512978
 30
0.0
 10
264.5163165611843
 20
815.7332493160975
 30
0.0
 10
264.171292183401
 20
815.8984160760616
 30
0.0
 10
263.8482366388016
 20
816.1241692219803
 30
0.0
 10
263.6628058057988
 20
816.3261931252417
 30
0.0
 10
263.5713731790213
 20
816.4710986762093
 30
0.0
 10
263.5117956225891
 20
816.6202820959024
 30
0.0
 10
263.5040188095176
 20
816.7253512326098
 30
0.0
 10
263.5000000162041
 20
816.7796473489262
 30
0.0
 11
270.0310889294496
 21
815.8337925409477
 31
0.0
 11
269.6172817435833
 21
815.558396011733
 31
0.0
 11
269.0739819176856
 21
815.344811682272
 31
0.0
 11
268.7544827663649
 21
815.2650371056106
 31
0.0
 11
268.452478280385
 21
815.2120128045389
 31
0.0
 11
268.1167872204537
 21
815.1739806931979
 31
0.0
 11
267.7717359909198
 21
815.1543660218938
 31
0.0
 11
267.3174162093358
 21
815.1545503488308
 31
0.0
 11
266.9277149043404
 21
815.1757641036924
 31
0.0
 11
266.4607679012892
 21
815.224931843275
 31
0.0
 11
266.090653122195
 21
815.2819097717602
 31
0.0
 11
265.6905369047342
 21
815.3620265938437
 31
0.0
 11
265.307397515652
 21
815.45852692845
 31
0.0
 11
265.1259849840881
 21
815.5118913580981
 31
0.0
 11
264.9501050808669
 21
815.5690356022691
 31
0.0
 11
264.7832211507659
 21
815.6288478585295
 31
0.0
 11
264.6226635538979
 21
815.6923505907887
 31
0.0
 11
264.1612448085421
 21
815.919744640238
 31
0.0
 11
263.7924642731037
 21
816.1914168438079
 31
0.0
 11
263.6596316389927
 21
816.339350289079
 31
0.0
 11
263.5740917901554
 21
816.4763697600866
 31
0.0
 11
263.520489216449
 21
816.6185011238151
 31
0.0
 11
263.5000000162041
 21
816.7796473489262
 31
0.0
  0
SPLINE
  5
EE
330
47
100
AcDbEntity
  8
0
  6
Continuous
 62
     7
100
AcDbSpline
210
0.0
220
0.0
230
1.0
 70
     8
 71
     3
 72
    21
 73
    17
 74
    15
 42
0.000000001
 43
0.0000000001
 44
0.00000001
 40
0.0
 40
0.0
 40
0.0
 40
0.0
 40
0.3991765463468159
 40
0.8506424425765171
 40
1.383532183908412
 40
2.003141811389964
 40
2.698743368954683
 40
3.449749950554112
 40
4.229808147133856
 40
5.009866343713487
 40
5.76087292531288
 40
6.456474482877565
 40
7.076084110359218
 40
7.608973851691113
 40
8.060439747920846
 40
8.459616294267661
 40
8.459616294267661
 40
8.459616294267661
 40
8.459616294267661
 10
263.5000000162041
 20
818.7224320307851
 30
0.0
 10
263.5189593340424
 20
818.5887293370346
 30
0.0
 10
263.559361525897
 20
818.3038098333692
 30
0.0
 10
263.8531128815324
 20
817.9267905742456
 30
0.0
 10
264.2772030854141
 20
817.59936355791
 30
0.0
 10
264.8357168476634
 20
817.3290480204361
 30
0.0
 10
265.4957827020236
 20
817.1263786771088
 30
0.0
 10
266.2292320531203
 20
817.0006613314617
 30
0.0
 10
267.0000000162041
 20
816.9580498222095
 30
0.0
 10
267.7707679792878
 20
817.0006613314621
 30
0.0
 10
268.5042173303844
 20
817.1263786771086
 30
0.0
 10
269.1642831847448
 20
817.3290480204362
 30
0.0
 10
269.722796946994
 20
817.5993635579096
 30
0.0
 10
270.1468871508758
 20
817.926790574246
 30
0.0
 10
270.4406385065112
 20
818.3038098333691
 30
0.0
 10
270.4810406983659
 20
818.5887293370346
 30
0.0
 10
270.5000000162041
 20
818.7224320307851
 30
0.0
 11
263.5000000162041
 21
818.7224320307851
 31
0.0
 11
263.5877526842468
 21
818.3330204375228
 31
0.0
 11
263.8466089785456
 21
817.9631354873293
 31
0.0
 11
264.2635901168082
 21
817.6313249928637
 31
0.0
 11
264.8177857096985
 21
817.3542269364659
 31
0.0
 11
265.4814070898099
 21
817.1457366786145
 31
0.0
 11
266.221176747357
 21
817.0163081844669
 31
0.0
 11
267.0000000162041
 21
816.9724322157624
 31
0.0
 11
267.7788232850511
 21
817.0163081844669
 31
0.0
 11
268.5185929425982
 21
817.1457366786146
 31
0.0
 11
269.1822143227096
 21
817.3542269364659
 31
0.0
 11
269.7364099156
 21
817.6313249928637
 31
0.0
 11
270.1533910538625
 21
817.9631354873293
 31
0.0
 11
270.4122473481614
 21
818.3330204375228
 31
0.0
 11
270.5000000162041
 21
818.7224320307851
 31
0.0
  0
SPLINE
  5
EF
330
47
100
AcDbEntity
  8
0
  6
Continuous
 62
     7
100
AcDbSpline
210
0.0
220
0.0
230
1.0
 70
     8
 71
     3
 72
    11
 73
     7
 74
     5
 42
0.000000001
 43
0.0000000001
 44
0.00000001
 40
0.0
 40
0.0
 40
0.0
 40
0.0
 40
0.4692023400008356
 40
0.9495170296777635
 40
1.449992279684537
 40
1.976280232637661
 40
1.976280232637661
 40
1.976280232637661
 40
1.976280232637661
 10
250.0484581308818
 20
808.9707788139083
 30
0.0
 10
249.9370599789141
 20
808.859880193409
 30
0.0
 10
249.7116253888688
 20
808.635456476028
 30
0.0
 10
249.4823451062274
 20
808.2032303857852
 30
0.0
 10
249.3343138693852
 20
807.7189304455627
 30
0.0
 10
249.317351472426
 20
807.3758699838194
 30
0.0
 10
249.3086570651141
 20
807.2000275028438
 30
0.0
 11
250.0484581308818
 21
808.9707788139083
 31
0.0
 11
249.7326486891749
 21
808.6237698315051
 31
0.0
 11
249.4996229888093
 21
808.2037683715538
 31
0.0
 11
249.356780645404
 21
807.724110636497
 31
0.0
 11
249.3086570651141
 21
807.2000275028438
 31
0.0
  0
SPLINE
  5
F0
330
47
100
AcDbEntity
  8
0
  6
Continuous
 62
     7
100
AcDbSpline
210
0.0
220
0.0
230
1.0
 70
     8
 71
     3
 72
     9
 73
     5
 74
     3
 42
0.000000001
 43
0.0000000001
 44
0.00000001
 40
0.0
 40
0.0
 40
0.0
 40
0.0
 40
0.080741485293164
 40
0.1614237728626369
 40
0.1614237728626369
 40
0.1614237728626369
 40
0.1614237728626369
 10
250.1746824688986
 20
809.0713478464033
 30
0.0
 10
250.1531224147578
 20
809.0552264982906
 30
0.0
 10
250.1100181260894
 20
809.0229956060878
 30
0.0
 10
250.0689731077032
 20
808.9881801606005
 30
0.0
 10
250.0484581308818
 20
808.9707788139083
 30
0.0
 11
250.1746824688986
 21
809.0713478464033
 31
0.0
 11
250.1105175077771
 21
809.0223371818018
 31
0.0
 11
250.0484581308818
 21
808.9707788139083
 31
0.0
  0
SPLINE
  5
F1
330
47
100
AcDbEntity
  8
0
  6
Continuous
 62
     7
100
AcDbSpline
210
0.0
220
0.0
230
1.0
 70
     8
 71
     3
 72
    17
 73
    13
 74
    11
 42
0.000000001
 43
0.0000000001
 44
0.00000001
 40
0.0
 40
0.0
 40
0.0
 40
0.0
 40
0.3280432890331926
 40
0.6961007122512836
 40
1.127474874147638
 40
1.627687757510403
 40
2.189946022676729
 40
2.799699300324405
 40
3.437691658324997
 40
4.082206792207169
 40
4.710988774102949
 40
5.303100998020462
 40
5.303100998020462
 40
5.303100998020462
 40
5.303100998020462
 10
264.0000000162041
 20
807.4641017815873
 30
0.0
 10
264.0148599764648
 20
807.3542323345383
 30
0.0
 10
264.0463924989698
 20
807.1210917656291
 30
0.0
 10
264.2780308046091
 20
806.808942473476
 30
0.0
 10
264.6150137314625
 20
806.5349311655079
 30
0.0
 10
265.0606272247578
 20
806.3049466777413
 30
0.0
 10
265.5904108064972
 20
806.1270968503077
 30
0.0
 10
266.1835709317954
 20
806.0089754341685
 30
0.0
 10
266.8133969552811
 20
805.9553161368849
 30
0.0
 10
267.4511141591551
 20
805.9707654361242
 30
0.0
 10
268.0705152618304
 20
806.046602125019
 30
0.0
 10
268.462441626934
 20
806.1581071687511
 30
0.0
 10
268.6525190223798
 20
806.2121851575436
 30
0.0
 11
264.0000000162041
 21
807.4641017815873
 31
0.0
 11
264.0693379906064
 21
807.1434701382678
 31
0.0
 11
264.2741457967519
 21
806.83765969043
 31
0.0
 11
264.6049570762926
 21
806.5608067263794
 31
0.0
 11
265.0464791990672
 21
806.3257085699713
 31
0.0
 11
265.5783034394505
 21
806.1432329998078
 31
0.0
 11
266.1758455942029
 21
806.021814579892
 31
0.0
 11
266.811484547766
 21
805.9670663420243
 31
0.0
 11
267.4558376275461
 21
805.9815185569346
 31
0.0
 11
268.079119469575
 21
806.0645036502987
 31
0.0
 11
268.6525190223798
 21
806.2121851575436
 31
0.0
  0
SPLINE
  5
F2
330
47
100
AcDbEntity
  8
0
  6
Continuous
 62
     7
100
AcDbSpline
210
0.0
220
0.0
230
1.0
 70
     8
 71
     3
 72
    15
 73
    11
 74
     9
 42
0.000000001
 43
0.0000000001
 44
0.00000001
 40
0.0
 40
0.0
 40
0.0
 40
0.0
 40
3.474793292002749
 40
6.914574078147557
 40
10.26353202443089
 40
13.47612705890344
 40
16.52367684258483
 40
19.40070024580214
 40
22.12973806212286
 40
24.7619006765118
 40
24.7619006765118
 40
24.7619006765118
 40
24.7619006765118
 10
271.8253175635095
 20
802.8213478464033
 30
0.0
 10
271.0819438153123
 20
803.712374407501
 30
0.0
 10
269.602686646838
 20
805.4854494113935
 30
0.0
 10
266.9421399269706
 20
807.6671080905217
 30
0.0
 10
264.0770361136385
 20
809.3943384799763
 30
0.0
 10
261.0804272307749
 20
810.5705762363232
 30
0.0
 10
258.0705016639251
 20
811.1592721567795
 30
0.0
 10
255.170627656976
 20
811.112885394414
 30
0.0
 10
252.4538007032054
 20
810.4802216151631
 30
0.0
 10
250.9251813213598
 20
809.5352808460916
 30
0.0
 10
250.1746824688986
 20
809.0713478464033
 30
0.0
 11
271.8253175635095
 21
802.8213478464033
 31
0.0
 11
269.5161110517133
 21
805.4178365692585
 31
0.0
 11
266.8711044961914
 21
807.6169346056217
 31
0.0
 11
263.9945923648472
 21
809.3319265257443
 31
0.0
 11
261.000000016204
 21
810.4951906948329
 31
0.0
 11
258.0054076675609
 21
811.0608552243467
 31
0.0
 11
255.1288955362168
 21
811.0066183575829
 31
0.0
 11
252.4838889806948
 21
810.3346155680586
 31
0.0
 11
250.1746824688986
 21
809.0713478464033
 31
0.0
  0
SPLINE
  5
F3
330
47
100
AcDbEntity
  8
0
  6
Continuous
 62
     7
100
AcDbSpline
210
0.0
220
0.0
230
1.0
 70
     8
 71
     3
 72
    17
 73
    13
 74
    11
 42
0.000000001
 43
0.0000000001
 44
0.00000001
 40
0.0
 40
0.0
 40
0.0
 40
0.0
 40
3.020099173167952
 40
6.024048083047911
 40
8.979690116165507
 40
11.85827378208753
 40
14.63678569606165
 40
17.30030369979158
 40
19.84425473637864
 40
22.27627780460374
 40
24.61709091249233
 40
26.8995054915285
 40
26.8995054915285
 40
26.8995054915285
 40
26.8995054915285
 10
272.7532019247072
 20
803.4626279936432
 30
0.0
 10
272.1141681317096
 20
804.242034396174
 30
0.0
 10
270.8395178281815
 20
805.7966792432873
 30
0.0
 10
268.607083252191
 20
807.8068563493086
 30
0.0
 10
266.2039711034797
 20
809.5214361292008
 30
0.0
 10
263.6638938776096
 20
810.877987749673
 30
0.0
 10
261.0556387069916
 20
811.8475385543359
 30
0.0
 10
258.4419905611272
 20
812.4025598343158
 30
0.0
 10
255.885266671244
 20
812.530463271388
 30
0.0
 10
253.4570311321715
 20
812.2137301320306
 30
0.0
 10
251.1920678675673
 20
811.4945978966682
 30
0.0
 10
249.8897378768439
 20
810.6602477775434
 30
0.0
 10
249.246798107701
 20
810.2483422793575
 30
0.0
 11
272.7532019247072
 21
803.4626279936432
 31
0.0
 11
270.7800552017845
 21
805.7490424369273
 31
0.0
 11
268.5598060112397
 21
807.7724560325487
 31
0.0
 11
266.1485506757334
 21
809.4817446371667
 31
0.0
 11
263.6072122733623
 21
810.8337220955527
 31
0.0
 11
261.0000000162041
 21
811.7942285794828
 31
0.0
 11
258.3927877590458
 21
812.3389967940575
 31
0.0
 11
255.8514493566748
 21
812.4542617463823
 31
0.0
 11
253.4401940211685
 21
812.1371120588037
 31
0.0
 11
251.2199448306237
 21
811.3955599310116
 31
0.0
 11
249.246798107701
 21
810.2483422793575
 31
0.0
  0
SPLINE
  5
F4
330
47
100
AcDbEntity
  8
0
  6
Continuous
 62
     7
100
AcDbSpline
210
0.0
220
0.0
230
1.0
 70
     8
 71
     3
 72
    11
 73
     7
 74
     5
 42
0.000000001
 43
0.0000000001
 44
0.00000001
 40
0.0
 40
0.0
 40
0.0
 40
0.0
 40
1.952567924445614
 40
3.939613765521743
 40
5.943601751680688
 40
7.946012192345679
 40
7.946012192345679
 40
7.946012192345679
 40
7.946012192345679
 10
271.941653842596
 20
790.1604367954179
 30
0.0
 10
271.6758050511189
 20
790.7553943193958
 30
0.0
 10
271.1394131685491
 20
791.9558149599318
 30
0.0
 10
270.0726749394056
 20
793.6318969573622
 30
0.0
 10
268.8438561560296
 20
795.2135552027629
 30
0.0
 10
267.8836154843455
 20
796.143869106968
 30
0.0
 10
267.4036841936412
 20
796.6088428952806
 30
0.0
 11
271.941653842596
 21
790.1604367954179
 31
0.0
 11
271.1021817622097
 21
791.9233344464762
 31
0.0
 11
270.0504385067953
 21
793.6092132392339
 31
0.0
 11
268.8088003303677
 21
795.1822048132731
 31
0.0
 11
267.4036841936412
 21
796.6088428952806
 31
0.0
  0
SPLINE
  5
F5
330
47
100
AcDbEntity
  8
0
  6
Continuous
 62
     7
100
AcDbSpline
210
0.0
220
0.0
230
1.0
 70
     8
 71
     3
 72
    11
 73
     7
 74
     5
 42
0.000000001
 43
0.0000000001
 44
0.00000001
 40
0.0
 40
0.0
 40
0.0
 40
0.0
 40
0.861152317835919
 40
1.765645415744302
 40
2.704659508794304
 40
3.665419784588823
 40
3.665419784588823
 40
3.665419784588823
 40
3.665419784588823
 10
273.9903810729707
 20
800.0750275028437
 30
0.0
 10
273.9739101540087
 20
800.3624440535732
 30
0.0
 10
273.9401393391854
 20
800.9517424893415
 30
0.0
 10
273.6846075244738
 20
801.8227554332491
 30
0.0
 10
273.3015212822108
 20
802.6800223198322
 30
0.0
 10
272.9373645147936
 20
803.1997762792764
 30
0.0
 10
272.7532019247072
 20
803.4626279936432
 30
0.0
 11
273.9903810729707
 21
800.0750275028437
 31
0.0
 11
273.9093200516491
 21
800.9323561605045
 31
0.0
 11
273.6691726827348
 21
801.804386554898
 31
0.0
 11
273.2789294681254
 21
802.6584695153389
 31
0.0
 11
272.7532019247072
 21
803.4626279936432
 31
0.0
  0
SPLINE
  5
F6
330
47
100
AcDbEntity
  8
0
  6
Continuous
 62
     7
100
AcDbSpline
210
0.0
220
0.0
230
1.0
 70
     8
 71
     3
 72
    11
 73
     7
 74
     5
 42
0.000000001
 43
0.0000000001
 44
0.00000001
 40
0.0
 40
0.0
 40
0.0
 40
0.0
 40
0.2381658594868618
 40
0.4887123701108122
 40
0.7615392976393077
 40
1.06296512696659
 40
1.06296512696659
 40
1.06296512696659
 40
1.06296512696659
 10
270.5000000162041
 20
818.7224320307851
 30
0.0
 10
270.4935864374672
 20
818.8020573284264
 30
0.0
 10
270.4804258662406
 20
818.9654471085605
 30
0.0
 10
270.3763658048691
 20
819.2012444998331
 30
0.0
 10
270.2174092951337
 20
819.4277017917586
 30
0.0
 10
270.0748365787773
 20
819.5563121520535
 30
0.0
 10
270.0000000162041
 20
819.623819849651
 30
0.0
 11
270.5000000162041
 21
818.7224320307851
 31
0.0
 11
270.4680250394619
 21
818.9584417307057
 31
0.0
 11
270.3726844070121
 21
819.1901392041318
 31
0.0
 11
270.2157200574452
 21
819.4132910055636
 31
0.0
 11
270.0000000162041
 21
819.623819849651
 31
0.0
  0
SPLINE
  5
F7
330
47
100
AcDbEntity
  8
0
  6
Continuous
 62
     7
100
AcDbSpline
210
0.0
220
0.0
230
1.0
 70
     8
 71
     3
 72
    11
 73
     7
 74
     5
 42
0.000000001
 43
0.0000000001
 44
0.00000001
 40
0.0
 40
0.0
 40
0.0
 40
0.0
 40
0.6028066221523071
 40
1.23595179012802
 40
1.893261654796977
 40
2.565793847760631
 40
2.565793847760631
 40
2.565793847760631
 40
2.565793847760631
 10
272.691342967294
 20
800.4500275028437
 30
0.0
 10
272.679813324027
 20
800.6512190882435
 30
0.0
 10
272.6561737491731
 20
801.0637279925141
 30
0.0
 10
272.4773014812616
 20
801.6734370532351
 30
0.0
 10
272.2091411098747
 20
802.2735238725222
 30
0.0
 10
271.9542313765523
 20
802.6373516463719
 30
0.0
 10
271.8253175635095
 20
802.8213478464033
 30
0.0
 11
272.691342967294
 21
800.4500275028437
 31
0.0
 11
272.6346002523689
 21
801.0501575632061
 31
0.0
 11
272.4664970941289
 21
801.6605788392817
 31
0.0
 11
272.1933268439023
 21
802.2584369115904
 31
0.0
 11
271.8253175635095
 21
802.8213478464033
 31
0.0
  0
SPLINE
  5
F8
330
47
100
AcDbEntity
  8
0
  6
Continuous
 62
     7
100
AcDbSpline
210
0.0
220
0.0
230
1.0
 70
     8
 71
     3
 72
    13
 73
     9
 74
     7
 42
0.000000001
 43
0.0000000001
 44
0.00000001
 40
0.0
 40
0.0
 40
0.0
 40
0.0
 40
0.2581567822607327
 40
0.5229166534901328
 40
0.6504570630714228
 40
0.7972432828851117
 40
0.939409420504715
 40
1.088520804446479
 40
1.088520804446479
 40
1.088520804446479
 40
1.088520804446479
 10
270.5000000162041
 20
816.7796473489262
 30
0.0
 10
270.4942859278607
 20
816.6934028717567
 30
0.0
 10
270.4827115825257
 20
816.5187079730159
 30
0.0
 10
270.4045247665866
 20
816.3130612003963
 30
0.0
 10
270.3167066288901
 20
816.1562343361513
 30
0.0
 10
270.2358045282455
 20
816.0430287899533
 30
0.0
 10
270.1397390713463
 20
815.9326669521764
 30
0.0
 10
270.0678768101099
 20
815.8672704477551
 30
0.0
 10
270.0310889294496
 20
815.8337925409477
 30
0.0
 11
270.5000000162041
 21
816.7796473489262
 31
0.0
 11
270.4703590439139
 21
816.5231978653786
 31
0.0
 11
270.3804009946709
 21
816.2741891507877
 31
0.0
 11
270.3179832091977
 21
816.162966058055
 31
0.0
 11
270.2330392471291
 21
816.0432550813962
 31
0.0
 11
270.1393596249505
 21
815.9363189352252
 31
0.0
 11
270.0310889294496
 21
815.8337925409477
 31
0.0
  0
SPLINE
  5
F9
330
47
100
AcDbEntity
  8
0
  6
Continuous
 62
     7
100
AcDbSpline
210
0.0
220
0.0
230
1.0
 70
     8
 71
     3
 72
    13
 73
     9
 74
     7
 42
0.000000001
 43
0.0000000001
 44
0.00000001
 40
0.0
 40
0.0
 40
0.0
 40
0.0
 40
3.096569608265709
 40
6.175280068271805
 40
9.201570850770235
 40
12.14477549870314
 40
14.98076835107108
 40
17.69462855033653
 40
17.69462855033653
 40
17.69462855033653
 40
17.69462855033653
 10
284.7532019247072
 20
813.8549328390565
 30
0.0
 10
284.0972576596185
 20
814.6535920545859
 30
0.0
 10
282.789152209822
 20
816.2463042907984
 30
0.0
 10
280.4914125426174
 20
818.2951876987494
 30
0.0
 10
278.0176001286574
 20
820.0337539093708
 30
0.0
 10
275.403458895175
 20
821.3830552390813
 30
0.0
 10
272.7282861408006
 20
822.3579525387825
 30
0.0
 10
270.8959879224086
 20
822.6392248308225
 30
0.0
 10
270.0000000162041
 20
822.7767660651663
 30
0.0
 11
284.7532019247072
 21
813.8549328390565
 31
0.0
 11
282.7265468443359
 21
816.1961745015047
 31
0.0
 11
280.441539248677
 21
818.2594724413374
 31
0.0
 11
277.9588721061781
 21
819.9900214198398
 31
0.0
 11
275.3444894535323
 21
821.3418560824946
 31
0.0
 11
272.6678332973442
 21
822.2790685940577
 31
0.0
 11
270.0000000162041
 21
822.7767660651663
 31
0.0
  0
ENDBLK
  5
49
330
47
100
AcDbEntity
  8
0
100
AcDbBlockEnd
  0
BLOCK
  5
4C
330
4A
100
AcDbEntity
  8
0
100
AcDbBlockBegin
  2
Allg1
 70
     0
 10
267.0000000067299
 20
804.0000000835998
 30
0.0
  3
Allg1
  1

  0
INSERT
  5
4B
330
4A
100
AcDbEntity
  8
0
100
AcDbBlockReference
  2
3240255_WCC_26-select__1
 10
248.0096189594375
 20
767.2111310120732
 30
0.0
  0
ENDBLK
  5
4D
330
4A
100
AcDbEntity
  8
0
100
AcDbBlockEnd
  0
BLOCK
  5
4F
330
4E
100
AcDbEntity
  8
0
100
AcDbBlockBegin
  2
3240255_WCC_26-select__2
 70
     0
 10
56.26862529135761
 20
788.4412830308589
 30
0.0
  3
3240255_WCC_26-select__2
  1

  0
LINE
  5
FA
330
4E
100
AcDbEntity
  8
0
  6
Continuous
 62
     7
100
AcDbLine
 10
56.26862529135761
 20
812.4412830308589
 30
0.0
 11
56.26862529135762
 21
788.4412830308589
 31
0.0
  0
LINE
  5
FB
330
4E
100
AcDbEntity
  8
0
  6
Continuous
 62
     7
100
AcDbLine
 10
84.84005386278619
 20
812.4412830308589
 30
0.0
 11
57.69719671992903
 21
812.4412830308589
 31
0.0
  0
LINE
  5
FC
330
4E
100
AcDbEntity
  8
0
  6
Continuous
 62
     7
100
AcDbLine
 10
57.69719671992903
 20
812.4412830308589
 30
0.0
 11
56.26862529135761
 21
812.4412830308589
 31
0.0
  0
LINE
  5
FD
330
4E
100
AcDbEntity
  8
0
  6
Continuous
 62
     7
100
AcDbLine
 10
70.4686252913576
 20
795.4412830308589
 30
0.0
 11
70.4686252913576
 21
805.4412830308589
 31
0.0
  0
LINE
  5
FE
330
4E
100
AcDbEntity
  8
0
  6
Continuous
 62
     7
100
AcDbLine
 10
86.26862529135762
 20
788.4412830308589
 30
0.0
 11
84.84005386278619
 21
788.4412830308589
 31
0.0
  0
LINE
  5
FF
330
4E
100
AcDbEntity
  8
0
  6
Continuous
 62
     7
100
AcDbLine
 10
86.26862529135761
 20
812.4412830308589
 30
0.0
 11
86.26862529135762
 21
788.4412830308589
 31
0.0
  0
LINE
  5
100
330
4E
100
AcDbEntity
  8
0
  6
Continuous
 62
     7
100
AcDbLine
 10
77.04212798325386
 20
800.4412830308589
 30
0.0
 11
74.15537663730574
 21
795.4412830308589
 31
0.0
  0
LINE
  5
101
330
4E
100
AcDbEntity
  8
0
  6
Continuous
 62
     2
100
AcDbLine
 10
84.84005386278619
 20
788.4412830308589
 30
0.0
 11
84.84005386278619
 21
812.4412830308589
 31
0.0
  0
LINE
  5
102
330
4E
100
AcDbEntity
  8
0
  6
Continuous
 62
     7
100
AcDbLine
 10
74.15537663730574
 20
805.4412830308589
 30
0.0
 11
77.04212798325386
 21
800.4412830308589
 31
0.0
  0
LINE
  5
103
330
4E
100
AcDbEntity
  8
0
  6
Continuous
 62
     7
100
AcDbLine
 10
65.49512259946134
 20
800.4412830308589
 30
0.0
 11
68.38187394540948
 21
805.4412830308589
 31
0.0
  0
LINE
  5
104
330
4E
100
AcDbEntity
  8
0
  6
Continuous
 62
     7
100
AcDbLine
 10
57.69719671992905
 20
788.4412830308589
 30
0.0
 11
56.26862529135762
 21
788.4412830308589
 31
0.0
  0
LINE
  5
105
330
4E
100
AcDbEntity
  8
0
  6
Continuous
 62
     7
100
AcDbLine
 10
74.15537663730574
 20
795.4412830308589
 30
0.0
 11
72.0686252913576
 21
795.4412830308589
 31
0.0
  0
LINE
  5
106
330
4E
100
AcDbEntity
  8
0
  6
Continuous
 62
     7
100
AcDbLine
 10
70.4686252913576
 20
795.4412830308589
 30
0.0
 11
68.38187394540947
 21
795.4412830308589
 31
0.0
  0
LINE
  5
107
330
4E
100
AcDbEntity
  8
0
  6
Continuous
 62
     7
100
AcDbLine
 10
70.4686252913576
 20
795.4412830308589
 30
0.0
 11
72.0686252913576
 21
795.4412830308589
 31
0.0
  0
LINE
  5
108
330
4E
100
AcDbEntity
  8
0
  6
Continuous
 62
     7
100
AcDbLine
 10
84.84005386278619
 20
788.4412830308589
 30
0.0
 11
57.69719671992905
 21
788.4412830308589
 31
0.0
  0
LINE
  5
109
330
4E
100
AcDbEntity
  8
0
  6
Continuous
 62
     7
100
AcDbLine
 10
72.0686252913576
 20
805.4412830308589
 30
0.0
 11
72.0686252913576
 21
795.4412830308589
 31
0.0
  0
LINE
  5
10A
330
4E
100
AcDbEntity
  8
0
  6
Continuous
 62
     7
100
AcDbLine
 10
68.38187394540948
 20
805.4412830308589
 30
0.0
 11
70.4686252913576
 21
805.4412830308589
 31
0.0
  0
LINE
  5
10B
330
4E
100
AcDbEntity
  8
0
  6
Continuous
 62
     7
100
AcDbLine
 10
68.38187394540947
 20
795.4412830308589
 30
0.0
 11
65.49512259946134
 21
800.4412830308589
 31
0.0
  0
LINE
  5
10C
330
4E
100
AcDbEntity
  8
0
  6
Continuous
 62
     2
100
AcDbLine
 10
57.69719671992905
 20
788.4412830308589
 30
0.0
 11
57.69719671992903
 21
812.4412830308589
 31
0.0
  0
LINE
  5
10D
330
4E
100
AcDbEntity
  8
0
  6
Continuous
 62
     7
100
AcDbLine
 10
72.0686252913576
 20
805.4412830308589
 30
0.0
 11
70.4686252913576
 21
805.4412830308589
 31
0.0
  0
LINE
  5
10E
330
4E
100
AcDbEntity
  8
0
  6
Continuous
 62
     7
100
AcDbLine
 10
72.0686252913576
 20
805.4412830308589
 30
0.0
 11
74.15537663730574
 21
805.4412830308589
 31
0.0
  0
LINE
  5
10F
330
4E
100
AcDbEntity
  8
0
  6
Continuous
 62
     7
100
AcDbLine
 10
86.26862529135761
 20
812.4412830308589
 30
0.0
 11
84.84005386278619
 21
812.4412830308589
 31
0.0
  0
ENDBLK
  5
50
330
4E
100
AcDbEntity
  8
0
100
AcDbBlockEnd
  0
BLOCK
  5
53
330
51
100
AcDbEntity
  8
0
100
AcDbBlockBegin
  2
Drfsicht1
 70
     0
 10
71.26862527508001
 20
800.4412830401043
 30
0.0
  3
Drfsicht1
  1

  0
INSERT
  5
52
330
51
100
AcDbEntity
  8
0
100
AcDbBlockReference
  2
3240255_WCC_26-select__2
 10
56.26862529135761
 20
788.4412830308589
 30
0.0
  0
MTEXT
  5
111
330
51
100
AcDbEntity
  8
1
 62
     6
100
AcDbMText
 10
71.26862527508001
 20
782.6825680895327
 30
0.0
 40
5.0
 41
0.0
 71
     2
 72
     1
  1
 
  7
CONVERTER_11
 73
     1
 44
1.32052821128451
  0
ENDBLK
  5
54
330
51
100
AcDbEntity
  8
0
100
AcDbBlockEnd
  0
BLOCK
  5
56
330
55
100
AcDbEntity
  8
0
100
AcDbBlockBegin
  2
3240255_WCC_26-select__3
 70
     0
 10
172.9999999705654
 20
843.2000002099783
 30
0.0
  3
3240255_WCC_26-select__3
  1

  0
LINE
  5
112
330
55
100
AcDbEntity
  8
0
  6
Continuous
 62
     7
100
AcDbLine
 10
172.9999999705654
 20
858.7729076795958
 30
0.0
 11
174.4999999705654
 21
858.7729076795958
 31
0.0
  0
LINE
  5
113
330
55
100
AcDbEntity
  8
0
  6
Continuous
 62
     7
100
AcDbLine
 10
187.1999999705654
 20
914.8000002099783
 30
0.0
 11
185.1132486246173
 21
914.8000002099783
 31
0.0
  0
LINE
  5
114
330
55
100
AcDbEntity
  8
0
  6
Continuous
 62
     7
100
AcDbLine
 10
185.1132486246173
 20
914.8000002099783
 30
0.0
 11
182.2264972786692
 21
914.8000002099783
 31
0.0
  0
LINE
  5
115
330
55
100
AcDbEntity
  8
0
  6
Continuous
 62
     7
100
AcDbLine
 10
174.4999999705654
 20
864.2000002099783
 30
0.0
 11
172.9999999705654
 21
864.2000002099783
 31
0.0
  0
LINE
  5
116
330
55
100
AcDbEntity
  8
0
  6
Continuous
 62
     7
100
AcDbLine
 10
172.9999999705654
 20
884.797959181111
 30
0.0
 11
172.9999999705654
 21
864.2000002099783
 31
0.0
  0
LINE
  5
117
330
55
100
AcDbEntity
  8
0
  6
Continuous
 62
     7
100
AcDbLine
 10
172.9999999705654
 20
858.7729076795958
 30
0.0
 11
172.9999999705654
 21
864.2000002099783
 31
0.0
  0
LINE
  5
118
330
55
100
AcDbEntity
  8
0
  6
Continuous
 62
     7
100
AcDbLine
 10
193.7735026624617
 20
914.8000002099783
 30
0.0
 11
190.8867513165136
 21
914.8000002099783
 31
0.0
  0
LINE
  5
119
330
55
100
AcDbEntity
  8
0
  6
Continuous
 62
     7
100
AcDbLine
 10
174.4999999705655
 20
844.9870585392594
 30
0.0
 11
174.4999999705655
 21
843.2000002099783
 31
0.0
  0
LINE
  5
11A
330
55
100
AcDbEntity
  8
0
  6
Continuous
 62
     7
100
AcDbLine
 10
172.9999999705655
 20
843.2000002099783
 30
0.0
 11
172.9999999705655
 21
844.9870585392594
 31
0.0
  0
LINE
  5
11B
330
55
100
AcDbEntity
  8
0
  6
Continuous
 62
     7
100
AcDbLine
 10
174.4999999705655
 20
843.2000002099783
 30
0.0
 11
172.9999999705655
 21
843.2000002099783
 31
0.0
  0
LINE
  5
11C
330
55
100
AcDbEntity
  8
0
  6
Continuous
 62
     7
100
AcDbLine
 10
172.9999999705655
 20
849.5000002099783
 30
0.0
 11
172.9999999705654
 21
852.7620292308998
 31
0.0
  0
LINE
  5
11D
330
55
100
AcDbEntity
  8
0
  6
Continuous
 62
     7
100
AcDbLine
 10
172.9999999705654
 20
852.7620292308998
 30
0.0
 11
174.4999999705654
 21
852.7620292308998
 31
0.0
  0
LINE
  5
11E
330
55
100
AcDbEntity
  8
0
  6
Continuous
 62
     7
100
AcDbLine
 10
174.4999999705654
 20
852.7620292308998
 30
0.0
 11
174.4999999705655
 21
849.5000002099783
 31
0.0
  0
LINE
  5
11F
330
55
100
AcDbEntity
  8
0
  6
Continuous
 62
     7
100
AcDbLine
 10
174.4999999705654
 20
884.797959181111
 30
0.0
 11
174.4999999705654
 21
864.2000002099783
 31
0.0
  0
LINE
  5
120
330
55
100
AcDbEntity
  8
0
  6
Continuous
 62
     7
100
AcDbLine
 10
172.9999999705655
 20
844.9870585392594
 30
0.0
 11
172.9999999705655
 21
849.5000002099783
 31
0.0
  0
LINE
  5
121
330
55
100
AcDbEntity
  8
0
  6
Continuous
 62
     7
100
AcDbLine
 10
174.4999999705655
 20
849.5000002099783
 30
0.0
 11
172.9999999705655
 21
849.5000002099783
 31
0.0
  0
LINE
  5
122
330
55
100
AcDbEntity
  8
0
  6
Continuous
 62
     7
100
AcDbLine
 10
172.9999999705655
 20
844.9870585392594
 30
0.0
 11
174.4999999705655
 21
844.9870585392594
 31
0.0
  0
LINE
  5
123
330
55
100
AcDbEntity
  8
0
  6
Continuous
 62
     7
100
AcDbLine
 10
184.4999999705654
 20
893.6748496069614
 30
0.0
 11
184.4999999705654
 21
896.0000002099783
 31
0.0
  0
LINE
  5
124
330
55
100
AcDbEntity
  8
0
  6
Continuous
 62
     7
100
AcDbLine
 10
184.4999999705654
 20
896.0000002099783
 30
0.0
 11
184.9999999705654
 21
896.0000002099783
 31
0.0
  0
LINE
  5
125
330
55
100
AcDbEntity
  8
0
  6
Continuous
 62
     7
100
AcDbLine
 10
184.9999999705654
 20
883.0000002099783
 30
0.0
 11
184.9999999705654
 21
892.2409398595449
 31
0.0
  0
LINE
  5
126
330
55
100
AcDbEntity
  8
0
  6
Continuous
 62
     7
100
AcDbLine
 10
185.1132486246173
 20
910.8000002099783
 30
0.0
 11
185.1132486246173
 21
914.8000002099783
 31
0.0
  0
LINE
  5
127
330
55
100
AcDbEntity
  8
0
  6
Continuous
 62
     7
100
AcDbLine
 10
182.2264972786692
 20
910.8000002099783
 30
0.0
 11
182.2264972786692
 21
914.8000002099783
 31
0.0
  0
LINE
  5
128
330
55
100
AcDbEntity
  8
0
  6
Continuous
 62
     7
100
AcDbLine
 10
184.9999999705654
 20
896.0000002099783
 30
0.0
 11
184.9999999705654
 21
910.8000002099783
 31
0.0
  0
LINE
  5
129
330
55
100
AcDbEntity
  8
0
  6
Continuous
 62
     7
100
AcDbLine
 10
174.4999999705654
 20
864.2000002099783
 30
0.0
 11
174.4999999705654
 21
858.7729076795958
 31
0.0
  0
LINE
  5
12A
330
55
100
AcDbEntity
  8
0
  6
Continuous
 62
     7
100
AcDbLine
 10
172.9999999705654
 20
852.7620292308998
 30
0.0
 11
172.9999999705654
 21
858.7729076795958
 31
0.0
  0
LINE
  5
12B
330
55
100
AcDbEntity
  8
0
  6
Continuous
 62
     7
100
AcDbLine
 10
174.4999999705654
 20
858.7729076795958
 30
0.0
 11
174.4999999705654
 21
852.7620292308998
 31
0.0
  0
LINE
  5
12C
330
55
100
AcDbEntity
  8
0
  6
Continuous
 62
     7
100
AcDbLine
 10
184.9999999705654
 20
883.0000002099783
 30
0.0
 11
180.7499999705654
 21
883.0000002099783
 31
0.0
  0
LINE
  5
12D
330
55
100
AcDbEntity
  8
0
  6
Continuous
 62
     7
100
AcDbLine
 10
190.9999999705654
 20
883.0000002099783
 30
0.0
 11
190.9999999705654
 21
892.2409398595449
 31
0.0
  0
LINE
  5
12E
330
55
100
AcDbEntity
  8
0
  6
Continuous
 62
     7
100
AcDbLine
 10
190.9999999705654
 20
883.0000002099783
 30
0.0
 11
184.9999999705654
 21
883.0000002099783
 31
0.0
  0
LINE
  5
12F
330
55
100
AcDbEntity
  8
0
  6
Continuous
 62
     7
100
AcDbLine
 10
180.7499999705655
 20
878.4333216555262
 30
0.0
 11
180.7499999705654
 21
883.0000002099783
 31
0.0
  0
LINE
  5
130
330
55
100
AcDbEntity
  8
0
  6
Continuous
 62
     7
100
AcDbLine
 10
175.5100039737687
 20
872.5000002099783
 30
0.0
 11
177.7530492046058
 21
872.5000002099782
 31
0.0
  0
LINE
  5
131
330
55
100
AcDbEntity
  8
0
  6
Continuous
 62
     7
100
AcDbLine
 10
174.4999999705655
 20
849.5000002099783
 30
0.0
 11
174.4999999705655
 21
844.9870585392594
 31
0.0
  0
LINE
  5
132
330
55
100
AcDbEntity
  8
0
  6
Continuous
 62
     7
100
AcDbLine
 10
190.8867513165136
 20
910.8000002099783
 30
0.0
 11
190.8867513165136
 21
914.8000002099783
 31
0.0
  0
LINE
  5
133
330
55
100
AcDbEntity
  8
0
  6
Continuous
 62
     7
100
AcDbLine
 10
201.4999999705654
 20
884.7979591811111
 30
0.0
 11
201.4999999705655
 21
864.2000002099783
 31
0.0
  0
LINE
  5
134
330
55
100
AcDbEntity
  8
0
  6
Continuous
 62
     7
100
AcDbLine
 10
202.9999999705655
 20
864.2000002099783
 30
0.0
 11
201.4999999705655
 21
864.2000002099783
 31
0.0
  0
LINE
  5
135
330
55
100
AcDbEntity
  8
0
  6
Continuous
 62
     7
100
AcDbLine
 10
202.9999999705654
 20
884.7979591811111
 30
0.0
 11
202.9999999705655
 21
864.2000002099783
 31
0.0
  0
LINE
  5
136
330
55
100
AcDbEntity
  8
0
  6
Continuous
 62
     7
100
AcDbLine
 10
190.9999999705654
 20
896.0000002099783
 30
0.0
 11
191.4999999705654
 21
896.0000002099783
 31
0.0
  0
LINE
  5
137
330
55
100
AcDbEntity
  8
0
  6
Continuous
 62
     7
100
AcDbLine
 10
191.4999999705654
 20
893.6748496069614
 30
0.0
 11
191.4999999705654
 21
896.0000002099783
 31
0.0
  0
LINE
  5
138
330
55
100
AcDbEntity
  8
0
  6
Continuous
 62
     7
100
AcDbLine
 10
195.2499999705655
 20
883.0000002099783
 30
0.0
 11
190.9999999705654
 21
883.0000002099783
 31
0.0
  0
LINE
  5
139
330
55
100
AcDbEntity
  8
0
  6
Continuous
 62
     7
100
AcDbLine
 10
190.9999999705654
 20
910.8000002099783
 30
0.0
 11
190.8867513165136
 21
910.8000002099783
 31
0.0
  0
LINE
  5
13A
330
55
100
AcDbEntity
  8
0
  6
Continuous
 62
     7
100
AcDbLine
 10
193.7735026624617
 20
910.8000002099783
 30
0.0
 11
190.9999999705654
 21
910.8000002099783
 31
0.0
  0
LINE
  5
13B
330
55
100
AcDbEntity
  8
0
  6
Continuous
 62
     7
100
AcDbLine
 10
190.9999999705654
 20
896.0000002099783
 30
0.0
 11
190.9999999705654
 21
910.8000002099783
 31
0.0
  0
LINE
  5
13C
330
55
100
AcDbEntity
  8
0
  6
Continuous
 62
     7
100
AcDbLine
 10
185.1132486246173
 20
910.8000002099783
 30
0.0
 11
184.9999999705654
 21
910.8000002099783
 31
0.0
  0
LINE
  5
13D
330
55
100
AcDbEntity
  8
0
  6
Continuous
 62
     7
100
AcDbLine
 10
190.8867513165136
 20
910.8000002099783
 30
0.0
 11
185.1132486246173
 21
910.8000002099783
 31
0.0
  0
LINE
  5
13E
330
55
100
AcDbEntity
  8
0
  6
Continuous
 62
     7
100
AcDbLine
 10
184.9999999705654
 20
910.8000002099783
 30
0.0
 11
182.2264972786692
 21
910.8000002099783
 31
0.0
  0
LINE
  5
13F
330
55
100
AcDbEntity
  8
0
  6
Continuous
 62
     7
100
AcDbLine
 10
202.9999999705655
 20
852.7620292308998
 30
0.0
 11
202.9999999705655
 21
849.5000002099783
 31
0.0
  0
LINE
  5
140
330
55
100
AcDbEntity
  8
0
  6
Continuous
 62
     7
100
AcDbLine
 10
202.9999999705655
 20
849.5000002099783
 30
0.0
 11
201.4999999705655
 21
849.5000002099783
 31
0.0
  0
LINE
  5
141
330
55
100
AcDbEntity
  8
0
  6
Continuous
 62
     7
100
AcDbLine
 10
202.9999999705655
 20
858.7729076795958
 30
0.0
 11
202.9999999705655
 21
852.7620292308998
 31
0.0
  0
LINE
  5
142
330
55
100
AcDbEntity
  8
0
  6
Continuous
 62
     7
100
AcDbLine
 10
202.9999999705655
 20
864.2000002099783
 30
0.0
 11
202.9999999705655
 21
858.7729076795958
 31
0.0
  0
LINE
  5
143
330
55
100
AcDbEntity
  8
0
  6
Continuous
 62
     7
100
AcDbLine
 10
201.4999999705655
 20
858.7729076795958
 30
0.0
 11
202.9999999705655
 21
858.7729076795958
 31
0.0
  0
LINE
  5
144
330
55
100
AcDbEntity
  8
0
  6
Continuous
 62
     7
100
AcDbLine
 10
201.4999999705655
 20
852.7620292308998
 30
0.0
 11
202.9999999705655
 21
852.7620292308998
 31
0.0
  0
LINE
  5
145
330
55
100
AcDbEntity
  8
0
  6
Continuous
 62
     7
100
AcDbLine
 10
202.9999999705655
 20
844.9870585392594
 30
0.0
 11
202.9999999705655
 21
843.2000002099783
 31
0.0
  0
LINE
  5
146
330
55
100
AcDbEntity
  8
0
  6
Continuous
 62
     7
100
AcDbLine
 10
202.9999999705655
 20
849.5000002099783
 30
0.0
 11
202.9999999705655
 21
844.9870585392594
 31
0.0
  0
LINE
  5
147
330
55
100
AcDbEntity
  8
0
  6
Continuous
 62
     7
100
AcDbLine
 10
201.4999999705655
 20
844.9870585392594
 30
0.0
 11
201.4999999705655
 21
849.5000002099783
 31
0.0
  0
LINE
  5
148
330
55
100
AcDbEntity
  8
0
  6
Continuous
 62
     7
100
AcDbLine
 10
201.4999999705655
 20
844.9870585392594
 30
0.0
 11
202.9999999705655
 21
844.9870585392594
 31
0.0
  0
LINE
  5
149
330
55
100
AcDbEntity
  8
0
  6
Continuous
 62
     7
100
AcDbLine
 10
202.9999999705655
 20
843.2000002099783
 30
0.0
 11
201.4999999705655
 21
843.2000002099783
 31
0.0
  0
LINE
  5
14A
330
55
100
AcDbEntity
  8
0
  6
Continuous
 62
     7
100
AcDbLine
 10
201.4999999705655
 20
849.5000002099783
 30
0.0
 11
201.4999999705655
 21
852.7620292308998
 31
0.0
  0
LINE
  5
14B
330
55
100
AcDbEntity
  8
0
  6
Continuous
 62
     7
100
AcDbLine
 10
201.4999999705655
 20
843.2000002099783
 30
0.0
 11
201.4999999705655
 21
844.9870585392594
 31
0.0
  0
LINE
  5
14C
330
55
100
AcDbEntity
  8
0
  6
Continuous
 62
     7
100
AcDbLine
 10
198.246950736525
 20
872.5000002099783
 30
0.0
 11
200.4899959673622
 21
872.5000002099783
 31
0.0
  0
LINE
  5
14D
330
55
100
AcDbEntity
  8
0
  6
Continuous
 62
     7
100
AcDbLine
 10
193.7735026624617
 20
910.8000002099783
 30
0.0
 11
193.7735026624617
 21
914.8000002099783
 31
0.0
  0
LINE
  5
14E
330
55
100
AcDbEntity
  8
0
  6
Continuous
 62
     7
100
AcDbLine
 10
195.2499999705655
 20
878.4333216555262
 30
0.0
 11
195.2499999705655
 21
883.0000002099783
 31
0.0
  0
LINE
  5
14F
330
55
100
AcDbEntity
  8
0
  6
Continuous
 62
     7
100
AcDbLine
 10
201.4999999705655
 20
858.7729076795958
 30
0.0
 11
201.4999999705655
 21
864.2000002099783
 31
0.0
  0
LINE
  5
150
330
55
100
AcDbEntity
  8
0
  6
Continuous
 62
     7
100
AcDbLine
 10
201.4999999705655
 20
852.7620292308998
 30
0.0
 11
201.4999999705655
 21
858.7729076795958
 31
0.0
  0
LINE
  5
151
330
55
100
AcDbEntity
  8
0
  6
Continuous
 62
     7
100
AcDbLine
 10
190.8867513165136
 20
914.8000002099783
 30
0.0
 11
188.7999999705654
 21
914.8000002099783
 31
0.0
  0
LINE
  5
152
330
55
100
AcDbEntity
  8
0
  6
Continuous
 62
     7
100
AcDbLine
 10
188.7999999705654
 20
913.2000002099783
 30
0.0
 11
188.7999999705654
 21
914.8000002099783
 31
0.0
  0
LINE
  5
153
330
55
100
AcDbEntity
  8
0
  6
Continuous
 62
     7
100
AcDbLine
 10
187.1999999705654
 20
913.2000002099783
 30
0.0
 11
188.7999999705654
 21
913.2000002099783
 31
0.0
  0
LINE
  5
154
330
55
100
AcDbEntity
  8
0
  6
Continuous
 62
     7
100
AcDbLine
 10
187.1999999705654
 20
914.8000002099783
 30
0.0
 11
187.1999999705654
 21
913.2000002099783
 31
0.0
  0
LINE
  5
155
330
55
100
AcDbEntity
  8
0
  6
Continuous
 62
     7
100
AcDbLine
 10
184.9999999705654
 20
896.0000002099783
 30
0.0
 11
190.9999999705654
 21
896.0000002099783
 31
0.0
  0
LINE
  5
156
330
55
100
AcDbEntity
  8
1
  6
DOT_CENTER
 62
     2
100
AcDbLine
 10
187.9999999705654
 20
883.0000002099783
 30
0.0
 11
187.9999999705654
 21
892.2409398595449
 31
0.0
  0
LINE
  5
157
330
55
100
AcDbEntity
  8
1
  6
DOT_CENTER
 62
     2
100
AcDbLine
 10
187.9999999705654
 20
893.6748496069614
 30
0.0
 11
187.9999999705654
 21
910.8000002099783
 31
0.0
  0
ARC
  5
158
330
55
100
AcDbEntity
  8
0
  6
Continuous
 62
     7
100
AcDbCircle
 10
187.9999999705654
 20
875.0000002099783
 30
0.0
 40
19.0
100
AcDbArc
 50
44.41530859719279
 51
79.38489214929204
  0
ARC
  5
159
330
55
100
AcDbEntity
  8
0
  6
Continuous
 62
     7
100
AcDbCircle
 10
177.9999999705654
 20
884.797959181111
 30
0.0
 40
3.499999999999985
100
AcDbArc
 50
135.5846914028073
 51
180.0
  0
ARC
  5
15A
330
55
100
AcDbEntity
  8
0
  6
Continuous
 62
     7
100
AcDbCircle
 10
187.9999999705654
 20
875.0000002099783
 30
0.0
 40
17.49999999999993
100
AcDbArc
 50
99.87088960613958
 51
135.5846914028073
  0
ARC
  5
15B
330
55
100
AcDbEntity
  8
0
  6
Continuous
 62
     7
100
AcDbCircle
 10
187.9999999705655
 20
866.7500002099783
 30
0.0
 40
13.74999999999998
100
AcDbArc
 50
121.8213685251055
 51
155.2801488170894
  0
ARC
  5
15C
330
55
100
AcDbEntity
  8
0
  6
Continuous
 62
     7
100
AcDbCircle
 10
187.9999999705654
 20
875.0000002099783
 30
0.0
 40
17.50000000000001
100
AcDbArc
 50
44.415308597193
 51
80.12911039386043
  0
ARC
  5
15D
330
55
100
AcDbEntity
  8
0
  6
Continuous
 62
     7
100
AcDbCircle
 10
197.9999999705654
 20
884.7979591811111
 30
0.0
 40
3.5
100
AcDbArc
 50
0.0
 51
44.41530859719273
  0
ARC
  5
15E
330
55
100
AcDbEntity
  8
0
  6
Continuous
 62
     7
100
AcDbCircle
 10
197.9999999705654
 20
884.7979591811111
 30
0.0
 40
5.0
100
AcDbArc
 50
0.0
 51
44.41530859719201
  0
ARC
  5
15F
330
55
100
AcDbEntity
  8
0
  6
Continuous
 62
     7
100
AcDbCircle
 10
187.9999999705655
 20
866.7500002099783
 30
0.0
 40
11.74999999999991
100
AcDbArc
 50
29.2986367392809
 51
150.7013632607201
  0
ARC
  5
160
330
55
100
AcDbEntity
  8
0
  6
Continuous
 62
     7
100
AcDbCircle
 10
177.9999999705654
 20
884.797959181111
 30
0.0
 40
5.000000000000034
100
AcDbArc
 50
135.5846914028068
 51
180.0
  0
ARC
  5
161
330
55
100
AcDbEntity
  8
0
  6
Continuous
 62
     7
100
AcDbCircle
 10
187.9999999705655
 20
866.7500002099783
 30
0.0
 40
13.74999999999991
100
AcDbArc
 50
24.71985118291076
 51
58.17863147489452
  0
ARC
  5
162
330
55
100
AcDbEntity
  8
0
  6
Continuous
 62
     7
100
AcDbCircle
 10
187.9999999705654
 20
875.0000002099783
 30
0.0
 40
17.49999999999993
100
AcDbArc
 50
80.12911039386043
 51
99.87088960613958
  0
ARC
  5
163
330
55
100
AcDbEntity
  8
0
  6
Continuous
 62
     7
100
AcDbCircle
 10
187.9999999705654
 20
875.0000002099783
 30
0.0
 40
18.99999999999996
100
AcDbArc
 50
79.38489214929204
 51
100.615107850708
  0
ARC
  5
164
330
55
100
AcDbEntity
  8
0
  6
Continuous
 62
     7
100
AcDbCircle
 10
187.9999999705654
 20
875.0000002099783
 30
0.0
 40
18.99999999999996
100
AcDbArc
 50
100.615107850708
 51
135.5846914028072
  0
ENDBLK
  5
57
330
55
100
AcDbEntity
  8
0
100
AcDbBlockEnd
  0
BLOCK
  5
5A
330
58
100
AcDbEntity
  8
0
100
AcDbBlockBegin
  2
Rckans1
 70
     0
 10
187.999999986843
 20
879.00000010499
 30
0.0
  3
Rckans1
  1

  0
INSERT
  5
59
330
58
100
AcDbEntity
  8
0
100
AcDbBlockReference
  2
3240255_WCC_26-select__3
 10
172.9999999705654
 20
843.2000002099783
 30
0.0
  0
MTEXT
  5
165
330
58
100
AcDbEntity
  8
1
 62
     6
100
AcDbMText
 10
187.999999986843
 20
838.1999981049901
 30
0.0
 40
5.0
 41
0.0
 71
     2
 72
     1
  1
 
  7
CONVERTER_11
 73
     1
 44
1.32052821128451
  0
ENDBLK
  5
5B
330
58
100
AcDbEntity
  8
0
100
AcDbBlockEnd
  0
BLOCK
  5
5D
330
5C
100
AcDbEntity
  8
0
100
AcDbBlockBegin
  2
3240255_WCC_26-select__4
 70
     0
 10
107.6343126495254
 20
843.2000002099783
 30
0.0
  3
3240255_WCC_26-select__4
  1

  0
LINE
  5
166
330
5C
100
AcDbEntity
  8
0
  6
Continuous
 62
     7
100
AcDbLine
 10
116.6343126495254
 20
896.0000002099782
 30
0.0
 11
119.6343126495254
 21
896.0000002099782
 31
0.0
  0
LINE
  5
167
330
5C
100
AcDbEntity
  8
0
  6
Continuous
 62
     7
100
AcDbLine
 10
119.6343126495254
 20
910.8000002099782
 30
0.0
 11
119.6343126495254
 21
914.8000002099782
 31
0.0
  0
LINE
  5
168
330
5C
100
AcDbEntity
  8
0
  6
Continuous
 62
     7
100
AcDbLine
 10
107.6343126495254
 20
894.0000002099782
 30
0.0
 11
116.1343126495254
 21
894.0000002099782
 31
0.0
  0
LINE
  5
169
330
5C
100
AcDbEntity
  8
0
  6
Continuous
 62
     7
100
AcDbLine
 10
114.6343126495254
 20
910.8000002099782
 30
0.0
 11
114.6343126495254
 21
914.8000002099782
 31
0.0
  0
LINE
  5
16A
330
5C
100
AcDbEntity
  8
0
  6
Continuous
 62
     7
100
AcDbLine
 10
116.6343126495254
 20
896.0000002099782
 30
0.0
 11
116.6343126495254
 21
910.8000002099782
 31
0.0
  0
LINE
  5
16B
330
5C
100
AcDbEntity
  8
0
  6
Continuous
 62
     7
100
AcDbLine
 10
107.6343126495254
 20
884.797959181111
 30
0.0
 11
107.6343126495254
 21
864.2000002099783
 31
0.0
  0
LINE
  5
16C
330
5C
100
AcDbEntity
  8
0
  6
Continuous
 62
     7
100
AcDbLine
 10
131.6343126495254
 20
888.2972302422297
 30
0.0
 11
131.6343126495254
 21
884.797959181111
 31
0.0
  0
LINE
  5
16D
330
5C
100
AcDbEntity
  8
0
  6
Continuous
 62
     7
100
AcDbLine
 10
131.6343126495254
 20
884.797959181111
 30
0.0
 11
131.6343126495254
 21
860.3000002099782
 31
0.0
  0
LINE
  5
16E
330
5C
100
AcDbEntity
  8
0
  6
Continuous
 62
     7
100
AcDbLine
 10
130.6343126495254
 20
846.3500002099782
 30
0.0
 11
130.6343126495254
 21
849.5000002099782
 31
0.0
  0
LINE
  5
16F
330
5C
100
AcDbEntity
  8
0
  6
Continuous
 62
     7
100
AcDbLine
 10
131.6343126495254
 20
894.0000002099782
 30
0.0
 11
131.6343126495254
 21
888.2972302422297
 31
0.0
  0
LINE
  5
170
330
5C
100
AcDbEntity
  8
0
  6
Continuous
 62
     7
100
AcDbLine
 10
124.6343126495254
 20
910.8000002099782
 30
0.0
 11
124.6343126495254
 21
914.8000002099782
 31
0.0
  0
LINE
  5
171
330
5C
100
AcDbEntity
  8
0
  6
Continuous
 62
     7
100
AcDbLine
 10
127.2343126495254
 20
857.3877037407171
 30
0.0
 11
131.6343126495254
 21
860.3000002099782
 31
0.0
  0
LINE
  5
172
330
5C
100
AcDbEntity
  8
0
  6
Continuous
 62
     2
100
AcDbLine
 10
131.6343126495254
 20
884.797959181111
 30
0.0
 11
107.6343126495254
 21
884.797959181111
 31
0.0
  0
LINE
  5
173
330
5C
100
AcDbEntity
  8
0
  6
Continuous
 62
     2
100
AcDbLine
 10
131.6343126495254
 20
888.2972302422297
 30
0.0
 11
107.6343126495254
 21
888.2972302422297
 31
0.0
  0
LINE
  5
174
330
5C
100
AcDbEntity
  8
0
  6
Continuous
 62
     7
100
AcDbLine
 10
114.6343126495254
 20
914.8000002099782
 30
0.0
 11
119.6343126495254
 21
914.8000002099782
 31
0.0
  0
LINE
  5
175
330
5C
100
AcDbEntity
  8
0
  6
Continuous
 62
     7
100
AcDbLine
 10
117.0343126495254
 20
852.7620292308997
 30
0.0
 11
111.3843126495254
 21
849.5000002099782
 31
0.0
  0
LINE
  5
176
330
5C
100
AcDbEntity
  8
0
  6
Continuous
 62
     7
100
AcDbLine
 10
119.6343126495254
 20
914.8000002099782
 30
0.0
 11
124.6343126495254
 21
914.8000002099782
 31
0.0
  0
LINE
  5
177
330
5C
100
AcDbEntity
  8
0
  6
Continuous
 62
     7
100
AcDbLine
 10
122.6343126495254
 20
896.0000002099782
 30
0.0
 11
122.6343126495254
 21
910.8000002099782
 31
0.0
  0
LINE
  5
178
330
5C
100
AcDbEntity
  8
0
  6
Continuous
 62
     7
100
AcDbLine
 10
123.1343126495254
 20
894.0000002099782
 30
0.0
 11
131.6343126495254
 21
894.0000002099782
 31
0.0
  0
LINE
  5
179
330
5C
100
AcDbEntity
  8
0
  6
Continuous
 62
     7
100
AcDbLine
 10
122.6343126495254
 20
896.0000002099782
 30
0.0
 11
123.1343126495254
 21
896.0000002099782
 31
0.0
  0
LINE
  5
17A
330
5C
100
AcDbEntity
  8
0
  6
Continuous
 62
     7
100
AcDbLine
 10
119.6343126495254
 20
896.0000002099782
 30
0.0
 11
122.6343126495254
 21
896.0000002099782
 31
0.0
  0
LINE
  5
17B
330
5C
100
AcDbEntity
  8
0
  6
Continuous
 62
     7
100
AcDbLine
 10
123.1343126495254
 20
894.0000002099782
 30
0.0
 11
123.1343126495254
 21
896.0000002099782
 31
0.0
  0
LINE
  5
17C
330
5C
100
AcDbEntity
  8
0
  6
Continuous
 62
     7
100
AcDbLine
 10
127.2343126495254
 20
849.5000002099782
 30
0.0
 11
127.2343126495254
 21
857.3877037407171
 31
0.0
  0
LINE
  5
17D
330
5C
100
AcDbEntity
  8
0
  6
Continuous
 62
     7
100
AcDbLine
 10
130.6343126495254
 20
849.5000002099782
 30
0.0
 11
127.2343126495254
 21
849.5000002099782
 31
0.0
  0
LINE
  5
17E
330
5C
100
AcDbEntity
  8
0
  6
Continuous
 62
     7
100
AcDbLine
 10
124.6343126495254
 20
910.8000002099782
 30
0.0
 11
122.6343126495254
 21
910.8000002099782
 31
0.0
  0
LINE
  5
17F
330
5C
100
AcDbEntity
  8
0
  6
Continuous
 62
     7
100
AcDbLine
 10
122.6343126495254
 20
910.8000002099782
 30
0.0
 11
119.6343126495254
 21
910.8000002099782
 31
0.0
  0
LINE
  5
180
330
5C
100
AcDbEntity
  8
0
  6
Continuous
 62
     7
100
AcDbLine
 10
119.6343126495254
 20
843.2000002099783
 30
0.0
 11
130.6343126495254
 21
846.3500002099782
 31
0.0
  0
LINE
  5
181
330
5C
100
AcDbEntity
  8
0
  6
Continuous
 62
     7
100
AcDbLine
 10
107.6343126495254
 20
888.2972302422297
 30
0.0
 11
107.6343126495254
 21
884.797959181111
 31
0.0
  0
LINE
  5
182
330
5C
100
AcDbEntity
  8
0
  6
Continuous
 62
     7
100
AcDbLine
 10
108.6343126495254
 20
849.5000002099782
 30
0.0
 11
108.6343126495254
 21
844.9870585392592
 31
0.0
  0
LINE
  5
183
330
5C
100
AcDbEntity
  8
0
  6
Continuous
 62
     7
100
AcDbLine
 10
111.3843126495254
 20
849.5000002099782
 30
0.0
 11
108.6343126495254
 21
849.5000002099782
 31
0.0
  0
LINE
  5
184
330
5C
100
AcDbEntity
  8
0
  6
Continuous
 62
     7
100
AcDbLine
 10
107.6343126495254
 20
894.0000002099782
 30
0.0
 11
107.6343126495254
 21
888.2972302422297
 31
0.0
  0
LINE
  5
185
330
5C
100
AcDbEntity
  8
0
  6
Continuous
 62
     7
100
AcDbLine
 10
108.6343126495254
 20
844.9870585392592
 30
0.0
 11
114.1343126495254
 21
843.2000002099783
 31
0.0
  0
LINE
  5
186
330
5C
100
AcDbEntity
  8
0
  6
Continuous
 62
     7
100
AcDbLine
 10
117.0343126495254
 20
858.7729076795957
 30
0.0
 11
117.0343126495254
 21
852.7620292308997
 31
0.0
  0
LINE
  5
187
330
5C
100
AcDbEntity
  8
0
  6
Continuous
 62
     7
100
AcDbLine
 10
116.1343126495254
 20
894.0000002099782
 30
0.0
 11
116.1343126495254
 21
896.0000002099782
 31
0.0
  0
LINE
  5
188
330
5C
100
AcDbEntity
  8
0
  6
Continuous
 62
     7
100
AcDbLine
 10
116.1343126495254
 20
896.0000002099782
 30
0.0
 11
116.6343126495254
 21
896.0000002099782
 31
0.0
  0
LINE
  5
189
330
5C
100
AcDbEntity
  8
0
  6
Continuous
 62
     7
100
AcDbLine
 10
114.1343126495254
 20
843.2000002099783
 30
0.0
 11
119.6343126495254
 21
843.2000002099783
 31
0.0
  0
LINE
  5
18A
330
5C
100
AcDbEntity
  8
0
  6
Continuous
 62
     7
100
AcDbLine
 10
116.6343126495254
 20
910.8000002099782
 30
0.0
 11
114.6343126495254
 21
910.8000002099782
 31
0.0
  0
LINE
  5
18B
330
5C
100
AcDbEntity
  8
0
  6
Continuous
 62
     7
100
AcDbLine
 10
119.6343126495254
 20
910.8000002099782
 30
0.0
 11
116.6343126495254
 21
910.8000002099782
 31
0.0
  0
LINE
  5
18C
330
5C
100
AcDbEntity
  8
0
  6
Continuous
 62
     7
100
AcDbLine
 10
107.6343126495254
 20
864.2000002099783
 30
0.0
 11
117.0343126495254
 21
858.7729076795957
 31
0.0
  0
LINE
  5
18D
330
5C
100
AcDbEntity
  8
1
  6
DOT_CENTER
 62
     2
100
AcDbLine
 10
119.6343126495254
 20
894.0000002099782
 30
0.0
 11
119.6343126495254
 21
910.8000002099782
 31
0.0
  0
SPLINE
  5
18E
330
5C
100
AcDbEntity
  8
0
  6
Continuous
 62
     7
100
AcDbSpline
210
0.0
220
0.0
230
1.0
 70
     8
 71
     3
 72
    23
 73
    19
 74
    17
 42
0.000000001
 43
0.0000000001
 44
0.00000001
 40
0.0
 40
0.0
 40
0.0
 40
0.0
 40
0.0792032534074349
 40
0.1584065068079372
 40
0.3903851236219088
 40
0.6214686774490301
 40
1.264056075811422
 40
1.901545539906568
 40
2.71255358463162
 40
3.520546487984428
 40
4.329017039615546
 40
5.140514131307387
 40
5.774349441466366
 40
6.413221826771193
 40
6.645740558629082
 40
6.879164654281095
 40
6.959364757255699
 40
7.039564860237819
 40
7.039564860237819
 40
7.039564860237819
 40
7.039564860237819
 10
123.1343126495254
 20
894.0000002099782
 30
0.0
 10
123.1083431010034
 20
893.9952460675648
 30
0.0
 10
123.0564040013683
 20
893.9857377969691
 30
0.0
 10
122.9282903904776
 20
893.9629259978491
 30
0.0
 10
122.7501029230124
 20
893.9325399928491
 30
0.0
 10
122.3861020042234
 20
893.8747814947131
 30
0.0
 10
121.8869047754201
 20
893.8066839724772
 30
0.0
 10
121.193434110804
 20
893.7352008641684
 30
0.0
 10
120.4426072958383
 20
893.6865051392168
 30
0.0
 10
119.6333887782151
 20
893.6690127615307
 30
0.0
 10
118.824008613952
 20
893.6865852919237
 30
0.0
 10
118.074081401713
 20
893.7353125514107
 30
0.0
 10
117.3828963085
 20
893.8065836311843
 30
0.0
 10
116.8856500148411
 20
893.8743369592047
 30
0.0
 10
116.521911752585
 20
893.931976779061
 30
0.0
 10
116.342446054627
 20
893.9625563589535
 30
0.0
 10
116.2132020561266
 20
893.9855593828318
 30
0.0
 10
116.1606091175289
 20
893.9951865961854
 30
0.0
 10
116.1343126495254
 20
894.0000002099782
 30
0.0
 11
123.1343126495254
 21
894.0000002099782
 31
0.0
 11
123.0563926183433
 21
893.985800769782
 31
0.0
 11
122.9784184597662
 21
893.971901634719
 31
0.0
 11
122.7497366606936
 21
893.9329309595838
 31
0.0
 11
122.5215083843931
 21
893.8967168351331
 31
0.0
 11
121.8848040653267
 21
893.8099633043755
 31
0.0
 11
121.2506672890331
 21
893.7446688472377
 31
0.0
 11
120.4413531155375
 21
893.6922797476318
 31
0.0
 11
119.6335482361602
 21
893.6748496226061
 31
0.0
 11
118.8252674708305
 21
893.6923664085409
 31
0.0
 11
118.0154715127582
 21
893.7448834218335
 31
0.0
 11
117.3849719442106
 21
893.809825663942
 31
0.0
 11
116.7519354945802
 21
893.8959812129135
 31
0.0
 11
116.5222822545959
 21
893.9323728341097
 31
0.0
 11
116.2921702905262
 21
893.9715556429892
 31
0.0
 11
116.2132137262748
 21
893.9856239581322
 31
0.0
 11
116.1343126495254
 21
894.0000002099782
 31
0.0
  0
ENDBLK
  5
5E
330
5C
100
AcDbEntity
  8
0
100
AcDbBlockEnd
  0
BLOCK
  5
61
330
5F
100
AcDbEntity
  8
0
100
AcDbBlockBegin
  2
SA_Links1
 70
     0
 10
119.6343126402801
 20
879.00000010499
 30
0.0
  3
SA_Links1
  1

  0
INSERT
  5
60
330
5F
100
AcDbEntity
  8
0
100
AcDbBlockReference
  2
3240255_WCC_26-select__4
 10
107.6343126495254
 20
843.2000002099783
 30
0.0
  0
MTEXT
  5
18F
330
5F
100
AcDbEntity
  8
1
 62
     6
100
AcDbMText
 10
119.6343126402801
 20
838.1999981049901
 30
0.0
 40
5.0
 41
0.0
 71
     2
 72
     1
  1
 
  7
CONVERTER_11
 73
     1
 44
1.32052821128451
  0
DIMENSION
  5
19A
330
5F
100
AcDbEntity
  8
1
100
AcDbDimension
  2
*D16
 10
131.6343126495254
 20
924.8000002099782
 30
0.0
 11
119.6343126495254
 21
928.5500002099782
 31
0.0
 70
    32
  1
<>
 71
     5
 42
-1.0
 53
0.00013888888889
  3
ME10_DIM_10
100
AcDbAlignedDimension
 13
107.6343126495254
 23
894.0000002099782
 33
0.0
 14
131.6343126495254
 24
894.0000002099782
 34
0.0
100
AcDbRotatedDimension
  0
DIMENSION
  5
1A5
330
5F
100
AcDbEntity
  8
1
100
AcDbDimension
  2
*D17
 10
141.6343126495254
 20
896.0000002099782
 30
0.0
 11
137.7093126495254
 21
869.6000002099782
 31
0.0
 70
    32
  1
<>
 71
     5
 42
-1.0
 53
90.0
  3
ME10_DIM_11
100
AcDbAlignedDimension
 13
119.6343126495254
 23
843.2000002099783
 33
0.0
 14
123.1343126495254
 24
896.0000002099782
 34
0.0
 50
90.0
100
AcDbRotatedDimension
  0
DIMENSION
  5
1B0
330
5F
100
AcDbEntity
  8
1
100
AcDbDimension
  2
*D18
 10
149.6343126495254
 20
914.8000002099782
 30
0.0
 11
145.7093126495254
 21
879.0000002099782
 31
0.0
 70
    32
  1
<>
 71
     5
 42
-1.0
 53
90.0
  3
ME10_DIM_12
100
AcDbAlignedDimension
 13
119.6343126495254
 23
843.2000002099783
 33
0.0
 14
124.6343126495254
 24
914.8000002099782
 34
0.0
 50
90.0
100
AcDbRotatedDimension
  0
ENDBLK
  5
62
330
5F
100
AcDbEntity
  8
0
100
AcDbBlockEnd
  0
BLOCK
  5
64
330
63
100
AcDbEntity
  8
0
100
AcDbBlockBegin
  2
3240255_WCC_26-select__5
 70
     0
 10
10.90293787431089
 20
843.2000002099783
 30
0.0
  3
3240255_WCC_26-select__5
  1

  0
LINE
  5
1B1
330
63
100
AcDbEntity
  8
0
  6
Continuous
 62
     7
100
AcDbLine
 10
10.90293787431089
 20
888.2972302422298
 30
0.0
 11
10.90293787431089
 21
894.0000002099783
 31
0.0
  0
LINE
  5
1B2
330
63
100
AcDbEntity
  8
0
  6
Continuous
 62
     7
100
AcDbLine
 10
34.90293787431089
 20
894.0000002099783
 30
0.0
 11
26.40293787431089
 21
894.0000002099783
 31
0.0
  0
LINE
  5
1B3
330
63
100
AcDbEntity
  8
0
  6
Continuous
 62
     7
100
AcDbLine
 10
34.9029378743109
 20
888.2972302422298
 30
0.0
 11
34.90293787431089
 21
894.0000002099783
 31
0.0
  0
LINE
  5
1B4
330
63
100
AcDbEntity
  8
0
  6
Continuous
 62
     7
100
AcDbLine
 10
34.90293787431089
 20
884.797959181111
 30
0.0
 11
34.9029378743109
 21
888.2972302422298
 31
0.0
  0
LINE
  5
1B5
330
63
100
AcDbEntity
  8
0
  6
Continuous
 62
     7
100
AcDbLine
 10
10.90293787431089
 20
884.797959181111
 30
0.0
 11
10.90293787431089
 21
888.2972302422298
 31
0.0
  0
LINE
  5
1B6
330
63
100
AcDbEntity
  8
0
  6
Continuous
 62
     2
100
AcDbLine
 10
10.90293787431089
 20
884.797959181111
 30
0.0
 11
34.90293787431089
 21
884.797959181111
 31
0.0
  0
LINE
  5
1B7
330
63
100
AcDbEntity
  8
0
  6
Continuous
 62
     2
100
AcDbLine
 10
10.90293787431089
 20
888.2972302422298
 30
0.0
 11
34.9029378743109
 21
888.2972302422298
 31
0.0
  0
LINE
  5
1B8
330
63
100
AcDbEntity
  8
0
  6
Continuous
 62
     7
100
AcDbLine
 10
34.90293787431089
 20
884.797959181111
 30
0.0
 11
34.9029378743109
 21
864.2000002099783
 31
0.0
  0
LINE
  5
1B9
330
63
100
AcDbEntity
  8
0
  6
Continuous
 62
     7
100
AcDbLine
 10
17.90293787431089
 20
910.8000002099783
 30
0.0
 11
17.90293787431089
 21
914.8000002099783
 31
0.0
  0
LINE
  5
1BA
330
63
100
AcDbEntity
  8
0
  6
Continuous
 62
     7
100
AcDbLine
 10
10.90293787431089
 20
884.797959181111
 30
0.0
 11
10.90293787431089
 21
860.3000002099783
 31
0.0
  0
LINE
  5
1BB
330
63
100
AcDbEntity
  8
0
  6
Continuous
 62
     7
100
AcDbLine
 10
10.90293787431089
 20
860.3000002099783
 30
0.0
 11
15.30293787431089
 21
857.3877037407173
 31
0.0
  0
LINE
  5
1BC
330
63
100
AcDbEntity
  8
0
  6
Continuous
 62
     7
100
AcDbLine
 10
33.9029378743109
 20
849.5000002099783
 30
0.0
 11
31.1529378743109
 21
849.5000002099783
 31
0.0
  0
LINE
  5
1BD
330
63
100
AcDbEntity
  8
0
  6
Continuous
 62
     7
100
AcDbLine
 10
33.9029378743109
 20
844.9870585392594
 30
0.0
 11
33.9029378743109
 21
849.5000002099783
 31
0.0
  0
LINE
  5
1BE
330
63
100
AcDbEntity
  8
0
  6
Continuous
 62
     7
100
AcDbLine
 10
27.90293787431089
 20
910.8000002099783
 30
0.0
 11
27.90293787431089
 21
914.8000002099783
 31
0.0
  0
LINE
  5
1BF
330
63
100
AcDbEntity
  8
0
  6
Continuous
 62
     7
100
AcDbLine
 10
28.40293787431091
 20
843.2000002099783
 30
0.0
 11
33.9029378743109
 21
844.9870585392594
 31
0.0
  0
LINE
  5
1C0
330
63
100
AcDbEntity
  8
0
  6
Continuous
 62
     7
100
AcDbLine
 10
19.40293787431089
 20
894.0000002099783
 30
0.0
 11
19.40293787431089
 21
896.0000002099783
 31
0.0
  0
LINE
  5
1C1
330
63
100
AcDbEntity
  8
0
  6
Continuous
 62
     7
100
AcDbLine
 10
17.90293787431089
 20
914.8000002099783
 30
0.0
 11
22.90293787431089
 21
914.8000002099783
 31
0.0
  0
LINE
  5
1C2
330
63
100
AcDbEntity
  8
0
  6
Continuous
 62
     7
100
AcDbLine
 10
11.90293787431089
 20
846.3500002099784
 30
0.0
 11
22.90293787431092
 21
843.2000002099783
 31
0.0
  0
LINE
  5
1C3
330
63
100
AcDbEntity
  8
0
  6
Continuous
 62
     7
100
AcDbLine
 10
22.90293787431089
 20
914.8000002099783
 30
0.0
 11
27.90293787431089
 21
914.8000002099783
 31
0.0
  0
LINE
  5
1C4
330
63
100
AcDbEntity
  8
0
  6
Continuous
 62
     7
100
AcDbLine
 10
31.1529378743109
 20
849.5000002099783
 30
0.0
 11
25.50293787431089
 21
852.7620292308998
 31
0.0
  0
LINE
  5
1C5
330
63
100
AcDbEntity
  8
0
  6
Continuous
 62
     7
100
AcDbLine
 10
19.40293787431089
 20
896.0000002099783
 30
0.0
 11
19.90293787431089
 21
896.0000002099783
 31
0.0
  0
LINE
  5
1C6
330
63
100
AcDbEntity
  8
0
  6
Continuous
 62
     7
100
AcDbLine
 10
25.90293787431089
 20
896.0000002099783
 30
0.0
 11
26.40293787431089
 21
896.0000002099783
 31
0.0
  0
LINE
  5
1C7
330
63
100
AcDbEntity
  8
0
  6
Continuous
 62
     7
100
AcDbLine
 10
19.90293787431089
 20
896.0000002099783
 30
0.0
 11
25.90293787431089
 21
896.0000002099783
 31
0.0
  0
LINE
  5
1C8
330
63
100
AcDbEntity
  8
0
  6
Continuous
 62
     7
100
AcDbLine
 10
19.90293787431089
 20
910.8000002099783
 30
0.0
 11
17.90293787431089
 21
910.8000002099783
 31
0.0
  0
LINE
  5
1C9
330
63
100
AcDbEntity
  8
0
  6
Continuous
 62
     7
100
AcDbLine
 10
25.90293787431089
 20
910.8000002099783
 30
0.0
 11
22.90293787431089
 21
910.8000002099783
 31
0.0
  0
LINE
  5
1CA
330
63
100
AcDbEntity
  8
0
  6
Continuous
 62
     7
100
AcDbLine
 10
19.40293787431089
 20
894.0000002099783
 30
0.0
 11
10.90293787431089
 21
894.0000002099783
 31
0.0
  0
LINE
  5
1CB
330
63
100
AcDbEntity
  8
0
  6
Continuous
 62
     7
100
AcDbLine
 10
27.90293787431089
 20
910.8000002099783
 30
0.0
 11
25.90293787431089
 21
910.8000002099783
 31
0.0
  0
LINE
  5
1CC
330
63
100
AcDbEntity
  8
0
  6
Continuous
 62
     7
100
AcDbLine
 10
25.50293787431089
 20
852.7620292308998
 30
0.0
 11
25.50293787431089
 21
858.7729076795958
 31
0.0
  0
LINE
  5
1CD
330
63
100
AcDbEntity
  8
0
  6
Continuous
 62
     7
100
AcDbLine
 10
26.40293787431089
 20
894.0000002099783
 30
0.0
 11
26.40293787431089
 21
896.0000002099783
 31
0.0
  0
LINE
  5
1CE
330
63
100
AcDbEntity
  8
0
  6
Continuous
 62
     7
100
AcDbLine
 10
28.40293787431091
 20
843.2000002099783
 30
0.0
 11
22.90293787431092
 21
843.2000002099783
 31
0.0
  0
LINE
  5
1CF
330
63
100
AcDbEntity
  8
0
  6
Continuous
 62
     7
100
AcDbLine
 10
25.90293787431089
 20
896.0000002099783
 30
0.0
 11
25.90293787431089
 21
910.8000002099783
 31
0.0
  0
LINE
  5
1D0
330
63
100
AcDbEntity
  8
0
  6
Continuous
 62
     7
100
AcDbLine
 10
11.90293787431089
 20
849.5000002099783
 30
0.0
 11
11.90293787431089
 21
846.3500002099784
 31
0.0
  0
LINE
  5
1D1
330
63
100
AcDbEntity
  8
0
  6
Continuous
 62
     7
100
AcDbLine
 10
15.30293787431089
 20
849.5000002099783
 30
0.0
 11
11.90293787431089
 21
849.5000002099783
 31
0.0
  0
LINE
  5
1D2
330
63
100
AcDbEntity
  8
0
  6
Continuous
 62
     7
100
AcDbLine
 10
15.30293787431089
 20
857.3877037407173
 30
0.0
 11
15.30293787431089
 21
849.5000002099783
 31
0.0
  0
LINE
  5
1D3
330
63
100
AcDbEntity
  8
0
  6
Continuous
 62
     7
100
AcDbLine
 10
22.90293787431089
 20
910.8000002099783
 30
0.0
 11
19.90293787431089
 21
910.8000002099783
 31
0.0
  0
LINE
  5
1D4
330
63
100
AcDbEntity
  8
0
  6
Continuous
 62
     7
100
AcDbLine
 10
22.90293787431089
 20
910.8000002099783
 30
0.0
 11
22.90293787431089
 21
914.8000002099783
 31
0.0
  0
LINE
  5
1D5
330
63
100
AcDbEntity
  8
0
  6
Continuous
 62
     7
100
AcDbLine
 10
19.90293787431089
 20
896.0000002099783
 30
0.0
 11
19.90293787431089
 21
910.8000002099783
 31
0.0
  0
LINE
  5
1D6
330
63
100
AcDbEntity
  8
0
  6
Continuous
 62
     7
100
AcDbLine
 10
25.50293787431089
 20
858.7729076795958
 30
0.0
 11
34.9029378743109
 21
864.2000002099783
 31
0.0
  0
LINE
  5
1D7
330
63
100
AcDbEntity
  8
1
  6
DOT_CENTER
 62
     2
100
AcDbLine
 10
22.90293787431092
 20
894.0000002099782
 30
0.0
 11
22.90293787431089
 21
910.8000002099783
 31
0.0
  0
SPLINE
  5
1D8
330
63
100
AcDbEntity
  8
0
  6
Continuous
 62
     7
100
AcDbSpline
210
0.0
220
0.0
230
1.0
 70
     8
 71
     3
 72
    17
 73
    13
 74
    11
 42
0.000000001
 43
0.0000000001
 44
0.00000001
 40
0.0
 40
0.0
 40
0.0
 40
0.0
 40
0.033990964250393
 40
0.0679819285651115
 40
0.1689919782398864
 40
0.2697813398662483
 40
0.6543426024915632
 40
1.036631438706137
 40
1.608927528069374
 40
2.177754678397469
 40
2.849659928551861
 40
3.519841937541119
 40
3.519841937541119
 40
3.519841937541119
 40
3.519841937541119
 10
26.40293787431089
 20
894.0000002099783
 30
0.0
 10
26.39179405428389
 20
893.9979528873412
 30
0.0
 10
26.36950641160072
 20
893.9938582562864
 30
0.0
 10
26.31408197418375
 20
893.9837945847229
 30
0.0
 10
26.23670529837584
 20
893.9699971822142
 30
0.0
 10
26.04411840212121
 20
893.9366431151183
 30
0.0
 10
25.75856045703344
 20
893.890676519799
 30
0.0
 10
25.31654792290649
 20
893.8282138703719
 30
0.0
 10
24.81208664913339
 20
893.769288861424
 30
0.0
 10
24.20991912334781
 20
893.7173702851846
 30
0.0
 10
23.57372927059435
 20
893.6817994827749
 30
0.0
 10
23.12634352526954
 20
893.6771642434596
 30
0.0
 10
22.90293787431089
 20
893.6748496069614
 30
0.0
 11
26.40293787431089
 21
894.0000002099783
 31
0.0
 11
26.36950430168094
 21
893.9938698031781
 31
0.0
 11
26.33606067145838
 21
893.9877945036895
 31
0.0
 11
26.23661843500737
 21
893.9700667907945
 31
0.0
 11
26.13730755221864
 21
893.9528666742725
 31
0.0
 11
25.75762936727465
 21
893.8917778796418
 31
0.0
 11
25.37910008510797
 21
893.838295761704
 31
0.0
 11
24.81065252753719
 21
893.7720372650807
 31
0.0
 11
24.24394858906563
 21
893.7229356031555
 31
0.0
 11
23.57301212505589
 21
893.6868672427775
 31
0.0
 11
22.90293787431089
 21
893.6748496069614
 31
0.0
  0
SPLINE
  5
1D9
330
63
100
AcDbEntity
  8
0
  6
Continuous
 62
     7
100
AcDbSpline
210
0.0
220
0.0
230
1.0
 70
     8
 71
     3
 72
    17
 73
    13
 74
    11
 42
0.000000001
 43
0.0000000001
 44
0.00000001
 40
0.0
 40
0.0
 40
0.0
 40
0.0
 40
0.6710733216009599
 40
1.343877032160415
 40
1.912572801563877
 40
2.484738780581081
 40
2.86664462559862
 40
3.250819271728282
 40
3.351291901530485
 40
3.451895387999791
 40
3.485868556412964
 40
3.51984172476158
 40
3.51984172476158
 40
3.51984172476158
 40
3.51984172476158
 10
22.90293787431089
 20
893.6748496069614
 30
0.0
 10
22.67923507484033
 20
893.6771703916169
 30
0.0
 10
22.2312526496957
 20
893.6818179598483
 30
0.0
 10
21.59451272930833
 20
893.7174671491973
 30
0.0
 10
20.99213844588339
 20
893.7694582150249
 30
0.0
 10
20.48789543772458
 20
893.8283996466646
 30
0.0
 10
20.0461841393754
 20
893.8908500779916
 30
0.0
 10
19.7609859320365
 20
893.9367725450384
 30
0.0
 10
19.56876456134317
 20
893.9700691236085
 30
0.0
 10
19.4916312428706
 20
893.9838240504898
 30
0.0
 10
19.43635183246304
 20
893.9938614633734
 30
0.0
 10
19.41407585948516
 20
893.9979539563699
 30
0.0
 10
19.40293787431089
 20
894.0000002099783
 30
0.0
 11
22.90293787431089
 21
893.6748496069614
 31
0.0
 11
22.23197274112033
 21
893.6868992092761
 31
0.0
 11
21.56014168194694
 21
893.7230635708236
 31
0.0
 11
20.99357306753239
 21
893.7722050342753
 31
0.0
 11
20.42526017375293
 21
893.83849502214
 31
0.0
 11
20.0471137210243
 21
893.8919490664173
 31
0.0
 11
19.66782012448729
 21
893.9529943495654
 31
0.0
 11
19.56882183143224
 21
893.9701433245508
 31
0.0
 11
19.46978005323579
 21
893.9878008362859
 31
0.0
 11
19.43635394022407
 21
893.9938729983602
 31
0.0
 11
19.40293787431089
 21
894.0000002099783
 31
0.0
  0
ENDBLK
  5
65
330
63
100
AcDbEntity
  8
0
100
AcDbBlockEnd
  0
BLOCK
  5
68
330
66
100
AcDbEntity
  8
0
100
AcDbBlockBegin
  2
SA_Rechts1
 70
     0
 10
22.90293788355623
 20
879.00000010499
 30
0.0
  3
SA_Rechts1
  1

  0
INSERT
  5
67
330
66
100
AcDbEntity
  8
0
100
AcDbBlockReference
  2
3240255_WCC_26-select__5
 10
10.90293787431089
 20
843.2000002099783
 30
0.0
  0
MTEXT
  5
1DA
330
66
100
AcDbEntity
  8
1
 62
     6
100
AcDbMText
 10
22.90293788355621
 20
838.1999981049901
 30
0.0
 40
5.0
 41
0.0
 71
     2
 72
     1
  1
 
  7
CONVERTER_11
 73
     1
 44
1.32052821128451
  0
ENDBLK
  5
69
330
66
100
AcDbEntity
  8
0
100
AcDbBlockEnd
  0
BLOCK
  5
6B
330
6A
100
AcDbEntity
  8
0
100
AcDbBlockBegin
  2
3240255_WCC_26-select__6
 70
     0
 10
56.26862529135758
 20
843.2000002099783
 30
0.0
  3
3240255_WCC_26-select__6
  1

  0
LINE
  5
1DB
330
6A
100
AcDbEntity
  8
0
  6
Continuous
 62
     7
100
AcDbLine
 10
68.38187394540947
 20
910.8000002099783
 30
0.0
 11
68.38187394540947
 21
914.8000002099783
 31
0.0
  0
LINE
  5
1DC
330
6A
100
AcDbEntity
  8
0
  6
Continuous
 62
     7
100
AcDbLine
 10
74.15537663730572
 20
914.8000002099783
 30
0.0
 11
72.06862529135759
 21
914.8000002099783
 31
0.0
  0
LINE
  5
1DD
330
6A
100
AcDbEntity
  8
0
  6
Continuous
 62
     7
100
AcDbLine
 10
77.04212798325386
 20
914.8000002099783
 30
0.0
 11
74.15537663730572
 21
914.8000002099783
 31
0.0
  0
LINE
  5
1DE
330
6A
100
AcDbEntity
  8
0
  6
Continuous
 62
     7
100
AcDbLine
 10
84.76862529135758
 20
860.3000002099783
 30
0.0
 11
86.26862529135758
 21
860.3000002099783
 31
0.0
  0
LINE
  5
1DF
330
6A
100
AcDbEntity
  8
0
  6
Continuous
 62
     7
100
AcDbLine
 10
72.06862529135759
 20
913.2000002099783
 30
0.0
 11
72.06862529135759
 21
914.8000002099783
 31
0.0
  0
LINE
  5
1E0
330
6A
100
AcDbEntity
  8
0
  6
Continuous
 62
     7
100
AcDbLine
 10
86.26862529135758
 20
884.797959181111
 30
0.0
 11
86.26862529135758
 21
860.3000002099783
 31
0.0
  0
LINE
  5
1E1
330
6A
100
AcDbEntity
  8
0
  6
Continuous
 62
     7
100
AcDbLine
 10
68.38187394540947
 20
914.8000002099783
 30
0.0
 11
65.49512259946134
 21
914.8000002099783
 31
0.0
  0
LINE
  5
1E2
330
6A
100
AcDbEntity
  8
0
  6
Continuous
 62
     7
100
AcDbLine
 10
86.26862529135758
 20
846.3500002099784
 30
0.0
 11
86.26862529135758
 21
843.2000002099783
 31
0.0
  0
LINE
  5
1E3
330
6A
100
AcDbEntity
  8
0
  6
Continuous
 62
     7
100
AcDbLine
 10
86.26862529135758
 20
843.2000002099783
 30
0.0
 11
84.76862529135758
 21
843.2000002099783
 31
0.0
  0
LINE
  5
1E4
330
6A
100
AcDbEntity
  8
0
  6
Continuous
 62
     7
100
AcDbLine
 10
86.26862529135758
 20
860.3000002099783
 30
0.0
 11
86.26862529135758
 21
857.3877037407173
 31
0.0
  0
LINE
  5
1E5
330
6A
100
AcDbEntity
  8
0
  6
Continuous
 62
     7
100
AcDbLine
 10
86.26862529135758
 20
857.3877037407173
 30
0.0
 11
86.26862529135758
 21
849.5000002099783
 31
0.0
  0
LINE
  5
1E6
330
6A
100
AcDbEntity
  8
0
  6
Continuous
 62
     7
100
AcDbLine
 10
86.26862529135758
 20
857.3877037407173
 30
0.0
 11
84.76862529135758
 21
857.3877037407173
 31
0.0
  0
LINE
  5
1E7
330
6A
100
AcDbEntity
  8
0
  6
Continuous
 62
     7
100
AcDbLine
 10
86.26862529135758
 20
849.5000002099783
 30
0.0
 11
86.26862529135758
 21
846.3500002099784
 31
0.0
  0
LINE
  5
1E8
330
6A
100
AcDbEntity
  8
0
  6
Continuous
 62
     7
100
AcDbLine
 10
84.76862529135758
 20
846.3500002099784
 30
0.0
 11
84.76862529135758
 21
849.5000002099783
 31
0.0
  0
LINE
  5
1E9
330
6A
100
AcDbEntity
  8
0
  6
Continuous
 62
     7
100
AcDbLine
 10
84.76862529135758
 20
846.3500002099784
 30
0.0
 11
86.26862529135758
 21
846.3500002099784
 31
0.0
  0
LINE
  5
1EA
330
6A
100
AcDbEntity
  8
0
  6
Continuous
 62
     7
100
AcDbLine
 10
84.76862529135758
 20
857.3877037407173
 30
0.0
 11
84.76862529135758
 21
860.3000002099783
 31
0.0
  0
LINE
  5
1EB
330
6A
100
AcDbEntity
  8
0
  6
Continuous
 62
     7
100
AcDbLine
 10
86.26862529135758
 20
849.5000002099783
 30
0.0
 11
84.76862529135758
 21
849.5000002099783
 31
0.0
  0
LINE
  5
1EC
330
6A
100
AcDbEntity
  8
0
  6
Continuous
 62
     7
100
AcDbLine
 10
83.75862128815439
 20
872.5000002099783
 30
0.0
 11
81.51557605731718
 21
872.5000002099782
 31
0.0
  0
LINE
  5
1ED
330
6A
100
AcDbEntity
  8
0
  6
Continuous
 62
     7
100
AcDbLine
 10
74.15537663730572
 20
910.8000002099783
 30
0.0
 11
74.15537663730572
 21
914.8000002099783
 31
0.0
  0
LINE
  5
1EE
330
6A
100
AcDbEntity
  8
0
  6
Continuous
 62
     7
100
AcDbLine
 10
77.04212798325386
 20
910.8000002099783
 30
0.0
 11
77.04212798325386
 21
914.8000002099783
 31
0.0
  0
LINE
  5
1EF
330
6A
100
AcDbEntity
  8
0
  6
Continuous
 62
     7
100
AcDbLine
 10
78.5186252913576
 20
878.4333216555262
 30
0.0
 11
78.5186252913576
 21
883.0000002099783
 31
0.0
  0
LINE
  5
1F0
330
6A
100
AcDbEntity
  8
0
  6
Continuous
 62
     7
100
AcDbLine
 10
84.76862529135758
 20
884.797959181111
 30
0.0
 11
84.76862529135758
 21
860.3000002099783
 31
0.0
  0
LINE
  5
1F1
330
6A
100
AcDbEntity
  8
0
  6
Continuous
 62
     7
100
AcDbLine
 10
84.76862529135758
 20
849.5000002099783
 30
0.0
 11
84.76862529135758
 21
857.3877037407173
 31
0.0
  0
LINE
  5
1F2
330
6A
100
AcDbEntity
  8
0
  6
Continuous
 62
     7
100
AcDbLine
 10
84.76862529135758
 20
843.2000002099783
 30
0.0
 11
84.76862529135758
 21
846.3500002099784
 31
0.0
  0
LINE
  5
1F3
330
6A
100
AcDbEntity
  8
0
  6
Continuous
 62
     7
100
AcDbLine
 10
70.4686252913576
 20
914.8000002099783
 30
0.0
 11
68.38187394540947
 21
914.8000002099783
 31
0.0
  0
LINE
  5
1F4
330
6A
100
AcDbEntity
  8
0
  6
Continuous
 62
     7
100
AcDbLine
 10
70.4686252913576
 20
914.8000002099783
 30
0.0
 11
70.4686252913576
 21
913.2000002099783
 31
0.0
  0
LINE
  5
1F5
330
6A
100
AcDbEntity
  8
0
  6
Continuous
 62
     7
100
AcDbLine
 10
70.4686252913576
 20
913.2000002099783
 30
0.0
 11
72.06862529135759
 21
913.2000002099783
 31
0.0
  0
LINE
  5
1F6
330
6A
100
AcDbEntity
  8
0
  6
Continuous
 62
     7
100
AcDbLine
 10
67.76862529135761
 20
896.0000002099783
 30
0.0
 11
68.26862529135761
 21
896.0000002099783
 31
0.0
  0
LINE
  5
1F7
330
6A
100
AcDbEntity
  8
0
  6
Continuous
 62
     7
100
AcDbLine
 10
74.2686252913576
 20
896.0000002099783
 30
0.0
 11
74.76862529135761
 21
896.0000002099783
 31
0.0
  0
LINE
  5
1F8
330
6A
100
AcDbEntity
  8
0
  6
Continuous
 62
     7
100
AcDbLine
 10
68.26862529135761
 20
896.0000002099783
 30
0.0
 11
74.2686252913576
 21
896.0000002099783
 31
0.0
  0
LINE
  5
1F9
330
6A
100
AcDbEntity
  8
0
  6
Continuous
 62
     7
100
AcDbLine
 10
68.26862529135761
 20
896.0000002099783
 30
0.0
 11
68.26862529135761
 21
910.8000002099783
 31
0.0
  0
LINE
  5
1FA
330
6A
100
AcDbEntity
  8
0
  6
Continuous
 62
     7
100
AcDbLine
 10
74.76862529135761
 20
893.6748496069614
 30
0.0
 11
74.76862529135761
 21
896.0000002099783
 31
0.0
  0
LINE
  5
1FB
330
6A
100
AcDbEntity
  8
0
  6
Continuous
 62
     7
100
AcDbLine
 10
67.76862529135761
 20
893.6748496069614
 30
0.0
 11
67.76862529135761
 21
896.0000002099783
 31
0.0
  0
LINE
  5
1FC
330
6A
100
AcDbEntity
  8
0
  6
Continuous
 62
     7
100
AcDbLine
 10
74.2686252913576
 20
896.0000002099783
 30
0.0
 11
74.26862529135761
 21
910.8000002099783
 31
0.0
  0
LINE
  5
1FD
330
6A
100
AcDbEntity
  8
0
  6
Continuous
 62
     7
100
AcDbLine
 10
74.2686252913576
 20
883.0000002099783
 30
0.0
 11
78.5186252913576
 21
883.0000002099783
 31
0.0
  0
LINE
  5
1FE
330
6A
100
AcDbEntity
  8
0
  6
Continuous
 62
     7
100
AcDbLine
 10
74.26862529135761
 20
910.8000002099783
 30
0.0
 11
74.15537663730572
 21
910.8000002099783
 31
0.0
  0
LINE
  5
1FF
330
6A
100
AcDbEntity
  8
0
  6
Continuous
 62
     7
100
AcDbLine
 10
68.38187394540947
 20
910.8000002099783
 30
0.0
 11
68.26862529135761
 21
910.8000002099783
 31
0.0
  0
LINE
  5
200
330
6A
100
AcDbEntity
  8
0
  6
Continuous
 62
     7
100
AcDbLine
 10
68.26862529135761
 20
910.8000002099783
 30
0.0
 11
65.49512259946134
 21
910.8000002099783
 31
0.0
  0
LINE
  5
201
330
6A
100
AcDbEntity
  8
0
  6
Continuous
 62
     7
100
AcDbLine
 10
77.04212798325386
 20
910.8000002099783
 30
0.0
 11
74.26862529135761
 21
910.8000002099783
 31
0.0
  0
LINE
  5
202
330
6A
100
AcDbEntity
  8
0
  6
Continuous
 62
     7
100
AcDbLine
 10
74.15537663730572
 20
910.8000002099783
 30
0.0
 11
68.38187394540947
 21
910.8000002099783
 31
0.0
  0
LINE
  5
203
330
6A
100
AcDbEntity
  8
0
  6
Continuous
 62
     7
100
AcDbLine
 10
57.76862529135758
 20
843.2000002099783
 30
0.0
 11
56.26862529135758
 21
843.2000002099783
 31
0.0
  0
LINE
  5
204
330
6A
100
AcDbEntity
  8
0
  6
Continuous
 62
     7
100
AcDbLine
 10
56.26862529135759
 20
857.3877037407173
 30
0.0
 11
56.26862529135761
 21
860.3000002099783
 31
0.0
  0
LINE
  5
205
330
6A
100
AcDbEntity
  8
0
  6
Continuous
 62
     7
100
AcDbLine
 10
56.26862529135759
 20
846.3500002099784
 30
0.0
 11
56.26862529135759
 21
849.5000002099783
 31
0.0
  0
LINE
  5
206
330
6A
100
AcDbEntity
  8
0
  6
Continuous
 62
     7
100
AcDbLine
 10
57.76862529135759
 20
849.5000002099783
 30
0.0
 11
57.76862529135759
 21
846.3500002099784
 31
0.0
  0
LINE
  5
207
330
6A
100
AcDbEntity
  8
0
  6
Continuous
 62
     7
100
AcDbLine
 10
56.26862529135759
 20
849.5000002099783
 30
0.0
 11
56.26862529135759
 21
857.3877037407173
 31
0.0
  0
LINE
  5
208
330
6A
100
AcDbEntity
  8
0
  6
Continuous
 62
     7
100
AcDbLine
 10
57.76862529135761
 20
860.3000002099783
 30
0.0
 11
57.76862529135759
 21
857.3877037407173
 31
0.0
  0
LINE
  5
209
330
6A
100
AcDbEntity
  8
0
  6
Continuous
 62
     7
100
AcDbLine
 10
57.76862529135759
 20
857.3877037407173
 30
0.0
 11
57.76862529135759
 21
849.5000002099783
 31
0.0
  0
LINE
  5
20A
330
6A
100
AcDbEntity
  8
0
  6
Continuous
 62
     7
100
AcDbLine
 10
57.76862529135759
 20
857.3877037407173
 30
0.0
 11
56.26862529135759
 21
857.3877037407173
 31
0.0
  0
LINE
  5
20B
330
6A
100
AcDbEntity
  8
0
  6
Continuous
 62
     7
100
AcDbLine
 10
56.26862529135761
 20
884.7979591811111
 30
0.0
 11
56.26862529135761
 21
860.3000002099783
 31
0.0
  0
LINE
  5
20C
330
6A
100
AcDbEntity
  8
0
  6
Continuous
 62
     7
100
AcDbLine
 10
56.26862529135761
 20
860.3000002099783
 30
0.0
 11
57.76862529135761
 21
860.3000002099783
 31
0.0
  0
LINE
  5
20D
330
6A
100
AcDbEntity
  8
0
  6
Continuous
 62
     7
100
AcDbLine
 10
57.76862529135759
 20
849.5000002099783
 30
0.0
 11
56.26862529135759
 21
849.5000002099783
 31
0.0
  0
LINE
  5
20E
330
6A
100
AcDbEntity
  8
0
  6
Continuous
 62
     7
100
AcDbLine
 10
56.26862529135759
 20
846.3500002099784
 30
0.0
 11
57.76862529135759
 21
846.3500002099784
 31
0.0
  0
LINE
  5
20F
330
6A
100
AcDbEntity
  8
0
  6
Continuous
 62
     7
100
AcDbLine
 10
65.49512259946134
 20
910.8000002099783
 30
0.0
 11
65.49512259946134
 21
914.8000002099783
 31
0.0
  0
LINE
  5
210
330
6A
100
AcDbEntity
  8
0
  6
Continuous
 62
     7
100
AcDbLine
 10
64.01862529135761
 20
878.4333216555262
 30
0.0
 11
64.0186252913576
 21
883.0000002099783
 31
0.0
  0
LINE
  5
211
330
6A
100
AcDbEntity
  8
0
  6
Continuous
 62
     7
100
AcDbLine
 10
61.021674525398
 20
872.5000002099783
 30
0.0
 11
58.77862929456079
 21
872.5000002099783
 31
0.0
  0
LINE
  5
212
330
6A
100
AcDbEntity
  8
0
  6
Continuous
 62
     7
100
AcDbLine
 10
57.76862529135761
 20
884.7979591811111
 30
0.0
 11
57.76862529135761
 21
860.3000002099783
 31
0.0
  0
LINE
  5
213
330
6A
100
AcDbEntity
  8
0
  6
Continuous
 62
     7
100
AcDbLine
 10
57.76862529135759
 20
846.3500002099784
 30
0.0
 11
57.76862529135758
 21
843.2000002099783
 31
0.0
  0
LINE
  5
214
330
6A
100
AcDbEntity
  8
0
  6
Continuous
 62
     7
100
AcDbLine
 10
56.26862529135758
 20
843.2000002099783
 30
0.0
 11
56.26862529135759
 21
846.3500002099784
 31
0.0
  0
LINE
  5
215
330
6A
100
AcDbEntity
  8
0
  6
Continuous
 62
     7
100
AcDbLine
 10
74.2686252913576
 20
883.0000002099783
 30
0.0
 11
74.2686252913576
 21
892.2409398595449
 31
0.0
  0
LINE
  5
216
330
6A
100
AcDbEntity
  8
0
  6
Continuous
 62
     7
100
AcDbLine
 10
68.2686252913576
 20
883.0000002099783
 30
0.0
 11
68.2686252913576
 21
892.2409398595449
 31
0.0
  0
LINE
  5
217
330
6A
100
AcDbEntity
  8
0
  6
Continuous
 62
     7
100
AcDbLine
 10
68.2686252913576
 20
883.0000002099783
 30
0.0
 11
74.2686252913576
 21
883.0000002099783
 31
0.0
  0
LINE
  5
218
330
6A
100
AcDbEntity
  8
0
  6
Continuous
 62
     7
100
AcDbLine
 10
64.0186252913576
 20
883.0000002099783
 30
0.0
 11
68.2686252913576
 21
883.0000002099783
 31
0.0
  0
LINE
  5
219
330
6A
100
AcDbEntity
  8
1
  6
DOT_CENTER
 62
     2
100
AcDbLine
 10
71.2686252913576
 20
883.0000002099783
 30
0.0
 11
71.2686252913576
 21
892.2409398595449
 31
0.0
  0
LINE
  5
21A
330
6A
100
AcDbEntity
  8
1
  6
DOT_CENTER
 62
     2
100
AcDbLine
 10
71.26862529135758
 20
893.6748496069614
 30
0.0
 11
71.26862529135761
 21
910.8000002099783
 31
0.0
  0
ARC
  5
21B
330
6A
100
AcDbEntity
  8
0
  6
Continuous
 62
     7
100
AcDbCircle
 10
71.26862529135761
 20
875.0000002099783
 30
0.0
 40
18.99999999999996
100
AcDbArc
 50
100.615107850708
 51
135.5846914028071
  0
ARC
  5
21C
330
6A
100
AcDbEntity
  8
0
  6
Continuous
 62
     7
100
AcDbCircle
 10
71.2686252913576
 20
866.7500002099783
 30
0.0
 40
13.75
100
AcDbArc
 50
24.71985118291058
 51
58.17863147489452
  0
ARC
  5
21D
330
6A
100
AcDbEntity
  8
0
  6
Continuous
 62
     7
100
AcDbCircle
 10
81.26862529135758
 20
884.797959181111
 30
0.0
 40
3.5
100
AcDbArc
 50
0.0
 51
44.41530859719273
  0
ARC
  5
21E
330
6A
100
AcDbEntity
  8
0
  6
Continuous
 62
     7
100
AcDbCircle
 10
71.26862529135761
 20
875.0000002099783
 30
0.0
 40
18.99999999999996
100
AcDbArc
 50
79.38489214929204
 51
100.615107850708
  0
ARC
  5
21F
330
6A
100
AcDbEntity
  8
0
  6
Continuous
 62
     7
100
AcDbCircle
 10
71.2686252913576
 20
866.7500002099783
 30
0.0
 40
13.74999999999998
100
AcDbArc
 50
121.8213685251054
 51
155.2801488170894
  0
ARC
  5
220
330
6A
100
AcDbEntity
  8
0
  6
Continuous
 62
     7
100
AcDbCircle
 10
61.26862529135761
 20
884.7979591811111
 30
0.0
 40
3.499999999999985
100
AcDbArc
 50
135.5846914028073
 51
180.0
  0
ARC
  5
221
330
6A
100
AcDbEntity
  8
0
  6
Continuous
 62
     7
100
AcDbCircle
 10
61.26862529135761
 20
884.7979591811111
 30
0.0
 40
4.999999999999944
100
AcDbArc
 50
135.5846914028077
 51
180.0
  0
ARC
  5
222
330
6A
100
AcDbEntity
  8
0
  6
Continuous
 62
     7
100
AcDbCircle
 10
71.26862529135761
 20
875.0000002099783
 30
0.0
 40
17.49999999999993
100
AcDbArc
 50
80.12911039386046
 51
99.87088960613964
  0
ARC
  5
223
330
6A
100
AcDbEntity
  8
0
  6
Continuous
 62
     7
100
AcDbCircle
 10
71.26862529135761
 20
875.0000002099783
 30
0.0
 40
17.49999999999994
100
AcDbArc
 50
99.87088960613964
 51
135.584691402807
  0
ARC
  5
224
330
6A
100
AcDbEntity
  8
0
  6
Continuous
 62
     7
100
AcDbCircle
 10
81.26862529135758
 20
884.797959181111
 30
0.0
 40
5.0
100
AcDbArc
 50
0.0
 51
44.41530859719305
  0
ARC
  5
225
330
6A
100
AcDbEntity
  8
0
  6
Continuous
 62
     7
100
AcDbCircle
 10
71.2686252913576
 20
866.7500002099783
 30
0.0
 40
11.74999999999993
100
AcDbArc
 50
29.29863673928021
 51
150.7013632607193
  0
ARC
  5
226
330
6A
100
AcDbEntity
  8
0
  6
Continuous
 62
     7
100
AcDbCircle
 10
71.26862529135761
 20
875.0000002099783
 30
0.0
 40
17.49999999999991
100
AcDbArc
 50
44.4153085971928
 51
80.12911039386046
  0
ARC
  5
227
330
6A
100
AcDbEntity
  8
0
  6
Continuous
 62
     7
100
AcDbCircle
 10
71.26862529135761
 20
875.0000002099783
 30
0.0
 40
18.99999999999996
100
AcDbArc
 50
44.41530859719288
 51
79.38489214929204
  0
ENDBLK
  5
6C
330
6A
100
AcDbEntity
  8
0
100
AcDbBlockEnd
  0
BLOCK
  5
6F
330
6D
100
AcDbEntity
  8
0
100
AcDbBlockBegin
  2
Vordans1
 70
     0
 10
71.26862527508001
 20
879.00000010499
 30
0.0
  3
Vordans1
  1

  0
INSERT
  5
6E
330
6D
100
AcDbEntity
  8
0
100
AcDbBlockReference
  2
3240255_WCC_26-select__6
 10
56.26862529135758
 20
843.2000002099783
 30
0.0
  0
MTEXT
  5
228
330
6D
100
AcDbEntity
  8
1
 62
     6
100
AcDbMText
 10
71.26862527508001
 20
838.1999981049901
 30
0.0
 40
5.0
 41
0.0
 71
     2
 72
     1
  1
 
  7
CONVERTER_11
 73
     1
 44
1.32052821128451
  0
DIMENSION
  5
233
330
6D
100
AcDbEntity
  8
1
100
AcDbDimension
  2
*D19
 10
86.26862529135758
 20
924.8000002099783
 30
0.0
 11
71.2686252913576
 21
928.5500002099783
 31
0.0
 70
    32
  1
<>
 71
     5
 42
-1.0
 53
0.00013888888889
  3
ME10_DIM_13
100
AcDbAlignedDimension
 13
56.26862529135761
 23
884.7979591811111
 33
0.0
 14
86.26862529135758
 24
884.797959181111
 34
0.0
100
AcDbRotatedDimension
  0
ENDBLK
  5
70
330
6D
100
AcDbEntity
  8
0
100
AcDbBlockEnd
  0
BLOCK
  5
72
330
71
100
AcDbEntity
  8
0
100
AcDbBlockBegin
  2
_rahmen
 70
     0
 10
311.9514689224397
 20
705.4912841497555
 30
0.0
  3
_rahmen
  1

  0
POINT
  5
234
330
71
100
AcDbEntity
  8
1
 62
     3
 60
     1
100
AcDbPoint
 10
248.4514689224421
 20
731.741284149755
 30
0.0
  0
LINE
  5
235
102
{ACAD_REACTORS
330
425
330
426
102
}
330
71
100
AcDbEntity
  8
0
  6
Continuous
 62
     2
100
AcDbLine
 10
196.8937957525207
 20
717.999787551122
 30
0.0
 11
196.8937957525207
 21
718.7208759864966
 31
0.0
  0
LINE
  5
236
102
{ACAD_REACTORS
330
425
330
426
102
}
330
71
100
AcDbEntity
  8
0
  6
Continuous
 62
     2
100
AcDbLine
 10
196.8937957525207
 20
717.2065902722106
 30
0.0
 11
196.8937957525207
 21
716.485501836836
 31
0.0
  0
LINE
  5
237
102
{ACAD_REACTORS
330
427
330
428
102
}
330
71
100
AcDbEntity
  8
0
  6
Continuous
 62
     2
100
AcDbLine
 10
209.5657330552401
 20
718.2161140817341
 30
0.0
 11
210.4778316499245
 21
718.2161140817341
 31
0.0
  0
LINE
  5
238
102
{ACAD_REACTORS
330
427
330
428
102
}
330
71
100
AcDbEntity
  8
0
  6
Continuous
 62
     2
100
AcDbLine
 10
210.2018135039685
 20
717.2065902722102
 30
0.0
 11
210.2018135039685
 21
716.4855018368355
 31
0.0
  0
LINE
  5
239
102
{ACAD_REACTORS
330
431
330
432
102
}
330
71
100
AcDbEntity
  8
0
  6
Continuous
 62
     2
100
AcDbLine
 10
208.6639981193571
 20
719.117474625938
 30
0.0
 11
209.8193312160019
 21
720.4239696621157
 31
0.0
  0
LINE
  5
23A
102
{ACAD_REACTORS
330
431
330
432
102
}
330
71
100
AcDbEntity
  8
0
  6
Continuous
 62
     2
100
AcDbLine
 10
208.7428604467726
 20
721.6412841497489
 30
0.0
 11
209.8193312160019
 21
720.4239696621157
 31
0.0
  0
LINE
  5
23B
102
{ACAD_REACTORS
330
431
330
432
102
}
330
71
100
AcDbEntity
  8
0
  6
Continuous
 62
     2
100
AcDbLine
 10
210.8958019852304
 20
721.6412841497489
 30
0.0
 11
212.0550781982446
 21
721.6412841497489
 31
0.0
  0
LINE
  5
23C
102
{ACAD_REACTORS
330
431
330
432
102
}
330
71
100
AcDbEntity
  8
0
  6
Continuous
 62
     2
100
AcDbLine
 10
209.8232743323721
 20
719.117474625938
 30
0.0
 11
210.398969322509
 21
719.7684926303131
 31
0.0
  0
LINE
  5
23D
102
{ACAD_REACTORS
330
431
330
432
102
}
330
71
100
AcDbEntity
  8
0
  6
Continuous
 62
     2
100
AcDbLine
 10
209.8232743323721
 20
719.117474625938
 30
0.0
 11
208.6639981193571
 21
719.117474625938
 31
0.0
  0
LINE
  5
23E
102
{ACAD_REACTORS
330
433
330
434
102
}
330
71
100
AcDbEntity
  8
0
  6
Continuous
 62
     2
100
AcDbLine
 10
208.5654202100869
 20
719.117474625938
 30
0.0
 11
207.5402099536795
 21
719.117474625938
 31
0.0
  0
LINE
  5
23F
102
{ACAD_REACTORS
330
435
330
436
102
}
330
71
100
AcDbEntity
  8
0
  6
Continuous
 62
     2
100
AcDbLine
 10
206.8228714345431
 20
717.3508079592852
 30
0.0
 11
206.5748009905843
 21
717.9853657824148
 31
0.0
  0
LINE
  5
240
102
{ACAD_REACTORS
330
435
330
436
102
}
330
71
100
AcDbEntity
  8
0
  6
Continuous
 62
     2
100
AcDbLine
 10
206.3267305466237
 20
717.3508079592852
 30
0.0
 11
206.8228714345431
 21
717.3508079592852
 31
0.0
  0
LINE
  5
241
102
{ACAD_REACTORS
330
435
330
436
102
}
330
71
100
AcDbEntity
  8
0
  6
Continuous
 62
     2
100
AcDbLine
 10
204.9068627657362
 20
716.3412841497609
 30
0.0
 11
205.9320730221436
 21
716.3412841497609
 31
0.0
  0
LINE
  5
242
102
{ACAD_REACTORS
330
435
330
436
102
}
330
71
100
AcDbEntity
  8
0
  6
Continuous
 62
     2
100
AcDbLine
 10
206.0621958623802
 20
718.8650936735718
 30
0.0
 11
207.0874061187875
 21
718.8650936735718
 31
0.0
  0
LINE
  5
243
102
{ACAD_REACTORS
330
435
330
436
102
}
330
71
100
AcDbEntity
  8
0
  6
Continuous
 62
     2
100
AcDbLine
 10
207.0874061187875
 20
718.8650936735718
 30
0.0
 11
208.2427392154324
 21
716.3412841497609
 31
0.0
  0
LINE
  5
244
102
{ACAD_REACTORS
330
435
330
436
102
}
330
71
100
AcDbEntity
  8
0
  6
Continuous
 62
     2
100
AcDbLine
 10
207.2175289590242
 20
716.3412841497609
 30
0.0
 11
207.0427520553252
 21
716.788358979693
 31
0.0
  0
LINE
  5
245
102
{ACAD_REACTORS
330
437
330
438
102
}
330
71
100
AcDbEntity
  8
0
  6
Continuous
 62
     2
100
AcDbLine
 10
203.7941246651514
 20
716.3412841497609
 30
0.0
 11
204.779903757851
 21
716.3412841497609
 31
0.0
  0
LINE
  5
246
102
{ACAD_REACTORS
330
437
330
438
102
}
330
71
100
AcDbEntity
  8
0
  6
Continuous
 62
     2
100
AcDbLine
 10
203.7941246651514
 20
718.2161140817341
 30
0.0
 11
203.7941246651514
 21
716.3412841497609
 31
0.0
  0
LINE
  5
247
102
{ACAD_REACTORS
330
437
330
438
102
}
330
71
100
AcDbEntity
  8
0
  6
Continuous
 62
     2
100
AcDbLine
 10
203.1237948821145
 20
718.8650936735718
 30
0.0
 11
203.1237948821145
 21
718.2161140817341
 31
0.0
  0
LINE
  5
248
102
{ACAD_REACTORS
330
439
330
43A
102
}
330
71
100
AcDbEntity
  8
0
  6
Continuous
 62
     2
100
AcDbLine
 10
204.3462856933316
 20
719.117474625938
 30
0.0
 11
205.3320647860312
 21
719.117474625938
 31
0.0
  0
LINE
  5
249
102
{ACAD_REACTORS
330
439
330
43A
102
}
330
71
100
AcDbEntity
  8
0
  6
Continuous
 62
     2
100
AcDbLine
 10
206.3572750424395
 20
720.5596514966868
 30
0.0
 11
205.3320647860312
 21
721.6412841497489
 31
0.0
  0
LINE
  5
24A
102
{ACAD_REACTORS
330
439
330
43A
102
}
330
71
100
AcDbEntity
  8
0
  6
Continuous
 62
     2
100
AcDbLine
 10
207.3430541351391
 20
721.6412841497489
 30
0.0
 11
206.3572750424395
 21
721.6412841497489
 31
0.0
  0
LINE
  5
24B
102
{ACAD_REACTORS
330
439
330
43A
102
}
330
71
100
AcDbEntity
  8
0
  6
Continuous
 62
     2
100
AcDbLine
 10
207.3430541351391
 20
719.117474625938
 30
0.0
 11
207.3430541351391
 21
721.6412841497489
 31
0.0
  0
LINE
  5
24C
102
{ACAD_REACTORS
330
439
330
43A
102
}
330
71
100
AcDbEntity
  8
0
  6
Continuous
 62
     2
100
AcDbLine
 10
206.3572750424395
 20
719.117474625938
 30
0.0
 11
207.3430541351391
 21
719.117474625938
 31
0.0
  0
LINE
  5
24D
102
{ACAD_REACTORS
330
439
330
43A
102
}
330
71
100
AcDbEntity
  8
0
  6
Continuous
 62
     2
100
AcDbLine
 10
205.3320647860312
 20
720.1991072789997
 30
0.0
 11
206.3572750424395
 21
719.117474625938
 31
0.0
  0
LINE
  5
24E
102
{ACAD_REACTORS
330
43B
330
43C
102
}
330
71
100
AcDbEntity
  8
0
  6
Continuous
 62
     2
100
AcDbLine
 10
202.0197222982909
 20
717.7834610205097
 30
0.0
 11
200.9945120418836
 21
718.8650936735718
 31
0.0
  0
LINE
  5
24F
102
{ACAD_REACTORS
330
43B
330
43C
102
}
330
71
100
AcDbEntity
  8
0
  6
Continuous
 62
     2
100
AcDbLine
 10
202.0197222982909
 20
718.8650936735718
 30
0.0
 11
202.0197222982909
 21
717.7834610205097
 31
0.0
  0
LINE
  5
250
102
{ACAD_REACTORS
330
43B
330
43C
102
}
330
71
100
AcDbEntity
  8
0
  6
Continuous
 62
     2
100
AcDbLine
 10
203.0055013909905
 20
718.8650936735718
 30
0.0
 11
202.0197222982909
 21
718.8650936735718
 31
0.0
  0
LINE
  5
251
102
{ACAD_REACTORS
330
43B
330
43C
102
}
330
71
100
AcDbEntity
  8
0
  6
Continuous
 62
     2
100
AcDbLine
 10
203.0055013909905
 20
716.3412841497609
 30
0.0
 11
203.0055013909905
 21
718.8650936735718
 31
0.0
  0
LINE
  5
252
102
{ACAD_REACTORS
330
43B
330
43C
102
}
330
71
100
AcDbEntity
  8
0
  6
Continuous
 62
     2
100
AcDbLine
 10
200.9945120418836
 20
717.4229168028226
 30
0.0
 11
202.0197222982909
 21
716.3412841497609
 31
0.0
  0
LINE
  5
253
102
{ACAD_REACTORS
330
43B
330
43C
102
}
330
71
100
AcDbEntity
  8
0
  6
Continuous
 62
     2
100
AcDbLine
 10
200.9945120418836
 20
716.3412841497609
 30
0.0
 11
200.9945120418836
 21
717.4229168028226
 31
0.0
  0
LINE
  5
254
102
{ACAD_REACTORS
330
42B
330
42C
102
}
330
71
100
AcDbEntity
  8
0
  6
Continuous
 62
     2
100
AcDbLine
 10
203.0450572909675
 20
721.064413401449
 30
0.0
 11
204.149129874792
 21
721.064413401449
 31
0.0
  0
LINE
  5
255
102
{ACAD_REACTORS
330
42B
330
42C
102
}
330
71
100
AcDbEntity
  8
0
  6
Continuous
 62
     2
100
AcDbLine
 10
203.0450572909675
 20
719.6943453742375
 30
0.0
 11
203.0450572909675
 21
720.0909440136935
 31
0.0
  0
LINE
  5
256
102
{ACAD_REACTORS
330
42B
330
42C
102
}
330
71
100
AcDbEntity
  8
0
  6
Continuous
 62
     2
100
AcDbLine
 10
204.149129874792
 20
719.6943453742375
 30
0.0
 11
203.0450572909675
 21
719.6943453742375
 31
0.0
  0
LINE
  5
257
102
{ACAD_REACTORS
330
42B
330
42C
102
}
330
71
100
AcDbEntity
  8
0
  6
Continuous
 62
     2
100
AcDbLine
 10
204.149129874792
 20
719.117474625938
 30
0.0
 11
204.149129874792
 21
719.6943453742375
 31
0.0
  0
LINE
  5
258
102
{ACAD_REACTORS
330
42B
330
42C
102
}
330
71
100
AcDbEntity
  8
0
  6
Continuous
 62
     2
100
AcDbLine
 10
201.5455598551383
 20
719.117474625938
 30
0.0
 11
204.149129874792
 21
719.117474625938
 31
0.0
  0
LINE
  5
259
102
{ACAD_REACTORS
330
42B
330
42C
102
}
330
71
100
AcDbEntity
  8
0
  6
Continuous
 62
     2
100
AcDbLine
 10
201.5455598551383
 20
721.6412841497489
 30
0.0
 11
204.149129874792
 21
721.6412841497489
 31
0.0
  0
LINE
  5
25A
102
{ACAD_REACTORS
330
42B
330
42C
102
}
330
71
100
AcDbEntity
  8
0
  6
Continuous
 62
     2
100
AcDbLine
 10
204.149129874792
 20
721.064413401449
 30
0.0
 11
204.149129874792
 21
721.6412841497489
 31
0.0
  0
LINE
  5
25B
102
{ACAD_REACTORS
330
43D
330
43E
102
}
330
71
100
AcDbEntity
  8
0
  6
Continuous
 62
     2
100
AcDbLine
 10
199.1808032475845
 20
720.7579508164146
 30
0.0
 11
199.1808032475845
 21
721.6412841497489
 31
0.0
  0
LINE
  5
25C
102
{ACAD_REACTORS
330
43D
330
43E
102
}
330
71
100
AcDbEntity
  8
0
  6
Continuous
 62
     2
100
AcDbLine
 10
199.1808032475845
 20
721.6412841497489
 30
0.0
 11
200.1665823402841
 21
721.6412841497489
 31
0.0
  0
LINE
  5
25D
102
{ACAD_REACTORS
330
43D
330
43E
102
}
330
71
100
AcDbEntity
  8
0
  6
Continuous
 62
     2
100
AcDbLine
 10
199.1808032475845
 20
720.0548895919246
 30
0.0
 11
198.3133176460081
 21
720.0548895919246
 31
0.0
  0
LINE
  5
25E
102
{ACAD_REACTORS
330
43D
330
43E
102
}
330
71
100
AcDbEntity
  8
0
  6
Continuous
 62
     2
100
AcDbLine
 10
198.3133176460081
 20
720.0548895919246
 30
0.0
 11
198.3133176460081
 21
719.117474625938
 31
0.0
  0
LINE
  5
25F
102
{ACAD_REACTORS
330
43D
330
43E
102
}
330
71
100
AcDbEntity
  8
0
  6
Continuous
 62
     2
100
AcDbLine
 10
197.3275385533085
 20
721.6412841497489
 30
0.0
 11
197.3275385533085
 21
719.117474625938
 31
0.0
  0
LINE
  5
260
102
{ACAD_REACTORS
330
42F
330
430
102
}
330
71
100
AcDbEntity
  8
0
  6
Continuous
 62
     2
100
AcDbLine
 10
195.7108608412807
 20
720.5100167986891
 30
0.0
 11
195.7108608412807
 21
721.0932627898811
 31
0.0
  0
LINE
  5
261
102
{ACAD_REACTORS
330
42F
330
430
102
}
330
71
100
AcDbEntity
  8
0
  6
Continuous
 62
     2
100
AcDbLine
 10
194.6856505848724
 20
719.117474625938
 30
0.0
 11
195.7108608412807
 21
719.117474625938
 31
0.0
  0
LINE
  5
262
102
{ACAD_REACTORS
330
42F
330
430
102
}
330
71
100
AcDbEntity
  8
0
  6
Continuous
 62
     2
100
AcDbLine
 10
195.7108608412807
 20
719.117474625938
 30
0.0
 11
195.7108608412807
 21
719.8968781310156
 31
0.0
  0
LINE
  5
263
102
{ACAD_REACTORS
330
429
330
42A
102
}
330
71
100
AcDbEntity
  8
0
  6
Continuous
 62
     2
100
AcDbLine
 10
191.1278440979207
 20
716.930173038651
 30
0.0
 11
189.9081471879955
 21
716.930173038651
 31
0.0
  0
LINE
  5
264
102
{ACAD_REACTORS
330
429
330
42A
102
}
330
71
100
AcDbEntity
  8
0
  6
Continuous
 62
     2
100
AcDbLine
 10
189.0667097564836
 20
721.2906687651192
 30
0.0
 11
189.0667097564836
 21
716.6918995343752
 31
0.0
  0
LINE
  5
265
102
{ACAD_REACTORS
330
429
330
42A
102
}
330
71
100
AcDbEntity
  8
0
  6
Continuous
 62
     2
100
AcDbLine
 10
189.4173251410975
 20
721.6412841497339
 30
0.0
 11
193.9407235631776
 21
721.6412841497339
 31
0.0
  0
LINE
  5
266
102
{ACAD_REACTORS
330
429
330
42A
102
}
330
71
100
AcDbEntity
  8
0
  6
Continuous
 62
     2
100
AcDbLine
 10
194.2913389477924
 20
721.2906687651192
 30
0.0
 11
194.2913389477924
 21
716.6918995343752
 31
0.0
  0
LINE
  5
267
102
{ACAD_REACTORS
330
429
330
42A
102
}
330
71
100
AcDbEntity
  8
0
  6
Continuous
 62
     2
100
AcDbLine
 10
193.9407235631776
 20
716.3412841497609
 30
0.0
 11
189.4173251410975
 21
716.3412841497609
 31
0.0
  0
LINE
  5
268
102
{ACAD_REACTORS
330
429
330
42A
102
}
330
71
100
AcDbEntity
  8
0
  6
Continuous
 62
     2
100
AcDbLine
 10
191.3887671748435
 20
717.1910961155738
 30
0.0
 11
191.3887671748435
 21
718.4561960589884
 31
0.0
  0
LINE
  5
269
102
{ACAD_REACTORS
330
429
330
42A
102
}
330
71
100
AcDbEntity
  8
0
  6
Continuous
 62
     2
100
AcDbLine
 10
191.3887671748435
 20
720.292278283885
 30
0.0
 11
191.3887671748435
 21
720.7914721839351
 31
0.0
  0
LINE
  5
26A
102
{ACAD_REACTORS
330
429
330
42A
102
}
330
71
100
AcDbEntity
  8
0
  6
Continuous
 62
     2
100
AcDbLine
 10
189.9081471879955
 20
721.0523952608576
 30
0.0
 11
191.1278440979207
 21
721.0523952608576
 31
0.0
  0
LINE
  5
26B
102
{ACAD_REACTORS
330
429
330
42A
102
}
330
71
100
AcDbEntity
  8
0
  6
Continuous
 62
     2
100
AcDbLine
 10
189.6472241110734
 20
720.7914721839351
 30
0.0
 11
189.6472241110734
 21
717.1910961155738
 31
0.0
  0
LINE
  5
26C
102
{ACAD_REACTORS
330
42F
330
430
102
}
330
71
100
AcDbEntity
  8
0
  6
Continuous
 62
     2
100
AcDbLine
 10
195.7108608412807
 20
719.8968781310156
 30
0.0
 11
196.3379414923388
 21
719.8968781310156
 31
0.0
  0
LINE
  5
26D
102
{ACAD_REACTORS
330
42F
330
430
102
}
330
71
100
AcDbEntity
  8
0
  6
Continuous
 62
     2
100
AcDbLine
 10
194.6856505848724
 20
721.6412841497489
 30
0.0
 11
196.3379414923388
 21
721.6412841497489
 31
0.0
  0
LINE
  5
26E
102
{ACAD_REACTORS
330
42F
330
430
102
}
330
71
100
AcDbEntity
  8
0
  6
Continuous
 62
     2
100
AcDbLine
 10
194.6856505848724
 20
721.6412841497489
 30
0.0
 11
194.6856505848724
 21
719.117474625938
 31
0.0
  0
LINE
  5
26F
102
{ACAD_REACTORS
330
42F
330
430
102
}
330
71
100
AcDbEntity
  8
0
  6
Continuous
 62
     2
100
AcDbLine
 10
195.7108608412807
 20
720.5100167986891
 30
0.0
 11
195.973088164869
 21
720.5100167986891
 31
0.0
  0
LINE
  5
270
102
{ACAD_REACTORS
330
42F
330
430
102
}
330
71
100
AcDbEntity
  8
0
  6
Continuous
 62
     2
100
AcDbLine
 10
195.7108608412807
 20
721.0932627898811
 30
0.0
 11
195.973088164869
 21
721.0932627898811
 31
0.0
  0
LINE
  5
271
102
{ACAD_REACTORS
330
43D
330
43E
102
}
330
71
100
AcDbEntity
  8
0
  6
Continuous
 62
     2
100
AcDbLine
 10
198.3133176460081
 20
720.7579508164146
 30
0.0
 11
199.1808032475845
 21
720.7579508164146
 31
0.0
  0
LINE
  5
272
102
{ACAD_REACTORS
330
43D
330
43E
102
}
330
71
100
AcDbEntity
  8
0
  6
Continuous
 62
     2
100
AcDbLine
 10
198.3133176460081
 20
721.6412841497489
 30
0.0
 11
198.3133176460081
 21
720.7579508164146
 31
0.0
  0
LINE
  5
273
102
{ACAD_REACTORS
330
43D
330
43E
102
}
330
71
100
AcDbEntity
  8
0
  6
Continuous
 62
     2
100
AcDbLine
 10
197.3275385533085
 20
721.6412841497489
 30
0.0
 11
198.3133176460081
 21
721.6412841497489
 31
0.0
  0
LINE
  5
274
102
{ACAD_REACTORS
330
43D
330
43E
102
}
330
71
100
AcDbEntity
  8
0
  6
Continuous
 62
     2
100
AcDbLine
 10
198.3133176460081
 20
719.117474625938
 30
0.0
 11
197.3275385533085
 21
719.117474625938
 31
0.0
  0
LINE
  5
275
102
{ACAD_REACTORS
330
43D
330
43E
102
}
330
71
100
AcDbEntity
  8
0
  6
Continuous
 62
     2
100
AcDbLine
 10
199.1808032475845
 20
719.117474625938
 30
0.0
 11
199.1808032475845
 21
720.0548895919246
 31
0.0
  0
LINE
  5
276
102
{ACAD_REACTORS
330
43D
330
43E
102
}
330
71
100
AcDbEntity
  8
0
  6
Continuous
 62
     2
100
AcDbLine
 10
200.1665823402841
 20
719.117474625938
 30
0.0
 11
199.1808032475845
 21
719.117474625938
 31
0.0
  0
LINE
  5
277
102
{ACAD_REACTORS
330
43D
330
43E
102
}
330
71
100
AcDbEntity
  8
0
  6
Continuous
 62
     2
100
AcDbLine
 10
200.1665823402841
 20
721.6412841497489
 30
0.0
 11
200.1665823402841
 21
719.117474625938
 31
0.0
  0
LINE
  5
278
102
{ACAD_REACTORS
330
42B
330
42C
102
}
330
71
100
AcDbEntity
  8
0
  6
Continuous
 62
     2
100
AcDbLine
 10
203.0450572909675
 20
720.0909440136935
 30
0.0
 11
204.149129874792
 21
720.0909440136935
 31
0.0
  0
LINE
  5
279
102
{ACAD_REACTORS
330
42B
330
42C
102
}
330
71
100
AcDbEntity
  8
0
  6
Continuous
 62
     2
100
AcDbLine
 10
204.149129874792
 20
720.0909440136935
 30
0.0
 11
204.149129874792
 21
720.667814761993
 31
0.0
  0
LINE
  5
27A
102
{ACAD_REACTORS
330
42B
330
42C
102
}
330
71
100
AcDbEntity
  8
0
  6
Continuous
 62
     2
100
AcDbLine
 10
204.149129874792
 20
720.667814761993
 30
0.0
 11
203.0450572909675
 21
720.667814761993
 31
0.0
  0
LINE
  5
27B
102
{ACAD_REACTORS
330
42B
330
42C
102
}
330
71
100
AcDbEntity
  8
0
  6
Continuous
 62
     2
100
AcDbLine
 10
203.0450572909675
 20
720.667814761993
 30
0.0
 11
203.0450572909675
 21
721.064413401449
 31
0.0
  0
LINE
  5
27C
102
{ACAD_REACTORS
330
43B
330
43C
102
}
330
71
100
AcDbEntity
  8
0
  6
Continuous
 62
     2
100
AcDbLine
 10
200.0087329491831
 20
716.3412841497609
 30
0.0
 11
200.9945120418836
 21
716.3412841497609
 31
0.0
  0
LINE
  5
27D
102
{ACAD_REACTORS
330
43B
330
43C
102
}
330
71
100
AcDbEntity
  8
0
  6
Continuous
 62
     2
100
AcDbLine
 10
202.0197222982909
 20
716.3412841497609
 30
0.0
 11
203.0055013909905
 21
716.3412841497609
 31
0.0
  0
LINE
  5
27E
102
{ACAD_REACTORS
330
43B
330
43C
102
}
330
71
100
AcDbEntity
  8
0
  6
Continuous
 62
     2
100
AcDbLine
 10
200.9945120418836
 20
718.8650936735718
 30
0.0
 11
200.0087329491831
 21
718.8650936735718
 31
0.0
  0
LINE
  5
27F
102
{ACAD_REACTORS
330
43B
330
43C
102
}
330
71
100
AcDbEntity
  8
0
  6
Continuous
 62
     2
100
AcDbLine
 10
200.0087329491831
 20
718.8650936735718
 30
0.0
 11
200.0087329491831
 21
716.3412841497609
 31
0.0
  0
LINE
  5
280
102
{ACAD_REACTORS
330
439
330
43A
102
}
330
71
100
AcDbEntity
  8
0
  6
Continuous
 62
     2
100
AcDbLine
 10
206.3572750424395
 20
721.6412841497489
 30
0.0
 11
206.3572750424395
 21
720.5596514966868
 31
0.0
  0
LINE
  5
281
102
{ACAD_REACTORS
330
439
330
43A
102
}
330
71
100
AcDbEntity
  8
0
  6
Continuous
 62
     2
100
AcDbLine
 10
205.3320647860312
 20
721.6412841497489
 30
0.0
 11
204.3462856933316
 21
721.6412841497489
 31
0.0
  0
LINE
  5
282
102
{ACAD_REACTORS
330
439
330
43A
102
}
330
71
100
AcDbEntity
  8
0
  6
Continuous
 62
     2
100
AcDbLine
 10
204.3462856933316
 20
721.6412841497489
 30
0.0
 11
204.3462856933316
 21
719.117474625938
 31
0.0
  0
LINE
  5
283
102
{ACAD_REACTORS
330
439
330
43A
102
}
330
71
100
AcDbEntity
  8
0
  6
Continuous
 62
     2
100
AcDbLine
 10
205.3320647860312
 20
719.117474625938
 30
0.0
 11
205.3320647860312
 21
720.1991072789997
 31
0.0
  0
LINE
  5
284
102
{ACAD_REACTORS
330
437
330
438
102
}
330
71
100
AcDbEntity
  8
0
  6
Continuous
 62
     2
100
AcDbLine
 10
204.779903757851
 20
716.3412841497609
 30
0.0
 11
204.779903757851
 21
718.2161140817341
 31
0.0
  0
LINE
  5
285
102
{ACAD_REACTORS
330
437
330
438
102
}
330
71
100
AcDbEntity
  8
0
  6
Continuous
 62
     2
100
AcDbLine
 10
204.779903757851
 20
718.2161140817341
 30
0.0
 11
205.4502335408862
 21
718.2161140817341
 31
0.0
  0
LINE
  5
286
102
{ACAD_REACTORS
330
437
330
438
102
}
330
71
100
AcDbEntity
  8
0
  6
Continuous
 62
     2
100
AcDbLine
 10
205.4502335408862
 20
718.2161140817341
 30
0.0
 11
205.4502335408862
 21
718.8650936735718
 31
0.0
  0
LINE
  5
287
102
{ACAD_REACTORS
330
437
330
438
102
}
330
71
100
AcDbEntity
  8
0
  6
Continuous
 62
     2
100
AcDbLine
 10
205.4502335408862
 20
718.8650936735718
 30
0.0
 11
203.1237948821145
 21
718.8650936735718
 31
0.0
  0
LINE
  5
288
102
{ACAD_REACTORS
330
437
330
438
102
}
330
71
100
AcDbEntity
  8
0
  6
Continuous
 62
     2
100
AcDbLine
 10
203.1237948821145
 20
718.2161140817341
 30
0.0
 11
203.7941246651514
 21
718.2161140817341
 31
0.0
  0
LINE
  5
289
102
{ACAD_REACTORS
330
435
330
436
102
}
330
71
100
AcDbEntity
  8
0
  6
Continuous
 62
     2
100
AcDbLine
 10
206.1068499258426
 20
716.788358979693
 30
0.0
 11
207.0427520553252
 21
716.788358979693
 31
0.0
  0
LINE
  5
28A
102
{ACAD_REACTORS
330
435
330
436
102
}
330
71
100
AcDbEntity
  8
0
  6
Continuous
 62
     2
100
AcDbLine
 10
208.2427392154324
 20
716.3412841497609
 30
0.0
 11
207.2175289590242
 21
716.3412841497609
 31
0.0
  0
LINE
  5
28B
102
{ACAD_REACTORS
330
435
330
436
102
}
330
71
100
AcDbEntity
  8
0
  6
Continuous
 62
     2
100
AcDbLine
 10
206.0621958623802
 20
718.8650936735718
 30
0.0
 11
204.9068627657362
 21
716.3412841497609
 31
0.0
  0
LINE
  5
28C
102
{ACAD_REACTORS
330
435
330
436
102
}
330
71
100
AcDbEntity
  8
0
  6
Continuous
 62
     2
100
AcDbLine
 10
205.9320730221436
 20
716.3412841497609
 30
0.0
 11
206.1068499258426
 21
716.788358979693
 31
0.0
  0
LINE
  5
28D
102
{ACAD_REACTORS
330
435
330
436
102
}
330
71
100
AcDbEntity
  8
0
  6
Continuous
 62
     2
100
AcDbLine
 10
206.3267305466237
 20
717.3508079592852
 30
0.0
 11
206.5748009905843
 21
717.9853657824148
 31
0.0
  0
LINE
  5
28E
102
{ACAD_REACTORS
330
433
330
434
102
}
330
71
100
AcDbEntity
  8
0
  6
Continuous
 62
     2
100
AcDbLine
 10
207.5402099536795
 20
719.117474625938
 30
0.0
 11
207.5402099536795
 21
721.6412841497489
 31
0.0
  0
LINE
  5
28F
102
{ACAD_REACTORS
330
433
330
434
102
}
330
71
100
AcDbEntity
  8
0
  6
Continuous
 62
     2
100
AcDbLine
 10
208.5654202100869
 20
721.6412841497489
 30
0.0
 11
208.5654202100869
 21
719.117474625938
 31
0.0
  0
LINE
  5
290
102
{ACAD_REACTORS
330
433
330
434
102
}
330
71
100
AcDbEntity
  8
0
  6
Continuous
 62
     2
100
AcDbLine
 10
207.5402099536795
 20
721.6412841497489
 30
0.0
 11
208.5654202100869
 21
721.6412841497489
 31
0.0
  0
LINE
  5
291
102
{ACAD_REACTORS
330
431
330
432
102
}
330
71
100
AcDbEntity
  8
0
  6
Continuous
 62
     2
100
AcDbLine
 10
210.398969322509
 20
719.7684926303131
 30
0.0
 11
210.9746643126458
 21
719.117474625938
 31
0.0
  0
LINE
  5
292
102
{ACAD_REACTORS
330
431
330
432
102
}
330
71
100
AcDbEntity
  8
0
  6
Continuous
 62
     2
100
AcDbLine
 10
210.9746643126458
 20
719.117474625938
 30
0.0
 11
212.1339405256609
 21
719.117474625938
 31
0.0
  0
LINE
  5
293
102
{ACAD_REACTORS
330
431
330
432
102
}
330
71
100
AcDbEntity
  8
0
  6
Continuous
 62
     2
100
AcDbLine
 10
210.978607429016
 20
720.4239696621157
 30
0.0
 11
212.1339405256609
 21
719.117474625938
 31
0.0
  0
LINE
  5
294
102
{ACAD_REACTORS
330
431
330
432
102
}
330
71
100
AcDbEntity
  8
0
  6
Continuous
 62
     2
100
AcDbLine
 10
210.978607429016
 20
720.4239696621157
 30
0.0
 11
212.0550781982446
 21
721.6412841497489
 31
0.0
  0
LINE
  5
295
102
{ACAD_REACTORS
330
431
330
432
102
}
330
71
100
AcDbEntity
  8
0
  6
Continuous
 62
     2
100
AcDbLine
 10
210.398969322509
 20
721.0794466939179
 30
0.0
 11
210.8958019852304
 21
721.6412841497489
 31
0.0
  0
LINE
  5
296
102
{ACAD_REACTORS
330
431
330
432
102
}
330
71
100
AcDbEntity
  8
0
  6
Continuous
 62
     2
100
AcDbLine
 10
209.9021366597885
 20
721.6412841497489
 30
0.0
 11
210.398969322509
 21
721.0794466939179
 31
0.0
  0
LINE
  5
297
102
{ACAD_REACTORS
330
431
330
432
102
}
330
71
100
AcDbEntity
  8
0
  6
Continuous
 62
     2
100
AcDbLine
 10
209.9021366597885
 20
721.6412841497489
 30
0.0
 11
208.7428604467726
 21
721.6412841497489
 31
0.0
  0
LINE
  5
298
102
{ACAD_REACTORS
330
427
330
428
102
}
330
71
100
AcDbEntity
  8
0
  6
Continuous
 62
     2
100
AcDbLine
 10
210.4778316499245
 20
716.3412841497609
 30
0.0
 11
211.463610742625
 21
716.3412841497609
 31
0.0
  0
LINE
  5
299
102
{ACAD_REACTORS
330
427
330
428
102
}
330
71
100
AcDbEntity
  8
0
  6
Continuous
 62
     2
100
AcDbLine
 10
211.463610742625
 20
716.3412841497609
 30
0.0
 11
211.463610742625
 21
718.2161140817341
 31
0.0
  0
LINE
  5
29A
102
{ACAD_REACTORS
330
427
330
428
102
}
330
71
100
AcDbEntity
  8
0
  6
Continuous
 62
     2
100
AcDbLine
 10
211.463610742625
 20
718.2161140817341
 30
0.0
 11
212.1339405256609
 21
718.2161140817341
 31
0.0
  0
LINE
  5
29B
102
{ACAD_REACTORS
330
427
330
428
102
}
330
71
100
AcDbEntity
  8
0
  6
Continuous
 62
     2
100
AcDbLine
 10
212.1339405256609
 20
718.2161140817341
 30
0.0
 11
212.1339405256609
 21
718.8650936735718
 31
0.0
  0
LINE
  5
29C
102
{ACAD_REACTORS
330
427
330
428
102
}
330
71
100
AcDbEntity
  8
0
  6
Continuous
 62
     2
100
AcDbLine
 10
209.3364648904306
 20
718.8650936735713
 30
0.0
 11
212.1339405256609
 21
718.8650936735718
 31
0.0
  0
LINE
  5
29D
102
{ACAD_REACTORS
330
427
330
428
102
}
330
71
100
AcDbEntity
  8
0
  6
Continuous
 62
     2
100
AcDbLine
 10
210.4778316499245
 20
718.2161140817341
 30
0.0
 11
210.4778316499245
 21
716.3412841497609
 31
0.0
  0
LINE
  5
29E
102
{ACAD_REACTORS
330
429
330
42A
102
}
330
71
100
AcDbEntity
  8
0
  6
Continuous
 62
     2
100
AcDbLine
 10
191.7757767445698
 20
717.9767222898969
 30
0.0
 11
191.7757767445698
 21
718.4575912210498
 31
0.0
  0
LINE
  5
29F
102
{ACAD_REACTORS
330
429
330
42A
102
}
330
71
100
AcDbEntity
  8
0
  6
Continuous
 62
     2
100
AcDbLine
 10
191.7757767445698
 20
720.2908831218235
 30
0.0
 11
191.7757767445698
 21
720.7913255090192
 31
0.0
  0
LINE
  5
2A0
330
71
100
AcDbEntity
  8
1
  6
Continuous
 62
     6
100
AcDbLine
 10
59.95146892243989
 20
710.4912841497551
 30
0.0
 11
66.15146892243789
 21
710.491284149755
 31
0.0
  0
LINE
  5
2A1
330
71
100
AcDbEntity
  8
1
  6
Continuous
 62
     6
100
AcDbLine
 10
66.15146892243789
 20
710.491284149755
 30
0.0
 11
79.65146892243789
 21
710.4912841497551
 31
0.0
  0
LINE
  5
2A2
330
71
100
AcDbEntity
  8
1
  6
Continuous
 62
     6
100
AcDbLine
 10
79.65146892243789
 20
710.4912841497551
 30
0.0
 11
106.9514689224398
 21
710.4912841497555
 31
0.0
  0
LINE
  5
2A3
330
71
100
AcDbEntity
  8
1
  6
Continuous
 62
     6
100
AcDbLine
 10
106.9514689224398
 20
710.4912841497555
 30
0.0
 11
141.9066643956881
 21
710.491284149755
 31
0.0
  0
LINE
  5
2A4
330
71
100
AcDbEntity
  8
1
  6
Continuous
 62
     6
100
AcDbLine
 10
168.906664395688
 20
710.491284149755
 30
0.0
 11
175.2848022557732
 21
710.4912841497555
 31
0.0
  0
LINE
  5
2A5
330
71
100
AcDbEntity
  8
1
  6
Continuous
 62
     6
100
AcDbLine
 10
155.4066643956881
 20
710.491284149755
 30
0.0
 11
168.906664395688
 21
710.491284149755
 31
0.0
  0
LINE
  5
2A6
330
71
100
AcDbEntity
  8
1
  6
Continuous
 62
     6
100
AcDbLine
 10
141.9066643956881
 20
710.491284149755
 30
0.0
 11
155.4066643956881
 21
710.491284149755
 31
0.0
  0
LINE
  5
2A7
330
71
100
AcDbEntity
  8
1
  6
Continuous
 62
     6
100
AcDbLine
 10
175.2848022557732
 20
710.4912841497555
 30
0.0
 11
182.4066643956881
 21
710.491284149755
 31
0.0
  0
LINE
  5
2A8
330
71
100
AcDbEntity
  8
1
  6
Continuous
 62
     6
100
AcDbLine
 10
182.4066643956881
 20
710.491284149755
 30
0.0
 11
200.606664395688
 21
710.4912841497551
 31
0.0
  0
LINE
  5
2A9
330
71
100
AcDbEntity
  8
1
  6
Continuous
 62
     6
100
AcDbLine
 10
200.606664395688
 20
710.4912841497551
 30
0.0
 11
218.806664395688
 21
710.491284149755
 31
0.0
  0
LINE
  5
2AA
330
71
100
AcDbEntity
  8
1
  6
Continuous
 62
     6
100
AcDbLine
 10
218.806664395688
 20
710.491284149755
 30
0.0
 11
243.6181355891064
 21
710.4912841497555
 31
0.0
  0
LINE
  5
2AB
330
71
100
AcDbEntity
  8
1
  6
Continuous
 62
     6
100
AcDbLine
 10
243.6181355891064
 20
710.4912841497555
 30
0.0
 11
311.9514689224397
 21
710.4912841497551
 31
0.0
  0
LINE
  5
2AC
330
71
100
AcDbEntity
  8
1
  6
Continuous
 62
     6
100
AcDbLine
 10
311.9514689224393
 20
718.991284149755
 30
0.0
 11
311.9514689224397
 21
727.491284149755
 31
0.0
  0
LINE
  5
2AD
330
71
100
AcDbEntity
  8
1
  6
Continuous
 62
     6
100
AcDbLine
 10
311.9514689224397
 20
727.491284149755
 30
0.0
 11
311.9514689224388
 21
731.741284149755
 31
0.0
  0
LINE
  5
2AE
330
71
100
AcDbEntity
  8
1
  6
Continuous
 62
     6
100
AcDbLine
 10
311.9514689224388
 20
731.741284149755
 30
0.0
 11
311.9514689224397
 21
740.241284149755
 31
0.0
  0
LINE
  5
2AF
330
71
100
AcDbEntity
  8
1
  6
Continuous
 62
     6
100
AcDbLine
 10
311.9514689224397
 20
740.241284149755
 30
0.0
 11
311.9514689224397
 21
767.8912841497556
 31
0.0
  0
LINE
  5
2B0
330
71
100
AcDbEntity
  8
1
  6
PHANTOM
 62
     2
100
AcDbLine
 10
190.5259276104884
 20
725.366284149755
 30
0.0
 11
194.8415225796774
 21
725.366284149755
 31
0.0
  0
LINE
  5
2B1
330
71
100
AcDbEntity
  8
1
  6
PHANTOM
 62
     2
100
AcDbLine
 10
187.4989242207914
 20
727.016284149755
 30
0.0
 11
187.4989242207914
 21
723.716284149755
 31
0.0
  0
LINE
  5
2B2
330
71
100
AcDbEntity
  8
1
  6
PHANTOM
 62
     2
100
AcDbLine
 10
189.1489242207914
 20
725.366284149755
 30
0.0
 11
185.8489242207914
 21
725.366284149755
 31
0.0
  0
LINE
  5
2B3
330
71
100
AcDbEntity
  8
1
  6
Continuous
 62
     7
100
AcDbLine
 10
218.806664395688
 20
723.241284149755
 30
0.0
 11
218.806664395688
 21
727.491284149755
 31
0.0
  0
LINE
  5
2B4
330
71
100
AcDbEntity
  8
1
  6
Continuous
 62
     7
100
AcDbLine
 10
182.4066643956881
 20
723.241284149755
 30
0.0
 11
218.806664395688
 21
723.241284149755
 31
0.0
  0
LINE
  5
2B5
330
71
100
AcDbEntity
  8
1
  6
Continuous
 62
     7
100
AcDbLine
 10
79.65146892243789
 20
714.7412841497551
 30
0.0
 11
141.9066643956881
 21
714.7412841497551
 31
0.0
  0
LINE
  5
2B6
330
71
100
AcDbEntity
  8
1
  6
Continuous
 62
     2
100
AcDbLine
 10
79.65146892243789
 20
714.7412841497551
 30
0.0
 11
79.65146892243789
 21
710.4912841497551
 31
0.0
  0
LINE
  5
2B7
330
71
100
AcDbEntity
  8
1
  6
Continuous
 62
     2
100
AcDbLine
 10
79.65146892243789
 20
718.991284149755
 30
0.0
 11
66.15146892243789
 21
718.991284149755
 31
0.0
  0
LINE
  5
2B8
330
71
100
AcDbEntity
  8
1
  6
Continuous
 62
     2
100
AcDbLine
 10
79.65146892243789
 20
718.991284149755
 30
0.0
 11
79.65146892243789
 21
714.7412841497551
 31
0.0
  0
LINE
  5
2B9
330
71
100
AcDbEntity
  8
1
  6
Continuous
 62
     2
100
AcDbLine
 10
79.65146892243789
 20
727.491284149755
 30
0.0
 11
66.15146892243789
 21
727.491284149755
 31
0.0
  0
LINE
  5
2BA
330
71
100
AcDbEntity
  8
1
  6
Continuous
 62
     2
100
AcDbLine
 10
79.65146892243789
 20
727.491284149755
 30
0.0
 11
79.65146892243789
 21
723.241284149755
 31
0.0
  0
LINE
  5
2BB
330
71
100
AcDbEntity
  8
1
  6
Continuous
 62
     2
100
AcDbLine
 10
79.65146892243789
 20
723.241284149755
 30
0.0
 11
66.15146892243789
 21
723.241284149755
 31
0.0
  0
LINE
  5
2BC
330
71
100
AcDbEntity
  8
1
  6
Continuous
 62
     2
100
AcDbLine
 10
79.65146892243789
 20
723.241284149755
 30
0.0
 11
79.65146892243789
 21
718.991284149755
 31
0.0
  0
LINE
  5
2BD
330
71
100
AcDbEntity
  8
1
  6
Continuous
 62
     2
100
AcDbLine
 10
79.65146892243789
 20
735.991284149755
 30
0.0
 11
66.15146892243789
 21
735.991284149755
 31
0.0
  0
LINE
  5
2BE
330
71
100
AcDbEntity
  8
1
  6
Continuous
 62
     2
100
AcDbLine
 10
79.65146892243789
 20
731.741284149755
 30
0.0
 11
66.15146892243789
 21
731.741284149755
 31
0.0
  0
LINE
  5
2BF
330
71
100
AcDbEntity
  8
1
  6
Continuous
 62
     2
100
AcDbLine
 10
79.65146892243789
 20
731.741284149755
 30
0.0
 11
79.65146892243789
 21
727.491284149755
 31
0.0
  0
LINE
  5
2C0
330
71
100
AcDbEntity
  8
1
  6
Continuous
 62
     2
100
AcDbLine
 10
79.65146892243789
 20
735.991284149755
 30
0.0
 11
79.65146892243789
 21
731.741284149755
 31
0.0
  0
LINE
  5
2C1
330
71
100
AcDbEntity
  8
1
  6
Continuous
 62
     6
100
AcDbLine
 10
79.65146892243789
 20
740.241284149755
 30
0.0
 11
66.15146892243789
 21
740.241284149755
 31
0.0
  0
LINE
  5
2C2
330
71
100
AcDbEntity
  8
1
  6
Continuous
 62
     2
100
AcDbLine
 10
79.65146892243789
 20
740.241284149755
 30
0.0
 11
79.65146892243789
 21
735.991284149755
 31
0.0
  0
LINE
  5
2C3
330
71
100
AcDbEntity
  8
1
  6
Continuous
 62
     6
100
AcDbLine
 10
311.9514689224397
 20
740.241284149755
 30
0.0
 11
294.0698772041189
 21
740.241284149755
 31
0.0
  0
LINE
  5
2C4
330
71
100
AcDbEntity
  8
1
  6
Continuous
 62
     7
100
AcDbLine
 10
311.9514689224393
 20
718.991284149755
 30
0.0
 11
266.9514689224417
 21
718.991284149755
 31
0.0
  0
LINE
  5
2C5
330
71
100
AcDbEntity
  8
1
  6
Continuous
 62
     7
100
AcDbLine
 10
311.9514689224388
 20
731.741284149755
 30
0.0
 11
294.0698772041189
 21
731.741284149755
 31
0.0
  0
LINE
  5
2C6
330
71
100
AcDbEntity
  8
1
  6
Continuous
 62
     7
100
AcDbLine
 10
266.9514689224417
 20
727.491284149755
 30
0.0
 11
311.9514689224397
 21
727.491284149755
 31
0.0
  0
LINE
  5
2C7
330
71
100
AcDbEntity
  8
1
  6
Continuous
 62
     7
100
AcDbLine
 10
218.806664395688
 20
735.991284149755
 30
0.0
 11
218.806664395688
 21
731.741284149755
 31
0.0
  0
LINE
  5
2C8
330
71
100
AcDbEntity
  8
1
  6
Continuous
 62
     7
100
AcDbLine
 10
205.306664395688
 20
735.991284149755
 30
0.0
 11
218.806664395688
 21
735.991284149755
 31
0.0
  0
LINE
  5
2C9
330
71
100
AcDbEntity
  8
1
  6
Continuous
 62
     7
100
AcDbLine
 10
205.306664395688
 20
735.991284149755
 30
0.0
 11
191.8066643956881
 21
735.991284149755
 31
0.0
  0
LINE
  5
2CA
330
71
100
AcDbEntity
  8
1
  6
Continuous
 62
     7
100
AcDbLine
 10
294.0698772041189
 20
731.741284149755
 30
0.0
 11
294.0698772041189
 21
740.241284149755
 31
0.0
  0
LINE
  5
2CB
330
71
100
AcDbEntity
  8
1
  6
Continuous
 62
     6
100
AcDbLine
 10
285.1514689224397
 20
740.241284149755
 30
0.0
 11
294.0698772041189
 21
740.241284149755
 31
0.0
  0
LINE
  5
2CC
330
71
100
AcDbEntity
  8
1
  6
Continuous
 62
     7
100
AcDbLine
 10
285.1514689224397
 20
740.241284149755
 30
0.0
 11
285.15146892244
 21
731.7412841497551
 31
0.0
  0
LINE
  5
2CD
330
71
100
AcDbEntity
  8
1
  6
Continuous
 62
     7
100
AcDbLine
 10
266.9514689224417
 20
718.991284149755
 30
0.0
 11
248.4514689224421
 21
718.991284149755
 31
0.0
  0
LINE
  5
2CE
330
71
100
AcDbEntity
  8
1
  6
Continuous
 62
     7
100
AcDbLine
 10
266.9514689224417
 20
727.491284149755
 30
0.0
 11
266.9514689224417
 21
718.991284149755
 31
0.0
  0
LINE
  5
2CF
330
71
100
AcDbEntity
  8
1
  6
Continuous
 62
     2
100
AcDbLine
 10
168.906664395688
 20
740.241284149755
 30
0.0
 11
168.906664395688
 21
735.991284149755
 31
0.0
  0
LINE
  5
2D0
330
71
100
AcDbEntity
  8
1
  6
Continuous
 62
     2
100
AcDbLine
 10
155.4066643956881
 20
740.241284149755
 30
0.0
 11
155.4066643956881
 21
735.991284149755
 31
0.0
  0
LINE
  5
2D1
330
71
100
AcDbEntity
  8
1
  6
Continuous
 62
     6
100
AcDbLine
 10
168.906664395688
 20
740.241284149755
 30
0.0
 11
155.4066643956881
 21
740.241284149755
 31
0.0
  0
LINE
  5
2D2
330
71
100
AcDbEntity
  8
1
  6
Continuous
 62
     6
100
AcDbLine
 10
155.4066643956881
 20
740.241284149755
 30
0.0
 11
141.9066643956881
 21
740.241284149755
 31
0.0
  0
LINE
  5
2D3
330
71
100
AcDbEntity
  8
1
  6
Continuous
 62
     2
100
AcDbLine
 10
141.9066643956881
 20
740.241284149755
 30
0.0
 11
141.9066643956881
 21
735.991284149755
 31
0.0
  0
LINE
  5
2D4
330
71
100
AcDbEntity
  8
1
  6
Continuous
 62
     7
100
AcDbLine
 10
200.606664395688
 20
714.7412841497551
 30
0.0
 11
200.606664395688
 21
710.4912841497551
 31
0.0
  0
LINE
  5
2D5
330
71
100
AcDbEntity
  8
1
  6
Continuous
 62
     7
100
AcDbLine
 10
200.606664395688
 20
714.7412841497551
 30
0.0
 11
182.4066643956881
 21
714.7412841497551
 31
0.0
  0
LINE
  5
2D6
330
71
100
AcDbEntity
  8
1
  6
Continuous
 62
     7
100
AcDbLine
 10
205.306664395688
 20
727.491284149755
 30
0.0
 11
191.8066643956881
 21
727.4912841497551
 31
0.0
  0
LINE
  5
2D7
330
71
100
AcDbEntity
  8
1
  6
Continuous
 62
     7
100
AcDbLine
 10
218.806664395688
 20
714.7412841497551
 30
0.0
 11
200.606664395688
 21
714.7412841497551
 31
0.0
  0
LINE
  5
2D8
330
71
100
AcDbEntity
  8
1
  6
Continuous
 62
     6
100
AcDbLine
 10
218.806664395688
 20
740.241284149755
 30
0.0
 11
241.706664395688
 21
740.241284149755
 31
0.0
  0
LINE
  5
2D9
330
71
100
AcDbEntity
  8
1
  6
Continuous
 62
     6
100
AcDbLine
 10
285.1514689224397
 20
740.241284149755
 30
0.0
 11
241.706664395688
 21
740.241284149755
 31
0.0
  0
LINE
  5
2DA
330
71
100
AcDbEntity
  8
1
  6
Continuous
 62
     7
100
AcDbLine
 10
241.706664395688
 20
740.241284149755
 30
0.0
 11
241.706664395688
 21
731.741284149755
 31
0.0
  0
LINE
  5
2DB
330
71
100
AcDbEntity
  8
1
  6
Continuous
 62
     6
100
AcDbLine
 10
66.15146892243789
 20
740.241284149755
 30
0.0
 11
59.95146892243989
 21
740.241284149755
 31
0.0
  0
LINE
  5
2DC
330
71
100
AcDbEntity
  8
1
  6
Continuous
 62
     6
100
AcDbLine
 10
59.95146892243989
 20
710.4912841497551
 30
0.0
 11
59.95146892243989
 21
714.7412841497551
 31
0.0
  0
LINE
  5
2DD
330
71
100
AcDbEntity
  8
1
  6
Continuous
 62
     6
100
AcDbLine
 10
59.95146892243989
 20
714.7412841497551
 30
0.0
 11
59.95146892243989
 21
718.991284149755
 31
0.0
  0
LINE
  5
2DE
330
71
100
AcDbEntity
  8
1
  6
Continuous
 62
     7
100
AcDbLine
 10
205.306664395688
 20
731.741284149755
 30
0.0
 11
205.306664395688
 21
727.491284149755
 31
0.0
  0
LINE
  5
2DF
330
71
100
AcDbEntity
  8
1
  6
Continuous
 62
     7
100
AcDbLine
 10
191.8066643956881
 20
731.741284149755
 30
0.0
 11
191.8066643956881
 21
727.4912841497551
 31
0.0
  0
LINE
  5
2E0
330
71
100
AcDbEntity
  8
1
  6
Continuous
 62
     7
100
AcDbLine
 10
205.306664395688
 20
731.741284149755
 30
0.0
 11
191.8066643956881
 21
731.741284149755
 31
0.0
  0
LINE
  5
2E1
330
71
100
AcDbEntity
  8
1
  6
Continuous
 62
     2
100
AcDbLine
 10
182.4066643956881
 20
727.491284149755
 30
0.0
 11
168.906664395688
 21
727.491284149755
 31
0.0
  0
LINE
  5
2E2
330
71
100
AcDbEntity
  8
1
  6
Continuous
 62
     2
100
AcDbLine
 10
66.15146892243789
 20
727.491284149755
 30
0.0
 11
66.15146892243789
 21
731.741284149755
 31
0.0
  0
LINE
  5
2E3
330
71
100
AcDbEntity
  8
1
  6
Continuous
 62
     2
100
AcDbLine
 10
66.15146892243789
 20
727.491284149755
 30
0.0
 11
59.95146892243989
 21
727.491284149755
 31
0.0
  0
LINE
  5
2E4
330
71
100
AcDbEntity
  8
1
  6
Continuous
 62
     2
100
AcDbLine
 10
182.4066643956881
 20
731.741284149755
 30
0.0
 11
168.906664395688
 21
731.741284149755
 31
0.0
  0
LINE
  5
2E5
330
71
100
AcDbEntity
  8
1
  6
Continuous
 62
     2
100
AcDbLine
 10
66.15146892243789
 20
731.741284149755
 30
0.0
 11
66.15146892243789
 21
735.991284149755
 31
0.0
  0
LINE
  5
2E6
330
71
100
AcDbEntity
  8
1
  6
Continuous
 62
     2
100
AcDbLine
 10
182.4066643956881
 20
735.991284149755
 30
0.0
 11
168.906664395688
 21
735.991284149755
 31
0.0
  0
LINE
  5
2E7
330
71
100
AcDbEntity
  8
1
  6
Continuous
 62
     2
100
AcDbLine
 10
66.15146892243789
 20
735.991284149755
 30
0.0
 11
66.15146892243789
 21
740.241284149755
 31
0.0
  0
LINE
  5
2E8
330
71
100
AcDbEntity
  8
1
  6
Continuous
 62
     2
100
AcDbLine
 10
66.15146892243789
 20
735.991284149755
 30
0.0
 11
59.95146892243989
 21
735.991284149755
 31
0.0
  0
LINE
  5
2E9
330
71
100
AcDbEntity
  8
1
  6
Continuous
 62
     6
100
AcDbLine
 10
182.4066643956881
 20
740.241284149755
 30
0.0
 11
168.906664395688
 21
740.241284149755
 31
0.0
  0
LINE
  5
2EA
330
71
100
AcDbEntity
  8
1
  6
Continuous
 62
     2
100
AcDbLine
 10
182.4066643956881
 20
718.991284149755
 30
0.0
 11
168.906664395688
 21
718.991284149755
 31
0.0
  0
LINE
  5
2EB
330
71
100
AcDbEntity
  8
1
  6
Continuous
 62
     2
100
AcDbLine
 10
182.4066643956881
 20
723.241284149755
 30
0.0
 11
168.906664395688
 21
723.241284149755
 31
0.0
  0
LINE
  5
2EC
330
71
100
AcDbEntity
  8
1
  6
Continuous
 62
     2
100
AcDbLine
 10
66.15146892243789
 20
718.991284149755
 30
0.0
 11
66.15146892243789
 21
723.241284149755
 31
0.0
  0
LINE
  5
2ED
330
71
100
AcDbEntity
  8
1
  6
Continuous
 62
     2
100
AcDbLine
 10
66.15146892243789
 20
723.241284149755
 30
0.0
 11
66.15146892243789
 21
727.491284149755
 31
0.0
  0
LINE
  5
2EE
330
71
100
AcDbEntity
  8
1
  6
Continuous
 62
     7
100
AcDbLine
 10
66.15146892243789
 20
714.7412841497551
 30
0.0
 11
79.65146892243789
 21
714.7412841497551
 31
0.0
  0
LINE
  5
2EF
330
71
100
AcDbEntity
  8
1
  6
Continuous
 62
     2
100
AcDbLine
 10
66.15146892243789
 20
714.7412841497551
 30
0.0
 11
66.15146892243789
 21
718.991284149755
 31
0.0
  0
LINE
  5
2F0
330
71
100
AcDbEntity
  8
1
  6
Continuous
 62
     7
100
AcDbLine
 10
218.806664395688
 20
718.991284149755
 30
0.0
 11
218.806664395688
 21
723.241284149755
 31
0.0
  0
LINE
  5
2F1
330
71
100
AcDbEntity
  8
1
  6
Continuous
 62
     6
100
AcDbLine
 10
205.306664395688
 20
740.241284149755
 30
0.0
 11
218.806664395688
 21
740.241284149755
 31
0.0
  0
LINE
  5
2F2
330
71
100
AcDbEntity
  8
1
  6
Continuous
 62
     7
100
AcDbLine
 10
218.806664395688
 20
740.241284149755
 30
0.0
 11
218.806664395688
 21
735.991284149755
 31
0.0
  0
LINE
  5
2F3
330
71
100
AcDbEntity
  8
1
  6
Continuous
 62
     6
100
AcDbLine
 10
191.8066643956881
 20
740.241284149755
 30
0.0
 11
205.306664395688
 21
740.241284149755
 31
0.0
  0
LINE
  5
2F4
330
71
100
AcDbEntity
  8
1
  6
Continuous
 62
     7
100
AcDbLine
 10
182.4066643956881
 20
727.491284149755
 30
0.0
 11
182.4066643956881
 21
723.241284149755
 31
0.0
  0
LINE
  5
2F5
330
71
100
AcDbEntity
  8
1
  6
Continuous
 62
     7
100
AcDbLine
 10
182.4066643956881
 20
731.741284149755
 30
0.0
 11
182.4066643956881
 21
727.491284149755
 31
0.0
  0
LINE
  5
2F6
330
71
100
AcDbEntity
  8
1
  6
Continuous
 62
     2
100
AcDbLine
 10
59.95146892243989
 20
731.741284149755
 30
0.0
 11
66.15146892243789
 21
731.741284149755
 31
0.0
  0
LINE
  5
2F7
330
71
100
AcDbEntity
  8
1
  6
Continuous
 62
     7
100
AcDbLine
 10
182.4066643956881
 20
735.991284149755
 30
0.0
 11
182.4066643956881
 21
731.741284149755
 31
0.0
  0
LINE
  5
2F8
330
71
100
AcDbEntity
  8
1
  6
Continuous
 62
     7
100
AcDbLine
 10
218.806664395688
 20
731.741284149755
 30
0.0
 11
218.806664395688
 21
727.491284149755
 31
0.0
  0
LINE
  5
2F9
330
71
100
AcDbEntity
  8
1
  6
Continuous
 62
     7
100
AcDbLine
 10
205.306664395688
 20
740.241284149755
 30
0.0
 11
205.306664395688
 21
735.991284149755
 31
0.0
  0
LINE
  5
2FA
330
71
100
AcDbEntity
  8
1
  6
Continuous
 62
     7
100
AcDbLine
 10
191.8066643956881
 20
740.241284149755
 30
0.0
 11
191.8066643956881
 21
735.991284149755
 31
0.0
  0
LINE
  5
2FB
330
71
100
AcDbEntity
  8
1
  6
Continuous
 62
     2
100
AcDbLine
 10
66.15146892243789
 20
710.491284149755
 30
0.0
 11
66.15146892243789
 21
714.7412841497551
 31
0.0
  0
LINE
  5
2FC
330
71
100
AcDbEntity
  8
1
  6
Continuous
 62
     2
100
AcDbLine
 10
59.95146892243989
 20
718.991284149755
 30
0.0
 11
66.15146892243789
 21
718.991284149755
 31
0.0
  0
LINE
  5
2FD
330
71
100
AcDbEntity
  8
1
  6
Continuous
 62
     2
100
AcDbLine
 10
59.95146892243989
 20
723.241284149755
 30
0.0
 11
66.15146892243789
 21
723.241284149755
 31
0.0
  0
LINE
  5
2FE
330
71
100
AcDbEntity
  8
1
  6
Continuous
 62
     7
100
AcDbLine
 10
59.95146892243989
 20
714.7412841497551
 30
0.0
 11
66.15146892243789
 21
714.7412841497551
 31
0.0
  0
LINE
  5
2FF
330
71
100
AcDbEntity
  8
1
  6
Continuous
 62
     7
100
AcDbLine
 10
218.806664395688
 20
718.991284149755
 30
0.0
 11
218.806664395688
 21
714.7412841497551
 31
0.0
  0
LINE
  5
300
330
71
100
AcDbEntity
  8
1
  6
Continuous
 62
     7
100
AcDbLine
 10
182.4066643956881
 20
723.241284149755
 30
0.0
 11
182.4066643956881
 21
718.991284149755
 31
0.0
  0
LINE
  5
301
330
71
100
AcDbEntity
  8
1
  6
Continuous
 62
     7
100
AcDbLine
 10
182.4066643956881
 20
718.991284149755
 30
0.0
 11
182.4066643956881
 21
714.7412841497551
 31
0.0
  0
LINE
  5
302
330
71
100
AcDbEntity
  8
1
  6
Continuous
 62
     7
100
AcDbLine
 10
205.306664395688
 20
735.991284149755
 30
0.0
 11
205.306664395688
 21
731.741284149755
 31
0.0
  0
LINE
  5
303
330
71
100
AcDbEntity
  8
1
  6
Continuous
 62
     7
100
AcDbLine
 10
191.8066643956881
 20
735.991284149755
 30
0.0
 11
191.8066643956881
 21
731.741284149755
 31
0.0
  0
LINE
  5
304
330
71
100
AcDbEntity
  8
1
  6
Continuous
 62
     7
100
AcDbLine
 10
182.4066643956881
 20
731.741284149755
 30
0.0
 11
191.8066643956881
 21
731.741284149755
 31
0.0
  0
LINE
  5
305
330
71
100
AcDbEntity
  8
1
  6
Continuous
 62
     7
100
AcDbLine
 10
218.806664395688
 20
727.491284149755
 30
0.0
 11
205.306664395688
 21
727.491284149755
 31
0.0
  0
LINE
  5
306
330
71
100
AcDbEntity
  8
1
  6
Continuous
 62
     7
100
AcDbLine
 10
218.806664395688
 20
714.7412841497551
 30
0.0
 11
218.806664395688
 21
710.491284149755
 31
0.0
  0
LINE
  5
307
330
71
100
AcDbEntity
  8
1
  6
Continuous
 62
     7
100
AcDbLine
 10
182.4066643956881
 20
714.7412841497551
 30
0.0
 11
182.4066643956881
 21
710.491284149755
 31
0.0
  0
LINE
  5
308
330
71
100
AcDbEntity
  8
1
  6
Continuous
 62
     7
100
AcDbLine
 10
182.4066643956881
 20
740.241284149755
 30
0.0
 11
182.4066643956881
 21
735.991284149755
 31
0.0
  0
LINE
  5
309
330
71
100
AcDbEntity
  8
1
  6
Continuous
 62
     7
100
AcDbLine
 10
218.806664395688
 20
718.991284149755
 30
0.0
 11
248.4514689224421
 21
718.991284149755
 31
0.0
  0
LINE
  5
30A
330
71
100
AcDbEntity
  8
1
  6
Continuous
 62
     7
100
AcDbLine
 10
218.806664395688
 20
727.491284149755
 30
0.0
 11
248.4514689224421
 21
727.491284149755
 31
0.0
  0
LINE
  5
30B
330
71
100
AcDbEntity
  8
1
  6
Continuous
 62
     7
100
AcDbLine
 10
285.15146892244
 20
731.7412841497551
 30
0.0
 11
294.0698772041189
 21
731.741284149755
 31
0.0
  0
LINE
  5
30C
330
71
100
AcDbEntity
  8
1
  6
Continuous
 62
     7
100
AcDbLine
 10
285.15146892244
 20
731.7412841497551
 30
0.0
 11
248.4514689224421
 21
731.741284149755
 31
0.0
  0
LINE
  5
30D
330
71
100
AcDbEntity
  8
1
  6
Continuous
 62
     7
100
AcDbLine
 10
248.4514689224421
 20
727.491284149755
 30
0.0
 11
266.9514689224417
 21
727.491284149755
 31
0.0
  0
LINE
  5
30E
330
71
100
AcDbEntity
  8
1
  6
Continuous
 62
     7
100
AcDbLine
 10
248.4514689224421
 20
727.491284149755
 30
0.0
 11
248.4514689224421
 21
718.991284149755
 31
0.0
  0
LINE
  5
30F
330
71
100
AcDbEntity
  8
1
  6
Continuous
 62
     6
100
AcDbLine
 10
59.95146892243989
 20
735.991284149755
 30
0.0
 11
59.95146892243989
 21
740.241284149755
 31
0.0
  0
LINE
  5
310
330
71
100
AcDbEntity
  8
1
  6
Continuous
 62
     6
100
AcDbLine
 10
59.95146892243989
 20
731.741284149755
 30
0.0
 11
59.95146892243989
 21
735.991284149755
 31
0.0
  0
LINE
  5
311
330
71
100
AcDbEntity
  8
1
  6
Continuous
 62
     6
100
AcDbLine
 10
59.95146892243989
 20
727.491284149755
 30
0.0
 11
59.95146892243989
 21
731.741284149755
 31
0.0
  0
LINE
  5
312
330
71
100
AcDbEntity
  8
1
  6
Continuous
 62
     6
100
AcDbLine
 10
59.95146892243989
 20
718.991284149755
 30
0.0
 11
59.95146892243989
 21
723.241284149755
 31
0.0
  0
LINE
  5
313
330
71
100
AcDbEntity
  8
1
  6
Continuous
 62
     6
100
AcDbLine
 10
141.9066643956881
 20
740.241284149755
 30
0.0
 11
79.65146892243789
 21
740.241284149755
 31
0.0
  0
LINE
  5
314
330
71
100
AcDbEntity
  8
1
  6
Continuous
 62
     2
100
AcDbLine
 10
79.65146892243789
 20
735.991284149755
 30
0.0
 11
141.9066643956881
 21
735.991284149755
 31
0.0
  0
LINE
  5
315
330
71
100
AcDbEntity
  8
1
  6
Continuous
 62
     2
100
AcDbLine
 10
79.65146892243789
 20
731.741284149755
 30
0.0
 11
141.9066643956881
 21
731.741284149755
 31
0.0
  0
LINE
  5
316
330
71
100
AcDbEntity
  8
1
  6
Continuous
 62
     7
100
AcDbLine
 10
205.306664395688
 20
731.741284149755
 30
0.0
 11
218.806664395688
 21
731.741284149755
 31
0.0
  0
LINE
  5
317
330
71
100
AcDbEntity
  8
1
  6
Continuous
 62
     7
100
AcDbLine
 10
241.706664395688
 20
731.741284149755
 30
0.0
 11
218.806664395688
 21
731.741284149755
 31
0.0
  0
LINE
  5
318
330
71
100
AcDbEntity
  8
1
  6
Continuous
 62
     2
100
AcDbLine
 10
168.906664395688
 20
718.991284149755
 30
0.0
 11
168.906664395688
 21
714.7412841497551
 31
0.0
  0
LINE
  5
319
330
71
100
AcDbEntity
  8
1
  6
Continuous
 62
     2
100
AcDbLine
 10
168.906664395688
 20
718.991284149755
 30
0.0
 11
155.4066643956881
 21
718.991284149755
 31
0.0
  0
LINE
  5
31A
330
71
100
AcDbEntity
  8
1
  6
Continuous
 62
     2
100
AcDbLine
 10
168.906664395688
 20
714.7412841497551
 30
0.0
 11
168.906664395688
 21
710.491284149755
 31
0.0
  0
LINE
  5
31B
330
71
100
AcDbEntity
  8
1
  6
Continuous
 62
     7
100
AcDbLine
 10
168.906664395688
 20
714.7412841497551
 30
0.0
 11
182.4066643956881
 21
714.7412841497551
 31
0.0
  0
LINE
  5
31C
330
71
100
AcDbEntity
  8
1
  6
Continuous
 62
     2
100
AcDbLine
 10
168.906664395688
 20
727.491284149755
 30
0.0
 11
168.906664395688
 21
723.241284149755
 31
0.0
  0
LINE
  5
31D
330
71
100
AcDbEntity
  8
1
  6
Continuous
 62
     2
100
AcDbLine
 10
168.906664395688
 20
727.491284149755
 30
0.0
 11
155.4066643956881
 21
727.491284149755
 31
0.0
  0
LINE
  5
31E
330
71
100
AcDbEntity
  8
1
  6
Continuous
 62
     2
100
AcDbLine
 10
168.906664395688
 20
731.741284149755
 30
0.0
 11
168.906664395688
 21
727.491284149755
 31
0.0
  0
LINE
  5
31F
330
71
100
AcDbEntity
  8
1
  6
Continuous
 62
     2
100
AcDbLine
 10
168.906664395688
 20
731.741284149755
 30
0.0
 11
155.4066643956881
 21
731.741284149755
 31
0.0
  0
LINE
  5
320
330
71
100
AcDbEntity
  8
1
  6
Continuous
 62
     2
100
AcDbLine
 10
168.906664395688
 20
735.991284149755
 30
0.0
 11
168.906664395688
 21
731.741284149755
 31
0.0
  0
LINE
  5
321
330
71
100
AcDbEntity
  8
1
  6
Continuous
 62
     2
100
AcDbLine
 10
168.906664395688
 20
735.991284149755
 30
0.0
 11
155.4066643956881
 21
735.991284149755
 31
0.0
  0
LINE
  5
322
330
71
100
AcDbEntity
  8
1
  6
Continuous
 62
     2
100
AcDbLine
 10
168.906664395688
 20
723.241284149755
 30
0.0
 11
168.906664395688
 21
718.991284149755
 31
0.0
  0
LINE
  5
323
330
71
100
AcDbEntity
  8
1
  6
Continuous
 62
     2
100
AcDbLine
 10
168.906664395688
 20
723.241284149755
 30
0.0
 11
155.4066643956881
 21
723.241284149755
 31
0.0
  0
LINE
  5
324
330
71
100
AcDbEntity
  8
1
  6
Continuous
 62
     2
100
AcDbLine
 10
155.4066643956881
 20
718.991284149755
 30
0.0
 11
155.4066643956881
 21
714.7412841497551
 31
0.0
  0
LINE
  5
325
330
71
100
AcDbEntity
  8
1
  6
Continuous
 62
     2
100
AcDbLine
 10
155.4066643956881
 20
718.991284149755
 30
0.0
 11
141.9066643956881
 21
718.991284149755
 31
0.0
  0
LINE
  5
326
330
71
100
AcDbEntity
  8
1
  6
Continuous
 62
     2
100
AcDbLine
 10
155.4066643956881
 20
714.7412841497551
 30
0.0
 11
155.4066643956881
 21
710.491284149755
 31
0.0
  0
LINE
  5
327
330
71
100
AcDbEntity
  8
1
  6
Continuous
 62
     7
100
AcDbLine
 10
155.4066643956881
 20
714.7412841497551
 30
0.0
 11
168.906664395688
 21
714.7412841497551
 31
0.0
  0
LINE
  5
328
330
71
100
AcDbEntity
  8
1
  6
Continuous
 62
     2
100
AcDbLine
 10
155.4066643956881
 20
727.491284149755
 30
0.0
 11
155.4066643956881
 21
723.241284149755
 31
0.0
  0
LINE
  5
329
330
71
100
AcDbEntity
  8
1
  6
Continuous
 62
     2
100
AcDbLine
 10
155.4066643956881
 20
727.491284149755
 30
0.0
 11
141.9066643956881
 21
727.491284149755
 31
0.0
  0
LINE
  5
32A
330
71
100
AcDbEntity
  8
1
  6
Continuous
 62
     2
100
AcDbLine
 10
155.4066643956881
 20
731.741284149755
 30
0.0
 11
155.4066643956881
 21
727.491284149755
 31
0.0
  0
LINE
  5
32B
330
71
100
AcDbEntity
  8
1
  6
Continuous
 62
     2
100
AcDbLine
 10
155.4066643956881
 20
731.741284149755
 30
0.0
 11
141.9066643956881
 21
731.741284149755
 31
0.0
  0
LINE
  5
32C
330
71
100
AcDbEntity
  8
1
  6
Continuous
 62
     2
100
AcDbLine
 10
155.4066643956881
 20
735.991284149755
 30
0.0
 11
155.4066643956881
 21
731.741284149755
 31
0.0
  0
LINE
  5
32D
330
71
100
AcDbEntity
  8
1
  6
Continuous
 62
     2
100
AcDbLine
 10
155.4066643956881
 20
735.991284149755
 30
0.0
 11
141.9066643956881
 21
735.991284149755
 31
0.0
  0
LINE
  5
32E
330
71
100
AcDbEntity
  8
1
  6
Continuous
 62
     2
100
AcDbLine
 10
155.4066643956881
 20
723.241284149755
 30
0.0
 11
155.4066643956881
 21
718.991284149755
 31
0.0
  0
LINE
  5
32F
330
71
100
AcDbEntity
  8
1
  6
Continuous
 62
     2
100
AcDbLine
 10
155.4066643956881
 20
723.241284149755
 30
0.0
 11
141.9066643956881
 21
723.241284149755
 31
0.0
  0
LINE
  5
330
330
71
100
AcDbEntity
  8
1
  6
Continuous
 62
     2
100
AcDbLine
 10
141.9066643956881
 20
718.991284149755
 30
0.0
 11
141.9066643956881
 21
714.7412841497551
 31
0.0
  0
LINE
  5
331
330
71
100
AcDbEntity
  8
1
  6
Continuous
 62
     2
100
AcDbLine
 10
141.9066643956881
 20
718.991284149755
 30
0.0
 11
79.65146892243789
 21
718.991284149755
 31
0.0
  0
LINE
  5
332
330
71
100
AcDbEntity
  8
1
  6
Continuous
 62
     2
100
AcDbLine
 10
141.9066643956881
 20
714.7412841497551
 30
0.0
 11
141.9066643956881
 21
710.491284149755
 31
0.0
  0
LINE
  5
333
330
71
100
AcDbEntity
  8
1
  6
Continuous
 62
     7
100
AcDbLine
 10
141.9066643956881
 20
714.7412841497551
 30
0.0
 11
155.4066643956881
 21
714.7412841497551
 31
0.0
  0
LINE
  5
334
330
71
100
AcDbEntity
  8
1
  6
Continuous
 62
     2
100
AcDbLine
 10
141.9066643956881
 20
727.491284149755
 30
0.0
 11
141.9066643956881
 21
723.241284149755
 31
0.0
  0
LINE
  5
335
330
71
100
AcDbEntity
  8
1
  6
Continuous
 62
     2
100
AcDbLine
 10
141.9066643956881
 20
727.491284149755
 30
0.0
 11
79.65146892243789
 21
727.491284149755
 31
0.0
  0
LINE
  5
336
330
71
100
AcDbEntity
  8
1
  6
Continuous
 62
     2
100
AcDbLine
 10
141.9066643956881
 20
731.741284149755
 30
0.0
 11
141.9066643956881
 21
727.491284149755
 31
0.0
  0
LINE
  5
337
330
71
100
AcDbEntity
  8
1
  6
Continuous
 62
     2
100
AcDbLine
 10
141.9066643956881
 20
735.991284149755
 30
0.0
 11
141.9066643956881
 21
731.741284149755
 31
0.0
  0
LINE
  5
338
330
71
100
AcDbEntity
  8
1
  6
Continuous
 62
     2
100
AcDbLine
 10
141.9066643956881
 20
723.241284149755
 30
0.0
 11
141.9066643956881
 21
718.991284149755
 31
0.0
  0
LINE
  5
339
330
71
100
AcDbEntity
  8
1
  6
Continuous
 62
     2
100
AcDbLine
 10
141.9066643956881
 20
723.241284149755
 30
0.0
 11
79.65146892243789
 21
723.241284149755
 31
0.0
  0
LINE
  5
33A
330
71
100
AcDbEntity
  8
1
  6
Continuous
 62
     7
100
AcDbLine
 10
191.8066643956881
 20
727.4912841497551
 30
0.0
 11
182.4066643956881
 21
727.491284149755
 31
0.0
  0
LINE
  5
33B
330
71
100
AcDbEntity
  8
1
  6
Continuous
 62
     6
100
AcDbLine
 10
191.8066643956881
 20
740.241284149755
 30
0.0
 11
182.4066643956881
 21
740.241284149755
 31
0.0
  0
LINE
  5
33C
330
71
100
AcDbEntity
  8
1
  6
Continuous
 62
     7
100
AcDbLine
 10
182.4066643956881
 20
735.991284149755
 30
0.0
 11
191.8066643956881
 21
735.991284149755
 31
0.0
  0
LINE
  5
33D
330
71
100
AcDbEntity
  8
1
  6
Continuous
 62
     6
100
AcDbLine
 10
59.95146892243989
 20
723.241284149755
 30
0.0
 11
59.95146892243989
 21
727.491284149755
 31
0.0
  0
LINE
  5
33E
330
71
100
AcDbEntity
  8
1
  6
Continuous
 62
     2
100
AcDbLine
 10
190.6869335302034
 20
726.866284149755
 30
0.0
 11
194.6869335302034
 21
726.366284149755
 31
0.0
  0
LINE
  5
33F
330
71
100
AcDbEntity
  8
1
  6
Continuous
 62
     2
100
AcDbLine
 10
194.6869335302034
 20
726.366284149755
 30
0.0
 11
194.6869335302034
 21
724.366284149755
 31
0.0
  0
LINE
  5
340
330
71
100
AcDbEntity
  8
1
  6
Continuous
 62
     2
100
AcDbLine
 10
194.6869335302034
 20
724.366284149755
 30
0.0
 11
190.6869335302034
 21
723.866284149755
 31
0.0
  0
LINE
  5
341
330
71
100
AcDbEntity
  8
1
  6
Continuous
 62
     2
100
AcDbLine
 10
190.6869335302034
 20
723.866284149755
 30
0.0
 11
190.6869335302034
 21
726.866284149755
 31
0.0
  0
LINE
  5
342
330
71
100
AcDbEntity
  8
1
  6
Continuous
 62
     2
100
AcDbLine
 10
106.9514689224398
 20
705.4912841497555
 30
0.0
 11
38.61813558910663
 21
705.4912841497555
 31
0.0
  0
LINE
  5
343
330
71
100
AcDbEntity
  8
1
  6
Continuous
 62
     2
100
AcDbLine
 10
243.6181355891064
 20
705.4912841497555
 30
0.0
 11
311.9514689224397
 21
705.4912841497555
 31
0.0
  0
LINE
  5
344
330
71
100
AcDbEntity
  8
1
  6
Continuous
 62
     2
100
AcDbLine
 10
243.6181355891064
 20
705.4912841497555
 30
0.0
 11
243.6181355891064
 21
710.4912841497555
 31
0.0
  0
LINE
  5
345
330
71
100
AcDbEntity
  8
1
  6
Continuous
 62
     2
100
AcDbLine
 10
175.2848022557732
 20
705.4912841497555
 30
0.0
 11
175.2848022557732
 21
710.4912841497555
 31
0.0
  0
LINE
  5
346
330
71
100
AcDbEntity
  8
1
  6
Continuous
 62
     2
100
AcDbLine
 10
106.9514689224398
 20
705.4912841497555
 30
0.0
 11
106.9514689224398
 21
710.4912841497555
 31
0.0
  0
LINE
  5
347
330
71
100
AcDbEntity
  8
1
  6
Continuous
 62
     2
100
AcDbLine
 10
316.9514689224372
 20
767.8912841497556
 30
0.0
 11
316.9514689224372
 21
825.2912841497557
 31
0.0
  0
LINE
  5
348
330
71
100
AcDbEntity
  8
1
  6
Continuous
 62
     2
100
AcDbLine
 10
316.9514689224372
 20
767.8912841497556
 30
0.0
 11
311.9514689224397
 21
767.8912841497556
 31
0.0
  0
LINE
  5
349
330
71
100
AcDbEntity
  8
1
  6
Continuous
 62
     2
100
AcDbLine
 10
-83.04853107756097
 20
705.4912841497555
 30
0.0
 11
-103.048531077561
 21
705.4912841497555
 31
0.0
  0
LINE
  5
34A
330
71
100
AcDbEntity
  8
1
  6
Continuous
 62
     2
100
AcDbLine
 10
-29.7151977442268
 20
705.4912841497555
 30
0.0
 11
-29.7151977442268
 21
710.4912841497555
 31
0.0
  0
LINE
  5
34B
330
71
100
AcDbEntity
  8
1
  6
Continuous
 62
     2
100
AcDbLine
 10
-29.7151977442268
 20
705.4912841497555
 30
0.0
 11
38.61813558910663
 21
705.4912841497555
 31
0.0
  0
LINE
  5
34C
330
71
100
AcDbEntity
  8
1
  6
Continuous
 62
     6
100
AcDbLine
 10
-29.7151977442268
 20
710.4912841497555
 30
0.0
 11
38.61813558910663
 21
710.4912841497555
 31
0.0
  0
LINE
  5
34D
330
71
100
AcDbEntity
  8
1
  6
Continuous
 62
     6
100
AcDbLine
 10
-29.7151977442268
 20
710.4912841497555
 30
0.0
 11
-83.04853107755997
 21
710.4912841497555
 31
0.0
  0
LINE
  5
34E
330
71
100
AcDbEntity
  8
1
  6
Continuous
 62
     2
100
AcDbLine
 10
38.61813558910663
 20
705.4912841497555
 30
0.0
 11
38.61813558910663
 21
710.4912841497555
 31
0.0
  0
LINE
  5
34F
330
71
100
AcDbEntity
  8
1
  6
Continuous
 62
     2
100
AcDbLine
 10
-83.04853107756097
 20
705.4912841497555
 30
0.0
 11
-83.04853107756097
 21
709.4912841497555
 31
0.0
  0
LINE
  5
350
330
71
100
AcDbEntity
  8
1
  6
Continuous
 62
     2
100
AcDbLine
 10
-83.04853107756097
 20
705.4912841497555
 30
0.0
 11
-29.7151977442268
 21
705.4912841497555
 31
0.0
  0
LINE
  5
351
330
71
100
AcDbEntity
  8
1
  6
Continuous
 62
     2
100
AcDbLine
 10
126.951468922437
 20
705.4912841497555
 30
0.0
 11
106.9514689224398
 21
705.4912841497555
 31
0.0
  0
LINE
  5
352
330
71
100
AcDbEntity
  8
1
  6
Continuous
 62
     2
100
AcDbLine
 10
126.951468922437
 20
705.4912841497555
 30
0.0
 11
126.951468922437
 21
709.4912841497555
 31
0.0
  0
LINE
  5
353
330
71
100
AcDbEntity
  8
1
  6
Continuous
 62
     2
100
AcDbLine
 10
126.951468922437
 20
705.4912841497555
 30
0.0
 11
175.2848022557732
 21
705.4912841497555
 31
0.0
  0
LINE
  5
354
330
71
100
AcDbEntity
  8
1
  6
Continuous
 62
     2
100
AcDbLine
 10
175.2848022557732
 20
705.4912841497555
 30
0.0
 11
243.6181355891064
 21
705.4912841497555
 31
0.0
  0
LINE
  5
355
330
71
100
AcDbEntity
  8
1
  6
Continuous
 62
     2
100
AcDbLine
 10
316.9514689224372
 20
705.4912841497555
 30
0.0
 11
311.9514689224397
 21
705.4912841497555
 31
0.0
  0
LINE
  5
356
330
71
100
AcDbEntity
  8
1
  6
Continuous
 62
     2
100
AcDbLine
 10
316.9514689224372
 20
710.4912841497555
 30
0.0
 11
316.9514689224372
 21
705.4912841497555
 31
0.0
  0
LINE
  5
357
330
71
100
AcDbEntity
  8
1
  6
Continuous
 62
     2
100
AcDbLine
 10
316.9514689224372
 20
710.4912841497555
 30
0.0
 11
316.9514689224372
 21
767.8912841497556
 31
0.0
  0
LINE
  5
358
330
71
100
AcDbEntity
  8
1
  6
Continuous
 62
     2
100
AcDbLine
 10
316.9514689224372
 20
1002.491284149756
 30
0.0
 11
311.9514689224372
 21
1002.491284149756
 31
0.0
  0
LINE
  5
359
330
71
100
AcDbEntity
  8
1
  6
Continuous
 62
     6
100
AcDbLine
 10
311.9514689224372
 20
997.4912841497555
 30
0.0
 11
311.9514689224378
 21
940.0912841497554
 31
0.0
  0
LINE
  5
35A
330
71
100
AcDbEntity
  8
1
  6
Continuous
 62
     2
100
AcDbLine
 10
316.9514689224372
 20
1002.491284149756
 30
0.0
 11
316.9514689224372
 21
997.4912841497555
 31
0.0
  0
LINE
  5
35B
330
71
100
AcDbEntity
  8
1
  6
Continuous
 62
     2
100
AcDbLine
 10
311.9514689224372
 20
997.4912841497555
 30
0.0
 11
311.9514689224372
 21
1002.491284149756
 31
0.0
  0
LINE
  5
35C
330
71
100
AcDbEntity
  8
1
  6
Continuous
 62
     2
100
AcDbLine
 10
311.9514689224372
 20
997.4912841497555
 30
0.0
 11
316.9514689224372
 21
997.4912841497555
 31
0.0
  0
LINE
  5
35D
330
71
100
AcDbEntity
  8
1
  6
Continuous
 62
     2
100
AcDbLine
 10
316.9514689224372
 20
997.4912841497555
 30
0.0
 11
316.9514689224372
 21
940.0912841497554
 31
0.0
  0
LINE
  5
35E
330
71
100
AcDbEntity
  8
1
  6
Continuous
 62
     2
100
AcDbLine
 10
311.9514689224378
 20
940.0912841497554
 30
0.0
 11
316.9514689224372
 21
940.0912841497554
 31
0.0
  0
LINE
  5
35F
330
71
100
AcDbEntity
  8
1
  6
Continuous
 62
     6
100
AcDbLine
 10
311.9514689224378
 20
940.0912841497554
 30
0.0
 11
311.9514689224397
 21
882.6912841497556
 31
0.0
  0
LINE
  5
360
330
71
100
AcDbEntity
  8
1
  6
Continuous
 62
     2
100
AcDbLine
 10
316.9514689224372
 20
940.0912841497554
 30
0.0
 11
316.9514689224372
 21
882.6912841497556
 31
0.0
  0
LINE
  5
361
330
71
100
AcDbEntity
  8
1
  6
Continuous
 62
     2
100
AcDbLine
 10
311.9514689224397
 20
882.6912841497556
 30
0.0
 11
316.9514689224372
 21
882.6912841497556
 31
0.0
  0
LINE
  5
362
330
71
100
AcDbEntity
  8
1
  6
Continuous
 62
     6
100
AcDbLine
 10
311.9514689224397
 20
882.6912841497556
 30
0.0
 11
311.9514689224397
 21
825.2912841497557
 31
0.0
  0
LINE
  5
363
330
71
100
AcDbEntity
  8
1
  6
Continuous
 62
     2
100
AcDbLine
 10
316.9514689224372
 20
882.6912841497556
 30
0.0
 11
316.9514689224372
 21
825.2912841497557
 31
0.0
  0
LINE
  5
364
330
71
100
AcDbEntity
  8
1
  6
Continuous
 62
     2
100
AcDbLine
 10
311.9514689224397
 20
825.2912841497557
 30
0.0
 11
316.9514689224372
 21
825.2912841497557
 31
0.0
  0
LINE
  5
365
330
71
100
AcDbEntity
  8
1
  6
Continuous
 62
     6
100
AcDbLine
 10
311.9514689224397
 20
825.2912841497557
 30
0.0
 11
311.9514689224397
 21
767.8912841497556
 31
0.0
  0
LINE
  5
366
330
71
100
AcDbEntity
  8
1
  6
Continuous
 62
     6
100
AcDbLine
 10
-83.04853107756097
 20
997.4912841497558
 30
0.0
 11
-29.7151977442268
 21
997.4912841497558
 31
0.0
  0
LINE
  5
367
330
71
100
AcDbEntity
  8
1
  6
Continuous
 62
     2
100
AcDbLine
 10
311.9514689224372
 20
1002.491284149756
 30
0.0
 11
243.6181355891064
 21
1002.491284149756
 31
0.0
  0
LINE
  5
368
330
71
100
AcDbEntity
  8
1
  6
Continuous
 62
     2
100
AcDbLine
 10
243.6181355891064
 20
997.4912841497555
 30
0.0
 11
243.6181355891064
 21
1002.491284149756
 31
0.0
  0
LINE
  5
369
330
71
100
AcDbEntity
  8
1
  6
Continuous
 62
     6
100
AcDbLine
 10
243.6181355891064
 20
997.4912841497555
 30
0.0
 11
311.9514689224372
 21
997.4912841497555
 31
0.0
  0
LINE
  5
36A
330
71
100
AcDbEntity
  8
1
  6
Continuous
 62
     2
100
AcDbLine
 10
243.6181355891064
 20
1002.491284149756
 30
0.0
 11
175.2848022557732
 21
1002.491284149756
 31
0.0
  0
LINE
  5
36B
330
71
100
AcDbEntity
  8
1
  6
Continuous
 62
     2
100
AcDbLine
 10
175.2848022557732
 20
997.4912841497555
 30
0.0
 11
175.2848022557732
 21
1002.491284149756
 31
0.0
  0
LINE
  5
36C
330
71
100
AcDbEntity
  8
1
  6
Continuous
 62
     6
100
AcDbLine
 10
175.2848022557732
 20
997.4912841497555
 30
0.0
 11
243.6181355891064
 21
997.4912841497555
 31
0.0
  0
LINE
  5
36D
330
71
100
AcDbEntity
  8
1
  6
Continuous
 62
     2
100
AcDbLine
 10
175.2848022557732
 20
1002.491284149756
 30
0.0
 11
126.951468922437
 21
1002.491284149756
 31
0.0
  0
LINE
  5
36E
330
71
100
AcDbEntity
  8
1
  6
Continuous
 62
     2
100
AcDbLine
 10
106.9514689224398
 20
997.4912841497555
 30
0.0
 11
106.9514689224398
 21
1002.491284149756
 31
0.0
  0
LINE
  5
36F
330
71
100
AcDbEntity
  8
1
  6
Continuous
 62
     6
100
AcDbLine
 10
106.9514689224398
 20
997.4912841497555
 30
0.0
 11
175.2848022557732
 21
997.4912841497555
 31
0.0
  0
LINE
  5
370
330
71
100
AcDbEntity
  8
1
  6
Continuous
 62
     2
100
AcDbLine
 10
106.9514689224398
 20
1002.491284149756
 30
0.0
 11
38.61813558910663
 21
1002.491284149756
 31
0.0
  0
LINE
  5
371
330
71
100
AcDbEntity
  8
1
  6
Continuous
 62
     2
100
AcDbLine
 10
38.61813558910663
 20
997.4912841497555
 30
0.0
 11
38.61813558910663
 21
1002.491284149756
 31
0.0
  0
LINE
  5
372
330
71
100
AcDbEntity
  8
1
  6
Continuous
 62
     6
100
AcDbLine
 10
38.61813558910663
 20
997.4912841497555
 30
0.0
 11
106.9514689224398
 21
997.4912841497555
 31
0.0
  0
LINE
  5
373
330
71
100
AcDbEntity
  8
1
  6
Continuous
 62
     2
100
AcDbLine
 10
38.61813558910663
 20
1002.491284149756
 30
0.0
 11
-29.7151977442268
 21
1002.491284149756
 31
0.0
  0
LINE
  5
374
330
71
100
AcDbEntity
  8
1
  6
Continuous
 62
     2
100
AcDbLine
 10
-29.7151977442268
 20
997.4912841497558
 30
0.0
 11
-29.7151977442268
 21
1002.491284149756
 31
0.0
  0
LINE
  5
375
330
71
100
AcDbEntity
  8
1
  6
Continuous
 62
     6
100
AcDbLine
 10
-29.7151977442268
 20
997.4912841497558
 30
0.0
 11
38.61813558910663
 21
997.4912841497555
 31
0.0
  0
LINE
  5
376
330
71
100
AcDbEntity
  8
1
  6
Continuous
 62
     2
100
AcDbLine
 10
-29.7151977442268
 20
1002.491284149756
 30
0.0
 11
-83.04853107756097
 21
1002.491284149756
 31
0.0
  0
LINE
  5
377
330
71
100
AcDbEntity
  8
1
  6
Continuous
 62
     2
100
AcDbLine
 10
-83.04853107756097
 20
1002.491284149756
 30
0.0
 11
-83.04853107756097
 21
998.4912841497558
 31
0.0
  0
LINE
  5
378
330
71
100
AcDbEntity
  8
1
  6
Continuous
 62
     2
100
AcDbLine
 10
-83.04853107756097
 20
1002.491284149756
 30
0.0
 11
-103.048531077561
 21
1002.491284149756
 31
0.0
  0
LINE
  5
379
330
71
100
AcDbEntity
  8
1
  6
Continuous
 62
     2
100
AcDbLine
 10
126.951468922437
 20
1002.491284149756
 30
0.0
 11
126.951468922437
 21
998.4912841497558
 31
0.0
  0
LINE
  5
37A
330
71
100
AcDbEntity
  8
1
  6
Continuous
 62
     2
100
AcDbLine
 10
126.951468922437
 20
1002.491284149756
 30
0.0
 11
106.9514689224398
 21
1002.491284149756
 31
0.0
  0
LINE
  5
37B
330
71
100
AcDbEntity
  8
1
  6
Continuous
 62
     2
100
AcDbLine
 10
-103.048531077561
 20
1002.491284149756
 30
0.0
 11
-103.048531077561
 21
853.9912841497555
 31
0.0
  0
LINE
  5
37C
330
71
100
AcDbEntity
  8
1
  6
Continuous
 62
     2
100
AcDbLine
 10
-103.048531077561
 20
853.9912841497555
 30
0.0
 11
-93.04853107756097
 21
853.9912841497555
 31
0.0
  0
LINE
  5
37D
330
71
100
AcDbEntity
  8
1
  6
Continuous
 62
     2
100
AcDbLine
 10
-103.048531077561
 20
853.9912841497555
 30
0.0
 11
-103.048531077561
 21
705.4912841497555
 31
0.0
  0
LINE
  5
37E
330
71
100
AcDbEntity
  8
1
  6
Continuous
 62
     6
100
AcDbLine
 10
-83.04853107755997
 20
710.4912841497555
 30
0.0
 11
-83.04853107756097
 21
997.4912841497558
 31
0.0
  0
LINE
  5
37F
330
71
100
AcDbEntity
  8
1
  6
Continuous
 62
     6
100
AcDbLine
 10
311.9514689224397
 20
710.4912841497551
 30
0.0
 11
311.9514689224393
 21
718.991284149755
 31
0.0
  0
LINE
  5
380
330
71
100
AcDbEntity
  8
1
  6
Continuous
 62
     6
100
AcDbLine
 10
38.61813558910663
 20
710.4912841497555
 30
0.0
 11
59.95146892243989
 21
710.4912841497551
 31
0.0
  0
LINE
  5
381
330
71
100
AcDbEntity
  8
1
  6
Continuous
 62
     2
100
AcDbLine
 10
283.3922056072305
 20
725.9410648707228
 30
0.0
 11
283.3922056072306
 21
723.8836689058692
 31
0.0
  0
LINE
  5
382
330
71
100
AcDbEntity
  8
1
  6
Continuous
 62
     7
100
AcDbLine
 10
248.4514689224421
 20
727.491284149755
 30
0.0
 11
248.4514689224421
 21
731.741284149755
 31
0.0
  0
LINE
  5
383
330
71
100
AcDbEntity
  8
1
  6
Continuous
 62
     7
100
AcDbLine
 10
248.4514689224421
 20
731.741284149755
 30
0.0
 11
241.706664395688
 21
731.741284149755
 31
0.0
  0
ARC
  5
384
102
{ACAD_REACTORS
330
42D
330
42E
102
}
330
71
100
AcDbEntity
  8
0
  6
Continuous
 62
     2
100
AcDbCircle
 10
198.285712328713
 20
717.6031889116662
 30
0.0
 40
0.6378510567600058
100
AcDbArc
 50
321.8795802028323
 51
38.12041979715963
  0
ARC
  5
385
102
{ACAD_REACTORS
330
42D
330
42E
102
}
330
71
100
AcDbEntity
  8
0
  6
Continuous
 62
     2
100
AcDbCircle
 10
198.4507867389166
 20
717.4736590123935
 30
0.0
 40
0.4280236140610111
100
AcDbArc
 50
218.1204197971943
 51
321.8795802027893
  0
ARC
  5
386
102
{ACAD_REACTORS
330
42D
330
42E
102
}
330
71
100
AcDbEntity
  8
0
  6
Continuous
 62
     2
100
AcDbCircle
 10
198.6158611491199
 20
717.6031889116662
 30
0.0
 40
0.6378510567598462
100
AcDbArc
 50
141.8795802028341
 51
218.120419797174
  0
ARC
  5
387
102
{ACAD_REACTORS
330
42D
330
42E
102
}
330
71
100
AcDbEntity
  8
0
  6
Continuous
 62
     2
100
AcDbCircle
 10
198.4507867389166
 20
717.7327188109392
 30
0.0
 40
0.4280236140605738
100
AcDbArc
 50
38.12041979716286
 51
141.8795802028536
  0
ARC
  5
388
102
{ACAD_REACTORS
330
425
330
426
102
}
330
71
100
AcDbEntity
  8
0
  6
Continuous
 62
     2
100
AcDbCircle
 10
195.9201965442356
 20
716.4375142295106
 30
0.0
 40
1.840813230556584
100
AcDbArc
 50
58.069091050038
 51
71.55192388186816
  0
ARC
  5
389
102
{ACAD_REACTORS
330
425
330
426
102
}
330
71
100
AcDbEntity
  8
0
  6
Continuous
 62
     2
100
AcDbCircle
 10
196.1365004293255
 20
717.772669431781
 30
0.0
 40
0.4227934381776413
100
AcDbArc
 50
113.3722778881857
 51
151.4785267423007
  0
ARC
  5
38A
102
{ACAD_REACTORS
330
425
330
426
102
}
330
71
100
AcDbEntity
  8
0
  6
Continuous
 62
     2
100
AcDbCircle
 10
196.4483659318713
 20
717.6031889116662
 30
0.0
 40
0.7777353184572496
100
AcDbArc
 50
151.4785267422727
 51
208.5214732577052
  0
ARC
  5
38B
102
{ACAD_REACTORS
330
425
330
426
102
}
330
71
100
AcDbEntity
  8
0
  6
Continuous
 62
     2
100
AcDbCircle
 10
195.7897230937457
 20
720.3409417589854
 30
0.0
 40
4.010410630990197
100
AcDbArc
 50
275.1581447696246
 51
285.9799912583524
  0
ARC
  5
38C
102
{ACAD_REACTORS
330
425
330
426
102
}
330
71
100
AcDbEntity
  8
0
  6
Continuous
 62
     2
100
AcDbCircle
 10
196.0284471389819
 20
717.6964040869015
 30
0.0
 40
1.355119937139993
100
AcDbArc
 50
195.0618917770909
 51
275.1581447696416
  0
ARC
  5
38D
102
{ACAD_REACTORS
330
425
330
426
102
}
330
71
100
AcDbEntity
  8
0
  6
Continuous
 62
     2
100
AcDbCircle
 10
195.682060491492
 20
717.6031889116662
 30
0.0
 40
0.9964100565214067
100
AcDbArc
 50
164.9381082228855
 51
195.0618917771019
  0
ARC
  5
38E
102
{ACAD_REACTORS
330
425
330
426
102
}
330
71
100
AcDbEntity
  8
0
  6
Continuous
 62
     2
100
AcDbCircle
 10
196.0284471389819
 20
717.5099737364307
 30
0.0
 40
1.355119937140984
100
AcDbArc
 50
84.84185523036052
 51
164.9381082228905
  0
ARC
  5
38F
102
{ACAD_REACTORS
330
429
330
42A
102
}
330
71
100
AcDbEntity
  8
0
  6
Continuous
 62
     2
100
AcDbCircle
 10
192.0366998214928
 20
718.4575912210498
 30
0.0
 40
0.2609230769227745
100
AcDbArc
 50
115.3740086783684
 51
180.0
  0
ARC
  5
390
102
{ACAD_REACTORS
330
429
330
42A
102
}
330
71
100
AcDbEntity
  8
0
  6
Continuous
 62
     2
100
AcDbCircle
 10
192.0366998214928
 20
720.2908831218235
 30
0.0
 40
0.2609230769229782
100
AcDbArc
 50
180.0
 51
244.6259913216317
  0
ARC
  5
391
102
{ACAD_REACTORS
330
429
330
42A
102
}
330
71
100
AcDbEntity
  8
0
  6
Continuous
 62
     2
100
AcDbCircle
 10
192.0413412556332
 20
719.384023899458
 30
0.0
 40
1.668232340440728
100
AcDbArc
 50
269.8110329575882
 51
90.18896704241182
  0
ARC
  5
392
102
{ACAD_REACTORS
330
429
330
42A
102
}
330
71
100
AcDbEntity
  8
0
  6
Continuous
 62
     2
100
AcDbCircle
 10
192.0366998214928
 20
717.9767222898969
 30
0.0
 40
0.2609230769229782
100
AcDbArc
 50
180.0
 51
269.8110329574465
  0
ARC
  5
393
102
{ACAD_REACTORS
330
427
330
428
102
}
330
71
100
AcDbEntity
  8
0
  6
Continuous
 62
     2
100
AcDbCircle
 10
209.4445181807742
 20
717.772669431781
 30
0.0
 40
0.4227934381773005
100
AcDbArc
 50
109.3371432194784
 51
151.4785267424119
  0
ARC
  5
394
102
{ACAD_REACTORS
330
427
330
428
102
}
330
71
100
AcDbEntity
  8
0
  6
Continuous
 62
     2
100
AcDbCircle
 10
209.4445181807742
 20
717.4337083915516
 30
0.0
 40
0.4227934381784311
100
AcDbArc
 50
208.5214732576829
 51
246.6277221118468
  0
ARC
  5
395
102
{ACAD_REACTORS
330
427
330
428
102
}
330
71
100
AcDbEntity
  8
0
  6
Continuous
 62
     2
100
AcDbCircle
 10
208.9900782429416
 20
717.6031889116662
 30
0.0
 40
0.9964100565230259
100
AcDbArc
 50
164.9381082229105
 51
195.0618917771021
  0
ARC
  5
396
102
{ACAD_REACTORS
330
427
330
428
102
}
330
71
100
AcDbEntity
  8
0
  6
Continuous
 62
     2
100
AcDbCircle
 10
209.3364648904306
 20
717.5099737364307
 30
0.0
 40
1.355119937140671
100
AcDbArc
 50
90.0
 51
164.938108222899
  0
ARC
  5
397
102
{ACAD_REACTORS
330
42B
330
42C
102
}
330
71
100
AcDbEntity
  8
0
  6
Continuous
 62
     2
100
AcDbCircle
 10
201.5455598551383
 20
720.3793793878433
 30
0.0
 40
1.261904761905612
100
AcDbArc
 50
90.0
 51
270.0
  0
ARC
  5
398
102
{ACAD_REACTORS
330
42F
330
430
102
}
330
71
100
AcDbEntity
  8
0
  6
Continuous
 62
     2
100
AcDbCircle
 10
195.973088164869
 20
720.8016397942852
 30
0.0
 40
0.2916229955960716
100
AcDbArc
 50
270.0
 51
90.0
  0
ARC
  5
399
102
{ACAD_REACTORS
330
429
330
42A
102
}
330
71
100
AcDbEntity
  8
0
  6
Continuous
 62
     2
100
AcDbCircle
 10
189.9081471879955
 20
720.7914721839351
 30
0.0
 40
0.2609230769224951
100
AcDbArc
 50
90.0
 51
180.0
  0
ARC
  5
39A
102
{ACAD_REACTORS
330
429
330
42A
102
}
330
71
100
AcDbEntity
  8
0
  6
Continuous
 62
     2
100
AcDbCircle
 10
191.5597320711232
 20
719.3742371714369
 30
0.0
 40
0.753634316989858
100
AcDbArc
 50
115.1944106485226
 51
244.8055893514885
  0
ARC
  5
39B
102
{ACAD_REACTORS
330
429
330
42A
102
}
330
71
100
AcDbEntity
  8
0
  6
Continuous
 62
     2
100
AcDbCircle
 10
191.1278440979207
 20
718.4561960589884
 30
0.0
 40
0.2609230769228077
100
AcDbArc
 50
0.0
 51
64.80558935144161
  0
ARC
  5
39C
102
{ACAD_REACTORS
330
429
330
42A
102
}
330
71
100
AcDbEntity
  8
0
  6
Continuous
 62
     2
100
AcDbCircle
 10
189.4173251410975
 20
716.6918995343752
 30
0.0
 40
0.3506153846139171
100
AcDbArc
 50
180.0
 51
270.0
  0
ARC
  5
39D
102
{ACAD_REACTORS
330
42B
330
42C
102
}
330
71
100
AcDbEntity
  8
0
  6
Continuous
 62
     2
100
AcDbCircle
 10
201.7242970536219
 20
720.5089092871164
 30
0.0
 40
0.4280236140607304
100
AcDbArc
 50
38.12041979714642
 51
141.8795802028465
  0
ARC
  5
39E
102
{ACAD_REACTORS
330
42B
330
42C
102
}
330
71
100
AcDbEntity
  8
0
  6
Continuous
 62
     2
100
AcDbCircle
 10
201.8893714638254
 20
720.3793793878433
 30
0.0
 40
0.6378510567599356
100
AcDbArc
 50
141.8795802028404
 51
218.1204197971676
  0
ARC
  5
39F
102
{ACAD_REACTORS
330
42D
330
42E
102
}
330
71
100
AcDbEntity
  8
0
  6
Continuous
 62
     2
100
AcDbCircle
 10
198.4507867389166
 20
718.0482922259664
 30
0.0
 40
1.707008076205438
100
AcDbArc
 50
242.451851824339
 51
297.5481481756847
  0
ARC
  5
3A0
102
{ACAD_REACTORS
330
42D
330
42E
102
}
330
71
100
AcDbEntity
  8
0
  6
Continuous
 62
     2
100
AcDbCircle
 10
198.4507867389166
 20
717.1580855973663
 30
0.0
 40
1.707008076205403
100
AcDbArc
 50
62.45185182430821
 51
117.5481481756681
  0
ARC
  5
3A1
102
{ACAD_REACTORS
330
42D
330
42E
102
}
330
71
100
AcDbEntity
  8
0
  6
Continuous
 62
     2
100
AcDbCircle
 10
198.2186050101287
 20
717.6031889116662
 30
0.0
 40
1.20498684599291
100
AcDbArc
 50
117.548148175664
 51
242.4518518243384
  0
ARC
  5
3A2
102
{ACAD_REACTORS
330
42D
330
42E
102
}
330
71
100
AcDbEntity
  8
0
  6
Continuous
 62
     2
100
AcDbCircle
 10
198.6829684677044
 20
717.6031889116662
 30
0.0
 40
1.204986845993431
100
AcDbArc
 50
297.5481481756999
 51
62.45185182429761
  0
ARC
  5
3A3
102
{ACAD_REACTORS
330
42B
330
42C
102
}
330
71
100
AcDbEntity
  8
0
  6
Continuous
 62
     2
100
AcDbCircle
 10
201.7242970536219
 20
720.2498494885701
 30
0.0
 40
0.4280236140606632
100
AcDbArc
 50
218.1204197971535
 51
321.8795802028536
  0
ARC
  5
3A4
102
{ACAD_REACTORS
330
42B
330
42C
102
}
330
71
100
AcDbEntity
  8
0
  6
Continuous
 62
     2
100
AcDbCircle
 10
201.5592226434185
 20
720.3793793878433
 30
0.0
 40
0.6378510567600058
100
AcDbArc
 50
321.8795802028323
 51
38.12041979715963
  0
ARC
  5
3A5
102
{ACAD_REACTORS
330
429
330
42A
102
}
330
71
100
AcDbEntity
  8
0
  6
Continuous
 62
     2
100
AcDbCircle
 10
193.9407235631776
 20
716.6918995343752
 30
0.0
 40
0.3506153846143434
100
AcDbArc
 50
270.0
 51
0.0
  0
ARC
  5
3A6
102
{ACAD_REACTORS
330
429
330
42A
102
}
330
71
100
AcDbEntity
  8
0
  6
Continuous
 62
     2
100
AcDbCircle
 10
193.9407235631776
 20
721.2906687651192
 30
0.0
 40
0.3506153846147981
100
AcDbArc
 50
0.0
 51
90.0
  0
ARC
  5
3A7
102
{ACAD_REACTORS
330
429
330
42A
102
}
330
71
100
AcDbEntity
  8
0
  6
Continuous
 62
     2
100
AcDbCircle
 10
189.4173251410975
 20
721.2906687651192
 30
0.0
 40
0.3506153846146844
100
AcDbArc
 50
90.0
 51
180.0
  0
ARC
  5
3A8
102
{ACAD_REACTORS
330
429
330
42A
102
}
330
71
100
AcDbEntity
  8
0
  6
Continuous
 62
     2
100
AcDbCircle
 10
191.1278440979207
 20
717.1910961155738
 30
0.0
 40
0.2609230769228361
100
AcDbArc
 50
270.0
 51
0.0
  0
ARC
  5
3A9
102
{ACAD_REACTORS
330
429
330
42A
102
}
330
71
100
AcDbEntity
  8
0
  6
Continuous
 62
     2
100
AcDbCircle
 10
191.1278440979207
 20
720.292278283885
 30
0.0
 40
0.2609230769223558
100
AcDbArc
 50
295.1944106485584
 51
0.0
  0
ARC
  5
3AA
102
{ACAD_REACTORS
330
429
330
42A
102
}
330
71
100
AcDbEntity
  8
0
  6
Continuous
 62
     2
100
AcDbCircle
 10
191.1278440979207
 20
720.7914721839351
 30
0.0
 40
0.2609230769228077
100
AcDbArc
 50
0.0
 51
90.0
  0
ARC
  5
3AB
102
{ACAD_REACTORS
330
429
330
42A
102
}
330
71
100
AcDbEntity
  8
0
  6
Continuous
 62
     2
100
AcDbCircle
 10
189.9081471879955
 20
717.1910961155738
 30
0.0
 40
0.2609230769220972
100
AcDbArc
 50
180.0
 51
270.0
  0
ARC
  5
3AC
102
{ACAD_REACTORS
330
42F
330
430
102
}
330
71
100
AcDbEntity
  8
0
  6
Continuous
 62
     2
100
AcDbCircle
 10
196.3379414923388
 20
720.7690811403822
 30
0.0
 40
0.8722030093666717
100
AcDbArc
 50
270.0
 51
90.0
  0
ARC
  5
3AD
102
{ACAD_REACTORS
330
427
330
428
102
}
330
71
100
AcDbEntity
  8
0
  6
Continuous
 62
     2
100
AcDbCircle
 10
209.3364648904306
 20
717.6964040869015
 30
0.0
 40
1.355119937140852
100
AcDbArc
 50
195.061891777101
 51
275.1581447696782
  0
ARC
  5
3AE
102
{ACAD_REACTORS
330
427
330
428
102
}
330
71
100
AcDbEntity
  8
0
  6
Continuous
 62
     2
100
AcDbCircle
 10
209.0977408451944
 20
720.3409417589854
 30
0.0
 40
4.010410630990729
100
AcDbArc
 50
275.1581447696365
 51
285.979991258338
  0
ARC
  5
3AF
102
{ACAD_REACTORS
330
427
330
428
102
}
330
71
100
AcDbEntity
  8
0
  6
Continuous
 62
     2
100
AcDbCircle
 10
209.2282142956843
 20
718.7688635938216
 30
0.0
 40
1.840813230556049
100
AcDbArc
 50
288.4480761181319
 51
301.9309089499387
  0
ARC
  5
3B0
102
{ACAD_REACTORS
330
427
330
428
102
}
330
71
100
AcDbEntity
  8
0
  6
Continuous
 62
     2
100
AcDbCircle
 10
209.5738074639999
 20
717.7328753491632
 30
0.0
 40
0.7487023016407311
100
AcDbArc
 50
246.6277221118208
 51
288.4480761180789
  0
ARC
  5
3B1
102
{ACAD_REACTORS
330
427
330
428
102
}
330
71
100
AcDbEntity
  8
0
  6
Continuous
 62
     2
100
AcDbCircle
 10
209.7563836833209
 20
717.6031889116662
 30
0.0
 40
0.7777353184586058
100
AcDbArc
 50
151.4785267423652
 51
208.5214732576716
  0
ARC
  5
3B2
102
{ACAD_REACTORS
330
427
330
428
102
}
330
71
100
AcDbEntity
  8
0
  6
Continuous
 62
     2
100
AcDbCircle
 10
209.5657330552401
 20
717.4272520926215
 30
0.0
 40
0.7888619891125472
100
AcDbArc
 50
90.0
 51
109.3371432194291
  0
ARC
  5
3B3
102
{ACAD_REACTORS
330
429
330
42A
102
}
330
71
100
AcDbEntity
  8
0
  6
Continuous
 62
     2
100
AcDbCircle
 10
192.0366998214928
 20
720.7913255090192
 30
0.0
 40
0.2609230769224678
100
AcDbArc
 50
90.18896704255349
 51
180.0
  0
ARC
  5
3B4
102
{ACAD_REACTORS
330
429
330
42A
102
}
330
71
100
AcDbEntity
  8
0
  6
Continuous
 62
     2
100
AcDbCircle
 10
191.6019537900151
 20
719.3742371714369
 30
0.0
 40
0.7535935125160714
100
AcDbArc
 50
295.3740086781789
 51
64.6259913218062
  0
ARC
  5
3B5
102
{ACAD_REACTORS
330
425
330
426
102
}
330
71
100
AcDbEntity
  8
0
  6
Continuous
 62
     2
100
AcDbCircle
 10
195.9201965442356
 20
718.7688635938221
 30
0.0
 40
1.840813230556049
100
AcDbArc
 50
288.4480761181319
 51
301.930908949962
  0
ARC
  5
3B6
102
{ACAD_REACTORS
330
425
330
426
102
}
330
71
100
AcDbEntity
  8
0
  6
Continuous
 62
     2
100
AcDbCircle
 10
196.2657897125504
 20
717.7328753491632
 30
0.0
 40
0.7487023016404492
100
AcDbArc
 50
246.6277221118707
 51
288.4480761181498
  0
ARC
  5
3B7
102
{ACAD_REACTORS
330
425
330
426
102
}
330
71
100
AcDbEntity
  8
0
  6
Continuous
 62
     2
100
AcDbCircle
 10
196.1365004293255
 20
717.4337083915516
 30
0.0
 40
0.4227934381774399
100
AcDbArc
 50
208.5214732576858
 51
246.6277221118326
  0
ARC
  5
3B8
102
{ACAD_REACTORS
330
425
330
426
102
}
330
71
100
AcDbEntity
  8
0
  6
Continuous
 62
     2
100
AcDbCircle
 10
196.2657897125504
 20
717.473502474169
 30
0.0
 40
0.7487023016407734
100
AcDbArc
 50
71.55192388186123
 51
113.3722778881292
  0
ARC
  5
3B9
102
{ACAD_REACTORS
330
425
330
426
102
}
330
71
100
AcDbEntity
  8
0
  6
Continuous
 62
     2
100
AcDbCircle
 10
195.7897230937457
 20
714.8654360643473
 30
0.0
 40
4.010410630989981
100
AcDbArc
 50
74.0200087416472
 51
84.84185523037543
  0
CIRCLE
  5
3BA
102
{ACAD_REACTORS
330
429
330
42A
102
}
330
71
100
AcDbEntity
  8
0
  6
Continuous
 62
     2
100
AcDbCircle
 10
191.5822719597071
 20
719.3742371714369
 30
0.0
 40
0.3892387874201972
  0
CIRCLE
  5
3BB
330
71
100
AcDbEntity
  8
1
  6
Continuous
 62
     2
100
AcDbCircle
 10
187.4989242207914
 20
725.366284149755
 30
0.0
 40
1.0
  0
CIRCLE
  5
3BC
330
71
100
AcDbEntity
  8
1
  6
Continuous
 62
     2
100
AcDbCircle
 10
187.4989242207914
 20
725.366284149755
 30
0.0
 40
1.5
  0
MTEXT
  5
3BE
330
71
100
AcDbEntity
  8
1
 62
     2
100
AcDbMText
 10
80.65146892243789
 20
716.8662841497551
 30
0.0
 40
2.0
 41
0.0
 71
     4
 72
     1
  1
 
  7
CONVERTER_12
 73
     1
 44
1.20048019207683
  0
MTEXT
  5
3BF
330
71
100
AcDbEntity
  8
1
 62
     2
100
AcDbMText
 10
80.65146892243789
 20
721.116284149755
 30
0.0
 40
2.0
 41
0.0
 71
     4
 72
     1
  1
 
  7
CONVERTER_12
 73
     1
 44
1.20048019207683
  0
MTEXT
  5
3C0
330
71
100
AcDbEntity
  8
1
 62
     2
100
AcDbMText
 10
80.65146892243789
 20
725.366284149755
 30
0.0
 40
2.0
 41
0.0
 71
     4
 72
     1
  1
 
  7
CONVERTER_12
 73
     1
 44
1.20048019207683
  0
MTEXT
  5
3C1
330
71
100
AcDbEntity
  8
1
 62
     2
100
AcDbMText
 10
80.65146892243789
 20
729.616284149755
 30
0.0
 40
2.0
 41
0.0
 71
     4
 72
     1
  1
 
  7
CONVERTER_12
 73
     1
 44
1.20048019207683
  0
MTEXT
  5
3C2
330
71
100
AcDbEntity
  8
1
 62
     2
100
AcDbMText
 10
80.65146892243789
 20
733.866284149755
 30
0.0
 40
2.0
 41
0.0
 71
     4
 72
     1
  1
 
  7
CONVERTER_12
 73
     1
 44
1.20048019207683
  0
MTEXT
  5
3C3
330
71
100
AcDbEntity
  8
1
 62
     2
100
AcDbMText
 10
80.65146892243789
 20
738.116284149755
 30
0.0
 40
2.0
 41
0.0
 71
     4
 72
     1
  1
 
  7
CONVERTER_12
 73
     1
 44
1.20048019207683
  0
MTEXT
  5
3C4
330
71
100
AcDbEntity
  8
1
 62
     2
100
AcDbMText
 10
175.656664395688
 20
716.8662841497551
 30
0.0
 40
2.0
 41
0.0
 71
     5
 72
     1
  1
 
  7
CONVERTER_11
 73
     1
 44
1.20048019207683
  0
MTEXT
  5
3C5
330
71
100
AcDbEntity
  8
1
 62
     2
100
AcDbMText
 10
175.656664395688
 20
721.116284149755
 30
0.0
 40
2.0
 41
0.0
 71
     5
 72
     1
  1
 
  7
CONVERTER_11
 73
     1
 44
1.20048019207683
  0
MTEXT
  5
3C6
330
71
100
AcDbEntity
  8
1
 62
     2
100
AcDbMText
 10
175.656664395688
 20
725.366284149755
 30
0.0
 40
2.0
 41
0.0
 71
     5
 72
     1
  1
 
  7
CONVERTER_11
 73
     1
 44
1.20048019207683
  0
MTEXT
  5
3C7
330
71
100
AcDbEntity
  8
1
 62
     2
100
AcDbMText
 10
175.656664395688
 20
729.616284149755
 30
0.0
 40
2.0
 41
0.0
 71
     5
 72
     1
  1
 
  7
CONVERTER_11
 73
     1
 44
1.20048019207683
  0
MTEXT
  5
3C8
330
71
100
AcDbEntity
  8
1
 62
     2
100
AcDbMText
 10
175.656664395688
 20
733.866284149755
 30
0.0
 40
2.0
 41
0.0
 71
     5
 72
     1
  1
 
  7
CONVERTER_11
 73
     1
 44
1.20048019207683
  0
MTEXT
  5
3C9
330
71
100
AcDbEntity
  8
1
 62
     2
100
AcDbMText
 10
175.656664395688
 20
738.116284149755
 30
0.0
 40
2.0
 41
0.0
 71
     5
 72
     1
  1
 
  7
CONVERTER_11
 73
     1
 44
1.20048019207683
  0
MTEXT
  5
3CA
330
71
100
AcDbEntity
  8
1
 62
     2
100
AcDbMText
 10
162.156664395688
 20
716.8662841497551
 30
0.0
 40
2.0
 41
0.0
 71
     5
 72
     1
  1
 
  7
CONVERTER_11
 73
     1
 44
1.20048019207683
  0
MTEXT
  5
3CB
330
71
100
AcDbEntity
  8
1
 62
     2
100
AcDbMText
 10
162.1566643956881
 20
721.116284149755
 30
0.0
 40
2.0
 41
0.0
 71
     5
 72
     1
  1
 
  7
CONVERTER_11
 73
     1
 44
1.20048019207683
  0
MTEXT
  5
3CC
330
71
100
AcDbEntity
  8
1
 62
     2
100
AcDbMText
 10
162.1566643956881
 20
725.366284149755
 30
0.0
 40
2.0
 41
0.0
 71
     5
 72
     1
  1
 
  7
CONVERTER_11
 73
     1
 44
1.20048019207683
  0
MTEXT
  5
3CD
330
71
100
AcDbEntity
  8
1
 62
     2
100
AcDbMText
 10
162.1566643956881
 20
729.616284149755
 30
0.0
 40
2.0
 41
0.0
 71
     5
 72
     1
  1
 
  7
CONVERTER_11
 73
     1
 44
1.20048019207683
  0
MTEXT
  5
3CE
330
71
100
AcDbEntity
  8
1
 62
     2
100
AcDbMText
 10
162.1566643956881
 20
733.866284149755
 30
0.0
 40
2.0
 41
0.0
 71
     5
 72
     1
  1
 
  7
CONVERTER_11
 73
     1
 44
1.20048019207683
  0
MTEXT
  5
3CF
330
71
100
AcDbEntity
  8
1
 62
     2
100
AcDbMText
 10
162.1566643956881
 20
738.116284149755
 30
0.0
 40
2.0
 41
0.0
 71
     5
 72
     1
  1
 
  7
CONVERTER_11
 73
     1
 44
1.20048019207683
  0
MTEXT
  5
3D0
330
71
100
AcDbEntity
  8
1
 62
     2
100
AcDbMText
 10
148.6566643956881
 20
738.116284149755
 30
0.0
 40
2.0
 41
0.0
 71
     5
 72
     1
  1
 
  7
CONVERTER_11
 73
     1
 44
1.20048019207683
  0
MTEXT
  5
3D1
330
71
100
AcDbEntity
  8
1
 62
     2
100
AcDbMText
 10
148.6566643956881
 20
733.866284149755
 30
0.0
 40
2.0
 41
0.0
 71
     5
 72
     1
  1
 
  7
CONVERTER_11
 73
     1
 44
1.20048019207683
  0
MTEXT
  5
3D2
330
71
100
AcDbEntity
  8
1
 62
     2
100
AcDbMText
 10
148.6566643956881
 20
729.616284149755
 30
0.0
 40
2.0
 41
0.0
 71
     5
 72
     1
  1
 
  7
CONVERTER_11
 73
     1
 44
1.20048019207683
  0
MTEXT
  5
3D3
330
71
100
AcDbEntity
  8
1
 62
     2
100
AcDbMText
 10
148.6566643956881
 20
725.366284149755
 30
0.0
 40
2.0
 41
0.0
 71
     5
 72
     1
  1
 
  7
CONVERTER_11
 73
     1
 44
1.20048019207683
  0
MTEXT
  5
3D4
330
71
100
AcDbEntity
  8
1
 62
     2
100
AcDbMText
 10
148.6566643956881
 20
721.116284149755
 30
0.0
 40
2.0
 41
0.0
 71
     5
 72
     1
  1
 
  7
CONVERTER_11
 73
     1
 44
1.20048019207683
  0
MTEXT
  5
3D5
330
71
100
AcDbEntity
  8
1
 62
     2
100
AcDbMText
 10
148.6566643956881
 20
716.8662841497551
 30
0.0
 40
2.0
 41
0.0
 71
     5
 72
     1
  1
 
  7
CONVERTER_11
 73
     1
 44
1.20048019207683
  0
MTEXT
  5
3D6
330
71
100
AcDbEntity
  8
1
 62
     2
100
AcDbMText
 10
72.90146892243789
 20
738.116284149755
 30
0.0
 40
2.0
 41
0.0
 71
     5
 72
     1
  1
 
  7
CONVERTER_11
 73
     1
 44
1.20048019207683
  0
MTEXT
  5
3D7
330
71
100
AcDbEntity
  8
1
 62
     2
100
AcDbMText
 10
72.90146892243789
 20
733.866284149755
 30
0.0
 40
2.0
 41
0.0
 71
     5
 72
     1
  1
 
  7
CONVERTER_11
 73
     1
 44
1.20048019207683
  0
MTEXT
  5
3D8
330
71
100
AcDbEntity
  8
1
 62
     2
100
AcDbMText
 10
72.90146892243789
 20
729.616284149755
 30
0.0
 40
2.0
 41
0.0
 71
     5
 72
     1
  1
 
  7
CONVERTER_11
 73
     1
 44
1.20048019207683
  0
MTEXT
  5
3D9
330
71
100
AcDbEntity
  8
1
 62
     2
100
AcDbMText
 10
72.90146892243789
 20
725.366284149755
 30
0.0
 40
2.0
 41
0.0
 71
     5
 72
     1
  1
 
  7
CONVERTER_11
 73
     1
 44
1.20048019207683
  0
MTEXT
  5
3DA
330
71
100
AcDbEntity
  8
1
 62
     2
100
AcDbMText
 10
72.90146892243789
 20
721.116284149755
 30
0.0
 40
2.0
 41
0.0
 71
     5
 72
     1
  1
 
  7
CONVERTER_11
 73
     1
 44
1.20048019207683
  0
MTEXT
  5
3DB
330
71
100
AcDbEntity
  8
1
 62
     2
100
AcDbMText
 10
72.90146892243789
 20
716.8662841497551
 30
0.0
 40
2.0
 41
0.0
 71
     5
 72
     1
  1
 
  7
CONVERTER_11
 73
     1
 44
1.20048019207683
  0
MTEXT
  5
3DC
330
71
100
AcDbEntity
  8
1
 62
     2
100
AcDbMText
 10
63.05146892243889
 20
716.8662841497551
 30
0.0
 40
2.0
 41
0.0
 71
     5
 72
     1
  1
 
  7
CONVERTER_11
 73
     1
 44
1.20048019207683
  0
MTEXT
  5
3DD
330
71
100
AcDbEntity
  8
1
 62
     2
100
AcDbMText
 10
63.05146892243889
 20
721.116284149755
 30
0.0
 40
2.0
 41
0.0
 71
     5
 72
     1
  1
 
  7
CONVERTER_11
 73
     1
 44
1.20048019207683
  0
MTEXT
  5
3DE
330
71
100
AcDbEntity
  8
1
 62
     2
100
AcDbMText
 10
63.05146892243889
 20
725.366284149755
 30
0.0
 40
2.0
 41
0.0
 71
     5
 72
     1
  1
 
  7
CONVERTER_11
 73
     1
 44
1.20048019207683
  0
MTEXT
  5
3DF
330
71
100
AcDbEntity
  8
1
 62
     2
100
AcDbMText
 10
63.05146892243889
 20
729.616284149755
 30
0.0
 40
2.0
 41
0.0
 71
     5
 72
     1
  1
 
  7
CONVERTER_11
 73
     1
 44
1.20048019207683
  0
MTEXT
  5
3E0
330
71
100
AcDbEntity
  8
1
 62
     2
100
AcDbMText
 10
63.05146892243889
 20
733.866284149755
 30
0.0
 40
2.0
 41
0.0
 71
     5
 72
     1
  1
 
  7
CONVERTER_11
 73
     1
 44
1.20048019207683
  0
MTEXT
  5
3E1
330
71
100
AcDbEntity
  8
1
 62
     2
100
AcDbMText
 10
63.05146892243889
 20
738.116284149755
 30
0.0
 40
2.0
 41
0.0
 71
     5
 72
     1
  1
 
  7
CONVERTER_11
 73
     1
 44
1.20048019207683
  0
MTEXT
  5
3E2
330
71
100
AcDbEntity
  8
1
 62
     2
100
AcDbMText
 10
267.9514689224417
 20
726.491284149755
 30
0.0
 40
1.8
 41
0.0
 71
     1
 72
     1
  1
surface in um
  7
CONVERTER_11
 73
     1
 44
1.32052821128451
  0
MTEXT
  5
3E3
330
71
100
AcDbEntity
  8
1
 62
     2
100
AcDbMText
 10
295.3698772041188
 20
739.241284149755
 30
0.0
 40
1.8
 41
0.0
 71
     1
 72
     1
  1
dim.var.
  7
CONVERTER_11
 73
     1
 44
1.20048019207683
  0
MTEXT
  5
3E5
330
71
100
AcDbEntity
  8
1
 62
     2
100
AcDbMText
 10
249.4514689224421
 20
726.491284149755
 30
0.0
 40
1.8
 41
0.0
 71
     1
 72
     1
  1
document-No.
  7
CONVERTER_13
 73
     1
 44
1.32052821128451
  0
TEXT
  5
3E6
330
71
100
AcDbEntity
  8
1
 62
     2
100
AcDbText
 10
201.606664395688
 20
711.7322669347634
 30
0.0
 40
1.8
  1
of
 41
0.9
  7
CONVERTER_11
100
AcDbText
  0
TEXT
  5
3E7
330
71
100
AcDbEntity
  8
1
 62
     2
100
AcDbText
 10
183.4066643956881
 20
711.7322669347633
 30
0.0
 40
1.8
  1
page
 41
0.9
  7
CONVERTER_11
100
AcDbText
  0
MTEXT
  5
3E8
330
71
100
AcDbEntity
  8
1
 62
     2
100
AcDbMText
 10
175.656664395688
 20
711.741284149755
 30
0.0
 40
1.8
 41
0.0
 71
     8
 72
     1
  1
name
  7
CONVERTER_11
 73
     1
 44
1.32052821128451
  0
MTEXT
  5
3E9
330
71
100
AcDbEntity
  8
1
 62
     2
100
AcDbMText
 10
162.1566643956881
 20
711.741284149755
 30
0.0
 40
1.8
 41
0.0
 71
     8
 72
     1
  1
check.on
  7
CONVERTER_11
 73
     1
 44
1.32052821128451
  0
MTEXT
  5
3EA
330
71
100
AcDbEntity
  8
1
 62
     2
100
AcDbMText
 10
148.6566643956881
 20
711.741284149755
 30
0.0
 40
1.8
 41
0.0
 71
     8
 72
     1
  1
name
  7
CONVERTER_11
 73
     1
 44
1.32052821128451
  0
MTEXT
  5
3EB
330
71
100
AcDbEntity
  8
1
 62
     2
100
AcDbMText
 10
72.90146892243789
 20
711.741284149755
 30
0.0
 40
1.8
 41
0.0
 71
     8
 72
     1
  1
date
  7
CONVERTER_11
 73
     1
 44
1.32052821128451
  0
MTEXT
  5
3EC
330
71
100
AcDbEntity
  8
1
 62
     2
100
AcDbMText
 10
242.9318535532795
 20
739.2412841497547
 30
0.0
 40
1.8
 41
0.0
 71
     1
 72
     1
  1
material
  7
CONVERTER_11
 73
     1
 44
1.20048019207683
  0
MTEXT
  5
3ED
330
71
100
AcDbEntity
  8
1
 62
     2
100
AcDbMText
 10
63.05146892243889
 20
711.741284149755
 30
0.0
 40
1.8
 41
0.0
 71
     8
 72
     1
  1
RI
  7
CONVERTER_11
 73
     1
 44
1.32052821128451
  0
MTEXT
  5
3EE
330
71
100
AcDbEntity
  8
1
 62
     2
100
AcDbMText
 10
198.556664395688
 20
737.191284149755
 30
0.0
 40
1.8
 41
0.0
 71
     8
 72
     1
  1
date
  7
CONVERTER_11
 73
     1
 44
1.32052821128451
  0
MTEXT
  5
3EF
330
71
100
AcDbEntity
  8
1
 62
     2
100
AcDbMText
 10
212.056664395688
 20
737.191284149755
 30
0.0
 40
1.8
 41
0.0
 71
     8
 72
     1
  1
name
  7
CONVERTER_11
 73
     1
 44
1.32052821128451
  0
MTEXT
  5
3F0
330
71
100
AcDbEntity
  8
1
 62
     2
100
AcDbMText
 10
110.779066659063
 20
711.741284149755
 30
0.0
 40
1.8
 41
0.0
 71
     8
 72
     1
  1
revision
  7
CONVERTER_11
 73
     1
 44
1.32052821128451
  0
MTEXT
  5
3F1
330
71
100
AcDbEntity
  8
1
 62
     2
100
AcDbMText
 10
286.2514689224399
 20
739.241284149755
 30
0.0
 40
1.8
 41
0.0
 71
     1
 72
     1
  1
scale
  7
CONVERTER_11
 73
     1
 44
1.20048019207683
  0
MTEXT
  5
3F2
330
71
100
AcDbEntity
  8
1
 62
     2
100
AcDbMText
 10
187.1066643956881
 20
733.866284149755
 30
0.0
 40
1.8
 41
0.0
 71
     5
 72
     1
  1
creat.
  7
CONVERTER_11
 73
     1
 44
1.20048019207683
  0
MTEXT
  5
3F3
330
71
100
AcDbEntity
  8
1
 62
     2
100
AcDbMText
 10
187.1066643956881
 20
729.616284149755
 30
0.0
 40
1.8
 41
0.0
 71
     5
 72
     1
  1
check.
  7
CONVERTER_11
 73
     1
 44
1.20048019207683
  0
MTEXT
  5
3F4
330
71
100
AcDbEntity
  8
1
 62
     3
100
AcDbMText
 10
208.606664395688
 20
725.3662841497551
 30
0.0
 40
2.5
 41
0.0
 71
     5
 72
     1
  1
DIN A3
  7
CONVERTER_11
 73
     1
 44
1.20048019207683
  0
MTEXT
  5
3F5
330
71
100
AcDbEntity
  8
1
 62
     2
100
AcDbMText
 10
219.906664395688
 20
739.241284149755
 30
0.0
 40
1.8
 41
0.0
 71
     1
 72
     1
  1
ident.-No. / RI
  7
CONVERTER_11
 73
     1
 44
1.20048019207683
  0
TEXT
  5
3F6
330
71
100
AcDbEntity
  8
1
 62
     2
100
AcDbText
 10
192.0529293660302
 20
711.6920354959531
 30
0.0
 40
1.8
  1
1
 41
0.9
  7
CONVERTER_11
100
AcDbText
  0
TEXT
  5
3F7
330
71
100
AcDbEntity
  8
1
 62
     2
100
AcDbText
 10
206.8419732055017
 20
711.741284149755
 30
0.0
 40
1.8
  1
1
 41
0.9
  7
CONVERTER_11
100
AcDbText
  0
MTEXT
  5
3F8
330
71
100
AcDbEntity
  8
1
 62
     2
100
AcDbMText
 10
219.806664395688
 20
717.991284149755
 30
0.0
 40
1.8
 41
0.0
 71
     1
 72
     1
  1
description
  7
CONVERTER_11
 73
     1
 44
1.20048019207683
  0
MTEXT
  5
3F9
330
71
100
AcDbEntity
  8
1
 62
     2
100
AcDbMText
 10
187.1066643956881
 20
737.191284149755
 30
0.0
 40
1.8
 41
0.0
 71
     8
 72
     1
  1
00
  7
CONVERTER_11
 73
     1
 44
1.20048019207683
  0
MTEXT
  5
3FA
330
71
100
AcDbEntity
  8
1
 62
     2
100
AcDbMText
 10
219.806664395688
 20
726.491284149755
 30
0.0
 40
1.8
 41
0.0
 71
     1
 72
     1
  1
document-type
  7
CONVERTER_11
 73
     1
 44
1.20048019207683
  0
MTEXT
  5
3FB
330
71
100
AcDbEntity
  8
1
 62
     2
100
AcDbMText
 10
212.056664395688
 20
729.616284149755
 30
0.0
 40
1.8
 41
0.0
 71
     5
 72
     1
  1
pbam06
  7
CONVERTER_11
 73
     1
 44
1.32052821128451
  0
MTEXT
  5
3FC
330
71
100
AcDbEntity
  8
1
 62
     2
100
AcDbMText
 10
212.056664395688
 20
733.866284149755
 30
0.0
 40
1.8
 41
0.0
 71
     5
 72
     1
  1
pbsc11
  7
CONVERTER_11
 73
     1
 44
1.32052821128451
  0
MTEXT
  5
3FD
330
71
100
AcDbEntity
  8
1
 62
     2
100
AcDbMText
 10
198.556664395688
 20
729.616284149755
 30
0.0
 40
1.8
 41
0.0
 71
     5
 72
     1
  1
29.06.15
  7
CONVERTER_11
 73
     1
 44
1.32052821128451
  0
MTEXT
  5
3FE
330
71
100
AcDbEntity
  8
1
 62
     2
100
AcDbMText
 10
198.556664395688
 20
733.866284149755
 30
0.0
 40
1.8
 41
0.0
 71
     5
 72
     1
  1
13.09.13
  7
CONVERTER_11
 73
     1
 44
1.32052821128451
  0
TEXT
  5
3FF
330
71
100
AcDbEntity
  8
1
 62
     7
100
AcDbText
 10
234.7802121177018
 20
733.0412841497549
 30
0.0
 40
2.5
  1
/
 41
0.9
  7
CONVERTER_11
100
AcDbText
  0
MTEXT
  5
401
330
71
100
AcDbEntity
  8
1
 62
     3
100
AcDbMText
 10
289.6106730632795
 20
733.041284149755
 30
0.0
 40
2.5
 41
0.0
 71
     8
 72
     1
  1
1:1
  7
CONVERTER_14
 73
     1
 44
1.32052821128451
  0
TEXT
  5
403
330
71
100
AcDbEntity
  8
1
 62
     3
100
AcDbText
 10
242.706664395688
 20
733.0412841497549
 30
0.0
 40
2.5
  1
 
 41
0.54
  7
CONVERTER_15
100
AcDbText
  0
TEXT
  5
405
330
71
100
AcDbEntity
  8
1
 62
     7
100
AcDbText
 10
220.3066643956878
 20
733.0412841497549
 30
0.0
 40
2.5
  1
3240255
 41
0.81
  7
CONVERTER_16
100
AcDbText
  0
TEXT
  5
406
330
71
100
AcDbEntity
  8
1
 62
     7
100
AcDbText
 10
249.4514689224421
 20
720.2912841497549
 30
0.0
 40
2.5
  1
00747283
 41
0.81
  7
CONVERTER_16
100
AcDbText
  0
TEXT
  5
407
330
71
100
AcDbEntity
  8
1
 62
     3
100
AcDbText
 10
295.0698772041189
 20
733.0412841497549
 30
0.0
 40
2.5
  1
 
 41
0.54
  7
CONVERTER_15
100
AcDbText
  0
TEXT
  5
408
330
71
100
AcDbEntity
  8
1
 62
     7
100
AcDbText
 10
236.9365766147438
 20
733.0412841497549
 30
0.0
 40
2.5
  1
00
 41
0.81
  7
CONVERTER_16
100
AcDbText
  0
TEXT
  5
409
330
71
100
AcDbEntity
  8
1
 62
     7
100
AcDbText
 10
276.6181355891064
 20
706.4912841497555
 30
0.0
 40
2.5
  1
6
 41
0.9
  7
CONVERTER_11
100
AcDbText
  0
TEXT
  5
40A
330
71
100
AcDbEntity
  8
1
 62
     7
100
AcDbText
 10
208.284802255773
 20
706.4912841497555
 30
0.0
 40
2.5
  1
5
 41
0.9
  7
CONVERTER_11
100
AcDbText
  0
TEXT
  5
40B
330
71
100
AcDbEntity
  8
1
 62
     7
100
AcDbText
 10
139.9514689224398
 20
706.4912841497555
 30
0.0
 40
2.5
  1
4
 41
0.9
  7
CONVERTER_11
100
AcDbText
  0
TEXT
  5
40C
330
71
100
AcDbEntity
  8
1
 62
     7
100
AcDbText
 10
71.61813558910663
 20
706.4912841497555
 30
0.0
 40
2.5
  1
3
 41
0.9
  7
CONVERTER_11
100
AcDbText
  0
TEXT
  5
40D
330
71
100
AcDbEntity
  8
1
 62
     7
100
AcDbText
 10
312.9514689224397
 20
737.9912841497555
 30
0.0
 40
2.5
  1
E
 41
0.9
  7
CONVERTER_11
100
AcDbText
  0
TEXT
  5
40E
330
71
100
AcDbEntity
  8
1
 62
     7
100
AcDbText
 10
-65.04853107755997
 20
706.4912841497555
 30
0.0
 40
2.5
  1
1
 41
0.9
  7
CONVERTER_11
100
AcDbText
  0
TEXT
  5
40F
330
71
100
AcDbEntity
  8
1
 62
     7
100
AcDbText
 10
3.2848022557732
 20
706.4912841497555
 30
0.0
 40
2.5
  1
2
 41
0.9
  7
CONVERTER_11
100
AcDbText
  0
TEXT
  5
410
330
71
100
AcDbEntity
  8
1
 62
     7
100
AcDbText
 10
312.9514689224397
 20
795.3912841497556
 30
0.0
 40
2.5
  1
D
 41
0.9
  7
CONVERTER_11
100
AcDbText
  0
TEXT
  5
411
330
71
100
AcDbEntity
  8
1
 62
     7
100
AcDbText
 10
312.9514689224397
 20
852.7912841497557
 30
0.0
 40
2.5
  1
C
 41
0.9
  7
CONVERTER_11
100
AcDbText
  0
TEXT
  5
412
330
71
100
AcDbEntity
  8
1
 62
     7
100
AcDbText
 10
312.9514689224397
 20
910.1912841497556
 30
0.0
 40
2.5
  1
B
 41
0.9
  7
CONVERTER_11
100
AcDbText
  0
TEXT
  5
413
330
71
100
AcDbEntity
  8
1
 62
     7
100
AcDbText
 10
312.9514689224397
 20
967.5912841497554
 30
0.0
 40
2.5
  1
A
 41
0.9
  7
CONVERTER_11
100
AcDbText
  0
TEXT
  5
414
330
71
100
AcDbEntity
  8
1
 62
     7
100
AcDbText
 10
276.6181355891064
 20
998.4912841497558
 30
0.0
 40
2.5
  1
6
 41
0.9
  7
CONVERTER_11
100
AcDbText
  0
TEXT
  5
415
330
71
100
AcDbEntity
  8
1
 62
     7
100
AcDbText
 10
208.2848022557732
 20
998.4912841497558
 30
0.0
 40
2.5
  1
5
 41
0.9
  7
CONVERTER_11
100
AcDbText
  0
TEXT
  5
416
330
71
100
AcDbEntity
  8
1
 62
     7
100
AcDbText
 10
139.9514689224398
 20
998.4912841497558
 30
0.0
 40
2.5
  1
4
 41
0.9
  7
CONVERTER_11
100
AcDbText
  0
TEXT
  5
417
330
71
100
AcDbEntity
  8
1
 62
     7
100
AcDbText
 10
71.61813558910663
 20
998.4912841497558
 30
0.0
 40
2.5
  1
3
 41
0.9
  7
CONVERTER_11
100
AcDbText
  0
TEXT
  5
418
330
71
100
AcDbEntity
  8
1
 62
     7
100
AcDbText
 10
3.2848022557732
 20
998.4912841497558
 30
0.0
 40
2.5
  1
2
 41
0.9
  7
CONVERTER_11
100
AcDbText
  0
TEXT
  5
419
330
71
100
AcDbEntity
  8
1
 62
     7
100
AcDbText
 10
-65.04853107755997
 20
998.4912841497558
 30
0.0
 40
2.5
  1
1
 41
0.9
  7
CONVERTER_11
100
AcDbText
  0
MTEXT
  5
41A
330
71
100
AcDbEntity
  8
1
 62
     3
100
AcDbMText
 10
-84.62585776620696
 20
710.5181982492561
 30
0.0
 40
1.8
 41
0.0
 71
     7
 72
     1
  3
Weitergabe sowie Vervielf\U+00e4ltigung dieses Dokuments, Verwertung und\PMitteilung seines Inhalts gem\U+00e4\U+00df \U+00a718 UWG verboten, soweit nicht aus-\Pdr\U+00fccklich gestattet. Zuwiderhandlungen verpflichten zu Schadenersatz\P(\U+00a719 U
  1
WG). Alle Rechte vorbehalten, insbesondere das Recht, Patent-,\PGebrauchsmuster- oder Geschmacksmusteranmeldungen durchzuf\U+00fchren.\PPhoenix Contact GmbH & Co. KG
  7
CONVERTER_11
 11
6.123233764940082E-17
 21
1.0
 31
0.0
 73
     1
 44
0.99639855942377
  0
MTEXT
  5
41B
330
71
100
AcDbEntity
  8
1
 62
     3
100
AcDbMText
 10
-84.78006407730098
 20
883.4775682634092
 30
0.0
 40
1.8
 41
0.0
 71
     7
 72
     1
  3
The copying, distribution and utilistion of this document as well as the communication\Pof the contents to others without expressed authorization is prohibited according to\P\U+00a718 UWG German Law. Offenders will be held liable for the payment of 
  1
damages\Paccording to (\U+00a719 UWG German Law). All rights reserved, in particular the right to\Pcarry out patent, utility model or ornamental design registrations.\PFlachsmarktstra\U+00dfe 8  D-32825 Blomberg
  7
CONVERTER_11
 11
6.123233764940082E-17
 21
1.0
 31
0.0
 73
     1
 44
0.99639855942377
  0
TEXT
  5
41D
330
71
100
AcDbEntity
  8
1
 62
     3
100
AcDbText
 10
219.806664395688
 20
720.2912841497549
 30
0.0
 40
2.5
  1
KUNDENZCHNG-SELECT
 41
0.45
  7
CONVERTER_17
100
AcDbText
  0
MTEXT
  5
41E
330
71
100
AcDbEntity
  8
1
 62
     3
100
AcDbMText
 10
259.6584888090484
 20
730.841284149755
 30
0.0
 40
2.0
 41
0.0
 71
     1
 72
     1
  1
 
  7
CONVERTER_14
 73
     1
 44
1.20048019207683
  0
MTEXT
  5
420
330
71
100
AcDbEntity
  8
1
 62
     3
100
AcDbMText
 10
229.1389012138029
 20
729.616284149755
 30
0.0
 40
2.5
 41
0.0
 71
     4
 72
     1
  1
N03-08036/01
  7
CONVERTER_18
 73
     1
 44
1.20048019207683
  0
MTEXT
  5
421
330
71
100
AcDbEntity
  8
1
 62
     2
100
AcDbMText
 10
219.906664395688
 20
729.8162841497549
 30
0.0
 40
1.4
 41
0.0
 71
     4
 72
     1
  1
SAP\Pchange-No.
  7
CONVERTER_18
 73
     1
 44
0.66026410564226
  0
MTEXT
  5
422
330
71
100
AcDbEntity
  8
1
 62
     2
100
AcDbMText
 10
249.4514689224404
 20
730.741284149755
 30
0.0
 40
1.8
 41
0.0
 71
     1
 72
     1
  1
part-rev.
  7
CONVERTER_14
 73
     1
 44
1.20048019207683
  0
TEXT
  5
423
330
71
100
AcDbEntity
  8
1
 62
     3
100
AcDbText
 10
267.95146892244
 20
720.2912841497549
 30
0.0
 40
2.5
  1
 
 41
0.54
  7
CONVERTER_15
100
AcDbText
  0
MTEXT
  5
424
330
71
100
AcDbEntity
  8
1
 62
     7
100
AcDbMText
 10
265.3790666590635
 20
713.7412841497552
 30
0.0
 40
3.0
 41
0.0
 71
     5
 72
     1
  1
WCC 26
  7
CONVERTER_16
 73
     1
 44
1.20048019207683
  0
HATCH
  5
425
330
71
100
AcDbEntity
  8
1
  6
Continuous
 62
     2
100
AcDbHatch
 10
0.0
 20
0.0
 30
0.0
210
0.0
220
0.0
230
1.0
  2
_USER
 70
     0
 71
     1
 91
        1
 92
        1
 93
       14
 72
     2
 10
195.682060491492
 20
717.6031889116662
 40
0.9964100565214067
 50
164.9381082228855
 51
195.0618917771019
 73
     1
 72
     2
 10
196.0284471389819
 20
717.6964040869015
 40
1.355119937139993
 50
195.0618917770909
 51
275.1581447696416
 73
     1
 72
     2
 10
195.7897230937457
 20
720.3409417589854
 40
4.010410630990197
 50
275.1581447696246
 51
285.9799912583524
 73
     1
 72
     1
 10
196.8937957525207
 20
716.485501836836
 11
196.8937957525207
 21
717.2065902722106
 72
     2
 10
195.9201965442356
 20
718.7688635938221
 40
1.840813230556049
 50
58.069091050038
 51
71.55192388186815
 73
     0
 72
     2
 10
196.2657897125504
 20
717.7328753491632
 40
0.7487023016404492
 50
71.55192388185023
 51
113.3722778881293
 73
     0
 72
     2
 10
196.1365004293255
 20
717.4337083915516
 40
0.4227934381774399
 50
113.3722778881673
 51
151.4785267423142
 73
     0
 72
     2
 10
196.4483659318713
 20
717.6031889116662
 40
0.7777353184572496
 50
151.4785267422948
 51
208.5214732577273
 73
     0
 72
     2
 10
196.1365004293255
 20
717.772669431781
 40
0.4227934381776413
 50
208.5214732576993
 51
246.6277221118143
 73
     0
 72
     2
 10
196.2657897125504
 20
717.473502474169
 40
0.7487023016407734
 50
246.6277221118707
 51
288.4480761181387
 73
     0
 72
     2
 10
195.9201965442356
 20
716.4375142295106
 40
1.840813230556584
 50
288.4480761181319
 51
301.930908949962
 73
     0
 72
     1
 10
196.8937957525207
 20
717.999787551122
 11
196.8937957525207
 21
718.7208759864966
 72
     2
 10
195.7897230937457
 20
714.8654360643473
 40
4.010410630989981
 50
74.0200087416472
 51
84.84185523037543
 73
     1
 72
     2
 10
196.0284471389819
 20
717.5099737364307
 40
1.355119937140984
 50
84.84185523036052
 51
164.9381082228905
 73
     1
 97
       14
330
3B9
330
235
330
388
330
3B8
330
389
330
38A
330
3B7
330
3B6
330
3B5
330
236
330
38B
330
38C
330
38D
330
38E
 75
     1
 76
     0
 52
45.0
 41
0.1
 77
     0
 78
     1
 53
45.0
 43
0.0
 44
0.0
 45
-0.0707106781186548
 46
0.0707106781186548
 79
     0
 98
        1
 10
0.0
 20
0.0
  0
HATCH
  5
426
330
71
100
AcDbEntity
  8
1
  6
Continuous
 62
     2
100
AcDbHatch
 10
0.0
 20
0.0
 30
0.0
210
0.0
220
0.0
230
1.0
  2
_USER
 70
     0
 71
     1
 91
        1
 92
        1
 93
       14
 72
     2
 10
195.682060491492
 20
717.6031889116662
 40
0.9964100565214067
 50
164.9381082228855
 51
195.0618917771019
 73
     1
 72
     2
 10
196.0284471389819
 20
717.6964040869015
 40
1.355119937139993
 50
195.0618917770909
 51
275.1581447696416
 73
     1
 72
     2
 10
195.7897230937457
 20
720.3409417589854
 40
4.010410630990197
 50
275.1581447696246
 51
285.9799912583524
 73
     1
 72
     1
 10
196.8937957525207
 20
716.485501836836
 11
196.8937957525207
 21
717.2065902722106
 72
     2
 10
195.9201965442356
 20
718.7688635938221
 40
1.840813230556049
 50
58.069091050038
 51
71.55192388186815
 73
     0
 72
     2
 10
196.2657897125504
 20
717.7328753491632
 40
0.7487023016404492
 50
71.55192388185023
 51
113.3722778881293
 73
     0
 72
     2
 10
196.1365004293255
 20
717.4337083915516
 40
0.4227934381774399
 50
113.3722778881673
 51
151.4785267423142
 73
     0
 72
     2
 10
196.4483659318713
 20
717.6031889116662
 40
0.7777353184572496
 50
151.4785267422948
 51
208.5214732577273
 73
     0
 72
     2
 10
196.1365004293255
 20
717.772669431781
 40
0.4227934381776413
 50
208.5214732576993
 51
246.6277221118143
 73
     0
 72
     2
 10
196.2657897125504
 20
717.473502474169
 40
0.7487023016407734
 50
246.6277221118707
 51
288.4480761181387
 73
     0
 72
     2
 10
195.9201965442356
 20
716.4375142295106
 40
1.840813230556584
 50
288.4480761181319
 51
301.930908949962
 73
     0
 72
     1
 10
196.8937957525207
 20
717.999787551122
 11
196.8937957525207
 21
718.7208759864966
 72
     2
 10
195.7897230937457
 20
714.8654360643473
 40
4.010410630989981
 50
74.0200087416472
 51
84.84185523037543
 73
     1
 72
     2
 10
196.0284471389819
 20
717.5099737364307
 40
1.355119937140984
 50
84.84185523036052
 51
164.9381082228905
 73
     1
 97
       14
330
3B9
330
235
330
388
330
3B8
330
389
330
38A
330
3B7
330
3B6
330
3B5
330
236
330
38B
330
38C
330
38D
330
38E
 75
     1
 76
     0
 52
45.0
 41
0.1
 77
     0
 78
     1
 53
45.0
 43
0.0
 44
0.0
 45
-0.0707106781186548
 46
0.0707106781186548
 79
     0
 98
        1
 10
0.0
 20
0.0
  0
HATCH
  5
427
330
71
100
AcDbEntity
  8
1
  6
Continuous
 62
     2
100
AcDbHatch
 10
0.0
 20
0.0
 30
0.0
210
0.0
220
0.0
230
1.0
  2
_USER
 70
     0
 71
     1
 91
        1
 92
        1
 93
       18
 72
     2
 10
209.3364648904306
 20
717.5099737364307
 40
1.355119937140671
 50
90.0
 51
164.938108222899
 73
     1
 72
     2
 10
208.9900782429416
 20
717.6031889116662
 40
0.9964100565230259
 50
164.9381082229105
 51
195.0618917771021
 73
     1
 72
     2
 10
209.3364648904306
 20
717.6964040869015
 40
1.355119937140852
 50
195.061891777101
 51
275.1581447696782
 73
     1
 72
     2
 10
209.0977408451944
 20
720.3409417589854
 40
4.010410630990729
 50
275.1581447696365
 51
285.979991258338
 73
     1
 72
     1
 10
210.2018135039685
 20
716.4855018368355
 11
210.2018135039685
 21
717.2065902722102
 72
     2
 10
209.2282142956843
 20
718.7688635938216
 40
1.840813230556049
 50
58.06909105006132
 51
71.55192388186815
 73
     0
 72
     2
 10
209.5738074639999
 20
717.7328753491632
 40
0.7487023016407311
 50
71.55192388192107
 51
113.3722778881791
 73
     0
 72
     2
 10
209.4445181807742
 20
717.4337083915516
 40
0.4227934381784311
 50
113.3722778881532
 51
151.4785267423171
 73
     0
 72
     2
 10
209.7563836833209
 20
717.6031889116662
 40
0.7777353184586058
 50
151.4785267423284
 51
208.5214732576348
 73
     0
 72
     2
 10
209.4445181807742
 20
717.772669431781
 40
0.4227934381773005
 50
208.5214732575882
 51
250.6628567805216
 73
     0
 72
     2
 10
209.5657330552401
 20
717.4272520926215
 40
0.7888619891125472
 50
250.6628567805709
 51
270.0
 73
     0
 72
     1
 10
209.5657330552401
 20
718.2161140817341
 11
210.4778316499245
 21
718.2161140817341
 72
     1
 10
210.4778316499245
 20
718.2161140817341
 11
210.4778316499245
 21
716.3412841497609
 72
     1
 10
210.4778316499245
 20
716.3412841497609
 11
211.463610742625
 21
716.3412841497609
 72
     1
 10
211.463610742625
 20
716.3412841497609
 11
211.463610742625
 21
718.2161140817341
 72
     1
 10
211.463610742625
 20
718.2161140817341
 11
212.1339405256609
 21
718.2161140817341
 72
     1
 10
212.1339405256609
 20
718.2161140817341
 11
212.1339405256609
 21
718.8650936735718
 72
     1
 10
212.1339405256609
 20
718.8650936735718
 11
209.3364648904306
 21
718.8650936735713
 97
       18
330
29B
330
29A
330
299
330
298
330
29D
330
237
330
3B2
330
393
330
3B1
330
394
330
3B0
330
3AF
330
238
330
3AE
330
3AD
330
395
330
396
330
29C
 75
     1
 76
     0
 52
45.0
 41
0.1
 77
     0
 78
     1
 53
45.0
 43
0.0
 44
0.0
 45
-0.0707106781186548
 46
0.0707106781186548
 79
     0
 98
        1
 10
0.0
 20
0.0
  0
HATCH
  5
428
330
71
100
AcDbEntity
  8
1
  6
Continuous
 62
     2
100
AcDbHatch
 10
0.0
 20
0.0
 30
0.0
210
0.0
220
0.0
230
1.0
  2
_USER
 70
     0
 71
     1
 91
        1
 92
        1
 93
       18
 72
     2
 10
209.3364648904306
 20
717.5099737364307
 40
1.355119937140671
 50
90.0
 51
164.938108222899
 73
     1
 72
     2
 10
208.9900782429416
 20
717.6031889116662
 40
0.9964100565230259
 50
164.9381082229105
 51
195.0618917771021
 73
     1
 72
     2
 10
209.3364648904306
 20
717.6964040869015
 40
1.355119937140852
 50
195.061891777101
 51
275.1581447696782
 73
     1
 72
     2
 10
209.0977408451944
 20
720.3409417589854
 40
4.010410630990729
 50
275.1581447696365
 51
285.979991258338
 73
     1
 72
     1
 10
210.2018135039685
 20
716.4855018368355
 11
210.2018135039685
 21
717.2065902722102
 72
     2
 10
209.2282142956843
 20
718.7688635938216
 40
1.840813230556049
 50
58.06909105006132
 51
71.55192388186815
 73
     0
 72
     2
 10
209.5738074639999
 20
717.7328753491632
 40
0.7487023016407311
 50
71.55192388192107
 51
113.3722778881791
 73
     0
 72
     2
 10
209.4445181807742
 20
717.4337083915516
 40
0.4227934381784311
 50
113.3722778881532
 51
151.4785267423171
 73
     0
 72
     2
 10
209.7563836833209
 20
717.6031889116662
 40
0.7777353184586058
 50
151.4785267423284
 51
208.5214732576348
 73
     0
 72
     2
 10
209.4445181807742
 20
717.772669431781
 40
0.4227934381773005
 50
208.5214732575882
 51
250.6628567805216
 73
     0
 72
     2
 10
209.5657330552401
 20
717.4272520926215
 40
0.7888619891125472
 50
250.6628567805709
 51
270.0
 73
     0
 72
     1
 10
209.5657330552401
 20
718.2161140817341
 11
210.4778316499245
 21
718.2161140817341
 72
     1
 10
210.4778316499245
 20
718.2161140817341
 11
210.4778316499245
 21
716.3412841497609
 72
     1
 10
210.4778316499245
 20
716.3412841497609
 11
211.463610742625
 21
716.3412841497609
 72
     1
 10
211.463610742625
 20
716.3412841497609
 11
211.463610742625
 21
718.2161140817341
 72
     1
 10
211.463610742625
 20
718.2161140817341
 11
212.1339405256609
 21
718.2161140817341
 72
     1
 10
212.1339405256609
 20
718.2161140817341
 11
212.1339405256609
 21
718.8650936735718
 72
     1
 10
212.1339405256609
 20
718.8650936735718
 11
209.3364648904306
 21
718.8650936735713
 97
       18
330
29B
330
29A
330
299
330
298
330
29D
330
237
330
3B2
330
393
330
3B1
330
394
330
3B0
330
3AF
330
238
330
3AE
330
3AD
330
395
330
396
330
29C
 75
     1
 76
     0
 52
45.0
 41
0.1
 77
     0
 78
     1
 53
45.0
 43
0.0
 44
0.0
 45
-0.0707106781186548
 46
0.0707106781186548
 79
     0
 98
        1
 10
0.0
 20
0.0
  0
HATCH
  5
429
330
71
100
AcDbEntity
  8
1
  6
Continuous
 62
     2
100
AcDbHatch
 10
0.0
 20
0.0
 30
0.0
210
0.0
220
0.0
230
1.0
  2
_USER
 70
     0
 71
     1
 91
        4
 92
        1
 93
        8
 72
     2
 10
189.4173251410975
 20
721.2906687651192
 40
0.3506153846146844
 50
90.0
 51
180.0
 73
     1
 72
     1
 10
189.0667097564836
 20
721.2906687651192
 11
189.0667097564836
 21
716.6918995343752
 72
     2
 10
189.4173251410975
 20
716.6918995343752
 40
0.3506153846139171
 50
180.0
 51
270.0
 73
     1
 72
     1
 10
189.4173251410975
 20
716.3412841497609
 11
193.9407235631776
 21
716.3412841497609
 72
     2
 10
193.9407235631776
 20
716.6918995343752
 40
0.3506153846143434
 50
270.0
 51
360.0
 73
     1
 72
     1
 10
194.2913389477924
 20
716.6918995343752
 11
194.2913389477924
 21
721.2906687651192
 72
     2
 10
193.9407235631776
 20
721.2906687651192
 40
0.3506153846147981
 50
0.0
 51
90.0
 73
     1
 72
     1
 10
193.9407235631776
 20
721.6412841497339
 11
189.4173251410975
 21
721.6412841497339
 97
        8
330
3A6
330
266
330
3A5
330
267
330
39C
330
264
330
3A7
330
265
 92
       16
 93
        1
 72
     2
 10
191.5822719597071
 20
719.3742371714369
 40
0.3892387874201972
 50
0.0
 51
360.0
 73
     1
 97
        1
330
3BA
 92
       16
 93
        8
 72
     2
 10
191.6019537900151
 20
719.3742371714369
 40
0.7535935125160714
 50
295.3740086781789
 51
424.6259913218062
 73
     1
 72
     2
 10
192.0366998214928
 20
720.2908831218235
 40
0.2609230769229782
 50
115.3740086783684
 51
180.0
 73
     0
 72
     1
 10
191.7757767445698
 20
720.2908831218235
 11
191.7757767445698
 21
720.7913255090192
 72
     2
 10
192.0366998214928
 20
720.7913255090192
 40
0.2609230769224678
 50
180.0
 51
269.8110329574465
 73
     0
 72
     2
 10
192.0413412556332
 20
719.384023899458
 40
1.668232340440728
 50
269.8110329575882
 51
450.1889670424118
 73
     0
 72
     2
 10
192.0366998214928
 20
717.9767222898969
 40
0.2609230769229782
 50
90.18896704255349
 51
180.0
 73
     0
 72
     1
 10
191.7757767445698
 20
717.9767222898969
 11
191.7757767445698
 21
718.4575912210498
 72
     2
 10
192.0366998214928
 20
718.4575912210498
 40
0.2609230769227745
 50
180.0
 51
244.6259913216317
 73
     0
 97
        8
330
3B4
330
390
330
29F
330
3B3
330
391
330
392
330
29E
330
38F
 92
       16
 93
       12
 72
     1
 10
189.9081471879955
 20
716.930173038651
 11
191.1278440979207
 21
716.930173038651
 72
     2
 10
191.1278440979207
 20
717.1910961155738
 40
0.2609230769228361
 50
270.0
 51
360.0
 73
     1
 72
     1
 10
191.3887671748435
 20
717.1910961155738
 11
191.3887671748435
 21
718.4561960589884
 72
     2
 10
191.1278440979207
 20
718.4561960589884
 40
0.2609230769228077
 50
0.0
 51
64.80558935144161
 73
     1
 72
     2
 10
191.5597320711232
 20
719.3742371714369
 40
0.753634316989858
 50
115.1944106485115
 51
244.8055893514774
 73
     0
 72
     2
 10
191.1278440979207
 20
720.292278283885
 40
0.2609230769223558
 50
295.1944106485584
 51
360.0
 73
     1
 72
     1
 10
191.3887671748435
 20
720.292278283885
 11
191.3887671748435
 21
720.7914721839351
 72
     2
 10
191.1278440979207
 20
720.7914721839351
 40
0.2609230769228077
 50
0.0
 51
90.0
 73
     1
 72
     1
 10
191.1278440979207
 20
721.0523952608576
 11
189.9081471879955
 21
721.0523952608576
 72
     2
 10
189.9081471879955
 20
720.7914721839351
 40
0.2609230769224951
 50
90.0
 51
180.0
 73
     1
 72
     1
 10
189.6472241110734
 20
720.7914721839351
 11
189.6472241110734
 21
717.1910961155738
 72
     2
 10
189.9081471879955
 20
717.1910961155738
 40
0.2609230769220972
 50
180.0
 51
270.0
 73
     1
 97
       12
330
26B
330
399
330
26A
330
3AA
330
269
330
3A9
330
39A
330
39B
330
268
330
3A8
330
263
330
3AB
 75
     1
 76
     0
 52
45.0
 41
0.1
 77
     0
 78
     1
 53
45.0
 43
0.0
 44
0.0
 45
-0.0707106781186548
 46
0.0707106781186548
 79
     0
 98
        1
 10
0.0
 20
0.0
  0
HATCH
  5
42A
330
71
100
AcDbEntity
  8
1
  6
Continuous
 62
     2
100
AcDbHatch
 10
0.0
 20
0.0
 30
0.0
210
0.0
220
0.0
230
1.0
  2
_USER
 70
     0
 71
     1
 91
        4
 92
        1
 93
        8
 72
     2
 10
189.4173251410975
 20
721.2906687651192
 40
0.3506153846146844
 50
90.0
 51
180.0
 73
     1
 72
     1
 10
189.0667097564836
 20
721.2906687651192
 11
189.0667097564836
 21
716.6918995343752
 72
     2
 10
189.4173251410975
 20
716.6918995343752
 40
0.3506153846139171
 50
180.0
 51
270.0
 73
     1
 72
     1
 10
189.4173251410975
 20
716.3412841497609
 11
193.9407235631776
 21
716.3412841497609
 72
     2
 10
193.9407235631776
 20
716.6918995343752
 40
0.3506153846143434
 50
270.0
 51
360.0
 73
     1
 72
     1
 10
194.2913389477924
 20
716.6918995343752
 11
194.2913389477924
 21
721.2906687651192
 72
     2
 10
193.9407235631776
 20
721.2906687651192
 40
0.3506153846147981
 50
0.0
 51
90.0
 73
     1
 72
     1
 10
193.9407235631776
 20
721.6412841497339
 11
189.4173251410975
 21
721.6412841497339
 97
        8
330
3A6
330
266
330
3A5
330
267
330
39C
330
264
330
3A7
330
265
 92
       16
 93
        1
 72
     2
 10
191.5822719597071
 20
719.3742371714369
 40
0.3892387874201972
 50
0.0
 51
360.0
 73
     1
 97
        1
330
3BA
 92
       16
 93
        8
 72
     2
 10
191.6019537900151
 20
719.3742371714369
 40
0.7535935125160714
 50
295.3740086781789
 51
424.6259913218062
 73
     1
 72
     2
 10
192.0366998214928
 20
720.2908831218235
 40
0.2609230769229782
 50
115.3740086783684
 51
180.0
 73
     0
 72
     1
 10
191.7757767445698
 20
720.2908831218235
 11
191.7757767445698
 21
720.7913255090192
 72
     2
 10
192.0366998214928
 20
720.7913255090192
 40
0.2609230769224678
 50
180.0
 51
269.8110329574465
 73
     0
 72
     2
 10
192.0413412556332
 20
719.384023899458
 40
1.668232340440728
 50
269.8110329575882
 51
450.1889670424118
 73
     0
 72
     2
 10
192.0366998214928
 20
717.9767222898969
 40
0.2609230769229782
 50
90.18896704255349
 51
180.0
 73
     0
 72
     1
 10
191.7757767445698
 20
717.9767222898969
 11
191.7757767445698
 21
718.4575912210498
 72
     2
 10
192.0366998214928
 20
718.4575912210498
 40
0.2609230769227745
 50
180.0
 51
244.6259913216317
 73
     0
 97
        8
330
3B4
330
390
330
29F
330
3B3
330
391
330
392
330
29E
330
38F
 92
       16
 93
       12
 72
     1
 10
189.9081471879955
 20
716.930173038651
 11
191.1278440979207
 21
716.930173038651
 72
     2
 10
191.1278440979207
 20
717.1910961155738
 40
0.2609230769228361
 50
270.0
 51
360.0
 73
     1
 72
     1
 10
191.3887671748435
 20
717.1910961155738
 11
191.3887671748435
 21
718.4561960589884
 72
     2
 10
191.1278440979207
 20
718.4561960589884
 40
0.2609230769228077
 50
0.0
 51
64.80558935144161
 73
     1
 72
     2
 10
191.5597320711232
 20
719.3742371714369
 40
0.753634316989858
 50
115.1944106485115
 51
244.8055893514774
 73
     0
 72
     2
 10
191.1278440979207
 20
720.292278283885
 40
0.2609230769223558
 50
295.1944106485584
 51
360.0
 73
     1
 72
     1
 10
191.3887671748435
 20
720.292278283885
 11
191.3887671748435
 21
720.7914721839351
 72
     2
 10
191.1278440979207
 20
720.7914721839351
 40
0.2609230769228077
 50
0.0
 51
90.0
 73
     1
 72
     1
 10
191.1278440979207
 20
721.0523952608576
 11
189.9081471879955
 21
721.0523952608576
 72
     2
 10
189.9081471879955
 20
720.7914721839351
 40
0.2609230769224951
 50
90.0
 51
180.0
 73
     1
 72
     1
 10
189.6472241110734
 20
720.7914721839351
 11
189.6472241110734
 21
717.1910961155738
 72
     2
 10
189.9081471879955
 20
717.1910961155738
 40
0.2609230769220972
 50
180.0
 51
270.0
 73
     1
 97
       12
330
26B
330
399
330
26A
330
3AA
330
269
330
3A9
330
39A
330
39B
330
268
330
3A8
330
263
330
3AB
 75
     1
 76
     0
 52
45.0
 41
0.1
 77
     0
 78
     1
 53
45.0
 43
0.0
 44
0.0
 45
-0.0707106781186548
 46
0.0707106781186548
 79
     0
 98
        1
 10
0.0
 20
0.0
  0
HATCH
  5
42B
330
71
100
AcDbEntity
  8
1
  6
Continuous
 62
     2
100
AcDbHatch
 10
0.0
 20
0.0
 30
0.0
210
0.0
220
0.0
230
1.0
  2
_USER
 70
     0
 71
     1
 91
        2
 92
        1
 93
       12
 72
     2
 10
201.5455598551383
 20
720.3793793878433
 40
1.261904761905612
 50
90.0
 51
270.0
 73
     1
 72
     1
 10
201.5455598551383
 20
719.117474625938
 11
204.149129874792
 21
719.117474625938
 72
     1
 10
204.149129874792
 20
719.117474625938
 11
204.149129874792
 21
719.6943453742375
 72
     1
 10
204.149129874792
 20
719.6943453742375
 11
203.0450572909675
 21
719.6943453742375
 72
     1
 10
203.0450572909675
 20
719.6943453742375
 11
203.0450572909675
 21
720.0909440136935
 72
     1
 10
203.0450572909675
 20
720.0909440136935
 11
204.149129874792
 21
720.0909440136935
 72
     1
 10
204.149129874792
 20
720.0909440136935
 11
204.149129874792
 21
720.667814761993
 72
     1
 10
204.149129874792
 20
720.667814761993
 11
203.0450572909675
 21
720.667814761993
 72
     1
 10
203.0450572909675
 20
720.667814761993
 11
203.0450572909675
 21
721.064413401449
 72
     1
 10
203.0450572909675
 20
721.064413401449
 11
204.149129874792
 21
721.064413401449
 72
     1
 10
204.149129874792
 20
721.064413401449
 11
204.149129874792
 21
721.6412841497489
 72
     1
 10
204.149129874792
 20
721.6412841497489
 11
201.5455598551383
 21
721.6412841497489
 97
       12
330
25A
330
254
330
27B
330
27A
330
279
330
278
330
255
330
256
330
257
330
258
330
397
330
259
 92
       16
 93
        4
 72
     2
 10
201.8893714638254
 20
720.3793793878433
 40
0.6378510567599356
 50
141.8795802028404
 51
218.1204197971676
 73
     1
 72
     2
 10
201.7242970536219
 20
720.2498494885701
 40
0.4280236140606632
 50
218.1204197971535
 51
321.8795802028536
 73
     1
 72
     2
 10
201.5592226434185
 20
720.3793793878433
 40
0.6378510567600058
 50
321.8795802028323
 51
398.1204197971596
 73
     1
 72
     2
 10
201.7242970536219
 20
720.5089092871164
 40
0.4280236140607304
 50
38.12041979714642
 51
141.8795802028465
 73
     1
 97
        4
330
3A4
330
3A3
330
39E
330
39D
 75
     1
 76
     0
 52
45.0
 41
0.1
 77
     0
 78
     1
 53
45.0
 43
0.0
 44
0.0
 45
-0.0707106781186548
 46
0.0707106781186548
 79
     0
 98
        1
 10
0.0
 20
0.0
  0
HATCH
  5
42C
330
71
100
AcDbEntity
  8
1
  6
Continuous
 62
     2
100
AcDbHatch
 10
0.0
 20
0.0
 30
0.0
210
0.0
220
0.0
230
1.0
  2
_USER
 70
     0
 71
     1
 91
        2
 92
        1
 93
       12
 72
     2
 10
201.5455598551383
 20
720.3793793878433
 40
1.261904761905612
 50
90.0
 51
270.0
 73
     1
 72
     1
 10
201.5455598551383
 20
719.117474625938
 11
204.149129874792
 21
719.117474625938
 72
     1
 10
204.149129874792
 20
719.117474625938
 11
204.149129874792
 21
719.6943453742375
 72
     1
 10
204.149129874792
 20
719.6943453742375
 11
203.0450572909675
 21
719.6943453742375
 72
     1
 10
203.0450572909675
 20
719.6943453742375
 11
203.0450572909675
 21
720.0909440136935
 72
     1
 10
203.0450572909675
 20
720.0909440136935
 11
204.149129874792
 21
720.0909440136935
 72
     1
 10
204.149129874792
 20
720.0909440136935
 11
204.149129874792
 21
720.667814761993
 72
     1
 10
204.149129874792
 20
720.667814761993
 11
203.0450572909675
 21
720.667814761993
 72
     1
 10
203.0450572909675
 20
720.667814761993
 11
203.0450572909675
 21
721.064413401449
 72
     1
 10
203.0450572909675
 20
721.064413401449
 11
204.149129874792
 21
721.064413401449
 72
     1
 10
204.149129874792
 20
721.064413401449
 11
204.149129874792
 21
721.6412841497489
 72
     1
 10
204.149129874792
 20
721.6412841497489
 11
201.5455598551383
 21
721.6412841497489
 97
       12
330
25A
330
254
330
27B
330
27A
330
279
330
278
330
255
330
256
330
257
330
258
330
397
330
259
 92
       16
 93
        4
 72
     2
 10
201.8893714638254
 20
720.3793793878433
 40
0.6378510567599356
 50
141.8795802028404
 51
218.1204197971676
 73
     1
 72
     2
 10
201.7242970536219
 20
720.2498494885701
 40
0.4280236140606632
 50
218.1204197971535
 51
321.8795802028536
 73
     1
 72
     2
 10
201.5592226434185
 20
720.3793793878433
 40
0.6378510567600058
 50
321.8795802028323
 51
398.1204197971596
 73
     1
 72
     2
 10
201.7242970536219
 20
720.5089092871164
 40
0.4280236140607304
 50
38.12041979714642
 51
141.8795802028465
 73
     1
 97
        4
330
3A4
330
3A3
330
39E
330
39D
 75
     1
 76
     0
 52
45.0
 41
0.1
 77
     0
 78
     1
 53
45.0
 43
0.0
 44
0.0
 45
-0.0707106781186548
 46
0.0707106781186548
 79
     0
 98
        1
 10
0.0
 20
0.0
  0
HATCH
  5
42D
330
71
100
AcDbEntity
  8
1
  6
Continuous
 62
     2
100
AcDbHatch
 10
0.0
 20
0.0
 30
0.0
210
0.0
220
0.0
230
1.0
  2
_USER
 70
     0
 71
     1
 91
        2
 92
        1
 93
        4
 72
     2
 10
198.2186050101287
 20
717.6031889116662
 40
1.20498684599291
 50
117.548148175664
 51
242.4518518243384
 73
     1
 72
     2
 10
198.4507867389166
 20
718.0482922259664
 40
1.707008076205438
 50
242.451851824339
 51
297.5481481756847
 73
     1
 72
     2
 10
198.6829684677044
 20
717.6031889116662
 40
1.204986845993431
 50
297.5481481756999
 51
422.4518518242976
 73
     1
 72
     2
 10
198.4507867389166
 20
717.1580855973663
 40
1.707008076205403
 50
62.45185182430821
 51
117.5481481756681
 73
     1
 97
        4
330
3A2
330
39F
330
3A1
330
3A0
 92
       16
 93
        4
 72
     2
 10
198.4507867389166
 20
717.7327188109392
 40
0.4280236140605738
 50
38.12041979716286
 51
141.8795802028536
 73
     1
 72
     2
 10
198.6158611491199
 20
717.6031889116662
 40
0.6378510567598462
 50
141.8795802028341
 51
218.120419797174
 73
     1
 72
     2
 10
198.4507867389166
 20
717.4736590123935
 40
0.4280236140610111
 50
218.1204197971943
 51
321.8795802027893
 73
     1
 72
     2
 10
198.285712328713
 20
717.6031889116662
 40
0.6378510567600058
 50
321.8795802028323
 51
398.1204197971596
 73
     1
 97
        4
330
385
330
386
330
387
330
384
 75
     1
 76
     0
 52
45.0
 41
0.1
 77
     0
 78
     1
 53
45.0
 43
0.0
 44
0.0
 45
-0.0707106781186548
 46
0.0707106781186548
 79
     0
 98
        1
 10
0.0
 20
0.0
  0
HATCH
  5
42E
330
71
100
AcDbEntity
  8
1
  6
Continuous
 62
     2
100
AcDbHatch
 10
0.0
 20
0.0
 30
0.0
210
0.0
220
0.0
230
1.0
  2
_USER
 70
     0
 71
     1
 91
        2
 92
        1
 93
        4
 72
     2
 10
198.2186050101287
 20
717.6031889116662
 40
1.20498684599291
 50
117.548148175664
 51
242.4518518243384
 73
     1
 72
     2
 10
198.4507867389166
 20
718.0482922259664
 40
1.707008076205438
 50
242.451851824339
 51
297.5481481756847
 73
     1
 72
     2
 10
198.6829684677044
 20
717.6031889116662
 40
1.204986845993431
 50
297.5481481756999
 51
422.4518518242976
 73
     1
 72
     2
 10
198.4507867389166
 20
717.1580855973663
 40
1.707008076205403
 50
62.45185182430821
 51
117.5481481756681
 73
     1
 97
        4
330
3A2
330
39F
330
3A1
330
3A0
 92
       16
 93
        4
 72
     2
 10
198.4507867389166
 20
717.7327188109392
 40
0.4280236140605738
 50
38.12041979716286
 51
141.8795802028536
 73
     1
 72
     2
 10
198.6158611491199
 20
717.6031889116662
 40
0.6378510567598462
 50
141.8795802028341
 51
218.120419797174
 73
     1
 72
     2
 10
198.4507867389166
 20
717.4736590123935
 40
0.4280236140610111
 50
218.1204197971943
 51
321.8795802027893
 73
     1
 72
     2
 10
198.285712328713
 20
717.6031889116662
 40
0.6378510567600058
 50
321.8795802028323
 51
398.1204197971596
 73
     1
 97
        4
330
385
330
386
330
387
330
384
 75
     1
 76
     0
 52
45.0
 41
0.1
 77
     0
 78
     1
 53
45.0
 43
0.0
 44
0.0
 45
-0.0707106781186548
 46
0.0707106781186548
 79
     0
 98
        1
 10
0.0
 20
0.0
  0
HATCH
  5
42F
330
71
100
AcDbEntity
  8
1
  6
Continuous
 62
     2
100
AcDbHatch
 10
0.0
 20
0.0
 30
0.0
210
0.0
220
0.0
230
1.0
  2
_USER
 70
     0
 71
     1
 91
        2
 92
        1
 93
        6
 72
     1
 10
194.6856505848724
 20
721.6412841497489
 11
194.6856505848724
 21
719.117474625938
 72
     1
 10
194.6856505848724
 20
719.117474625938
 11
195.7108608412807
 21
719.117474625938
 72
     1
 10
195.7108608412807
 20
719.117474625938
 11
195.7108608412807
 21
719.8968781310156
 72
     1
 10
195.7108608412807
 20
719.8968781310156
 11
196.3379414923388
 21
719.8968781310156
 72
     2
 10
196.3379414923388
 20
720.7690811403822
 40
0.8722030093666717
 50
270.0
 51
450.0
 73
     1
 72
     1
 10
196.3379414923388
 20
721.6412841497489
 11
194.6856505848724
 21
721.6412841497489
 97
        6
330
3AC
330
26C
330
262
330
261
330
26E
330
26D
 92
       16
 93
        4
 72
     1
 10
195.973088164869
 20
721.0932627898811
 11
195.7108608412807
 21
721.0932627898811
 72
     1
 10
195.7108608412807
 20
721.0932627898811
 11
195.7108608412807
 21
720.5100167986891
 72
     1
 10
195.7108608412807
 20
720.5100167986891
 11
195.973088164869
 21
720.5100167986891
 72
     2
 10
195.973088164869
 20
720.8016397942852
 40
0.2916229955960716
 50
270.0
 51
450.0
 73
     1
 97
        4
330
26F
330
260
330
270
330
398
 75
     1
 76
     0
 52
45.0
 41
0.1
 77
     0
 78
     1
 53
45.0
 43
0.0
 44
0.0
 45
-0.0707106781186548
 46
0.0707106781186548
 79
     0
 98
        1
 10
0.0
 20
0.0
  0
HATCH
  5
430
330
71
100
AcDbEntity
  8
1
  6
Continuous
 62
     2
100
AcDbHatch
 10
0.0
 20
0.0
 30
0.0
210
0.0
220
0.0
230
1.0
  2
_USER
 70
     0
 71
     1
 91
        2
 92
        1
 93
        6
 72
     1
 10
194.6856505848724
 20
721.6412841497489
 11
194.6856505848724
 21
719.117474625938
 72
     1
 10
194.6856505848724
 20
719.117474625938
 11
195.7108608412807
 21
719.117474625938
 72
     1
 10
195.7108608412807
 20
719.117474625938
 11
195.7108608412807
 21
719.8968781310156
 72
     1
 10
195.7108608412807
 20
719.8968781310156
 11
196.3379414923388
 21
719.8968781310156
 72
     2
 10
196.3379414923388
 20
720.7690811403822
 40
0.8722030093666717
 50
270.0
 51
450.0
 73
     1
 72
     1
 10
196.3379414923388
 20
721.6412841497489
 11
194.6856505848724
 21
721.6412841497489
 97
        6
330
3AC
330
26C
330
262
330
261
330
26E
330
26D
 92
       16
 93
        4
 72
     1
 10
195.973088164869
 20
721.0932627898811
 11
195.7108608412807
 21
721.0932627898811
 72
     1
 10
195.7108608412807
 20
721.0932627898811
 11
195.7108608412807
 21
720.5100167986891
 72
     1
 10
195.7108608412807
 20
720.5100167986891
 11
195.973088164869
 21
720.5100167986891
 72
     2
 10
195.973088164869
 20
720.8016397942852
 40
0.2916229955960716
 50
270.0
 51
450.0
 73
     1
 97
        4
330
26F
330
260
330
270
330
398
 75
     1
 76
     0
 52
45.0
 41
0.1
 77
     0
 78
     1
 53
45.0
 43
0.0
 44
0.0
 45
-0.0707106781186548
 46
0.0707106781186548
 79
     0
 98
        1
 10
0.0
 20
0.0
  0
HATCH
  5
431
330
71
100
AcDbEntity
  8
1
  6
Continuous
 62
     2
100
AcDbHatch
 10
0.0
 20
0.0
 30
0.0
210
0.0
220
0.0
230
1.0
  2
_USER
 70
     0
 71
     1
 91
        1
 92
        1
 93
       12
 72
     1
 10
210.8958019852304
 20
721.6412841497489
 11
212.0550781982446
 21
721.6412841497489
 72
     1
 10
212.0550781982446
 20
721.6412841497489
 11
210.978607429016
 21
720.4239696621157
 72
     1
 10
210.978607429016
 20
720.4239696621157
 11
212.1339405256609
 21
719.117474625938
 72
     1
 10
212.1339405256609
 20
719.117474625938
 11
210.9746643126458
 21
719.117474625938
 72
     1
 10
210.9746643126458
 20
719.117474625938
 11
210.398969322509
 21
719.7684926303131
 72
     1
 10
210.398969322509
 20
719.7684926303131
 11
209.8232743323721
 21
719.117474625938
 72
     1
 10
209.8232743323721
 20
719.117474625938
 11
208.6639981193571
 21
719.117474625938
 72
     1
 10
208.6639981193571
 20
719.117474625938
 11
209.8193312160019
 21
720.4239696621157
 72
     1
 10
209.8193312160019
 20
720.4239696621157
 11
208.7428604467726
 21
721.6412841497489
 72
     1
 10
208.7428604467726
 20
721.6412841497489
 11
209.9021366597885
 21
721.6412841497489
 72
     1
 10
209.9021366597885
 20
721.6412841497489
 11
210.398969322509
 21
721.0794466939179
 72
     1
 10
210.398969322509
 20
721.0794466939179
 11
210.8958019852304
 21
721.6412841497489
 97
       12
330
23B
330
294
330
293
330
292
330
291
330
23C
330
23D
330
239
330
23A
330
297
330
296
330
295
 75
     1
 76
     0
 52
45.0
 41
0.1
 77
     0
 78
     1
 53
45.0
 43
0.0
 44
0.0
 45
-0.0707106781186548
 46
0.0707106781186548
 79
     0
 98
        1
 10
0.0
 20
0.0
  0
HATCH
  5
432
330
71
100
AcDbEntity
  8
1
  6
Continuous
 62
     2
100
AcDbHatch
 10
0.0
 20
0.0
 30
0.0
210
0.0
220
0.0
230
1.0
  2
_USER
 70
     0
 71
     1
 91
        1
 92
        1
 93
       12
 72
     1
 10
210.8958019852304
 20
721.6412841497489
 11
212.0550781982446
 21
721.6412841497489
 72
     1
 10
212.0550781982446
 20
721.6412841497489
 11
210.978607429016
 21
720.4239696621157
 72
     1
 10
210.978607429016
 20
720.4239696621157
 11
212.1339405256609
 21
719.117474625938
 72
     1
 10
212.1339405256609
 20
719.117474625938
 11
210.9746643126458
 21
719.117474625938
 72
     1
 10
210.9746643126458
 20
719.117474625938
 11
210.398969322509
 21
719.7684926303131
 72
     1
 10
210.398969322509
 20
719.7684926303131
 11
209.8232743323721
 21
719.117474625938
 72
     1
 10
209.8232743323721
 20
719.117474625938
 11
208.6639981193571
 21
719.117474625938
 72
     1
 10
208.6639981193571
 20
719.117474625938
 11
209.8193312160019
 21
720.4239696621157
 72
     1
 10
209.8193312160019
 20
720.4239696621157
 11
208.7428604467726
 21
721.6412841497489
 72
     1
 10
208.7428604467726
 20
721.6412841497489
 11
209.9021366597885
 21
721.6412841497489
 72
     1
 10
209.9021366597885
 20
721.6412841497489
 11
210.398969322509
 21
721.0794466939179
 72
     1
 10
210.398969322509
 20
721.0794466939179
 11
210.8958019852304
 21
721.6412841497489
 97
       12
330
23B
330
294
330
293
330
292
330
291
330
23C
330
23D
330
239
330
23A
330
297
330
296
330
295
 75
     1
 76
     0
 52
45.0
 41
0.1
 77
     0
 78
     1
 53
45.0
 43
0.0
 44
0.0
 45
-0.0707106781186548
 46
0.0707106781186548
 79
     0
 98
        1
 10
0.0
 20
0.0
  0
HATCH
  5
433
330
71
100
AcDbEntity
  8
1
  6
Continuous
 62
     2
100
AcDbHatch
 10
0.0
 20
0.0
 30
0.0
210
0.0
220
0.0
230
1.0
  2
_USER
 70
     0
 71
     1
 91
        1
 92
        1
 93
        4
 72
     1
 10
208.5654202100869
 20
721.6412841497489
 11
208.5654202100869
 21
719.117474625938
 72
     1
 10
208.5654202100869
 20
719.117474625938
 11
207.5402099536795
 21
719.117474625938
 72
     1
 10
207.5402099536795
 20
719.117474625938
 11
207.5402099536795
 21
721.6412841497489
 72
     1
 10
207.5402099536795
 20
721.6412841497489
 11
208.5654202100869
 21
721.6412841497489
 97
        4
330
28F
330
23E
330
28E
330
290
 75
     1
 76
     0
 52
45.0
 41
0.1
 77
     0
 78
     1
 53
45.0
 43
0.0
 44
0.0
 45
-0.0707106781186548
 46
0.0707106781186548
 79
     0
 98
        1
 10
0.0
 20
0.0
  0
HATCH
  5
434
330
71
100
AcDbEntity
  8
1
  6
Continuous
 62
     2
100
AcDbHatch
 10
0.0
 20
0.0
 30
0.0
210
0.0
220
0.0
230
1.0
  2
_USER
 70
     0
 71
     1
 91
        1
 92
        1
 93
        4
 72
     1
 10
208.5654202100869
 20
721.6412841497489
 11
208.5654202100869
 21
719.117474625938
 72
     1
 10
208.5654202100869
 20
719.117474625938
 11
207.5402099536795
 21
719.117474625938
 72
     1
 10
207.5402099536795
 20
719.117474625938
 11
207.5402099536795
 21
721.6412841497489
 72
     1
 10
207.5402099536795
 20
721.6412841497489
 11
208.5654202100869
 21
721.6412841497489
 97
        4
330
28F
330
23E
330
28E
330
290
 75
     1
 76
     0
 52
45.0
 41
0.1
 77
     0
 78
     1
 53
45.0
 43
0.0
 44
0.0
 45
-0.0707106781186548
 46
0.0707106781186548
 79
     0
 98
        1
 10
0.0
 20
0.0
  0
HATCH
  5
435
330
71
100
AcDbEntity
  8
1
  6
Continuous
 62
     2
100
AcDbHatch
 10
0.0
 20
0.0
 30
0.0
210
0.0
220
0.0
230
1.0
  2
_USER
 70
     0
 71
     1
 91
        2
 92
        1
 93
        8
 72
     1
 10
208.2427392154324
 20
716.3412841497609
 11
207.2175289590242
 21
716.3412841497609
 72
     1
 10
207.2175289590242
 20
716.3412841497609
 11
207.0427520553252
 21
716.788358979693
 72
     1
 10
207.0427520553252
 20
716.788358979693
 11
206.1068499258426
 21
716.788358979693
 72
     1
 10
206.1068499258426
 20
716.788358979693
 11
205.9320730221436
 21
716.3412841497609
 72
     1
 10
205.9320730221436
 20
716.3412841497609
 11
204.9068627657362
 21
716.3412841497609
 72
     1
 10
204.9068627657362
 20
716.3412841497609
 11
206.0621958623802
 21
718.8650936735718
 72
     1
 10
206.0621958623802
 20
718.8650936735718
 11
207.0874061187875
 21
718.8650936735718
 72
     1
 10
207.0874061187875
 20
718.8650936735718
 11
208.2427392154324
 21
716.3412841497609
 97
        8
330
28A
330
244
330
289
330
28C
330
241
330
28B
330
242
330
243
 92
       16
 93
        3
 72
     1
 10
206.3267305466237
 20
717.3508079592852
 11
206.8228714345431
 21
717.3508079592852
 72
     1
 10
206.8228714345431
 20
717.3508079592852
 11
206.5748009905843
 21
717.9853657824148
 72
     1
 10
206.5748009905843
 20
717.9853657824148
 11
206.3267305466237
 21
717.3508079592852
 97
        3
330
240
330
23F
330
28D
 75
     1
 76
     0
 52
45.0
 41
0.1
 77
     0
 78
     1
 53
45.0
 43
0.0
 44
0.0
 45
-0.0707106781186548
 46
0.0707106781186548
 79
     0
 98
        1
 10
0.0
 20
0.0
  0
HATCH
  5
436
330
71
100
AcDbEntity
  8
1
  6
Continuous
 62
     2
100
AcDbHatch
 10
0.0
 20
0.0
 30
0.0
210
0.0
220
0.0
230
1.0
  2
_USER
 70
     0
 71
     1
 91
        2
 92
        1
 93
        8
 72
     1
 10
208.2427392154324
 20
716.3412841497609
 11
207.2175289590242
 21
716.3412841497609
 72
     1
 10
207.2175289590242
 20
716.3412841497609
 11
207.0427520553252
 21
716.788358979693
 72
     1
 10
207.0427520553252
 20
716.788358979693
 11
206.1068499258426
 21
716.788358979693
 72
     1
 10
206.1068499258426
 20
716.788358979693
 11
205.9320730221436
 21
716.3412841497609
 72
     1
 10
205.9320730221436
 20
716.3412841497609
 11
204.9068627657362
 21
716.3412841497609
 72
     1
 10
204.9068627657362
 20
716.3412841497609
 11
206.0621958623802
 21
718.8650936735718
 72
     1
 10
206.0621958623802
 20
718.8650936735718
 11
207.0874061187875
 21
718.8650936735718
 72
     1
 10
207.0874061187875
 20
718.8650936735718
 11
208.2427392154324
 21
716.3412841497609
 97
        8
330
28A
330
244
330
289
330
28C
330
241
330
28B
330
242
330
243
 92
       16
 93
        3
 72
     1
 10
206.3267305466237
 20
717.3508079592852
 11
206.8228714345431
 21
717.3508079592852
 72
     1
 10
206.8228714345431
 20
717.3508079592852
 11
206.5748009905843
 21
717.9853657824148
 72
     1
 10
206.5748009905843
 20
717.9853657824148
 11
206.3267305466237
 21
717.3508079592852
 97
        3
330
240
330
23F
330
28D
 75
     1
 76
     0
 52
45.0
 41
0.1
 77
     0
 78
     1
 53
45.0
 43
0.0
 44
0.0
 45
-0.0707106781186548
 46
0.0707106781186548
 79
     0
 98
        1
 10
0.0
 20
0.0
  0
HATCH
  5
437
330
71
100
AcDbEntity
  8
1
  6
Continuous
 62
     2
100
AcDbHatch
 10
0.0
 20
0.0
 30
0.0
210
0.0
220
0.0
230
1.0
  2
_USER
 70
     0
 71
     1
 91
        1
 92
        1
 93
        8
 72
     1
 10
203.1237948821145
 20
718.8650936735718
 11
203.1237948821145
 21
718.2161140817341
 72
     1
 10
203.1237948821145
 20
718.2161140817341
 11
203.7941246651514
 21
718.2161140817341
 72
     1
 10
203.7941246651514
 20
718.2161140817341
 11
203.7941246651514
 21
716.3412841497609
 72
     1
 10
203.7941246651514
 20
716.3412841497609
 11
204.779903757851
 21
716.3412841497609
 72
     1
 10
204.779903757851
 20
716.3412841497609
 11
204.779903757851
 21
718.2161140817341
 72
     1
 10
204.779903757851
 20
718.2161140817341
 11
205.4502335408862
 21
718.2161140817341
 72
     1
 10
205.4502335408862
 20
718.2161140817341
 11
205.4502335408862
 21
718.8650936735718
 72
     1
 10
205.4502335408862
 20
718.8650936735718
 11
203.1237948821145
 21
718.8650936735718
 97
        8
330
286
330
285
330
284
330
245
330
246
330
288
330
247
330
287
 75
     1
 76
     0
 52
45.0
 41
0.1
 77
     0
 78
     1
 53
45.0
 43
0.0
 44
0.0
 45
-0.0707106781186548
 46
0.0707106781186548
 79
     0
 98
        1
 10
0.0
 20
0.0
  0
HATCH
  5
438
330
71
100
AcDbEntity
  8
1
  6
Continuous
 62
     2
100
AcDbHatch
 10
0.0
 20
0.0
 30
0.0
210
0.0
220
0.0
230
1.0
  2
_USER
 70
     0
 71
     1
 91
        1
 92
        1
 93
        8
 72
     1
 10
203.1237948821145
 20
718.8650936735718
 11
203.1237948821145
 21
718.2161140817341
 72
     1
 10
203.1237948821145
 20
718.2161140817341
 11
203.7941246651514
 21
718.2161140817341
 72
     1
 10
203.7941246651514
 20
718.2161140817341
 11
203.7941246651514
 21
716.3412841497609
 72
     1
 10
203.7941246651514
 20
716.3412841497609
 11
204.779903757851
 21
716.3412841497609
 72
     1
 10
204.779903757851
 20
716.3412841497609
 11
204.779903757851
 21
718.2161140817341
 72
     1
 10
204.779903757851
 20
718.2161140817341
 11
205.4502335408862
 21
718.2161140817341
 72
     1
 10
205.4502335408862
 20
718.2161140817341
 11
205.4502335408862
 21
718.8650936735718
 72
     1
 10
205.4502335408862
 20
718.8650936735718
 11
203.1237948821145
 21
718.8650936735718
 97
        8
330
286
330
285
330
284
330
245
330
246
330
288
330
247
330
287
 75
     1
 76
     0
 52
45.0
 41
0.1
 77
     0
 78
     1
 53
45.0
 43
0.0
 44
0.0
 45
-0.0707106781186548
 46
0.0707106781186548
 79
     0
 98
        1
 10
0.0
 20
0.0
  0
HATCH
  5
439
330
71
100
AcDbEntity
  8
1
  6
Continuous
 62
     2
100
AcDbHatch
 10
0.0
 20
0.0
 30
0.0
210
0.0
220
0.0
230
1.0
  2
_USER
 70
     0
 71
     1
 91
        1
 92
        1
 93
       10
 72
     1
 10
205.3320647860312
 20
721.6412841497489
 11
204.3462856933316
 21
721.6412841497489
 72
     1
 10
204.3462856933316
 20
721.6412841497489
 11
204.3462856933316
 21
719.117474625938
 72
     1
 10
204.3462856933316
 20
719.117474625938
 11
205.3320647860312
 21
719.117474625938
 72
     1
 10
205.3320647860312
 20
719.117474625938
 11
205.3320647860312
 21
720.1991072789997
 72
     1
 10
205.3320647860312
 20
720.1991072789997
 11
206.3572750424395
 21
719.117474625938
 72
     1
 10
206.3572750424395
 20
719.117474625938
 11
207.3430541351391
 21
719.117474625938
 72
     1
 10
207.3430541351391
 20
719.117474625938
 11
207.3430541351391
 21
721.6412841497489
 72
     1
 10
207.3430541351391
 20
721.6412841497489
 11
206.3572750424395
 21
721.6412841497489
 72
     1
 10
206.3572750424395
 20
721.6412841497489
 11
206.3572750424395
 21
720.5596514966868
 72
     1
 10
206.3572750424395
 20
720.5596514966868
 11
205.3320647860312
 21
721.6412841497489
 97
       10
330
280
330
24A
330
24B
330
24C
330
24D
330
283
330
248
330
282
330
281
330
249
 75
     1
 76
     0
 52
45.0
 41
0.1
 77
     0
 78
     1
 53
45.0
 43
0.0
 44
0.0
 45
-0.0707106781186548
 46
0.0707106781186548
 79
     0
 98
        1
 10
0.0
 20
0.0
  0
HATCH
  5
43A
330
71
100
AcDbEntity
  8
1
  6
Continuous
 62
     2
100
AcDbHatch
 10
0.0
 20
0.0
 30
0.0
210
0.0
220
0.0
230
1.0
  2
_USER
 70
     0
 71
     1
 91
        1
 92
        1
 93
       10
 72
     1
 10
205.3320647860312
 20
721.6412841497489
 11
204.3462856933316
 21
721.6412841497489
 72
     1
 10
204.3462856933316
 20
721.6412841497489
 11
204.3462856933316
 21
719.117474625938
 72
     1
 10
204.3462856933316
 20
719.117474625938
 11
205.3320647860312
 21
719.117474625938
 72
     1
 10
205.3320647860312
 20
719.117474625938
 11
205.3320647860312
 21
720.1991072789997
 72
     1
 10
205.3320647860312
 20
720.1991072789997
 11
206.3572750424395
 21
719.117474625938
 72
     1
 10
206.3572750424395
 20
719.117474625938
 11
207.3430541351391
 21
719.117474625938
 72
     1
 10
207.3430541351391
 20
719.117474625938
 11
207.3430541351391
 21
721.6412841497489
 72
     1
 10
207.3430541351391
 20
721.6412841497489
 11
206.3572750424395
 21
721.6412841497489
 72
     1
 10
206.3572750424395
 20
721.6412841497489
 11
206.3572750424395
 21
720.5596514966868
 72
     1
 10
206.3572750424395
 20
720.5596514966868
 11
205.3320647860312
 21
721.6412841497489
 97
       10
330
280
330
24A
330
24B
330
24C
330
24D
330
283
330
248
330
282
330
281
330
249
 75
     1
 76
     0
 52
45.0
 41
0.1
 77
     0
 78
     1
 53
45.0
 43
0.0
 44
0.0
 45
-0.0707106781186548
 46
0.0707106781186548
 79
     0
 98
        1
 10
0.0
 20
0.0
  0
HATCH
  5
43B
330
71
100
AcDbEntity
  8
1
  6
Continuous
 62
     2
100
AcDbHatch
 10
0.0
 20
0.0
 30
0.0
210
0.0
220
0.0
230
1.0
  2
_USER
 70
     0
 71
     1
 91
        1
 92
        1
 93
       10
 72
     1
 10
200.9945120418836
 20
718.8650936735718
 11
200.0087329491831
 21
718.8650936735718
 72
     1
 10
200.0087329491831
 20
718.8650936735718
 11
200.0087329491831
 21
716.3412841497609
 72
     1
 10
200.0087329491831
 20
716.3412841497609
 11
200.9945120418836
 21
716.3412841497609
 72
     1
 10
200.9945120418836
 20
716.3412841497609
 11
200.9945120418836
 21
717.4229168028226
 72
     1
 10
200.9945120418836
 20
717.4229168028226
 11
202.0197222982909
 21
716.3412841497609
 72
     1
 10
202.0197222982909
 20
716.3412841497609
 11
203.0055013909905
 21
716.3412841497609
 72
     1
 10
203.0055013909905
 20
716.3412841497609
 11
203.0055013909905
 21
718.8650936735718
 72
     1
 10
203.0055013909905
 20
718.8650936735718
 11
202.0197222982909
 21
718.8650936735718
 72
     1
 10
202.0197222982909
 20
718.8650936735718
 11
202.0197222982909
 21
717.7834610205097
 72
     1
 10
202.0197222982909
 20
717.7834610205097
 11
200.9945120418836
 21
718.8650936735718
 97
       10
330
24F
330
250
330
251
330
27D
330
252
330
253
330
27C
330
27F
330
27E
330
24E
 75
     1
 76
     0
 52
45.0
 41
0.1
 77
     0
 78
     1
 53
45.0
 43
0.0
 44
0.0
 45
-0.0707106781186548
 46
0.0707106781186548
 79
     0
 98
        1
 10
0.0
 20
0.0
  0
HATCH
  5
43C
330
71
100
AcDbEntity
  8
1
  6
Continuous
 62
     2
100
AcDbHatch
 10
0.0
 20
0.0
 30
0.0
210
0.0
220
0.0
230
1.0
  2
_USER
 70
     0
 71
     1
 91
        1
 92
        1
 93
       10
 72
     1
 10
200.9945120418836
 20
718.8650936735718
 11
200.0087329491831
 21
718.8650936735718
 72
     1
 10
200.0087329491831
 20
718.8650936735718
 11
200.0087329491831
 21
716.3412841497609
 72
     1
 10
200.0087329491831
 20
716.3412841497609
 11
200.9945120418836
 21
716.3412841497609
 72
     1
 10
200.9945120418836
 20
716.3412841497609
 11
200.9945120418836
 21
717.4229168028226
 72
     1
 10
200.9945120418836
 20
717.4229168028226
 11
202.0197222982909
 21
716.3412841497609
 72
     1
 10
202.0197222982909
 20
716.3412841497609
 11
203.0055013909905
 21
716.3412841497609
 72
     1
 10
203.0055013909905
 20
716.3412841497609
 11
203.0055013909905
 21
718.8650936735718
 72
     1
 10
203.0055013909905
 20
718.8650936735718
 11
202.0197222982909
 21
718.8650936735718
 72
     1
 10
202.0197222982909
 20
718.8650936735718
 11
202.0197222982909
 21
717.7834610205097
 72
     1
 10
202.0197222982909
 20
717.7834610205097
 11
200.9945120418836
 21
718.8650936735718
 97
       10
330
24F
330
250
330
251
330
27D
330
252
330
253
330
27C
330
27F
330
27E
330
24E
 75
     1
 76
     0
 52
45.0
 41
0.1
 77
     0
 78
     1
 53
45.0
 43
0.0
 44
0.0
 45
-0.0707106781186548
 46
0.0707106781186548
 79
     0
 98
        1
 10
0.0
 20
0.0
  0
HATCH
  5
43D
330
71
100
AcDbEntity
  8
1
  6
Continuous
 62
     2
100
AcDbHatch
 10
0.0
 20
0.0
 30
0.0
210
0.0
220
0.0
230
1.0
  2
_USER
 70
     0
 71
     1
 91
        1
 92
        1
 93
       12
 72
     1
 10
200.1665823402841
 20
721.6412841497489
 11
200.1665823402841
 21
719.117474625938
 72
     1
 10
200.1665823402841
 20
719.117474625938
 11
199.1808032475845
 21
719.117474625938
 72
     1
 10
199.1808032475845
 20
719.117474625938
 11
199.1808032475845
 21
720.0548895919246
 72
     1
 10
199.1808032475845
 20
720.0548895919246
 11
198.3133176460081
 21
720.0548895919246
 72
     1
 10
198.3133176460081
 20
720.0548895919246
 11
198.3133176460081
 21
719.117474625938
 72
     1
 10
198.3133176460081
 20
719.117474625938
 11
197.3275385533085
 21
719.117474625938
 72
     1
 10
197.3275385533085
 20
719.117474625938
 11
197.3275385533085
 21
721.6412841497489
 72
     1
 10
197.3275385533085
 20
721.6412841497489
 11
198.3133176460081
 21
721.6412841497489
 72
     1
 10
198.3133176460081
 20
721.6412841497489
 11
198.3133176460081
 21
720.7579508164146
 72
     1
 10
198.3133176460081
 20
720.7579508164146
 11
199.1808032475845
 21
720.7579508164146
 72
     1
 10
199.1808032475845
 20
720.7579508164146
 11
199.1808032475845
 21
721.6412841497489
 72
     1
 10
199.1808032475845
 20
721.6412841497489
 11
200.1665823402841
 21
721.6412841497489
 97
       12
330
277
330
276
330
275
330
25D
330
25E
330
274
330
25F
330
273
330
272
330
271
330
25B
330
25C
 75
     1
 76
     0
 52
45.0
 41
0.1
 77
     0
 78
     1
 53
45.0
 43
0.0
 44
0.0
 45
-0.0707106781186548
 46
0.0707106781186548
 79
     0
 98
        1
 10
0.0
 20
0.0
  0
HATCH
  5
43E
330
71
100
AcDbEntity
  8
1
  6
Continuous
 62
     2
100
AcDbHatch
 10
0.0
 20
0.0
 30
0.0
210
0.0
220
0.0
230
1.0
  2
_USER
 70
     0
 71
     1
 91
        1
 92
        1
 93
       12
 72
     1
 10
200.1665823402841
 20
721.6412841497489
 11
200.1665823402841
 21
719.117474625938
 72
     1
 10
200.1665823402841
 20
719.117474625938
 11
199.1808032475845
 21
719.117474625938
 72
     1
 10
199.1808032475845
 20
719.117474625938
 11
199.1808032475845
 21
720.0548895919246
 72
     1
 10
199.1808032475845
 20
720.0548895919246
 11
198.3133176460081
 21
720.0548895919246
 72
     1
 10
198.3133176460081
 20
720.0548895919246
 11
198.3133176460081
 21
719.117474625938
 72
     1
 10
198.3133176460081
 20
719.117474625938
 11
197.3275385533085
 21
719.117474625938
 72
     1
 10
197.3275385533085
 20
719.117474625938
 11
197.3275385533085
 21
721.6412841497489
 72
     1
 10
197.3275385533085
 20
721.6412841497489
 11
198.3133176460081
 21
721.6412841497489
 72
     1
 10
198.3133176460081
 20
721.6412841497489
 11
198.3133176460081
 21
720.7579508164146
 72
     1
 10
198.3133176460081
 20
720.7579508164146
 11
199.1808032475845
 21
720.7579508164146
 72
     1
 10
199.1808032475845
 20
720.7579508164146
 11
199.1808032475845
 21
721.6412841497489
 72
     1
 10
199.1808032475845
 20
721.6412841497489
 11
200.1665823402841
 21
721.6412841497489
 97
       12
330
277
330
276
330
275
330
25D
330
25E
330
274
330
25F
330
273
330
272
330
271
330
25B
330
25C
 75
     1
 76
     0
 52
45.0
 41
0.1
 77
     0
 78
     1
 53
45.0
 43
0.0
 44
0.0
 45
-0.0707106781186548
 46
0.0707106781186548
 79
     0
 98
        1
 10
0.0
 20
0.0
  0
ENDBLK
  5
73
330
71
100
AcDbEntity
  8
0
100
AcDbBlockEnd
  0
BLOCK
  5
75
330
74
100
AcDbEntity
  8
0
100
AcDbBlockBegin
  2
_punkt
 70
     0
 10
311.9514689224397
 20
710.4912841497551
 30
0.0
  3
_punkt
  1

  0
LINE
  5
43F
330
74
100
AcDbEntity
  8
1
  6
Continuous
 62
     2
100
AcDbLine
 10
311.9514689224397
 20
710.4912841497551
 30
0.0
 11
311.9514689224397
 21
705.4912841497555
 31
0.0
  0
LINE
  5
440
330
74
100
AcDbEntity
  8
1
  6
Continuous
 62
     2
100
AcDbLine
 10
311.9514689224397
 20
710.4912841497551
 30
0.0
 11
316.9514689224374
 21
710.4912841497551
 31
0.0
  0
ENDBLK
  5
76
330
74
100
AcDbEntity
  8
0
100
AcDbBlockEnd
  0
BLOCK
  5
7A
330
77
100
AcDbEntity
  8
0
100
AcDbBlockBegin
  2
A3I
 70
     0
 10
311.9514689224397
 20
705.4912841497555
 30
0.0
  3
A3I
  1

  0
INSERT
  5
78
330
77
100
AcDbEntity
  8
1
100
AcDbBlockReference
  2
_rahmen
 10
311.9514689224397
 20
705.4912841497555
 30
0.0
  0
INSERT
  5
79
330
77
100
AcDbEntity
  8
1
100
AcDbBlockReference
  2
_punkt
 10
311.9514689224397
 20
710.4912841497551
 30
0.0
  0
ENDBLK
  5
7B
330
77
100
AcDbEntity
  8
0
100
AcDbBlockEnd
  0
BLOCK
  5
197
330
190
100
AcDbEntity
  8
0
100
AcDbBlockBegin
  2
*D16
 70
     1
 10
0.0
 20
0.0
 30
0.0
  3
*D16
  1

  0
LINE
  5
191
330
190
100
AcDbEntity
  8
1
  6
Continuous
 62
     2
100
AcDbLine
 10
131.6343126495254
 20
924.8000002099782
 30
0.0
 11
107.6343126495254
 21
924.8000002099782
 31
0.0
  0
LINE
  5
192
330
190
100
AcDbEntity
  8
1
  6
Continuous
 62
     2
100
AcDbLine
 10
131.6343126495254
 20
894.0000002099782
 30
0.0
 11
131.6343126495254
 21
926.8000002099782
 31
0.0
  0
LINE
  5
193
330
190
100
AcDbEntity
  8
1
  6
Continuous
 62
     2
100
AcDbLine
 10
107.6343126495254
 20
894.0000002099782
 30
0.0
 11
107.6343126495254
 21
926.8000002099782
 31
0.0
  0
SOLID
  5
194
330
190
100
AcDbEntity
  8
1
 62
     2
100
AcDbTrace
 10
128.1343126495254
 20
924.3392164684223
 30
0.0
 11
128.1343126495254
 21
925.2607839515341
 31
0.0
 12
131.6343126495254
 22
924.8000002099782
 32
0.0
 13
131.6343126495254
 23
924.8000002099782
 33
0.0
  0
SOLID
  5
195
330
190
100
AcDbEntity
  8
1
 62
     2
100
AcDbTrace
 10
111.1343126495254
 20
925.2607839515341
 30
0.0
 11
111.1343126495254
 21
924.3392164684223
 31
0.0
 12
107.6343126495254
 22
924.8000002099782
 32
0.0
 13
107.6343126495254
 23
924.8000002099782
 33
0.0
  0
MTEXT
  5
196
330
190
100
AcDbEntity
  8
1
 62
     3
100
AcDbMText
 10
117.0093126495254
 20
926.8000002099782
 30
0.0
 40
3.5
 41
0.0
 71
     7
 72
     1
  1
24
  7
CONVERTER_11
 11
0.9999999999970619
 21
2.424068405545306E-6
 31
0.0
 73
     1
 44
0.60024009603842
  0
ENDBLK
  5
198
330
190
100
AcDbEntity
  8
0
100
AcDbBlockEnd
  0
BLOCK
  5
1A2
330
19B
100
AcDbEntity
  8
0
100
AcDbBlockBegin
  2
*D17
 70
     1
 10
0.0
 20
0.0
 30
0.0
  3
*D17
  1

  0
LINE
  5
19C
330
19B
100
AcDbEntity
  8
1
  6
Continuous
 62
     2
100
AcDbLine
 10
141.6343126495254
 20
896.0000002099782
 30
0.0
 11
141.6343126495254
 21
843.2000002099783
 31
0.0
  0
LINE
  5
19D
330
19B
100
AcDbEntity
  8
1
  6
Continuous
 62
     2
100
AcDbLine
 10
123.1343126495254
 20
896.0000002099782
 30
0.0
 11
143.6343126495254
 21
896.0000002099782
 31
0.0
  0
LINE
  5
19E
330
19B
100
AcDbEntity
  8
1
  6
Continuous
 62
     2
100
AcDbLine
 10
119.6343126495254
 20
843.2000002099783
 30
0.0
 11
143.6343126495254
 21
843.2000002099783
 31
0.0
  0
SOLID
  5
19F
330
19B
100
AcDbEntity
  8
1
 62
     2
100
AcDbTrace
 10
142.0950963910813
 20
892.5000002099782
 30
0.0
 11
141.1735289079695
 21
892.5000002099782
 31
0.0
 12
141.6343126495254
 22
896.0000002099782
 32
0.0
 13
141.6343126495254
 23
896.0000002099782
 33
0.0
  0
SOLID
  5
1A0
330
19B
100
AcDbEntity
  8
1
 62
     2
100
AcDbTrace
 10
141.1735289079695
 20
846.7000002099783
 30
0.0
 11
142.0950963910813
 21
846.7000002099783
 31
0.0
 12
141.6343126495254
 22
843.2000002099783
 32
0.0
 13
141.6343126495254
 23
843.2000002099783
 33
0.0
  0
MTEXT
  5
1A1
330
19B
100
AcDbEntity
  8
1
 62
     3
100
AcDbMText
 10
139.2843126495254
 20
864.7875002099782
 30
0.0
 40
3.5
 41
0.0
 71
     7
 72
     1
  1
52,8
  7
CONVERTER_11
 11
0.0
 21
1.0
 31
0.0
 73
     1
 44
0.60024009603842
  0
ENDBLK
  5
1A3
330
19B
100
AcDbEntity
  8
0
100
AcDbBlockEnd
  0
BLOCK
  5
1AD
330
1A6
100
AcDbEntity
  8
0
100
AcDbBlockBegin
  2
*D18
 70
     1
 10
0.0
 20
0.0
 30
0.0
  3
*D18
  1

  0
LINE
  5
1A7
330
1A6
100
AcDbEntity
  8
1
  6
Continuous
 62
     2
100
AcDbLine
 10
149.6343126495254
 20
914.8000002099782
 30
0.0
 11
149.6343126495254
 21
843.2000002099783
 31
0.0
  0
LINE
  5
1A8
330
1A6
100
AcDbEntity
  8
1
  6
Continuous
 62
     2
100
AcDbLine
 10
124.6343126495254
 20
914.8000002099782
 30
0.0
 11
151.6343126495254
 21
914.8000002099782
 31
0.0
  0
LINE
  5
1A9
330
1A6
100
AcDbEntity
  8
1
  6
Continuous
 62
     2
100
AcDbLine
 10
119.6343126495254
 20
843.2000002099783
 30
0.0
 11
151.6343126495254
 21
843.2000002099783
 31
0.0
  0
SOLID
  5
1AA
330
1A6
100
AcDbEntity
  8
1
 62
     2
100
AcDbTrace
 10
150.0950963910813
 20
911.3000002099782
 30
0.0
 11
149.1735289079695
 21
911.3000002099782
 31
0.0
 12
149.6343126495254
 22
914.8000002099782
 32
0.0
 13
149.6343126495254
 23
914.8000002099782
 33
0.0
  0
SOLID
  5
1AB
330
1A6
100
AcDbEntity
  8
1
 62
     2
100
AcDbTrace
 10
149.1735289079695
 20
846.7000002099783
 30
0.0
 11
150.0950963910813
 21
846.7000002099783
 31
0.0
 12
149.6343126495254
 22
843.2000002099783
 32
0.0
 13
149.6343126495254
 23
843.2000002099783
 33
0.0
  0
MTEXT
  5
1AC
330
1A6
100
AcDbEntity
  8
1
 62
     3
100
AcDbMText
 10
147.2843126495254
 20
874.7125002099782
 30
0.0
 40
3.5
 41
0.0
 71
     7
 72
     1
  1
71,6
  7
CONVERTER_11
 11
0.0
 21
1.0
 31
0.0
 73
     1
 44
0.60024009603842
  0
ENDBLK
  5
1AE
330
1A6
100
AcDbEntity
  8
0
100
AcDbBlockEnd
  0
BLOCK
  5
230
330
229
100
AcDbEntity
  8
0
100
AcDbBlockBegin
  2
*D19
 70
     1
 10
0.0
 20
0.0
 30
0.0
  3
*D19
  1

  0
LINE
  5
22A
330
229
100
AcDbEntity
  8
1
  6
Continuous
 62
     2
100
AcDbLine
 10
86.26862529135758
 20
924.8000002099783
 30
0.0
 11
56.26862529135761
 21
924.8000002099783
 31
0.0
  0
LINE
  5
22B
330
229
100
AcDbEntity
  8
1
  6
Continuous
 62
     2
100
AcDbLine
 10
86.26862529135758
 20
884.797959181111
 30
0.0
 11
86.26862529135758
 21
926.8000002099783
 31
0.0
  0
LINE
  5
22C
330
229
100
AcDbEntity
  8
1
  6
Continuous
 62
     2
100
AcDbLine
 10
56.26862529135761
 20
884.7979591811111
 30
0.0
 11
56.26862529135761
 21
926.8000002099783
 31
0.0
  0
SOLID
  5
22D
330
229
100
AcDbEntity
  8
1
 62
     2
100
AcDbTrace
 10
82.76862529135758
 20
924.3392164684224
 30
0.0
 11
82.76862529135758
 21
925.2607839515342
 31
0.0
 12
86.26862529135758
 22
924.8000002099783
 32
0.0
 13
86.26862529135758
 23
924.8000002099783
 33
0.0
  0
SOLID
  5
22E
330
229
100
AcDbEntity
  8
1
 62
     2
100
AcDbTrace
 10
59.76862529135761
 20
925.2607839515342
 30
0.0
 11
59.76862529135761
 21
924.3392164684224
 31
0.0
 12
56.26862529135761
 22
924.8000002099783
 32
0.0
 13
56.26862529135761
 23
924.8000002099783
 33
0.0
  0
MTEXT
  5
22F
330
229
100
AcDbEntity
  8
1
 62
     3
100
AcDbMText
 10
68.6436252913576
 20
926.8000002099783
 30
0.0
 40
3.5
 41
0.0
 71
     7
 72
     1
  1
30
  7
CONVERTER_11
 11
0.9999999999970619
 21
2.424068405545306E-6
 31
0.0
 73
     1
 44
0.60024009603842
  0
ENDBLK
  5
231
330
229
100
AcDbEntity
  8
0
100
AcDbBlockEnd
  0
ENDSEC
  0
SECTION
  2
ENTITIES
  0
INSERT
  5
7C
330
1F
100
AcDbEntity
  8
0
100
AcDbBlockReference
  2
Allg1
 10
267.0000000067299
 20
804.0000000835998
 30
0.0
  0
INSERT
  5
7D
330
1F
100
AcDbEntity
  8
0
100
AcDbBlockReference
  2
Drfsicht1
 10
71.26862527508001
 20
800.4412830401043
 30
0.0
  0
INSERT
  5
7E
330
1F
100
AcDbEntity
  8
0
100
AcDbBlockReference
  2
Rckans1
 10
187.999999986843
 20
879.00000010499
 30
0.0
  0
INSERT
  5
7F
330
1F
100
AcDbEntity
  8
0
100
AcDbBlockReference
  2
SA_Links1
 10
119.6343126402801
 20
879.00000010499
 30
0.0
  0
INSERT
  5
80
330
1F
100
AcDbEntity
  8
0
100
AcDbBlockReference
  2
SA_Rechts1
 10
22.90293788355623
 20
879.00000010499
 30
0.0
  0
INSERT
  5
81
330
1F
100
AcDbEntity
  8
0
100
AcDbBlockReference
  2
Vordans1
 10
71.26862527508001
 20
879.00000010499
 30
0.0
  0
INSERT
  5
82
330
1F
100
AcDbEntity
  8
0
100
AcDbBlockReference
  2
A3I
 10
311.9514689224397
 20
705.4912841497555
 30
0.0
  0
ENDSEC
  0
SECTION
  2
OBJECTS
  0
DICTIONARY
  5
C
330
0
100
AcDbDictionary
281
     1
  3
ACAD_GROUP
350
D
  3
ACAD_LAYOUT
350
1A
  3
ACAD_MATERIAL
350
3B
  3
ACAD_MLEADERSTYLE
350
443
  3
ACAD_MLINESTYLE
350
17
  3
ACAD_PLOTSETTINGS
350
19
  3
ACAD_PLOTSTYLENAME
350
E
  3
ACAD_VISUALSTYLE
350
2A
  3
AcDbVariableDictionary
350
441
  0
DICTIONARY
  5
D
102
{ACAD_REACTORS
330
C
102
}
330
C
100
AcDbDictionary
281
     1
  0
DICTIONARY
  5
1A
102
{ACAD_REACTORS
330
C
102
}
330
C
100
AcDbDictionary
281
     1
  3
Layout1
350
1E
  3
Layout2
350
26
  3
Model
350
22
  0
DICTIONARY
  5
3B
102
{ACAD_REACTORS
330
C
102
}
330
C
100
AcDbDictionary
281
     1
  3
ByBlock
350
3D
  3
ByLayer
350
3C
  3
Global
350
3E
  0
DICTIONARY
  5
443
102
{ACAD_REACTORS
330
C
102
}
330
C
100
AcDbDictionary
281
     1
  0
DICTIONARY
  5
17
102
{ACAD_REACTORS
330
C
102
}
330
C
100
AcDbDictionary
281
     1
  3
Standard
350
18
  0
DICTIONARY
  5
19
102
{ACAD_REACTORS
330
C
102
}
330
C
100
AcDbDictionary
281
     1
  0
ACDBDICTIONARYWDFLT
  5
E
102
{ACAD_REACTORS
330
C
102
}
330
C
100
AcDbDictionary
281
     1
  3
Normal
350
F
100
AcDbDictionaryWithDefault
340
F
  0
DICTIONARY
  5
2A
102
{ACAD_REACTORS
330
C
102
}
330
C
100
AcDbDictionary
281
     1
  3
2dWireframe
350
2F
  3
3D Hidden
350
31
  3
3dWireframe
350
30
  3
Basic
350
32
  3
Brighten
350
36
  3
ColorChange
350
3A
  3
Conceptual
350
34
  3
Dim
350
35
  3
Facepattern
350
39
  3
Flat
350
2B
  3
FlatWithEdges
350
2C
  3
Gouraud
350
2D
  3
GouraudWithEdges
350
2E
  3
Linepattern
350
38
  3
Realistic
350
33
  3
Thicken
350
37
  0
DICTIONARY
  5
441
102
{ACAD_REACTORS
330
C
102
}
330
C
100
AcDbDictionary
281
     1
  3
DIMASSOC
350
444
  3
HIDETEXT
350
445
  0
LAYOUT
  5
1E
102
{ACAD_REACTORS
330
1A
102
}
330
1A
100
AcDbPlotSettings
  1

  2
none_device
  4

  6

 40
0.0
 41
0.0
 42
0.0
 43
0.0
 44
0.0
 45
0.0
 46
0.0
 47
0.0
 48
0.0
 49
0.0
140
0.0
141
0.0
142
1.0
143
1.0
 70
   688
 72
     0
 73
     0
 74
     5
  7

 75
    16
147
1.0
148
0.0
149
0.0
100
AcDbLayout
  1
Layout1
 70
     1
 71
     1
 10
0.0
 20
0.0
 11
12.0
 21
9.0
 12
0.0
 22
0.0
 32
0.0
 14
1.00000000000000E+20
 24
1.00000000000000E+20
 34
1.00000000000000E+20
 15
-1.00000000000000E+20
 25
-1.00000000000000E+20
 35
-1.00000000000000E+20
146
0.0
 13
0.0
 23
0.0
 33
0.0
 16
1.0
 26
0.0
 36
0.0
 17
0.0
 27
1.0
 37
0.0
 76
     0
330
1B
  0
LAYOUT
  5
26
102
{ACAD_REACTORS
330
1A
102
}
330
1A
100
AcDbPlotSettings
  1

  2
none_device
  4

  6

 40
0.0
 41
0.0
 42
0.0
 43
0.0
 44
0.0
 45
0.0
 46
0.0
 47
0.0
 48
0.0
 49
0.0
140
0.0
141
0.0
142
1.0
143
1.0
 70
   688
 72
     0
 73
     0
 74
     5
  7

 75
    16
147
1.0
148
0.0
149
0.0
100
AcDbLayout
  1
Layout2
 70
     1
 71
     2
 10
0.0
 20
0.0
 11
0.0
 21
0.0
 12
0.0
 22
0.0
 32
0.0
 14
0.0
 24
0.0
 34
0.0
 15
0.0
 25
0.0
 35
0.0
146
0.0
 13
0.0
 23
0.0
 33
0.0
 16
1.0
 26
0.0
 36
0.0
 17
0.0
 27
1.0
 37
0.0
 76
     0
330
23
  0
LAYOUT
  5
22
102
{ACAD_REACTORS
330
1A
102
}
330
1A
100
AcDbPlotSettings
  1

  2
none_device
  4

  6

 40
0.0
 41
0.0
 42
0.0
 43
0.0
 44
0.0
 45
0.0
 46
0.0
 47
0.0
 48
0.0
 49
0.0
140
0.0
141
0.0
142
1.0
143
1.0
 70
  1712
 72
     0
 73
     0
 74
     0
  7

 75
     0
147
1.0
148
0.0
149
0.0
100
AcDbLayout
  1
Model
 70
     1
 71
     0
 10
0.0
 20
0.0
 11
12.0
 21
9.0
 12
0.0
 22
0.0
 32
0.0
 14
-103.048531077561
 24
705.4912841497555
 34
0.0
 15
316.9514689224374
 25
1002.491284149756
 35
0.0
146
0.0
 13
0.0
 23
0.0
 33
0.0
 16
1.0
 26
0.0
 36
0.0
 17
0.0
 27
1.0
 37
0.0
 76
     0
330
1F
331
29
  0
MATERIAL
  5
3D
102
{ACAD_REACTORS
330
3B
102
}
102
{ACAD_XDICTIONARY
360
468
102
}
330
3B
100
AcDbMaterial
  1
ByBlock
  0
MATERIAL
  5
3C
102
{ACAD_REACTORS
330
3B
102
}
102
{ACAD_XDICTIONARY
360
466
102
}
330
3B
100
AcDbMaterial
  1
ByLayer
  0
MATERIAL
  5
3E
102
{ACAD_REACTORS
330
3B
102
}
102
{ACAD_XDICTIONARY
360
46A
102
}
330
3B
100
AcDbMaterial
  1
Global
  0
MLINESTYLE
  5
18
102
{ACAD_REACTORS
330
17
102
}
330
17
100
AcDbMlineStyle
  2
Standard
 70
     0
  3

 62
   256
 51
90.0
 52
90.0
 71
     2
 49
0.5
 62
   256
  6
BYLAYER
 49
-0.5
 62
   256
  6
BYLAYER
  0
ACDBPLACEHOLDER
  5
F
102
{ACAD_REACTORS
330
E
102
}
330
E
  0
VISUALSTYLE
  5
2F
102
{ACAD_REACTORS
330
2A
102
}
102
{ACAD_XDICTIONARY
360
44E
102
}
330
2A
100
AcDbVisualStyle
  2
2dWireframe
 70
     4
 71
     0
 72
     2
 73
     0
 90
        0
 40
-0.6
 41
-30.0
 62
     5
 63
     7
 74
     1
 91
        4
 64
     7
 65
   257
 75
     1
175
     1
 42
1.0
 92
        0
 66
   257
 43
1.0
 76
     1
 77
     6
 78
     2
 67
     7
 79
     5
170
     0
171
     0
290
     0
174
     0
 93
        1
 44
0.0
173
     0
291
     0
 45
0.0
1001
ACAD
1000
AcDbSavedByObjectVersion
1070
     0
  0
VISUALSTYLE
  5
31
102
{ACAD_REACTORS
330
2A
102
}
102
{ACAD_XDICTIONARY
360
452
102
}
330
2A
100
AcDbVisualStyle
  2
3D Hidden
 70
     6
 71
     1
 72
     2
 73
     2
 90
        0
 40
-0.6
 41
-30.0
 62
     5
 63
     7
 74
     2
 91
        2
 64
     7
 65
   257
 75
     2
175
     1
 42
40.0
 92
        0
 66
   257
 43
1.0
 76
     1
 77
     6
 78
     2
 67
     7
 79
     3
170
     0
171
     0
290
     0
174
     0
 93
        1
 44
0.0
173
     0
291
     0
 45
0.0
1001
ACAD
1000
AcDbSavedByObjectVersion
1070
     0
  0
VISUALSTYLE
  5
30
102
{ACAD_REACTORS
330
2A
102
}
102
{ACAD_XDICTIONARY
360
450
102
}
330
2A
100
AcDbVisualStyle
  2
3dWireframe
 70
     5
 71
     0
 72
     2
 73
     0
 90
        0
 40
-0.6
 41
-30.0
 62
     5
 63
     7
 74
     1
 91
        4
 64
     7
 65
   257
 75
     1
175
     1
 42
1.0
 92
        0
 66
   257
 43
1.0
 76
     1
 77
     6
 78
     2
 67
     7
 79
     5
170
     0
171
     0
290
     0
174
     0
 93
        1
 44
0.0
173
     0
291
     0
 45
0.0
1001
ACAD
1000
AcDbSavedByObjectVersion
1070
     0
  0
VISUALSTYLE
  5
32
102
{ACAD_REACTORS
330
2A
102
}
102
{ACAD_XDICTIONARY
360
454
102
}
330
2A
100
AcDbVisualStyle
  2
Basic
 70
     7
 71
     1
 72
     0
 73
     1
 90
        0
 40
-0.6
 41
-30.0
 62
     5
 63
     7
 74
     0
 91
        4
 64
     7
 65
   257
 75
     1
175
     1
 42
1.0
 92
        8
 66
     7
 43
1.0
 76
     1
 77
     6
 78
     2
 67
     7
 79
     5
170
     0
171
     0
290
     0
174
     0
 93
        1
 44
0.0
173
     0
291
     1
 45
0.0
1001
ACAD
1000
AcDbSavedByObjectVersion
1070
     0
  0
VISUALSTYLE
  5
36
102
{ACAD_REACTORS
330
2A
102
}
102
{ACAD_XDICTIONARY
360
45C
102
}
330
2A
100
AcDbVisualStyle
  2
Brighten
 70
    12
 71
     2
 72
     2
 73
     0
 90
        0
 40
-0.6
 41
-30.0
 62
     5
 63
     7
 74
     1
 91
        4
 64
     7
 65
   257
 75
     1
175
     1
 42
1.0
 92
        8
 66
     7
 43
1.0
 76
     1
 77
     6
 78
     2
 67
     7
 79
     5
170
     0
171
     0
290
     0
174
     0
 93
        1
 44
50.0
173
     0
291
     1
 45
0.0
1001
ACAD
1000
AcDbSavedByObjectVersion
1070
     0
  0
VISUALSTYLE
  5
3A
102
{ACAD_REACTORS
330
2A
102
}
102
{ACAD_XDICTIONARY
360
464
102
}
330
2A
100
AcDbVisualStyle
  2
ColorChange
 70
    16
 71
     2
 72
     2
 73
     3
 90
        0
 40
-0.6
 41
-30.0
 62
     5
 63
     8
 74
     1
 91
        4
 64
     7
 65
   257
 75
     1
175
     1
 42
1.0
 92
        8
 66
     8
 43
1.0
 76
     1
 77
     6
 78
     2
 67
     7
 79
     5
170
     0
171
     0
290
     0
174
     0
 93
        1
 44
0.0
173
     0
291
     1
 45
0.0
1001
ACAD
1000
AcDbSavedByObjectVersion
1070
     0
  0
VISUALSTYLE
  5
34
102
{ACAD_REACTORS
330
2A
102
}
102
{ACAD_XDICTIONARY
360
458
102
}
330
2A
100
AcDbVisualStyle
  2
Conceptual
 70
     9
 71
     3
 72
     2
 73
     0
 90
        0
 40
-0.6
 41
-30.0
 62
     5
 63
     7
 74
     2
 91
        2
 64
     7
 65
   257
 75
     1
175
     1
 42
40.0
 92
        8
 66
     7
 43
1.0
 76
     1
 77
     6
 78
     2
 67
     7
 79
     3
170
     0
171
     0
290
     0
174
     0
 93
        1
 44
0.0
173
     0
291
     0
 45
0.0
1001
ACAD
1000
AcDbSavedByObjectVersion
1070
     0
  0
VISUALSTYLE
  5
35
102
{ACAD_REACTORS
330
2A
102
}
102
{ACAD_XDICTIONARY
360
45A
102
}
330
2A
100
AcDbVisualStyle
  2
Dim
 70
    11
 71
     2
 72
     2
 73
     0
 90
        0
 40
-0.6
 41
-30.0
 62
     5
 63
     7
 74
     1
 91
        4
 64
     7
 65
   257
 75
     1
175
     1
 42
1.0
 92
        8
 66
     7
 43
1.0
 76
     1
 77
     6
 78
     2
 67
     7
 79
     5
170
     0
171
     0
290
     0
174
     0
 93
        1
 44
-50.0
173
     0
291
     1
 45
0.0
1001
ACAD
1000
AcDbSavedByObjectVersion
1070
     0
  0
VISUALSTYLE
  5
39
102
{ACAD_REACTORS
330
2A
102
}
102
{ACAD_XDICTIONARY
360
462
102
}
330
2A
100
AcDbVisualStyle
  2
Facepattern
 70
    15
 71
     2
 72
     2
 73
     0
 90
        0
 40
-0.6
 41
-30.0
 62
     5
 63
     7
 74
     1
 91
        4
 64
     7
 65
   257
 75
     1
175
     1
 42
1.0
 92
        8
 66
     7
 43
1.0
 76
     1
 77
     6
 78
     2
 67
     7
 79
     5
170
     0
171
     0
290
     0
174
     0
 93
        1
 44
0.0
173
     0
291
     1
 45
0.0
1001
ACAD
1000
AcDbSavedByObjectVersion
1070
     0
  0
VISUALSTYLE
  5
2B
102
{ACAD_REACTORS
330
2A
102
}
102
{ACAD_XDICTIONARY
360
446
102
}
330
2A
100
AcDbVisualStyle
  2
Flat
 70
     0
 71
     2
 72
     1
 73
     1
 90
        2
 40
-0.6
 41
30.0
 62
     5
 63
     7
 74
     0
 91
        4
 64
     7
 65
   257
 75
     1
175
     1
 42
1.0
 92
        8
 66
     7
 43
1.0
 76
     1
 77
     6
 78
     2
 67
     7
 79
     5
170
     0
171
     0
290
     0
174
     0
 93
       13
 44
0.0
173
     0
291
     1
 45
0.0
1001
ACAD
1000
AcDbSavedByObjectVersion
1070
     0
  0
VISUALSTYLE
  5
2C
102
{ACAD_REACTORS
330
2A
102
}
102
{ACAD_XDICTIONARY
360
448
102
}
330
2A
100
AcDbVisualStyle
  2
FlatWithEdges
 70
     1
 71
     2
 72
     1
 73
     1
 90
        2
 40
-0.6
 41
30.0
 62
     5
 63
     7
 74
     1
 91
        4
 64
     7
 65
   257
 75
     1
175
     1
 42
1.0
 92
        0
 66
   257
 43
1.0
 76
     1
 77
     6
 78
     2
 67
     7
 79
     5
170
     0
171
     0
290
     0
174
     0
 93
       13
 44
0.0
173
     0
291
     1
 45
0.0
1001
ACAD
1000
AcDbSavedByObjectVersion
1070
     0
  0
VISUALSTYLE
  5
2D
102
{ACAD_REACTORS
330
2A
102
}
102
{ACAD_XDICTIONARY
360
44A
102
}
330
2A
100
AcDbVisualStyle
  2
Gouraud
 70
     2
 71
     2
 72
     2
 73
     1
 90
        2
 40
-0.6
 41
30.0
 62
     5
 63
     7
 74
     0
 91
        4
 64
     7
 65
   257
 75
     1
175
     1
 42
1.0
 92
        0
 66
     7
 43
1.0
 76
     1
 77
     6
 78
     2
 67
     7
 79
     5
170
     0
171
     0
290
     0
174
     0
 93
       13
 44
0.0
173
     0
291
     1
 45
0.0
1001
ACAD
1000
AcDbSavedByObjectVersion
1070
     0
  0
VISUALSTYLE
  5
2E
102
{ACAD_REACTORS
330
2A
102
}
102
{ACAD_XDICTIONARY
360
44C
102
}
330
2A
100
AcDbVisualStyle
  2
GouraudWithEdges
 70
     3
 71
     2
 72
     2
 73
     1
 90
        2
 40
-0.6
 41
30.0
 62
     5
 63
     7
 74
     1
 91
        4
 64
     7
 65
   257
 75
     1
175
     1
 42
1.0
 92
        0
 66
   257
 43
1.0
 76
     1
 77
     6
 78
     2
 67
     7
 79
     5
170
     0
171
     0
290
     0
174
     0
 93
       13
 44
0.0
173
     0
291
     1
 45
0.0
1001
ACAD
1000
AcDbSavedByObjectVersion
1070
     0
  0
VISUALSTYLE
  5
38
102
{ACAD_REACTORS
330
2A
102
}
102
{ACAD_XDICTIONARY
360
460
102
}
330
2A
100
AcDbVisualStyle
  2
Linepattern
 70
    14
 71
     2
 72
     2
 73
     0
 90
        0
 40
-0.6
 41
-30.0
 62
     5
 63
     7
 74
     1
 91
        4
 64
     7
 65
   257
 75
     7
175
     7
 42
1.0
 92
        8
 66
     7
 43
1.0
 76
     1
 77
     6
 78
     2
 67
     7
 79
     5
170
     0
171
     0
290
     0
174
     0
 93
        1
 44
0.0
173
     0
291
     1
 45
0.0
1001
ACAD
1000
AcDbSavedByObjectVersion
1070
     0
  0
VISUALSTYLE
  5
33
102
{ACAD_REACTORS
330
2A
102
}
102
{ACAD_XDICTIONARY
360
456
102
}
330
2A
100
AcDbVisualStyle
  2
Realistic
 70
     8
 71
     2
 72
     2
 73
     0
 90
        0
 40
-0.6
 41
-30.0
 62
     5
 63
     7
 74
     1
 91
        0
 64
     7
 65
   257
 75
     1
175
     1
 42
1.0
 92
        8
 66
     8
 43
1.0
 76
     1
 77
     6
 78
     2
 67
     7
 79
     5
170
     0
171
     0
290
     0
174
     0
 93
       13
 44
0.0
173
     0
291
     0
 45
0.0
1001
ACAD
1000
AcDbSavedByObjectVersion
1070
     0
  0
VISUALSTYLE
  5
37
102
{ACAD_REACTORS
330
2A
102
}
102
{ACAD_XDICTIONARY
360
45E
102
}
330
2A
100
AcDbVisualStyle
  2
Thicken
 70
    13
 71
     2
 72
     2
 73
     0
 90
        0
 40
-0.6
 41
-30.0
 62
     5
 63
     7
 74
     1
 91
        4
 64
     7
 65
   257
 75
     1
175
     1
 42
1.0
 92
       12
 66
     7
 43
1.0
 76
     1
 77
     6
 78
     2
 67
     7
 79
     5
170
     0
171
     0
290
     0
174
     0
 93
        1
 44
0.0
173
     0
291
     1
 45
0.0
1001
ACAD
1000
AcDbSavedByObjectVersion
1070
     0
  0
DICTIONARYVAR
  5
444
102
{ACAD_REACTORS
330
441
102
}
330
441
100
DictionaryVariables
280
     0
  1
2
  0
DICTIONARYVAR
  5
445
102
{ACAD_REACTORS
330
441
102
}
330
441
100
DictionaryVariables
280
     0
  1
1
  0
DICTIONARY
  5
468
330
3D
100
AcDbDictionary
280
     1
281
     1
  3
ACAD_XREC_ROUNDTRIP
360
469
  0
DICTIONARY
  5
466
330
3C
100
AcDbDictionary
280
     1
281
     1
  3
ACAD_XREC_ROUNDTRIP
360
467
  0
DICTIONARY
  5
46A
330
3E
100
AcDbDictionary
280
     1
281
     1
  3
ACAD_XREC_ROUNDTRIP
360
46B
  0
DICTIONARY
  5
44E
330
2F
100
AcDbDictionary
280
     1
281
     1
  3
ACAD_XREC_ROUNDTRIP
360
44F
  0
DICTIONARY
  5
452
330
31
100
AcDbDictionary
280
     1
281
     1
  3
ACAD_XREC_ROUNDTRIP
360
453
  0
DICTIONARY
  5
450
330
30
100
AcDbDictionary
280
     1
281
     1
  3
ACAD_XREC_ROUNDTRIP
360
451
  0
DICTIONARY
  5
454
330
32
100
AcDbDictionary
280
     1
281
     1
  3
ACAD_XREC_ROUNDTRIP
360
455
  0
DICTIONARY
  5
45C
330
36
100
AcDbDictionary
280
     1
281
     1
  3
ACAD_XREC_ROUNDTRIP
360
45D
  0
DICTIONARY
  5
464
330
3A
100
AcDbDictionary
280
     1
281
     1
  3
ACAD_XREC_ROUNDTRIP
360
465
  0
DICTIONARY
  5
458
330
34
100
AcDbDictionary
280
     1
281
     1
  3
ACAD_XREC_ROUNDTRIP
360
459
  0
DICTIONARY
  5
45A
330
35
100
AcDbDictionary
280
     1
281
     1
  3
ACAD_XREC_ROUNDTRIP
360
45B
  0
DICTIONARY
  5
462
330
39
100
AcDbDictionary
280
     1
281
     1
  3
ACAD_XREC_ROUNDTRIP
360
463
  0
DICTIONARY
  5
446
330
2B
100
AcDbDictionary
280
     1
281
     1
  3
ACAD_XREC_ROUNDTRIP
360
447
  0
DICTIONARY
  5
448
330
2C
100
AcDbDictionary
280
     1
281
     1
  3
ACAD_XREC_ROUNDTRIP
360
449
  0
DICTIONARY
  5
44A
330
2D
100
AcDbDictionary
280
     1
281
     1
  3
ACAD_XREC_ROUNDTRIP
360
44B
  0
DICTIONARY
  5
44C
330
2E
100
AcDbDictionary
280
     1
281
     1
  3
ACAD_XREC_ROUNDTRIP
360
44D
  0
DICTIONARY
  5
460
330
38
100
AcDbDictionary
280
     1
281
     1
  3
ACAD_XREC_ROUNDTRIP
360
461
  0
DICTIONARY
  5
456
330
33
100
AcDbDictionary
280
     1
281
     1
  3
ACAD_XREC_ROUNDTRIP
360
457
  0
DICTIONARY
  5
45E
330
37
100
AcDbDictionary
280
     1
281
     1
  3
ACAD_XREC_ROUNDTRIP
360
45F
  0
XRECORD
  5
469
102
{ACAD_REACTORS
330
468
102
}
330
468
100
AcDbXrecord
280
     1
102
MATERIAL
148
0.0
149
0.0
149
0.0
 93
        0
 94
      127
282
     0
 72
     1
 77
     1
171
     1
175
     1
179
     1
273
     0
  0
XRECORD
  5
467
102
{ACAD_REACTORS
330
466
102
}
330
466
100
AcDbXrecord
280
     1
102
MATERIAL
148
0.0
149
0.0
149
0.0
 93
        0
 94
      127
282
     0
 72
     1
 77
     1
171
     1
175
     1
179
     1
273
     0
  0
XRECORD
  5
46B
102
{ACAD_REACTORS
330
46A
102
}
330
46A
100
AcDbXrecord
280
     1
102
MATERIAL
148
0.0
149
0.0
149
0.0
 93
        0
 94
      127
282
     0
 72
     1
 77
     1
171
     1
175
     1
179
     1
273
     0
  0
XRECORD
  5
44F
102
{ACAD_REACTORS
330
44E
102
}
330
44E
100
AcDbXrecord
280
     1
102
RTVSPropertyOp0
 70
     1
102
RTVSPropertyOp1
 70
     1
102
RTVSPropertyOp2
 70
     1
102
RTVSPropertyOp3
 70
     1
102
RTVSPropertyOp4
 70
     1
102
RTVSPropertyOp5
 70
     1
102
RTVSPropertyOp6
 70
     1
102
RTVSPropertyOp7
 70
     1
102
RTVSPropertyOp8
 70
     1
102
RTVSPropertyOp9
 70
     1
102
RTVSPropertyOp10
 70
     1
102
RTVSPropertyOp11
 70
     1
102
RTVSPropertyOp12
 70
     1
102
RTVSPropertyOp13
 70
     1
102
RTVSPropertyOp14
 70
     1
102
RTVSPropertyOp15
 70
     1
102
RTVSPropertyOp16
 70
     1
102
RTVSPropertyOp17
 70
     1
102
RTVSPropertyOp18
 70
     1
102
RTVSPropertyOp19
 70
     1
102
RTVSPropertyOp20
 70
     1
102
RTVSPropertyOp21
 70
     1
102
RTVSPropertyOp22
 70
     1
102
RTVSPropertyOp23
 70
     1
102
RTVSPropertyOp24
 70
     1
102
RTVSPropertyOp25
 70
     1
102
RTVSPropertyOp26
 70
     1
102
RTVSPropertyOp27
 70
     1
102
RTVSPropertyOp28
 70
     1
102
RTVSPropertyOp29
 70
     1
102
RTVSPropertyOp30
 70
     1
102
RTVSPropertyOp31
 70
     1
102
RTVSPropertyOp32
 70
     1
  0
XRECORD
  5
453
102
{ACAD_REACTORS
330
452
102
}
330
452
100
AcDbXrecord
280
     1
102
RTVSPropertyOp0
 70
     1
102
RTVSPropertyOp1
 70
     1
102
RTVSPropertyOp2
 70
     1
102
RTVSPropertyOp3
 70
     1
102
RTVSPropertyOp4
 70
     1
102
RTVSPropertyOp5
 70
     1
102
RTVSPropertyOp6
 70
     1
102
RTVSPropertyOp7
 70
     1
102
RTVSPropertyOp8
 70
     1
102
RTVSPropertyOp9
 70
     1
102
RTVSPropertyOp10
 70
     1
102
RTVSPropertyOp11
 70
     1
102
RTVSPropertyOp12
 70
     1
102
RTVSPropertyOp13
 70
     1
102
RTVSPropertyOp14
 70
     1
102
RTVSPropertyOp15
 70
     1
102
RTVSPropertyOp16
 70
     1
102
RTVSPropertyOp17
 70
     1
102
RTVSPropertyOp18
 70
     1
102
RTVSPropertyOp19
 70
     1
102
RTVSPropertyOp20
 70
     1
102
RTVSPropertyOp21
 70
     1
102
RTVSPropertyOp22
 70
     1
102
RTVSPropertyOp23
 70
     1
102
RTVSPropertyOp24
 70
     1
102
RTVSPropertyOp25
 70
     1
102
RTVSPropertyOp26
 70
     1
102
RTVSPropertyOp27
 70
     1
102
RTVSPropertyOp28
 70
     1
102
RTVSPropertyOp29
 70
     1
102
RTVSPropertyOp30
 70
     1
102
RTVSPropertyOp31
 70
     1
102
RTVSPropertyOp32
 70
     1
  0
XRECORD
  5
451
102
{ACAD_REACTORS
330
450
102
}
330
450
100
AcDbXrecord
280
     1
102
RTVSPropertyOp0
 70
     1
102
RTVSPropertyOp1
 70
     1
102
RTVSPropertyOp2
 70
     1
102
RTVSPropertyOp3
 70
     1
102
RTVSPropertyOp4
 70
     1
102
RTVSPropertyOp5
 70
     1
102
RTVSPropertyOp6
 70
     1
102
RTVSPropertyOp7
 70
     1
102
RTVSPropertyOp8
 70
     1
102
RTVSPropertyOp9
 70
     1
102
RTVSPropertyOp10
 70
     1
102
RTVSPropertyOp11
 70
     1
102
RTVSPropertyOp12
 70
     1
102
RTVSPropertyOp13
 70
     1
102
RTVSPropertyOp14
 70
     1
102
RTVSPropertyOp15
 70
     1
102
RTVSPropertyOp16
 70
     1
102
RTVSPropertyOp17
 70
     1
102
RTVSPropertyOp18
 70
     1
102
RTVSPropertyOp19
 70
     1
102
RTVSPropertyOp20
 70
     1
102
RTVSPropertyOp21
 70
     1
102
RTVSPropertyOp22
 70
     1
102
RTVSPropertyOp23
 70
     1
102
RTVSPropertyOp24
 70
     1
102
RTVSPropertyOp25
 70
     1
102
RTVSPropertyOp26
 70
     1
102
RTVSPropertyOp27
 70
     1
102
RTVSPropertyOp28
 70
     1
102
RTVSPropertyOp29
 70
     1
102
RTVSPropertyOp30
 70
     1
102
RTVSPropertyOp31
 70
     1
102
RTVSPropertyOp32
 70
     1
  0
XRECORD
  5
455
102
{ACAD_REACTORS
330
454
102
}
330
454
100
AcDbXrecord
280
     1
102
RTVSPropertyOp0
 70
     1
102
RTVSPropertyOp1
 70
     1
102
RTVSPropertyOp2
 70
     1
102
RTVSPropertyOp3
 70
     1
102
RTVSPropertyOp4
 70
     1
102
RTVSPropertyOp5
 70
     1
102
RTVSPropertyOp6
 70
     1
102
RTVSPropertyOp7
 70
     1
102
RTVSPropertyOp8
 70
     1
102
RTVSPropertyOp9
 70
     1
102
RTVSPropertyOp10
 70
     1
102
RTVSPropertyOp11
 70
     1
102
RTVSPropertyOp12
 70
     1
102
RTVSPropertyOp13
 70
     1
102
RTVSPropertyOp14
 70
     1
102
RTVSPropertyOp15
 70
     1
102
RTVSPropertyOp16
 70
     1
102
RTVSPropertyOp17
 70
     1
102
RTVSPropertyOp18
 70
     1
102
RTVSPropertyOp19
 70
     1
102
RTVSPropertyOp20
 70
     1
102
RTVSPropertyOp21
 70
     1
102
RTVSPropertyOp22
 70
     1
102
RTVSPropertyOp23
 70
     1
102
RTVSPropertyOp24
 70
     1
102
RTVSPropertyOp25
 70
     1
102
RTVSPropertyOp26
 70
     1
102
RTVSPropertyOp27
 70
     1
102
RTVSPropertyOp28
 70
     1
102
RTVSPropertyOp29
 70
     1
102
RTVSPropertyOp30
 70
     1
102
RTVSPropertyOp31
 70
     1
102
RTVSPropertyOp32
 70
     1
  0
XRECORD
  5
45D
102
{ACAD_REACTORS
330
45C
102
}
330
45C
100
AcDbXrecord
280
     1
102
RTVSPropertyOp0
 70
     1
102
RTVSPropertyOp1
 70
     1
102
RTVSPropertyOp2
 70
     1
102
RTVSPropertyOp3
 70
     1
102
RTVSPropertyOp4
 70
     1
102
RTVSPropertyOp5
 70
     1
102
RTVSPropertyOp6
 70
     1
102
RTVSPropertyOp7
 70
     1
102
RTVSPropertyOp8
 70
     1
102
RTVSPropertyOp9
 70
     1
102
RTVSPropertyOp10
 70
     1
102
RTVSPropertyOp11
 70
     1
102
RTVSPropertyOp12
 70
     1
102
RTVSPropertyOp13
 70
     1
102
RTVSPropertyOp14
 70
     1
102
RTVSPropertyOp15
 70
     1
102
RTVSPropertyOp16
 70
     1
102
RTVSPropertyOp17
 70
     1
102
RTVSPropertyOp18
 70
     1
102
RTVSPropertyOp19
 70
     1
102
RTVSPropertyOp20
 70
     1
102
RTVSPropertyOp21
 70
     1
102
RTVSPropertyOp22
 70
     1
102
RTVSPropertyOp23
 70
     1
102
RTVSPropertyOp24
 70
     1
102
RTVSPropertyOp25
 70
     1
102
RTVSPropertyOp26
 70
     1
102
RTVSPropertyOp27
 70
     1
102
RTVSPropertyOp28
 70
     1
102
RTVSPropertyOp29
 70
     1
102
RTVSPropertyOp30
 70
     1
102
RTVSPropertyOp31
 70
     1
102
RTVSPropertyOp32
 70
     1
  0
XRECORD
  5
465
102
{ACAD_REACTORS
330
464
102
}
330
464
100
AcDbXrecord
280
     1
102
RTVSPropertyOp0
 70
     1
102
RTVSPropertyOp1
 70
     1
102
RTVSPropertyOp2
 70
     1
102
RTVSPropertyOp3
 70
     1
102
RTVSPropertyOp4
 70
     1
102
RTVSPropertyOp5
 70
     1
102
RTVSPropertyOp6
 70
     1
102
RTVSPropertyOp7
 70
     1
102
RTVSPropertyOp8
 70
     1
102
RTVSPropertyOp9
 70
     1
102
RTVSPropertyOp10
 70
     1
102
RTVSPropertyOp11
 70
     1
102
RTVSPropertyOp12
 70
     1
102
RTVSPropertyOp13
 70
     1
102
RTVSPropertyOp14
 70
     1
102
RTVSPropertyOp15
 70
     1
102
RTVSPropertyOp16
 70
     1
102
RTVSPropertyOp17
 70
     1
102
RTVSPropertyOp18
 70
     1
102
RTVSPropertyOp19
 70
     1
102
RTVSPropertyOp20
 70
     1
102
RTVSPropertyOp21
 70
     1
102
RTVSPropertyOp22
 70
     1
102
RTVSPropertyOp23
 70
     1
102
RTVSPropertyOp24
 70
     1
102
RTVSPropertyOp25
 70
     1
102
RTVSPropertyOp26
 70
     1
102
RTVSPropertyOp27
 70
     1
102
RTVSPropertyOp28
 70
     1
102
RTVSPropertyOp29
 70
     1
102
RTVSPropertyOp30
 70
     1
102
RTVSPropertyOp31
 70
     1
102
RTVSPropertyOp32
 70
     1
  0
XRECORD
  5
459
102
{ACAD_REACTORS
330
458
102
}
330
458
100
AcDbXrecord
280
     1
102
RTVSPropertyOp0
 70
     1
102
RTVSPropertyOp1
 70
     1
102
RTVSPropertyOp2
 70
     1
102
RTVSPropertyOp3
 70
     1
102
RTVSPropertyOp4
 70
     1
102
RTVSPropertyOp5
 70
     1
102
RTVSPropertyOp6
 70
     1
102
RTVSPropertyOp7
 70
     1
102
RTVSPropertyOp8
 70
     1
102
RTVSPropertyOp9
 70
     1
102
RTVSPropertyOp10
 70
     1
102
RTVSPropertyOp11
 70
     1
102
RTVSPropertyOp12
 70
     1
102
RTVSPropertyOp13
 70
     1
102
RTVSPropertyOp14
 70
     1
102
RTVSPropertyOp15
 70
     1
102
RTVSPropertyOp16
 70
     1
102
RTVSPropertyOp17
 70
     1
102
RTVSPropertyOp18
 70
     1
102
RTVSPropertyOp19
 70
     1
102
RTVSPropertyOp20
 70
     1
102
RTVSPropertyOp21
 70
     1
102
RTVSPropertyOp22
 70
     1
102
RTVSPropertyOp23
 70
     1
102
RTVSPropertyOp24
 70
     1
102
RTVSPropertyOp25
 70
     1
102
RTVSPropertyOp26
 70
     1
102
RTVSPropertyOp27
 70
     1
102
RTVSPropertyOp28
 70
     1
102
RTVSPropertyOp29
 70
     1
102
RTVSPropertyOp30
 70
     1
102
RTVSPropertyOp31
 70
     1
102
RTVSPropertyOp32
 70
     1
  0
XRECORD
  5
45B
102
{ACAD_REACTORS
330
45A
102
}
330
45A
100
AcDbXrecord
280
     1
102
RTVSPropertyOp0
 70
     1
102
RTVSPropertyOp1
 70
     1
102
RTVSPropertyOp2
 70
     1
102
RTVSPropertyOp3
 70
     1
102
RTVSPropertyOp4
 70
     1
102
RTVSPropertyOp5
 70
     1
102
RTVSPropertyOp6
 70
     1
102
RTVSPropertyOp7
 70
     1
102
RTVSPropertyOp8
 70
     1
102
RTVSPropertyOp9
 70
     1
102
RTVSPropertyOp10
 70
     1
102
RTVSPropertyOp11
 70
     1
102
RTVSPropertyOp12
 70
     1
102
RTVSPropertyOp13
 70
     1
102
RTVSPropertyOp14
 70
     1
102
RTVSPropertyOp15
 70
     1
102
RTVSPropertyOp16
 70
     1
102
RTVSPropertyOp17
 70
     1
102
RTVSPropertyOp18
 70
     1
102
RTVSPropertyOp19
 70
     1
102
RTVSPropertyOp20
 70
     1
102
RTVSPropertyOp21
 70
     1
102
RTVSPropertyOp22
 70
     1
102
RTVSPropertyOp23
 70
     1
102
RTVSPropertyOp24
 70
     1
102
RTVSPropertyOp25
 70
     1
102
RTVSPropertyOp26
 70
     1
102
RTVSPropertyOp27
 70
     1
102
RTVSPropertyOp28
 70
     1
102
RTVSPropertyOp29
 70
     1
102
RTVSPropertyOp30
 70
     1
102
RTVSPropertyOp31
 70
     1
102
RTVSPropertyOp32
 70
     1
  0
XRECORD
  5
463
102
{ACAD_REACTORS
330
462
102
}
330
462
100
AcDbXrecord
280
     1
102
RTVSPropertyOp0
 70
     1
102
RTVSPropertyOp1
 70
     1
102
RTVSPropertyOp2
 70
     1
102
RTVSPropertyOp3
 70
     1
102
RTVSPropertyOp4
 70
     1
102
RTVSPropertyOp5
 70
     1
102
RTVSPropertyOp6
 70
     1
102
RTVSPropertyOp7
 70
     1
102
RTVSPropertyOp8
 70
     1
102
RTVSPropertyOp9
 70
     1
102
RTVSPropertyOp10
 70
     1
102
RTVSPropertyOp11
 70
     1
102
RTVSPropertyOp12
 70
     1
102
RTVSPropertyOp13
 70
     1
102
RTVSPropertyOp14
 70
     1
102
RTVSPropertyOp15
 70
     1
102
RTVSPropertyOp16
 70
     1
102
RTVSPropertyOp17
 70
     1
102
RTVSPropertyOp18
 70
     1
102
RTVSPropertyOp19
 70
     1
102
RTVSPropertyOp20
 70
     1
102
RTVSPropertyOp21
 70
     1
102
RTVSPropertyOp22
 70
     1
102
RTVSPropertyOp23
 70
     1
102
RTVSPropertyOp24
 70
     1
102
RTVSPropertyOp25
 70
     1
102
RTVSPropertyOp26
 70
     1
102
RTVSPropertyOp27
 70
     1
102
RTVSPropertyOp28
 70
     1
102
RTVSPropertyOp29
 70
     1
102
RTVSPropertyOp30
 70
     1
102
RTVSPropertyOp31
 70
     1
102
RTVSPropertyOp32
 70
     1
  0
XRECORD
  5
447
102
{ACAD_REACTORS
330
446
102
}
330
446
100
AcDbXrecord
280
     1
102
RTVSPropertyOp0
 70
     1
102
RTVSPropertyOp1
 70
     1
102
RTVSPropertyOp2
 70
     1
102
RTVSPropertyOp3
 70
     1
102
RTVSPropertyOp4
 70
     1
102
RTVSPropertyOp5
 70
     1
102
RTVSPropertyOp6
 70
     1
102
RTVSPropertyOp7
 70
     1
102
RTVSPropertyOp8
 70
     1
102
RTVSPropertyOp9
 70
     1
102
RTVSPropertyOp10
 70
     1
102
RTVSPropertyOp11
 70
     1
102
RTVSPropertyOp12
 70
     1
102
RTVSPropertyOp13
 70
     1
102
RTVSPropertyOp14
 70
     1
102
RTVSPropertyOp15
 70
     1
102
RTVSPropertyOp16
 70
     1
102
RTVSPropertyOp17
 70
     1
102
RTVSPropertyOp18
 70
     1
102
RTVSPropertyOp19
 70
     1
102
RTVSPropertyOp20
 70
     1
102
RTVSPropertyOp21
 70
     1
102
RTVSPropertyOp22
 70
     1
102
RTVSPropertyOp23
 70
     1
102
RTVSPropertyOp24
 70
     1
102
RTVSPropertyOp25
 70
     1
102
RTVSPropertyOp26
 70
     1
102
RTVSPropertyOp27
 70
     1
102
RTVSPropertyOp28
 70
     1
102
RTVSPropertyOp29
 70
     1
102
RTVSPropertyOp30
 70
     1
102
RTVSPropertyOp31
 70
     1
102
RTVSPropertyOp32
 70
     1
  0
XRECORD
  5
449
102
{ACAD_REACTORS
330
448
102
}
330
448
100
AcDbXrecord
280
     1
102
RTVSPropertyOp0
 70
     1
102
RTVSPropertyOp1
 70
     1
102
RTVSPropertyOp2
 70
     1
102
RTVSPropertyOp3
 70
     1
102
RTVSPropertyOp4
 70
     1
102
RTVSPropertyOp5
 70
     1
102
RTVSPropertyOp6
 70
     1
102
RTVSPropertyOp7
 70
     1
102
RTVSPropertyOp8
 70
     1
102
RTVSPropertyOp9
 70
     1
102
RTVSPropertyOp10
 70
     1
102
RTVSPropertyOp11
 70
     1
102
RTVSPropertyOp12
 70
     1
102
RTVSPropertyOp13
 70
     1
102
RTVSPropertyOp14
 70
     1
102
RTVSPropertyOp15
 70
     1
102
RTVSPropertyOp16
 70
     1
102
RTVSPropertyOp17
 70
     1
102
RTVSPropertyOp18
 70
     1
102
RTVSPropertyOp19
 70
     1
102
RTVSPropertyOp20
 70
     1
102
RTVSPropertyOp21
 70
     1
102
RTVSPropertyOp22
 70
     1
102
RTVSPropertyOp23
 70
     1
102
RTVSPropertyOp24
 70
     1
102
RTVSPropertyOp25
 70
     1
102
RTVSPropertyOp26
 70
     1
102
RTVSPropertyOp27
 70
     1
102
RTVSPropertyOp28
 70
     1
102
RTVSPropertyOp29
 70
     1
102
RTVSPropertyOp30
 70
     1
102
RTVSPropertyOp31
 70
     1
102
RTVSPropertyOp32
 70
     1
  0
XRECORD
  5
44B
102
{ACAD_REACTORS
330
44A
102
}
330
44A
100
AcDbXrecord
280
     1
102
RTVSPropertyOp0
 70
     1
102
RTVSPropertyOp1
 70
     1
102
RTVSPropertyOp2
 70
     1
102
RTVSPropertyOp3
 70
     1
102
RTVSPropertyOp4
 70
     1
102
RTVSPropertyOp5
 70
     1
102
RTVSPropertyOp6
 70
     1
102
RTVSPropertyOp7
 70
     1
102
RTVSPropertyOp8
 70
     1
102
RTVSPropertyOp9
 70
     1
102
RTVSPropertyOp10
 70
     1
102
RTVSPropertyOp11
 70
     1
102
RTVSPropertyOp12
 70
     1
102
RTVSPropertyOp13
 70
     1
102
RTVSPropertyOp14
 70
     1
102
RTVSPropertyOp15
 70
     1
102
RTVSPropertyOp16
 70
     1
102
RTVSPropertyOp17
 70
     1
102
RTVSPropertyOp18
 70
     1
102
RTVSPropertyOp19
 70
     1
102
RTVSPropertyOp20
 70
     1
102
RTVSPropertyOp21
 70
     1
102
RTVSPropertyOp22
 70
     1
102
RTVSPropertyOp23
 70
     1
102
RTVSPropertyOp24
 70
     1
102
RTVSPropertyOp25
 70
     1
102
RTVSPropertyOp26
 70
     1
102
RTVSPropertyOp27
 70
     1
102
RTVSPropertyOp28
 70
     1
102
RTVSPropertyOp29
 70
     1
102
RTVSPropertyOp30
 70
     1
102
RTVSPropertyOp31
 70
     1
102
RTVSPropertyOp32
 70
     1
  0
XRECORD
  5
44D
102
{ACAD_REACTORS
330
44C
102
}
330
44C
100
AcDbXrecord
280
     1
102
RTVSPropertyOp0
 70
     1
102
RTVSPropertyOp1
 70
     1
102
RTVSPropertyOp2
 70
     1
102
RTVSPropertyOp3
 70
     1
102
RTVSPropertyOp4
 70
     1
102
RTVSPropertyOp5
 70
     1
102
RTVSPropertyOp6
 70
     1
102
RTVSPropertyOp7
 70
     1
102
RTVSPropertyOp8
 70
     1
102
RTVSPropertyOp9
 70
     1
102
RTVSPropertyOp10
 70
     1
102
RTVSPropertyOp11
 70
     1
102
RTVSPropertyOp12
 70
     1
102
RTVSPropertyOp13
 70
     1
102
RTVSPropertyOp14
 70
     1
102
RTVSPropertyOp15
 70
     1
102
RTVSPropertyOp16
 70
     1
102
RTVSPropertyOp17
 70
     1
102
RTVSPropertyOp18
 70
     1
102
RTVSPropertyOp19
 70
     1
102
RTVSPropertyOp20
 70
     1
102
RTVSPropertyOp21
 70
     1
102
RTVSPropertyOp22
 70
     1
102
RTVSPropertyOp23
 70
     1
102
RTVSPropertyOp24
 70
     1
102
RTVSPropertyOp25
 70
     1
102
RTVSPropertyOp26
 70
     1
102
RTVSPropertyOp27
 70
     1
102
RTVSPropertyOp28
 70
     1
102
RTVSPropertyOp29
 70
     1
102
RTVSPropertyOp30
 70
     1
102
RTVSPropertyOp31
 70
     1
102
RTVSPropertyOp32
 70
     1
  0
XRECORD
  5
461
102
{ACAD_REACTORS
330
460
102
}
330
460
100
AcDbXrecord
280
     1
102
RTVSPropertyOp0
 70
     1
102
RTVSPropertyOp1
 70
     1
102
RTVSPropertyOp2
 70
     1
102
RTVSPropertyOp3
 70
     1
102
RTVSPropertyOp4
 70
     1
102
RTVSPropertyOp5
 70
     1
102
RTVSPropertyOp6
 70
     1
102
RTVSPropertyOp7
 70
     1
102
RTVSPropertyOp8
 70
     1
102
RTVSPropertyOp9
 70
     1
102
RTVSPropertyOp10
 70
     1
102
RTVSPropertyOp11
 70
     1
102
RTVSPropertyOp12
 70
     1
102
RTVSPropertyOp13
 70
     1
102
RTVSPropertyOp14
 70
     1
102
RTVSPropertyOp15
 70
     1
102
RTVSPropertyOp16
 70
     1
102
RTVSPropertyOp17
 70
     1
102
RTVSPropertyOp18
 70
     1
102
RTVSPropertyOp19
 70
     1
102
RTVSPropertyOp20
 70
     1
102
RTVSPropertyOp21
 70
     1
102
RTVSPropertyOp22
 70
     1
102
RTVSPropertyOp23
 70
     1
102
RTVSPropertyOp24
 70
     1
102
RTVSPropertyOp25
 70
     1
102
RTVSPropertyOp26
 70
     1
102
RTVSPropertyOp27
 70
     1
102
RTVSPropertyOp28
 70
     1
102
RTVSPropertyOp29
 70
     1
102
RTVSPropertyOp30
 70
     1
102
RTVSPropertyOp31
 70
     1
102
RTVSPropertyOp32
 70
     1
  0
XRECORD
  5
457
102
{ACAD_REACTORS
330
456
102
}
330
456
100
AcDbXrecord
280
     1
102
RTVSPropertyOp0
 70
     1
102
RTVSPropertyOp1
 70
     1
102
RTVSPropertyOp2
 70
     1
102
RTVSPropertyOp3
 70
     1
102
RTVSPropertyOp4
 70
     1
102
RTVSPropertyOp5
 70
     1
102
RTVSPropertyOp6
 70
     1
102
RTVSPropertyOp7
 70
     1
102
RTVSPropertyOp8
 70
     1
102
RTVSPropertyOp9
 70
     1
102
RTVSPropertyOp10
 70
     1
102
RTVSPropertyOp11
 70
     1
102
RTVSPropertyOp12
 70
     1
102
RTVSPropertyOp13
 70
     1
102
RTVSPropertyOp14
 70
     1
102
RTVSPropertyOp15
 70
     1
102
RTVSPropertyOp16
 70
     1
102
RTVSPropertyOp17
 70
     1
102
RTVSPropertyOp18
 70
     1
102
RTVSPropertyOp19
 70
     1
102
RTVSPropertyOp20
 70
     1
102
RTVSPropertyOp21
 70
     1
102
RTVSPropertyOp22
 70
     1
102
RTVSPropertyOp23
 70
     1
102
RTVSPropertyOp24
 70
     1
102
RTVSPropertyOp25
 70
     1
102
RTVSPropertyOp26
 70
     1
102
RTVSPropertyOp27
 70
     1
102
RTVSPropertyOp28
 70
     1
102
RTVSPropertyOp29
 70
     1
102
RTVSPropertyOp30
 70
     1
102
RTVSPropertyOp31
 70
     1
102
RTVSPropertyOp32
 70
     1
  0
XRECORD
  5
45F
102
{ACAD_REACTORS
330
45E
102
}
330
45E
100
AcDbXrecord
280
     1
102
RTVSPropertyOp0
 70
     1
102
RTVSPropertyOp1
 70
     1
102
RTVSPropertyOp2
 70
     1
102
RTVSPropertyOp3
 70
     1
102
RTVSPropertyOp4
 70
     1
102
RTVSPropertyOp5
 70
     1
102
RTVSPropertyOp6
 70
     1
102
RTVSPropertyOp7
 70
     1
102
RTVSPropertyOp8
 70
     1
102
RTVSPropertyOp9
 70
     1
102
RTVSPropertyOp10
 70
     1
102
RTVSPropertyOp11
 70
     1
102
RTVSPropertyOp12
 70
     1
102
RTVSPropertyOp13
 70
     1
102
RTVSPropertyOp14
 70
     1
102
RTVSPropertyOp15
 70
     1
102
RTVSPropertyOp16
 70
     1
102
RTVSPropertyOp17
 70
     1
102
RTVSPropertyOp18
 70
     1
102
RTVSPropertyOp19
 70
     1
102
RTVSPropertyOp20
 70
     1
102
RTVSPropertyOp21
 70
     1
102
RTVSPropertyOp22
 70
     1
102
RTVSPropertyOp23
 70
     1
102
RTVSPropertyOp24
 70
     1
102
RTVSPropertyOp25
 70
     1
102
RTVSPropertyOp26
 70
     1
102
RTVSPropertyOp27
 70
     1
102
RTVSPropertyOp28
 70
     1
102
RTVSPropertyOp29
 70
     1
102
RTVSPropertyOp30
 70
     1
102
RTVSPropertyOp31
 70
     1
102
RTVSPropertyOp32
 70
     1
  0
ENDSEC
  0
EOF
