  0
SECTION
  2
HEADER
  9
$ACADVER
  1
AC1015
  9
$ACADMAINTVER
 70
     6
  9
$DWGCODEPAGE
  3
ANSI_1252
  9
$INSBASE
 10
0.0
 20
0.0
 30
0.0
  9
$EXTMIN
 10
-98.47103573463919
 20
683.156723513683
 30
0.0
  9
$EXTMAX
 10
321.5289642653592
 20
980.156723513683
 30
0.0
  9
$LIMMIN
 10
0.0
 20
0.0
  9
$LIMMAX
 10
12.0
 20
9.0
  9
$ORTHOMODE
 70
     0
  9
$REGENMODE
 70
     1
  9
$FILLMODE
 70
     1
  9
$QTEXTMODE
 70
     0
  9
$MIRRTEXT
 70
     1
  9
$LTSCALE
 40
1.0
  9
$ATTMODE
 70
     1
  9
$TEXTSIZE
 40
0.2
  9
$TRACEWID
 40
0.05
  9
$TEXTSTYLE
  7
Standard
  9
$CLAYER
  8
0
  9
$CELTYPE
  6
ByLayer
  9
$CECOLOR
 62
   256
  9
$CELTSCALE
 40
1.0
  9
$DISPSILH
 70
     0
  9
$DIMSCALE
 40
1.0
  9
$DIMASZ
 40
0.18
  9
$DIMEXO
 40
0.0625
  9
$DIMDLI
 40
0.38
  9
$DIMRND
 40
0.0
  9
$DIMDLE
 40
0.0
  9
$DIMEXE
 40
0.18
  9
$DIMTP
 40
0.0
  9
$DIMTM
 40
0.0
  9
$DIMTXT
 40
0.18
  9
$DIMCEN
 40
0.09
  9
$DIMTSZ
 40
0.0
  9
$DIMTOL
 70
     0
  9
$DIMLIM
 70
     0
  9
$DIMTIH
 70
     1
  9
$DIMTOH
 70
     1
  9
$DIMSE1
 70
     0
  9
$DIMSE2
 70
     0
  9
$DIMTAD
 70
     0
  9
$DIMZIN
 70
     0
  9
$DIMBLK
  1

  9
$DIMASO
 70
     1
  9
$DIMSHO
 70
     1
  9
$DIMPOST
  1

  9
$DIMAPOST
  1

  9
$DIMALT
 70
     0
  9
$DIMALTD
 70
     2
  9
$DIMALTF
 40
25.4
  9
$DIMLFAC
 40
1.0
  9
$DIMTOFL
 70
     0
  9
$DIMTVP
 40
0.0
  9
$DIMTIX
 70
     0
  9
$DIMSOXD
 70
     0
  9
$DIMSAH
 70
     0
  9
$DIMBLK1
  1

  9
$DIMBLK2
  1

  9
$DIMSTYLE
  2
Standard
  9
$DIMCLRD
 70
     0
  9
$DIMCLRE
 70
     0
  9
$DIMCLRT
 70
     0
  9
$DIMTFAC
 40
1.0
  9
$DIMGAP
 40
0.09
  9
$DIMJUST
 70
     0
  9
$DIMSD1
 70
     0
  9
$DIMSD2
 70
     0
  9
$DIMTOLJ
 70
     1
  9
$DIMTZIN
 70
     0
  9
$DIMALTZ
 70
     0
  9
$DIMALTTZ
 70
     0
  9
$DIMUPT
 70
     0
  9
$DIMDEC
 70
     4
  9
$DIMTDEC
 70
     4
  9
$DIMALTU
 70
     2
  9
$DIMALTTD
 70
     2
  9
$DIMTXSTY
  7
Standard
  9
$DIMAUNIT
 70
     0
  9
$DIMADEC
 70
     0
  9
$DIMALTRND
 40
0.0
  9
$DIMAZIN
 70
     0
  9
$DIMDSEP
 70
    46
  9
$DIMATFIT
 70
     3
  9
$DIMFRAC
 70
     0
  9
$DIMLDRBLK
  1

  9
$DIMLUNIT
 70
     2
  9
$DIMLWD
 70
    -2
  9
$DIMLWE
 70
    -2
  9
$DIMTMOVE
 70
     0
  9
$LUNITS
 70
     2
  9
$LUPREC
 70
     4
  9
$SKETCHINC
 40
0.1
  9
$FILLETRAD
 40
0.5
  9
$AUNITS
 70
     0
  9
$AUPREC
 70
     0
  9
$MENU
  1
.
  9
$ELEVATION
 40
0.0
  9
$PELEVATION
 40
0.0
  9
$THICKNESS
 40
0.0
  9
$LIMCHECK
 70
     0
  9
$CHAMFERA
 40
0.5
  9
$CHAMFERB
 40
0.5
  9
$CHAMFERC
 40
1.0
  9
$CHAMFERD
 40
0.0
  9
$SKPOLY
 70
     0
  9
$TDCREATE
 40
2456057.611427871
  9
$TDUCREATE
 40
2456057.528094537
  9
$TDUPDATE
 40
2456057.611427882
  9
$TDUUPDATE
 40
2456057.528094549
  9
$TDINDWG
 40
0.0000000116
  9
$TDUSRTIMER
 40
0.0000000116
  9
$USRTIMER
 70
     1
  9
$ANGBASE
 50
0.0
  9
$ANGDIR
 70
     0
  9
$PDMODE
 70
     0
  9
$PDSIZE
 40
0.0
  9
$PLINEWID
 40
0.0
  9
$SPLFRAME
 70
     0
  9
$SPLINETYPE
 70
     6
  9
$SPLINESEGS
 70
     8
  9
$HANDSEED
  5
2E2
  9
$SURFTAB1
 70
     6
  9
$SURFTAB2
 70
     6
  9
$SURFTYPE
 70
     6
  9
$SURFU
 70
     6
  9
$SURFV
 70
     6
  9
$UCSBASE
  2

  9
$UCSNAME
  2

  9
$UCSORG
 10
0.0
 20
0.0
 30
0.0
  9
$UCSXDIR
 10
1.0
 20
0.0
 30
0.0
  9
$UCSYDIR
 10
0.0
 20
1.0
 30
0.0
  9
$UCSORTHOREF
  2

  9
$UCSORTHOVIEW
 70
     0
  9
$UCSORGTOP
 10
0.0
 20
0.0
 30
0.0
  9
$UCSORGBOTTOM
 10
0.0
 20
0.0
 30
0.0
  9
$UCSORGLEFT
 10
0.0
 20
0.0
 30
0.0
  9
$UCSORGRIGHT
 10
0.0
 20
0.0
 30
0.0
  9
$UCSORGFRONT
 10
0.0
 20
0.0
 30
0.0
  9
$UCSORGBACK
 10
0.0
 20
0.0
 30
0.0
  9
$PUCSBASE
  2

  9
$PUCSNAME
  2

  9
$PUCSORG
 10
0.0
 20
0.0
 30
0.0
  9
$PUCSXDIR
 10
1.0
 20
0.0
 30
0.0
  9
$PUCSYDIR
 10
0.0
 20
1.0
 30
0.0
  9
$PUCSORTHOREF
  2

  9
$PUCSORTHOVIEW
 70
     0
  9
$PUCSORGTOP
 10
0.0
 20
0.0
 30
0.0
  9
$PUCSORGBOTTOM
 10
0.0
 20
0.0
 30
0.0
  9
$PUCSORGLEFT
 10
0.0
 20
0.0
 30
0.0
  9
$PUCSORGRIGHT
 10
0.0
 20
0.0
 30
0.0
  9
$PUCSORGFRONT
 10
0.0
 20
0.0
 30
0.0
  9
$PUCSORGBACK
 10
0.0
 20
0.0
 30
0.0
  9
$USERI1
 70
     0
  9
$USERI2
 70
     0
  9
$USERI3
 70
     0
  9
$USERI4
 70
     0
  9
$USERI5
 70
     0
  9
$USERR1
 40
16.0
  9
$USERR2
 40
0.0
  9
$USERR3
 40
0.0
  9
$USERR4
 40
0.0
  9
$USERR5
 40
0.0
  9
$WORLDVIEW
 70
     1
  9
$SHADEDGE
 70
     3
  9
$SHADEDIF
 70
    70
  9
$TILEMODE
 70
     1
  9
$MAXACTVP
 70
    64
  9
$PINSBASE
 10
0.0
 20
0.0
 30
0.0
  9
$PLIMCHECK
 70
     0
  9
$PEXTMIN
 10
1.00000000000000E+20
 20
1.00000000000000E+20
 30
1.00000000000000E+20
  9
$PEXTMAX
 10
-1.00000000000000E+20
 20
-1.00000000000000E+20
 30
-1.00000000000000E+20
  9
$PLIMMIN
 10
0.0
 20
0.0
  9
$PLIMMAX
 10
12.0
 20
9.0
  9
$UNITMODE
 70
     0
  9
$VISRETAIN
 70
     1
  9
$PLINEGEN
 70
     0
  9
$PSLTSCALE
 70
     1
  9
$TREEDEPTH
 70
  3020
  9
$CMLSTYLE
  2
Standard
  9
$CMLJUST
 70
     0
  9
$CMLSCALE
 40
1.0
  9
$PROXYGRAPHICS
 70
     1
  9
$MEASUREMENT
 70
     1
  9
$CELWEIGHT
370
    -1
  9
$ENDCAPS
280
     0
  9
$JOINSTYLE
280
     0
  9
$LWDISPLAY
290
     0
  9
$INSUNITS
 70
     1
  9
$HYPERLINKBASE
  1

  9
$STYLESHEET
  1

  9
$XEDIT
290
     1
  9
$CEPSNTYPE
380
     0
  9
$PSTYLEMODE
290
     1
  9
$FINGERPRINTGUID
  2
{66745B39-9F58-4AB5-AF40-7F0FF3E28176}
  9
$VERSIONGUID
  2
{FAEB1C32-E019-11D5-929B-00C0DF256EC4}
  9
$EXTNAMES
290
     1
  9
$PSVPSCALE
 40
0.0
  9
$OLESTARTUP
290
     0
  0
ENDSEC
  0
SECTION
  2
CLASSES
  0
CLASS
  1
ACDBDICTIONARYWDFLT
  2
AcDbDictionaryWithDefault
  3
ObjectDBX Classes
 90
        0
280
     0
281
     0
  0
CLASS
  1
VISUALSTYLE
  2
AcDbVisualStyle
  3
ObjectDBX Classes
 90
     4095
280
     0
281
     0
  0
CLASS
  1

  2
exOdDbSpline
  3

 90
        0
280
     0
281
     1
  0
CLASS
  1

  2
exOdDbCircle
  3

 90
        0
280
     0
281
     1
  0
CLASS
  1
ACDBPLACEHOLDER
  2
AcDbPlaceHolder
  3
ObjectDBX Classes
 90
        0
280
     0
281
     0
  0
CLASS
  1
LAYOUT
  2
AcDbLayout
  3
ObjectDBX Classes
 90
        0
280
     0
281
     0
  0
ENDSEC
  0
SECTION
  2
TABLES
  0
TABLE
  2
VPORT
  5
8
330
0
100
AcDbSymbolTable
 70
     1
  0
VPORT
  5
29
330
8
100
AcDbSymbolTableRecord
100
AcDbViewportTableRecord
  2
*Active
 70
     0
 10
0.0
 20
0.0
 11
1.0
 21
1.0
 12
111.52896426536
 22
831.656723513683
 13
0.0
 23
0.0
 14
0.5
 24
0.5
 15
0.5
 25
0.5
 16
0.0
 26
0.0
 36
1.0
 17
0.0
 27
0.0
 37
0.0
 40
326.7
 41
1.60267857142857
 42
50.0
 43
0.0
 44
0.0
 50
0.0
 51
0.0
 71
     0
 72
   100
 73
     1
 74
     3
 75
     0
 76
     0
 77
     0
 78
     0
281
     0
 65
     1
110
0.0
120
0.0
130
0.0
111
1.0
121
0.0
131
0.0
112
0.0
122
1.0
132
0.0
 79
     0
146
0.0
  0
ENDTAB
  0
TABLE
  2
LTYPE
  5
5
330
0
100
AcDbSymbolTable
 70
     8
  0
LTYPE
  5
14
330
5
100
AcDbSymbolTableRecord
100
AcDbLinetypeTableRecord
  2
ByBlock
 70
     0
  3

 72
    65
 73
     0
 40
0.0
  0
LTYPE
  5
15
330
5
100
AcDbSymbolTableRecord
100
AcDbLinetypeTableRecord
  2
ByLayer
 70
     0
  3

 72
    65
 73
     0
 40
0.0
  0
LTYPE
  5
16
330
5
100
AcDbSymbolTableRecord
100
AcDbLinetypeTableRecord
  2
Continuous
 70
     0
  3
Solid line
 72
    65
 73
     0
 40
0.0
  0
LTYPE
  5
3B
330
5
100
AcDbSymbolTableRecord
100
AcDbLinetypeTableRecord
  2
DASHED
 70
     0
  3
Dashed
 72
    65
 73
     2
 40
15.0
 49
7.0
 74
     0
 49
-8.0
 74
     0
  0
LTYPE
  5
3C
330
5
100
AcDbSymbolTableRecord
100
AcDbLinetypeTableRecord
  2
DOTTED
 70
     0
  3
Dotted
 72
    65
 73
     2
 40
1.0
 49
0.0
 74
     0
 49
-1.0
 74
     0
  0
LTYPE
  5
3D
330
5
100
AcDbSymbolTableRecord
100
AcDbLinetypeTableRecord
  2
DOT_CENTER
 70
     0
  3
Dot_Center
 72
    65
 73
     4
 40
14.0
 49
12.0
 74
     0
 49
-1.0
 74
     0
 49
0.0
 74
     0
 49
-1.0
 74
     0
  0
LTYPE
  5
3E
330
5
100
AcDbSymbolTableRecord
100
AcDbLinetypeTableRecord
  2
LONG_DASHED
 70
     0
  3
Long_Dashed
 72
    65
 73
     2
 40
15.0
 49
10.0
 74
     0
 49
-5.0
 74
     0
  0
LTYPE
  5
3F
330
5
100
AcDbSymbolTableRecord
100
AcDbLinetypeTableRecord
  2
DASH_CENTER
 70
     0
  3
Dash_Center
 72
    65
 73
     4
 40
14.0
 49
11.0
 74
     0
 49
-1.0
 74
     0
 49
1.0
 74
     0
 49
-1.0
 74
     0
  0
LTYPE
  5
40
330
5
100
AcDbSymbolTableRecord
100
AcDbLinetypeTableRecord
  2
PHANTOM
 70
     0
  3
Phantom
 72
    65
 73
     6
 40
13.0
 49
10.0
 74
     0
 49
-1.0
 74
     0
 49
0.0
 74
     0
 49
-1.0
 74
     0
 49
0.0
 74
     0
 49
-1.0
 74
     0
  0
LTYPE
  5
41
330
5
100
AcDbSymbolTableRecord
100
AcDbLinetypeTableRecord
  2
CENTER_DASH_DASH
 70
     0
  3
Center_Dash_Dash
 72
    65
 73
     6
 40
14.0
 49
9.0
 74
     0
 49
-1.0
 74
     0
 49
1.0
 74
     0
 49
-1.0
 74
     0
 49
1.0
 74
     0
 49
-1.0
 74
     0
  0
ENDTAB
  0
TABLE
  2
LAYER
  5
2
330
0
100
AcDbSymbolTable
 70
     2
  0
LAYER
  5
10
330
2
100
AcDbSymbolTableRecord
100
AcDbLayerTableRecord
  2
0
 70
     0
 62
     7
  6
Continuous
370
    -3
390
F
  0
LAYER
  5
42
330
2
100
AcDbSymbolTableRecord
100
AcDbLayerTableRecord
  2
1
 70
     0
 62
     7
  6
Continuous
370
    -3
390
F
  0
ENDTAB
  0
TABLE
  2
STYLE
  5
3
330
0
100
AcDbSymbolTable
 70
     9
  0
STYLE
  5
11
330
3
100
AcDbSymbolTableRecord
100
AcDbTextStyleTableRecord
  2
Standard
 70
     0
 40
0.0
 41
1.0
 50
0.0
 71
     0
 42
0.2
  3
txt
  4

  0
STYLE
  5
88
330
3
100
AcDbSymbolTableRecord
100
AcDbTextStyleTableRecord
  2
CONVERTER_11
 70
     0
 40
0.0
 41
0.9
 50
0.0
 71
     0
 42
0.2
  3
txt.shx
  4

  0
STYLE
  5
259
330
3
100
AcDbSymbolTableRecord
100
AcDbTextStyleTableRecord
  2
CONVERTER_12
 70
     0
 40
0.0
 41
0.765
 50
0.0
 71
     0
 42
0.2
  3
txt.shx
  4

  0
STYLE
  5
280
330
3
100
AcDbSymbolTableRecord
100
AcDbTextStyleTableRecord
  2
CONVERTER_13
 70
     0
 40
0.0
 41
0.855
 50
0.0
 71
     0
 42
0.2
  3
txt.shx
  4

  0
STYLE
  5
29C
330
3
100
AcDbSymbolTableRecord
100
AcDbTextStyleTableRecord
  2
CONVERTER_14
 70
     0
 40
0.0
 41
0.72
 50
0.0
 71
     0
 42
0.2
  3
txt.shx
  4

  0
STYLE
  5
29E
330
3
100
AcDbSymbolTableRecord
100
AcDbTextStyleTableRecord
  2
CONVERTER_15
 70
     0
 40
0.0
 41
0.54
 50
0.0
 71
     0
 42
0.2
  3
txt.shx
  4

  0
STYLE
  5
2A0
330
3
100
AcDbSymbolTableRecord
100
AcDbTextStyleTableRecord
  2
CONVERTER_16
 70
     0
 40
0.0
 41
0.81
 50
0.0
 71
     0
 42
0.2
  3
txt.shx
  4

  0
STYLE
  5
2BB
330
3
100
AcDbSymbolTableRecord
100
AcDbTextStyleTableRecord
  2
CONVERTER_17
 70
     0
 40
0.0
 41
0.45
 50
0.0
 71
     0
 42
0.2
  3
txt.shx
  4

  0
STYLE
  5
2BE
330
3
100
AcDbSymbolTableRecord
100
AcDbTextStyleTableRecord
  2
CONVERTER_18
 70
     0
 40
0.0
 41
0.63
 50
0.0
 71
     0
 42
0.2
  3
txt.shx
  4

  0
ENDTAB
  0
TABLE
  2
VIEW
  5
6
330
0
100
AcDbSymbolTable
 70
     0
  0
ENDTAB
  0
TABLE
  2
UCS
  5
7
330
0
100
AcDbSymbolTable
 70
     0
  0
ENDTAB
  0
TABLE
  2
APPID
  5
9
330
0
100
AcDbSymbolTable
 70
     1
  0
APPID
  5
12
330
9
100
AcDbSymbolTableRecord
100
AcDbRegAppTableRecord
  2
ACAD
 70
     0
  0
ENDTAB
  0
TABLE
  2
DIMSTYLE
  5
A
330
0
100
AcDbSymbolTable
 70
     4
100
AcDbDimStyleTable
  0
DIMSTYLE
105
27
330
A
100
AcDbSymbolTableRecord
100
AcDbDimStyleTableRecord
  2
Standard
 70
     0
340
11
  0
DIMSTYLE
105
9C
102
{ACAD_REACTORS
330
9D
102
}
330
A
100
AcDbSymbolTableRecord
100
AcDbDimStyleTableRecord
  2
ME10_DIM_10
 70
     0
 41
7.0
 42
0.0
 44
4.0
 73
     0
 74
     0
 77
     1
 78
     8
140
7.0
147
4.0
172
     1
173
     1
176
     2
177
     2
178
     3
340
88
  0
DIMSTYLE
105
C3
102
{ACAD_REACTORS
330
C4
102
}
330
A
100
AcDbSymbolTableRecord
100
AcDbDimStyleTableRecord
  2
ME10_DIM_11
 70
     0
 41
7.0
 42
0.0
 44
4.0
 73
     0
 74
     0
 77
     1
 78
     8
140
7.0
147
4.0
172
     1
173
     1
176
     2
177
     2
178
     3
340
88
  0
DIMSTYLE
105
CE
102
{ACAD_REACTORS
330
CF
102
}
330
A
100
AcDbSymbolTableRecord
100
AcDbDimStyleTableRecord
  2
ME10_DIM_12
 70
     0
 41
7.0
 42
0.0
 44
4.0
 73
     0
 74
     0
 77
     1
 78
     8
140
7.0
147
4.0
172
     1
173
     1
176
     2
177
     2
178
     3
340
88
  0
ENDTAB
  0
TABLE
  2
BLOCK_RECORD
  5
1
330
0
100
AcDbSymbolTable
 70
    19
  0
BLOCK_RECORD
  5
1F
330
1
100
AcDbSymbolTableRecord
100
AcDbBlockTableRecord
  2
*Model_Space
340
22
  0
BLOCK_RECORD
  5
1B
330
1
100
AcDbSymbolTableRecord
100
AcDbBlockTableRecord
  2
*Paper_Space
340
1E
  0
BLOCK_RECORD
  5
23
330
1
100
AcDbSymbolTableRecord
100
AcDbBlockTableRecord
  2
*Paper_Space0
340
26
  0
BLOCK_RECORD
  5
43
330
1
100
AcDbSymbolTableRecord
100
AcDbBlockTableRecord
  2
3240205_CD_100_100-select__1
340
0
102
{BLKREFS
331
47
102
}
  0
BLOCK_RECORD
  5
46
330
1
100
AcDbSymbolTableRecord
100
AcDbBlockTableRecord
  2
AllgSicht1
340
0
102
{BLKREFS
331
78
102
}
  0
BLOCK_RECORD
  5
4A
330
1
100
AcDbSymbolTableRecord
100
AcDbBlockTableRecord
  2
3240205_CD_100_100-select__2
340
0
102
{BLKREFS
331
4E
102
}
  0
BLOCK_RECORD
  5
4D
330
1
100
AcDbSymbolTableRecord
100
AcDbBlockTableRecord
  2
Drfsicht1
340
0
102
{BLKREFS
331
79
102
}
  0
BLOCK_RECORD
  5
51
330
1
100
AcDbSymbolTableRecord
100
AcDbBlockTableRecord
  2
3240205_CD_100_100-select__3
340
0
102
{BLKREFS
331
55
102
}
  0
BLOCK_RECORD
  5
54
330
1
100
AcDbSymbolTableRecord
100
AcDbBlockTableRecord
  2
Rckans1
340
0
102
{BLKREFS
331
7A
102
}
  0
BLOCK_RECORD
  5
58
330
1
100
AcDbSymbolTableRecord
100
AcDbBlockTableRecord
  2
3240205_CD_100_100-select__4
340
0
102
{BLKREFS
331
5C
102
}
  0
BLOCK_RECORD
  5
5B
330
1
100
AcDbSymbolTableRecord
100
AcDbBlockTableRecord
  2
SA_Links1
340
0
102
{BLKREFS
331
7B
102
}
  0
BLOCK_RECORD
  5
5F
330
1
100
AcDbSymbolTableRecord
100
AcDbBlockTableRecord
  2
3240205_CD_100_100-select__5
340
0
102
{BLKREFS
331
63
102
}
  0
BLOCK_RECORD
  5
62
330
1
100
AcDbSymbolTableRecord
100
AcDbBlockTableRecord
  2
SA_Rechts1
340
0
102
{BLKREFS
331
7C
102
}
  0
BLOCK_RECORD
  5
66
330
1
100
AcDbSymbolTableRecord
100
AcDbBlockTableRecord
  2
3240205_CD_100_100-select__6
340
0
102
{BLKREFS
331
6A
102
}
  0
BLOCK_RECORD
  5
69
330
1
100
AcDbSymbolTableRecord
100
AcDbBlockTableRecord
  2
Vordans1
340
0
102
{BLKREFS
331
7D
102
}
  0
BLOCK_RECORD
  5
6D
330
1
100
AcDbSymbolTableRecord
100
AcDbBlockTableRecord
  2
_rahmen
340
0
102
{BLKREFS
331
74
102
}
  0
BLOCK_RECORD
  5
70
330
1
100
AcDbSymbolTableRecord
100
AcDbBlockTableRecord
  2
_punkt
340
0
102
{BLKREFS
331
75
102
}
  0
BLOCK_RECORD
  5
73
330
1
100
AcDbSymbolTableRecord
100
AcDbBlockTableRecord
  2
A3I
340
0
102
{BLKREFS
331
7E
102
}
  0
BLOCK_RECORD
  5
93
330
1
100
AcDbSymbolTableRecord
100
AcDbBlockTableRecord
  2
*D16
340
0
  0
BLOCK_RECORD
  5
BA
330
1
100
AcDbSymbolTableRecord
100
AcDbBlockTableRecord
  2
*D17
340
0
  0
BLOCK_RECORD
  5
C5
330
1
100
AcDbSymbolTableRecord
100
AcDbBlockTableRecord
  2
*D18
340
0
  0
ENDTAB
  0
ENDSEC
  0
SECTION
  2
BLOCKS
  0
BLOCK
  5
20
330
1F
100
AcDbEntity
  8
0
100
AcDbBlockBegin
  2
*Model_Space
 70
     0
 10
0.0
 20
0.0
 30
0.0
  3
*Model_Space
  1

  0
ENDBLK
  5
21
330
1F
100
AcDbEntity
  8
0
100
AcDbBlockEnd
  0
BLOCK
  5
1C
330
1B
100
AcDbEntity
 67
     1
  8
0
100
AcDbBlockBegin
  2
*Paper_Space
 70
     0
 10
0.0
 20
0.0
 30
0.0
  3
*Paper_Space
  1

  0
ENDBLK
  5
1D
330
1B
100
AcDbEntity
 67
     1
  8
0
100
AcDbBlockEnd
  0
BLOCK
  5
24
330
23
100
AcDbEntity
  8
0
100
AcDbBlockBegin
  2
*Paper_Space0
 70
     0
 10
0.0
 20
0.0
 30
0.0
  3
*Paper_Space0
  1

  0
ENDBLK
  5
25
330
23
100
AcDbEntity
  8
0
100
AcDbBlockEnd
  0
BLOCK
  5
44
330
43
100
AcDbEntity
  8
0
100
AcDbBlockBegin
  2
3240205_CD_100_100-select__1
 70
     0
 10
354.6987291692957
 20
1492.897457850259
 30
0.0
  3
3240205_CD_100_100-select__1
  1

  0
LINE
  5
7F
330
43
100
AcDbEntity
  8
0
  6
Continuous
 62
     7
100
AcDbLine
 10
441.3012695477396
 20
1579.499998228703
 30
0.0
 11
541.3012695477396
 21
1666.102538607147
 31
0.0
  0
LINE
  5
80
330
43
100
AcDbEntity
  8
0
  6
Continuous
 62
     7
100
AcDbLine
 10
354.6987291692958
 20
1604.499998228703
 30
0.0
 11
454.6987291692957
 21
1691.102538607147
 31
0.0
  0
LINE
  5
81
330
43
100
AcDbEntity
  8
0
  6
Continuous
 62
     7
100
AcDbLine
 10
441.3012695477396
 20
1579.499998228703
 30
0.0
 11
354.6987291692958
 21
1604.499998228703
 31
0.0
  0
LINE
  5
82
330
43
100
AcDbEntity
  8
0
  6
Continuous
 62
     7
100
AcDbLine
 10
354.6987291692958
 20
1604.499998228703
 30
0.0
 11
354.6987291692957
 21
1517.897457850259
 31
0.0
  0
LINE
  5
83
330
43
100
AcDbEntity
  8
0
  6
Continuous
 62
     7
100
AcDbLine
 10
541.3012695477396
 20
1666.102538607147
 30
0.0
 11
454.6987291692957
 21
1691.102538607147
 31
0.0
  0
LINE
  5
84
330
43
100
AcDbEntity
  8
0
  6
Continuous
 62
     7
100
AcDbLine
 10
354.6987291692957
 20
1517.897457850259
 30
0.0
 11
441.3012695477396
 21
1492.897457850259
 31
0.0
  0
LINE
  5
85
330
43
100
AcDbEntity
  8
0
  6
Continuous
 62
     7
100
AcDbLine
 10
441.3012695477396
 20
1492.897457850259
 30
0.0
 11
541.3012695477396
 21
1579.499998228703
 31
0.0
  0
LINE
  5
86
330
43
100
AcDbEntity
  8
0
  6
Continuous
 62
     7
100
AcDbLine
 10
441.3012695477396
 20
1492.897457850259
 30
0.0
 11
441.3012695477396
 21
1579.499998228703
 31
0.0
  0
LINE
  5
87
330
43
100
AcDbEntity
  8
0
  6
Continuous
 62
     7
100
AcDbLine
 10
541.3012695477396
 20
1579.499998228703
 30
0.0
 11
541.3012695477396
 21
1666.102538607147
 31
0.0
  0
ENDBLK
  5
45
330
43
100
AcDbEntity
  8
0
100
AcDbBlockEnd
  0
BLOCK
  5
48
330
46
100
AcDbEntity
  8
0
100
AcDbBlockBegin
  2
AllgSicht1
 70
     0
 10
447.9999999999998
 20
1591.99999937459
 30
0.0
  3
AllgSicht1
  1

  0
INSERT
  5
47
330
46
100
AcDbEntity
  8
0
100
AcDbBlockReference
  2
3240205_CD_100_100-select__1
 10
354.6987291692957
 20
1492.897457850259
 30
0.0
  0
MTEXT
  5
89
330
46
100
AcDbEntity
  8
1
 62
     6
100
AcDbMText
 10
448.0
 20
1482.89745796975
 30
0.0
 40
10.0
 41
0.0
 71
     2
 72
     1
  1
 
  7
CONVERTER_11
 73
     1
 44
1.32052821128451
  0
ENDBLK
  5
49
330
46
100
AcDbEntity
  8
0
100
AcDbBlockEnd
  0
BLOCK
  5
4B
330
4A
100
AcDbEntity
  8
0
100
AcDbBlockBegin
  2
3240205_CD_100_100-select__2
 70
     0
 10
97.9999992592773
 20
1558.499999000004
 30
0.0
  3
3240205_CD_100_100-select__2
  1

  0
LINE
  5
8A
330
4A
100
AcDbEntity
  8
0
  6
Continuous
 62
     7
100
AcDbLine
 10
197.9999992592773
 20
1558.499999000004
 30
0.0
 11
197.9999992592773
 21
1636.13920008643
 31
0.0
  0
LINE
  5
8B
330
4A
100
AcDbEntity
  8
0
  6
Continuous
 62
     7
100
AcDbLine
 10
197.9999992592773
 20
1558.499999000004
 30
0.0
 11
97.9999992592773
 21
1558.499999000004
 31
0.0
  0
LINE
  5
8C
330
4A
100
AcDbEntity
  8
0
  6
Continuous
 62
     7
100
AcDbLine
 10
97.9999992592773
 20
1558.499999000004
 30
0.0
 11
97.9999992592773
 21
1637.472533419763
 31
0.0
  0
LINE
  5
8D
330
4A
100
AcDbEntity
  8
0
  6
Continuous
 62
     7
100
AcDbLine
 10
197.9999992592773
 20
1646.13920008643
 30
0.0
 11
197.9999992592773
 21
1717.499999000004
 31
0.0
  0
LINE
  5
8E
330
4A
100
AcDbEntity
  8
0
  6
Continuous
 62
     7
100
AcDbLine
 10
197.9999992592773
 20
1717.499999000004
 30
0.0
 11
97.9999992592773
 21
1717.499999000004
 31
0.0
  0
LINE
  5
8F
330
4A
100
AcDbEntity
  8
0
  6
Continuous
 62
     7
100
AcDbLine
 10
97.99999925927739
 20
1647.472533419763
 30
0.0
 11
97.9999992592773
 21
1717.499999000004
 31
0.0
  0
SPLINE
  5
90
330
4A
100
AcDbEntity
  8
0
  6
Continuous
 62
     2
100
AcDbSpline
210
0.0
220
0.0
230
1.0
 70
     8
 71
     3
 72
    75
 73
    71
 74
    69
 42
0.0000000001
 43
0.0000000001
 44
0.00000001
 40
0.0
 40
0.0
 40
0.0
 40
0.0
 40
1.000000370361432
 40
2.201851172155187
 40
3.878902155279826
 40
5.555953138404554
 40
7.233004121529499
 40
8.910055104654443
 40
10.58710608777918
 40
12.26415707090392
 40
13.94120805402887
 40
15.61825903715381
 40
17.29531002027866
 40
18.9723610034035
 40
20.64941198652834
 40
22.32646296965319
 40
24.00351395277804
 40
25.68056493590287
 40
27.35761591902771
 40
29.03466690215255
 40
30.7117178852774
 40
32.38876886840224
 40
34.06581985152698
 40
35.74287083465173
 40
37.41992181777657
 40
39.09697280090141
 40
40.77402378402626
 40
42.4510747671511
 40
44.12812575027594
 40
45.80517673340078
 40
47.48222771652563
 40
49.15927869965047
 40
50.83632968277531
 40
52.51338066590016
 40
54.1904316490249
 40
55.86748263214965
 40
57.54453361527449
 40
59.22158459839933
 40
60.89863558152418
 40
62.57568656464902
 40
64.25273754777386
 40
65.9297885308987
 40
67.60683951402355
 40
69.28389049714839
 40
70.96094148027333
 40
72.63799246339828
 40
74.31504344652312
 40
75.99209442964796
 40
77.6691454127728
 40
79.34619639589765
 40
81.0232473790225
 40
82.70029836214734
 40
84.37734934527218
 40
86.05440032839702
 40
87.73145131152174
 40
89.40850229464651
 40
91.08555327777135
 40
92.7626042608962
 40
94.43965524402104
 40
96.11670622714588
 40
97.79375721027066
 40
99.47080819339537
 40
101.1478591765202
 40
102.8249101596451
 40
104.5019611427698
 40
106.1790121258945
 40
107.8560631090194
 40
109.5331140921444
 40
110.7349641406598
 40
111.7349637702985
 40
111.7349637702985
 40
111.7349637702985
 40
111.7349637702985
 10
97.9999992592773
 20
1637.472533419763
 30
0.0
 10
98.34802211839181
 20
1637.515165209411
 30
0.0
 10
99.11431637486402
 20
1637.609034030654
 30
0.0
 10
100.0878865608486
 20
1636.68207815878
 30
0.0
 10
101.5163741557959
 20
1635.686203471808
 30
0.0
 10
102.9956125581779
 20
1636.804437096693
 30
0.0
 10
104.5011756114931
 20
1637.931250141442
 30
0.0
 10
105.9996849958497
 20
1636.805764337566
 30
0.0
 10
107.5000844051076
 20
1635.680894508322
 30
0.0
 10
108.9999773837197
 20
1636.805859629172
 30
0.0
 10
110.5000060600141
 20
1637.930868975013
 30
0.0
 10
111.999998376224
 20
1636.805866470802
 30
0.0
 10
113.5000004350895
 20
1635.680867141803
 30
0.0
 10
114.9999998834181
 20
1636.805866962009
 30
0.0
 10
116.500000031238
 20
1637.930867010185
 30
0.0
 10
117.9999999916298
 20
1636.805866997276
 30
0.0
 10
119.5000000022428
 20
1635.680867000735
 30
0.0
 10
120.999999999399
 20
1636.805866999808
 30
0.0
 10
122.5000000001611
 20
1637.930867000057
 30
0.0
 10
123.9999999999569
 20
1636.80586699999
 30
0.0
 10
125.5000000000116
 20
1635.680867000008
 30
0.0
 10
126.9999999999969
 20
1636.805867000003
 30
0.0
 10
128.5000000000008
 20
1637.930867000003
 30
0.0
 10
129.9999999999998
 20
1636.805867000004
 30
0.0
 10
131.5000000000001
 20
1635.680867000004
 30
0.0
 10
133.0
 20
1636.805867000004
 30
0.0
 10
134.5
 20
1637.930867000004
 30
0.0
 10
136.0
 20
1636.805867000004
 30
0.0
 10
137.5
 20
1635.680867000004
 30
0.0
 10
139.0
 20
1636.805867000004
 30
0.0
 10
140.5
 20
1637.930867000004
 30
0.0
 10
142.0
 20
1636.805867000004
 30
0.0
 10
143.5
 20
1635.680867000004
 30
0.0
 10
144.9999999999999
 20
1636.805867000004
 30
0.0
 10
146.5
 20
1637.930867000003
 30
0.0
 10
148.0000000000001
 20
1636.805867000004
 30
0.0
 10
149.5
 20
1635.680867000004
 30
0.0
 10
151.0
 20
1636.805867000004
 30
0.0
 10
152.5
 20
1637.930867000004
 30
0.0
 10
154.0
 20
1636.805867000004
 30
0.0
 10
155.5
 20
1635.680867000004
 30
0.0
 10
157.0
 20
1636.805867000004
 30
0.0
 10
158.5
 20
1637.930867000004
 30
0.0
 10
160.0
 20
1636.805867000003
 30
0.0
 10
161.5
 20
1635.680867000003
 30
0.0
 10
163.0
 20
1636.805867000004
 30
0.0
 10
164.4999999999999
 20
1637.930867000004
 30
0.0
 10
166.0000000000003
 20
1636.805867000004
 30
0.0
 10
167.4999999999991
 20
1635.680867000004
 30
0.0
 10
169.0000000000031
 20
1636.805867000005
 30
0.0
 10
170.4999999999885
 20
1637.930867
 30
0.0
 10
172.0000000000432
 20
1636.805867000018
 30
0.0
 10
173.499999999839
 20
1635.680866999952
 30
0.0
 10
175.0000000006009
 20
1636.805867000199
 30
0.0
 10
176.4999999977572
 20
1637.930866999273
 30
0.0
 10
178.0000000083703
 20
1636.805867002732
 30
0.0
 10
179.499999968762
 20
1635.680866989823
 30
0.0
 10
181.000000116582
 20
1636.805867037998
 30
0.0
 10
182.49999956491
 20
1637.930866858205
 30
0.0
 10
184.0000016237781
 20
1636.805867529205
 30
0.0
 10
185.4999939399775
 20
1635.680865024997
 30
0.0
 10
187.0000226163122
 20
1636.805874370835
 30
0.0
 10
188.499915594774
 20
1637.930839491689
 30
0.0
 10
190.0003150045917
 20
1636.805969662431
 30
0.0
 10
191.4988243868588
 20
1635.68048385861
 30
0.0
 10
193.004387447973
 20
1636.807296903154
 30
0.0
 10
194.4836258212493
 20
1637.925530528798
 30
0.0
 10
195.9121132783752
 20
1636.929656003924
 30
0.0
 10
196.8856828964649
 20
1636.002700516434
 30
0.0
 10
197.6519766501555
 20
1636.096568623697
 30
0.0
 10
197.9999992592773
 20
1636.13920008643
 30
0.0
 11
97.9999992592773
 21
1637.472533419763
 31
0.0
 11
98.99999962963867
 21
1637.472533790124
 31
0.0
 11
100.0
 21
1636.805867000004
 31
0.0
 11
101.5
 21
1636.055867000004
 31
0.0
 11
103.0
 21
1636.805867000004
 31
0.0
 11
104.5
 21
1637.555867000004
 31
0.0
 11
106.0
 21
1636.805867000004
 31
0.0
 11
107.5
 21
1636.055867000004
 31
0.0
 11
109.0
 21
1636.805867000004
 31
0.0
 11
110.5
 21
1637.555867000004
 31
0.0
 11
112.0
 21
1636.805867000004
 31
0.0
 11
113.5
 21
1636.055867000004
 31
0.0
 11
115.0
 21
1636.805867000004
 31
0.0
 11
116.5
 21
1637.555867000004
 31
0.0
 11
118.0
 21
1636.805867000004
 31
0.0
 11
119.5
 21
1636.055867000004
 31
0.0
 11
121.0
 21
1636.805867000004
 31
0.0
 11
122.5
 21
1637.555867000004
 31
0.0
 11
124.0
 21
1636.805867000004
 31
0.0
 11
125.5
 21
1636.055867000004
 31
0.0
 11
127.0
 21
1636.805867000004
 31
0.0
 11
128.5
 21
1637.555867000004
 31
0.0
 11
130.0
 21
1636.805867000004
 31
0.0
 11
131.5
 21
1636.055867000004
 31
0.0
 11
133.0
 21
1636.805867000004
 31
0.0
 11
134.5
 21
1637.555867000004
 31
0.0
 11
136.0
 21
1636.805867000004
 31
0.0
 11
137.5
 21
1636.055867000004
 31
0.0
 11
139.0
 21
1636.805867000004
 31
0.0
 11
140.5
 21
1637.555867000004
 31
0.0
 11
142.0
 21
1636.805867000004
 31
0.0
 11
143.5
 21
1636.055867000004
 31
0.0
 11
145.0
 21
1636.805867000004
 31
0.0
 11
146.5
 21
1637.555867000004
 31
0.0
 11
148.0
 21
1636.805867000004
 31
0.0
 11
149.5
 21
1636.055867000004
 31
0.0
 11
151.0
 21
1636.805867000004
 31
0.0
 11
152.5
 21
1637.555867000004
 31
0.0
 11
154.0
 21
1636.805867000004
 31
0.0
 11
155.5
 21
1636.055867000004
 31
0.0
 11
157.0
 21
1636.805867000004
 31
0.0
 11
158.5
 21
1637.555867000004
 31
0.0
 11
160.0
 21
1636.805867000004
 31
0.0
 11
161.5
 21
1636.055867000004
 31
0.0
 11
163.0
 21
1636.805867000004
 31
0.0
 11
164.5
 21
1637.555867000004
 31
0.0
 11
166.0
 21
1636.805867000004
 31
0.0
 11
167.5
 21
1636.055867000004
 31
0.0
 11
169.0
 21
1636.805867000004
 31
0.0
 11
170.5
 21
1637.555867000004
 31
0.0
 11
172.0
 21
1636.805867000004
 31
0.0
 11
173.5
 21
1636.055867000004
 31
0.0
 11
175.0
 21
1636.805867000004
 31
0.0
 11
176.5
 21
1637.555867000004
 31
0.0
 11
178.0
 21
1636.805867000004
 31
0.0
 11
179.5
 21
1636.055867000004
 31
0.0
 11
181.0
 21
1636.805867000004
 31
0.0
 11
182.5
 21
1637.555867000004
 31
0.0
 11
184.0
 21
1636.805867000004
 31
0.0
 11
185.5
 21
1636.055867000004
 31
0.0
 11
187.0
 21
1636.805867000004
 31
0.0
 11
188.5
 21
1637.555867000004
 31
0.0
 11
190.0
 21
1636.805867000004
 31
0.0
 11
191.5
 21
1636.055867000004
 31
0.0
 11
193.0
 21
1636.805867000004
 31
0.0
 11
194.5
 21
1637.555867000004
 31
0.0
 11
196.0
 21
1636.805867000004
 31
0.0
 11
196.9999996296387
 21
1636.139200456791
 31
0.0
 11
197.9999992592773
 21
1636.13920008643
 31
0.0
  0
SPLINE
  5
91
330
4A
100
AcDbEntity
  8
0
  6
Continuous
 62
     2
100
AcDbSpline
210
0.0
220
0.0
230
1.0
 70
     8
 71
     3
 72
    75
 73
    71
 74
    69
 42
0.0000000001
 43
0.0000000001
 44
0.00000001
 40
0.0
 40
0.0
 40
0.0
 40
0.0
 40
0.9999996296386772
 40
2.20184967815425
 40
3.878900661279194
 40
5.555951644404036
 40
7.233002627528879
 40
8.910053610653721
 40
10.58710459377867
 40
12.26415557690361
 40
13.94120656002835
 40
15.61825754315309
 40
17.29530852627803
 40
18.97235950940298
 40
20.64941049252772
 40
22.32646147565246
 40
24.00351245877728
 40
25.68056344190214
 40
27.35761442502699
 40
29.03466540815183
 40
30.71171639127677
 40
32.38876737440172
 40
34.06581835752643
 40
35.7428693406512
 40
37.41992032377604
 40
39.09697130690088
 40
40.77402229002573
 40
42.45107327315057
 40
44.12812425627531
 40
45.80517523940006
 40
47.4822262225249
 40
49.15927720564974
 40
50.83632818877449
 40
52.51337917189923
 40
54.19043015502407
 40
55.86748113814892
 40
57.54453212127376
 40
59.2215831043986
 40
60.89863408752335
 40
62.57568507064809
 40
64.25273605377294
 40
65.92978703689778
 40
67.60683802002272
 40
69.28388900314766
 40
70.9609399862725
 40
72.63799096939735
 40
74.3150419525222
 40
75.99209293564704
 40
77.66914391877188
 40
79.34619490189682
 40
81.02324588502157
 40
82.7002968681463
 40
84.37734785127114
 40
86.0543988343959
 40
87.73144981752073
 40
89.40850080064558
 40
91.08555178377043
 40
92.76260276689527
 40
94.43965375002011
 40
96.11670473314496
 40
97.7937557162698
 40
99.47080669939464
 40
101.1478576825195
 40
102.8249086656444
 40
104.5019596487692
 40
106.1790106318939
 40
107.8560616150188
 40
109.5331125981436
 40
110.7349633999373
 40
111.7349637702987
 40
111.7349637702987
 40
111.7349637702987
 40
111.7349637702987
 10
197.9999992592773
 20
1646.13920008643
 30
0.0
 10
197.6519766501555
 20
1646.096568623697
 30
0.0
 10
196.8856828964648
 20
1646.002700516434
 30
0.0
 10
195.9121132783752
 20
1646.929656003924
 30
0.0
 10
194.4836258212492
 20
1647.925530528797
 30
0.0
 10
193.004387447973
 20
1646.807296903155
 30
0.0
 10
191.4988243868588
 20
1645.680483858609
 30
0.0
 10
190.0003150045918
 20
1646.805969662431
 30
0.0
 10
188.499915594774
 20
1647.93083949169
 30
0.0
 10
187.0000226163123
 20
1646.805874370834
 30
0.0
 10
185.4999939399774
 20
1645.680865024996
 30
0.0
 10
184.0000016237781
 20
1646.805867529206
 30
0.0
 10
182.49999956491
 20
1647.930866858205
 30
0.0
 10
181.0000001165822
 20
1646.805867037999
 30
0.0
 10
179.4999999687619
 20
1645.680866989823
 30
0.0
 10
178.0000000083702
 20
1646.805867002732
 30
0.0
 10
176.4999999977572
 20
1647.930866999273
 30
0.0
 10
175.000000000601
 20
1646.8058670002
 30
0.0
 10
173.499999999839
 20
1645.680866999952
 30
0.0
 10
172.0000000000431
 20
1646.805867000017
 30
0.0
 10
170.4999999999884
 20
1647.930867
 30
0.0
 10
169.0000000000032
 20
1646.805867000005
 30
0.0
 10
167.4999999999992
 20
1645.680867000005
 30
0.0
 10
166.0000000000002
 20
1646.805867000004
 30
0.0
 10
164.4999999999999
 20
1647.930867000004
 30
0.0
 10
163.0000000000001
 20
1646.805867000004
 30
0.0
 10
161.5
 20
1645.680867000004
 30
0.0
 10
160.0000000000001
 20
1646.805867000004
 30
0.0
 10
158.4999999999999
 20
1647.930867000003
 30
0.0
 10
156.9999999999999
 20
1646.805867000003
 30
0.0
 10
155.5
 20
1645.680867000004
 30
0.0
 10
154.0000000000001
 20
1646.805867000004
 30
0.0
 10
152.5
 20
1647.930867000004
 30
0.0
 10
150.9999999999999
 20
1646.805867000003
 30
0.0
 10
149.5
 20
1645.680867000004
 30
0.0
 10
148.0
 20
1646.805867000004
 30
0.0
 10
146.5
 20
1647.930867000004
 30
0.0
 10
145.0000000000001
 20
1646.805867000003
 30
0.0
 10
143.5
 20
1645.680867000004
 30
0.0
 10
141.9999999999999
 20
1646.805867000004
 30
0.0
 10
140.5
 20
1647.930867000004
 30
0.0
 10
138.9999999999999
 20
1646.805867000003
 30
0.0
 10
137.5
 20
1645.680867000004
 30
0.0
 10
136.0
 20
1646.805867000004
 30
0.0
 10
134.5
 20
1647.930867000004
 30
0.0
 10
133.0
 20
1646.805867000004
 30
0.0
 10
131.5000000000001
 20
1645.680867000004
 30
0.0
 10
129.9999999999998
 20
1646.805867000004
 30
0.0
 10
128.5000000000007
 20
1647.930867000004
 30
0.0
 10
126.999999999997
 20
1646.805867000003
 30
0.0
 10
125.5000000000115
 20
1645.680867000008
 30
0.0
 10
123.9999999999568
 20
1646.80586699999
 30
0.0
 10
122.5000000001612
 20
1647.930867000056
 30
0.0
 10
120.999999999399
 20
1646.805866999808
 30
0.0
 10
119.5000000022428
 20
1645.680867000735
 30
0.0
 10
117.9999999916298
 20
1646.805866997276
 30
0.0
 10
116.500000031238
 20
1647.930867010184
 30
0.0
 10
114.9999998834181
 20
1646.805866962009
 30
0.0
 10
113.5000004350895
 20
1645.680867141803
 30
0.0
 10
111.9999983762241
 20
1646.805866470803
 30
0.0
 10
110.5000060600141
 20
1647.930868975012
 30
0.0
 10
108.9999773837196
 20
1646.805859629173
 30
0.0
 10
107.5000844051076
 20
1645.680894508321
 30
0.0
 10
105.9996849958499
 20
1646.805764337566
 30
0.0
 10
104.5011756114931
 20
1647.931250141441
 30
0.0
 10
102.9956125581776
 20
1646.804437096694
 30
0.0
 10
101.516374155796
 20
1645.686203471807
 30
0.0
 10
100.0878865608486
 20
1646.682078158779
 30
0.0
 10
99.11431637486407
 20
1647.609034030655
 30
0.0
 10
98.34802211839187
 20
1647.515165209411
 30
0.0
 10
97.99999925927739
 20
1647.472533419763
 30
0.0
 11
197.9999992592773
 21
1646.13920008643
 31
0.0
 11
196.9999996296387
 21
1646.139200456791
 31
0.0
 11
196.0
 21
1646.805867000004
 31
0.0
 11
194.5
 21
1647.555867000004
 31
0.0
 11
193.0
 21
1646.805867000004
 31
0.0
 11
191.5
 21
1646.055867000004
 31
0.0
 11
190.0
 21
1646.805867000004
 31
0.0
 11
188.5
 21
1647.555867000004
 31
0.0
 11
187.0
 21
1646.805867000004
 31
0.0
 11
185.5
 21
1646.055867000004
 31
0.0
 11
184.0
 21
1646.805867000004
 31
0.0
 11
182.5
 21
1647.555867000004
 31
0.0
 11
181.0
 21
1646.805867000004
 31
0.0
 11
179.5
 21
1646.055867000004
 31
0.0
 11
178.0
 21
1646.805867000004
 31
0.0
 11
176.5
 21
1647.555867000004
 31
0.0
 11
175.0
 21
1646.805867000004
 31
0.0
 11
173.5
 21
1646.055867000004
 31
0.0
 11
172.0
 21
1646.805867000004
 31
0.0
 11
170.5
 21
1647.555867000004
 31
0.0
 11
169.0
 21
1646.805867000004
 31
0.0
 11
167.5
 21
1646.055867000004
 31
0.0
 11
166.0
 21
1646.805867000004
 31
0.0
 11
164.5
 21
1647.555867000004
 31
0.0
 11
163.0
 21
1646.805867000004
 31
0.0
 11
161.5
 21
1646.055867000004
 31
0.0
 11
160.0
 21
1646.805867000004
 31
0.0
 11
158.5
 21
1647.555867000004
 31
0.0
 11
157.0
 21
1646.805867000004
 31
0.0
 11
155.5
 21
1646.055867000004
 31
0.0
 11
154.0
 21
1646.805867000004
 31
0.0
 11
152.5
 21
1647.555867000004
 31
0.0
 11
151.0
 21
1646.805867000004
 31
0.0
 11
149.5
 21
1646.055867000004
 31
0.0
 11
148.0
 21
1646.805867000004
 31
0.0
 11
146.5
 21
1647.555867000004
 31
0.0
 11
145.0
 21
1646.805867000004
 31
0.0
 11
143.5
 21
1646.055867000004
 31
0.0
 11
142.0
 21
1646.805867000004
 31
0.0
 11
140.5
 21
1647.555867000004
 31
0.0
 11
139.0
 21
1646.805867000004
 31
0.0
 11
137.5
 21
1646.055867000004
 31
0.0
 11
136.0
 21
1646.805867000004
 31
0.0
 11
134.5
 21
1647.555867000004
 31
0.0
 11
133.0
 21
1646.805867000004
 31
0.0
 11
131.5
 21
1646.055867000004
 31
0.0
 11
130.0
 21
1646.805867000004
 31
0.0
 11
128.5
 21
1647.555867000004
 31
0.0
 11
127.0
 21
1646.805867000004
 31
0.0
 11
125.5
 21
1646.055867000004
 31
0.0
 11
124.0
 21
1646.805867000004
 31
0.0
 11
122.5
 21
1647.555867000004
 31
0.0
 11
121.0
 21
1646.805867000004
 31
0.0
 11
119.5
 21
1646.055867000004
 31
0.0
 11
118.0
 21
1646.805867000004
 31
0.0
 11
116.5
 21
1647.555867000004
 31
0.0
 11
115.0
 21
1646.805867000004
 31
0.0
 11
113.5
 21
1646.055867000004
 31
0.0
 11
112.0
 21
1646.805867000004
 31
0.0
 11
110.5
 21
1647.555867000004
 31
0.0
 11
109.0
 21
1646.805867000004
 31
0.0
 11
107.5
 21
1646.055867000004
 31
0.0
 11
106.0
 21
1646.805867000004
 31
0.0
 11
104.5
 21
1647.555867000004
 31
0.0
 11
103.0
 21
1646.805867000004
 31
0.0
 11
101.5
 21
1646.055867000004
 31
0.0
 11
100.0
 21
1646.805867000004
 31
0.0
 11
98.9999996296387
 21
1647.472533790124
 31
0.0
 11
97.99999925927739
 21
1647.472533419763
 31
0.0
  0
ENDBLK
  5
4C
330
4A
100
AcDbEntity
  8
0
100
AcDbBlockEnd
  0
BLOCK
  5
4F
330
4D
100
AcDbEntity
  8
0
100
AcDbBlockBegin
  2
Drfsicht1
 70
     0
 10
148.0
 20
1658.499998999999
 30
0.0
  3
Drfsicht1
  1

  0
INSERT
  5
4E
330
4D
100
AcDbEntity
  8
0
100
AcDbBlockReference
  2
3240205_CD_100_100-select__2
 10
97.9999992592773
 20
1558.499999000004
 30
0.0
  0
MTEXT
  5
92
330
4D
100
AcDbEntity
  8
1
 62
     6
100
AcDbMText
 10
147.9999992592773
 20
1548.499999000004
 30
0.0
 40
10.0
 41
0.0
 71
     2
 72
     1
  1
 
  7
CONVERTER_11
 73
     1
 44
1.32052821128451
  0
DIMENSION
  5
9D
330
4D
100
AcDbEntity
  8
1
100
AcDbDimension
  2
*D16
 10
223.05792853072
 20
1558.499999000004
 30
0.0
 11
215.55792853072
 21
1641.167074079686
 31
0.0
 70
    32
  1
2000
 71
     5
 42
-1.0
 53
90.0
  3
ME10_DIM_10
100
AcDbAlignedDimension
 13
197.9999992592773
 23
1717.499999000004
 33
0.0
 14
197.9999992592773
 24
1558.499999000004
 34
0.0
 50
90.0
100
AcDbRotatedDimension
  0
ENDBLK
  5
50
330
4D
100
AcDbEntity
  8
0
100
AcDbBlockEnd
  0
BLOCK
  5
52
330
51
100
AcDbEntity
  8
0
100
AcDbBlockBegin
  2
3240205_CD_100_100-select__3
 70
     0
 10
478.0000007407226
 20
1797.999997740843
 30
0.0
  3
3240205_CD_100_100-select__3
  1

  0
LINE
  5
9E
330
51
100
AcDbEntity
  8
0
  6
Continuous
 62
     7
100
AcDbLine
 10
578.0000007407226
 20
1797.999997740843
 30
0.0
 11
478.0000007407226
 21
1797.999997740843
 31
0.0
  0
LINE
  5
9F
330
51
100
AcDbEntity
  8
0
  6
Continuous
 62
     7
100
AcDbLine
 10
578.0000007407226
 20
1897.999997740843
 30
0.0
 11
578.0000007407226
 21
1797.999997740843
 31
0.0
  0
LINE
  5
A0
330
51
100
AcDbEntity
  8
0
  6
Continuous
 62
     7
100
AcDbLine
 10
478.0000007407226
 20
1897.999997740843
 30
0.0
 11
578.0000007407226
 21
1897.999997740843
 31
0.0
  0
LINE
  5
A1
330
51
100
AcDbEntity
  8
0
  6
Continuous
 62
     7
100
AcDbLine
 10
478.0000007407226
 20
1797.999997740843
 30
0.0
 11
478.0000007407226
 21
1897.999997740843
 31
0.0
  0
ENDBLK
  5
53
330
51
100
AcDbEntity
  8
0
100
AcDbBlockEnd
  0
BLOCK
  5
56
330
54
100
AcDbEntity
  8
0
100
AcDbBlockBegin
  2
Rckans1
 70
     0
 10
527.9999999999999
 20
1847.99999927783
 30
0.0
  3
Rckans1
  1

  0
INSERT
  5
55
330
54
100
AcDbEntity
  8
0
100
AcDbBlockReference
  2
3240205_CD_100_100-select__3
 10
478.0000007407226
 20
1797.999997740843
 30
0.0
  0
MTEXT
  5
A2
330
54
100
AcDbEntity
  8
1
 62
     6
100
AcDbMText
 10
528.0
 20
1787.99999809265
 30
0.0
 40
10.0
 41
0.0
 71
     2
 72
     1
  1
 
  7
CONVERTER_11
 73
     1
 44
1.32052821128451
  0
ENDBLK
  5
57
330
54
100
AcDbEntity
  8
0
100
AcDbBlockEnd
  0
BLOCK
  5
59
330
58
100
AcDbEntity
  8
0
100
AcDbBlockBegin
  2
3240205_CD_100_100-select__4
 70
     0
 10
264.499999999995
 20
1797.999998463012
 30
0.0
  3
3240205_CD_100_100-select__4
  1

  0
LINE
  5
A3
330
58
100
AcDbEntity
  8
0
  6
Continuous
 62
     7
100
AcDbLine
 10
350.26870817899
 20
1897.999998463012
 30
0.0
 11
264.499999999995
 21
1897.999998463012
 31
0.0
  0
LINE
  5
A4
330
58
100
AcDbEntity
  8
0
  6
Continuous
 62
     7
100
AcDbLine
 10
264.499999999995
 20
1897.999998463012
 30
0.0
 11
264.499999999995
 21
1797.999998463012
 31
0.0
  0
LINE
  5
A5
330
58
100
AcDbEntity
  8
0
  6
Continuous
 62
     7
100
AcDbLine
 10
348.9353748456582
 20
1797.999998463012
 30
0.0
 11
264.499999999995
 21
1797.999998463012
 31
0.0
  0
LINE
  5
A6
330
58
100
AcDbEntity
  8
0
  6
Continuous
 62
     7
100
AcDbLine
 10
439.499999999995
 20
1897.999998463012
 30
0.0
 11
439.499999999995
 21
1797.999998463012
 31
0.0
  0
LINE
  5
A7
330
58
100
AcDbEntity
  8
0
  6
Continuous
 62
     7
100
AcDbLine
 10
439.499999999995
 20
1897.999998463012
 30
0.0
 11
360.26870817899
 21
1897.999998463012
 31
0.0
  0
LINE
  5
A8
330
58
100
AcDbEntity
  8
0
  6
Continuous
 62
     7
100
AcDbLine
 10
439.499999999995
 20
1797.999998463012
 30
0.0
 11
358.9353748456582
 21
1797.999998463012
 31
0.0
  0
SPLINE
  5
A9
330
58
100
AcDbEntity
  8
0
  6
Continuous
 62
     2
100
AcDbSpline
210
0.0
220
0.0
230
1.0
 70
     8
 71
     3
 72
    75
 73
    71
 74
    69
 42
0.0000000001
 43
0.0000000001
 44
0.00000001
 40
0.0
 40
0.0
 40
0.0
 40
0.0
 40
1.000000768493305
 40
2.201851975168007
 40
3.878902958293053
 40
5.55595394141792
 40
7.233004924542763
 40
8.910055907667605
 40
10.58710689079245
 40
12.26415787391729
 40
13.94120885704213
 40
15.61825984016698
 40
17.29531082329162
 40
18.97236180641666
 40
20.64941278954173
 40
22.3264637726664
 40
24.00351475579124
 40
25.68056573891608
 40
27.35761672204113
 40
29.03466770516577
 40
30.71171868829061
 40
32.38876967141545
 40
34.0658206545403
 40
35.74287163766514
 40
37.41992262078998
 40
39.09697360391483
 40
40.77402458703967
 40
42.45107557016451
 40
44.12812655328933
 40
45.80517753641414
 40
47.48222851953899
 40
49.15927950266383
 40
50.83633048578867
 40
52.51338146891351
 40
54.19043245203836
 40
55.8674834351632
 40
57.54453441828804
 40
59.22158540141289
 40
60.89863638453773
 40
62.57568736766257
 40
64.25273835078741
 40
65.92978933391225
 40
67.6068403170371
 40
69.28389130016194
 40
70.96094228328678
 40
72.63799326641163
 40
74.31504424953647
 40
75.99209523266131
 40
77.66914621578616
 40
79.346197198911
 40
81.02324818203584
 40
82.70029916516069
 40
84.37735014828553
 40
86.05440113141037
 40
87.73145211453522
 40
89.40850309766006
 40
91.0855540807849
 40
92.76260506390975
 40
94.43965604703459
 40
96.11670703015943
 40
97.79375801328428
 40
99.47080899640912
 40
101.147859979534
 40
102.8249109626588
 40
104.5019619457836
 40
106.1790129289085
 40
107.8560639120331
 40
109.5331148951578
 40
110.7349645387927
 40
111.7349637702997
 40
111.7349637702997
 40
111.7349637702997
 40
111.7349637702997
 10
358.9353748456582
 20
1797.999998463012
 30
0.0
 10
358.8927428802949
 20
1798.348021456495
 30
0.0
 10
358.7988736752924
 20
1799.114315983208
 30
0.0
 10
359.7258297537712
 20
1800.087886474433
 30
0.0
 10
360.7217045278707
 20
1801.516374143457
 30
0.0
 10
359.6034709033912
 20
1802.995612561483
 30
0.0
 10
358.4766578585347
 20
1804.501175610606
 30
0.0
 10
359.6021436624398
 20
1805.999684996086
 30
0.0
 10
360.7270134916758
 20
1807.500084405043
 30
0.0
 10
359.6020483708269
 20
1808.999977383736
 30
0.0
 10
358.4770390249865
 20
1810.500006060009
 30
0.0
 10
359.6020415291968
 20
1811.999998376224
 30
0.0
 10
360.7270408581958
 20
1813.500000435088
 30
0.0
 10
359.6020410379899
 20
1814.999999883417
 30
0.0
 10
358.4770409898142
 20
1816.500000031237
 30
0.0
 10
359.6020410027229
 20
1817.999999991629
 30
0.0
 10
360.7270409992641
 20
1819.500000002242
 30
0.0
 10
359.6020410001908
 20
1820.999999999398
 30
0.0
 10
358.4770409999425
 20
1822.500000000161
 30
0.0
 10
359.602041000009
 20
1823.999999999955
 30
0.0
 10
360.7270409999912
 20
1825.500000000011
 30
0.0
 10
359.6020409999961
 20
1826.999999999996
 30
0.0
 10
358.4770409999946
 20
1828.5
 30
0.0
 10
359.6020409999952
 20
1829.999999999999
 30
0.0
 10
360.727040999995
 20
1831.5
 30
0.0
 10
359.602040999995
 20
1832.999999999999
 30
0.0
 10
358.4770409999951
 20
1834.5
 30
0.0
 10
359.602040999995
 20
1835.999999999999
 30
0.0
 10
360.727040999995
 20
1837.499999999999
 30
0.0
 10
359.602040999995
 20
1838.999999999999
 30
0.0
 10
358.477040999995
 20
1840.5
 30
0.0
 10
359.602040999995
 20
1841.999999999999
 30
0.0
 10
360.727040999995
 20
1843.499999999999
 30
0.0
 10
359.602040999995
 20
1844.999999999999
 30
0.0
 10
358.477040999995
 20
1846.5
 30
0.0
 10
359.602040999995
 20
1847.999999999999
 30
0.0
 10
360.727040999995
 20
1849.499999999999
 30
0.0
 10
359.602040999995
 20
1851.0
 30
0.0
 10
358.4770409999951
 20
1852.499999999999
 30
0.0
 10
359.602040999995
 20
1853.999999999999
 30
0.0
 10
360.7270409999949
 20
1855.499999999999
 30
0.0
 10
359.602040999995
 20
1856.999999999999
 30
0.0
 10
358.477040999995
 20
1858.5
 30
0.0
 10
359.602040999995
 20
1859.999999999999
 30
0.0
 10
360.727040999995
 20
1861.499999999999
 30
0.0
 10
359.602040999995
 20
1862.999999999999
 30
0.0
 10
358.4770409999951
 20
1864.499999999999
 30
0.0
 10
359.602040999995
 20
1866.0
 30
0.0
 10
360.7270409999953
 20
1867.499999999998
 30
0.0
 10
359.602040999994
 20
1869.000000000003
 30
0.0
 10
358.4770409999988
 20
1870.499999999988
 30
0.0
 10
359.6020409999809
 20
1872.000000000042
 30
0.0
 10
360.7270410000475
 20
1873.499999999839
 30
0.0
 10
359.6020409997992
 20
1875.0000000006
 30
0.0
 10
358.477041000726
 20
1876.499999997757
 30
0.0
 10
359.6020409972671
 20
1878.00000000837
 30
0.0
 10
360.7270410101758
 20
1879.499999968761
 30
0.0
 10
359.602040962
 20
1881.000000116582
 30
0.0
 10
358.4770411417942
 20
1882.499999564909
 30
0.0
 10
359.6020404707932
 20
1884.000001623779
 30
0.0
 10
360.727042975003
 20
1885.499993939972
 30
0.0
 10
359.6020336291649
 20
1887.000022616328
 30
0.0
 10
358.4770685083079
 20
1888.49991559471
 30
0.0
 10
359.601938337574
 20
1890.000315004828
 30
0.0
 10
360.7274241413663
 20
1891.498824385973
 30
0.0
 10
359.6006110969308
 20
1893.004387451278
 30
0.0
 10
358.4823774708806
 20
1894.48362580891
 30
0.0
 10
359.4782519086272
 20
1895.912113191958
 30
0.0
 10
360.4052071895125
 20
1896.885682504809
 30
0.0
 10
360.3113394660084
 20
1897.651975988259
 30
0.0
 10
360.26870817899
 20
1897.999998463012
 30
0.0
 11
358.9353748456582
 21
1797.999998463012
 31
0.0
 11
358.935374077164
 21
1798.999999231505
 31
0.0
 11
359.602040999995
 21
1799.999999999999
 31
0.0
 11
360.352040999995
 21
1801.499999999999
 31
0.0
 11
359.602040999995
 21
1802.999999999999
 31
0.0
 11
358.852040999995
 21
1804.499999999999
 31
0.0
 11
359.602040999995
 21
1805.999999999999
 31
0.0
 11
360.352040999995
 21
1807.499999999999
 31
0.0
 11
359.602040999995
 21
1808.999999999999
 31
0.0
 11
358.852040999995
 21
1810.499999999999
 31
0.0
 11
359.602040999995
 21
1811.999999999999
 31
0.0
 11
360.352040999995
 21
1813.499999999999
 31
0.0
 11
359.602040999995
 21
1814.999999999999
 31
0.0
 11
358.8520409999949
 21
1816.499999999999
 31
0.0
 11
359.602040999995
 21
1817.999999999999
 31
0.0
 11
360.352040999995
 21
1819.499999999999
 31
0.0
 11
359.602040999995
 21
1820.999999999999
 31
0.0
 11
358.852040999995
 21
1822.499999999999
 31
0.0
 11
359.602040999995
 21
1823.999999999999
 31
0.0
 11
360.352040999995
 21
1825.499999999999
 31
0.0
 11
359.602040999995
 21
1826.999999999999
 31
0.0
 11
358.852040999995
 21
1828.499999999999
 31
0.0
 11
359.602040999995
 21
1829.999999999999
 31
0.0
 11
360.352040999995
 21
1831.499999999999
 31
0.0
 11
359.602040999995
 21
1832.999999999999
 31
0.0
 11
358.852040999995
 21
1834.499999999999
 31
0.0
 11
359.602040999995
 21
1835.999999999999
 31
0.0
 11
360.3520409999949
 21
1837.499999999999
 31
0.0
 11
359.602040999995
 21
1838.999999999999
 31
0.0
 11
358.852040999995
 21
1840.499999999999
 31
0.0
 11
359.602040999995
 21
1841.999999999999
 31
0.0
 11
360.352040999995
 21
1843.499999999999
 31
0.0
 11
359.602040999995
 21
1844.999999999999
 31
0.0
 11
358.852040999995
 21
1846.499999999999
 31
0.0
 11
359.602040999995
 21
1847.999999999999
 31
0.0
 11
360.352040999995
 21
1849.499999999999
 31
0.0
 11
359.602040999995
 21
1850.999999999999
 31
0.0
 11
358.852040999995
 21
1852.499999999999
 31
0.0
 11
359.602040999995
 21
1853.999999999999
 31
0.0
 11
360.352040999995
 21
1855.499999999999
 31
0.0
 11
359.602040999995
 21
1856.999999999999
 31
0.0
 11
358.852040999995
 21
1858.499999999999
 31
0.0
 11
359.602040999995
 21
1859.999999999999
 31
0.0
 11
360.352040999995
 21
1861.499999999999
 31
0.0
 11
359.602040999995
 21
1862.999999999999
 31
0.0
 11
358.852040999995
 21
1864.499999999999
 31
0.0
 11
359.602040999995
 21
1865.999999999999
 31
0.0
 11
360.352040999995
 21
1867.499999999999
 31
0.0
 11
359.602040999995
 21
1868.999999999999
 31
0.0
 11
358.852040999995
 21
1870.499999999999
 31
0.0
 11
359.602040999995
 21
1871.999999999999
 31
0.0
 11
360.352040999995
 21
1873.499999999999
 31
0.0
 11
359.602040999995
 21
1874.999999999999
 31
0.0
 11
358.852040999995
 21
1876.499999999999
 31
0.0
 11
359.602040999995
 21
1877.999999999999
 31
0.0
 11
360.352040999995
 21
1879.499999999999
 31
0.0
 11
359.602040999995
 21
1880.999999999999
 31
0.0
 11
358.852040999995
 21
1882.499999999999
 31
0.0
 11
359.602040999995
 21
1883.999999999999
 31
0.0
 11
360.352040999995
 21
1885.499999999999
 31
0.0
 11
359.602040999995
 21
1886.999999999999
 31
0.0
 11
358.852040999995
 21
1888.499999999999
 31
0.0
 11
359.602040999995
 21
1889.999999999999
 31
0.0
 11
360.352040999995
 21
1891.499999999999
 31
0.0
 11
359.602040999995
 21
1892.999999999999
 31
0.0
 11
358.852040999995
 21
1894.499999999999
 31
0.0
 11
359.602040999995
 21
1895.999999999999
 31
0.0
 11
360.268707410497
 21
1896.999999231505
 31
0.0
 11
360.26870817899
 21
1897.999998463012
 31
0.0
  0
SPLINE
  5
AA
330
58
100
AcDbEntity
  8
0
  6
Continuous
 62
     2
100
AcDbSpline
210
0.0
220
0.0
230
1.0
 70
     8
 71
     3
 72
    75
 73
    71
 74
    69
 42
0.0000000001
 43
0.0000000001
 44
0.00000001
 40
0.0
 40
0.0
 40
0.0
 40
0.0
 40
0.9999992315070582
 40
2.20184887514193
 40
3.878899858266366
 40
5.555950841391208
 40
7.233001824516025
 40
8.910052807640842
 40
10.58710379076568
 40
12.26415477389053
 40
13.94120575701537
 40
15.61825674014021
 40
17.29530772326529
 40
18.97235870638995
 40
20.64940968951477
 40
22.32646067263959
 40
24.00351165576443
 40
25.68056263888927
 40
27.35761362201412
 40
29.03466460513896
 40
30.7117155882638
 40
32.38876657138864
 40
34.06581755451328
 40
35.74286853763833
 40
37.41991952076314
 40
39.09697050388796
 40
40.77402148701258
 40
42.4510724701376
 40
44.12812345326226
 40
45.80517443638733
 40
47.4822254195122
 40
49.15927640263706
 40
50.83632738576173
 40
52.5133783688868
 40
54.19042935201164
 40
55.86748033513648
 40
57.54453131826133
 40
59.22158230138617
 40
60.89863328451101
 40
62.57568426763586
 40
64.25273525076068
 40
65.9297862338855
 40
67.60683721701011
 40
69.28388820013512
 40
70.96093918325978
 40
72.63799016638485
 40
74.31504114950972
 40
75.9920921326346
 40
77.66914311575925
 40
79.34619409888433
 40
81.02324508200894
 40
82.70029606513395
 40
84.377347048259
 40
86.05439803138364
 40
87.73144901450829
 40
89.40849999763333
 40
91.08555098075837
 40
92.76260196388301
 40
94.43965294700786
 40
96.1167039301327
 40
97.79375491325754
 40
99.47080589638239
 40
101.1478568795072
 40
102.8249078626321
 40
104.5019588457569
 40
106.1790098288818
 40
107.8560608120066
 40
109.5331117951316
 40
110.7349630018061
 40
111.7349637702997
 40
111.7349637702997
 40
111.7349637702997
 40
111.7349637702997
 10
350.26870817899
 20
1897.999998463012
 30
0.0
 10
350.3113394660084
 20
1897.651975988259
 30
0.0
 10
350.4052071895126
 20
1896.885682504809
 30
0.0
 10
349.4782519086272
 20
1895.912113191958
 30
0.0
 10
348.4823774708807
 20
1894.48362580891
 30
0.0
 10
349.6006110969308
 20
1893.004387451278
 30
0.0
 10
350.7274241413663
 20
1891.498824385973
 30
0.0
 10
349.601938337574
 20
1890.000315004828
 30
0.0
 10
348.4770685083078
 20
1888.49991559471
 30
0.0
 10
349.6020336291648
 20
1887.000022616329
 30
0.0
 10
350.727042975003
 20
1885.499993939972
 30
0.0
 10
349.6020404707932
 20
1884.000001623778
 30
0.0
 10
348.4770411417941
 20
1882.499999564909
 30
0.0
 10
349.6020409620002
 20
1881.000000116581
 30
0.0
 10
350.7270410101756
 20
1879.499999968761
 30
0.0
 10
349.6020409972672
 20
1878.00000000837
 30
0.0
 10
348.4770410007259
 20
1876.499999997756
 30
0.0
 10
349.6020409997992
 20
1875.0000000006
 30
0.0
 10
350.7270410000475
 20
1873.499999999838
 30
0.0
 10
349.6020409999809
 20
1872.000000000043
 30
0.0
 10
348.4770409999987
 20
1870.499999999987
 30
0.0
 10
349.6020409999939
 20
1869.000000000003
 30
0.0
 10
350.7270409999953
 20
1867.499999999998
 30
0.0
 10
349.602040999995
 20
1865.999999999999
 30
0.0
 10
348.4770409999951
 20
1864.499999999999
 30
0.0
 10
349.6020409999949
 20
1862.999999999999
 30
0.0
 10
350.7270409999948
 20
1861.499999999999
 30
0.0
 10
349.6020409999951
 20
1859.999999999999
 30
0.0
 10
348.477040999995
 20
1858.499999999999
 30
0.0
 10
349.6020409999948
 20
1856.999999999999
 30
0.0
 10
350.7270409999951
 20
1855.499999999998
 30
0.0
 10
349.6020409999951
 20
1854.0
 30
0.0
 10
348.4770409999949
 20
1852.499999999999
 30
0.0
 10
349.602040999995
 20
1851.0
 30
0.0
 10
350.727040999995
 20
1849.499999999999
 30
0.0
 10
349.602040999995
 20
1847.999999999999
 30
0.0
 10
348.477040999995
 20
1846.499999999999
 30
0.0
 10
349.602040999995
 20
1844.999999999999
 30
0.0
 10
350.7270409999949
 20
1843.5
 30
0.0
 10
349.602040999995
 20
1841.999999999999
 30
0.0
 10
348.477040999995
 20
1840.499999999999
 30
0.0
 10
349.6020409999949
 20
1838.999999999999
 30
0.0
 10
350.7270409999949
 20
1837.499999999999
 30
0.0
 10
349.602040999995
 20
1835.999999999999
 30
0.0
 10
348.477040999995
 20
1834.5
 30
0.0
 10
349.6020409999949
 20
1832.999999999999
 30
0.0
 10
350.727040999995
 20
1831.499999999999
 30
0.0
 10
349.6020409999951
 20
1829.999999999999
 30
0.0
 10
348.4770409999946
 20
1828.5
 30
0.0
 10
349.6020409999958
 20
1826.999999999996
 30
0.0
 10
350.7270409999911
 20
1825.500000000011
 30
0.0
 10
349.602041000009
 20
1823.999999999956
 30
0.0
 10
348.4770409999425
 20
1822.50000000016
 30
0.0
 10
349.6020410001908
 20
1820.999999999398
 30
0.0
 10
350.727040999264
 20
1819.500000002242
 30
0.0
 10
349.6020410027229
 20
1817.999999991629
 30
0.0
 10
348.4770409898143
 20
1816.500000031237
 30
0.0
 10
349.60204103799
 20
1814.999999883417
 30
0.0
 10
350.7270408581958
 20
1813.500000435088
 30
0.0
 10
349.6020415291969
 20
1811.999998376225
 30
0.0
 10
348.4770390249866
 20
1810.500006060009
 30
0.0
 10
349.6020483708269
 20
1808.999977383736
 30
0.0
 10
350.7270134916758
 20
1807.500084405043
 30
0.0
 10
349.6021436624399
 20
1805.999684996086
 30
0.0
 10
348.4766578585348
 20
1804.501175610607
 30
0.0
 10
349.6034709033912
 20
1802.995612561483
 30
0.0
 10
350.7217045278705
 20
1801.516374143456
 30
0.0
 10
349.7258297537713
 20
1800.087886474432
 30
0.0
 10
348.7988736752924
 20
1799.114315983208
 30
0.0
 10
348.8927428802949
 20
1798.348021456495
 30
0.0
 10
348.9353748456582
 20
1797.999998463012
 30
0.0
 11
350.26870817899
 21
1897.999998463012
 31
0.0
 11
350.268707410497
 21
1896.999999231505
 31
0.0
 11
349.602040999995
 21
1895.999999999999
 31
0.0
 11
348.852040999995
 21
1894.499999999999
 31
0.0
 11
349.602040999995
 21
1892.999999999999
 31
0.0
 11
350.3520409999949
 21
1891.499999999999
 31
0.0
 11
349.602040999995
 21
1889.999999999999
 31
0.0
 11
348.852040999995
 21
1888.499999999999
 31
0.0
 11
349.602040999995
 21
1886.999999999999
 31
0.0
 11
350.352040999995
 21
1885.499999999999
 31
0.0
 11
349.602040999995
 21
1883.999999999999
 31
0.0
 11
348.8520409999949
 21
1882.499999999999
 31
0.0
 11
349.602040999995
 21
1880.999999999999
 31
0.0
 11
350.3520409999949
 21
1879.499999999999
 31
0.0
 11
349.602040999995
 21
1877.999999999999
 31
0.0
 11
348.852040999995
 21
1876.499999999999
 31
0.0
 11
349.602040999995
 21
1874.999999999999
 31
0.0
 11
350.352040999995
 21
1873.499999999999
 31
0.0
 11
349.602040999995
 21
1871.999999999999
 31
0.0
 11
348.852040999995
 21
1870.499999999999
 31
0.0
 11
349.602040999995
 21
1868.999999999999
 31
0.0
 11
350.352040999995
 21
1867.499999999999
 31
0.0
 11
349.602040999995
 21
1865.999999999999
 31
0.0
 11
348.852040999995
 21
1864.499999999999
 31
0.0
 11
349.602040999995
 21
1862.999999999999
 31
0.0
 11
350.3520409999949
 21
1861.499999999999
 31
0.0
 11
349.602040999995
 21
1859.999999999999
 31
0.0
 11
348.8520409999949
 21
1858.499999999999
 31
0.0
 11
349.602040999995
 21
1856.999999999999
 31
0.0
 11
350.352040999995
 21
1855.499999999999
 31
0.0
 11
349.602040999995
 21
1853.999999999999
 31
0.0
 11
348.8520409999949
 21
1852.499999999999
 31
0.0
 11
349.602040999995
 21
1850.999999999999
 31
0.0
 11
350.352040999995
 21
1849.499999999999
 31
0.0
 11
349.602040999995
 21
1847.999999999999
 31
0.0
 11
348.852040999995
 21
1846.499999999999
 31
0.0
 11
349.602040999995
 21
1844.999999999999
 31
0.0
 11
350.352040999995
 21
1843.499999999999
 31
0.0
 11
349.602040999995
 21
1841.999999999999
 31
0.0
 11
348.852040999995
 21
1840.499999999999
 31
0.0
 11
349.602040999995
 21
1838.999999999999
 31
0.0
 11
350.3520409999949
 21
1837.499999999999
 31
0.0
 11
349.602040999995
 21
1835.999999999999
 31
0.0
 11
348.8520409999949
 21
1834.499999999999
 31
0.0
 11
349.602040999995
 21
1832.999999999999
 31
0.0
 11
350.352040999995
 21
1831.499999999999
 31
0.0
 11
349.602040999995
 21
1829.999999999999
 31
0.0
 11
348.8520409999949
 21
1828.499999999999
 31
0.0
 11
349.602040999995
 21
1826.999999999999
 31
0.0
 11
350.3520409999949
 21
1825.499999999999
 31
0.0
 11
349.602040999995
 21
1823.999999999999
 31
0.0
 11
348.852040999995
 21
1822.499999999999
 31
0.0
 11
349.602040999995
 21
1820.999999999999
 31
0.0
 11
350.352040999995
 21
1819.499999999999
 31
0.0
 11
349.602040999995
 21
1817.999999999999
 31
0.0
 11
348.852040999995
 21
1816.499999999999
 31
0.0
 11
349.602040999995
 21
1814.999999999999
 31
0.0
 11
350.352040999995
 21
1813.499999999999
 31
0.0
 11
349.602040999995
 21
1811.999999999999
 31
0.0
 11
348.852040999995
 21
1810.499999999999
 31
0.0
 11
349.602040999995
 21
1808.999999999999
 31
0.0
 11
350.352040999995
 21
1807.499999999999
 31
0.0
 11
349.602040999995
 21
1805.999999999999
 31
0.0
 11
348.852040999995
 21
1804.499999999999
 31
0.0
 11
349.602040999995
 21
1802.999999999999
 31
0.0
 11
350.352040999995
 21
1801.499999999999
 31
0.0
 11
349.6020409999951
 21
1799.999999999999
 31
0.0
 11
348.9353740771641
 21
1798.999999231505
 31
0.0
 11
348.9353748456582
 21
1797.999998463012
 31
0.0
  0
ENDBLK
  5
5A
330
58
100
AcDbEntity
  8
0
100
AcDbBlockEnd
  0
BLOCK
  5
5D
330
5B
100
AcDbEntity
  8
0
100
AcDbBlockBegin
  2
SA_Links1
 70
     0
 10
364.5
 20
1847.999999999999
 30
0.0
  3
SA_Links1
  1

  0
INSERT
  5
5C
330
5B
100
AcDbEntity
  8
0
100
AcDbBlockReference
  2
3240205_CD_100_100-select__4
 10
264.499999999995
 20
1797.999998463012
 30
0.0
  0
MTEXT
  5
AB
330
5B
100
AcDbEntity
  8
1
 62
     6
100
AcDbMText
 10
351.999999999995
 20
1787.499773513614
 30
0.0
 40
10.0
 41
0.0
 71
     2
 72
     1
  1
 
  7
CONVERTER_11
 73
     1
 44
1.32052821128451
  0
ENDBLK
  5
5E
330
5B
100
AcDbEntity
  8
0
100
AcDbBlockEnd
  0
BLOCK
  5
60
330
5F
100
AcDbEntity
  8
0
100
AcDbBlockBegin
  2
3240205_CD_100_100-select__5
 70
     0
 10
-111.999999999995
 20
1797.999997463013
 30
0.0
  3
3240205_CD_100_100-select__5
  1

  0
LINE
  5
AC
330
5F
100
AcDbEntity
  8
0
  6
Continuous
 62
     7
100
AcDbLine
 10
-111.999999999995
 20
1797.999997463013
 30
0.0
 11
-31.23809515433178
 21
1797.999997463013
 31
0.0
  0
LINE
  5
AD
330
5F
100
AcDbEntity
  8
0
  6
Continuous
 62
     7
100
AcDbLine
 10
-111.999999999995
 20
1797.999997463013
 30
0.0
 11
-111.999999999995
 21
1897.999997463013
 31
0.0
  0
LINE
  5
AE
330
5F
100
AcDbEntity
  8
0
  6
Continuous
 62
     7
100
AcDbLine
 10
-111.999999999995
 20
1897.999997463013
 30
0.0
 11
-29.90476182100002
 21
1897.999997463013
 31
0.0
  0
LINE
  5
AF
330
5F
100
AcDbEntity
  8
0
  6
Continuous
 62
     7
100
AcDbLine
 10
-21.23809515433178
 20
1797.999997463013
 30
0.0
 11
60.00000000000499
 21
1797.999997463013
 31
0.0
  0
LINE
  5
B0
330
5F
100
AcDbEntity
  8
0
  6
Continuous
 62
     7
100
AcDbLine
 10
60.00000000000499
 20
1797.999997463013
 30
0.0
 11
60.00000000000499
 21
1897.999997463013
 31
0.0
  0
LINE
  5
B1
330
5F
100
AcDbEntity
  8
0
  6
Continuous
 62
     7
100
AcDbLine
 10
-19.90476182100001
 20
1897.999997463013
 30
0.0
 11
60.00000000000499
 21
1897.999997463013
 31
0.0
  0
SPLINE
  5
B2
330
5F
100
AcDbEntity
  8
0
  6
Continuous
 62
     2
100
AcDbSpline
210
0.0
220
0.0
230
1.0
 70
     8
 71
     3
 72
    75
 73
    71
 74
    69
 42
0.0000000001
 43
0.0000000001
 44
0.00000001
 40
0.0
 40
0.0
 40
0.0
 40
0.0
 40
0.9999992315070582
 40
2.201848875141895
 40
3.878899858266327
 40
5.555950841391373
 40
7.23300182451601
 40
8.910052807641055
 40
10.5871037907661
 40
12.26415477389074
 40
13.94120575701538
 40
15.61825674014042
 40
17.29530772326526
 40
18.97235870639011
 40
20.64940968951495
 40
22.32646067263979
 40
24.00351165576463
 40
25.68056263888948
 40
27.35761362201432
 40
29.03466460513916
 40
30.711715588264
 40
32.38876657138884
 40
34.06581755451368
 40
35.74286853763852
 40
37.41991952076316
 40
39.0969705038882
 40
40.77402148701324
 40
42.45107247013788
 40
44.12812345326293
 40
45.80517443638777
 40
47.4822254195122
 40
49.15927640263725
 40
50.8363273857623
 40
52.51337836888693
 40
54.19042935201198
 40
55.86748033513661
 40
57.54453131826146
 40
59.2215823013863
 40
60.89863328451114
 40
62.57568426763599
 40
64.25273525076062
 40
65.92978623388566
 40
67.6068372170107
 40
69.28388820013534
 40
70.96093918326038
 40
72.63799016638502
 40
74.31504114950987
 40
75.99209213263471
 40
77.66914311575975
 40
79.3461940988844
 40
81.02324508200944
 40
82.70029606513408
 40
84.37734704825893
 40
86.05439803138377
 40
87.73144901450861
 40
89.40849999763346
 40
91.0855509807583
 40
92.76260196388314
 40
94.43965294700799
 40
96.11670393013283
 40
97.79375491325767
 40
99.47080589638252
 40
101.1478568795074
 40
102.8249078626322
 40
104.501958845757
 40
106.1790098288819
 40
107.8560608120067
 40
109.5331117951316
 40
110.7349630018063
 40
111.7349637702996
 40
111.7349637702996
 40
111.7349637702996
 40
111.7349637702996
 10
-29.90476182100002
 20
1897.999997463013
 30
0.0
 10
-29.8621305339816
 20
1897.65197498826
 30
0.0
 10
-29.76826281047754
 20
1896.88568150481
 30
0.0
 10
-30.69521809136281
 20
1895.912112191959
 30
0.0
 10
-31.69109252910936
 20
1894.483624808912
 30
0.0
 10
-30.57285890305935
 20
1893.004386451279
 30
0.0
 10
-29.44604585862369
 20
1891.498823385973
 30
0.0
 10
-30.57153166241604
 20
1890.00031400483
 30
0.0
 10
-31.6964014916822
 20
1888.49991459471
 30
0.0
 10
-30.57143637082521
 20
1887.000021616329
 30
0.0
 10
-29.44642702498701
 20
1885.499992939973
 30
0.0
 10
-30.57142952919674
 20
1884.000000623779
 30
0.0
 10
-31.69642885819582
 20
1882.49999856491
 30
0.0
 10
-30.57142903798999
 20
1880.999999116582
 30
0.0
 10
-29.44642898981429
 20
1879.499998968762
 30
0.0
 10
-30.57142900272293
 20
1877.99999900837
 30
0.0
 10
-31.69642899926406
 20
1876.499998997757
 30
0.0
 10
-30.57142900019085
 20
1874.999999000601
 30
0.0
 10
-29.44642899994253
 20
1873.499998999839
 30
0.0
 10
-30.57142900000905
 20
1871.999999000043
 30
0.0
 10
-31.69642899999125
 20
1870.499998999989
 30
0.0
 10
-30.57142899999601
 20
1868.999999000002
 30
0.0
 10
-29.44642899999475
 20
1867.499998999999
 30
0.0
 10
-30.57142899999502
 20
1865.999999
 30
0.0
 10
-31.69642899999499
 20
1864.499999
 30
0.0
 10
-30.57142899999501
 20
1862.999999
 30
0.0
 10
-29.44642899999501
 20
1861.499999
 30
0.0
 10
-30.57142899999514
 20
1859.999999
 30
0.0
 10
-31.69642899999498
 20
1858.499998999999
 30
0.0
 10
-30.57142899999516
 20
1856.999999
 30
0.0
 10
-29.44642899999499
 20
1855.499999
 30
0.0
 10
-30.57142899999501
 20
1853.999999
 30
0.0
 10
-31.69642899999501
 20
1852.499999
 30
0.0
 10
-30.57142899999489
 20
1850.999999
 30
0.0
 10
-29.44642899999502
 20
1849.499999
 30
0.0
 10
-30.57142899999507
 20
1847.999999
 30
0.0
 10
-31.696428999995
 20
1846.499999
 30
0.0
 10
-30.57142899999502
 20
1844.999999
 30
0.0
 10
-29.44642899999502
 20
1843.499999
 30
0.0
 10
-30.57142899999496
 20
1841.999999
 30
0.0
 10
-31.69642899999501
 20
1840.499999
 30
0.0
 10
-30.57142899999501
 20
1838.999999
 30
0.0
 10
-29.44642899999501
 20
1837.499999
 30
0.0
 10
-30.57142899999513
 20
1835.999999
 30
0.0
 10
-31.69642899999501
 20
1834.499998999999
 30
0.0
 10
-30.57142899999493
 20
1832.999999
 30
0.0
 10
-29.44642899999503
 20
1831.499998999999
 30
0.0
 10
-30.57142899999498
 20
1829.999999
 30
0.0
 10
-31.69642899999529
 20
1828.499999000001
 30
0.0
 10
-30.57142899999388
 20
1826.999998999997
 30
0.0
 10
-29.44642899999879
 20
1825.499999000011
 30
0.0
 10
-30.57142899998102
 20
1823.999998999957
 30
0.0
 10
-31.69642900004747
 20
1822.499999000161
 30
0.0
 10
-30.57142899979918
 20
1820.999998999399
 30
0.0
 10
-29.44642900072594
 20
1819.499999002243
 30
0.0
 10
-30.57142899726712
 20
1817.99999899163
 30
0.0
 10
-31.69642901017573
 20
1816.499999031238
 30
0.0
 10
-30.57142896200003
 20
1814.999998883419
 30
0.0
 10
-29.44642914179424
 20
1813.499999435089
 30
0.0
 10
-30.57142847079309
 20
1811.999997376226
 30
0.0
 10
-31.69643097500348
 20
1810.500005060009
 30
0.0
 10
-30.57142162916309
 20
1808.999976383737
 30
0.0
 10
-29.44645650831422
 20
1807.500083405045
 30
0.0
 10
-30.57132633755015
 20
1805.999683996087
 30
0.0
 10
-31.69681214145526
 20
1804.501174610607
 30
0.0
 10
-30.56999909659888
 20
1802.995611561484
 30
0.0
 10
-29.45176547211934
 20
1801.516373143458
 30
0.0
 10
-30.44764024621903
 20
1800.087885474433
 30
0.0
 10
-31.37459632469766
 20
1799.11431498321
 30
0.0
 10
-31.28072711969506
 20
1798.348020456496
 30
0.0
 10
-31.23809515433178
 20
1797.999997463013
 30
0.0
 11
-29.90476182100002
 21
1897.999997463013
 31
0.0
 11
-29.90476258949309
 21
1896.999998231506
 31
0.0
 11
-30.57142899999501
 21
1895.999999
 31
0.0
 11
-31.32142899999501
 21
1894.499999
 31
0.0
 11
-30.57142899999501
 21
1892.999999
 31
0.0
 11
-29.82142899999501
 21
1891.499999
 31
0.0
 11
-30.57142899999501
 21
1889.999999
 31
0.0
 11
-31.32142899999501
 21
1888.499999
 31
0.0
 11
-30.57142899999501
 21
1886.999999
 31
0.0
 11
-29.82142899999501
 21
1885.499999
 31
0.0
 11
-30.57142899999501
 21
1883.999999
 31
0.0
 11
-31.32142899999501
 21
1882.499999
 31
0.0
 11
-30.57142899999501
 21
1880.999999
 31
0.0
 11
-29.82142899999501
 21
1879.499999
 31
0.0
 11
-30.57142899999501
 21
1877.999999
 31
0.0
 11
-31.321428999995
 21
1876.499999
 31
0.0
 11
-30.571428999995
 21
1874.999999
 31
0.0
 11
-29.82142899999501
 21
1873.499999
 31
0.0
 11
-30.571428999995
 21
1871.999999
 31
0.0
 11
-31.32142899999501
 21
1870.499999
 31
0.0
 11
-30.57142899999501
 21
1868.999999
 31
0.0
 11
-29.82142899999501
 21
1867.499999
 31
0.0
 11
-30.57142899999501
 21
1865.999999
 31
0.0
 11
-31.32142899999501
 21
1864.499999
 31
0.0
 11
-30.57142899999501
 21
1862.999999
 31
0.0
 11
-29.82142899999501
 21
1861.499999
 31
0.0
 11
-30.57142899999501
 21
1859.999999
 31
0.0
 11
-31.32142899999501
 21
1858.499999
 31
0.0
 11
-30.571428999995
 21
1856.999999
 31
0.0
 11
-29.82142899999501
 21
1855.499999
 31
0.0
 11
-30.571428999995
 21
1853.999999
 31
0.0
 11
-31.32142899999501
 21
1852.499999
 31
0.0
 11
-30.57142899999501
 21
1850.999999
 31
0.0
 11
-29.82142899999501
 21
1849.499999
 31
0.0
 11
-30.57142899999501
 21
1847.999999
 31
0.0
 11
-31.32142899999501
 21
1846.499999
 31
0.0
 11
-30.57142899999501
 21
1844.999999
 31
0.0
 11
-29.82142899999501
 21
1843.499999
 31
0.0
 11
-30.57142899999501
 21
1841.999999
 31
0.0
 11
-31.32142899999501
 21
1840.499999
 31
0.0
 11
-30.57142899999501
 21
1838.999999
 31
0.0
 11
-29.82142899999501
 21
1837.499999
 31
0.0
 11
-30.57142899999501
 21
1835.999999
 31
0.0
 11
-31.32142899999501
 21
1834.499999
 31
0.0
 11
-30.571428999995
 21
1832.999999
 31
0.0
 11
-29.82142899999501
 21
1831.499999
 31
0.0
 11
-30.571428999995
 21
1829.999999
 31
0.0
 11
-31.32142899999501
 21
1828.499999
 31
0.0
 11
-30.57142899999501
 21
1826.999999
 31
0.0
 11
-29.82142899999501
 21
1825.499999
 31
0.0
 11
-30.57142899999501
 21
1823.999999
 31
0.0
 11
-31.32142899999501
 21
1822.499999
 31
0.0
 11
-30.57142899999502
 21
1820.999999
 31
0.0
 11
-29.82142899999501
 21
1819.499999
 31
0.0
 11
-30.57142899999502
 21
1817.999999
 31
0.0
 11
-31.32142899999501
 21
1816.499999
 31
0.0
 11
-30.57142899999501
 21
1814.999999
 31
0.0
 11
-29.82142899999501
 21
1813.499999
 31
0.0
 11
-30.57142899999501
 21
1811.999999
 31
0.0
 11
-31.32142899999501
 21
1810.499999
 31
0.0
 11
-30.57142899999501
 21
1808.999999
 31
0.0
 11
-29.82142899999501
 21
1807.499999
 31
0.0
 11
-30.57142899999501
 21
1805.999999
 31
0.0
 11
-31.32142899999501
 21
1804.499999
 31
0.0
 11
-30.57142899999501
 21
1802.999999
 31
0.0
 11
-29.82142899999501
 21
1801.499999
 31
0.0
 11
-30.57142899999502
 21
1799.999999
 31
0.0
 11
-31.23809592282603
 21
1798.999998231506
 31
0.0
 11
-31.23809515433178
 21
1797.999997463013
 31
0.0
  0
SPLINE
  5
B3
330
5F
100
AcDbEntity
  8
0
  6
Continuous
 62
     2
100
AcDbSpline
210
0.0
220
0.0
230
1.0
 70
     8
 71
     3
 72
    75
 73
    71
 74
    69
 42
0.0000000001
 43
0.0000000001
 44
0.00000001
 40
0.0
 40
0.0
 40
0.0
 40
0.0
 40
1.000000768493532
 40
2.201851975167845
 40
3.878902958292889
 40
5.555953941417731
 40
7.233004924542575
 40
8.910055907667418
 40
10.58710689079226
 40
12.2641578739171
 40
13.94120885704194
 40
15.61825984016679
 40
17.29531082329163
 40
18.97236180641647
 40
20.64941278954111
 40
22.32646377266615
 40
24.003514755791
 40
25.68056573891583
 40
27.35761672204068
 40
29.03466770516552
 40
30.71171868829056
 40
32.3887696714152
 40
34.06582065454005
 40
35.74287163766489
 40
37.41992262078973
 40
39.09697360391458
 40
40.77402458703962
 40
42.45107557016426
 40
44.1281265532891
 40
45.80517753641394
 40
47.48222851953879
 40
49.15927950266363
 40
50.83633048578847
 40
52.51338146891332
 40
54.19043245203816
 40
55.867483435163
 40
57.54453441828785
 40
59.22158540141269
 40
60.89863638453753
 40
62.57568736766238
 40
64.25273835078721
 40
65.92978933391205
 40
67.6068403170369
 40
69.28389130016174
 40
70.96094228328658
 40
72.63799326641143
 40
74.31504424953627
 40
75.99209523266111
 40
77.66914621578596
 40
79.3461971989108
 40
81.02324818203564
 40
82.70029916516049
 40
84.37735014828533
 40
86.05440113141017
 40
87.73145211453502
 40
89.40850309765986
 40
91.0855540807847
 40
92.76260506390955
 40
94.43965604703439
 40
96.11670703015923
 40
97.79375801328408
 40
99.47080899640892
 40
101.1478599795338
 40
102.8249109626586
 40
104.5019619457834
 40
106.1790129289083
 40
107.8560639120329
 40
109.5331148951578
 40
110.7349645387924
 40
111.7349637702997
 40
111.7349637702997
 40
111.7349637702997
 40
111.7349637702997
 10
-21.23809515433178
 20
1797.999997463013
 30
0.0
 10
-21.2807271196951
 20
1798.348020456497
 30
0.0
 10
-21.37459632469774
 20
1799.114314983209
 30
0.0
 10
-20.44764024621877
 20
1800.087885474433
 30
0.0
 10
-19.45176547211937
 20
1801.516373143457
 30
0.0
 10
-20.56999909659885
 20
1802.995611561484
 30
0.0
 10
-21.69681214145527
 20
1804.501174610607
 30
0.0
 10
-20.57132633755015
 20
1805.999683996087
 30
0.0
 10
-19.44645650831421
 20
1807.500083405045
 30
0.0
 10
-20.57142162916309
 20
1808.999976383736
 30
0.0
 10
-21.69643097500348
 20
1810.500005060009
 30
0.0
 10
-20.57142847079309
 20
1811.999997376226
 30
0.0
 10
-19.44642914179424
 20
1813.499999435089
 30
0.0
 10
-20.57142896199997
 20
1814.999998883418
 30
0.0
 10
-21.69642901017573
 20
1816.499999031238
 30
0.0
 10
-20.57142899726716
 20
1817.99999899163
 30
0.0
 10
-19.44642900072595
 20
1819.499999002243
 30
0.0
 10
-20.57142899979915
 20
1820.999998999399
 30
0.0
 10
-21.69642900004749
 20
1822.499999000161
 30
0.0
 10
-20.57142899998089
 20
1823.999998999956
 30
0.0
 10
-19.44642899999879
 20
1825.499999000012
 30
0.0
 10
-20.57142899999406
 20
1826.999998999997
 30
0.0
 10
-21.69642899999528
 20
1828.499999000001
 30
0.0
 10
-20.57142899999494
 20
1829.999999
 30
0.0
 10
-19.44642899999502
 20
1831.499999000001
 30
0.0
 10
-20.57142899999507
 20
1832.999999
 30
0.0
 10
-21.696428999995
 20
1834.499999
 30
0.0
 10
-20.57142899999496
 20
1835.999999
 30
0.0
 10
-19.44642899999501
 20
1837.499999
 30
0.0
 10
-20.57142899999501
 20
1838.999999
 30
0.0
 10
-21.69642899999501
 20
1840.499999
 30
0.0
 10
-20.57142899999501
 20
1841.999999
 30
0.0
 10
-19.44642899999501
 20
1843.499999
 30
0.0
 10
-20.57142899999501
 20
1844.999999
 30
0.0
 10
-21.69642899999502
 20
1846.499999
 30
0.0
 10
-20.57142899999501
 20
1847.999999
 30
0.0
 10
-19.44642899999502
 20
1849.499999
 30
0.0
 10
-20.57142899999501
 20
1850.999999
 30
0.0
 10
-21.69642899999502
 20
1852.499999000001
 30
0.0
 10
-20.57142899999501
 20
1853.999999
 30
0.0
 10
-19.44642899999501
 20
1855.499999
 30
0.0
 10
-20.57142899999501
 20
1856.999999
 30
0.0
 10
-21.69642899999502
 20
1858.499999
 30
0.0
 10
-20.57142899999501
 20
1859.999999
 30
0.0
 10
-19.44642899999502
 20
1861.499999
 30
0.0
 10
-20.57142899999501
 20
1862.999999
 30
0.0
 10
-21.696428999995
 20
1864.499999
 30
0.0
 10
-20.57142899999508
 20
1865.999999
 30
0.0
 10
-19.44642899999475
 20
1867.499998999999
 30
0.0
 10
-20.57142899999602
 20
1868.999999000003
 30
0.0
 10
-21.69642899999125
 20
1870.499998999989
 30
0.0
 10
-20.57142900000907
 20
1871.999999000044
 30
0.0
 10
-19.44642899994254
 20
1873.499998999839
 30
0.0
 10
-20.57142900019086
 20
1874.999999000601
 30
0.0
 10
-21.69642899926408
 20
1876.499998997757
 30
0.0
 10
-20.57142900272293
 20
1877.99999900837
 30
0.0
 10
-19.44642898981429
 20
1879.499998968762
 30
0.0
 10
-20.57142903798999
 20
1880.999999116582
 30
0.0
 10
-21.69642885819582
 20
1882.49999856491
 30
0.0
 10
-20.57142952919681
 20
1884.00000062378
 30
0.0
 10
-19.44642702498702
 20
1885.499992939973
 30
0.0
 10
-20.57143637082521
 20
1887.000021616329
 30
0.0
 10
-21.69640149168221
 20
1888.49991459471
 30
0.0
 10
-20.57153166241604
 20
1890.000314004829
 30
0.0
 10
-19.44604585862371
 20
1891.498823385973
 30
0.0
 10
-20.57285890305918
 20
1893.004386451279
 30
0.0
 10
-21.69109252910935
 20
1894.48362480891
 30
0.0
 10
-20.695218091363
 20
1895.912112191959
 30
0.0
 10
-19.76826281047748
 20
1896.88568150481
 30
0.0
 10
-19.86213053398156
 20
1897.65197498826
 30
0.0
 10
-19.90476182100001
 20
1897.999997463013
 30
0.0
 11
-21.23809515433178
 21
1797.999997463013
 31
0.0
 11
-21.23809592282603
 21
1798.999998231506
 31
0.0
 11
-20.57142899999501
 21
1799.999999
 31
0.0
 11
-19.82142899999501
 21
1801.499999
 31
0.0
 11
-20.57142899999501
 21
1802.999999
 31
0.0
 11
-21.32142899999501
 21
1804.499999
 31
0.0
 11
-20.57142899999501
 21
1805.999999
 31
0.0
 11
-19.82142899999501
 21
1807.499999
 31
0.0
 11
-20.57142899999501
 21
1808.999999
 31
0.0
 11
-21.32142899999501
 21
1810.499999
 31
0.0
 11
-20.57142899999501
 21
1811.999999
 31
0.0
 11
-19.82142899999501
 21
1813.499999
 31
0.0
 11
-20.57142899999501
 21
1814.999999
 31
0.0
 11
-21.32142899999501
 21
1816.499999
 31
0.0
 11
-20.57142899999501
 21
1817.999999
 31
0.0
 11
-19.82142899999501
 21
1819.499999
 31
0.0
 11
-20.57142899999501
 21
1820.999999
 31
0.0
 11
-21.32142899999501
 21
1822.499999
 31
0.0
 11
-20.57142899999501
 21
1823.999999
 31
0.0
 11
-19.82142899999501
 21
1825.499999
 31
0.0
 11
-20.57142899999501
 21
1826.999999
 31
0.0
 11
-21.32142899999501
 21
1828.499999
 31
0.0
 11
-20.57142899999501
 21
1829.999999
 31
0.0
 11
-19.82142899999501
 21
1831.499999
 31
0.0
 11
-20.57142899999501
 21
1832.999999
 31
0.0
 11
-21.32142899999501
 21
1834.499999
 31
0.0
 11
-20.57142899999501
 21
1835.999999
 31
0.0
 11
-19.82142899999501
 21
1837.499999
 31
0.0
 11
-20.57142899999501
 21
1838.999999
 31
0.0
 11
-21.32142899999501
 21
1840.499999
 31
0.0
 11
-20.57142899999501
 21
1841.999999
 31
0.0
 11
-19.82142899999501
 21
1843.499999
 31
0.0
 11
-20.57142899999501
 21
1844.999999
 31
0.0
 11
-21.32142899999501
 21
1846.499999
 31
0.0
 11
-20.57142899999501
 21
1847.999999
 31
0.0
 11
-19.82142899999501
 21
1849.499999
 31
0.0
 11
-20.57142899999501
 21
1850.999999
 31
0.0
 11
-21.32142899999501
 21
1852.499999
 31
0.0
 11
-20.57142899999501
 21
1853.999999
 31
0.0
 11
-19.82142899999501
 21
1855.499999
 31
0.0
 11
-20.57142899999501
 21
1856.999999
 31
0.0
 11
-21.32142899999501
 21
1858.499999
 31
0.0
 11
-20.57142899999501
 21
1859.999999
 31
0.0
 11
-19.82142899999501
 21
1861.499999
 31
0.0
 11
-20.57142899999501
 21
1862.999999
 31
0.0
 11
-21.32142899999501
 21
1864.499999
 31
0.0
 11
-20.57142899999501
 21
1865.999999
 31
0.0
 11
-19.82142899999501
 21
1867.499999
 31
0.0
 11
-20.57142899999501
 21
1868.999999
 31
0.0
 11
-21.32142899999501
 21
1870.499999
 31
0.0
 11
-20.57142899999501
 21
1871.999999
 31
0.0
 11
-19.82142899999501
 21
1873.499999
 31
0.0
 11
-20.57142899999501
 21
1874.999999
 31
0.0
 11
-21.32142899999501
 21
1876.499999
 31
0.0
 11
-20.57142899999501
 21
1877.999999
 31
0.0
 11
-19.82142899999501
 21
1879.499999
 31
0.0
 11
-20.57142899999501
 21
1880.999999
 31
0.0
 11
-21.32142899999501
 21
1882.499999
 31
0.0
 11
-20.57142899999501
 21
1883.999999
 31
0.0
 11
-19.82142899999501
 21
1885.499999
 31
0.0
 11
-20.57142899999501
 21
1886.999999
 31
0.0
 11
-21.32142899999501
 21
1888.499999
 31
0.0
 11
-20.57142899999501
 21
1889.999999
 31
0.0
 11
-19.82142899999501
 21
1891.499999
 31
0.0
 11
-20.57142899999501
 21
1892.999999
 31
0.0
 11
-21.32142899999501
 21
1894.499999
 31
0.0
 11
-20.57142899999501
 21
1895.999999
 31
0.0
 11
-19.90476258949309
 21
1896.999998231506
 31
0.0
 11
-19.90476182100001
 21
1897.999997463013
 31
0.0
  0
ENDBLK
  5
61
330
5F
100
AcDbEntity
  8
0
100
AcDbBlockEnd
  0
BLOCK
  5
64
330
62
100
AcDbEntity
  8
0
100
AcDbBlockBegin
  2
SA_Rechts1
 70
     0
 10
-12.0
 20
1847.999999
 30
0.0
  3
SA_Rechts1
  1

  0
INSERT
  5
63
330
62
100
AcDbEntity
  8
0
100
AcDbBlockReference
  2
3240205_CD_100_100-select__5
 10
-111.999999999995
 20
1797.999997463013
 30
0.0
  0
MTEXT
  5
B4
330
62
100
AcDbEntity
  8
1
 62
     6
100
AcDbMText
 10
-25.99999999999502
 20
1787.499772513615
 30
0.0
 40
10.0
 41
0.0
 71
     2
 72
     1
  1
 
  7
CONVERTER_11
 73
     1
 44
1.32052821128451
  0
ENDBLK
  5
65
330
62
100
AcDbEntity
  8
0
100
AcDbBlockEnd
  0
BLOCK
  5
67
330
66
100
AcDbEntity
  8
0
100
AcDbBlockBegin
  2
3240205_CD_100_100-select__6
 70
     0
 10
97.9999992592773
 20
1797.999997740843
 30
0.0
  3
3240205_CD_100_100-select__6
  1

  0
LINE
  5
B5
330
66
100
AcDbEntity
  8
0
  6
Continuous
 62
     7
100
AcDbLine
 10
197.9999992592773
 20
1797.999997740843
 30
0.0
 11
197.9999992592773
 21
1897.999997740843
 31
0.0
  0
LINE
  5
B6
330
66
100
AcDbEntity
  8
0
  6
Continuous
 62
     7
100
AcDbLine
 10
197.9999992592773
 20
1897.999997740843
 30
0.0
 11
97.9999992592773
 21
1897.999997740843
 31
0.0
  0
LINE
  5
B7
330
66
100
AcDbEntity
  8
0
  6
Continuous
 62
     7
100
AcDbLine
 10
97.9999992592773
 20
1897.999997740843
 30
0.0
 11
97.9999992592773
 21
1797.999997740843
 31
0.0
  0
LINE
  5
B8
330
66
100
AcDbEntity
  8
0
  6
Continuous
 62
     7
100
AcDbLine
 10
97.9999992592773
 20
1797.999997740843
 30
0.0
 11
197.9999992592773
 21
1797.999997740843
 31
0.0
  0
ENDBLK
  5
68
330
66
100
AcDbEntity
  8
0
100
AcDbBlockEnd
  0
BLOCK
  5
6B
330
69
100
AcDbEntity
  8
0
100
AcDbBlockBegin
  2
Vordans1
 70
     0
 10
148.0
 20
1847.99999927783
 30
0.0
  3
Vordans1
  1

  0
INSERT
  5
6A
330
69
100
AcDbEntity
  8
0
100
AcDbBlockReference
  2
3240205_CD_100_100-select__6
 10
97.9999992592773
 20
1797.999997740843
 30
0.0
  0
MTEXT
  5
B9
330
69
100
AcDbEntity
  8
1
 62
     6
100
AcDbMText
 10
148.0
 20
1787.99999809265
 30
0.0
 40
10.0
 41
0.0
 71
     2
 72
     1
  1
 
  7
CONVERTER_11
 73
     1
 44
1.32052821128451
  0
DIMENSION
  5
C4
330
69
100
AcDbEntity
  8
1
100
AcDbDimension
  2
*D17
 10
223.05792853072
 20
1797.999997740843
 30
0.0
 11
215.55792853072
 21
1850.729223481364
 31
0.0
 70
    32
  1
<>
 71
     5
 42
-1.0
 53
90.0
  3
ME10_DIM_11
100
AcDbAlignedDimension
 13
197.9999992592773
 23
1897.999997740843
 33
0.0
 14
197.9999992592773
 24
1797.999997740843
 34
0.0
 50
90.0
100
AcDbRotatedDimension
  0
DIMENSION
  5
CF
330
69
100
AcDbEntity
  8
1
100
AcDbDimension
  2
*D18
 10
197.9999992592773
 20
1771.70439060643
 30
0.0
 11
143.4477265233774
 21
1779.20439060643
 31
0.0
 70
    32
  1
<>
 71
     5
 42
-1.0
 53
0.00013888888889
  3
ME10_DIM_12
100
AcDbAlignedDimension
 13
97.9999992592773
 23
1797.999997740843
 33
0.0
 14
197.9999992592773
 24
1797.999997740843
 34
0.0
100
AcDbRotatedDimension
  0
ENDBLK
  5
6C
330
69
100
AcDbEntity
  8
0
100
AcDbBlockEnd
  0
BLOCK
  5
6E
330
6D
100
AcDbEntity
  8
0
100
AcDbBlockBegin
  2
_rahmen
 70
     0
 10
316.5289642653616
 20
683.156723513683
 30
0.0
  3
_rahmen
  1

  0
POINT
  5
D0
330
6D
100
AcDbEntity
  8
1
 62
     3
 60
     1
100
AcDbPoint
 10
253.0289642653639
 20
709.4067235136824
 30
0.0
  0
LINE
  5
D1
102
{ACAD_REACTORS
330
2C4
330
2C4
330
2C5
330
2C5
102
}
330
6D
100
AcDbEntity
  8
0
  6
Continuous
 62
     2
100
AcDbLine
 10
201.4712910954426
 20
695.6652269150495
 30
0.0
 11
201.4712910954426
 21
696.3863153504241
 31
0.0
  0
LINE
  5
D2
102
{ACAD_REACTORS
330
2C4
330
2C4
330
2C5
330
2C5
102
}
330
6D
100
AcDbEntity
  8
0
  6
Continuous
 62
     2
100
AcDbLine
 10
201.4712910954426
 20
694.8720296361381
 30
0.0
 11
201.4712910954426
 21
694.1509412007634
 31
0.0
  0
LINE
  5
D3
102
{ACAD_REACTORS
330
2C6
330
2C6
330
2C7
330
2C7
102
}
330
6D
100
AcDbEntity
  8
0
  6
Continuous
 62
     2
100
AcDbLine
 10
214.1432283981619
 20
695.8815534456616
 30
0.0
 11
215.0553269928464
 21
695.8815534456616
 31
0.0
  0
LINE
  5
D4
102
{ACAD_REACTORS
330
2C6
330
2C6
330
2C7
330
2C7
102
}
330
6D
100
AcDbEntity
  8
0
  6
Continuous
 62
     2
100
AcDbLine
 10
214.7793088468903
 20
694.8720296361377
 30
0.0
 11
214.7793088468903
 21
694.150941200763
 31
0.0
  0
LINE
  5
D5
102
{ACAD_REACTORS
330
2D0
330
2D0
330
2D1
330
2D1
102
}
330
6D
100
AcDbEntity
  8
0
  6
Continuous
 62
     2
100
AcDbLine
 10
213.2414934622789
 20
696.7829139898655
 30
0.0
 11
214.3968265589238
 21
698.0894090260432
 31
0.0
  0
LINE
  5
D6
102
{ACAD_REACTORS
330
2D0
330
2D0
330
2D1
330
2D1
102
}
330
6D
100
AcDbEntity
  8
0
  6
Continuous
 62
     2
100
AcDbLine
 10
213.3203557896944
 20
699.3067235136764
 30
0.0
 11
214.3968265589238
 21
698.0894090260432
 31
0.0
  0
LINE
  5
D7
102
{ACAD_REACTORS
330
2D0
330
2D0
330
2D1
330
2D1
102
}
330
6D
100
AcDbEntity
  8
0
  6
Continuous
 62
     2
100
AcDbLine
 10
215.4732973281522
 20
699.3067235136764
 30
0.0
 11
216.6325735411664
 21
699.3067235136764
 31
0.0
  0
LINE
  5
D8
102
{ACAD_REACTORS
330
2D0
330
2D0
330
2D1
330
2D1
102
}
330
6D
100
AcDbEntity
  8
0
  6
Continuous
 62
     2
100
AcDbLine
 10
214.4007696752939
 20
696.7829139898655
 30
0.0
 11
214.9764646654309
 21
697.4339319942405
 31
0.0
  0
LINE
  5
D9
102
{ACAD_REACTORS
330
2D0
330
2D0
330
2D1
330
2D1
102
}
330
6D
100
AcDbEntity
  8
0
  6
Continuous
 62
     2
100
AcDbLine
 10
214.4007696752939
 20
696.7829139898655
 30
0.0
 11
213.2414934622789
 21
696.7829139898655
 31
0.0
  0
LINE
  5
DA
102
{ACAD_REACTORS
330
2D2
330
2D2
330
2D3
330
2D3
102
}
330
6D
100
AcDbEntity
  8
0
  6
Continuous
 62
     2
100
AcDbLine
 10
213.1429155530087
 20
696.7829139898655
 30
0.0
 11
212.1177052966013
 21
696.7829139898655
 31
0.0
  0
LINE
  5
DB
102
{ACAD_REACTORS
330
2D4
330
2D4
330
2D5
330
2D5
102
}
330
6D
100
AcDbEntity
  8
0
  6
Continuous
 62
     2
100
AcDbLine
 10
211.4003667774649
 20
695.0162473232127
 30
0.0
 11
211.1522963335061
 21
695.6508051463422
 31
0.0
  0
LINE
  5
DC
102
{ACAD_REACTORS
330
2D4
330
2D4
330
2D5
330
2D5
102
}
330
6D
100
AcDbEntity
  8
0
  6
Continuous
 62
     2
100
AcDbLine
 10
210.9042258895456
 20
695.0162473232127
 30
0.0
 11
211.4003667774649
 21
695.0162473232127
 31
0.0
  0
LINE
  5
DD
102
{ACAD_REACTORS
330
2D4
330
2D4
330
2D5
330
2D5
102
}
330
6D
100
AcDbEntity
  8
0
  6
Continuous
 62
     2
100
AcDbLine
 10
209.4843581086581
 20
694.0067235136884
 30
0.0
 11
210.5095683650654
 21
694.0067235136884
 31
0.0
  0
LINE
  5
DE
102
{ACAD_REACTORS
330
2D4
330
2D4
330
2D5
330
2D5
102
}
330
6D
100
AcDbEntity
  8
0
  6
Continuous
 62
     2
100
AcDbLine
 10
210.639691205302
 20
696.5305330374993
 30
0.0
 11
211.6649014617094
 21
696.5305330374993
 31
0.0
  0
LINE
  5
DF
102
{ACAD_REACTORS
330
2D4
330
2D4
330
2D5
330
2D5
102
}
330
6D
100
AcDbEntity
  8
0
  6
Continuous
 62
     2
100
AcDbLine
 10
211.6649014617094
 20
696.5305330374993
 30
0.0
 11
212.8202345583542
 21
694.0067235136884
 31
0.0
  0
LINE
  5
E0
102
{ACAD_REACTORS
330
2D4
330
2D4
330
2D5
330
2D5
102
}
330
6D
100
AcDbEntity
  8
0
  6
Continuous
 62
     2
100
AcDbLine
 10
211.7950243019461
 20
694.0067235136884
 30
0.0
 11
211.6202473982471
 21
694.4537983436205
 31
0.0
  0
LINE
  5
E1
102
{ACAD_REACTORS
330
2D6
330
2D6
330
2D7
330
2D7
102
}
330
6D
100
AcDbEntity
  8
0
  6
Continuous
 62
     2
100
AcDbLine
 10
208.3716200080733
 20
694.0067235136884
 30
0.0
 11
209.3573991007729
 21
694.0067235136884
 31
0.0
  0
LINE
  5
E2
102
{ACAD_REACTORS
330
2D6
330
2D6
330
2D7
330
2D7
102
}
330
6D
100
AcDbEntity
  8
0
  6
Continuous
 62
     2
100
AcDbLine
 10
208.3716200080733
 20
695.8815534456616
 30
0.0
 11
208.3716200080733
 21
694.0067235136884
 31
0.0
  0
LINE
  5
E3
102
{ACAD_REACTORS
330
2D6
330
2D6
330
2D7
330
2D7
102
}
330
6D
100
AcDbEntity
  8
0
  6
Continuous
 62
     2
100
AcDbLine
 10
207.7012902250364
 20
696.5305330374993
 30
0.0
 11
207.7012902250364
 21
695.8815534456616
 31
0.0
  0
LINE
  5
E4
102
{ACAD_REACTORS
330
2D8
330
2D8
330
2D9
330
2D9
102
}
330
6D
100
AcDbEntity
  8
0
  6
Continuous
 62
     2
100
AcDbLine
 10
208.9237810362534
 20
696.7829139898655
 30
0.0
 11
209.9095601289531
 21
696.7829139898655
 31
0.0
  0
LINE
  5
E5
102
{ACAD_REACTORS
330
2D8
330
2D8
330
2D9
330
2D9
102
}
330
6D
100
AcDbEntity
  8
0
  6
Continuous
 62
     2
100
AcDbLine
 10
210.9347703853613
 20
698.2250908606143
 30
0.0
 11
209.9095601289531
 21
699.3067235136764
 31
0.0
  0
LINE
  5
E6
102
{ACAD_REACTORS
330
2D8
330
2D8
330
2D9
330
2D9
102
}
330
6D
100
AcDbEntity
  8
0
  6
Continuous
 62
     2
100
AcDbLine
 10
211.9205494780609
 20
699.3067235136764
 30
0.0
 11
210.9347703853613
 21
699.3067235136764
 31
0.0
  0
LINE
  5
E7
102
{ACAD_REACTORS
330
2D8
330
2D8
330
2D9
330
2D9
102
}
330
6D
100
AcDbEntity
  8
0
  6
Continuous
 62
     2
100
AcDbLine
 10
211.9205494780609
 20
696.7829139898655
 30
0.0
 11
211.9205494780609
 21
699.3067235136764
 31
0.0
  0
LINE
  5
E8
102
{ACAD_REACTORS
330
2D8
330
2D8
330
2D9
330
2D9
102
}
330
6D
100
AcDbEntity
  8
0
  6
Continuous
 62
     2
100
AcDbLine
 10
210.9347703853613
 20
696.7829139898655
 30
0.0
 11
211.9205494780609
 21
696.7829139898655
 31
0.0
  0
LINE
  5
E9
102
{ACAD_REACTORS
330
2D8
330
2D8
330
2D9
330
2D9
102
}
330
6D
100
AcDbEntity
  8
0
  6
Continuous
 62
     2
100
AcDbLine
 10
209.9095601289531
 20
697.8645466429272
 30
0.0
 11
210.9347703853613
 21
696.7829139898655
 31
0.0
  0
LINE
  5
EA
102
{ACAD_REACTORS
330
2DA
330
2DA
330
2DB
330
2DB
102
}
330
6D
100
AcDbEntity
  8
0
  6
Continuous
 62
     2
100
AcDbLine
 10
206.5972176412128
 20
695.4489003844371
 30
0.0
 11
205.5720073848054
 21
696.5305330374993
 31
0.0
  0
LINE
  5
EB
102
{ACAD_REACTORS
330
2DA
330
2DA
330
2DB
330
2DB
102
}
330
6D
100
AcDbEntity
  8
0
  6
Continuous
 62
     2
100
AcDbLine
 10
206.5972176412128
 20
696.5305330374993
 30
0.0
 11
206.5972176412128
 21
695.4489003844371
 31
0.0
  0
LINE
  5
EC
102
{ACAD_REACTORS
330
2DA
330
2DA
330
2DB
330
2DB
102
}
330
6D
100
AcDbEntity
  8
0
  6
Continuous
 62
     2
100
AcDbLine
 10
207.5829967339124
 20
696.5305330374993
 30
0.0
 11
206.5972176412128
 21
696.5305330374993
 31
0.0
  0
LINE
  5
ED
102
{ACAD_REACTORS
330
2DA
330
2DA
330
2DB
330
2DB
102
}
330
6D
100
AcDbEntity
  8
0
  6
Continuous
 62
     2
100
AcDbLine
 10
207.5829967339124
 20
694.0067235136884
 30
0.0
 11
207.5829967339124
 21
696.5305330374993
 31
0.0
  0
LINE
  5
EE
102
{ACAD_REACTORS
330
2DA
330
2DA
330
2DB
330
2DB
102
}
330
6D
100
AcDbEntity
  8
0
  6
Continuous
 62
     2
100
AcDbLine
 10
205.5720073848054
 20
695.08835616675
 30
0.0
 11
206.5972176412128
 21
694.0067235136884
 31
0.0
  0
LINE
  5
EF
102
{ACAD_REACTORS
330
2DA
330
2DA
330
2DB
330
2DB
102
}
330
6D
100
AcDbEntity
  8
0
  6
Continuous
 62
     2
100
AcDbLine
 10
205.5720073848054
 20
694.0067235136884
 30
0.0
 11
205.5720073848054
 21
695.08835616675
 31
0.0
  0
LINE
  5
F0
102
{ACAD_REACTORS
330
2CA
330
2CA
330
2CB
330
2CB
102
}
330
6D
100
AcDbEntity
  8
0
  6
Continuous
 62
     2
100
AcDbLine
 10
207.6225526338893
 20
698.7298527653764
 30
0.0
 11
208.7266252177138
 21
698.7298527653764
 31
0.0
  0
LINE
  5
F1
102
{ACAD_REACTORS
330
2CA
330
2CA
330
2CB
330
2CB
102
}
330
6D
100
AcDbEntity
  8
0
  6
Continuous
 62
     2
100
AcDbLine
 10
207.6225526338893
 20
697.359784738165
 30
0.0
 11
207.6225526338893
 21
697.756383377621
 31
0.0
  0
LINE
  5
F2
102
{ACAD_REACTORS
330
2CA
330
2CA
330
2CB
330
2CB
102
}
330
6D
100
AcDbEntity
  8
0
  6
Continuous
 62
     2
100
AcDbLine
 10
208.7266252177138
 20
697.359784738165
 30
0.0
 11
207.6225526338893
 21
697.359784738165
 31
0.0
  0
LINE
  5
F3
102
{ACAD_REACTORS
330
2CA
330
2CA
330
2CB
330
2CB
102
}
330
6D
100
AcDbEntity
  8
0
  6
Continuous
 62
     2
100
AcDbLine
 10
208.7266252177138
 20
696.7829139898655
 30
0.0
 11
208.7266252177138
 21
697.359784738165
 31
0.0
  0
LINE
  5
F4
102
{ACAD_REACTORS
330
2CA
330
2CA
330
2CB
330
2CB
102
}
330
6D
100
AcDbEntity
  8
0
  6
Continuous
 62
     2
100
AcDbLine
 10
206.1230551980601
 20
696.7829139898655
 30
0.0
 11
208.7266252177138
 21
696.7829139898655
 31
0.0
  0
LINE
  5
F5
102
{ACAD_REACTORS
330
2CA
330
2CA
330
2CB
330
2CB
102
}
330
6D
100
AcDbEntity
  8
0
  6
Continuous
 62
     2
100
AcDbLine
 10
206.1230551980601
 20
699.3067235136764
 30
0.0
 11
208.7266252177138
 21
699.3067235136764
 31
0.0
  0
LINE
  5
F6
102
{ACAD_REACTORS
330
2CA
330
2CA
330
2CB
330
2CB
102
}
330
6D
100
AcDbEntity
  8
0
  6
Continuous
 62
     2
100
AcDbLine
 10
208.7266252177138
 20
698.7298527653764
 30
0.0
 11
208.7266252177138
 21
699.3067235136764
 31
0.0
  0
LINE
  5
F7
102
{ACAD_REACTORS
330
2DC
330
2DC
330
2DD
330
2DD
102
}
330
6D
100
AcDbEntity
  8
0
  6
Continuous
 62
     2
100
AcDbLine
 10
203.7582985905063
 20
698.423390180342
 30
0.0
 11
203.7582985905063
 21
699.3067235136764
 31
0.0
  0
LINE
  5
F8
102
{ACAD_REACTORS
330
2DC
330
2DC
330
2DD
330
2DD
102
}
330
6D
100
AcDbEntity
  8
0
  6
Continuous
 62
     2
100
AcDbLine
 10
203.7582985905063
 20
699.3067235136764
 30
0.0
 11
204.7440776832059
 21
699.3067235136764
 31
0.0
  0
LINE
  5
F9
102
{ACAD_REACTORS
330
2DC
330
2DC
330
2DD
330
2DD
102
}
330
6D
100
AcDbEntity
  8
0
  6
Continuous
 62
     2
100
AcDbLine
 10
203.7582985905063
 20
697.7203289558521
 30
0.0
 11
202.89081298893
 21
697.7203289558521
 31
0.0
  0
LINE
  5
FA
102
{ACAD_REACTORS
330
2DC
330
2DC
330
2DD
330
2DD
102
}
330
6D
100
AcDbEntity
  8
0
  6
Continuous
 62
     2
100
AcDbLine
 10
202.89081298893
 20
697.7203289558521
 30
0.0
 11
202.89081298893
 21
696.7829139898655
 31
0.0
  0
LINE
  5
FB
102
{ACAD_REACTORS
330
2DC
330
2DC
330
2DD
330
2DD
102
}
330
6D
100
AcDbEntity
  8
0
  6
Continuous
 62
     2
100
AcDbLine
 10
201.9050338962304
 20
699.3067235136764
 30
0.0
 11
201.9050338962304
 21
696.7829139898655
 31
0.0
  0
LINE
  5
FC
102
{ACAD_REACTORS
330
2CE
330
2CE
330
2CF
330
2CF
102
}
330
6D
100
AcDbEntity
  8
0
  6
Continuous
 62
     2
100
AcDbLine
 10
200.2883561842025
 20
698.1754561626166
 30
0.0
 11
200.2883561842025
 21
698.7587021538086
 31
0.0
  0
LINE
  5
FD
102
{ACAD_REACTORS
330
2CE
330
2CE
330
2CF
330
2CF
102
}
330
6D
100
AcDbEntity
  8
0
  6
Continuous
 62
     2
100
AcDbLine
 10
199.2631459277943
 20
696.7829139898655
 30
0.0
 11
200.2883561842025
 21
696.7829139898655
 31
0.0
  0
LINE
  5
FE
102
{ACAD_REACTORS
330
2CE
330
2CE
330
2CF
330
2CF
102
}
330
6D
100
AcDbEntity
  8
0
  6
Continuous
 62
     2
100
AcDbLine
 10
200.2883561842025
 20
696.7829139898655
 30
0.0
 11
200.2883561842025
 21
697.562317494943
 31
0.0
  0
LINE
  5
FF
102
{ACAD_REACTORS
330
2C8
330
2C8
330
2C9
330
2C9
102
}
330
6D
100
AcDbEntity
  8
0
  6
Continuous
 62
     2
100
AcDbLine
 10
195.7053394408425
 20
694.5956124025785
 30
0.0
 11
194.4856425309174
 21
694.5956124025785
 31
0.0
  0
LINE
  5
100
102
{ACAD_REACTORS
330
2C8
330
2C8
330
2C9
330
2C9
102
}
330
6D
100
AcDbEntity
  8
0
  6
Continuous
 62
     2
100
AcDbLine
 10
193.6442050994054
 20
698.9561081290467
 30
0.0
 11
193.6442050994054
 21
694.3573388983027
 31
0.0
  0
LINE
  5
101
102
{ACAD_REACTORS
330
2C8
330
2C8
330
2C9
330
2C9
102
}
330
6D
100
AcDbEntity
  8
0
  6
Continuous
 62
     2
100
AcDbLine
 10
193.9948204840193
 20
699.3067235136614
 30
0.0
 11
198.5182189060994
 21
699.3067235136614
 31
0.0
  0
LINE
  5
102
102
{ACAD_REACTORS
330
2C8
330
2C8
330
2C9
330
2C9
102
}
330
6D
100
AcDbEntity
  8
0
  6
Continuous
 62
     2
100
AcDbLine
 10
198.8688342907142
 20
698.9561081290467
 30
0.0
 11
198.8688342907142
 21
694.3573388983027
 31
0.0
  0
LINE
  5
103
102
{ACAD_REACTORS
330
2C8
330
2C8
330
2C9
330
2C9
102
}
330
6D
100
AcDbEntity
  8
0
  6
Continuous
 62
     2
100
AcDbLine
 10
198.5182189060994
 20
694.0067235136884
 30
0.0
 11
193.9948204840193
 21
694.0067235136884
 31
0.0
  0
LINE
  5
104
102
{ACAD_REACTORS
330
2C8
330
2C8
330
2C9
330
2C9
102
}
330
6D
100
AcDbEntity
  8
0
  6
Continuous
 62
     2
100
AcDbLine
 10
195.9662625177654
 20
694.8565354795013
 30
0.0
 11
195.9662625177654
 21
696.1216354229159
 31
0.0
  0
LINE
  5
105
102
{ACAD_REACTORS
330
2C8
330
2C8
330
2C9
330
2C9
102
}
330
6D
100
AcDbEntity
  8
0
  6
Continuous
 62
     2
100
AcDbLine
 10
195.9662625177654
 20
697.9577176478125
 30
0.0
 11
195.9662625177654
 21
698.4569115478625
 31
0.0
  0
LINE
  5
106
102
{ACAD_REACTORS
330
2C8
330
2C8
330
2C9
330
2C9
102
}
330
6D
100
AcDbEntity
  8
0
  6
Continuous
 62
     2
100
AcDbLine
 10
194.4856425309174
 20
698.717834624785
 30
0.0
 11
195.7053394408425
 21
698.717834624785
 31
0.0
  0
LINE
  5
107
102
{ACAD_REACTORS
330
2C8
330
2C8
330
2C9
330
2C9
102
}
330
6D
100
AcDbEntity
  8
0
  6
Continuous
 62
     2
100
AcDbLine
 10
194.2247194539953
 20
698.4569115478625
 30
0.0
 11
194.2247194539953
 21
694.8565354795013
 31
0.0
  0
LINE
  5
108
102
{ACAD_REACTORS
330
2CE
330
2CE
330
2CF
330
2CF
102
}
330
6D
100
AcDbEntity
  8
0
  6
Continuous
 62
     2
100
AcDbLine
 10
200.2883561842025
 20
697.562317494943
 30
0.0
 11
200.9154368352606
 21
697.562317494943
 31
0.0
  0
LINE
  5
109
102
{ACAD_REACTORS
330
2CE
330
2CE
330
2CF
330
2CF
102
}
330
6D
100
AcDbEntity
  8
0
  6
Continuous
 62
     2
100
AcDbLine
 10
199.2631459277943
 20
699.3067235136764
 30
0.0
 11
200.9154368352606
 21
699.3067235136764
 31
0.0
  0
LINE
  5
10A
102
{ACAD_REACTORS
330
2CE
330
2CE
330
2CF
330
2CF
102
}
330
6D
100
AcDbEntity
  8
0
  6
Continuous
 62
     2
100
AcDbLine
 10
199.2631459277943
 20
699.3067235136764
 30
0.0
 11
199.2631459277943
 21
696.7829139898655
 31
0.0
  0
LINE
  5
10B
102
{ACAD_REACTORS
330
2CE
330
2CE
330
2CF
330
2CF
102
}
330
6D
100
AcDbEntity
  8
0
  6
Continuous
 62
     2
100
AcDbLine
 10
200.2883561842025
 20
698.1754561626166
 30
0.0
 11
200.5505835077909
 21
698.1754561626166
 31
0.0
  0
LINE
  5
10C
102
{ACAD_REACTORS
330
2CE
330
2CE
330
2CF
330
2CF
102
}
330
6D
100
AcDbEntity
  8
0
  6
Continuous
 62
     2
100
AcDbLine
 10
200.2883561842025
 20
698.7587021538086
 30
0.0
 11
200.5505835077909
 21
698.7587021538086
 31
0.0
  0
LINE
  5
10D
102
{ACAD_REACTORS
330
2DC
330
2DC
330
2DD
330
2DD
102
}
330
6D
100
AcDbEntity
  8
0
  6
Continuous
 62
     2
100
AcDbLine
 10
202.89081298893
 20
698.423390180342
 30
0.0
 11
203.7582985905063
 21
698.423390180342
 31
0.0
  0
LINE
  5
10E
102
{ACAD_REACTORS
330
2DC
330
2DC
330
2DD
330
2DD
102
}
330
6D
100
AcDbEntity
  8
0
  6
Continuous
 62
     2
100
AcDbLine
 10
202.89081298893
 20
699.3067235136764
 30
0.0
 11
202.89081298893
 21
698.423390180342
 31
0.0
  0
LINE
  5
10F
102
{ACAD_REACTORS
330
2DC
330
2DC
330
2DD
330
2DD
102
}
330
6D
100
AcDbEntity
  8
0
  6
Continuous
 62
     2
100
AcDbLine
 10
201.9050338962304
 20
699.3067235136764
 30
0.0
 11
202.89081298893
 21
699.3067235136764
 31
0.0
  0
LINE
  5
110
102
{ACAD_REACTORS
330
2DC
330
2DC
330
2DD
330
2DD
102
}
330
6D
100
AcDbEntity
  8
0
  6
Continuous
 62
     2
100
AcDbLine
 10
202.89081298893
 20
696.7829139898655
 30
0.0
 11
201.9050338962304
 21
696.7829139898655
 31
0.0
  0
LINE
  5
111
102
{ACAD_REACTORS
330
2DC
330
2DC
330
2DD
330
2DD
102
}
330
6D
100
AcDbEntity
  8
0
  6
Continuous
 62
     2
100
AcDbLine
 10
203.7582985905063
 20
696.7829139898655
 30
0.0
 11
203.7582985905063
 21
697.7203289558521
 31
0.0
  0
LINE
  5
112
102
{ACAD_REACTORS
330
2DC
330
2DC
330
2DD
330
2DD
102
}
330
6D
100
AcDbEntity
  8
0
  6
Continuous
 62
     2
100
AcDbLine
 10
204.7440776832059
 20
696.7829139898655
 30
0.0
 11
203.7582985905063
 21
696.7829139898655
 31
0.0
  0
LINE
  5
113
102
{ACAD_REACTORS
330
2DC
330
2DC
330
2DD
330
2DD
102
}
330
6D
100
AcDbEntity
  8
0
  6
Continuous
 62
     2
100
AcDbLine
 10
204.7440776832059
 20
699.3067235136764
 30
0.0
 11
204.7440776832059
 21
696.7829139898655
 31
0.0
  0
LINE
  5
114
102
{ACAD_REACTORS
330
2CA
330
2CA
330
2CB
330
2CB
102
}
330
6D
100
AcDbEntity
  8
0
  6
Continuous
 62
     2
100
AcDbLine
 10
207.6225526338893
 20
697.756383377621
 30
0.0
 11
208.7266252177138
 21
697.756383377621
 31
0.0
  0
LINE
  5
115
102
{ACAD_REACTORS
330
2CA
330
2CA
330
2CB
330
2CB
102
}
330
6D
100
AcDbEntity
  8
0
  6
Continuous
 62
     2
100
AcDbLine
 10
208.7266252177138
 20
697.756383377621
 30
0.0
 11
208.7266252177138
 21
698.3332541259205
 31
0.0
  0
LINE
  5
116
102
{ACAD_REACTORS
330
2CA
330
2CA
330
2CB
330
2CB
102
}
330
6D
100
AcDbEntity
  8
0
  6
Continuous
 62
     2
100
AcDbLine
 10
208.7266252177138
 20
698.3332541259205
 30
0.0
 11
207.6225526338893
 21
698.3332541259205
 31
0.0
  0
LINE
  5
117
102
{ACAD_REACTORS
330
2CA
330
2CA
330
2CB
330
2CB
102
}
330
6D
100
AcDbEntity
  8
0
  6
Continuous
 62
     2
100
AcDbLine
 10
207.6225526338893
 20
698.3332541259205
 30
0.0
 11
207.6225526338893
 21
698.7298527653764
 31
0.0
  0
LINE
  5
118
102
{ACAD_REACTORS
330
2DA
330
2DA
330
2DB
330
2DB
102
}
330
6D
100
AcDbEntity
  8
0
  6
Continuous
 62
     2
100
AcDbLine
 10
204.5862282921049
 20
694.0067235136884
 30
0.0
 11
205.5720073848054
 21
694.0067235136884
 31
0.0
  0
LINE
  5
119
102
{ACAD_REACTORS
330
2DA
330
2DA
330
2DB
330
2DB
102
}
330
6D
100
AcDbEntity
  8
0
  6
Continuous
 62
     2
100
AcDbLine
 10
206.5972176412128
 20
694.0067235136884
 30
0.0
 11
207.5829967339124
 21
694.0067235136884
 31
0.0
  0
LINE
  5
11A
102
{ACAD_REACTORS
330
2DA
330
2DA
330
2DB
330
2DB
102
}
330
6D
100
AcDbEntity
  8
0
  6
Continuous
 62
     2
100
AcDbLine
 10
205.5720073848054
 20
696.5305330374993
 30
0.0
 11
204.5862282921049
 21
696.5305330374993
 31
0.0
  0
LINE
  5
11B
102
{ACAD_REACTORS
330
2DA
330
2DA
330
2DB
330
2DB
102
}
330
6D
100
AcDbEntity
  8
0
  6
Continuous
 62
     2
100
AcDbLine
 10
204.5862282921049
 20
696.5305330374993
 30
0.0
 11
204.5862282921049
 21
694.0067235136884
 31
0.0
  0
LINE
  5
11C
102
{ACAD_REACTORS
330
2D8
330
2D8
330
2D9
330
2D9
102
}
330
6D
100
AcDbEntity
  8
0
  6
Continuous
 62
     2
100
AcDbLine
 10
210.9347703853613
 20
699.3067235136764
 30
0.0
 11
210.9347703853613
 21
698.2250908606143
 31
0.0
  0
LINE
  5
11D
102
{ACAD_REACTORS
330
2D8
330
2D8
330
2D9
330
2D9
102
}
330
6D
100
AcDbEntity
  8
0
  6
Continuous
 62
     2
100
AcDbLine
 10
209.9095601289531
 20
699.3067235136764
 30
0.0
 11
208.9237810362534
 21
699.3067235136764
 31
0.0
  0
LINE
  5
11E
102
{ACAD_REACTORS
330
2D8
330
2D8
330
2D9
330
2D9
102
}
330
6D
100
AcDbEntity
  8
0
  6
Continuous
 62
     2
100
AcDbLine
 10
208.9237810362534
 20
699.3067235136764
 30
0.0
 11
208.9237810362534
 21
696.7829139898655
 31
0.0
  0
LINE
  5
11F
102
{ACAD_REACTORS
330
2D8
330
2D8
330
2D9
330
2D9
102
}
330
6D
100
AcDbEntity
  8
0
  6
Continuous
 62
     2
100
AcDbLine
 10
209.9095601289531
 20
696.7829139898655
 30
0.0
 11
209.9095601289531
 21
697.8645466429272
 31
0.0
  0
LINE
  5
120
102
{ACAD_REACTORS
330
2D6
330
2D6
330
2D7
330
2D7
102
}
330
6D
100
AcDbEntity
  8
0
  6
Continuous
 62
     2
100
AcDbLine
 10
209.3573991007729
 20
694.0067235136884
 30
0.0
 11
209.3573991007729
 21
695.8815534456616
 31
0.0
  0
LINE
  5
121
102
{ACAD_REACTORS
330
2D6
330
2D6
330
2D7
330
2D7
102
}
330
6D
100
AcDbEntity
  8
0
  6
Continuous
 62
     2
100
AcDbLine
 10
209.3573991007729
 20
695.8815534456616
 30
0.0
 11
210.027728883808
 21
695.8815534456616
 31
0.0
  0
LINE
  5
122
102
{ACAD_REACTORS
330
2D6
330
2D6
330
2D7
330
2D7
102
}
330
6D
100
AcDbEntity
  8
0
  6
Continuous
 62
     2
100
AcDbLine
 10
210.027728883808
 20
695.8815534456616
 30
0.0
 11
210.027728883808
 21
696.5305330374993
 31
0.0
  0
LINE
  5
123
102
{ACAD_REACTORS
330
2D6
330
2D6
330
2D7
330
2D7
102
}
330
6D
100
AcDbEntity
  8
0
  6
Continuous
 62
     2
100
AcDbLine
 10
210.027728883808
 20
696.5305330374993
 30
0.0
 11
207.7012902250364
 21
696.5305330374993
 31
0.0
  0
LINE
  5
124
102
{ACAD_REACTORS
330
2D6
330
2D6
330
2D7
330
2D7
102
}
330
6D
100
AcDbEntity
  8
0
  6
Continuous
 62
     2
100
AcDbLine
 10
207.7012902250364
 20
695.8815534456616
 30
0.0
 11
208.3716200080733
 21
695.8815534456616
 31
0.0
  0
LINE
  5
125
102
{ACAD_REACTORS
330
2D4
330
2D4
330
2D5
330
2D5
102
}
330
6D
100
AcDbEntity
  8
0
  6
Continuous
 62
     2
100
AcDbLine
 10
210.6843452687645
 20
694.4537983436205
 30
0.0
 11
211.6202473982471
 21
694.4537983436205
 31
0.0
  0
LINE
  5
126
102
{ACAD_REACTORS
330
2D4
330
2D4
330
2D5
330
2D5
102
}
330
6D
100
AcDbEntity
  8
0
  6
Continuous
 62
     2
100
AcDbLine
 10
212.8202345583542
 20
694.0067235136884
 30
0.0
 11
211.7950243019461
 21
694.0067235136884
 31
0.0
  0
LINE
  5
127
102
{ACAD_REACTORS
330
2D4
330
2D4
330
2D5
330
2D5
102
}
330
6D
100
AcDbEntity
  8
0
  6
Continuous
 62
     2
100
AcDbLine
 10
210.639691205302
 20
696.5305330374993
 30
0.0
 11
209.4843581086581
 21
694.0067235136884
 31
0.0
  0
LINE
  5
128
102
{ACAD_REACTORS
330
2D4
330
2D4
330
2D5
330
2D5
102
}
330
6D
100
AcDbEntity
  8
0
  6
Continuous
 62
     2
100
AcDbLine
 10
210.5095683650654
 20
694.0067235136884
 30
0.0
 11
210.6843452687645
 21
694.4537983436205
 31
0.0
  0
LINE
  5
129
102
{ACAD_REACTORS
330
2D4
330
2D4
330
2D5
330
2D5
102
}
330
6D
100
AcDbEntity
  8
0
  6
Continuous
 62
     2
100
AcDbLine
 10
210.9042258895456
 20
695.0162473232127
 30
0.0
 11
211.1522963335061
 21
695.6508051463422
 31
0.0
  0
LINE
  5
12A
102
{ACAD_REACTORS
330
2D2
330
2D2
330
2D3
330
2D3
102
}
330
6D
100
AcDbEntity
  8
0
  6
Continuous
 62
     2
100
AcDbLine
 10
212.1177052966013
 20
696.7829139898655
 30
0.0
 11
212.1177052966013
 21
699.3067235136764
 31
0.0
  0
LINE
  5
12B
102
{ACAD_REACTORS
330
2D2
330
2D2
330
2D3
330
2D3
102
}
330
6D
100
AcDbEntity
  8
0
  6
Continuous
 62
     2
100
AcDbLine
 10
213.1429155530087
 20
699.3067235136764
 30
0.0
 11
213.1429155530087
 21
696.7829139898655
 31
0.0
  0
LINE
  5
12C
102
{ACAD_REACTORS
330
2D2
330
2D2
330
2D3
330
2D3
102
}
330
6D
100
AcDbEntity
  8
0
  6
Continuous
 62
     2
100
AcDbLine
 10
212.1177052966013
 20
699.3067235136764
 30
0.0
 11
213.1429155530087
 21
699.3067235136764
 31
0.0
  0
LINE
  5
12D
102
{ACAD_REACTORS
330
2D0
330
2D0
330
2D1
330
2D1
102
}
330
6D
100
AcDbEntity
  8
0
  6
Continuous
 62
     2
100
AcDbLine
 10
214.9764646654309
 20
697.4339319942405
 30
0.0
 11
215.5521596555676
 21
696.7829139898655
 31
0.0
  0
LINE
  5
12E
102
{ACAD_REACTORS
330
2D0
330
2D0
330
2D1
330
2D1
102
}
330
6D
100
AcDbEntity
  8
0
  6
Continuous
 62
     2
100
AcDbLine
 10
215.5521596555676
 20
696.7829139898655
 30
0.0
 11
216.7114358685827
 21
696.7829139898655
 31
0.0
  0
LINE
  5
12F
102
{ACAD_REACTORS
330
2D0
330
2D0
330
2D1
330
2D1
102
}
330
6D
100
AcDbEntity
  8
0
  6
Continuous
 62
     2
100
AcDbLine
 10
215.5561027719378
 20
698.0894090260432
 30
0.0
 11
216.7114358685827
 21
696.7829139898655
 31
0.0
  0
LINE
  5
130
102
{ACAD_REACTORS
330
2D0
330
2D0
330
2D1
330
2D1
102
}
330
6D
100
AcDbEntity
  8
0
  6
Continuous
 62
     2
100
AcDbLine
 10
215.5561027719378
 20
698.0894090260432
 30
0.0
 11
216.6325735411664
 21
699.3067235136764
 31
0.0
  0
LINE
  5
131
102
{ACAD_REACTORS
330
2D0
330
2D0
330
2D1
330
2D1
102
}
330
6D
100
AcDbEntity
  8
0
  6
Continuous
 62
     2
100
AcDbLine
 10
214.9764646654309
 20
698.7448860578454
 30
0.0
 11
215.4732973281522
 21
699.3067235136764
 31
0.0
  0
LINE
  5
132
102
{ACAD_REACTORS
330
2D0
330
2D0
330
2D1
330
2D1
102
}
330
6D
100
AcDbEntity
  8
0
  6
Continuous
 62
     2
100
AcDbLine
 10
214.4796320027103
 20
699.3067235136764
 30
0.0
 11
214.9764646654309
 21
698.7448860578454
 31
0.0
  0
LINE
  5
133
102
{ACAD_REACTORS
330
2D0
330
2D0
330
2D1
330
2D1
102
}
330
6D
100
AcDbEntity
  8
0
  6
Continuous
 62
     2
100
AcDbLine
 10
214.4796320027103
 20
699.3067235136764
 30
0.0
 11
213.3203557896944
 21
699.3067235136764
 31
0.0
  0
LINE
  5
134
102
{ACAD_REACTORS
330
2C6
330
2C6
330
2C7
330
2C7
102
}
330
6D
100
AcDbEntity
  8
0
  6
Continuous
 62
     2
100
AcDbLine
 10
215.0553269928464
 20
694.0067235136884
 30
0.0
 11
216.0411060855469
 21
694.0067235136884
 31
0.0
  0
LINE
  5
135
102
{ACAD_REACTORS
330
2C6
330
2C6
330
2C7
330
2C7
102
}
330
6D
100
AcDbEntity
  8
0
  6
Continuous
 62
     2
100
AcDbLine
 10
216.0411060855469
 20
694.0067235136884
 30
0.0
 11
216.0411060855469
 21
695.8815534456616
 31
0.0
  0
LINE
  5
136
102
{ACAD_REACTORS
330
2C6
330
2C6
330
2C7
330
2C7
102
}
330
6D
100
AcDbEntity
  8
0
  6
Continuous
 62
     2
100
AcDbLine
 10
216.0411060855469
 20
695.8815534456616
 30
0.0
 11
216.7114358685827
 21
695.8815534456616
 31
0.0
  0
LINE
  5
137
102
{ACAD_REACTORS
330
2C6
330
2C6
330
2C7
330
2C7
102
}
330
6D
100
AcDbEntity
  8
0
  6
Continuous
 62
     2
100
AcDbLine
 10
216.7114358685827
 20
695.8815534456616
 30
0.0
 11
216.7114358685827
 21
696.5305330374993
 31
0.0
  0
LINE
  5
138
102
{ACAD_REACTORS
330
2C6
330
2C6
330
2C7
330
2C7
102
}
330
6D
100
AcDbEntity
  8
0
  6
Continuous
 62
     2
100
AcDbLine
 10
213.9139602333524
 20
696.5305330374988
 30
0.0
 11
216.7114358685827
 21
696.5305330374993
 31
0.0
  0
LINE
  5
139
102
{ACAD_REACTORS
330
2C6
330
2C6
330
2C7
330
2C7
102
}
330
6D
100
AcDbEntity
  8
0
  6
Continuous
 62
     2
100
AcDbLine
 10
215.0553269928464
 20
695.8815534456616
 30
0.0
 11
215.0553269928464
 21
694.0067235136884
 31
0.0
  0
LINE
  5
13A
102
{ACAD_REACTORS
330
2C8
330
2C8
330
2C9
330
2C9
102
}
330
6D
100
AcDbEntity
  8
0
  6
Continuous
 62
     2
100
AcDbLine
 10
196.3532720874916
 20
695.6421616538244
 30
0.0
 11
196.3532720874916
 21
696.1230305849773
 31
0.0
  0
LINE
  5
13B
102
{ACAD_REACTORS
330
2C8
330
2C8
330
2C9
330
2C9
102
}
330
6D
100
AcDbEntity
  8
0
  6
Continuous
 62
     2
100
AcDbLine
 10
196.3532720874916
 20
697.956322485751
 30
0.0
 11
196.3532720874916
 21
698.4567648729467
 31
0.0
  0
LINE
  5
13C
330
6D
100
AcDbEntity
  8
1
  6
Continuous
 62
     6
100
AcDbLine
 10
64.52896426536171
 20
688.1567235136826
 30
0.0
 11
70.7289642653597
 21
688.1567235136824
 31
0.0
  0
LINE
  5
13D
330
6D
100
AcDbEntity
  8
1
  6
Continuous
 62
     6
100
AcDbLine
 10
70.7289642653597
 20
688.1567235136824
 30
0.0
 11
84.2289642653597
 21
688.1567235136826
 31
0.0
  0
LINE
  5
13E
330
6D
100
AcDbEntity
  8
1
  6
Continuous
 62
     6
100
AcDbLine
 10
84.2289642653597
 20
688.1567235136826
 30
0.0
 11
111.5289642653616
 21
688.156723513683
 31
0.0
  0
LINE
  5
13F
330
6D
100
AcDbEntity
  8
1
  6
Continuous
 62
     6
100
AcDbLine
 10
111.5289642653616
 20
688.156723513683
 30
0.0
 11
146.48415973861
 21
688.1567235136824
 31
0.0
  0
LINE
  5
140
330
6D
100
AcDbEntity
  8
1
  6
Continuous
 62
     6
100
AcDbLine
 10
173.4841597386098
 20
688.1567235136824
 30
0.0
 11
179.862297598695
 21
688.156723513683
 31
0.0
  0
LINE
  5
141
330
6D
100
AcDbEntity
  8
1
  6
Continuous
 62
     6
100
AcDbLine
 10
159.98415973861
 20
688.1567235136824
 30
0.0
 11
173.4841597386098
 21
688.1567235136824
 31
0.0
  0
LINE
  5
142
330
6D
100
AcDbEntity
  8
1
  6
Continuous
 62
     6
100
AcDbLine
 10
146.48415973861
 20
688.1567235136824
 30
0.0
 11
159.98415973861
 21
688.1567235136824
 31
0.0
  0
LINE
  5
143
330
6D
100
AcDbEntity
  8
1
  6
Continuous
 62
     6
100
AcDbLine
 10
179.862297598695
 20
688.156723513683
 30
0.0
 11
186.98415973861
 21
688.1567235136824
 31
0.0
  0
LINE
  5
144
330
6D
100
AcDbEntity
  8
1
  6
Continuous
 62
     6
100
AcDbLine
 10
186.98415973861
 20
688.1567235136824
 30
0.0
 11
205.1841597386098
 21
688.1567235136826
 31
0.0
  0
LINE
  5
145
330
6D
100
AcDbEntity
  8
1
  6
Continuous
 62
     6
100
AcDbLine
 10
205.1841597386098
 20
688.1567235136826
 30
0.0
 11
223.3841597386098
 21
688.1567235136824
 31
0.0
  0
LINE
  5
146
330
6D
100
AcDbEntity
  8
1
  6
Continuous
 62
     6
100
AcDbLine
 10
223.3841597386098
 20
688.1567235136824
 30
0.0
 11
248.1956309320282
 21
688.156723513683
 31
0.0
  0
LINE
  5
147
330
6D
100
AcDbEntity
  8
1
  6
Continuous
 62
     6
100
AcDbLine
 10
248.1956309320282
 20
688.156723513683
 30
0.0
 11
316.5289642653615
 21
688.1567235136826
 31
0.0
  0
LINE
  5
148
330
6D
100
AcDbEntity
  8
1
  6
Continuous
 62
     6
100
AcDbLine
 10
316.5289642653611
 20
696.6567235136824
 30
0.0
 11
316.5289642653616
 21
705.1567235136824
 31
0.0
  0
LINE
  5
149
330
6D
100
AcDbEntity
  8
1
  6
Continuous
 62
     6
100
AcDbLine
 10
316.5289642653616
 20
705.1567235136824
 30
0.0
 11
316.5289642653606
 21
709.4067235136824
 31
0.0
  0
LINE
  5
14A
330
6D
100
AcDbEntity
  8
1
  6
Continuous
 62
     6
100
AcDbLine
 10
316.5289642653606
 20
709.4067235136824
 30
0.0
 11
316.5289642653615
 21
717.9067235136824
 31
0.0
  0
LINE
  5
14B
330
6D
100
AcDbEntity
  8
1
  6
Continuous
 62
     6
100
AcDbLine
 10
316.5289642653615
 20
717.9067235136824
 30
0.0
 11
316.5289642653615
 21
745.5567235136831
 31
0.0
  0
LINE
  5
14C
330
6D
100
AcDbEntity
  8
1
  6
PHANTOM
 62
     2
100
AcDbLine
 10
195.1034229534103
 20
703.0317235136824
 30
0.0
 11
199.4190179225992
 21
703.0317235136824
 31
0.0
  0
LINE
  5
14D
330
6D
100
AcDbEntity
  8
1
  6
PHANTOM
 62
     2
100
AcDbLine
 10
192.0764195637132
 20
704.6817235136825
 30
0.0
 11
192.0764195637132
 21
701.3817235136825
 31
0.0
  0
LINE
  5
14E
330
6D
100
AcDbEntity
  8
1
  6
PHANTOM
 62
     2
100
AcDbLine
 10
193.7264195637133
 20
703.0317235136824
 30
0.0
 11
190.4264195637132
 21
703.0317235136824
 31
0.0
  0
LINE
  5
14F
330
6D
100
AcDbEntity
  8
1
  6
Continuous
 62
     7
100
AcDbLine
 10
223.3841597386098
 20
700.9067235136824
 30
0.0
 11
223.3841597386098
 21
705.1567235136824
 31
0.0
  0
LINE
  5
150
330
6D
100
AcDbEntity
  8
1
  6
Continuous
 62
     7
100
AcDbLine
 10
186.98415973861
 20
700.9067235136824
 30
0.0
 11
223.3841597386098
 21
700.9067235136824
 31
0.0
  0
LINE
  5
151
330
6D
100
AcDbEntity
  8
1
  6
Continuous
 62
     7
100
AcDbLine
 10
84.2289642653597
 20
692.4067235136826
 30
0.0
 11
146.48415973861
 21
692.4067235136826
 31
0.0
  0
LINE
  5
152
330
6D
100
AcDbEntity
  8
1
  6
Continuous
 62
     2
100
AcDbLine
 10
84.2289642653597
 20
692.4067235136826
 30
0.0
 11
84.2289642653597
 21
688.1567235136826
 31
0.0
  0
LINE
  5
153
330
6D
100
AcDbEntity
  8
1
  6
Continuous
 62
     2
100
AcDbLine
 10
84.2289642653597
 20
696.6567235136824
 30
0.0
 11
70.7289642653597
 21
696.6567235136824
 31
0.0
  0
LINE
  5
154
330
6D
100
AcDbEntity
  8
1
  6
Continuous
 62
     2
100
AcDbLine
 10
84.2289642653597
 20
696.6567235136824
 30
0.0
 11
84.2289642653597
 21
692.4067235136826
 31
0.0
  0
LINE
  5
155
330
6D
100
AcDbEntity
  8
1
  6
Continuous
 62
     2
100
AcDbLine
 10
84.2289642653597
 20
705.1567235136824
 30
0.0
 11
70.7289642653597
 21
705.1567235136824
 31
0.0
  0
LINE
  5
156
330
6D
100
AcDbEntity
  8
1
  6
Continuous
 62
     2
100
AcDbLine
 10
84.2289642653597
 20
705.1567235136824
 30
0.0
 11
84.2289642653597
 21
700.9067235136824
 31
0.0
  0
LINE
  5
157
330
6D
100
AcDbEntity
  8
1
  6
Continuous
 62
     2
100
AcDbLine
 10
84.2289642653597
 20
700.9067235136824
 30
0.0
 11
70.7289642653597
 21
700.9067235136824
 31
0.0
  0
LINE
  5
158
330
6D
100
AcDbEntity
  8
1
  6
Continuous
 62
     2
100
AcDbLine
 10
84.2289642653597
 20
700.9067235136824
 30
0.0
 11
84.2289642653597
 21
696.6567235136824
 31
0.0
  0
LINE
  5
159
330
6D
100
AcDbEntity
  8
1
  6
Continuous
 62
     2
100
AcDbLine
 10
84.2289642653597
 20
713.6567235136824
 30
0.0
 11
70.7289642653597
 21
713.6567235136824
 31
0.0
  0
LINE
  5
15A
330
6D
100
AcDbEntity
  8
1
  6
Continuous
 62
     2
100
AcDbLine
 10
84.2289642653597
 20
709.4067235136824
 30
0.0
 11
70.7289642653597
 21
709.4067235136824
 31
0.0
  0
LINE
  5
15B
330
6D
100
AcDbEntity
  8
1
  6
Continuous
 62
     2
100
AcDbLine
 10
84.2289642653597
 20
709.4067235136824
 30
0.0
 11
84.2289642653597
 21
705.1567235136824
 31
0.0
  0
LINE
  5
15C
330
6D
100
AcDbEntity
  8
1
  6
Continuous
 62
     2
100
AcDbLine
 10
84.2289642653597
 20
713.6567235136824
 30
0.0
 11
84.2289642653597
 21
709.4067235136824
 31
0.0
  0
LINE
  5
15D
330
6D
100
AcDbEntity
  8
1
  6
Continuous
 62
     6
100
AcDbLine
 10
84.2289642653597
 20
717.9067235136824
 30
0.0
 11
70.7289642653597
 21
717.9067235136824
 31
0.0
  0
LINE
  5
15E
330
6D
100
AcDbEntity
  8
1
  6
Continuous
 62
     2
100
AcDbLine
 10
84.2289642653597
 20
717.9067235136824
 30
0.0
 11
84.2289642653597
 21
713.6567235136824
 31
0.0
  0
LINE
  5
15F
330
6D
100
AcDbEntity
  8
1
  6
Continuous
 62
     6
100
AcDbLine
 10
316.5289642653615
 20
717.9067235136824
 30
0.0
 11
298.6473725470407
 21
717.9067235136824
 31
0.0
  0
LINE
  5
160
330
6D
100
AcDbEntity
  8
1
  6
Continuous
 62
     7
100
AcDbLine
 10
316.5289642653611
 20
696.6567235136824
 30
0.0
 11
271.5289642653635
 21
696.6567235136824
 31
0.0
  0
LINE
  5
161
330
6D
100
AcDbEntity
  8
1
  6
Continuous
 62
     7
100
AcDbLine
 10
316.5289642653606
 20
709.4067235136824
 30
0.0
 11
298.6473725470407
 21
709.4067235136824
 31
0.0
  0
LINE
  5
162
330
6D
100
AcDbEntity
  8
1
  6
Continuous
 62
     7
100
AcDbLine
 10
271.5289642653635
 20
705.1567235136824
 30
0.0
 11
316.5289642653616
 21
705.1567235136824
 31
0.0
  0
LINE
  5
163
330
6D
100
AcDbEntity
  8
1
  6
Continuous
 62
     7
100
AcDbLine
 10
223.3841597386098
 20
713.6567235136824
 30
0.0
 11
223.3841597386098
 21
709.4067235136824
 31
0.0
  0
LINE
  5
164
330
6D
100
AcDbEntity
  8
1
  6
Continuous
 62
     7
100
AcDbLine
 10
209.8841597386098
 20
713.6567235136824
 30
0.0
 11
223.3841597386098
 21
713.6567235136824
 31
0.0
  0
LINE
  5
165
330
6D
100
AcDbEntity
  8
1
  6
Continuous
 62
     7
100
AcDbLine
 10
209.8841597386098
 20
713.6567235136824
 30
0.0
 11
196.3841597386099
 21
713.6567235136824
 31
0.0
  0
LINE
  5
166
330
6D
100
AcDbEntity
  8
1
  6
Continuous
 62
     7
100
AcDbLine
 10
298.6473725470407
 20
709.4067235136824
 30
0.0
 11
298.6473725470407
 21
717.9067235136824
 31
0.0
  0
LINE
  5
167
330
6D
100
AcDbEntity
  8
1
  6
Continuous
 62
     6
100
AcDbLine
 10
289.7289642653615
 20
717.9067235136824
 30
0.0
 11
298.6473725470407
 21
717.9067235136824
 31
0.0
  0
LINE
  5
168
330
6D
100
AcDbEntity
  8
1
  6
Continuous
 62
     7
100
AcDbLine
 10
289.7289642653615
 20
717.9067235136824
 30
0.0
 11
289.7289642653618
 21
709.4067235136826
 31
0.0
  0
LINE
  5
169
330
6D
100
AcDbEntity
  8
1
  6
Continuous
 62
     7
100
AcDbLine
 10
271.5289642653635
 20
696.6567235136824
 30
0.0
 11
253.0289642653639
 21
696.6567235136824
 31
0.0
  0
LINE
  5
16A
330
6D
100
AcDbEntity
  8
1
  6
Continuous
 62
     7
100
AcDbLine
 10
271.5289642653635
 20
705.1567235136824
 30
0.0
 11
271.5289642653635
 21
696.6567235136824
 31
0.0
  0
LINE
  5
16B
330
6D
100
AcDbEntity
  8
1
  6
Continuous
 62
     2
100
AcDbLine
 10
173.4841597386098
 20
717.9067235136824
 30
0.0
 11
173.4841597386098
 21
713.6567235136824
 31
0.0
  0
LINE
  5
16C
330
6D
100
AcDbEntity
  8
1
  6
Continuous
 62
     2
100
AcDbLine
 10
159.98415973861
 20
717.9067235136824
 30
0.0
 11
159.98415973861
 21
713.6567235136824
 31
0.0
  0
LINE
  5
16D
330
6D
100
AcDbEntity
  8
1
  6
Continuous
 62
     6
100
AcDbLine
 10
173.4841597386098
 20
717.9067235136824
 30
0.0
 11
159.98415973861
 21
717.9067235136824
 31
0.0
  0
LINE
  5
16E
330
6D
100
AcDbEntity
  8
1
  6
Continuous
 62
     6
100
AcDbLine
 10
159.98415973861
 20
717.9067235136824
 30
0.0
 11
146.48415973861
 21
717.9067235136824
 31
0.0
  0
LINE
  5
16F
330
6D
100
AcDbEntity
  8
1
  6
Continuous
 62
     2
100
AcDbLine
 10
146.48415973861
 20
717.9067235136824
 30
0.0
 11
146.48415973861
 21
713.6567235136824
 31
0.0
  0
LINE
  5
170
330
6D
100
AcDbEntity
  8
1
  6
Continuous
 62
     7
100
AcDbLine
 10
205.1841597386098
 20
692.4067235136826
 30
0.0
 11
205.1841597386098
 21
688.1567235136826
 31
0.0
  0
LINE
  5
171
330
6D
100
AcDbEntity
  8
1
  6
Continuous
 62
     7
100
AcDbLine
 10
205.1841597386098
 20
692.4067235136826
 30
0.0
 11
186.98415973861
 21
692.4067235136826
 31
0.0
  0
LINE
  5
172
330
6D
100
AcDbEntity
  8
1
  6
Continuous
 62
     7
100
AcDbLine
 10
209.8841597386098
 20
705.1567235136824
 30
0.0
 11
196.3841597386099
 21
705.1567235136826
 31
0.0
  0
LINE
  5
173
330
6D
100
AcDbEntity
  8
1
  6
Continuous
 62
     7
100
AcDbLine
 10
223.3841597386098
 20
692.4067235136826
 30
0.0
 11
205.1841597386098
 21
692.4067235136826
 31
0.0
  0
LINE
  5
174
330
6D
100
AcDbEntity
  8
1
  6
Continuous
 62
     6
100
AcDbLine
 10
223.3841597386098
 20
717.9067235136824
 30
0.0
 11
246.2841597386098
 21
717.9067235136824
 31
0.0
  0
LINE
  5
175
330
6D
100
AcDbEntity
  8
1
  6
Continuous
 62
     6
100
AcDbLine
 10
289.7289642653615
 20
717.9067235136824
 30
0.0
 11
246.2841597386098
 21
717.9067235136824
 31
0.0
  0
LINE
  5
176
330
6D
100
AcDbEntity
  8
1
  6
Continuous
 62
     7
100
AcDbLine
 10
246.2841597386098
 20
717.9067235136824
 30
0.0
 11
246.2841597386098
 21
709.4067235136824
 31
0.0
  0
LINE
  5
177
330
6D
100
AcDbEntity
  8
1
  6
Continuous
 62
     6
100
AcDbLine
 10
70.7289642653597
 20
717.9067235136824
 30
0.0
 11
64.52896426536171
 21
717.9067235136824
 31
0.0
  0
LINE
  5
178
330
6D
100
AcDbEntity
  8
1
  6
Continuous
 62
     6
100
AcDbLine
 10
64.52896426536171
 20
688.1567235136826
 30
0.0
 11
64.52896426536171
 21
692.4067235136826
 31
0.0
  0
LINE
  5
179
330
6D
100
AcDbEntity
  8
1
  6
Continuous
 62
     6
100
AcDbLine
 10
64.52896426536171
 20
692.4067235136826
 30
0.0
 11
64.52896426536171
 21
696.6567235136824
 31
0.0
  0
LINE
  5
17A
330
6D
100
AcDbEntity
  8
1
  6
Continuous
 62
     7
100
AcDbLine
 10
209.8841597386098
 20
709.4067235136824
 30
0.0
 11
209.8841597386098
 21
705.1567235136824
 31
0.0
  0
LINE
  5
17B
330
6D
100
AcDbEntity
  8
1
  6
Continuous
 62
     7
100
AcDbLine
 10
196.3841597386099
 20
709.4067235136824
 30
0.0
 11
196.3841597386099
 21
705.1567235136826
 31
0.0
  0
LINE
  5
17C
330
6D
100
AcDbEntity
  8
1
  6
Continuous
 62
     7
100
AcDbLine
 10
209.8841597386098
 20
709.4067235136824
 30
0.0
 11
196.3841597386099
 21
709.4067235136824
 31
0.0
  0
LINE
  5
17D
330
6D
100
AcDbEntity
  8
1
  6
Continuous
 62
     2
100
AcDbLine
 10
186.98415973861
 20
705.1567235136824
 30
0.0
 11
173.4841597386098
 21
705.1567235136824
 31
0.0
  0
LINE
  5
17E
330
6D
100
AcDbEntity
  8
1
  6
Continuous
 62
     2
100
AcDbLine
 10
70.7289642653597
 20
705.1567235136824
 30
0.0
 11
70.7289642653597
 21
709.4067235136824
 31
0.0
  0
LINE
  5
17F
330
6D
100
AcDbEntity
  8
1
  6
Continuous
 62
     2
100
AcDbLine
 10
70.7289642653597
 20
705.1567235136824
 30
0.0
 11
64.52896426536171
 21
705.1567235136824
 31
0.0
  0
LINE
  5
180
330
6D
100
AcDbEntity
  8
1
  6
Continuous
 62
     2
100
AcDbLine
 10
186.98415973861
 20
709.4067235136824
 30
0.0
 11
173.4841597386098
 21
709.4067235136824
 31
0.0
  0
LINE
  5
181
330
6D
100
AcDbEntity
  8
1
  6
Continuous
 62
     2
100
AcDbLine
 10
70.7289642653597
 20
709.4067235136824
 30
0.0
 11
70.7289642653597
 21
713.6567235136824
 31
0.0
  0
LINE
  5
182
330
6D
100
AcDbEntity
  8
1
  6
Continuous
 62
     2
100
AcDbLine
 10
186.98415973861
 20
713.6567235136824
 30
0.0
 11
173.4841597386098
 21
713.6567235136824
 31
0.0
  0
LINE
  5
183
330
6D
100
AcDbEntity
  8
1
  6
Continuous
 62
     2
100
AcDbLine
 10
70.7289642653597
 20
713.6567235136824
 30
0.0
 11
70.7289642653597
 21
717.9067235136824
 31
0.0
  0
LINE
  5
184
330
6D
100
AcDbEntity
  8
1
  6
Continuous
 62
     2
100
AcDbLine
 10
70.7289642653597
 20
713.6567235136824
 30
0.0
 11
64.52896426536171
 21
713.6567235136824
 31
0.0
  0
LINE
  5
185
330
6D
100
AcDbEntity
  8
1
  6
Continuous
 62
     6
100
AcDbLine
 10
186.98415973861
 20
717.9067235136824
 30
0.0
 11
173.4841597386098
 21
717.9067235136824
 31
0.0
  0
LINE
  5
186
330
6D
100
AcDbEntity
  8
1
  6
Continuous
 62
     2
100
AcDbLine
 10
186.98415973861
 20
696.6567235136824
 30
0.0
 11
173.4841597386098
 21
696.6567235136824
 31
0.0
  0
LINE
  5
187
330
6D
100
AcDbEntity
  8
1
  6
Continuous
 62
     2
100
AcDbLine
 10
186.98415973861
 20
700.9067235136824
 30
0.0
 11
173.4841597386098
 21
700.9067235136824
 31
0.0
  0
LINE
  5
188
330
6D
100
AcDbEntity
  8
1
  6
Continuous
 62
     2
100
AcDbLine
 10
70.7289642653597
 20
696.6567235136824
 30
0.0
 11
70.7289642653597
 21
700.9067235136824
 31
0.0
  0
LINE
  5
189
330
6D
100
AcDbEntity
  8
1
  6
Continuous
 62
     2
100
AcDbLine
 10
70.7289642653597
 20
700.9067235136824
 30
0.0
 11
70.7289642653597
 21
705.1567235136824
 31
0.0
  0
LINE
  5
18A
330
6D
100
AcDbEntity
  8
1
  6
Continuous
 62
     7
100
AcDbLine
 10
70.7289642653597
 20
692.4067235136826
 30
0.0
 11
84.2289642653597
 21
692.4067235136826
 31
0.0
  0
LINE
  5
18B
330
6D
100
AcDbEntity
  8
1
  6
Continuous
 62
     2
100
AcDbLine
 10
70.7289642653597
 20
692.4067235136826
 30
0.0
 11
70.7289642653597
 21
696.6567235136824
 31
0.0
  0
LINE
  5
18C
330
6D
100
AcDbEntity
  8
1
  6
Continuous
 62
     7
100
AcDbLine
 10
223.3841597386098
 20
696.6567235136824
 30
0.0
 11
223.3841597386098
 21
700.9067235136824
 31
0.0
  0
LINE
  5
18D
330
6D
100
AcDbEntity
  8
1
  6
Continuous
 62
     6
100
AcDbLine
 10
209.8841597386098
 20
717.9067235136824
 30
0.0
 11
223.3841597386098
 21
717.9067235136824
 31
0.0
  0
LINE
  5
18E
330
6D
100
AcDbEntity
  8
1
  6
Continuous
 62
     7
100
AcDbLine
 10
223.3841597386098
 20
717.9067235136824
 30
0.0
 11
223.3841597386098
 21
713.6567235136824
 31
0.0
  0
LINE
  5
18F
330
6D
100
AcDbEntity
  8
1
  6
Continuous
 62
     6
100
AcDbLine
 10
196.3841597386099
 20
717.9067235136824
 30
0.0
 11
209.8841597386098
 21
717.9067235136824
 31
0.0
  0
LINE
  5
190
330
6D
100
AcDbEntity
  8
1
  6
Continuous
 62
     7
100
AcDbLine
 10
186.98415973861
 20
705.1567235136824
 30
0.0
 11
186.98415973861
 21
700.9067235136824
 31
0.0
  0
LINE
  5
191
330
6D
100
AcDbEntity
  8
1
  6
Continuous
 62
     7
100
AcDbLine
 10
186.98415973861
 20
709.4067235136824
 30
0.0
 11
186.98415973861
 21
705.1567235136824
 31
0.0
  0
LINE
  5
192
330
6D
100
AcDbEntity
  8
1
  6
Continuous
 62
     2
100
AcDbLine
 10
64.52896426536171
 20
709.4067235136824
 30
0.0
 11
70.7289642653597
 21
709.4067235136824
 31
0.0
  0
LINE
  5
193
330
6D
100
AcDbEntity
  8
1
  6
Continuous
 62
     7
100
AcDbLine
 10
186.98415973861
 20
713.6567235136824
 30
0.0
 11
186.98415973861
 21
709.4067235136824
 31
0.0
  0
LINE
  5
194
330
6D
100
AcDbEntity
  8
1
  6
Continuous
 62
     7
100
AcDbLine
 10
223.3841597386098
 20
709.4067235136824
 30
0.0
 11
223.3841597386098
 21
705.1567235136824
 31
0.0
  0
LINE
  5
195
330
6D
100
AcDbEntity
  8
1
  6
Continuous
 62
     7
100
AcDbLine
 10
209.8841597386098
 20
717.9067235136824
 30
0.0
 11
209.8841597386098
 21
713.6567235136824
 31
0.0
  0
LINE
  5
196
330
6D
100
AcDbEntity
  8
1
  6
Continuous
 62
     7
100
AcDbLine
 10
196.3841597386099
 20
717.9067235136824
 30
0.0
 11
196.3841597386099
 21
713.6567235136824
 31
0.0
  0
LINE
  5
197
330
6D
100
AcDbEntity
  8
1
  6
Continuous
 62
     2
100
AcDbLine
 10
70.7289642653597
 20
688.1567235136824
 30
0.0
 11
70.7289642653597
 21
692.4067235136826
 31
0.0
  0
LINE
  5
198
330
6D
100
AcDbEntity
  8
1
  6
Continuous
 62
     2
100
AcDbLine
 10
64.52896426536171
 20
696.6567235136824
 30
0.0
 11
70.7289642653597
 21
696.6567235136824
 31
0.0
  0
LINE
  5
199
330
6D
100
AcDbEntity
  8
1
  6
Continuous
 62
     2
100
AcDbLine
 10
64.52896426536171
 20
700.9067235136824
 30
0.0
 11
70.7289642653597
 21
700.9067235136824
 31
0.0
  0
LINE
  5
19A
330
6D
100
AcDbEntity
  8
1
  6
Continuous
 62
     7
100
AcDbLine
 10
64.52896426536171
 20
692.4067235136826
 30
0.0
 11
70.7289642653597
 21
692.4067235136826
 31
0.0
  0
LINE
  5
19B
330
6D
100
AcDbEntity
  8
1
  6
Continuous
 62
     7
100
AcDbLine
 10
223.3841597386098
 20
696.6567235136824
 30
0.0
 11
223.3841597386098
 21
692.4067235136826
 31
0.0
  0
LINE
  5
19C
330
6D
100
AcDbEntity
  8
1
  6
Continuous
 62
     7
100
AcDbLine
 10
186.98415973861
 20
700.9067235136824
 30
0.0
 11
186.98415973861
 21
696.6567235136824
 31
0.0
  0
LINE
  5
19D
330
6D
100
AcDbEntity
  8
1
  6
Continuous
 62
     7
100
AcDbLine
 10
186.98415973861
 20
696.6567235136824
 30
0.0
 11
186.98415973861
 21
692.4067235136826
 31
0.0
  0
LINE
  5
19E
330
6D
100
AcDbEntity
  8
1
  6
Continuous
 62
     7
100
AcDbLine
 10
209.8841597386098
 20
713.6567235136824
 30
0.0
 11
209.8841597386098
 21
709.4067235136824
 31
0.0
  0
LINE
  5
19F
330
6D
100
AcDbEntity
  8
1
  6
Continuous
 62
     7
100
AcDbLine
 10
196.3841597386099
 20
713.6567235136824
 30
0.0
 11
196.3841597386099
 21
709.4067235136824
 31
0.0
  0
LINE
  5
1A0
330
6D
100
AcDbEntity
  8
1
  6
Continuous
 62
     7
100
AcDbLine
 10
186.98415973861
 20
709.4067235136824
 30
0.0
 11
196.3841597386099
 21
709.4067235136824
 31
0.0
  0
LINE
  5
1A1
330
6D
100
AcDbEntity
  8
1
  6
Continuous
 62
     7
100
AcDbLine
 10
223.3841597386098
 20
705.1567235136824
 30
0.0
 11
209.8841597386098
 21
705.1567235136824
 31
0.0
  0
LINE
  5
1A2
330
6D
100
AcDbEntity
  8
1
  6
Continuous
 62
     7
100
AcDbLine
 10
223.3841597386098
 20
692.4067235136826
 30
0.0
 11
223.3841597386098
 21
688.1567235136824
 31
0.0
  0
LINE
  5
1A3
330
6D
100
AcDbEntity
  8
1
  6
Continuous
 62
     7
100
AcDbLine
 10
186.98415973861
 20
692.4067235136826
 30
0.0
 11
186.98415973861
 21
688.1567235136824
 31
0.0
  0
LINE
  5
1A4
330
6D
100
AcDbEntity
  8
1
  6
Continuous
 62
     7
100
AcDbLine
 10
186.98415973861
 20
717.9067235136824
 30
0.0
 11
186.98415973861
 21
713.6567235136824
 31
0.0
  0
LINE
  5
1A5
330
6D
100
AcDbEntity
  8
1
  6
Continuous
 62
     7
100
AcDbLine
 10
223.3841597386098
 20
696.6567235136824
 30
0.0
 11
253.0289642653639
 21
696.6567235136824
 31
0.0
  0
LINE
  5
1A6
330
6D
100
AcDbEntity
  8
1
  6
Continuous
 62
     7
100
AcDbLine
 10
223.3841597386098
 20
705.1567235136824
 30
0.0
 11
253.0289642653639
 21
705.1567235136824
 31
0.0
  0
LINE
  5
1A7
330
6D
100
AcDbEntity
  8
1
  6
Continuous
 62
     7
100
AcDbLine
 10
289.7289642653618
 20
709.4067235136826
 30
0.0
 11
298.6473725470407
 21
709.4067235136824
 31
0.0
  0
LINE
  5
1A8
330
6D
100
AcDbEntity
  8
1
  6
Continuous
 62
     7
100
AcDbLine
 10
289.7289642653618
 20
709.4067235136826
 30
0.0
 11
253.0289642653639
 21
709.4067235136824
 31
0.0
  0
LINE
  5
1A9
330
6D
100
AcDbEntity
  8
1
  6
Continuous
 62
     7
100
AcDbLine
 10
253.0289642653639
 20
705.1567235136824
 30
0.0
 11
271.5289642653635
 21
705.1567235136824
 31
0.0
  0
LINE
  5
1AA
330
6D
100
AcDbEntity
  8
1
  6
Continuous
 62
     7
100
AcDbLine
 10
253.0289642653639
 20
705.1567235136824
 30
0.0
 11
253.0289642653639
 21
696.6567235136824
 31
0.0
  0
LINE
  5
1AB
330
6D
100
AcDbEntity
  8
1
  6
Continuous
 62
     6
100
AcDbLine
 10
64.52896426536171
 20
713.6567235136824
 30
0.0
 11
64.52896426536171
 21
717.9067235136824
 31
0.0
  0
LINE
  5
1AC
330
6D
100
AcDbEntity
  8
1
  6
Continuous
 62
     6
100
AcDbLine
 10
64.52896426536171
 20
709.4067235136824
 30
0.0
 11
64.52896426536171
 21
713.6567235136824
 31
0.0
  0
LINE
  5
1AD
330
6D
100
AcDbEntity
  8
1
  6
Continuous
 62
     6
100
AcDbLine
 10
64.52896426536171
 20
705.1567235136824
 30
0.0
 11
64.52896426536171
 21
709.4067235136824
 31
0.0
  0
LINE
  5
1AE
330
6D
100
AcDbEntity
  8
1
  6
Continuous
 62
     6
100
AcDbLine
 10
64.52896426536171
 20
696.6567235136824
 30
0.0
 11
64.52896426536171
 21
700.9067235136824
 31
0.0
  0
LINE
  5
1AF
330
6D
100
AcDbEntity
  8
1
  6
Continuous
 62
     6
100
AcDbLine
 10
146.48415973861
 20
717.9067235136824
 30
0.0
 11
84.2289642653597
 21
717.9067235136824
 31
0.0
  0
LINE
  5
1B0
330
6D
100
AcDbEntity
  8
1
  6
Continuous
 62
     2
100
AcDbLine
 10
84.2289642653597
 20
713.6567235136824
 30
0.0
 11
146.48415973861
 21
713.6567235136824
 31
0.0
  0
LINE
  5
1B1
330
6D
100
AcDbEntity
  8
1
  6
Continuous
 62
     2
100
AcDbLine
 10
84.2289642653597
 20
709.4067235136824
 30
0.0
 11
146.48415973861
 21
709.4067235136824
 31
0.0
  0
LINE
  5
1B2
330
6D
100
AcDbEntity
  8
1
  6
Continuous
 62
     7
100
AcDbLine
 10
209.8841597386098
 20
709.4067235136824
 30
0.0
 11
223.3841597386098
 21
709.4067235136824
 31
0.0
  0
LINE
  5
1B3
330
6D
100
AcDbEntity
  8
1
  6
Continuous
 62
     7
100
AcDbLine
 10
246.2841597386098
 20
709.4067235136824
 30
0.0
 11
223.3841597386098
 21
709.4067235136824
 31
0.0
  0
LINE
  5
1B4
330
6D
100
AcDbEntity
  8
1
  6
Continuous
 62
     2
100
AcDbLine
 10
173.4841597386098
 20
696.6567235136824
 30
0.0
 11
173.4841597386098
 21
692.4067235136826
 31
0.0
  0
LINE
  5
1B5
330
6D
100
AcDbEntity
  8
1
  6
Continuous
 62
     2
100
AcDbLine
 10
173.4841597386098
 20
696.6567235136824
 30
0.0
 11
159.98415973861
 21
696.6567235136824
 31
0.0
  0
LINE
  5
1B6
330
6D
100
AcDbEntity
  8
1
  6
Continuous
 62
     2
100
AcDbLine
 10
173.4841597386098
 20
692.4067235136826
 30
0.0
 11
173.4841597386098
 21
688.1567235136824
 31
0.0
  0
LINE
  5
1B7
330
6D
100
AcDbEntity
  8
1
  6
Continuous
 62
     7
100
AcDbLine
 10
173.4841597386098
 20
692.4067235136826
 30
0.0
 11
186.98415973861
 21
692.4067235136826
 31
0.0
  0
LINE
  5
1B8
330
6D
100
AcDbEntity
  8
1
  6
Continuous
 62
     2
100
AcDbLine
 10
173.4841597386098
 20
705.1567235136824
 30
0.0
 11
173.4841597386098
 21
700.9067235136824
 31
0.0
  0
LINE
  5
1B9
330
6D
100
AcDbEntity
  8
1
  6
Continuous
 62
     2
100
AcDbLine
 10
173.4841597386098
 20
705.1567235136824
 30
0.0
 11
159.98415973861
 21
705.1567235136824
 31
0.0
  0
LINE
  5
1BA
330
6D
100
AcDbEntity
  8
1
  6
Continuous
 62
     2
100
AcDbLine
 10
173.4841597386098
 20
709.4067235136824
 30
0.0
 11
173.4841597386098
 21
705.1567235136824
 31
0.0
  0
LINE
  5
1BB
330
6D
100
AcDbEntity
  8
1
  6
Continuous
 62
     2
100
AcDbLine
 10
173.4841597386098
 20
709.4067235136824
 30
0.0
 11
159.98415973861
 21
709.4067235136824
 31
0.0
  0
LINE
  5
1BC
330
6D
100
AcDbEntity
  8
1
  6
Continuous
 62
     2
100
AcDbLine
 10
173.4841597386098
 20
713.6567235136824
 30
0.0
 11
173.4841597386098
 21
709.4067235136824
 31
0.0
  0
LINE
  5
1BD
330
6D
100
AcDbEntity
  8
1
  6
Continuous
 62
     2
100
AcDbLine
 10
173.4841597386098
 20
713.6567235136824
 30
0.0
 11
159.98415973861
 21
713.6567235136824
 31
0.0
  0
LINE
  5
1BE
330
6D
100
AcDbEntity
  8
1
  6
Continuous
 62
     2
100
AcDbLine
 10
173.4841597386098
 20
700.9067235136824
 30
0.0
 11
173.4841597386098
 21
696.6567235136824
 31
0.0
  0
LINE
  5
1BF
330
6D
100
AcDbEntity
  8
1
  6
Continuous
 62
     2
100
AcDbLine
 10
173.4841597386098
 20
700.9067235136824
 30
0.0
 11
159.98415973861
 21
700.9067235136824
 31
0.0
  0
LINE
  5
1C0
330
6D
100
AcDbEntity
  8
1
  6
Continuous
 62
     2
100
AcDbLine
 10
159.98415973861
 20
696.6567235136824
 30
0.0
 11
159.98415973861
 21
692.4067235136826
 31
0.0
  0
LINE
  5
1C1
330
6D
100
AcDbEntity
  8
1
  6
Continuous
 62
     2
100
AcDbLine
 10
159.98415973861
 20
696.6567235136824
 30
0.0
 11
146.48415973861
 21
696.6567235136824
 31
0.0
  0
LINE
  5
1C2
330
6D
100
AcDbEntity
  8
1
  6
Continuous
 62
     2
100
AcDbLine
 10
159.98415973861
 20
692.4067235136826
 30
0.0
 11
159.98415973861
 21
688.1567235136824
 31
0.0
  0
LINE
  5
1C3
330
6D
100
AcDbEntity
  8
1
  6
Continuous
 62
     7
100
AcDbLine
 10
159.98415973861
 20
692.4067235136826
 30
0.0
 11
173.4841597386098
 21
692.4067235136826
 31
0.0
  0
LINE
  5
1C4
330
6D
100
AcDbEntity
  8
1
  6
Continuous
 62
     2
100
AcDbLine
 10
159.98415973861
 20
705.1567235136824
 30
0.0
 11
159.98415973861
 21
700.9067235136824
 31
0.0
  0
LINE
  5
1C5
330
6D
100
AcDbEntity
  8
1
  6
Continuous
 62
     2
100
AcDbLine
 10
159.98415973861
 20
705.1567235136824
 30
0.0
 11
146.48415973861
 21
705.1567235136824
 31
0.0
  0
LINE
  5
1C6
330
6D
100
AcDbEntity
  8
1
  6
Continuous
 62
     2
100
AcDbLine
 10
159.98415973861
 20
709.4067235136824
 30
0.0
 11
159.98415973861
 21
705.1567235136824
 31
0.0
  0
LINE
  5
1C7
330
6D
100
AcDbEntity
  8
1
  6
Continuous
 62
     2
100
AcDbLine
 10
159.98415973861
 20
709.4067235136824
 30
0.0
 11
146.48415973861
 21
709.4067235136824
 31
0.0
  0
LINE
  5
1C8
330
6D
100
AcDbEntity
  8
1
  6
Continuous
 62
     2
100
AcDbLine
 10
159.98415973861
 20
713.6567235136824
 30
0.0
 11
159.98415973861
 21
709.4067235136824
 31
0.0
  0
LINE
  5
1C9
330
6D
100
AcDbEntity
  8
1
  6
Continuous
 62
     2
100
AcDbLine
 10
159.98415973861
 20
713.6567235136824
 30
0.0
 11
146.48415973861
 21
713.6567235136824
 31
0.0
  0
LINE
  5
1CA
330
6D
100
AcDbEntity
  8
1
  6
Continuous
 62
     2
100
AcDbLine
 10
159.98415973861
 20
700.9067235136824
 30
0.0
 11
159.98415973861
 21
696.6567235136824
 31
0.0
  0
LINE
  5
1CB
330
6D
100
AcDbEntity
  8
1
  6
Continuous
 62
     2
100
AcDbLine
 10
159.98415973861
 20
700.9067235136824
 30
0.0
 11
146.48415973861
 21
700.9067235136824
 31
0.0
  0
LINE
  5
1CC
330
6D
100
AcDbEntity
  8
1
  6
Continuous
 62
     2
100
AcDbLine
 10
146.48415973861
 20
696.6567235136824
 30
0.0
 11
146.48415973861
 21
692.4067235136826
 31
0.0
  0
LINE
  5
1CD
330
6D
100
AcDbEntity
  8
1
  6
Continuous
 62
     2
100
AcDbLine
 10
146.48415973861
 20
696.6567235136824
 30
0.0
 11
84.2289642653597
 21
696.6567235136824
 31
0.0
  0
LINE
  5
1CE
330
6D
100
AcDbEntity
  8
1
  6
Continuous
 62
     2
100
AcDbLine
 10
146.48415973861
 20
692.4067235136826
 30
0.0
 11
146.48415973861
 21
688.1567235136824
 31
0.0
  0
LINE
  5
1CF
330
6D
100
AcDbEntity
  8
1
  6
Continuous
 62
     7
100
AcDbLine
 10
146.48415973861
 20
692.4067235136826
 30
0.0
 11
159.98415973861
 21
692.4067235136826
 31
0.0
  0
LINE
  5
1D0
330
6D
100
AcDbEntity
  8
1
  6
Continuous
 62
     2
100
AcDbLine
 10
146.48415973861
 20
705.1567235136824
 30
0.0
 11
146.48415973861
 21
700.9067235136824
 31
0.0
  0
LINE
  5
1D1
330
6D
100
AcDbEntity
  8
1
  6
Continuous
 62
     2
100
AcDbLine
 10
146.48415973861
 20
705.1567235136824
 30
0.0
 11
84.2289642653597
 21
705.1567235136824
 31
0.0
  0
LINE
  5
1D2
330
6D
100
AcDbEntity
  8
1
  6
Continuous
 62
     2
100
AcDbLine
 10
146.48415973861
 20
709.4067235136824
 30
0.0
 11
146.48415973861
 21
705.1567235136824
 31
0.0
  0
LINE
  5
1D3
330
6D
100
AcDbEntity
  8
1
  6
Continuous
 62
     2
100
AcDbLine
 10
146.48415973861
 20
713.6567235136824
 30
0.0
 11
146.48415973861
 21
709.4067235136824
 31
0.0
  0
LINE
  5
1D4
330
6D
100
AcDbEntity
  8
1
  6
Continuous
 62
     2
100
AcDbLine
 10
146.48415973861
 20
700.9067235136824
 30
0.0
 11
146.48415973861
 21
696.6567235136824
 31
0.0
  0
LINE
  5
1D5
330
6D
100
AcDbEntity
  8
1
  6
Continuous
 62
     2
100
AcDbLine
 10
146.48415973861
 20
700.9067235136824
 30
0.0
 11
84.2289642653597
 21
700.9067235136824
 31
0.0
  0
LINE
  5
1D6
330
6D
100
AcDbEntity
  8
1
  6
Continuous
 62
     7
100
AcDbLine
 10
196.3841597386099
 20
705.1567235136826
 30
0.0
 11
186.98415973861
 21
705.1567235136824
 31
0.0
  0
LINE
  5
1D7
330
6D
100
AcDbEntity
  8
1
  6
Continuous
 62
     6
100
AcDbLine
 10
196.3841597386099
 20
717.9067235136824
 30
0.0
 11
186.98415973861
 21
717.9067235136824
 31
0.0
  0
LINE
  5
1D8
330
6D
100
AcDbEntity
  8
1
  6
Continuous
 62
     7
100
AcDbLine
 10
186.98415973861
 20
713.6567235136824
 30
0.0
 11
196.3841597386099
 21
713.6567235136824
 31
0.0
  0
LINE
  5
1D9
330
6D
100
AcDbEntity
  8
1
  6
Continuous
 62
     6
100
AcDbLine
 10
64.52896426536171
 20
700.9067235136824
 30
0.0
 11
64.52896426536171
 21
705.1567235136824
 31
0.0
  0
LINE
  5
1DA
330
6D
100
AcDbEntity
  8
1
  6
Continuous
 62
     2
100
AcDbLine
 10
195.2644288731252
 20
704.5317235136824
 30
0.0
 11
199.2644288731252
 21
704.0317235136824
 31
0.0
  0
LINE
  5
1DB
330
6D
100
AcDbEntity
  8
1
  6
Continuous
 62
     2
100
AcDbLine
 10
199.2644288731252
 20
704.0317235136824
 30
0.0
 11
199.2644288731252
 21
702.0317235136824
 31
0.0
  0
LINE
  5
1DC
330
6D
100
AcDbEntity
  8
1
  6
Continuous
 62
     2
100
AcDbLine
 10
199.2644288731252
 20
702.0317235136824
 30
0.0
 11
195.2644288731252
 21
701.5317235136824
 31
0.0
  0
LINE
  5
1DD
330
6D
100
AcDbEntity
  8
1
  6
Continuous
 62
     2
100
AcDbLine
 10
195.2644288731252
 20
701.5317235136824
 30
0.0
 11
195.2644288731252
 21
704.5317235136824
 31
0.0
  0
LINE
  5
1DE
330
6D
100
AcDbEntity
  8
1
  6
Continuous
 62
     2
100
AcDbLine
 10
111.5289642653616
 20
683.156723513683
 30
0.0
 11
43.19563093202845
 21
683.156723513683
 31
0.0
  0
LINE
  5
1DF
330
6D
100
AcDbEntity
  8
1
  6
Continuous
 62
     2
100
AcDbLine
 10
248.1956309320282
 20
683.156723513683
 30
0.0
 11
316.5289642653616
 21
683.156723513683
 31
0.0
  0
LINE
  5
1E0
330
6D
100
AcDbEntity
  8
1
  6
Continuous
 62
     2
100
AcDbLine
 10
248.1956309320282
 20
683.156723513683
 30
0.0
 11
248.1956309320282
 21
688.156723513683
 31
0.0
  0
LINE
  5
1E1
330
6D
100
AcDbEntity
  8
1
  6
Continuous
 62
     2
100
AcDbLine
 10
179.862297598695
 20
683.156723513683
 30
0.0
 11
179.862297598695
 21
688.156723513683
 31
0.0
  0
LINE
  5
1E2
330
6D
100
AcDbEntity
  8
1
  6
Continuous
 62
     2
100
AcDbLine
 10
111.5289642653616
 20
683.156723513683
 30
0.0
 11
111.5289642653616
 21
688.156723513683
 31
0.0
  0
LINE
  5
1E3
330
6D
100
AcDbEntity
  8
1
  6
Continuous
 62
     2
100
AcDbLine
 10
321.5289642653591
 20
745.5567235136831
 30
0.0
 11
321.5289642653591
 21
802.9567235136832
 31
0.0
  0
LINE
  5
1E4
330
6D
100
AcDbEntity
  8
1
  6
Continuous
 62
     2
100
AcDbLine
 10
321.5289642653591
 20
745.5567235136831
 30
0.0
 11
316.5289642653615
 21
745.5567235136831
 31
0.0
  0
LINE
  5
1E5
330
6D
100
AcDbEntity
  8
1
  6
Continuous
 62
     2
100
AcDbLine
 10
-78.47103573463914
 20
683.156723513683
 30
0.0
 11
-98.47103573463919
 21
683.156723513683
 31
0.0
  0
LINE
  5
1E6
330
6D
100
AcDbEntity
  8
1
  6
Continuous
 62
     2
100
AcDbLine
 10
-25.13770240130498
 20
683.156723513683
 30
0.0
 11
-25.13770240130498
 21
688.156723513683
 31
0.0
  0
LINE
  5
1E7
330
6D
100
AcDbEntity
  8
1
  6
Continuous
 62
     2
100
AcDbLine
 10
-25.13770240130498
 20
683.156723513683
 30
0.0
 11
43.19563093202845
 21
683.156723513683
 31
0.0
  0
LINE
  5
1E8
330
6D
100
AcDbEntity
  8
1
  6
Continuous
 62
     6
100
AcDbLine
 10
-25.13770240130498
 20
688.156723513683
 30
0.0
 11
43.19563093202845
 21
688.156723513683
 31
0.0
  0
LINE
  5
1E9
330
6D
100
AcDbEntity
  8
1
  6
Continuous
 62
     6
100
AcDbLine
 10
-25.13770240130498
 20
688.156723513683
 30
0.0
 11
-78.47103573463815
 21
688.156723513683
 31
0.0
  0
LINE
  5
1EA
330
6D
100
AcDbEntity
  8
1
  6
Continuous
 62
     2
100
AcDbLine
 10
43.19563093202845
 20
683.156723513683
 30
0.0
 11
43.19563093202845
 21
688.156723513683
 31
0.0
  0
LINE
  5
1EB
330
6D
100
AcDbEntity
  8
1
  6
Continuous
 62
     2
100
AcDbLine
 10
-78.47103573463914
 20
683.156723513683
 30
0.0
 11
-78.47103573463914
 21
687.156723513683
 31
0.0
  0
LINE
  5
1EC
330
6D
100
AcDbEntity
  8
1
  6
Continuous
 62
     2
100
AcDbLine
 10
-78.47103573463914
 20
683.156723513683
 30
0.0
 11
-25.13770240130498
 21
683.156723513683
 31
0.0
  0
LINE
  5
1ED
330
6D
100
AcDbEntity
  8
1
  6
Continuous
 62
     2
100
AcDbLine
 10
131.5289642653588
 20
683.156723513683
 30
0.0
 11
111.5289642653616
 21
683.156723513683
 31
0.0
  0
LINE
  5
1EE
330
6D
100
AcDbEntity
  8
1
  6
Continuous
 62
     2
100
AcDbLine
 10
131.5289642653588
 20
683.156723513683
 30
0.0
 11
131.5289642653588
 21
687.156723513683
 31
0.0
  0
LINE
  5
1EF
330
6D
100
AcDbEntity
  8
1
  6
Continuous
 62
     2
100
AcDbLine
 10
131.5289642653588
 20
683.156723513683
 30
0.0
 11
179.862297598695
 21
683.156723513683
 31
0.0
  0
LINE
  5
1F0
330
6D
100
AcDbEntity
  8
1
  6
Continuous
 62
     2
100
AcDbLine
 10
179.862297598695
 20
683.156723513683
 30
0.0
 11
248.1956309320282
 21
683.156723513683
 31
0.0
  0
LINE
  5
1F1
330
6D
100
AcDbEntity
  8
1
  6
Continuous
 62
     2
100
AcDbLine
 10
321.5289642653591
 20
683.156723513683
 30
0.0
 11
316.5289642653616
 21
683.156723513683
 31
0.0
  0
LINE
  5
1F2
330
6D
100
AcDbEntity
  8
1
  6
Continuous
 62
     2
100
AcDbLine
 10
321.5289642653591
 20
688.156723513683
 30
0.0
 11
321.5289642653591
 21
683.156723513683
 31
0.0
  0
LINE
  5
1F3
330
6D
100
AcDbEntity
  8
1
  6
Continuous
 62
     2
100
AcDbLine
 10
321.5289642653591
 20
688.156723513683
 30
0.0
 11
321.5289642653591
 21
745.5567235136831
 31
0.0
  0
LINE
  5
1F4
330
6D
100
AcDbEntity
  8
1
  6
Continuous
 62
     2
100
AcDbLine
 10
321.5289642653591
 20
980.156723513683
 30
0.0
 11
316.5289642653591
 21
980.156723513683
 31
0.0
  0
LINE
  5
1F5
330
6D
100
AcDbEntity
  8
1
  6
Continuous
 62
     6
100
AcDbLine
 10
316.5289642653591
 20
975.156723513683
 30
0.0
 11
316.5289642653596
 21
917.7567235136829
 31
0.0
  0
LINE
  5
1F6
330
6D
100
AcDbEntity
  8
1
  6
Continuous
 62
     2
100
AcDbLine
 10
321.5289642653591
 20
980.156723513683
 30
0.0
 11
321.5289642653591
 21
975.156723513683
 31
0.0
  0
LINE
  5
1F7
330
6D
100
AcDbEntity
  8
1
  6
Continuous
 62
     2
100
AcDbLine
 10
316.5289642653591
 20
975.156723513683
 30
0.0
 11
316.5289642653591
 21
980.156723513683
 31
0.0
  0
LINE
  5
1F8
330
6D
100
AcDbEntity
  8
1
  6
Continuous
 62
     2
100
AcDbLine
 10
316.5289642653591
 20
975.156723513683
 30
0.0
 11
321.5289642653591
 21
975.156723513683
 31
0.0
  0
LINE
  5
1F9
330
6D
100
AcDbEntity
  8
1
  6
Continuous
 62
     2
100
AcDbLine
 10
321.5289642653591
 20
975.156723513683
 30
0.0
 11
321.5289642653591
 21
917.7567235136829
 31
0.0
  0
LINE
  5
1FA
330
6D
100
AcDbEntity
  8
1
  6
Continuous
 62
     2
100
AcDbLine
 10
316.5289642653596
 20
917.7567235136829
 30
0.0
 11
321.5289642653591
 21
917.7567235136829
 31
0.0
  0
LINE
  5
1FB
330
6D
100
AcDbEntity
  8
1
  6
Continuous
 62
     6
100
AcDbLine
 10
316.5289642653596
 20
917.7567235136829
 30
0.0
 11
316.5289642653616
 21
860.356723513683
 31
0.0
  0
LINE
  5
1FC
330
6D
100
AcDbEntity
  8
1
  6
Continuous
 62
     2
100
AcDbLine
 10
321.5289642653591
 20
917.7567235136829
 30
0.0
 11
321.5289642653591
 21
860.356723513683
 31
0.0
  0
LINE
  5
1FD
330
6D
100
AcDbEntity
  8
1
  6
Continuous
 62
     2
100
AcDbLine
 10
316.5289642653616
 20
860.356723513683
 30
0.0
 11
321.5289642653591
 21
860.356723513683
 31
0.0
  0
LINE
  5
1FE
330
6D
100
AcDbEntity
  8
1
  6
Continuous
 62
     6
100
AcDbLine
 10
316.5289642653616
 20
860.356723513683
 30
0.0
 11
316.5289642653616
 21
802.9567235136832
 31
0.0
  0
LINE
  5
1FF
330
6D
100
AcDbEntity
  8
1
  6
Continuous
 62
     2
100
AcDbLine
 10
321.5289642653591
 20
860.356723513683
 30
0.0
 11
321.5289642653591
 21
802.9567235136832
 31
0.0
  0
LINE
  5
200
330
6D
100
AcDbEntity
  8
1
  6
Continuous
 62
     2
100
AcDbLine
 10
316.5289642653616
 20
802.9567235136832
 30
0.0
 11
321.5289642653591
 21
802.9567235136832
 31
0.0
  0
LINE
  5
201
330
6D
100
AcDbEntity
  8
1
  6
Continuous
 62
     6
100
AcDbLine
 10
316.5289642653616
 20
802.9567235136832
 30
0.0
 11
316.5289642653615
 21
745.5567235136831
 31
0.0
  0
LINE
  5
202
330
6D
100
AcDbEntity
  8
1
  6
Continuous
 62
     6
100
AcDbLine
 10
-78.47103573463914
 20
975.1567235136832
 30
0.0
 11
-25.13770240130498
 21
975.1567235136832
 31
0.0
  0
LINE
  5
203
330
6D
100
AcDbEntity
  8
1
  6
Continuous
 62
     2
100
AcDbLine
 10
316.5289642653591
 20
980.156723513683
 30
0.0
 11
248.1956309320282
 21
980.156723513683
 31
0.0
  0
LINE
  5
204
330
6D
100
AcDbEntity
  8
1
  6
Continuous
 62
     2
100
AcDbLine
 10
248.1956309320282
 20
975.156723513683
 30
0.0
 11
248.1956309320282
 21
980.156723513683
 31
0.0
  0
LINE
  5
205
330
6D
100
AcDbEntity
  8
1
  6
Continuous
 62
     6
100
AcDbLine
 10
248.1956309320282
 20
975.156723513683
 30
0.0
 11
316.5289642653591
 21
975.156723513683
 31
0.0
  0
LINE
  5
206
330
6D
100
AcDbEntity
  8
1
  6
Continuous
 62
     2
100
AcDbLine
 10
248.1956309320282
 20
980.156723513683
 30
0.0
 11
179.862297598695
 21
980.156723513683
 31
0.0
  0
LINE
  5
207
330
6D
100
AcDbEntity
  8
1
  6
Continuous
 62
     2
100
AcDbLine
 10
179.862297598695
 20
975.156723513683
 30
0.0
 11
179.862297598695
 21
980.156723513683
 31
0.0
  0
LINE
  5
208
330
6D
100
AcDbEntity
  8
1
  6
Continuous
 62
     6
100
AcDbLine
 10
179.862297598695
 20
975.156723513683
 30
0.0
 11
248.1956309320282
 21
975.156723513683
 31
0.0
  0
LINE
  5
209
330
6D
100
AcDbEntity
  8
1
  6
Continuous
 62
     2
100
AcDbLine
 10
179.862297598695
 20
980.156723513683
 30
0.0
 11
131.5289642653588
 21
980.156723513683
 31
0.0
  0
LINE
  5
20A
330
6D
100
AcDbEntity
  8
1
  6
Continuous
 62
     2
100
AcDbLine
 10
111.5289642653616
 20
975.156723513683
 30
0.0
 11
111.5289642653616
 21
980.156723513683
 31
0.0
  0
LINE
  5
20B
330
6D
100
AcDbEntity
  8
1
  6
Continuous
 62
     6
100
AcDbLine
 10
111.5289642653616
 20
975.156723513683
 30
0.0
 11
179.862297598695
 21
975.156723513683
 31
0.0
  0
LINE
  5
20C
330
6D
100
AcDbEntity
  8
1
  6
Continuous
 62
     2
100
AcDbLine
 10
111.5289642653616
 20
980.156723513683
 30
0.0
 11
43.19563093202845
 21
980.156723513683
 31
0.0
  0
LINE
  5
20D
330
6D
100
AcDbEntity
  8
1
  6
Continuous
 62
     2
100
AcDbLine
 10
43.19563093202845
 20
975.156723513683
 30
0.0
 11
43.19563093202845
 21
980.156723513683
 31
0.0
  0
LINE
  5
20E
330
6D
100
AcDbEntity
  8
1
  6
Continuous
 62
     6
100
AcDbLine
 10
43.19563093202845
 20
975.156723513683
 30
0.0
 11
111.5289642653616
 21
975.156723513683
 31
0.0
  0
LINE
  5
20F
330
6D
100
AcDbEntity
  8
1
  6
Continuous
 62
     2
100
AcDbLine
 10
43.19563093202845
 20
980.156723513683
 30
0.0
 11
-25.13770240130498
 21
980.156723513683
 31
0.0
  0
LINE
  5
210
330
6D
100
AcDbEntity
  8
1
  6
Continuous
 62
     2
100
AcDbLine
 10
-25.13770240130498
 20
975.1567235136832
 30
0.0
 11
-25.13770240130498
 21
980.156723513683
 31
0.0
  0
LINE
  5
211
330
6D
100
AcDbEntity
  8
1
  6
Continuous
 62
     6
100
AcDbLine
 10
-25.13770240130498
 20
975.1567235136832
 30
0.0
 11
43.19563093202845
 21
975.156723513683
 31
0.0
  0
LINE
  5
212
330
6D
100
AcDbEntity
  8
1
  6
Continuous
 62
     2
100
AcDbLine
 10
-25.13770240130498
 20
980.156723513683
 30
0.0
 11
-78.47103573463914
 21
980.156723513683
 31
0.0
  0
LINE
  5
213
330
6D
100
AcDbEntity
  8
1
  6
Continuous
 62
     2
100
AcDbLine
 10
-78.47103573463914
 20
980.156723513683
 30
0.0
 11
-78.47103573463914
 21
976.1567235136832
 31
0.0
  0
LINE
  5
214
330
6D
100
AcDbEntity
  8
1
  6
Continuous
 62
     2
100
AcDbLine
 10
-78.47103573463914
 20
980.156723513683
 30
0.0
 11
-98.47103573463919
 21
980.156723513683
 31
0.0
  0
LINE
  5
215
330
6D
100
AcDbEntity
  8
1
  6
Continuous
 62
     2
100
AcDbLine
 10
131.5289642653588
 20
980.156723513683
 30
0.0
 11
131.5289642653588
 21
976.1567235136832
 31
0.0
  0
LINE
  5
216
330
6D
100
AcDbEntity
  8
1
  6
Continuous
 62
     2
100
AcDbLine
 10
131.5289642653588
 20
980.156723513683
 30
0.0
 11
111.5289642653616
 21
980.156723513683
 31
0.0
  0
LINE
  5
217
330
6D
100
AcDbEntity
  8
1
  6
Continuous
 62
     2
100
AcDbLine
 10
-98.47103573463919
 20
980.156723513683
 30
0.0
 11
-98.47103573463919
 21
831.656723513683
 31
0.0
  0
LINE
  5
218
330
6D
100
AcDbEntity
  8
1
  6
Continuous
 62
     2
100
AcDbLine
 10
-98.47103573463919
 20
831.656723513683
 30
0.0
 11
-88.47103573463914
 21
831.656723513683
 31
0.0
  0
LINE
  5
219
330
6D
100
AcDbEntity
  8
1
  6
Continuous
 62
     2
100
AcDbLine
 10
-98.47103573463919
 20
831.656723513683
 30
0.0
 11
-98.47103573463919
 21
683.156723513683
 31
0.0
  0
LINE
  5
21A
330
6D
100
AcDbEntity
  8
1
  6
Continuous
 62
     6
100
AcDbLine
 10
-78.47103573463815
 20
688.156723513683
 30
0.0
 11
-78.47103573463914
 21
975.1567235136832
 31
0.0
  0
LINE
  5
21B
330
6D
100
AcDbEntity
  8
1
  6
Continuous
 62
     6
100
AcDbLine
 10
316.5289642653615
 20
688.1567235136826
 30
0.0
 11
316.5289642653611
 21
696.6567235136824
 31
0.0
  0
LINE
  5
21C
330
6D
100
AcDbEntity
  8
1
  6
Continuous
 62
     6
100
AcDbLine
 10
43.19563093202845
 20
688.156723513683
 30
0.0
 11
64.52896426536171
 21
688.1567235136826
 31
0.0
  0
LINE
  5
21D
330
6D
100
AcDbEntity
  8
1
  6
Continuous
 62
     2
100
AcDbLine
 10
287.9697009501523
 20
703.6065042346503
 30
0.0
 11
287.9697009501524
 21
701.5491082697966
 31
0.0
  0
LINE
  5
21E
330
6D
100
AcDbEntity
  8
1
  6
Continuous
 62
     7
100
AcDbLine
 10
253.0289642653639
 20
705.1567235136824
 30
0.0
 11
253.0289642653639
 21
709.4067235136824
 31
0.0
  0
LINE
  5
21F
330
6D
100
AcDbEntity
  8
1
  6
Continuous
 62
     7
100
AcDbLine
 10
253.0289642653639
 20
709.4067235136824
 30
0.0
 11
246.2841597386098
 21
709.4067235136824
 31
0.0
  0
ARC
  5
220
102
{ACAD_REACTORS
330
2CC
330
2CC
330
2CD
330
2CD
102
}
330
6D
100
AcDbEntity
  8
0
  6
Continuous
 62
     2
100
AcDbCircle
 10
202.8632076716348
 20
695.2686282755936
 30
0.0
 40
0.6378510567600058
100
AcDbArc
 50
321.8795802028323
 51
38.12041979715963
  0
ARC
  5
221
102
{ACAD_REACTORS
330
2CC
330
2CC
330
2CD
330
2CD
102
}
330
6D
100
AcDbEntity
  8
0
  6
Continuous
 62
     2
100
AcDbCircle
 10
203.0282820818384
 20
695.1390983763209
 30
0.0
 40
0.428023614060944
100
AcDbArc
 50
218.1204197972013
 51
321.8795802027893
  0
ARC
  5
222
102
{ACAD_REACTORS
330
2CC
330
2CC
330
2CD
330
2CD
102
}
330
6D
100
AcDbEntity
  8
0
  6
Continuous
 62
     2
100
AcDbCircle
 10
203.1933564920417
 20
695.2686282755936
 30
0.0
 40
0.637851056759779
100
AcDbArc
 50
141.8795802028293
 51
218.1204197971787
  0
ARC
  5
223
102
{ACAD_REACTORS
330
2CC
330
2CC
330
2CD
330
2CD
102
}
330
6D
100
AcDbEntity
  8
0
  6
Continuous
 62
     2
100
AcDbCircle
 10
203.0282820818384
 20
695.3981581748667
 30
0.0
 40
0.4280236140605738
100
AcDbArc
 50
38.12041979716286
 51
141.8795802028465
  0
ARC
  5
224
102
{ACAD_REACTORS
330
2C4
330
2C4
330
2C5
330
2C5
102
}
330
6D
100
AcDbEntity
  8
0
  6
Continuous
 62
     2
100
AcDbCircle
 10
200.4976918871574
 20
694.1029535934381
 30
0.0
 40
1.840813230556644
100
AcDbArc
 50
58.06909105003501
 51
71.55192388186816
  0
ARC
  5
225
102
{ACAD_REACTORS
330
2C4
330
2C4
330
2C5
330
2C5
102
}
330
6D
100
AcDbEntity
  8
0
  6
Continuous
 62
     2
100
AcDbCircle
 10
200.7139957722474
 20
695.4381087957084
 30
0.0
 40
0.42279343817763
100
AcDbArc
 50
113.3722778881821
 51
151.4785267422989
  0
ARC
  5
226
102
{ACAD_REACTORS
330
2C4
330
2C4
330
2C5
330
2C5
102
}
330
6D
100
AcDbEntity
  8
0
  6
Continuous
 62
     2
100
AcDbCircle
 10
201.0258612747932
 20
695.2686282755936
 30
0.0
 40
0.7777353184572247
100
AcDbArc
 50
151.4785267422717
 51
208.5214732577062
  0
ARC
  5
227
102
{ACAD_REACTORS
330
2C4
330
2C4
330
2C5
330
2C5
102
}
330
6D
100
AcDbEntity
  8
0
  6
Continuous
 62
     2
100
AcDbCircle
 10
200.3672184366675
 20
698.0063811229129
 30
0.0
 40
4.010410630990205
100
AcDbArc
 50
275.1581447696258
 51
285.9799912583536
  0
ARC
  5
228
102
{ACAD_REACTORS
330
2C4
330
2C4
330
2C5
330
2C5
102
}
330
6D
100
AcDbEntity
  8
0
  6
Continuous
 62
     2
100
AcDbCircle
 10
200.6059424819038
 20
695.3618434508289
 30
0.0
 40
1.355119937140075
100
AcDbArc
 50
195.06189177709
 51
275.1581447696416
  0
ARC
  5
229
102
{ACAD_REACTORS
330
2C4
330
2C4
330
2C5
330
2C5
102
}
330
6D
100
AcDbEntity
  8
0
  6
Continuous
 62
     2
100
AcDbCircle
 10
200.2595558344139
 20
695.2686282755936
 30
0.0
 40
0.996410056521489
100
AcDbArc
 50
164.9381082228868
 51
195.0618917771006
  0
ARC
  5
22A
102
{ACAD_REACTORS
330
2C4
330
2C4
330
2C5
330
2C5
102
}
330
6D
100
AcDbEntity
  8
0
  6
Continuous
 62
     2
100
AcDbCircle
 10
200.6059424819038
 20
695.1754131003581
 30
0.0
 40
1.355119937140984
100
AcDbArc
 50
84.84185523036052
 51
164.9381082228915
  0
ARC
  5
22B
102
{ACAD_REACTORS
330
2C8
330
2C8
330
2C9
330
2C9
102
}
330
6D
100
AcDbEntity
  8
0
  6
Continuous
 62
     2
100
AcDbCircle
 10
196.6141951644146
 20
696.1230305849773
 30
0.0
 40
0.2609230769227379
100
AcDbArc
 50
115.3740086783514
 51
180.0
  0
ARC
  5
22C
102
{ACAD_REACTORS
330
2C8
330
2C8
330
2C9
330
2C9
102
}
330
6D
100
AcDbEntity
  8
0
  6
Continuous
 62
     2
100
AcDbCircle
 10
196.6141951644146
 20
697.956322485751
 30
0.0
 40
0.2609230769230066
100
AcDbArc
 50
180.0
 51
244.6259913216486
  0
ARC
  5
22D
102
{ACAD_REACTORS
330
2C8
330
2C8
330
2C9
330
2C9
102
}
330
6D
100
AcDbEntity
  8
0
  6
Continuous
 62
     2
100
AcDbCircle
 10
196.6188365985551
 20
697.0494632633855
 30
0.0
 40
1.668232340440728
100
AcDbArc
 50
269.8110329575872
 51
90.18896704241278
  0
ARC
  5
22E
102
{ACAD_REACTORS
330
2C8
330
2C8
330
2C9
330
2C9
102
}
330
6D
100
AcDbEntity
  8
0
  6
Continuous
 62
     2
100
AcDbCircle
 10
196.6141951644146
 20
695.6421616538244
 30
0.0
 40
0.2609230769230066
100
AcDbArc
 50
180.0
 51
269.811032957459
  0
ARC
  5
22F
102
{ACAD_REACTORS
330
2C6
330
2C6
330
2C7
330
2C7
102
}
330
6D
100
AcDbEntity
  8
0
  6
Continuous
 62
     2
100
AcDbCircle
 10
214.0220135236961
 20
695.4381087957084
 30
0.0
 40
0.4227934381773382
100
AcDbArc
 50
109.3371432194929
 51
151.4785267424192
  0
ARC
  5
230
102
{ACAD_REACTORS
330
2C6
330
2C6
330
2C7
330
2C7
102
}
330
6D
100
AcDbEntity
  8
0
  6
Continuous
 62
     2
100
AcDbCircle
 10
214.0220135236961
 20
695.0991477554791
 30
0.0
 40
0.422793438178531
100
AcDbArc
 50
208.5214732576755
 51
246.6277221118433
  0
ARC
  5
231
102
{ACAD_REACTORS
330
2C6
330
2C6
330
2C7
330
2C7
102
}
330
6D
100
AcDbEntity
  8
0
  6
Continuous
 62
     2
100
AcDbCircle
 10
213.5675735858634
 20
695.2686282755936
 30
0.0
 40
0.996410056522971
100
AcDbArc
 50
164.9381082229097
 51
195.0618917771029
  0
ARC
  5
232
102
{ACAD_REACTORS
330
2C6
330
2C6
330
2C7
330
2C7
102
}
330
6D
100
AcDbEntity
  8
0
  6
Continuous
 62
     2
100
AcDbCircle
 10
213.9139602333524
 20
695.1754131003581
 30
0.0
 40
1.355119937140671
100
AcDbArc
 50
90.0
 51
164.9381082228983
  0
ARC
  5
233
102
{ACAD_REACTORS
330
2CA
330
2CA
330
2CB
330
2CB
102
}
330
6D
100
AcDbEntity
  8
0
  6
Continuous
 62
     2
100
AcDbCircle
 10
206.1230551980601
 20
698.0448187517708
 30
0.0
 40
1.261904761905612
100
AcDbArc
 50
90.0
 51
270.0
  0
ARC
  5
234
102
{ACAD_REACTORS
330
2CE
330
2CE
330
2CF
330
2CF
102
}
330
6D
100
AcDbEntity
  8
0
  6
Continuous
 62
     2
100
AcDbCircle
 10
200.5505835077909
 20
698.4670791582126
 30
0.0
 40
0.2916229955960716
100
AcDbArc
 50
270.0
 51
90.0
  0
ARC
  5
235
102
{ACAD_REACTORS
330
2C8
330
2C8
330
2C9
330
2C9
102
}
330
6D
100
AcDbEntity
  8
0
  6
Continuous
 62
     2
100
AcDbCircle
 10
194.4856425309174
 20
698.4569115478625
 30
0.0
 40
0.2609230769224951
100
AcDbArc
 50
90.0
 51
180.0
  0
ARC
  5
236
102
{ACAD_REACTORS
330
2C8
330
2C8
330
2C9
330
2C9
102
}
330
6D
100
AcDbEntity
  8
0
  6
Continuous
 62
     2
100
AcDbCircle
 10
196.137227414045
 20
697.0396765353644
 30
0.0
 40
0.7536343169898218
100
AcDbArc
 50
115.1944106485168
 51
244.8055893514943
  0
ARC
  5
237
102
{ACAD_REACTORS
330
2C8
330
2C8
330
2C9
330
2C9
102
}
330
6D
100
AcDbEntity
  8
0
  6
Continuous
 62
     2
100
AcDbCircle
 10
195.7053394408425
 20
696.1216354229159
 30
0.0
 40
0.260923076922893
100
AcDbArc
 50
0.0
 51
64.80558935142466
  0
ARC
  5
238
102
{ACAD_REACTORS
330
2C8
330
2C8
330
2C9
330
2C9
102
}
330
6D
100
AcDbEntity
  8
0
  6
Continuous
 62
     2
100
AcDbCircle
 10
193.9948204840193
 20
694.3573388983027
 30
0.0
 40
0.3506153846138886
100
AcDbArc
 50
180.0
 51
270.0
  0
ARC
  5
239
102
{ACAD_REACTORS
330
2CA
330
2CA
330
2CB
330
2CB
102
}
330
6D
100
AcDbEntity
  8
0
  6
Continuous
 62
     2
100
AcDbCircle
 10
206.3017923965438
 20
698.1743486510438
 30
0.0
 40
0.4280236140606632
100
AcDbArc
 50
38.12041979715347
 51
141.8795802028442
  0
ARC
  5
23A
102
{ACAD_REACTORS
330
2CA
330
2CA
330
2CB
330
2CB
102
}
330
6D
100
AcDbEntity
  8
0
  6
Continuous
 62
     2
100
AcDbCircle
 10
206.4668668067473
 20
698.0448187517708
 30
0.0
 40
0.6378510567599356
100
AcDbArc
 50
141.8795802028404
 51
218.1204197971676
  0
ARC
  5
23B
102
{ACAD_REACTORS
330
2CC
330
2CC
330
2CD
330
2CD
102
}
330
6D
100
AcDbEntity
  8
0
  6
Continuous
 62
     2
100
AcDbCircle
 10
203.0282820818384
 20
695.7137315898939
 30
0.0
 40
1.707008076205399
100
AcDbArc
 50
242.4518518243415
 51
297.5481481756881
  0
ARC
  5
23C
102
{ACAD_REACTORS
330
2CC
330
2CC
330
2CD
330
2CD
102
}
330
6D
100
AcDbEntity
  8
0
  6
Continuous
 62
     2
100
AcDbCircle
 10
203.0282820818384
 20
694.8235249612937
 30
0.0
 40
1.707008076205456
100
AcDbArc
 50
62.45185182430483
 51
117.5481481756656
  0
ARC
  5
23D
102
{ACAD_REACTORS
330
2CC
330
2CC
330
2CD
330
2CD
102
}
330
6D
100
AcDbEntity
  8
0
  6
Continuous
 62
     2
100
AcDbCircle
 10
202.7961003530505
 20
695.2686282755936
 30
0.0
 40
1.20498684599287
100
AcDbArc
 50
117.5481481756605
 51
242.451851824342
  0
ARC
  5
23E
102
{ACAD_REACTORS
330
2CC
330
2CC
330
2CD
330
2CD
102
}
330
6D
100
AcDbEntity
  8
0
  6
Continuous
 62
     2
100
AcDbCircle
 10
203.2604638106262
 20
695.2686282755936
 30
0.0
 40
1.204986845993484
100
AcDbArc
 50
297.5481481757047
 51
62.45185182429282
  0
ARC
  5
23F
102
{ACAD_REACTORS
330
2CA
330
2CA
330
2CB
330
2CB
102
}
330
6D
100
AcDbEntity
  8
0
  6
Continuous
 62
     2
100
AcDbCircle
 10
206.3017923965438
 20
697.9152888524976
 30
0.0
 40
0.4280236140606409
100
AcDbArc
 50
218.1204197971558
 51
321.8795802028465
  0
ARC
  5
240
102
{ACAD_REACTORS
330
2CA
330
2CA
330
2CB
330
2CB
102
}
330
6D
100
AcDbEntity
  8
0
  6
Continuous
 62
     2
100
AcDbCircle
 10
206.1367179863403
 20
698.0448187517708
 30
0.0
 40
0.6378510567600058
100
AcDbArc
 50
321.8795802028323
 51
38.12041979715963
  0
ARC
  5
241
102
{ACAD_REACTORS
330
2C8
330
2C8
330
2C9
330
2C9
102
}
330
6D
100
AcDbEntity
  8
0
  6
Continuous
 62
     2
100
AcDbCircle
 10
198.5182189060994
 20
694.3573388983027
 30
0.0
 40
0.3506153846143434
100
AcDbArc
 50
270.0
 51
0.0
  0
ARC
  5
242
102
{ACAD_REACTORS
330
2C8
330
2C8
330
2C9
330
2C9
102
}
330
6D
100
AcDbEntity
  8
0
  6
Continuous
 62
     2
100
AcDbCircle
 10
198.5182189060994
 20
698.9561081290467
 30
0.0
 40
0.3506153846147981
100
AcDbArc
 50
0.0
 51
90.0
  0
ARC
  5
243
102
{ACAD_REACTORS
330
2C8
330
2C8
330
2C9
330
2C9
102
}
330
6D
100
AcDbEntity
  8
0
  6
Continuous
 62
     2
100
AcDbCircle
 10
193.9948204840193
 20
698.9561081290467
 30
0.0
 40
0.3506153846146844
100
AcDbArc
 50
90.0
 51
180.0
  0
ARC
  5
244
102
{ACAD_REACTORS
330
2C8
330
2C8
330
2C9
330
2C9
102
}
330
6D
100
AcDbEntity
  8
0
  6
Continuous
 62
     2
100
AcDbCircle
 10
195.7053394408425
 20
694.8565354795013
 30
0.0
 40
0.2609230769228361
100
AcDbArc
 50
270.0
 51
0.0
  0
ARC
  5
245
102
{ACAD_REACTORS
330
2C8
330
2C8
330
2C9
330
2C9
102
}
330
6D
100
AcDbEntity
  8
0
  6
Continuous
 62
     2
100
AcDbCircle
 10
195.7053394408425
 20
697.9577176478125
 30
0.0
 40
0.2609230769223921
100
AcDbArc
 50
295.1944106485753
 51
0.0
  0
ARC
  5
246
102
{ACAD_REACTORS
330
2C8
330
2C8
330
2C9
330
2C9
102
}
330
6D
100
AcDbEntity
  8
0
  6
Continuous
 62
     2
100
AcDbCircle
 10
195.7053394408425
 20
698.4569115478625
 30
0.0
 40
0.260923076922893
100
AcDbArc
 50
0.0
 51
90.0
  0
ARC
  5
247
102
{ACAD_REACTORS
330
2C8
330
2C8
330
2C9
330
2C9
102
}
330
6D
100
AcDbEntity
  8
0
  6
Continuous
 62
     2
100
AcDbCircle
 10
194.4856425309174
 20
694.8565354795013
 30
0.0
 40
0.2609230769220972
100
AcDbArc
 50
180.0
 51
270.0
  0
ARC
  5
248
102
{ACAD_REACTORS
330
2CE
330
2CE
330
2CF
330
2CF
102
}
330
6D
100
AcDbEntity
  8
0
  6
Continuous
 62
     2
100
AcDbCircle
 10
200.9154368352606
 20
698.4345205043097
 30
0.0
 40
0.8722030093666717
100
AcDbArc
 50
270.0
 51
90.0
  0
ARC
  5
249
102
{ACAD_REACTORS
330
2C6
330
2C6
330
2C7
330
2C7
102
}
330
6D
100
AcDbEntity
  8
0
  6
Continuous
 62
     2
100
AcDbCircle
 10
213.9139602333524
 20
695.3618434508289
 30
0.0
 40
1.355119937140797
100
AcDbArc
 50
195.0618917771017
 51
275.1581447696818
  0
ARC
  5
24A
102
{ACAD_REACTORS
330
2C6
330
2C6
330
2C7
330
2C7
102
}
330
6D
100
AcDbEntity
  8
0
  6
Continuous
 62
     2
100
AcDbCircle
 10
213.6752361881162
 20
698.0063811229129
 30
0.0
 40
4.01041063099074
100
AcDbArc
 50
275.1581447696381
 51
285.979991258338
  0
ARC
  5
24B
102
{ACAD_REACTORS
330
2C6
330
2C6
330
2C7
330
2C7
102
}
330
6D
100
AcDbEntity
  8
0
  6
Continuous
 62
     2
100
AcDbCircle
 10
213.8057096386061
 20
696.4343029577491
 30
0.0
 40
1.840813230556085
100
AcDbArc
 50
288.4480761181352
 51
301.9309089499387
  0
ARC
  5
24C
102
{ACAD_REACTORS
330
2C6
330
2C6
330
2C7
330
2C7
102
}
330
6D
100
AcDbEntity
  8
0
  6
Continuous
 62
     2
100
AcDbCircle
 10
214.1513028069217
 20
695.3983147130907
 30
0.0
 40
0.7487023016406973
100
AcDbArc
 50
246.6277221118268
 51
288.4480761180872
  0
ARC
  5
24D
102
{ACAD_REACTORS
330
2C6
330
2C6
330
2C7
330
2C7
102
}
330
6D
100
AcDbEntity
  8
0
  6
Continuous
 62
     2
100
AcDbCircle
 10
214.3338790262428
 20
695.2686282755936
 30
0.0
 40
0.7777353184587057
100
AcDbArc
 50
151.4785267423692
 51
208.5214732576676
  0
ARC
  5
24E
102
{ACAD_REACTORS
330
2C6
330
2C6
330
2C7
330
2C7
102
}
330
6D
100
AcDbEntity
  8
0
  6
Continuous
 62
     2
100
AcDbCircle
 10
214.1432283981619
 20
695.092691456549
 30
0.0
 40
0.7888619891125472
100
AcDbArc
 50
90.0
 51
109.337143219431
  0
ARC
  5
24F
102
{ACAD_REACTORS
330
2C8
330
2C8
330
2C9
330
2C9
102
}
330
6D
100
AcDbEntity
  8
0
  6
Continuous
 62
     2
100
AcDbCircle
 10
196.6141951644146
 20
698.4567648729467
 30
0.0
 40
0.2609230769224676
100
AcDbArc
 50
90.18896704254102
 51
180.0
  0
ARC
  5
250
102
{ACAD_REACTORS
330
2C8
330
2C8
330
2C9
330
2C9
102
}
330
6D
100
AcDbEntity
  8
0
  6
Continuous
 62
     2
100
AcDbCircle
 10
196.179449132937
 20
697.0396765353644
 30
0.0
 40
0.7535935125160714
100
AcDbArc
 50
295.3740086781789
 51
64.6259913218062
  0
ARC
  5
251
102
{ACAD_REACTORS
330
2C4
330
2C4
330
2C5
330
2C5
102
}
330
6D
100
AcDbEntity
  8
0
  6
Continuous
 62
     2
100
AcDbCircle
 10
200.4976918871574
 20
696.4343029577495
 30
0.0
 40
1.840813230556049
100
AcDbArc
 50
288.4480761181319
 51
301.930908949965
  0
ARC
  5
252
102
{ACAD_REACTORS
330
2C4
330
2C4
330
2C5
330
2C5
102
}
330
6D
100
AcDbEntity
  8
0
  6
Continuous
 62
     2
100
AcDbCircle
 10
200.8432850554722
 20
695.3983147130907
 30
0.0
 40
0.7487023016404041
100
AcDbArc
 50
246.6277221118788
 51
288.4480761181498
  0
ARC
  5
253
102
{ACAD_REACTORS
330
2C4
330
2C4
330
2C5
330
2C5
102
}
330
6D
100
AcDbEntity
  8
0
  6
Continuous
 62
     2
100
AcDbCircle
 10
200.7139957722474
 20
695.0991477554791
 30
0.0
 40
0.4227934381774149
100
AcDbArc
 50
208.5214732576876
 51
246.6277221118362
  0
ARC
  5
254
102
{ACAD_REACTORS
330
2C4
330
2C4
330
2C5
330
2C5
102
}
330
6D
100
AcDbEntity
  8
0
  6
Continuous
 62
     2
100
AcDbCircle
 10
200.8432850554722
 20
695.1389418380965
 30
0.0
 40
0.7487023016407734
100
AcDbArc
 50
71.55192388186123
 51
113.3722778881213
  0
ARC
  5
255
102
{ACAD_REACTORS
330
2C4
330
2C4
330
2C5
330
2C5
102
}
330
6D
100
AcDbEntity
  8
0
  6
Continuous
 62
     2
100
AcDbCircle
 10
200.3672184366675
 20
692.5308754282747
 30
0.0
 40
4.010410630990004
100
AcDbArc
 50
74.02000874164604
 51
84.84185523037421
  0
CIRCLE
  5
256
102
{ACAD_REACTORS
330
2C8
330
2C8
330
2C9
330
2C9
102
}
330
6D
100
AcDbEntity
  8
0
  6
Continuous
 62
     2
100
AcDbCircle
 10
196.159767302629
 20
697.0396765353644
 30
0.0
 40
0.3892387874201972
  0
CIRCLE
  5
257
330
6D
100
AcDbEntity
  8
1
  6
Continuous
 62
     2
100
AcDbCircle
 10
192.0764195637132
 20
703.0317235136824
 30
0.0
 40
1.0
  0
CIRCLE
  5
258
330
6D
100
AcDbEntity
  8
1
  6
Continuous
 62
     2
100
AcDbCircle
 10
192.0764195637132
 20
703.0317235136824
 30
0.0
 40
1.5
  0
MTEXT
  5
25A
330
6D
100
AcDbEntity
  8
1
 62
     2
100
AcDbMText
 10
85.2289642653597
 20
694.5317235136826
 30
0.0
 40
2.0
 41
0.0
 71
     4
 72
     1
  1
 
  7
CONVERTER_12
 73
     1
 44
1.20048019207683
  0
MTEXT
  5
25B
330
6D
100
AcDbEntity
  8
1
 62
     2
100
AcDbMText
 10
85.2289642653597
 20
698.7817235136824
 30
0.0
 40
2.0
 41
0.0
 71
     4
 72
     1
  1
 
  7
CONVERTER_12
 73
     1
 44
1.20048019207683
  0
MTEXT
  5
25C
330
6D
100
AcDbEntity
  8
1
 62
     2
100
AcDbMText
 10
85.2289642653597
 20
703.0317235136824
 30
0.0
 40
2.0
 41
0.0
 71
     4
 72
     1
  1
 
  7
CONVERTER_12
 73
     1
 44
1.20048019207683
  0
MTEXT
  5
25D
330
6D
100
AcDbEntity
  8
1
 62
     2
100
AcDbMText
 10
85.2289642653597
 20
707.2817235136824
 30
0.0
 40
2.0
 41
0.0
 71
     4
 72
     1
  1
 
  7
CONVERTER_12
 73
     1
 44
1.20048019207683
  0
MTEXT
  5
25E
330
6D
100
AcDbEntity
  8
1
 62
     2
100
AcDbMText
 10
85.2289642653597
 20
711.5317235136824
 30
0.0
 40
2.0
 41
0.0
 71
     4
 72
     1
  1
 
  7
CONVERTER_12
 73
     1
 44
1.20048019207683
  0
MTEXT
  5
25F
330
6D
100
AcDbEntity
  8
1
 62
     2
100
AcDbMText
 10
85.2289642653597
 20
715.7817235136824
 30
0.0
 40
2.0
 41
0.0
 71
     4
 72
     1
  1
 
  7
CONVERTER_12
 73
     1
 44
1.20048019207683
  0
MTEXT
  5
260
330
6D
100
AcDbEntity
  8
1
 62
     2
100
AcDbMText
 10
180.2341597386098
 20
694.5317235136826
 30
0.0
 40
2.0
 41
0.0
 71
     5
 72
     1
  1
 
  7
CONVERTER_11
 73
     1
 44
1.20048019207683
  0
MTEXT
  5
261
330
6D
100
AcDbEntity
  8
1
 62
     2
100
AcDbMText
 10
180.2341597386098
 20
698.7817235136824
 30
0.0
 40
2.0
 41
0.0
 71
     5
 72
     1
  1
 
  7
CONVERTER_11
 73
     1
 44
1.20048019207683
  0
MTEXT
  5
262
330
6D
100
AcDbEntity
  8
1
 62
     2
100
AcDbMText
 10
180.2341597386098
 20
703.0317235136824
 30
0.0
 40
2.0
 41
0.0
 71
     5
 72
     1
  1
 
  7
CONVERTER_11
 73
     1
 44
1.20048019207683
  0
MTEXT
  5
263
330
6D
100
AcDbEntity
  8
1
 62
     2
100
AcDbMText
 10
180.2341597386098
 20
707.2817235136824
 30
0.0
 40
2.0
 41
0.0
 71
     5
 72
     1
  1
 
  7
CONVERTER_11
 73
     1
 44
1.20048019207683
  0
MTEXT
  5
264
330
6D
100
AcDbEntity
  8
1
 62
     2
100
AcDbMText
 10
180.2341597386098
 20
711.5317235136824
 30
0.0
 40
2.0
 41
0.0
 71
     5
 72
     1
  1
 
  7
CONVERTER_11
 73
     1
 44
1.20048019207683
  0
MTEXT
  5
265
330
6D
100
AcDbEntity
  8
1
 62
     2
100
AcDbMText
 10
180.2341597386098
 20
715.7817235136824
 30
0.0
 40
2.0
 41
0.0
 71
     5
 72
     1
  1
 
  7
CONVERTER_11
 73
     1
 44
1.20048019207683
  0
MTEXT
  5
266
330
6D
100
AcDbEntity
  8
1
 62
     2
100
AcDbMText
 10
166.7341597386098
 20
694.5317235136826
 30
0.0
 40
2.0
 41
0.0
 71
     5
 72
     1
  1
 
  7
CONVERTER_11
 73
     1
 44
1.20048019207683
  0
MTEXT
  5
267
330
6D
100
AcDbEntity
  8
1
 62
     2
100
AcDbMText
 10
166.73415973861
 20
698.7817235136824
 30
0.0
 40
2.0
 41
0.0
 71
     5
 72
     1
  1
 
  7
CONVERTER_11
 73
     1
 44
1.20048019207683
  0
MTEXT
  5
268
330
6D
100
AcDbEntity
  8
1
 62
     2
100
AcDbMText
 10
166.73415973861
 20
703.0317235136824
 30
0.0
 40
2.0
 41
0.0
 71
     5
 72
     1
  1
 
  7
CONVERTER_11
 73
     1
 44
1.20048019207683
  0
MTEXT
  5
269
330
6D
100
AcDbEntity
  8
1
 62
     2
100
AcDbMText
 10
166.73415973861
 20
707.2817235136824
 30
0.0
 40
2.0
 41
0.0
 71
     5
 72
     1
  1
 
  7
CONVERTER_11
 73
     1
 44
1.20048019207683
  0
MTEXT
  5
26A
330
6D
100
AcDbEntity
  8
1
 62
     2
100
AcDbMText
 10
166.73415973861
 20
711.5317235136824
 30
0.0
 40
2.0
 41
0.0
 71
     5
 72
     1
  1
 
  7
CONVERTER_11
 73
     1
 44
1.20048019207683
  0
MTEXT
  5
26B
330
6D
100
AcDbEntity
  8
1
 62
     2
100
AcDbMText
 10
166.73415973861
 20
715.7817235136824
 30
0.0
 40
2.0
 41
0.0
 71
     5
 72
     1
  1
 
  7
CONVERTER_11
 73
     1
 44
1.20048019207683
  0
MTEXT
  5
26C
330
6D
100
AcDbEntity
  8
1
 62
     2
100
AcDbMText
 10
153.23415973861
 20
715.7817235136824
 30
0.0
 40
2.0
 41
0.0
 71
     5
 72
     1
  1
 
  7
CONVERTER_11
 73
     1
 44
1.20048019207683
  0
MTEXT
  5
26D
330
6D
100
AcDbEntity
  8
1
 62
     2
100
AcDbMText
 10
153.23415973861
 20
711.5317235136824
 30
0.0
 40
2.0
 41
0.0
 71
     5
 72
     1
  1
 
  7
CONVERTER_11
 73
     1
 44
1.20048019207683
  0
MTEXT
  5
26E
330
6D
100
AcDbEntity
  8
1
 62
     2
100
AcDbMText
 10
153.23415973861
 20
707.2817235136824
 30
0.0
 40
2.0
 41
0.0
 71
     5
 72
     1
  1
 
  7
CONVERTER_11
 73
     1
 44
1.20048019207683
  0
MTEXT
  5
26F
330
6D
100
AcDbEntity
  8
1
 62
     2
100
AcDbMText
 10
153.23415973861
 20
703.0317235136824
 30
0.0
 40
2.0
 41
0.0
 71
     5
 72
     1
  1
 
  7
CONVERTER_11
 73
     1
 44
1.20048019207683
  0
MTEXT
  5
270
330
6D
100
AcDbEntity
  8
1
 62
     2
100
AcDbMText
 10
153.23415973861
 20
698.7817235136824
 30
0.0
 40
2.0
 41
0.0
 71
     5
 72
     1
  1
 
  7
CONVERTER_11
 73
     1
 44
1.20048019207683
  0
MTEXT
  5
271
330
6D
100
AcDbEntity
  8
1
 62
     2
100
AcDbMText
 10
153.23415973861
 20
694.5317235136826
 30
0.0
 40
2.0
 41
0.0
 71
     5
 72
     1
  1
 
  7
CONVERTER_11
 73
     1
 44
1.20048019207683
  0
MTEXT
  5
272
330
6D
100
AcDbEntity
  8
1
 62
     2
100
AcDbMText
 10
77.4789642653597
 20
715.7817235136824
 30
0.0
 40
2.0
 41
0.0
 71
     5
 72
     1
  1
 
  7
CONVERTER_11
 73
     1
 44
1.20048019207683
  0
MTEXT
  5
273
330
6D
100
AcDbEntity
  8
1
 62
     2
100
AcDbMText
 10
77.4789642653597
 20
711.5317235136824
 30
0.0
 40
2.0
 41
0.0
 71
     5
 72
     1
  1
 
  7
CONVERTER_11
 73
     1
 44
1.20048019207683
  0
MTEXT
  5
274
330
6D
100
AcDbEntity
  8
1
 62
     2
100
AcDbMText
 10
77.4789642653597
 20
707.2817235136824
 30
0.0
 40
2.0
 41
0.0
 71
     5
 72
     1
  1
 
  7
CONVERTER_11
 73
     1
 44
1.20048019207683
  0
MTEXT
  5
275
330
6D
100
AcDbEntity
  8
1
 62
     2
100
AcDbMText
 10
77.4789642653597
 20
703.0317235136824
 30
0.0
 40
2.0
 41
0.0
 71
     5
 72
     1
  1
 
  7
CONVERTER_11
 73
     1
 44
1.20048019207683
  0
MTEXT
  5
276
330
6D
100
AcDbEntity
  8
1
 62
     2
100
AcDbMText
 10
77.4789642653597
 20
698.7817235136824
 30
0.0
 40
2.0
 41
0.0
 71
     5
 72
     1
  1
 
  7
CONVERTER_11
 73
     1
 44
1.20048019207683
  0
MTEXT
  5
277
330
6D
100
AcDbEntity
  8
1
 62
     2
100
AcDbMText
 10
77.4789642653597
 20
694.5317235136826
 30
0.0
 40
2.0
 41
0.0
 71
     5
 72
     1
  1
 
  7
CONVERTER_11
 73
     1
 44
1.20048019207683
  0
MTEXT
  5
278
330
6D
100
AcDbEntity
  8
1
 62
     2
100
AcDbMText
 10
67.62896426536071
 20
694.5317235136826
 30
0.0
 40
2.0
 41
0.0
 71
     5
 72
     1
  1
 
  7
CONVERTER_11
 73
     1
 44
1.20048019207683
  0
MTEXT
  5
279
330
6D
100
AcDbEntity
  8
1
 62
     2
100
AcDbMText
 10
67.62896426536071
 20
698.7817235136824
 30
0.0
 40
2.0
 41
0.0
 71
     5
 72
     1
  1
 
  7
CONVERTER_11
 73
     1
 44
1.20048019207683
  0
MTEXT
  5
27A
330
6D
100
AcDbEntity
  8
1
 62
     2
100
AcDbMText
 10
67.62896426536071
 20
703.0317235136824
 30
0.0
 40
2.0
 41
0.0
 71
     5
 72
     1
  1
 
  7
CONVERTER_11
 73
     1
 44
1.20048019207683
  0
MTEXT
  5
27B
330
6D
100
AcDbEntity
  8
1
 62
     2
100
AcDbMText
 10
67.62896426536071
 20
707.2817235136824
 30
0.0
 40
2.0
 41
0.0
 71
     5
 72
     1
  1
 
  7
CONVERTER_11
 73
     1
 44
1.20048019207683
  0
MTEXT
  5
27C
330
6D
100
AcDbEntity
  8
1
 62
     2
100
AcDbMText
 10
67.62896426536071
 20
711.5317235136824
 30
0.0
 40
2.0
 41
0.0
 71
     5
 72
     1
  1
 
  7
CONVERTER_11
 73
     1
 44
1.20048019207683
  0
MTEXT
  5
27D
330
6D
100
AcDbEntity
  8
1
 62
     2
100
AcDbMText
 10
67.62896426536071
 20
715.7817235136824
 30
0.0
 40
2.0
 41
0.0
 71
     5
 72
     1
  1
 
  7
CONVERTER_11
 73
     1
 44
1.20048019207683
  0
MTEXT
  5
27E
330
6D
100
AcDbEntity
  8
1
 62
     2
100
AcDbMText
 10
272.5289642653635
 20
704.1567235136824
 30
0.0
 40
1.8
 41
0.0
 71
     1
 72
     1
  1
surface in um
  7
CONVERTER_11
 73
     1
 44
1.32052821128451
  0
MTEXT
  5
27F
330
6D
100
AcDbEntity
  8
1
 62
     2
100
AcDbMText
 10
299.9473725470406
 20
716.9067235136824
 30
0.0
 40
1.8
 41
0.0
 71
     1
 72
     1
  1
dim.var.
  7
CONVERTER_11
 73
     1
 44
1.20048019207683
  0
MTEXT
  5
281
330
6D
100
AcDbEntity
  8
1
 62
     2
100
AcDbMText
 10
254.0289642653639
 20
704.1567235136824
 30
0.0
 40
1.8
 41
0.0
 71
     1
 72
     1
  1
document-No.
  7
CONVERTER_13
 73
     1
 44
1.32052821128451
  0
TEXT
  5
282
330
6D
100
AcDbEntity
  8
1
 62
     2
100
AcDbText
 10
206.1841597386098
 20
689.3977062986909
 30
0.0
 40
1.8
  1
of
 41
0.9
  7
CONVERTER_11
100
AcDbText
  0
TEXT
  5
283
330
6D
100
AcDbEntity
  8
1
 62
     2
100
AcDbText
 10
187.98415973861
 20
689.3977062986908
 30
0.0
 40
1.8
  1
page
 41
0.9
  7
CONVERTER_11
100
AcDbText
  0
MTEXT
  5
284
330
6D
100
AcDbEntity
  8
1
 62
     2
100
AcDbMText
 10
180.2341597386098
 20
689.4067235136824
 30
0.0
 40
1.8
 41
0.0
 71
     8
 72
     1
  1
name
  7
CONVERTER_11
 73
     1
 44
1.32052821128451
  0
MTEXT
  5
285
330
6D
100
AcDbEntity
  8
1
 62
     2
100
AcDbMText
 10
166.73415973861
 20
689.4067235136824
 30
0.0
 40
1.8
 41
0.0
 71
     8
 72
     1
  1
check.on
  7
CONVERTER_11
 73
     1
 44
1.32052821128451
  0
MTEXT
  5
286
330
6D
100
AcDbEntity
  8
1
 62
     2
100
AcDbMText
 10
153.23415973861
 20
689.4067235136824
 30
0.0
 40
1.8
 41
0.0
 71
     8
 72
     1
  1
name
  7
CONVERTER_11
 73
     1
 44
1.32052821128451
  0
MTEXT
  5
287
330
6D
100
AcDbEntity
  8
1
 62
     2
100
AcDbMText
 10
77.4789642653597
 20
689.4067235136824
 30
0.0
 40
1.8
 41
0.0
 71
     8
 72
     1
  1
date
  7
CONVERTER_11
 73
     1
 44
1.32052821128451
  0
MTEXT
  5
288
330
6D
100
AcDbEntity
  8
1
 62
     2
100
AcDbMText
 10
247.5093488962014
 20
716.9067235136822
 30
0.0
 40
1.8
 41
0.0
 71
     1
 72
     1
  1
material
  7
CONVERTER_11
 73
     1
 44
1.20048019207683
  0
MTEXT
  5
289
330
6D
100
AcDbEntity
  8
1
 62
     2
100
AcDbMText
 10
67.62896426536071
 20
689.4067235136824
 30
0.0
 40
1.8
 41
0.0
 71
     8
 72
     1
  1
RI
  7
CONVERTER_11
 73
     1
 44
1.32052821128451
  0
MTEXT
  5
28A
330
6D
100
AcDbEntity
  8
1
 62
     2
100
AcDbMText
 10
203.1341597386098
 20
714.8567235136825
 30
0.0
 40
1.8
 41
0.0
 71
     8
 72
     1
  1
date
  7
CONVERTER_11
 73
     1
 44
1.32052821128451
  0
MTEXT
  5
28B
330
6D
100
AcDbEntity
  8
1
 62
     2
100
AcDbMText
 10
216.6341597386098
 20
714.8567235136825
 30
0.0
 40
1.8
 41
0.0
 71
     8
 72
     1
  1
name
  7
CONVERTER_11
 73
     1
 44
1.32052821128451
  0
MTEXT
  5
28C
330
6D
100
AcDbEntity
  8
1
 62
     2
100
AcDbMText
 10
115.3565620019848
 20
689.4067235136824
 30
0.0
 40
1.8
 41
0.0
 71
     8
 72
     1
  1
revision
  7
CONVERTER_11
 73
     1
 44
1.32052821128451
  0
MTEXT
  5
28D
330
6D
100
AcDbEntity
  8
1
 62
     2
100
AcDbMText
 10
290.8289642653617
 20
716.9067235136824
 30
0.0
 40
1.8
 41
0.0
 71
     1
 72
     1
  1
scale
  7
CONVERTER_11
 73
     1
 44
1.20048019207683
  0
MTEXT
  5
28E
330
6D
100
AcDbEntity
  8
1
 62
     2
100
AcDbMText
 10
191.6841597386099
 20
711.5317235136824
 30
0.0
 40
1.8
 41
0.0
 71
     5
 72
     1
  1
creat.
  7
CONVERTER_11
 73
     1
 44
1.20048019207683
  0
MTEXT
  5
28F
330
6D
100
AcDbEntity
  8
1
 62
     2
100
AcDbMText
 10
191.6841597386099
 20
707.2817235136824
 30
0.0
 40
1.8
 41
0.0
 71
     5
 72
     1
  1
check.
  7
CONVERTER_11
 73
     1
 44
1.20048019207683
  0
MTEXT
  5
290
330
6D
100
AcDbEntity
  8
1
 62
     3
100
AcDbMText
 10
213.1841597386098
 20
703.0317235136826
 30
0.0
 40
2.5
 41
0.0
 71
     5
 72
     1
  1
DIN A3
  7
CONVERTER_11
 73
     1
 44
1.20048019207683
  0
MTEXT
  5
291
330
6D
100
AcDbEntity
  8
1
 62
     2
100
AcDbMText
 10
224.4841597386098
 20
716.9067235136824
 30
0.0
 40
1.8
 41
0.0
 71
     1
 72
     1
  1
ident.-No. / RI
  7
CONVERTER_11
 73
     1
 44
1.20048019207683
  0
TEXT
  5
292
330
6D
100
AcDbEntity
  8
1
 62
     2
100
AcDbText
 10
196.630424708952
 20
689.3574748598805
 30
0.0
 40
1.8
  1
 
 41
0.9
  7
CONVERTER_11
100
AcDbText
  0
TEXT
  5
293
330
6D
100
AcDbEntity
  8
1
 62
     2
100
AcDbText
 10
211.4194685484235
 20
689.4067235136824
 30
0.0
 40
1.8
  1
1
 41
0.9
  7
CONVERTER_11
100
AcDbText
  0
MTEXT
  5
294
330
6D
100
AcDbEntity
  8
1
 62
     2
100
AcDbMText
 10
224.3841597386098
 20
695.6567235136824
 30
0.0
 40
1.8
 41
0.0
 71
     1
 72
     1
  1
description
  7
CONVERTER_11
 73
     1
 44
1.20048019207683
  0
MTEXT
  5
295
330
6D
100
AcDbEntity
  8
1
 62
     2
100
AcDbMText
 10
191.6841597386099
 20
714.8567235136825
 30
0.0
 40
1.8
 41
0.0
 71
     8
 72
     1
  1
00
  7
CONVERTER_11
 73
     1
 44
1.20048019207683
  0
MTEXT
  5
296
330
6D
100
AcDbEntity
  8
1
 62
     2
100
AcDbMText
 10
224.3841597386098
 20
704.1567235136824
 30
0.0
 40
1.8
 41
0.0
 71
     1
 72
     1
  1
document-type
  7
CONVERTER_11
 73
     1
 44
1.20048019207683
  0
MTEXT
  5
297
330
6D
100
AcDbEntity
  8
1
 62
     2
100
AcDbMText
 10
216.6341597386098
 20
707.2817235136824
 30
0.0
 40
1.8
 41
0.0
 71
     5
 72
     1
  1
pbam06
  7
CONVERTER_11
 73
     1
 44
1.32052821128451
  0
MTEXT
  5
298
330
6D
100
AcDbEntity
  8
1
 62
     2
100
AcDbMText
 10
216.6341597386098
 20
711.5317235136824
 30
0.0
 40
1.8
 41
0.0
 71
     5
 72
     1
  1
pbfm09
  7
CONVERTER_11
 73
     1
 44
1.32052821128451
  0
MTEXT
  5
299
330
6D
100
AcDbEntity
  8
1
 62
     2
100
AcDbMText
 10
203.1341597386098
 20
707.2817235136824
 30
0.0
 40
1.8
 41
0.0
 71
     5
 72
     1
  1
09.05.12
  7
CONVERTER_11
 73
     1
 44
1.32052821128451
  0
MTEXT
  5
29A
330
6D
100
AcDbEntity
  8
1
 62
     2
100
AcDbMText
 10
203.1341597386098
 20
711.5317235136824
 30
0.0
 40
1.8
 41
0.0
 71
     5
 72
     1
  1
28.03.12
  7
CONVERTER_11
 73
     1
 44
1.32052821128451
  0
TEXT
  5
29B
330
6D
100
AcDbEntity
  8
1
 62
     7
100
AcDbText
 10
239.3577074606237
 20
710.7067235136824
 30
0.0
 40
2.5
  1
/
 41
0.9
  7
CONVERTER_11
100
AcDbText
  0
MTEXT
  5
29D
330
6D
100
AcDbEntity
  8
1
 62
     3
100
AcDbMText
 10
294.1881684062013
 20
710.7067235136825
 30
0.0
 40
2.5
 41
0.0
 71
     8
 72
     1
  1
1:2
  7
CONVERTER_14
 73
     1
 44
1.32052821128451
  0
TEXT
  5
29F
330
6D
100
AcDbEntity
  8
1
 62
     3
100
AcDbText
 10
247.2841597386098
 20
710.7067235136824
 30
0.0
 40
2.5
  1
 
 41
0.54
  7
CONVERTER_15
100
AcDbText
  0
TEXT
  5
2A1
330
6D
100
AcDbEntity
  8
1
 62
     7
100
AcDbText
 10
224.8841597386096
 20
710.7067235136824
 30
0.0
 40
2.5
  1
3240205
 41
0.81
  7
CONVERTER_16
100
AcDbText
  0
TEXT
  5
2A2
330
6D
100
AcDbEntity
  8
1
 62
     7
100
AcDbText
 10
254.0289642653639
 20
697.9567235136824
 30
0.0
 40
2.5
  1
00653490
 41
0.81
  7
CONVERTER_16
100
AcDbText
  0
TEXT
  5
2A3
330
6D
100
AcDbEntity
  8
1
 62
     3
100
AcDbText
 10
299.6473725470407
 20
710.7067235136824
 30
0.0
 40
2.5
  1
 
 41
0.54
  7
CONVERTER_15
100
AcDbText
  0
TEXT
  5
2A4
330
6D
100
AcDbEntity
  8
1
 62
     7
100
AcDbText
 10
241.5140719576656
 20
710.7067235136824
 30
0.0
 40
2.5
  1
03
 41
0.81
  7
CONVERTER_16
100
AcDbText
  0
TEXT
  5
2A5
330
6D
100
AcDbEntity
  8
1
 62
     7
100
AcDbText
 10
281.1956309320282
 20
684.156723513683
 30
0.0
 40
2.5
  1
6
 41
0.9
  7
CONVERTER_11
100
AcDbText
  0
TEXT
  5
2A6
330
6D
100
AcDbEntity
  8
1
 62
     7
100
AcDbText
 10
212.8622975986949
 20
684.156723513683
 30
0.0
 40
2.5
  1
5
 41
0.9
  7
CONVERTER_11
100
AcDbText
  0
TEXT
  5
2A7
330
6D
100
AcDbEntity
  8
1
 62
     7
100
AcDbText
 10
144.5289642653617
 20
684.156723513683
 30
0.0
 40
2.5
  1
4
 41
0.9
  7
CONVERTER_11
100
AcDbText
  0
TEXT
  5
2A8
330
6D
100
AcDbEntity
  8
1
 62
     7
100
AcDbText
 10
76.19563093202845
 20
684.156723513683
 30
0.0
 40
2.5
  1
3
 41
0.9
  7
CONVERTER_11
100
AcDbText
  0
TEXT
  5
2A9
330
6D
100
AcDbEntity
  8
1
 62
     7
100
AcDbText
 10
317.5289642653616
 20
715.656723513683
 30
0.0
 40
2.5
  1
E
 41
0.9
  7
CONVERTER_11
100
AcDbText
  0
TEXT
  5
2AA
330
6D
100
AcDbEntity
  8
1
 62
     7
100
AcDbText
 10
-60.47103573463815
 20
684.156723513683
 30
0.0
 40
2.5
  1
1
 41
0.9
  7
CONVERTER_11
100
AcDbText
  0
TEXT
  5
2AB
330
6D
100
AcDbEntity
  8
1
 62
     7
100
AcDbText
 10
7.86229759869502
 20
684.156723513683
 30
0.0
 40
2.5
  1
2
 41
0.9
  7
CONVERTER_11
100
AcDbText
  0
TEXT
  5
2AC
330
6D
100
AcDbEntity
  8
1
 62
     7
100
AcDbText
 10
317.5289642653616
 20
773.0567235136831
 30
0.0
 40
2.5
  1
D
 41
0.9
  7
CONVERTER_11
100
AcDbText
  0
TEXT
  5
2AD
330
6D
100
AcDbEntity
  8
1
 62
     7
100
AcDbText
 10
317.5289642653616
 20
830.4567235136832
 30
0.0
 40
2.5
  1
C
 41
0.9
  7
CONVERTER_11
100
AcDbText
  0
TEXT
  5
2AE
330
6D
100
AcDbEntity
  8
1
 62
     7
100
AcDbText
 10
317.5289642653616
 20
887.856723513683
 30
0.0
 40
2.5
  1
B
 41
0.9
  7
CONVERTER_11
100
AcDbText
  0
TEXT
  5
2AF
330
6D
100
AcDbEntity
  8
1
 62
     7
100
AcDbText
 10
317.5289642653616
 20
945.2567235136829
 30
0.0
 40
2.5
  1
A
 41
0.9
  7
CONVERTER_11
100
AcDbText
  0
TEXT
  5
2B0
330
6D
100
AcDbEntity
  8
1
 62
     7
100
AcDbText
 10
281.1956309320282
 20
976.1567235136832
 30
0.0
 40
2.5
  1
6
 41
0.9
  7
CONVERTER_11
100
AcDbText
  0
TEXT
  5
2B1
330
6D
100
AcDbEntity
  8
1
 62
     7
100
AcDbText
 10
212.862297598695
 20
976.1567235136832
 30
0.0
 40
2.5
  1
5
 41
0.9
  7
CONVERTER_11
100
AcDbText
  0
TEXT
  5
2B2
330
6D
100
AcDbEntity
  8
1
 62
     7
100
AcDbText
 10
144.5289642653617
 20
976.1567235136832
 30
0.0
 40
2.5
  1
4
 41
0.9
  7
CONVERTER_11
100
AcDbText
  0
TEXT
  5
2B3
330
6D
100
AcDbEntity
  8
1
 62
     7
100
AcDbText
 10
76.19563093202845
 20
976.1567235136832
 30
0.0
 40
2.5
  1
3
 41
0.9
  7
CONVERTER_11
100
AcDbText
  0
TEXT
  5
2B4
330
6D
100
AcDbEntity
  8
1
 62
     7
100
AcDbText
 10
7.86229759869502
 20
976.1567235136832
 30
0.0
 40
2.5
  1
2
 41
0.9
  7
CONVERTER_11
100
AcDbText
  0
TEXT
  5
2B5
330
6D
100
AcDbEntity
  8
1
 62
     7
100
AcDbText
 10
-60.47103573463815
 20
976.1567235136832
 30
0.0
 40
2.5
  1
1
 41
0.9
  7
CONVERTER_11
100
AcDbText
  0
MTEXT
  5
2B6
330
6D
100
AcDbEntity
  8
1
 62
     3
100
AcDbMText
 10
-80.04836242328514
 20
688.1836376131836
 30
0.0
 40
1.8
 41
0.0
 71
     7
 72
     1
  3
Weitergabe sowie Vervielf\U+00e4ltigung dieses Dokuments, Verwertung und\PMitteilung seines Inhalts gem\U+00e4\U+00df \U+00a718 UWG verboten, soweit nicht aus-\Pdr\U+00fccklich gestattet. Zuwiderhandlungen verpflichten zu Schadenersatz\P(\U+00a719 U
  1
WG). Alle Rechte vorbehalten, insbesondere das Recht, Patent-,\PGebrauchsmuster- oder Geschmacksmusteranmeldungen durchzuf\U+00fchren.\PPhoenix Contact GmbH & Co. KG
  7
CONVERTER_11
 11
6.123233764940082E-17
 21
1.0
 31
0.0
 73
     1
 44
0.99639855942377
  0
MTEXT
  5
2B7
330
6D
100
AcDbEntity
  8
1
 62
     3
100
AcDbMText
 10
-80.20256873437916
 20
861.1430076273367
 30
0.0
 40
1.8
 41
0.0
 71
     7
 72
     1
  3
The copying, distribution and utilistion of this document as well as the communication\Pof the contents to others without expressed authorization is prohibited according to\P\U+00a718 UWG German Law. Offenders will be held liable for the payment of 
  1
damages\Paccording to (\U+00a719 UWG German Law). All rights reserved, in particular the right to\Pcarry out patent, utility model or ornamental design registrations.\PFlachsmarktstra\U+00dfe 8  D-32825 Blomberg
  7
CONVERTER_11
 11
6.123233764940082E-17
 21
1.0
 31
0.0
 73
     1
 44
0.99639855942377
  0
TEXT
  5
2B8
330
6D
100
AcDbEntity
  8
1
 62
     3
100
AcDbText
 10
224.4841597386115
 20
727.2014950872873
 30
0.0
 40
2.5
  1
 
 41
0.72
  7
CONVERTER_14
100
AcDbText
  0
TEXT
  5
2B9
330
6D
100
AcDbEntity
  8
1
 62
     3
100
AcDbText
 10
224.4841597386115
 20
723.7014950872873
 30
0.0
 40
2.5
  1
 
 41
0.72
  7
CONVERTER_14
100
AcDbText
  0
TEXT
  5
2BA
330
6D
100
AcDbEntity
  8
1
 62
     3
100
AcDbText
 10
224.4841597386115
 20
720.2014950872873
 30
0.0
 40
2.5
  1
 
 41
0.72
  7
CONVERTER_14
100
AcDbText
  0
TEXT
  5
2BC
330
6D
100
AcDbEntity
  8
1
 62
     3
100
AcDbText
 10
224.3841597386098
 20
697.9567235136824
 30
0.0
 40
2.5
  1
KUNDENZCHNG-SELECT
 41
0.45
  7
CONVERTER_17
100
AcDbText
  0
MTEXT
  5
2BD
330
6D
100
AcDbEntity
  8
1
 62
     3
100
AcDbMText
 10
264.2359841519702
 20
708.5067235136825
 30
0.0
 40
2.0
 41
0.0
 71
     1
 72
     1
  1
Deckelgeom. geaendert
  7
CONVERTER_14
 73
     1
 44
1.20048019207683
  0
MTEXT
  5
2BF
330
6D
100
AcDbEntity
  8
1
 62
     3
100
AcDbMText
 10
233.7163965567248
 20
707.2817235136824
 30
0.0
 40
2.5
 41
0.0
 71
     4
 72
     1
  1
A03-10025/17
  7
CONVERTER_18
 73
     1
 44
1.20048019207683
  0
MTEXT
  5
2C0
330
6D
100
AcDbEntity
  8
1
 62
     2
100
AcDbMText
 10
224.4841597386098
 20
707.4817235136824
 30
0.0
 40
1.4
 41
0.0
 71
     4
 72
     1
  1
SAP\Pchange-No.
  7
CONVERTER_18
 73
     1
 44
0.66026410564226
  0
MTEXT
  5
2C1
330
6D
100
AcDbEntity
  8
1
 62
     2
100
AcDbMText
 10
254.0289642653622
 20
708.4067235136824
 30
0.0
 40
1.8
 41
0.0
 71
     1
 72
     1
  1
part-rev.
  7
CONVERTER_14
 73
     1
 44
1.20048019207683
  0
TEXT
  5
2C2
330
6D
100
AcDbEntity
  8
1
 62
     3
100
AcDbText
 10
272.5289642653618
 20
697.9567235136824
 30
0.0
 40
2.5
  1
 
 41
0.54
  7
CONVERTER_15
100
AcDbText
  0
MTEXT
  5
2C3
330
6D
100
AcDbEntity
  8
1
 62
     7
100
AcDbMText
 10
269.9565620019853
 20
691.4067235136827
 30
0.0
 40
3.0
 41
0.0
 71
     5
 72
     1
  1
CD 100X100
  7
CONVERTER_16
 73
     1
 44
1.20048019207683
  0
HATCH
  5
2C4
330
6D
100
AcDbEntity
  8
1
  6
Continuous
 62
     2
100
AcDbHatch
 10
0.0
 20
0.0
 30
0.0
210
0.0
220
0.0
230
1.0
  2
_USER
 70
     0
 71
     1
 91
        1
 92
        1
 93
       14
 72
     2
 10
200.2595558344139
 20
695.2686282755936
 40
0.996410056521489
 50
164.9381082228868
 51
195.0618917771006
 73
     1
 72
     2
 10
200.6059424819038
 20
695.3618434508289
 40
1.355119937140075
 50
195.06189177709
 51
275.1581447696416
 73
     1
 72
     2
 10
200.3672184366675
 20
698.0063811229129
 40
4.010410630990205
 50
275.1581447696258
 51
285.9799912583536
 73
     1
 72
     1
 10
201.4712910954426
 20
694.1509412007634
 11
201.4712910954426
 21
694.8720296361381
 72
     2
 10
200.4976918871574
 20
696.4343029577495
 40
1.840813230556049
 50
58.06909105003501
 51
71.55192388186815
 73
     0
 72
     2
 10
200.8432850554722
 20
695.3983147130907
 40
0.7487023016404041
 50
71.55192388185023
 51
113.3722778881212
 73
     0
 72
     2
 10
200.7139957722474
 20
695.0991477554791
 40
0.4227934381774149
 50
113.3722778881638
 51
151.4785267423124
 73
     0
 72
     2
 10
201.0258612747932
 20
695.2686282755936
 40
0.7777353184572247
 50
151.4785267422938
 51
208.5214732577283
 73
     0
 72
     2
 10
200.7139957722474
 20
695.4381087957084
 40
0.42279343817763
 50
208.5214732577011
 51
246.6277221118179
 73
     0
 72
     2
 10
200.8432850554722
 20
695.1389418380965
 40
0.7487023016407734
 50
246.6277221118788
 51
288.4480761181388
 73
     0
 72
     2
 10
200.4976918871574
 20
694.1029535934381
 40
1.840813230556644
 50
288.4480761181319
 51
301.930908949965
 73
     0
 72
     1
 10
201.4712910954426
 20
695.6652269150495
 11
201.4712910954426
 21
696.3863153504241
 72
     2
 10
200.3672184366675
 20
692.5308754282747
 40
4.010410630990004
 50
74.02000874164604
 51
84.84185523037421
 73
     1
 72
     2
 10
200.6059424819038
 20
695.1754131003581
 40
1.355119937140984
 50
84.84185523036052
 51
164.9381082228915
 73
     1
 97
       14
330
255
330
D1
330
224
330
254
330
225
330
226
330
253
330
252
330
251
330
D2
330
227
330
228
330
229
330
22A
 75
     1
 76
     0
 52
45.0
 41
0.1
 77
     0
 78
     1
 53
45.0
 43
0.0
 44
0.0
 45
-0.0707106781186548
 46
0.0707106781186548
 79
     0
 98
        1
 10
0.0
 20
0.0
  0
HATCH
  5
2C5
330
6D
100
AcDbEntity
  8
1
  6
Continuous
 62
     2
100
AcDbHatch
 10
0.0
 20
0.0
 30
0.0
210
0.0
220
0.0
230
1.0
  2
_USER
 70
     0
 71
     1
 91
        1
 92
        1
 93
       14
 72
     2
 10
200.2595558344139
 20
695.2686282755936
 40
0.996410056521489
 50
164.9381082228868
 51
195.0618917771006
 73
     1
 72
     2
 10
200.6059424819038
 20
695.3618434508289
 40
1.355119937140075
 50
195.06189177709
 51
275.1581447696416
 73
     1
 72
     2
 10
200.3672184366675
 20
698.0063811229129
 40
4.010410630990205
 50
275.1581447696258
 51
285.9799912583536
 73
     1
 72
     1
 10
201.4712910954426
 20
694.1509412007634
 11
201.4712910954426
 21
694.8720296361381
 72
     2
 10
200.4976918871574
 20
696.4343029577495
 40
1.840813230556049
 50
58.06909105003501
 51
71.55192388186815
 73
     0
 72
     2
 10
200.8432850554722
 20
695.3983147130907
 40
0.7487023016404041
 50
71.55192388185023
 51
113.3722778881212
 73
     0
 72
     2
 10
200.7139957722474
 20
695.0991477554791
 40
0.4227934381774149
 50
113.3722778881638
 51
151.4785267423124
 73
     0
 72
     2
 10
201.0258612747932
 20
695.2686282755936
 40
0.7777353184572247
 50
151.4785267422938
 51
208.5214732577283
 73
     0
 72
     2
 10
200.7139957722474
 20
695.4381087957084
 40
0.42279343817763
 50
208.5214732577011
 51
246.6277221118179
 73
     0
 72
     2
 10
200.8432850554722
 20
695.1389418380965
 40
0.7487023016407734
 50
246.6277221118788
 51
288.4480761181388
 73
     0
 72
     2
 10
200.4976918871574
 20
694.1029535934381
 40
1.840813230556644
 50
288.4480761181319
 51
301.930908949965
 73
     0
 72
     1
 10
201.4712910954426
 20
695.6652269150495
 11
201.4712910954426
 21
696.3863153504241
 72
     2
 10
200.3672184366675
 20
692.5308754282747
 40
4.010410630990004
 50
74.02000874164604
 51
84.84185523037421
 73
     1
 72
     2
 10
200.6059424819038
 20
695.1754131003581
 40
1.355119937140984
 50
84.84185523036052
 51
164.9381082228915
 73
     1
 97
       14
330
255
330
D1
330
224
330
254
330
225
330
226
330
253
330
252
330
251
330
D2
330
227
330
228
330
229
330
22A
 75
     1
 76
     0
 52
45.0
 41
0.1
 77
     0
 78
     1
 53
45.0
 43
0.0
 44
0.0
 45
-0.0707106781186548
 46
0.0707106781186548
 79
     0
 98
        1
 10
0.0
 20
0.0
  0
HATCH
  5
2C6
330
6D
100
AcDbEntity
  8
1
  6
Continuous
 62
     2
100
AcDbHatch
 10
0.0
 20
0.0
 30
0.0
210
0.0
220
0.0
230
1.0
  2
_USER
 70
     0
 71
     1
 91
        1
 92
        1
 93
       18
 72
     2
 10
213.9139602333524
 20
695.1754131003581
 40
1.355119937140671
 50
90.0
 51
164.9381082228983
 73
     1
 72
     2
 10
213.5675735858634
 20
695.2686282755936
 40
0.996410056522971
 50
164.9381082229097
 51
195.0618917771029
 73
     1
 72
     2
 10
213.9139602333524
 20
695.3618434508289
 40
1.355119937140797
 50
195.0618917771017
 51
275.1581447696818
 73
     1
 72
     2
 10
213.6752361881162
 20
698.0063811229129
 40
4.01041063099074
 50
275.1581447696381
 51
285.979991258338
 73
     1
 72
     1
 10
214.7793088468903
 20
694.150941200763
 11
214.7793088468903
 21
694.8720296361377
 72
     2
 10
213.8057096386061
 20
696.4343029577491
 40
1.840813230556085
 50
58.06909105006132
 51
71.5519238818648
 73
     0
 72
     2
 10
214.1513028069217
 20
695.3983147130907
 40
0.7487023016406973
 50
71.55192388191283
 51
113.3722778881732
 73
     0
 72
     2
 10
214.0220135236961
 20
695.0991477554791
 40
0.422793438178531
 50
113.3722778881567
 51
151.4785267423244
 73
     0
 72
     2
 10
214.3338790262428
 20
695.2686282755936
 40
0.7777353184587057
 50
151.4785267423324
 51
208.5214732576308
 73
     0
 72
     2
 10
214.0220135236961
 20
695.4381087957084
 40
0.4227934381773382
 50
208.5214732575808
 51
250.6628567805071
 73
     0
 72
     2
 10
214.1432283981619
 20
695.092691456549
 40
0.7888619891125472
 50
250.6628567805689
 51
270.0
 73
     0
 72
     1
 10
214.1432283981619
 20
695.8815534456616
 11
215.0553269928464
 21
695.8815534456616
 72
     1
 10
215.0553269928464
 20
695.8815534456616
 11
215.0553269928464
 21
694.0067235136884
 72
     1
 10
215.0553269928464
 20
694.0067235136884
 11
216.0411060855469
 21
694.0067235136884
 72
     1
 10
216.0411060855469
 20
694.0067235136884
 11
216.0411060855469
 21
695.8815534456616
 72
     1
 10
216.0411060855469
 20
695.8815534456616
 11
216.7114358685827
 21
695.8815534456616
 72
     1
 10
216.7114358685827
 20
695.8815534456616
 11
216.7114358685827
 21
696.5305330374993
 72
     1
 10
216.7114358685827
 20
696.5305330374993
 11
213.9139602333524
 21
696.5305330374988
 97
       18
330
137
330
136
330
135
330
134
330
139
330
D3
330
24E
330
22F
330
24D
330
230
330
24C
330
24B
330
D4
330
24A
330
249
330
231
330
232
330
138
 75
     1
 76
     0
 52
45.0
 41
0.1
 77
     0
 78
     1
 53
45.0
 43
0.0
 44
0.0
 45
-0.0707106781186548
 46
0.0707106781186548
 79
     0
 98
        1
 10
0.0
 20
0.0
  0
HATCH
  5
2C7
330
6D
100
AcDbEntity
  8
1
  6
Continuous
 62
     2
100
AcDbHatch
 10
0.0
 20
0.0
 30
0.0
210
0.0
220
0.0
230
1.0
  2
_USER
 70
     0
 71
     1
 91
        1
 92
        1
 93
       18
 72
     2
 10
213.9139602333524
 20
695.1754131003581
 40
1.355119937140671
 50
90.0
 51
164.9381082228983
 73
     1
 72
     2
 10
213.5675735858634
 20
695.2686282755936
 40
0.996410056522971
 50
164.9381082229097
 51
195.0618917771029
 73
     1
 72
     2
 10
213.9139602333524
 20
695.3618434508289
 40
1.355119937140797
 50
195.0618917771017
 51
275.1581447696818
 73
     1
 72
     2
 10
213.6752361881162
 20
698.0063811229129
 40
4.01041063099074
 50
275.1581447696381
 51
285.979991258338
 73
     1
 72
     1
 10
214.7793088468903
 20
694.150941200763
 11
214.7793088468903
 21
694.8720296361377
 72
     2
 10
213.8057096386061
 20
696.4343029577491
 40
1.840813230556085
 50
58.06909105006132
 51
71.5519238818648
 73
     0
 72
     2
 10
214.1513028069217
 20
695.3983147130907
 40
0.7487023016406973
 50
71.55192388191283
 51
113.3722778881732
 73
     0
 72
     2
 10
214.0220135236961
 20
695.0991477554791
 40
0.422793438178531
 50
113.3722778881567
 51
151.4785267423244
 73
     0
 72
     2
 10
214.3338790262428
 20
695.2686282755936
 40
0.7777353184587057
 50
151.4785267423324
 51
208.5214732576308
 73
     0
 72
     2
 10
214.0220135236961
 20
695.4381087957084
 40
0.4227934381773382
 50
208.5214732575808
 51
250.6628567805071
 73
     0
 72
     2
 10
214.1432283981619
 20
695.092691456549
 40
0.7888619891125472
 50
250.6628567805689
 51
270.0
 73
     0
 72
     1
 10
214.1432283981619
 20
695.8815534456616
 11
215.0553269928464
 21
695.8815534456616
 72
     1
 10
215.0553269928464
 20
695.8815534456616
 11
215.0553269928464
 21
694.0067235136884
 72
     1
 10
215.0553269928464
 20
694.0067235136884
 11
216.0411060855469
 21
694.0067235136884
 72
     1
 10
216.0411060855469
 20
694.0067235136884
 11
216.0411060855469
 21
695.8815534456616
 72
     1
 10
216.0411060855469
 20
695.8815534456616
 11
216.7114358685827
 21
695.8815534456616
 72
     1
 10
216.7114358685827
 20
695.8815534456616
 11
216.7114358685827
 21
696.5305330374993
 72
     1
 10
216.7114358685827
 20
696.5305330374993
 11
213.9139602333524
 21
696.5305330374988
 97
       18
330
137
330
136
330
135
330
134
330
139
330
D3
330
24E
330
22F
330
24D
330
230
330
24C
330
24B
330
D4
330
24A
330
249
330
231
330
232
330
138
 75
     1
 76
     0
 52
45.0
 41
0.1
 77
     0
 78
     1
 53
45.0
 43
0.0
 44
0.0
 45
-0.0707106781186548
 46
0.0707106781186548
 79
     0
 98
        1
 10
0.0
 20
0.0
  0
HATCH
  5
2C8
330
6D
100
AcDbEntity
  8
1
  6
Continuous
 62
     2
100
AcDbHatch
 10
0.0
 20
0.0
 30
0.0
210
0.0
220
0.0
230
1.0
  2
_USER
 70
     0
 71
     1
 91
        4
 92
        1
 93
        8
 72
     2
 10
193.9948204840193
 20
698.9561081290467
 40
0.3506153846146844
 50
90.0
 51
180.0
 73
     1
 72
     1
 10
193.6442050994054
 20
698.9561081290467
 11
193.6442050994054
 21
694.3573388983027
 72
     2
 10
193.9948204840193
 20
694.3573388983027
 40
0.3506153846138886
 50
180.0
 51
270.0
 73
     1
 72
     1
 10
193.9948204840193
 20
694.0067235136884
 11
198.5182189060994
 21
694.0067235136884
 72
     2
 10
198.5182189060994
 20
694.3573388983027
 40
0.3506153846143434
 50
270.0
 51
360.0
 73
     1
 72
     1
 10
198.8688342907142
 20
694.3573388983027
 11
198.8688342907142
 21
698.9561081290467
 72
     2
 10
198.5182189060994
 20
698.9561081290467
 40
0.3506153846147981
 50
0.0
 51
90.0
 73
     1
 72
     1
 10
198.5182189060994
 20
699.3067235136614
 11
193.9948204840193
 21
699.3067235136614
 97
        8
330
242
330
102
330
241
330
103
330
238
330
100
330
243
330
101
 92
       16
 93
        1
 72
     2
 10
196.159767302629
 20
697.0396765353644
 40
0.3892387874201972
 50
0.0
 51
360.0
 73
     1
 97
        1
330
256
 92
       16
 93
        8
 72
     2
 10
196.179449132937
 20
697.0396765353644
 40
0.7535935125160714
 50
295.3740086781789
 51
424.6259913218062
 73
     1
 72
     2
 10
196.6141951644146
 20
697.956322485751
 40
0.2609230769230066
 50
115.3740086783514
 51
180.0
 73
     0
 72
     1
 10
196.3532720874916
 20
697.956322485751
 11
196.3532720874916
 21
698.4567648729467
 72
     2
 10
196.6141951644146
 20
698.4567648729467
 40
0.2609230769224676
 50
180.0
 51
269.811032957459
 73
     0
 72
     2
 10
196.6188365985551
 20
697.0494632633855
 40
1.668232340440728
 50
269.8110329575872
 51
450.1889670424127
 73
     0
 72
     2
 10
196.6141951644146
 20
695.6421616538244
 40
0.2609230769230066
 50
90.18896704254102
 51
180.0
 73
     0
 72
     1
 10
196.3532720874916
 20
695.6421616538244
 11
196.3532720874916
 21
696.1230305849773
 72
     2
 10
196.6141951644146
 20
696.1230305849773
 40
0.2609230769227379
 50
180.0
 51
244.6259913216486
 73
     0
 97
        8
330
250
330
22C
330
13B
330
24F
330
22D
330
22E
330
13A
330
22B
 92
       16
 93
       12
 72
     1
 10
194.4856425309174
 20
694.5956124025785
 11
195.7053394408425
 21
694.5956124025785
 72
     2
 10
195.7053394408425
 20
694.8565354795013
 40
0.2609230769228361
 50
270.0
 51
360.0
 73
     1
 72
     1
 10
195.9662625177654
 20
694.8565354795013
 11
195.9662625177654
 21
696.1216354229159
 72
     2
 10
195.7053394408425
 20
696.1216354229159
 40
0.260923076922893
 50
0.0
 51
64.80558935142466
 73
     1
 72
     2
 10
196.137227414045
 20
697.0396765353644
 40
0.7536343169898218
 50
115.1944106485057
 51
244.8055893514833
 73
     0
 72
     2
 10
195.7053394408425
 20
697.9577176478125
 40
0.2609230769223921
 50
295.1944106485753
 51
360.0
 73
     1
 72
     1
 10
195.9662625177654
 20
697.9577176478125
 11
195.9662625177654
 21
698.4569115478625
 72
     2
 10
195.7053394408425
 20
698.4569115478625
 40
0.260923076922893
 50
0.0
 51
90.0
 73
     1
 72
     1
 10
195.7053394408425
 20
698.717834624785
 11
194.4856425309174
 21
698.717834624785
 72
     2
 10
194.4856425309174
 20
698.4569115478625
 40
0.2609230769224951
 50
90.0
 51
180.0
 73
     1
 72
     1
 10
194.2247194539953
 20
698.4569115478625
 11
194.2247194539953
 21
694.8565354795013
 72
     2
 10
194.4856425309174
 20
694.8565354795013
 40
0.2609230769220972
 50
180.0
 51
270.0
 73
     1
 97
       12
330
107
330
235
330
106
330
246
330
105
330
245
330
236
330
237
330
104
330
244
330
FF
330
247
 75
     1
 76
     0
 52
45.0
 41
0.1
 77
     0
 78
     1
 53
45.0
 43
0.0
 44
0.0
 45
-0.0707106781186548
 46
0.0707106781186548
 79
     0
 98
        1
 10
0.0
 20
0.0
  0
HATCH
  5
2C9
330
6D
100
AcDbEntity
  8
1
  6
Continuous
 62
     2
100
AcDbHatch
 10
0.0
 20
0.0
 30
0.0
210
0.0
220
0.0
230
1.0
  2
_USER
 70
     0
 71
     1
 91
        4
 92
        1
 93
        8
 72
     2
 10
193.9948204840193
 20
698.9561081290467
 40
0.3506153846146844
 50
90.0
 51
180.0
 73
     1
 72
     1
 10
193.6442050994054
 20
698.9561081290467
 11
193.6442050994054
 21
694.3573388983027
 72
     2
 10
193.9948204840193
 20
694.3573388983027
 40
0.3506153846138886
 50
180.0
 51
270.0
 73
     1
 72
     1
 10
193.9948204840193
 20
694.0067235136884
 11
198.5182189060994
 21
694.0067235136884
 72
     2
 10
198.5182189060994
 20
694.3573388983027
 40
0.3506153846143434
 50
270.0
 51
360.0
 73
     1
 72
     1
 10
198.8688342907142
 20
694.3573388983027
 11
198.8688342907142
 21
698.9561081290467
 72
     2
 10
198.5182189060994
 20
698.9561081290467
 40
0.3506153846147981
 50
0.0
 51
90.0
 73
     1
 72
     1
 10
198.5182189060994
 20
699.3067235136614
 11
193.9948204840193
 21
699.3067235136614
 97
        8
330
242
330
102
330
241
330
103
330
238
330
100
330
243
330
101
 92
       16
 93
        1
 72
     2
 10
196.159767302629
 20
697.0396765353644
 40
0.3892387874201972
 50
0.0
 51
360.0
 73
     1
 97
        1
330
256
 92
       16
 93
        8
 72
     2
 10
196.179449132937
 20
697.0396765353644
 40
0.7535935125160714
 50
295.3740086781789
 51
424.6259913218062
 73
     1
 72
     2
 10
196.6141951644146
 20
697.956322485751
 40
0.2609230769230066
 50
115.3740086783514
 51
180.0
 73
     0
 72
     1
 10
196.3532720874916
 20
697.956322485751
 11
196.3532720874916
 21
698.4567648729467
 72
     2
 10
196.6141951644146
 20
698.4567648729467
 40
0.2609230769224676
 50
180.0
 51
269.811032957459
 73
     0
 72
     2
 10
196.6188365985551
 20
697.0494632633855
 40
1.668232340440728
 50
269.8110329575872
 51
450.1889670424127
 73
     0
 72
     2
 10
196.6141951644146
 20
695.6421616538244
 40
0.2609230769230066
 50
90.18896704254102
 51
180.0
 73
     0
 72
     1
 10
196.3532720874916
 20
695.6421616538244
 11
196.3532720874916
 21
696.1230305849773
 72
     2
 10
196.6141951644146
 20
696.1230305849773
 40
0.2609230769227379
 50
180.0
 51
244.6259913216486
 73
     0
 97
        8
330
250
330
22C
330
13B
330
24F
330
22D
330
22E
330
13A
330
22B
 92
       16
 93
       12
 72
     1
 10
194.4856425309174
 20
694.5956124025785
 11
195.7053394408425
 21
694.5956124025785
 72
     2
 10
195.7053394408425
 20
694.8565354795013
 40
0.2609230769228361
 50
270.0
 51
360.0
 73
     1
 72
     1
 10
195.9662625177654
 20
694.8565354795013
 11
195.9662625177654
 21
696.1216354229159
 72
     2
 10
195.7053394408425
 20
696.1216354229159
 40
0.260923076922893
 50
0.0
 51
64.80558935142466
 73
     1
 72
     2
 10
196.137227414045
 20
697.0396765353644
 40
0.7536343169898218
 50
115.1944106485057
 51
244.8055893514833
 73
     0
 72
     2
 10
195.7053394408425
 20
697.9577176478125
 40
0.2609230769223921
 50
295.1944106485753
 51
360.0
 73
     1
 72
     1
 10
195.9662625177654
 20
697.9577176478125
 11
195.9662625177654
 21
698.4569115478625
 72
     2
 10
195.7053394408425
 20
698.4569115478625
 40
0.260923076922893
 50
0.0
 51
90.0
 73
     1
 72
     1
 10
195.7053394408425
 20
698.717834624785
 11
194.4856425309174
 21
698.717834624785
 72
     2
 10
194.4856425309174
 20
698.4569115478625
 40
0.2609230769224951
 50
90.0
 51
180.0
 73
     1
 72
     1
 10
194.2247194539953
 20
698.4569115478625
 11
194.2247194539953
 21
694.8565354795013
 72
     2
 10
194.4856425309174
 20
694.8565354795013
 40
0.2609230769220972
 50
180.0
 51
270.0
 73
     1
 97
       12
330
107
330
235
330
106
330
246
330
105
330
245
330
236
330
237
330
104
330
244
330
FF
330
247
 75
     1
 76
     0
 52
45.0
 41
0.1
 77
     0
 78
     1
 53
45.0
 43
0.0
 44
0.0
 45
-0.0707106781186548
 46
0.0707106781186548
 79
     0
 98
        1
 10
0.0
 20
0.0
  0
HATCH
  5
2CA
330
6D
100
AcDbEntity
  8
1
  6
Continuous
 62
     2
100
AcDbHatch
 10
0.0
 20
0.0
 30
0.0
210
0.0
220
0.0
230
1.0
  2
_USER
 70
     0
 71
     1
 91
        2
 92
        1
 93
       12
 72
     2
 10
206.1230551980601
 20
698.0448187517708
 40
1.261904761905612
 50
90.0
 51
270.0
 73
     1
 72
     1
 10
206.1230551980601
 20
696.7829139898655
 11
208.7266252177138
 21
696.7829139898655
 72
     1
 10
208.7266252177138
 20
696.7829139898655
 11
208.7266252177138
 21
697.359784738165
 72
     1
 10
208.7266252177138
 20
697.359784738165
 11
207.6225526338893
 21
697.359784738165
 72
     1
 10
207.6225526338893
 20
697.359784738165
 11
207.6225526338893
 21
697.756383377621
 72
     1
 10
207.6225526338893
 20
697.756383377621
 11
208.7266252177138
 21
697.756383377621
 72
     1
 10
208.7266252177138
 20
697.756383377621
 11
208.7266252177138
 21
698.3332541259205
 72
     1
 10
208.7266252177138
 20
698.3332541259205
 11
207.6225526338893
 21
698.3332541259205
 72
     1
 10
207.6225526338893
 20
698.3332541259205
 11
207.6225526338893
 21
698.7298527653764
 72
     1
 10
207.6225526338893
 20
698.7298527653764
 11
208.7266252177138
 21
698.7298527653764
 72
     1
 10
208.7266252177138
 20
698.7298527653764
 11
208.7266252177138
 21
699.3067235136764
 72
     1
 10
208.7266252177138
 20
699.3067235136764
 11
206.1230551980601
 21
699.3067235136764
 97
       12
330
F6
330
F0
330
117
330
116
330
115
330
114
330
F1
330
F2
330
F3
330
F4
330
233
330
F5
 92
       16
 93
        4
 72
     2
 10
206.4668668067473
 20
698.0448187517708
 40
0.6378510567599356
 50
141.8795802028404
 51
218.1204197971676
 73
     1
 72
     2
 10
206.3017923965438
 20
697.9152888524976
 40
0.4280236140606409
 50
218.1204197971558
 51
321.8795802028465
 73
     1
 72
     2
 10
206.1367179863403
 20
698.0448187517708
 40
0.6378510567600058
 50
321.8795802028323
 51
398.1204197971596
 73
     1
 72
     2
 10
206.3017923965438
 20
698.1743486510438
 40
0.4280236140606632
 50
38.12041979715347
 51
141.8795802028442
 73
     1
 97
        4
330
240
330
23F
330
23A
330
239
 75
     1
 76
     0
 52
45.0
 41
0.1
 77
     0
 78
     1
 53
45.0
 43
0.0
 44
0.0
 45
-0.0707106781186548
 46
0.0707106781186548
 79
     0
 98
        1
 10
0.0
 20
0.0
  0
HATCH
  5
2CB
330
6D
100
AcDbEntity
  8
1
  6
Continuous
 62
     2
100
AcDbHatch
 10
0.0
 20
0.0
 30
0.0
210
0.0
220
0.0
230
1.0
  2
_USER
 70
     0
 71
     1
 91
        2
 92
        1
 93
       12
 72
     2
 10
206.1230551980601
 20
698.0448187517708
 40
1.261904761905612
 50
90.0
 51
270.0
 73
     1
 72
     1
 10
206.1230551980601
 20
696.7829139898655
 11
208.7266252177138
 21
696.7829139898655
 72
     1
 10
208.7266252177138
 20
696.7829139898655
 11
208.7266252177138
 21
697.359784738165
 72
     1
 10
208.7266252177138
 20
697.359784738165
 11
207.6225526338893
 21
697.359784738165
 72
     1
 10
207.6225526338893
 20
697.359784738165
 11
207.6225526338893
 21
697.756383377621
 72
     1
 10
207.6225526338893
 20
697.756383377621
 11
208.7266252177138
 21
697.756383377621
 72
     1
 10
208.7266252177138
 20
697.756383377621
 11
208.7266252177138
 21
698.3332541259205
 72
     1
 10
208.7266252177138
 20
698.3332541259205
 11
207.6225526338893
 21
698.3332541259205
 72
     1
 10
207.6225526338893
 20
698.3332541259205
 11
207.6225526338893
 21
698.7298527653764
 72
     1
 10
207.6225526338893
 20
698.7298527653764
 11
208.7266252177138
 21
698.7298527653764
 72
     1
 10
208.7266252177138
 20
698.7298527653764
 11
208.7266252177138
 21
699.3067235136764
 72
     1
 10
208.7266252177138
 20
699.3067235136764
 11
206.1230551980601
 21
699.3067235136764
 97
       12
330
F6
330
F0
330
117
330
116
330
115
330
114
330
F1
330
F2
330
F3
330
F4
330
233
330
F5
 92
       16
 93
        4
 72
     2
 10
206.4668668067473
 20
698.0448187517708
 40
0.6378510567599356
 50
141.8795802028404
 51
218.1204197971676
 73
     1
 72
     2
 10
206.3017923965438
 20
697.9152888524976
 40
0.4280236140606409
 50
218.1204197971558
 51
321.8795802028465
 73
     1
 72
     2
 10
206.1367179863403
 20
698.0448187517708
 40
0.6378510567600058
 50
321.8795802028323
 51
398.1204197971596
 73
     1
 72
     2
 10
206.3017923965438
 20
698.1743486510438
 40
0.4280236140606632
 50
38.12041979715347
 51
141.8795802028442
 73
     1
 97
        4
330
240
330
23F
330
23A
330
239
 75
     1
 76
     0
 52
45.0
 41
0.1
 77
     0
 78
     1
 53
45.0
 43
0.0
 44
0.0
 45
-0.0707106781186548
 46
0.0707106781186548
 79
     0
 98
        1
 10
0.0
 20
0.0
  0
HATCH
  5
2CC
330
6D
100
AcDbEntity
  8
1
  6
Continuous
 62
     2
100
AcDbHatch
 10
0.0
 20
0.0
 30
0.0
210
0.0
220
0.0
230
1.0
  2
_USER
 70
     0
 71
     1
 91
        2
 92
        1
 93
        4
 72
     2
 10
202.7961003530505
 20
695.2686282755936
 40
1.20498684599287
 50
117.5481481756605
 51
242.451851824342
 73
     1
 72
     2
 10
203.0282820818384
 20
695.7137315898939
 40
1.707008076205399
 50
242.4518518243415
 51
297.5481481756881
 73
     1
 72
     2
 10
203.2604638106262
 20
695.2686282755936
 40
1.204986845993484
 50
297.5481481757047
 51
422.4518518242928
 73
     1
 72
     2
 10
203.0282820818384
 20
694.8235249612937
 40
1.707008076205456
 50
62.45185182430483
 51
117.5481481756656
 73
     1
 97
        4
330
23E
330
23B
330
23D
330
23C
 92
       16
 93
        4
 72
     2
 10
203.0282820818384
 20
695.3981581748667
 40
0.4280236140605738
 50
38.12041979716286
 51
141.8795802028465
 73
     1
 72
     2
 10
203.1933564920417
 20
695.2686282755936
 40
0.637851056759779
 50
141.8795802028293
 51
218.1204197971787
 73
     1
 72
     2
 10
203.0282820818384
 20
695.1390983763209
 40
0.428023614060944
 50
218.1204197972013
 51
321.8795802027893
 73
     1
 72
     2
 10
202.8632076716348
 20
695.2686282755936
 40
0.6378510567600058
 50
321.8795802028323
 51
398.1204197971596
 73
     1
 97
        4
330
221
330
222
330
223
330
220
 75
     1
 76
     0
 52
45.0
 41
0.1
 77
     0
 78
     1
 53
45.0
 43
0.0
 44
0.0
 45
-0.0707106781186548
 46
0.0707106781186548
 79
     0
 98
        1
 10
0.0
 20
0.0
  0
HATCH
  5
2CD
330
6D
100
AcDbEntity
  8
1
  6
Continuous
 62
     2
100
AcDbHatch
 10
0.0
 20
0.0
 30
0.0
210
0.0
220
0.0
230
1.0
  2
_USER
 70
     0
 71
     1
 91
        2
 92
        1
 93
        4
 72
     2
 10
202.7961003530505
 20
695.2686282755936
 40
1.20498684599287
 50
117.5481481756605
 51
242.451851824342
 73
     1
 72
     2
 10
203.0282820818384
 20
695.7137315898939
 40
1.707008076205399
 50
242.4518518243415
 51
297.5481481756881
 73
     1
 72
     2
 10
203.2604638106262
 20
695.2686282755936
 40
1.204986845993484
 50
297.5481481757047
 51
422.4518518242928
 73
     1
 72
     2
 10
203.0282820818384
 20
694.8235249612937
 40
1.707008076205456
 50
62.45185182430483
 51
117.5481481756656
 73
     1
 97
        4
330
23E
330
23B
330
23D
330
23C
 92
       16
 93
        4
 72
     2
 10
203.0282820818384
 20
695.3981581748667
 40
0.4280236140605738
 50
38.12041979716286
 51
141.8795802028465
 73
     1
 72
     2
 10
203.1933564920417
 20
695.2686282755936
 40
0.637851056759779
 50
141.8795802028293
 51
218.1204197971787
 73
     1
 72
     2
 10
203.0282820818384
 20
695.1390983763209
 40
0.428023614060944
 50
218.1204197972013
 51
321.8795802027893
 73
     1
 72
     2
 10
202.8632076716348
 20
695.2686282755936
 40
0.6378510567600058
 50
321.8795802028323
 51
398.1204197971596
 73
     1
 97
        4
330
221
330
222
330
223
330
220
 75
     1
 76
     0
 52
45.0
 41
0.1
 77
     0
 78
     1
 53
45.0
 43
0.0
 44
0.0
 45
-0.0707106781186548
 46
0.0707106781186548
 79
     0
 98
        1
 10
0.0
 20
0.0
  0
HATCH
  5
2CE
330
6D
100
AcDbEntity
  8
1
  6
Continuous
 62
     2
100
AcDbHatch
 10
0.0
 20
0.0
 30
0.0
210
0.0
220
0.0
230
1.0
  2
_USER
 70
     0
 71
     1
 91
        2
 92
        1
 93
        6
 72
     1
 10
199.2631459277943
 20
699.3067235136764
 11
199.2631459277943
 21
696.7829139898655
 72
     1
 10
199.2631459277943
 20
696.7829139898655
 11
200.2883561842025
 21
696.7829139898655
 72
     1
 10
200.2883561842025
 20
696.7829139898655
 11
200.2883561842025
 21
697.562317494943
 72
     1
 10
200.2883561842025
 20
697.562317494943
 11
200.9154368352606
 21
697.562317494943
 72
     2
 10
200.9154368352606
 20
698.4345205043097
 40
0.8722030093666717
 50
270.0
 51
450.0
 73
     1
 72
     1
 10
200.9154368352606
 20
699.3067235136764
 11
199.2631459277943
 21
699.3067235136764
 97
        6
330
248
330
108
330
FE
330
FD
330
10A
330
109
 92
       16
 93
        4
 72
     1
 10
200.5505835077909
 20
698.7587021538086
 11
200.2883561842025
 21
698.7587021538086
 72
     1
 10
200.2883561842025
 20
698.7587021538086
 11
200.2883561842025
 21
698.1754561626166
 72
     1
 10
200.2883561842025
 20
698.1754561626166
 11
200.5505835077909
 21
698.1754561626166
 72
     2
 10
200.5505835077909
 20
698.4670791582126
 40
0.2916229955960716
 50
270.0
 51
450.0
 73
     1
 97
        4
330
10B
330
FC
330
10C
330
234
 75
     1
 76
     0
 52
45.0
 41
0.1
 77
     0
 78
     1
 53
45.0
 43
0.0
 44
0.0
 45
-0.0707106781186548
 46
0.0707106781186548
 79
     0
 98
        1
 10
0.0
 20
0.0
  0
HATCH
  5
2CF
330
6D
100
AcDbEntity
  8
1
  6
Continuous
 62
     2
100
AcDbHatch
 10
0.0
 20
0.0
 30
0.0
210
0.0
220
0.0
230
1.0
  2
_USER
 70
     0
 71
     1
 91
        2
 92
        1
 93
        6
 72
     1
 10
199.2631459277943
 20
699.3067235136764
 11
199.2631459277943
 21
696.7829139898655
 72
     1
 10
199.2631459277943
 20
696.7829139898655
 11
200.2883561842025
 21
696.7829139898655
 72
     1
 10
200.2883561842025
 20
696.7829139898655
 11
200.2883561842025
 21
697.562317494943
 72
     1
 10
200.2883561842025
 20
697.562317494943
 11
200.9154368352606
 21
697.562317494943
 72
     2
 10
200.9154368352606
 20
698.4345205043097
 40
0.8722030093666717
 50
270.0
 51
450.0
 73
     1
 72
     1
 10
200.9154368352606
 20
699.3067235136764
 11
199.2631459277943
 21
699.3067235136764
 97
        6
330
248
330
108
330
FE
330
FD
330
10A
330
109
 92
       16
 93
        4
 72
     1
 10
200.5505835077909
 20
698.7587021538086
 11
200.2883561842025
 21
698.7587021538086
 72
     1
 10
200.2883561842025
 20
698.7587021538086
 11
200.2883561842025
 21
698.1754561626166
 72
     1
 10
200.2883561842025
 20
698.1754561626166
 11
200.5505835077909
 21
698.1754561626166
 72
     2
 10
200.5505835077909
 20
698.4670791582126
 40
0.2916229955960716
 50
270.0
 51
450.0
 73
     1
 97
        4
330
10B
330
FC
330
10C
330
234
 75
     1
 76
     0
 52
45.0
 41
0.1
 77
     0
 78
     1
 53
45.0
 43
0.0
 44
0.0
 45
-0.0707106781186548
 46
0.0707106781186548
 79
     0
 98
        1
 10
0.0
 20
0.0
  0
HATCH
  5
2D0
330
6D
100
AcDbEntity
  8
1
  6
Continuous
 62
     2
100
AcDbHatch
 10
0.0
 20
0.0
 30
0.0
210
0.0
220
0.0
230
1.0
  2
_USER
 70
     0
 71
     1
 91
        1
 92
        1
 93
       12
 72
     1
 10
215.4732973281522
 20
699.3067235136764
 11
216.6325735411664
 21
699.3067235136764
 72
     1
 10
216.6325735411664
 20
699.3067235136764
 11
215.5561027719378
 21
698.0894090260432
 72
     1
 10
215.5561027719378
 20
698.0894090260432
 11
216.7114358685827
 21
696.7829139898655
 72
     1
 10
216.7114358685827
 20
696.7829139898655
 11
215.5521596555676
 21
696.7829139898655
 72
     1
 10
215.5521596555676
 20
696.7829139898655
 11
214.9764646654309
 21
697.4339319942405
 72
     1
 10
214.9764646654309
 20
697.4339319942405
 11
214.4007696752939
 21
696.7829139898655
 72
     1
 10
214.4007696752939
 20
696.7829139898655
 11
213.2414934622789
 21
696.7829139898655
 72
     1
 10
213.2414934622789
 20
696.7829139898655
 11
214.3968265589238
 21
698.0894090260432
 72
     1
 10
214.3968265589238
 20
698.0894090260432
 11
213.3203557896944
 21
699.3067235136764
 72
     1
 10
213.3203557896944
 20
699.3067235136764
 11
214.4796320027103
 21
699.3067235136764
 72
     1
 10
214.4796320027103
 20
699.3067235136764
 11
214.9764646654309
 21
698.7448860578454
 72
     1
 10
214.9764646654309
 20
698.7448860578454
 11
215.4732973281522
 21
699.3067235136764
 97
       12
330
D7
330
130
330
12F
330
12E
330
12D
330
D8
330
D9
330
D5
330
D6
330
133
330
132
330
131
 75
     1
 76
     0
 52
45.0
 41
0.1
 77
     0
 78
     1
 53
45.0
 43
0.0
 44
0.0
 45
-0.0707106781186548
 46
0.0707106781186548
 79
     0
 98
        1
 10
0.0
 20
0.0
  0
HATCH
  5
2D1
330
6D
100
AcDbEntity
  8
1
  6
Continuous
 62
     2
100
AcDbHatch
 10
0.0
 20
0.0
 30
0.0
210
0.0
220
0.0
230
1.0
  2
_USER
 70
     0
 71
     1
 91
        1
 92
        1
 93
       12
 72
     1
 10
215.4732973281522
 20
699.3067235136764
 11
216.6325735411664
 21
699.3067235136764
 72
     1
 10
216.6325735411664
 20
699.3067235136764
 11
215.5561027719378
 21
698.0894090260432
 72
     1
 10
215.5561027719378
 20
698.0894090260432
 11
216.7114358685827
 21
696.7829139898655
 72
     1
 10
216.7114358685827
 20
696.7829139898655
 11
215.5521596555676
 21
696.7829139898655
 72
     1
 10
215.5521596555676
 20
696.7829139898655
 11
214.9764646654309
 21
697.4339319942405
 72
     1
 10
214.9764646654309
 20
697.4339319942405
 11
214.4007696752939
 21
696.7829139898655
 72
     1
 10
214.4007696752939
 20
696.7829139898655
 11
213.2414934622789
 21
696.7829139898655
 72
     1
 10
213.2414934622789
 20
696.7829139898655
 11
214.3968265589238
 21
698.0894090260432
 72
     1
 10
214.3968265589238
 20
698.0894090260432
 11
213.3203557896944
 21
699.3067235136764
 72
     1
 10
213.3203557896944
 20
699.3067235136764
 11
214.4796320027103
 21
699.3067235136764
 72
     1
 10
214.4796320027103
 20
699.3067235136764
 11
214.9764646654309
 21
698.7448860578454
 72
     1
 10
214.9764646654309
 20
698.7448860578454
 11
215.4732973281522
 21
699.3067235136764
 97
       12
330
D7
330
130
330
12F
330
12E
330
12D
330
D8
330
D9
330
D5
330
D6
330
133
330
132
330
131
 75
     1
 76
     0
 52
45.0
 41
0.1
 77
     0
 78
     1
 53
45.0
 43
0.0
 44
0.0
 45
-0.0707106781186548
 46
0.0707106781186548
 79
     0
 98
        1
 10
0.0
 20
0.0
  0
HATCH
  5
2D2
330
6D
100
AcDbEntity
  8
1
  6
Continuous
 62
     2
100
AcDbHatch
 10
0.0
 20
0.0
 30
0.0
210
0.0
220
0.0
230
1.0
  2
_USER
 70
     0
 71
     1
 91
        1
 92
        1
 93
        4
 72
     1
 10
213.1429155530087
 20
699.3067235136764
 11
213.1429155530087
 21
696.7829139898655
 72
     1
 10
213.1429155530087
 20
696.7829139898655
 11
212.1177052966013
 21
696.7829139898655
 72
     1
 10
212.1177052966013
 20
696.7829139898655
 11
212.1177052966013
 21
699.3067235136764
 72
     1
 10
212.1177052966013
 20
699.3067235136764
 11
213.1429155530087
 21
699.3067235136764
 97
        4
330
12B
330
DA
330
12A
330
12C
 75
     1
 76
     0
 52
45.0
 41
0.1
 77
     0
 78
     1
 53
45.0
 43
0.0
 44
0.0
 45
-0.0707106781186548
 46
0.0707106781186548
 79
     0
 98
        1
 10
0.0
 20
0.0
  0
HATCH
  5
2D3
330
6D
100
AcDbEntity
  8
1
  6
Continuous
 62
     2
100
AcDbHatch
 10
0.0
 20
0.0
 30
0.0
210
0.0
220
0.0
230
1.0
  2
_USER
 70
     0
 71
     1
 91
        1
 92
        1
 93
        4
 72
     1
 10
213.1429155530087
 20
699.3067235136764
 11
213.1429155530087
 21
696.7829139898655
 72
     1
 10
213.1429155530087
 20
696.7829139898655
 11
212.1177052966013
 21
696.7829139898655
 72
     1
 10
212.1177052966013
 20
696.7829139898655
 11
212.1177052966013
 21
699.3067235136764
 72
     1
 10
212.1177052966013
 20
699.3067235136764
 11
213.1429155530087
 21
699.3067235136764
 97
        4
330
12B
330
DA
330
12A
330
12C
 75
     1
 76
     0
 52
45.0
 41
0.1
 77
     0
 78
     1
 53
45.0
 43
0.0
 44
0.0
 45
-0.0707106781186548
 46
0.0707106781186548
 79
     0
 98
        1
 10
0.0
 20
0.0
  0
HATCH
  5
2D4
330
6D
100
AcDbEntity
  8
1
  6
Continuous
 62
     2
100
AcDbHatch
 10
0.0
 20
0.0
 30
0.0
210
0.0
220
0.0
230
1.0
  2
_USER
 70
     0
 71
     1
 91
        2
 92
        1
 93
        8
 72
     1
 10
212.8202345583542
 20
694.0067235136884
 11
211.7950243019461
 21
694.0067235136884
 72
     1
 10
211.7950243019461
 20
694.0067235136884
 11
211.6202473982471
 21
694.4537983436205
 72
     1
 10
211.6202473982471
 20
694.4537983436205
 11
210.6843452687645
 21
694.4537983436205
 72
     1
 10
210.6843452687645
 20
694.4537983436205
 11
210.5095683650654
 21
694.0067235136884
 72
     1
 10
210.5095683650654
 20
694.0067235136884
 11
209.4843581086581
 21
694.0067235136884
 72
     1
 10
209.4843581086581
 20
694.0067235136884
 11
210.639691205302
 21
696.5305330374993
 72
     1
 10
210.639691205302
 20
696.5305330374993
 11
211.6649014617094
 21
696.5305330374993
 72
     1
 10
211.6649014617094
 20
696.5305330374993
 11
212.8202345583542
 21
694.0067235136884
 97
        8
330
126
330
E0
330
125
330
128
330
DD
330
127
330
DE
330
DF
 92
       16
 93
        3
 72
     1
 10
210.9042258895456
 20
695.0162473232127
 11
211.4003667774649
 21
695.0162473232127
 72
     1
 10
211.4003667774649
 20
695.0162473232127
 11
211.1522963335061
 21
695.6508051463422
 72
     1
 10
211.1522963335061
 20
695.6508051463422
 11
210.9042258895456
 21
695.0162473232127
 97
        3
330
DC
330
DB
330
129
 75
     1
 76
     0
 52
45.0
 41
0.1
 77
     0
 78
     1
 53
45.0
 43
0.0
 44
0.0
 45
-0.0707106781186548
 46
0.0707106781186548
 79
     0
 98
        1
 10
0.0
 20
0.0
  0
HATCH
  5
2D5
330
6D
100
AcDbEntity
  8
1
  6
Continuous
 62
     2
100
AcDbHatch
 10
0.0
 20
0.0
 30
0.0
210
0.0
220
0.0
230
1.0
  2
_USER
 70
     0
 71
     1
 91
        2
 92
        1
 93
        8
 72
     1
 10
212.8202345583542
 20
694.0067235136884
 11
211.7950243019461
 21
694.0067235136884
 72
     1
 10
211.7950243019461
 20
694.0067235136884
 11
211.6202473982471
 21
694.4537983436205
 72
     1
 10
211.6202473982471
 20
694.4537983436205
 11
210.6843452687645
 21
694.4537983436205
 72
     1
 10
210.6843452687645
 20
694.4537983436205
 11
210.5095683650654
 21
694.0067235136884
 72
     1
 10
210.5095683650654
 20
694.0067235136884
 11
209.4843581086581
 21
694.0067235136884
 72
     1
 10
209.4843581086581
 20
694.0067235136884
 11
210.639691205302
 21
696.5305330374993
 72
     1
 10
210.639691205302
 20
696.5305330374993
 11
211.6649014617094
 21
696.5305330374993
 72
     1
 10
211.6649014617094
 20
696.5305330374993
 11
212.8202345583542
 21
694.0067235136884
 97
        8
330
126
330
E0
330
125
330
128
330
DD
330
127
330
DE
330
DF
 92
       16
 93
        3
 72
     1
 10
210.9042258895456
 20
695.0162473232127
 11
211.4003667774649
 21
695.0162473232127
 72
     1
 10
211.4003667774649
 20
695.0162473232127
 11
211.1522963335061
 21
695.6508051463422
 72
     1
 10
211.1522963335061
 20
695.6508051463422
 11
210.9042258895456
 21
695.0162473232127
 97
        3
330
DC
330
DB
330
129
 75
     1
 76
     0
 52
45.0
 41
0.1
 77
     0
 78
     1
 53
45.0
 43
0.0
 44
0.0
 45
-0.0707106781186548
 46
0.0707106781186548
 79
     0
 98
        1
 10
0.0
 20
0.0
  0
HATCH
  5
2D6
330
6D
100
AcDbEntity
  8
1
  6
Continuous
 62
     2
100
AcDbHatch
 10
0.0
 20
0.0
 30
0.0
210
0.0
220
0.0
230
1.0
  2
_USER
 70
     0
 71
     1
 91
        1
 92
        1
 93
        8
 72
     1
 10
207.7012902250364
 20
696.5305330374993
 11
207.7012902250364
 21
695.8815534456616
 72
     1
 10
207.7012902250364
 20
695.8815534456616
 11
208.3716200080733
 21
695.8815534456616
 72
     1
 10
208.3716200080733
 20
695.8815534456616
 11
208.3716200080733
 21
694.0067235136884
 72
     1
 10
208.3716200080733
 20
694.0067235136884
 11
209.3573991007729
 21
694.0067235136884
 72
     1
 10
209.3573991007729
 20
694.0067235136884
 11
209.3573991007729
 21
695.8815534456616
 72
     1
 10
209.3573991007729
 20
695.8815534456616
 11
210.027728883808
 21
695.8815534456616
 72
     1
 10
210.027728883808
 20
695.8815534456616
 11
210.027728883808
 21
696.5305330374993
 72
     1
 10
210.027728883808
 20
696.5305330374993
 11
207.7012902250364
 21
696.5305330374993
 97
        8
330
122
330
121
330
120
330
E1
330
E2
330
124
330
E3
330
123
 75
     1
 76
     0
 52
45.0
 41
0.1
 77
     0
 78
     1
 53
45.0
 43
0.0
 44
0.0
 45
-0.0707106781186548
 46
0.0707106781186548
 79
     0
 98
        1
 10
0.0
 20
0.0
  0
HATCH
  5
2D7
330
6D
100
AcDbEntity
  8
1
  6
Continuous
 62
     2
100
AcDbHatch
 10
0.0
 20
0.0
 30
0.0
210
0.0
220
0.0
230
1.0
  2
_USER
 70
     0
 71
     1
 91
        1
 92
        1
 93
        8
 72
     1
 10
207.7012902250364
 20
696.5305330374993
 11
207.7012902250364
 21
695.8815534456616
 72
     1
 10
207.7012902250364
 20
695.8815534456616
 11
208.3716200080733
 21
695.8815534456616
 72
     1
 10
208.3716200080733
 20
695.8815534456616
 11
208.3716200080733
 21
694.0067235136884
 72
     1
 10
208.3716200080733
 20
694.0067235136884
 11
209.3573991007729
 21
694.0067235136884
 72
     1
 10
209.3573991007729
 20
694.0067235136884
 11
209.3573991007729
 21
695.8815534456616
 72
     1
 10
209.3573991007729
 20
695.8815534456616
 11
210.027728883808
 21
695.8815534456616
 72
     1
 10
210.027728883808
 20
695.8815534456616
 11
210.027728883808
 21
696.5305330374993
 72
     1
 10
210.027728883808
 20
696.5305330374993
 11
207.7012902250364
 21
696.5305330374993
 97
        8
330
122
330
121
330
120
330
E1
330
E2
330
124
330
E3
330
123
 75
     1
 76
     0
 52
45.0
 41
0.1
 77
     0
 78
     1
 53
45.0
 43
0.0
 44
0.0
 45
-0.0707106781186548
 46
0.0707106781186548
 79
     0
 98
        1
 10
0.0
 20
0.0
  0
HATCH
  5
2D8
330
6D
100
AcDbEntity
  8
1
  6
Continuous
 62
     2
100
AcDbHatch
 10
0.0
 20
0.0
 30
0.0
210
0.0
220
0.0
230
1.0
  2
_USER
 70
     0
 71
     1
 91
        1
 92
        1
 93
       10
 72
     1
 10
209.9095601289531
 20
699.3067235136764
 11
208.9237810362534
 21
699.3067235136764
 72
     1
 10
208.9237810362534
 20
699.3067235136764
 11
208.9237810362534
 21
696.7829139898655
 72
     1
 10
208.9237810362534
 20
696.7829139898655
 11
209.9095601289531
 21
696.7829139898655
 72
     1
 10
209.9095601289531
 20
696.7829139898655
 11
209.9095601289531
 21
697.8645466429272
 72
     1
 10
209.9095601289531
 20
697.8645466429272
 11
210.9347703853613
 21
696.7829139898655
 72
     1
 10
210.9347703853613
 20
696.7829139898655
 11
211.9205494780609
 21
696.7829139898655
 72
     1
 10
211.9205494780609
 20
696.7829139898655
 11
211.9205494780609
 21
699.3067235136764
 72
     1
 10
211.9205494780609
 20
699.3067235136764
 11
210.9347703853613
 21
699.3067235136764
 72
     1
 10
210.9347703853613
 20
699.3067235136764
 11
210.9347703853613
 21
698.2250908606143
 72
     1
 10
210.9347703853613
 20
698.2250908606143
 11
209.9095601289531
 21
699.3067235136764
 97
       10
330
11C
330
E6
330
E7
330
E8
330
E9
330
11F
330
E4
330
11E
330
11D
330
E5
 75
     1
 76
     0
 52
45.0
 41
0.1
 77
     0
 78
     1
 53
45.0
 43
0.0
 44
0.0
 45
-0.0707106781186548
 46
0.0707106781186548
 79
     0
 98
        1
 10
0.0
 20
0.0
  0
HATCH
  5
2D9
330
6D
100
AcDbEntity
  8
1
  6
Continuous
 62
     2
100
AcDbHatch
 10
0.0
 20
0.0
 30
0.0
210
0.0
220
0.0
230
1.0
  2
_USER
 70
     0
 71
     1
 91
        1
 92
        1
 93
       10
 72
     1
 10
209.9095601289531
 20
699.3067235136764
 11
208.9237810362534
 21
699.3067235136764
 72
     1
 10
208.9237810362534
 20
699.3067235136764
 11
208.9237810362534
 21
696.7829139898655
 72
     1
 10
208.9237810362534
 20
696.7829139898655
 11
209.9095601289531
 21
696.7829139898655
 72
     1
 10
209.9095601289531
 20
696.7829139898655
 11
209.9095601289531
 21
697.8645466429272
 72
     1
 10
209.9095601289531
 20
697.8645466429272
 11
210.9347703853613
 21
696.7829139898655
 72
     1
 10
210.9347703853613
 20
696.7829139898655
 11
211.9205494780609
 21
696.7829139898655
 72
     1
 10
211.9205494780609
 20
696.7829139898655
 11
211.9205494780609
 21
699.3067235136764
 72
     1
 10
211.9205494780609
 20
699.3067235136764
 11
210.9347703853613
 21
699.3067235136764
 72
     1
 10
210.9347703853613
 20
699.3067235136764
 11
210.9347703853613
 21
698.2250908606143
 72
     1
 10
210.9347703853613
 20
698.2250908606143
 11
209.9095601289531
 21
699.3067235136764
 97
       10
330
11C
330
E6
330
E7
330
E8
330
E9
330
11F
330
E4
330
11E
330
11D
330
E5
 75
     1
 76
     0
 52
45.0
 41
0.1
 77
     0
 78
     1
 53
45.0
 43
0.0
 44
0.0
 45
-0.0707106781186548
 46
0.0707106781186548
 79
     0
 98
        1
 10
0.0
 20
0.0
  0
HATCH
  5
2DA
330
6D
100
AcDbEntity
  8
1
  6
Continuous
 62
     2
100
AcDbHatch
 10
0.0
 20
0.0
 30
0.0
210
0.0
220
0.0
230
1.0
  2
_USER
 70
     0
 71
     1
 91
        1
 92
        1
 93
       10
 72
     1
 10
205.5720073848054
 20
696.5305330374993
 11
204.5862282921049
 21
696.5305330374993
 72
     1
 10
204.5862282921049
 20
696.5305330374993
 11
204.5862282921049
 21
694.0067235136884
 72
     1
 10
204.5862282921049
 20
694.0067235136884
 11
205.5720073848054
 21
694.0067235136884
 72
     1
 10
205.5720073848054
 20
694.0067235136884
 11
205.5720073848054
 21
695.08835616675
 72
     1
 10
205.5720073848054
 20
695.08835616675
 11
206.5972176412128
 21
694.0067235136884
 72
     1
 10
206.5972176412128
 20
694.0067235136884
 11
207.5829967339124
 21
694.0067235136884
 72
     1
 10
207.5829967339124
 20
694.0067235136884
 11
207.5829967339124
 21
696.5305330374993
 72
     1
 10
207.5829967339124
 20
696.5305330374993
 11
206.5972176412128
 21
696.5305330374993
 72
     1
 10
206.5972176412128
 20
696.5305330374993
 11
206.5972176412128
 21
695.4489003844371
 72
     1
 10
206.5972176412128
 20
695.4489003844371
 11
205.5720073848054
 21
696.5305330374993
 97
       10
330
EB
330
EC
330
ED
330
119
330
EE
330
EF
330
118
330
11B
330
11A
330
EA
 75
     1
 76
     0
 52
45.0
 41
0.1
 77
     0
 78
     1
 53
45.0
 43
0.0
 44
0.0
 45
-0.0707106781186548
 46
0.0707106781186548
 79
     0
 98
        1
 10
0.0
 20
0.0
  0
HATCH
  5
2DB
330
6D
100
AcDbEntity
  8
1
  6
Continuous
 62
     2
100
AcDbHatch
 10
0.0
 20
0.0
 30
0.0
210
0.0
220
0.0
230
1.0
  2
_USER
 70
     0
 71
     1
 91
        1
 92
        1
 93
       10
 72
     1
 10
205.5720073848054
 20
696.5305330374993
 11
204.5862282921049
 21
696.5305330374993
 72
     1
 10
204.5862282921049
 20
696.5305330374993
 11
204.5862282921049
 21
694.0067235136884
 72
     1
 10
204.5862282921049
 20
694.0067235136884
 11
205.5720073848054
 21
694.0067235136884
 72
     1
 10
205.5720073848054
 20
694.0067235136884
 11
205.5720073848054
 21
695.08835616675
 72
     1
 10
205.5720073848054
 20
695.08835616675
 11
206.5972176412128
 21
694.0067235136884
 72
     1
 10
206.5972176412128
 20
694.0067235136884
 11
207.5829967339124
 21
694.0067235136884
 72
     1
 10
207.5829967339124
 20
694.0067235136884
 11
207.5829967339124
 21
696.5305330374993
 72
     1
 10
207.5829967339124
 20
696.5305330374993
 11
206.5972176412128
 21
696.5305330374993
 72
     1
 10
206.5972176412128
 20
696.5305330374993
 11
206.5972176412128
 21
695.4489003844371
 72
     1
 10
206.5972176412128
 20
695.4489003844371
 11
205.5720073848054
 21
696.5305330374993
 97
       10
330
EB
330
EC
330
ED
330
119
330
EE
330
EF
330
118
330
11B
330
11A
330
EA
 75
     1
 76
     0
 52
45.0
 41
0.1
 77
     0
 78
     1
 53
45.0
 43
0.0
 44
0.0
 45
-0.0707106781186548
 46
0.0707106781186548
 79
     0
 98
        1
 10
0.0
 20
0.0
  0
HATCH
  5
2DC
330
6D
100
AcDbEntity
  8
1
  6
Continuous
 62
     2
100
AcDbHatch
 10
0.0
 20
0.0
 30
0.0
210
0.0
220
0.0
230
1.0
  2
_USER
 70
     0
 71
     1
 91
        1
 92
        1
 93
       12
 72
     1
 10
204.7440776832059
 20
699.3067235136764
 11
204.7440776832059
 21
696.7829139898655
 72
     1
 10
204.7440776832059
 20
696.7829139898655
 11
203.7582985905063
 21
696.7829139898655
 72
     1
 10
203.7582985905063
 20
696.7829139898655
 11
203.7582985905063
 21
697.7203289558521
 72
     1
 10
203.7582985905063
 20
697.7203289558521
 11
202.89081298893
 21
697.7203289558521
 72
     1
 10
202.89081298893
 20
697.7203289558521
 11
202.89081298893
 21
696.7829139898655
 72
     1
 10
202.89081298893
 20
696.7829139898655
 11
201.9050338962304
 21
696.7829139898655
 72
     1
 10
201.9050338962304
 20
696.7829139898655
 11
201.9050338962304
 21
699.3067235136764
 72
     1
 10
201.9050338962304
 20
699.3067235136764
 11
202.89081298893
 21
699.3067235136764
 72
     1
 10
202.89081298893
 20
699.3067235136764
 11
202.89081298893
 21
698.423390180342
 72
     1
 10
202.89081298893
 20
698.423390180342
 11
203.7582985905063
 21
698.423390180342
 72
     1
 10
203.7582985905063
 20
698.423390180342
 11
203.7582985905063
 21
699.3067235136764
 72
     1
 10
203.7582985905063
 20
699.3067235136764
 11
204.7440776832059
 21
699.3067235136764
 97
       12
330
113
330
112
330
111
330
F9
330
FA
330
110
330
FB
330
10F
330
10E
330
10D
330
F7
330
F8
 75
     1
 76
     0
 52
45.0
 41
0.1
 77
     0
 78
     1
 53
45.0
 43
0.0
 44
0.0
 45
-0.0707106781186548
 46
0.0707106781186548
 79
     0
 98
        1
 10
0.0
 20
0.0
  0
HATCH
  5
2DD
330
6D
100
AcDbEntity
  8
1
  6
Continuous
 62
     2
100
AcDbHatch
 10
0.0
 20
0.0
 30
0.0
210
0.0
220
0.0
230
1.0
  2
_USER
 70
     0
 71
     1
 91
        1
 92
        1
 93
       12
 72
     1
 10
204.7440776832059
 20
699.3067235136764
 11
204.7440776832059
 21
696.7829139898655
 72
     1
 10
204.7440776832059
 20
696.7829139898655
 11
203.7582985905063
 21
696.7829139898655
 72
     1
 10
203.7582985905063
 20
696.7829139898655
 11
203.7582985905063
 21
697.7203289558521
 72
     1
 10
203.7582985905063
 20
697.7203289558521
 11
202.89081298893
 21
697.7203289558521
 72
     1
 10
202.89081298893
 20
697.7203289558521
 11
202.89081298893
 21
696.7829139898655
 72
     1
 10
202.89081298893
 20
696.7829139898655
 11
201.9050338962304
 21
696.7829139898655
 72
     1
 10
201.9050338962304
 20
696.7829139898655
 11
201.9050338962304
 21
699.3067235136764
 72
     1
 10
201.9050338962304
 20
699.3067235136764
 11
202.89081298893
 21
699.3067235136764
 72
     1
 10
202.89081298893
 20
699.3067235136764
 11
202.89081298893
 21
698.423390180342
 72
     1
 10
202.89081298893
 20
698.423390180342
 11
203.7582985905063
 21
698.423390180342
 72
     1
 10
203.7582985905063
 20
698.423390180342
 11
203.7582985905063
 21
699.3067235136764
 72
     1
 10
203.7582985905063
 20
699.3067235136764
 11
204.7440776832059
 21
699.3067235136764
 97
       12
330
113
330
112
330
111
330
F9
330
FA
330
110
330
FB
330
10F
330
10E
330
10D
330
F7
330
F8
 75
     1
 76
     0
 52
45.0
 41
0.1
 77
     0
 78
     1
 53
45.0
 43
0.0
 44
0.0
 45
-0.0707106781186548
 46
0.0707106781186548
 79
     0
 98
        1
 10
0.0
 20
0.0
  0
ENDBLK
  5
6F
330
6D
100
AcDbEntity
  8
0
100
AcDbBlockEnd
  0
BLOCK
  5
71
330
70
100
AcDbEntity
  8
0
100
AcDbBlockBegin
  2
_punkt
 70
     0
 10
316.5289642653615
 20
688.1567235136826
 30
0.0
  3
_punkt
  1

  0
LINE
  5
2DE
330
70
100
AcDbEntity
  8
1
  6
Continuous
 62
     2
100
AcDbLine
 10
316.5289642653616
 20
688.1567235136826
 30
0.0
 11
316.5289642653616
 21
683.156723513683
 31
0.0
  0
LINE
  5
2DF
330
70
100
AcDbEntity
  8
1
  6
Continuous
 62
     2
100
AcDbLine
 10
316.5289642653616
 20
688.1567235136826
 30
0.0
 11
321.5289642653592
 21
688.1567235136826
 31
0.0
  0
ENDBLK
  5
72
330
70
100
AcDbEntity
  8
0
100
AcDbBlockEnd
  0
BLOCK
  5
76
330
73
100
AcDbEntity
  8
0
100
AcDbBlockBegin
  2
A3I
 70
     0
 10
316.5289642653616
 20
683.156723513683
 30
0.0
  3
A3I
  1

  0
INSERT
  5
74
330
73
100
AcDbEntity
  8
1
100
AcDbBlockReference
  2
_rahmen
 10
316.5289642653616
 20
683.156723513683
 30
0.0
  0
INSERT
  5
75
330
73
100
AcDbEntity
  8
1
100
AcDbBlockReference
  2
_punkt
 10
316.5289642653615
 20
688.1567235136826
 30
0.0
  0
ENDBLK
  5
77
330
73
100
AcDbEntity
  8
0
100
AcDbBlockEnd
  0
BLOCK
  5
9A
330
93
100
AcDbEntity
  8
0
100
AcDbBlockBegin
  2
*D16
 70
     1
 10
0.0
 20
0.0
 30
0.0
  3
*D16
  1

  0
LINE
  5
94
330
93
100
AcDbEntity
  8
1
  6
Continuous
 62
     2
100
AcDbLine
 10
223.05792853072
 20
1558.499999000004
 30
0.0
 11
223.05792853072
 21
1717.499999000004
 31
0.0
  0
LINE
  5
95
330
93
100
AcDbEntity
  8
1
  6
Continuous
 62
     2
100
AcDbLine
 10
197.9999992592773
 20
1558.499999000004
 30
0.0
 11
227.05792853072
 21
1558.499999000004
 31
0.0
  0
LINE
  5
96
330
93
100
AcDbEntity
  8
1
  6
Continuous
 62
     2
100
AcDbLine
 10
197.9999992592773
 20
1717.499999000004
 30
0.0
 11
227.05792853072
 21
1717.499999000004
 31
0.0
  0
SOLID
  5
97
330
93
100
AcDbEntity
  8
1
 62
     2
100
AcDbTrace
 10
222.1363610476082
 20
1565.499999000004
 30
0.0
 11
223.9794960138318
 21
1565.499999000004
 31
0.0
 12
223.05792853072
 22
1558.499999000004
 32
0.0
 13
223.05792853072
 23
1558.499999000004
 33
0.0
  0
SOLID
  5
98
330
93
100
AcDbEntity
  8
1
 62
     2
100
AcDbTrace
 10
223.9794960138318
 20
1710.499999000004
 30
0.0
 11
222.1363610476082
 21
1710.499999000004
 31
0.0
 12
223.05792853072
 22
1717.499999000004
 32
0.0
 13
223.05792853072
 23
1717.499999000004
 33
0.0
  0
MTEXT
  5
99
330
93
100
AcDbEntity
  8
1
 62
     3
100
AcDbMText
 10
219.05792853072
 20
1629.617074079686
 30
0.0
 40
7.0
 41
0.0
 71
     7
 72
     1
  1
2000
  7
CONVERTER_11
 11
0.0
 21
1.0
 31
0.0
 73
     1
 44
0.60024009603842
  0
ENDBLK
  5
9B
330
93
100
AcDbEntity
  8
0
100
AcDbBlockEnd
  0
BLOCK
  5
C1
330
BA
100
AcDbEntity
  8
0
100
AcDbBlockBegin
  2
*D17
 70
     1
 10
0.0
 20
0.0
 30
0.0
  3
*D17
  1

  0
LINE
  5
BB
330
BA
100
AcDbEntity
  8
1
  6
Continuous
 62
     2
100
AcDbLine
 10
223.05792853072
 20
1797.999997740843
 30
0.0
 11
223.05792853072
 21
1897.999997740843
 31
0.0
  0
LINE
  5
BC
330
BA
100
AcDbEntity
  8
1
  6
Continuous
 62
     2
100
AcDbLine
 10
197.9999992592773
 20
1797.999997740843
 30
0.0
 11
227.05792853072
 21
1797.999997740843
 31
0.0
  0
LINE
  5
BD
330
BA
100
AcDbEntity
  8
1
  6
Continuous
 62
     2
100
AcDbLine
 10
197.9999992592773
 20
1897.999997740843
 30
0.0
 11
227.05792853072
 21
1897.999997740843
 31
0.0
  0
SOLID
  5
BE
330
BA
100
AcDbEntity
  8
1
 62
     2
100
AcDbTrace
 10
222.1363610476082
 20
1804.999997740843
 30
0.0
 11
223.9794960138318
 21
1804.999997740843
 31
0.0
 12
223.05792853072
 22
1797.999997740843
 32
0.0
 13
223.05792853072
 23
1797.999997740843
 33
0.0
  0
SOLID
  5
BF
330
BA
100
AcDbEntity
  8
1
 62
     2
100
AcDbTrace
 10
223.9794960138318
 20
1890.999997740843
 30
0.0
 11
222.1363610476082
 21
1890.999997740843
 31
0.0
 12
223.05792853072
 22
1897.999997740843
 32
0.0
 13
223.05792853072
 23
1897.999997740843
 33
0.0
  0
MTEXT
  5
C0
330
BA
100
AcDbEntity
  8
1
 62
     3
100
AcDbMText
 10
219.05792853072
 20
1843.379223481364
 30
0.0
 40
7.0
 41
0.0
 71
     7
 72
     1
  1
100
  7
CONVERTER_11
 11
0.0
 21
1.0
 31
0.0
 73
     1
 44
0.60024009603842
  0
ENDBLK
  5
C2
330
BA
100
AcDbEntity
  8
0
100
AcDbBlockEnd
  0
BLOCK
  5
CC
330
C5
100
AcDbEntity
  8
0
100
AcDbBlockBegin
  2
*D18
 70
     1
 10
0.0
 20
0.0
 30
0.0
  3
*D18
  1

  0
LINE
  5
C6
330
C5
100
AcDbEntity
  8
1
  6
Continuous
 62
     2
100
AcDbLine
 10
197.9999992592773
 20
1771.70439060643
 30
0.0
 11
97.9999992592773
 21
1771.70439060643
 31
0.0
  0
LINE
  5
C7
330
C5
100
AcDbEntity
  8
1
  6
Continuous
 62
     2
100
AcDbLine
 10
197.9999992592773
 20
1797.999997740843
 30
0.0
 11
197.9999992592773
 21
1767.70439060643
 31
0.0
  0
LINE
  5
C8
330
C5
100
AcDbEntity
  8
1
  6
Continuous
 62
     2
100
AcDbLine
 10
97.9999992592773
 20
1797.999997740843
 30
0.0
 11
97.9999992592773
 21
1767.70439060643
 31
0.0
  0
SOLID
  5
C9
330
C5
100
AcDbEntity
  8
1
 62
     2
100
AcDbTrace
 10
190.9999992592773
 20
1770.782823123318
 30
0.0
 11
190.9999992592773
 21
1772.625958089542
 31
0.0
 12
197.9999992592773
 22
1771.70439060643
 32
0.0
 13
197.9999992592773
 23
1771.70439060643
 33
0.0
  0
SOLID
  5
CA
330
C5
100
AcDbEntity
  8
1
 62
     2
100
AcDbTrace
 10
104.9999992592773
 20
1772.625958089542
 30
0.0
 11
104.9999992592773
 21
1770.782823123318
 31
0.0
 12
97.9999992592773
 22
1771.70439060643
 32
0.0
 13
97.9999992592773
 23
1771.70439060643
 33
0.0
  0
MTEXT
  5
CB
330
C5
100
AcDbEntity
  8
1
 62
     3
100
AcDbMText
 10
136.0977265233774
 20
1775.70439060643
 30
0.0
 40
7.0
 41
0.0
 71
     7
 72
     1
  1
100
  7
CONVERTER_11
 11
0.9999999999970619
 21
2.424068405545306E-6
 31
0.0
 73
     1
 44
0.60024009603842
  0
ENDBLK
  5
CD
330
C5
100
AcDbEntity
  8
0
100
AcDbBlockEnd
  0
ENDSEC
  0
SECTION
  2
ENTITIES
  0
INSERT
  5
78
330
1F
100
AcDbEntity
  8
0
100
AcDbBlockReference
  2
AllgSicht1
 10
223.9999999999999
 20
795.999999687295
 30
0.0
 41
0.5
 42
0.5
 43
0.5
  0
INSERT
  5
79
330
1F
100
AcDbEntity
  8
0
100
AcDbBlockReference
  2
Drfsicht1
 10
74.0
 20
829.2499994999995
 30
0.0
 41
0.5
 42
0.5
 43
0.5
  0
INSERT
  5
7A
330
1F
100
AcDbEntity
  8
0
100
AcDbBlockReference
  2
Rckans1
 10
263.9999999999999
 20
923.999999638915
 30
0.0
 41
0.5
 42
0.5
 43
0.5
  0
INSERT
  5
7B
330
1F
100
AcDbEntity
  8
0
100
AcDbBlockReference
  2
SA_Links1
 10
182.25
 20
923.9999999999995
 30
0.0
 41
0.5
 42
0.5
 43
0.5
  0
INSERT
  5
7C
330
1F
100
AcDbEntity
  8
0
100
AcDbBlockReference
  2
SA_Rechts1
 10
-6.0
 20
923.9999995
 30
0.0
 41
0.5
 42
0.5
 43
0.5
  0
INSERT
  5
7D
330
1F
100
AcDbEntity
  8
0
100
AcDbBlockReference
  2
Vordans1
 10
74.0
 20
923.999999638915
 30
0.0
 41
0.5
 42
0.5
 43
0.5
  0
INSERT
  5
7E
330
1F
100
AcDbEntity
  8
0
100
AcDbBlockReference
  2
A3I
 10
316.5289642653616
 20
683.156723513683
 30
0.0
  0
ENDSEC
  0
SECTION
  2
OBJECTS
  0
DICTIONARY
  5
C
330
0
100
AcDbDictionary
281
     1
  3
ACAD_GROUP
350
D
  3
ACAD_LAYOUT
350
1A
  3
ACAD_MLEADERSTYLE
350
2E1
  3
ACAD_MLINESTYLE
350
17
  3
ACAD_PLOTSETTINGS
350
19
  3
ACAD_PLOTSTYLENAME
350
E
  3
ACAD_TABLESTYLE
350
2E0
  3
ACAD_VISUALSTYLE
350
2A
  0
DICTIONARY
  5
D
102
{ACAD_REACTORS
330
C
102
}
330
C
100
AcDbDictionary
281
     1
  0
DICTIONARY
  5
1A
102
{ACAD_REACTORS
330
C
102
}
330
C
100
AcDbDictionary
281
     1
  3
Layout1
350
1E
  3
Layout2
350
26
  3
Model
350
22
  0
DICTIONARY
  5
2E1
102
{ACAD_REACTORS
330
C
102
}
330
C
100
AcDbDictionary
281
     1
  0
DICTIONARY
  5
17
102
{ACAD_REACTORS
330
C
102
}
330
C
100
AcDbDictionary
281
     1
  3
Standard
350
18
  0
DICTIONARY
  5
19
102
{ACAD_REACTORS
330
C
102
}
330
C
100
AcDbDictionary
281
     1
  0
ACDBDICTIONARYWDFLT
  5
E
102
{ACAD_REACTORS
330
C
102
}
330
C
100
AcDbDictionary
281
     1
  3
Normal
350
F
100
AcDbDictionaryWithDefault
340
F
  0
DICTIONARY
  5
2E0
102
{ACAD_REACTORS
330
C
102
}
330
C
100
AcDbDictionary
281
     1
  0
DICTIONARY
  5
2A
102
{ACAD_REACTORS
330
C
102
}
330
C
100
AcDbDictionary
281
     1
  3
2dWireframe
350
2F
  3
3D Hidden
350
31
  3
3dWireframe
350
30
  3
Basic
350
32
  3
Brighten
350
36
  3
ColorChange
350
3A
  3
Conceptual
350
34
  3
Dim
350
35
  3
Facepattern
350
39
  3
Flat
350
2B
  3
FlatWithEdges
350
2C
  3
Gouraud
350
2D
  3
GouraudWithEdges
350
2E
  3
Linepattern
350
38
  3
Realistic
350
33
  3
Thicken
350
37
  0
LAYOUT
  5
1E
102
{ACAD_REACTORS
330
1A
102
}
330
1A
100
AcDbPlotSettings
  1

  2
none_device
  4

  6

 40
0.0
 41
0.0
 42
0.0
 43
0.0
 44
0.0
 45
0.0
 46
0.0
 47
0.0
 48
0.0
 49
0.0
140
0.0
141
0.0
142
1.0
143
1.0
 70
   688
 72
     0
 73
     0
 74
     5
  7

 75
    16
147
1.0
148
0.0
149
0.0
100
AcDbLayout
  1
Layout1
 70
     1
 71
     1
 10
0.0
 20
0.0
 11
12.0
 21
9.0
 12
0.0
 22
0.0
 32
0.0
 14
1.00000000000000E+20
 24
1.00000000000000E+20
 34
1.00000000000000E+20
 15
-1.00000000000000E+20
 25
-1.00000000000000E+20
 35
-1.00000000000000E+20
146
0.0
 13
0.0
 23
0.0
 33
0.0
 16
1.0
 26
0.0
 36
0.0
 17
0.0
 27
1.0
 37
0.0
 76
     0
330
1B
  0
LAYOUT
  5
26
102
{ACAD_REACTORS
330
1A
102
}
330
1A
100
AcDbPlotSettings
  1

  2
none_device
  4

  6

 40
0.0
 41
0.0
 42
0.0
 43
0.0
 44
0.0
 45
0.0
 46
0.0
 47
0.0
 48
0.0
 49
0.0
140
0.0
141
0.0
142
1.0
143
1.0
 70
   688
 72
     0
 73
     0
 74
     5
  7

 75
    16
147
1.0
148
0.0
149
0.0
100
AcDbLayout
  1
Layout2
 70
     1
 71
     2
 10
0.0
 20
0.0
 11
0.0
 21
0.0
 12
0.0
 22
0.0
 32
0.0
 14
0.0
 24
0.0
 34
0.0
 15
0.0
 25
0.0
 35
0.0
146
0.0
 13
0.0
 23
0.0
 33
0.0
 16
1.0
 26
0.0
 36
0.0
 17
0.0
 27
1.0
 37
0.0
 76
     0
330
23
  0
LAYOUT
  5
22
102
{ACAD_REACTORS
330
1A
102
}
330
1A
100
AcDbPlotSettings
  1

  2
none_device
  4

  6

 40
0.0
 41
0.0
 42
0.0
 43
0.0
 44
0.0
 45
0.0
 46
0.0
 47
0.0
 48
0.0
 49
0.0
140
0.0
141
0.0
142
1.0
143
1.0
 70
  1712
 72
     0
 73
     0
 74
     0
  7

 75
     0
147
1.0
148
0.0
149
0.0
100
AcDbLayout
  1
Model
 70
     1
 71
     0
 10
0.0
 20
0.0
 11
12.0
 21
9.0
 12
0.0
 22
0.0
 32
0.0
 14
-98.47103573463919
 24
683.156723513683
 34
0.0
 15
321.5289642653592
 25
980.156723513683
 35
0.0
146
0.0
 13
0.0
 23
0.0
 33
0.0
 16
1.0
 26
0.0
 36
0.0
 17
0.0
 27
1.0
 37
0.0
 76
     0
330
1F
331
29
  0
MLINESTYLE
  5
18
102
{ACAD_REACTORS
330
17
102
}
330
17
100
AcDbMlineStyle
  2
Standard
 70
     0
  3

 62
   256
 51
90.0
 52
90.0
 71
     2
 49
0.5
 62
   256
  6
BYLAYER
 49
-0.5
 62
   256
  6
BYLAYER
  0
ACDBPLACEHOLDER
  5
F
102
{ACAD_REACTORS
330
E
102
}
330
E
  0
VISUALSTYLE
  5
2F
102
{ACAD_REACTORS
330
2A
102
}
330
2A
100
AcDbVisualStyle
  2
2dWireframe
 70
     4
 71
     0
 72
     2
 73
     0
 90
        0
 40
-0.6
 41
-30.0
 62
     5
 63
     7
 74
     1
 91
        4
 64
     7
 65
   257
 75
     1
175
     1
 42
1.0
 92
        0
 66
   257
 43
1.0
 76
     1
 77
     6
 78
     2
 67
     7
 79
     5
170
     0
171
     0
290
     0
174
     0
 93
        1
 44
0.0
173
     0
291
     0
 45
0.0
1001
ACAD
1000
AcDbSavedByObjectVersion
1070
     0
  0
VISUALSTYLE
  5
31
102
{ACAD_REACTORS
330
2A
102
}
330
2A
100
AcDbVisualStyle
  2
3D Hidden
 70
     6
 71
     1
 72
     2
 73
     2
 90
        0
 40
-0.6
 41
-30.0
 62
     5
 63
     7
 74
     2
 91
        2
 64
     7
 65
   257
 75
     2
175
     1
 42
40.0
 92
        0
 66
   257
 43
1.0
 76
     1
 77
     6
 78
     2
 67
     7
 79
     3
170
     0
171
     0
290
     0
174
     0
 93
        1
 44
0.0
173
     0
291
     0
 45
0.0
1001
ACAD
1000
AcDbSavedByObjectVersion
1070
     0
  0
VISUALSTYLE
  5
30
102
{ACAD_REACTORS
330
2A
102
}
330
2A
100
AcDbVisualStyle
  2
3dWireframe
 70
     5
 71
     0
 72
     2
 73
     0
 90
        0
 40
-0.6
 41
-30.0
 62
     5
 63
     7
 74
     1
 91
        4
 64
     7
 65
   257
 75
     1
175
     1
 42
1.0
 92
        0
 66
   257
 43
1.0
 76
     1
 77
     6
 78
     2
 67
     7
 79
     5
170
     0
171
     0
290
     0
174
     0
 93
        1
 44
0.0
173
     0
291
     0
 45
0.0
1001
ACAD
1000
AcDbSavedByObjectVersion
1070
     0
  0
VISUALSTYLE
  5
32
102
{ACAD_REACTORS
330
2A
102
}
330
2A
100
AcDbVisualStyle
  2
Basic
 70
     7
 71
     1
 72
     0
 73
     1
 90
        0
 40
-0.6
 41
-30.0
 62
     5
 63
     7
 74
     0
 91
        4
 64
     7
 65
   257
 75
     1
175
     1
 42
1.0
 92
        8
 66
     7
 43
1.0
 76
     1
 77
     6
 78
     2
 67
     7
 79
     5
170
     0
171
     0
290
     0
174
     0
 93
        1
 44
0.0
173
     0
291
     1
 45
0.0
1001
ACAD
1000
AcDbSavedByObjectVersion
1070
     0
  0
VISUALSTYLE
  5
36
102
{ACAD_REACTORS
330
2A
102
}
330
2A
100
AcDbVisualStyle
  2
Brighten
 70
    12
 71
     2
 72
     2
 73
     0
 90
        0
 40
-0.6
 41
-30.0
 62
     5
 63
     7
 74
     1
 91
        4
 64
     7
 65
   257
 75
     1
175
     1
 42
1.0
 92
        8
 66
     7
 43
1.0
 76
     1
 77
     6
 78
     2
 67
     7
 79
     5
170
     0
171
     0
290
     0
174
     0
 93
        1
 44
50.0
173
     0
291
     1
 45
0.0
1001
ACAD
1000
AcDbSavedByObjectVersion
1070
     0
  0
VISUALSTYLE
  5
3A
102
{ACAD_REACTORS
330
2A
102
}
330
2A
100
AcDbVisualStyle
  2
ColorChange
 70
    16
 71
     2
 72
     2
 73
     3
 90
        0
 40
-0.6
 41
-30.0
 62
     5
 63
     8
 74
     1
 91
        4
 64
     7
 65
   257
 75
     1
175
     1
 42
1.0
 92
        8
 66
     8
 43
1.0
 76
     1
 77
     6
 78
     2
 67
     7
 79
     5
170
     0
171
     0
290
     0
174
     0
 93
        1
 44
0.0
173
     0
291
     1
 45
0.0
1001
ACAD
1000
AcDbSavedByObjectVersion
1070
     0
  0
VISUALSTYLE
  5
34
102
{ACAD_REACTORS
330
2A
102
}
330
2A
100
AcDbVisualStyle
  2
Conceptual
 70
     9
 71
     3
 72
     2
 73
     0
 90
        0
 40
-0.6
 41
-30.0
 62
     5
 63
     7
 74
     2
 91
        2
 64
     7
 65
   257
 75
     1
175
     1
 42
40.0
 92
        8
 66
     7
 43
1.0
 76
     1
 77
     6
 78
     2
 67
     7
 79
     3
170
     0
171
     0
290
     0
174
     0
 93
        1
 44
0.0
173
     0
291
     0
 45
0.0
1001
ACAD
1000
AcDbSavedByObjectVersion
1070
     0
  0
VISUALSTYLE
  5
35
102
{ACAD_REACTORS
330
2A
102
}
330
2A
100
AcDbVisualStyle
  2
Dim
 70
    11
 71
     2
 72
     2
 73
     0
 90
        0
 40
-0.6
 41
-30.0
 62
     5
 63
     7
 74
     1
 91
        4
 64
     7
 65
   257
 75
     1
175
     1
 42
1.0
 92
        8
 66
     7
 43
1.0
 76
     1
 77
     6
 78
     2
 67
     7
 79
     5
170
     0
171
     0
290
     0
174
     0
 93
        1
 44
-50.0
173
     0
291
     1
 45
0.0
1001
ACAD
1000
AcDbSavedByObjectVersion
1070
     0
  0
VISUALSTYLE
  5
39
102
{ACAD_REACTORS
330
2A
102
}
330
2A
100
AcDbVisualStyle
  2
Facepattern
 70
    15
 71
     2
 72
     2
 73
     0
 90
        0
 40
-0.6
 41
-30.0
 62
     5
 63
     7
 74
     1
 91
        4
 64
     7
 65
   257
 75
     1
175
     1
 42
1.0
 92
        8
 66
     7
 43
1.0
 76
     1
 77
     6
 78
     2
 67
     7
 79
     5
170
     0
171
     0
290
     0
174
     0
 93
        1
 44
0.0
173
     0
291
     1
 45
0.0
1001
ACAD
1000
AcDbSavedByObjectVersion
1070
     0
  0
VISUALSTYLE
  5
2B
102
{ACAD_REACTORS
330
2A
102
}
330
2A
100
AcDbVisualStyle
  2
Flat
 70
     0
 71
     2
 72
     1
 73
     1
 90
        2
 40
-0.6
 41
30.0
 62
     5
 63
     7
 74
     0
 91
        4
 64
     7
 65
   257
 75
     1
175
     1
 42
1.0
 92
        8
 66
     7
 43
1.0
 76
     1
 77
     6
 78
     2
 67
     7
 79
     5
170
     0
171
     0
290
     0
174
     0
 93
       13
 44
0.0
173
     0
291
     1
 45
0.0
1001
ACAD
1000
AcDbSavedByObjectVersion
1070
     0
  0
VISUALSTYLE
  5
2C
102
{ACAD_REACTORS
330
2A
102
}
330
2A
100
AcDbVisualStyle
  2
FlatWithEdges
 70
     1
 71
     2
 72
     1
 73
     1
 90
        2
 40
-0.6
 41
30.0
 62
     5
 63
     7
 74
     1
 91
        4
 64
     7
 65
   257
 75
     1
175
     1
 42
1.0
 92
        0
 66
   257
 43
1.0
 76
     1
 77
     6
 78
     2
 67
     7
 79
     5
170
     0
171
     0
290
     0
174
     0
 93
       13
 44
0.0
173
     0
291
     1
 45
0.0
1001
ACAD
1000
AcDbSavedByObjectVersion
1070
     0
  0
VISUALSTYLE
  5
2D
102
{ACAD_REACTORS
330
2A
102
}
330
2A
100
AcDbVisualStyle
  2
Gouraud
 70
     2
 71
     2
 72
     2
 73
     1
 90
        2
 40
-0.6
 41
30.0
 62
     5
 63
     7
 74
     0
 91
        4
 64
     7
 65
   257
 75
     1
175
     1
 42
1.0
 92
        0
 66
     7
 43
1.0
 76
     1
 77
     6
 78
     2
 67
     7
 79
     5
170
     0
171
     0
290
     0
174
     0
 93
       13
 44
0.0
173
     0
291
     1
 45
0.0
1001
ACAD
1000
AcDbSavedByObjectVersion
1070
     0
  0
VISUALSTYLE
  5
2E
102
{ACAD_REACTORS
330
2A
102
}
330
2A
100
AcDbVisualStyle
  2
GouraudWithEdges
 70
     3
 71
     2
 72
     2
 73
     1
 90
        2
 40
-0.6
 41
30.0
 62
     5
 63
     7
 74
     1
 91
        4
 64
     7
 65
   257
 75
     1
175
     1
 42
1.0
 92
        0
 66
   257
 43
1.0
 76
     1
 77
     6
 78
     2
 67
     7
 79
     5
170
     0
171
     0
290
     0
174
     0
 93
       13
 44
0.0
173
     0
291
     1
 45
0.0
1001
ACAD
1000
AcDbSavedByObjectVersion
1070
     0
  0
VISUALSTYLE
  5
38
102
{ACAD_REACTORS
330
2A
102
}
330
2A
100
AcDbVisualStyle
  2
Linepattern
 70
    14
 71
     2
 72
     2
 73
     0
 90
        0
 40
-0.6
 41
-30.0
 62
     5
 63
     7
 74
     1
 91
        4
 64
     7
 65
   257
 75
     7
175
     7
 42
1.0
 92
        8
 66
     7
 43
1.0
 76
     1
 77
     6
 78
     2
 67
     7
 79
     5
170
     0
171
     0
290
     0
174
     0
 93
        1
 44
0.0
173
     0
291
     1
 45
0.0
1001
ACAD
1000
AcDbSavedByObjectVersion
1070
     0
  0
VISUALSTYLE
  5
33
102
{ACAD_REACTORS
330
2A
102
}
330
2A
100
AcDbVisualStyle
  2
Realistic
 70
     8
 71
     2
 72
     2
 73
     0
 90
        0
 40
-0.6
 41
-30.0
 62
     5
 63
     7
 74
     1
 91
        0
 64
     7
 65
   257
 75
     1
175
     1
 42
1.0
 92
        8
 66
     8
 43
1.0
 76
     1
 77
     6
 78
     2
 67
     7
 79
     5
170
     0
171
     0
290
     0
174
     0
 93
       13
 44
0.0
173
     0
291
     0
 45
0.0
1001
ACAD
1000
AcDbSavedByObjectVersion
1070
     0
  0
VISUALSTYLE
  5
37
102
{ACAD_REACTORS
330
2A
102
}
330
2A
100
AcDbVisualStyle
  2
Thicken
 70
    13
 71
     2
 72
     2
 73
     0
 90
        0
 40
-0.6
 41
-30.0
 62
     5
 63
     7
 74
     1
 91
        4
 64
     7
 65
   257
 75
     1
175
     1
 42
1.0
 92
       12
 66
     7
 43
1.0
 76
     1
 77
     6
 78
     2
 67
     7
 79
     5
170
     0
171
     0
290
     0
174
     0
 93
        1
 44
0.0
173
     0
291
     1
 45
0.0
1001
ACAD
1000
AcDbSavedByObjectVersion
1070
     0
  0
ENDSEC
  0
EOF
