  0
SECTION
  2
HEADER
  9
$ACADVER
  1
AC1015
  9
$ACADMAINTVER
 70
     6
  9
$DWGCODEPAGE
  3
ANSI_1252
  9
$INSBASE
 10
0.0
 20
0.0
 30
0.0
  9
$EXTMIN
 10
-1321.996306757159
 20
-1280.71595726021
 30
0.0
  9
$EXTMAX
 10
-901.9963067571609
 20
-983.71595726021
 30
0.0
  9
$LIMMIN
 10
0.0
 20
0.0
  9
$LIMMAX
 10
12.0
 20
9.0
  9
$ORTHOMODE
 70
     0
  9
$REGENMODE
 70
     1
  9
$FILLMODE
 70
     1
  9
$QTEXTMODE
 70
     0
  9
$MIRRTEXT
 70
     1
  9
$LTSCALE
 40
1.0
  9
$ATTMODE
 70
     1
  9
$TEXTSIZE
 40
0.2
  9
$TRACEWID
 40
0.05
  9
$TEXTSTYLE
  7
Standard
  9
$CLAYER
  8
0
  9
$CELTYPE
  6
ByLayer
  9
$CECOLOR
 62
   256
  9
$CELTSCALE
 40
1.0
  9
$DISPSILH
 70
     0
  9
$DIMSCALE
 40
1.0
  9
$DIMASZ
 40
0.18
  9
$DIMEXO
 40
0.0625
  9
$DIMDLI
 40
0.38
  9
$DIMRND
 40
0.0
  9
$DIMDLE
 40
0.0
  9
$DIMEXE
 40
0.18
  9
$DIMTP
 40
0.0
  9
$DIMTM
 40
0.0
  9
$DIMTXT
 40
0.18
  9
$DIMCEN
 40
0.09
  9
$DIMTSZ
 40
0.0
  9
$DIMTOL
 70
     0
  9
$DIMLIM
 70
     0
  9
$DIMTIH
 70
     1
  9
$DIMTOH
 70
     1
  9
$DIMSE1
 70
     0
  9
$DIMSE2
 70
     0
  9
$DIMTAD
 70
     0
  9
$DIMZIN
 70
     0
  9
$DIMBLK
  1

  9
$DIMASO
 70
     1
  9
$DIMSHO
 70
     1
  9
$DIMPOST
  1

  9
$DIMAPOST
  1

  9
$DIMALT
 70
     0
  9
$DIMALTD
 70
     2
  9
$DIMALTF
 40
25.4
  9
$DIMLFAC
 40
1.0
  9
$DIMTOFL
 70
     0
  9
$DIMTVP
 40
0.0
  9
$DIMTIX
 70
     0
  9
$DIMSOXD
 70
     0
  9
$DIMSAH
 70
     0
  9
$DIMBLK1
  1

  9
$DIMBLK2
  1

  9
$DIMSTYLE
  2
Standard
  9
$DIMCLRD
 70
     0
  9
$DIMCLRE
 70
     0
  9
$DIMCLRT
 70
     0
  9
$DIMTFAC
 40
1.0
  9
$DIMGAP
 40
0.09
  9
$DIMJUST
 70
     0
  9
$DIMSD1
 70
     0
  9
$DIMSD2
 70
     0
  9
$DIMTOLJ
 70
     1
  9
$DIMTZIN
 70
     0
  9
$DIMALTZ
 70
     0
  9
$DIMALTTZ
 70
     0
  9
$DIMUPT
 70
     0
  9
$DIMDEC
 70
     4
  9
$DIMTDEC
 70
     4
  9
$DIMALTU
 70
     2
  9
$DIMALTTD
 70
     2
  9
$DIMTXSTY
  7
Standard
  9
$DIMAUNIT
 70
     0
  9
$DIMADEC
 70
     0
  9
$DIMALTRND
 40
0.0
  9
$DIMAZIN
 70
     0
  9
$DIMDSEP
 70
    46
  9
$DIMATFIT
 70
     3
  9
$DIMFRAC
 70
     0
  9
$DIMLDRBLK
  1

  9
$DIMLUNIT
 70
     2
  9
$DIMLWD
 70
    -2
  9
$DIMLWE
 70
    -2
  9
$DIMTMOVE
 70
     0
  9
$LUNITS
 70
     2
  9
$LUPREC
 70
     4
  9
$SKETCHINC
 40
0.1
  9
$FILLETRAD
 40
0.5
  9
$AUNITS
 70
     0
  9
$AUPREC
 70
     0
  9
$MENU
  1
.
  9
$ELEVATION
 40
0.0
  9
$PELEVATION
 40
0.0
  9
$THICKNESS
 40
0.0
  9
$LIMCHECK
 70
     0
  9
$CHAMFERA
 40
0.5
  9
$CHAMFERB
 40
0.5
  9
$CHAMFERC
 40
1.0
  9
$CHAMFERD
 40
0.0
  9
$SKPOLY
 70
     0
  9
$TDCREATE
 40
2455987.655358368
  9
$TDUCREATE
 40
2455987.613691702
  9
$TDUPDATE
 40
2455987.65535838
  9
$TDUUPDATE
 40
2455987.613691713
  9
$TDINDWG
 40
0.0000000116
  9
$TDUSRTIMER
 40
0.0000000116
  9
$USRTIMER
 70
     1
  9
$ANGBASE
 50
0.0
  9
$ANGDIR
 70
     0
  9
$PDMODE
 70
     0
  9
$PDSIZE
 40
0.0
  9
$PLINEWID
 40
0.0
  9
$SPLFRAME
 70
     0
  9
$SPLINETYPE
 70
     6
  9
$SPLINESEGS
 70
     8
  9
$HANDSEED
  5
34A
  9
$SURFTAB1
 70
     6
  9
$SURFTAB2
 70
     6
  9
$SURFTYPE
 70
     6
  9
$SURFU
 70
     6
  9
$SURFV
 70
     6
  9
$UCSBASE
  2

  9
$UCSNAME
  2

  9
$UCSORG
 10
0.0
 20
0.0
 30
0.0
  9
$UCSXDIR
 10
1.0
 20
0.0
 30
0.0
  9
$UCSYDIR
 10
0.0
 20
1.0
 30
0.0
  9
$UCSORTHOREF
  2

  9
$UCSORTHOVIEW
 70
     0
  9
$UCSORGTOP
 10
0.0
 20
0.0
 30
0.0
  9
$UCSORGBOTTOM
 10
0.0
 20
0.0
 30
0.0
  9
$UCSORGLEFT
 10
0.0
 20
0.0
 30
0.0
  9
$UCSORGRIGHT
 10
0.0
 20
0.0
 30
0.0
  9
$UCSORGFRONT
 10
0.0
 20
0.0
 30
0.0
  9
$UCSORGBACK
 10
0.0
 20
0.0
 30
0.0
  9
$PUCSBASE
  2

  9
$PUCSNAME
  2

  9
$PUCSORG
 10
0.0
 20
0.0
 30
0.0
  9
$PUCSXDIR
 10
1.0
 20
0.0
 30
0.0
  9
$PUCSYDIR
 10
0.0
 20
1.0
 30
0.0
  9
$PUCSORTHOREF
  2

  9
$PUCSORTHOVIEW
 70
     0
  9
$PUCSORGTOP
 10
0.0
 20
0.0
 30
0.0
  9
$PUCSORGBOTTOM
 10
0.0
 20
0.0
 30
0.0
  9
$PUCSORGLEFT
 10
0.0
 20
0.0
 30
0.0
  9
$PUCSORGRIGHT
 10
0.0
 20
0.0
 30
0.0
  9
$PUCSORGFRONT
 10
0.0
 20
0.0
 30
0.0
  9
$PUCSORGBACK
 10
0.0
 20
0.0
 30
0.0
  9
$USERI1
 70
     0
  9
$USERI2
 70
     0
  9
$USERI3
 70
     0
  9
$USERI4
 70
     0
  9
$USERI5
 70
     0
  9
$USERR1
 40
16.0
  9
$USERR2
 40
0.0
  9
$USERR3
 40
0.0
  9
$USERR4
 40
0.0
  9
$USERR5
 40
0.0
  9
$WORLDVIEW
 70
     1
  9
$SHADEDGE
 70
     3
  9
$SHADEDIF
 70
    70
  9
$TILEMODE
 70
     1
  9
$MAXACTVP
 70
    64
  9
$PINSBASE
 10
0.0
 20
0.0
 30
0.0
  9
$PLIMCHECK
 70
     0
  9
$PEXTMIN
 10
1.00000000000000E+20
 20
1.00000000000000E+20
 30
1.00000000000000E+20
  9
$PEXTMAX
 10
-1.00000000000000E+20
 20
-1.00000000000000E+20
 30
-1.00000000000000E+20
  9
$PLIMMIN
 10
0.0
 20
0.0
  9
$PLIMMAX
 10
12.0
 20
9.0
  9
$UNITMODE
 70
     0
  9
$VISRETAIN
 70
     1
  9
$PLINEGEN
 70
     0
  9
$PSLTSCALE
 70
     1
  9
$TREEDEPTH
 70
  3020
  9
$CMLSTYLE
  2
Standard
  9
$CMLJUST
 70
     0
  9
$CMLSCALE
 40
1.0
  9
$PROXYGRAPHICS
 70
     1
  9
$MEASUREMENT
 70
     1
  9
$CELWEIGHT
370
    -1
  9
$ENDCAPS
280
     0
  9
$JOINSTYLE
280
     0
  9
$LWDISPLAY
290
     0
  9
$INSUNITS
 70
     1
  9
$HYPERLINKBASE
  1

  9
$STYLESHEET
  1

  9
$XEDIT
290
     1
  9
$CEPSNTYPE
380
     0
  9
$PSTYLEMODE
290
     1
  9
$FINGERPRINTGUID
  2
{FD1CA5D5-7008-4E4C-A161-C456EBC70F3F}
  9
$VERSIONGUID
  2
{FAEB1C32-E019-11D5-929B-00C0DF256EC4}
  9
$EXTNAMES
290
     1
  9
$PSVPSCALE
 40
0.0
  9
$OLESTARTUP
290
     0
  0
ENDSEC
  0
SECTION
  2
CLASSES
  0
CLASS
  1
ACDBDICTIONARYWDFLT
  2
AcDbDictionaryWithDefault
  3
ObjectDBX Classes
 90
        0
280
     0
281
     0
  0
CLASS
  1
VISUALSTYLE
  2
AcDbVisualStyle
  3
ObjectDBX Classes
 90
     4095
280
     0
281
     0
  0
CLASS
  1

  2
exOdDbSpline
  3

 90
        0
280
     0
281
     1
  0
CLASS
  1

  2
exOdDbCircle
  3

 90
        0
280
     0
281
     1
  0
CLASS
  1
ACDBPLACEHOLDER
  2
AcDbPlaceHolder
  3
ObjectDBX Classes
 90
        0
280
     0
281
     0
  0
CLASS
  1
LAYOUT
  2
AcDbLayout
  3
ObjectDBX Classes
 90
        0
280
     0
281
     0
  0
ENDSEC
  0
SECTION
  2
TABLES
  0
TABLE
  2
VPORT
  5
8
330
0
100
AcDbSymbolTable
 70
     1
  0
VPORT
  5
29
330
8
100
AcDbSymbolTableRecord
100
AcDbViewportTableRecord
  2
*Active
 70
     0
 10
0.0
 20
0.0
 11
1.0
 21
1.0
 12
-1111.99630675716
 22
-1132.21595726021
 13
0.0
 23
0.0
 14
0.5
 24
0.5
 15
0.5
 25
0.5
 16
0.0
 26
0.0
 36
1.0
 17
0.0
 27
0.0
 37
0.0
 40
326.7
 41
1.60267857142857
 42
50.0
 43
0.0
 44
0.0
 50
0.0
 51
0.0
 71
     0
 72
   100
 73
     1
 74
     3
 75
     0
 76
     0
 77
     0
 78
     0
281
     0
 65
     1
110
0.0
120
0.0
130
0.0
111
1.0
121
0.0
131
0.0
112
0.0
122
1.0
132
0.0
 79
     0
146
0.0
  0
ENDTAB
  0
TABLE
  2
LTYPE
  5
5
330
0
100
AcDbSymbolTable
 70
     8
  0
LTYPE
  5
14
330
5
100
AcDbSymbolTableRecord
100
AcDbLinetypeTableRecord
  2
ByBlock
 70
     0
  3

 72
    65
 73
     0
 40
0.0
  0
LTYPE
  5
15
330
5
100
AcDbSymbolTableRecord
100
AcDbLinetypeTableRecord
  2
ByLayer
 70
     0
  3

 72
    65
 73
     0
 40
0.0
  0
LTYPE
  5
16
330
5
100
AcDbSymbolTableRecord
100
AcDbLinetypeTableRecord
  2
Continuous
 70
     0
  3
Solid line
 72
    65
 73
     0
 40
0.0
  0
LTYPE
  5
3B
330
5
100
AcDbSymbolTableRecord
100
AcDbLinetypeTableRecord
  2
DASHED
 70
     0
  3
Dashed
 72
    65
 73
     2
 40
15.0
 49
7.0
 74
     0
 49
-8.0
 74
     0
  0
LTYPE
  5
3C
330
5
100
AcDbSymbolTableRecord
100
AcDbLinetypeTableRecord
  2
DOTTED
 70
     0
  3
Dotted
 72
    65
 73
     2
 40
1.0
 49
0.0
 74
     0
 49
-1.0
 74
     0
  0
LTYPE
  5
3D
330
5
100
AcDbSymbolTableRecord
100
AcDbLinetypeTableRecord
  2
DOT_CENTER
 70
     0
  3
Dot_Center
 72
    65
 73
     4
 40
14.0
 49
12.0
 74
     0
 49
-1.0
 74
     0
 49
0.0
 74
     0
 49
-1.0
 74
     0
  0
LTYPE
  5
3E
330
5
100
AcDbSymbolTableRecord
100
AcDbLinetypeTableRecord
  2
LONG_DASHED
 70
     0
  3
Long_Dashed
 72
    65
 73
     2
 40
15.0
 49
10.0
 74
     0
 49
-5.0
 74
     0
  0
LTYPE
  5
3F
330
5
100
AcDbSymbolTableRecord
100
AcDbLinetypeTableRecord
  2
DASH_CENTER
 70
     0
  3
Dash_Center
 72
    65
 73
     4
 40
14.0
 49
11.0
 74
     0
 49
-1.0
 74
     0
 49
1.0
 74
     0
 49
-1.0
 74
     0
  0
LTYPE
  5
40
330
5
100
AcDbSymbolTableRecord
100
AcDbLinetypeTableRecord
  2
PHANTOM
 70
     0
  3
Phantom
 72
    65
 73
     6
 40
13.0
 49
10.0
 74
     0
 49
-1.0
 74
     0
 49
0.0
 74
     0
 49
-1.0
 74
     0
 49
0.0
 74
     0
 49
-1.0
 74
     0
  0
LTYPE
  5
41
330
5
100
AcDbSymbolTableRecord
100
AcDbLinetypeTableRecord
  2
CENTER_DASH_DASH
 70
     0
  3
Center_Dash_Dash
 72
    65
 73
     6
 40
14.0
 49
9.0
 74
     0
 49
-1.0
 74
     0
 49
1.0
 74
     0
 49
-1.0
 74
     0
 49
1.0
 74
     0
 49
-1.0
 74
     0
  0
ENDTAB
  0
TABLE
  2
LAYER
  5
2
330
0
100
AcDbSymbolTable
 70
     2
  0
LAYER
  5
10
330
2
100
AcDbSymbolTableRecord
100
AcDbLayerTableRecord
  2
0
 70
     0
 62
     7
  6
Continuous
370
    -3
390
F
  0
LAYER
  5
42
330
2
100
AcDbSymbolTableRecord
100
AcDbLayerTableRecord
  2
1
 70
     0
 62
     7
  6
Continuous
370
    -3
390
F
  0
ENDTAB
  0
TABLE
  2
STYLE
  5
3
330
0
100
AcDbSymbolTable
 70
     9
  0
STYLE
  5
11
330
3
100
AcDbSymbolTableRecord
100
AcDbTextStyleTableRecord
  2
Standard
 70
     0
 40
0.0
 41
1.0
 50
0.0
 71
     0
 42
0.2
  3
txt
  4

  0
STYLE
  5
88
330
3
100
AcDbSymbolTableRecord
100
AcDbTextStyleTableRecord
  2
CONVERTER_11
 70
     0
 40
0.0
 41
0.9
 50
0.0
 71
     0
 42
0.2
  3
txt.shx
  4

  0
STYLE
  5
2C1
330
3
100
AcDbSymbolTableRecord
100
AcDbTextStyleTableRecord
  2
CONVERTER_12
 70
     0
 40
0.0
 41
0.765
 50
0.0
 71
     0
 42
0.2
  3
txt.shx
  4

  0
STYLE
  5
2E8
330
3
100
AcDbSymbolTableRecord
100
AcDbTextStyleTableRecord
  2
CONVERTER_13
 70
     0
 40
0.0
 41
0.855
 50
0.0
 71
     0
 42
0.2
  3
txt.shx
  4

  0
STYLE
  5
304
330
3
100
AcDbSymbolTableRecord
100
AcDbTextStyleTableRecord
  2
CONVERTER_14
 70
     0
 40
0.0
 41
0.72
 50
0.0
 71
     0
 42
0.2
  3
txt.shx
  4

  0
STYLE
  5
306
330
3
100
AcDbSymbolTableRecord
100
AcDbTextStyleTableRecord
  2
CONVERTER_15
 70
     0
 40
0.0
 41
0.54
 50
0.0
 71
     0
 42
0.2
  3
txt.shx
  4

  0
STYLE
  5
308
330
3
100
AcDbSymbolTableRecord
100
AcDbTextStyleTableRecord
  2
CONVERTER_16
 70
     0
 40
0.0
 41
0.81
 50
0.0
 71
     0
 42
0.2
  3
txt.shx
  4

  0
STYLE
  5
323
330
3
100
AcDbSymbolTableRecord
100
AcDbTextStyleTableRecord
  2
CONVERTER_17
 70
     0
 40
0.0
 41
0.45
 50
0.0
 71
     0
 42
0.2
  3
txt.shx
  4

  0
STYLE
  5
326
330
3
100
AcDbSymbolTableRecord
100
AcDbTextStyleTableRecord
  2
CONVERTER_18
 70
     0
 40
0.0
 41
0.63
 50
0.0
 71
     0
 42
0.2
  3
txt.shx
  4

  0
ENDTAB
  0
TABLE
  2
VIEW
  5
6
330
0
100
AcDbSymbolTable
 70
     0
  0
ENDTAB
  0
TABLE
  2
UCS
  5
7
330
0
100
AcDbSymbolTable
 70
     0
  0
ENDTAB
  0
TABLE
  2
APPID
  5
9
330
0
100
AcDbSymbolTable
 70
     1
  0
APPID
  5
12
330
9
100
AcDbSymbolTableRecord
100
AcDbRegAppTableRecord
  2
ACAD
 70
     0
  0
ENDTAB
  0
TABLE
  2
DIMSTYLE
  5
A
330
0
100
AcDbSymbolTable
 70
     4
100
AcDbDimStyleTable
  0
DIMSTYLE
105
27
330
A
100
AcDbSymbolTableRecord
100
AcDbDimStyleTableRecord
  2
Standard
 70
     0
340
11
  0
DIMSTYLE
105
DE
102
{ACAD_REACTORS
330
DF
102
}
330
A
100
AcDbSymbolTableRecord
100
AcDbDimStyleTableRecord
  2
ME10_DIM_10
 70
     0
 41
7.0
 42
0.0
 44
4.0
 73
     0
 74
     0
 77
     1
 78
     8
140
7.0
147
4.0
172
     1
173
     1
176
     2
177
     2
178
     3
340
88
  0
DIMSTYLE
105
12B
102
{ACAD_REACTORS
330
12C
102
}
330
A
100
AcDbSymbolTableRecord
100
AcDbDimStyleTableRecord
  2
ME10_DIM_11
 70
     0
 41
7.0
 42
0.0
 44
4.0
 73
     0
 74
     0
 77
     1
 78
     8
140
7.0
147
4.0
172
     1
173
     1
176
     2
177
     2
178
     3
340
88
  0
DIMSTYLE
105
136
102
{ACAD_REACTORS
330
137
102
}
330
A
100
AcDbSymbolTableRecord
100
AcDbDimStyleTableRecord
  2
ME10_DIM_12
 70
     0
 41
7.0
 42
0.0
 44
4.0
 73
     0
 74
     0
 77
     1
 78
     8
140
7.0
147
4.0
172
     1
173
     1
176
     2
177
     2
178
     3
340
88
  0
ENDTAB
  0
TABLE
  2
BLOCK_RECORD
  5
1
330
0
100
AcDbSymbolTable
 70
    19
  0
BLOCK_RECORD
  5
1F
330
1
100
AcDbSymbolTableRecord
100
AcDbBlockTableRecord
  2
*Model_Space
340
22
  0
BLOCK_RECORD
  5
1B
330
1
100
AcDbSymbolTableRecord
100
AcDbBlockTableRecord
  2
*Paper_Space
340
1E
  0
BLOCK_RECORD
  5
23
330
1
100
AcDbSymbolTableRecord
100
AcDbBlockTableRecord
  2
*Paper_Space0
340
26
  0
BLOCK_RECORD
  5
43
330
1
100
AcDbSymbolTableRecord
100
AcDbBlockTableRecord
  2
3240200_CD_80_80-select__1
340
0
102
{BLKREFS
331
47
102
}
  0
BLOCK_RECORD
  5
46
330
1
100
AcDbSymbolTableRecord
100
AcDbBlockTableRecord
  2
AllgSicht1
340
0
102
{BLKREFS
331
78
102
}
  0
BLOCK_RECORD
  5
4A
330
1
100
AcDbSymbolTableRecord
100
AcDbBlockTableRecord
  2
3240200_CD_80_80-select__2
340
0
102
{BLKREFS
331
4E
102
}
  0
BLOCK_RECORD
  5
4D
330
1
100
AcDbSymbolTableRecord
100
AcDbBlockTableRecord
  2
Drfsicht1
340
0
102
{BLKREFS
331
79
102
}
  0
BLOCK_RECORD
  5
51
330
1
100
AcDbSymbolTableRecord
100
AcDbBlockTableRecord
  2
3240200_CD_80_80-select__3
340
0
102
{BLKREFS
331
55
102
}
  0
BLOCK_RECORD
  5
54
330
1
100
AcDbSymbolTableRecord
100
AcDbBlockTableRecord
  2
Rckans1
340
0
102
{BLKREFS
331
7A
102
}
  0
BLOCK_RECORD
  5
58
330
1
100
AcDbSymbolTableRecord
100
AcDbBlockTableRecord
  2
3240200_CD_80_80-select__4
340
0
102
{BLKREFS
331
5C
102
}
  0
BLOCK_RECORD
  5
5B
330
1
100
AcDbSymbolTableRecord
100
AcDbBlockTableRecord
  2
SA_Links1
340
0
102
{BLKREFS
331
7B
102
}
  0
BLOCK_RECORD
  5
5F
330
1
100
AcDbSymbolTableRecord
100
AcDbBlockTableRecord
  2
3240200_CD_80_80-select__5
340
0
102
{BLKREFS
331
63
102
}
  0
BLOCK_RECORD
  5
62
330
1
100
AcDbSymbolTableRecord
100
AcDbBlockTableRecord
  2
SA_Rechts1
340
0
102
{BLKREFS
331
7C
102
}
  0
BLOCK_RECORD
  5
66
330
1
100
AcDbSymbolTableRecord
100
AcDbBlockTableRecord
  2
3240200_CD_80_80-select__6
340
0
102
{BLKREFS
331
6A
102
}
  0
BLOCK_RECORD
  5
69
330
1
100
AcDbSymbolTableRecord
100
AcDbBlockTableRecord
  2
Vordans1
340
0
102
{BLKREFS
331
7D
102
}
  0
BLOCK_RECORD
  5
6D
330
1
100
AcDbSymbolTableRecord
100
AcDbBlockTableRecord
  2
_rahmen
340
0
102
{BLKREFS
331
74
102
}
  0
BLOCK_RECORD
  5
70
330
1
100
AcDbSymbolTableRecord
100
AcDbBlockTableRecord
  2
_punkt
340
0
102
{BLKREFS
331
75
102
}
  0
BLOCK_RECORD
  5
73
330
1
100
AcDbSymbolTableRecord
100
AcDbBlockTableRecord
  2
A3I
340
0
102
{BLKREFS
331
7E
102
}
  0
BLOCK_RECORD
  5
D5
330
1
100
AcDbSymbolTableRecord
100
AcDbBlockTableRecord
  2
*D16
340
0
  0
BLOCK_RECORD
  5
122
330
1
100
AcDbSymbolTableRecord
100
AcDbBlockTableRecord
  2
*D17
340
0
  0
BLOCK_RECORD
  5
12D
330
1
100
AcDbSymbolTableRecord
100
AcDbBlockTableRecord
  2
*D18
340
0
  0
ENDTAB
  0
ENDSEC
  0
SECTION
  2
BLOCKS
  0
BLOCK
  5
20
330
1F
100
AcDbEntity
  8
0
100
AcDbBlockBegin
  2
*Model_Space
 70
     0
 10
0.0
 20
0.0
 30
0.0
  3
*Model_Space
  1

  0
ENDBLK
  5
21
330
1F
100
AcDbEntity
  8
0
100
AcDbBlockEnd
  0
BLOCK
  5
1C
330
1B
100
AcDbEntity
 67
     1
  8
0
100
AcDbBlockBegin
  2
*Paper_Space
 70
     0
 10
0.0
 20
0.0
 30
0.0
  3
*Paper_Space
  1

  0
ENDBLK
  5
1D
330
1B
100
AcDbEntity
 67
     1
  8
0
100
AcDbBlockEnd
  0
BLOCK
  5
24
330
23
100
AcDbEntity
  8
0
100
AcDbBlockBegin
  2
*Paper_Space0
 70
     0
 10
0.0
 20
0.0
 30
0.0
  3
*Paper_Space0
  1

  0
ENDBLK
  5
25
330
23
100
AcDbEntity
  8
0
100
AcDbBlockEnd
  0
BLOCK
  5
44
330
43
100
AcDbEntity
  8
0
100
AcDbBlockBegin
  2
3240200_CD_80_80-select__1
 70
     0
 10
-2066.641016792861
 20
-2433.942288111897
 30
0.0
  3
3240200_CD_80_80-select__1
  1

  0
LINE
  5
7F
330
43
100
AcDbEntity
  8
0
  6
Continuous
 62
     7
100
AcDbLine
 10
-1997.358984490106
 20
-2364.660255809142
 30
0.0
 11
-1897.358984490106
 21
-2278.057715430698
 31
0.0
  0
LINE
  5
80
330
43
100
AcDbEntity
  8
0
  6
Continuous
 62
     7
100
AcDbLine
 10
-2066.641016792861
 20
-2344.660255809142
 30
0.0
 11
-1966.641016792861
 21
-2258.057715430698
 31
0.0
  0
LINE
  5
81
330
43
100
AcDbEntity
  8
0
  6
Continuous
 62
     7
100
AcDbLine
 10
-1997.358984490106
 20
-2364.660255809142
 30
0.0
 11
-2066.641016792861
 21
-2344.660255809142
 31
0.0
  0
LINE
  5
82
330
43
100
AcDbEntity
  8
0
  6
Continuous
 62
     7
100
AcDbLine
 10
-2066.641016792861
 20
-2344.660255809142
 30
0.0
 11
-2066.641016792861
 21
-2413.942288111897
 31
0.0
  0
LINE
  5
83
330
43
100
AcDbEntity
  8
0
  6
Continuous
 62
     7
100
AcDbLine
 10
-2066.641016792861
 20
-2413.942288111897
 30
0.0
 11
-1997.358984490106
 21
-2433.942288111897
 31
0.0
  0
LINE
  5
84
330
43
100
AcDbEntity
  8
0
  6
Continuous
 62
     7
100
AcDbLine
 10
-1897.358984490106
 20
-2278.057715430698
 30
0.0
 11
-1966.641016792861
 21
-2258.057715430698
 31
0.0
  0
LINE
  5
85
330
43
100
AcDbEntity
  8
0
  6
Continuous
 62
     7
100
AcDbLine
 10
-1997.358984490106
 20
-2433.942288111897
 30
0.0
 11
-1897.358984490106
 21
-2347.339747733453
 31
0.0
  0
LINE
  5
86
330
43
100
AcDbEntity
  8
0
  6
Continuous
 62
     7
100
AcDbLine
 10
-1997.358984490106
 20
-2433.942288111897
 30
0.0
 11
-1997.358984490106
 21
-2364.660255809142
 31
0.0
  0
LINE
  5
87
330
43
100
AcDbEntity
  8
0
  6
Continuous
 62
     7
100
AcDbLine
 10
-1897.358984490106
 20
-2347.339747733453
 30
0.0
 11
-1897.358984490106
 21
-2278.057715430698
 31
0.0
  0
ENDBLK
  5
45
330
43
100
AcDbEntity
  8
0
100
AcDbBlockEnd
  0
BLOCK
  5
48
330
46
100
AcDbEntity
  8
0
100
AcDbBlockBegin
  2
AllgSicht1
 70
     0
 10
-1982.000000000002
 20
-2346.00000062541
 30
0.0
  3
AllgSicht1
  1

  0
INSERT
  5
47
330
46
100
AcDbEntity
  8
0
100
AcDbBlockReference
  2
3240200_CD_80_80-select__1
 10
-2066.641016792861
 20
-2433.942288111897
 30
0.0
  0
MTEXT
  5
89
330
46
100
AcDbEntity
  8
1
 62
     6
100
AcDbMText
 10
-1982.0
 20
-2443.942287992406
 30
0.0
 40
10.0
 41
0.0
 71
     2
 72
     1
  1
 
  7
CONVERTER_11
 73
     1
 44
1.32052821128451
  0
ENDBLK
  5
49
330
46
100
AcDbEntity
  8
0
100
AcDbBlockEnd
  0
BLOCK
  5
4B
330
4A
100
AcDbEntity
  8
0
100
AcDbBlockBegin
  2
3240200_CD_80_80-select__2
 70
     0
 10
-2318.000000740723
 20
-2386.566486381692
 30
0.0
  3
3240200_CD_80_80-select__2
  1

  0
LINE
  5
8A
330
4A
100
AcDbEntity
  8
0
  6
Continuous
 62
     2
100
AcDbLine
 10
-2246.5
 20
-2311.049632381692
 30
0.0
 11
-2243.5
 21
-2309.049632381692
 31
0.0
  0
LINE
  5
8B
330
4A
100
AcDbEntity
  8
0
  6
Continuous
 62
     7
100
AcDbLine
 10
-2238.000000740723
 20
-2299.382966208841
 30
0.0
 11
-2238.000000740723
 21
-2223.566486381692
 31
0.0
  0
LINE
  5
8C
330
4A
100
AcDbEntity
  8
0
  6
Continuous
 62
     7
100
AcDbLine
 10
-2238.000000740723
 20
-2386.566486381692
 30
0.0
 11
-2238.000000740723
 21
-2309.382966208841
 31
0.0
  0
LINE
  5
8D
330
4A
100
AcDbEntity
  8
0
  6
Continuous
 62
     7
100
AcDbLine
 10
-2238.000000740723
 20
-2386.566486381692
 30
0.0
 11
-2318.000000740723
 21
-2386.566486381692
 31
0.0
  0
LINE
  5
8E
330
4A
100
AcDbEntity
  8
0
  6
Continuous
 62
     2
100
AcDbLine
 10
-2243.5
 20
-2299.049632381692
 30
0.0
 11
-2246.5
 21
-2301.049632381692
 31
0.0
  0
LINE
  5
8F
330
4A
100
AcDbEntity
  8
0
  6
Continuous
 62
     2
100
AcDbLine
 10
-2243.5
 20
-2309.049632381692
 30
0.0
 11
-2240.5
 21
-2311.049632381692
 31
0.0
  0
LINE
  5
90
330
4A
100
AcDbEntity
  8
0
  6
Continuous
 62
     2
100
AcDbLine
 10
-2246.5
 20
-2301.049632381692
 30
0.0
 11
-2249.5
 21
-2299.049632381692
 31
0.0
  0
LINE
  5
91
330
4A
100
AcDbEntity
  8
0
  6
Continuous
 62
     2
100
AcDbLine
 10
-2249.5
 20
-2309.049632381692
 30
0.0
 11
-2246.5
 21
-2311.049632381692
 31
0.0
  0
LINE
  5
92
330
4A
100
AcDbEntity
  8
0
  6
Continuous
 62
     7
100
AcDbLine
 10
-2318.000000740723
 20
-2386.566486381692
 30
0.0
 11
-2318.000000740723
 21
-2310.716299542174
 31
0.0
  0
LINE
  5
93
330
4A
100
AcDbEntity
  8
0
  6
Continuous
 62
     2
100
AcDbLine
 10
-2318.000000740723
 20
-2310.716299542174
 30
0.0
 11
-2315.5
 21
-2309.049632381692
 31
0.0
  0
LINE
  5
94
330
4A
100
AcDbEntity
  8
0
  6
Continuous
 62
     2
100
AcDbLine
 10
-2315.5
 20
-2309.049632381692
 30
0.0
 11
-2312.5
 21
-2311.049632381692
 31
0.0
  0
LINE
  5
95
330
4A
100
AcDbEntity
  8
0
  6
Continuous
 62
     2
100
AcDbLine
 10
-2312.5
 20
-2311.049632381692
 30
0.0
 11
-2309.5
 21
-2309.049632381692
 31
0.0
  0
LINE
  5
96
330
4A
100
AcDbEntity
  8
0
  6
Continuous
 62
     2
100
AcDbLine
 10
-2309.5
 20
-2309.049632381692
 30
0.0
 11
-2306.5
 21
-2311.049632381692
 31
0.0
  0
LINE
  5
97
330
4A
100
AcDbEntity
  8
0
  6
Continuous
 62
     2
100
AcDbLine
 10
-2306.5
 20
-2311.049632381692
 30
0.0
 11
-2303.5
 21
-2309.049632381692
 31
0.0
  0
LINE
  5
98
330
4A
100
AcDbEntity
  8
0
  6
Continuous
 62
     2
100
AcDbLine
 10
-2303.5
 20
-2309.049632381692
 30
0.0
 11
-2300.5
 21
-2311.049632381692
 31
0.0
  0
LINE
  5
99
330
4A
100
AcDbEntity
  8
0
  6
Continuous
 62
     2
100
AcDbLine
 10
-2300.5
 20
-2311.049632381692
 30
0.0
 11
-2297.5
 21
-2309.049632381692
 31
0.0
  0
LINE
  5
9A
330
4A
100
AcDbEntity
  8
0
  6
Continuous
 62
     2
100
AcDbLine
 10
-2297.5
 20
-2309.049632381692
 30
0.0
 11
-2294.5
 21
-2311.049632381692
 31
0.0
  0
LINE
  5
9B
330
4A
100
AcDbEntity
  8
0
  6
Continuous
 62
     2
100
AcDbLine
 10
-2294.5
 20
-2311.049632381692
 30
0.0
 11
-2291.5
 21
-2309.049632381692
 31
0.0
  0
LINE
  5
9C
330
4A
100
AcDbEntity
  8
0
  6
Continuous
 62
     2
100
AcDbLine
 10
-2291.5
 20
-2309.049632381692
 30
0.0
 11
-2288.5
 21
-2311.049632381692
 31
0.0
  0
LINE
  5
9D
330
4A
100
AcDbEntity
  8
0
  6
Continuous
 62
     2
100
AcDbLine
 10
-2288.5
 20
-2311.049632381692
 30
0.0
 11
-2285.5
 21
-2309.049632381692
 31
0.0
  0
LINE
  5
9E
330
4A
100
AcDbEntity
  8
0
  6
Continuous
 62
     2
100
AcDbLine
 10
-2285.5
 20
-2309.049632381692
 30
0.0
 11
-2282.5
 21
-2311.049632381692
 31
0.0
  0
LINE
  5
9F
330
4A
100
AcDbEntity
  8
0
  6
Continuous
 62
     2
100
AcDbLine
 10
-2282.5
 20
-2311.049632381692
 30
0.0
 11
-2279.5
 21
-2309.049632381692
 31
0.0
  0
LINE
  5
A0
330
4A
100
AcDbEntity
  8
0
  6
Continuous
 62
     2
100
AcDbLine
 10
-2279.5
 20
-2309.049632381692
 30
0.0
 11
-2276.5
 21
-2311.049632381692
 31
0.0
  0
LINE
  5
A1
330
4A
100
AcDbEntity
  8
0
  6
Continuous
 62
     2
100
AcDbLine
 10
-2276.5
 20
-2311.049632381692
 30
0.0
 11
-2273.5
 21
-2309.049632381692
 31
0.0
  0
LINE
  5
A2
330
4A
100
AcDbEntity
  8
0
  6
Continuous
 62
     2
100
AcDbLine
 10
-2273.5
 20
-2309.049632381692
 30
0.0
 11
-2270.5
 21
-2311.049632381692
 31
0.0
  0
LINE
  5
A3
330
4A
100
AcDbEntity
  8
0
  6
Continuous
 62
     2
100
AcDbLine
 10
-2270.5
 20
-2311.049632381692
 30
0.0
 11
-2267.5
 21
-2309.049632381692
 31
0.0
  0
LINE
  5
A4
330
4A
100
AcDbEntity
  8
0
  6
Continuous
 62
     2
100
AcDbLine
 10
-2267.5
 20
-2309.049632381692
 30
0.0
 11
-2264.5
 21
-2311.049632381692
 31
0.0
  0
LINE
  5
A5
330
4A
100
AcDbEntity
  8
0
  6
Continuous
 62
     2
100
AcDbLine
 10
-2264.5
 20
-2311.049632381692
 30
0.0
 11
-2261.5
 21
-2309.049632381692
 31
0.0
  0
LINE
  5
A6
330
4A
100
AcDbEntity
  8
0
  6
Continuous
 62
     2
100
AcDbLine
 10
-2285.5
 20
-2299.049632381692
 30
0.0
 11
-2288.5
 21
-2301.049632381692
 31
0.0
  0
LINE
  5
A7
330
4A
100
AcDbEntity
  8
0
  6
Continuous
 62
     2
100
AcDbLine
 10
-2255.5
 20
-2309.049632381692
 30
0.0
 11
-2252.5
 21
-2311.049632381692
 31
0.0
  0
LINE
  5
A8
330
4A
100
AcDbEntity
  8
0
  6
Continuous
 62
     2
100
AcDbLine
 10
-2279.5
 20
-2299.049632381692
 30
0.0
 11
-2282.5
 21
-2301.049632381692
 31
0.0
  0
LINE
  5
A9
330
4A
100
AcDbEntity
  8
0
  6
Continuous
 62
     2
100
AcDbLine
 10
-2267.5
 20
-2299.049632381692
 30
0.0
 11
-2270.5
 21
-2301.049632381692
 31
0.0
  0
LINE
  5
AA
330
4A
100
AcDbEntity
  8
0
  6
Continuous
 62
     2
100
AcDbLine
 10
-2261.5
 20
-2299.049632381692
 30
0.0
 11
-2264.5
 21
-2301.049632381692
 31
0.0
  0
LINE
  5
AB
330
4A
100
AcDbEntity
  8
0
  6
Continuous
 62
     2
100
AcDbLine
 10
-2255.5
 20
-2299.049632381692
 30
0.0
 11
-2258.5
 21
-2301.049632381692
 31
0.0
  0
LINE
  5
AC
330
4A
100
AcDbEntity
  8
0
  6
Continuous
 62
     2
100
AcDbLine
 10
-2252.5
 20
-2301.049632381692
 30
0.0
 11
-2255.5
 21
-2299.049632381692
 31
0.0
  0
LINE
  5
AD
330
4A
100
AcDbEntity
  8
0
  6
Continuous
 62
     2
100
AcDbLine
 10
-2270.5
 20
-2301.049632381692
 30
0.0
 11
-2273.5
 21
-2299.049632381692
 31
0.0
  0
LINE
  5
AE
330
4A
100
AcDbEntity
  8
0
  6
Continuous
 62
     2
100
AcDbLine
 10
-2258.5
 20
-2311.049632381692
 30
0.0
 11
-2255.5
 21
-2309.049632381692
 31
0.0
  0
LINE
  5
AF
330
4A
100
AcDbEntity
  8
0
  6
Continuous
 62
     2
100
AcDbLine
 10
-2282.5
 20
-2301.049632381692
 30
0.0
 11
-2285.5
 21
-2299.049632381692
 31
0.0
  0
LINE
  5
B0
330
4A
100
AcDbEntity
  8
0
  6
Continuous
 62
     2
100
AcDbLine
 10
-2276.5
 20
-2301.049632381692
 30
0.0
 11
-2279.5
 21
-2299.049632381692
 31
0.0
  0
LINE
  5
B1
330
4A
100
AcDbEntity
  8
0
  6
Continuous
 62
     2
100
AcDbLine
 10
-2273.5
 20
-2299.049632381692
 30
0.0
 11
-2276.5
 21
-2301.049632381692
 31
0.0
  0
LINE
  5
B2
330
4A
100
AcDbEntity
  8
0
  6
Continuous
 62
     2
100
AcDbLine
 10
-2291.5
 20
-2299.049632381692
 30
0.0
 11
-2294.5
 21
-2301.049632381692
 31
0.0
  0
LINE
  5
B3
330
4A
100
AcDbEntity
  8
0
  6
Continuous
 62
     2
100
AcDbLine
 10
-2264.5
 20
-2301.049632381692
 30
0.0
 11
-2267.5
 21
-2299.049632381692
 31
0.0
  0
LINE
  5
B4
330
4A
100
AcDbEntity
  8
0
  6
Continuous
 62
     2
100
AcDbLine
 10
-2258.5
 20
-2301.049632381692
 30
0.0
 11
-2261.5
 21
-2299.049632381692
 31
0.0
  0
LINE
  5
B5
330
4A
100
AcDbEntity
  8
0
  6
Continuous
 62
     2
100
AcDbLine
 10
-2294.5
 20
-2301.049632381692
 30
0.0
 11
-2297.5
 21
-2299.049632381692
 31
0.0
  0
LINE
  5
B6
330
4A
100
AcDbEntity
  8
0
  6
Continuous
 62
     2
100
AcDbLine
 10
-2261.5
 20
-2309.049632381692
 30
0.0
 11
-2258.5
 21
-2311.049632381692
 31
0.0
  0
LINE
  5
B7
330
4A
100
AcDbEntity
  8
0
  6
Continuous
 62
     2
100
AcDbLine
 10
-2288.5
 20
-2301.049632381692
 30
0.0
 11
-2291.5
 21
-2299.049632381692
 31
0.0
  0
LINE
  5
B8
330
4A
100
AcDbEntity
  8
0
  6
Continuous
 62
     2
100
AcDbLine
 10
-2306.5
 20
-2301.049632381692
 30
0.0
 11
-2309.5
 21
-2299.049632381692
 31
0.0
  0
LINE
  5
B9
330
4A
100
AcDbEntity
  8
0
  6
Continuous
 62
     2
100
AcDbLine
 10
-2240.5
 20
-2301.049632381692
 30
0.0
 11
-2243.5
 21
-2299.049632381692
 31
0.0
  0
LINE
  5
BA
330
4A
100
AcDbEntity
  8
0
  6
Continuous
 62
     2
100
AcDbLine
 10
-2240.5
 20
-2311.049632381692
 30
0.0
 11
-2238.000000740723
 21
-2309.382966208841
 31
0.0
  0
LINE
  5
BB
330
4A
100
AcDbEntity
  8
0
  6
Continuous
 62
     2
100
AcDbLine
 10
-2238.000000740723
 20
-2299.382966208841
 30
0.0
 11
-2240.5
 21
-2301.049632381692
 31
0.0
  0
LINE
  5
BC
330
4A
100
AcDbEntity
  8
0
  6
Continuous
 62
     2
100
AcDbLine
 10
-2249.5
 20
-2299.049632381692
 30
0.0
 11
-2252.5
 21
-2301.049632381692
 31
0.0
  0
LINE
  5
BD
330
4A
100
AcDbEntity
  8
0
  6
Continuous
 62
     2
100
AcDbLine
 10
-2252.5
 20
-2311.049632381692
 30
0.0
 11
-2249.5
 21
-2309.049632381692
 31
0.0
  0
LINE
  5
BE
330
4A
100
AcDbEntity
  8
0
  6
Continuous
 62
     7
100
AcDbLine
 10
-2238.000000740723
 20
-2223.566486381692
 30
0.0
 11
-2318.000000740723
 21
-2223.566486381692
 31
0.0
  0
LINE
  5
BF
330
4A
100
AcDbEntity
  8
0
  6
Continuous
 62
     2
100
AcDbLine
 10
-2315.5
 20
-2299.049632381692
 30
0.0
 11
-2318.000000740723
 21
-2300.716299542174
 31
0.0
  0
LINE
  5
C0
330
4A
100
AcDbEntity
  8
0
  6
Continuous
 62
     2
100
AcDbLine
 10
-2309.5
 20
-2299.049632381692
 30
0.0
 11
-2312.5
 21
-2301.049632381692
 31
0.0
  0
LINE
  5
C1
330
4A
100
AcDbEntity
  8
0
  6
Continuous
 62
     2
100
AcDbLine
 10
-2312.5
 20
-2301.049632381692
 30
0.0
 11
-2315.5
 21
-2299.049632381692
 31
0.0
  0
LINE
  5
C2
330
4A
100
AcDbEntity
  8
0
  6
Continuous
 62
     2
100
AcDbLine
 10
-2303.5
 20
-2299.049632381692
 30
0.0
 11
-2306.5
 21
-2301.049632381692
 31
0.0
  0
LINE
  5
C3
330
4A
100
AcDbEntity
  8
0
  6
Continuous
 62
     2
100
AcDbLine
 10
-2300.5
 20
-2301.049632381692
 30
0.0
 11
-2303.5
 21
-2299.049632381692
 31
0.0
  0
LINE
  5
C4
330
4A
100
AcDbEntity
  8
0
  6
Continuous
 62
     2
100
AcDbLine
 10
-2297.5
 20
-2299.049632381692
 30
0.0
 11
-2300.5
 21
-2301.049632381692
 31
0.0
  0
LINE
  5
C5
330
4A
100
AcDbEntity
  8
0
  6
Continuous
 62
     7
100
AcDbLine
 10
-2318.000000740723
 20
-2300.716299542174
 30
0.0
 11
-2318.000000740723
 21
-2223.566486381692
 31
0.0
  0
ENDBLK
  5
4C
330
4A
100
AcDbEntity
  8
0
100
AcDbBlockEnd
  0
BLOCK
  5
4F
330
4D
100
AcDbEntity
  8
0
100
AcDbBlockBegin
  2
Drfsicht1
 70
     0
 10
-2278.0
 20
-2286.566486381697
 30
0.0
  3
Drfsicht1
  1

  0
INSERT
  5
4E
330
4D
100
AcDbEntity
  8
0
100
AcDbBlockReference
  2
3240200_CD_80_80-select__2
 10
-2318.000000740723
 20
-2386.566486381692
 30
0.0
  0
MTEXT
  5
C6
330
4D
100
AcDbEntity
  8
1
 62
     6
100
AcDbMText
 10
-2278.000000740723
 20
-2396.566486381692
 30
0.0
 40
10.0
 41
0.0
 71
     2
 72
     1
  1
 
  7
CONVERTER_11
 73
     1
 44
1.32052821128451
  0
ENDBLK
  5
50
330
4D
100
AcDbEntity
  8
0
100
AcDbBlockEnd
  0
BLOCK
  5
52
330
51
100
AcDbEntity
  8
0
100
AcDbBlockBegin
  2
3240200_CD_80_80-select__3
 70
     0
 10
-1929.999999259278
 20
-2134.000002259157
 30
0.0
  3
3240200_CD_80_80-select__3
  1

  0
LINE
  5
C7
330
51
100
AcDbEntity
  8
0
  6
Continuous
 62
     7
100
AcDbLine
 10
-1849.999999259278
 20
-2134.000002259157
 30
0.0
 11
-1929.999999259278
 21
-2134.000002259157
 31
0.0
  0
LINE
  5
C8
330
51
100
AcDbEntity
  8
0
  6
Continuous
 62
     7
100
AcDbLine
 10
-1849.999999259278
 20
-2054.000002259157
 30
0.0
 11
-1849.999999259278
 21
-2134.000002259157
 31
0.0
  0
LINE
  5
C9
330
51
100
AcDbEntity
  8
0
  6
Continuous
 62
     7
100
AcDbLine
 10
-1929.999999259278
 20
-2054.000002259157
 30
0.0
 11
-1849.999999259278
 21
-2054.000002259157
 31
0.0
  0
LINE
  5
CA
330
51
100
AcDbEntity
  8
0
  6
Continuous
 62
     7
100
AcDbLine
 10
-1929.999999259278
 20
-2134.000002259157
 30
0.0
 11
-1929.999999259278
 21
-2054.000002259157
 31
0.0
  0
ENDBLK
  5
53
330
51
100
AcDbEntity
  8
0
100
AcDbBlockEnd
  0
BLOCK
  5
56
330
54
100
AcDbEntity
  8
0
100
AcDbBlockBegin
  2
Rckans1
 70
     0
 10
-1890.000000000001
 20
-2094.000000722169
 30
0.0
  3
Rckans1
  1

  0
INSERT
  5
55
330
54
100
AcDbEntity
  8
0
100
AcDbBlockReference
  2
3240200_CD_80_80-select__3
 10
-1929.999999259278
 20
-2134.000002259157
 30
0.0
  0
MTEXT
  5
CB
330
54
100
AcDbEntity
  8
1
 62
     6
100
AcDbMText
 10
-1890.0
 20
-2144.000001907351
 30
0.0
 40
10.0
 41
0.0
 71
     2
 72
     1
  1
 
  7
CONVERTER_11
 73
     1
 44
1.32052821128451
  0
ENDBLK
  5
57
330
54
100
AcDbEntity
  8
0
100
AcDbBlockEnd
  0
BLOCK
  5
59
330
58
100
AcDbEntity
  8
0
100
AcDbBlockBegin
  2
3240200_CD_80_80-select__4
 70
     0
 10
-2148.500000000005
 20
-2134.000003536988
 30
0.0
  3
3240200_CD_80_80-select__4
  1

  0
LINE
  5
CC
330
58
100
AcDbEntity
  8
0
  6
Continuous
 62
     7
100
AcDbLine
 10
-2072.650273154342
 20
-2054.000003536988
 30
0.0
 11
-2148.500000000005
 21
-2054.000003536988
 31
0.0
  0
LINE
  5
CD
330
58
100
AcDbEntity
  8
0
  6
Continuous
 62
     7
100
AcDbLine
 10
-2148.500000000005
 20
-2054.000003536988
 30
0.0
 11
-2148.500000000005
 21
-2134.000003536988
 31
0.0
  0
LINE
  5
CE
330
58
100
AcDbEntity
  8
0
  6
Continuous
 62
     7
100
AcDbLine
 10
-2071.31693982101
 20
-2134.000003536988
 30
0.0
 11
-2148.500000000005
 21
-2134.000003536988
 31
0.0
  0
LINE
  5
CF
330
58
100
AcDbEntity
  8
0
  6
Continuous
 62
     7
100
AcDbLine
 10
-1987.500000000005
 20
-2054.000003536988
 30
0.0
 11
-1987.500000000005
 21
-2134.000003536988
 31
0.0
  0
LINE
  5
D0
330
58
100
AcDbEntity
  8
0
  6
Continuous
 62
     7
100
AcDbLine
 10
-1987.500000000005
 20
-2054.000003536988
 30
0.0
 11
-2062.650273154342
 21
-2054.000003536988
 31
0.0
  0
LINE
  5
D1
330
58
100
AcDbEntity
  8
0
  6
Continuous
 62
     7
100
AcDbLine
 10
-1987.500000000005
 20
-2134.000003536988
 30
0.0
 11
-2061.31693982101
 21
-2134.000003536988
 31
0.0
  0
SPLINE
  5
D2
330
58
100
AcDbEntity
  8
0
  6
Continuous
 62
     2
100
AcDbSpline
210
0.0
220
0.0
230
1.0
 70
     8
 71
     3
 72
    63
 73
    59
 74
    57
 42
0.0000000001
 43
0.0000000001
 44
0.00000001
 40
0.0
 40
0.0
 40
0.0
 40
0.0
 40
0.5590163070129923
 40
1.209869528313196
 40
2.886920511438039
 40
4.563971494562881
 40
6.241022477687723
 40
7.918073460812566
 40
9.595124443937408
 40
11.27217542706225
 40
12.94922641018709
 40
14.62627739331194
 40
16.30332837643678
 40
17.98037935956162
 40
19.65743034268647
 40
21.33448132581131
 40
23.01153230893615
 40
24.688583292061
 40
26.36563427518584
 40
28.04268525831068
 40
29.71973624143553
 40
31.39678722456037
 40
33.07383820768521
 40
34.75088919081006
 40
36.4279401739349
 40
38.10499115705974
 40
39.78204214018459
 40
41.45909312330943
 40
43.13614410643427
 40
44.81319508955912
 40
46.49024607268396
 40
48.1672970558088
 40
49.84434803893365
 40
51.52139902205849
 40
53.19845000518333
 40
54.87550098830818
 40
56.55255197143302
 40
58.22960295455786
 40
59.90665393768271
 40
61.58370492080755
 40
63.26075590393239
 40
64.93780688705723
 40
66.61485787018208
 40
68.29190885330692
 40
69.96895983643176
 40
71.64601081955661
 40
73.32306180268145
 40
75.0001127858063
 40
76.67716376893114
 40
78.35421475205598
 40
80.03126573518082
 40
81.70831671830567
 40
83.38536770143051
 40
85.06241868455535
 40
86.7394696676802
 40
88.41652065080504
 40
89.06737570882244
 40
89.62639339055914
 40
89.62639339055914
 40
89.62639339055914
 40
89.62639339055914
 10
-2072.650273154342
 20
-2054.000003536988
 30
0.0
 10
-2072.57539474614
 20
-2054.173215997979
 30
0.0
 10
-2072.413336675068
 20
-2054.548096794564
 30
0.0
 10
-2071.743141556743
 20
-2055.223120418499
 30
0.0
 10
-2070.862582859212
 20
-2056.529940134331
 30
0.0
 10
-2071.982541671741
 20
-2057.991980101084
 30
0.0
 10
-2073.108892453854
 20
-2059.502151461337
 30
0.0
 10
-2071.983530512877
 20
-2060.999426053571
 30
0.0
 10
-2070.858627494669
 20
-2062.50015632438
 30
0.0
 10
-2071.983601508477
 20
-2063.999960648907
 30
0.0
 10
-2073.108608471456
 20
-2065.500013079993
 30
0.0
 10
-2071.983606605731
 20
-2066.999999031125
 30
0.0
 10
-2070.858607105651
 20
-2068.500002795507
 30
0.0
 10
-2071.983606971698
 20
-2070.000001786845
 30
0.0
 10
-2073.10860700759
 20
-2071.500002057115
 30
0.0
 10
-2071.983606997973
 20
-2073.000001984697
 30
0.0
 10
-2070.85860700055
 20
-2074.500002004101
 30
0.0
 10
-2071.983606999859
 20
-2076.000001998902
 30
0.0
 10
-2073.108607000045
 20
-2077.500002000294
 30
0.0
 10
-2071.983606999995
 20
-2079.000001999922
 30
0.0
 10
-2070.858607000008
 20
-2080.500002000022
 30
0.0
 10
-2071.983607000005
 20
-2082.000001999995
 30
0.0
 10
-2073.108607000006
 20
-2083.500002000002
 30
0.0
 10
-2071.983607000005
 20
-2085.000002
 30
0.0
 10
-2070.858607000006
 20
-2086.500002000001
 30
0.0
 10
-2071.983607000005
 20
-2088.000002
 30
0.0
 10
-2073.108607000005
 20
-2089.500002000001
 30
0.0
 10
-2071.983607000006
 20
-2091.000002
 30
0.0
 10
-2070.858607000005
 20
-2092.500002000001
 30
0.0
 10
-2071.983607000006
 20
-2094.000002000001
 30
0.0
 10
-2073.108607000005
 20
-2095.500002000001
 30
0.0
 10
-2071.983607000006
 20
-2097.000002
 30
0.0
 10
-2070.858607000005
 20
-2098.500002
 30
0.0
 10
-2071.983607000006
 20
-2100.000002000001
 30
0.0
 10
-2073.108607000005
 20
-2101.500002000001
 30
0.0
 10
-2071.983607000006
 20
-2103.000002000001
 30
0.0
 10
-2070.858607000005
 20
-2104.500001999999
 30
0.0
 10
-2071.983607000006
 20
-2106.000002000006
 30
0.0
 10
-2073.108607000002
 20
-2107.500001999979
 30
0.0
 10
-2071.983607000016
 20
-2109.00000200008
 30
0.0
 10
-2070.858606999966
 20
-2110.500001999706
 30
0.0
 10
-2071.983607000152
 20
-2112.000002001099
 30
0.0
 10
-2073.108606999461
 20
-2113.5000019959
 30
0.0
 10
-2071.983607002037
 20
-2115.000002015304
 30
0.0
 10
-2070.85860699242
 20
-2116.500001942886
 30
0.0
 10
-2071.983607028313
 20
-2118.000002213156
 30
0.0
 10
-2073.10860689436
 20
-2119.500001204494
 30
0.0
 10
-2071.983607394279
 20
-2121.000004968872
 30
0.0
 10
-2070.858605528555
 20
-2122.499990920023
 30
0.0
 10
-2071.983612491532
 20
-2124.000043351038
 30
0.0
 10
-2073.108586505348
 20
-2125.499847675829
 30
0.0
 10
-2071.983683487108
 20
-2127.000577945649
 30
0.0
 10
-2070.858321546249
 20
-2128.497852541579
 30
0.0
 10
-2071.984672327926
 20
-2130.008023888039
 30
0.0
 10
-2073.104631142081
 20
-2131.470063906268
 30
0.0
 10
-2072.224072035885
 20
-2132.776884068496
 30
0.0
 10
-2071.553876152007
 20
-2133.451908484489
 30
0.0
 10
-2071.391818172356
 20
-2133.826790531877
 30
0.0
 10
-2071.31693982101
 20
-2134.000003536988
 30
0.0
 11
-2072.650273154342
 21
-2054.000003536988
 31
0.0
 11
-2072.400273154342
 21
-2054.500002768494
 31
0.0
 11
-2071.983607000005
 21
-2055.000002
 31
0.0
 11
-2071.233607000005
 21
-2056.500002
 31
0.0
 11
-2071.983607000005
 21
-2058.000002
 31
0.0
 11
-2072.733607000005
 21
-2059.500002
 31
0.0
 11
-2071.983607000005
 21
-2061.000002
 31
0.0
 11
-2071.233607000005
 21
-2062.500002
 31
0.0
 11
-2071.983607000005
 21
-2064.000002
 31
0.0
 11
-2072.733607000005
 21
-2065.500002
 31
0.0
 11
-2071.983607000005
 21
-2067.000002
 31
0.0
 11
-2071.233607000005
 21
-2068.500002
 31
0.0
 11
-2071.983607000005
 21
-2070.000002
 31
0.0
 11
-2072.733607000005
 21
-2071.500002
 31
0.0
 11
-2071.983607000005
 21
-2073.000002
 31
0.0
 11
-2071.233607000005
 21
-2074.500002
 31
0.0
 11
-2071.983607000005
 21
-2076.000002
 31
0.0
 11
-2072.733607000005
 21
-2077.500002
 31
0.0
 11
-2071.983607000005
 21
-2079.000002
 31
0.0
 11
-2071.233607000005
 21
-2080.500002
 31
0.0
 11
-2071.983607000005
 21
-2082.000002
 31
0.0
 11
-2072.733607000005
 21
-2083.500002
 31
0.0
 11
-2071.983607000005
 21
-2085.000002
 31
0.0
 11
-2071.233607000005
 21
-2086.500002
 31
0.0
 11
-2071.983607000005
 21
-2088.000002
 31
0.0
 11
-2072.733607000005
 21
-2089.500002
 31
0.0
 11
-2071.983607000005
 21
-2091.000002
 31
0.0
 11
-2071.233607000005
 21
-2092.500002
 31
0.0
 11
-2071.983607000005
 21
-2094.000002
 31
0.0
 11
-2072.733607000005
 21
-2095.500002
 31
0.0
 11
-2071.983607000005
 21
-2097.000002
 31
0.0
 11
-2071.233607000005
 21
-2098.500002
 31
0.0
 11
-2071.983607000005
 21
-2100.000002
 31
0.0
 11
-2072.733607000005
 21
-2101.500002
 31
0.0
 11
-2071.983607000005
 21
-2103.000002
 31
0.0
 11
-2071.233607000005
 21
-2104.500002
 31
0.0
 11
-2071.983607000005
 21
-2106.000002
 31
0.0
 11
-2072.733607000005
 21
-2107.500002
 31
0.0
 11
-2071.983607000005
 21
-2109.000002
 31
0.0
 11
-2071.233607000005
 21
-2110.500002
 31
0.0
 11
-2071.983607000005
 21
-2112.000002
 31
0.0
 11
-2072.733607000005
 21
-2113.500002
 31
0.0
 11
-2071.983607000005
 21
-2115.000002
 31
0.0
 11
-2071.233607000005
 21
-2116.500002
 31
0.0
 11
-2071.983607000005
 21
-2118.000002
 31
0.0
 11
-2072.733607000005
 21
-2119.500002
 31
0.0
 11
-2071.983607000005
 21
-2121.000002
 31
0.0
 11
-2071.233607000005
 21
-2122.500002
 31
0.0
 11
-2071.983607000005
 21
-2124.000002
 31
0.0
 11
-2072.733607000005
 21
-2125.500002
 31
0.0
 11
-2071.983607000005
 21
-2127.000002
 31
0.0
 11
-2071.233607000005
 21
-2128.500002
 31
0.0
 11
-2071.983607000005
 21
-2130.000002
 31
0.0
 11
-2072.733607000005
 21
-2131.500002
 31
0.0
 11
-2071.983607000005
 21
-2133.000002
 31
0.0
 11
-2071.566939821009
 21
-2133.500002768494
 31
0.0
 11
-2071.31693982101
 21
-2134.000003536988
 31
0.0
  0
SPLINE
  5
D3
330
58
100
AcDbEntity
  8
0
  6
Continuous
 62
     2
100
AcDbSpline
210
0.0
220
0.0
230
1.0
 70
     8
 71
     3
 72
    63
 73
    59
 74
    57
 42
0.0000000001
 43
0.0000000001
 44
0.00000001
 40
0.0
 40
0.0
 40
0.0
 40
0.0
 40
0.5590176817367071
 40
1.209872739753459
 40
2.886923722878911
 40
4.563974706003753
 40
6.241025689128596
 40
7.918076672253438
 40
9.595127655378281
 40
11.27217863850312
 40
12.94922962162797
 40
14.62628060475281
 40
16.30333158787765
 40
17.9803825710025
 40
19.65743355412734
 40
21.33448453725218
 40
23.01153552037703
 40
24.68858650350187
 40
26.36563748662671
 40
28.04268846975156
 40
29.7197394528764
 40
31.39679043600124
 40
33.07384141912608
 40
34.75089240225093
 40
36.42794338537577
 40
38.10499436850061
 40
39.78204535162546
 40
41.4590963347503
 40
43.13614731787514
 40
44.81319830099999
 40
46.49024928412483
 40
48.16730026724967
 40
49.84435125037452
 40
51.52140223349936
 40
53.1984532166242
 40
54.87550419974905
 40
56.55255518287389
 40
58.22960616599873
 40
59.90665714912357
 40
61.58370813224842
 40
63.26075911537326
 40
64.9378100984981
 40
66.61486108162295
 40
68.29191206474779
 40
69.96896304787263
 40
71.64601403099748
 40
73.32306501412232
 40
75.00011599724716
 40
76.67716698037201
 40
78.35421796349685
 40
80.0312689466217
 40
81.70831992974654
 40
83.38537091287138
 40
85.06242189599622
 40
86.73947287912107
 40
88.41652386224571
 40
89.0673770835462
 40
89.6263933905592
 40
89.6263933905592
 40
89.6263933905592
 40
89.6263933905592
 10
-2061.31693982101
 20
-2134.000003536988
 30
0.0
 10
-2061.391818172356
 20
-2133.826790531876
 30
0.0
 10
-2061.553876152007
 20
-2133.45190848449
 30
0.0
 10
-2062.224072035885
 20
-2132.776884068496
 30
0.0
 10
-2063.104631142081
 20
-2131.470063906268
 30
0.0
 10
-2061.984672327924
 20
-2130.008023888038
 30
0.0
 10
-2060.858321546249
 20
-2128.497852541579
 30
0.0
 10
-2061.983683487108
 20
-2127.000577945648
 30
0.0
 10
-2063.108586505348
 20
-2125.499847675829
 30
0.0
 10
-2061.983612491532
 20
-2124.000043351038
 30
0.0
 10
-2060.858605528555
 20
-2122.499990920023
 30
0.0
 10
-2061.98360739428
 20
-2121.000004968872
 30
0.0
 10
-2063.10860689436
 20
-2119.500001204494
 30
0.0
 10
-2061.983607028313
 20
-2118.000002213155
 30
0.0
 10
-2060.85860699242
 20
-2116.500001942885
 30
0.0
 10
-2061.983607002038
 20
-2115.000002015305
 30
0.0
 10
-2063.108606999461
 20
-2113.500001995899
 30
0.0
 10
-2061.983607000151
 20
-2112.000002001099
 30
0.0
 10
-2060.858606999966
 20
-2110.500001999706
 30
0.0
 10
-2061.983607000016
 20
-2109.000002000079
 30
0.0
 10
-2063.108607000002
 20
-2107.500001999979
 30
0.0
 10
-2061.983607000006
 20
-2106.000002000006
 30
0.0
 10
-2060.858607000005
 20
-2104.500001999999
 30
0.0
 10
-2061.983607000005
 20
-2103.000002000001
 30
0.0
 10
-2063.108607000005
 20
-2101.500002
 30
0.0
 10
-2061.983607000006
 20
-2100.000002000001
 30
0.0
 10
-2060.858607000005
 20
-2098.500002000001
 30
0.0
 10
-2061.983607000006
 20
-2097.000002
 30
0.0
 10
-2063.108607000005
 20
-2095.500002
 30
0.0
 10
-2061.983607000006
 20
-2094.000002
 30
0.0
 10
-2060.858607000005
 20
-2092.500002000001
 30
0.0
 10
-2061.983607000006
 20
-2091.000002000001
 30
0.0
 10
-2063.108607000005
 20
-2089.500002000001
 30
0.0
 10
-2061.983607000006
 20
-2088.000002
 30
0.0
 10
-2060.858607000005
 20
-2086.500002000001
 30
0.0
 10
-2061.983607000006
 20
-2085.000002
 30
0.0
 10
-2063.108607000006
 20
-2083.500002000002
 30
0.0
 10
-2061.983607000005
 20
-2082.000001999995
 30
0.0
 10
-2060.858607000008
 20
-2080.500002000022
 30
0.0
 10
-2061.983606999995
 20
-2079.000001999922
 30
0.0
 10
-2063.108607000044
 20
-2077.500002000295
 30
0.0
 10
-2061.98360699986
 20
-2076.000001998902
 30
0.0
 10
-2060.85860700055
 20
-2074.500002004101
 30
0.0
 10
-2061.983606997973
 20
-2073.000001984697
 30
0.0
 10
-2063.10860700759
 20
-2071.500002057116
 30
0.0
 10
-2061.983606971698
 20
-2070.000001786845
 30
0.0
 10
-2060.858607105651
 20
-2068.500002795508
 30
0.0
 10
-2061.983606605731
 20
-2066.999999031125
 30
0.0
 10
-2063.108608471456
 20
-2065.500013079993
 30
0.0
 10
-2061.983601508477
 20
-2063.999960648907
 30
0.0
 10
-2060.858627494669
 20
-2062.500156324381
 30
0.0
 10
-2061.983530512878
 20
-2060.999426053571
 30
0.0
 10
-2063.108892453853
 20
-2059.502151461337
 30
0.0
 10
-2061.982541671742
 20
-2057.991980101083
 30
0.0
 10
-2060.862582859211
 20
-2056.52994013433
 30
0.0
 10
-2061.743141556743
 20
-2055.2231204185
 30
0.0
 10
-2062.413336675068
 20
-2054.548096794564
 30
0.0
 10
-2062.57539474614
 20
-2054.173215997979
 30
0.0
 10
-2062.650273154342
 20
-2054.000003536988
 30
0.0
 11
-2061.31693982101
 21
-2134.000003536988
 31
0.0
 11
-2061.566939821009
 21
-2133.500002768494
 31
0.0
 11
-2061.983607000005
 21
-2133.000002000001
 31
0.0
 11
-2062.733607000005
 21
-2131.500002
 31
0.0
 11
-2061.983607000005
 21
-2130.000002
 31
0.0
 11
-2061.233607000005
 21
-2128.500002
 31
0.0
 11
-2061.983607000005
 21
-2127.000002
 31
0.0
 11
-2062.733607000005
 21
-2125.500002
 31
0.0
 11
-2061.983607000005
 21
-2124.000002
 31
0.0
 11
-2061.233607000005
 21
-2122.500002
 31
0.0
 11
-2061.983607000005
 21
-2121.000002
 31
0.0
 11
-2062.733607000005
 21
-2119.500002
 31
0.0
 11
-2061.983607000005
 21
-2118.000002
 31
0.0
 11
-2061.233607000005
 21
-2116.500002
 31
0.0
 11
-2061.983607000005
 21
-2115.000002
 31
0.0
 11
-2062.733607000005
 21
-2113.500002
 31
0.0
 11
-2061.983607000005
 21
-2112.000002
 31
0.0
 11
-2061.233607000005
 21
-2110.500002
 31
0.0
 11
-2061.983607000005
 21
-2109.000002
 31
0.0
 11
-2062.733607000005
 21
-2107.500002
 31
0.0
 11
-2061.983607000005
 21
-2106.000002
 31
0.0
 11
-2061.233607000005
 21
-2104.500002
 31
0.0
 11
-2061.983607000005
 21
-2103.000002
 31
0.0
 11
-2062.733607000005
 21
-2101.500002
 31
0.0
 11
-2061.983607000005
 21
-2100.000002
 31
0.0
 11
-2061.233607000005
 21
-2098.500002
 31
0.0
 11
-2061.983607000005
 21
-2097.000002
 31
0.0
 11
-2062.733607000005
 21
-2095.500002
 31
0.0
 11
-2061.983607000005
 21
-2094.000002
 31
0.0
 11
-2061.233607000005
 21
-2092.500002
 31
0.0
 11
-2061.983607000005
 21
-2091.000002
 31
0.0
 11
-2062.733607000005
 21
-2089.500002
 31
0.0
 11
-2061.983607000005
 21
-2088.000002
 31
0.0
 11
-2061.233607000005
 21
-2086.500002
 31
0.0
 11
-2061.983607000005
 21
-2085.000002
 31
0.0
 11
-2062.733607000005
 21
-2083.500002
 31
0.0
 11
-2061.983607000005
 21
-2082.000002
 31
0.0
 11
-2061.233607000005
 21
-2080.500002
 31
0.0
 11
-2061.983607000005
 21
-2079.000002
 31
0.0
 11
-2062.733607000005
 21
-2077.500002
 31
0.0
 11
-2061.983607000005
 21
-2076.000002
 31
0.0
 11
-2061.233607000005
 21
-2074.500002
 31
0.0
 11
-2061.983607000005
 21
-2073.000002
 31
0.0
 11
-2062.733607000005
 21
-2071.500002
 31
0.0
 11
-2061.983607000005
 21
-2070.000002
 31
0.0
 11
-2061.233607000005
 21
-2068.500002
 31
0.0
 11
-2061.983607000005
 21
-2067.000002
 31
0.0
 11
-2062.733607000005
 21
-2065.500002
 31
0.0
 11
-2061.983607000005
 21
-2064.000002
 31
0.0
 11
-2061.233607000005
 21
-2062.500002
 31
0.0
 11
-2061.983607000005
 21
-2061.000002
 31
0.0
 11
-2062.733607000005
 21
-2059.500002
 31
0.0
 11
-2061.983607000005
 21
-2058.000002
 31
0.0
 11
-2061.233607000005
 21
-2056.500002
 31
0.0
 11
-2061.983607000005
 21
-2055.000002
 31
0.0
 11
-2062.400273154342
 21
-2054.500002768494
 31
0.0
 11
-2062.650273154342
 21
-2054.000003536988
 31
0.0
  0
ENDBLK
  5
5A
330
58
100
AcDbEntity
  8
0
100
AcDbBlockEnd
  0
BLOCK
  5
5D
330
5B
100
AcDbEntity
  8
0
100
AcDbBlockBegin
  2
SA_Links1
 70
     0
 10
-2048.5
 20
-2094.000002
 30
0.0
  3
SA_Links1
  1

  0
INSERT
  5
5C
330
5B
100
AcDbEntity
  8
0
100
AcDbBlockReference
  2
3240200_CD_80_80-select__4
 10
-2148.500000000005
 20
-2134.000003536988
 30
0.0
  0
MTEXT
  5
D4
330
5B
100
AcDbEntity
  8
1
 62
     6
100
AcDbMText
 10
-2068.000000000005
 20
-2144.40028468818
 30
0.0
 40
10.0
 41
0.0
 71
     2
 72
     1
  1
 
  7
CONVERTER_11
 73
     1
 44
1.32052821128451
  0
DIMENSION
  5
DF
330
5B
100
AcDbEntity
  8
1
100
AcDbDimension
  2
*D16
 10
-1987.500000000005
 20
-2161.77007198304
 30
0.0
 11
-2066.93154835942
 21
-2154.27007198304
 31
0.0
 70
    32
  1
2000
 71
     5
 42
-1.0
 53
0.00013888888889
  3
ME10_DIM_10
100
AcDbAlignedDimension
 13
-2148.500000000005
 23
-2134.000003536988
 33
0.0
 14
-1987.500000000005
 24
-2134.000003536988
 34
0.0
100
AcDbRotatedDimension
  0
ENDBLK
  5
5E
330
5B
100
AcDbEntity
  8
0
100
AcDbBlockEnd
  0
BLOCK
  5
60
330
5F
100
AcDbEntity
  8
0
100
AcDbBlockBegin
  2
3240200_CD_80_80-select__5
 70
     0
 10
-2557.999999999995
 20
-2134.000002259157
 30
0.0
  3
3240200_CD_80_80-select__5
  1

  0
LINE
  5
E0
330
5F
100
AcDbEntity
  8
0
  6
Continuous
 62
     2
100
AcDbLine
 10
-2482.516392999995
 20
-2074.50000072217
 30
0.0
 11
-2484.516392999995
 21
-2077.50000072217
 31
0.0
  0
LINE
  5
E1
330
5F
100
AcDbEntity
  8
0
  6
Continuous
 62
     7
100
AcDbLine
 10
-2472.84972530867
 20
-2134.000002259157
 30
0.0
 11
-2396.999999999995
 21
-2134.000002259157
 31
0.0
  0
LINE
  5
E2
330
5F
100
AcDbEntity
  8
0
  6
Continuous
 62
     7
100
AcDbLine
 10
-2557.999999999995
 20
-2134.000002259157
 30
0.0
 11
-2482.84972530867
 21
-2134.000002259157
 31
0.0
  0
LINE
  5
E3
330
5F
100
AcDbEntity
  8
0
  6
Continuous
 62
     7
100
AcDbLine
 10
-2557.999999999995
 20
-2134.000002259157
 30
0.0
 11
-2557.999999999995
 21
-2054.000002259157
 31
0.0
  0
LINE
  5
E4
330
5F
100
AcDbEntity
  8
0
  6
Continuous
 62
     7
100
AcDbLine
 10
-2557.999999999995
 20
-2054.000002259157
 30
0.0
 11
-2484.183058642003
 21
-2054.000002259157
 31
0.0
  0
LINE
  5
E5
330
5F
100
AcDbEntity
  8
0
  6
Continuous
 62
     2
100
AcDbLine
 10
-2484.183058642003
 20
-2054.000002259157
 30
0.0
 11
-2482.516392999995
 21
-2056.50000072217
 31
0.0
  0
LINE
  5
E6
330
5F
100
AcDbEntity
  8
0
  6
Continuous
 62
     2
100
AcDbLine
 10
-2482.516392999995
 20
-2056.50000072217
 30
0.0
 11
-2484.516392999995
 21
-2059.50000072217
 31
0.0
  0
LINE
  5
E7
330
5F
100
AcDbEntity
  8
0
  6
Continuous
 62
     2
100
AcDbLine
 10
-2484.516392999995
 20
-2059.50000072217
 30
0.0
 11
-2482.516392999995
 21
-2062.50000072217
 31
0.0
  0
LINE
  5
E8
330
5F
100
AcDbEntity
  8
0
  6
Continuous
 62
     2
100
AcDbLine
 10
-2482.516392999995
 20
-2062.50000072217
 30
0.0
 11
-2484.516392999995
 21
-2065.50000072217
 31
0.0
  0
LINE
  5
E9
330
5F
100
AcDbEntity
  8
0
  6
Continuous
 62
     2
100
AcDbLine
 10
-2484.516392999995
 20
-2065.50000072217
 30
0.0
 11
-2482.516392999995
 21
-2068.50000072217
 31
0.0
  0
LINE
  5
EA
330
5F
100
AcDbEntity
  8
0
  6
Continuous
 62
     2
100
AcDbLine
 10
-2482.516392999995
 20
-2068.50000072217
 30
0.0
 11
-2484.516392999995
 21
-2071.50000072217
 31
0.0
  0
LINE
  5
EB
330
5F
100
AcDbEntity
  8
0
  6
Continuous
 62
     2
100
AcDbLine
 10
-2484.516392999995
 20
-2071.50000072217
 30
0.0
 11
-2482.516392999995
 21
-2074.50000072217
 31
0.0
  0
LINE
  5
EC
330
5F
100
AcDbEntity
  8
0
  6
Continuous
 62
     2
100
AcDbLine
 10
-2484.516392999995
 20
-2077.50000072217
 30
0.0
 11
-2482.516392999995
 21
-2080.50000072217
 31
0.0
  0
LINE
  5
ED
330
5F
100
AcDbEntity
  8
0
  6
Continuous
 62
     2
100
AcDbLine
 10
-2482.516392999995
 20
-2080.50000072217
 30
0.0
 11
-2484.516392999995
 21
-2083.50000072217
 31
0.0
  0
LINE
  5
EE
330
5F
100
AcDbEntity
  8
0
  6
Continuous
 62
     2
100
AcDbLine
 10
-2484.516392999995
 20
-2083.50000072217
 30
0.0
 11
-2482.516392999995
 21
-2086.50000072217
 31
0.0
  0
LINE
  5
EF
330
5F
100
AcDbEntity
  8
0
  6
Continuous
 62
     2
100
AcDbLine
 10
-2482.516392999995
 20
-2086.50000072217
 30
0.0
 11
-2484.516392999995
 21
-2089.50000072217
 31
0.0
  0
LINE
  5
F0
330
5F
100
AcDbEntity
  8
0
  6
Continuous
 62
     2
100
AcDbLine
 10
-2484.516392999995
 20
-2089.50000072217
 30
0.0
 11
-2482.516392999995
 21
-2092.50000072217
 31
0.0
  0
LINE
  5
F1
330
5F
100
AcDbEntity
  8
0
  6
Continuous
 62
     2
100
AcDbLine
 10
-2482.516392999995
 20
-2092.50000072217
 30
0.0
 11
-2484.516392999995
 21
-2095.50000072217
 31
0.0
  0
LINE
  5
F2
330
5F
100
AcDbEntity
  8
0
  6
Continuous
 62
     2
100
AcDbLine
 10
-2484.516392999995
 20
-2095.50000072217
 30
0.0
 11
-2482.516392999995
 21
-2098.50000072217
 31
0.0
  0
LINE
  5
F3
330
5F
100
AcDbEntity
  8
0
  6
Continuous
 62
     2
100
AcDbLine
 10
-2482.516392999995
 20
-2098.50000072217
 30
0.0
 11
-2484.516392999995
 21
-2101.50000072217
 31
0.0
  0
LINE
  5
F4
330
5F
100
AcDbEntity
  8
0
  6
Continuous
 62
     2
100
AcDbLine
 10
-2484.516392999995
 20
-2101.50000072217
 30
0.0
 11
-2482.516392999995
 21
-2104.50000072217
 31
0.0
  0
LINE
  5
F5
330
5F
100
AcDbEntity
  8
0
  6
Continuous
 62
     2
100
AcDbLine
 10
-2482.516392999995
 20
-2104.50000072217
 30
0.0
 11
-2484.516392999995
 21
-2107.50000072217
 31
0.0
  0
LINE
  5
F6
330
5F
100
AcDbEntity
  8
0
  6
Continuous
 62
     2
100
AcDbLine
 10
-2484.516392999995
 20
-2107.50000072217
 30
0.0
 11
-2482.516392999995
 21
-2110.50000072217
 31
0.0
  0
LINE
  5
F7
330
5F
100
AcDbEntity
  8
0
  6
Continuous
 62
     2
100
AcDbLine
 10
-2472.516392999995
 20
-2128.50000072217
 30
0.0
 11
-2474.516392999995
 21
-2125.50000072217
 31
0.0
  0
LINE
  5
F8
330
5F
100
AcDbEntity
  8
0
  6
Continuous
 62
     2
100
AcDbLine
 10
-2484.516392999995
 20
-2125.50000072217
 30
0.0
 11
-2482.516392999995
 21
-2128.50000072217
 31
0.0
  0
LINE
  5
F9
330
5F
100
AcDbEntity
  8
0
  6
Continuous
 62
     2
100
AcDbLine
 10
-2474.516392999995
 20
-2077.50000072217
 30
0.0
 11
-2472.516392999995
 21
-2074.50000072217
 31
0.0
  0
LINE
  5
FA
330
5F
100
AcDbEntity
  8
0
  6
Continuous
 62
     2
100
AcDbLine
 10
-2472.84972530867
 20
-2134.000002259157
 30
0.0
 11
-2474.516392999995
 21
-2131.50000072217
 31
0.0
  0
LINE
  5
FB
330
5F
100
AcDbEntity
  8
0
  6
Continuous
 62
     2
100
AcDbLine
 10
-2484.516392999995
 20
-2131.50000072217
 30
0.0
 11
-2482.84972530867
 21
-2134.000002259157
 31
0.0
  0
LINE
  5
FC
330
5F
100
AcDbEntity
  8
0
  6
Continuous
 62
     2
100
AcDbLine
 10
-2474.516392999995
 20
-2131.50000072217
 30
0.0
 11
-2472.516392999995
 21
-2128.50000072217
 31
0.0
  0
LINE
  5
FD
330
5F
100
AcDbEntity
  8
0
  6
Continuous
 62
     2
100
AcDbLine
 10
-2482.516392999995
 20
-2128.50000072217
 30
0.0
 11
-2484.516392999995
 21
-2131.50000072217
 31
0.0
  0
LINE
  5
FE
330
5F
100
AcDbEntity
  8
0
  6
Continuous
 62
     2
100
AcDbLine
 10
-2474.516392999995
 20
-2125.50000072217
 30
0.0
 11
-2472.516392999995
 21
-2122.50000072217
 31
0.0
  0
LINE
  5
FF
330
5F
100
AcDbEntity
  8
0
  6
Continuous
 62
     2
100
AcDbLine
 10
-2482.516392999995
 20
-2122.50000072217
 30
0.0
 11
-2484.516392999995
 21
-2125.50000072217
 31
0.0
  0
LINE
  5
100
330
5F
100
AcDbEntity
  8
0
  6
Continuous
 62
     2
100
AcDbLine
 10
-2472.516392999995
 20
-2122.50000072217
 30
0.0
 11
-2474.516392999995
 21
-2119.50000072217
 31
0.0
  0
LINE
  5
101
330
5F
100
AcDbEntity
  8
0
  6
Continuous
 62
     2
100
AcDbLine
 10
-2484.516392999995
 20
-2119.50000072217
 30
0.0
 11
-2482.516392999995
 21
-2122.50000072217
 31
0.0
  0
LINE
  5
102
330
5F
100
AcDbEntity
  8
0
  6
Continuous
 62
     2
100
AcDbLine
 10
-2474.516392999995
 20
-2089.50000072217
 30
0.0
 11
-2472.516392999995
 21
-2086.50000072217
 31
0.0
  0
LINE
  5
103
330
5F
100
AcDbEntity
  8
0
  6
Continuous
 62
     2
100
AcDbLine
 10
-2472.516392999995
 20
-2092.50000072217
 30
0.0
 11
-2474.516392999995
 21
-2089.50000072217
 31
0.0
  0
LINE
  5
104
330
5F
100
AcDbEntity
  8
0
  6
Continuous
 62
     2
100
AcDbLine
 10
-2482.516392999995
 20
-2110.50000072217
 30
0.0
 11
-2484.516392999995
 21
-2113.50000072217
 31
0.0
  0
LINE
  5
105
330
5F
100
AcDbEntity
  8
0
  6
Continuous
 62
     2
100
AcDbLine
 10
-2484.516392999995
 20
-2113.50000072217
 30
0.0
 11
-2482.516392999995
 21
-2116.50000072217
 31
0.0
  0
LINE
  5
106
330
5F
100
AcDbEntity
  8
0
  6
Continuous
 62
     2
100
AcDbLine
 10
-2472.516392999995
 20
-2086.50000072217
 30
0.0
 11
-2474.516392999995
 21
-2083.50000072217
 31
0.0
  0
LINE
  5
107
330
5F
100
AcDbEntity
  8
0
  6
Continuous
 62
     2
100
AcDbLine
 10
-2474.516392999995
 20
-2095.50000072217
 30
0.0
 11
-2472.516392999995
 21
-2092.50000072217
 31
0.0
  0
LINE
  5
108
330
5F
100
AcDbEntity
  8
0
  6
Continuous
 62
     2
100
AcDbLine
 10
-2472.516392999995
 20
-2098.50000072217
 30
0.0
 11
-2474.516392999995
 21
-2095.50000072217
 31
0.0
  0
LINE
  5
109
330
5F
100
AcDbEntity
  8
0
  6
Continuous
 62
     2
100
AcDbLine
 10
-2474.516392999995
 20
-2101.50000072217
 30
0.0
 11
-2472.516392999995
 21
-2098.50000072217
 31
0.0
  0
LINE
  5
10A
330
5F
100
AcDbEntity
  8
0
  6
Continuous
 62
     2
100
AcDbLine
 10
-2472.516392999995
 20
-2104.50000072217
 30
0.0
 11
-2474.516392999995
 21
-2101.50000072217
 31
0.0
  0
LINE
  5
10B
330
5F
100
AcDbEntity
  8
0
  6
Continuous
 62
     2
100
AcDbLine
 10
-2474.516392999995
 20
-2107.50000072217
 30
0.0
 11
-2472.516392999995
 21
-2104.50000072217
 31
0.0
  0
LINE
  5
10C
330
5F
100
AcDbEntity
  8
0
  6
Continuous
 62
     2
100
AcDbLine
 10
-2472.516392999995
 20
-2110.50000072217
 30
0.0
 11
-2474.516392999995
 21
-2107.50000072217
 31
0.0
  0
LINE
  5
10D
330
5F
100
AcDbEntity
  8
0
  6
Continuous
 62
     2
100
AcDbLine
 10
-2474.516392999995
 20
-2113.50000072217
 30
0.0
 11
-2472.516392999995
 21
-2110.50000072217
 31
0.0
  0
LINE
  5
10E
330
5F
100
AcDbEntity
  8
0
  6
Continuous
 62
     2
100
AcDbLine
 10
-2474.516392999995
 20
-2119.50000072217
 30
0.0
 11
-2472.516392999995
 21
-2116.50000072217
 31
0.0
  0
LINE
  5
10F
330
5F
100
AcDbEntity
  8
0
  6
Continuous
 62
     2
100
AcDbLine
 10
-2472.516392999995
 20
-2116.50000072217
 30
0.0
 11
-2474.516392999995
 21
-2113.50000072217
 31
0.0
  0
LINE
  5
110
330
5F
100
AcDbEntity
  8
0
  6
Continuous
 62
     2
100
AcDbLine
 10
-2482.516392999995
 20
-2116.50000072217
 30
0.0
 11
-2484.516392999995
 21
-2119.50000072217
 31
0.0
  0
LINE
  5
111
330
5F
100
AcDbEntity
  8
0
  6
Continuous
 62
     7
100
AcDbLine
 10
-2396.999999999995
 20
-2134.000002259157
 30
0.0
 11
-2396.999999999995
 21
-2054.000002259157
 31
0.0
  0
LINE
  5
112
330
5F
100
AcDbEntity
  8
0
  6
Continuous
 62
     2
100
AcDbLine
 10
-2474.516392999995
 20
-2059.50000072217
 30
0.0
 11
-2472.516392999995
 21
-2056.50000072217
 31
0.0
  0
LINE
  5
113
330
5F
100
AcDbEntity
  8
0
  6
Continuous
 62
     2
100
AcDbLine
 10
-2474.516392999995
 20
-2065.50000072217
 30
0.0
 11
-2472.516392999995
 21
-2062.50000072217
 31
0.0
  0
LINE
  5
114
330
5F
100
AcDbEntity
  8
0
  6
Continuous
 62
     2
100
AcDbLine
 10
-2472.516392999995
 20
-2062.50000072217
 30
0.0
 11
-2474.516392999995
 21
-2059.50000072217
 31
0.0
  0
LINE
  5
115
330
5F
100
AcDbEntity
  8
0
  6
Continuous
 62
     2
100
AcDbLine
 10
-2474.516392999995
 20
-2083.50000072217
 30
0.0
 11
-2472.516392999995
 21
-2080.50000072217
 31
0.0
  0
LINE
  5
116
330
5F
100
AcDbEntity
  8
0
  6
Continuous
 62
     2
100
AcDbLine
 10
-2472.516392999995
 20
-2080.50000072217
 30
0.0
 11
-2474.516392999995
 21
-2077.50000072217
 31
0.0
  0
LINE
  5
117
330
5F
100
AcDbEntity
  8
0
  6
Continuous
 62
     2
100
AcDbLine
 10
-2472.516392999995
 20
-2074.50000072217
 30
0.0
 11
-2474.516392999995
 21
-2071.50000072217
 31
0.0
  0
LINE
  5
118
330
5F
100
AcDbEntity
  8
0
  6
Continuous
 62
     2
100
AcDbLine
 10
-2474.516392999995
 20
-2071.50000072217
 30
0.0
 11
-2472.516392999995
 21
-2068.50000072217
 31
0.0
  0
LINE
  5
119
330
5F
100
AcDbEntity
  8
0
  6
Continuous
 62
     2
100
AcDbLine
 10
-2472.516392999995
 20
-2068.50000072217
 30
0.0
 11
-2474.516392999995
 21
-2065.50000072217
 31
0.0
  0
LINE
  5
11A
330
5F
100
AcDbEntity
  8
0
  6
Continuous
 62
     7
100
AcDbLine
 10
-2474.183058642003
 20
-2054.000002259157
 30
0.0
 11
-2396.999999999995
 21
-2054.000002259157
 31
0.0
  0
LINE
  5
11B
330
5F
100
AcDbEntity
  8
0
  6
Continuous
 62
     2
100
AcDbLine
 10
-2472.516392999995
 20
-2056.50000072217
 30
0.0
 11
-2474.183058642003
 21
-2054.000002259157
 31
0.0
  0
ENDBLK
  5
61
330
5F
100
AcDbEntity
  8
0
100
AcDbBlockEnd
  0
BLOCK
  5
64
330
62
100
AcDbEntity
  8
0
100
AcDbBlockBegin
  2
SA_Rechts1
 70
     0
 10
-2458.0
 20
-2094.00000072217
 30
0.0
  3
SA_Rechts1
  1

  0
INSERT
  5
63
330
62
100
AcDbEntity
  8
0
100
AcDbBlockReference
  2
3240200_CD_80_80-select__5
 10
-2557.999999999995
 20
-2134.000002259157
 30
0.0
  0
MTEXT
  5
11C
330
62
100
AcDbEntity
  8
1
 62
     6
100
AcDbMText
 10
-2477.499999999995
 20
-2144.000002259157
 30
0.0
 40
10.0
 41
0.0
 71
     2
 72
     1
  1
 
  7
CONVERTER_11
 73
     1
 44
1.32052821128451
  0
ENDBLK
  5
65
330
62
100
AcDbEntity
  8
0
100
AcDbBlockEnd
  0
BLOCK
  5
67
330
66
100
AcDbEntity
  8
0
100
AcDbBlockBegin
  2
3240200_CD_80_80-select__6
 70
     0
 10
-2318.000000740723
 20
-2134.000002259157
 30
0.0
  3
3240200_CD_80_80-select__6
  1

  0
LINE
  5
11D
330
66
100
AcDbEntity
  8
0
  6
Continuous
 62
     7
100
AcDbLine
 10
-2238.000000740723
 20
-2134.000002259157
 30
0.0
 11
-2238.000000740723
 21
-2054.000002259157
 31
0.0
  0
LINE
  5
11E
330
66
100
AcDbEntity
  8
0
  6
Continuous
 62
     7
100
AcDbLine
 10
-2238.000000740723
 20
-2054.000002259157
 30
0.0
 11
-2318.000000740723
 21
-2054.000002259157
 31
0.0
  0
LINE
  5
11F
330
66
100
AcDbEntity
  8
0
  6
Continuous
 62
     7
100
AcDbLine
 10
-2318.000000740723
 20
-2054.000002259157
 30
0.0
 11
-2318.000000740723
 21
-2134.000002259157
 31
0.0
  0
LINE
  5
120
330
66
100
AcDbEntity
  8
0
  6
Continuous
 62
     7
100
AcDbLine
 10
-2318.000000740723
 20
-2134.000002259157
 30
0.0
 11
-2238.000000740723
 21
-2134.000002259157
 31
0.0
  0
ENDBLK
  5
68
330
66
100
AcDbEntity
  8
0
100
AcDbBlockEnd
  0
BLOCK
  5
6B
330
69
100
AcDbEntity
  8
0
100
AcDbBlockBegin
  2
Vordans1
 70
     0
 10
-2278.0
 20
-2094.00000072217
 30
0.0
  3
Vordans1
  1

  0
INSERT
  5
6A
330
69
100
AcDbEntity
  8
0
100
AcDbBlockReference
  2
3240200_CD_80_80-select__6
 10
-2318.000000740723
 20
-2134.000002259157
 30
0.0
  0
MTEXT
  5
121
330
69
100
AcDbEntity
  8
1
 62
     6
100
AcDbMText
 10
-2278.0
 20
-2144.000001907351
 30
0.0
 40
10.0
 41
0.0
 71
     2
 72
     1
  1
 
  7
CONVERTER_11
 73
     1
 44
1.32052821128451
  0
DIMENSION
  5
12C
330
69
100
AcDbEntity
  8
1
100
AcDbDimension
  2
*D17
 10
-2212.257418161
 20
-2134.000002259157
 30
0.0
 11
-2219.757418161
 21
-2091.46766020002
 31
0.0
 70
    32
  1
<>
 71
     5
 42
-1.0
 53
90.0
  3
ME10_DIM_11
100
AcDbAlignedDimension
 13
-2238.000000740723
 23
-2054.000002259157
 33
0.0
 14
-2238.000000740723
 24
-2134.000002259157
 34
0.0
 50
90.0
100
AcDbRotatedDimension
  0
DIMENSION
  5
137
330
69
100
AcDbEntity
  8
1
100
AcDbDimension
  2
*D18
 10
-2238.000000740722
 20
-2161.77007198304
 30
0.0
 11
-2278.51623522234
 21
-2154.27007198304
 31
0.0
 70
    32
  1
<>
 71
     5
 42
-1.0
 53
0.00013888888889
  3
ME10_DIM_12
100
AcDbAlignedDimension
 13
-2318.000000740723
 23
-2134.000002259157
 33
0.0
 14
-2238.000000740723
 24
-2134.000002259157
 34
0.0
100
AcDbRotatedDimension
  0
ENDBLK
  5
6C
330
69
100
AcDbEntity
  8
0
100
AcDbBlockEnd
  0
BLOCK
  5
6E
330
6D
100
AcDbEntity
  8
0
100
AcDbBlockBegin
  2
_rahmen
 70
     0
 10
-906.9963067571584
 20
-1280.71595726021
 30
0.0
  3
_rahmen
  1

  0
POINT
  5
138
330
6D
100
AcDbEntity
  8
1
 62
     3
 60
     1
100
AcDbPoint
 10
-970.4963067571562
 20
-1254.465957260211
 30
0.0
  0
LINE
  5
139
102
{ACAD_REACTORS
330
32C
330
32C
330
32D
330
32D
102
}
330
6D
100
AcDbEntity
  8
0
  6
Continuous
 62
     2
100
AcDbLine
 10
-1022.053979927078
 20
-1268.207453858843
 30
0.0
 11
-1022.053979927078
 21
-1267.486365423469
 31
0.0
  0
LINE
  5
13A
102
{ACAD_REACTORS
330
32C
330
32C
330
32D
330
32D
102
}
330
6D
100
AcDbEntity
  8
0
  6
Continuous
 62
     2
100
AcDbLine
 10
-1022.053979927078
 20
-1269.000651137755
 30
0.0
 11
-1022.053979927078
 21
-1269.72173957313
 31
0.0
  0
LINE
  5
13B
102
{ACAD_REACTORS
330
32E
330
32E
330
32F
330
32F
102
}
330
6D
100
AcDbEntity
  8
0
  6
Continuous
 62
     2
100
AcDbLine
 10
-1009.382042624358
 20
-1267.991127328231
 30
0.0
 11
-1008.469944029674
 21
-1267.991127328231
 31
0.0
  0
LINE
  5
13C
102
{ACAD_REACTORS
330
32E
330
32E
330
32F
330
32F
102
}
330
6D
100
AcDbEntity
  8
0
  6
Continuous
 62
     2
100
AcDbLine
 10
-1008.74596217563
 20
-1269.000651137755
 30
0.0
 11
-1008.74596217563
 21
-1269.72173957313
 31
0.0
  0
LINE
  5
13D
102
{ACAD_REACTORS
330
338
330
338
330
339
330
339
102
}
330
6D
100
AcDbEntity
  8
0
  6
Continuous
 62
     2
100
AcDbLine
 10
-1010.283777560241
 20
-1267.089766784028
 30
0.0
 11
-1009.128444463596
 21
-1265.78327174785
 31
0.0
  0
LINE
  5
13E
102
{ACAD_REACTORS
330
338
330
338
330
339
330
339
102
}
330
6D
100
AcDbEntity
  8
0
  6
Continuous
 62
     2
100
AcDbLine
 10
-1010.204915232826
 20
-1264.565957260217
 30
0.0
 11
-1009.128444463596
 21
-1265.78327174785
 31
0.0
  0
LINE
  5
13F
102
{ACAD_REACTORS
330
338
330
338
330
339
330
339
102
}
330
6D
100
AcDbEntity
  8
0
  6
Continuous
 62
     2
100
AcDbLine
 10
-1008.051973694368
 20
-1264.565957260217
 30
0.0
 11
-1006.892697481354
 21
-1264.565957260217
 31
0.0
  0
LINE
  5
140
102
{ACAD_REACTORS
330
338
330
338
330
339
330
339
102
}
330
6D
100
AcDbEntity
  8
0
  6
Continuous
 62
     2
100
AcDbLine
 10
-1009.124501347226
 20
-1267.089766784028
 30
0.0
 11
-1008.548806357089
 21
-1266.438748779652
 31
0.0
  0
LINE
  5
141
102
{ACAD_REACTORS
330
338
330
338
330
339
330
339
102
}
330
6D
100
AcDbEntity
  8
0
  6
Continuous
 62
     2
100
AcDbLine
 10
-1009.124501347226
 20
-1267.089766784028
 30
0.0
 11
-1010.283777560241
 21
-1267.089766784028
 31
0.0
  0
LINE
  5
142
102
{ACAD_REACTORS
330
33A
330
33A
330
33B
330
33B
102
}
330
6D
100
AcDbEntity
  8
0
  6
Continuous
 62
     2
100
AcDbLine
 10
-1010.382355469511
 20
-1267.089766784028
 30
0.0
 11
-1011.407565725919
 21
-1267.089766784028
 31
0.0
  0
LINE
  5
143
102
{ACAD_REACTORS
330
33C
330
33C
330
33D
330
33D
102
}
330
6D
100
AcDbEntity
  8
0
  6
Continuous
 62
     2
100
AcDbLine
 10
-1012.124904245055
 20
-1268.85643345068
 30
0.0
 11
-1012.372974689014
 21
-1268.221875627551
 31
0.0
  0
LINE
  5
144
102
{ACAD_REACTORS
330
33C
330
33C
330
33D
330
33D
102
}
330
6D
100
AcDbEntity
  8
0
  6
Continuous
 62
     2
100
AcDbLine
 10
-1012.621045132975
 20
-1268.85643345068
 30
0.0
 11
-1012.124904245055
 21
-1268.85643345068
 31
0.0
  0
LINE
  5
145
102
{ACAD_REACTORS
330
33C
330
33C
330
33D
330
33D
102
}
330
6D
100
AcDbEntity
  8
0
  6
Continuous
 62
     2
100
AcDbLine
 10
-1014.040912913862
 20
-1269.865957260205
 30
0.0
 11
-1013.015702657455
 21
-1269.865957260205
 31
0.0
  0
LINE
  5
146
102
{ACAD_REACTORS
330
33C
330
33C
330
33D
330
33D
102
}
330
6D
100
AcDbEntity
  8
0
  6
Continuous
 62
     2
100
AcDbLine
 10
-1012.885579817218
 20
-1267.342147736394
 30
0.0
 11
-1011.860369560811
 21
-1267.342147736394
 31
0.0
  0
LINE
  5
147
102
{ACAD_REACTORS
330
33C
330
33C
330
33D
330
33D
102
}
330
6D
100
AcDbEntity
  8
0
  6
Continuous
 62
     2
100
AcDbLine
 10
-1011.860369560811
 20
-1267.342147736394
 30
0.0
 11
-1010.705036464166
 21
-1269.865957260205
 31
0.0
  0
LINE
  5
148
102
{ACAD_REACTORS
330
33C
330
33C
330
33D
330
33D
102
}
330
6D
100
AcDbEntity
  8
0
  6
Continuous
 62
     2
100
AcDbLine
 10
-1011.730246720574
 20
-1269.865957260205
 30
0.0
 11
-1011.905023624273
 21
-1269.418882430273
 31
0.0
  0
LINE
  5
149
102
{ACAD_REACTORS
330
33E
330
33E
330
33F
330
33F
102
}
330
6D
100
AcDbEntity
  8
0
  6
Continuous
 62
     2
100
AcDbLine
 10
-1015.153651014447
 20
-1269.865957260205
 30
0.0
 11
-1014.167871921747
 21
-1269.865957260205
 31
0.0
  0
LINE
  5
14A
102
{ACAD_REACTORS
330
33E
330
33E
330
33F
330
33F
102
}
330
6D
100
AcDbEntity
  8
0
  6
Continuous
 62
     2
100
AcDbLine
 10
-1015.153651014447
 20
-1267.991127328231
 30
0.0
 11
-1015.153651014447
 21
-1269.865957260205
 31
0.0
  0
LINE
  5
14B
102
{ACAD_REACTORS
330
33E
330
33E
330
33F
330
33F
102
}
330
6D
100
AcDbEntity
  8
0
  6
Continuous
 62
     2
100
AcDbLine
 10
-1015.823980797484
 20
-1267.342147736394
 30
0.0
 11
-1015.823980797484
 21
-1267.991127328231
 31
0.0
  0
LINE
  5
14C
102
{ACAD_REACTORS
330
340
330
340
330
341
330
341
102
}
330
6D
100
AcDbEntity
  8
0
  6
Continuous
 62
     2
100
AcDbLine
 10
-1014.601489986267
 20
-1267.089766784028
 30
0.0
 11
-1013.615710893567
 21
-1267.089766784028
 31
0.0
  0
LINE
  5
14D
102
{ACAD_REACTORS
330
340
330
340
330
341
330
341
102
}
330
6D
100
AcDbEntity
  8
0
  6
Continuous
 62
     2
100
AcDbLine
 10
-1012.590500637159
 20
-1265.647589913279
 30
0.0
 11
-1013.615710893567
 21
-1264.565957260217
 31
0.0
  0
LINE
  5
14E
102
{ACAD_REACTORS
330
340
330
340
330
341
330
341
102
}
330
6D
100
AcDbEntity
  8
0
  6
Continuous
 62
     2
100
AcDbLine
 10
-1011.604721544459
 20
-1264.565957260217
 30
0.0
 11
-1012.590500637159
 21
-1264.565957260217
 31
0.0
  0
LINE
  5
14F
102
{ACAD_REACTORS
330
340
330
340
330
341
330
341
102
}
330
6D
100
AcDbEntity
  8
0
  6
Continuous
 62
     2
100
AcDbLine
 10
-1011.604721544459
 20
-1267.089766784028
 30
0.0
 11
-1011.604721544459
 21
-1264.565957260217
 31
0.0
  0
LINE
  5
150
102
{ACAD_REACTORS
330
340
330
340
330
341
330
341
102
}
330
6D
100
AcDbEntity
  8
0
  6
Continuous
 62
     2
100
AcDbLine
 10
-1012.590500637159
 20
-1267.089766784028
 30
0.0
 11
-1011.604721544459
 21
-1267.089766784028
 31
0.0
  0
LINE
  5
151
102
{ACAD_REACTORS
330
340
330
340
330
341
330
341
102
}
330
6D
100
AcDbEntity
  8
0
  6
Continuous
 62
     2
100
AcDbLine
 10
-1013.615710893567
 20
-1266.008134130966
 30
0.0
 11
-1012.590500637159
 21
-1267.089766784028
 31
0.0
  0
LINE
  5
152
102
{ACAD_REACTORS
330
342
330
342
330
343
330
343
102
}
330
6D
100
AcDbEntity
  8
0
  6
Continuous
 62
     2
100
AcDbLine
 10
-1016.928053381307
 20
-1268.423780389456
 30
0.0
 11
-1017.953263637715
 21
-1267.342147736394
 31
0.0
  0
LINE
  5
153
102
{ACAD_REACTORS
330
342
330
342
330
343
330
343
102
}
330
6D
100
AcDbEntity
  8
0
  6
Continuous
 62
     2
100
AcDbLine
 10
-1016.928053381307
 20
-1267.342147736394
 30
0.0
 11
-1016.928053381307
 21
-1268.423780389456
 31
0.0
  0
LINE
  5
154
102
{ACAD_REACTORS
330
342
330
342
330
343
330
343
102
}
330
6D
100
AcDbEntity
  8
0
  6
Continuous
 62
     2
100
AcDbLine
 10
-1015.942274288608
 20
-1267.342147736394
 30
0.0
 11
-1016.928053381307
 21
-1267.342147736394
 31
0.0
  0
LINE
  5
155
102
{ACAD_REACTORS
330
342
330
342
330
343
330
343
102
}
330
6D
100
AcDbEntity
  8
0
  6
Continuous
 62
     2
100
AcDbLine
 10
-1015.942274288608
 20
-1269.865957260205
 30
0.0
 11
-1015.942274288608
 21
-1267.342147736394
 31
0.0
  0
LINE
  5
156
102
{ACAD_REACTORS
330
342
330
342
330
343
330
343
102
}
330
6D
100
AcDbEntity
  8
0
  6
Continuous
 62
     2
100
AcDbLine
 10
-1017.953263637715
 20
-1268.784324607143
 30
0.0
 11
-1016.928053381307
 21
-1269.865957260205
 31
0.0
  0
LINE
  5
157
102
{ACAD_REACTORS
330
342
330
342
330
343
330
343
102
}
330
6D
100
AcDbEntity
  8
0
  6
Continuous
 62
     2
100
AcDbLine
 10
-1017.953263637715
 20
-1269.865957260205
 30
0.0
 11
-1017.953263637715
 21
-1268.784324607143
 31
0.0
  0
LINE
  5
158
102
{ACAD_REACTORS
330
332
330
332
330
333
330
333
102
}
330
6D
100
AcDbEntity
  8
0
  6
Continuous
 62
     2
100
AcDbLine
 10
-1015.902718388631
 20
-1265.142828008517
 30
0.0
 11
-1014.798645804806
 21
-1265.142828008517
 31
0.0
  0
LINE
  5
159
102
{ACAD_REACTORS
330
332
330
332
330
333
330
333
102
}
330
6D
100
AcDbEntity
  8
0
  6
Continuous
 62
     2
100
AcDbLine
 10
-1015.902718388631
 20
-1266.512896035728
 30
0.0
 11
-1015.902718388631
 21
-1266.116297396272
 31
0.0
  0
LINE
  5
15A
102
{ACAD_REACTORS
330
332
330
332
330
333
330
333
102
}
330
6D
100
AcDbEntity
  8
0
  6
Continuous
 62
     2
100
AcDbLine
 10
-1014.798645804806
 20
-1266.512896035728
 30
0.0
 11
-1015.902718388631
 21
-1266.512896035728
 31
0.0
  0
LINE
  5
15B
102
{ACAD_REACTORS
330
332
330
332
330
333
330
333
102
}
330
6D
100
AcDbEntity
  8
0
  6
Continuous
 62
     2
100
AcDbLine
 10
-1014.798645804806
 20
-1267.089766784028
 30
0.0
 11
-1014.798645804806
 21
-1266.512896035728
 31
0.0
  0
LINE
  5
15C
102
{ACAD_REACTORS
330
332
330
332
330
333
330
333
102
}
330
6D
100
AcDbEntity
  8
0
  6
Continuous
 62
     2
100
AcDbLine
 10
-1017.40221582446
 20
-1267.089766784028
 30
0.0
 11
-1014.798645804806
 21
-1267.089766784028
 31
0.0
  0
LINE
  5
15D
102
{ACAD_REACTORS
330
332
330
332
330
333
330
333
102
}
330
6D
100
AcDbEntity
  8
0
  6
Continuous
 62
     2
100
AcDbLine
 10
-1017.40221582446
 20
-1264.565957260217
 30
0.0
 11
-1014.798645804806
 21
-1264.565957260217
 31
0.0
  0
LINE
  5
15E
102
{ACAD_REACTORS
330
332
330
332
330
333
330
333
102
}
330
6D
100
AcDbEntity
  8
0
  6
Continuous
 62
     2
100
AcDbLine
 10
-1014.798645804806
 20
-1265.142828008517
 30
0.0
 11
-1014.798645804806
 21
-1264.565957260217
 31
0.0
  0
LINE
  5
15F
102
{ACAD_REACTORS
330
344
330
344
330
345
330
345
102
}
330
6D
100
AcDbEntity
  8
0
  6
Continuous
 62
     2
100
AcDbLine
 10
-1019.766972432014
 20
-1265.449290593551
 30
0.0
 11
-1019.766972432014
 21
-1264.565957260217
 31
0.0
  0
LINE
  5
160
102
{ACAD_REACTORS
330
344
330
344
330
345
330
345
102
}
330
6D
100
AcDbEntity
  8
0
  6
Continuous
 62
     2
100
AcDbLine
 10
-1019.766972432014
 20
-1264.565957260217
 30
0.0
 11
-1018.781193339314
 21
-1264.565957260217
 31
0.0
  0
LINE
  5
161
102
{ACAD_REACTORS
330
344
330
344
330
345
330
345
102
}
330
6D
100
AcDbEntity
  8
0
  6
Continuous
 62
     2
100
AcDbLine
 10
-1019.766972432014
 20
-1266.152351818041
 30
0.0
 11
-1020.63445803359
 21
-1266.152351818041
 31
0.0
  0
LINE
  5
162
102
{ACAD_REACTORS
330
344
330
344
330
345
330
345
102
}
330
6D
100
AcDbEntity
  8
0
  6
Continuous
 62
     2
100
AcDbLine
 10
-1020.63445803359
 20
-1266.152351818041
 30
0.0
 11
-1020.63445803359
 21
-1267.089766784028
 31
0.0
  0
LINE
  5
163
102
{ACAD_REACTORS
330
344
330
344
330
345
330
345
102
}
330
6D
100
AcDbEntity
  8
0
  6
Continuous
 62
     2
100
AcDbLine
 10
-1021.62023712629
 20
-1264.565957260217
 30
0.0
 11
-1021.62023712629
 21
-1267.089766784028
 31
0.0
  0
LINE
  5
164
102
{ACAD_REACTORS
330
336
330
336
330
337
330
337
102
}
330
6D
100
AcDbEntity
  8
0
  6
Continuous
 62
     2
100
AcDbLine
 10
-1023.236914838318
 20
-1265.697224611276
 30
0.0
 11
-1023.236914838318
 21
-1265.113978620085
 31
0.0
  0
LINE
  5
165
102
{ACAD_REACTORS
330
336
330
336
330
337
330
337
102
}
330
6D
100
AcDbEntity
  8
0
  6
Continuous
 62
     2
100
AcDbLine
 10
-1024.262125094726
 20
-1267.089766784028
 30
0.0
 11
-1023.236914838318
 21
-1267.089766784028
 31
0.0
  0
LINE
  5
166
102
{ACAD_REACTORS
330
336
330
336
330
337
330
337
102
}
330
6D
100
AcDbEntity
  8
0
  6
Continuous
 62
     2
100
AcDbLine
 10
-1023.236914838318
 20
-1267.089766784028
 30
0.0
 11
-1023.236914838318
 21
-1266.31036327895
 31
0.0
  0
LINE
  5
167
102
{ACAD_REACTORS
330
330
330
330
330
331
330
331
102
}
330
6D
100
AcDbEntity
  8
0
  6
Continuous
 62
     2
100
AcDbLine
 10
-1027.819931581678
 20
-1269.277068371315
 30
0.0
 11
-1029.039628491603
 21
-1269.277068371315
 31
0.0
  0
LINE
  5
168
102
{ACAD_REACTORS
330
330
330
330
330
331
330
331
102
}
330
6D
100
AcDbEntity
  8
0
  6
Continuous
 62
     2
100
AcDbLine
 10
-1029.881065923115
 20
-1264.916572644846
 30
0.0
 11
-1029.881065923115
 21
-1269.51534187559
 31
0.0
  0
LINE
  5
169
102
{ACAD_REACTORS
330
330
330
330
330
331
330
331
102
}
330
6D
100
AcDbEntity
  8
0
  6
Continuous
 62
     2
100
AcDbLine
 10
-1029.530450538501
 20
-1264.565957260232
 30
0.0
 11
-1025.007052116421
 21
-1264.565957260232
 31
0.0
  0
LINE
  5
16A
102
{ACAD_REACTORS
330
330
330
330
330
331
330
331
102
}
330
6D
100
AcDbEntity
  8
0
  6
Continuous
 62
     2
100
AcDbLine
 10
-1024.656436731806
 20
-1264.916572644846
 30
0.0
 11
-1024.656436731806
 21
-1269.51534187559
 31
0.0
  0
LINE
  5
16B
102
{ACAD_REACTORS
330
330
330
330
330
331
330
331
102
}
330
6D
100
AcDbEntity
  8
0
  6
Continuous
 62
     2
100
AcDbLine
 10
-1025.007052116421
 20
-1269.865957260205
 30
0.0
 11
-1029.530450538501
 21
-1269.865957260205
 31
0.0
  0
LINE
  5
16C
102
{ACAD_REACTORS
330
330
330
330
330
331
330
331
102
}
330
6D
100
AcDbEntity
  8
0
  6
Continuous
 62
     2
100
AcDbLine
 10
-1027.559008504755
 20
-1269.016145294392
 30
0.0
 11
-1027.559008504755
 21
-1267.751045350977
 31
0.0
  0
LINE
  5
16D
102
{ACAD_REACTORS
330
330
330
330
330
331
330
331
102
}
330
6D
100
AcDbEntity
  8
0
  6
Continuous
 62
     2
100
AcDbLine
 10
-1027.559008504755
 20
-1265.914963126081
 30
0.0
 11
-1027.559008504755
 21
-1265.41576922603
 31
0.0
  0
LINE
  5
16E
102
{ACAD_REACTORS
330
330
330
330
330
331
330
331
102
}
330
6D
100
AcDbEntity
  8
0
  6
Continuous
 62
     2
100
AcDbLine
 10
-1029.039628491603
 20
-1265.154846149108
 30
0.0
 11
-1027.819931581678
 21
-1265.154846149108
 31
0.0
  0
LINE
  5
16F
102
{ACAD_REACTORS
330
330
330
330
330
331
330
331
102
}
330
6D
100
AcDbEntity
  8
0
  6
Continuous
 62
     2
100
AcDbLine
 10
-1029.300551568525
 20
-1265.41576922603
 30
0.0
 11
-1029.300551568525
 21
-1269.016145294392
 31
0.0
  0
LINE
  5
170
102
{ACAD_REACTORS
330
336
330
336
330
337
330
337
102
}
330
6D
100
AcDbEntity
  8
0
  6
Continuous
 62
     2
100
AcDbLine
 10
-1023.236914838318
 20
-1266.31036327895
 30
0.0
 11
-1022.60983418726
 21
-1266.31036327895
 31
0.0
  0
LINE
  5
171
102
{ACAD_REACTORS
330
336
330
336
330
337
330
337
102
}
330
6D
100
AcDbEntity
  8
0
  6
Continuous
 62
     2
100
AcDbLine
 10
-1024.262125094726
 20
-1264.565957260217
 30
0.0
 11
-1022.60983418726
 21
-1264.565957260217
 31
0.0
  0
LINE
  5
172
102
{ACAD_REACTORS
330
336
330
336
330
337
330
337
102
}
330
6D
100
AcDbEntity
  8
0
  6
Continuous
 62
     2
100
AcDbLine
 10
-1024.262125094726
 20
-1264.565957260217
 30
0.0
 11
-1024.262125094726
 21
-1267.089766784028
 31
0.0
  0
LINE
  5
173
102
{ACAD_REACTORS
330
336
330
336
330
337
330
337
102
}
330
6D
100
AcDbEntity
  8
0
  6
Continuous
 62
     2
100
AcDbLine
 10
-1023.236914838318
 20
-1265.697224611276
 30
0.0
 11
-1022.974687514729
 21
-1265.697224611276
 31
0.0
  0
LINE
  5
174
102
{ACAD_REACTORS
330
336
330
336
330
337
330
337
102
}
330
6D
100
AcDbEntity
  8
0
  6
Continuous
 62
     2
100
AcDbLine
 10
-1023.236914838318
 20
-1265.113978620085
 30
0.0
 11
-1022.974687514729
 21
-1265.113978620085
 31
0.0
  0
LINE
  5
175
102
{ACAD_REACTORS
330
344
330
344
330
345
330
345
102
}
330
6D
100
AcDbEntity
  8
0
  6
Continuous
 62
     2
100
AcDbLine
 10
-1020.63445803359
 20
-1265.449290593551
 30
0.0
 11
-1019.766972432014
 21
-1265.449290593551
 31
0.0
  0
LINE
  5
176
102
{ACAD_REACTORS
330
344
330
344
330
345
330
345
102
}
330
6D
100
AcDbEntity
  8
0
  6
Continuous
 62
     2
100
AcDbLine
 10
-1020.63445803359
 20
-1264.565957260217
 30
0.0
 11
-1020.63445803359
 21
-1265.449290593551
 31
0.0
  0
LINE
  5
177
102
{ACAD_REACTORS
330
344
330
344
330
345
330
345
102
}
330
6D
100
AcDbEntity
  8
0
  6
Continuous
 62
     2
100
AcDbLine
 10
-1021.62023712629
 20
-1264.565957260217
 30
0.0
 11
-1020.63445803359
 21
-1264.565957260217
 31
0.0
  0
LINE
  5
178
102
{ACAD_REACTORS
330
344
330
344
330
345
330
345
102
}
330
6D
100
AcDbEntity
  8
0
  6
Continuous
 62
     2
100
AcDbLine
 10
-1020.63445803359
 20
-1267.089766784028
 30
0.0
 11
-1021.62023712629
 21
-1267.089766784028
 31
0.0
  0
LINE
  5
179
102
{ACAD_REACTORS
330
344
330
344
330
345
330
345
102
}
330
6D
100
AcDbEntity
  8
0
  6
Continuous
 62
     2
100
AcDbLine
 10
-1019.766972432014
 20
-1267.089766784028
 30
0.0
 11
-1019.766972432014
 21
-1266.152351818041
 31
0.0
  0
LINE
  5
17A
102
{ACAD_REACTORS
330
344
330
344
330
345
330
345
102
}
330
6D
100
AcDbEntity
  8
0
  6
Continuous
 62
     2
100
AcDbLine
 10
-1018.781193339314
 20
-1267.089766784028
 30
0.0
 11
-1019.766972432014
 21
-1267.089766784028
 31
0.0
  0
LINE
  5
17B
102
{ACAD_REACTORS
330
344
330
344
330
345
330
345
102
}
330
6D
100
AcDbEntity
  8
0
  6
Continuous
 62
     2
100
AcDbLine
 10
-1018.781193339314
 20
-1264.565957260217
 30
0.0
 11
-1018.781193339314
 21
-1267.089766784028
 31
0.0
  0
LINE
  5
17C
102
{ACAD_REACTORS
330
332
330
332
330
333
330
333
102
}
330
6D
100
AcDbEntity
  8
0
  6
Continuous
 62
     2
100
AcDbLine
 10
-1015.902718388631
 20
-1266.116297396272
 30
0.0
 11
-1014.798645804806
 21
-1266.116297396272
 31
0.0
  0
LINE
  5
17D
102
{ACAD_REACTORS
330
332
330
332
330
333
330
333
102
}
330
6D
100
AcDbEntity
  8
0
  6
Continuous
 62
     2
100
AcDbLine
 10
-1014.798645804806
 20
-1266.116297396272
 30
0.0
 11
-1014.798645804806
 21
-1265.539426647973
 31
0.0
  0
LINE
  5
17E
102
{ACAD_REACTORS
330
332
330
332
330
333
330
333
102
}
330
6D
100
AcDbEntity
  8
0
  6
Continuous
 62
     2
100
AcDbLine
 10
-1014.798645804806
 20
-1265.539426647973
 30
0.0
 11
-1015.902718388631
 21
-1265.539426647973
 31
0.0
  0
LINE
  5
17F
102
{ACAD_REACTORS
330
332
330
332
330
333
330
333
102
}
330
6D
100
AcDbEntity
  8
0
  6
Continuous
 62
     2
100
AcDbLine
 10
-1015.902718388631
 20
-1265.539426647973
 30
0.0
 11
-1015.902718388631
 21
-1265.142828008517
 31
0.0
  0
LINE
  5
180
102
{ACAD_REACTORS
330
342
330
342
330
343
330
343
102
}
330
6D
100
AcDbEntity
  8
0
  6
Continuous
 62
     2
100
AcDbLine
 10
-1018.939042730415
 20
-1269.865957260205
 30
0.0
 11
-1017.953263637715
 21
-1269.865957260205
 31
0.0
  0
LINE
  5
181
102
{ACAD_REACTORS
330
342
330
342
330
343
330
343
102
}
330
6D
100
AcDbEntity
  8
0
  6
Continuous
 62
     2
100
AcDbLine
 10
-1016.928053381307
 20
-1269.865957260205
 30
0.0
 11
-1015.942274288608
 21
-1269.865957260205
 31
0.0
  0
LINE
  5
182
102
{ACAD_REACTORS
330
342
330
342
330
343
330
343
102
}
330
6D
100
AcDbEntity
  8
0
  6
Continuous
 62
     2
100
AcDbLine
 10
-1017.953263637715
 20
-1267.342147736394
 30
0.0
 11
-1018.939042730415
 21
-1267.342147736394
 31
0.0
  0
LINE
  5
183
102
{ACAD_REACTORS
330
342
330
342
330
343
330
343
102
}
330
6D
100
AcDbEntity
  8
0
  6
Continuous
 62
     2
100
AcDbLine
 10
-1018.939042730415
 20
-1267.342147736394
 30
0.0
 11
-1018.939042730415
 21
-1269.865957260205
 31
0.0
  0
LINE
  5
184
102
{ACAD_REACTORS
330
340
330
340
330
341
330
341
102
}
330
6D
100
AcDbEntity
  8
0
  6
Continuous
 62
     2
100
AcDbLine
 10
-1012.590500637159
 20
-1264.565957260217
 30
0.0
 11
-1012.590500637159
 21
-1265.647589913279
 31
0.0
  0
LINE
  5
185
102
{ACAD_REACTORS
330
340
330
340
330
341
330
341
102
}
330
6D
100
AcDbEntity
  8
0
  6
Continuous
 62
     2
100
AcDbLine
 10
-1013.615710893567
 20
-1264.565957260217
 30
0.0
 11
-1014.601489986267
 21
-1264.565957260217
 31
0.0
  0
LINE
  5
186
102
{ACAD_REACTORS
330
340
330
340
330
341
330
341
102
}
330
6D
100
AcDbEntity
  8
0
  6
Continuous
 62
     2
100
AcDbLine
 10
-1014.601489986267
 20
-1264.565957260217
 30
0.0
 11
-1014.601489986267
 21
-1267.089766784028
 31
0.0
  0
LINE
  5
187
102
{ACAD_REACTORS
330
340
330
340
330
341
330
341
102
}
330
6D
100
AcDbEntity
  8
0
  6
Continuous
 62
     2
100
AcDbLine
 10
-1013.615710893567
 20
-1267.089766784028
 30
0.0
 11
-1013.615710893567
 21
-1266.008134130966
 31
0.0
  0
LINE
  5
188
102
{ACAD_REACTORS
330
33E
330
33E
330
33F
330
33F
102
}
330
6D
100
AcDbEntity
  8
0
  6
Continuous
 62
     2
100
AcDbLine
 10
-1014.167871921747
 20
-1269.865957260205
 30
0.0
 11
-1014.167871921747
 21
-1267.991127328231
 31
0.0
  0
LINE
  5
189
102
{ACAD_REACTORS
330
33E
330
33E
330
33F
330
33F
102
}
330
6D
100
AcDbEntity
  8
0
  6
Continuous
 62
     2
100
AcDbLine
 10
-1014.167871921747
 20
-1267.991127328231
 30
0.0
 11
-1013.497542138712
 21
-1267.991127328231
 31
0.0
  0
LINE
  5
18A
102
{ACAD_REACTORS
330
33E
330
33E
330
33F
330
33F
102
}
330
6D
100
AcDbEntity
  8
0
  6
Continuous
 62
     2
100
AcDbLine
 10
-1013.497542138712
 20
-1267.991127328231
 30
0.0
 11
-1013.497542138712
 21
-1267.342147736394
 31
0.0
  0
LINE
  5
18B
102
{ACAD_REACTORS
330
33E
330
33E
330
33F
330
33F
102
}
330
6D
100
AcDbEntity
  8
0
  6
Continuous
 62
     2
100
AcDbLine
 10
-1013.497542138712
 20
-1267.342147736394
 30
0.0
 11
-1015.823980797484
 21
-1267.342147736394
 31
0.0
  0
LINE
  5
18C
102
{ACAD_REACTORS
330
33E
330
33E
330
33F
330
33F
102
}
330
6D
100
AcDbEntity
  8
0
  6
Continuous
 62
     2
100
AcDbLine
 10
-1015.823980797484
 20
-1267.991127328231
 30
0.0
 11
-1015.153651014447
 21
-1267.991127328231
 31
0.0
  0
LINE
  5
18D
102
{ACAD_REACTORS
330
33C
330
33C
330
33D
330
33D
102
}
330
6D
100
AcDbEntity
  8
0
  6
Continuous
 62
     2
100
AcDbLine
 10
-1012.840925753756
 20
-1269.418882430273
 30
0.0
 11
-1011.905023624273
 21
-1269.418882430273
 31
0.0
  0
LINE
  5
18E
102
{ACAD_REACTORS
330
33C
330
33C
330
33D
330
33D
102
}
330
6D
100
AcDbEntity
  8
0
  6
Continuous
 62
     2
100
AcDbLine
 10
-1010.705036464166
 20
-1269.865957260205
 30
0.0
 11
-1011.730246720574
 21
-1269.865957260205
 31
0.0
  0
LINE
  5
18F
102
{ACAD_REACTORS
330
33C
330
33C
330
33D
330
33D
102
}
330
6D
100
AcDbEntity
  8
0
  6
Continuous
 62
     2
100
AcDbLine
 10
-1012.885579817218
 20
-1267.342147736394
 30
0.0
 11
-1014.040912913862
 21
-1269.865957260205
 31
0.0
  0
LINE
  5
190
102
{ACAD_REACTORS
330
33C
330
33C
330
33D
330
33D
102
}
330
6D
100
AcDbEntity
  8
0
  6
Continuous
 62
     2
100
AcDbLine
 10
-1013.015702657455
 20
-1269.865957260205
 30
0.0
 11
-1012.840925753756
 21
-1269.418882430273
 31
0.0
  0
LINE
  5
191
102
{ACAD_REACTORS
330
33C
330
33C
330
33D
330
33D
102
}
330
6D
100
AcDbEntity
  8
0
  6
Continuous
 62
     2
100
AcDbLine
 10
-1012.621045132975
 20
-1268.85643345068
 30
0.0
 11
-1012.372974689014
 21
-1268.221875627551
 31
0.0
  0
LINE
  5
192
102
{ACAD_REACTORS
330
33A
330
33A
330
33B
330
33B
102
}
330
6D
100
AcDbEntity
  8
0
  6
Continuous
 62
     2
100
AcDbLine
 10
-1011.407565725919
 20
-1267.089766784028
 30
0.0
 11
-1011.407565725919
 21
-1264.565957260217
 31
0.0
  0
LINE
  5
193
102
{ACAD_REACTORS
330
33A
330
33A
330
33B
330
33B
102
}
330
6D
100
AcDbEntity
  8
0
  6
Continuous
 62
     2
100
AcDbLine
 10
-1010.382355469511
 20
-1264.565957260217
 30
0.0
 11
-1010.382355469511
 21
-1267.089766784028
 31
0.0
  0
LINE
  5
194
102
{ACAD_REACTORS
330
33A
330
33A
330
33B
330
33B
102
}
330
6D
100
AcDbEntity
  8
0
  6
Continuous
 62
     2
100
AcDbLine
 10
-1011.407565725919
 20
-1264.565957260217
 30
0.0
 11
-1010.382355469511
 21
-1264.565957260217
 31
0.0
  0
LINE
  5
195
102
{ACAD_REACTORS
330
338
330
338
330
339
330
339
102
}
330
6D
100
AcDbEntity
  8
0
  6
Continuous
 62
     2
100
AcDbLine
 10
-1008.548806357089
 20
-1266.438748779652
 30
0.0
 11
-1007.973111366953
 21
-1267.089766784028
 31
0.0
  0
LINE
  5
196
102
{ACAD_REACTORS
330
338
330
338
330
339
330
339
102
}
330
6D
100
AcDbEntity
  8
0
  6
Continuous
 62
     2
100
AcDbLine
 10
-1007.973111366953
 20
-1267.089766784028
 30
0.0
 11
-1006.813835153937
 21
-1267.089766784028
 31
0.0
  0
LINE
  5
197
102
{ACAD_REACTORS
330
338
330
338
330
339
330
339
102
}
330
6D
100
AcDbEntity
  8
0
  6
Continuous
 62
     2
100
AcDbLine
 10
-1007.969168250582
 20
-1265.78327174785
 30
0.0
 11
-1006.813835153937
 21
-1267.089766784028
 31
0.0
  0
LINE
  5
198
102
{ACAD_REACTORS
330
338
330
338
330
339
330
339
102
}
330
6D
100
AcDbEntity
  8
0
  6
Continuous
 62
     2
100
AcDbLine
 10
-1007.969168250582
 20
-1265.78327174785
 30
0.0
 11
-1006.892697481354
 21
-1264.565957260217
 31
0.0
  0
LINE
  5
199
102
{ACAD_REACTORS
330
338
330
338
330
339
330
339
102
}
330
6D
100
AcDbEntity
  8
0
  6
Continuous
 62
     2
100
AcDbLine
 10
-1008.548806357089
 20
-1265.127794716048
 30
0.0
 11
-1008.051973694368
 21
-1264.565957260217
 31
0.0
  0
LINE
  5
19A
102
{ACAD_REACTORS
330
338
330
338
330
339
330
339
102
}
330
6D
100
AcDbEntity
  8
0
  6
Continuous
 62
     2
100
AcDbLine
 10
-1009.04563901981
 20
-1264.565957260217
 30
0.0
 11
-1008.548806357089
 21
-1265.127794716048
 31
0.0
  0
LINE
  5
19B
102
{ACAD_REACTORS
330
338
330
338
330
339
330
339
102
}
330
6D
100
AcDbEntity
  8
0
  6
Continuous
 62
     2
100
AcDbLine
 10
-1009.04563901981
 20
-1264.565957260217
 30
0.0
 11
-1010.204915232826
 21
-1264.565957260217
 31
0.0
  0
LINE
  5
19C
102
{ACAD_REACTORS
330
32E
330
32E
330
32F
330
32F
102
}
330
6D
100
AcDbEntity
  8
0
  6
Continuous
 62
     2
100
AcDbLine
 10
-1008.469944029674
 20
-1269.865957260205
 30
0.0
 11
-1007.484164936973
 21
-1269.865957260205
 31
0.0
  0
LINE
  5
19D
102
{ACAD_REACTORS
330
32E
330
32E
330
32F
330
32F
102
}
330
6D
100
AcDbEntity
  8
0
  6
Continuous
 62
     2
100
AcDbLine
 10
-1007.484164936973
 20
-1269.865957260205
 30
0.0
 11
-1007.484164936973
 21
-1267.991127328231
 31
0.0
  0
LINE
  5
19E
102
{ACAD_REACTORS
330
32E
330
32E
330
32F
330
32F
102
}
330
6D
100
AcDbEntity
  8
0
  6
Continuous
 62
     2
100
AcDbLine
 10
-1007.484164936973
 20
-1267.991127328231
 30
0.0
 11
-1006.813835153937
 21
-1267.991127328231
 31
0.0
  0
LINE
  5
19F
102
{ACAD_REACTORS
330
32E
330
32E
330
32F
330
32F
102
}
330
6D
100
AcDbEntity
  8
0
  6
Continuous
 62
     2
100
AcDbLine
 10
-1006.813835153937
 20
-1267.991127328231
 30
0.0
 11
-1006.813835153937
 21
-1267.342147736394
 31
0.0
  0
LINE
  5
1A0
102
{ACAD_REACTORS
330
32E
330
32E
330
32F
330
32F
102
}
330
6D
100
AcDbEntity
  8
0
  6
Continuous
 62
     2
100
AcDbLine
 10
-1009.611310789168
 20
-1267.342147736394
 30
0.0
 11
-1006.813835153937
 21
-1267.342147736394
 31
0.0
  0
LINE
  5
1A1
102
{ACAD_REACTORS
330
32E
330
32E
330
32F
330
32F
102
}
330
6D
100
AcDbEntity
  8
0
  6
Continuous
 62
     2
100
AcDbLine
 10
-1008.469944029674
 20
-1267.991127328231
 30
0.0
 11
-1008.469944029674
 21
-1269.865957260205
 31
0.0
  0
LINE
  5
1A2
102
{ACAD_REACTORS
330
330
330
330
330
331
330
331
102
}
330
6D
100
AcDbEntity
  8
0
  6
Continuous
 62
     2
100
AcDbLine
 10
-1027.171998935028
 20
-1268.230519120069
 30
0.0
 11
-1027.171998935028
 21
-1267.749650188916
 31
0.0
  0
LINE
  5
1A3
102
{ACAD_REACTORS
330
330
330
330
330
331
330
331
102
}
330
6D
100
AcDbEntity
  8
0
  6
Continuous
 62
     2
100
AcDbLine
 10
-1027.171998935028
 20
-1265.916358288142
 30
0.0
 11
-1027.171998935028
 21
-1265.415915900946
 31
0.0
  0
LINE
  5
1A4
330
6D
100
AcDbEntity
  8
1
  6
Continuous
 62
     6
100
AcDbLine
 10
-1158.996306757158
 20
-1275.71595726021
 30
0.0
 11
-1152.79630675716
 21
-1275.715957260211
 31
0.0
  0
LINE
  5
1A5
330
6D
100
AcDbEntity
  8
1
  6
Continuous
 62
     6
100
AcDbLine
 10
-1152.79630675716
 20
-1275.715957260211
 30
0.0
 11
-1139.29630675716
 21
-1275.71595726021
 31
0.0
  0
LINE
  5
1A6
330
6D
100
AcDbEntity
  8
1
  6
Continuous
 62
     6
100
AcDbLine
 10
-1139.29630675716
 20
-1275.71595726021
 30
0.0
 11
-1111.996306757158
 21
-1275.71595726021
 31
0.0
  0
LINE
  5
1A7
330
6D
100
AcDbEntity
  8
1
  6
Continuous
 62
     6
100
AcDbLine
 10
-1111.996306757158
 20
-1275.71595726021
 30
0.0
 11
-1077.04111128391
 21
-1275.715957260211
 31
0.0
  0
LINE
  5
1A8
330
6D
100
AcDbEntity
  8
1
  6
Continuous
 62
     6
100
AcDbLine
 10
-1050.04111128391
 20
-1275.715957260211
 30
0.0
 11
-1043.662973423825
 21
-1275.71595726021
 31
0.0
  0
LINE
  5
1A9
330
6D
100
AcDbEntity
  8
1
  6
Continuous
 62
     6
100
AcDbLine
 10
-1063.54111128391
 20
-1275.715957260211
 30
0.0
 11
-1050.04111128391
 21
-1275.715957260211
 31
0.0
  0
LINE
  5
1AA
330
6D
100
AcDbEntity
  8
1
  6
Continuous
 62
     6
100
AcDbLine
 10
-1077.04111128391
 20
-1275.715957260211
 30
0.0
 11
-1063.54111128391
 21
-1275.715957260211
 31
0.0
  0
LINE
  5
1AB
330
6D
100
AcDbEntity
  8
1
  6
Continuous
 62
     6
100
AcDbLine
 10
-1043.662973423825
 20
-1275.71595726021
 30
0.0
 11
-1036.54111128391
 21
-1275.715957260211
 31
0.0
  0
LINE
  5
1AC
330
6D
100
AcDbEntity
  8
1
  6
Continuous
 62
     6
100
AcDbLine
 10
-1036.54111128391
 20
-1275.715957260211
 30
0.0
 11
-1018.34111128391
 21
-1275.71595726021
 31
0.0
  0
LINE
  5
1AD
330
6D
100
AcDbEntity
  8
1
  6
Continuous
 62
     6
100
AcDbLine
 10
-1018.34111128391
 20
-1275.71595726021
 30
0.0
 11
-1000.14111128391
 21
-1275.715957260211
 31
0.0
  0
LINE
  5
1AE
330
6D
100
AcDbEntity
  8
1
  6
Continuous
 62
     6
100
AcDbLine
 10
-1000.14111128391
 20
-1275.715957260211
 30
0.0
 11
-975.3296400904919
 21
-1275.71595726021
 31
0.0
  0
LINE
  5
1AF
330
6D
100
AcDbEntity
  8
1
  6
Continuous
 62
     6
100
AcDbLine
 10
-975.3296400904919
 20
-1275.71595726021
 30
0.0
 11
-906.9963067571585
 21
-1275.71595726021
 31
0.0
  0
LINE
  5
1B0
330
6D
100
AcDbEntity
  8
1
  6
Continuous
 62
     6
100
AcDbLine
 10
-906.9963067571589
 20
-1267.215957260211
 30
0.0
 11
-906.9963067571584
 21
-1258.715957260211
 31
0.0
  0
LINE
  5
1B1
330
6D
100
AcDbEntity
  8
1
  6
Continuous
 62
     6
100
AcDbLine
 10
-906.9963067571584
 20
-1258.715957260211
 30
0.0
 11
-906.9963067571595
 21
-1254.465957260211
 31
0.0
  0
LINE
  5
1B2
330
6D
100
AcDbEntity
  8
1
  6
Continuous
 62
     6
100
AcDbLine
 10
-906.9963067571595
 20
-1254.465957260211
 30
0.0
 11
-906.9963067571585
 21
-1245.965957260211
 31
0.0
  0
LINE
  5
1B3
330
6D
100
AcDbEntity
  8
1
  6
Continuous
 62
     6
100
AcDbLine
 10
-906.9963067571585
 20
-1245.965957260211
 30
0.0
 11
-906.9963067571585
 21
-1218.31595726021
 31
0.0
  0
LINE
  5
1B4
330
6D
100
AcDbEntity
  8
1
  6
PHANTOM
 62
     2
100
AcDbLine
 10
-1028.42184806911
 20
-1260.840957260211
 30
0.0
 11
-1024.106253099921
 21
-1260.840957260211
 31
0.0
  0
LINE
  5
1B5
330
6D
100
AcDbEntity
  8
1
  6
PHANTOM
 62
     2
100
AcDbLine
 10
-1031.448851458807
 20
-1259.190957260211
 30
0.0
 11
-1031.448851458807
 21
-1262.490957260211
 31
0.0
  0
LINE
  5
1B6
330
6D
100
AcDbEntity
  8
1
  6
PHANTOM
 62
     2
100
AcDbLine
 10
-1029.798851458807
 20
-1260.840957260211
 30
0.0
 11
-1033.098851458807
 21
-1260.840957260211
 31
0.0
  0
LINE
  5
1B7
330
6D
100
AcDbEntity
  8
1
  6
Continuous
 62
     7
100
AcDbLine
 10
-1000.14111128391
 20
-1262.965957260211
 30
0.0
 11
-1000.14111128391
 21
-1258.715957260211
 31
0.0
  0
LINE
  5
1B8
330
6D
100
AcDbEntity
  8
1
  6
Continuous
 62
     7
100
AcDbLine
 10
-1036.54111128391
 20
-1262.965957260211
 30
0.0
 11
-1000.14111128391
 21
-1262.965957260211
 31
0.0
  0
LINE
  5
1B9
330
6D
100
AcDbEntity
  8
1
  6
Continuous
 62
     7
100
AcDbLine
 10
-1139.29630675716
 20
-1271.46595726021
 30
0.0
 11
-1077.04111128391
 21
-1271.46595726021
 31
0.0
  0
LINE
  5
1BA
330
6D
100
AcDbEntity
  8
1
  6
Continuous
 62
     2
100
AcDbLine
 10
-1139.29630675716
 20
-1271.46595726021
 30
0.0
 11
-1139.29630675716
 21
-1275.71595726021
 31
0.0
  0
LINE
  5
1BB
330
6D
100
AcDbEntity
  8
1
  6
Continuous
 62
     2
100
AcDbLine
 10
-1139.29630675716
 20
-1267.215957260211
 30
0.0
 11
-1152.79630675716
 21
-1267.215957260211
 31
0.0
  0
LINE
  5
1BC
330
6D
100
AcDbEntity
  8
1
  6
Continuous
 62
     2
100
AcDbLine
 10
-1139.29630675716
 20
-1267.215957260211
 30
0.0
 11
-1139.29630675716
 21
-1271.46595726021
 31
0.0
  0
LINE
  5
1BD
330
6D
100
AcDbEntity
  8
1
  6
Continuous
 62
     2
100
AcDbLine
 10
-1139.29630675716
 20
-1258.715957260211
 30
0.0
 11
-1152.79630675716
 21
-1258.715957260211
 31
0.0
  0
LINE
  5
1BE
330
6D
100
AcDbEntity
  8
1
  6
Continuous
 62
     2
100
AcDbLine
 10
-1139.29630675716
 20
-1258.715957260211
 30
0.0
 11
-1139.29630675716
 21
-1262.965957260211
 31
0.0
  0
LINE
  5
1BF
330
6D
100
AcDbEntity
  8
1
  6
Continuous
 62
     2
100
AcDbLine
 10
-1139.29630675716
 20
-1262.965957260211
 30
0.0
 11
-1152.79630675716
 21
-1262.965957260211
 31
0.0
  0
LINE
  5
1C0
330
6D
100
AcDbEntity
  8
1
  6
Continuous
 62
     2
100
AcDbLine
 10
-1139.29630675716
 20
-1262.965957260211
 30
0.0
 11
-1139.29630675716
 21
-1267.215957260211
 31
0.0
  0
LINE
  5
1C1
330
6D
100
AcDbEntity
  8
1
  6
Continuous
 62
     2
100
AcDbLine
 10
-1139.29630675716
 20
-1250.215957260211
 30
0.0
 11
-1152.79630675716
 21
-1250.215957260211
 31
0.0
  0
LINE
  5
1C2
330
6D
100
AcDbEntity
  8
1
  6
Continuous
 62
     2
100
AcDbLine
 10
-1139.29630675716
 20
-1254.465957260211
 30
0.0
 11
-1152.79630675716
 21
-1254.465957260211
 31
0.0
  0
LINE
  5
1C3
330
6D
100
AcDbEntity
  8
1
  6
Continuous
 62
     2
100
AcDbLine
 10
-1139.29630675716
 20
-1254.465957260211
 30
0.0
 11
-1139.29630675716
 21
-1258.715957260211
 31
0.0
  0
LINE
  5
1C4
330
6D
100
AcDbEntity
  8
1
  6
Continuous
 62
     2
100
AcDbLine
 10
-1139.29630675716
 20
-1250.215957260211
 30
0.0
 11
-1139.29630675716
 21
-1254.465957260211
 31
0.0
  0
LINE
  5
1C5
330
6D
100
AcDbEntity
  8
1
  6
Continuous
 62
     6
100
AcDbLine
 10
-1139.29630675716
 20
-1245.965957260211
 30
0.0
 11
-1152.79630675716
 21
-1245.965957260211
 31
0.0
  0
LINE
  5
1C6
330
6D
100
AcDbEntity
  8
1
  6
Continuous
 62
     2
100
AcDbLine
 10
-1139.29630675716
 20
-1245.965957260211
 30
0.0
 11
-1139.29630675716
 21
-1250.215957260211
 31
0.0
  0
LINE
  5
1C7
330
6D
100
AcDbEntity
  8
1
  6
Continuous
 62
     6
100
AcDbLine
 10
-906.9963067571585
 20
-1245.965957260211
 30
0.0
 11
-924.8778984754794
 21
-1245.965957260211
 31
0.0
  0
LINE
  5
1C8
330
6D
100
AcDbEntity
  8
1
  6
Continuous
 62
     7
100
AcDbLine
 10
-906.9963067571589
 20
-1267.215957260211
 30
0.0
 11
-951.9963067571566
 21
-1267.215957260211
 31
0.0
  0
LINE
  5
1C9
330
6D
100
AcDbEntity
  8
1
  6
Continuous
 62
     7
100
AcDbLine
 10
-906.9963067571595
 20
-1254.465957260211
 30
0.0
 11
-924.8778984754794
 21
-1254.465957260211
 31
0.0
  0
LINE
  5
1CA
330
6D
100
AcDbEntity
  8
1
  6
Continuous
 62
     7
100
AcDbLine
 10
-951.9963067571566
 20
-1258.715957260211
 30
0.0
 11
-906.9963067571584
 21
-1258.715957260211
 31
0.0
  0
LINE
  5
1CB
330
6D
100
AcDbEntity
  8
1
  6
Continuous
 62
     7
100
AcDbLine
 10
-1000.14111128391
 20
-1250.215957260211
 30
0.0
 11
-1000.14111128391
 21
-1254.465957260211
 31
0.0
  0
LINE
  5
1CC
330
6D
100
AcDbEntity
  8
1
  6
Continuous
 62
     7
100
AcDbLine
 10
-1013.64111128391
 20
-1250.215957260211
 30
0.0
 11
-1000.14111128391
 21
-1250.215957260211
 31
0.0
  0
LINE
  5
1CD
330
6D
100
AcDbEntity
  8
1
  6
Continuous
 62
     7
100
AcDbLine
 10
-1013.64111128391
 20
-1250.215957260211
 30
0.0
 11
-1027.14111128391
 21
-1250.215957260211
 31
0.0
  0
LINE
  5
1CE
330
6D
100
AcDbEntity
  8
1
  6
Continuous
 62
     7
100
AcDbLine
 10
-924.8778984754794
 20
-1254.465957260211
 30
0.0
 11
-924.8778984754794
 21
-1245.965957260211
 31
0.0
  0
LINE
  5
1CF
330
6D
100
AcDbEntity
  8
1
  6
Continuous
 62
     6
100
AcDbLine
 10
-933.7963067571586
 20
-1245.965957260211
 30
0.0
 11
-924.8778984754794
 21
-1245.965957260211
 31
0.0
  0
LINE
  5
1D0
330
6D
100
AcDbEntity
  8
1
  6
Continuous
 62
     7
100
AcDbLine
 10
-933.7963067571586
 20
-1245.965957260211
 30
0.0
 11
-933.7963067571583
 21
-1254.46595726021
 31
0.0
  0
LINE
  5
1D1
330
6D
100
AcDbEntity
  8
1
  6
Continuous
 62
     7
100
AcDbLine
 10
-951.9963067571566
 20
-1267.215957260211
 30
0.0
 11
-970.4963067571562
 21
-1267.215957260211
 31
0.0
  0
LINE
  5
1D2
330
6D
100
AcDbEntity
  8
1
  6
Continuous
 62
     7
100
AcDbLine
 10
-951.9963067571566
 20
-1258.715957260211
 30
0.0
 11
-951.9963067571566
 21
-1267.215957260211
 31
0.0
  0
LINE
  5
1D3
330
6D
100
AcDbEntity
  8
1
  6
Continuous
 62
     2
100
AcDbLine
 10
-1050.04111128391
 20
-1245.965957260211
 30
0.0
 11
-1050.04111128391
 21
-1250.215957260211
 31
0.0
  0
LINE
  5
1D4
330
6D
100
AcDbEntity
  8
1
  6
Continuous
 62
     2
100
AcDbLine
 10
-1063.54111128391
 20
-1245.965957260211
 30
0.0
 11
-1063.54111128391
 21
-1250.215957260211
 31
0.0
  0
LINE
  5
1D5
330
6D
100
AcDbEntity
  8
1
  6
Continuous
 62
     6
100
AcDbLine
 10
-1050.04111128391
 20
-1245.965957260211
 30
0.0
 11
-1063.54111128391
 21
-1245.965957260211
 31
0.0
  0
LINE
  5
1D6
330
6D
100
AcDbEntity
  8
1
  6
Continuous
 62
     6
100
AcDbLine
 10
-1063.54111128391
 20
-1245.965957260211
 30
0.0
 11
-1077.04111128391
 21
-1245.965957260211
 31
0.0
  0
LINE
  5
1D7
330
6D
100
AcDbEntity
  8
1
  6
Continuous
 62
     2
100
AcDbLine
 10
-1077.04111128391
 20
-1245.965957260211
 30
0.0
 11
-1077.04111128391
 21
-1250.215957260211
 31
0.0
  0
LINE
  5
1D8
330
6D
100
AcDbEntity
  8
1
  6
Continuous
 62
     7
100
AcDbLine
 10
-1018.34111128391
 20
-1271.46595726021
 30
0.0
 11
-1018.34111128391
 21
-1275.71595726021
 31
0.0
  0
LINE
  5
1D9
330
6D
100
AcDbEntity
  8
1
  6
Continuous
 62
     7
100
AcDbLine
 10
-1018.34111128391
 20
-1271.46595726021
 30
0.0
 11
-1036.54111128391
 21
-1271.46595726021
 31
0.0
  0
LINE
  5
1DA
330
6D
100
AcDbEntity
  8
1
  6
Continuous
 62
     7
100
AcDbLine
 10
-1013.64111128391
 20
-1258.715957260211
 30
0.0
 11
-1027.14111128391
 21
-1258.71595726021
 31
0.0
  0
LINE
  5
1DB
330
6D
100
AcDbEntity
  8
1
  6
Continuous
 62
     7
100
AcDbLine
 10
-1000.14111128391
 20
-1271.46595726021
 30
0.0
 11
-1018.34111128391
 21
-1271.46595726021
 31
0.0
  0
LINE
  5
1DC
330
6D
100
AcDbEntity
  8
1
  6
Continuous
 62
     6
100
AcDbLine
 10
-1000.14111128391
 20
-1245.965957260211
 30
0.0
 11
-977.2411112839103
 21
-1245.965957260211
 31
0.0
  0
LINE
  5
1DD
330
6D
100
AcDbEntity
  8
1
  6
Continuous
 62
     6
100
AcDbLine
 10
-933.7963067571586
 20
-1245.965957260211
 30
0.0
 11
-977.2411112839103
 21
-1245.965957260211
 31
0.0
  0
LINE
  5
1DE
330
6D
100
AcDbEntity
  8
1
  6
Continuous
 62
     7
100
AcDbLine
 10
-977.2411112839103
 20
-1245.965957260211
 30
0.0
 11
-977.2411112839103
 21
-1254.465957260211
 31
0.0
  0
LINE
  5
1DF
330
6D
100
AcDbEntity
  8
1
  6
Continuous
 62
     6
100
AcDbLine
 10
-1152.79630675716
 20
-1245.965957260211
 30
0.0
 11
-1158.996306757158
 21
-1245.965957260211
 31
0.0
  0
LINE
  5
1E0
330
6D
100
AcDbEntity
  8
1
  6
Continuous
 62
     6
100
AcDbLine
 10
-1158.996306757158
 20
-1275.71595726021
 30
0.0
 11
-1158.996306757158
 21
-1271.46595726021
 31
0.0
  0
LINE
  5
1E1
330
6D
100
AcDbEntity
  8
1
  6
Continuous
 62
     6
100
AcDbLine
 10
-1158.996306757158
 20
-1271.46595726021
 30
0.0
 11
-1158.996306757158
 21
-1267.215957260211
 31
0.0
  0
LINE
  5
1E2
330
6D
100
AcDbEntity
  8
1
  6
Continuous
 62
     7
100
AcDbLine
 10
-1013.64111128391
 20
-1254.465957260211
 30
0.0
 11
-1013.64111128391
 21
-1258.715957260211
 31
0.0
  0
LINE
  5
1E3
330
6D
100
AcDbEntity
  8
1
  6
Continuous
 62
     7
100
AcDbLine
 10
-1027.14111128391
 20
-1254.465957260211
 30
0.0
 11
-1027.14111128391
 21
-1258.71595726021
 31
0.0
  0
LINE
  5
1E4
330
6D
100
AcDbEntity
  8
1
  6
Continuous
 62
     7
100
AcDbLine
 10
-1013.64111128391
 20
-1254.465957260211
 30
0.0
 11
-1027.14111128391
 21
-1254.465957260211
 31
0.0
  0
LINE
  5
1E5
330
6D
100
AcDbEntity
  8
1
  6
Continuous
 62
     2
100
AcDbLine
 10
-1036.54111128391
 20
-1258.715957260211
 30
0.0
 11
-1050.04111128391
 21
-1258.715957260211
 31
0.0
  0
LINE
  5
1E6
330
6D
100
AcDbEntity
  8
1
  6
Continuous
 62
     2
100
AcDbLine
 10
-1152.79630675716
 20
-1258.715957260211
 30
0.0
 11
-1152.79630675716
 21
-1254.465957260211
 31
0.0
  0
LINE
  5
1E7
330
6D
100
AcDbEntity
  8
1
  6
Continuous
 62
     2
100
AcDbLine
 10
-1152.79630675716
 20
-1258.715957260211
 30
0.0
 11
-1158.996306757158
 21
-1258.715957260211
 31
0.0
  0
LINE
  5
1E8
330
6D
100
AcDbEntity
  8
1
  6
Continuous
 62
     2
100
AcDbLine
 10
-1036.54111128391
 20
-1254.465957260211
 30
0.0
 11
-1050.04111128391
 21
-1254.465957260211
 31
0.0
  0
LINE
  5
1E9
330
6D
100
AcDbEntity
  8
1
  6
Continuous
 62
     2
100
AcDbLine
 10
-1152.79630675716
 20
-1254.465957260211
 30
0.0
 11
-1152.79630675716
 21
-1250.215957260211
 31
0.0
  0
LINE
  5
1EA
330
6D
100
AcDbEntity
  8
1
  6
Continuous
 62
     2
100
AcDbLine
 10
-1036.54111128391
 20
-1250.215957260211
 30
0.0
 11
-1050.04111128391
 21
-1250.215957260211
 31
0.0
  0
LINE
  5
1EB
330
6D
100
AcDbEntity
  8
1
  6
Continuous
 62
     2
100
AcDbLine
 10
-1152.79630675716
 20
-1250.215957260211
 30
0.0
 11
-1152.79630675716
 21
-1245.965957260211
 31
0.0
  0
LINE
  5
1EC
330
6D
100
AcDbEntity
  8
1
  6
Continuous
 62
     2
100
AcDbLine
 10
-1152.79630675716
 20
-1250.215957260211
 30
0.0
 11
-1158.996306757158
 21
-1250.215957260211
 31
0.0
  0
LINE
  5
1ED
330
6D
100
AcDbEntity
  8
1
  6
Continuous
 62
     6
100
AcDbLine
 10
-1036.54111128391
 20
-1245.965957260211
 30
0.0
 11
-1050.04111128391
 21
-1245.965957260211
 31
0.0
  0
LINE
  5
1EE
330
6D
100
AcDbEntity
  8
1
  6
Continuous
 62
     2
100
AcDbLine
 10
-1036.54111128391
 20
-1267.215957260211
 30
0.0
 11
-1050.04111128391
 21
-1267.215957260211
 31
0.0
  0
LINE
  5
1EF
330
6D
100
AcDbEntity
  8
1
  6
Continuous
 62
     2
100
AcDbLine
 10
-1036.54111128391
 20
-1262.965957260211
 30
0.0
 11
-1050.04111128391
 21
-1262.965957260211
 31
0.0
  0
LINE
  5
1F0
330
6D
100
AcDbEntity
  8
1
  6
Continuous
 62
     2
100
AcDbLine
 10
-1152.79630675716
 20
-1267.215957260211
 30
0.0
 11
-1152.79630675716
 21
-1262.965957260211
 31
0.0
  0
LINE
  5
1F1
330
6D
100
AcDbEntity
  8
1
  6
Continuous
 62
     2
100
AcDbLine
 10
-1152.79630675716
 20
-1262.965957260211
 30
0.0
 11
-1152.79630675716
 21
-1258.715957260211
 31
0.0
  0
LINE
  5
1F2
330
6D
100
AcDbEntity
  8
1
  6
Continuous
 62
     7
100
AcDbLine
 10
-1152.79630675716
 20
-1271.46595726021
 30
0.0
 11
-1139.29630675716
 21
-1271.46595726021
 31
0.0
  0
LINE
  5
1F3
330
6D
100
AcDbEntity
  8
1
  6
Continuous
 62
     2
100
AcDbLine
 10
-1152.79630675716
 20
-1271.46595726021
 30
0.0
 11
-1152.79630675716
 21
-1267.215957260211
 31
0.0
  0
LINE
  5
1F4
330
6D
100
AcDbEntity
  8
1
  6
Continuous
 62
     7
100
AcDbLine
 10
-1000.14111128391
 20
-1267.215957260211
 30
0.0
 11
-1000.14111128391
 21
-1262.965957260211
 31
0.0
  0
LINE
  5
1F5
330
6D
100
AcDbEntity
  8
1
  6
Continuous
 62
     6
100
AcDbLine
 10
-1013.64111128391
 20
-1245.965957260211
 30
0.0
 11
-1000.14111128391
 21
-1245.965957260211
 31
0.0
  0
LINE
  5
1F6
330
6D
100
AcDbEntity
  8
1
  6
Continuous
 62
     7
100
AcDbLine
 10
-1000.14111128391
 20
-1245.965957260211
 30
0.0
 11
-1000.14111128391
 21
-1250.215957260211
 31
0.0
  0
LINE
  5
1F7
330
6D
100
AcDbEntity
  8
1
  6
Continuous
 62
     6
100
AcDbLine
 10
-1027.14111128391
 20
-1245.965957260211
 30
0.0
 11
-1013.64111128391
 21
-1245.965957260211
 31
0.0
  0
LINE
  5
1F8
330
6D
100
AcDbEntity
  8
1
  6
Continuous
 62
     7
100
AcDbLine
 10
-1036.54111128391
 20
-1258.715957260211
 30
0.0
 11
-1036.54111128391
 21
-1262.965957260211
 31
0.0
  0
LINE
  5
1F9
330
6D
100
AcDbEntity
  8
1
  6
Continuous
 62
     7
100
AcDbLine
 10
-1036.54111128391
 20
-1254.465957260211
 30
0.0
 11
-1036.54111128391
 21
-1258.715957260211
 31
0.0
  0
LINE
  5
1FA
330
6D
100
AcDbEntity
  8
1
  6
Continuous
 62
     2
100
AcDbLine
 10
-1158.996306757158
 20
-1254.465957260211
 30
0.0
 11
-1152.79630675716
 21
-1254.465957260211
 31
0.0
  0
LINE
  5
1FB
330
6D
100
AcDbEntity
  8
1
  6
Continuous
 62
     7
100
AcDbLine
 10
-1036.54111128391
 20
-1250.215957260211
 30
0.0
 11
-1036.54111128391
 21
-1254.465957260211
 31
0.0
  0
LINE
  5
1FC
330
6D
100
AcDbEntity
  8
1
  6
Continuous
 62
     7
100
AcDbLine
 10
-1000.14111128391
 20
-1254.465957260211
 30
0.0
 11
-1000.14111128391
 21
-1258.715957260211
 31
0.0
  0
LINE
  5
1FD
330
6D
100
AcDbEntity
  8
1
  6
Continuous
 62
     7
100
AcDbLine
 10
-1013.64111128391
 20
-1245.965957260211
 30
0.0
 11
-1013.64111128391
 21
-1250.215957260211
 31
0.0
  0
LINE
  5
1FE
330
6D
100
AcDbEntity
  8
1
  6
Continuous
 62
     7
100
AcDbLine
 10
-1027.14111128391
 20
-1245.965957260211
 30
0.0
 11
-1027.14111128391
 21
-1250.215957260211
 31
0.0
  0
LINE
  5
1FF
330
6D
100
AcDbEntity
  8
1
  6
Continuous
 62
     2
100
AcDbLine
 10
-1152.79630675716
 20
-1275.715957260211
 30
0.0
 11
-1152.79630675716
 21
-1271.46595726021
 31
0.0
  0
LINE
  5
200
330
6D
100
AcDbEntity
  8
1
  6
Continuous
 62
     2
100
AcDbLine
 10
-1158.996306757158
 20
-1267.215957260211
 30
0.0
 11
-1152.79630675716
 21
-1267.215957260211
 31
0.0
  0
LINE
  5
201
330
6D
100
AcDbEntity
  8
1
  6
Continuous
 62
     2
100
AcDbLine
 10
-1158.996306757158
 20
-1262.965957260211
 30
0.0
 11
-1152.79630675716
 21
-1262.965957260211
 31
0.0
  0
LINE
  5
202
330
6D
100
AcDbEntity
  8
1
  6
Continuous
 62
     7
100
AcDbLine
 10
-1158.996306757158
 20
-1271.46595726021
 30
0.0
 11
-1152.79630675716
 21
-1271.46595726021
 31
0.0
  0
LINE
  5
203
330
6D
100
AcDbEntity
  8
1
  6
Continuous
 62
     7
100
AcDbLine
 10
-1000.14111128391
 20
-1267.215957260211
 30
0.0
 11
-1000.14111128391
 21
-1271.46595726021
 31
0.0
  0
LINE
  5
204
330
6D
100
AcDbEntity
  8
1
  6
Continuous
 62
     7
100
AcDbLine
 10
-1036.54111128391
 20
-1262.965957260211
 30
0.0
 11
-1036.54111128391
 21
-1267.215957260211
 31
0.0
  0
LINE
  5
205
330
6D
100
AcDbEntity
  8
1
  6
Continuous
 62
     7
100
AcDbLine
 10
-1036.54111128391
 20
-1267.215957260211
 30
0.0
 11
-1036.54111128391
 21
-1271.46595726021
 31
0.0
  0
LINE
  5
206
330
6D
100
AcDbEntity
  8
1
  6
Continuous
 62
     7
100
AcDbLine
 10
-1013.64111128391
 20
-1250.215957260211
 30
0.0
 11
-1013.64111128391
 21
-1254.465957260211
 31
0.0
  0
LINE
  5
207
330
6D
100
AcDbEntity
  8
1
  6
Continuous
 62
     7
100
AcDbLine
 10
-1027.14111128391
 20
-1250.215957260211
 30
0.0
 11
-1027.14111128391
 21
-1254.465957260211
 31
0.0
  0
LINE
  5
208
330
6D
100
AcDbEntity
  8
1
  6
Continuous
 62
     7
100
AcDbLine
 10
-1036.54111128391
 20
-1254.465957260211
 30
0.0
 11
-1027.14111128391
 21
-1254.465957260211
 31
0.0
  0
LINE
  5
209
330
6D
100
AcDbEntity
  8
1
  6
Continuous
 62
     7
100
AcDbLine
 10
-1000.14111128391
 20
-1258.715957260211
 30
0.0
 11
-1013.64111128391
 21
-1258.715957260211
 31
0.0
  0
LINE
  5
20A
330
6D
100
AcDbEntity
  8
1
  6
Continuous
 62
     7
100
AcDbLine
 10
-1000.14111128391
 20
-1271.46595726021
 30
0.0
 11
-1000.14111128391
 21
-1275.715957260211
 31
0.0
  0
LINE
  5
20B
330
6D
100
AcDbEntity
  8
1
  6
Continuous
 62
     7
100
AcDbLine
 10
-1036.54111128391
 20
-1271.46595726021
 30
0.0
 11
-1036.54111128391
 21
-1275.715957260211
 31
0.0
  0
LINE
  5
20C
330
6D
100
AcDbEntity
  8
1
  6
Continuous
 62
     7
100
AcDbLine
 10
-1036.54111128391
 20
-1245.965957260211
 30
0.0
 11
-1036.54111128391
 21
-1250.215957260211
 31
0.0
  0
LINE
  5
20D
330
6D
100
AcDbEntity
  8
1
  6
Continuous
 62
     7
100
AcDbLine
 10
-1000.14111128391
 20
-1267.215957260211
 30
0.0
 11
-970.4963067571562
 21
-1267.215957260211
 31
0.0
  0
LINE
  5
20E
330
6D
100
AcDbEntity
  8
1
  6
Continuous
 62
     7
100
AcDbLine
 10
-1000.14111128391
 20
-1258.715957260211
 30
0.0
 11
-970.4963067571562
 21
-1258.715957260211
 31
0.0
  0
LINE
  5
20F
330
6D
100
AcDbEntity
  8
1
  6
Continuous
 62
     7
100
AcDbLine
 10
-933.7963067571583
 20
-1254.46595726021
 30
0.0
 11
-924.8778984754794
 21
-1254.465957260211
 31
0.0
  0
LINE
  5
210
330
6D
100
AcDbEntity
  8
1
  6
Continuous
 62
     7
100
AcDbLine
 10
-933.7963067571583
 20
-1254.46595726021
 30
0.0
 11
-970.4963067571562
 21
-1254.465957260211
 31
0.0
  0
LINE
  5
211
330
6D
100
AcDbEntity
  8
1
  6
Continuous
 62
     7
100
AcDbLine
 10
-970.4963067571562
 20
-1258.715957260211
 30
0.0
 11
-951.9963067571566
 21
-1258.715957260211
 31
0.0
  0
LINE
  5
212
330
6D
100
AcDbEntity
  8
1
  6
Continuous
 62
     7
100
AcDbLine
 10
-970.4963067571562
 20
-1258.715957260211
 30
0.0
 11
-970.4963067571562
 21
-1267.215957260211
 31
0.0
  0
LINE
  5
213
330
6D
100
AcDbEntity
  8
1
  6
Continuous
 62
     6
100
AcDbLine
 10
-1158.996306757158
 20
-1250.215957260211
 30
0.0
 11
-1158.996306757158
 21
-1245.965957260211
 31
0.0
  0
LINE
  5
214
330
6D
100
AcDbEntity
  8
1
  6
Continuous
 62
     6
100
AcDbLine
 10
-1158.996306757158
 20
-1254.465957260211
 30
0.0
 11
-1158.996306757158
 21
-1250.215957260211
 31
0.0
  0
LINE
  5
215
330
6D
100
AcDbEntity
  8
1
  6
Continuous
 62
     6
100
AcDbLine
 10
-1158.996306757158
 20
-1258.715957260211
 30
0.0
 11
-1158.996306757158
 21
-1254.465957260211
 31
0.0
  0
LINE
  5
216
330
6D
100
AcDbEntity
  8
1
  6
Continuous
 62
     6
100
AcDbLine
 10
-1158.996306757158
 20
-1267.215957260211
 30
0.0
 11
-1158.996306757158
 21
-1262.965957260211
 31
0.0
  0
LINE
  5
217
330
6D
100
AcDbEntity
  8
1
  6
Continuous
 62
     6
100
AcDbLine
 10
-1077.04111128391
 20
-1245.965957260211
 30
0.0
 11
-1139.29630675716
 21
-1245.965957260211
 31
0.0
  0
LINE
  5
218
330
6D
100
AcDbEntity
  8
1
  6
Continuous
 62
     2
100
AcDbLine
 10
-1139.29630675716
 20
-1250.215957260211
 30
0.0
 11
-1077.04111128391
 21
-1250.215957260211
 31
0.0
  0
LINE
  5
219
330
6D
100
AcDbEntity
  8
1
  6
Continuous
 62
     2
100
AcDbLine
 10
-1139.29630675716
 20
-1254.465957260211
 30
0.0
 11
-1077.04111128391
 21
-1254.465957260211
 31
0.0
  0
LINE
  5
21A
330
6D
100
AcDbEntity
  8
1
  6
Continuous
 62
     7
100
AcDbLine
 10
-1013.64111128391
 20
-1254.465957260211
 30
0.0
 11
-1000.14111128391
 21
-1254.465957260211
 31
0.0
  0
LINE
  5
21B
330
6D
100
AcDbEntity
  8
1
  6
Continuous
 62
     7
100
AcDbLine
 10
-977.2411112839103
 20
-1254.465957260211
 30
0.0
 11
-1000.14111128391
 21
-1254.465957260211
 31
0.0
  0
LINE
  5
21C
330
6D
100
AcDbEntity
  8
1
  6
Continuous
 62
     2
100
AcDbLine
 10
-1050.04111128391
 20
-1267.215957260211
 30
0.0
 11
-1050.04111128391
 21
-1271.46595726021
 31
0.0
  0
LINE
  5
21D
330
6D
100
AcDbEntity
  8
1
  6
Continuous
 62
     2
100
AcDbLine
 10
-1050.04111128391
 20
-1267.215957260211
 30
0.0
 11
-1063.54111128391
 21
-1267.215957260211
 31
0.0
  0
LINE
  5
21E
330
6D
100
AcDbEntity
  8
1
  6
Continuous
 62
     2
100
AcDbLine
 10
-1050.04111128391
 20
-1271.46595726021
 30
0.0
 11
-1050.04111128391
 21
-1275.715957260211
 31
0.0
  0
LINE
  5
21F
330
6D
100
AcDbEntity
  8
1
  6
Continuous
 62
     7
100
AcDbLine
 10
-1050.04111128391
 20
-1271.46595726021
 30
0.0
 11
-1036.54111128391
 21
-1271.46595726021
 31
0.0
  0
LINE
  5
220
330
6D
100
AcDbEntity
  8
1
  6
Continuous
 62
     2
100
AcDbLine
 10
-1050.04111128391
 20
-1258.715957260211
 30
0.0
 11
-1050.04111128391
 21
-1262.965957260211
 31
0.0
  0
LINE
  5
221
330
6D
100
AcDbEntity
  8
1
  6
Continuous
 62
     2
100
AcDbLine
 10
-1050.04111128391
 20
-1258.715957260211
 30
0.0
 11
-1063.54111128391
 21
-1258.715957260211
 31
0.0
  0
LINE
  5
222
330
6D
100
AcDbEntity
  8
1
  6
Continuous
 62
     2
100
AcDbLine
 10
-1050.04111128391
 20
-1254.465957260211
 30
0.0
 11
-1050.04111128391
 21
-1258.715957260211
 31
0.0
  0
LINE
  5
223
330
6D
100
AcDbEntity
  8
1
  6
Continuous
 62
     2
100
AcDbLine
 10
-1050.04111128391
 20
-1254.465957260211
 30
0.0
 11
-1063.54111128391
 21
-1254.465957260211
 31
0.0
  0
LINE
  5
224
330
6D
100
AcDbEntity
  8
1
  6
Continuous
 62
     2
100
AcDbLine
 10
-1050.04111128391
 20
-1250.215957260211
 30
0.0
 11
-1050.04111128391
 21
-1254.465957260211
 31
0.0
  0
LINE
  5
225
330
6D
100
AcDbEntity
  8
1
  6
Continuous
 62
     2
100
AcDbLine
 10
-1050.04111128391
 20
-1250.215957260211
 30
0.0
 11
-1063.54111128391
 21
-1250.215957260211
 31
0.0
  0
LINE
  5
226
330
6D
100
AcDbEntity
  8
1
  6
Continuous
 62
     2
100
AcDbLine
 10
-1050.04111128391
 20
-1262.965957260211
 30
0.0
 11
-1050.04111128391
 21
-1267.215957260211
 31
0.0
  0
LINE
  5
227
330
6D
100
AcDbEntity
  8
1
  6
Continuous
 62
     2
100
AcDbLine
 10
-1050.04111128391
 20
-1262.965957260211
 30
0.0
 11
-1063.54111128391
 21
-1262.965957260211
 31
0.0
  0
LINE
  5
228
330
6D
100
AcDbEntity
  8
1
  6
Continuous
 62
     2
100
AcDbLine
 10
-1063.54111128391
 20
-1267.215957260211
 30
0.0
 11
-1063.54111128391
 21
-1271.46595726021
 31
0.0
  0
LINE
  5
229
330
6D
100
AcDbEntity
  8
1
  6
Continuous
 62
     2
100
AcDbLine
 10
-1063.54111128391
 20
-1267.215957260211
 30
0.0
 11
-1077.04111128391
 21
-1267.215957260211
 31
0.0
  0
LINE
  5
22A
330
6D
100
AcDbEntity
  8
1
  6
Continuous
 62
     2
100
AcDbLine
 10
-1063.54111128391
 20
-1271.46595726021
 30
0.0
 11
-1063.54111128391
 21
-1275.715957260211
 31
0.0
  0
LINE
  5
22B
330
6D
100
AcDbEntity
  8
1
  6
Continuous
 62
     7
100
AcDbLine
 10
-1063.54111128391
 20
-1271.46595726021
 30
0.0
 11
-1050.04111128391
 21
-1271.46595726021
 31
0.0
  0
LINE
  5
22C
330
6D
100
AcDbEntity
  8
1
  6
Continuous
 62
     2
100
AcDbLine
 10
-1063.54111128391
 20
-1258.715957260211
 30
0.0
 11
-1063.54111128391
 21
-1262.965957260211
 31
0.0
  0
LINE
  5
22D
330
6D
100
AcDbEntity
  8
1
  6
Continuous
 62
     2
100
AcDbLine
 10
-1063.54111128391
 20
-1258.715957260211
 30
0.0
 11
-1077.04111128391
 21
-1258.715957260211
 31
0.0
  0
LINE
  5
22E
330
6D
100
AcDbEntity
  8
1
  6
Continuous
 62
     2
100
AcDbLine
 10
-1063.54111128391
 20
-1254.465957260211
 30
0.0
 11
-1063.54111128391
 21
-1258.715957260211
 31
0.0
  0
LINE
  5
22F
330
6D
100
AcDbEntity
  8
1
  6
Continuous
 62
     2
100
AcDbLine
 10
-1063.54111128391
 20
-1254.465957260211
 30
0.0
 11
-1077.04111128391
 21
-1254.465957260211
 31
0.0
  0
LINE
  5
230
330
6D
100
AcDbEntity
  8
1
  6
Continuous
 62
     2
100
AcDbLine
 10
-1063.54111128391
 20
-1250.215957260211
 30
0.0
 11
-1063.54111128391
 21
-1254.465957260211
 31
0.0
  0
LINE
  5
231
330
6D
100
AcDbEntity
  8
1
  6
Continuous
 62
     2
100
AcDbLine
 10
-1063.54111128391
 20
-1250.215957260211
 30
0.0
 11
-1077.04111128391
 21
-1250.215957260211
 31
0.0
  0
LINE
  5
232
330
6D
100
AcDbEntity
  8
1
  6
Continuous
 62
     2
100
AcDbLine
 10
-1063.54111128391
 20
-1262.965957260211
 30
0.0
 11
-1063.54111128391
 21
-1267.215957260211
 31
0.0
  0
LINE
  5
233
330
6D
100
AcDbEntity
  8
1
  6
Continuous
 62
     2
100
AcDbLine
 10
-1063.54111128391
 20
-1262.965957260211
 30
0.0
 11
-1077.04111128391
 21
-1262.965957260211
 31
0.0
  0
LINE
  5
234
330
6D
100
AcDbEntity
  8
1
  6
Continuous
 62
     2
100
AcDbLine
 10
-1077.04111128391
 20
-1267.215957260211
 30
0.0
 11
-1077.04111128391
 21
-1271.46595726021
 31
0.0
  0
LINE
  5
235
330
6D
100
AcDbEntity
  8
1
  6
Continuous
 62
     2
100
AcDbLine
 10
-1077.04111128391
 20
-1267.215957260211
 30
0.0
 11
-1139.29630675716
 21
-1267.215957260211
 31
0.0
  0
LINE
  5
236
330
6D
100
AcDbEntity
  8
1
  6
Continuous
 62
     2
100
AcDbLine
 10
-1077.04111128391
 20
-1271.46595726021
 30
0.0
 11
-1077.04111128391
 21
-1275.715957260211
 31
0.0
  0
LINE
  5
237
330
6D
100
AcDbEntity
  8
1
  6
Continuous
 62
     7
100
AcDbLine
 10
-1077.04111128391
 20
-1271.46595726021
 30
0.0
 11
-1063.54111128391
 21
-1271.46595726021
 31
0.0
  0
LINE
  5
238
330
6D
100
AcDbEntity
  8
1
  6
Continuous
 62
     2
100
AcDbLine
 10
-1077.04111128391
 20
-1258.715957260211
 30
0.0
 11
-1077.04111128391
 21
-1262.965957260211
 31
0.0
  0
LINE
  5
239
330
6D
100
AcDbEntity
  8
1
  6
Continuous
 62
     2
100
AcDbLine
 10
-1077.04111128391
 20
-1258.715957260211
 30
0.0
 11
-1139.29630675716
 21
-1258.715957260211
 31
0.0
  0
LINE
  5
23A
330
6D
100
AcDbEntity
  8
1
  6
Continuous
 62
     2
100
AcDbLine
 10
-1077.04111128391
 20
-1254.465957260211
 30
0.0
 11
-1077.04111128391
 21
-1258.715957260211
 31
0.0
  0
LINE
  5
23B
330
6D
100
AcDbEntity
  8
1
  6
Continuous
 62
     2
100
AcDbLine
 10
-1077.04111128391
 20
-1250.215957260211
 30
0.0
 11
-1077.04111128391
 21
-1254.465957260211
 31
0.0
  0
LINE
  5
23C
330
6D
100
AcDbEntity
  8
1
  6
Continuous
 62
     2
100
AcDbLine
 10
-1077.04111128391
 20
-1262.965957260211
 30
0.0
 11
-1077.04111128391
 21
-1267.215957260211
 31
0.0
  0
LINE
  5
23D
330
6D
100
AcDbEntity
  8
1
  6
Continuous
 62
     2
100
AcDbLine
 10
-1077.04111128391
 20
-1262.965957260211
 30
0.0
 11
-1139.29630675716
 21
-1262.965957260211
 31
0.0
  0
LINE
  5
23E
330
6D
100
AcDbEntity
  8
1
  6
Continuous
 62
     7
100
AcDbLine
 10
-1027.14111128391
 20
-1258.71595726021
 30
0.0
 11
-1036.54111128391
 21
-1258.715957260211
 31
0.0
  0
LINE
  5
23F
330
6D
100
AcDbEntity
  8
1
  6
Continuous
 62
     6
100
AcDbLine
 10
-1027.14111128391
 20
-1245.965957260211
 30
0.0
 11
-1036.54111128391
 21
-1245.965957260211
 31
0.0
  0
LINE
  5
240
330
6D
100
AcDbEntity
  8
1
  6
Continuous
 62
     7
100
AcDbLine
 10
-1036.54111128391
 20
-1250.215957260211
 30
0.0
 11
-1027.14111128391
 21
-1250.215957260211
 31
0.0
  0
LINE
  5
241
330
6D
100
AcDbEntity
  8
1
  6
Continuous
 62
     6
100
AcDbLine
 10
-1158.996306757158
 20
-1262.965957260211
 30
0.0
 11
-1158.996306757158
 21
-1258.715957260211
 31
0.0
  0
LINE
  5
242
330
6D
100
AcDbEntity
  8
1
  6
Continuous
 62
     2
100
AcDbLine
 10
-1028.260842149395
 20
-1259.340957260211
 30
0.0
 11
-1024.260842149395
 21
-1259.840957260211
 31
0.0
  0
LINE
  5
243
330
6D
100
AcDbEntity
  8
1
  6
Continuous
 62
     2
100
AcDbLine
 10
-1024.260842149395
 20
-1259.840957260211
 30
0.0
 11
-1024.260842149395
 21
-1261.840957260211
 31
0.0
  0
LINE
  5
244
330
6D
100
AcDbEntity
  8
1
  6
Continuous
 62
     2
100
AcDbLine
 10
-1024.260842149395
 20
-1261.840957260211
 30
0.0
 11
-1028.260842149395
 21
-1262.340957260211
 31
0.0
  0
LINE
  5
245
330
6D
100
AcDbEntity
  8
1
  6
Continuous
 62
     2
100
AcDbLine
 10
-1028.260842149395
 20
-1262.340957260211
 30
0.0
 11
-1028.260842149395
 21
-1259.340957260211
 31
0.0
  0
LINE
  5
246
330
6D
100
AcDbEntity
  8
1
  6
Continuous
 62
     2
100
AcDbLine
 10
-1111.996306757158
 20
-1280.71595726021
 30
0.0
 11
-1180.329640090492
 21
-1280.71595726021
 31
0.0
  0
LINE
  5
247
330
6D
100
AcDbEntity
  8
1
  6
Continuous
 62
     2
100
AcDbLine
 10
-975.3296400904919
 20
-1280.71595726021
 30
0.0
 11
-906.9963067571584
 21
-1280.71595726021
 31
0.0
  0
LINE
  5
248
330
6D
100
AcDbEntity
  8
1
  6
Continuous
 62
     2
100
AcDbLine
 10
-975.3296400904919
 20
-1280.71595726021
 30
0.0
 11
-975.3296400904919
 21
-1275.71595726021
 31
0.0
  0
LINE
  5
249
330
6D
100
AcDbEntity
  8
1
  6
Continuous
 62
     2
100
AcDbLine
 10
-1043.662973423825
 20
-1280.71595726021
 30
0.0
 11
-1043.662973423825
 21
-1275.71595726021
 31
0.0
  0
LINE
  5
24A
330
6D
100
AcDbEntity
  8
1
  6
Continuous
 62
     2
100
AcDbLine
 10
-1111.996306757158
 20
-1280.71595726021
 30
0.0
 11
-1111.996306757158
 21
-1275.71595726021
 31
0.0
  0
LINE
  5
24B
330
6D
100
AcDbEntity
  8
1
  6
Continuous
 62
     2
100
AcDbLine
 10
-901.9963067571609
 20
-1218.31595726021
 30
0.0
 11
-901.9963067571609
 21
-1160.91595726021
 31
0.0
  0
LINE
  5
24C
330
6D
100
AcDbEntity
  8
1
  6
Continuous
 62
     2
100
AcDbLine
 10
-901.9963067571609
 20
-1218.31595726021
 30
0.0
 11
-906.9963067571585
 21
-1218.31595726021
 31
0.0
  0
LINE
  5
24D
330
6D
100
AcDbEntity
  8
1
  6
Continuous
 62
     2
100
AcDbLine
 10
-1301.996306757159
 20
-1280.71595726021
 30
0.0
 11
-1321.996306757159
 21
-1280.71595726021
 31
0.0
  0
LINE
  5
24E
330
6D
100
AcDbEntity
  8
1
  6
Continuous
 62
     2
100
AcDbLine
 10
-1248.662973423825
 20
-1280.71595726021
 30
0.0
 11
-1248.662973423825
 21
-1275.71595726021
 31
0.0
  0
LINE
  5
24F
330
6D
100
AcDbEntity
  8
1
  6
Continuous
 62
     2
100
AcDbLine
 10
-1248.662973423825
 20
-1280.71595726021
 30
0.0
 11
-1180.329640090492
 21
-1280.71595726021
 31
0.0
  0
LINE
  5
250
330
6D
100
AcDbEntity
  8
1
  6
Continuous
 62
     6
100
AcDbLine
 10
-1248.662973423825
 20
-1275.71595726021
 30
0.0
 11
-1180.329640090492
 21
-1275.71595726021
 31
0.0
  0
LINE
  5
251
330
6D
100
AcDbEntity
  8
1
  6
Continuous
 62
     6
100
AcDbLine
 10
-1248.662973423825
 20
-1275.71595726021
 30
0.0
 11
-1301.996306757158
 21
-1275.71595726021
 31
0.0
  0
LINE
  5
252
330
6D
100
AcDbEntity
  8
1
  6
Continuous
 62
     2
100
AcDbLine
 10
-1180.329640090492
 20
-1280.71595726021
 30
0.0
 11
-1180.329640090492
 21
-1275.71595726021
 31
0.0
  0
LINE
  5
253
330
6D
100
AcDbEntity
  8
1
  6
Continuous
 62
     2
100
AcDbLine
 10
-1301.996306757159
 20
-1280.71595726021
 30
0.0
 11
-1301.996306757159
 21
-1276.71595726021
 31
0.0
  0
LINE
  5
254
330
6D
100
AcDbEntity
  8
1
  6
Continuous
 62
     2
100
AcDbLine
 10
-1301.996306757159
 20
-1280.71595726021
 30
0.0
 11
-1248.662973423825
 21
-1280.71595726021
 31
0.0
  0
LINE
  5
255
330
6D
100
AcDbEntity
  8
1
  6
Continuous
 62
     2
100
AcDbLine
 10
-1091.996306757161
 20
-1280.71595726021
 30
0.0
 11
-1111.996306757158
 21
-1280.71595726021
 31
0.0
  0
LINE
  5
256
330
6D
100
AcDbEntity
  8
1
  6
Continuous
 62
     2
100
AcDbLine
 10
-1091.996306757161
 20
-1280.71595726021
 30
0.0
 11
-1091.996306757161
 21
-1276.71595726021
 31
0.0
  0
LINE
  5
257
330
6D
100
AcDbEntity
  8
1
  6
Continuous
 62
     2
100
AcDbLine
 10
-1091.996306757161
 20
-1280.71595726021
 30
0.0
 11
-1043.662973423825
 21
-1280.71595726021
 31
0.0
  0
LINE
  5
258
330
6D
100
AcDbEntity
  8
1
  6
Continuous
 62
     2
100
AcDbLine
 10
-1043.662973423825
 20
-1280.71595726021
 30
0.0
 11
-975.3296400904919
 21
-1280.71595726021
 31
0.0
  0
LINE
  5
259
330
6D
100
AcDbEntity
  8
1
  6
Continuous
 62
     2
100
AcDbLine
 10
-901.9963067571609
 20
-1280.71595726021
 30
0.0
 11
-906.9963067571584
 21
-1280.71595726021
 31
0.0
  0
LINE
  5
25A
330
6D
100
AcDbEntity
  8
1
  6
Continuous
 62
     2
100
AcDbLine
 10
-901.9963067571609
 20
-1275.71595726021
 30
0.0
 11
-901.9963067571609
 21
-1280.71595726021
 31
0.0
  0
LINE
  5
25B
330
6D
100
AcDbEntity
  8
1
  6
Continuous
 62
     2
100
AcDbLine
 10
-901.9963067571609
 20
-1275.71595726021
 30
0.0
 11
-901.9963067571609
 21
-1218.31595726021
 31
0.0
  0
LINE
  5
25C
330
6D
100
AcDbEntity
  8
1
  6
Continuous
 62
     2
100
AcDbLine
 10
-901.9963067571609
 20
-983.71595726021
 30
0.0
 11
-906.9963067571609
 21
-983.71595726021
 31
0.0
  0
LINE
  5
25D
330
6D
100
AcDbEntity
  8
1
  6
Continuous
 62
     6
100
AcDbLine
 10
-906.9963067571609
 20
-988.71595726021
 30
0.0
 11
-906.9963067571605
 21
-1046.11595726021
 31
0.0
  0
LINE
  5
25E
330
6D
100
AcDbEntity
  8
1
  6
Continuous
 62
     2
100
AcDbLine
 10
-901.9963067571609
 20
-983.71595726021
 30
0.0
 11
-901.9963067571609
 21
-988.71595726021
 31
0.0
  0
LINE
  5
25F
330
6D
100
AcDbEntity
  8
1
  6
Continuous
 62
     2
100
AcDbLine
 10
-906.9963067571609
 20
-988.71595726021
 30
0.0
 11
-906.9963067571609
 21
-983.71595726021
 31
0.0
  0
LINE
  5
260
330
6D
100
AcDbEntity
  8
1
  6
Continuous
 62
     2
100
AcDbLine
 10
-906.9963067571609
 20
-988.71595726021
 30
0.0
 11
-901.9963067571609
 21
-988.71595726021
 31
0.0
  0
LINE
  5
261
330
6D
100
AcDbEntity
  8
1
  6
Continuous
 62
     2
100
AcDbLine
 10
-901.9963067571609
 20
-988.71595726021
 30
0.0
 11
-901.9963067571609
 21
-1046.11595726021
 31
0.0
  0
LINE
  5
262
330
6D
100
AcDbEntity
  8
1
  6
Continuous
 62
     2
100
AcDbLine
 10
-906.9963067571605
 20
-1046.11595726021
 30
0.0
 11
-901.9963067571609
 21
-1046.11595726021
 31
0.0
  0
LINE
  5
263
330
6D
100
AcDbEntity
  8
1
  6
Continuous
 62
     6
100
AcDbLine
 10
-906.9963067571605
 20
-1046.11595726021
 30
0.0
 11
-906.9963067571584
 21
-1103.51595726021
 31
0.0
  0
LINE
  5
264
330
6D
100
AcDbEntity
  8
1
  6
Continuous
 62
     2
100
AcDbLine
 10
-901.9963067571609
 20
-1046.11595726021
 30
0.0
 11
-901.9963067571609
 21
-1103.51595726021
 31
0.0
  0
LINE
  5
265
330
6D
100
AcDbEntity
  8
1
  6
Continuous
 62
     2
100
AcDbLine
 10
-906.9963067571584
 20
-1103.51595726021
 30
0.0
 11
-901.9963067571609
 21
-1103.51595726021
 31
0.0
  0
LINE
  5
266
330
6D
100
AcDbEntity
  8
1
  6
Continuous
 62
     6
100
AcDbLine
 10
-906.9963067571584
 20
-1103.51595726021
 30
0.0
 11
-906.9963067571584
 21
-1160.91595726021
 31
0.0
  0
LINE
  5
267
330
6D
100
AcDbEntity
  8
1
  6
Continuous
 62
     2
100
AcDbLine
 10
-901.9963067571609
 20
-1103.51595726021
 30
0.0
 11
-901.9963067571609
 21
-1160.91595726021
 31
0.0
  0
LINE
  5
268
330
6D
100
AcDbEntity
  8
1
  6
Continuous
 62
     2
100
AcDbLine
 10
-906.9963067571584
 20
-1160.91595726021
 30
0.0
 11
-901.9963067571609
 21
-1160.91595726021
 31
0.0
  0
LINE
  5
269
330
6D
100
AcDbEntity
  8
1
  6
Continuous
 62
     6
100
AcDbLine
 10
-906.9963067571584
 20
-1160.91595726021
 30
0.0
 11
-906.9963067571585
 21
-1218.31595726021
 31
0.0
  0
LINE
  5
26A
330
6D
100
AcDbEntity
  8
1
  6
Continuous
 62
     6
100
AcDbLine
 10
-1301.996306757159
 20
-988.7159572602097
 30
0.0
 11
-1248.662973423825
 21
-988.7159572602097
 31
0.0
  0
LINE
  5
26B
330
6D
100
AcDbEntity
  8
1
  6
Continuous
 62
     2
100
AcDbLine
 10
-906.9963067571609
 20
-983.71595726021
 30
0.0
 11
-975.3296400904919
 21
-983.71595726021
 31
0.0
  0
LINE
  5
26C
330
6D
100
AcDbEntity
  8
1
  6
Continuous
 62
     2
100
AcDbLine
 10
-975.3296400904919
 20
-988.71595726021
 30
0.0
 11
-975.3296400904919
 21
-983.71595726021
 31
0.0
  0
LINE
  5
26D
330
6D
100
AcDbEntity
  8
1
  6
Continuous
 62
     6
100
AcDbLine
 10
-975.3296400904919
 20
-988.71595726021
 30
0.0
 11
-906.9963067571609
 21
-988.71595726021
 31
0.0
  0
LINE
  5
26E
330
6D
100
AcDbEntity
  8
1
  6
Continuous
 62
     2
100
AcDbLine
 10
-975.3296400904919
 20
-983.71595726021
 30
0.0
 11
-1043.662973423825
 21
-983.71595726021
 31
0.0
  0
LINE
  5
26F
330
6D
100
AcDbEntity
  8
1
  6
Continuous
 62
     2
100
AcDbLine
 10
-1043.662973423825
 20
-988.71595726021
 30
0.0
 11
-1043.662973423825
 21
-983.71595726021
 31
0.0
  0
LINE
  5
270
330
6D
100
AcDbEntity
  8
1
  6
Continuous
 62
     6
100
AcDbLine
 10
-1043.662973423825
 20
-988.71595726021
 30
0.0
 11
-975.3296400904919
 21
-988.71595726021
 31
0.0
  0
LINE
  5
271
330
6D
100
AcDbEntity
  8
1
  6
Continuous
 62
     2
100
AcDbLine
 10
-1043.662973423825
 20
-983.71595726021
 30
0.0
 11
-1091.996306757161
 21
-983.71595726021
 31
0.0
  0
LINE
  5
272
330
6D
100
AcDbEntity
  8
1
  6
Continuous
 62
     2
100
AcDbLine
 10
-1111.996306757158
 20
-988.71595726021
 30
0.0
 11
-1111.996306757158
 21
-983.71595726021
 31
0.0
  0
LINE
  5
273
330
6D
100
AcDbEntity
  8
1
  6
Continuous
 62
     6
100
AcDbLine
 10
-1111.996306757158
 20
-988.71595726021
 30
0.0
 11
-1043.662973423825
 21
-988.71595726021
 31
0.0
  0
LINE
  5
274
330
6D
100
AcDbEntity
  8
1
  6
Continuous
 62
     2
100
AcDbLine
 10
-1111.996306757158
 20
-983.71595726021
 30
0.0
 11
-1180.329640090492
 21
-983.71595726021
 31
0.0
  0
LINE
  5
275
330
6D
100
AcDbEntity
  8
1
  6
Continuous
 62
     2
100
AcDbLine
 10
-1180.329640090492
 20
-988.71595726021
 30
0.0
 11
-1180.329640090492
 21
-983.71595726021
 31
0.0
  0
LINE
  5
276
330
6D
100
AcDbEntity
  8
1
  6
Continuous
 62
     6
100
AcDbLine
 10
-1180.329640090492
 20
-988.71595726021
 30
0.0
 11
-1111.996306757158
 21
-988.71595726021
 31
0.0
  0
LINE
  5
277
330
6D
100
AcDbEntity
  8
1
  6
Continuous
 62
     2
100
AcDbLine
 10
-1180.329640090492
 20
-983.71595726021
 30
0.0
 11
-1248.662973423825
 21
-983.71595726021
 31
0.0
  0
LINE
  5
278
330
6D
100
AcDbEntity
  8
1
  6
Continuous
 62
     2
100
AcDbLine
 10
-1248.662973423825
 20
-988.7159572602097
 30
0.0
 11
-1248.662973423825
 21
-983.71595726021
 31
0.0
  0
LINE
  5
279
330
6D
100
AcDbEntity
  8
1
  6
Continuous
 62
     6
100
AcDbLine
 10
-1248.662973423825
 20
-988.7159572602097
 30
0.0
 11
-1180.329640090492
 21
-988.71595726021
 31
0.0
  0
LINE
  5
27A
330
6D
100
AcDbEntity
  8
1
  6
Continuous
 62
     2
100
AcDbLine
 10
-1248.662973423825
 20
-983.71595726021
 30
0.0
 11
-1301.996306757159
 21
-983.71595726021
 31
0.0
  0
LINE
  5
27B
330
6D
100
AcDbEntity
  8
1
  6
Continuous
 62
     2
100
AcDbLine
 10
-1301.996306757159
 20
-983.71595726021
 30
0.0
 11
-1301.996306757159
 21
-987.7159572602097
 31
0.0
  0
LINE
  5
27C
330
6D
100
AcDbEntity
  8
1
  6
Continuous
 62
     2
100
AcDbLine
 10
-1301.996306757159
 20
-983.71595726021
 30
0.0
 11
-1321.996306757159
 21
-983.71595726021
 31
0.0
  0
LINE
  5
27D
330
6D
100
AcDbEntity
  8
1
  6
Continuous
 62
     2
100
AcDbLine
 10
-1091.996306757161
 20
-983.71595726021
 30
0.0
 11
-1091.996306757161
 21
-987.7159572602097
 31
0.0
  0
LINE
  5
27E
330
6D
100
AcDbEntity
  8
1
  6
Continuous
 62
     2
100
AcDbLine
 10
-1091.996306757161
 20
-983.71595726021
 30
0.0
 11
-1111.996306757158
 21
-983.71595726021
 31
0.0
  0
LINE
  5
27F
330
6D
100
AcDbEntity
  8
1
  6
Continuous
 62
     2
100
AcDbLine
 10
-1321.996306757159
 20
-983.71595726021
 30
0.0
 11
-1321.996306757159
 21
-1132.21595726021
 31
0.0
  0
LINE
  5
280
330
6D
100
AcDbEntity
  8
1
  6
Continuous
 62
     2
100
AcDbLine
 10
-1321.996306757159
 20
-1132.21595726021
 30
0.0
 11
-1311.996306757159
 21
-1132.21595726021
 31
0.0
  0
LINE
  5
281
330
6D
100
AcDbEntity
  8
1
  6
Continuous
 62
     2
100
AcDbLine
 10
-1321.996306757159
 20
-1132.21595726021
 30
0.0
 11
-1321.996306757159
 21
-1280.71595726021
 31
0.0
  0
LINE
  5
282
330
6D
100
AcDbEntity
  8
1
  6
Continuous
 62
     6
100
AcDbLine
 10
-1301.996306757158
 20
-1275.71595726021
 30
0.0
 11
-1301.996306757159
 21
-988.7159572602097
 31
0.0
  0
LINE
  5
283
330
6D
100
AcDbEntity
  8
1
  6
Continuous
 62
     6
100
AcDbLine
 10
-906.9963067571585
 20
-1275.71595726021
 30
0.0
 11
-906.9963067571589
 21
-1267.215957260211
 31
0.0
  0
LINE
  5
284
330
6D
100
AcDbEntity
  8
1
  6
Continuous
 62
     6
100
AcDbLine
 10
-1180.329640090492
 20
-1275.71595726021
 30
0.0
 11
-1158.996306757158
 21
-1275.71595726021
 31
0.0
  0
LINE
  5
285
330
6D
100
AcDbEntity
  8
1
  6
Continuous
 62
     2
100
AcDbLine
 10
-935.5555700723678
 20
-1260.266176539243
 30
0.0
 11
-935.5555700723677
 21
-1262.323572504096
 31
0.0
  0
LINE
  5
286
330
6D
100
AcDbEntity
  8
1
  6
Continuous
 62
     7
100
AcDbLine
 10
-970.4963067571562
 20
-1258.715957260211
 30
0.0
 11
-970.4963067571562
 21
-1254.465957260211
 31
0.0
  0
LINE
  5
287
330
6D
100
AcDbEntity
  8
1
  6
Continuous
 62
     7
100
AcDbLine
 10
-970.4963067571562
 20
-1254.465957260211
 30
0.0
 11
-977.2411112839103
 21
-1254.465957260211
 31
0.0
  0
ARC
  5
288
102
{ACAD_REACTORS
330
334
330
334
330
335
330
335
102
}
330
6D
100
AcDbEntity
  8
0
  6
Continuous
 62
     2
100
AcDbCircle
 10
-1020.662063350885
 20
-1268.604052498299
 30
0.0
 40
0.6378510567598716
100
AcDbArc
 50
321.8795802028229
 51
38.12041979711285
  0
ARC
  5
289
102
{ACAD_REACTORS
330
334
330
334
330
335
330
335
102
}
330
6D
100
AcDbEntity
  8
0
  6
Continuous
 62
     2
100
AcDbCircle
 10
-1020.496988940682
 20
-1268.733582397572
 30
0.0
 40
0.4280236140611167
100
AcDbArc
 50
218.1204197971445
 51
321.8795802028461
  0
ARC
  5
28A
102
{ACAD_REACTORS
330
334
330
334
330
335
330
335
102
}
330
6D
100
AcDbEntity
  8
0
  6
Continuous
 62
     2
100
AcDbCircle
 10
-1020.331914530478
 20
-1268.604052498299
 30
0.0
 40
0.6378510567601151
100
AcDbArc
 50
141.8795802029439
 51
218.1204197971204
  0
ARC
  5
28B
102
{ACAD_REACTORS
330
334
330
334
330
335
330
335
102
}
330
6D
100
AcDbEntity
  8
0
  6
Continuous
 62
     2
100
AcDbCircle
 10
-1020.496988940682
 20
-1268.474522599026
 30
0.0
 40
0.4280236140603254
100
AcDbArc
 50
38.1204197970342
 51
141.8795802029752
  0
ARC
  5
28C
102
{ACAD_REACTORS
330
32C
330
32C
330
32D
330
32D
102
}
330
6D
100
AcDbEntity
  8
0
  6
Continuous
 62
     2
100
AcDbCircle
 10
-1023.027579135363
 20
-1269.769727180455
 30
0.0
 40
1.840813230556925
100
AcDbArc
 50
58.06909105004776
 51
71.55192388186956
  0
ARC
  5
28D
102
{ACAD_REACTORS
330
32C
330
32C
330
32D
330
32D
102
}
330
6D
100
AcDbEntity
  8
0
  6
Continuous
 62
     2
100
AcDbCircle
 10
-1022.811275250273
 20
-1268.434571978185
 30
0.0
 40
0.4227934381779176
100
AcDbArc
 50
113.3722778881946
 51
151.4785267422073
  0
ARC
  5
28E
102
{ACAD_REACTORS
330
32C
330
32C
330
32D
330
32D
102
}
330
6D
100
AcDbEntity
  8
0
  6
Continuous
 62
     2
100
AcDbCircle
 10
-1022.499409747727
 20
-1268.604052498299
 30
0.0
 40
0.7777353184569956
100
AcDbArc
 50
151.4785267422721
 51
208.5214732577132
  0
ARC
  5
28F
102
{ACAD_REACTORS
330
32C
330
32C
330
32D
330
32D
102
}
330
6D
100
AcDbEntity
  8
0
  6
Continuous
 62
     2
100
AcDbCircle
 10
-1023.158052585853
 20
-1265.86629965098
 30
0.0
 40
4.010410630990495
100
AcDbArc
 50
275.1581447696356
 51
285.9799912583509
  0
ARC
  5
290
102
{ACAD_REACTORS
330
32C
330
32C
330
32D
330
32D
102
}
330
6D
100
AcDbEntity
  8
0
  6
Continuous
 62
     2
100
AcDbCircle
 10
-1022.919328540616
 20
-1268.510837323064
 30
0.0
 40
1.355119937140738
100
AcDbArc
 50
195.0618917770924
 51
275.1581447696384
  0
ARC
  5
291
102
{ACAD_REACTORS
330
32C
330
32C
330
32D
330
32D
102
}
330
6D
100
AcDbEntity
  8
0
  6
Continuous
 62
     2
100
AcDbCircle
 10
-1023.265715188106
 20
-1268.604052498299
 30
0.0
 40
0.9964100565220717
100
AcDbArc
 50
164.9381082228755
 51
195.0618917771119
  0
ARC
  5
292
102
{ACAD_REACTORS
330
32C
330
32C
330
32D
330
32D
102
}
330
6D
100
AcDbEntity
  8
0
  6
Continuous
 62
     2
100
AcDbCircle
 10
-1022.919328540616
 20
-1268.697267673535
 30
0.0
 40
1.355119937141545
100
AcDbArc
 50
84.84185523036508
 51
164.9381082228705
  0
ARC
  5
293
102
{ACAD_REACTORS
330
330
330
330
330
331
330
331
102
}
330
6D
100
AcDbEntity
  8
0
  6
Continuous
 62
     2
100
AcDbCircle
 10
-1026.911075858106
 20
-1267.749650188916
 30
0.0
 40
0.260923076922766
100
AcDbArc
 50
115.3740086781897
 51
180.0
  0
ARC
  5
294
102
{ACAD_REACTORS
330
330
330
330
330
331
330
331
102
}
330
6D
100
AcDbEntity
  8
0
  6
Continuous
 62
     2
100
AcDbCircle
 10
-1026.911075858106
 20
-1265.916358288142
 30
0.0
 40
0.2609230769219266
100
AcDbArc
 50
180.0
 51
244.6259913217248
  0
ARC
  5
295
102
{ACAD_REACTORS
330
330
330
330
330
331
330
331
102
}
330
6D
100
AcDbEntity
  8
0
  6
Continuous
 62
     2
100
AcDbCircle
 10
-1026.906434423965
 20
-1266.823217510507
 30
0.0
 40
1.668232340440956
100
AcDbArc
 50
269.8110329575862
 51
90.18896704241386
  0
ARC
  5
296
102
{ACAD_REACTORS
330
330
330
330
330
331
330
331
102
}
330
6D
100
AcDbEntity
  8
0
  6
Continuous
 62
     2
100
AcDbCircle
 10
-1026.911075858106
 20
-1268.230519120069
 30
0.0
 40
0.2609230769219266
100
AcDbArc
 50
180.0
 51
269.811032957546
  0
ARC
  5
297
102
{ACAD_REACTORS
330
32E
330
32E
330
32F
330
32F
102
}
330
6D
100
AcDbEntity
  8
0
  6
Continuous
 62
     2
100
AcDbCircle
 10
-1009.503257498824
 20
-1268.434571978185
 30
0.0
 40
0.4227934381779216
100
AcDbArc
 50
109.3371432194856
 51
151.4785267424015
  0
ARC
  5
298
102
{ACAD_REACTORS
330
32E
330
32E
330
32F
330
32F
102
}
330
6D
100
AcDbEntity
  8
0
  6
Continuous
 62
     2
100
AcDbCircle
 10
-1009.503257498824
 20
-1268.773533018414
 30
0.0
 40
0.4227934381782151
100
AcDbArc
 50
208.5214732577339
 51
246.6277221118317
  0
ARC
  5
299
102
{ACAD_REACTORS
330
32E
330
32E
330
32F
330
32F
102
}
330
6D
100
AcDbEntity
  8
0
  6
Continuous
 62
     2
100
AcDbCircle
 10
-1009.957697436657
 20
-1268.604052498299
 30
0.0
 40
0.9964100565230597
100
AcDbArc
 50
164.9381082228908
 51
195.0618917770966
  0
ARC
  5
29A
102
{ACAD_REACTORS
330
32E
330
32E
330
32F
330
32F
102
}
330
6D
100
AcDbEntity
  8
0
  6
Continuous
 62
     2
100
AcDbCircle
 10
-1009.611310789168
 20
-1268.697267673535
 30
0.0
 40
1.355119937140898
100
AcDbArc
 50
90.0
 51
164.9381082228705
  0
ARC
  5
29B
102
{ACAD_REACTORS
330
332
330
332
330
333
330
333
102
}
330
6D
100
AcDbEntity
  8
0
  6
Continuous
 62
     2
100
AcDbCircle
 10
-1017.40221582446
 20
-1265.827862022122
 30
0.0
 40
1.261904761905043
100
AcDbArc
 50
90.0
 51
270.0
  0
ARC
  5
29C
102
{ACAD_REACTORS
330
336
330
336
330
337
330
337
102
}
330
6D
100
AcDbEntity
  8
0
  6
Continuous
 62
     2
100
AcDbCircle
 10
-1022.974687514729
 20
-1265.40560161568
 30
0.0
 40
0.2916229955958443
100
AcDbArc
 50
270.0
 51
90.0
  0
ARC
  5
29D
102
{ACAD_REACTORS
330
330
330
330
330
331
330
331
102
}
330
6D
100
AcDbEntity
  8
0
  6
Continuous
 62
     2
100
AcDbCircle
 10
-1029.039628491603
 20
-1265.41576922603
 30
0.0
 40
0.260923076922154
100
AcDbArc
 50
90.0
 51
180.0
  0
ARC
  5
29E
102
{ACAD_REACTORS
330
330
330
330
330
331
330
331
102
}
330
6D
100
AcDbEntity
  8
0
  6
Continuous
 62
     2
100
AcDbCircle
 10
-1027.388043608475
 20
-1266.833004238529
 30
0.0
 40
0.7536343169902635
100
AcDbArc
 50
115.1944106484866
 51
244.8055893514913
  0
ARC
  5
29F
102
{ACAD_REACTORS
330
330
330
330
330
331
330
331
102
}
330
6D
100
AcDbEntity
  8
0
  6
Continuous
 62
     2
100
AcDbCircle
 10
-1027.819931581678
 20
-1267.751045350977
 30
0.0
 40
0.2609230769230635
100
AcDbArc
 50
0.0
 51
64.80558935130043
  0
ARC
  5
2A0
102
{ACAD_REACTORS
330
330
330
330
330
331
330
331
102
}
330
6D
100
AcDbEntity
  8
0
  6
Continuous
 62
     2
100
AcDbCircle
 10
-1029.530450538501
 20
-1269.51534187559
 30
0.0
 40
0.3506153846140023
100
AcDbArc
 50
180.0
 51
270.0
  0
ARC
  5
2A1
102
{ACAD_REACTORS
330
332
330
332
330
333
330
333
102
}
330
6D
100
AcDbEntity
  8
0
  6
Continuous
 62
     2
100
AcDbCircle
 10
-1017.223478625976
 20
-1265.698332122849
 30
0.0
 40
0.4280236140602223
100
AcDbArc
 50
38.12041979723848
 51
141.8795802028461
  0
ARC
  5
2A2
102
{ACAD_REACTORS
330
332
330
332
330
333
330
333
102
}
330
6D
100
AcDbEntity
  8
0
  6
Continuous
 62
     2
100
AcDbCircle
 10
-1017.058404215773
 20
-1265.827862022122
 30
0.0
 40
0.6378510567598716
100
AcDbArc
 50
141.8795802028229
 51
218.1204197971771
  0
ARC
  5
2A3
102
{ACAD_REACTORS
330
334
330
334
330
335
330
335
102
}
330
6D
100
AcDbEntity
  8
0
  6
Continuous
 62
     2
100
AcDbCircle
 10
-1020.496988940682
 20
-1268.158949183999
 30
0.0
 40
1.70700807620557
100
AcDbArc
 50
242.4518518243552
 51
297.5481481757022
  0
ARC
  5
2A4
102
{ACAD_REACTORS
330
334
330
334
330
335
330
335
102
}
330
6D
100
AcDbEntity
  8
0
  6
Continuous
 62
     2
100
AcDbCircle
 10
-1020.496988940682
 20
-1269.049155812599
 30
0.0
 40
1.707008076205859
100
AcDbArc
 50
62.45185182428713
 51
117.5481481756554
  0
ARC
  5
2A5
102
{ACAD_REACTORS
330
334
330
334
330
335
330
335
102
}
330
6D
100
AcDbEntity
  8
0
  6
Continuous
 62
     2
100
AcDbCircle
 10
-1020.72917066947
 20
-1268.604052498299
 30
0.0
 40
1.20498684599266
100
AcDbArc
 50
117.5481481756413
 51
242.4518518243737
  0
ARC
  5
2A6
102
{ACAD_REACTORS
330
334
330
334
330
335
330
335
102
}
330
6D
100
AcDbEntity
  8
0
  6
Continuous
 62
     2
100
AcDbCircle
 10
-1020.264807211894
 20
-1268.604052498299
 30
0.0
 40
1.204986845994211
100
AcDbArc
 50
297.5481481757126
 51
62.45185182427245
  0
ARC
  5
2A7
102
{ACAD_REACTORS
330
332
330
332
330
333
330
333
102
}
330
6D
100
AcDbEntity
  8
0
  6
Continuous
 62
     2
100
AcDbCircle
 10
-1017.223478625976
 20
-1265.957391921395
 30
0.0
 40
0.4280236140610272
100
AcDbArc
 50
218.1204197971539
 51
321.8795802027615
  0
ARC
  5
2A8
102
{ACAD_REACTORS
330
332
330
332
330
333
330
333
102
}
330
6D
100
AcDbEntity
  8
0
  6
Continuous
 62
     2
100
AcDbCircle
 10
-1017.38855303618
 20
-1265.827862022122
 30
0.0
 40
0.6378510567598716
100
AcDbArc
 50
321.8795802028229
 51
38.12041979717712
  0
ARC
  5
2A9
102
{ACAD_REACTORS
330
330
330
330
330
331
330
331
102
}
330
6D
100
AcDbEntity
  8
0
  6
Continuous
 62
     2
100
AcDbCircle
 10
-1025.007052116421
 20
-1269.51534187559
 30
0.0
 40
0.3506153846151392
100
AcDbArc
 50
270.0
 51
0.0
  0
ARC
  5
2AA
102
{ACAD_REACTORS
330
330
330
330
330
331
330
331
102
}
330
6D
100
AcDbEntity
  8
0
  6
Continuous
 62
     2
100
AcDbCircle
 10
-1025.007052116421
 20
-1264.916572644846
 30
0.0
 40
0.3506153846149118
100
AcDbArc
 50
0.0
 51
90.0
  0
ARC
  5
2AB
102
{ACAD_REACTORS
330
330
330
330
330
331
330
331
102
}
330
6D
100
AcDbEntity
  8
0
  6
Continuous
 62
     2
100
AcDbCircle
 10
-1029.530450538501
 20
-1264.916572644846
 30
0.0
 40
0.3506153846140023
100
AcDbArc
 50
90.0
 51
180.0
  0
ARC
  5
2AC
102
{ACAD_REACTORS
330
330
330
330
330
331
330
331
102
}
330
6D
100
AcDbEntity
  8
0
  6
Continuous
 62
     2
100
AcDbCircle
 10
-1027.819931581678
 20
-1269.016145294392
 30
0.0
 40
0.2609230769230635
100
AcDbArc
 50
270.0
 51
0.0
  0
ARC
  5
2AD
102
{ACAD_REACTORS
330
330
330
330
330
331
330
331
102
}
330
6D
100
AcDbEntity
  8
0
  6
Continuous
 62
     2
100
AcDbCircle
 10
-1027.819931581678
 20
-1265.914963126081
 30
0.0
 40
0.260923076922041
100
AcDbArc
 50
295.1944106487633
 51
0.0
  0
ARC
  5
2AE
102
{ACAD_REACTORS
330
330
330
330
330
331
330
331
102
}
330
6D
100
AcDbEntity
  8
0
  6
Continuous
 62
     2
100
AcDbCircle
 10
-1027.819931581678
 20
-1265.41576922603
 30
0.0
 40
0.2609230769230635
100
AcDbArc
 50
0.0
 51
90.0
  0
ARC
  5
2AF
102
{ACAD_REACTORS
330
330
330
330
330
331
330
331
102
}
330
6D
100
AcDbEntity
  8
0
  6
Continuous
 62
     2
100
AcDbCircle
 10
-1029.039628491603
 20
-1269.016145294392
 30
0.0
 40
0.2609230769219266
100
AcDbArc
 50
180.0
 51
270.0
  0
ARC
  5
2B0
102
{ACAD_REACTORS
330
336
330
336
330
337
330
337
102
}
330
6D
100
AcDbEntity
  8
0
  6
Continuous
 62
     2
100
AcDbCircle
 10
-1022.60983418726
 20
-1265.438160269583
 30
0.0
 40
0.8722030093670128
100
AcDbArc
 50
270.0
 51
90.0
  0
ARC
  5
2B1
102
{ACAD_REACTORS
330
32E
330
32E
330
32F
330
32F
102
}
330
6D
100
AcDbEntity
  8
0
  6
Continuous
 62
     2
100
AcDbCircle
 10
-1009.611310789168
 20
-1268.510837323064
 30
0.0
 40
1.355119937140738
100
AcDbArc
 50
195.0618917770924
 51
275.1581447696732
  0
ARC
  5
2B2
102
{ACAD_REACTORS
330
32E
330
32E
330
32F
330
32F
102
}
330
6D
100
AcDbEntity
  8
0
  6
Continuous
 62
     2
100
AcDbCircle
 10
-1009.850034834404
 20
-1265.86629965098
 30
0.0
 40
4.010410630991391
100
AcDbArc
 50
275.1581447696328
 51
285.9799912583368
  0
ARC
  5
2B3
102
{ACAD_REACTORS
330
32E
330
32E
330
32F
330
32F
102
}
330
6D
100
AcDbEntity
  8
0
  6
Continuous
 62
     2
100
AcDbCircle
 10
-1009.719561383914
 20
-1267.438377816144
 30
0.0
 40
1.840813230556238
100
AcDbArc
 50
288.4480761181271
 51
301.9309089499402
  0
ARC
  5
2B4
102
{ACAD_REACTORS
330
32E
330
32E
330
32F
330
32F
102
}
330
6D
100
AcDbEntity
  8
0
  6
Continuous
 62
     2
100
AcDbCircle
 10
-1009.373968215598
 20
-1268.474366060802
 30
0.0
 40
0.7487023016413514
100
AcDbArc
 50
246.6277221117987
 51
288.4480761180266
  0
ARC
  5
2B5
102
{ACAD_REACTORS
330
32E
330
32E
330
32F
330
32F
102
}
330
6D
100
AcDbEntity
  8
0
  6
Continuous
 62
     2
100
AcDbCircle
 10
-1009.191391996277
 20
-1268.604052498299
 30
0.0
 40
0.7777353184581508
100
AcDbArc
 50
151.4785267424137
 51
208.5214732577041
  0
ARC
  5
2B6
102
{ACAD_REACTORS
330
32E
330
32E
330
32F
330
32F
102
}
330
6D
100
AcDbEntity
  8
0
  6
Continuous
 62
     2
100
AcDbCircle
 10
-1009.382042624358
 20
-1268.779989317344
 30
0.0
 40
0.788861989113002
100
AcDbArc
 50
90.0
 51
109.3371432194575
  0
ARC
  5
2B7
102
{ACAD_REACTORS
330
330
330
330
330
331
330
331
102
}
330
6D
100
AcDbEntity
  8
0
  6
Continuous
 62
     2
100
AcDbCircle
 10
-1026.911075858106
 20
-1265.415915900946
 30
0.0
 40
0.2609230769216705
100
AcDbArc
 50
90.18896704245421
 51
180.0
  0
ARC
  5
2B8
102
{ACAD_REACTORS
330
330
330
330
330
331
330
331
102
}
330
6D
100
AcDbEntity
  8
0
  6
Continuous
 62
     2
100
AcDbCircle
 10
-1027.345821889583
 20
-1266.833004238529
 30
0.0
 40
0.7535935125157093
100
AcDbArc
 50
295.3740086782016
 51
64.62599132182804
  0
ARC
  5
2B9
102
{ACAD_REACTORS
330
32C
330
32C
330
32D
330
32D
102
}
330
6D
100
AcDbEntity
  8
0
  6
Continuous
 62
     2
100
AcDbCircle
 10
-1023.027579135363
 20
-1267.438377816143
 30
0.0
 40
1.840813230556274
100
AcDbArc
 50
288.4480761181304
 51
301.9309089499485
  0
ARC
  5
2BA
102
{ACAD_REACTORS
330
32C
330
32C
330
32D
330
32D
102
}
330
6D
100
AcDbEntity
  8
0
  6
Continuous
 62
     2
100
AcDbCircle
 10
-1022.681985967048
 20
-1268.474366060802
 30
0.0
 40
0.7487023016409456
100
AcDbArc
 50
246.6277221118706
 51
288.4480761181367
  0
ARC
  5
2BB
102
{ACAD_REACTORS
330
32C
330
32C
330
32D
330
32D
102
}
330
6D
100
AcDbEntity
  8
0
  6
Continuous
 62
     2
100
AcDbCircle
 10
-1022.811275250273
 20
-1268.773533018414
 30
0.0
 40
0.4227934381769817
100
AcDbArc
 50
208.5214732576844
 51
246.6277221118176
  0
ARC
  5
2BC
102
{ACAD_REACTORS
330
32C
330
32C
330
32D
330
32D
102
}
330
6D
100
AcDbEntity
  8
0
  6
Continuous
 62
     2
100
AcDbCircle
 10
-1022.681985967048
 20
-1268.733738935797
 30
0.0
 40
0.7487023016412677
100
AcDbArc
 50
71.55192388188533
 51
113.3722778881363
  0
ARC
  5
2BD
102
{ACAD_REACTORS
330
32C
330
32C
330
32D
330
32D
102
}
330
6D
100
AcDbEntity
  8
0
  6
Continuous
 62
     2
100
AcDbCircle
 10
-1023.158052585853
 20
-1271.341805345618
 30
0.0
 40
4.010410630989779
100
AcDbArc
 50
74.02000874164553
 51
84.84185523036439
  0
CIRCLE
  5
2BE
102
{ACAD_REACTORS
330
330
330
330
330
331
330
331
102
}
330
6D
100
AcDbEntity
  8
0
  6
Continuous
 62
     2
100
AcDbCircle
 10
-1027.365503719891
 20
-1266.833004238529
 30
0.0
 40
0.3892387874200267
  0
CIRCLE
  5
2BF
330
6D
100
AcDbEntity
  8
1
  6
Continuous
 62
     2
100
AcDbCircle
 10
-1031.448851458807
 20
-1260.840957260211
 30
0.0
 40
1.0
  0
CIRCLE
  5
2C0
330
6D
100
AcDbEntity
  8
1
  6
Continuous
 62
     2
100
AcDbCircle
 10
-1031.448851458807
 20
-1260.840957260211
 30
0.0
 40
1.5
  0
MTEXT
  5
2C2
330
6D
100
AcDbEntity
  8
1
 62
     2
100
AcDbMText
 10
-1138.29630675716
 20
-1269.34095726021
 30
0.0
 40
2.0
 41
0.0
 71
     4
 72
     1
  1
 
  7
CONVERTER_12
 73
     1
 44
1.20048019207683
  0
MTEXT
  5
2C3
330
6D
100
AcDbEntity
  8
1
 62
     2
100
AcDbMText
 10
-1138.29630675716
 20
-1265.090957260211
 30
0.0
 40
2.0
 41
0.0
 71
     4
 72
     1
  1
 
  7
CONVERTER_12
 73
     1
 44
1.20048019207683
  0
MTEXT
  5
2C4
330
6D
100
AcDbEntity
  8
1
 62
     2
100
AcDbMText
 10
-1138.29630675716
 20
-1260.840957260211
 30
0.0
 40
2.0
 41
0.0
 71
     4
 72
     1
  1
 
  7
CONVERTER_12
 73
     1
 44
1.20048019207683
  0
MTEXT
  5
2C5
330
6D
100
AcDbEntity
  8
1
 62
     2
100
AcDbMText
 10
-1138.29630675716
 20
-1256.590957260211
 30
0.0
 40
2.0
 41
0.0
 71
     4
 72
     1
  1
 
  7
CONVERTER_12
 73
     1
 44
1.20048019207683
  0
MTEXT
  5
2C6
330
6D
100
AcDbEntity
  8
1
 62
     2
100
AcDbMText
 10
-1138.29630675716
 20
-1252.340957260211
 30
0.0
 40
2.0
 41
0.0
 71
     4
 72
     1
  1
 
  7
CONVERTER_12
 73
     1
 44
1.20048019207683
  0
MTEXT
  5
2C7
330
6D
100
AcDbEntity
  8
1
 62
     2
100
AcDbMText
 10
-1138.29630675716
 20
-1248.090957260211
 30
0.0
 40
2.0
 41
0.0
 71
     4
 72
     1
  1
 
  7
CONVERTER_12
 73
     1
 44
1.20048019207683
  0
MTEXT
  5
2C8
330
6D
100
AcDbEntity
  8
1
 62
     2
100
AcDbMText
 10
-1043.29111128391
 20
-1269.34095726021
 30
0.0
 40
2.0
 41
0.0
 71
     5
 72
     1
  1
 
  7
CONVERTER_11
 73
     1
 44
1.20048019207683
  0
MTEXT
  5
2C9
330
6D
100
AcDbEntity
  8
1
 62
     2
100
AcDbMText
 10
-1043.29111128391
 20
-1265.090957260211
 30
0.0
 40
2.0
 41
0.0
 71
     5
 72
     1
  1
 
  7
CONVERTER_11
 73
     1
 44
1.20048019207683
  0
MTEXT
  5
2CA
330
6D
100
AcDbEntity
  8
1
 62
     2
100
AcDbMText
 10
-1043.29111128391
 20
-1260.840957260211
 30
0.0
 40
2.0
 41
0.0
 71
     5
 72
     1
  1
 
  7
CONVERTER_11
 73
     1
 44
1.20048019207683
  0
MTEXT
  5
2CB
330
6D
100
AcDbEntity
  8
1
 62
     2
100
AcDbMText
 10
-1043.29111128391
 20
-1256.590957260211
 30
0.0
 40
2.0
 41
0.0
 71
     5
 72
     1
  1
 
  7
CONVERTER_11
 73
     1
 44
1.20048019207683
  0
MTEXT
  5
2CC
330
6D
100
AcDbEntity
  8
1
 62
     2
100
AcDbMText
 10
-1043.29111128391
 20
-1252.340957260211
 30
0.0
 40
2.0
 41
0.0
 71
     5
 72
     1
  1
 
  7
CONVERTER_11
 73
     1
 44
1.20048019207683
  0
MTEXT
  5
2CD
330
6D
100
AcDbEntity
  8
1
 62
     2
100
AcDbMText
 10
-1043.29111128391
 20
-1248.090957260211
 30
0.0
 40
2.0
 41
0.0
 71
     5
 72
     1
  1
 
  7
CONVERTER_11
 73
     1
 44
1.20048019207683
  0
MTEXT
  5
2CE
330
6D
100
AcDbEntity
  8
1
 62
     2
100
AcDbMText
 10
-1056.79111128391
 20
-1269.34095726021
 30
0.0
 40
2.0
 41
0.0
 71
     5
 72
     1
  1
 
  7
CONVERTER_11
 73
     1
 44
1.20048019207683
  0
MTEXT
  5
2CF
330
6D
100
AcDbEntity
  8
1
 62
     2
100
AcDbMText
 10
-1056.79111128391
 20
-1265.090957260211
 30
0.0
 40
2.0
 41
0.0
 71
     5
 72
     1
  1
 
  7
CONVERTER_11
 73
     1
 44
1.20048019207683
  0
MTEXT
  5
2D0
330
6D
100
AcDbEntity
  8
1
 62
     2
100
AcDbMText
 10
-1056.79111128391
 20
-1260.840957260211
 30
0.0
 40
2.0
 41
0.0
 71
     5
 72
     1
  1
 
  7
CONVERTER_11
 73
     1
 44
1.20048019207683
  0
MTEXT
  5
2D1
330
6D
100
AcDbEntity
  8
1
 62
     2
100
AcDbMText
 10
-1056.79111128391
 20
-1256.590957260211
 30
0.0
 40
2.0
 41
0.0
 71
     5
 72
     1
  1
 
  7
CONVERTER_11
 73
     1
 44
1.20048019207683
  0
MTEXT
  5
2D2
330
6D
100
AcDbEntity
  8
1
 62
     2
100
AcDbMText
 10
-1056.79111128391
 20
-1252.340957260211
 30
0.0
 40
2.0
 41
0.0
 71
     5
 72
     1
  1
 
  7
CONVERTER_11
 73
     1
 44
1.20048019207683
  0
MTEXT
  5
2D3
330
6D
100
AcDbEntity
  8
1
 62
     2
100
AcDbMText
 10
-1056.79111128391
 20
-1248.090957260211
 30
0.0
 40
2.0
 41
0.0
 71
     5
 72
     1
  1
 
  7
CONVERTER_11
 73
     1
 44
1.20048019207683
  0
MTEXT
  5
2D4
330
6D
100
AcDbEntity
  8
1
 62
     2
100
AcDbMText
 10
-1070.29111128391
 20
-1248.090957260211
 30
0.0
 40
2.0
 41
0.0
 71
     5
 72
     1
  1
 
  7
CONVERTER_11
 73
     1
 44
1.20048019207683
  0
MTEXT
  5
2D5
330
6D
100
AcDbEntity
  8
1
 62
     2
100
AcDbMText
 10
-1070.29111128391
 20
-1252.340957260211
 30
0.0
 40
2.0
 41
0.0
 71
     5
 72
     1
  1
 
  7
CONVERTER_11
 73
     1
 44
1.20048019207683
  0
MTEXT
  5
2D6
330
6D
100
AcDbEntity
  8
1
 62
     2
100
AcDbMText
 10
-1070.29111128391
 20
-1256.590957260211
 30
0.0
 40
2.0
 41
0.0
 71
     5
 72
     1
  1
 
  7
CONVERTER_11
 73
     1
 44
1.20048019207683
  0
MTEXT
  5
2D7
330
6D
100
AcDbEntity
  8
1
 62
     2
100
AcDbMText
 10
-1070.29111128391
 20
-1260.840957260211
 30
0.0
 40
2.0
 41
0.0
 71
     5
 72
     1
  1
 
  7
CONVERTER_11
 73
     1
 44
1.20048019207683
  0
MTEXT
  5
2D8
330
6D
100
AcDbEntity
  8
1
 62
     2
100
AcDbMText
 10
-1070.29111128391
 20
-1265.090957260211
 30
0.0
 40
2.0
 41
0.0
 71
     5
 72
     1
  1
 
  7
CONVERTER_11
 73
     1
 44
1.20048019207683
  0
MTEXT
  5
2D9
330
6D
100
AcDbEntity
  8
1
 62
     2
100
AcDbMText
 10
-1070.29111128391
 20
-1269.34095726021
 30
0.0
 40
2.0
 41
0.0
 71
     5
 72
     1
  1
 
  7
CONVERTER_11
 73
     1
 44
1.20048019207683
  0
MTEXT
  5
2DA
330
6D
100
AcDbEntity
  8
1
 62
     2
100
AcDbMText
 10
-1146.04630675716
 20
-1248.090957260211
 30
0.0
 40
2.0
 41
0.0
 71
     5
 72
     1
  1
 
  7
CONVERTER_11
 73
     1
 44
1.20048019207683
  0
MTEXT
  5
2DB
330
6D
100
AcDbEntity
  8
1
 62
     2
100
AcDbMText
 10
-1146.04630675716
 20
-1252.340957260211
 30
0.0
 40
2.0
 41
0.0
 71
     5
 72
     1
  1
 
  7
CONVERTER_11
 73
     1
 44
1.20048019207683
  0
MTEXT
  5
2DC
330
6D
100
AcDbEntity
  8
1
 62
     2
100
AcDbMText
 10
-1146.04630675716
 20
-1256.590957260211
 30
0.0
 40
2.0
 41
0.0
 71
     5
 72
     1
  1
 
  7
CONVERTER_11
 73
     1
 44
1.20048019207683
  0
MTEXT
  5
2DD
330
6D
100
AcDbEntity
  8
1
 62
     2
100
AcDbMText
 10
-1146.04630675716
 20
-1260.840957260211
 30
0.0
 40
2.0
 41
0.0
 71
     5
 72
     1
  1
 
  7
CONVERTER_11
 73
     1
 44
1.20048019207683
  0
MTEXT
  5
2DE
330
6D
100
AcDbEntity
  8
1
 62
     2
100
AcDbMText
 10
-1146.04630675716
 20
-1265.090957260211
 30
0.0
 40
2.0
 41
0.0
 71
     5
 72
     1
  1
 
  7
CONVERTER_11
 73
     1
 44
1.20048019207683
  0
MTEXT
  5
2DF
330
6D
100
AcDbEntity
  8
1
 62
     2
100
AcDbMText
 10
-1146.04630675716
 20
-1269.34095726021
 30
0.0
 40
2.0
 41
0.0
 71
     5
 72
     1
  1
 
  7
CONVERTER_11
 73
     1
 44
1.20048019207683
  0
MTEXT
  5
2E0
330
6D
100
AcDbEntity
  8
1
 62
     2
100
AcDbMText
 10
-1155.896306757159
 20
-1269.34095726021
 30
0.0
 40
2.0
 41
0.0
 71
     5
 72
     1
  1
 
  7
CONVERTER_11
 73
     1
 44
1.20048019207683
  0
MTEXT
  5
2E1
330
6D
100
AcDbEntity
  8
1
 62
     2
100
AcDbMText
 10
-1155.896306757159
 20
-1265.090957260211
 30
0.0
 40
2.0
 41
0.0
 71
     5
 72
     1
  1
 
  7
CONVERTER_11
 73
     1
 44
1.20048019207683
  0
MTEXT
  5
2E2
330
6D
100
AcDbEntity
  8
1
 62
     2
100
AcDbMText
 10
-1155.896306757159
 20
-1260.840957260211
 30
0.0
 40
2.0
 41
0.0
 71
     5
 72
     1
  1
 
  7
CONVERTER_11
 73
     1
 44
1.20048019207683
  0
MTEXT
  5
2E3
330
6D
100
AcDbEntity
  8
1
 62
     2
100
AcDbMText
 10
-1155.896306757159
 20
-1256.590957260211
 30
0.0
 40
2.0
 41
0.0
 71
     5
 72
     1
  1
 
  7
CONVERTER_11
 73
     1
 44
1.20048019207683
  0
MTEXT
  5
2E4
330
6D
100
AcDbEntity
  8
1
 62
     2
100
AcDbMText
 10
-1155.896306757159
 20
-1252.340957260211
 30
0.0
 40
2.0
 41
0.0
 71
     5
 72
     1
  1
 
  7
CONVERTER_11
 73
     1
 44
1.20048019207683
  0
MTEXT
  5
2E5
330
6D
100
AcDbEntity
  8
1
 62
     2
100
AcDbMText
 10
-1155.896306757159
 20
-1248.090957260211
 30
0.0
 40
2.0
 41
0.0
 71
     5
 72
     1
  1
 
  7
CONVERTER_11
 73
     1
 44
1.20048019207683
  0
MTEXT
  5
2E6
330
6D
100
AcDbEntity
  8
1
 62
     2
100
AcDbMText
 10
-950.9963067571566
 20
-1259.715957260211
 30
0.0
 40
1.8
 41
0.0
 71
     1
 72
     1
  1
surface in um
  7
CONVERTER_11
 73
     1
 44
1.32052821128451
  0
MTEXT
  5
2E7
330
6D
100
AcDbEntity
  8
1
 62
     2
100
AcDbMText
 10
-923.5778984754795
 20
-1246.965957260211
 30
0.0
 40
1.8
 41
0.0
 71
     1
 72
     1
  1
dim.var.
  7
CONVERTER_11
 73
     1
 44
1.20048019207683
  0
MTEXT
  5
2E9
330
6D
100
AcDbEntity
  8
1
 62
     2
100
AcDbMText
 10
-969.4963067571562
 20
-1259.715957260211
 30
0.0
 40
1.8
 41
0.0
 71
     1
 72
     1
  1
document-No.
  7
CONVERTER_13
 73
     1
 44
1.32052821128451
  0
TEXT
  5
2EA
330
6D
100
AcDbEntity
  8
1
 62
     2
100
AcDbText
 10
-1017.34111128391
 20
-1274.474974475202
 30
0.0
 40
1.8
  1
of
 41
0.9
  7
CONVERTER_11
100
AcDbText
  0
TEXT
  5
2EB
330
6D
100
AcDbEntity
  8
1
 62
     2
100
AcDbText
 10
-1035.54111128391
 20
-1274.474974475202
 30
0.0
 40
1.8
  1
page
 41
0.9
  7
CONVERTER_11
100
AcDbText
  0
MTEXT
  5
2EC
330
6D
100
AcDbEntity
  8
1
 62
     2
100
AcDbMText
 10
-1043.29111128391
 20
-1274.465957260211
 30
0.0
 40
1.8
 41
0.0
 71
     8
 72
     1
  1
name
  7
CONVERTER_11
 73
     1
 44
1.32052821128451
  0
MTEXT
  5
2ED
330
6D
100
AcDbEntity
  8
1
 62
     2
100
AcDbMText
 10
-1056.79111128391
 20
-1274.465957260211
 30
0.0
 40
1.8
 41
0.0
 71
     8
 72
     1
  1
check.on
  7
CONVERTER_11
 73
     1
 44
1.32052821128451
  0
MTEXT
  5
2EE
330
6D
100
AcDbEntity
  8
1
 62
     2
100
AcDbMText
 10
-1070.29111128391
 20
-1274.465957260211
 30
0.0
 40
1.8
 41
0.0
 71
     8
 72
     1
  1
name
  7
CONVERTER_11
 73
     1
 44
1.32052821128451
  0
MTEXT
  5
2EF
330
6D
100
AcDbEntity
  8
1
 62
     2
100
AcDbMText
 10
-1146.04630675716
 20
-1274.465957260211
 30
0.0
 40
1.8
 41
0.0
 71
     8
 72
     1
  1
date
  7
CONVERTER_11
 73
     1
 44
1.32052821128451
  0
MTEXT
  5
2F0
330
6D
100
AcDbEntity
  8
1
 62
     2
100
AcDbMText
 10
-976.0159221263187
 20
-1246.965957260211
 30
0.0
 40
1.8
 41
0.0
 71
     1
 72
     1
  1
material
  7
CONVERTER_11
 73
     1
 44
1.20048019207683
  0
MTEXT
  5
2F1
330
6D
100
AcDbEntity
  8
1
 62
     2
100
AcDbMText
 10
-1155.896306757159
 20
-1274.465957260211
 30
0.0
 40
1.8
 41
0.0
 71
     8
 72
     1
  1
RI
  7
CONVERTER_11
 73
     1
 44
1.32052821128451
  0
MTEXT
  5
2F2
330
6D
100
AcDbEntity
  8
1
 62
     2
100
AcDbMText
 10
-1020.39111128391
 20
-1249.01595726021
 30
0.0
 40
1.8
 41
0.0
 71
     8
 72
     1
  1
date
  7
CONVERTER_11
 73
     1
 44
1.32052821128451
  0
MTEXT
  5
2F3
330
6D
100
AcDbEntity
  8
1
 62
     2
100
AcDbMText
 10
-1006.89111128391
 20
-1249.01595726021
 30
0.0
 40
1.8
 41
0.0
 71
     8
 72
     1
  1
name
  7
CONVERTER_11
 73
     1
 44
1.32052821128451
  0
MTEXT
  5
2F4
330
6D
100
AcDbEntity
  8
1
 62
     2
100
AcDbMText
 10
-1108.168709020535
 20
-1274.465957260211
 30
0.0
 40
1.8
 41
0.0
 71
     8
 72
     1
  1
revision
  7
CONVERTER_11
 73
     1
 44
1.32052821128451
  0
MTEXT
  5
2F5
330
6D
100
AcDbEntity
  8
1
 62
     2
100
AcDbMText
 10
-932.6963067571584
 20
-1246.965957260211
 30
0.0
 40
1.8
 41
0.0
 71
     1
 72
     1
  1
scale
  7
CONVERTER_11
 73
     1
 44
1.20048019207683
  0
MTEXT
  5
2F6
330
6D
100
AcDbEntity
  8
1
 62
     2
100
AcDbMText
 10
-1031.84111128391
 20
-1252.340957260211
 30
0.0
 40
1.8
 41
0.0
 71
     5
 72
     1
  1
creat.
  7
CONVERTER_11
 73
     1
 44
1.20048019207683
  0
MTEXT
  5
2F7
330
6D
100
AcDbEntity
  8
1
 62
     2
100
AcDbMText
 10
-1031.84111128391
 20
-1256.590957260211
 30
0.0
 40
1.8
 41
0.0
 71
     5
 72
     1
  1
check.
  7
CONVERTER_11
 73
     1
 44
1.20048019207683
  0
MTEXT
  5
2F8
330
6D
100
AcDbEntity
  8
1
 62
     3
100
AcDbMText
 10
-1010.34111128391
 20
-1260.84095726021
 30
0.0
 40
2.5
 41
0.0
 71
     5
 72
     1
  1
DIN A3
  7
CONVERTER_11
 73
     1
 44
1.20048019207683
  0
MTEXT
  5
2F9
330
6D
100
AcDbEntity
  8
1
 62
     2
100
AcDbMText
 10
-999.0411112839103
 20
-1246.965957260211
 30
0.0
 40
1.8
 41
0.0
 71
     1
 72
     1
  1
ident.-No. / RI
  7
CONVERTER_11
 73
     1
 44
1.20048019207683
  0
TEXT
  5
2FA
330
6D
100
AcDbEntity
  8
1
 62
     2
100
AcDbText
 10
-1026.894846313568
 20
-1274.515205914013
 30
0.0
 40
1.8
  1
 
 41
0.9
  7
CONVERTER_11
100
AcDbText
  0
TEXT
  5
2FB
330
6D
100
AcDbEntity
  8
1
 62
     2
100
AcDbText
 10
-1012.105802474097
 20
-1274.465957260211
 30
0.0
 40
1.8
  1
1
 41
0.9
  7
CONVERTER_11
100
AcDbText
  0
MTEXT
  5
2FC
330
6D
100
AcDbEntity
  8
1
 62
     2
100
AcDbMText
 10
-999.1411112839103
 20
-1268.215957260211
 30
0.0
 40
1.8
 41
0.0
 71
     1
 72
     1
  1
description
  7
CONVERTER_11
 73
     1
 44
1.20048019207683
  0
MTEXT
  5
2FD
330
6D
100
AcDbEntity
  8
1
 62
     2
100
AcDbMText
 10
-1031.84111128391
 20
-1249.01595726021
 30
0.0
 40
1.8
 41
0.0
 71
     8
 72
     1
  1
00
  7
CONVERTER_11
 73
     1
 44
1.20048019207683
  0
MTEXT
  5
2FE
330
6D
100
AcDbEntity
  8
1
 62
     2
100
AcDbMText
 10
-999.1411112839103
 20
-1259.715957260211
 30
0.0
 40
1.8
 41
0.0
 71
     1
 72
     1
  1
document-type
  7
CONVERTER_11
 73
     1
 44
1.20048019207683
  0
MTEXT
  5
2FF
330
6D
100
AcDbEntity
  8
1
 62
     2
100
AcDbMText
 10
-1006.89111128391
 20
-1256.590957260211
 30
0.0
 40
1.8
 41
0.0
 71
     5
 72
     1
  1
pbam06
  7
CONVERTER_11
 73
     1
 44
1.32052821128451
  0
MTEXT
  5
300
330
6D
100
AcDbEntity
  8
1
 62
     2
100
AcDbMText
 10
-1006.89111128391
 20
-1252.340957260211
 30
0.0
 40
1.8
 41
0.0
 71
     5
 72
     1
  1
pbfm09
  7
CONVERTER_11
 73
     1
 44
1.32052821128451
  0
MTEXT
  5
301
330
6D
100
AcDbEntity
  8
1
 62
     2
100
AcDbMText
 10
-1020.39111128391
 20
-1256.590957260211
 30
0.0
 40
1.8
 41
0.0
 71
     5
 72
     1
  1
29.02.12
  7
CONVERTER_11
 73
     1
 44
1.32052821128451
  0
MTEXT
  5
302
330
6D
100
AcDbEntity
  8
1
 62
     2
100
AcDbMText
 10
-1020.39111128391
 20
-1252.340957260211
 30
0.0
 40
1.8
 41
0.0
 71
     5
 72
     1
  1
09.12.11
  7
CONVERTER_11
 73
     1
 44
1.32052821128451
  0
TEXT
  5
303
330
6D
100
AcDbEntity
  8
1
 62
     7
100
AcDbText
 10
-984.1675635618965
 20
-1253.165957260211
 30
0.0
 40
2.5
  1
/
 41
0.9
  7
CONVERTER_11
100
AcDbText
  0
MTEXT
  5
305
330
6D
100
AcDbEntity
  8
1
 62
     3
100
AcDbMText
 10
-929.3371026163188
 20
-1253.165957260211
 30
0.0
 40
2.5
 41
0.0
 71
     8
 72
     1
  1
1:2
  7
CONVERTER_14
 73
     1
 44
1.32052821128451
  0
TEXT
  5
307
330
6D
100
AcDbEntity
  8
1
 62
     3
100
AcDbText
 10
-976.2411112839103
 20
-1253.165957260211
 30
0.0
 40
2.5
  1
 
 41
0.54
  7
CONVERTER_15
100
AcDbText
  0
TEXT
  5
309
330
6D
100
AcDbEntity
  8
1
 62
     7
100
AcDbText
 10
-998.6411112839105
 20
-1253.165957260211
 30
0.0
 40
2.5
  1
3240200
 41
0.81
  7
CONVERTER_16
100
AcDbText
  0
TEXT
  5
30A
330
6D
100
AcDbEntity
  8
1
 62
     7
100
AcDbText
 10
-969.4963067571562
 20
-1265.915957260211
 30
0.0
 40
2.5
  1
00630191
 41
0.81
  7
CONVERTER_16
100
AcDbText
  0
TEXT
  5
30B
330
6D
100
AcDbEntity
  8
1
 62
     3
100
AcDbText
 10
-923.8778984754794
 20
-1253.165957260211
 30
0.0
 40
2.5
  1
 
 41
0.54
  7
CONVERTER_15
100
AcDbText
  0
TEXT
  5
30C
330
6D
100
AcDbEntity
  8
1
 62
     7
100
AcDbText
 10
-982.0111990648545
 20
-1253.165957260211
 30
0.0
 40
2.5
  1
03
 41
0.81
  7
CONVERTER_16
100
AcDbText
  0
TEXT
  5
30D
330
6D
100
AcDbEntity
  8
1
 62
     7
100
AcDbText
 10
-942.3296400904919
 20
-1279.71595726021
 30
0.0
 40
2.5
  1
6
 41
0.9
  7
CONVERTER_11
100
AcDbText
  0
TEXT
  5
30E
330
6D
100
AcDbEntity
  8
1
 62
     7
100
AcDbText
 10
-1010.662973423825
 20
-1279.71595726021
 30
0.0
 40
2.5
  1
5
 41
0.9
  7
CONVERTER_11
100
AcDbText
  0
TEXT
  5
30F
330
6D
100
AcDbEntity
  8
1
 62
     7
100
AcDbText
 10
-1078.996306757158
 20
-1279.71595726021
 30
0.0
 40
2.5
  1
4
 41
0.9
  7
CONVERTER_11
100
AcDbText
  0
TEXT
  5
310
330
6D
100
AcDbEntity
  8
1
 62
     7
100
AcDbText
 10
-1147.329640090492
 20
-1279.71595726021
 30
0.0
 40
2.5
  1
3
 41
0.9
  7
CONVERTER_11
100
AcDbText
  0
TEXT
  5
311
330
6D
100
AcDbEntity
  8
1
 62
     7
100
AcDbText
 10
-905.9963067571584
 20
-1248.21595726021
 30
0.0
 40
2.5
  1
E
 41
0.9
  7
CONVERTER_11
100
AcDbText
  0
TEXT
  5
312
330
6D
100
AcDbEntity
  8
1
 62
     7
100
AcDbText
 10
-1283.996306757158
 20
-1279.71595726021
 30
0.0
 40
2.5
  1
1
 41
0.9
  7
CONVERTER_11
100
AcDbText
  0
TEXT
  5
313
330
6D
100
AcDbEntity
  8
1
 62
     7
100
AcDbText
 10
-1215.662973423825
 20
-1279.71595726021
 30
0.0
 40
2.5
  1
2
 41
0.9
  7
CONVERTER_11
100
AcDbText
  0
TEXT
  5
314
330
6D
100
AcDbEntity
  8
1
 62
     7
100
AcDbText
 10
-905.9963067571584
 20
-1190.81595726021
 30
0.0
 40
2.5
  1
D
 41
0.9
  7
CONVERTER_11
100
AcDbText
  0
TEXT
  5
315
330
6D
100
AcDbEntity
  8
1
 62
     7
100
AcDbText
 10
-905.9963067571584
 20
-1133.41595726021
 30
0.0
 40
2.5
  1
C
 41
0.9
  7
CONVERTER_11
100
AcDbText
  0
TEXT
  5
316
330
6D
100
AcDbEntity
  8
1
 62
     7
100
AcDbText
 10
-905.9963067571584
 20
-1076.01595726021
 30
0.0
 40
2.5
  1
B
 41
0.9
  7
CONVERTER_11
100
AcDbText
  0
TEXT
  5
317
330
6D
100
AcDbEntity
  8
1
 62
     7
100
AcDbText
 10
-905.9963067571584
 20
-1018.61595726021
 30
0.0
 40
2.5
  1
A
 41
0.9
  7
CONVERTER_11
100
AcDbText
  0
TEXT
  5
318
330
6D
100
AcDbEntity
  8
1
 62
     7
100
AcDbText
 10
-942.3296400904919
 20
-987.7159572602097
 30
0.0
 40
2.5
  1
6
 41
0.9
  7
CONVERTER_11
100
AcDbText
  0
TEXT
  5
319
330
6D
100
AcDbEntity
  8
1
 62
     7
100
AcDbText
 10
-1010.662973423825
 20
-987.7159572602097
 30
0.0
 40
2.5
  1
5
 41
0.9
  7
CONVERTER_11
100
AcDbText
  0
TEXT
  5
31A
330
6D
100
AcDbEntity
  8
1
 62
     7
100
AcDbText
 10
-1078.996306757158
 20
-987.7159572602097
 30
0.0
 40
2.5
  1
4
 41
0.9
  7
CONVERTER_11
100
AcDbText
  0
TEXT
  5
31B
330
6D
100
AcDbEntity
  8
1
 62
     7
100
AcDbText
 10
-1147.329640090492
 20
-987.7159572602097
 30
0.0
 40
2.5
  1
3
 41
0.9
  7
CONVERTER_11
100
AcDbText
  0
TEXT
  5
31C
330
6D
100
AcDbEntity
  8
1
 62
     7
100
AcDbText
 10
-1215.662973423825
 20
-987.7159572602097
 30
0.0
 40
2.5
  1
2
 41
0.9
  7
CONVERTER_11
100
AcDbText
  0
TEXT
  5
31D
330
6D
100
AcDbEntity
  8
1
 62
     7
100
AcDbText
 10
-1283.996306757158
 20
-987.7159572602097
 30
0.0
 40
2.5
  1
1
 41
0.9
  7
CONVERTER_11
100
AcDbText
  0
MTEXT
  5
31E
330
6D
100
AcDbEntity
  8
1
 62
     3
100
AcDbMText
 10
-1303.573633445805
 20
-1275.689043160709
 30
0.0
 40
1.8
 41
0.0
 71
     7
 72
     1
  3
Weitergabe sowie Vervielf\U+00e4ltigung dieses Dokuments, Verwertung und\PMitteilung seines Inhalts gem\U+00e4\U+00df \U+00a718 UWG verboten, soweit nicht aus-\Pdr\U+00fccklich gestattet. Zuwiderhandlungen verpflichten zu Schadenersatz\P(\U+00a719 U
  1
WG). Alle Rechte vorbehalten, insbesondere das Recht, Patent-,\PGebrauchsmuster- oder Geschmacksmusteranmeldungen durchzuf\U+00fchren.\PPhoenix Contact GmbH & Co. KG
  7
CONVERTER_11
 11
6.123233764940082E-17
 21
1.0
 31
0.0
 73
     1
 44
0.99639855942377
  0
MTEXT
  5
31F
330
6D
100
AcDbEntity
  8
1
 62
     3
100
AcDbMText
 10
-1303.727839756899
 20
-1102.729673146556
 30
0.0
 40
1.8
 41
0.0
 71
     7
 72
     1
  3
The copying, distribution and utilistion of this document as well as the communication\Pof the contents to others without expressed authorization is prohibited according to\P\U+00a718 UWG German Law. Offenders will be held liable for the payment of 
  1
damages\Paccording to (\U+00a719 UWG German Law). All rights reserved, in particular the right to\Pcarry out patent, utility model or ornamental design registrations.\PFlachsmarktstra\U+00dfe 8  D-32825 Blomberg
  7
CONVERTER_11
 11
6.123233764940082E-17
 21
1.0
 31
0.0
 73
     1
 44
0.99639855942377
  0
TEXT
  5
320
330
6D
100
AcDbEntity
  8
1
 62
     3
100
AcDbText
 10
-999.0411112839085
 20
-1236.671185686606
 30
0.0
 40
2.5
  1
 
 41
0.72
  7
CONVERTER_14
100
AcDbText
  0
TEXT
  5
321
330
6D
100
AcDbEntity
  8
1
 62
     3
100
AcDbText
 10
-999.0411112839085
 20
-1240.171185686606
 30
0.0
 40
2.5
  1
 
 41
0.72
  7
CONVERTER_14
100
AcDbText
  0
TEXT
  5
322
330
6D
100
AcDbEntity
  8
1
 62
     3
100
AcDbText
 10
-999.0411112839085
 20
-1243.671185686606
 30
0.0
 40
2.5
  1
 
 41
0.72
  7
CONVERTER_14
100
AcDbText
  0
TEXT
  5
324
330
6D
100
AcDbEntity
  8
1
 62
     3
100
AcDbText
 10
-999.1411112839103
 20
-1265.915957260211
 30
0.0
 40
2.5
  1
KUNDENZCHNG-SELECT
 41
0.45
  7
CONVERTER_17
100
AcDbText
  0
MTEXT
  5
325
330
6D
100
AcDbEntity
  8
1
 62
     3
100
AcDbMText
 10
-959.2892868705499
 20
-1255.365957260211
 30
0.0
 40
2.0
 41
0.0
 71
     1
 72
     1
  1
Deckelgeom. geaendert
  7
CONVERTER_14
 73
     1
 44
1.20048019207683
  0
MTEXT
  5
327
330
6D
100
AcDbEntity
  8
1
 62
     3
100
AcDbMText
 10
-989.8088744657954
 20
-1256.590957260211
 30
0.0
 40
2.5
 41
0.0
 71
     4
 72
     1
  1
A03-10025/14
  7
CONVERTER_18
 73
     1
 44
1.20048019207683
  0
MTEXT
  5
328
330
6D
100
AcDbEntity
  8
1
 62
     2
100
AcDbMText
 10
-999.0411112839103
 20
-1256.390957260211
 30
0.0
 40
1.4
 41
0.0
 71
     4
 72
     1
  1
SAP\Pchange-No.
  7
CONVERTER_18
 73
     1
 44
0.66026410564226
  0
MTEXT
  5
329
330
6D
100
AcDbEntity
  8
1
 62
     2
100
AcDbMText
 10
-969.4963067571579
 20
-1255.465957260211
 30
0.0
 40
1.8
 41
0.0
 71
     1
 72
     1
  1
part-rev.
  7
CONVERTER_14
 73
     1
 44
1.20048019207683
  0
TEXT
  5
32A
330
6D
100
AcDbEntity
  8
1
 62
     3
100
AcDbText
 10
-950.9963067571582
 20
-1265.915957260211
 30
0.0
 40
2.5
  1
 
 41
0.54
  7
CONVERTER_15
100
AcDbText
  0
MTEXT
  5
32B
330
6D
100
AcDbEntity
  8
1
 62
     7
100
AcDbMText
 10
-953.5687090205347
 20
-1272.46595726021
 30
0.0
 40
3.0
 41
0.0
 71
     5
 72
     1
  1
CD 80X80
  7
CONVERTER_16
 73
     1
 44
1.20048019207683
  0
HATCH
  5
32C
330
6D
100
AcDbEntity
  8
1
  6
Continuous
 62
     2
100
AcDbHatch
 10
0.0
 20
0.0
 30
0.0
210
0.0
220
0.0
230
1.0
  2
_USER
 70
     0
 71
     1
 91
        1
 92
        1
 93
       14
 72
     2
 10
-1023.265715188106
 20
-1268.604052498299
 40
0.9964100565220717
 50
164.9381082228755
 51
195.0618917771119
 73
     1
 72
     2
 10
-1022.919328540616
 20
-1268.510837323064
 40
1.355119937140738
 50
195.0618917770924
 51
275.1581447696384
 73
     1
 72
     2
 10
-1023.158052585853
 20
-1265.86629965098
 40
4.010410630990495
 50
275.1581447696356
 51
285.9799912583509
 73
     1
 72
     1
 10
-1022.053979927078
 20
-1269.72173957313
 11
-1022.053979927078
 21
-1269.000651137755
 72
     2
 10
-1023.027579135363
 20
-1267.438377816143
 40
1.840813230556274
 50
58.0690910500515
 51
71.55192388186957
 73
     0
 72
     2
 10
-1022.681985967048
 20
-1268.474366060802
 40
0.7487023016409456
 50
71.55192388186332
 51
113.3722778881294
 73
     0
 72
     2
 10
-1022.811275250273
 20
-1268.773533018414
 40
0.4227934381769817
 50
113.3722778881824
 51
151.4785267423156
 73
     0
 72
     2
 10
-1022.499409747727
 20
-1268.604052498299
 40
0.7777353184569956
 50
151.4785267422868
 51
208.5214732577279
 73
     0
 72
     2
 10
-1022.811275250273
 20
-1268.434571978185
 40
0.4227934381779176
 50
208.5214732577928
 51
246.6277221118054
 73
     0
 72
     2
 10
-1022.681985967048
 20
-1268.733738935797
 40
0.7487023016412677
 50
246.6277221118637
 51
288.4480761181147
 73
     0
 72
     2
 10
-1023.027579135363
 20
-1269.769727180455
 40
1.840813230556925
 50
288.4480761181304
 51
301.9309089499522
 73
     0
 72
     1
 10
-1022.053979927078
 20
-1268.207453858843
 11
-1022.053979927078
 21
-1267.486365423469
 72
     2
 10
-1023.158052585853
 20
-1271.341805345618
 40
4.010410630989779
 50
74.02000874164553
 51
84.84185523036439
 73
     1
 72
     2
 10
-1022.919328540616
 20
-1268.697267673535
 40
1.355119937141545
 50
84.84185523036508
 51
164.9381082228705
 73
     1
 97
       14
330
2BD
330
139
330
28C
330
2BC
330
28D
330
28E
330
2BB
330
2BA
330
2B9
330
13A
330
28F
330
290
330
291
330
292
 75
     1
 76
     0
 52
45.0
 41
0.1
 77
     0
 78
     1
 53
45.0
 43
0.0
 44
0.0
 45
-0.0707106781186548
 46
0.0707106781186548
 79
     0
 98
        1
 10
0.0
 20
0.0
  0
HATCH
  5
32D
330
6D
100
AcDbEntity
  8
1
  6
Continuous
 62
     2
100
AcDbHatch
 10
0.0
 20
0.0
 30
0.0
210
0.0
220
0.0
230
1.0
  2
_USER
 70
     0
 71
     1
 91
        1
 92
        1
 93
       14
 72
     2
 10
-1023.265715188106
 20
-1268.604052498299
 40
0.9964100565220717
 50
164.9381082228755
 51
195.0618917771119
 73
     1
 72
     2
 10
-1022.919328540616
 20
-1268.510837323064
 40
1.355119937140738
 50
195.0618917770924
 51
275.1581447696384
 73
     1
 72
     2
 10
-1023.158052585853
 20
-1265.86629965098
 40
4.010410630990495
 50
275.1581447696356
 51
285.9799912583509
 73
     1
 72
     1
 10
-1022.053979927078
 20
-1269.72173957313
 11
-1022.053979927078
 21
-1269.000651137755
 72
     2
 10
-1023.027579135363
 20
-1267.438377816143
 40
1.840813230556274
 50
58.0690910500515
 51
71.55192388186957
 73
     0
 72
     2
 10
-1022.681985967048
 20
-1268.474366060802
 40
0.7487023016409456
 50
71.55192388186332
 51
113.3722778881294
 73
     0
 72
     2
 10
-1022.811275250273
 20
-1268.773533018414
 40
0.4227934381769817
 50
113.3722778881824
 51
151.4785267423156
 73
     0
 72
     2
 10
-1022.499409747727
 20
-1268.604052498299
 40
0.7777353184569956
 50
151.4785267422868
 51
208.5214732577279
 73
     0
 72
     2
 10
-1022.811275250273
 20
-1268.434571978185
 40
0.4227934381779176
 50
208.5214732577928
 51
246.6277221118054
 73
     0
 72
     2
 10
-1022.681985967048
 20
-1268.733738935797
 40
0.7487023016412677
 50
246.6277221118637
 51
288.4480761181147
 73
     0
 72
     2
 10
-1023.027579135363
 20
-1269.769727180455
 40
1.840813230556925
 50
288.4480761181304
 51
301.9309089499522
 73
     0
 72
     1
 10
-1022.053979927078
 20
-1268.207453858843
 11
-1022.053979927078
 21
-1267.486365423469
 72
     2
 10
-1023.158052585853
 20
-1271.341805345618
 40
4.010410630989779
 50
74.02000874164553
 51
84.84185523036439
 73
     1
 72
     2
 10
-1022.919328540616
 20
-1268.697267673535
 40
1.355119937141545
 50
84.84185523036508
 51
164.9381082228705
 73
     1
 97
       14
330
2BD
330
139
330
28C
330
2BC
330
28D
330
28E
330
2BB
330
2BA
330
2B9
330
13A
330
28F
330
290
330
291
330
292
 75
     1
 76
     0
 52
45.0
 41
0.1
 77
     0
 78
     1
 53
45.0
 43
0.0
 44
0.0
 45
-0.0707106781186548
 46
0.0707106781186548
 79
     0
 98
        1
 10
0.0
 20
0.0
  0
HATCH
  5
32E
330
6D
100
AcDbEntity
  8
1
  6
Continuous
 62
     2
100
AcDbHatch
 10
0.0
 20
0.0
 30
0.0
210
0.0
220
0.0
230
1.0
  2
_USER
 70
     0
 71
     1
 91
        1
 92
        1
 93
       18
 72
     2
 10
-1009.611310789168
 20
-1268.697267673535
 40
1.355119937140898
 50
90.0
 51
164.9381082228705
 73
     1
 72
     2
 10
-1009.957697436657
 20
-1268.604052498299
 40
0.9964100565230597
 50
164.9381082228908
 51
195.0618917770966
 73
     1
 72
     2
 10
-1009.611310789168
 20
-1268.510837323064
 40
1.355119937140738
 50
195.0618917770924
 51
275.1581447696732
 73
     1
 72
     2
 10
-1009.850034834404
 20
-1265.86629965098
 40
4.010410630991391
 50
275.1581447696328
 51
285.9799912583368
 73
     1
 72
     1
 10
-1008.74596217563
 20
-1269.72173957313
 11
-1008.74596217563
 21
-1269.000651137755
 72
     2
 10
-1009.719561383914
 20
-1267.438377816144
 40
1.840813230556238
 50
58.06909105005979
 51
71.55192388187292
 73
     0
 72
     2
 10
-1009.373968215598
 20
-1268.474366060802
 40
0.7487023016413514
 50
71.55192388197338
 51
113.3722778882013
 73
     0
 72
     2
 10
-1009.503257498824
 20
-1268.773533018414
 40
0.4227934381782151
 50
113.3722778881683
 51
151.4785267422661
 73
     0
 72
     2
 10
-1009.191391996277
 20
-1268.604052498299
 40
0.7777353184581508
 50
151.4785267422959
 51
208.5214732575863
 73
     0
 72
     2
 10
-1009.503257498824
 20
-1268.434571978185
 40
0.4227934381779216
 50
208.5214732575985
 51
250.6628567805144
 73
     0
 72
     2
 10
-1009.382042624358
 20
-1268.779989317344
 40
0.788861989113002
 50
250.6628567805425
 51
270.0
 73
     0
 72
     1
 10
-1009.382042624358
 20
-1267.991127328231
 11
-1008.469944029674
 21
-1267.991127328231
 72
     1
 10
-1008.469944029674
 20
-1267.991127328231
 11
-1008.469944029674
 21
-1269.865957260205
 72
     1
 10
-1008.469944029674
 20
-1269.865957260205
 11
-1007.484164936973
 21
-1269.865957260205
 72
     1
 10
-1007.484164936973
 20
-1269.865957260205
 11
-1007.484164936973
 21
-1267.991127328231
 72
     1
 10
-1007.484164936973
 20
-1267.991127328231
 11
-1006.813835153937
 21
-1267.991127328231
 72
     1
 10
-1006.813835153937
 20
-1267.991127328231
 11
-1006.813835153937
 21
-1267.342147736394
 72
     1
 10
-1006.813835153937
 20
-1267.342147736394
 11
-1009.611310789168
 21
-1267.342147736394
 97
       18
330
19F
330
19E
330
19D
330
19C
330
1A1
330
13B
330
2B6
330
297
330
2B5
330
298
330
2B4
330
2B3
330
13C
330
2B2
330
2B1
330
299
330
29A
330
1A0
 75
     1
 76
     0
 52
45.0
 41
0.1
 77
     0
 78
     1
 53
45.0
 43
0.0
 44
0.0
 45
-0.0707106781186548
 46
0.0707106781186548
 79
     0
 98
        1
 10
0.0
 20
0.0
  0
HATCH
  5
32F
330
6D
100
AcDbEntity
  8
1
  6
Continuous
 62
     2
100
AcDbHatch
 10
0.0
 20
0.0
 30
0.0
210
0.0
220
0.0
230
1.0
  2
_USER
 70
     0
 71
     1
 91
        1
 92
        1
 93
       18
 72
     2
 10
-1009.611310789168
 20
-1268.697267673535
 40
1.355119937140898
 50
90.0
 51
164.9381082228705
 73
     1
 72
     2
 10
-1009.957697436657
 20
-1268.604052498299
 40
0.9964100565230597
 50
164.9381082228908
 51
195.0618917770966
 73
     1
 72
     2
 10
-1009.611310789168
 20
-1268.510837323064
 40
1.355119937140738
 50
195.0618917770924
 51
275.1581447696732
 73
     1
 72
     2
 10
-1009.850034834404
 20
-1265.86629965098
 40
4.010410630991391
 50
275.1581447696328
 51
285.9799912583368
 73
     1
 72
     1
 10
-1008.74596217563
 20
-1269.72173957313
 11
-1008.74596217563
 21
-1269.000651137755
 72
     2
 10
-1009.719561383914
 20
-1267.438377816144
 40
1.840813230556238
 50
58.06909105005979
 51
71.55192388187292
 73
     0
 72
     2
 10
-1009.373968215598
 20
-1268.474366060802
 40
0.7487023016413514
 50
71.55192388197338
 51
113.3722778882013
 73
     0
 72
     2
 10
-1009.503257498824
 20
-1268.773533018414
 40
0.4227934381782151
 50
113.3722778881683
 51
151.4785267422661
 73
     0
 72
     2
 10
-1009.191391996277
 20
-1268.604052498299
 40
0.7777353184581508
 50
151.4785267422959
 51
208.5214732575863
 73
     0
 72
     2
 10
-1009.503257498824
 20
-1268.434571978185
 40
0.4227934381779216
 50
208.5214732575985
 51
250.6628567805144
 73
     0
 72
     2
 10
-1009.382042624358
 20
-1268.779989317344
 40
0.788861989113002
 50
250.6628567805425
 51
270.0
 73
     0
 72
     1
 10
-1009.382042624358
 20
-1267.991127328231
 11
-1008.469944029674
 21
-1267.991127328231
 72
     1
 10
-1008.469944029674
 20
-1267.991127328231
 11
-1008.469944029674
 21
-1269.865957260205
 72
     1
 10
-1008.469944029674
 20
-1269.865957260205
 11
-1007.484164936973
 21
-1269.865957260205
 72
     1
 10
-1007.484164936973
 20
-1269.865957260205
 11
-1007.484164936973
 21
-1267.991127328231
 72
     1
 10
-1007.484164936973
 20
-1267.991127328231
 11
-1006.813835153937
 21
-1267.991127328231
 72
     1
 10
-1006.813835153937
 20
-1267.991127328231
 11
-1006.813835153937
 21
-1267.342147736394
 72
     1
 10
-1006.813835153937
 20
-1267.342147736394
 11
-1009.611310789168
 21
-1267.342147736394
 97
       18
330
19F
330
19E
330
19D
330
19C
330
1A1
330
13B
330
2B6
330
297
330
2B5
330
298
330
2B4
330
2B3
330
13C
330
2B2
330
2B1
330
299
330
29A
330
1A0
 75
     1
 76
     0
 52
45.0
 41
0.1
 77
     0
 78
     1
 53
45.0
 43
0.0
 44
0.0
 45
-0.0707106781186548
 46
0.0707106781186548
 79
     0
 98
        1
 10
0.0
 20
0.0
  0
HATCH
  5
330
330
6D
100
AcDbEntity
  8
1
  6
Continuous
 62
     2
100
AcDbHatch
 10
0.0
 20
0.0
 30
0.0
210
0.0
220
0.0
230
1.0
  2
_USER
 70
     0
 71
     1
 91
        4
 92
        1
 93
        8
 72
     2
 10
-1029.530450538501
 20
-1264.916572644846
 40
0.3506153846140023
 50
90.0
 51
180.0
 73
     1
 72
     1
 10
-1029.881065923115
 20
-1264.916572644846
 11
-1029.881065923115
 21
-1269.51534187559
 72
     2
 10
-1029.530450538501
 20
-1269.51534187559
 40
0.3506153846140023
 50
180.0
 51
270.0
 73
     1
 72
     1
 10
-1029.530450538501
 20
-1269.865957260205
 11
-1025.007052116421
 21
-1269.865957260205
 72
     2
 10
-1025.007052116421
 20
-1269.51534187559
 40
0.3506153846151392
 50
270.0
 51
360.0
 73
     1
 72
     1
 10
-1024.656436731806
 20
-1269.51534187559
 11
-1024.656436731806
 21
-1264.916572644846
 72
     2
 10
-1025.007052116421
 20
-1264.916572644846
 40
0.3506153846149118
 50
0.0
 51
90.0
 73
     1
 72
     1
 10
-1025.007052116421
 20
-1264.565957260232
 11
-1029.530450538501
 21
-1264.565957260232
 97
        8
330
2AA
330
16A
330
2A9
330
16B
330
2A0
330
168
330
2AB
330
169
 92
       16
 93
        1
 72
     2
 10
-1027.365503719891
 20
-1266.833004238529
 40
0.3892387874200267
 50
0.0
 51
360.0
 73
     1
 97
        1
330
2BE
 92
       16
 93
        8
 72
     2
 10
-1027.345821889583
 20
-1266.833004238529
 40
0.7535935125157093
 50
295.3740086782016
 51
424.625991321828
 73
     1
 72
     2
 10
-1026.911075858106
 20
-1265.916358288142
 40
0.2609230769219266
 50
115.3740086782752
 51
180.0
 73
     0
 72
     1
 10
-1027.171998935028
 20
-1265.916358288142
 11
-1027.171998935028
 21
-1265.415915900946
 72
     2
 10
-1026.911075858106
 20
-1265.415915900946
 40
0.2609230769216705
 50
180.0
 51
269.8110329575458
 73
     0
 72
     2
 10
-1026.906434423965
 20
-1266.823217510507
 40
1.668232340440956
 50
269.8110329575861
 51
450.1889670424137
 73
     0
 72
     2
 10
-1026.911075858106
 20
-1268.230519120069
 40
0.2609230769219266
 50
90.18896704245405
 51
180.0
 73
     0
 72
     1
 10
-1027.171998935028
 20
-1268.230519120069
 11
-1027.171998935028
 21
-1267.749650188916
 72
     2
 10
-1026.911075858106
 20
-1267.749650188916
 40
0.260923076922766
 50
180.0
 51
244.6259913218103
 73
     0
 97
        8
330
2B8
330
294
330
1A3
330
2B7
330
295
330
296
330
1A2
330
293
 92
       16
 93
       12
 72
     1
 10
-1029.039628491603
 20
-1269.277068371315
 11
-1027.819931581678
 21
-1269.277068371315
 72
     2
 10
-1027.819931581678
 20
-1269.016145294392
 40
0.2609230769230635
 50
270.0
 51
360.0
 73
     1
 72
     1
 10
-1027.559008504755
 20
-1269.016145294392
 11
-1027.559008504755
 21
-1267.751045350977
 72
     2
 10
-1027.819931581678
 20
-1267.751045350977
 40
0.2609230769230635
 50
0.0
 51
64.80558935130043
 73
     1
 72
     2
 10
-1027.388043608475
 20
-1266.833004238529
 40
0.7536343169902635
 50
115.1944106485087
 51
244.8055893515134
 73
     0
 72
     2
 10
-1027.819931581678
 20
-1265.914963126081
 40
0.260923076922041
 50
295.1944106487633
 51
360.0
 73
     1
 72
     1
 10
-1027.559008504755
 20
-1265.914963126081
 11
-1027.559008504755
 21
-1265.41576922603
 72
     2
 10
-1027.819931581678
 20
-1265.41576922603
 40
0.2609230769230635
 50
0.0
 51
90.0
 73
     1
 72
     1
 10
-1027.819931581678
 20
-1265.154846149108
 11
-1029.039628491603
 21
-1265.154846149108
 72
     2
 10
-1029.039628491603
 20
-1265.41576922603
 40
0.260923076922154
 50
90.0
 51
180.0
 73
     1
 72
     1
 10
-1029.300551568525
 20
-1265.41576922603
 11
-1029.300551568525
 21
-1269.016145294392
 72
     2
 10
-1029.039628491603
 20
-1269.016145294392
 40
0.2609230769219266
 50
180.0
 51
270.0
 73
     1
 97
       12
330
16F
330
29D
330
16E
330
2AE
330
16D
330
2AD
330
29E
330
29F
330
16C
330
2AC
330
167
330
2AF
 75
     1
 76
     0
 52
45.0
 41
0.1
 77
     0
 78
     1
 53
45.0
 43
0.0
 44
0.0
 45
-0.0707106781186548
 46
0.0707106781186548
 79
     0
 98
        1
 10
0.0
 20
0.0
  0
HATCH
  5
331
330
6D
100
AcDbEntity
  8
1
  6
Continuous
 62
     2
100
AcDbHatch
 10
0.0
 20
0.0
 30
0.0
210
0.0
220
0.0
230
1.0
  2
_USER
 70
     0
 71
     1
 91
        4
 92
        1
 93
        8
 72
     2
 10
-1029.530450538501
 20
-1264.916572644846
 40
0.3506153846140023
 50
90.0
 51
180.0
 73
     1
 72
     1
 10
-1029.881065923115
 20
-1264.916572644846
 11
-1029.881065923115
 21
-1269.51534187559
 72
     2
 10
-1029.530450538501
 20
-1269.51534187559
 40
0.3506153846140023
 50
180.0
 51
270.0
 73
     1
 72
     1
 10
-1029.530450538501
 20
-1269.865957260205
 11
-1025.007052116421
 21
-1269.865957260205
 72
     2
 10
-1025.007052116421
 20
-1269.51534187559
 40
0.3506153846151392
 50
270.0
 51
360.0
 73
     1
 72
     1
 10
-1024.656436731806
 20
-1269.51534187559
 11
-1024.656436731806
 21
-1264.916572644846
 72
     2
 10
-1025.007052116421
 20
-1264.916572644846
 40
0.3506153846149118
 50
0.0
 51
90.0
 73
     1
 72
     1
 10
-1025.007052116421
 20
-1264.565957260232
 11
-1029.530450538501
 21
-1264.565957260232
 97
        8
330
2AA
330
16A
330
2A9
330
16B
330
2A0
330
168
330
2AB
330
169
 92
       16
 93
        1
 72
     2
 10
-1027.365503719891
 20
-1266.833004238529
 40
0.3892387874200267
 50
0.0
 51
360.0
 73
     1
 97
        1
330
2BE
 92
       16
 93
        8
 72
     2
 10
-1027.345821889583
 20
-1266.833004238529
 40
0.7535935125157093
 50
295.3740086782016
 51
424.625991321828
 73
     1
 72
     2
 10
-1026.911075858106
 20
-1265.916358288142
 40
0.2609230769219266
 50
115.3740086782752
 51
180.0
 73
     0
 72
     1
 10
-1027.171998935028
 20
-1265.916358288142
 11
-1027.171998935028
 21
-1265.415915900946
 72
     2
 10
-1026.911075858106
 20
-1265.415915900946
 40
0.2609230769216705
 50
180.0
 51
269.8110329575458
 73
     0
 72
     2
 10
-1026.906434423965
 20
-1266.823217510507
 40
1.668232340440956
 50
269.8110329575861
 51
450.1889670424137
 73
     0
 72
     2
 10
-1026.911075858106
 20
-1268.230519120069
 40
0.2609230769219266
 50
90.18896704245405
 51
180.0
 73
     0
 72
     1
 10
-1027.171998935028
 20
-1268.230519120069
 11
-1027.171998935028
 21
-1267.749650188916
 72
     2
 10
-1026.911075858106
 20
-1267.749650188916
 40
0.260923076922766
 50
180.0
 51
244.6259913218103
 73
     0
 97
        8
330
2B8
330
294
330
1A3
330
2B7
330
295
330
296
330
1A2
330
293
 92
       16
 93
       12
 72
     1
 10
-1029.039628491603
 20
-1269.277068371315
 11
-1027.819931581678
 21
-1269.277068371315
 72
     2
 10
-1027.819931581678
 20
-1269.016145294392
 40
0.2609230769230635
 50
270.0
 51
360.0
 73
     1
 72
     1
 10
-1027.559008504755
 20
-1269.016145294392
 11
-1027.559008504755
 21
-1267.751045350977
 72
     2
 10
-1027.819931581678
 20
-1267.751045350977
 40
0.2609230769230635
 50
0.0
 51
64.80558935130043
 73
     1
 72
     2
 10
-1027.388043608475
 20
-1266.833004238529
 40
0.7536343169902635
 50
115.1944106485087
 51
244.8055893515134
 73
     0
 72
     2
 10
-1027.819931581678
 20
-1265.914963126081
 40
0.260923076922041
 50
295.1944106487633
 51
360.0
 73
     1
 72
     1
 10
-1027.559008504755
 20
-1265.914963126081
 11
-1027.559008504755
 21
-1265.41576922603
 72
     2
 10
-1027.819931581678
 20
-1265.41576922603
 40
0.2609230769230635
 50
0.0
 51
90.0
 73
     1
 72
     1
 10
-1027.819931581678
 20
-1265.154846149108
 11
-1029.039628491603
 21
-1265.154846149108
 72
     2
 10
-1029.039628491603
 20
-1265.41576922603
 40
0.260923076922154
 50
90.0
 51
180.0
 73
     1
 72
     1
 10
-1029.300551568525
 20
-1265.41576922603
 11
-1029.300551568525
 21
-1269.016145294392
 72
     2
 10
-1029.039628491603
 20
-1269.016145294392
 40
0.2609230769219266
 50
180.0
 51
270.0
 73
     1
 97
       12
330
16F
330
29D
330
16E
330
2AE
330
16D
330
2AD
330
29E
330
29F
330
16C
330
2AC
330
167
330
2AF
 75
     1
 76
     0
 52
45.0
 41
0.1
 77
     0
 78
     1
 53
45.0
 43
0.0
 44
0.0
 45
-0.0707106781186548
 46
0.0707106781186548
 79
     0
 98
        1
 10
0.0
 20
0.0
  0
HATCH
  5
332
330
6D
100
AcDbEntity
  8
1
  6
Continuous
 62
     2
100
AcDbHatch
 10
0.0
 20
0.0
 30
0.0
210
0.0
220
0.0
230
1.0
  2
_USER
 70
     0
 71
     1
 91
        2
 92
        1
 93
       12
 72
     2
 10
-1017.40221582446
 20
-1265.827862022122
 40
1.261904761905043
 50
90.0
 51
270.0
 73
     1
 72
     1
 10
-1017.40221582446
 20
-1267.089766784028
 11
-1014.798645804806
 21
-1267.089766784028
 72
     1
 10
-1014.798645804806
 20
-1267.089766784028
 11
-1014.798645804806
 21
-1266.512896035728
 72
     1
 10
-1014.798645804806
 20
-1266.512896035728
 11
-1015.902718388631
 21
-1266.512896035728
 72
     1
 10
-1015.902718388631
 20
-1266.512896035728
 11
-1015.902718388631
 21
-1266.116297396272
 72
     1
 10
-1015.902718388631
 20
-1266.116297396272
 11
-1014.798645804806
 21
-1266.116297396272
 72
     1
 10
-1014.798645804806
 20
-1266.116297396272
 11
-1014.798645804806
 21
-1265.539426647973
 72
     1
 10
-1014.798645804806
 20
-1265.539426647973
 11
-1015.902718388631
 21
-1265.539426647973
 72
     1
 10
-1015.902718388631
 20
-1265.539426647973
 11
-1015.902718388631
 21
-1265.142828008517
 72
     1
 10
-1015.902718388631
 20
-1265.142828008517
 11
-1014.798645804806
 21
-1265.142828008517
 72
     1
 10
-1014.798645804806
 20
-1265.142828008517
 11
-1014.798645804806
 21
-1264.565957260217
 72
     1
 10
-1014.798645804806
 20
-1264.565957260217
 11
-1017.40221582446
 21
-1264.565957260217
 97
       12
330
15E
330
158
330
17F
330
17E
330
17D
330
17C
330
159
330
15A
330
15B
330
15C
330
29B
330
15D
 92
       16
 93
        4
 72
     2
 10
-1017.058404215773
 20
-1265.827862022122
 40
0.6378510567598716
 50
141.8795802028229
 51
218.1204197971771
 73
     1
 72
     2
 10
-1017.223478625976
 20
-1265.957391921395
 40
0.4280236140610272
 50
218.1204197971539
 51
321.8795802027615
 73
     1
 72
     2
 10
-1017.38855303618
 20
-1265.827862022122
 40
0.6378510567598716
 50
321.8795802028229
 51
398.1204197971771
 73
     1
 72
     2
 10
-1017.223478625976
 20
-1265.698332122849
 40
0.4280236140602223
 50
38.12041979723848
 51
141.8795802028461
 73
     1
 97
        4
330
2A8
330
2A7
330
2A2
330
2A1
 75
     1
 76
     0
 52
45.0
 41
0.1
 77
     0
 78
     1
 53
45.0
 43
0.0
 44
0.0
 45
-0.0707106781186548
 46
0.0707106781186548
 79
     0
 98
        1
 10
0.0
 20
0.0
  0
HATCH
  5
333
330
6D
100
AcDbEntity
  8
1
  6
Continuous
 62
     2
100
AcDbHatch
 10
0.0
 20
0.0
 30
0.0
210
0.0
220
0.0
230
1.0
  2
_USER
 70
     0
 71
     1
 91
        2
 92
        1
 93
       12
 72
     2
 10
-1017.40221582446
 20
-1265.827862022122
 40
1.261904761905043
 50
90.0
 51
270.0
 73
     1
 72
     1
 10
-1017.40221582446
 20
-1267.089766784028
 11
-1014.798645804806
 21
-1267.089766784028
 72
     1
 10
-1014.798645804806
 20
-1267.089766784028
 11
-1014.798645804806
 21
-1266.512896035728
 72
     1
 10
-1014.798645804806
 20
-1266.512896035728
 11
-1015.902718388631
 21
-1266.512896035728
 72
     1
 10
-1015.902718388631
 20
-1266.512896035728
 11
-1015.902718388631
 21
-1266.116297396272
 72
     1
 10
-1015.902718388631
 20
-1266.116297396272
 11
-1014.798645804806
 21
-1266.116297396272
 72
     1
 10
-1014.798645804806
 20
-1266.116297396272
 11
-1014.798645804806
 21
-1265.539426647973
 72
     1
 10
-1014.798645804806
 20
-1265.539426647973
 11
-1015.902718388631
 21
-1265.539426647973
 72
     1
 10
-1015.902718388631
 20
-1265.539426647973
 11
-1015.902718388631
 21
-1265.142828008517
 72
     1
 10
-1015.902718388631
 20
-1265.142828008517
 11
-1014.798645804806
 21
-1265.142828008517
 72
     1
 10
-1014.798645804806
 20
-1265.142828008517
 11
-1014.798645804806
 21
-1264.565957260217
 72
     1
 10
-1014.798645804806
 20
-1264.565957260217
 11
-1017.40221582446
 21
-1264.565957260217
 97
       12
330
15E
330
158
330
17F
330
17E
330
17D
330
17C
330
159
330
15A
330
15B
330
15C
330
29B
330
15D
 92
       16
 93
        4
 72
     2
 10
-1017.058404215773
 20
-1265.827862022122
 40
0.6378510567598716
 50
141.8795802028229
 51
218.1204197971771
 73
     1
 72
     2
 10
-1017.223478625976
 20
-1265.957391921395
 40
0.4280236140610272
 50
218.1204197971539
 51
321.8795802027615
 73
     1
 72
     2
 10
-1017.38855303618
 20
-1265.827862022122
 40
0.6378510567598716
 50
321.8795802028229
 51
398.1204197971771
 73
     1
 72
     2
 10
-1017.223478625976
 20
-1265.698332122849
 40
0.4280236140602223
 50
38.12041979723848
 51
141.8795802028461
 73
     1
 97
        4
330
2A8
330
2A7
330
2A2
330
2A1
 75
     1
 76
     0
 52
45.0
 41
0.1
 77
     0
 78
     1
 53
45.0
 43
0.0
 44
0.0
 45
-0.0707106781186548
 46
0.0707106781186548
 79
     0
 98
        1
 10
0.0
 20
0.0
  0
HATCH
  5
334
330
6D
100
AcDbEntity
  8
1
  6
Continuous
 62
     2
100
AcDbHatch
 10
0.0
 20
0.0
 30
0.0
210
0.0
220
0.0
230
1.0
  2
_USER
 70
     0
 71
     1
 91
        2
 92
        1
 93
        4
 72
     2
 10
-1020.72917066947
 20
-1268.604052498299
 40
1.20498684599266
 50
117.5481481756413
 51
242.4518518243737
 73
     1
 72
     2
 10
-1020.496988940682
 20
-1268.158949183999
 40
1.70700807620557
 50
242.4518518243552
 51
297.5481481757022
 73
     1
 72
     2
 10
-1020.264807211894
 20
-1268.604052498299
 40
1.204986845994211
 50
297.5481481757126
 51
422.4518518242724
 73
     1
 72
     2
 10
-1020.496988940682
 20
-1269.049155812599
 40
1.707008076205859
 50
62.45185182428713
 51
117.5481481756554
 73
     1
 97
        4
330
2A6
330
2A3
330
2A5
330
2A4
 92
       16
 93
        4
 72
     2
 10
-1020.496988940682
 20
-1268.474522599026
 40
0.4280236140603254
 50
38.1204197970342
 51
141.8795802029752
 73
     1
 72
     2
 10
-1020.331914530478
 20
-1268.604052498299
 40
0.6378510567601151
 50
141.8795802029439
 51
218.1204197971204
 73
     1
 72
     2
 10
-1020.496988940682
 20
-1268.733582397572
 40
0.4280236140611167
 50
218.1204197971445
 51
321.8795802028461
 73
     1
 72
     2
 10
-1020.662063350885
 20
-1268.604052498299
 40
0.6378510567598716
 50
321.8795802028229
 51
398.1204197971128
 73
     1
 97
        4
330
289
330
28A
330
28B
330
288
 75
     1
 76
     0
 52
45.0
 41
0.1
 77
     0
 78
     1
 53
45.0
 43
0.0
 44
0.0
 45
-0.0707106781186548
 46
0.0707106781186548
 79
     0
 98
        1
 10
0.0
 20
0.0
  0
HATCH
  5
335
330
6D
100
AcDbEntity
  8
1
  6
Continuous
 62
     2
100
AcDbHatch
 10
0.0
 20
0.0
 30
0.0
210
0.0
220
0.0
230
1.0
  2
_USER
 70
     0
 71
     1
 91
        2
 92
        1
 93
        4
 72
     2
 10
-1020.72917066947
 20
-1268.604052498299
 40
1.20498684599266
 50
117.5481481756413
 51
242.4518518243737
 73
     1
 72
     2
 10
-1020.496988940682
 20
-1268.158949183999
 40
1.70700807620557
 50
242.4518518243552
 51
297.5481481757022
 73
     1
 72
     2
 10
-1020.264807211894
 20
-1268.604052498299
 40
1.204986845994211
 50
297.5481481757126
 51
422.4518518242724
 73
     1
 72
     2
 10
-1020.496988940682
 20
-1269.049155812599
 40
1.707008076205859
 50
62.45185182428713
 51
117.5481481756554
 73
     1
 97
        4
330
2A6
330
2A3
330
2A5
330
2A4
 92
       16
 93
        4
 72
     2
 10
-1020.496988940682
 20
-1268.474522599026
 40
0.4280236140603254
 50
38.1204197970342
 51
141.8795802029752
 73
     1
 72
     2
 10
-1020.331914530478
 20
-1268.604052498299
 40
0.6378510567601151
 50
141.8795802029439
 51
218.1204197971204
 73
     1
 72
     2
 10
-1020.496988940682
 20
-1268.733582397572
 40
0.4280236140611167
 50
218.1204197971445
 51
321.8795802028461
 73
     1
 72
     2
 10
-1020.662063350885
 20
-1268.604052498299
 40
0.6378510567598716
 50
321.8795802028229
 51
398.1204197971128
 73
     1
 97
        4
330
289
330
28A
330
28B
330
288
 75
     1
 76
     0
 52
45.0
 41
0.1
 77
     0
 78
     1
 53
45.0
 43
0.0
 44
0.0
 45
-0.0707106781186548
 46
0.0707106781186548
 79
     0
 98
        1
 10
0.0
 20
0.0
  0
HATCH
  5
336
330
6D
100
AcDbEntity
  8
1
  6
Continuous
 62
     2
100
AcDbHatch
 10
0.0
 20
0.0
 30
0.0
210
0.0
220
0.0
230
1.0
  2
_USER
 70
     0
 71
     1
 91
        2
 92
        1
 93
        6
 72
     1
 10
-1024.262125094726
 20
-1264.565957260217
 11
-1024.262125094726
 21
-1267.089766784028
 72
     1
 10
-1024.262125094726
 20
-1267.089766784028
 11
-1023.236914838318
 21
-1267.089766784028
 72
     1
 10
-1023.236914838318
 20
-1267.089766784028
 11
-1023.236914838318
 21
-1266.31036327895
 72
     1
 10
-1023.236914838318
 20
-1266.31036327895
 11
-1022.60983418726
 21
-1266.31036327895
 72
     2
 10
-1022.60983418726
 20
-1265.438160269583
 40
0.8722030093670128
 50
270.0
 51
450.0
 73
     1
 72
     1
 10
-1022.60983418726
 20
-1264.565957260217
 11
-1024.262125094726
 21
-1264.565957260217
 97
        6
330
2B0
330
170
330
166
330
165
330
172
330
171
 92
       16
 93
        4
 72
     1
 10
-1022.974687514729
 20
-1265.113978620085
 11
-1023.236914838318
 21
-1265.113978620085
 72
     1
 10
-1023.236914838318
 20
-1265.113978620085
 11
-1023.236914838318
 21
-1265.697224611276
 72
     1
 10
-1023.236914838318
 20
-1265.697224611276
 11
-1022.974687514729
 21
-1265.697224611276
 72
     2
 10
-1022.974687514729
 20
-1265.40560161568
 40
0.2916229955958443
 50
270.0
 51
450.0
 73
     1
 97
        4
330
173
330
164
330
174
330
29C
 75
     1
 76
     0
 52
45.0
 41
0.1
 77
     0
 78
     1
 53
45.0
 43
0.0
 44
0.0
 45
-0.0707106781186548
 46
0.0707106781186548
 79
     0
 98
        1
 10
0.0
 20
0.0
  0
HATCH
  5
337
330
6D
100
AcDbEntity
  8
1
  6
Continuous
 62
     2
100
AcDbHatch
 10
0.0
 20
0.0
 30
0.0
210
0.0
220
0.0
230
1.0
  2
_USER
 70
     0
 71
     1
 91
        2
 92
        1
 93
        6
 72
     1
 10
-1024.262125094726
 20
-1264.565957260217
 11
-1024.262125094726
 21
-1267.089766784028
 72
     1
 10
-1024.262125094726
 20
-1267.089766784028
 11
-1023.236914838318
 21
-1267.089766784028
 72
     1
 10
-1023.236914838318
 20
-1267.089766784028
 11
-1023.236914838318
 21
-1266.31036327895
 72
     1
 10
-1023.236914838318
 20
-1266.31036327895
 11
-1022.60983418726
 21
-1266.31036327895
 72
     2
 10
-1022.60983418726
 20
-1265.438160269583
 40
0.8722030093670128
 50
270.0
 51
450.0
 73
     1
 72
     1
 10
-1022.60983418726
 20
-1264.565957260217
 11
-1024.262125094726
 21
-1264.565957260217
 97
        6
330
2B0
330
170
330
166
330
165
330
172
330
171
 92
       16
 93
        4
 72
     1
 10
-1022.974687514729
 20
-1265.113978620085
 11
-1023.236914838318
 21
-1265.113978620085
 72
     1
 10
-1023.236914838318
 20
-1265.113978620085
 11
-1023.236914838318
 21
-1265.697224611276
 72
     1
 10
-1023.236914838318
 20
-1265.697224611276
 11
-1022.974687514729
 21
-1265.697224611276
 72
     2
 10
-1022.974687514729
 20
-1265.40560161568
 40
0.2916229955958443
 50
270.0
 51
450.0
 73
     1
 97
        4
330
173
330
164
330
174
330
29C
 75
     1
 76
     0
 52
45.0
 41
0.1
 77
     0
 78
     1
 53
45.0
 43
0.0
 44
0.0
 45
-0.0707106781186548
 46
0.0707106781186548
 79
     0
 98
        1
 10
0.0
 20
0.0
  0
HATCH
  5
338
330
6D
100
AcDbEntity
  8
1
  6
Continuous
 62
     2
100
AcDbHatch
 10
0.0
 20
0.0
 30
0.0
210
0.0
220
0.0
230
1.0
  2
_USER
 70
     0
 71
     1
 91
        1
 92
        1
 93
       12
 72
     1
 10
-1008.051973694368
 20
-1264.565957260217
 11
-1006.892697481354
 21
-1264.565957260217
 72
     1
 10
-1006.892697481354
 20
-1264.565957260217
 11
-1007.969168250582
 21
-1265.78327174785
 72
     1
 10
-1007.969168250582
 20
-1265.78327174785
 11
-1006.813835153937
 21
-1267.089766784028
 72
     1
 10
-1006.813835153937
 20
-1267.089766784028
 11
-1007.973111366953
 21
-1267.089766784028
 72
     1
 10
-1007.973111366953
 20
-1267.089766784028
 11
-1008.548806357089
 21
-1266.438748779652
 72
     1
 10
-1008.548806357089
 20
-1266.438748779652
 11
-1009.124501347226
 21
-1267.089766784028
 72
     1
 10
-1009.124501347226
 20
-1267.089766784028
 11
-1010.283777560241
 21
-1267.089766784028
 72
     1
 10
-1010.283777560241
 20
-1267.089766784028
 11
-1009.128444463596
 21
-1265.78327174785
 72
     1
 10
-1009.128444463596
 20
-1265.78327174785
 11
-1010.204915232826
 21
-1264.565957260217
 72
     1
 10
-1010.204915232826
 20
-1264.565957260217
 11
-1009.04563901981
 21
-1264.565957260217
 72
     1
 10
-1009.04563901981
 20
-1264.565957260217
 11
-1008.548806357089
 21
-1265.127794716048
 72
     1
 10
-1008.548806357089
 20
-1265.127794716048
 11
-1008.051973694368
 21
-1264.565957260217
 97
       12
330
13F
330
198
330
197
330
196
330
195
330
140
330
141
330
13D
330
13E
330
19B
330
19A
330
199
 75
     1
 76
     0
 52
45.0
 41
0.1
 77
     0
 78
     1
 53
45.0
 43
0.0
 44
0.0
 45
-0.0707106781186548
 46
0.0707106781186548
 79
     0
 98
        1
 10
0.0
 20
0.0
  0
HATCH
  5
339
330
6D
100
AcDbEntity
  8
1
  6
Continuous
 62
     2
100
AcDbHatch
 10
0.0
 20
0.0
 30
0.0
210
0.0
220
0.0
230
1.0
  2
_USER
 70
     0
 71
     1
 91
        1
 92
        1
 93
       12
 72
     1
 10
-1008.051973694368
 20
-1264.565957260217
 11
-1006.892697481354
 21
-1264.565957260217
 72
     1
 10
-1006.892697481354
 20
-1264.565957260217
 11
-1007.969168250582
 21
-1265.78327174785
 72
     1
 10
-1007.969168250582
 20
-1265.78327174785
 11
-1006.813835153937
 21
-1267.089766784028
 72
     1
 10
-1006.813835153937
 20
-1267.089766784028
 11
-1007.973111366953
 21
-1267.089766784028
 72
     1
 10
-1007.973111366953
 20
-1267.089766784028
 11
-1008.548806357089
 21
-1266.438748779652
 72
     1
 10
-1008.548806357089
 20
-1266.438748779652
 11
-1009.124501347226
 21
-1267.089766784028
 72
     1
 10
-1009.124501347226
 20
-1267.089766784028
 11
-1010.283777560241
 21
-1267.089766784028
 72
     1
 10
-1010.283777560241
 20
-1267.089766784028
 11
-1009.128444463596
 21
-1265.78327174785
 72
     1
 10
-1009.128444463596
 20
-1265.78327174785
 11
-1010.204915232826
 21
-1264.565957260217
 72
     1
 10
-1010.204915232826
 20
-1264.565957260217
 11
-1009.04563901981
 21
-1264.565957260217
 72
     1
 10
-1009.04563901981
 20
-1264.565957260217
 11
-1008.548806357089
 21
-1265.127794716048
 72
     1
 10
-1008.548806357089
 20
-1265.127794716048
 11
-1008.051973694368
 21
-1264.565957260217
 97
       12
330
13F
330
198
330
197
330
196
330
195
330
140
330
141
330
13D
330
13E
330
19B
330
19A
330
199
 75
     1
 76
     0
 52
45.0
 41
0.1
 77
     0
 78
     1
 53
45.0
 43
0.0
 44
0.0
 45
-0.0707106781186548
 46
0.0707106781186548
 79
     0
 98
        1
 10
0.0
 20
0.0
  0
HATCH
  5
33A
330
6D
100
AcDbEntity
  8
1
  6
Continuous
 62
     2
100
AcDbHatch
 10
0.0
 20
0.0
 30
0.0
210
0.0
220
0.0
230
1.0
  2
_USER
 70
     0
 71
     1
 91
        1
 92
        1
 93
        4
 72
     1
 10
-1010.382355469511
 20
-1264.565957260217
 11
-1010.382355469511
 21
-1267.089766784028
 72
     1
 10
-1010.382355469511
 20
-1267.089766784028
 11
-1011.407565725919
 21
-1267.089766784028
 72
     1
 10
-1011.407565725919
 20
-1267.089766784028
 11
-1011.407565725919
 21
-1264.565957260217
 72
     1
 10
-1011.407565725919
 20
-1264.565957260217
 11
-1010.382355469511
 21
-1264.565957260217
 97
        4
330
193
330
142
330
192
330
194
 75
     1
 76
     0
 52
45.0
 41
0.1
 77
     0
 78
     1
 53
45.0
 43
0.0
 44
0.0
 45
-0.0707106781186548
 46
0.0707106781186548
 79
     0
 98
        1
 10
0.0
 20
0.0
  0
HATCH
  5
33B
330
6D
100
AcDbEntity
  8
1
  6
Continuous
 62
     2
100
AcDbHatch
 10
0.0
 20
0.0
 30
0.0
210
0.0
220
0.0
230
1.0
  2
_USER
 70
     0
 71
     1
 91
        1
 92
        1
 93
        4
 72
     1
 10
-1010.382355469511
 20
-1264.565957260217
 11
-1010.382355469511
 21
-1267.089766784028
 72
     1
 10
-1010.382355469511
 20
-1267.089766784028
 11
-1011.407565725919
 21
-1267.089766784028
 72
     1
 10
-1011.407565725919
 20
-1267.089766784028
 11
-1011.407565725919
 21
-1264.565957260217
 72
     1
 10
-1011.407565725919
 20
-1264.565957260217
 11
-1010.382355469511
 21
-1264.565957260217
 97
        4
330
193
330
142
330
192
330
194
 75
     1
 76
     0
 52
45.0
 41
0.1
 77
     0
 78
     1
 53
45.0
 43
0.0
 44
0.0
 45
-0.0707106781186548
 46
0.0707106781186548
 79
     0
 98
        1
 10
0.0
 20
0.0
  0
HATCH
  5
33C
330
6D
100
AcDbEntity
  8
1
  6
Continuous
 62
     2
100
AcDbHatch
 10
0.0
 20
0.0
 30
0.0
210
0.0
220
0.0
230
1.0
  2
_USER
 70
     0
 71
     1
 91
        2
 92
        1
 93
        8
 72
     1
 10
-1010.705036464166
 20
-1269.865957260205
 11
-1011.730246720574
 21
-1269.865957260205
 72
     1
 10
-1011.730246720574
 20
-1269.865957260205
 11
-1011.905023624273
 21
-1269.418882430273
 72
     1
 10
-1011.905023624273
 20
-1269.418882430273
 11
-1012.840925753756
 21
-1269.418882430273
 72
     1
 10
-1012.840925753756
 20
-1269.418882430273
 11
-1013.015702657455
 21
-1269.865957260205
 72
     1
 10
-1013.015702657455
 20
-1269.865957260205
 11
-1014.040912913862
 21
-1269.865957260205
 72
     1
 10
-1014.040912913862
 20
-1269.865957260205
 11
-1012.885579817218
 21
-1267.342147736394
 72
     1
 10
-1012.885579817218
 20
-1267.342147736394
 11
-1011.860369560811
 21
-1267.342147736394
 72
     1
 10
-1011.860369560811
 20
-1267.342147736394
 11
-1010.705036464166
 21
-1269.865957260205
 97
        8
330
18E
330
148
330
18D
330
190
330
145
330
18F
330
146
330
147
 92
       16
 93
        3
 72
     1
 10
-1012.621045132975
 20
-1268.85643345068
 11
-1012.124904245055
 21
-1268.85643345068
 72
     1
 10
-1012.124904245055
 20
-1268.85643345068
 11
-1012.372974689014
 21
-1268.221875627551
 72
     1
 10
-1012.372974689014
 20
-1268.221875627551
 11
-1012.621045132975
 21
-1268.85643345068
 97
        3
330
144
330
143
330
191
 75
     1
 76
     0
 52
45.0
 41
0.1
 77
     0
 78
     1
 53
45.0
 43
0.0
 44
0.0
 45
-0.0707106781186548
 46
0.0707106781186548
 79
     0
 98
        1
 10
0.0
 20
0.0
  0
HATCH
  5
33D
330
6D
100
AcDbEntity
  8
1
  6
Continuous
 62
     2
100
AcDbHatch
 10
0.0
 20
0.0
 30
0.0
210
0.0
220
0.0
230
1.0
  2
_USER
 70
     0
 71
     1
 91
        2
 92
        1
 93
        8
 72
     1
 10
-1010.705036464166
 20
-1269.865957260205
 11
-1011.730246720574
 21
-1269.865957260205
 72
     1
 10
-1011.730246720574
 20
-1269.865957260205
 11
-1011.905023624273
 21
-1269.418882430273
 72
     1
 10
-1011.905023624273
 20
-1269.418882430273
 11
-1012.840925753756
 21
-1269.418882430273
 72
     1
 10
-1012.840925753756
 20
-1269.418882430273
 11
-1013.015702657455
 21
-1269.865957260205
 72
     1
 10
-1013.015702657455
 20
-1269.865957260205
 11
-1014.040912913862
 21
-1269.865957260205
 72
     1
 10
-1014.040912913862
 20
-1269.865957260205
 11
-1012.885579817218
 21
-1267.342147736394
 72
     1
 10
-1012.885579817218
 20
-1267.342147736394
 11
-1011.860369560811
 21
-1267.342147736394
 72
     1
 10
-1011.860369560811
 20
-1267.342147736394
 11
-1010.705036464166
 21
-1269.865957260205
 97
        8
330
18E
330
148
330
18D
330
190
330
145
330
18F
330
146
330
147
 92
       16
 93
        3
 72
     1
 10
-1012.621045132975
 20
-1268.85643345068
 11
-1012.124904245055
 21
-1268.85643345068
 72
     1
 10
-1012.124904245055
 20
-1268.85643345068
 11
-1012.372974689014
 21
-1268.221875627551
 72
     1
 10
-1012.372974689014
 20
-1268.221875627551
 11
-1012.621045132975
 21
-1268.85643345068
 97
        3
330
144
330
143
330
191
 75
     1
 76
     0
 52
45.0
 41
0.1
 77
     0
 78
     1
 53
45.0
 43
0.0
 44
0.0
 45
-0.0707106781186548
 46
0.0707106781186548
 79
     0
 98
        1
 10
0.0
 20
0.0
  0
HATCH
  5
33E
330
6D
100
AcDbEntity
  8
1
  6
Continuous
 62
     2
100
AcDbHatch
 10
0.0
 20
0.0
 30
0.0
210
0.0
220
0.0
230
1.0
  2
_USER
 70
     0
 71
     1
 91
        1
 92
        1
 93
        8
 72
     1
 10
-1015.823980797484
 20
-1267.342147736394
 11
-1015.823980797484
 21
-1267.991127328231
 72
     1
 10
-1015.823980797484
 20
-1267.991127328231
 11
-1015.153651014447
 21
-1267.991127328231
 72
     1
 10
-1015.153651014447
 20
-1267.991127328231
 11
-1015.153651014447
 21
-1269.865957260205
 72
     1
 10
-1015.153651014447
 20
-1269.865957260205
 11
-1014.167871921747
 21
-1269.865957260205
 72
     1
 10
-1014.167871921747
 20
-1269.865957260205
 11
-1014.167871921747
 21
-1267.991127328231
 72
     1
 10
-1014.167871921747
 20
-1267.991127328231
 11
-1013.497542138712
 21
-1267.991127328231
 72
     1
 10
-1013.497542138712
 20
-1267.991127328231
 11
-1013.497542138712
 21
-1267.342147736394
 72
     1
 10
-1013.497542138712
 20
-1267.342147736394
 11
-1015.823980797484
 21
-1267.342147736394
 97
        8
330
18A
330
189
330
188
330
149
330
14A
330
18C
330
14B
330
18B
 75
     1
 76
     0
 52
45.0
 41
0.1
 77
     0
 78
     1
 53
45.0
 43
0.0
 44
0.0
 45
-0.0707106781186548
 46
0.0707106781186548
 79
     0
 98
        1
 10
0.0
 20
0.0
  0
HATCH
  5
33F
330
6D
100
AcDbEntity
  8
1
  6
Continuous
 62
     2
100
AcDbHatch
 10
0.0
 20
0.0
 30
0.0
210
0.0
220
0.0
230
1.0
  2
_USER
 70
     0
 71
     1
 91
        1
 92
        1
 93
        8
 72
     1
 10
-1015.823980797484
 20
-1267.342147736394
 11
-1015.823980797484
 21
-1267.991127328231
 72
     1
 10
-1015.823980797484
 20
-1267.991127328231
 11
-1015.153651014447
 21
-1267.991127328231
 72
     1
 10
-1015.153651014447
 20
-1267.991127328231
 11
-1015.153651014447
 21
-1269.865957260205
 72
     1
 10
-1015.153651014447
 20
-1269.865957260205
 11
-1014.167871921747
 21
-1269.865957260205
 72
     1
 10
-1014.167871921747
 20
-1269.865957260205
 11
-1014.167871921747
 21
-1267.991127328231
 72
     1
 10
-1014.167871921747
 20
-1267.991127328231
 11
-1013.497542138712
 21
-1267.991127328231
 72
     1
 10
-1013.497542138712
 20
-1267.991127328231
 11
-1013.497542138712
 21
-1267.342147736394
 72
     1
 10
-1013.497542138712
 20
-1267.342147736394
 11
-1015.823980797484
 21
-1267.342147736394
 97
        8
330
18A
330
189
330
188
330
149
330
14A
330
18C
330
14B
330
18B
 75
     1
 76
     0
 52
45.0
 41
0.1
 77
     0
 78
     1
 53
45.0
 43
0.0
 44
0.0
 45
-0.0707106781186548
 46
0.0707106781186548
 79
     0
 98
        1
 10
0.0
 20
0.0
  0
HATCH
  5
340
330
6D
100
AcDbEntity
  8
1
  6
Continuous
 62
     2
100
AcDbHatch
 10
0.0
 20
0.0
 30
0.0
210
0.0
220
0.0
230
1.0
  2
_USER
 70
     0
 71
     1
 91
        1
 92
        1
 93
       10
 72
     1
 10
-1013.615710893567
 20
-1264.565957260217
 11
-1014.601489986267
 21
-1264.565957260217
 72
     1
 10
-1014.601489986267
 20
-1264.565957260217
 11
-1014.601489986267
 21
-1267.089766784028
 72
     1
 10
-1014.601489986267
 20
-1267.089766784028
 11
-1013.615710893567
 21
-1267.089766784028
 72
     1
 10
-1013.615710893567
 20
-1267.089766784028
 11
-1013.615710893567
 21
-1266.008134130966
 72
     1
 10
-1013.615710893567
 20
-1266.008134130966
 11
-1012.590500637159
 21
-1267.089766784028
 72
     1
 10
-1012.590500637159
 20
-1267.089766784028
 11
-1011.604721544459
 21
-1267.089766784028
 72
     1
 10
-1011.604721544459
 20
-1267.089766784028
 11
-1011.604721544459
 21
-1264.565957260217
 72
     1
 10
-1011.604721544459
 20
-1264.565957260217
 11
-1012.590500637159
 21
-1264.565957260217
 72
     1
 10
-1012.590500637159
 20
-1264.565957260217
 11
-1012.590500637159
 21
-1265.647589913279
 72
     1
 10
-1012.590500637159
 20
-1265.647589913279
 11
-1013.615710893567
 21
-1264.565957260217
 97
       10
330
184
330
14E
330
14F
330
150
330
151
330
187
330
14C
330
186
330
185
330
14D
 75
     1
 76
     0
 52
45.0
 41
0.1
 77
     0
 78
     1
 53
45.0
 43
0.0
 44
0.0
 45
-0.0707106781186548
 46
0.0707106781186548
 79
     0
 98
        1
 10
0.0
 20
0.0
  0
HATCH
  5
341
330
6D
100
AcDbEntity
  8
1
  6
Continuous
 62
     2
100
AcDbHatch
 10
0.0
 20
0.0
 30
0.0
210
0.0
220
0.0
230
1.0
  2
_USER
 70
     0
 71
     1
 91
        1
 92
        1
 93
       10
 72
     1
 10
-1013.615710893567
 20
-1264.565957260217
 11
-1014.601489986267
 21
-1264.565957260217
 72
     1
 10
-1014.601489986267
 20
-1264.565957260217
 11
-1014.601489986267
 21
-1267.089766784028
 72
     1
 10
-1014.601489986267
 20
-1267.089766784028
 11
-1013.615710893567
 21
-1267.089766784028
 72
     1
 10
-1013.615710893567
 20
-1267.089766784028
 11
-1013.615710893567
 21
-1266.008134130966
 72
     1
 10
-1013.615710893567
 20
-1266.008134130966
 11
-1012.590500637159
 21
-1267.089766784028
 72
     1
 10
-1012.590500637159
 20
-1267.089766784028
 11
-1011.604721544459
 21
-1267.089766784028
 72
     1
 10
-1011.604721544459
 20
-1267.089766784028
 11
-1011.604721544459
 21
-1264.565957260217
 72
     1
 10
-1011.604721544459
 20
-1264.565957260217
 11
-1012.590500637159
 21
-1264.565957260217
 72
     1
 10
-1012.590500637159
 20
-1264.565957260217
 11
-1012.590500637159
 21
-1265.647589913279
 72
     1
 10
-1012.590500637159
 20
-1265.647589913279
 11
-1013.615710893567
 21
-1264.565957260217
 97
       10
330
184
330
14E
330
14F
330
150
330
151
330
187
330
14C
330
186
330
185
330
14D
 75
     1
 76
     0
 52
45.0
 41
0.1
 77
     0
 78
     1
 53
45.0
 43
0.0
 44
0.0
 45
-0.0707106781186548
 46
0.0707106781186548
 79
     0
 98
        1
 10
0.0
 20
0.0
  0
HATCH
  5
342
330
6D
100
AcDbEntity
  8
1
  6
Continuous
 62
     2
100
AcDbHatch
 10
0.0
 20
0.0
 30
0.0
210
0.0
220
0.0
230
1.0
  2
_USER
 70
     0
 71
     1
 91
        1
 92
        1
 93
       10
 72
     1
 10
-1017.953263637715
 20
-1267.342147736394
 11
-1018.939042730415
 21
-1267.342147736394
 72
     1
 10
-1018.939042730415
 20
-1267.342147736394
 11
-1018.939042730415
 21
-1269.865957260205
 72
     1
 10
-1018.939042730415
 20
-1269.865957260205
 11
-1017.953263637715
 21
-1269.865957260205
 72
     1
 10
-1017.953263637715
 20
-1269.865957260205
 11
-1017.953263637715
 21
-1268.784324607143
 72
     1
 10
-1017.953263637715
 20
-1268.784324607143
 11
-1016.928053381307
 21
-1269.865957260205
 72
     1
 10
-1016.928053381307
 20
-1269.865957260205
 11
-1015.942274288608
 21
-1269.865957260205
 72
     1
 10
-1015.942274288608
 20
-1269.865957260205
 11
-1015.942274288608
 21
-1267.342147736394
 72
     1
 10
-1015.942274288608
 20
-1267.342147736394
 11
-1016.928053381307
 21
-1267.342147736394
 72
     1
 10
-1016.928053381307
 20
-1267.342147736394
 11
-1016.928053381307
 21
-1268.423780389456
 72
     1
 10
-1016.928053381307
 20
-1268.423780389456
 11
-1017.953263637715
 21
-1267.342147736394
 97
       10
330
153
330
154
330
155
330
181
330
156
330
157
330
180
330
183
330
182
330
152
 75
     1
 76
     0
 52
45.0
 41
0.1
 77
     0
 78
     1
 53
45.0
 43
0.0
 44
0.0
 45
-0.0707106781186548
 46
0.0707106781186548
 79
     0
 98
        1
 10
0.0
 20
0.0
  0
HATCH
  5
343
330
6D
100
AcDbEntity
  8
1
  6
Continuous
 62
     2
100
AcDbHatch
 10
0.0
 20
0.0
 30
0.0
210
0.0
220
0.0
230
1.0
  2
_USER
 70
     0
 71
     1
 91
        1
 92
        1
 93
       10
 72
     1
 10
-1017.953263637715
 20
-1267.342147736394
 11
-1018.939042730415
 21
-1267.342147736394
 72
     1
 10
-1018.939042730415
 20
-1267.342147736394
 11
-1018.939042730415
 21
-1269.865957260205
 72
     1
 10
-1018.939042730415
 20
-1269.865957260205
 11
-1017.953263637715
 21
-1269.865957260205
 72
     1
 10
-1017.953263637715
 20
-1269.865957260205
 11
-1017.953263637715
 21
-1268.784324607143
 72
     1
 10
-1017.953263637715
 20
-1268.784324607143
 11
-1016.928053381307
 21
-1269.865957260205
 72
     1
 10
-1016.928053381307
 20
-1269.865957260205
 11
-1015.942274288608
 21
-1269.865957260205
 72
     1
 10
-1015.942274288608
 20
-1269.865957260205
 11
-1015.942274288608
 21
-1267.342147736394
 72
     1
 10
-1015.942274288608
 20
-1267.342147736394
 11
-1016.928053381307
 21
-1267.342147736394
 72
     1
 10
-1016.928053381307
 20
-1267.342147736394
 11
-1016.928053381307
 21
-1268.423780389456
 72
     1
 10
-1016.928053381307
 20
-1268.423780389456
 11
-1017.953263637715
 21
-1267.342147736394
 97
       10
330
153
330
154
330
155
330
181
330
156
330
157
330
180
330
183
330
182
330
152
 75
     1
 76
     0
 52
45.0
 41
0.1
 77
     0
 78
     1
 53
45.0
 43
0.0
 44
0.0
 45
-0.0707106781186548
 46
0.0707106781186548
 79
     0
 98
        1
 10
0.0
 20
0.0
  0
HATCH
  5
344
330
6D
100
AcDbEntity
  8
1
  6
Continuous
 62
     2
100
AcDbHatch
 10
0.0
 20
0.0
 30
0.0
210
0.0
220
0.0
230
1.0
  2
_USER
 70
     0
 71
     1
 91
        1
 92
        1
 93
       12
 72
     1
 10
-1018.781193339314
 20
-1264.565957260217
 11
-1018.781193339314
 21
-1267.089766784028
 72
     1
 10
-1018.781193339314
 20
-1267.089766784028
 11
-1019.766972432014
 21
-1267.089766784028
 72
     1
 10
-1019.766972432014
 20
-1267.089766784028
 11
-1019.766972432014
 21
-1266.152351818041
 72
     1
 10
-1019.766972432014
 20
-1266.152351818041
 11
-1020.63445803359
 21
-1266.152351818041
 72
     1
 10
-1020.63445803359
 20
-1266.152351818041
 11
-1020.63445803359
 21
-1267.089766784028
 72
     1
 10
-1020.63445803359
 20
-1267.089766784028
 11
-1021.62023712629
 21
-1267.089766784028
 72
     1
 10
-1021.62023712629
 20
-1267.089766784028
 11
-1021.62023712629
 21
-1264.565957260217
 72
     1
 10
-1021.62023712629
 20
-1264.565957260217
 11
-1020.63445803359
 21
-1264.565957260217
 72
     1
 10
-1020.63445803359
 20
-1264.565957260217
 11
-1020.63445803359
 21
-1265.449290593551
 72
     1
 10
-1020.63445803359
 20
-1265.449290593551
 11
-1019.766972432014
 21
-1265.449290593551
 72
     1
 10
-1019.766972432014
 20
-1265.449290593551
 11
-1019.766972432014
 21
-1264.565957260217
 72
     1
 10
-1019.766972432014
 20
-1264.565957260217
 11
-1018.781193339314
 21
-1264.565957260217
 97
       12
330
17B
330
17A
330
179
330
161
330
162
330
178
330
163
330
177
330
176
330
175
330
15F
330
160
 75
     1
 76
     0
 52
45.0
 41
0.1
 77
     0
 78
     1
 53
45.0
 43
0.0
 44
0.0
 45
-0.0707106781186548
 46
0.0707106781186548
 79
     0
 98
        1
 10
0.0
 20
0.0
  0
HATCH
  5
345
330
6D
100
AcDbEntity
  8
1
  6
Continuous
 62
     2
100
AcDbHatch
 10
0.0
 20
0.0
 30
0.0
210
0.0
220
0.0
230
1.0
  2
_USER
 70
     0
 71
     1
 91
        1
 92
        1
 93
       12
 72
     1
 10
-1018.781193339314
 20
-1264.565957260217
 11
-1018.781193339314
 21
-1267.089766784028
 72
     1
 10
-1018.781193339314
 20
-1267.089766784028
 11
-1019.766972432014
 21
-1267.089766784028
 72
     1
 10
-1019.766972432014
 20
-1267.089766784028
 11
-1019.766972432014
 21
-1266.152351818041
 72
     1
 10
-1019.766972432014
 20
-1266.152351818041
 11
-1020.63445803359
 21
-1266.152351818041
 72
     1
 10
-1020.63445803359
 20
-1266.152351818041
 11
-1020.63445803359
 21
-1267.089766784028
 72
     1
 10
-1020.63445803359
 20
-1267.089766784028
 11
-1021.62023712629
 21
-1267.089766784028
 72
     1
 10
-1021.62023712629
 20
-1267.089766784028
 11
-1021.62023712629
 21
-1264.565957260217
 72
     1
 10
-1021.62023712629
 20
-1264.565957260217
 11
-1020.63445803359
 21
-1264.565957260217
 72
     1
 10
-1020.63445803359
 20
-1264.565957260217
 11
-1020.63445803359
 21
-1265.449290593551
 72
     1
 10
-1020.63445803359
 20
-1265.449290593551
 11
-1019.766972432014
 21
-1265.449290593551
 72
     1
 10
-1019.766972432014
 20
-1265.449290593551
 11
-1019.766972432014
 21
-1264.565957260217
 72
     1
 10
-1019.766972432014
 20
-1264.565957260217
 11
-1018.781193339314
 21
-1264.565957260217
 97
       12
330
17B
330
17A
330
179
330
161
330
162
330
178
330
163
330
177
330
176
330
175
330
15F
330
160
 75
     1
 76
     0
 52
45.0
 41
0.1
 77
     0
 78
     1
 53
45.0
 43
0.0
 44
0.0
 45
-0.0707106781186548
 46
0.0707106781186548
 79
     0
 98
        1
 10
0.0
 20
0.0
  0
ENDBLK
  5
6F
330
6D
100
AcDbEntity
  8
0
100
AcDbBlockEnd
  0
BLOCK
  5
71
330
70
100
AcDbEntity
  8
0
100
AcDbBlockBegin
  2
_punkt
 70
     0
 10
-906.9963067571585
 20
-1275.71595726021
 30
0.0
  3
_punkt
  1

  0
LINE
  5
346
330
70
100
AcDbEntity
  8
1
  6
Continuous
 62
     2
100
AcDbLine
 10
-906.9963067571584
 20
-1275.71595726021
 30
0.0
 11
-906.9963067571584
 21
-1280.71595726021
 31
0.0
  0
LINE
  5
347
330
70
100
AcDbEntity
  8
1
  6
Continuous
 62
     2
100
AcDbLine
 10
-906.9963067571584
 20
-1275.71595726021
 30
0.0
 11
-901.9963067571609
 21
-1275.71595726021
 31
0.0
  0
ENDBLK
  5
72
330
70
100
AcDbEntity
  8
0
100
AcDbBlockEnd
  0
BLOCK
  5
76
330
73
100
AcDbEntity
  8
0
100
AcDbBlockBegin
  2
A3I
 70
     0
 10
-906.9963067571584
 20
-1280.71595726021
 30
0.0
  3
A3I
  1

  0
INSERT
  5
74
330
73
100
AcDbEntity
  8
1
100
AcDbBlockReference
  2
_rahmen
 10
-906.9963067571584
 20
-1280.71595726021
 30
0.0
  0
INSERT
  5
75
330
73
100
AcDbEntity
  8
1
100
AcDbBlockReference
  2
_punkt
 10
-906.9963067571585
 20
-1275.71595726021
 30
0.0
  0
ENDBLK
  5
77
330
73
100
AcDbEntity
  8
0
100
AcDbBlockEnd
  0
BLOCK
  5
DC
330
D5
100
AcDbEntity
  8
0
100
AcDbBlockBegin
  2
*D16
 70
     1
 10
0.0
 20
0.0
 30
0.0
  3
*D16
  1

  0
LINE
  5
D6
330
D5
100
AcDbEntity
  8
1
  6
Continuous
 62
     2
100
AcDbLine
 10
-1987.500000000005
 20
-2161.77007198304
 30
0.0
 11
-2148.500000000005
 21
-2161.77007198304
 31
0.0
  0
LINE
  5
D7
330
D5
100
AcDbEntity
  8
1
  6
Continuous
 62
     2
100
AcDbLine
 10
-1987.500000000005
 20
-2134.000003536988
 30
0.0
 11
-1987.500000000005
 21
-2165.77007198304
 31
0.0
  0
LINE
  5
D8
330
D5
100
AcDbEntity
  8
1
  6
Continuous
 62
     2
100
AcDbLine
 10
-2148.500000000005
 20
-2134.000003536988
 30
0.0
 11
-2148.500000000005
 21
-2165.77007198304
 31
0.0
  0
SOLID
  5
D9
330
D5
100
AcDbEntity
  8
1
 62
     2
100
AcDbTrace
 10
-1994.500000000005
 20
-2162.691639466152
 30
0.0
 11
-1994.500000000005
 21
-2160.848504499928
 31
0.0
 12
-1987.500000000005
 22
-2161.77007198304
 32
0.0
 13
-1987.500000000005
 23
-2161.77007198304
 33
0.0
  0
SOLID
  5
DA
330
D5
100
AcDbEntity
  8
1
 62
     2
100
AcDbTrace
 10
-2141.500000000005
 20
-2160.848504499928
 30
0.0
 11
-2141.500000000005
 21
-2162.691639466152
 31
0.0
 12
-2148.500000000005
 22
-2161.77007198304
 32
0.0
 13
-2148.500000000005
 23
-2161.77007198304
 33
0.0
  0
MTEXT
  5
DB
330
D5
100
AcDbEntity
  8
1
 62
     3
100
AcDbMText
 10
-2078.48154835942
 20
-2157.77007198304
 30
0.0
 40
7.0
 41
0.0
 71
     7
 72
     1
  1
2000
  7
CONVERTER_11
 11
0.9999999999970619
 21
2.424068405545306E-6
 31
0.0
 73
     1
 44
0.60024009603842
  0
ENDBLK
  5
DD
330
D5
100
AcDbEntity
  8
0
100
AcDbBlockEnd
  0
BLOCK
  5
129
330
122
100
AcDbEntity
  8
0
100
AcDbBlockBegin
  2
*D17
 70
     1
 10
0.0
 20
0.0
 30
0.0
  3
*D17
  1

  0
LINE
  5
123
330
122
100
AcDbEntity
  8
1
  6
Continuous
 62
     2
100
AcDbLine
 10
-2212.257418161
 20
-2134.000002259157
 30
0.0
 11
-2212.257418161
 21
-2054.000002259157
 31
0.0
  0
LINE
  5
124
330
122
100
AcDbEntity
  8
1
  6
Continuous
 62
     2
100
AcDbLine
 10
-2238.000000740722
 20
-2134.000002259157
 30
0.0
 11
-2208.257418161
 21
-2134.000002259157
 31
0.0
  0
LINE
  5
125
330
122
100
AcDbEntity
  8
1
  6
Continuous
 62
     2
100
AcDbLine
 10
-2238.000000740722
 20
-2054.000002259157
 30
0.0
 11
-2208.257418161
 21
-2054.000002259157
 31
0.0
  0
SOLID
  5
126
330
122
100
AcDbEntity
  8
1
 62
     2
100
AcDbTrace
 10
-2213.178985644111
 20
-2127.000002259157
 30
0.0
 11
-2211.335850677888
 21
-2127.000002259157
 31
0.0
 12
-2212.257418161
 22
-2134.000002259157
 32
0.0
 13
-2212.257418161
 23
-2134.000002259157
 33
0.0
  0
SOLID
  5
127
330
122
100
AcDbEntity
  8
1
 62
     2
100
AcDbTrace
 10
-2211.335850677888
 20
-2061.000002259157
 30
0.0
 11
-2213.178985644111
 21
-2061.000002259157
 31
0.0
 12
-2212.257418161
 22
-2054.000002259157
 32
0.0
 13
-2212.257418161
 23
-2054.000002259157
 33
0.0
  0
MTEXT
  5
128
330
122
100
AcDbEntity
  8
1
 62
     3
100
AcDbMText
 10
-2216.257418161
 20
-2096.71766020002
 30
0.0
 40
7.0
 41
0.0
 71
     7
 72
     1
  1
80
  7
CONVERTER_11
 11
0.0
 21
1.0
 31
0.0
 73
     1
 44
0.60024009603842
  0
ENDBLK
  5
12A
330
122
100
AcDbEntity
  8
0
100
AcDbBlockEnd
  0
BLOCK
  5
134
330
12D
100
AcDbEntity
  8
0
100
AcDbBlockBegin
  2
*D18
 70
     1
 10
0.0
 20
0.0
 30
0.0
  3
*D18
  1

  0
LINE
  5
12E
330
12D
100
AcDbEntity
  8
1
  6
Continuous
 62
     2
100
AcDbLine
 10
-2238.000000740722
 20
-2161.77007198304
 30
0.0
 11
-2318.000000740722
 21
-2161.77007198304
 31
0.0
  0
LINE
  5
12F
330
12D
100
AcDbEntity
  8
1
  6
Continuous
 62
     2
100
AcDbLine
 10
-2238.000000740722
 20
-2134.000002259157
 30
0.0
 11
-2238.000000740722
 21
-2165.77007198304
 31
0.0
  0
LINE
  5
130
330
12D
100
AcDbEntity
  8
1
  6
Continuous
 62
     2
100
AcDbLine
 10
-2318.000000740722
 20
-2134.000002259157
 30
0.0
 11
-2318.000000740722
 21
-2165.77007198304
 31
0.0
  0
SOLID
  5
131
330
12D
100
AcDbEntity
  8
1
 62
     2
100
AcDbTrace
 10
-2245.000000740722
 20
-2162.691639466152
 30
0.0
 11
-2245.000000740722
 21
-2160.848504499928
 31
0.0
 12
-2238.000000740722
 22
-2161.77007198304
 32
0.0
 13
-2238.000000740722
 23
-2161.77007198304
 33
0.0
  0
SOLID
  5
132
330
12D
100
AcDbEntity
  8
1
 62
     2
100
AcDbTrace
 10
-2311.000000740722
 20
-2160.848504499928
 30
0.0
 11
-2311.000000740722
 21
-2162.691639466152
 31
0.0
 12
-2318.000000740722
 22
-2161.77007198304
 32
0.0
 13
-2318.000000740722
 23
-2161.77007198304
 33
0.0
  0
MTEXT
  5
133
330
12D
100
AcDbEntity
  8
1
 62
     3
100
AcDbMText
 10
-2283.76623522234
 20
-2157.77007198304
 30
0.0
 40
7.0
 41
0.0
 71
     7
 72
     1
  1
80
  7
CONVERTER_11
 11
0.9999999999970619
 21
2.424068405545306E-6
 31
0.0
 73
     1
 44
0.60024009603842
  0
ENDBLK
  5
135
330
12D
100
AcDbEntity
  8
0
100
AcDbBlockEnd
  0
ENDSEC
  0
SECTION
  2
ENTITIES
  0
INSERT
  5
78
330
1F
100
AcDbEntity
  8
0
100
AcDbBlockReference
  2
AllgSicht1
 10
-991.000000000001
 20
-1173.000000312705
 30
0.0
 41
0.5
 42
0.5
 43
0.5
  0
INSERT
  5
79
330
1F
100
AcDbEntity
  8
0
100
AcDbBlockReference
  2
Drfsicht1
 10
-1139.0
 20
-1143.283243190848
 30
0.0
 41
0.5
 42
0.5
 43
0.5
  0
INSERT
  5
7A
330
1F
100
AcDbEntity
  8
0
100
AcDbBlockReference
  2
Rckans1
 10
-945.0000000000005
 20
-1047.000000361084
 30
0.0
 41
0.5
 42
0.5
 43
0.5
  0
INSERT
  5
7B
330
1F
100
AcDbEntity
  8
0
100
AcDbBlockReference
  2
SA_Links1
 10
-1024.25
 20
-1047.000001
 30
0.0
 41
0.5
 42
0.5
 43
0.5
  0
INSERT
  5
7C
330
1F
100
AcDbEntity
  8
0
100
AcDbBlockReference
  2
SA_Rechts1
 10
-1229.0
 20
-1047.000000361085
 30
0.0
 41
0.5
 42
0.5
 43
0.5
  0
INSERT
  5
7D
330
1F
100
AcDbEntity
  8
0
100
AcDbBlockReference
  2
Vordans1
 10
-1139.0
 20
-1047.000000361085
 30
0.0
 41
0.5
 42
0.5
 43
0.5
  0
INSERT
  5
7E
330
1F
100
AcDbEntity
  8
0
100
AcDbBlockReference
  2
A3I
 10
-906.9963067571584
 20
-1280.71595726021
 30
0.0
  0
ENDSEC
  0
SECTION
  2
OBJECTS
  0
DICTIONARY
  5
C
330
0
100
AcDbDictionary
281
     1
  3
ACAD_GROUP
350
D
  3
ACAD_LAYOUT
350
1A
  3
ACAD_MLEADERSTYLE
350
349
  3
ACAD_MLINESTYLE
350
17
  3
ACAD_PLOTSETTINGS
350
19
  3
ACAD_PLOTSTYLENAME
350
E
  3
ACAD_TABLESTYLE
350
348
  3
ACAD_VISUALSTYLE
350
2A
  0
DICTIONARY
  5
D
102
{ACAD_REACTORS
330
C
102
}
330
C
100
AcDbDictionary
281
     1
  0
DICTIONARY
  5
1A
102
{ACAD_REACTORS
330
C
102
}
330
C
100
AcDbDictionary
281
     1
  3
Layout1
350
1E
  3
Layout2
350
26
  3
Model
350
22
  0
DICTIONARY
  5
349
102
{ACAD_REACTORS
330
C
102
}
330
C
100
AcDbDictionary
281
     1
  0
DICTIONARY
  5
17
102
{ACAD_REACTORS
330
C
102
}
330
C
100
AcDbDictionary
281
     1
  3
Standard
350
18
  0
DICTIONARY
  5
19
102
{ACAD_REACTORS
330
C
102
}
330
C
100
AcDbDictionary
281
     1
  0
ACDBDICTIONARYWDFLT
  5
E
102
{ACAD_REACTORS
330
C
102
}
330
C
100
AcDbDictionary
281
     1
  3
Normal
350
F
100
AcDbDictionaryWithDefault
340
F
  0
DICTIONARY
  5
348
102
{ACAD_REACTORS
330
C
102
}
330
C
100
AcDbDictionary
281
     1
  0
DICTIONARY
  5
2A
102
{ACAD_REACTORS
330
C
102
}
330
C
100
AcDbDictionary
281
     1
  3
2dWireframe
350
2F
  3
3D Hidden
350
31
  3
3dWireframe
350
30
  3
Basic
350
32
  3
Brighten
350
36
  3
ColorChange
350
3A
  3
Conceptual
350
34
  3
Dim
350
35
  3
Facepattern
350
39
  3
Flat
350
2B
  3
FlatWithEdges
350
2C
  3
Gouraud
350
2D
  3
GouraudWithEdges
350
2E
  3
Linepattern
350
38
  3
Realistic
350
33
  3
Thicken
350
37
  0
LAYOUT
  5
1E
102
{ACAD_REACTORS
330
1A
102
}
330
1A
100
AcDbPlotSettings
  1

  2
none_device
  4

  6

 40
0.0
 41
0.0
 42
0.0
 43
0.0
 44
0.0
 45
0.0
 46
0.0
 47
0.0
 48
0.0
 49
0.0
140
0.0
141
0.0
142
1.0
143
1.0
 70
   688
 72
     0
 73
     0
 74
     5
  7

 75
    16
147
1.0
148
0.0
149
0.0
100
AcDbLayout
  1
Layout1
 70
     1
 71
     1
 10
0.0
 20
0.0
 11
12.0
 21
9.0
 12
0.0
 22
0.0
 32
0.0
 14
1.00000000000000E+20
 24
1.00000000000000E+20
 34
1.00000000000000E+20
 15
-1.00000000000000E+20
 25
-1.00000000000000E+20
 35
-1.00000000000000E+20
146
0.0
 13
0.0
 23
0.0
 33
0.0
 16
1.0
 26
0.0
 36
0.0
 17
0.0
 27
1.0
 37
0.0
 76
     0
330
1B
  0
LAYOUT
  5
26
102
{ACAD_REACTORS
330
1A
102
}
330
1A
100
AcDbPlotSettings
  1

  2
none_device
  4

  6

 40
0.0
 41
0.0
 42
0.0
 43
0.0
 44
0.0
 45
0.0
 46
0.0
 47
0.0
 48
0.0
 49
0.0
140
0.0
141
0.0
142
1.0
143
1.0
 70
   688
 72
     0
 73
     0
 74
     5
  7

 75
    16
147
1.0
148
0.0
149
0.0
100
AcDbLayout
  1
Layout2
 70
     1
 71
     2
 10
0.0
 20
0.0
 11
0.0
 21
0.0
 12
0.0
 22
0.0
 32
0.0
 14
0.0
 24
0.0
 34
0.0
 15
0.0
 25
0.0
 35
0.0
146
0.0
 13
0.0
 23
0.0
 33
0.0
 16
1.0
 26
0.0
 36
0.0
 17
0.0
 27
1.0
 37
0.0
 76
     0
330
23
  0
LAYOUT
  5
22
102
{ACAD_REACTORS
330
1A
102
}
330
1A
100
AcDbPlotSettings
  1

  2
none_device
  4

  6

 40
0.0
 41
0.0
 42
0.0
 43
0.0
 44
0.0
 45
0.0
 46
0.0
 47
0.0
 48
0.0
 49
0.0
140
0.0
141
0.0
142
1.0
143
1.0
 70
  1712
 72
     0
 73
     0
 74
     0
  7

 75
     0
147
1.0
148
0.0
149
0.0
100
AcDbLayout
  1
Model
 70
     1
 71
     0
 10
0.0
 20
0.0
 11
12.0
 21
9.0
 12
0.0
 22
0.0
 32
0.0
 14
-1321.996306757159
 24
-1280.71595726021
 34
0.0
 15
-901.9963067571609
 25
-983.71595726021
 35
0.0
146
0.0
 13
0.0
 23
0.0
 33
0.0
 16
1.0
 26
0.0
 36
0.0
 17
0.0
 27
1.0
 37
0.0
 76
     0
330
1F
331
29
  0
MLINESTYLE
  5
18
102
{ACAD_REACTORS
330
17
102
}
330
17
100
AcDbMlineStyle
  2
Standard
 70
     0
  3

 62
   256
 51
90.0
 52
90.0
 71
     2
 49
0.5
 62
   256
  6
BYLAYER
 49
-0.5
 62
   256
  6
BYLAYER
  0
ACDBPLACEHOLDER
  5
F
102
{ACAD_REACTORS
330
E
102
}
330
E
  0
VISUALSTYLE
  5
2F
102
{ACAD_REACTORS
330
2A
102
}
330
2A
100
AcDbVisualStyle
  2
2dWireframe
 70
     4
 71
     0
 72
     2
 73
     0
 90
        0
 40
-0.6
 41
-30.0
 62
     5
 63
     7
 74
     1
 91
        4
 64
     7
 65
   257
 75
     1
175
     1
 42
1.0
 92
        0
 66
   257
 43
1.0
 76
     1
 77
     6
 78
     2
 67
     7
 79
     5
170
     0
171
     0
290
     0
174
     0
 93
        1
 44
0.0
173
     0
291
     0
 45
0.0
1001
ACAD
1000
AcDbSavedByObjectVersion
1070
     0
  0
VISUALSTYLE
  5
31
102
{ACAD_REACTORS
330
2A
102
}
330
2A
100
AcDbVisualStyle
  2
3D Hidden
 70
     6
 71
     1
 72
     2
 73
     2
 90
        0
 40
-0.6
 41
-30.0
 62
     5
 63
     7
 74
     2
 91
        2
 64
     7
 65
   257
 75
     2
175
     1
 42
40.0
 92
        0
 66
   257
 43
1.0
 76
     1
 77
     6
 78
     2
 67
     7
 79
     3
170
     0
171
     0
290
     0
174
     0
 93
        1
 44
0.0
173
     0
291
     0
 45
0.0
1001
ACAD
1000
AcDbSavedByObjectVersion
1070
     0
  0
VISUALSTYLE
  5
30
102
{ACAD_REACTORS
330
2A
102
}
330
2A
100
AcDbVisualStyle
  2
3dWireframe
 70
     5
 71
     0
 72
     2
 73
     0
 90
        0
 40
-0.6
 41
-30.0
 62
     5
 63
     7
 74
     1
 91
        4
 64
     7
 65
   257
 75
     1
175
     1
 42
1.0
 92
        0
 66
   257
 43
1.0
 76
     1
 77
     6
 78
     2
 67
     7
 79
     5
170
     0
171
     0
290
     0
174
     0
 93
        1
 44
0.0
173
     0
291
     0
 45
0.0
1001
ACAD
1000
AcDbSavedByObjectVersion
1070
     0
  0
VISUALSTYLE
  5
32
102
{ACAD_REACTORS
330
2A
102
}
330
2A
100
AcDbVisualStyle
  2
Basic
 70
     7
 71
     1
 72
     0
 73
     1
 90
        0
 40
-0.6
 41
-30.0
 62
     5
 63
     7
 74
     0
 91
        4
 64
     7
 65
   257
 75
     1
175
     1
 42
1.0
 92
        8
 66
     7
 43
1.0
 76
     1
 77
     6
 78
     2
 67
     7
 79
     5
170
     0
171
     0
290
     0
174
     0
 93
        1
 44
0.0
173
     0
291
     1
 45
0.0
1001
ACAD
1000
AcDbSavedByObjectVersion
1070
     0
  0
VISUALSTYLE
  5
36
102
{ACAD_REACTORS
330
2A
102
}
330
2A
100
AcDbVisualStyle
  2
Brighten
 70
    12
 71
     2
 72
     2
 73
     0
 90
        0
 40
-0.6
 41
-30.0
 62
     5
 63
     7
 74
     1
 91
        4
 64
     7
 65
   257
 75
     1
175
     1
 42
1.0
 92
        8
 66
     7
 43
1.0
 76
     1
 77
     6
 78
     2
 67
     7
 79
     5
170
     0
171
     0
290
     0
174
     0
 93
        1
 44
50.0
173
     0
291
     1
 45
0.0
1001
ACAD
1000
AcDbSavedByObjectVersion
1070
     0
  0
VISUALSTYLE
  5
3A
102
{ACAD_REACTORS
330
2A
102
}
330
2A
100
AcDbVisualStyle
  2
ColorChange
 70
    16
 71
     2
 72
     2
 73
     3
 90
        0
 40
-0.6
 41
-30.0
 62
     5
 63
     8
 74
     1
 91
        4
 64
     7
 65
   257
 75
     1
175
     1
 42
1.0
 92
        8
 66
     8
 43
1.0
 76
     1
 77
     6
 78
     2
 67
     7
 79
     5
170
     0
171
     0
290
     0
174
     0
 93
        1
 44
0.0
173
     0
291
     1
 45
0.0
1001
ACAD
1000
AcDbSavedByObjectVersion
1070
     0
  0
VISUALSTYLE
  5
34
102
{ACAD_REACTORS
330
2A
102
}
330
2A
100
AcDbVisualStyle
  2
Conceptual
 70
     9
 71
     3
 72
     2
 73
     0
 90
        0
 40
-0.6
 41
-30.0
 62
     5
 63
     7
 74
     2
 91
        2
 64
     7
 65
   257
 75
     1
175
     1
 42
40.0
 92
        8
 66
     7
 43
1.0
 76
     1
 77
     6
 78
     2
 67
     7
 79
     3
170
     0
171
     0
290
     0
174
     0
 93
        1
 44
0.0
173
     0
291
     0
 45
0.0
1001
ACAD
1000
AcDbSavedByObjectVersion
1070
     0
  0
VISUALSTYLE
  5
35
102
{ACAD_REACTORS
330
2A
102
}
330
2A
100
AcDbVisualStyle
  2
Dim
 70
    11
 71
     2
 72
     2
 73
     0
 90
        0
 40
-0.6
 41
-30.0
 62
     5
 63
     7
 74
     1
 91
        4
 64
     7
 65
   257
 75
     1
175
     1
 42
1.0
 92
        8
 66
     7
 43
1.0
 76
     1
 77
     6
 78
     2
 67
     7
 79
     5
170
     0
171
     0
290
     0
174
     0
 93
        1
 44
-50.0
173
     0
291
     1
 45
0.0
1001
ACAD
1000
AcDbSavedByObjectVersion
1070
     0
  0
VISUALSTYLE
  5
39
102
{ACAD_REACTORS
330
2A
102
}
330
2A
100
AcDbVisualStyle
  2
Facepattern
 70
    15
 71
     2
 72
     2
 73
     0
 90
        0
 40
-0.6
 41
-30.0
 62
     5
 63
     7
 74
     1
 91
        4
 64
     7
 65
   257
 75
     1
175
     1
 42
1.0
 92
        8
 66
     7
 43
1.0
 76
     1
 77
     6
 78
     2
 67
     7
 79
     5
170
     0
171
     0
290
     0
174
     0
 93
        1
 44
0.0
173
     0
291
     1
 45
0.0
1001
ACAD
1000
AcDbSavedByObjectVersion
1070
     0
  0
VISUALSTYLE
  5
2B
102
{ACAD_REACTORS
330
2A
102
}
330
2A
100
AcDbVisualStyle
  2
Flat
 70
     0
 71
     2
 72
     1
 73
     1
 90
        2
 40
-0.6
 41
30.0
 62
     5
 63
     7
 74
     0
 91
        4
 64
     7
 65
   257
 75
     1
175
     1
 42
1.0
 92
        8
 66
     7
 43
1.0
 76
     1
 77
     6
 78
     2
 67
     7
 79
     5
170
     0
171
     0
290
     0
174
     0
 93
       13
 44
0.0
173
     0
291
     1
 45
0.0
1001
ACAD
1000
AcDbSavedByObjectVersion
1070
     0
  0
VISUALSTYLE
  5
2C
102
{ACAD_REACTORS
330
2A
102
}
330
2A
100
AcDbVisualStyle
  2
FlatWithEdges
 70
     1
 71
     2
 72
     1
 73
     1
 90
        2
 40
-0.6
 41
30.0
 62
     5
 63
     7
 74
     1
 91
        4
 64
     7
 65
   257
 75
     1
175
     1
 42
1.0
 92
        0
 66
   257
 43
1.0
 76
     1
 77
     6
 78
     2
 67
     7
 79
     5
170
     0
171
     0
290
     0
174
     0
 93
       13
 44
0.0
173
     0
291
     1
 45
0.0
1001
ACAD
1000
AcDbSavedByObjectVersion
1070
     0
  0
VISUALSTYLE
  5
2D
102
{ACAD_REACTORS
330
2A
102
}
330
2A
100
AcDbVisualStyle
  2
Gouraud
 70
     2
 71
     2
 72
     2
 73
     1
 90
        2
 40
-0.6
 41
30.0
 62
     5
 63
     7
 74
     0
 91
        4
 64
     7
 65
   257
 75
     1
175
     1
 42
1.0
 92
        0
 66
     7
 43
1.0
 76
     1
 77
     6
 78
     2
 67
     7
 79
     5
170
     0
171
     0
290
     0
174
     0
 93
       13
 44
0.0
173
     0
291
     1
 45
0.0
1001
ACAD
1000
AcDbSavedByObjectVersion
1070
     0
  0
VISUALSTYLE
  5
2E
102
{ACAD_REACTORS
330
2A
102
}
330
2A
100
AcDbVisualStyle
  2
GouraudWithEdges
 70
     3
 71
     2
 72
     2
 73
     1
 90
        2
 40
-0.6
 41
30.0
 62
     5
 63
     7
 74
     1
 91
        4
 64
     7
 65
   257
 75
     1
175
     1
 42
1.0
 92
        0
 66
   257
 43
1.0
 76
     1
 77
     6
 78
     2
 67
     7
 79
     5
170
     0
171
     0
290
     0
174
     0
 93
       13
 44
0.0
173
     0
291
     1
 45
0.0
1001
ACAD
1000
AcDbSavedByObjectVersion
1070
     0
  0
VISUALSTYLE
  5
38
102
{ACAD_REACTORS
330
2A
102
}
330
2A
100
AcDbVisualStyle
  2
Linepattern
 70
    14
 71
     2
 72
     2
 73
     0
 90
        0
 40
-0.6
 41
-30.0
 62
     5
 63
     7
 74
     1
 91
        4
 64
     7
 65
   257
 75
     7
175
     7
 42
1.0
 92
        8
 66
     7
 43
1.0
 76
     1
 77
     6
 78
     2
 67
     7
 79
     5
170
     0
171
     0
290
     0
174
     0
 93
        1
 44
0.0
173
     0
291
     1
 45
0.0
1001
ACAD
1000
AcDbSavedByObjectVersion
1070
     0
  0
VISUALSTYLE
  5
33
102
{ACAD_REACTORS
330
2A
102
}
330
2A
100
AcDbVisualStyle
  2
Realistic
 70
     8
 71
     2
 72
     2
 73
     0
 90
        0
 40
-0.6
 41
-30.0
 62
     5
 63
     7
 74
     1
 91
        0
 64
     7
 65
   257
 75
     1
175
     1
 42
1.0
 92
        8
 66
     8
 43
1.0
 76
     1
 77
     6
 78
     2
 67
     7
 79
     5
170
     0
171
     0
290
     0
174
     0
 93
       13
 44
0.0
173
     0
291
     0
 45
0.0
1001
ACAD
1000
AcDbSavedByObjectVersion
1070
     0
  0
VISUALSTYLE
  5
37
102
{ACAD_REACTORS
330
2A
102
}
330
2A
100
AcDbVisualStyle
  2
Thicken
 70
    13
 71
     2
 72
     2
 73
     0
 90
        0
 40
-0.6
 41
-30.0
 62
     5
 63
     7
 74
     1
 91
        4
 64
     7
 65
   257
 75
     1
175
     1
 42
1.0
 92
       12
 66
     7
 43
1.0
 76
     1
 77
     6
 78
     2
 67
     7
 79
     5
170
     0
171
     0
290
     0
174
     0
 93
        1
 44
0.0
173
     0
291
     1
 45
0.0
1001
ACAD
1000
AcDbSavedByObjectVersion
1070
     0
  0
ENDSEC
  0
EOF
