  0
SECTION
  2
HEADER
  9
$ACADVER
  1
AC1015
  9
$ACADMAINTVER
 70
     6
  9
$DWGCODEPAGE
  3
ANSI_1252
  9
$INSBASE
 10
0.0
 20
0.0
 30
0.0
  9
$EXTMIN
 10
-1219.750287405319
 20
-1189.71103043147
 30
0.0
  9
$EXTMAX
 10
-799.7502874053208
 20
-892.7110304314699
 30
0.0
  9
$LIMMIN
 10
0.0
 20
0.0
  9
$LIMMAX
 10
12.0
 20
9.0
  9
$ORTHOMODE
 70
     0
  9
$REGENMODE
 70
     1
  9
$FILLMODE
 70
     1
  9
$QTEXTMODE
 70
     0
  9
$MIRRTEXT
 70
     1
  9
$LTSCALE
 40
1.0
  9
$ATTMODE
 70
     1
  9
$TEXTSIZE
 40
0.2
  9
$TRACEWID
 40
0.05
  9
$TEXTSTYLE
  7
Standard
  9
$CLAYER
  8
0
  9
$CELTYPE
  6
ByLayer
  9
$CECOLOR
 62
   256
  9
$CELTSCALE
 40
1.0
  9
$DISPSILH
 70
     0
  9
$DIMSCALE
 40
1.0
  9
$DIMASZ
 40
0.18
  9
$DIMEXO
 40
0.0625
  9
$DIMDLI
 40
0.38
  9
$DIMRND
 40
0.0
  9
$DIMDLE
 40
0.0
  9
$DIMEXE
 40
0.18
  9
$DIMTP
 40
0.0
  9
$DIMTM
 40
0.0
  9
$DIMTXT
 40
0.18
  9
$DIMCEN
 40
0.09
  9
$DIMTSZ
 40
0.0
  9
$DIMTOL
 70
     0
  9
$DIMLIM
 70
     0
  9
$DIMTIH
 70
     1
  9
$DIMTOH
 70
     1
  9
$DIMSE1
 70
     0
  9
$DIMSE2
 70
     0
  9
$DIMTAD
 70
     0
  9
$DIMZIN
 70
     0
  9
$DIMBLK
  1

  9
$DIMASO
 70
     1
  9
$DIMSHO
 70
     1
  9
$DIMPOST
  1

  9
$DIMAPOST
  1

  9
$DIMALT
 70
     0
  9
$DIMALTD
 70
     2
  9
$DIMALTF
 40
25.4
  9
$DIMLFAC
 40
1.0
  9
$DIMTOFL
 70
     0
  9
$DIMTVP
 40
0.0
  9
$DIMTIX
 70
     0
  9
$DIMSOXD
 70
     0
  9
$DIMSAH
 70
     0
  9
$DIMBLK1
  1

  9
$DIMBLK2
  1

  9
$DIMSTYLE
  2
Standard
  9
$DIMCLRD
 70
     0
  9
$DIMCLRE
 70
     0
  9
$DIMCLRT
 70
     0
  9
$DIMTFAC
 40
1.0
  9
$DIMGAP
 40
0.09
  9
$DIMJUST
 70
     0
  9
$DIMSD1
 70
     0
  9
$DIMSD2
 70
     0
  9
$DIMTOLJ
 70
     1
  9
$DIMTZIN
 70
     0
  9
$DIMALTZ
 70
     0
  9
$DIMALTTZ
 70
     0
  9
$DIMUPT
 70
     0
  9
$DIMDEC
 70
     4
  9
$DIMTDEC
 70
     4
  9
$DIMALTU
 70
     2
  9
$DIMALTTD
 70
     2
  9
$DIMTXSTY
  7
Standard
  9
$DIMAUNIT
 70
     0
  9
$DIMADEC
 70
     0
  9
$DIMALTRND
 40
0.0
  9
$DIMAZIN
 70
     0
  9
$DIMDSEP
 70
    46
  9
$DIMATFIT
 70
     3
  9
$DIMFRAC
 70
     0
  9
$DIMLDRBLK
  1

  9
$DIMLUNIT
 70
     2
  9
$DIMLWD
 70
    -2
  9
$DIMLWE
 70
    -2
  9
$DIMTMOVE
 70
     0
  9
$LUNITS
 70
     2
  9
$LUPREC
 70
     4
  9
$SKETCHINC
 40
0.1
  9
$FILLETRAD
 40
0.5
  9
$AUNITS
 70
     0
  9
$AUPREC
 70
     0
  9
$MENU
  1
.
  9
$ELEVATION
 40
0.0
  9
$PELEVATION
 40
0.0
  9
$THICKNESS
 40
0.0
  9
$LIMCHECK
 70
     0
  9
$CHAMFERA
 40
0.5
  9
$CHAMFERB
 40
0.5
  9
$CHAMFERC
 40
1.0
  9
$CHAMFERD
 40
0.0
  9
$SKPOLY
 70
     0
  9
$TDCREATE
 40
2455140.533630903
  9
$TDUCREATE
 40
2455140.491964236
  9
$TDUPDATE
 40
2455140.533630915
  9
$TDUUPDATE
 40
2455140.491964248
  9
$TDINDWG
 40
0.0000000116
  9
$TDUSRTIMER
 40
0.0000000116
  9
$USRTIMER
 70
     1
  9
$ANGBASE
 50
0.0
  9
$ANGDIR
 70
     0
  9
$PDMODE
 70
     0
  9
$PDSIZE
 40
0.0
  9
$PLINEWID
 40
0.0
  9
$SPLFRAME
 70
     0
  9
$SPLINETYPE
 70
     6
  9
$SPLINESEGS
 70
     8
  9
$HANDSEED
  5
418
  9
$SURFTAB1
 70
     6
  9
$SURFTAB2
 70
     6
  9
$SURFTYPE
 70
     6
  9
$SURFU
 70
     6
  9
$SURFV
 70
     6
  9
$UCSBASE
  2

  9
$UCSNAME
  2

  9
$UCSORG
 10
0.0
 20
0.0
 30
0.0
  9
$UCSXDIR
 10
1.0
 20
0.0
 30
0.0
  9
$UCSYDIR
 10
0.0
 20
1.0
 30
0.0
  9
$UCSORTHOREF
  2

  9
$UCSORTHOVIEW
 70
     0
  9
$UCSORGTOP
 10
0.0
 20
0.0
 30
0.0
  9
$UCSORGBOTTOM
 10
0.0
 20
0.0
 30
0.0
  9
$UCSORGLEFT
 10
0.0
 20
0.0
 30
0.0
  9
$UCSORGRIGHT
 10
0.0
 20
0.0
 30
0.0
  9
$UCSORGFRONT
 10
0.0
 20
0.0
 30
0.0
  9
$UCSORGBACK
 10
0.0
 20
0.0
 30
0.0
  9
$PUCSBASE
  2

  9
$PUCSNAME
  2

  9
$PUCSORG
 10
0.0
 20
0.0
 30
0.0
  9
$PUCSXDIR
 10
1.0
 20
0.0
 30
0.0
  9
$PUCSYDIR
 10
0.0
 20
1.0
 30
0.0
  9
$PUCSORTHOREF
  2

  9
$PUCSORTHOVIEW
 70
     0
  9
$PUCSORGTOP
 10
0.0
 20
0.0
 30
0.0
  9
$PUCSORGBOTTOM
 10
0.0
 20
0.0
 30
0.0
  9
$PUCSORGLEFT
 10
0.0
 20
0.0
 30
0.0
  9
$PUCSORGRIGHT
 10
0.0
 20
0.0
 30
0.0
  9
$PUCSORGFRONT
 10
0.0
 20
0.0
 30
0.0
  9
$PUCSORGBACK
 10
0.0
 20
0.0
 30
0.0
  9
$USERI1
 70
     0
  9
$USERI2
 70
     0
  9
$USERI3
 70
     0
  9
$USERI4
 70
     0
  9
$USERI5
 70
     0
  9
$USERR1
 40
16.0
  9
$USERR2
 40
0.0
  9
$USERR3
 40
0.0
  9
$USERR4
 40
0.0
  9
$USERR5
 40
0.0
  9
$WORLDVIEW
 70
     1
  9
$SHADEDGE
 70
     3
  9
$SHADEDIF
 70
    70
  9
$TILEMODE
 70
     1
  9
$MAXACTVP
 70
    64
  9
$PINSBASE
 10
0.0
 20
0.0
 30
0.0
  9
$PLIMCHECK
 70
     0
  9
$PEXTMIN
 10
1.00000000000000E+20
 20
1.00000000000000E+20
 30
1.00000000000000E+20
  9
$PEXTMAX
 10
-1.00000000000000E+20
 20
-1.00000000000000E+20
 30
-1.00000000000000E+20
  9
$PLIMMIN
 10
0.0
 20
0.0
  9
$PLIMMAX
 10
12.0
 20
9.0
  9
$UNITMODE
 70
     0
  9
$VISRETAIN
 70
     1
  9
$PLINEGEN
 70
     0
  9
$PSLTSCALE
 70
     1
  9
$TREEDEPTH
 70
  3020
  9
$CMLSTYLE
  2
Standard
  9
$CMLJUST
 70
     0
  9
$CMLSCALE
 40
1.0
  9
$PROXYGRAPHICS
 70
     1
  9
$MEASUREMENT
 70
     1
  9
$CELWEIGHT
370
    -1
  9
$ENDCAPS
280
     0
  9
$JOINSTYLE
280
     0
  9
$LWDISPLAY
290
     0
  9
$INSUNITS
 70
     1
  9
$HYPERLINKBASE
  1

  9
$STYLESHEET
  1

  9
$XEDIT
290
     1
  9
$CEPSNTYPE
380
     0
  9
$PSTYLEMODE
290
     1
  9
$FINGERPRINTGUID
  2
{F24DDBB2-94BD-436D-A5F1-9C54FCF4B93A}
  9
$VERSIONGUID
  2
{FAEB1C32-E019-11D5-929B-00C0DF256EC4}
  9
$EXTNAMES
290
     1
  9
$PSVPSCALE
 40
0.0
  9
$OLESTARTUP
290
     0
  0
ENDSEC
  0
SECTION
  2
CLASSES
  0
CLASS
  1
ACDBDICTIONARYWDFLT
  2
AcDbDictionaryWithDefault
  3
ObjectDBX Classes
 90
        0
280
     0
281
     0
  0
CLASS
  1
VISUALSTYLE
  2
AcDbVisualStyle
  3
ObjectDBX Classes
 90
     4095
280
     0
281
     0
  0
CLASS
  1

  2
exOdDbSpline
  3

 90
        0
280
     0
281
     1
  0
CLASS
  1

  2
exOdDbCircle
  3

 90
        0
280
     0
281
     1
  0
CLASS
  1
ACDBPLACEHOLDER
  2
AcDbPlaceHolder
  3
ObjectDBX Classes
 90
        0
280
     0
281
     0
  0
CLASS
  1
LAYOUT
  2
AcDbLayout
  3
ObjectDBX Classes
 90
        0
280
     0
281
     0
  0
ENDSEC
  0
SECTION
  2
TABLES
  0
TABLE
  2
VPORT
  5
8
330
0
100
AcDbSymbolTable
 70
     1
  0
VPORT
  5
29
330
8
100
AcDbSymbolTableRecord
100
AcDbViewportTableRecord
  2
*Active
 70
     0
 10
0.0
 20
0.0
 11
1.0
 21
1.0
 12
-1009.75028740532
 22
-1041.21103043147
 13
0.0
 23
0.0
 14
0.5
 24
0.5
 15
0.5
 25
0.5
 16
0.0
 26
0.0
 36
1.0
 17
0.0
 27
0.0
 37
0.0
 40
326.7
 41
1.60267857142857
 42
50.0
 43
0.0
 44
0.0
 50
0.0
 51
0.0
 71
     0
 72
   100
 73
     1
 74
     3
 75
     0
 76
     0
 77
     0
 78
     0
281
     0
 65
     1
110
0.0
120
0.0
130
0.0
111
1.0
121
0.0
131
0.0
112
0.0
122
1.0
132
0.0
 79
     0
146
0.0
  0
ENDTAB
  0
TABLE
  2
LTYPE
  5
5
330
0
100
AcDbSymbolTable
 70
     8
  0
LTYPE
  5
14
330
5
100
AcDbSymbolTableRecord
100
AcDbLinetypeTableRecord
  2
ByBlock
 70
     0
  3

 72
    65
 73
     0
 40
0.0
  0
LTYPE
  5
15
330
5
100
AcDbSymbolTableRecord
100
AcDbLinetypeTableRecord
  2
ByLayer
 70
     0
  3

 72
    65
 73
     0
 40
0.0
  0
LTYPE
  5
16
330
5
100
AcDbSymbolTableRecord
100
AcDbLinetypeTableRecord
  2
Continuous
 70
     0
  3
Solid line
 72
    65
 73
     0
 40
0.0
  0
LTYPE
  5
3B
330
5
100
AcDbSymbolTableRecord
100
AcDbLinetypeTableRecord
  2
DASHED
 70
     0
  3
Dashed
 72
    65
 73
     2
 40
15.0
 49
7.0
 74
     0
 49
-8.0
 74
     0
  0
LTYPE
  5
3C
330
5
100
AcDbSymbolTableRecord
100
AcDbLinetypeTableRecord
  2
DOTTED
 70
     0
  3
Dotted
 72
    65
 73
     2
 40
1.0
 49
0.0
 74
     0
 49
-1.0
 74
     0
  0
LTYPE
  5
3D
330
5
100
AcDbSymbolTableRecord
100
AcDbLinetypeTableRecord
  2
DOT_CENTER
 70
     0
  3
Dot_Center
 72
    65
 73
     4
 40
14.0
 49
12.0
 74
     0
 49
-1.0
 74
     0
 49
0.0
 74
     0
 49
-1.0
 74
     0
  0
LTYPE
  5
3E
330
5
100
AcDbSymbolTableRecord
100
AcDbLinetypeTableRecord
  2
LONG_DASHED
 70
     0
  3
Long_Dashed
 72
    65
 73
     2
 40
15.0
 49
10.0
 74
     0
 49
-5.0
 74
     0
  0
LTYPE
  5
3F
330
5
100
AcDbSymbolTableRecord
100
AcDbLinetypeTableRecord
  2
DASH_CENTER
 70
     0
  3
Dash_Center
 72
    65
 73
     4
 40
14.0
 49
11.0
 74
     0
 49
-1.0
 74
     0
 49
1.0
 74
     0
 49
-1.0
 74
     0
  0
LTYPE
  5
40
330
5
100
AcDbSymbolTableRecord
100
AcDbLinetypeTableRecord
  2
PHANTOM
 70
     0
  3
Phantom
 72
    65
 73
     6
 40
13.0
 49
10.0
 74
     0
 49
-1.0
 74
     0
 49
0.0
 74
     0
 49
-1.0
 74
     0
 49
0.0
 74
     0
 49
-1.0
 74
     0
  0
LTYPE
  5
41
330
5
100
AcDbSymbolTableRecord
100
AcDbLinetypeTableRecord
  2
CENTER_DASH_DASH
 70
     0
  3
Center_Dash_Dash
 72
    65
 73
     6
 40
14.0
 49
9.0
 74
     0
 49
-1.0
 74
     0
 49
1.0
 74
     0
 49
-1.0
 74
     0
 49
1.0
 74
     0
 49
-1.0
 74
     0
  0
ENDTAB
  0
TABLE
  2
LAYER
  5
2
330
0
100
AcDbSymbolTable
 70
     2
  0
LAYER
  5
10
330
2
100
AcDbSymbolTableRecord
100
AcDbLayerTableRecord
  2
0
 70
     0
 62
     7
  6
Continuous
370
    -3
390
F
  0
LAYER
  5
42
330
2
100
AcDbSymbolTableRecord
100
AcDbLayerTableRecord
  2
1
 70
     0
 62
     7
  6
Continuous
370
    -3
390
F
  0
ENDTAB
  0
TABLE
  2
STYLE
  5
3
330
0
100
AcDbSymbolTable
 70
     9
  0
STYLE
  5
11
330
3
100
AcDbSymbolTableRecord
100
AcDbTextStyleTableRecord
  2
Standard
 70
     0
 40
0.0
 41
1.0
 50
0.0
 71
     0
 42
0.2
  3
txt
  4

  0
STYLE
  5
F3
330
3
100
AcDbSymbolTableRecord
100
AcDbTextStyleTableRecord
  2
CONVERTER_11
 70
     0
 40
0.0
 41
0.9
 50
0.0
 71
     0
 42
0.2
  3
txt.shx
  4

  0
STYLE
  5
38F
330
3
100
AcDbSymbolTableRecord
100
AcDbTextStyleTableRecord
  2
CONVERTER_12
 70
     0
 40
0.0
 41
0.765
 50
0.0
 71
     0
 42
0.2
  3
txt.shx
  4

  0
STYLE
  5
3B6
330
3
100
AcDbSymbolTableRecord
100
AcDbTextStyleTableRecord
  2
CONVERTER_13
 70
     0
 40
0.0
 41
0.855
 50
0.0
 71
     0
 42
0.2
  3
txt.shx
  4

  0
STYLE
  5
3D2
330
3
100
AcDbSymbolTableRecord
100
AcDbTextStyleTableRecord
  2
CONVERTER_14
 70
     0
 40
0.0
 41
0.72
 50
0.0
 71
     0
 42
0.2
  3
txt.shx
  4

  0
STYLE
  5
3D4
330
3
100
AcDbSymbolTableRecord
100
AcDbTextStyleTableRecord
  2
CONVERTER_15
 70
     0
 40
0.0
 41
0.54
 50
0.0
 71
     0
 42
0.2
  3
txt.shx
  4

  0
STYLE
  5
3D6
330
3
100
AcDbSymbolTableRecord
100
AcDbTextStyleTableRecord
  2
CONVERTER_16
 70
     0
 40
0.0
 41
0.81
 50
0.0
 71
     0
 42
0.2
  3
txt.shx
  4

  0
STYLE
  5
3F1
330
3
100
AcDbSymbolTableRecord
100
AcDbTextStyleTableRecord
  2
CONVERTER_17
 70
     0
 40
0.0
 41
0.45
 50
0.0
 71
     0
 42
0.2
  3
txt.shx
  4

  0
STYLE
  5
3F4
330
3
100
AcDbSymbolTableRecord
100
AcDbTextStyleTableRecord
  2
CONVERTER_18
 70
     0
 40
0.0
 41
0.63
 50
0.0
 71
     0
 42
0.2
  3
txt.shx
  4

  0
ENDTAB
  0
TABLE
  2
VIEW
  5
6
330
0
100
AcDbSymbolTable
 70
     0
  0
ENDTAB
  0
TABLE
  2
UCS
  5
7
330
0
100
AcDbSymbolTable
 70
     0
  0
ENDTAB
  0
TABLE
  2
APPID
  5
9
330
0
100
AcDbSymbolTable
 70
     1
  0
APPID
  5
12
330
9
100
AcDbSymbolTableRecord
100
AcDbRegAppTableRecord
  2
ACAD
 70
     0
  0
ENDTAB
  0
TABLE
  2
DIMSTYLE
  5
A
330
0
100
AcDbSymbolTable
 70
     5
100
AcDbDimStyleTable
  0
DIMSTYLE
105
27
330
A
100
AcDbSymbolTableRecord
100
AcDbDimStyleTableRecord
  2
Standard
 70
     0
340
11
  0
DIMSTYLE
105
14C
102
{ACAD_REACTORS
330
14D
102
}
330
A
100
AcDbSymbolTableRecord
100
AcDbDimStyleTableRecord
  2
ME10_DIM_10
 70
     0
 41
3.5
 42
0.0
 44
2.0
 73
     0
 74
     0
 77
     1
 78
     8
140
3.5
147
2.0
172
     1
173
     1
176
     2
177
     2
178
     3
340
F3
  0
DIMSTYLE
105
159
102
{ACAD_REACTORS
330
15A
102
}
330
A
100
AcDbSymbolTableRecord
100
AcDbDimStyleTableRecord
  2
ME10_DIM_11
 70
     0
 41
3.5
 42
0.0
 44
2.0
 73
     0
 74
     0
 77
     1
 78
     8
140
3.5
147
2.0
172
     1
173
     1
176
     2
177
     2
178
     3
340
F3
  0
DIMSTYLE
105
1F9
102
{ACAD_REACTORS
330
1FA
102
}
330
A
100
AcDbSymbolTableRecord
100
AcDbDimStyleTableRecord
  2
ME10_DIM_12
 70
     0
 41
3.5
 42
0.0
 44
2.0
 73
     0
 74
     0
 77
     1
 78
     8
140
3.5
147
2.0
172
     1
173
     1
176
     2
177
     2
178
     3
271
     1
340
F3
  0
DIMSTYLE
105
204
102
{ACAD_REACTORS
330
205
102
}
330
A
100
AcDbSymbolTableRecord
100
AcDbDimStyleTableRecord
  2
ME10_DIM_13
 70
     0
 41
3.5
 42
0.0
 44
2.0
 73
     0
 74
     0
 77
     1
 78
     8
140
3.5
147
2.0
172
     1
173
     1
176
     2
177
     2
178
     3
271
     1
340
F3
  0
ENDTAB
  0
TABLE
  2
BLOCK_RECORD
  5
1
330
0
100
AcDbSymbolTable
 70
    20
  0
BLOCK_RECORD
  5
1F
330
1
100
AcDbSymbolTableRecord
100
AcDbBlockTableRecord
  2
*Model_Space
340
22
  0
BLOCK_RECORD
  5
1B
330
1
100
AcDbSymbolTableRecord
100
AcDbBlockTableRecord
  2
*Paper_Space
340
1E
  0
BLOCK_RECORD
  5
23
330
1
100
AcDbSymbolTableRecord
100
AcDbBlockTableRecord
  2
*Paper_Space0
340
26
  0
BLOCK_RECORD
  5
43
330
1
100
AcDbSymbolTableRecord
100
AcDbBlockTableRecord
  2
3074541_UW_25_F-select__1
340
0
102
{BLKREFS
331
47
102
}
  0
BLOCK_RECORD
  5
46
330
1
100
AcDbSymbolTableRecord
100
AcDbBlockTableRecord
  2
AllgSicht1
340
0
102
{BLKREFS
331
78
102
}
  0
BLOCK_RECORD
  5
4A
330
1
100
AcDbSymbolTableRecord
100
AcDbBlockTableRecord
  2
3074541_UW_25_F-select__2
340
0
102
{BLKREFS
331
4E
102
}
  0
BLOCK_RECORD
  5
4D
330
1
100
AcDbSymbolTableRecord
100
AcDbBlockTableRecord
  2
Drfsicht1
340
0
102
{BLKREFS
331
79
102
}
  0
BLOCK_RECORD
  5
51
330
1
100
AcDbSymbolTableRecord
100
AcDbBlockTableRecord
  2
3074541_UW_25_F-select__3
340
0
102
{BLKREFS
331
55
102
}
  0
BLOCK_RECORD
  5
54
330
1
100
AcDbSymbolTableRecord
100
AcDbBlockTableRecord
  2
Rckans1
340
0
102
{BLKREFS
331
7A
102
}
  0
BLOCK_RECORD
  5
58
330
1
100
AcDbSymbolTableRecord
100
AcDbBlockTableRecord
  2
3074541_UW_25_F-select__4
340
0
102
{BLKREFS
331
5C
102
}
  0
BLOCK_RECORD
  5
5B
330
1
100
AcDbSymbolTableRecord
100
AcDbBlockTableRecord
  2
SA_Links1
340
0
102
{BLKREFS
331
7B
102
}
  0
BLOCK_RECORD
  5
5F
330
1
100
AcDbSymbolTableRecord
100
AcDbBlockTableRecord
  2
3074541_UW_25_F-select__5
340
0
102
{BLKREFS
331
63
102
}
  0
BLOCK_RECORD
  5
62
330
1
100
AcDbSymbolTableRecord
100
AcDbBlockTableRecord
  2
SA_Rechts1
340
0
102
{BLKREFS
331
7C
102
}
  0
BLOCK_RECORD
  5
66
330
1
100
AcDbSymbolTableRecord
100
AcDbBlockTableRecord
  2
3074541_UW_25_F-select__6
340
0
102
{BLKREFS
331
6A
102
}
  0
BLOCK_RECORD
  5
69
330
1
100
AcDbSymbolTableRecord
100
AcDbBlockTableRecord
  2
Vordans1
340
0
102
{BLKREFS
331
7D
102
}
  0
BLOCK_RECORD
  5
6D
330
1
100
AcDbSymbolTableRecord
100
AcDbBlockTableRecord
  2
_rahmen
340
0
102
{BLKREFS
331
74
102
}
  0
BLOCK_RECORD
  5
70
330
1
100
AcDbSymbolTableRecord
100
AcDbBlockTableRecord
  2
_punkt
340
0
102
{BLKREFS
331
75
102
}
  0
BLOCK_RECORD
  5
73
330
1
100
AcDbSymbolTableRecord
100
AcDbBlockTableRecord
  2
A3I
340
0
102
{BLKREFS
331
7E
102
}
  0
BLOCK_RECORD
  5
140
330
1
100
AcDbSymbolTableRecord
100
AcDbBlockTableRecord
  2
*D16
340
0
  0
BLOCK_RECORD
  5
14E
330
1
100
AcDbSymbolTableRecord
100
AcDbBlockTableRecord
  2
*D17
340
0
  0
BLOCK_RECORD
  5
1F0
330
1
100
AcDbSymbolTableRecord
100
AcDbBlockTableRecord
  2
*D18
340
0
  0
BLOCK_RECORD
  5
1FB
330
1
100
AcDbSymbolTableRecord
100
AcDbBlockTableRecord
  2
*D19
340
0
  0
ENDTAB
  0
ENDSEC
  0
SECTION
  2
BLOCKS
  0
BLOCK
  5
20
330
1F
100
AcDbEntity
  8
0
100
AcDbBlockBegin
  2
*Model_Space
 70
     0
 10
0.0
 20
0.0
 30
0.0
  3
*Model_Space
  1

  0
ENDBLK
  5
21
330
1F
100
AcDbEntity
  8
0
100
AcDbBlockEnd
  0
BLOCK
  5
1C
330
1B
100
AcDbEntity
 67
     1
  8
0
100
AcDbBlockBegin
  2
*Paper_Space
 70
     0
 10
0.0
 20
0.0
 30
0.0
  3
*Paper_Space
  1

  0
ENDBLK
  5
1D
330
1B
100
AcDbEntity
 67
     1
  8
0
100
AcDbBlockEnd
  0
BLOCK
  5
24
330
23
100
AcDbEntity
  8
0
100
AcDbBlockBegin
  2
*Paper_Space0
 70
     0
 10
0.0
 20
0.0
 30
0.0
  3
*Paper_Space0
  1

  0
ENDBLK
  5
25
330
23
100
AcDbEntity
  8
0
100
AcDbBlockEnd
  0
BLOCK
  5
44
330
43
100
AcDbEntity
  8
0
100
AcDbBlockBegin
  2
3074541_UW_25_F-select__1
 70
     0
 10
-940.6753672988076
 20
-1123.077825572509
 30
0.0
  3
3074541_UW_25_F-select__1
  1

  0
LINE
  5
7F
330
43
100
AcDbEntity
  8
0
  6
Continuous
 62
     2
100
AcDbLine
 10
-897.8563789609993
 20
-1075.828744851006
 30
0.0
 11
-899.8563789609993
 21
-1077.560795658575
 31
0.0
  0
LINE
  5
80
330
43
100
AcDbEntity
  8
0
  6
Continuous
 62
     7
100
AcDbLine
 10
-889.9198729810994
 20
-1089.412166975544
 30
0.0
 11
-898.5801270189437
 21
-1086.912166975545
 31
0.0
  0
LINE
  5
81
330
43
100
AcDbEntity
  8
0
  6
Continuous
 62
     7
100
AcDbLine
 10
-898.5801270189437
 20
-1086.912166975545
 30
0.0
 11
-898.5801270189419
 21
-1103.280047107425
 31
0.0
  0
LINE
  5
82
330
43
100
AcDbEntity
  8
0
  6
Continuous
 62
     7
100
AcDbLine
 10
-898.5801270189442
 20
-1082.582039956623
 30
0.0
 11
-897.3301270179389
 21
-1081.499508201114
 31
0.0
  0
LINE
  5
83
330
43
100
AcDbEntity
  8
0
  6
Continuous
 62
     7
100
AcDbLine
 10
-898.5801270189417
 20
-1105.098700455372
 30
0.0
 11
-898.5801270189413
 21
-1108.129789368291
 31
0.0
  0
LINE
  5
84
330
43
100
AcDbEntity
  8
0
  6
Continuous
 62
     7
100
AcDbLine
 10
-898.5801270189445
 20
-1080.16590751211
 30
0.0
 11
-898.5801270189442
 21
-1082.582039956623
 31
0.0
  0
LINE
  5
85
330
43
100
AcDbEntity
  8
0
  6
Continuous
 62
     7
100
AcDbLine
 10
-896.5801270189417
 20
-1103.280047105788
 30
0.0
 11
-896.5801270189435
 21
-1087.489517244735
 31
0.0
  0
LINE
  5
86
330
43
100
AcDbEntity
  8
0
  6
Continuous
 62
     2
100
AcDbLine
 10
-898.5801270189445
 20
-1080.16590751211
 30
0.0
 11
-896.5801270189445
 21
-1078.433856704541
 31
0.0
  0
LINE
  5
87
330
43
100
AcDbEntity
  8
0
  6
Continuous
 62
     2
100
AcDbLine
 10
-898.5801270189413
 20
-1108.129789368291
 30
0.0
 11
-896.5801270189413
 21
-1106.397738560723
 31
0.0
  0
LINE
  5
88
330
43
100
AcDbEntity
  8
0
  6
Continuous
 62
     7
100
AcDbLine
 10
-889.9198729810975
 20
-1105.780047107423
 30
0.0
 11
-898.5801270189419
 21
-1103.280047107425
 31
0.0
  0
LINE
  5
89
330
43
100
AcDbEntity
  8
0
  6
Continuous
 62
     7
100
AcDbLine
 10
-889.9198729810972
 20
-1107.598700455371
 30
0.0
 11
-898.5801270189417
 21
-1105.098700455372
 31
0.0
  0
LINE
  5
8A
330
43
100
AcDbEntity
  8
0
  6
Continuous
 62
     7
100
AcDbLine
 10
-896.5801270189413
 20
-1106.397738560723
 30
0.0
 11
-896.5801270189413
 21
-1105.676050724561
 31
0.0
  0
LINE
  5
8B
330
43
100
AcDbEntity
  8
0
  6
Continuous
 62
     7
100
AcDbLine
 10
-898.0801270175886
 20
-1102.847034404324
 30
0.0
 11
-889.9198729810975
 21
-1105.202696836434
 31
0.0
  0
LINE
  5
8C
330
43
100
AcDbEntity
  8
0
  6
Continuous
 62
     7
100
AcDbLine
 10
-898.5801270189419
 20
-1103.280047107425
 30
0.0
 11
-898.0801270175886
 21
-1102.847034404324
 31
0.0
  0
LINE
  5
8D
330
43
100
AcDbEntity
  8
0
  6
Continuous
 62
     7
100
AcDbLine
 10
-915.8231575624352
 20
-1106.529654280087
 30
0.0
 11
-913.2731575624352
 21
-1104.321289500436
 31
0.0
  0
LINE
  5
8E
330
43
100
AcDbEntity
  8
0
  6
Continuous
 62
     7
100
AcDbLine
 10
-898.6858128854794
 20
-1108.382753841301
 30
0.0
 11
-896.6858128854794
 21
-1106.650703033732
 31
0.0
  0
LINE
  5
8F
330
43
100
AcDbEntity
  8
0
  6
Continuous
 62
     7
100
AcDbLine
 10
-878.5672925549403
 20
-1114.657552400754
 30
0.0
 11
-878.5672925549399
 21
-1118.987679419677
 31
0.0
  0
LINE
  5
90
330
43
100
AcDbEntity
  8
0
  6
Continuous
 62
     2
100
AcDbLine
 10
-845.9428967202373
 20
-1121.02476364382
 30
0.0
 11
-847.9428967202373
 21
-1122.756814451389
 31
0.0
  0
LINE
  5
91
330
43
100
AcDbEntity
  8
0
  6
Continuous
 62
     2
100
AcDbLine
 10
-867.5577426726124
 20
-1113.014860947129
 30
0.0
 11
-867.5577426726117
 21
-1120.462679419675
 31
0.0
  0
LINE
  5
92
330
43
100
AcDbEntity
  8
0
  6
Continuous
 62
     7
100
AcDbLine
 10
-865.0077426726117
 20
-1118.254314640025
 30
0.0
 11
-867.5577426726117
 21
-1120.462679419675
 31
0.0
  0
LINE
  5
93
330
43
100
AcDbEntity
  8
0
  6
Continuous
 62
     7
100
AcDbLine
 10
-940.1241907994272
 20
-1096.570063866741
 30
0.0
 11
-926.8004156618659
 21
-1100.416306447886
 31
0.0
  0
LINE
  5
94
330
43
100
AcDbEntity
  8
0
  6
Continuous
 62
     7
100
AcDbLine
 10
-874.5340221142421
 20
-1100.40649616748
 30
0.0
 11
-875.2268424372697
 21
-1100.20649616748
 31
0.0
  0
LINE
  5
95
330
43
100
AcDbEntity
  8
0
  6
Continuous
 62
     7
100
AcDbLine
 10
-916.5576668301078
 20
-1099.043006326591
 30
0.0
 11
-922.7994370040647
 21
-1097.241162481515
 31
0.0
  0
LINE
  5
96
330
43
100
AcDbEntity
  8
0
  6
Continuous
 62
     7
100
AcDbLine
 10
-922.7994370040647
 20
-1097.241162481515
 30
0.0
 11
-926.5330050559033
 21
-1100.474527261165
 31
0.0
  0
LINE
  5
97
330
43
100
AcDbEntity
  8
0
  6
Continuous
 62
     2
100
AcDbLine
 10
-926.7965532661374
 20
-1100.398447446104
 30
0.0
 11
-926.5330050559033
 21
-1100.474527261165
 31
0.0
  0
LINE
  5
98
330
43
100
AcDbEntity
  8
0
  6
Continuous
 62
     2
100
AcDbLine
 10
-926.7269707159248
 20
-1099.952027847206
 30
0.0
 11
-926.3164987049572
 21
-1100.070520910219
 31
0.0
  0
LINE
  5
99
330
43
100
AcDbEntity
  8
0
  6
Continuous
 62
     7
100
AcDbLine
 10
-889.2857577818701
 20
-1081.148120674054
 30
0.0
 11
-887.2857577818701
 21
-1079.416069866485
 31
0.0
  0
LINE
  5
9A
330
43
100
AcDbEntity
  8
0
  6
Continuous
 62
     7
100
AcDbLine
 10
-897.3301270179389
 20
-1081.499508201114
 30
0.0
 11
-889.9198729811
 21
-1083.638664282397
 31
0.0
  0
LINE
  5
9B
330
43
100
AcDbEntity
  8
0
  6
Continuous
 62
     7
100
AcDbLine
 10
-889.9198729810997
 20
-1085.082039956622
 30
0.0
 11
-898.5801270189442
 21
-1082.582039956623
 31
0.0
  0
LINE
  5
9C
330
43
100
AcDbEntity
  8
0
  6
Continuous
 62
     7
100
AcDbLine
 10
-889.9198729810995
 20
-1082.66590751211
 30
0.0
 11
-889.9198729810997
 21
-1085.082039956622
 31
0.0
  0
LINE
  5
9D
330
43
100
AcDbEntity
  8
0
  6
Continuous
 62
     2
100
AcDbLine
 10
-853.9203035998696
 20
-1086.700405161735
 30
0.0
 11
-851.9203035998696
 21
-1084.968354354166
 31
0.0
  0
LINE
  5
9E
330
43
100
AcDbEntity
  8
0
  6
Continuous
 62
     7
100
AcDbLine
 10
-896.580127018944
 20
-1081.716014551751
 30
0.0
 11
-896.5801270189445
 21
-1078.433856704541
 31
0.0
  0
LINE
  5
9F
330
43
100
AcDbEntity
  8
0
  6
Continuous
 62
     2
100
AcDbLine
 10
-852.185415855031
 20
-1088.965677095428
 30
0.0
 11
-850.1854158550309
 21
-1087.233626287859
 31
0.0
  0
LINE
  5
A0
330
43
100
AcDbEntity
  8
0
  6
Continuous
 62
     7
100
AcDbLine
 10
-926.0422573270926
 20
-1096.131835807541
 30
0.0
 11
-923.4922573270934
 21
-1086.273471027891
 31
0.0
  0
LINE
  5
A1
330
43
100
AcDbEntity
  8
0
  6
Continuous
 62
     7
100
AcDbLine
 10
-926.3164987049572
 20
-1100.070520910219
 30
0.0
 11
-922.7994370040659
 21
-1086.473471027891
 31
0.0
  0
LINE
  5
A2
330
43
100
AcDbEntity
  8
0
  6
Continuous
 62
     7
100
AcDbLine
 10
-922.7994370040659
 20
-1086.473471027891
 30
0.0
 11
-923.4922573270934
 21
-1086.273471027891
 31
0.0
  0
LINE
  5
A3
330
43
100
AcDbEntity
  8
0
  6
Continuous
 62
     7
100
AcDbLine
 10
-913.9659778854646
 20
-1089.02347102789
 30
0.0
 11
-917.483039586356
 21
-1102.620520910218
 31
0.0
  0
LINE
  5
A4
330
43
100
AcDbEntity
  8
0
  6
Continuous
 62
     2
100
AcDbLine
 10
-917.483039586356
 20
-1102.620520910218
 30
0.0
 11
-917.0725675753883
 21
-1102.739013973232
 31
0.0
  0
LINE
  5
A5
330
43
100
AcDbEntity
  8
0
  6
Continuous
 62
     7
100
AcDbLine
 10
-913.2731575624371
 20
-1089.22347102789
 30
0.0
 11
-913.9659778854646
 21
-1089.02347102789
 31
0.0
  0
LINE
  5
A6
330
43
100
AcDbEntity
  8
0
  6
Continuous
 62
     7
100
AcDbLine
 10
-913.2731575624371
 20
-1089.22347102789
 30
0.0
 11
-915.8231575624361
 21
-1099.08183580754
 31
0.0
  0
LINE
  5
A7
330
43
100
AcDbEntity
  8
0
  6
Continuous
 62
     7
100
AcDbLine
 10
-922.7994370040659
 20
-1086.473471027891
 30
0.0
 11
-922.7994370040647
 21
-1097.241162481515
 31
0.0
  0
LINE
  5
A8
330
43
100
AcDbEntity
  8
0
  6
Continuous
 62
     7
100
AcDbLine
 10
-878.0510838151336
 20
-1114.003546049808
 30
0.0
 11
-874.5340221142421
 21
-1100.40649616748
 31
0.0
  0
LINE
  5
A9
330
43
100
AcDbEntity
  8
0
  6
Continuous
 62
     7
100
AcDbLine
 10
-848.3758092006109
 20
-1123.055540273625
 30
0.0
 11
-865.0077426726117
 21
-1118.254314640025
 31
0.0
  0
LINE
  5
AA
330
43
100
AcDbEntity
  8
0
  6
Continuous
 62
     7
100
AcDbLine
 10
-874.534022114241
 20
-1111.174187621104
 30
0.0
 11
-878.2675901660797
 21
-1114.407552400754
 31
0.0
  0
LINE
  5
AB
330
43
100
AcDbEntity
  8
0
  6
Continuous
 62
     7
100
AcDbLine
 10
-868.2922519402841
 20
-1112.97603146618
 30
0.0
 11
-874.534022114241
 21
-1111.174187621104
 31
0.0
  0
LINE
  5
AC
330
43
100
AcDbEntity
  8
0
  6
Continuous
 62
     7
100
AcDbLine
 10
-878.5350007720423
 20
-1114.349331587475
 30
0.0
 11
-889.4868602792046
 21
-1111.187802070182
 31
0.0
  0
LINE
  5
AD
330
43
100
AcDbEntity
  8
0
  6
Continuous
 62
     7
100
AcDbLine
 10
-865.7005629956409
 20
-1102.956496167479
 30
0.0
 11
-869.2176246965323
 21
-1116.553546049807
 31
0.0
  0
LINE
  5
AE
330
43
100
AcDbEntity
  8
0
  6
Continuous
 62
     2
100
AcDbLine
 10
-869.2176246965323
 20
-1116.553546049807
 30
0.0
 11
-868.8071526855648
 21
-1116.672039112821
 31
0.0
  0
LINE
  5
AF
330
43
100
AcDbEntity
  8
0
  6
Continuous
 62
     7
100
AcDbLine
 10
-865.0077426726134
 20
-1103.156496167479
 30
0.0
 11
-867.5577426726124
 21
-1113.014860947129
 31
0.0
  0
LINE
  5
B0
330
43
100
AcDbEntity
  8
0
  6
Continuous
 62
     7
100
AcDbLine
 10
-865.0077426726134
 20
-1103.156496167479
 30
0.0
 11
-865.7005629956409
 21
-1102.956496167479
 31
0.0
  0
LINE
  5
B1
330
43
100
AcDbEntity
  8
0
  6
Continuous
 62
     2
100
AcDbLine
 10
-878.4615558261012
 20
-1113.885052986795
 30
0.0
 11
-878.0510838151336
 21
-1114.003546049808
 31
0.0
  0
LINE
  5
B2
330
43
100
AcDbEntity
  8
0
  6
Continuous
 62
     2
100
AcDbLine
 10
-878.5311383763137
 20
-1114.331472585693
 30
0.0
 11
-878.2675901660797
 21
-1114.407552400754
 31
0.0
  0
LINE
  5
B3
330
43
100
AcDbEntity
  8
0
  6
Continuous
 62
     7
100
AcDbLine
 10
-874.5340221142421
 20
-1100.40649616748
 30
0.0
 11
-874.534022114241
 21
-1111.174187621104
 31
0.0
  0
LINE
  5
B4
330
43
100
AcDbEntity
  8
0
  6
Continuous
 62
     7
100
AcDbLine
 10
-865.0077426726117
 20
-1118.254314640025
 30
0.0
 11
-865.0077426726134
 21
-1103.156496167479
 31
0.0
  0
LINE
  5
B5
330
43
100
AcDbEntity
  8
0
  6
Continuous
 62
     2
100
AcDbLine
 10
-869.4341310474783
 20
-1116.957552400753
 30
0.0
 11
-869.1705828372444
 21
-1117.033632215815
 31
0.0
  0
LINE
  5
B6
330
43
100
AcDbEntity
  8
0
  6
Continuous
 62
     7
100
AcDbLine
 10
-877.7768424372689
 20
-1110.06486094713
 30
0.0
 11
-875.2268424372697
 21
-1100.20649616748
 31
0.0
  0
LINE
  5
B7
330
43
100
AcDbEntity
  8
0
  6
Continuous
 62
     7
100
AcDbLine
 10
-846.048482365257
 20
-1121.268441237173
 30
0.0
 11
-848.048482365257
 21
-1123.000492044742
 31
0.0
  0
LINE
  5
B8
330
43
100
AcDbEntity
  8
0
  6
Continuous
 62
     2
100
AcDbLine
 10
-886.6436210390458
 20
-1079.065589253303
 30
0.0
 11
-888.6436210390459
 21
-1080.797640060873
 31
0.0
  0
LINE
  5
B9
330
43
100
AcDbEntity
  8
0
  6
Continuous
 62
     7
100
AcDbLine
 10
-889.9198729810972
 20
-1107.598700455371
 30
0.0
 11
-889.9198729810969
 21
-1110.62978936829
 31
0.0
  0
LINE
  5
BA
330
43
100
AcDbEntity
  8
0
  6
Continuous
 62
     7
100
AcDbLine
 10
-889.9198729810994
 20
-1089.412166975544
 30
0.0
 11
-889.9198729810975
 21
-1105.780047107423
 31
0.0
  0
LINE
  5
BB
330
43
100
AcDbEntity
  8
0
  6
Continuous
 62
     7
100
AcDbLine
 10
-926.832707444764
 20
-1100.724527261166
 30
0.0
 11
-926.8327074447634
 21
-1105.054654280088
 31
0.0
  0
LINE
  5
BC
330
43
100
AcDbEntity
  8
0
  6
Continuous
 62
     7
100
AcDbLine
 10
-913.2731575624352
 20
-1104.321289500436
 30
0.0
 11
-913.2731575624371
 21
-1089.22347102789
 31
0.0
  0
LINE
  5
BD
330
43
100
AcDbEntity
  8
0
  6
Continuous
 62
     2
100
AcDbLine
 10
-915.8231575624361
 20
-1099.08183580754
 30
0.0
 11
-915.8231575624352
 21
-1106.529654280087
 31
0.0
  0
LINE
  5
BE
330
43
100
AcDbEntity
  8
0
  6
Continuous
 62
     7
100
AcDbLine
 10
-913.2731575624352
 20
-1104.321289500436
 30
0.0
 11
-899.0131397208335
 21
-1108.437802070184
 31
0.0
  0
LINE
  5
BF
330
43
100
AcDbEntity
  8
0
  6
Continuous
 62
     2
100
AcDbLine
 10
-917.6995459373021
 20
-1103.024527261164
 30
0.0
 11
-917.4359977270681
 21
-1103.100607076226
 31
0.0
  0
LINE
  5
C0
330
43
100
AcDbEntity
  8
0
  6
Continuous
 62
     2
100
AcDbLine
 10
-934.5796964001763
 20
-1063.41604408878
 30
0.0
 11
-932.5796964001763
 21
-1061.683993281211
 31
0.0
  0
LINE
  5
C1
330
43
100
AcDbEntity
  8
0
  6
Continuous
 62
     7
100
AcDbLine
 10
-935.7820826352488
 20
-1063.852054198447
 30
0.0
 11
-933.7820826352488
 21
-1062.120003390879
 31
0.0
  0
SPLINE
  5
C2
330
43
100
AcDbEntity
  8
0
  6
Continuous
 62
     7
100
AcDbSpline
210
0.0
220
0.0
230
1.0
 70
     8
 71
     3
 72
    13
 73
     9
 74
     7
 42
0.0000000001
 43
0.0000000001
 44
0.00000001
 40
0.0
 40
0.0
 40
0.0
 40
0.0
 40
5.848111961565355
 40
11.93506356706022
 40
18.25410963983121
 40
24.78242040560759
 40
31.48401614177697
 40
38.31285794630515
 40
38.31285794630515
 40
38.31285794630515
 40
38.31285794630515
 10
-934.5796964001763
 20
-1063.41604408878
 30
0.0
 10
-932.6276569411333
 20
-1063.46842760297
 30
0.0
 10
-928.6438558131447
 20
-1063.575333998714
 30
0.0
 10
-922.6609355220719
 20
-1064.835541967395
 30
0.0
 10
-916.6685874266678
 20
-1066.855310711795
 30
0.0
 10
-910.7883409486259
 20
-1069.695473428455
 30
0.0
 10
-905.0896074410343
 20
-1073.229637886267
 30
0.0
 10
-901.6116910627262
 20
-1076.108053115186
 30
0.0
 10
-899.8563789609993
 20
-1077.560795658575
 30
0.0
 11
-934.5796964001763
 21
-1063.41604408878
 31
0.0
 11
-928.7408636656278
 21
-1063.745355207584
 31
0.0
 11
-922.7706838541584
 21
-1064.931918676751
 31
0.0
 11
-916.783565537267
 21
-1066.952996985314
 31
0.0
 11
-910.8942419257899
 21
-1069.769858510816
 31
0.0
 11
-905.2155723916023
 21
-1073.328523672436
 31
0.0
 11
-899.8563789609993
 21
-1077.560795658575
 31
0.0
  0
SPLINE
  5
C3
330
43
100
AcDbEntity
  8
0
  6
Continuous
 62
     7
100
AcDbSpline
210
0.0
220
0.0
230
1.0
 70
     8
 71
     3
 72
    11
 73
     7
 74
     5
 42
0.0000000001
 43
0.0000000001
 44
0.00000001
 40
0.0
 40
0.0
 40
0.0
 40
0.0
 40
0.7751740844459216
 40
1.5434448390712
 40
2.283692412870465
 40
2.980247425249601
 40
2.980247425249601
 40
2.980247425249601
 40
2.980247425249601
 10
-897.8563789609993
 20
-1075.828744851006
 30
0.0
 10
-897.6715942658718
 20
-1076.010719723795
 30
0.0
 10
-897.3036704797743
 20
-1076.373048888149
 30
0.0
 10
-896.9066379823106
 20
-1077.029244869547
 30
0.0
 10
-896.6352489492513
 20
-1077.721349589593
 30
0.0
 10
-896.5981246846304
 20
-1078.201218537078
 30
0.0
 10
-896.5801270189445
 20
-1078.433856704541
 30
0.0
 11
-897.8563789609993
 21
-1075.828744851006
 31
0.0
 11
-897.327144935888
 21
-1076.395142421499
 31
0.0
 11
-896.9216350184272
 21
-1077.047677216935
 31
0.0
 11
-896.666955547628
 21
-1077.742734651733
 31
0.0
 11
-896.5801270189445
 21
-1078.433856704541
 31
0.0
  0
SPLINE
  5
C4
330
43
100
AcDbEntity
  8
0
  6
Continuous
 62
     7
100
AcDbSpline
210
0.0
220
0.0
230
1.0
 70
     8
 71
     3
 72
    11
 73
     7
 74
     5
 42
0.0000000001
 43
0.0000000001
 44
0.00000001
 40
0.0
 40
0.0
 40
0.0
 40
0.0
 40
0.775174084445833
 40
1.543444839071245
 40
2.283692412870509
 40
2.98024742524942
 40
2.98024742524942
 40
2.98024742524942
 40
2.98024742524942
 10
-899.8563789609993
 20
-1077.560795658575
 30
0.0
 10
-899.6715942658716
 20
-1077.742770531364
 30
0.0
 10
-899.3036704797739
 20
-1078.105099695717
 30
0.0
 10
-898.9066379823105
 20
-1078.761295677116
 30
0.0
 10
-898.6352489492513
 20
-1079.453400397162
 30
0.0
 10
-898.5981246846304
 20
-1079.933269344647
 30
0.0
 10
-898.5801270189445
 20
-1080.16590751211
 30
0.0
 11
-899.8563789609993
 21
-1077.560795658575
 31
0.0
 11
-899.3271449358879
 21
-1078.127193229068
 31
0.0
 11
-898.9216350184272
 21
-1078.779728024504
 31
0.0
 11
-898.666955547628
 21
-1079.474785459302
 31
0.0
 11
-898.5801270189445
 21
-1080.16590751211
 31
0.0
  0
SPLINE
  5
C5
330
43
100
AcDbEntity
  8
0
  6
Continuous
 62
     7
100
AcDbSpline
210
0.0
220
0.0
230
1.0
 70
     8
 71
     3
 72
     9
 73
     5
 74
     3
 42
0.0000000001
 43
0.0000000001
 44
0.00000001
 40
0.0
 40
0.0
 40
0.0
 40
0.0
 40
0.1459633107834766
 40
0.2806984726873777
 40
0.2806984726873777
 40
0.2806984726873777
 40
0.2806984726873777
 10
-898.5801270189413
 20
-1108.129789368291
 30
0.0
 10
-898.5842239563844
 20
-1108.179725890715
 30
0.0
 10
-898.5921026765693
 20
-1108.275757595534
 30
0.0
 10
-898.6554204012939
 20
-1108.348052374458
 30
0.0
 10
-898.6858128854794
 20
-1108.382753841301
 30
0.0
 11
-898.5801270189413
 21
-1108.129789368291
 31
0.0
 11
-898.6074085596623
 21
-1108.273180461567
 31
0.0
 11
-898.6858128854794
 21
-1108.382753841301
 31
0.0
  0
SPLINE
  5
C6
330
43
100
AcDbEntity
  8
0
  6
Continuous
 62
     7
100
AcDbSpline
210
0.0
220
0.0
230
1.0
 70
     8
 71
     3
 72
    11
 73
     7
 74
     5
 42
0.0000000001
 43
0.0000000001
 44
0.00000001
 40
0.0
 40
0.0
 40
0.0
 40
0.0
 40
0.0805526819592759
 40
0.1638036428744331
 40
0.2517511863415238
 40
0.3453217819150763
 40
0.3453217819150763
 40
0.3453217819150763
 40
0.3453217819150763
 10
-898.6858128854794
 20
-1108.382753841301
 30
0.0
 10
-898.7076692078392
 20
-1108.398678774505
 30
0.0
 10
-898.7521139753542
 20
-1108.43106207954
 30
0.0
 10
-898.8343512163281
 20
-1108.454026687939
 30
0.0
 10
-898.9233834937667
 20
-1108.458500183837
 30
0.0
 10
-898.9826094134589
 20
-1108.444842470528
 30
0.0
 10
-899.0131397208335
 20
-1108.437802070184
 30
0.0
 11
-898.6858128854794
 21
-1108.382753841301
 31
0.0
 11
-898.7535736827253
 21
-1108.426310803172
 31
0.0
 11
-898.8332057930402
 21
-1108.45058938427
 31
0.0
 11
-898.9210672796913
 21
-1108.454479058465
 31
0.0
 11
-899.0131397208335
 21
-1108.437802070184
 31
0.0
  0
SPLINE
  5
C7
330
43
100
AcDbEntity
  8
0
  6
Continuous
 62
     7
100
AcDbSpline
210
0.0
220
0.0
230
1.0
 70
     8
 71
     3
 72
    19
 73
    15
 74
    13
 42
0.0000000001
 43
0.0000000001
 44
0.00000001
 40
0.0
 40
0.0
 40
0.0
 40
0.0
 40
0.6536339421822692
 40
1.388787897641518
 40
2.252307625815947
 40
3.254517909031994
 40
4.380681639673492
 40
5.600388599049152
 40
6.873820824929515
 40
8.156387602417409
 40
9.402723856643814
 40
10.57059766314182
 40
11.62520459711902
 40
12.54462181041905
 40
12.54462181041905
 40
12.54462181041905
 40
12.54462181041905
 10
-878.5672925549399
 20
-1118.987679419677
 30
0.0
 10
-878.537246145384
 20
-1119.20660255743
 30
0.0
 10
-878.4734059937857
 20
-1119.67175252074
 30
0.0
 10
-878.0058888410773
 20
-1120.292341982843
 30
0.0
 10
-877.3273371840779
 20
-1120.835338363559
 30
0.0
 10
-876.4311622763285
 20
-1121.288852576181
 30
0.0
 10
-875.3676304002097
 20
-1121.636353674598
 30
0.0
 10
-874.179545633611
 20
-1121.862825148163
 30
0.0
 10
-872.9220433021967
 20
-1121.957961942896
 30
0.0
 10
-871.6530431053396
 20
-1121.91676275459
 30
0.0
 10
-870.4295978604198
 20
-1121.743106465102
 30
0.0
 10
-869.3130250036261
 20
-1121.438386629912
 30
0.0
 10
-868.3356058033218
 20
-1121.038189681849
 30
0.0
 10
-867.8049157315548
 20
-1120.645553020877
 30
0.0
 10
-867.5577426726117
 20
-1120.462679419675
 30
0.0
 11
-878.5672925549399
 21
-1118.987679419677
 31
0.0
 11
-878.4274384827961
 21
-1119.626176223802
 31
0.0
 11
-878.0145084984559
 21
-1120.234403291812
 31
0.0
 11
-877.3480768448508
 21
-1120.783525474955
 31
0.0
 11
-876.4597394520902
 21
-1121.247510526877
 31
0.0
 11
-875.3916091298536
 21
-1121.604361143986
 31
0.0
 11
-874.1943249210445
 21
-1121.837160607228
 31
0.0
 11
-872.9246469174237
 21
-1121.934871410275
 31
0.0
 11
-871.6427683067049
 21
-1121.892862291062
 31
0.0
 11
-870.4094605055201
 21
-1121.713123797311
 31
0.0
 11
-869.2831915804686
 21
-1121.404177950328
 31
0.0
 11
-868.3173566560357
 21
-1120.980670354247
 31
0.0
 11
-867.5577426726117
 21
-1120.462679419675
 31
0.0
  0
SPLINE
  5
C8
330
43
100
AcDbEntity
  8
0
  6
Continuous
 62
     7
100
AcDbSpline
210
0.0
220
0.0
230
1.0
 70
     8
 71
     3
 72
    11
 73
     7
 74
     5
 42
0.0000000001
 43
0.0000000001
 44
0.00000001
 40
0.0
 40
0.0
 40
0.0
 40
0.0
 40
0.0959062817222417
 40
0.2088268019270258
 40
0.333718745796035
 40
0.4640105822983587
 40
0.4640105822983587
 40
0.4640105822983587
 40
0.4640105822983587
 10
-917.6995459373021
 20
-1103.024527261164
 30
0.0
 10
-917.6770537946268
 20
-1103.001668500223
 30
0.0
 10
-917.6280792943219
 20
-1102.951895723534
 30
0.0
 10
-917.5708147352977
 20
-1102.855578569086
 30
0.0
 10
-917.5191626334022
 20
-1102.744034710975
 30
0.0
 10
-917.4952492772773
 20
-1102.662268920285
 30
0.0
 10
-917.483039586356
 20
-1102.620520910218
 30
0.0
 11
-917.6995459373021
 21
-1103.024527261164
 31
0.0
 11
-917.634841193277
 21
-1102.95373664756
 31
0.0
 11
-917.5745459373021
 21
-1102.858261383799
 31
0.0
 11
-917.5227692891351
 21
-1102.744607627381
 31
0.0
 11
-917.483039586356
 21
-1102.620520910218
 31
0.0
  0
SPLINE
  5
C9
330
43
100
AcDbEntity
  8
0
  6
Continuous
 62
     7
100
AcDbSpline
210
0.0
220
0.0
230
1.0
 70
     8
 71
     3
 72
     9
 73
     5
 74
     3
 42
0.0000000001
 43
0.0000000001
 44
0.00000001
 40
0.0
 40
0.0
 40
0.0
 40
0.0
 40
0.1459633107828065
 40
0.2806984726865226
 40
0.2806984726865226
 40
0.2806984726865226
 40
0.2806984726865226
 10
-896.5801270189413
 20
-1106.397738560723
 30
0.0
 10
-896.5842239563842
 20
-1106.447675083146
 30
0.0
 10
-896.5921026765695
 20
-1106.543706787966
 30
0.0
 10
-896.6554204012938
 20
-1106.616001566889
 30
0.0
 10
-896.6858128854794
 20
-1106.650703033732
 30
0.0
 11
-896.5801270189413
 21
-1106.397738560723
 31
0.0
 11
-896.6074085596623
 21
-1106.541129653998
 31
0.0
 11
-896.6858128854794
 21
-1106.650703033732
 31
0.0
  0
SPLINE
  5
CA
330
43
100
AcDbEntity
  8
0
  6
Continuous
 62
     7
100
AcDbSpline
210
0.0
220
0.0
230
1.0
 70
     8
 71
     3
 72
    17
 73
    13
 74
    11
 42
0.0000000001
 43
0.0000000001
 44
0.00000001
 40
0.0
 40
0.0
 40
0.0
 40
0.0
 40
0.4931678033572076
 40
1.069916362021306
 40
1.710294287878989
 40
2.38468000596029
 40
3.059065724041577
 40
3.699443649899306
 40
4.276192208563161
 40
4.769360011920492
 40
5.176508012362391
 40
5.524440887264258
 40
5.524440887264258
 40
5.524440887264258
 40
5.524440887264258
 10
-923.1843734946035
 20
-1100.074527261165
 30
0.0
 10
-923.0501177752008
 20
-1099.978456588218
 30
0.0
 10
-922.7588530375067
 20
-1099.770033442595
 30
0.0
 10
-922.2148472905827
 20
-1099.579613077886
 30
0.0
 10
-921.5967357526335
 20
-1099.452046776719
 30
0.0
 10
-920.9326108159253
 20
-1099.410263828853
 30
0.0
 10
-920.2690559066883
 20
-1099.452622927663
 30
0.0
 10
-919.649372894075
 20
-1099.577532759358
 30
0.0
 10
-919.1102790643931
 20
-1099.776564769023
 30
0.0
 10
-918.6936174468968
 20
-1100.038709850031
 30
0.0
 10
-918.395513453215
 20
-1100.355204515501
 30
0.0
 10
-918.3525188705751
 20
-1100.6080286911
 30
0.0
 10
-918.332707444764
 20
-1100.724527261165
 30
0.0
 11
-923.1843734946035
 21
-1100.074527261165
 31
0.0
 11
-922.7711845857002
 21
-1099.805288690697
 31
0.0
 11
-922.232707444764
 21
-1099.598694236246
 31
0.0
 11
-921.6056367826236
 21
-1099.468824021767
 31
0.0
 11
-920.932707444764
 21
-1099.424527261165
 31
0.0
 11
-920.2597781069044
 21
-1099.468824021767
 31
0.0
 11
-919.632707444764
 21
-1099.598694236246
 31
0.0
 11
-919.0942303038278
 21
-1099.805288690697
 31
0.0
 11
-918.6810413949245
 21
-1100.074527261165
 31
0.0
 11
-918.4213009659682
 21
-1100.388062592235
 31
0.0
 11
-918.332707444764
 21
-1100.724527261165
 31
0.0
  0
SPLINE
  5
CB
330
43
100
AcDbEntity
  8
0
  6
Continuous
 62
     7
100
AcDbSpline
210
0.0
220
0.0
230
1.0
 70
     8
 71
     3
 72
     9
 73
     5
 74
     3
 42
0.0000000001
 43
0.0000000001
 44
0.00000001
 40
0.0
 40
0.0
 40
0.0
 40
0.0
 40
0.3479328749013982
 40
0.7550808753432977
 40
0.7550808753432977
 40
0.7550808753432977
 40
0.7550808753432977
 10
-923.5327074447639
 20
-1100.724527261165
 30
0.0
 10
-923.5134188834181
 20
-1100.607109429256
 30
0.0
 10
-923.471559016657
 20
-1100.352290279659
 30
0.0
 10
-923.2849793335188
 20
-1100.171832241219
 30
0.0
 10
-923.1843734946035
 20
-1100.074527261165
 30
0.0
 11
-923.5327074447639
 21
-1100.724527261165
 31
0.0
 11
-923.4441139235598
 21
-1100.388062592235
 31
0.0
 11
-923.1843734946035
 21
-1100.074527261165
 31
0.0
  0
SPLINE
  5
CC
330
43
100
AcDbEntity
  8
0
  6
Continuous
 62
     7
100
AcDbSpline
210
0.0
220
0.0
230
1.0
 70
     8
 71
     3
 72
    15
 73
    11
 74
     9
 42
0.0000000001
 43
0.0000000001
 44
0.00000001
 40
0.0
 40
0.0
 40
0.0
 40
0.0
 40
0.0616372335559034
 40
0.1362044808819661
 40
0.1910522769682321
 40
0.2619998761490825
 40
0.318149507226428
 40
0.3689589848487703
 40
0.4212346456365185
 40
0.4520350420013571
 40
0.4520350420013571
 40
0.4520350420013571
 40
0.4520350420013571
 10
-926.7269707159248
 20
-1099.952027847206
 30
0.0
 10
-926.7290958723765
 20
-1099.972463840106
 30
0.0
 10
-926.7337919921499
 20
-1100.017622807237
 30
0.0
 10
-926.7418012528007
 20
-1100.080807100059
 30
0.0
 10
-926.7511166033526
 20
-1100.146942666309
 30
0.0
 10
-926.7604439193312
 20
-1100.206872378875
 30
0.0
 10
-926.7703707241203
 20
-1100.265339605173
 30
0.0
 10
-926.7799306918603
 20
-1100.317550469164
 30
0.0
 10
-926.7885031849171
 20
-1100.361351483502
 30
0.0
 10
-926.7943759442705
 20
-1100.388414025529
 30
0.0
 10
-926.7965532661374
 20
-1100.398447446104
 30
0.0
 11
-926.7269707159248
 21
-1099.952027847206
 31
0.0
 11
-926.7335538031707
 21
-1100.01331252329
 31
0.0
 11
-926.7428243035936
 21
-1100.087301253484
 31
0.0
 11
-926.7504822025163
 21
-1100.141611817094
 31
0.0
 11
-926.761382067769
 21
-1100.211717129068
 31
0.0
 11
-926.7707936476211
 21
-1100.267072374843
 31
0.0
 11
-926.779942629641
 21
-1100.31705136187
 31
0.0
 11
-926.7900973849738
 21
-1100.3683312376
 31
0.0
 11
-926.7965532661374
 21
-1100.398447446104
 31
0.0
  0
SPLINE
  5
CD
330
43
100
AcDbEntity
  8
0
  6
Continuous
 62
     7
100
AcDbSpline
210
0.0
220
0.0
230
1.0
 70
     8
 71
     3
 72
     9
 73
     5
 74
     3
 42
0.0000000001
 43
0.0000000001
 44
0.00000001
 40
0.0
 40
0.0
 40
0.0
 40
0.0
 40
0.1650312791992158
 40
0.3285718778949225
 40
0.3285718778949225
 40
0.3285718778949225
 40
0.3285718778949225
 10
-926.7965532661374
 20
-1100.398447446104
 30
0.0
 10
-926.807094695025
 20
-1100.452544123964
 30
0.0
 10
-926.8280823350781
 20
-1100.560248839813
 30
0.0
 10
-926.8311704115791
 20
-1100.669933661819
 30
0.0
 10
-926.832707444764
 20
-1100.724527261166
 30
0.0
 11
-926.7965532661374
 21
-1100.398447446104
 31
0.0
 11
-926.8236619660106
 21
-1100.561237008132
 31
0.0
 11
-926.832707444764
 21
-1100.724527261166
 31
0.0
  0
SPLINE
  5
CE
330
43
100
AcDbEntity
  8
0
  6
Continuous
 62
     7
100
AcDbSpline
210
0.0
220
0.0
230
1.0
 70
     8
 71
     3
 72
    11
 73
     7
 74
     5
 42
0.0000000001
 43
0.0000000001
 44
0.00000001
 40
0.0
 40
0.0
 40
0.0
 40
0.0
 40
0.0959062817220884
 40
0.2088268019268016
 40
0.3337187457958108
 40
0.4640105822981345
 40
0.4640105822981345
 40
0.4640105822981345
 40
0.4640105822981345
 10
-926.5330050559033
 20
-1100.474527261165
 30
0.0
 10
-926.510512913228
 20
-1100.451668500224
 30
0.0
 10
-926.4615384129238
 20
-1100.401895723535
 30
0.0
 10
-926.4042738538988
 20
-1100.305578569088
 30
0.0
 10
-926.3526217520034
 20
-1100.194034710976
 30
0.0
 10
-926.3287083958786
 20
-1100.112268920287
 30
0.0
 10
-926.3164987049572
 20
-1100.070520910219
 30
0.0
 11
-926.5330050559033
 21
-1100.474527261165
 31
0.0
 11
-926.4683003118785
 21
-1100.403736647561
 31
0.0
 11
-926.4080050559033
 21
-1100.3082613838
 31
0.0
 11
-926.3562284077364
 21
-1100.194607627382
 31
0.0
 11
-926.3164987049572
 21
-1100.070520910219
 31
0.0
  0
SPLINE
  5
CF
330
43
100
AcDbEntity
  8
0
  6
Continuous
 62
     7
100
AcDbSpline
210
0.0
220
0.0
230
1.0
 70
     8
 71
     3
 72
    11
 73
     7
 74
     5
 42
0.0000000001
 43
0.0000000001
 44
0.00000001
 40
0.0
 40
0.0
 40
0.0
 40
0.0
 40
0.7290135373808744
 40
1.471311645032317
 40
2.207212642045735
 40
2.918109633821264
 40
2.918109633821264
 40
2.918109633821264
 40
2.918109633821264
 10
-851.9203035998696
 20
-1084.968354354166
 30
0.0
 10
-851.7183821648077
 20
-1085.105049451318
 30
0.0
 10
-851.3108597477956
 20
-1085.380930594735
 30
0.0
 10
-850.8153310418431
 20
-1085.932180073546
 30
0.0
 10
-850.4143737649717
 20
-1086.549019351513
 30
0.0
 10
-850.2608507477689
 20
-1087.00806845138
 30
0.0
 10
-850.1854158550309
 20
-1087.233626287859
 30
0.0
 11
-851.9203035998696
 21
-1084.968354354166
 31
0.0
 11
-851.333493976676
 21
-1085.400922503493
 31
0.0
 11
-850.8293057493638
 21
-1085.945716695883
 31
0.0
 11
-850.4386341201919
 21
-1086.569355979096
 31
0.0
 11
-850.1854158550309
 21
-1087.233626287859
 31
0.0
  0
SPLINE
  5
D0
330
43
100
AcDbEntity
  8
0
  6
Continuous
 62
     7
100
AcDbSpline
210
0.0
220
0.0
230
1.0
 70
     8
 71
     3
 72
    13
 73
     9
 74
     7
 42
0.0000000001
 43
0.0000000001
 44
0.00000001
 40
0.0
 40
0.0
 40
0.0
 40
0.0
 40
6.583627660150943
 40
12.96736481389388
 40
19.12418973310147
 40
25.04233297044652
 40
30.72790546588429
 40
36.20662040450534
 40
36.20662040450534
 40
36.20662040450534
 40
36.20662040450534
 10
-853.9203035998696
 20
-1086.700405161735
 30
0.0
 10
-855.8428711771398
 20
-1085.637038953636
 30
0.0
 10
-859.6296338011456
 20
-1083.542592204369
 30
0.0
 10
-865.6212930025391
 20
-1081.30253482014
 30
0.0
 10
-871.6142315328173
 20
-1079.835617504654
 30
0.0
 10
-877.5203013708477
 20
-1079.250795391976
 30
0.0
 10
-883.2468162826441
 20
-1079.459568077599
 30
0.0
 10
-886.8670452639769
 20
-1080.357159743707
 30
0.0
 10
-888.6436210390459
 20
-1080.797640060873
 30
0.0
 11
-853.9203035998696
 21
-1086.700405161735
 31
0.0
 11
-859.7591363344185
 21
-1083.658664629496
 31
0.0
 11
-865.729316145888
 21
-1081.398343177401
 31
0.0
 11
-871.7164344627793
 21
-1079.962757114039
 31
0.0
 11
-877.6057580742563
 21
-1079.37941606711
 31
0.0
 11
-883.2844276084434
 21
-1079.659499844531
 31
0.0
 11
-888.6436210390459
 21
-1080.797640060873
 31
0.0
  0
SPLINE
  5
D1
330
43
100
AcDbEntity
  8
0
  6
Continuous
 62
     7
100
AcDbSpline
210
0.0
220
0.0
230
1.0
 70
     8
 71
     3
 72
    11
 73
     7
 74
     5
 42
0.0000000001
 43
0.0000000001
 44
0.00000001
 40
0.0
 40
0.0
 40
0.0
 40
0.0
 40
0.7290135373806046
 40
1.471311645032381
 40
2.207212642045353
 40
2.918109633821307
 40
2.918109633821307
 40
2.918109633821307
 40
2.918109633821307
 10
-853.9203035998696
 20
-1086.700405161735
 30
0.0
 10
-853.7183821648077
 20
-1086.837100258887
 30
0.0
 10
-853.3108597477952
 20
-1087.112981402304
 30
0.0
 10
-852.8153310418434
 20
-1087.664230881115
 30
0.0
 10
-852.4143737649715
 20
-1088.281070159081
 30
0.0
 10
-852.2608507477692
 20
-1088.740119258949
 30
0.0
 10
-852.185415855031
 20
-1088.965677095428
 30
0.0
 11
-853.9203035998696
 21
-1086.700405161735
 31
0.0
 11
-853.333493976676
 21
-1087.132973311061
 31
0.0
 11
-852.8293057493638
 21
-1087.677767503453
 31
0.0
 11
-852.438634120192
 21
-1088.301406786664
 31
0.0
 11
-852.185415855031
 21
-1088.965677095428
 31
0.0
  0
SPLINE
  5
D2
330
43
100
AcDbEntity
  8
0
  6
Continuous
 62
     7
100
AcDbSpline
210
0.0
220
0.0
230
1.0
 70
     8
 71
     3
 72
    13
 73
     9
 74
     7
 42
0.0000000001
 43
0.0000000001
 44
0.00000001
 40
0.0
 40
0.0
 40
0.0
 40
0.0
 40
6.583627660150838
 40
12.96736481389377
 40
19.12418973310131
 40
25.04233297044636
 40
30.72790546588411
 40
36.20662040450486
 40
36.20662040450486
 40
36.20662040450486
 40
36.20662040450486
 10
-851.9203035998696
 20
-1084.968354354166
 30
0.0
 10
-853.84287117714
 20
-1083.904988146067
 30
0.0
 10
-857.6296338011458
 20
-1081.8105413968
 30
0.0
 10
-863.6212930025387
 20
-1079.57048401257
 30
0.0
 10
-869.6142315328175
 20
-1078.103566697086
 30
0.0
 10
-875.5203013708473
 20
-1077.518744584407
 30
0.0
 10
-881.2468162826444
 20
-1077.72751727003
 30
0.0
 10
-884.8670452639768
 20
-1078.625108936137
 30
0.0
 10
-886.6436210390458
 20
-1079.065589253303
 30
0.0
 11
-851.9203035998696
 21
-1084.968354354166
 31
0.0
 11
-857.7591363344185
 21
-1081.926613821927
 31
0.0
 11
-863.729316145888
 21
-1079.666292369832
 31
0.0
 11
-869.7164344627793
 21
-1078.23070630647
 31
0.0
 11
-875.6057580742563
 21
-1077.647365259541
 31
0.0
 11
-881.2844276084434
 21
-1077.927449036961
 31
0.0
 11
-886.6436210390458
 21
-1079.065589253303
 31
0.0
  0
SPLINE
  5
D3
330
43
100
AcDbEntity
  8
0
  6
Continuous
 62
     7
100
AcDbSpline
210
0.0
220
0.0
230
1.0
 70
     8
 71
     3
 72
     9
 73
     5
 74
     3
 42
0.0000000001
 43
0.0000000001
 44
0.00000001
 40
0.0
 40
0.0
 40
0.0
 40
0.0
 40
0.3713919300382215
 40
0.7356464981191656
 40
0.7356464981191656
 40
0.7356464981191656
 40
0.7356464981191656
 10
-886.6436210390458
 20
-1079.065589253303
 30
0.0
 10
-886.7610370347045
 20
-1079.107471625241
 30
0.0
 10
-886.9936125406414
 20
-1079.190431479125
 30
0.0
 10
-887.1890079541531
 20
-1079.341345133638
 30
0.0
 10
-887.2857577818701
 20
-1079.416069866485
 30
0.0
 11
-886.6436210390458
 21
-1079.065589253303
 31
0.0
 11
-886.9863927643054
 21
-1079.208556067844
 31
0.0
 11
-887.2857577818701
 21
-1079.416069866485
 31
0.0
  0
SPLINE
  5
D4
330
43
100
AcDbEntity
  8
0
  6
Continuous
 62
     7
100
AcDbSpline
210
0.0
220
0.0
230
1.0
 70
     8
 71
     3
 72
    13
 73
     9
 74
     7
 42
0.0000000001
 43
0.0000000001
 44
0.00000001
 40
0.0
 40
0.0
 40
0.0
 40
0.0
 40
5.848111961565342
 40
11.93506356706021
 40
18.25410963983127
 40
24.78242040560755
 40
31.48401614177681
 40
38.31285794630514
 40
38.31285794630514
 40
38.31285794630514
 40
38.31285794630514
 10
-932.5796964001763
 20
-1061.683993281211
 30
0.0
 10
-930.6276569411333
 20
-1061.736376795401
 30
0.0
 10
-926.6438558131449
 20
-1061.843283191145
 30
0.0
 10
-920.6609355220717
 20
-1063.103491159826
 30
0.0
 10
-914.6685874266685
 20
-1065.123259904227
 30
0.0
 10
-908.7883409486253
 20
-1067.963422620886
 30
0.0
 10
-903.0896074410346
 20
-1071.497587078698
 30
0.0
 10
-899.6116910627262
 20
-1074.376002307617
 30
0.0
 10
-897.8563789609993
 20
-1075.828744851006
 30
0.0
 11
-932.5796964001763
 21
-1061.683993281211
 31
0.0
 11
-926.7408636656278
 21
-1062.013304400015
 31
0.0
 11
-920.7706838541584
 21
-1063.199867869182
 31
0.0
 11
-914.783565537267
 21
-1065.220946177745
 31
0.0
 11
-908.8942419257899
 21
-1068.037807703246
 31
0.0
 11
-903.2155723916023
 21
-1071.596472864867
 31
0.0
 11
-897.8563789609993
 21
-1075.828744851006
 31
0.0
  0
SPLINE
  5
D5
330
43
100
AcDbEntity
  8
0
  6
Continuous
 62
     7
100
AcDbSpline
210
0.0
220
0.0
230
1.0
 70
     8
 71
     3
 72
     9
 73
     5
 74
     3
 42
0.0000000001
 43
0.0000000001
 44
0.00000001
 40
0.0
 40
0.0
 40
0.0
 40
0.0
 40
1.957438475981686
 40
3.867614931362225
 40
3.867614931362225
 40
3.867614931362225
 40
3.867614931362225
 10
-915.8231575624361
 20
-1099.08183580754
 30
0.0
 10
-915.9981923472149
 20
-1099.711044429806
 30
0.0
 10
-916.344035731528
 20
-1100.954269538681
 30
0.0
 10
-916.8317100777758
 20
-1102.148965532651
 30
0.0
 10
-917.0725675753883
 20
-1102.739013973232
 30
0.0
 11
-915.8231575624361
 21
-1099.08183580754
 31
0.0
 11
-916.3845915349409
 21
-1100.957031072511
 31
0.0
 11
-917.0725675753883
 21
-1102.739013973232
 31
0.0
  0
SPLINE
  5
D6
330
43
100
AcDbEntity
  8
0
  6
Continuous
 62
     7
100
AcDbSpline
210
0.0
220
0.0
230
1.0
 70
     8
 71
     3
 72
    19
 73
    15
 74
    13
 42
0.0000000001
 43
0.0000000001
 44
0.00000001
 40
0.0
 40
0.0
 40
0.0
 40
0.0
 40
0.3479328749016181
 40
0.7550808753432399
 40
1.2482486787006
 40
1.824997237364675
 40
2.465375163222311
 40
3.139760881303613
 40
3.814146599384914
 40
4.454524525242551
 40
5.031273083906593
 40
5.524440887263925
 40
5.931588887705897
 40
6.279521762607954
 40
6.279521762607954
 40
6.279521762607954
 40
6.279521762607954
 10
-918.332707444764
 20
-1100.724527261165
 30
0.0
 10
-918.3525188554238
 20
-1100.84102580459
 30
0.0
 10
-918.3955134051828
 20
-1101.093849922376
 30
0.0
 10
-918.6936176984022
 20
-1101.410345114502
 30
0.0
 10
-919.1102778183285
 20
-1101.672487562441
 30
0.0
 10
-919.6493786514153
 20
-1101.871531885692
 30
0.0
 10
-920.2690313659657
 20
-1101.996388446474
 30
0.0
 10
-920.9327074447639
 20
-1102.03896058904
 30
0.0
 10
-921.5963835235618
 20
-1101.996388446473
 30
0.0
 10
-922.2160362381121
 20
-1101.871531885692
 30
0.0
 10
-922.7551370711988
 20
-1101.672487562442
 30
0.0
 10
-923.1717971911262
 20
-1101.410345114502
 30
0.0
 10
-923.469901484345
 20
-1101.093849922377
 30
0.0
 10
-923.5128960341042
 20
-1100.84102580459
 30
0.0
 10
-923.5327074447639
 20
-1100.724527261165
 30
0.0
 11
-918.332707444764
 21
-1100.724527261165
 31
0.0
 11
-918.421300965968
 21
-1101.060991930095
 31
0.0
 11
-918.6810413949245
 21
-1101.374527261165
 31
0.0
 11
-919.0942303038277
 21
-1101.643765831633
 31
0.0
 11
-919.6327074447638
 21
-1101.850360286085
 31
0.0
 11
-920.2597781069042
 21
-1101.980230500563
 31
0.0
 11
-920.9327074447638
 21
-1102.024527261165
 31
0.0
 11
-921.6056367826234
 21
-1101.980230500563
 31
0.0
 11
-922.2327074447637
 21
-1101.850360286085
 31
0.0
 11
-922.7711845857001
 21
-1101.643765831633
 31
0.0
 11
-923.1843734946034
 21
-1101.374527261165
 31
0.0
 11
-923.4441139235598
 21
-1101.060991930095
 31
0.0
 11
-923.5327074447639
 21
-1100.724527261165
 31
0.0
  0
SPLINE
  5
D7
330
43
100
AcDbEntity
  8
0
  6
Continuous
 62
     7
100
AcDbSpline
210
0.0
220
0.0
230
1.0
 70
     8
 71
     3
 72
    11
 73
     7
 74
     5
 42
0.0000000001
 43
0.0000000001
 44
0.00000001
 40
0.0
 40
0.0
 40
0.0
 40
0.0
 40
8.796000836045758
 40
17.42658003617149
 40
25.88343676092925
 40
34.16183180581417
 40
34.16183180581417
 40
34.16183180581417
 40
34.16183180581417
 10
-850.1854158550309
 20
-1087.233626287859
 30
0.0
 10
-849.4833798077124
 20
-1090.08163985832
 30
0.0
 10
-848.0925105257612
 20
-1095.724105946586
 30
0.0
 10
-846.7542273965241
 20
-1104.255822195684
 30
0.0
 10
-845.9472422594725
 20
-1112.682647456476
 30
0.0
 10
-845.944334898794
 20
-1118.26389739264
 30
0.0
 10
-845.9428967202373
 20
-1121.02476364382
 30
0.0
 11
-850.1854158550309
 21
-1087.233626287859
 31
0.0
 11
-848.2041040063133
 21
-1095.803575766464
 31
0.0
 11
-846.831950519527
 21
-1104.324379257823
 31
0.0
 11
-846.0767794556274
 21
-1112.747451282169
 31
0.0
 11
-845.9428967202373
 21
-1121.02476364382
 31
0.0
  0
SPLINE
  5
D8
330
43
100
AcDbEntity
  8
0
  6
Continuous
 62
     7
100
AcDbSpline
210
0.0
220
0.0
230
1.0
 70
     8
 71
     3
 72
    11
 73
     7
 74
     5
 42
0.0000000001
 43
0.0000000001
 44
0.00000001
 40
0.0
 40
0.0
 40
0.0
 40
0.0
 40
8.796000836045561
 40
17.42658003617084
 40
25.88343676092838
 40
34.16183180581398
 40
34.16183180581398
 40
34.16183180581398
 40
34.16183180581398
 10
-852.185415855031
 20
-1088.965677095428
 30
0.0
 10
-851.4833798077125
 20
-1091.813690665889
 30
0.0
 10
-850.0925105257613
 20
-1097.456156754155
 30
0.0
 10
-848.7542273965238
 20
-1105.987873003251
 30
0.0
 10
-847.9472422594727
 20
-1114.414698264045
 30
0.0
 10
-847.9443348987941
 20
-1119.995948200209
 30
0.0
 10
-847.9428967202373
 20
-1122.756814451389
 30
0.0
 11
-852.185415855031
 21
-1088.965677095428
 31
0.0
 11
-850.2041040063133
 21
-1097.535626574033
 31
0.0
 11
-848.831950519527
 21
-1106.056430065391
 31
0.0
 11
-848.0767794556274
 21
-1114.479502089737
 31
0.0
 11
-847.9428967202373
 21
-1122.756814451389
 31
0.0
  0
SPLINE
  5
D9
330
43
100
AcDbEntity
  8
0
  6
Continuous
 62
     7
100
AcDbSpline
210
0.0
220
0.0
230
1.0
 70
     8
 71
     3
 72
    17
 73
    13
 74
    11
 42
0.0000000001
 43
0.0000000001
 44
0.00000001
 40
0.0
 40
0.0
 40
0.0
 40
0.0
 40
0.660889423480139
 40
1.405760200102627
 40
2.282319364859495
 40
3.300395504565537
 40
4.444026991233902
 40
5.681222153815478
 40
6.970457598761868
 40
8.26550903546473
 40
9.519648673104435
 40
10.68978221757435
 40
10.68978221757435
 40
10.68978221757435
 40
10.68978221757435
 10
-878.5672925549403
 20
-1114.657552400754
 30
0.0
 10
-878.5365330996544
 20
-1114.878909774489
 30
0.0
 10
-878.4711054857734
 20
-1115.349753118234
 30
0.0
 10
-877.9932497435657
 20
-1115.97601655889
 30
0.0
 10
-877.3010759124911
 20
-1116.522448876473
 30
0.0
 10
-876.3878905291971
 20
-1116.976860046233
 30
0.0
 10
-875.3058332908715
 20
-1117.322327200083
 30
0.0
 10
-874.0995229215159
 20
-1117.543287294569
 30
0.0
 10
-872.8258328452698
 20
-1117.630556487602
 30
0.0
 10
-871.545907543203
 20
-1117.57520922348
 30
0.0
 10
-870.3140449974368
 20
-1117.397066449068
 30
0.0
 10
-869.5428288105726
 20
-1117.151945645509
 30
0.0
 10
-869.1705828372444
 20
-1117.033632215815
 30
0.0
 11
-878.5672925549403
 21
-1114.657552400754
 31
0.0
 11
-878.4244222044315
 21
-1115.302814280159
 31
0.0
 11
-878.0027325925298
 21
-1115.916825961709
 31
0.0
 11
-877.3226442727336
 21
-1116.469850234772
 31
0.0
 11
-876.4170960785721
 21
-1116.935104460212
 31
0.0
 11
-875.3299425475426
 21
-1117.290055410724
 31
0.0
 11
-874.1138361963608
 21
-1117.517513567162
 31
0.0
 11
-872.827672829221
 21
-1117.606462010284
 31
0.0
 11
-871.5337422043783
 21
-1117.552594006791
 31
0.0
 11
-870.2947101340793
 21
-1117.358517322283
 31
0.0
 11
-869.1705828372444
 21
-1117.033632215815
 31
0.0
  0
SPLINE
  5
DA
330
43
100
AcDbEntity
  8
0
  6
Continuous
 62
     7
100
AcDbSpline
210
0.0
220
0.0
230
1.0
 70
     8
 71
     3
 72
     9
 73
     5
 74
     3
 42
0.0000000001
 43
0.0000000001
 44
0.00000001
 40
0.0
 40
0.0
 40
0.0
 40
0.0
 40
1.957438475981686
 40
3.867614931362478
 40
3.867614931362478
 40
3.867614931362478
 40
3.867614931362478
 10
-867.5577426726124
 20
-1113.014860947129
 30
0.0
 10
-867.7327774573914
 20
-1113.644069569395
 30
0.0
 10
-868.0786208417044
 20
-1114.88729467827
 30
0.0
 10
-868.5662951879523
 20
-1116.08199067224
 30
0.0
 10
-868.8071526855648
 20
-1116.672039112821
 30
0.0
 11
-867.5577426726124
 21
-1113.014860947129
 31
0.0
 11
-868.1191766451172
 21
-1114.8900562121
 31
0.0
 11
-868.8071526855648
 21
-1116.672039112821
 31
0.0
  0
SPLINE
  5
DB
330
43
100
AcDbEntity
  8
0
  6
Continuous
 62
     7
100
AcDbSpline
210
0.0
220
0.0
230
1.0
 70
     8
 71
     3
 72
    17
 73
    13
 74
    11
 42
0.0000000001
 43
0.0000000001
 44
0.00000001
 40
0.0
 40
0.0
 40
0.0
 40
0.0
 40
0.4931678033576752
 40
1.069916362021424
 40
1.710294287879106
 40
2.384680005960408
 40
3.059065724041566
 40
3.699443649899314
 40
4.276192208563437
 40
4.769360011920673
 40
5.176508012362222
 40
5.524440887264749
 40
5.524440887264749
 40
5.524440887264749
 40
5.524440887264749
 10
-874.9189586047798
 20
-1114.007552400754
 30
0.0
 10
-874.7847028853771
 20
-1113.911481727807
 30
0.0
 10
-874.4934381476834
 20
-1113.703058582183
 30
0.0
 10
-873.949432400759
 20
-1113.512638217476
 30
0.0
 10
-873.3313208628097
 20
-1113.385071916308
 30
0.0
 10
-872.6671959261017
 20
-1113.343288968442
 30
0.0
 10
-872.0036410168648
 20
-1113.385648067251
 30
0.0
 10
-871.383958004251
 20
-1113.510557898946
 30
0.0
 10
-870.8448641745697
 20
-1113.709589908612
 30
0.0
 10
-870.4282025570732
 20
-1113.97173498962
 30
0.0
 10
-870.1300985633915
 20
-1114.28822965509
 30
0.0
 10
-870.0871039807514
 20
-1114.541053830689
 30
0.0
 10
-870.0672925549403
 20
-1114.657552400754
 30
0.0
 11
-874.9189586047798
 21
-1114.007552400754
 31
0.0
 11
-874.5057696958764
 21
-1113.738313830286
 31
0.0
 11
-873.9672925549403
 21
-1113.531719375835
 31
0.0
 11
-873.3402218928
 21
-1113.401849161356
 31
0.0
 11
-872.6672925549403
 21
-1113.357552400754
 31
0.0
 11
-871.9943632170808
 21
-1113.401849161356
 31
0.0
 11
-871.3672925549404
 21
-1113.531719375834
 31
0.0
 11
-870.828815414004
 21
-1113.738313830286
 31
0.0
 11
-870.4156265051008
 21
-1114.007552400753
 31
0.0
 11
-870.1558860761445
 21
-1114.321087731823
 31
0.0
 11
-870.0672925549403
 21
-1114.657552400754
 31
0.0
  0
SPLINE
  5
DC
330
43
100
AcDbEntity
  8
0
  6
Continuous
 62
     7
100
AcDbSpline
210
0.0
220
0.0
230
1.0
 70
     8
 71
     3
 72
     9
 73
     5
 74
     3
 42
0.0000000001
 43
0.0000000001
 44
0.00000001
 40
0.0
 40
0.0
 40
0.0
 40
0.0
 40
0.347932874901647
 40
0.7550808753433715
 40
0.7550808753433715
 40
0.7550808753433715
 40
0.7550808753433715
 10
-875.2672925549404
 20
-1114.657552400754
 30
0.0
 10
-875.2480039935945
 20
-1114.540134568844
 30
0.0
 10
-875.2061441268336
 20
-1114.285315419248
 30
0.0
 10
-875.0195644436953
 20
-1114.104857380808
 30
0.0
 10
-874.9189586047798
 20
-1114.007552400754
 30
0.0
 11
-875.2672925549404
 21
-1114.657552400754
 31
0.0
 11
-875.1786990337362
 21
-1114.321087731824
 31
0.0
 11
-874.9189586047798
 21
-1114.007552400754
 31
0.0
  0
SPLINE
  5
DD
330
43
100
AcDbEntity
  8
0
  6
Continuous
 62
     7
100
AcDbSpline
210
0.0
220
0.0
230
1.0
 70
     8
 71
     3
 72
     9
 73
     5
 74
     3
 42
0.0000000001
 43
0.0000000001
 44
0.00000001
 40
0.0
 40
0.0
 40
0.0
 40
0.0
 40
1.961566124882701
 40
3.883938375614923
 40
3.883938375614923
 40
3.883938375614923
 40
3.883938375614923
 10
-877.7768424372689
 20
-1110.06486094713
 30
0.0
 10
-877.9290921965935
 20
-1110.701371541796
 30
0.0
 10
-878.2305496266627
 20
-1111.961674670887
 30
0.0
 10
-878.3850735405117
 20
-1113.248254623755
 30
0.0
 10
-878.4615558261012
 20
-1113.885052986795
 30
0.0
 11
-877.7768424372689
 21
-1110.06486094713
 31
0.0
 11
-878.1961132225342
 21
-1111.981095189312
 31
0.0
 11
-878.4615558261012
 21
-1113.885052986795
 31
0.0
  0
SPLINE
  5
DE
330
43
100
AcDbEntity
  8
0
  6
Continuous
 62
     7
100
AcDbSpline
210
0.0
220
0.0
230
1.0
 70
     8
 71
     3
 72
    15
 73
    11
 74
     9
 42
0.0000000001
 43
0.0000000001
 44
0.00000001
 40
0.0
 40
0.0
 40
0.0
 40
0.0
 40
0.061637233362956
 40
0.1362044808819637
 40
0.1910522770236012
 40
0.2619998761491
 40
0.3067288181444923
 40
0.3689589052500055
 40
0.4130555790254493
 40
0.4520349987330411
 40
0.4520349987330411
 40
0.4520349987330411
 40
0.4520349987330411
 10
-878.4615558261012
 20
-1113.885052986795
 30
0.0
 10
-878.4636809838714
 20
-1113.90548897868
 30
0.0
 10
-878.4683771065743
 20
-1113.95064794371
 30
0.0
 10
-878.4763863440921
 20
-1114.013832253141
 30
0.0
 10
-878.4857017695649
 20
-1114.079967765734
 30
0.0
 10
-878.4944433170516
 20
-1114.136135900345
 30
0.0
 10
-878.5042984929373
 20
-1114.194614384058
 30
0.0
 10
-878.5132969406787
 20
-1114.244157163144
 30
0.0
 10
-878.5225536544333
 20
-1114.291702515428
 30
0.0
 10
-878.5283967756394
 20
-1114.318771690665
 30
0.0
 10
-878.5311383763137
 20
-1114.331472585693
 30
0.0
 11
-878.4615558261012
 21
-1113.885052986795
 31
0.0
 11
-878.4681389133249
 21
-1113.946337662687
 31
0.0
 11
-878.4774094137699
 21
-1114.020326393073
 31
0.0
 11
-878.4850673127006
 21
-1114.074636956738
 31
0.0
 11
-878.4959671779454
 21
-1114.144742268657
 31
0.0
 11
-878.5034071103473
 21
-1114.188848114731
 31
0.0
 11
-878.5145277398173
 21
-1114.250076501459
 31
0.0
 11
-878.5230348258633
 21
-1114.29334480539
 31
0.0
 11
-878.5311383763137
 21
-1114.331472585693
 31
0.0
  0
SPLINE
  5
DF
330
43
100
AcDbEntity
  8
0
  6
Continuous
 62
     7
100
AcDbSpline
210
0.0
220
0.0
230
1.0
 70
     8
 71
     3
 72
    11
 73
     7
 74
     5
 42
0.0000000001
 43
0.0000000001
 44
0.00000001
 40
0.0
 40
0.0
 40
0.0
 40
0.0
 40
0.0959062817220884
 40
0.2088268019268016
 40
0.3337187457962246
 40
0.4640105822983318
 40
0.4640105822983318
 40
0.4640105822983318
 40
0.4640105822983318
 10
-878.2675901660797
 20
-1114.407552400754
 30
0.0
 10
-878.2450980234042
 20
-1114.384693639813
 30
0.0
 10
-878.1961235231
 20
-1114.334920863124
 30
0.0
 10
-878.138858964075
 20
-1114.238603708676
 30
0.0
 10
-878.0872068621802
 20
-1114.127059850566
 30
0.0
 10
-878.0632935060548
 20
-1114.045294059875
 30
0.0
 10
-878.0510838151336
 20
-1114.003546049808
 30
0.0
 11
-878.2675901660797
 21
-1114.407552400754
 31
0.0
 11
-878.2028854220548
 21
-1114.33676178715
 31
0.0
 11
-878.1425901660797
 21
-1114.241286523389
 31
0.0
 11
-878.0908135179127
 21
-1114.12763276697
 31
0.0
 11
-878.0510838151336
 21
-1114.003546049808
 31
0.0
  0
SPLINE
  5
E0
330
43
100
AcDbEntity
  8
0
  6
Continuous
 62
     7
100
AcDbSpline
210
0.0
220
0.0
230
1.0
 70
     8
 71
     3
 72
     9
 73
     5
 74
     3
 42
0.0000000001
 43
0.0000000001
 44
0.00000001
 40
0.0
 40
0.0
 40
0.0
 40
0.0
 40
0.1650312791983186
 40
0.3285718778937983
 40
0.3285718778937983
 40
0.3285718778937983
 40
0.3285718778937983
 10
-878.5311383763137
 20
-1114.331472585693
 30
0.0
 10
-878.5416798052013
 20
-1114.385569263552
 30
0.0
 10
-878.5626674452542
 20
-1114.493273979401
 30
0.0
 10
-878.5657555217558
 20
-1114.602958801407
 30
0.0
 10
-878.5672925549403
 20
-1114.657552400754
 30
0.0
 11
-878.5311383763137
 21
-1114.331472585693
 31
0.0
 11
-878.558247076187
 21
-1114.49426214772
 31
0.0
 11
-878.5672925549403
 21
-1114.657552400754
 31
0.0
  0
SPLINE
  5
E1
330
43
100
AcDbEntity
  8
0
  6
Continuous
 62
     7
100
AcDbSpline
210
0.0
220
0.0
230
1.0
 70
     8
 71
     3
 72
    19
 73
    15
 74
    13
 42
0.0000000001
 43
0.0000000001
 44
0.00000001
 40
0.0
 40
0.0
 40
0.0
 40
0.0
 40
0.3479328749016181
 40
0.7550808753430949
 40
1.248248678700551
 40
1.824997237364649
 40
2.465375163222286
 40
3.139760881303701
 40
3.814146599384988
 40
4.45452452524267
 40
5.031273083906712
 40
5.524440887264168
 40
5.93158888770614
 40
6.279521762607758
 40
6.279521762607758
 40
6.279521762607758
 40
6.279521762607758
 10
-870.0672925549403
 20
-1114.657552400754
 30
0.0
 10
-870.0871039656001
 20
-1114.774050944179
 30
0.0
 10
-870.1300985153592
 20
-1115.026875061965
 30
0.0
 10
-870.428202808578
 20
-1115.343370254091
 30
0.0
 10
-870.8448629285053
 20
-1115.60551270203
 30
0.0
 10
-871.3839637615914
 20
-1115.804557025281
 30
0.0
 10
-872.0036164761422
 20
-1115.929413586063
 30
0.0
 10
-872.66729255494
 20
-1115.971985728629
 30
0.0
 10
-873.3309686337385
 20
-1115.929413586063
 30
0.0
 10
-873.9506213482885
 20
-1115.80455702528
 30
0.0
 10
-874.4897221813753
 20
-1115.605512702031
 30
0.0
 10
-874.9063823013025
 20
-1115.343370254091
 30
0.0
 10
-875.2044865945215
 20
-1115.026875061966
 30
0.0
 10
-875.2474811442805
 20
-1114.774050944179
 30
0.0
 10
-875.2672925549404
 20
-1114.657552400754
 30
0.0
 11
-870.0672925549403
 21
-1114.657552400754
 31
0.0
 11
-870.1558860761444
 21
-1114.994017069684
 31
0.0
 11
-870.4156265051006
 21
-1115.307552400754
 31
0.0
 11
-870.8288154140039
 21
-1115.576790971222
 31
0.0
 11
-871.3672925549401
 21
-1115.783385425673
 31
0.0
 11
-871.9943632170805
 21
-1115.913255640152
 31
0.0
 11
-872.6672925549402
 21
-1115.957552400754
 31
0.0
 11
-873.3402218927998
 21
-1115.913255640152
 31
0.0
 11
-873.9672925549402
 21
-1115.783385425673
 31
0.0
 11
-874.5057696958766
 21
-1115.576790971222
 31
0.0
 11
-874.9189586047798
 21
-1115.307552400754
 31
0.0
 11
-875.1786990337363
 21
-1114.994017069684
 31
0.0
 11
-875.2672925549404
 21
-1114.657552400754
 31
0.0
  0
SPLINE
  5
E2
330
43
100
AcDbEntity
  8
0
  6
Continuous
 62
     7
100
AcDbSpline
210
0.0
220
0.0
230
1.0
 70
     8
 71
     3
 72
    11
 73
     7
 74
     5
 42
0.0000000001
 43
0.0000000001
 44
0.00000001
 40
0.0
 40
0.0
 40
0.0
 40
0.0
 40
0.0959062817220116
 40
0.2088268019269778
 40
0.3337187457963537
 40
0.4640105822982443
 40
0.4640105822982443
 40
0.4640105822982443
 40
0.4640105822982443
 10
-869.4341310474783
 20
-1116.957552400753
 30
0.0
 10
-869.4116389048031
 20
-1116.934693639813
 30
0.0
 10
-869.3626644044989
 20
-1116.884920863123
 30
0.0
 10
-869.3053998454734
 20
-1116.788603708675
 30
0.0
 10
-869.2537477435792
 20
-1116.677059850565
 30
0.0
 10
-869.2298343874538
 20
-1116.595294059875
 30
0.0
 10
-869.2176246965323
 20
-1116.553546049807
 30
0.0
 11
-869.4341310474783
 21
-1116.957552400753
 31
0.0
 11
-869.3694263034536
 21
-1116.886761787149
 31
0.0
 11
-869.3091310474783
 21
-1116.791286523388
 31
0.0
 11
-869.2573543993115
 21
-1116.677632766969
 31
0.0
 11
-869.2176246965323
 21
-1116.553546049807
 31
0.0
  0
SPLINE
  5
E3
330
43
100
AcDbEntity
  8
0
  6
Continuous
 62
     7
100
AcDbSpline
210
0.0
220
0.0
230
1.0
 70
     8
 71
     3
 72
    15
 73
    11
 74
     9
 42
0.0000000001
 43
0.0000000001
 44
0.00000001
 40
0.0
 40
0.0
 40
0.0
 40
0.0
 40
0.059985908837029
 40
0.1220239848249701
 40
0.1795066664001682
 40
0.2519545759309308
 40
0.3120831585475877
 40
0.3883512211273122
 40
0.4577652711384468
 40
0.5261574316441018
 40
0.5261574316441018
 40
0.5261574316441018
 40
0.5261574316441018
 10
-869.1705828372444
 20
-1117.033632215815
 30
0.0
 10
-869.1520467183035
 20
-1117.026077941434
 30
0.0
 10
-869.1143403445859
 20
-1117.010710954746
 30
0.0
 10
-869.0625461009786
 20
-1116.980372304302
 30
0.0
 10
-869.0104835402364
 20
-1116.943068048642
 30
0.0
 10
-868.963006294698
 20
-1116.900897483576
 30
0.0
 10
-868.9156028244212
 20
-1116.84980448596
 30
0.0
 10
-868.8740398046904
 20
-1116.795082928978
 30
0.0
 10
-868.8362549189554
 20
-1116.734363622938
 30
0.0
 10
-868.8168053545326
 20
-1116.692710992421
 30
0.0
 10
-868.8071526855648
 20
-1116.672039112821
 30
0.0
 11
-869.1705828372444
 21
-1117.033632215815
 31
0.0
 11
-869.1155781487378
 21
-1117.0096991111
 31
0.0
 11
-869.0617898535406
 21
-1116.978787265926
 31
0.0
 11
-869.015086408873
 21
-1116.945275373451
 31
0.0
 11
-868.9608324492164
 21
-1116.897262797422
 31
0.0
 11
-868.9199296745747
 21
-1116.853190022673
 31
0.0
 11
-868.8736715911136
 21
-1116.792551692516
 31
0.0
 11
-868.8373111220117
 21
-1116.733422794119
 31
0.0
 11
-868.8071526855648
 21
-1116.672039112821
 31
0.0
  0
SPLINE
  5
E4
330
43
100
AcDbEntity
  8
0
  6
Continuous
 62
     7
100
AcDbSpline
210
0.0
220
0.0
230
1.0
 70
     8
 71
     3
 72
    11
 73
     7
 74
     5
 42
0.0000000001
 43
0.0000000001
 44
0.00000001
 40
0.0
 40
0.0
 40
0.0
 40
0.0
 40
0.0805526819594534
 40
0.1638036428745204
 40
0.2517511863417247
 40
0.3453217819151654
 40
0.3453217819151654
 40
0.3453217819151654
 40
0.3453217819151654
 10
-848.048482365257
 20
-1123.000492044742
 30
0.0
 10
-848.0703386876166
 20
-1123.016416977946
 30
0.0
 10
-848.1147834551313
 20
-1123.048800282982
 30
0.0
 10
-848.1970206961057
 20
-1123.07176489138
 30
0.0
 10
-848.2860529735444
 20
-1123.076238387279
 30
0.0
 10
-848.3452788932361
 20
-1123.062580673969
 30
0.0
 10
-848.3758092006109
 20
-1123.055540273625
 30
0.0
 11
-848.048482365257
 21
-1123.000492044742
 31
0.0
 11
-848.1162431625027
 21
-1123.044049006614
 31
0.0
 11
-848.1958752728176
 21
-1123.06832758771
 31
0.0
 11
-848.2837367594689
 21
-1123.072217261906
 31
0.0
 11
-848.3758092006109
 21
-1123.055540273625
 31
0.0
  0
SPLINE
  5
E5
330
43
100
AcDbEntity
  8
0
  6
Continuous
 62
     7
100
AcDbSpline
210
0.0
220
0.0
230
1.0
 70
     8
 71
     3
 72
     9
 73
     5
 74
     3
 42
0.0000000001
 43
0.0000000001
 44
0.00000001
 40
0.0
 40
0.0
 40
0.0
 40
0.0
 40
0.1409637651497267
 40
0.2715866157315313
 40
0.2715866157315313
 40
0.2715866157315313
 40
0.2715866157315313
 10
-847.9428967202373
 20
-1122.756814451389
 30
0.0
 10
-847.9478361953692
 20
-1122.804878460039
 30
0.0
 10
-847.9573527922981
 20
-1122.897480565508
 30
0.0
 10
-848.0188868296241
 20
-1122.967037702696
 30
0.0
 10
-848.048482365257
 20
-1123.000492044742
 30
0.0
 11
-847.9428967202373
 21
-1122.756814451389
 31
0.0
 11
-847.9717286655155
 21
-1122.894798153385
 31
0.0
 11
-848.048482365257
 21
-1123.000492044742
 31
0.0
  0
SPLINE
  5
E6
330
43
100
AcDbEntity
  8
0
  6
Continuous
 62
     7
100
AcDbSpline
210
0.0
220
0.0
230
1.0
 70
     8
 71
     3
 72
     9
 73
     5
 74
     3
 42
0.0000000001
 43
0.0000000001
 44
0.00000001
 40
0.0
 40
0.0
 40
0.0
 40
0.0
 40
0.1409637651499493
 40
0.2715866157313859
 40
0.2715866157313859
 40
0.2715866157313859
 40
0.2715866157313859
 10
-845.9428967202373
 20
-1121.02476364382
 30
0.0
 10
-845.9478361953691
 20
-1121.07282765247
 30
0.0
 10
-845.957352792298
 20
-1121.165429757939
 30
0.0
 10
-846.0188868296241
 20
-1121.234986895127
 30
0.0
 10
-846.048482365257
 20
-1121.268441237173
 30
0.0
 11
-845.9428967202373
 21
-1121.02476364382
 31
0.0
 11
-845.9717286655155
 21
-1121.162747345817
 31
0.0
 11
-846.048482365257
 21
-1121.268441237173
 31
0.0
  0
SPLINE
  5
E7
330
43
100
AcDbEntity
  8
0
  6
Continuous
 62
     7
100
AcDbSpline
210
0.0
220
0.0
230
1.0
 70
     8
 71
     3
 72
    11
 73
     7
 74
     5
 42
0.0000000001
 43
0.0000000001
 44
0.00000001
 40
0.0
 40
0.0
 40
0.0
 40
0.0
 40
0.4021734356356826
 40
0.8138717431010639
 40
1.242850530534252
 40
1.693954490645175
 40
1.693954490645175
 40
1.693954490645175
 40
1.693954490645175
 10
-889.2857577818701
 20
-1081.148120674054
 30
0.0
 10
-889.3812419124486
 20
-1081.243176634801
 30
0.0
 10
-889.5744715713631
 20
-1081.435539813495
 30
0.0
 10
-889.7709975235698
 20
-1081.806019324598
 30
0.0
 10
-889.8978814470361
 20
-1082.221133558987
 30
0.0
 10
-889.9124206319677
 20
-1082.515185385414
 30
0.0
 10
-889.9198729810995
 20
-1082.66590751211
 30
0.0
 11
-889.2857577818701
 21
-1081.148120674054
 31
0.0
 11
-889.5564515890475
 21
-1081.445556944685
 31
0.0
 11
-889.7561879036465
 21
-1081.805558196072
 31
0.0
 11
-889.878624197994
 21
-1082.21669339755
 31
0.0
 11
-889.9198729810995
 21
-1082.66590751211
 31
0.0
  0
SPLINE
  5
E8
330
43
100
AcDbEntity
  8
0
  6
Continuous
 62
     7
100
AcDbSpline
210
0.0
220
0.0
230
1.0
 70
     8
 71
     3
 72
    13
 73
     9
 74
     7
 42
0.0000000001
 43
0.0000000001
 44
0.00000001
 40
0.0
 40
0.0
 40
0.0
 40
0.0
 40
0.1172631655828076
 40
0.2419307416507276
 40
0.3712960201059062
 40
0.5017221228343068
 40
0.6293737809695311
 40
0.7509434495036291
 40
0.7509434495036291
 40
0.7509434495036291
 40
0.7509434495036291
 10
-889.9198729810969
 20
-1110.62978936829
 30
0.0
 10
-889.9167986068082
 20
-1110.668939731255
 30
0.0
 10
-889.9104557313783
 20
-1110.749712549394
 30
0.0
 10
-889.864585691116
 20
-1110.866360464712
 30
0.0
 10
-889.7963162122529
 20
-1110.97556821795
 30
0.0
 10
-889.7067177894022
 20
-1111.069506623232
 30
0.0
 10
-889.6033158561797
 20
-1111.144909659612
 30
0.0
 10
-889.525042074542
 20
-1111.173739117729
 30
0.0
 10
-889.4868602792046
 20
-1111.187802070182
 30
0.0
 11
-889.9198729810969
 21
-1110.62978936829
 31
0.0
 11
-889.9051183195635
 21
-1110.746120576336
 31
0.0
 11
-889.8618602792046
 21
-1110.863042543763
 31
0.0
 11
-889.7930464154216
 21
-1110.972587180423
 31
0.0
 11
-889.7033666301508
 21
-1111.06728936829
 31
0.0
 11
-889.5989321833467
 21
-1111.140695036637
 31
0.0
 11
-889.4868602792046
 21
-1111.187802070182
 31
0.0
  0
SPLINE
  5
E9
330
43
100
AcDbEntity
  8
0
  6
Continuous
 62
     7
100
AcDbSpline
210
0.0
220
0.0
230
1.0
 70
     8
 71
     3
 72
     9
 73
     5
 74
     3
 42
0.0000000001
 43
0.0000000001
 44
0.00000001
 40
0.0
 40
0.0
 40
0.0
 40
0.0
 40
0.3713919300377664
 40
0.7356464981187105
 40
0.7356464981187105
 40
0.7356464981187105
 40
0.7356464981187105
 10
-888.6436210390459
 20
-1080.797640060873
 30
0.0
 10
-888.7610370347047
 20
-1080.839522432811
 30
0.0
 10
-888.9936125406416
 20
-1080.922482286695
 30
0.0
 10
-889.1890079541529
 20
-1081.073395941207
 30
0.0
 10
-889.2857577818701
 20
-1081.148120674054
 30
0.0
 11
-888.6436210390459
 21
-1080.797640060873
 31
0.0
 11
-888.9863927643054
 21
-1080.940606875413
 31
0.0
 11
-889.2857577818701
 21
-1081.148120674054
 31
0.0
  0
SPLINE
  5
EA
330
43
100
AcDbEntity
  8
0
  6
Continuous
 62
     7
100
AcDbSpline
210
0.0
220
0.0
230
1.0
 70
     8
 71
     3
 72
    19
 73
    15
 74
    13
 42
0.0000000001
 43
0.0000000001
 44
0.00000001
 40
0.0
 40
0.0
 40
0.0
 40
0.0
 40
0.6536339421822449
 40
1.388787897641681
 40
2.25230762581611
 40
3.254517909032367
 40
4.380681639673758
 40
5.600388599049443
 40
6.873820824929823
 40
8.156387602417718
 40
9.402723856644155
 40
10.57059766314216
 40
11.62520459711926
 40
12.54462181041901
 40
12.54462181041901
 40
12.54462181041901
 40
12.54462181041901
 10
-926.8327074447634
 20
-1105.054654280088
 30
0.0
 10
-926.8026610352076
 20
-1105.273577417841
 30
0.0
 10
-926.738820883609
 20
-1105.738727381151
 30
0.0
 10
-926.2713037309013
 20
-1106.359316843254
 30
0.0
 10
-925.5927520739014
 20
-1106.902313223969
 30
0.0
 10
-924.696577166152
 20
-1107.355827436593
 30
0.0
 10
-923.6330452900336
 20
-1107.703328535009
 30
0.0
 10
-922.4449605234346
 20
-1107.929800008574
 30
0.0
 10
-921.1874581920204
 20
-1108.024936803308
 30
0.0
 10
-919.9184579951636
 20
-1107.983737615002
 30
0.0
 10
-918.6950127502432
 20
-1107.810081325513
 30
0.0
 10
-917.5784398934497
 20
-1107.505361490323
 30
0.0
 10
-916.6010206931456
 20
-1107.105164542261
 30
0.0
 10
-916.0703306213784
 20
-1106.712527881288
 30
0.0
 10
-915.8231575624352
 20
-1106.529654280087
 30
0.0
 11
-926.8327074447634
 21
-1105.054654280088
 31
0.0
 11
-926.6928533726198
 21
-1105.693151084213
 31
0.0
 11
-926.2799233882796
 21
-1106.301378152223
 31
0.0
 11
-925.6134917346744
 21
-1106.850500335366
 31
0.0
 11
-924.7251543419138
 21
-1107.314485387289
 31
0.0
 11
-923.6570240196774
 21
-1107.671336004398
 31
0.0
 11
-922.4597398108682
 21
-1107.90413546764
 31
0.0
 11
-921.1900618072474
 21
-1108.001846270687
 31
0.0
 11
-919.9081831965285
 21
-1107.959837151473
 31
0.0
 11
-918.6748753953437
 21
-1107.780098657722
 31
0.0
 11
-917.5486064702923
 21
-1107.47115281074
 31
0.0
 11
-916.5827715458594
 21
-1107.047645214659
 31
0.0
 11
-915.8231575624352
 21
-1106.529654280087
 31
0.0
  0
SPLINE
  5
EB
330
43
100
AcDbEntity
  8
0
  6
Continuous
 62
     7
100
AcDbSpline
210
0.0
220
0.0
230
1.0
 70
     8
 71
     3
 72
    17
 73
    13
 74
    11
 42
0.0000000001
 43
0.0000000001
 44
0.00000001
 40
0.0
 40
0.0
 40
0.0
 40
0.0
 40
0.6608894234799416
 40
1.40576020010199
 40
2.282319364858715
 40
3.300395504564965
 40
4.444026991233259
 40
5.681222153814751
 40
6.970457598761044
 40
8.265509035464028
 40
9.519648673103585
 40
10.68978221757368
 40
10.68978221757368
 40
10.68978221757368
 40
10.68978221757368
 10
-926.832707444764
 20
-1100.724527261166
 30
0.0
 10
-926.8019479894779
 20
-1100.945884634901
 30
0.0
 10
-926.7365203755967
 20
-1101.416727978645
 30
0.0
 10
-926.2586646333896
 20
-1102.042991419302
 30
0.0
 10
-925.5664908023143
 20
-1102.589423736883
 30
0.0
 10
-924.6533054190214
 20
-1103.043834906645
 30
0.0
 10
-923.571248180695
 20
-1103.389302060494
 30
0.0
 10
-922.3649378113398
 20
-1103.61026215498
 30
0.0
 10
-921.0912477350934
 20
-1103.697531348013
 30
0.0
 10
-919.811322433027
 20
-1103.64218408389
 30
0.0
 10
-918.5794598872603
 20
-1103.46404130948
 30
0.0
 10
-917.8082437003965
 20
-1103.218920505921
 30
0.0
 10
-917.4359977270681
 20
-1103.100607076226
 30
0.0
 11
-926.832707444764
 21
-1100.724527261166
 31
0.0
 11
-926.689837094255
 21
-1101.369789140571
 31
0.0
 11
-926.2681474823535
 21
-1101.983800822121
 31
0.0
 11
-925.5880591625572
 21
-1102.536825095183
 31
0.0
 11
-924.6825109683957
 21
-1103.002079320623
 31
0.0
 11
-923.5953574373663
 21
-1103.357030271135
 31
0.0
 11
-922.3792510861845
 21
-1103.584488427573
 31
0.0
 11
-921.0930877190448
 21
-1103.673436870695
 31
0.0
 11
-919.799157094202
 21
-1103.619568867201
 31
0.0
 11
-918.5601250239031
 21
-1103.425492182694
 31
0.0
 11
-917.4359977270681
 21
-1103.100607076226
 31
0.0
  0
SPLINE
  5
EC
330
43
100
AcDbEntity
  8
0
  6
Continuous
 62
     7
100
AcDbSpline
210
0.0
220
0.0
230
1.0
 70
     8
 71
     3
 72
     9
 73
     5
 74
     3
 42
0.0000000001
 43
0.0000000001
 44
0.00000001
 40
0.0
 40
0.0
 40
0.0
 40
0.0
 40
1.961566124883145
 40
3.883938375614917
 40
3.883938375614917
 40
3.883938375614917
 40
3.883938375614917
 10
-926.0422573270926
 20
-1096.131835807541
 30
0.0
 10
-926.194507086417
 20
-1096.768346402207
 30
0.0
 10
-926.4959645164865
 20
-1098.028649531298
 30
0.0
 10
-926.6504884303349
 20
-1099.315229484166
 30
0.0
 10
-926.7269707159248
 20
-1099.952027847206
 30
0.0
 11
-926.0422573270926
 21
-1096.131835807541
 31
0.0
 11
-926.4615281123579
 21
-1098.048070049723
 31
0.0
 11
-926.7269707159248
 21
-1099.952027847206
 31
0.0
  0
SPLINE
  5
ED
330
43
100
AcDbEntity
  8
0
  6
Continuous
 62
     7
100
AcDbSpline
210
0.0
220
0.0
230
1.0
 70
     8
 71
     3
 72
    15
 73
    11
 74
     9
 42
0.0000000001
 43
0.0000000001
 44
0.00000001
 40
0.0
 40
0.0
 40
0.0
 40
0.0
 40
0.0665828534384354
 40
0.1220213398119876
 40
0.186336186744632
 40
0.2519533749159408
 40
0.3270735235822895
 40
0.3883497805924531
 40
0.4654178646027203
 40
0.5261539647933907
 40
0.5261539647933907
 40
0.5261539647933907
 40
0.5261539647933907
 10
-917.4359977270681
 20
-1103.100607076226
 30
0.0
 10
-917.4154446800192
 20
-1103.092152793445
 30
0.0
 10
-917.3777786713008
 20
-1103.076659271332
 30
0.0
 10
-917.3242109204255
 20
-1103.04490353669
 30
0.0
 10
-917.274113654079
 20
-1103.008587686181
 30
0.0
 10
-917.2231500515234
 20
-1102.962864056269
 30
0.0
 10
-917.1777978190265
 20
-1102.912895832128
 30
0.0
 10
-917.1352918992161
 20
-1102.855762118733
 30
0.0
 10
-917.1004183566524
 20
-1102.799087689538
 30
0.0
 10
-917.081087497914
 20
-1102.757391317979
 30
0.0
 10
-917.0725675753883
 20
-1102.739013973232
 30
0.0
 11
-917.4359977270681
 21
-1103.100607076226
 31
0.0
 11
-917.3751089955696
 21
-1103.073665681524
 31
0.0
 11
-917.3272047433644
 21
-1103.045762126337
 31
0.0
 11
-917.2751569201199
 21
-1103.007980866015
 31
0.0
 11
-917.2262473390399
 21
-1102.964237657833
 31
0.0
 11
-917.1757397508984
 21
-1102.908631720418
 31
0.0
 11
-917.1390864809374
 21
-1102.859526552927
 31
0.0
 11
-917.0990614560126
 21
-1102.793666952619
 31
0.0
 11
-917.0725675753883
 21
-1102.739013973232
 31
0.0
  0
SPLINE
  5
EE
330
43
100
AcDbEntity
  8
0
  6
Continuous
 62
     7
100
AcDbSpline
210
0.0
220
0.0
230
1.0
 70
     8
 71
     3
 72
    11
 73
     7
 74
     5
 42
0.0000000001
 43
0.0000000001
 44
0.00000001
 40
0.0
 40
0.0
 40
0.0
 40
0.0
 40
0.3150998665439456
 40
0.6348657631054208
 40
0.9634147849171919
 40
1.303896442405947
 40
1.303896442405947
 40
1.303896442405947
 40
1.303896442405947
 10
-933.7820826352488
 20
-1062.120003390879
 30
0.0
 10
-933.6988264598203
 20
-1062.055427999584
 30
0.0
 10
-933.5310812432756
 20
-1061.925320978207
 30
0.0
 10
-933.2360028213975
 20
-1061.79252393992
 30
0.0
 10
-932.916426729762
 20
-1061.704450192406
 30
0.0
 10
-932.6932665830914
 20
-1061.69089285319
 30
0.0
 10
-932.5796964001763
 20
-1061.683993281211
 30
0.0
 11
-933.7820826352488
 21
-1062.120003390879
 31
0.0
 11
-933.5257358966577
 21
-1061.936770545816
 31
0.0
 11
-933.2360254658302
 21
-1061.801426189179
 31
0.0
 11
-932.9186117253954
 21
-1061.71661476827
 31
0.0
 11
-932.5796964001763
 21
-1061.683993281211
 31
0.0
  0
SPLINE
  5
EF
330
43
100
AcDbEntity
  8
0
  6
Continuous
 62
     7
100
AcDbSpline
210
0.0
220
0.0
230
1.0
 70
     8
 71
     3
 72
    13
 73
     9
 74
     7
 42
0.0000000001
 43
0.0000000001
 44
0.00000001
 40
0.0
 40
0.0
 40
0.0
 40
0.0
 40
0.1162767201434429
 40
0.2396220971148139
 40
0.3673617239906521
 40
0.4959792430727493
 40
0.6217987584159304
 40
0.7416627059726977
 40
0.7416627059726977
 40
0.7416627059726977
 40
0.7416627059726977
 10
-940.5571032798009
 20
-1096.021395907426
 30
0.0
 10
-940.5533084705226
 20
-1096.060142802273
 30
0.0
 10
-940.5454881591452
 20
-1096.139992080687
 30
0.0
 10
-940.4986886417297
 20
-1096.25476458812
 30
0.0
 10
-940.4302543299707
 20
-1096.361966824175
 30
0.0
 10
-940.3412769650452
 20
-1096.454028898936
 30
0.0
 10
-940.2390301928754
 20
-1096.527897485658
 30
0.0
 10
-940.161846935512
 20
-1096.556237400607
 30
0.0
 10
-940.1241907994272
 20
-1096.570063866741
 30
0.0
 11
-940.5571032798009
 21
-1096.021395907426
 31
0.0
 11
-940.5403723164385
 21
-1096.136462629428
 31
0.0
 11
-940.4960468198406
 21
-1096.251568373731
 31
0.0
 11
-940.4270653983981
 21
-1096.359081050984
 31
0.0
 11
-940.3380021548521
 21
-1096.451872240566
 31
0.0
 11
-940.2347621428233
 21
-1096.52378920906
 31
0.0
 11
-940.1241907994272
 21
-1096.570063866741
 31
0.0
  0
SPLINE
  5
F0
330
43
100
AcDbEntity
  8
0
  6
Continuous
 62
     7
100
AcDbSpline
210
0.0
220
0.0
230
1.0
 70
     8
 71
     3
 72
    11
 73
     7
 74
     5
 42
0.0000000001
 43
0.0000000001
 44
0.00000001
 40
0.0
 40
0.0
 40
0.0
 40
0.0
 40
7.685808036832855
 40
15.53526109519159
 40
23.55795586311901
 40
31.75906387921972
 40
31.75906387921972
 40
31.75906387921972
 40
31.75906387921972
 10
-936.3145841450147
 20
-1064.679678115977
 30
0.0
 10
-937.020359613548
 20
-1067.144302018368
 30
0.0
 10
-938.4469378114032
 20
-1072.126026209449
 30
0.0
 10
-939.7675476389127
 20
-1079.87969447252
 30
0.0
 10
-940.5602389944416
 20
-1087.875098181305
 30
0.0
 10
-940.5581561530207
 20
-1093.286128289463
 30
0.0
 10
-940.5571032798009
 20
-1096.021395907426
 30
0.0
 11
-936.3145841450147
 21
-1064.679678115977
 31
0.0
 11
-938.2958959937304
 21
-1072.105716665377
 31
0.0
 11
-939.6680494805148
 21
-1079.834306971771
 31
0.0
 11
-940.4232205444126
 21
-1087.821380779091
 31
0.0
 11
-940.5571032798009
 21
-1096.021395907426
 31
0.0
  0
SPLINE
  5
F1
330
43
100
AcDbEntity
  8
0
  6
Continuous
 62
     7
100
AcDbSpline
210
0.0
220
0.0
230
1.0
 70
     8
 71
     3
 72
     9
 73
     5
 74
     3
 42
0.0000000001
 43
0.0000000001
 44
0.00000001
 40
0.0
 40
0.0
 40
0.0
 40
0.0
 40
0.5052080443642797
 40
0.9937227413051499
 40
0.9937227413051499
 40
0.9937227413051499
 40
0.9937227413051499
 10
-936.3145841450147
 20
-1064.679678115977
 30
0.0
 10
-936.2535779265339
 20
-1064.520516232546
 30
0.0
 10
-936.133581288829
 20
-1064.207451575562
 30
0.0
 10
-935.8979292963832
 20
-1063.969185797943
 30
0.0
 10
-935.7820826352488
 20
-1063.852054198447
 30
0.0
 11
-936.3145841450147
 21
-1064.679678115977
 31
0.0
 11
-936.1016720559528
 21
-1064.221525728204
 31
0.0
 11
-935.7820826352488
 21
-1063.852054198447
 31
0.0
  0
SPLINE
  5
F2
330
43
100
AcDbEntity
  8
0
  6
Continuous
 62
     7
100
AcDbSpline
210
0.0
220
0.0
230
1.0
 70
     8
 71
     3
 72
    11
 73
     7
 74
     5
 42
0.0000000001
 43
0.0000000001
 44
0.00000001
 40
0.0
 40
0.0
 40
0.0
 40
0.0
 40
0.3150998665432845
 40
0.6348657631047596
 40
0.9634147849165307
 40
1.303896442405307
 40
1.303896442405307
 40
1.303896442405307
 40
1.303896442405307
 10
-935.7820826352488
 20
-1063.852054198447
 30
0.0
 10
-935.6988264598202
 20
-1063.787478807152
 30
0.0
 10
-935.5310812432751
 20
-1063.657371785776
 30
0.0
 10
-935.2360028213975
 20
-1063.524574747488
 30
0.0
 10
-934.9164267297624
 20
-1063.436500999975
 30
0.0
 10
-934.6932665830913
 20
-1063.422943660758
 30
0.0
 10
-934.5796964001763
 20
-1063.41604408878
 30
0.0
 11
-935.7820826352488
 21
-1063.852054198447
 31
0.0
 11
-935.5257358966577
 21
-1063.668821353386
 31
0.0
 11
-935.2360254658302
 21
-1063.533476996749
 31
0.0
 11
-934.9186117253954
 21
-1063.448665575839
 31
0.0
 11
-934.5796964001763
 21
-1063.41604408878
 31
0.0
  0
ENDBLK
  5
45
330
43
100
AcDbEntity
  8
0
100
AcDbBlockEnd
  0
BLOCK
  5
48
330
46
100
AcDbEntity
  8
0
100
AcDbBlockBegin
  2
AllgSicht1
 70
     0
 10
-896.000000000012
 20
-1092.99999999997
 30
0.0
  3
AllgSicht1
  1

  0
INSERT
  5
47
330
46
100
AcDbEntity
  8
0
100
AcDbBlockReference
  2
3074541_UW_25_F-select__1
 10
-940.6753672988076
 20
-1123.077825572509
 30
0.0
  0
MTEXT
  5
F4
330
46
100
AcDbEntity
  8
1
 62
     6
100
AcDbMText
 10
-896.000000000012
 20
-1132.950941791023
 30
0.0
 40
5.0
 41
0.0
 71
     2
 72
     1
  1
 
  7
CONVERTER_11
 73
     1
 44
1.32052821128451
  0
ENDBLK
  5
49
330
46
100
AcDbEntity
  8
0
100
AcDbBlockEnd
  0
BLOCK
  5
4B
330
4A
100
AcDbEntity
  8
0
100
AcDbBlockBegin
  2
3074541_UW_25_F-select__2
 70
     0
 10
-1135.499999999914
 20
-1047.707162169495
 30
0.0
  3
3074541_UW_25_F-select__2
  1

  0
LINE
  5
F5
330
4A
100
AcDbEntity
  8
0
  6
Continuous
 62
     2
100
AcDbLine
 10
-1059.707921972804
 20
-1043.741285571139
 30
0.0
 11
-1059.23394972075
 21
-1043.741285571154
 31
0.0
  0
LINE
  5
F6
330
4A
100
AcDbEntity
  8
0
  6
Continuous
 62
     2
100
AcDbLine
 10
-1049.03394972075
 20
-1043.741285571471
 30
0.0
 11
-1048.559977468653
 21
-1043.74128557136
 31
0.0
  0
LINE
  5
F7
330
4A
100
AcDbEntity
  8
0
  6
Continuous
 62
     7
100
AcDbLine
 10
-1035.431277853988
 20
-1036.707162174547
 30
0.0
 11
-1048.233949720533
 21
-1036.707162171261
 31
0.0
  0
LINE
  5
F8
330
4A
100
AcDbEntity
  8
0
  6
Continuous
 62
     7
100
AcDbLine
 10
-1060.033949720533
 20
-1036.707162170894
 30
0.0
 11
-1075.526311195319
 21
-1036.707162172696
 31
0.0
  0
LINE
  5
F9
330
4A
100
AcDbEntity
  8
0
  6
Continuous
 62
     7
100
AcDbLine
 10
-1049.033949720533
 20
-1036.707162171236
 30
0.0
 11
-1059.233949720533
 21
-1036.707162170919
 31
0.0
  0
LINE
  5
FA
330
4A
100
AcDbEntity
  8
0
  6
Continuous
 62
     7
100
AcDbLine
 10
-1059.233949720533
 20
-1036.707162170919
 30
0.0
 11
-1060.033949720533
 21
-1036.707162170894
 31
0.0
  0
LINE
  5
FB
330
4A
100
AcDbEntity
  8
0
  6
Continuous
 62
     7
100
AcDbLine
 10
-1048.233949720533
 20
-1036.707162171261
 30
0.0
 11
-1049.033949720533
 21
-1036.707162171236
 31
0.0
  0
LINE
  5
FC
330
4A
100
AcDbEntity
  8
0
  6
Continuous
 62
     7
100
AcDbLine
 10
-1114.96605027891
 20
-1036.707162169187
 30
0.0
 11
-1104.76605027891
 21
-1036.707162169504
 31
0.0
  0
LINE
  5
FD
330
4A
100
AcDbEntity
  8
0
  6
Continuous
 62
     7
100
AcDbLine
 10
-1103.96605027891
 20
-1036.707162169529
 30
0.0
 11
-1103.966050279068
 21
-1041.807162168405
 31
0.0
  0
LINE
  5
FE
330
4A
100
AcDbEntity
  8
0
  6
Continuous
 62
     7
100
AcDbLine
 10
-1115.76605027891
 20
-1036.707162169162
 30
0.0
 11
-1114.96605027891
 21
-1036.707162169187
 31
0.0
  0
LINE
  5
FF
330
4A
100
AcDbEntity
  8
0
  6
Continuous
 62
     7
100
AcDbLine
 10
-1115.766050279068
 20
-1041.807162168038
 30
0.0
 11
-1115.76605027891
 21
-1036.707162169162
 31
0.0
  0
LINE
  5
100
330
4A
100
AcDbEntity
  8
0
  6
Continuous
 62
     2
100
AcDbLine
 10
-1115.440022531181
 20
-1043.741285569407
 30
0.0
 11
-1114.966050279127
 21
-1043.741285569422
 31
0.0
  0
LINE
  5
101
330
4A
100
AcDbEntity
  8
0
  6
Continuous
 62
     7
100
AcDbLine
 10
-1114.966050279141
 20
-1044.174298271282
 30
0.0
 11
-1114.966050279127
 21
-1043.741285569422
 31
0.0
  0
LINE
  5
102
330
4A
100
AcDbEntity
  8
0
  6
Continuous
 62
     2
100
AcDbLine
 10
-1115.270369539387
 20
-1044.174298271273
 30
0.0
 11
-1114.966050279141
 21
-1044.174298271282
 31
0.0
  0
LINE
  5
103
330
4A
100
AcDbEntity
  8
0
  6
Continuous
 62
     2
100
AcDbLine
 10
-1104.766050279141
 20
-1044.174298271599
 30
0.0
 11
-1104.461731018895
 21
-1044.174298271608
 31
0.0
  0
LINE
  5
104
330
4A
100
AcDbEntity
  8
0
  6
Continuous
 62
     2
100
AcDbLine
 10
-1104.766050279127
 20
-1043.741285569739
 30
0.0
 11
-1104.292078027074
 21
-1043.741285569754
 31
0.0
  0
LINE
  5
105
330
4A
100
AcDbEntity
  8
0
  6
Continuous
 62
     7
100
AcDbLine
 10
-1114.966050279127
 20
-1043.741285569422
 30
0.0
 11
-1114.96605027891
 21
-1036.707162169187
 31
0.0
  0
LINE
  5
106
330
4A
100
AcDbEntity
  8
0
  6
Continuous
 62
     7
100
AcDbLine
 10
-1104.766050279141
 20
-1044.174298271599
 30
0.0
 11
-1104.766050279127
 21
-1043.741285569739
 31
0.0
  0
LINE
  5
107
330
4A
100
AcDbEntity
  8
0
  6
Continuous
 62
     7
100
AcDbLine
 10
-1104.76605027891
 20
-1036.707162169504
 30
0.0
 11
-1104.766050279127
 21
-1043.741285569739
 31
0.0
  0
LINE
  5
108
330
4A
100
AcDbEntity
  8
0
  6
Continuous
 62
     2
100
AcDbLine
 10
-1033.428002040996
 20
-1036.70716217435
 30
0.0
 11
-1033.428002040871
 21
-1032.70716217435
 31
0.0
  0
LINE
  5
109
330
4A
100
AcDbEntity
  8
0
  6
Continuous
 62
     2
100
AcDbLine
 10
-1035.431277853988
 20
-1036.707162174547
 30
0.0
 11
-1035.431277853864
 21
-1032.707162174547
 31
0.0
  0
LINE
  5
10A
330
4A
100
AcDbEntity
  8
0
  6
Continuous
 62
     7
100
AcDbLine
 10
-1048.233949720533
 20
-1036.707162171261
 30
0.0
 11
-1048.23394972069
 21
-1041.807162170137
 31
0.0
  0
LINE
  5
10B
330
4A
100
AcDbEntity
  8
0
  6
Continuous
 62
     7
100
AcDbLine
 10
-1035.431277853864
 20
-1032.707162174547
 30
0.0
 11
-1033.428002040871
 21
-1032.70716217435
 31
0.0
  0
LINE
  5
10C
330
4A
100
AcDbEntity
  8
0
  6
Continuous
 62
     7
100
AcDbLine
 10
-1035.431277853988
 20
-1036.707162174547
 30
0.0
 11
-1033.428002040996
 21
-1036.70716217435
 31
0.0
  0
LINE
  5
10D
330
4A
100
AcDbEntity
  8
0
  6
Continuous
 62
     7
100
AcDbLine
 10
-1128.568722145722
 20
-1032.707162171653
 30
0.0
 11
-1088.473688804391
 21
-1032.707162172293
 31
0.0
  0
LINE
  5
10E
330
4A
100
AcDbEntity
  8
0
  6
Continuous
 62
     7
100
AcDbLine
 10
-1103.96605027891
 20
-1036.707162169529
 30
0.0
 11
-1088.473688804515
 21
-1036.707162172293
 31
0.0
  0
LINE
  5
10F
330
4A
100
AcDbEntity
  8
0
  6
Continuous
 62
     7
100
AcDbLine
 10
-1076.999999999916
 20
-1036.707162171966
 30
0.0
 11
-1086.999999999916
 21
-1036.707162171655
 31
0.0
  0
LINE
  5
110
330
4A
100
AcDbEntity
  8
0
  6
Continuous
 62
     2
100
AcDbLine
 10
-1075.526311195195
 20
-1032.707162172696
 30
0.0
 11
-1075.526311195319
 21
-1036.707162172696
 31
0.0
  0
LINE
  5
111
330
4A
100
AcDbEntity
  8
0
  6
Continuous
 62
     7
100
AcDbLine
 10
-1075.526311195319
 20
-1036.707162172696
 30
0.0
 11
-1076.999999999916
 21
-1036.707162171966
 31
0.0
  0
LINE
  5
112
330
4A
100
AcDbEntity
  8
0
  6
Continuous
 62
     7
100
AcDbLine
 10
-1076.999999999916
 20
-1036.707162171966
 30
0.0
 11
-1076.999999999839
 21
-1034.207162169588
 31
0.0
  0
LINE
  5
113
330
4A
100
AcDbEntity
  8
0
  6
Continuous
 62
     2
100
AcDbLine
 10
-1130.571997958839
 20
-1036.707162171331
 30
0.0
 11
-1130.571997958714
 21
-1032.707162171331
 31
0.0
  0
LINE
  5
114
330
4A
100
AcDbEntity
  8
0
  6
Continuous
 62
     2
100
AcDbLine
 10
-1128.568722145846
 20
-1036.707162171653
 30
0.0
 11
-1128.568722145722
 21
-1032.707162171653
 31
0.0
  0
LINE
  5
115
330
4A
100
AcDbEntity
  8
0
  6
Continuous
 62
     2
100
AcDbLine
 10
-1088.473688804391
 20
-1032.707162172293
 30
0.0
 11
-1088.473688804515
 21
-1036.707162172293
 31
0.0
  0
LINE
  5
116
330
4A
100
AcDbEntity
  8
0
  6
Continuous
 62
     7
100
AcDbLine
 10
-1128.568722145846
 20
-1036.707162171653
 30
0.0
 11
-1115.76605027891
 21
-1036.707162169162
 31
0.0
  0
LINE
  5
117
330
4A
100
AcDbEntity
  8
0
  6
Continuous
 62
     7
100
AcDbLine
 10
-1088.473688804391
 20
-1032.707162172293
 30
0.0
 11
-1086.999999999793
 21
-1032.70716217201
 31
0.0
  0
LINE
  5
118
330
4A
100
AcDbEntity
  8
0
  6
Continuous
 62
     7
100
AcDbLine
 10
-1086.999999999839
 20
-1034.207162169645
 30
0.0
 11
-1086.999999999793
 21
-1032.70716217201
 31
0.0
  0
LINE
  5
119
330
4A
100
AcDbEntity
  8
0
  6
Continuous
 62
     7
100
AcDbLine
 10
-1130.571997958839
 20
-1036.707162171331
 30
0.0
 11
-1128.568722145846
 21
-1036.707162171653
 31
0.0
  0
LINE
  5
11A
330
4A
100
AcDbEntity
  8
0
  6
Continuous
 62
     7
100
AcDbLine
 10
-1076.999999999839
 20
-1034.207162169588
 30
0.0
 11
-1076.999999999792
 21
-1032.707162172321
 31
0.0
  0
LINE
  5
11B
330
4A
100
AcDbEntity
  8
0
  6
Continuous
 62
     7
100
AcDbLine
 10
-1086.999999999916
 20
-1036.707162171655
 30
0.0
 11
-1086.999999999839
 21
-1034.207162169645
 31
0.0
  0
LINE
  5
11C
330
4A
100
AcDbEntity
  8
0
  6
Continuous
 62
     7
100
AcDbLine
 10
-1088.473688804515
 20
-1036.707162172293
 30
0.0
 11
-1086.999999999916
 21
-1036.707162171655
 31
0.0
  0
LINE
  5
11D
330
4A
100
AcDbEntity
  8
0
  6
Continuous
 62
     7
100
AcDbLine
 10
-1104.76605027891
 20
-1036.707162169504
 30
0.0
 11
-1103.96605027891
 21
-1036.707162169529
 31
0.0
  0
LINE
  5
11E
330
4A
100
AcDbEntity
  8
0
  6
Continuous
 62
     7
100
AcDbLine
 10
-1135.499999999789
 20
-1032.707162166737
 30
0.0
 11
-1135.499999999914
 21
-1036.707162166737
 31
0.0
  0
LINE
  5
11F
330
4A
100
AcDbEntity
  8
0
  6
Continuous
 62
     7
100
AcDbLine
 10
-1130.571997958839
 20
-1036.707162171331
 30
0.0
 11
-1135.499999999914
 21
-1036.707162166737
 31
0.0
  0
LINE
  5
120
330
4A
100
AcDbEntity
  8
0
  6
Continuous
 62
     7
100
AcDbLine
 10
-1130.571997958714
 20
-1032.707162171331
 30
0.0
 11
-1128.568722145722
 21
-1032.707162171653
 31
0.0
  0
LINE
  5
121
330
4A
100
AcDbEntity
  8
0
  6
Continuous
 62
     7
100
AcDbLine
 10
-1130.571997958714
 20
-1032.707162171331
 30
0.0
 11
-1135.499999999789
 21
-1032.707162166737
 31
0.0
  0
LINE
  5
122
330
4A
100
AcDbEntity
  8
0
  6
Continuous
 62
     7
100
AcDbLine
 10
-1035.431277853864
 20
-1032.707162174547
 30
0.0
 11
-1075.526311195195
 21
-1032.707162172696
 31
0.0
  0
LINE
  5
123
330
4A
100
AcDbEntity
  8
0
  6
Continuous
 62
     7
100
AcDbLine
 10
-1086.999999999839
 20
-1034.207162169645
 30
0.0
 11
-1076.999999999839
 21
-1034.207162169588
 31
0.0
  0
LINE
  5
124
330
4A
100
AcDbEntity
  8
0
  6
Continuous
 62
     7
100
AcDbLine
 10
-1075.526311195195
 20
-1032.707162172696
 30
0.0
 11
-1076.999999999792
 21
-1032.707162172321
 31
0.0
  0
LINE
  5
125
330
4A
100
AcDbEntity
  8
0
  6
Continuous
 62
     7
100
AcDbLine
 10
-1060.03394972069
 20
-1041.80716216977
 30
0.0
 11
-1060.033949720533
 21
-1036.707162170894
 31
0.0
  0
LINE
  5
126
330
4A
100
AcDbEntity
  8
0
  6
Continuous
 62
     7
100
AcDbLine
 10
-1059.23394972075
 20
-1043.741285571154
 30
0.0
 11
-1059.233949720533
 21
-1036.707162170919
 31
0.0
  0
LINE
  5
127
330
4A
100
AcDbEntity
  8
0
  6
Continuous
 62
     7
100
AcDbLine
 10
-1049.033949720533
 20
-1036.707162171236
 30
0.0
 11
-1049.03394972075
 21
-1043.741285571471
 31
0.0
  0
LINE
  5
128
330
4A
100
AcDbEntity
  8
0
  6
Continuous
 62
     7
100
AcDbLine
 10
-1059.233949720764
 20
-1044.174298273014
 30
0.0
 11
-1059.23394972075
 21
-1043.741285571154
 31
0.0
  0
LINE
  5
129
330
4A
100
AcDbEntity
  8
0
  6
Continuous
 62
     7
100
AcDbLine
 10
-1049.033949720764
 20
-1044.174298273331
 30
0.0
 11
-1049.03394972075
 21
-1043.741285571471
 31
0.0
  0
LINE
  5
12A
330
4A
100
AcDbEntity
  8
0
  6
Continuous
 62
     2
100
AcDbLine
 10
-1049.033949720764
 20
-1044.174298273331
 30
0.0
 11
-1048.729630460518
 21
-1044.174298273341
 31
0.0
  0
LINE
  5
12B
330
4A
100
AcDbEntity
  8
0
  6
Continuous
 62
     2
100
AcDbLine
 10
-1059.538268981009
 20
-1044.174298273005
 30
0.0
 11
-1059.233949720764
 21
-1044.174298273014
 31
0.0
  0
LINE
  5
12C
330
4A
100
AcDbEntity
  8
0
  6
Continuous
 62
     7
100
AcDbLine
 10
-1033.428002040996
 20
-1036.70716217435
 30
0.0
 11
-1028.499999999913
 21
-1036.707162170063
 31
0.0
  0
LINE
  5
12D
330
4A
100
AcDbEntity
  8
0
  6
Continuous
 62
     7
100
AcDbLine
 10
-1033.428002040871
 20
-1032.70716217435
 30
0.0
 11
-1028.499999999789
 21
-1032.707162170063
 31
0.0
  0
LINE
  5
12E
330
4A
100
AcDbEntity
  8
0
  6
Continuous
 62
     7
100
AcDbLine
 10
-1028.499999999789
 20
-1032.707162170063
 30
0.0
 11
-1028.499999999913
 21
-1036.707162170063
 31
0.0
  0
LINE
  5
12F
330
4A
100
AcDbEntity
  8
1
  6
DOT_CENTER
 62
     2
100
AcDbLine
 10
-1107.00605028817
 20
-1041.807162165865
 30
0.0
 11
-1112.726050278634
 21
-1041.807162165865
 31
0.0
  0
LINE
  5
130
330
4A
100
AcDbEntity
  8
1
  6
DOT_CENTER
 62
     2
100
AcDbLine
 10
-1109.866050283402
 20
-1038.947162170633
 30
0.0
 11
-1109.866050283402
 21
-1044.667162161097
 31
0.0
  0
LINE
  5
131
330
4A
100
AcDbEntity
  8
1
  6
DOT_CENTER
 62
     2
100
AcDbLine
 10
-1051.27394972069
 20
-1041.807162169495
 30
0.0
 11
-1056.99394972069
 21
-1041.807162169495
 31
0.0
  0
LINE
  5
132
330
4A
100
AcDbEntity
  8
1
  6
DOT_CENTER
 62
     2
100
AcDbLine
 10
-1054.13394972069
 20
-1038.947162169495
 30
0.0
 11
-1054.13394972069
 21
-1044.667162169495
 31
0.0
  0
ARC
  5
133
330
4A
100
AcDbEntity
  8
0
  6
Continuous
 62
     7
100
AcDbCircle
 10
-1109.866050279067
 20
-1041.807162165865
 30
0.0
 40
5.900000000762125
100
AcDbArc
 50
203.6538125468196
 51
336.3461874496236
  0
ARC
  5
134
330
4A
100
AcDbEntity
  8
0
  6
Continuous
 62
     7
100
AcDbCircle
 10
-1054.133949720685
 20
-1041.807162169525
 30
0.0
 40
5.900000000005093
100
AcDbArc
 50
180.000000002378
 51
199.1363616038369
  0
ARC
  5
135
330
4A
100
AcDbEntity
  8
0
  6
Continuous
 62
     7
100
AcDbCircle
 10
-1109.866050283599
 20
-1041.807162167032
 30
0.0
 40
5.900000004531066
100
AcDbArc
 50
340.8636384000244
 51
359.9999999866656
  0
ARC
  5
136
330
4A
100
AcDbEntity
  8
0
  6
Continuous
 62
     7
100
AcDbCircle
 10
-1109.866050282966
 20
-1041.807162168451
 30
0.0
 40
5.899999996101997
100
AcDbArc
 50
179.9999999959902
 51
199.1363616102275
  0
ARC
  5
137
330
4A
100
AcDbEntity
  8
0
  6
Continuous
 62
     7
100
AcDbCircle
 10
-1109.866050282229
 20
-1041.807162168859
 30
0.0
 40
5.89999999666398
100
AcDbArc
 50
199.1363616041391
 51
203.6538125325087
  0
ARC
  5
138
330
4A
100
AcDbEntity
  8
0
  6
Continuous
 62
     7
100
AcDbCircle
 10
-1109.866050283422
 20
-1041.807162165915
 30
0.0
 40
5.900000004729862
100
AcDbArc
 50
336.3461874670371
 51
340.8636383892146
  0
ARC
  5
139
330
4A
100
AcDbEntity
  8
0
  6
Continuous
 62
     7
100
AcDbCircle
 10
-1054.133949720738
 20
-1041.807162169372
 30
0.0
 40
5.900000000005386
100
AcDbArc
 50
199.1363616054094
 51
203.6538125312208
  0
ARC
  5
13A
330
4A
100
AcDbEntity
  8
0
  6
Continuous
 62
     7
100
AcDbCircle
 10
-1054.133949720642
 20
-1041.807162169372
 30
0.0
 40
5.900000000005234
100
AcDbArc
 50
336.3461874652176
 51
340.8636383923183
  0
ARC
  5
13B
330
4A
100
AcDbEntity
  8
0
  6
Continuous
 62
     7
100
AcDbCircle
 10
-1054.133949720696
 20
-1041.807162169527
 30
0.0
 40
5.90000000000538
100
AcDbArc
 50
340.8636383939104
 51
359.9999999940758
  0
ARC
  5
13C
330
4A
100
AcDbEntity
  8
0
  6
Continuous
 62
     7
100
AcDbCircle
 10
-1054.13394972069
 20
-1041.807162169495
 30
0.0
 40
5.899999999999541
100
AcDbArc
 50
203.6538125299397
 51
336.3461874664987
  0
CIRCLE
  5
13D
330
4A
100
AcDbEntity
  8
0
  6
Continuous
 62
     7
100
AcDbCircle
 10
-1109.866050283402
 20
-1041.807162165865
 30
0.0
 40
2.59999999566503
  0
CIRCLE
  5
13E
330
4A
100
AcDbEntity
  8
0
  6
Continuous
 62
     7
100
AcDbCircle
 10
-1054.13394972069
 20
-1041.807162169495
 30
0.0
 40
2.599999999999909
  0
ENDBLK
  5
4C
330
4A
100
AcDbEntity
  8
0
100
AcDbBlockEnd
  0
BLOCK
  5
4F
330
4D
100
AcDbEntity
  8
0
100
AcDbBlockBegin
  2
Drfsicht1
 70
     0
 10
-1082.000000000014
 20
-1040.207162170686
 30
0.0
  3
Drfsicht1
  1

  0
INSERT
  5
4E
330
4D
100
AcDbEntity
  8
0
100
AcDbBlockReference
  2
3074541_UW_25_F-select__2
 10
-1135.499999999914
 20
-1047.707162169495
 30
0.0
  0
MTEXT
  5
13F
330
4D
100
AcDbEntity
  8
1
 62
     6
100
AcDbMText
 10
-1082.000000000013
 20
-1052.707162175043
 30
0.0
 40
5.0
 41
0.0
 71
     2
 72
     1
  1
 
  7
CONVERTER_11
 73
     1
 44
1.32052821128451
  0
DIMENSION
  5
14D
330
4D
100
AcDbEntity
  8
1
100
AcDbDimension
  2
*D16
 10
-1000.45833875879
 20
-1032.707162170063
 30
0.0
 11
-1004.38333875879
 21
-1037.45133959197
 31
0.0
 70
    32
  1
<>
 71
     5
 42
-1.0
 53
90.0
  3
ME10_DIM_10
100
AcDbAlignedDimension
 13
-1051.27394972069
 23
-1041.807162169495
 33
0.0
 14
-1028.499999999789
 24
-1032.707162170063
 34
0.0
 50
90.0
100
AcDbRotatedDimension
  0
DIMENSION
  5
15A
330
4D
100
AcDbEntity
  8
1
100
AcDbDimension
  2
*D17
 10
-1011.6418734648
 20
-1036.707162170063
 30
0.0
 11
-1015.3918734648
 21
-1025.9228125364
 31
0.0
 70
    32
  1
<>
 71
     5
 42
-1.0
 53
90.0
  3
ME10_DIM_11
100
AcDbAlignedDimension
 13
-1028.499999999789
 23
-1032.707162170063
 33
0.0
 14
-1028.499999999913
 24
-1036.707162170063
 34
0.0
 50
90.0
100
AcDbRotatedDimension
  0
ENDBLK
  5
50
330
4D
100
AcDbEntity
  8
0
100
AcDbBlockEnd
  0
BLOCK
  5
52
330
51
100
AcDbEntity
  8
0
100
AcDbBlockBegin
  2
3074541_UW_25_F-select__3
 70
     0
 10
-940.4999999956262
 20
-992.1637516011626
 30
0.0
  3
3074541_UW_25_F-select__3
  1

  0
LINE
  5
15B
330
51
100
AcDbEntity
  8
0
  6
Continuous
 62
     7
100
AcDbLine
 10
-881.9999999955768
 20
-967.1637516014233
 30
0.0
 11
-891.9999999955768
 21
-967.1637516014222
 31
0.0
  0
LINE
  5
15C
330
51
100
AcDbEntity
  8
0
  6
Continuous
 62
     7
100
AcDbLine
 10
-834.0290471818371
 20
-992.1637516011626
 30
0.0
 11
-881.4999999956262
 21
-992.1637516011573
 31
0.0
  0
LINE
  5
15D
330
51
100
AcDbEntity
  8
0
  6
Continuous
 62
     7
100
AcDbLine
 10
-939.9709528094154
 20
-992.1637516011506
 30
0.0
 11
-892.4999999956262
 21
-992.163751601156
 31
0.0
  0
LINE
  5
15E
330
51
100
AcDbEntity
  8
0
  6
Continuous
 62
     7
100
AcDbLine
 10
-891.9999999955762
 20
-962.1637516014222
 30
0.0
 11
-891.9999999956233
 21
-959.3738421666512
 31
0.0
  0
LINE
  5
15F
330
51
100
AcDbEntity
  8
0
  6
Continuous
 62
     7
100
AcDbLine
 10
-891.9999999955323
 20
-986.0637516018721
 30
0.0
 11
-891.9999999955768
 21
-967.1637516014222
 31
0.0
  0
LINE
  5
160
330
51
100
AcDbEntity
  8
0
  6
Continuous
 62
     7
100
AcDbLine
 10
-891.9999999955768
 20
-967.1637516014222
 30
0.0
 11
-891.9999999955762
 21
-962.1637516014222
 31
0.0
  0
LINE
  5
161
330
51
100
AcDbEntity
  8
0
  6
Continuous
 62
     7
100
AcDbLine
 10
-891.9999999956261
 20
-991.663751601156
 30
0.0
 11
-891.9999999955326
 21
-988.163751601872
 31
0.0
  0
LINE
  5
162
330
51
100
AcDbEntity
  8
0
  6
Continuous
 62
     7
100
AcDbLine
 10
-891.9999999955326
 20
-988.163751601872
 30
0.0
 11
-891.9999999955323
 21
-986.0637516018721
 31
0.0
  0
LINE
  5
163
330
51
100
AcDbEntity
  8
0
  6
Continuous
 62
     7
100
AcDbLine
 10
-881.9999999955762
 20
-962.1637516014233
 30
0.0
 11
-891.9999999955762
 21
-962.1637516014222
 31
0.0
  0
LINE
  5
164
330
51
100
AcDbEntity
  8
0
  6
Continuous
 62
     7
100
AcDbLine
 10
-881.9999999955762
 20
-962.1637516014233
 30
0.0
 11
-881.9999999956226
 21
-959.3738421666524
 31
0.0
  0
LINE
  5
165
330
51
100
AcDbEntity
  8
0
  6
Continuous
 62
     7
100
AcDbLine
 10
-881.9999999955323
 20
-986.0637516018733
 30
0.0
 11
-881.9999999955768
 21
-967.1637516014233
 31
0.0
  0
LINE
  5
166
330
51
100
AcDbEntity
  8
0
  6
Continuous
 62
     7
100
AcDbLine
 10
-881.9999999956261
 20
-991.6637516011572
 30
0.0
 11
-881.9999999955326
 21
-988.1637516018732
 31
0.0
  0
LINE
  5
167
330
51
100
AcDbEntity
  8
0
  6
Continuous
 62
     7
100
AcDbLine
 10
-881.9999999955326
 20
-988.1637516018732
 30
0.0
 11
-881.9999999955323
 21
-986.0637516018733
 31
0.0
  0
LINE
  5
168
330
51
100
AcDbEntity
  8
0
  6
Continuous
 62
     7
100
AcDbLine
 10
-881.9999999955768
 20
-967.1637516014233
 30
0.0
 11
-881.9999999955762
 21
-962.1637516014233
 31
0.0
  0
LINE
  5
169
330
51
100
AcDbEntity
  8
0
  6
Continuous
 62
     7
100
AcDbLine
 10
-881.9999999955326
 20
-988.1637516018732
 30
0.0
 11
-891.9999999955326
 21
-988.163751601872
 31
0.0
  0
LINE
  5
16A
330
51
100
AcDbEntity
  8
0
  6
Continuous
 62
     7
100
AcDbLine
 10
-881.9999999955323
 20
-986.0637516018733
 30
0.0
 11
-891.9999999955323
 21
-986.0637516018721
 31
0.0
  0
ARC
  5
16B
330
51
100
AcDbEntity
  8
0
  6
Continuous
 62
     7
100
AcDbCircle
 10
-918.9122087236067
 20
-999.8362478508085
 30
0.0
 40
50.00000000000001
100
AcDbArc
 50
59.41803873954962
 51
107.045453889586
  0
ARC
  5
16C
330
51
100
AcDbEntity
  8
0
  6
Continuous
 62
     7
100
AcDbCircle
 10
-939.9709528094153
 20
-991.6637516011506
 30
0.0
 40
0.4999999999999697
100
AcDbArc
 50
181.2327533137475
 51
269.999999999987
  0
ARC
  5
16D
330
51
100
AcDbEntity
  8
0
  6
Continuous
 62
     7
100
AcDbCircle
 10
-855.0877912676476
 20
-999.8362478508158
 30
0.0
 40
49.99999999999997
100
AcDbArc
 50
72.95454611040091
 51
120.5819612604374
  0
ARC
  5
16E
330
51
100
AcDbEntity
  8
0
  6
Continuous
 62
     7
100
AcDbCircle
 10
-894.9999999956233
 20
-959.3738421666508
 30
0.0
 40
3.0
100
AcDbArc
 50
359.9999999999913
 51
59.41803873955399
  0
ARC
  5
16F
330
51
100
AcDbEntity
  8
0
  6
Continuous
 62
     7
100
AcDbCircle
 10
-841.3106686547701
 20
-954.900839846551
 30
0.0
 40
2.999999999999942
100
AcDbArc
 50
16.07731557498087
 51
72.95454611040088
  0
ARC
  5
170
330
51
100
AcDbEntity
  8
0
  6
Continuous
 62
     7
100
AcDbCircle
 10
-932.6893313364739
 20
-954.9008398465406
 30
0.0
 40
2.999999999999968
100
AcDbArc
 50
107.0454538895875
 51
163.922684425006
  0
ARC
  5
171
330
51
100
AcDbEntity
  8
0
  6
Continuous
 62
     7
100
AcDbCircle
 10
-959.4999999956256
 20
-988.9637516011484
 30
0.0
 40
126.0000000000001
100
AcDbArc
 50
358.7672466862522
 51
16.07731557498206
  0
ARC
  5
172
330
51
100
AcDbEntity
  8
0
  6
Continuous
 62
     7
100
AcDbCircle
 10
-878.9999999956219
 20
-959.3738421666526
 30
0.0
 40
2.999999999999915
100
AcDbArc
 50
120.5819612604315
 51
179.9999999999957
  0
ARC
  5
173
330
51
100
AcDbEntity
  8
0
  6
Continuous
 62
     7
100
AcDbCircle
 10
-814.4999999956262
 20
-988.9637516011649
 30
0.0
 40
125.9999999999999
100
AcDbArc
 50
163.9226844250049
 51
181.2327533137347
  0
ARC
  5
174
330
51
100
AcDbEntity
  8
0
  6
Continuous
 62
     7
100
AcDbCircle
 10
-834.0290471818371
 20
-991.6637516011626
 30
0.0
 40
0.5
100
AcDbArc
 50
270.0
 51
358.7672466862397
  0
ARC
  5
175
330
51
100
AcDbEntity
  8
0
  6
Continuous
 62
     7
100
AcDbCircle
 10
-881.4999999956261
 20
-991.6637516011573
 30
0.0
 40
0.5
100
AcDbArc
 50
179.999999999987
 51
269.999999999987
  0
ARC
  5
176
330
51
100
AcDbEntity
  8
0
  6
Continuous
 62
     7
100
AcDbCircle
 10
-892.4999999956261
 20
-991.663751601156
 30
0.0
 40
0.5
100
AcDbArc
 50
269.999999999987
 51
0.0
  0
ENDBLK
  5
53
330
51
100
AcDbEntity
  8
0
100
AcDbBlockEnd
  0
BLOCK
  5
56
330
54
100
AcDbEntity
  8
0
100
AcDbBlockBegin
  2
Rckans1
 70
     0
 10
-886.9999999954011
 20
-970.99999999997
 30
0.0
  3
Rckans1
  1

  0
INSERT
  5
55
330
54
100
AcDbEntity
  8
0
100
AcDbBlockReference
  2
3074541_UW_25_F-select__3
 10
-940.4999999956262
 20
-992.1637516011626
 30
0.0
  0
MTEXT
  5
177
330
54
100
AcDbEntity
  8
1
 62
     6
100
AcDbMText
 10
-886.9999999954011
 20
-997.1637516031151
 30
0.0
 40
5.0
 41
0.0
 71
     2
 72
     1
  1
 
  7
CONVERTER_11
 73
     1
 44
1.32052821128451
  0
ENDBLK
  5
57
330
54
100
AcDbEntity
  8
0
100
AcDbBlockEnd
  0
BLOCK
  5
59
330
58
100
AcDbEntity
  8
0
100
AcDbBlockBegin
  2
3074541_UW_25_F-select__4
 70
     0
 10
-988.1166226609314
 20
-992.1637516030688
 30
0.0
  3
3074541_UW_25_F-select__4
  1

  0
LINE
  5
178
330
58
100
AcDbEntity
  8
0
  6
Continuous
 62
     7
100
AcDbLine
 10
-984.1166226560888
 20
-974.7302924830607
 30
0.0
 11
-979.0166226575549
 21
-983.5637516023122
 31
0.0
  0
LINE
  5
179
330
58
100
AcDbEntity
  8
0
  6
Continuous
 62
     7
100
AcDbLine
 10
-984.1166226560888
 20
-974.7302924830607
 30
0.0
 11
-984.116622659113
 21
-991.6637516016651
 31
0.0
  0
LINE
  5
17A
330
58
100
AcDbEntity
  8
0
  6
Continuous
 62
     7
100
AcDbLine
 10
-984.116622659113
 20
-991.6637516016651
 30
0.0
 11
-984.1166226609314
 21
-991.6745085737833
 31
0.0
  0
LINE
  5
17B
330
58
100
AcDbEntity
  8
0
  6
Continuous
 62
     7
100
AcDbLine
 10
-984.1166226609314
 20
-991.6745085737833
 30
0.0
 11
-984.1166226586492
 21
-992.1637516016632
 31
0.0
  0
LINE
  5
17C
330
58
100
AcDbEntity
  8
0
  6
Continuous
 62
     7
100
AcDbLine
 10
-979.0166226575549
 20
-983.5637516023122
 30
0.0
 11
-977.082499255854
 21
-986.9137516025571
 31
0.0
  0
LINE
  5
17D
330
58
100
AcDbEntity
  8
0
  6
Continuous
 62
     2
100
AcDbLine
 10
-984.1166226559935
 20
-954.0700371213381
 30
0.0
 11
-988.1166226559935
 21
-954.0700371208292
 31
0.0
  0
LINE
  5
17E
330
58
100
AcDbEntity
  8
0
  6
Continuous
 62
     7
100
AcDbLine
 10
-984.1166226529534
 20
-949.8362478513175
 30
0.0
 11
-988.1166226529534
 21
-949.8362478508085
 31
0.0
  0
LINE
  5
17F
330
58
100
AcDbEntity
  8
0
  6
Continuous
 62
     7
100
AcDbLine
 10
-984.116622655672
 20
-952.0326223148729
 30
0.0
 11
-984.1166226559935
 21
-954.0700371213381
 31
0.0
  0
LINE
  5
180
330
58
100
AcDbEntity
  8
0
  6
Continuous
 62
     7
100
AcDbLine
 10
-984.1166226529534
 20
-949.8362478513175
 30
0.0
 11
-984.116622655672
 21
-952.0326223148729
 31
0.0
  0
LINE
  5
181
330
58
100
AcDbEntity
  8
0
  6
Continuous
 62
     2
100
AcDbLine
 10
-984.116622655672
 20
-952.0326223148729
 30
0.0
 11
-988.116622655672
 21
-952.032622314364
 31
0.0
  0
LINE
  5
182
330
58
100
AcDbEntity
  8
0
  6
Continuous
 62
     7
100
AcDbLine
 10
-988.1166226529534
 20
-949.8362478508085
 30
0.0
 11
-988.116622655672
 21
-952.032622314364
 31
0.0
  0
LINE
  5
183
330
58
100
AcDbEntity
  8
0
  6
Continuous
 62
     7
100
AcDbLine
 10
-988.116622655672
 20
-952.032622314364
 30
0.0
 11
-988.1166226559935
 21
-954.0700371208292
 31
0.0
  0
LINE
  5
184
330
58
100
AcDbEntity
  8
0
  6
Continuous
 62
     2
100
AcDbLine
 10
-979.0166226575549
 20
-983.5637516023122
 30
0.0
 11
-979.0166226586493
 21
-992.1637516023122
 31
0.0
  0
LINE
  5
185
330
58
100
AcDbEntity
  8
0
  6
Continuous
 62
     7
100
AcDbLine
 10
-976.6494865539937
 20
-987.1637516026123
 30
0.0
 11
-973.1166226595616
 21
-987.1637516030687
 31
0.0
  0
LINE
  5
186
330
58
100
AcDbEntity
  8
0
  6
Continuous
 62
     7
100
AcDbLine
 10
-973.1166226595616
 20
-987.1637516030687
 30
0.0
 11
-973.1166226601979
 21
-992.1637516030688
 31
0.0
  0
LINE
  5
187
330
58
100
AcDbEntity
  8
0
  6
Continuous
 62
     2
100
AcDbLine
 10
-988.1166226609314
 20
-991.6745085732744
 30
0.0
 11
-984.1166226609314
 21
-991.6745085737833
 31
0.0
  0
LINE
  5
188
330
58
100
AcDbEntity
  8
0
  6
Continuous
 62
     7
100
AcDbLine
 10
-988.1166226559935
 20
-954.0700371208292
 30
0.0
 11
-988.1166226546292
 21
-956.7911354208534
 31
0.0
  0
LINE
  5
189
330
58
100
AcDbEntity
  8
0
  6
Continuous
 62
     7
100
AcDbLine
 10
-988.116622659113
 20
-991.663751601156
 30
0.0
 11
-988.1166226609314
 21
-991.6745085732744
 31
0.0
  0
LINE
  5
18A
330
58
100
AcDbEntity
  8
0
  6
Continuous
 62
     7
100
AcDbLine
 10
-988.1166226609314
 20
-991.6745085732744
 30
0.0
 11
-988.1166226591611
 21
-992.163751601156
 31
0.0
  0
LINE
  5
18B
330
58
100
AcDbEntity
  8
0
  6
Continuous
 62
     7
100
AcDbLine
 10
-988.1166226546292
 20
-956.7911354208534
 30
0.0
 11
-988.116622659113
 21
-991.663751601156
 31
0.0
  0
LINE
  5
18C
330
58
100
AcDbEntity
  8
0
  6
Continuous
 62
     7
100
AcDbLine
 10
-984.1166226559935
 20
-954.0700371213381
 30
0.0
 11
-984.1166226546292
 21
-956.7911354213625
 31
0.0
  0
LINE
  5
18D
330
58
100
AcDbEntity
  8
0
  6
Continuous
 62
     7
100
AcDbLine
 10
-984.1166226546292
 20
-956.7911354213625
 30
0.0
 11
-984.1166226560888
 21
-974.7302924830607
 31
0.0
  0
LINE
  5
18E
330
58
100
AcDbEntity
  8
0
  6
Continuous
 62
     7
100
AcDbLine
 10
-979.0166226586493
 20
-992.1637516023122
 30
0.0
 11
-973.1166226601979
 21
-992.1637516030688
 31
0.0
  0
LINE
  5
18F
330
58
100
AcDbEntity
  8
0
  6
Continuous
 62
     7
100
AcDbLine
 10
-979.0166226586493
 20
-992.1637516023122
 30
0.0
 11
-984.1166226586492
 21
-992.1637516016632
 31
0.0
  0
LINE
  5
190
330
58
100
AcDbEntity
  8
0
  6
Continuous
 62
     7
100
AcDbLine
 10
-984.1166226586492
 20
-992.1637516016632
 30
0.0
 11
-988.1166226591611
 21
-992.163751601156
 31
0.0
  0
ARC
  5
191
330
58
100
AcDbEntity
  8
0
  6
Continuous
 62
     7
100
AcDbCircle
 10
-976.64948655393
 20
-986.6637516026123
 30
0.0
 40
0.4999999999999411
100
AcDbArc
 50
209.9999999927081
 51
269.9999999927045
  0
ENDBLK
  5
5A
330
58
100
AcDbEntity
  8
0
100
AcDbBlockEnd
  0
BLOCK
  5
5D
330
5B
100
AcDbEntity
  8
0
100
AcDbBlockBegin
  2
SA_Links1
 70
     0
 10
-980.6166226566386
 20
-970.99999999997
 30
0.0
  3
SA_Links1
  1

  0
INSERT
  5
5C
330
5B
100
AcDbEntity
  8
0
100
AcDbBlockReference
  2
3074541_UW_25_F-select__4
 10
-988.1166226609314
 20
-992.1637516030688
 30
0.0
  0
MTEXT
  5
192
330
5B
100
AcDbEntity
  8
1
 62
     6
100
AcDbMText
 10
-980.6166226566386
 20
-997.1637516031151
 30
0.0
 40
5.0
 41
0.0
 71
     2
 72
     1
  1
 
  7
CONVERTER_11
 73
     1
 44
1.32052821128451
  0
ENDBLK
  5
5E
330
5B
100
AcDbEntity
  8
0
100
AcDbBlockEnd
  0
BLOCK
  5
60
330
5F
100
AcDbEntity
  8
0
100
AcDbBlockBegin
  2
3074541_UW_25_F-select__5
 70
     0
 10
-1185.500000003981
 20
-992.1637516030688
 30
0.0
  3
3074541_UW_25_F-select__5
  1

  0
LINE
  5
193
330
5F
100
AcDbEntity
  8
0
  6
Continuous
 62
     7
100
AcDbLine
 10
-1179.600000004623
 20
-983.5637516023172
 30
0.0
 11
-1174.500000007137
 21
-974.7302924830618
 31
0.0
  0
LINE
  5
194
330
5F
100
AcDbEntity
  8
0
  6
Continuous
 62
     7
100
AcDbLine
 10
-1174.500000008606
 20
-949.8362478513247
 30
0.0
 11
-1170.500000008606
 21
-949.8362478508158
 31
0.0
  0
LINE
  5
195
330
5F
100
AcDbEntity
  8
0
  6
Continuous
 62
     2
100
AcDbLine
 10
-1174.500000010765
 20
-952.0326223148624
 30
0.0
 11
-1170.500000010765
 21
-952.0326223143533
 31
0.0
  0
LINE
  5
196
330
5F
100
AcDbEntity
  8
0
  6
Continuous
 62
     7
100
AcDbLine
 10
-1170.500000010765
 20
-952.0326223143533
 30
0.0
 11
-1170.500000010568
 21
-954.0700371208181
 31
0.0
  0
LINE
  5
197
330
5F
100
AcDbEntity
  8
0
  6
Continuous
 62
     7
100
AcDbLine
 10
-1179.600000003528
 20
-992.1637516023172
 30
0.0
 11
-1174.500000005857
 21
-992.1637516016597
 31
0.0
  0
LINE
  5
198
330
5F
100
AcDbEntity
  8
0
  6
Continuous
 62
     7
100
AcDbLine
 10
-1170.500000005857
 20
-992.1637516011507
 30
0.0
 11
-1174.500000005857
 21
-992.1637516016597
 31
0.0
  0
LINE
  5
199
330
5F
100
AcDbEntity
  8
0
  6
Continuous
 62
     7
100
AcDbLine
 10
-1170.500000010568
 20
-954.0700371208181
 30
0.0
 11
-1170.500000008511
 21
-956.7911354208549
 31
0.0
  0
LINE
  5
19A
330
5F
100
AcDbEntity
  8
0
  6
Continuous
 62
     7
100
AcDbLine
 10
-1170.500000005935
 20
-991.6745085732622
 30
0.0
 11
-1170.500000005857
 21
-992.1637516011507
 31
0.0
  0
LINE
  5
19B
330
5F
100
AcDbEntity
  8
0
  6
Continuous
 62
     7
100
AcDbLine
 10
-1170.500000008511
 20
-956.7911354208549
 30
0.0
 11
-1170.500000005935
 21
-991.6745085732622
 31
0.0
  0
LINE
  5
19C
330
5F
100
AcDbEntity
  8
0
  6
Continuous
 62
     7
100
AcDbLine
 10
-1170.500000008606
 20
-949.8362478508158
 30
0.0
 11
-1170.500000010765
 21
-952.0326223143533
 31
0.0
  0
LINE
  5
19D
330
5F
100
AcDbEntity
  8
0
  6
Continuous
 62
     7
100
AcDbLine
 10
-1174.500000010568
 20
-954.0700371213271
 30
0.0
 11
-1174.500000008511
 21
-956.791135421364
 31
0.0
  0
LINE
  5
19E
330
5F
100
AcDbEntity
  8
0
  6
Continuous
 62
     7
100
AcDbLine
 10
-1174.500000010765
 20
-952.0326223148624
 30
0.0
 11
-1174.500000010568
 21
-954.0700371213271
 31
0.0
  0
LINE
  5
19F
330
5F
100
AcDbEntity
  8
0
  6
Continuous
 62
     7
100
AcDbLine
 10
-1174.500000008606
 20
-949.8362478513247
 30
0.0
 11
-1174.500000010765
 21
-952.0326223148624
 31
0.0
  0
LINE
  5
1A0
330
5F
100
AcDbEntity
  8
0
  6
Continuous
 62
     7
100
AcDbLine
 10
-1174.500000008511
 20
-956.791135421364
 30
0.0
 11
-1174.500000007137
 21
-974.7302924830618
 31
0.0
  0
LINE
  5
1A1
330
5F
100
AcDbEntity
  8
0
  6
Continuous
 62
     2
100
AcDbLine
 10
-1179.600000004623
 20
-983.5637516023172
 30
0.0
 11
-1179.600000003528
 21
-992.1637516023172
 31
0.0
  0
LINE
  5
1A2
330
5F
100
AcDbEntity
  8
0
  6
Continuous
 62
     7
100
AcDbLine
 10
-1174.500000005935
 20
-991.6745085737712
 30
0.0
 11
-1174.500000005857
 21
-992.1637516016597
 31
0.0
  0
LINE
  5
1A3
330
5F
100
AcDbEntity
  8
0
  6
Continuous
 62
     7
100
AcDbLine
 10
-1181.534123407372
 20
-986.9137516025582
 30
0.0
 11
-1179.600000004623
 21
-983.5637516023172
 31
0.0
  0
LINE
  5
1A4
330
5F
100
AcDbEntity
  8
0
  6
Continuous
 62
     7
100
AcDbLine
 10
-1174.500000007137
 20
-974.7302924830618
 30
0.0
 11
-1174.500000005935
 21
-991.6745085737712
 31
0.0
  0
LINE
  5
1A5
330
5F
100
AcDbEntity
  8
0
  6
Continuous
 62
     7
100
AcDbLine
 10
-1185.500000003981
 20
-987.1637516030687
 30
0.0
 11
-1181.967136109232
 21
-987.1637516026134
 31
0.0
  0
LINE
  5
1A6
330
5F
100
AcDbEntity
  8
0
  6
Continuous
 62
     2
100
AcDbLine
 10
-1174.500000010568
 20
-954.0700371213271
 30
0.0
 11
-1170.500000010568
 21
-954.0700371208181
 31
0.0
  0
LINE
  5
1A7
330
5F
100
AcDbEntity
  8
0
  6
Continuous
 62
     7
100
AcDbLine
 10
-1185.500000003345
 20
-992.1637516030688
 30
0.0
 11
-1179.600000003528
 21
-992.1637516023172
 31
0.0
  0
LINE
  5
1A8
330
5F
100
AcDbEntity
  8
0
  6
Continuous
 62
     2
100
AcDbLine
 10
-1170.500000005935
 20
-991.6745085732622
 30
0.0
 11
-1174.500000005935
 21
-991.6745085737712
 31
0.0
  0
LINE
  5
1A9
330
5F
100
AcDbEntity
  8
0
  6
Continuous
 62
     7
100
AcDbLine
 10
-1185.500000003981
 20
-987.1637516030687
 30
0.0
 11
-1185.500000003345
 21
-992.1637516030688
 31
0.0
  0
ARC
  5
1AA
330
5F
100
AcDbEntity
  8
0
  6
Continuous
 62
     7
100
AcDbCircle
 10
-1181.967136109296
 20
-986.6637516026134
 30
0.0
 40
0.5
100
AcDbArc
 50
270.0000000073475
 51
330.0000000072984
  0
ENDBLK
  5
61
330
5F
100
AcDbEntity
  8
0
100
AcDbBlockEnd
  0
BLOCK
  5
64
330
62
100
AcDbEntity
  8
0
100
AcDbBlockBegin
  2
SA_Rechts1
 70
     0
 10
-1178.000000006904
 20
-970.99999999997
 30
0.0
  3
SA_Rechts1
  1

  0
INSERT
  5
63
330
62
100
AcDbEntity
  8
0
100
AcDbBlockReference
  2
3074541_UW_25_F-select__5
 10
-1185.500000003981
 20
-992.1637516030688
 30
0.0
  0
MTEXT
  5
1AB
330
62
100
AcDbEntity
  8
1
 62
     6
100
AcDbMText
 10
-1178.000000006904
 20
-997.1637516031151
 30
0.0
 40
5.0
 41
0.0
 71
     2
 72
     1
  1
 
  7
CONVERTER_11
 73
     1
 44
1.32052821128451
  0
ENDBLK
  5
65
330
62
100
AcDbEntity
  8
0
100
AcDbBlockEnd
  0
BLOCK
  5
67
330
66
100
AcDbEntity
  8
0
100
AcDbBlockBegin
  2
3074541_UW_25_F-select__6
 70
     0
 10
-1135.4999999999
 20
-992.1637516016717
 30
0.0
  3
3074541_UW_25_F-select__6
  1

  0
LINE
  5
1AC
330
66
100
AcDbEntity
  8
0
  6
Continuous
 62
     7
100
AcDbLine
 10
-1076.999999999902
 20
-967.1637516016343
 30
0.0
 11
-1076.9999999999
 21
-986.0637516020417
 31
0.0
  0
LINE
  5
1AD
330
66
100
AcDbEntity
  8
0
  6
Continuous
 62
     7
100
AcDbLine
 10
-1049.033949720519
 20
-974.7302924830607
 30
0.0
 11
-1049.033949720737
 21
-986.9137516025571
 31
0.0
  0
LINE
  5
1AE
330
66
100
AcDbEntity
  8
0
  6
Continuous
 62
     7
100
AcDbLine
 10
-1060.033949720677
 20
-983.5637516023122
 30
0.0
 11
-1060.033949720519
 21
-974.7302924830619
 31
0.0
  0
LINE
  5
1AF
330
66
100
AcDbEntity
  8
0
  6
Continuous
 62
     7
100
AcDbLine
 10
-1104.766050278897
 20
-974.730292483067
 30
0.0
 11
-1104.766050279114
 21
-986.9137516025635
 31
0.0
  0
LINE
  5
1B0
330
66
100
AcDbEntity
  8
0
  6
Continuous
 62
     7
100
AcDbLine
 10
-1114.966050278897
 20
-974.7302924830682
 30
0.0
 11
-1115.766050278897
 21
-974.7302924830683
 31
0.0
  0
LINE
  5
1B1
330
66
100
AcDbEntity
  8
0
  6
Continuous
 62
     7
100
AcDbLine
 10
-1115.766050279054
 20
-983.5637516023186
 30
0.0
 11
-1115.766050278897
 21
-974.7302924830683
 31
0.0
  0
LINE
  5
1B2
330
66
100
AcDbEntity
  8
0
  6
Continuous
 62
     7
100
AcDbLine
 10
-1115.766050278895
 20
-992.1637516016696
 30
0.0
 11
-1103.966050278895
 21
-992.1637516016682
 31
0.0
  0
LINE
  5
1B3
330
66
100
AcDbEntity
  8
0
  6
Continuous
 62
     7
100
AcDbLine
 10
-1134.970952813688
 20
-992.1637516016717
 30
0.0
 11
-1115.766050278895
 21
-992.1637516016696
 31
0.0
  0
LINE
  5
1B4
330
66
100
AcDbEntity
  8
0
  6
Continuous
 62
     7
100
AcDbLine
 10
-1103.966050278895
 20
-992.1637516016682
 30
0.0
 11
-1087.499999999899
 21
-992.1637516016664
 31
0.0
  0
LINE
  5
1B5
330
66
100
AcDbEntity
  8
0
  6
Continuous
 62
     2
100
AcDbLine
 10
-1104.766050279114
 20
-986.9137516025635
 30
0.0
 11
-1104.29207802706
 21
-986.9137516025634
 31
0.0
  0
LINE
  5
1B6
330
66
100
AcDbEntity
  8
0
  6
Continuous
 62
     7
100
AcDbLine
 10
-1086.9999999999
 20
-988.1637516020429
 30
0.0
 11
-1086.999999999899
 21
-991.6637516016663
 31
0.0
  0
LINE
  5
1B7
330
66
100
AcDbEntity
  8
0
  6
Continuous
 62
     7
100
AcDbLine
 10
-1049.03394972075
 20
-987.1637516026123
 30
0.0
 11
-1048.729630460504
 21
-987.1637516026123
 31
0.0
  0
LINE
  5
1B8
330
66
100
AcDbEntity
  8
0
  6
Continuous
 62
     7
100
AcDbLine
 10
-1059.23394972075
 20
-987.1637516026134
 30
0.0
 11
-1049.03394972075
 21
-987.1637516026123
 31
0.0
  0
LINE
  5
1B9
330
66
100
AcDbEntity
  8
0
  6
Continuous
 62
     7
100
AcDbLine
 10
-1059.538268980996
 20
-987.1637516026134
 30
0.0
 11
-1059.23394972075
 21
-987.1637516026134
 31
0.0
  0
LINE
  5
1BA
330
66
100
AcDbEntity
  8
0
  6
Continuous
 62
     7
100
AcDbLine
 10
-1115.766050279054
 20
-983.5637516023186
 30
0.0
 11
-1115.766050278895
 21
-992.1637516016696
 31
0.0
  0
LINE
  5
1BB
330
66
100
AcDbEntity
  8
0
  6
Continuous
 62
     7
100
AcDbLine
 10
-1076.999999999902
 20
-967.1637516016343
 30
0.0
 11
-1086.999999999902
 21
-967.1637516016355
 31
0.0
  0
LINE
  5
1BC
330
66
100
AcDbEntity
  8
0
  6
Continuous
 62
     7
100
AcDbLine
 10
-1059.233949720519
 20
-974.7302924830618
 30
0.0
 11
-1060.033949720519
 21
-974.7302924830619
 31
0.0
  0
LINE
  5
1BD
330
66
100
AcDbEntity
  8
0
  6
Continuous
 62
     7
100
AcDbLine
 10
-1048.233949720519
 20
-974.7302924830606
 30
0.0
 11
-1049.033949720519
 21
-974.7302924830607
 31
0.0
  0
LINE
  5
1BE
330
66
100
AcDbEntity
  8
0
  6
Continuous
 62
     7
100
AcDbLine
 10
-1103.966050278897
 20
-974.7302924830669
 30
0.0
 11
-1103.966050279054
 21
-983.5637516023172
 31
0.0
  0
LINE
  5
1BF
330
66
100
AcDbEntity
  8
0
  6
Continuous
 62
     2
100
AcDbLine
 10
-1115.440022531168
 20
-986.9137516025646
 30
0.0
 11
-1114.966050279114
 21
-986.9137516025646
 31
0.0
  0
LINE
  5
1C0
330
66
100
AcDbEntity
  8
0
  6
Continuous
 62
     7
100
AcDbLine
 10
-1114.966050279114
 20
-986.9137516025646
 30
0.0
 11
-1114.966050278897
 21
-974.7302924830682
 31
0.0
  0
LINE
  5
1C1
330
66
100
AcDbEntity
  8
0
  6
Continuous
 62
     7
100
AcDbLine
 10
-1114.966050279127
 20
-987.1637516026198
 30
0.0
 11
-1114.966050279114
 21
-986.9137516025646
 31
0.0
  0
LINE
  5
1C2
330
66
100
AcDbEntity
  8
0
  6
Continuous
 62
     7
100
AcDbLine
 10
-1114.966050279127
 20
-987.1637516026198
 30
0.0
 11
-1104.766050279127
 21
-987.1637516026186
 31
0.0
  0
LINE
  5
1C3
330
66
100
AcDbEntity
  8
0
  6
Continuous
 62
     7
100
AcDbLine
 10
-1115.270369539373
 20
-987.1637516026198
 30
0.0
 11
-1114.966050279127
 21
-987.1637516026198
 31
0.0
  0
LINE
  5
1C4
330
66
100
AcDbEntity
  8
0
  6
Continuous
 62
     7
100
AcDbLine
 10
-1029.02904718611
 20
-992.1637516016597
 30
0.0
 11
-1048.233949720517
 21
-992.1637516016618
 31
0.0
  0
LINE
  5
1C5
330
66
100
AcDbEntity
  8
0
  6
Continuous
 62
     7
100
AcDbLine
 10
-1048.233949720519
 20
-974.7302924830606
 30
0.0
 11
-1048.233949720677
 21
-983.5637516023108
 31
0.0
  0
LINE
  5
1C6
330
66
100
AcDbEntity
  8
0
  6
Continuous
 62
     7
100
AcDbLine
 10
-1103.966050279054
 20
-983.5637516023172
 30
0.0
 11
-1103.966050278895
 21
-992.1637516016682
 31
0.0
  0
LINE
  5
1C7
330
66
100
AcDbEntity
  8
0
  6
Continuous
 62
     7
100
AcDbLine
 10
-1086.999999999902
 20
-967.1637516016355
 30
0.0
 11
-1086.9999999999
 21
-986.0637516020429
 31
0.0
  0
LINE
  5
1C8
330
66
100
AcDbEntity
  8
0
  6
Continuous
 62
     7
100
AcDbLine
 10
-1076.9999999999
 20
-986.0637516020417
 30
0.0
 11
-1086.9999999999
 21
-986.0637516020429
 31
0.0
  0
LINE
  5
1C9
330
66
100
AcDbEntity
  8
0
  6
Continuous
 62
     7
100
AcDbLine
 10
-1076.9999999999
 20
-988.1637516020418
 30
0.0
 11
-1076.999999999899
 21
-991.6637516016651
 31
0.0
  0
LINE
  5
1CA
330
66
100
AcDbEntity
  8
0
  6
Continuous
 62
     7
100
AcDbLine
 10
-1076.9999999999
 20
-988.1637516020418
 30
0.0
 11
-1086.9999999999
 21
-988.1637516020429
 31
0.0
  0
LINE
  5
1CB
330
66
100
AcDbEntity
  8
0
  6
Continuous
 62
     7
100
AcDbLine
 10
-1104.766050279127
 20
-987.1637516026186
 30
0.0
 11
-1104.766050279114
 21
-986.9137516025635
 31
0.0
  0
LINE
  5
1CC
330
66
100
AcDbEntity
  8
0
  6
Continuous
 62
     7
100
AcDbLine
 10
-1104.766050279127
 20
-987.1637516026186
 30
0.0
 11
-1104.461731018881
 21
-987.1637516026185
 31
0.0
  0
LINE
  5
1CD
330
66
100
AcDbEntity
  8
0
  6
Continuous
 62
     7
100
AcDbLine
 10
-1076.999999999903
 20
-962.1637516016343
 30
0.0
 11
-1086.999999999903
 21
-962.1637516016355
 31
0.0
  0
LINE
  5
1CE
330
66
100
AcDbEntity
  8
0
  6
Continuous
 62
     7
100
AcDbLine
 10
-1103.966050278897
 20
-974.7302924830669
 30
0.0
 11
-1104.766050278897
 21
-974.730292483067
 31
0.0
  0
LINE
  5
1CF
330
66
100
AcDbEntity
  8
0
  6
Continuous
 62
     7
100
AcDbLine
 10
-1076.999999999903
 20
-959.3738421671602
 30
0.0
 11
-1076.999999999903
 21
-962.1637516016343
 31
0.0
  0
LINE
  5
1D0
330
66
100
AcDbEntity
  8
0
  6
Continuous
 62
     7
100
AcDbLine
 10
-1086.999999999903
 20
-959.3738421671613
 30
0.0
 11
-1086.999999999903
 21
-962.1637516016355
 31
0.0
  0
LINE
  5
1D1
330
66
100
AcDbEntity
  8
0
  6
Continuous
 62
     7
100
AcDbLine
 10
-1060.033949720517
 20
-992.1637516016632
 30
0.0
 11
-1048.233949720517
 21
-992.1637516016618
 31
0.0
  0
LINE
  5
1D2
330
66
100
AcDbEntity
  8
0
  6
Continuous
 62
     7
100
AcDbLine
 10
-1060.033949720677
 20
-983.5637516023122
 30
0.0
 11
-1060.033949720517
 21
-992.1637516016632
 31
0.0
  0
LINE
  5
1D3
330
66
100
AcDbEntity
  8
0
  6
Continuous
 62
     2
100
AcDbLine
 10
-1049.033949720737
 20
-986.9137516025571
 30
0.0
 11
-1048.559977468639
 21
-986.9137516023399
 31
0.0
  0
LINE
  5
1D4
330
66
100
AcDbEntity
  8
0
  6
Continuous
 62
     2
100
AcDbLine
 10
-1059.70792197279
 20
-986.9137516025584
 30
0.0
 11
-1059.233949720736
 21
-986.9137516025582
 31
0.0
  0
LINE
  5
1D5
330
66
100
AcDbEntity
  8
0
  6
Continuous
 62
     7
100
AcDbLine
 10
-1049.03394972075
 20
-987.1637516026123
 30
0.0
 11
-1049.033949720737
 21
-986.9137516025571
 31
0.0
  0
LINE
  5
1D6
330
66
100
AcDbEntity
  8
0
  6
Continuous
 62
     7
100
AcDbLine
 10
-1059.23394972075
 20
-987.1637516026134
 30
0.0
 11
-1059.233949720736
 21
-986.9137516025582
 31
0.0
  0
LINE
  5
1D7
330
66
100
AcDbEntity
  8
0
  6
Continuous
 62
     7
100
AcDbLine
 10
-1060.033949720517
 20
-992.1637516016632
 30
0.0
 11
-1076.499999999899
 21
-992.1637516016651
 31
0.0
  0
LINE
  5
1D8
330
66
100
AcDbEntity
  8
0
  6
Continuous
 62
     7
100
AcDbLine
 10
-1059.233949720736
 20
-986.9137516025582
 30
0.0
 11
-1059.233949720519
 21
-974.7302924830618
 31
0.0
  0
LINE
  5
1D9
330
66
100
AcDbEntity
  8
0
  6
Continuous
 62
     7
100
AcDbLine
 10
-1048.233949720677
 20
-983.5637516023108
 30
0.0
 11
-1048.233949720517
 21
-992.1637516016618
 31
0.0
  0
ARC
  5
1DA
330
66
100
AcDbEntity
  8
0
  6
Continuous
 62
     7
100
AcDbCircle
 10
-1050.087791271919
 20
-999.8362478513175
 30
0.0
 40
49.99999999999989
100
AcDbArc
 50
90.0
 51
120.58196126045
  0
ARC
  5
1DB
330
66
100
AcDbEntity
  8
0
  6
Continuous
 62
     7
100
AcDbCircle
 10
-1127.689331340755
 20
-954.9008398470601
 30
0.0
 40
3.000000000000226
100
AcDbArc
 50
107.0454538896109
 51
163.9226844250195
  0
ARC
  5
1DC
330
66
100
AcDbEntity
  8
0
  6
Continuous
 62
     7
100
AcDbCircle
 10
-1134.970952813688
 20
-991.6637516016717
 30
0.0
 40
0.500000000000538
100
AcDbArc
 50
181.2327533137461
 51
270.0
  0
ARC
  5
1DD
330
66
100
AcDbEntity
  8
0
  6
Continuous
 62
     7
100
AcDbCircle
 10
-1087.499999999899
 20
-991.6637516016664
 30
0.0
 40
0.5
100
AcDbArc
 50
270.0
 51
0.00000000001303
  0
ARC
  5
1DE
330
66
100
AcDbEntity
  8
0
  6
Continuous
 62
     7
100
AcDbCircle
 10
-1073.999999999902
 20
-959.3738421671599
 30
0.0
 40
2.999999999999968
100
AcDbArc
 50
120.581961260446
 51
180.0000000000065
  0
ARC
  5
1DF
330
66
100
AcDbEntity
  8
0
  6
Continuous
 62
     7
100
AcDbCircle
 10
-1009.4999999999
 20
-988.9637516016575
 30
0.0
 40
126.0
100
AcDbArc
 50
163.9226844250179
 51
181.2327533137477
  0
ARC
  5
1E0
330
66
100
AcDbEntity
  8
0
  6
Continuous
 62
     7
100
AcDbCircle
 10
-1154.499999999899
 20
-988.963751601674
 30
0.0
 40
125.9999999999995
100
AcDbArc
 50
358.7672466862653
 51
16.07731557499513
  0
ARC
  5
1E1
330
66
100
AcDbEntity
  8
0
  6
Continuous
 62
     7
100
AcDbCircle
 10
-1029.02904718611
 20
-991.6637516016597
 30
0.0
 40
0.5
100
AcDbArc
 50
270.0
 51
358.7672466862641
  0
ARC
  5
1E2
330
66
100
AcDbEntity
  8
0
  6
Continuous
 62
     7
100
AcDbCircle
 10
-1036.310668659052
 20
-954.9008398470497
 30
0.0
 40
3.0000000000006
100
AcDbArc
 50
16.07731557499307
 51
72.95454611040695
  0
ARC
  5
1E3
330
66
100
AcDbEntity
  8
0
  6
Continuous
 62
     7
100
AcDbCircle
 10
-1076.499999999899
 20
-991.6637516016651
 30
0.0
 40
0.5
100
AcDbArc
 50
180.0
 51
270.0
  0
ARC
  5
1E4
330
66
100
AcDbEntity
  8
0
  6
Continuous
 62
     7
100
AcDbCircle
 10
-1113.912208727878
 20
-999.8362478513247
 30
0.0
 40
50.00000000000004
100
AcDbArc
 50
59.41803873956236
 51
107.0454538895994
  0
ARC
  5
1E5
330
66
100
AcDbEntity
  8
0
  6
Continuous
 62
     7
100
AcDbCircle
 10
-1089.999999999904
 20
-959.3738421671617
 30
0.0
 40
3.000000000001137
100
AcDbArc
 50
0.00000000000651
 51
59.4180387395573
  0
ARC
  5
1E6
330
66
100
AcDbEntity
  8
0
  6
Continuous
 62
     7
100
AcDbCircle
 10
-1050.087791271919
 20
-999.8362478513175
 30
0.0
 40
49.99999999999999
100
AcDbArc
 50
72.95454611041372
 51
90.0
  0
SPLINE
  5
1E7
330
66
100
AcDbEntity
  8
0
  6
Continuous
 62
     7
100
AcDbSpline
210
0.0
220
0.0
230
1.0
 70
     8
 71
     3
 72
    15
 73
    11
 74
     9
 42
0.0000000001
 43
0.0000000001
 44
0.00000001
 40
0.0
 40
0.0
 40
0.0
 40
0.0
 40
0.0304442084524433
 40
0.0561275397712521
 40
0.0851971748928669
 40
0.1241391995142979
 40
0.1660285929488095
 40
0.2131011106519912
 40
0.2597854629789057
 40
0.3235587923654344
 40
0.3235587923654344
 40
0.3235587923654344
 40
0.3235587923654344
 10
-1048.729630460504
 20
-987.1637516026123
 30
0.0
 10
-1048.719435475906
 20
-987.1627895631943
 30
0.0
 10
-1048.700639802359
 20
-987.1610159284558
 30
0.0
 10
-1048.674882500666
 20
-987.1479390383728
 30
0.0
 10
-1048.650513765354
 20
-987.1281802701128
 30
0.0
 10
-1048.627376295865
 20
-987.099418508119
 30
0.0
 10
-1048.606199526403
 20
-987.0622903754643
 30
0.0
 10
-1048.588663403773
 20
-987.0205239119632
 30
0.0
 10
-1048.572470582731
 20
-986.9705046731219
 30
0.0
 10
-1048.564550291095
 20
-986.9345247830373
 30
0.0
 10
-1048.559977468639
 20
-986.9137516023399
 30
0.0
 11
-1048.729630460504
 21
-987.1637516026123
 31
0.0
 11
-1048.69958299056
 21
-987.1588526865808
 31
0.0
 11
-1048.67641515162
 21
-987.147767347323
 31
0.0
 11
-1048.653697163207
 21
-987.1296307354952
 31
0.0
 11
-1048.628840343658
 21
-987.099653747596
 31
0.0
 11
-1048.60777347253
 21
-987.0634472810028
 31
0.0
 11
-1048.589239195951
 21
-987.0201771699026
 31
0.0
 11
-1048.574840575373
 21
-986.9757687419003
 31
0.0
 11
-1048.559977468639
 21
-986.9137516023399
 31
0.0
  0
SPLINE
  5
1E8
330
66
100
AcDbEntity
  8
0
  6
Continuous
 62
     7
100
AcDbSpline
210
0.0
220
0.0
230
1.0
 70
     8
 71
     3
 72
    15
 73
    11
 74
     9
 42
0.0000000001
 43
0.0000000001
 44
0.00000001
 40
0.0
 40
0.0
 40
0.0
 40
0.0
 40
0.0304442084512846
 40
0.0561275397712171
 40
0.087779874001661
 40
0.1241383212683335
 40
0.1695362355220895
 40
0.2130974742097678
 40
0.2706785212244154
 40
0.3235538400882413
 40
0.3235538400882413
 40
0.3235538400882413
 40
0.3235538400882413
 10
-1104.461731018881
 20
-987.1637516026185
 30
0.0
 10
-1104.451535913654
 20
-987.1627891605085
 30
0.0
 10
-1104.432740017712
 20
-987.1610147833594
 30
0.0
 10
-1104.4062034754
 20
-987.1475467362282
 30
0.0
 10
-1104.382014164847
 20
-987.1275095075811
 30
0.0
 10
-1104.358322564076
 20
-987.097755220382
 30
0.0
 10
-1104.337800539432
 20
-987.0612097856599
 30
0.0
 10
-1104.319006970738
 20
-987.0160555993972
 30
0.0
 10
-1104.303644434547
 20
-986.9669684427977
 30
0.0
 10
-1104.295822416796
 20
-986.930979474796
 30
0.0
 10
-1104.29207802706
 20
-986.9137516025634
 30
0.0
 11
-1104.461731018881
 21
-987.1637516026185
 31
0.0
 11
-1104.431683548939
 21
-987.1588526865872
 31
0.0
 11
-1104.408515709997
 21
-987.1477673473292
 31
0.0
 11
-1104.383954935354
 21
-987.1278014110585
 31
0.0
 11
-1104.360940902035
 21
-987.0996537476022
 31
0.0
 11
-1104.338322483101
 21
-987.0602916116907
 31
0.0
 11
-1104.321339754329
 21
-987.020177169909
 31
0.0
 11
-1104.304043450272
 21
-986.9652552722608
 31
0.0
 11
-1104.29207802706
 21
-986.9137516025634
 31
0.0
  0
SPLINE
  5
1E9
330
66
100
AcDbEntity
  8
0
  6
Continuous
 62
     7
100
AcDbSpline
210
0.0
220
0.0
230
1.0
 70
     8
 71
     3
 72
     9
 73
     5
 74
     3
 42
0.0000000001
 43
0.0000000001
 44
0.00000001
 40
0.0
 40
0.0
 40
0.0
 40
0.0
 40
1.700612318187753
 40
3.369903435530914
 40
3.369903435530914
 40
3.369903435530914
 40
3.369903435530914
 10
-1103.966050279054
 20
-983.5637516023172
 30
0.0
 10
-1103.979409917633
 20
-984.1313306979088
 30
0.0
 10
-1104.005883142286
 20
-985.2560354432019
 30
0.0
 10
-1104.197272681887
 20
-986.3646140705903
 30
0.0
 10
-1104.29207802706
 20
-986.9137516025634
 30
0.0
 11
-1103.966050279054
 21
-983.5637516023172
 31
0.0
 11
-1104.048128233506
 21
-985.262382070125
 31
0.0
 11
-1104.29207802706
 21
-986.9137516025634
 31
0.0
  0
SPLINE
  5
1EA
330
66
100
AcDbEntity
  8
0
  6
Continuous
 62
     7
100
AcDbSpline
210
0.0
220
0.0
230
1.0
 70
     8
 71
     3
 72
    15
 73
    11
 74
     9
 42
0.0000000001
 43
0.0000000001
 44
0.00000001
 40
0.0
 40
0.0
 40
0.0
 40
0.0
 40
0.0638373508933312
 40
0.1105566528719205
 40
0.1540835558963022
 40
0.1994397540323196
 40
0.232507251049841
 40
0.2674566240834924
 40
0.2986242500044645
 40
0.3235539750908781
 40
0.3235539750908781
 40
0.3235539750908781
 40
0.3235539750908781
 10
-1115.440022531168
 20
-986.9137516025646
 30
0.0
 10
-1115.435444906625
 20
-986.934544957043
 30
0.0
 10
-1115.427517152097
 20
-986.9705559073874
 30
0.0
 10
-1115.411670475646
 20
-987.0194851989256
 30
0.0
 10
-1115.394272429701
 20
-987.0612626504137
 30
0.0
 10
-1115.374293047559
 20
-987.0968359920678
 30
0.0
 10
-1115.350821802785
 20
-987.1266743797596
 30
0.0
 10
-1115.325488750468
 20
-987.1482744765037
 30
0.0
 10
-1115.297460921803
 20
-987.1616391436985
 30
0.0
 10
-1115.27870478666
 20
-987.1631016591354
 30
0.0
 10
-1115.270369539373
 20
-987.1637516026198
 30
0.0
 11
-1115.440022531168
 21
-986.9137516025646
 31
0.0
 11
-1115.425141919839
 21
-986.9758303813505
 31
0.0
 11
-1115.410726446846
 21
-987.0202700856222
 31
0.0
 11
-1115.393749793412
 21
-987.0603498127305
 31
0.0
 11
-1115.371146694323
 21
-987.0996726384292
 31
0.0
 11
-1115.350433520784
 21
-987.1254490579041
 31
0.0
 11
-1115.323554301474
 21
-987.1477866102482
 31
0.0
 11
-1115.295081585735
 21
-987.1604643609942
 31
0.0
 11
-1115.270369539373
 21
-987.1637516026198
 31
0.0
  0
SPLINE
  5
1EB
330
66
100
AcDbEntity
  8
0
  6
Continuous
 62
     7
100
AcDbSpline
210
0.0
220
0.0
230
1.0
 70
     8
 71
     3
 72
     9
 73
     5
 74
     3
 42
0.0000000001
 43
0.0000000001
 44
0.00000001
 40
0.0
 40
0.0
 40
0.0
 40
0.0
 40
1.700612318184834
 40
3.369903435519177
 40
3.369903435519177
 40
3.369903435519177
 40
3.369903435519177
 10
-1115.766050279054
 20
-983.5637516023186
 30
0.0
 10
-1115.752690640495
 20
-984.1313306979096
 30
0.0
 10
-1115.726217415882
 20
-985.2560354431996
 30
0.0
 10
-1115.534827876322
 20
-986.3646140705907
 30
0.0
 10
-1115.440022531168
 20
-986.9137516025646
 30
0.0
 11
-1115.766050279054
 21
-983.5637516023186
 31
0.0
 11
-1115.683972324663
 21
-985.2623820701264
 31
0.0
 11
-1115.440022531168
 21
-986.9137516025646
 31
0.0
  0
SPLINE
  5
1EC
330
66
100
AcDbEntity
  8
0
  6
Continuous
 62
     7
100
AcDbSpline
210
0.0
220
0.0
230
1.0
 70
     8
 71
     3
 72
     9
 73
     5
 74
     3
 42
0.0000000001
 43
0.0000000001
 44
0.00000001
 40
0.0
 40
0.0
 40
0.0
 40
0.0
 40
1.700612318160442
 40
3.369903435310011
 40
3.369903435310011
 40
3.369903435310011
 40
3.369903435310011
 10
-1048.233949720677
 20
-983.5637516023108
 30
0.0
 10
-1048.247309359254
 20
-984.1313306978934
 30
0.0
 10
-1048.273782583902
 20
-985.2560354431128
 30
0.0
 10
-1048.465172123481
 20
-986.3646140704296
 30
0.0
 10
-1048.559977468639
 20
-986.9137516023399
 30
0.0
 11
-1048.233949720677
 21
-983.5637516023108
 31
0.0
 11
-1048.316027675123
 21
-985.2623820700916
 31
0.0
 11
-1048.559977468639
 21
-986.9137516023399
 31
0.0
  0
SPLINE
  5
1ED
330
66
100
AcDbEntity
  8
0
  6
Continuous
 62
     7
100
AcDbSpline
210
0.0
220
0.0
230
1.0
 70
     8
 71
     3
 72
     9
 73
     5
 74
     3
 42
0.0000000001
 43
0.0000000001
 44
0.00000001
 40
0.0
 40
0.0
 40
0.0
 40
0.0
 40
1.700612318184732
 40
3.369903435519399
 40
3.369903435519399
 40
3.369903435519399
 40
3.369903435519399
 10
-1060.033949720677
 20
-983.5637516023122
 30
0.0
 10
-1060.020590082118
 20
-984.1313306979034
 30
0.0
 10
-1059.994116857505
 20
-985.2560354431935
 30
0.0
 10
-1059.802727317944
 20
-986.3646140705844
 30
0.0
 10
-1059.70792197279
 20
-986.9137516025584
 30
0.0
 11
-1060.033949720677
 21
-983.5637516023122
 31
0.0
 11
-1059.951871766285
 21
-985.2623820701199
 31
0.0
 11
-1059.70792197279
 21
-986.9137516025584
 31
0.0
  0
SPLINE
  5
1EE
330
66
100
AcDbEntity
  8
0
  6
Continuous
 62
     7
100
AcDbSpline
210
0.0
220
0.0
230
1.0
 70
     8
 71
     3
 72
    15
 73
    11
 74
     9
 42
0.0000000001
 43
0.0000000001
 44
0.00000001
 40
0.0
 40
0.0
 40
0.0
 40
0.0
 40
0.0529202721738933
 40
0.1105553295406578
 40
0.1540822325354161
 40
0.1994384307012961
 40
0.238388858004273
 40
0.2674631512923411
 40
0.2986307772087891
 40
0.3235605022989288
 40
0.3235605022989288
 40
0.3235605022989288
 40
0.3235605022989288
 10
-1059.70792197279
 20
-986.9137516025584
 30
0.0
 10
-1059.704174097002
 20
-986.9309941241663
 30
0.0
 10
-1059.696344438805
 20
-986.9670153421265
 30
0.0
 10
-1059.680971066093
 20
-987.0161209544733
 30
0.0
 10
-1059.662168973045
 20
-987.0612671288616
 30
0.0
 10
-1059.641239812773
 20
-987.0985350907404
 30
0.0
 10
-1059.617357002502
 20
-987.1281978338104
 30
0.0
 10
-1059.591584625362
 20
-987.149127458219
 30
0.0
 10
-1059.565359368711
 20
-987.1616410101618
 30
0.0
 10
-1059.546603922238
 20
-987.1631022333885
 30
0.0
 10
-1059.538268980996
 20
-987.1637516026134
 30
0.0
 11
-1059.70792197279
 21
-986.9137516025584
 31
0.0
 11
-1059.695944925512
 21
-986.9652987222204
 31
0.0
 11
-1059.678625888468
 21
-987.0202700856158
 31
0.0
 11
-1059.661649235047
 21
-987.0603498126976
 31
0.0
 11
-1059.639046135945
 21
-987.0996726384229
 31
0.0
 11
-1059.614179824179
 21
-987.1296526705488
 31
0.0
 11
-1059.591453743096
 21
-987.1477866102418
 31
0.0
 11
-1059.562981027361
 21
-987.1604643609869
 31
0.0
 11
-1059.538268980996
 21
-987.1637516026134
 31
0.0
  0
ENDBLK
  5
68
330
66
100
AcDbEntity
  8
0
100
AcDbBlockEnd
  0
BLOCK
  5
6B
330
69
100
AcDbEntity
  8
0
100
AcDbBlockBegin
  2
Vordans1
 70
     0
 10
-1082.0
 20
-970.99999999997
 30
0.0
  3
Vordans1
  1

  0
INSERT
  5
6A
330
69
100
AcDbEntity
  8
0
100
AcDbBlockReference
  2
3074541_UW_25_F-select__6
 10
-1135.4999999999
 20
-992.1637516016717
 30
0.0
  0
MTEXT
  5
1EF
330
69
100
AcDbEntity
  8
1
 62
     6
100
AcDbMText
 10
-1082.0
 20
-997.1637516031151
 30
0.0
 40
5.0
 41
0.0
 71
     2
 72
     1
  1
 
  7
CONVERTER_11
 73
     1
 44
1.32052821128451
  0
DIMENSION
  5
1FA
330
69
100
AcDbEntity
  8
1
100
AcDbDimension
  2
*D18
 10
-1028.529162911952
 20
-1004.71439643116
 30
0.0
 11
-1082.10706065308
 21
-1000.78939643116
 31
0.0
 70
    33
  1
<>
 71
     5
 42
-1.0
 53
0.00013888888889
  3
ME10_DIM_12
100
AcDbAlignedDimension
 13
-1135.470837087847
 23
-991.6745085737833
 33
0.0
 14
-1028.529162911952
 24
-991.6745085737712
 34
0.0
  0
DIMENSION
  5
205
330
69
100
AcDbEntity
  8
1
100
AcDbDimension
  2
*D19
 10
-1011.4668734648
 20
-949.8362478513176
 30
0.0
 11
-1015.3918734648
 21
-970.366866655863
 31
0.0
 70
    32
  1
<>
 71
     5
 42
-1.0
 53
90.0
  3
ME10_DIM_13
100
AcDbAlignedDimension
 13
-1048.233949720517
 23
-992.1637516016618
 33
0.0
 14
-1050.087791271919
 24
-949.8362478513176
 34
0.0
 50
90.0
100
AcDbRotatedDimension
  0
ENDBLK
  5
6C
330
69
100
AcDbEntity
  8
0
100
AcDbBlockEnd
  0
BLOCK
  5
6E
330
6D
100
AcDbEntity
  8
0
100
AcDbBlockBegin
  2
_rahmen
 70
     0
 10
-804.7502874053183
 20
-1189.71103043147
 30
0.0
  3
_rahmen
  1

  0
POINT
  5
206
330
6D
100
AcDbEntity
  8
1
 62
     3
 60
     1
100
AcDbPoint
 10
-868.250287405316
 20
-1163.46103043147
 30
0.0
  0
LINE
  5
207
102
{ACAD_REACTORS
330
3FA
330
3FA
330
3FB
330
3FB
102
}
330
6D
100
AcDbEntity
  8
0
  6
Continuous
 62
     2
100
AcDbLine
 10
-919.8079605752374
 20
-1177.202527030104
 30
0.0
 11
-919.8079605752374
 21
-1176.481438594729
 31
0.0
  0
LINE
  5
208
102
{ACAD_REACTORS
330
3FA
330
3FA
330
3FB
330
3FB
102
}
330
6D
100
AcDbEntity
  8
0
  6
Continuous
 62
     2
100
AcDbLine
 10
-919.8079605752374
 20
-1177.995724309015
 30
0.0
 11
-919.8079605752374
 21
-1178.71681274439
 31
0.0
  0
LINE
  5
209
102
{ACAD_REACTORS
330
3FC
330
3FC
330
3FD
330
3FD
102
}
330
6D
100
AcDbEntity
  8
0
  6
Continuous
 62
     2
100
AcDbLine
 10
-907.1360232725181
 20
-1176.986200499491
 30
0.0
 11
-906.2239246778337
 21
-1176.986200499491
 31
0.0
  0
LINE
  5
20A
102
{ACAD_REACTORS
330
3FC
330
3FC
330
3FD
330
3FD
102
}
330
6D
100
AcDbEntity
  8
0
  6
Continuous
 62
     2
100
AcDbLine
 10
-906.4999428237896
 20
-1177.995724309015
 30
0.0
 11
-906.4999428237896
 21
-1178.71681274439
 31
0.0
  0
LINE
  5
20B
102
{ACAD_REACTORS
330
406
330
406
330
407
330
407
102
}
330
6D
100
AcDbEntity
  8
0
  6
Continuous
 62
     2
100
AcDbLine
 10
-908.037758208401
 20
-1176.084839955287
 30
0.0
 11
-906.8824251117562
 21
-1174.77834491911
 31
0.0
  0
LINE
  5
20C
102
{ACAD_REACTORS
330
406
330
406
330
407
330
407
102
}
330
6D
100
AcDbEntity
  8
0
  6
Continuous
 62
     2
100
AcDbLine
 10
-907.9588958809856
 20
-1173.561030431477
 30
0.0
 11
-906.8824251117562
 21
-1174.77834491911
 31
0.0
  0
LINE
  5
20D
102
{ACAD_REACTORS
330
406
330
406
330
407
330
407
102
}
330
6D
100
AcDbEntity
  8
0
  6
Continuous
 62
     2
100
AcDbLine
 10
-905.8059543425278
 20
-1173.561030431477
 30
0.0
 11
-904.6466781295136
 21
-1173.561030431477
 31
0.0
  0
LINE
  5
20E
102
{ACAD_REACTORS
330
406
330
406
330
407
330
407
102
}
330
6D
100
AcDbEntity
  8
0
  6
Continuous
 62
     2
100
AcDbLine
 10
-906.8784819953861
 20
-1176.084839955287
 30
0.0
 11
-906.3027870052491
 21
-1175.433821950913
 31
0.0
  0
LINE
  5
20F
102
{ACAD_REACTORS
330
406
330
406
330
407
330
407
102
}
330
6D
100
AcDbEntity
  8
0
  6
Continuous
 62
     2
100
AcDbLine
 10
-906.8784819953861
 20
-1176.084839955287
 30
0.0
 11
-908.037758208401
 21
-1176.084839955287
 31
0.0
  0
LINE
  5
210
102
{ACAD_REACTORS
330
408
330
408
330
409
330
409
102
}
330
6D
100
AcDbEntity
  8
0
  6
Continuous
 62
     2
100
AcDbLine
 10
-908.1363361176712
 20
-1176.084839955287
 30
0.0
 11
-909.1615463740786
 21
-1176.084839955287
 31
0.0
  0
LINE
  5
211
102
{ACAD_REACTORS
330
40A
330
40A
330
40B
330
40B
102
}
330
6D
100
AcDbEntity
  8
0
  6
Continuous
 62
     2
100
AcDbLine
 10
-909.8788848932151
 20
-1177.85150662194
 30
0.0
 11
-910.1269553371739
 21
-1177.216948798811
 31
0.0
  0
LINE
  5
212
102
{ACAD_REACTORS
330
40A
330
40A
330
40B
330
40B
102
}
330
6D
100
AcDbEntity
  8
0
  6
Continuous
 62
     2
100
AcDbLine
 10
-910.3750257811345
 20
-1177.85150662194
 30
0.0
 11
-909.8788848932151
 21
-1177.85150662194
 31
0.0
  0
LINE
  5
213
102
{ACAD_REACTORS
330
40A
330
40A
330
40B
330
40B
102
}
330
6D
100
AcDbEntity
  8
0
  6
Continuous
 62
     2
100
AcDbLine
 10
-911.7948935620219
 20
-1178.861030431465
 30
0.0
 11
-910.7696833056145
 21
-1178.861030431465
 31
0.0
  0
LINE
  5
214
102
{ACAD_REACTORS
330
40A
330
40A
330
40B
330
40B
102
}
330
6D
100
AcDbEntity
  8
0
  6
Continuous
 62
     2
100
AcDbLine
 10
-910.6395604653779
 20
-1176.337220907654
 30
0.0
 11
-909.6143502089707
 21
-1176.337220907654
 31
0.0
  0
LINE
  5
215
102
{ACAD_REACTORS
330
40A
330
40A
330
40B
330
40B
102
}
330
6D
100
AcDbEntity
  8
0
  6
Continuous
 62
     2
100
AcDbLine
 10
-909.6143502089707
 20
-1176.337220907654
 30
0.0
 11
-908.4590171123258
 21
-1178.861030431465
 31
0.0
  0
LINE
  5
216
102
{ACAD_REACTORS
330
40A
330
40A
330
40B
330
40B
102
}
330
6D
100
AcDbEntity
  8
0
  6
Continuous
 62
     2
100
AcDbLine
 10
-909.484227368734
 20
-1178.861030431465
 30
0.0
 11
-909.659004272433
 21
-1178.413955601532
 31
0.0
  0
LINE
  5
217
102
{ACAD_REACTORS
330
40C
330
40C
330
40D
330
40D
102
}
330
6D
100
AcDbEntity
  8
0
  6
Continuous
 62
     2
100
AcDbLine
 10
-912.9076316626067
 20
-1178.861030431465
 30
0.0
 11
-911.9218525699072
 21
-1178.861030431465
 31
0.0
  0
LINE
  5
218
102
{ACAD_REACTORS
330
40C
330
40C
330
40D
330
40D
102
}
330
6D
100
AcDbEntity
  8
0
  6
Continuous
 62
     2
100
AcDbLine
 10
-912.9076316626067
 20
-1176.986200499491
 30
0.0
 11
-912.9076316626067
 21
-1178.861030431465
 31
0.0
  0
LINE
  5
219
102
{ACAD_REACTORS
330
40C
330
40C
330
40D
330
40D
102
}
330
6D
100
AcDbEntity
  8
0
  6
Continuous
 62
     2
100
AcDbLine
 10
-913.5779614456436
 20
-1176.337220907654
 30
0.0
 11
-913.5779614456436
 21
-1176.986200499491
 31
0.0
  0
LINE
  5
21A
102
{ACAD_REACTORS
330
40E
330
40E
330
40F
330
40F
102
}
330
6D
100
AcDbEntity
  8
0
  6
Continuous
 62
     2
100
AcDbLine
 10
-912.3554706344265
 20
-1176.084839955287
 30
0.0
 11
-911.369691541727
 21
-1176.084839955287
 31
0.0
  0
LINE
  5
21B
102
{ACAD_REACTORS
330
40E
330
40E
330
40F
330
40F
102
}
330
6D
100
AcDbEntity
  8
0
  6
Continuous
 62
     2
100
AcDbLine
 10
-910.3444812853187
 20
-1174.642663084539
 30
0.0
 11
-911.369691541727
 21
-1173.561030431477
 31
0.0
  0
LINE
  5
21C
102
{ACAD_REACTORS
330
40E
330
40E
330
40F
330
40F
102
}
330
6D
100
AcDbEntity
  8
0
  6
Continuous
 62
     2
100
AcDbLine
 10
-909.358702192619
 20
-1173.561030431477
 30
0.0
 11
-910.3444812853187
 21
-1173.561030431477
 31
0.0
  0
LINE
  5
21D
102
{ACAD_REACTORS
330
40E
330
40E
330
40F
330
40F
102
}
330
6D
100
AcDbEntity
  8
0
  6
Continuous
 62
     2
100
AcDbLine
 10
-909.358702192619
 20
-1176.084839955287
 30
0.0
 11
-909.358702192619
 21
-1173.561030431477
 31
0.0
  0
LINE
  5
21E
102
{ACAD_REACTORS
330
40E
330
40E
330
40F
330
40F
102
}
330
6D
100
AcDbEntity
  8
0
  6
Continuous
 62
     2
100
AcDbLine
 10
-910.3444812853187
 20
-1176.084839955287
 30
0.0
 11
-909.358702192619
 21
-1176.084839955287
 31
0.0
  0
LINE
  5
21F
102
{ACAD_REACTORS
330
40E
330
40E
330
40F
330
40F
102
}
330
6D
100
AcDbEntity
  8
0
  6
Continuous
 62
     2
100
AcDbLine
 10
-911.369691541727
 20
-1175.003207302226
 30
0.0
 11
-910.3444812853187
 21
-1176.084839955287
 31
0.0
  0
LINE
  5
220
102
{ACAD_REACTORS
330
410
330
410
330
411
330
411
102
}
330
6D
100
AcDbEntity
  8
0
  6
Continuous
 62
     2
100
AcDbLine
 10
-914.6820340294672
 20
-1177.418853560716
 30
0.0
 11
-915.7072442858745
 21
-1176.337220907654
 31
0.0
  0
LINE
  5
221
102
{ACAD_REACTORS
330
410
330
410
330
411
330
411
102
}
330
6D
100
AcDbEntity
  8
0
  6
Continuous
 62
     2
100
AcDbLine
 10
-914.6820340294672
 20
-1176.337220907654
 30
0.0
 11
-914.6820340294672
 21
-1177.418853560716
 31
0.0
  0
LINE
  5
222
102
{ACAD_REACTORS
330
410
330
410
330
411
330
411
102
}
330
6D
100
AcDbEntity
  8
0
  6
Continuous
 62
     2
100
AcDbLine
 10
-913.6962549367677
 20
-1176.337220907654
 30
0.0
 11
-914.6820340294672
 21
-1176.337220907654
 31
0.0
  0
LINE
  5
223
102
{ACAD_REACTORS
330
410
330
410
330
411
330
411
102
}
330
6D
100
AcDbEntity
  8
0
  6
Continuous
 62
     2
100
AcDbLine
 10
-913.6962549367677
 20
-1178.861030431465
 30
0.0
 11
-913.6962549367677
 21
-1176.337220907654
 31
0.0
  0
LINE
  5
224
102
{ACAD_REACTORS
330
410
330
410
330
411
330
411
102
}
330
6D
100
AcDbEntity
  8
0
  6
Continuous
 62
     2
100
AcDbLine
 10
-915.7072442858745
 20
-1177.779397778403
 30
0.0
 11
-914.6820340294672
 21
-1178.861030431465
 31
0.0
  0
LINE
  5
225
102
{ACAD_REACTORS
330
410
330
410
330
411
330
411
102
}
330
6D
100
AcDbEntity
  8
0
  6
Continuous
 62
     2
100
AcDbLine
 10
-915.7072442858745
 20
-1178.861030431465
 30
0.0
 11
-915.7072442858745
 21
-1177.779397778403
 31
0.0
  0
LINE
  5
226
102
{ACAD_REACTORS
330
400
330
400
330
401
330
401
102
}
330
6D
100
AcDbEntity
  8
0
  6
Continuous
 62
     2
100
AcDbLine
 10
-913.6566990367907
 20
-1174.137901179777
 30
0.0
 11
-912.5526264529661
 21
-1174.137901179777
 31
0.0
  0
LINE
  5
227
102
{ACAD_REACTORS
330
400
330
400
330
401
330
401
102
}
330
6D
100
AcDbEntity
  8
0
  6
Continuous
 62
     2
100
AcDbLine
 10
-913.6566990367907
 20
-1175.507969206988
 30
0.0
 11
-913.6566990367907
 21
-1175.111370567532
 31
0.0
  0
LINE
  5
228
102
{ACAD_REACTORS
330
400
330
400
330
401
330
401
102
}
330
6D
100
AcDbEntity
  8
0
  6
Continuous
 62
     2
100
AcDbLine
 10
-912.5526264529661
 20
-1175.507969206988
 30
0.0
 11
-913.6566990367907
 21
-1175.507969206988
 31
0.0
  0
LINE
  5
229
102
{ACAD_REACTORS
330
400
330
400
330
401
330
401
102
}
330
6D
100
AcDbEntity
  8
0
  6
Continuous
 62
     2
100
AcDbLine
 10
-912.5526264529661
 20
-1176.084839955287
 30
0.0
 11
-912.5526264529661
 21
-1175.507969206988
 31
0.0
  0
LINE
  5
22A
102
{ACAD_REACTORS
330
400
330
400
330
401
330
401
102
}
330
6D
100
AcDbEntity
  8
0
  6
Continuous
 62
     2
100
AcDbLine
 10
-915.1561964726199
 20
-1176.084839955287
 30
0.0
 11
-912.5526264529661
 21
-1176.084839955287
 31
0.0
  0
LINE
  5
22B
102
{ACAD_REACTORS
330
400
330
400
330
401
330
401
102
}
330
6D
100
AcDbEntity
  8
0
  6
Continuous
 62
     2
100
AcDbLine
 10
-915.1561964726199
 20
-1173.561030431477
 30
0.0
 11
-912.5526264529661
 21
-1173.561030431477
 31
0.0
  0
LINE
  5
22C
102
{ACAD_REACTORS
330
400
330
400
330
401
330
401
102
}
330
6D
100
AcDbEntity
  8
0
  6
Continuous
 62
     2
100
AcDbLine
 10
-912.5526264529661
 20
-1174.137901179777
 30
0.0
 11
-912.5526264529661
 21
-1173.561030431477
 31
0.0
  0
LINE
  5
22D
102
{ACAD_REACTORS
330
412
330
412
330
413
330
413
102
}
330
6D
100
AcDbEntity
  8
0
  6
Continuous
 62
     2
100
AcDbLine
 10
-917.5209530801736
 20
-1174.444363764811
 30
0.0
 11
-917.5209530801736
 21
-1173.561030431477
 31
0.0
  0
LINE
  5
22E
102
{ACAD_REACTORS
330
412
330
412
330
413
330
413
102
}
330
6D
100
AcDbEntity
  8
0
  6
Continuous
 62
     2
100
AcDbLine
 10
-917.5209530801736
 20
-1173.561030431477
 30
0.0
 11
-916.5351739874741
 21
-1173.561030431477
 31
0.0
  0
LINE
  5
22F
102
{ACAD_REACTORS
330
412
330
412
330
413
330
413
102
}
330
6D
100
AcDbEntity
  8
0
  6
Continuous
 62
     2
100
AcDbLine
 10
-917.5209530801736
 20
-1175.147424989301
 30
0.0
 11
-918.38843868175
 21
-1175.147424989301
 31
0.0
  0
LINE
  5
230
102
{ACAD_REACTORS
330
412
330
412
330
413
330
413
102
}
330
6D
100
AcDbEntity
  8
0
  6
Continuous
 62
     2
100
AcDbLine
 10
-918.38843868175
 20
-1175.147424989301
 30
0.0
 11
-918.38843868175
 21
-1176.084839955287
 31
0.0
  0
LINE
  5
231
102
{ACAD_REACTORS
330
412
330
412
330
413
330
413
102
}
330
6D
100
AcDbEntity
  8
0
  6
Continuous
 62
     2
100
AcDbLine
 10
-919.3742177744497
 20
-1173.561030431477
 30
0.0
 11
-919.3742177744497
 21
-1176.084839955287
 31
0.0
  0
LINE
  5
232
102
{ACAD_REACTORS
330
404
330
404
330
405
330
405
102
}
330
6D
100
AcDbEntity
  8
0
  6
Continuous
 62
     2
100
AcDbLine
 10
-920.9908954864775
 20
-1174.692297782536
 30
0.0
 11
-920.9908954864775
 21
-1174.109051791344
 31
0.0
  0
LINE
  5
233
102
{ACAD_REACTORS
330
404
330
404
330
405
330
405
102
}
330
6D
100
AcDbEntity
  8
0
  6
Continuous
 62
     2
100
AcDbLine
 10
-922.0161057428858
 20
-1176.084839955287
 30
0.0
 11
-920.9908954864775
 21
-1176.084839955287
 31
0.0
  0
LINE
  5
234
102
{ACAD_REACTORS
330
404
330
404
330
405
330
405
102
}
330
6D
100
AcDbEntity
  8
0
  6
Continuous
 62
     2
100
AcDbLine
 10
-920.9908954864775
 20
-1176.084839955287
 30
0.0
 11
-920.9908954864775
 21
-1175.30543645021
 31
0.0
  0
LINE
  5
235
102
{ACAD_REACTORS
330
3FE
330
3FE
330
3FF
330
3FF
102
}
330
6D
100
AcDbEntity
  8
0
  6
Continuous
 62
     2
100
AcDbLine
 10
-925.5739122298374
 20
-1178.272141542574
 30
0.0
 11
-926.7936091397627
 21
-1178.272141542574
 31
0.0
  0
LINE
  5
236
102
{ACAD_REACTORS
330
3FE
330
3FE
330
3FF
330
3FF
102
}
330
6D
100
AcDbEntity
  8
0
  6
Continuous
 62
     2
100
AcDbLine
 10
-927.6350465712745
 20
-1173.911645816106
 30
0.0
 11
-927.6350465712745
 21
-1178.51041504685
 31
0.0
  0
LINE
  5
237
102
{ACAD_REACTORS
330
3FE
330
3FE
330
3FF
330
3FF
102
}
330
6D
100
AcDbEntity
  8
0
  6
Continuous
 62
     2
100
AcDbLine
 10
-927.2844311866606
 20
-1173.561030431492
 30
0.0
 11
-922.7610327645806
 21
-1173.561030431492
 31
0.0
  0
LINE
  5
238
102
{ACAD_REACTORS
330
3FE
330
3FE
330
3FF
330
3FF
102
}
330
6D
100
AcDbEntity
  8
0
  6
Continuous
 62
     2
100
AcDbLine
 10
-922.4104173799657
 20
-1173.911645816106
 30
0.0
 11
-922.4104173799657
 21
-1178.51041504685
 31
0.0
  0
LINE
  5
239
102
{ACAD_REACTORS
330
3FE
330
3FE
330
3FF
330
3FF
102
}
330
6D
100
AcDbEntity
  8
0
  6
Continuous
 62
     2
100
AcDbLine
 10
-922.7610327645806
 20
-1178.861030431465
 30
0.0
 11
-927.2844311866606
 21
-1178.861030431465
 31
0.0
  0
LINE
  5
23A
102
{ACAD_REACTORS
330
3FE
330
3FE
330
3FF
330
3FF
102
}
330
6D
100
AcDbEntity
  8
0
  6
Continuous
 62
     2
100
AcDbLine
 10
-925.3129891529146
 20
-1178.011218465652
 30
0.0
 11
-925.3129891529146
 21
-1176.746118522237
 31
0.0
  0
LINE
  5
23B
102
{ACAD_REACTORS
330
3FE
330
3FE
330
3FF
330
3FF
102
}
330
6D
100
AcDbEntity
  8
0
  6
Continuous
 62
     2
100
AcDbLine
 10
-925.3129891529146
 20
-1174.91003629734
 30
0.0
 11
-925.3129891529146
 21
-1174.410842397291
 31
0.0
  0
LINE
  5
23C
102
{ACAD_REACTORS
330
3FE
330
3FE
330
3FF
330
3FF
102
}
330
6D
100
AcDbEntity
  8
0
  6
Continuous
 62
     2
100
AcDbLine
 10
-926.7936091397627
 20
-1174.149919320368
 30
0.0
 11
-925.5739122298374
 21
-1174.149919320368
 31
0.0
  0
LINE
  5
23D
102
{ACAD_REACTORS
330
3FE
330
3FE
330
3FF
330
3FF
102
}
330
6D
100
AcDbEntity
  8
0
  6
Continuous
 62
     2
100
AcDbLine
 10
-927.0545322166847
 20
-1174.410842397291
 30
0.0
 11
-927.0545322166847
 21
-1178.011218465652
 31
0.0
  0
LINE
  5
23E
102
{ACAD_REACTORS
330
404
330
404
330
405
330
405
102
}
330
6D
100
AcDbEntity
  8
0
  6
Continuous
 62
     2
100
AcDbLine
 10
-920.9908954864775
 20
-1175.30543645021
 30
0.0
 11
-920.3638148354194
 21
-1175.30543645021
 31
0.0
  0
LINE
  5
23F
102
{ACAD_REACTORS
330
404
330
404
330
405
330
405
102
}
330
6D
100
AcDbEntity
  8
0
  6
Continuous
 62
     2
100
AcDbLine
 10
-922.0161057428858
 20
-1173.561030431477
 30
0.0
 11
-920.3638148354194
 21
-1173.561030431477
 31
0.0
  0
LINE
  5
240
102
{ACAD_REACTORS
330
404
330
404
330
405
330
405
102
}
330
6D
100
AcDbEntity
  8
0
  6
Continuous
 62
     2
100
AcDbLine
 10
-922.0161057428858
 20
-1173.561030431477
 30
0.0
 11
-922.0161057428858
 21
-1176.084839955287
 31
0.0
  0
LINE
  5
241
102
{ACAD_REACTORS
330
404
330
404
330
405
330
405
102
}
330
6D
100
AcDbEntity
  8
0
  6
Continuous
 62
     2
100
AcDbLine
 10
-920.9908954864775
 20
-1174.692297782536
 30
0.0
 11
-920.7286681628891
 21
-1174.692297782536
 31
0.0
  0
LINE
  5
242
102
{ACAD_REACTORS
330
404
330
404
330
405
330
405
102
}
330
6D
100
AcDbEntity
  8
0
  6
Continuous
 62
     2
100
AcDbLine
 10
-920.9908954864775
 20
-1174.109051791344
 30
0.0
 11
-920.7286681628891
 21
-1174.109051791344
 31
0.0
  0
LINE
  5
243
102
{ACAD_REACTORS
330
412
330
412
330
413
330
413
102
}
330
6D
100
AcDbEntity
  8
0
  6
Continuous
 62
     2
100
AcDbLine
 10
-918.38843868175
 20
-1174.444363764811
 30
0.0
 11
-917.5209530801736
 21
-1174.444363764811
 31
0.0
  0
LINE
  5
244
102
{ACAD_REACTORS
330
412
330
412
330
413
330
413
102
}
330
6D
100
AcDbEntity
  8
0
  6
Continuous
 62
     2
100
AcDbLine
 10
-918.38843868175
 20
-1173.561030431477
 30
0.0
 11
-918.38843868175
 21
-1174.444363764811
 31
0.0
  0
LINE
  5
245
102
{ACAD_REACTORS
330
412
330
412
330
413
330
413
102
}
330
6D
100
AcDbEntity
  8
0
  6
Continuous
 62
     2
100
AcDbLine
 10
-919.3742177744497
 20
-1173.561030431477
 30
0.0
 11
-918.38843868175
 21
-1173.561030431477
 31
0.0
  0
LINE
  5
246
102
{ACAD_REACTORS
330
412
330
412
330
413
330
413
102
}
330
6D
100
AcDbEntity
  8
0
  6
Continuous
 62
     2
100
AcDbLine
 10
-918.38843868175
 20
-1176.084839955287
 30
0.0
 11
-919.3742177744497
 21
-1176.084839955287
 31
0.0
  0
LINE
  5
247
102
{ACAD_REACTORS
330
412
330
412
330
413
330
413
102
}
330
6D
100
AcDbEntity
  8
0
  6
Continuous
 62
     2
100
AcDbLine
 10
-917.5209530801736
 20
-1176.084839955287
 30
0.0
 11
-917.5209530801736
 21
-1175.147424989301
 31
0.0
  0
LINE
  5
248
102
{ACAD_REACTORS
330
412
330
412
330
413
330
413
102
}
330
6D
100
AcDbEntity
  8
0
  6
Continuous
 62
     2
100
AcDbLine
 10
-916.5351739874741
 20
-1176.084839955287
 30
0.0
 11
-917.5209530801736
 21
-1176.084839955287
 31
0.0
  0
LINE
  5
249
102
{ACAD_REACTORS
330
412
330
412
330
413
330
413
102
}
330
6D
100
AcDbEntity
  8
0
  6
Continuous
 62
     2
100
AcDbLine
 10
-916.5351739874741
 20
-1173.561030431477
 30
0.0
 11
-916.5351739874741
 21
-1176.084839955287
 31
0.0
  0
LINE
  5
24A
102
{ACAD_REACTORS
330
400
330
400
330
401
330
401
102
}
330
6D
100
AcDbEntity
  8
0
  6
Continuous
 62
     2
100
AcDbLine
 10
-913.6566990367907
 20
-1175.111370567532
 30
0.0
 11
-912.5526264529661
 21
-1175.111370567532
 31
0.0
  0
LINE
  5
24B
102
{ACAD_REACTORS
330
400
330
400
330
401
330
401
102
}
330
6D
100
AcDbEntity
  8
0
  6
Continuous
 62
     2
100
AcDbLine
 10
-912.5526264529661
 20
-1175.111370567532
 30
0.0
 11
-912.5526264529661
 21
-1174.534499819233
 31
0.0
  0
LINE
  5
24C
102
{ACAD_REACTORS
330
400
330
400
330
401
330
401
102
}
330
6D
100
AcDbEntity
  8
0
  6
Continuous
 62
     2
100
AcDbLine
 10
-912.5526264529661
 20
-1174.534499819233
 30
0.0
 11
-913.6566990367907
 21
-1174.534499819233
 31
0.0
  0
LINE
  5
24D
102
{ACAD_REACTORS
330
400
330
400
330
401
330
401
102
}
330
6D
100
AcDbEntity
  8
0
  6
Continuous
 62
     2
100
AcDbLine
 10
-913.6566990367907
 20
-1174.534499819233
 30
0.0
 11
-913.6566990367907
 21
-1174.137901179777
 31
0.0
  0
LINE
  5
24E
102
{ACAD_REACTORS
330
410
330
410
330
411
330
411
102
}
330
6D
100
AcDbEntity
  8
0
  6
Continuous
 62
     2
100
AcDbLine
 10
-916.693023378575
 20
-1178.861030431465
 30
0.0
 11
-915.7072442858745
 21
-1178.861030431465
 31
0.0
  0
LINE
  5
24F
102
{ACAD_REACTORS
330
410
330
410
330
411
330
411
102
}
330
6D
100
AcDbEntity
  8
0
  6
Continuous
 62
     2
100
AcDbLine
 10
-914.6820340294672
 20
-1178.861030431465
 30
0.0
 11
-913.6962549367677
 21
-1178.861030431465
 31
0.0
  0
LINE
  5
250
102
{ACAD_REACTORS
330
410
330
410
330
411
330
411
102
}
330
6D
100
AcDbEntity
  8
0
  6
Continuous
 62
     2
100
AcDbLine
 10
-915.7072442858745
 20
-1176.337220907654
 30
0.0
 11
-916.693023378575
 21
-1176.337220907654
 31
0.0
  0
LINE
  5
251
102
{ACAD_REACTORS
330
410
330
410
330
411
330
411
102
}
330
6D
100
AcDbEntity
  8
0
  6
Continuous
 62
     2
100
AcDbLine
 10
-916.693023378575
 20
-1176.337220907654
 30
0.0
 11
-916.693023378575
 21
-1178.861030431465
 31
0.0
  0
LINE
  5
252
102
{ACAD_REACTORS
330
40E
330
40E
330
40F
330
40F
102
}
330
6D
100
AcDbEntity
  8
0
  6
Continuous
 62
     2
100
AcDbLine
 10
-910.3444812853187
 20
-1173.561030431477
 30
0.0
 11
-910.3444812853187
 21
-1174.642663084539
 31
0.0
  0
LINE
  5
253
102
{ACAD_REACTORS
330
40E
330
40E
330
40F
330
40F
102
}
330
6D
100
AcDbEntity
  8
0
  6
Continuous
 62
     2
100
AcDbLine
 10
-911.369691541727
 20
-1173.561030431477
 30
0.0
 11
-912.3554706344265
 21
-1173.561030431477
 31
0.0
  0
LINE
  5
254
102
{ACAD_REACTORS
330
40E
330
40E
330
40F
330
40F
102
}
330
6D
100
AcDbEntity
  8
0
  6
Continuous
 62
     2
100
AcDbLine
 10
-912.3554706344265
 20
-1173.561030431477
 30
0.0
 11
-912.3554706344265
 21
-1176.084839955287
 31
0.0
  0
LINE
  5
255
102
{ACAD_REACTORS
330
40E
330
40E
330
40F
330
40F
102
}
330
6D
100
AcDbEntity
  8
0
  6
Continuous
 62
     2
100
AcDbLine
 10
-911.369691541727
 20
-1176.084839955287
 30
0.0
 11
-911.369691541727
 21
-1175.003207302226
 31
0.0
  0
LINE
  5
256
102
{ACAD_REACTORS
330
40C
330
40C
330
40D
330
40D
102
}
330
6D
100
AcDbEntity
  8
0
  6
Continuous
 62
     2
100
AcDbLine
 10
-911.9218525699072
 20
-1178.861030431465
 30
0.0
 11
-911.9218525699072
 21
-1176.986200499491
 31
0.0
  0
LINE
  5
257
102
{ACAD_REACTORS
330
40C
330
40C
330
40D
330
40D
102
}
330
6D
100
AcDbEntity
  8
0
  6
Continuous
 62
     2
100
AcDbLine
 10
-911.9218525699072
 20
-1176.986200499491
 30
0.0
 11
-911.251522786872
 21
-1176.986200499491
 31
0.0
  0
LINE
  5
258
102
{ACAD_REACTORS
330
40C
330
40C
330
40D
330
40D
102
}
330
6D
100
AcDbEntity
  8
0
  6
Continuous
 62
     2
100
AcDbLine
 10
-911.251522786872
 20
-1176.986200499491
 30
0.0
 11
-911.251522786872
 21
-1176.337220907654
 31
0.0
  0
LINE
  5
259
102
{ACAD_REACTORS
330
40C
330
40C
330
40D
330
40D
102
}
330
6D
100
AcDbEntity
  8
0
  6
Continuous
 62
     2
100
AcDbLine
 10
-911.251522786872
 20
-1176.337220907654
 30
0.0
 11
-913.5779614456436
 21
-1176.337220907654
 31
0.0
  0
LINE
  5
25A
102
{ACAD_REACTORS
330
40C
330
40C
330
40D
330
40D
102
}
330
6D
100
AcDbEntity
  8
0
  6
Continuous
 62
     2
100
AcDbLine
 10
-913.5779614456436
 20
-1176.986200499491
 30
0.0
 11
-912.9076316626067
 21
-1176.986200499491
 31
0.0
  0
LINE
  5
25B
102
{ACAD_REACTORS
330
40A
330
40A
330
40B
330
40B
102
}
330
6D
100
AcDbEntity
  8
0
  6
Continuous
 62
     2
100
AcDbLine
 10
-910.5949064019155
 20
-1178.413955601532
 30
0.0
 11
-909.659004272433
 21
-1178.413955601532
 31
0.0
  0
LINE
  5
25C
102
{ACAD_REACTORS
330
40A
330
40A
330
40B
330
40B
102
}
330
6D
100
AcDbEntity
  8
0
  6
Continuous
 62
     2
100
AcDbLine
 10
-908.4590171123258
 20
-1178.861030431465
 30
0.0
 11
-909.484227368734
 21
-1178.861030431465
 31
0.0
  0
LINE
  5
25D
102
{ACAD_REACTORS
330
40A
330
40A
330
40B
330
40B
102
}
330
6D
100
AcDbEntity
  8
0
  6
Continuous
 62
     2
100
AcDbLine
 10
-910.6395604653779
 20
-1176.337220907654
 30
0.0
 11
-911.7948935620219
 21
-1178.861030431465
 31
0.0
  0
LINE
  5
25E
102
{ACAD_REACTORS
330
40A
330
40A
330
40B
330
40B
102
}
330
6D
100
AcDbEntity
  8
0
  6
Continuous
 62
     2
100
AcDbLine
 10
-910.7696833056145
 20
-1178.861030431465
 30
0.0
 11
-910.5949064019155
 21
-1178.413955601532
 31
0.0
  0
LINE
  5
25F
102
{ACAD_REACTORS
330
40A
330
40A
330
40B
330
40B
102
}
330
6D
100
AcDbEntity
  8
0
  6
Continuous
 62
     2
100
AcDbLine
 10
-910.3750257811345
 20
-1177.85150662194
 30
0.0
 11
-910.1269553371739
 21
-1177.216948798811
 31
0.0
  0
LINE
  5
260
102
{ACAD_REACTORS
330
408
330
408
330
409
330
409
102
}
330
6D
100
AcDbEntity
  8
0
  6
Continuous
 62
     2
100
AcDbLine
 10
-909.1615463740786
 20
-1176.084839955287
 30
0.0
 11
-909.1615463740786
 21
-1173.561030431477
 31
0.0
  0
LINE
  5
261
102
{ACAD_REACTORS
330
408
330
408
330
409
330
409
102
}
330
6D
100
AcDbEntity
  8
0
  6
Continuous
 62
     2
100
AcDbLine
 10
-908.1363361176712
 20
-1173.561030431477
 30
0.0
 11
-908.1363361176712
 21
-1176.084839955287
 31
0.0
  0
LINE
  5
262
102
{ACAD_REACTORS
330
408
330
408
330
409
330
409
102
}
330
6D
100
AcDbEntity
  8
0
  6
Continuous
 62
     2
100
AcDbLine
 10
-909.1615463740786
 20
-1173.561030431477
 30
0.0
 11
-908.1363361176712
 21
-1173.561030431477
 31
0.0
  0
LINE
  5
263
102
{ACAD_REACTORS
330
406
330
406
330
407
330
407
102
}
330
6D
100
AcDbEntity
  8
0
  6
Continuous
 62
     2
100
AcDbLine
 10
-906.3027870052491
 20
-1175.433821950913
 30
0.0
 11
-905.7270920151124
 21
-1176.084839955287
 31
0.0
  0
LINE
  5
264
102
{ACAD_REACTORS
330
406
330
406
330
407
330
407
102
}
330
6D
100
AcDbEntity
  8
0
  6
Continuous
 62
     2
100
AcDbLine
 10
-905.7270920151124
 20
-1176.084839955287
 30
0.0
 11
-904.5678158020972
 21
-1176.084839955287
 31
0.0
  0
LINE
  5
265
102
{ACAD_REACTORS
330
406
330
406
330
407
330
407
102
}
330
6D
100
AcDbEntity
  8
0
  6
Continuous
 62
     2
100
AcDbLine
 10
-905.7231488987421
 20
-1174.77834491911
 30
0.0
 11
-904.5678158020972
 21
-1176.084839955287
 31
0.0
  0
LINE
  5
266
102
{ACAD_REACTORS
330
406
330
406
330
407
330
407
102
}
330
6D
100
AcDbEntity
  8
0
  6
Continuous
 62
     2
100
AcDbLine
 10
-905.7231488987421
 20
-1174.77834491911
 30
0.0
 11
-904.6466781295136
 21
-1173.561030431477
 31
0.0
  0
LINE
  5
267
102
{ACAD_REACTORS
330
406
330
406
330
407
330
407
102
}
330
6D
100
AcDbEntity
  8
0
  6
Continuous
 62
     2
100
AcDbLine
 10
-906.3027870052491
 20
-1174.122867887307
 30
0.0
 11
-905.8059543425278
 21
-1173.561030431477
 31
0.0
  0
LINE
  5
268
102
{ACAD_REACTORS
330
406
330
406
330
407
330
407
102
}
330
6D
100
AcDbEntity
  8
0
  6
Continuous
 62
     2
100
AcDbLine
 10
-906.7996196679696
 20
-1173.561030431477
 30
0.0
 11
-906.3027870052491
 21
-1174.122867887307
 31
0.0
  0
LINE
  5
269
102
{ACAD_REACTORS
330
406
330
406
330
407
330
407
102
}
330
6D
100
AcDbEntity
  8
0
  6
Continuous
 62
     2
100
AcDbLine
 10
-906.7996196679696
 20
-1173.561030431477
 30
0.0
 11
-907.9588958809856
 21
-1173.561030431477
 31
0.0
  0
LINE
  5
26A
102
{ACAD_REACTORS
330
3FC
330
3FC
330
3FD
330
3FD
102
}
330
6D
100
AcDbEntity
  8
0
  6
Continuous
 62
     2
100
AcDbLine
 10
-906.2239246778337
 20
-1178.861030431465
 30
0.0
 11
-905.2381455851331
 21
-1178.861030431465
 31
0.0
  0
LINE
  5
26B
102
{ACAD_REACTORS
330
3FC
330
3FC
330
3FD
330
3FD
102
}
330
6D
100
AcDbEntity
  8
0
  6
Continuous
 62
     2
100
AcDbLine
 10
-905.2381455851331
 20
-1178.861030431465
 30
0.0
 11
-905.2381455851331
 21
-1176.986200499491
 31
0.0
  0
LINE
  5
26C
102
{ACAD_REACTORS
330
3FC
330
3FC
330
3FD
330
3FD
102
}
330
6D
100
AcDbEntity
  8
0
  6
Continuous
 62
     2
100
AcDbLine
 10
-905.2381455851331
 20
-1176.986200499491
 30
0.0
 11
-904.5678158020972
 21
-1176.986200499491
 31
0.0
  0
LINE
  5
26D
102
{ACAD_REACTORS
330
3FC
330
3FC
330
3FD
330
3FD
102
}
330
6D
100
AcDbEntity
  8
0
  6
Continuous
 62
     2
100
AcDbLine
 10
-904.5678158020972
 20
-1176.986200499491
 30
0.0
 11
-904.5678158020972
 21
-1176.337220907654
 31
0.0
  0
LINE
  5
26E
102
{ACAD_REACTORS
330
3FC
330
3FC
330
3FD
330
3FD
102
}
330
6D
100
AcDbEntity
  8
0
  6
Continuous
 62
     2
100
AcDbLine
 10
-907.3652914373275
 20
-1176.337220907654
 30
0.0
 11
-904.5678158020972
 21
-1176.337220907654
 31
0.0
  0
LINE
  5
26F
102
{ACAD_REACTORS
330
3FC
330
3FC
330
3FD
330
3FD
102
}
330
6D
100
AcDbEntity
  8
0
  6
Continuous
 62
     2
100
AcDbLine
 10
-906.2239246778337
 20
-1176.986200499491
 30
0.0
 11
-906.2239246778337
 21
-1178.861030431465
 31
0.0
  0
LINE
  5
270
102
{ACAD_REACTORS
330
3FE
330
3FE
330
3FF
330
3FF
102
}
330
6D
100
AcDbEntity
  8
0
  6
Continuous
 62
     2
100
AcDbLine
 10
-924.9259795831883
 20
-1177.225592291328
 30
0.0
 11
-924.9259795831883
 21
-1176.744723360176
 31
0.0
  0
LINE
  5
271
102
{ACAD_REACTORS
330
3FE
330
3FE
330
3FF
330
3FF
102
}
330
6D
100
AcDbEntity
  8
0
  6
Continuous
 62
     2
100
AcDbLine
 10
-924.9259795831883
 20
-1174.911431459402
 30
0.0
 11
-924.9259795831883
 21
-1174.410989072206
 31
0.0
  0
LINE
  5
272
330
6D
100
AcDbEntity
  8
1
  6
Continuous
 62
     6
100
AcDbLine
 10
-1056.750287405318
 20
-1184.71103043147
 30
0.0
 11
-1050.55028740532
 21
-1184.71103043147
 31
0.0
  0
LINE
  5
273
330
6D
100
AcDbEntity
  8
1
  6
Continuous
 62
     6
100
AcDbLine
 10
-1050.55028740532
 20
-1184.71103043147
 30
0.0
 11
-1037.05028740532
 21
-1184.71103043147
 31
0.0
  0
LINE
  5
274
330
6D
100
AcDbEntity
  8
1
  6
Continuous
 62
     6
100
AcDbLine
 10
-1037.05028740532
 20
-1184.71103043147
 30
0.0
 11
-1009.750287405318
 21
-1184.71103043147
 31
0.0
  0
LINE
  5
275
330
6D
100
AcDbEntity
  8
1
  6
Continuous
 62
     6
100
AcDbLine
 10
-1009.750287405318
 20
-1184.71103043147
 30
0.0
 11
-974.79509193207
 21
-1184.71103043147
 31
0.0
  0
LINE
  5
276
330
6D
100
AcDbEntity
  8
1
  6
Continuous
 62
     6
100
AcDbLine
 10
-947.7950919320701
 20
-1184.71103043147
 30
0.0
 11
-941.416954071985
 21
-1184.71103043147
 31
0.0
  0
LINE
  5
277
330
6D
100
AcDbEntity
  8
1
  6
Continuous
 62
     6
100
AcDbLine
 10
-961.29509193207
 20
-1184.71103043147
 30
0.0
 11
-947.7950919320701
 21
-1184.71103043147
 31
0.0
  0
LINE
  5
278
330
6D
100
AcDbEntity
  8
1
  6
Continuous
 62
     6
100
AcDbLine
 10
-974.79509193207
 20
-1184.71103043147
 30
0.0
 11
-961.29509193207
 21
-1184.71103043147
 31
0.0
  0
LINE
  5
279
330
6D
100
AcDbEntity
  8
1
  6
Continuous
 62
     6
100
AcDbLine
 10
-941.416954071985
 20
-1184.71103043147
 30
0.0
 11
-934.29509193207
 21
-1184.71103043147
 31
0.0
  0
LINE
  5
27A
330
6D
100
AcDbEntity
  8
1
  6
Continuous
 62
     6
100
AcDbLine
 10
-934.29509193207
 20
-1184.71103043147
 30
0.0
 11
-916.0950919320702
 21
-1184.71103043147
 31
0.0
  0
LINE
  5
27B
330
6D
100
AcDbEntity
  8
1
  6
Continuous
 62
     6
100
AcDbLine
 10
-916.0950919320702
 20
-1184.71103043147
 30
0.0
 11
-897.8950919320702
 21
-1184.71103043147
 31
0.0
  0
LINE
  5
27C
330
6D
100
AcDbEntity
  8
1
  6
Continuous
 62
     6
100
AcDbLine
 10
-897.8950919320702
 20
-1184.71103043147
 30
0.0
 11
-873.0836207386518
 21
-1184.71103043147
 31
0.0
  0
LINE
  5
27D
330
6D
100
AcDbEntity
  8
1
  6
Continuous
 62
     6
100
AcDbLine
 10
-873.0836207386518
 20
-1184.71103043147
 30
0.0
 11
-804.7502874053184
 21
-1184.71103043147
 31
0.0
  0
LINE
  5
27E
330
6D
100
AcDbEntity
  8
1
  6
Continuous
 62
     6
100
AcDbLine
 10
-804.7502874053188
 20
-1176.21103043147
 30
0.0
 11
-804.7502874053183
 21
-1167.71103043147
 31
0.0
  0
LINE
  5
27F
330
6D
100
AcDbEntity
  8
1
  6
Continuous
 62
     6
100
AcDbLine
 10
-804.7502874053183
 20
-1167.71103043147
 30
0.0
 11
-804.7502874053193
 21
-1163.46103043147
 31
0.0
  0
LINE
  5
280
330
6D
100
AcDbEntity
  8
1
  6
Continuous
 62
     6
100
AcDbLine
 10
-804.7502874053193
 20
-1163.46103043147
 30
0.0
 11
-804.7502874053184
 21
-1154.96103043147
 31
0.0
  0
LINE
  5
281
330
6D
100
AcDbEntity
  8
1
  6
Continuous
 62
     6
100
AcDbLine
 10
-804.7502874053184
 20
-1154.96103043147
 30
0.0
 11
-804.7502874053184
 21
-1127.31103043147
 31
0.0
  0
LINE
  5
282
330
6D
100
AcDbEntity
  8
1
  6
PHANTOM
 62
     2
100
AcDbLine
 10
-926.1758287172697
 20
-1169.83603043147
 30
0.0
 11
-921.8602337480808
 21
-1169.83603043147
 31
0.0
  0
LINE
  5
283
330
6D
100
AcDbEntity
  8
1
  6
PHANTOM
 62
     2
100
AcDbLine
 10
-929.2028321069668
 20
-1168.18603043147
 30
0.0
 11
-929.2028321069668
 21
-1171.486030431471
 31
0.0
  0
LINE
  5
284
330
6D
100
AcDbEntity
  8
1
  6
PHANTOM
 62
     2
100
AcDbLine
 10
-927.5528321069668
 20
-1169.83603043147
 30
0.0
 11
-930.8528321069667
 21
-1169.83603043147
 31
0.0
  0
LINE
  5
285
330
6D
100
AcDbEntity
  8
1
  6
Continuous
 62
     7
100
AcDbLine
 10
-897.8950919320702
 20
-1171.96103043147
 30
0.0
 11
-897.8950919320702
 21
-1167.71103043147
 31
0.0
  0
LINE
  5
286
330
6D
100
AcDbEntity
  8
1
  6
Continuous
 62
     7
100
AcDbLine
 10
-934.29509193207
 20
-1171.96103043147
 30
0.0
 11
-897.8950919320702
 21
-1171.96103043147
 31
0.0
  0
LINE
  5
287
330
6D
100
AcDbEntity
  8
1
  6
Continuous
 62
     7
100
AcDbLine
 10
-1037.05028740532
 20
-1180.46103043147
 30
0.0
 11
-974.79509193207
 21
-1180.46103043147
 31
0.0
  0
LINE
  5
288
330
6D
100
AcDbEntity
  8
1
  6
Continuous
 62
     2
100
AcDbLine
 10
-1037.05028740532
 20
-1180.46103043147
 30
0.0
 11
-1037.05028740532
 21
-1184.71103043147
 31
0.0
  0
LINE
  5
289
330
6D
100
AcDbEntity
  8
1
  6
Continuous
 62
     2
100
AcDbLine
 10
-1037.05028740532
 20
-1176.21103043147
 30
0.0
 11
-1050.55028740532
 21
-1176.21103043147
 31
0.0
  0
LINE
  5
28A
330
6D
100
AcDbEntity
  8
1
  6
Continuous
 62
     2
100
AcDbLine
 10
-1037.05028740532
 20
-1176.21103043147
 30
0.0
 11
-1037.05028740532
 21
-1180.46103043147
 31
0.0
  0
LINE
  5
28B
330
6D
100
AcDbEntity
  8
1
  6
Continuous
 62
     2
100
AcDbLine
 10
-1037.05028740532
 20
-1167.71103043147
 30
0.0
 11
-1050.55028740532
 21
-1167.71103043147
 31
0.0
  0
LINE
  5
28C
330
6D
100
AcDbEntity
  8
1
  6
Continuous
 62
     2
100
AcDbLine
 10
-1037.05028740532
 20
-1167.71103043147
 30
0.0
 11
-1037.05028740532
 21
-1171.96103043147
 31
0.0
  0
LINE
  5
28D
330
6D
100
AcDbEntity
  8
1
  6
Continuous
 62
     2
100
AcDbLine
 10
-1037.05028740532
 20
-1171.96103043147
 30
0.0
 11
-1050.55028740532
 21
-1171.96103043147
 31
0.0
  0
LINE
  5
28E
330
6D
100
AcDbEntity
  8
1
  6
Continuous
 62
     2
100
AcDbLine
 10
-1037.05028740532
 20
-1171.96103043147
 30
0.0
 11
-1037.05028740532
 21
-1176.21103043147
 31
0.0
  0
LINE
  5
28F
330
6D
100
AcDbEntity
  8
1
  6
Continuous
 62
     2
100
AcDbLine
 10
-1037.05028740532
 20
-1159.21103043147
 30
0.0
 11
-1050.55028740532
 21
-1159.21103043147
 31
0.0
  0
LINE
  5
290
330
6D
100
AcDbEntity
  8
1
  6
Continuous
 62
     2
100
AcDbLine
 10
-1037.05028740532
 20
-1163.46103043147
 30
0.0
 11
-1050.55028740532
 21
-1163.46103043147
 31
0.0
  0
LINE
  5
291
330
6D
100
AcDbEntity
  8
1
  6
Continuous
 62
     2
100
AcDbLine
 10
-1037.05028740532
 20
-1163.46103043147
 30
0.0
 11
-1037.05028740532
 21
-1167.71103043147
 31
0.0
  0
LINE
  5
292
330
6D
100
AcDbEntity
  8
1
  6
Continuous
 62
     2
100
AcDbLine
 10
-1037.05028740532
 20
-1159.21103043147
 30
0.0
 11
-1037.05028740532
 21
-1163.46103043147
 31
0.0
  0
LINE
  5
293
330
6D
100
AcDbEntity
  8
1
  6
Continuous
 62
     6
100
AcDbLine
 10
-1037.05028740532
 20
-1154.96103043147
 30
0.0
 11
-1050.55028740532
 21
-1154.96103043147
 31
0.0
  0
LINE
  5
294
330
6D
100
AcDbEntity
  8
1
  6
Continuous
 62
     2
100
AcDbLine
 10
-1037.05028740532
 20
-1154.96103043147
 30
0.0
 11
-1037.05028740532
 21
-1159.21103043147
 31
0.0
  0
LINE
  5
295
330
6D
100
AcDbEntity
  8
1
  6
Continuous
 62
     6
100
AcDbLine
 10
-804.7502874053184
 20
-1154.96103043147
 30
0.0
 11
-822.6318791236392
 21
-1154.96103043147
 31
0.0
  0
LINE
  5
296
330
6D
100
AcDbEntity
  8
1
  6
Continuous
 62
     7
100
AcDbLine
 10
-804.7502874053188
 20
-1176.21103043147
 30
0.0
 11
-849.7502874053165
 21
-1176.21103043147
 31
0.0
  0
LINE
  5
297
330
6D
100
AcDbEntity
  8
1
  6
Continuous
 62
     7
100
AcDbLine
 10
-804.7502874053193
 20
-1163.46103043147
 30
0.0
 11
-822.6318791236392
 21
-1163.46103043147
 31
0.0
  0
LINE
  5
298
330
6D
100
AcDbEntity
  8
1
  6
Continuous
 62
     7
100
AcDbLine
 10
-849.7502874053165
 20
-1167.71103043147
 30
0.0
 11
-804.7502874053183
 21
-1167.71103043147
 31
0.0
  0
LINE
  5
299
330
6D
100
AcDbEntity
  8
1
  6
Continuous
 62
     7
100
AcDbLine
 10
-897.8950919320702
 20
-1159.21103043147
 30
0.0
 11
-897.8950919320702
 21
-1163.46103043147
 31
0.0
  0
LINE
  5
29A
330
6D
100
AcDbEntity
  8
1
  6
Continuous
 62
     7
100
AcDbLine
 10
-911.3950919320702
 20
-1159.21103043147
 30
0.0
 11
-897.8950919320702
 21
-1159.21103043147
 31
0.0
  0
LINE
  5
29B
330
6D
100
AcDbEntity
  8
1
  6
Continuous
 62
     7
100
AcDbLine
 10
-911.3950919320702
 20
-1159.21103043147
 30
0.0
 11
-924.89509193207
 21
-1159.21103043147
 31
0.0
  0
LINE
  5
29C
330
6D
100
AcDbEntity
  8
1
  6
Continuous
 62
     7
100
AcDbLine
 10
-822.6318791236392
 20
-1163.46103043147
 30
0.0
 11
-822.6318791236392
 21
-1154.96103043147
 31
0.0
  0
LINE
  5
29D
330
6D
100
AcDbEntity
  8
1
  6
Continuous
 62
     6
100
AcDbLine
 10
-831.5502874053185
 20
-1154.96103043147
 30
0.0
 11
-822.6318791236392
 21
-1154.96103043147
 31
0.0
  0
LINE
  5
29E
330
6D
100
AcDbEntity
  8
1
  6
Continuous
 62
     7
100
AcDbLine
 10
-831.5502874053185
 20
-1154.96103043147
 30
0.0
 11
-831.5502874053182
 21
-1163.46103043147
 31
0.0
  0
LINE
  5
29F
330
6D
100
AcDbEntity
  8
1
  6
Continuous
 62
     7
100
AcDbLine
 10
-849.7502874053165
 20
-1176.21103043147
 30
0.0
 11
-868.250287405316
 21
-1176.21103043147
 31
0.0
  0
LINE
  5
2A0
330
6D
100
AcDbEntity
  8
1
  6
Continuous
 62
     7
100
AcDbLine
 10
-849.7502874053165
 20
-1167.71103043147
 30
0.0
 11
-849.7502874053165
 21
-1176.21103043147
 31
0.0
  0
LINE
  5
2A1
330
6D
100
AcDbEntity
  8
1
  6
Continuous
 62
     2
100
AcDbLine
 10
-947.7950919320701
 20
-1154.96103043147
 30
0.0
 11
-947.7950919320701
 21
-1159.21103043147
 31
0.0
  0
LINE
  5
2A2
330
6D
100
AcDbEntity
  8
1
  6
Continuous
 62
     2
100
AcDbLine
 10
-961.29509193207
 20
-1154.96103043147
 30
0.0
 11
-961.29509193207
 21
-1159.21103043147
 31
0.0
  0
LINE
  5
2A3
330
6D
100
AcDbEntity
  8
1
  6
Continuous
 62
     6
100
AcDbLine
 10
-947.7950919320701
 20
-1154.96103043147
 30
0.0
 11
-961.29509193207
 21
-1154.96103043147
 31
0.0
  0
LINE
  5
2A4
330
6D
100
AcDbEntity
  8
1
  6
Continuous
 62
     6
100
AcDbLine
 10
-961.29509193207
 20
-1154.96103043147
 30
0.0
 11
-974.79509193207
 21
-1154.96103043147
 31
0.0
  0
LINE
  5
2A5
330
6D
100
AcDbEntity
  8
1
  6
Continuous
 62
     2
100
AcDbLine
 10
-974.79509193207
 20
-1154.96103043147
 30
0.0
 11
-974.79509193207
 21
-1159.21103043147
 31
0.0
  0
LINE
  5
2A6
330
6D
100
AcDbEntity
  8
1
  6
Continuous
 62
     7
100
AcDbLine
 10
-916.0950919320702
 20
-1180.46103043147
 30
0.0
 11
-916.0950919320702
 21
-1184.71103043147
 31
0.0
  0
LINE
  5
2A7
330
6D
100
AcDbEntity
  8
1
  6
Continuous
 62
     7
100
AcDbLine
 10
-916.0950919320702
 20
-1180.46103043147
 30
0.0
 11
-934.29509193207
 21
-1180.46103043147
 31
0.0
  0
LINE
  5
2A8
330
6D
100
AcDbEntity
  8
1
  6
Continuous
 62
     7
100
AcDbLine
 10
-911.3950919320702
 20
-1167.71103043147
 30
0.0
 11
-924.89509193207
 21
-1167.71103043147
 31
0.0
  0
LINE
  5
2A9
330
6D
100
AcDbEntity
  8
1
  6
Continuous
 62
     7
100
AcDbLine
 10
-897.8950919320702
 20
-1180.46103043147
 30
0.0
 11
-916.0950919320702
 21
-1180.46103043147
 31
0.0
  0
LINE
  5
2AA
330
6D
100
AcDbEntity
  8
1
  6
Continuous
 62
     6
100
AcDbLine
 10
-897.8950919320702
 20
-1154.96103043147
 30
0.0
 11
-874.9950919320702
 21
-1154.96103043147
 31
0.0
  0
LINE
  5
2AB
330
6D
100
AcDbEntity
  8
1
  6
Continuous
 62
     6
100
AcDbLine
 10
-831.5502874053185
 20
-1154.96103043147
 30
0.0
 11
-874.9950919320702
 21
-1154.96103043147
 31
0.0
  0
LINE
  5
2AC
330
6D
100
AcDbEntity
  8
1
  6
Continuous
 62
     7
100
AcDbLine
 10
-874.9950919320702
 20
-1154.96103043147
 30
0.0
 11
-874.9950919320702
 21
-1163.46103043147
 31
0.0
  0
LINE
  5
2AD
330
6D
100
AcDbEntity
  8
1
  6
Continuous
 62
     6
100
AcDbLine
 10
-1050.55028740532
 20
-1154.96103043147
 30
0.0
 11
-1056.750287405318
 21
-1154.96103043147
 31
0.0
  0
LINE
  5
2AE
330
6D
100
AcDbEntity
  8
1
  6
Continuous
 62
     6
100
AcDbLine
 10
-1056.750287405318
 20
-1184.71103043147
 30
0.0
 11
-1056.750287405318
 21
-1180.46103043147
 31
0.0
  0
LINE
  5
2AF
330
6D
100
AcDbEntity
  8
1
  6
Continuous
 62
     6
100
AcDbLine
 10
-1056.750287405318
 20
-1180.46103043147
 30
0.0
 11
-1056.750287405318
 21
-1176.21103043147
 31
0.0
  0
LINE
  5
2B0
330
6D
100
AcDbEntity
  8
1
  6
Continuous
 62
     7
100
AcDbLine
 10
-911.3950919320702
 20
-1163.46103043147
 30
0.0
 11
-911.3950919320702
 21
-1167.71103043147
 31
0.0
  0
LINE
  5
2B1
330
6D
100
AcDbEntity
  8
1
  6
Continuous
 62
     7
100
AcDbLine
 10
-924.89509193207
 20
-1163.46103043147
 30
0.0
 11
-924.89509193207
 21
-1167.71103043147
 31
0.0
  0
LINE
  5
2B2
330
6D
100
AcDbEntity
  8
1
  6
Continuous
 62
     7
100
AcDbLine
 10
-911.3950919320702
 20
-1163.46103043147
 30
0.0
 11
-924.89509193207
 21
-1163.46103043147
 31
0.0
  0
LINE
  5
2B3
330
6D
100
AcDbEntity
  8
1
  6
Continuous
 62
     2
100
AcDbLine
 10
-934.29509193207
 20
-1167.71103043147
 30
0.0
 11
-947.7950919320701
 21
-1167.71103043147
 31
0.0
  0
LINE
  5
2B4
330
6D
100
AcDbEntity
  8
1
  6
Continuous
 62
     2
100
AcDbLine
 10
-1050.55028740532
 20
-1167.71103043147
 30
0.0
 11
-1050.55028740532
 21
-1163.46103043147
 31
0.0
  0
LINE
  5
2B5
330
6D
100
AcDbEntity
  8
1
  6
Continuous
 62
     2
100
AcDbLine
 10
-1050.55028740532
 20
-1167.71103043147
 30
0.0
 11
-1056.750287405318
 21
-1167.71103043147
 31
0.0
  0
LINE
  5
2B6
330
6D
100
AcDbEntity
  8
1
  6
Continuous
 62
     2
100
AcDbLine
 10
-934.29509193207
 20
-1163.46103043147
 30
0.0
 11
-947.7950919320701
 21
-1163.46103043147
 31
0.0
  0
LINE
  5
2B7
330
6D
100
AcDbEntity
  8
1
  6
Continuous
 62
     2
100
AcDbLine
 10
-1050.55028740532
 20
-1163.46103043147
 30
0.0
 11
-1050.55028740532
 21
-1159.21103043147
 31
0.0
  0
LINE
  5
2B8
330
6D
100
AcDbEntity
  8
1
  6
Continuous
 62
     2
100
AcDbLine
 10
-934.29509193207
 20
-1159.21103043147
 30
0.0
 11
-947.7950919320701
 21
-1159.21103043147
 31
0.0
  0
LINE
  5
2B9
330
6D
100
AcDbEntity
  8
1
  6
Continuous
 62
     2
100
AcDbLine
 10
-1050.55028740532
 20
-1159.21103043147
 30
0.0
 11
-1050.55028740532
 21
-1154.96103043147
 31
0.0
  0
LINE
  5
2BA
330
6D
100
AcDbEntity
  8
1
  6
Continuous
 62
     2
100
AcDbLine
 10
-1050.55028740532
 20
-1159.21103043147
 30
0.0
 11
-1056.750287405318
 21
-1159.21103043147
 31
0.0
  0
LINE
  5
2BB
330
6D
100
AcDbEntity
  8
1
  6
Continuous
 62
     6
100
AcDbLine
 10
-934.29509193207
 20
-1154.96103043147
 30
0.0
 11
-947.7950919320701
 21
-1154.96103043147
 31
0.0
  0
LINE
  5
2BC
330
6D
100
AcDbEntity
  8
1
  6
Continuous
 62
     2
100
AcDbLine
 10
-934.29509193207
 20
-1176.21103043147
 30
0.0
 11
-947.7950919320701
 21
-1176.21103043147
 31
0.0
  0
LINE
  5
2BD
330
6D
100
AcDbEntity
  8
1
  6
Continuous
 62
     2
100
AcDbLine
 10
-934.29509193207
 20
-1171.96103043147
 30
0.0
 11
-947.7950919320701
 21
-1171.96103043147
 31
0.0
  0
LINE
  5
2BE
330
6D
100
AcDbEntity
  8
1
  6
Continuous
 62
     2
100
AcDbLine
 10
-1050.55028740532
 20
-1176.21103043147
 30
0.0
 11
-1050.55028740532
 21
-1171.96103043147
 31
0.0
  0
LINE
  5
2BF
330
6D
100
AcDbEntity
  8
1
  6
Continuous
 62
     2
100
AcDbLine
 10
-1050.55028740532
 20
-1171.96103043147
 30
0.0
 11
-1050.55028740532
 21
-1167.71103043147
 31
0.0
  0
LINE
  5
2C0
330
6D
100
AcDbEntity
  8
1
  6
Continuous
 62
     7
100
AcDbLine
 10
-1050.55028740532
 20
-1180.46103043147
 30
0.0
 11
-1037.05028740532
 21
-1180.46103043147
 31
0.0
  0
LINE
  5
2C1
330
6D
100
AcDbEntity
  8
1
  6
Continuous
 62
     2
100
AcDbLine
 10
-1050.55028740532
 20
-1180.46103043147
 30
0.0
 11
-1050.55028740532
 21
-1176.21103043147
 31
0.0
  0
LINE
  5
2C2
330
6D
100
AcDbEntity
  8
1
  6
Continuous
 62
     7
100
AcDbLine
 10
-897.8950919320702
 20
-1176.21103043147
 30
0.0
 11
-897.8950919320702
 21
-1171.96103043147
 31
0.0
  0
LINE
  5
2C3
330
6D
100
AcDbEntity
  8
1
  6
Continuous
 62
     6
100
AcDbLine
 10
-911.3950919320702
 20
-1154.96103043147
 30
0.0
 11
-897.8950919320702
 21
-1154.96103043147
 31
0.0
  0
LINE
  5
2C4
330
6D
100
AcDbEntity
  8
1
  6
Continuous
 62
     7
100
AcDbLine
 10
-897.8950919320702
 20
-1154.96103043147
 30
0.0
 11
-897.8950919320702
 21
-1159.21103043147
 31
0.0
  0
LINE
  5
2C5
330
6D
100
AcDbEntity
  8
1
  6
Continuous
 62
     6
100
AcDbLine
 10
-924.89509193207
 20
-1154.96103043147
 30
0.0
 11
-911.3950919320702
 21
-1154.96103043147
 31
0.0
  0
LINE
  5
2C6
330
6D
100
AcDbEntity
  8
1
  6
Continuous
 62
     7
100
AcDbLine
 10
-934.29509193207
 20
-1167.71103043147
 30
0.0
 11
-934.29509193207
 21
-1171.96103043147
 31
0.0
  0
LINE
  5
2C7
330
6D
100
AcDbEntity
  8
1
  6
Continuous
 62
     7
100
AcDbLine
 10
-934.29509193207
 20
-1163.46103043147
 30
0.0
 11
-934.29509193207
 21
-1167.71103043147
 31
0.0
  0
LINE
  5
2C8
330
6D
100
AcDbEntity
  8
1
  6
Continuous
 62
     2
100
AcDbLine
 10
-1056.750287405318
 20
-1163.46103043147
 30
0.0
 11
-1050.55028740532
 21
-1163.46103043147
 31
0.0
  0
LINE
  5
2C9
330
6D
100
AcDbEntity
  8
1
  6
Continuous
 62
     7
100
AcDbLine
 10
-934.29509193207
 20
-1159.21103043147
 30
0.0
 11
-934.29509193207
 21
-1163.46103043147
 31
0.0
  0
LINE
  5
2CA
330
6D
100
AcDbEntity
  8
1
  6
Continuous
 62
     7
100
AcDbLine
 10
-897.8950919320702
 20
-1163.46103043147
 30
0.0
 11
-897.8950919320702
 21
-1167.71103043147
 31
0.0
  0
LINE
  5
2CB
330
6D
100
AcDbEntity
  8
1
  6
Continuous
 62
     7
100
AcDbLine
 10
-911.3950919320702
 20
-1154.96103043147
 30
0.0
 11
-911.3950919320702
 21
-1159.21103043147
 31
0.0
  0
LINE
  5
2CC
330
6D
100
AcDbEntity
  8
1
  6
Continuous
 62
     7
100
AcDbLine
 10
-924.89509193207
 20
-1154.96103043147
 30
0.0
 11
-924.89509193207
 21
-1159.21103043147
 31
0.0
  0
LINE
  5
2CD
330
6D
100
AcDbEntity
  8
1
  6
Continuous
 62
     2
100
AcDbLine
 10
-1050.55028740532
 20
-1184.71103043147
 30
0.0
 11
-1050.55028740532
 21
-1180.46103043147
 31
0.0
  0
LINE
  5
2CE
330
6D
100
AcDbEntity
  8
1
  6
Continuous
 62
     2
100
AcDbLine
 10
-1056.750287405318
 20
-1176.21103043147
 30
0.0
 11
-1050.55028740532
 21
-1176.21103043147
 31
0.0
  0
LINE
  5
2CF
330
6D
100
AcDbEntity
  8
1
  6
Continuous
 62
     2
100
AcDbLine
 10
-1056.750287405318
 20
-1171.96103043147
 30
0.0
 11
-1050.55028740532
 21
-1171.96103043147
 31
0.0
  0
LINE
  5
2D0
330
6D
100
AcDbEntity
  8
1
  6
Continuous
 62
     7
100
AcDbLine
 10
-1056.750287405318
 20
-1180.46103043147
 30
0.0
 11
-1050.55028740532
 21
-1180.46103043147
 31
0.0
  0
LINE
  5
2D1
330
6D
100
AcDbEntity
  8
1
  6
Continuous
 62
     7
100
AcDbLine
 10
-897.8950919320702
 20
-1176.21103043147
 30
0.0
 11
-897.8950919320702
 21
-1180.46103043147
 31
0.0
  0
LINE
  5
2D2
330
6D
100
AcDbEntity
  8
1
  6
Continuous
 62
     7
100
AcDbLine
 10
-934.29509193207
 20
-1171.96103043147
 30
0.0
 11
-934.29509193207
 21
-1176.21103043147
 31
0.0
  0
LINE
  5
2D3
330
6D
100
AcDbEntity
  8
1
  6
Continuous
 62
     7
100
AcDbLine
 10
-934.29509193207
 20
-1176.21103043147
 30
0.0
 11
-934.29509193207
 21
-1180.46103043147
 31
0.0
  0
LINE
  5
2D4
330
6D
100
AcDbEntity
  8
1
  6
Continuous
 62
     7
100
AcDbLine
 10
-911.3950919320702
 20
-1159.21103043147
 30
0.0
 11
-911.3950919320702
 21
-1163.46103043147
 31
0.0
  0
LINE
  5
2D5
330
6D
100
AcDbEntity
  8
1
  6
Continuous
 62
     7
100
AcDbLine
 10
-924.89509193207
 20
-1159.21103043147
 30
0.0
 11
-924.89509193207
 21
-1163.46103043147
 31
0.0
  0
LINE
  5
2D6
330
6D
100
AcDbEntity
  8
1
  6
Continuous
 62
     7
100
AcDbLine
 10
-934.29509193207
 20
-1163.46103043147
 30
0.0
 11
-924.89509193207
 21
-1163.46103043147
 31
0.0
  0
LINE
  5
2D7
330
6D
100
AcDbEntity
  8
1
  6
Continuous
 62
     7
100
AcDbLine
 10
-897.8950919320702
 20
-1167.71103043147
 30
0.0
 11
-911.3950919320702
 21
-1167.71103043147
 31
0.0
  0
LINE
  5
2D8
330
6D
100
AcDbEntity
  8
1
  6
Continuous
 62
     7
100
AcDbLine
 10
-897.8950919320702
 20
-1180.46103043147
 30
0.0
 11
-897.8950919320702
 21
-1184.71103043147
 31
0.0
  0
LINE
  5
2D9
330
6D
100
AcDbEntity
  8
1
  6
Continuous
 62
     7
100
AcDbLine
 10
-934.29509193207
 20
-1180.46103043147
 30
0.0
 11
-934.29509193207
 21
-1184.71103043147
 31
0.0
  0
LINE
  5
2DA
330
6D
100
AcDbEntity
  8
1
  6
Continuous
 62
     7
100
AcDbLine
 10
-934.29509193207
 20
-1154.96103043147
 30
0.0
 11
-934.29509193207
 21
-1159.21103043147
 31
0.0
  0
LINE
  5
2DB
330
6D
100
AcDbEntity
  8
1
  6
Continuous
 62
     7
100
AcDbLine
 10
-897.8950919320702
 20
-1176.21103043147
 30
0.0
 11
-868.250287405316
 21
-1176.21103043147
 31
0.0
  0
LINE
  5
2DC
330
6D
100
AcDbEntity
  8
1
  6
Continuous
 62
     7
100
AcDbLine
 10
-897.8950919320702
 20
-1167.71103043147
 30
0.0
 11
-868.250287405316
 21
-1167.71103043147
 31
0.0
  0
LINE
  5
2DD
330
6D
100
AcDbEntity
  8
1
  6
Continuous
 62
     7
100
AcDbLine
 10
-831.5502874053182
 20
-1163.46103043147
 30
0.0
 11
-822.6318791236392
 21
-1163.46103043147
 31
0.0
  0
LINE
  5
2DE
330
6D
100
AcDbEntity
  8
1
  6
Continuous
 62
     7
100
AcDbLine
 10
-831.5502874053182
 20
-1163.46103043147
 30
0.0
 11
-868.250287405316
 21
-1163.46103043147
 31
0.0
  0
LINE
  5
2DF
330
6D
100
AcDbEntity
  8
1
  6
Continuous
 62
     7
100
AcDbLine
 10
-868.250287405316
 20
-1167.71103043147
 30
0.0
 11
-849.7502874053165
 21
-1167.71103043147
 31
0.0
  0
LINE
  5
2E0
330
6D
100
AcDbEntity
  8
1
  6
Continuous
 62
     7
100
AcDbLine
 10
-868.250287405316
 20
-1167.71103043147
 30
0.0
 11
-868.250287405316
 21
-1176.21103043147
 31
0.0
  0
LINE
  5
2E1
330
6D
100
AcDbEntity
  8
1
  6
Continuous
 62
     6
100
AcDbLine
 10
-1056.750287405318
 20
-1159.21103043147
 30
0.0
 11
-1056.750287405318
 21
-1154.96103043147
 31
0.0
  0
LINE
  5
2E2
330
6D
100
AcDbEntity
  8
1
  6
Continuous
 62
     6
100
AcDbLine
 10
-1056.750287405318
 20
-1163.46103043147
 30
0.0
 11
-1056.750287405318
 21
-1159.21103043147
 31
0.0
  0
LINE
  5
2E3
330
6D
100
AcDbEntity
  8
1
  6
Continuous
 62
     6
100
AcDbLine
 10
-1056.750287405318
 20
-1167.71103043147
 30
0.0
 11
-1056.750287405318
 21
-1163.46103043147
 31
0.0
  0
LINE
  5
2E4
330
6D
100
AcDbEntity
  8
1
  6
Continuous
 62
     6
100
AcDbLine
 10
-1056.750287405318
 20
-1176.21103043147
 30
0.0
 11
-1056.750287405318
 21
-1171.96103043147
 31
0.0
  0
LINE
  5
2E5
330
6D
100
AcDbEntity
  8
1
  6
Continuous
 62
     6
100
AcDbLine
 10
-974.79509193207
 20
-1154.96103043147
 30
0.0
 11
-1037.05028740532
 21
-1154.96103043147
 31
0.0
  0
LINE
  5
2E6
330
6D
100
AcDbEntity
  8
1
  6
Continuous
 62
     2
100
AcDbLine
 10
-1037.05028740532
 20
-1159.21103043147
 30
0.0
 11
-974.79509193207
 21
-1159.21103043147
 31
0.0
  0
LINE
  5
2E7
330
6D
100
AcDbEntity
  8
1
  6
Continuous
 62
     2
100
AcDbLine
 10
-1037.05028740532
 20
-1163.46103043147
 30
0.0
 11
-974.79509193207
 21
-1163.46103043147
 31
0.0
  0
LINE
  5
2E8
330
6D
100
AcDbEntity
  8
1
  6
Continuous
 62
     7
100
AcDbLine
 10
-911.3950919320702
 20
-1163.46103043147
 30
0.0
 11
-897.8950919320702
 21
-1163.46103043147
 31
0.0
  0
LINE
  5
2E9
330
6D
100
AcDbEntity
  8
1
  6
Continuous
 62
     7
100
AcDbLine
 10
-874.9950919320702
 20
-1163.46103043147
 30
0.0
 11
-897.8950919320702
 21
-1163.46103043147
 31
0.0
  0
LINE
  5
2EA
330
6D
100
AcDbEntity
  8
1
  6
Continuous
 62
     2
100
AcDbLine
 10
-947.7950919320701
 20
-1176.21103043147
 30
0.0
 11
-947.7950919320701
 21
-1180.46103043147
 31
0.0
  0
LINE
  5
2EB
330
6D
100
AcDbEntity
  8
1
  6
Continuous
 62
     2
100
AcDbLine
 10
-947.7950919320701
 20
-1176.21103043147
 30
0.0
 11
-961.29509193207
 21
-1176.21103043147
 31
0.0
  0
LINE
  5
2EC
330
6D
100
AcDbEntity
  8
1
  6
Continuous
 62
     2
100
AcDbLine
 10
-947.7950919320701
 20
-1180.46103043147
 30
0.0
 11
-947.7950919320701
 21
-1184.71103043147
 31
0.0
  0
LINE
  5
2ED
330
6D
100
AcDbEntity
  8
1
  6
Continuous
 62
     7
100
AcDbLine
 10
-947.7950919320701
 20
-1180.46103043147
 30
0.0
 11
-934.29509193207
 21
-1180.46103043147
 31
0.0
  0
LINE
  5
2EE
330
6D
100
AcDbEntity
  8
1
  6
Continuous
 62
     2
100
AcDbLine
 10
-947.7950919320701
 20
-1167.71103043147
 30
0.0
 11
-947.7950919320701
 21
-1171.96103043147
 31
0.0
  0
LINE
  5
2EF
330
6D
100
AcDbEntity
  8
1
  6
Continuous
 62
     2
100
AcDbLine
 10
-947.7950919320701
 20
-1167.71103043147
 30
0.0
 11
-961.29509193207
 21
-1167.71103043147
 31
0.0
  0
LINE
  5
2F0
330
6D
100
AcDbEntity
  8
1
  6
Continuous
 62
     2
100
AcDbLine
 10
-947.7950919320701
 20
-1163.46103043147
 30
0.0
 11
-947.7950919320701
 21
-1167.71103043147
 31
0.0
  0
LINE
  5
2F1
330
6D
100
AcDbEntity
  8
1
  6
Continuous
 62
     2
100
AcDbLine
 10
-947.7950919320701
 20
-1163.46103043147
 30
0.0
 11
-961.29509193207
 21
-1163.46103043147
 31
0.0
  0
LINE
  5
2F2
330
6D
100
AcDbEntity
  8
1
  6
Continuous
 62
     2
100
AcDbLine
 10
-947.7950919320701
 20
-1159.21103043147
 30
0.0
 11
-947.7950919320701
 21
-1163.46103043147
 31
0.0
  0
LINE
  5
2F3
330
6D
100
AcDbEntity
  8
1
  6
Continuous
 62
     2
100
AcDbLine
 10
-947.7950919320701
 20
-1159.21103043147
 30
0.0
 11
-961.29509193207
 21
-1159.21103043147
 31
0.0
  0
LINE
  5
2F4
330
6D
100
AcDbEntity
  8
1
  6
Continuous
 62
     2
100
AcDbLine
 10
-947.7950919320701
 20
-1171.96103043147
 30
0.0
 11
-947.7950919320701
 21
-1176.21103043147
 31
0.0
  0
LINE
  5
2F5
330
6D
100
AcDbEntity
  8
1
  6
Continuous
 62
     2
100
AcDbLine
 10
-947.7950919320701
 20
-1171.96103043147
 30
0.0
 11
-961.29509193207
 21
-1171.96103043147
 31
0.0
  0
LINE
  5
2F6
330
6D
100
AcDbEntity
  8
1
  6
Continuous
 62
     2
100
AcDbLine
 10
-961.29509193207
 20
-1176.21103043147
 30
0.0
 11
-961.29509193207
 21
-1180.46103043147
 31
0.0
  0
LINE
  5
2F7
330
6D
100
AcDbEntity
  8
1
  6
Continuous
 62
     2
100
AcDbLine
 10
-961.29509193207
 20
-1176.21103043147
 30
0.0
 11
-974.79509193207
 21
-1176.21103043147
 31
0.0
  0
LINE
  5
2F8
330
6D
100
AcDbEntity
  8
1
  6
Continuous
 62
     2
100
AcDbLine
 10
-961.29509193207
 20
-1180.46103043147
 30
0.0
 11
-961.29509193207
 21
-1184.71103043147
 31
0.0
  0
LINE
  5
2F9
330
6D
100
AcDbEntity
  8
1
  6
Continuous
 62
     7
100
AcDbLine
 10
-961.29509193207
 20
-1180.46103043147
 30
0.0
 11
-947.7950919320701
 21
-1180.46103043147
 31
0.0
  0
LINE
  5
2FA
330
6D
100
AcDbEntity
  8
1
  6
Continuous
 62
     2
100
AcDbLine
 10
-961.29509193207
 20
-1167.71103043147
 30
0.0
 11
-961.29509193207
 21
-1171.96103043147
 31
0.0
  0
LINE
  5
2FB
330
6D
100
AcDbEntity
  8
1
  6
Continuous
 62
     2
100
AcDbLine
 10
-961.29509193207
 20
-1167.71103043147
 30
0.0
 11
-974.79509193207
 21
-1167.71103043147
 31
0.0
  0
LINE
  5
2FC
330
6D
100
AcDbEntity
  8
1
  6
Continuous
 62
     2
100
AcDbLine
 10
-961.29509193207
 20
-1163.46103043147
 30
0.0
 11
-961.29509193207
 21
-1167.71103043147
 31
0.0
  0
LINE
  5
2FD
330
6D
100
AcDbEntity
  8
1
  6
Continuous
 62
     2
100
AcDbLine
 10
-961.29509193207
 20
-1163.46103043147
 30
0.0
 11
-974.79509193207
 21
-1163.46103043147
 31
0.0
  0
LINE
  5
2FE
330
6D
100
AcDbEntity
  8
1
  6
Continuous
 62
     2
100
AcDbLine
 10
-961.29509193207
 20
-1159.21103043147
 30
0.0
 11
-961.29509193207
 21
-1163.46103043147
 31
0.0
  0
LINE
  5
2FF
330
6D
100
AcDbEntity
  8
1
  6
Continuous
 62
     2
100
AcDbLine
 10
-961.29509193207
 20
-1159.21103043147
 30
0.0
 11
-974.79509193207
 21
-1159.21103043147
 31
0.0
  0
LINE
  5
300
330
6D
100
AcDbEntity
  8
1
  6
Continuous
 62
     2
100
AcDbLine
 10
-961.29509193207
 20
-1171.96103043147
 30
0.0
 11
-961.29509193207
 21
-1176.21103043147
 31
0.0
  0
LINE
  5
301
330
6D
100
AcDbEntity
  8
1
  6
Continuous
 62
     2
100
AcDbLine
 10
-961.29509193207
 20
-1171.96103043147
 30
0.0
 11
-974.79509193207
 21
-1171.96103043147
 31
0.0
  0
LINE
  5
302
330
6D
100
AcDbEntity
  8
1
  6
Continuous
 62
     2
100
AcDbLine
 10
-974.79509193207
 20
-1176.21103043147
 30
0.0
 11
-974.79509193207
 21
-1180.46103043147
 31
0.0
  0
LINE
  5
303
330
6D
100
AcDbEntity
  8
1
  6
Continuous
 62
     2
100
AcDbLine
 10
-974.79509193207
 20
-1176.21103043147
 30
0.0
 11
-1037.05028740532
 21
-1176.21103043147
 31
0.0
  0
LINE
  5
304
330
6D
100
AcDbEntity
  8
1
  6
Continuous
 62
     2
100
AcDbLine
 10
-974.79509193207
 20
-1180.46103043147
 30
0.0
 11
-974.79509193207
 21
-1184.71103043147
 31
0.0
  0
LINE
  5
305
330
6D
100
AcDbEntity
  8
1
  6
Continuous
 62
     7
100
AcDbLine
 10
-974.79509193207
 20
-1180.46103043147
 30
0.0
 11
-961.29509193207
 21
-1180.46103043147
 31
0.0
  0
LINE
  5
306
330
6D
100
AcDbEntity
  8
1
  6
Continuous
 62
     2
100
AcDbLine
 10
-974.79509193207
 20
-1167.71103043147
 30
0.0
 11
-974.79509193207
 21
-1171.96103043147
 31
0.0
  0
LINE
  5
307
330
6D
100
AcDbEntity
  8
1
  6
Continuous
 62
     2
100
AcDbLine
 10
-974.79509193207
 20
-1167.71103043147
 30
0.0
 11
-1037.05028740532
 21
-1167.71103043147
 31
0.0
  0
LINE
  5
308
330
6D
100
AcDbEntity
  8
1
  6
Continuous
 62
     2
100
AcDbLine
 10
-974.79509193207
 20
-1163.46103043147
 30
0.0
 11
-974.79509193207
 21
-1167.71103043147
 31
0.0
  0
LINE
  5
309
330
6D
100
AcDbEntity
  8
1
  6
Continuous
 62
     2
100
AcDbLine
 10
-974.79509193207
 20
-1159.21103043147
 30
0.0
 11
-974.79509193207
 21
-1163.46103043147
 31
0.0
  0
LINE
  5
30A
330
6D
100
AcDbEntity
  8
1
  6
Continuous
 62
     2
100
AcDbLine
 10
-974.79509193207
 20
-1171.96103043147
 30
0.0
 11
-974.79509193207
 21
-1176.21103043147
 31
0.0
  0
LINE
  5
30B
330
6D
100
AcDbEntity
  8
1
  6
Continuous
 62
     2
100
AcDbLine
 10
-974.79509193207
 20
-1171.96103043147
 30
0.0
 11
-1037.05028740532
 21
-1171.96103043147
 31
0.0
  0
LINE
  5
30C
330
6D
100
AcDbEntity
  8
1
  6
Continuous
 62
     7
100
AcDbLine
 10
-924.89509193207
 20
-1167.71103043147
 30
0.0
 11
-934.29509193207
 21
-1167.71103043147
 31
0.0
  0
LINE
  5
30D
330
6D
100
AcDbEntity
  8
1
  6
Continuous
 62
     6
100
AcDbLine
 10
-924.89509193207
 20
-1154.96103043147
 30
0.0
 11
-934.29509193207
 21
-1154.96103043147
 31
0.0
  0
LINE
  5
30E
330
6D
100
AcDbEntity
  8
1
  6
Continuous
 62
     7
100
AcDbLine
 10
-934.29509193207
 20
-1159.21103043147
 30
0.0
 11
-924.89509193207
 21
-1159.21103043147
 31
0.0
  0
LINE
  5
30F
330
6D
100
AcDbEntity
  8
1
  6
Continuous
 62
     6
100
AcDbLine
 10
-1056.750287405318
 20
-1171.96103043147
 30
0.0
 11
-1056.750287405318
 21
-1167.71103043147
 31
0.0
  0
LINE
  5
310
330
6D
100
AcDbEntity
  8
1
  6
Continuous
 62
     2
100
AcDbLine
 10
-926.0148227975548
 20
-1168.33603043147
 30
0.0
 11
-922.0148227975548
 21
-1168.83603043147
 31
0.0
  0
LINE
  5
311
330
6D
100
AcDbEntity
  8
1
  6
Continuous
 62
     2
100
AcDbLine
 10
-922.0148227975548
 20
-1168.83603043147
 30
0.0
 11
-922.0148227975548
 21
-1170.83603043147
 31
0.0
  0
LINE
  5
312
330
6D
100
AcDbEntity
  8
1
  6
Continuous
 62
     2
100
AcDbLine
 10
-922.0148227975548
 20
-1170.83603043147
 30
0.0
 11
-926.0148227975548
 21
-1171.33603043147
 31
0.0
  0
LINE
  5
313
330
6D
100
AcDbEntity
  8
1
  6
Continuous
 62
     2
100
AcDbLine
 10
-926.0148227975548
 20
-1171.33603043147
 30
0.0
 11
-926.0148227975548
 21
-1168.33603043147
 31
0.0
  0
LINE
  5
314
330
6D
100
AcDbEntity
  8
1
  6
Continuous
 62
     2
100
AcDbLine
 10
-1009.750287405318
 20
-1189.71103043147
 30
0.0
 11
-1078.083620738652
 21
-1189.71103043147
 31
0.0
  0
LINE
  5
315
330
6D
100
AcDbEntity
  8
1
  6
Continuous
 62
     2
100
AcDbLine
 10
-873.0836207386518
 20
-1189.71103043147
 30
0.0
 11
-804.7502874053183
 21
-1189.71103043147
 31
0.0
  0
LINE
  5
316
330
6D
100
AcDbEntity
  8
1
  6
Continuous
 62
     2
100
AcDbLine
 10
-873.0836207386518
 20
-1189.71103043147
 30
0.0
 11
-873.0836207386518
 21
-1184.71103043147
 31
0.0
  0
LINE
  5
317
330
6D
100
AcDbEntity
  8
1
  6
Continuous
 62
     2
100
AcDbLine
 10
-941.416954071985
 20
-1189.71103043147
 30
0.0
 11
-941.416954071985
 21
-1184.71103043147
 31
0.0
  0
LINE
  5
318
330
6D
100
AcDbEntity
  8
1
  6
Continuous
 62
     2
100
AcDbLine
 10
-1009.750287405318
 20
-1189.71103043147
 30
0.0
 11
-1009.750287405318
 21
-1184.71103043147
 31
0.0
  0
LINE
  5
319
330
6D
100
AcDbEntity
  8
1
  6
Continuous
 62
     2
100
AcDbLine
 10
-799.7502874053208
 20
-1127.31103043147
 30
0.0
 11
-799.7502874053208
 21
-1069.91103043147
 31
0.0
  0
LINE
  5
31A
330
6D
100
AcDbEntity
  8
1
  6
Continuous
 62
     2
100
AcDbLine
 10
-799.7502874053208
 20
-1127.31103043147
 30
0.0
 11
-804.7502874053184
 21
-1127.31103043147
 31
0.0
  0
LINE
  5
31B
330
6D
100
AcDbEntity
  8
1
  6
Continuous
 62
     2
100
AcDbLine
 10
-1199.750287405319
 20
-1189.71103043147
 30
0.0
 11
-1219.750287405319
 21
-1189.71103043147
 31
0.0
  0
LINE
  5
31C
330
6D
100
AcDbEntity
  8
1
  6
Continuous
 62
     2
100
AcDbLine
 10
-1146.416954071985
 20
-1189.71103043147
 30
0.0
 11
-1146.416954071985
 21
-1184.71103043147
 31
0.0
  0
LINE
  5
31D
330
6D
100
AcDbEntity
  8
1
  6
Continuous
 62
     2
100
AcDbLine
 10
-1146.416954071985
 20
-1189.71103043147
 30
0.0
 11
-1078.083620738652
 21
-1189.71103043147
 31
0.0
  0
LINE
  5
31E
330
6D
100
AcDbEntity
  8
1
  6
Continuous
 62
     6
100
AcDbLine
 10
-1146.416954071985
 20
-1184.71103043147
 30
0.0
 11
-1078.083620738652
 21
-1184.71103043147
 31
0.0
  0
LINE
  5
31F
330
6D
100
AcDbEntity
  8
1
  6
Continuous
 62
     6
100
AcDbLine
 10
-1146.416954071985
 20
-1184.71103043147
 30
0.0
 11
-1199.750287405318
 21
-1184.71103043147
 31
0.0
  0
LINE
  5
320
330
6D
100
AcDbEntity
  8
1
  6
Continuous
 62
     2
100
AcDbLine
 10
-1078.083620738652
 20
-1189.71103043147
 30
0.0
 11
-1078.083620738652
 21
-1184.71103043147
 31
0.0
  0
LINE
  5
321
330
6D
100
AcDbEntity
  8
1
  6
Continuous
 62
     2
100
AcDbLine
 10
-1199.750287405319
 20
-1189.71103043147
 30
0.0
 11
-1199.750287405319
 21
-1185.71103043147
 31
0.0
  0
LINE
  5
322
330
6D
100
AcDbEntity
  8
1
  6
Continuous
 62
     2
100
AcDbLine
 10
-1199.750287405319
 20
-1189.71103043147
 30
0.0
 11
-1146.416954071985
 21
-1189.71103043147
 31
0.0
  0
LINE
  5
323
330
6D
100
AcDbEntity
  8
1
  6
Continuous
 62
     2
100
AcDbLine
 10
-989.7502874053212
 20
-1189.71103043147
 30
0.0
 11
-1009.750287405318
 21
-1189.71103043147
 31
0.0
  0
LINE
  5
324
330
6D
100
AcDbEntity
  8
1
  6
Continuous
 62
     2
100
AcDbLine
 10
-989.7502874053212
 20
-1189.71103043147
 30
0.0
 11
-989.7502874053212
 21
-1185.71103043147
 31
0.0
  0
LINE
  5
325
330
6D
100
AcDbEntity
  8
1
  6
Continuous
 62
     2
100
AcDbLine
 10
-989.7502874053212
 20
-1189.71103043147
 30
0.0
 11
-941.416954071985
 21
-1189.71103043147
 31
0.0
  0
LINE
  5
326
330
6D
100
AcDbEntity
  8
1
  6
Continuous
 62
     2
100
AcDbLine
 10
-941.416954071985
 20
-1189.71103043147
 30
0.0
 11
-873.0836207386518
 21
-1189.71103043147
 31
0.0
  0
LINE
  5
327
330
6D
100
AcDbEntity
  8
1
  6
Continuous
 62
     2
100
AcDbLine
 10
-799.7502874053208
 20
-1189.71103043147
 30
0.0
 11
-804.7502874053183
 21
-1189.71103043147
 31
0.0
  0
LINE
  5
328
330
6D
100
AcDbEntity
  8
1
  6
Continuous
 62
     2
100
AcDbLine
 10
-799.7502874053208
 20
-1184.71103043147
 30
0.0
 11
-799.7502874053208
 21
-1189.71103043147
 31
0.0
  0
LINE
  5
329
330
6D
100
AcDbEntity
  8
1
  6
Continuous
 62
     2
100
AcDbLine
 10
-799.7502874053208
 20
-1184.71103043147
 30
0.0
 11
-799.7502874053208
 21
-1127.31103043147
 31
0.0
  0
LINE
  5
32A
330
6D
100
AcDbEntity
  8
1
  6
Continuous
 62
     2
100
AcDbLine
 10
-799.7502874053208
 20
-892.7110304314699
 30
0.0
 11
-804.7502874053208
 21
-892.7110304314699
 31
0.0
  0
LINE
  5
32B
330
6D
100
AcDbEntity
  8
1
  6
Continuous
 62
     6
100
AcDbLine
 10
-804.7502874053208
 20
-897.7110304314699
 30
0.0
 11
-804.7502874053204
 21
-955.11103043147
 31
0.0
  0
LINE
  5
32C
330
6D
100
AcDbEntity
  8
1
  6
Continuous
 62
     2
100
AcDbLine
 10
-799.7502874053208
 20
-892.7110304314699
 30
0.0
 11
-799.7502874053208
 21
-897.7110304314699
 31
0.0
  0
LINE
  5
32D
330
6D
100
AcDbEntity
  8
1
  6
Continuous
 62
     2
100
AcDbLine
 10
-804.7502874053208
 20
-897.7110304314699
 30
0.0
 11
-804.7502874053208
 21
-892.7110304314699
 31
0.0
  0
LINE
  5
32E
330
6D
100
AcDbEntity
  8
1
  6
Continuous
 62
     2
100
AcDbLine
 10
-804.7502874053208
 20
-897.7110304314699
 30
0.0
 11
-799.7502874053208
 21
-897.7110304314699
 31
0.0
  0
LINE
  5
32F
330
6D
100
AcDbEntity
  8
1
  6
Continuous
 62
     2
100
AcDbLine
 10
-799.7502874053208
 20
-897.7110304314699
 30
0.0
 11
-799.7502874053208
 21
-955.11103043147
 31
0.0
  0
LINE
  5
330
330
6D
100
AcDbEntity
  8
1
  6
Continuous
 62
     2
100
AcDbLine
 10
-804.7502874053204
 20
-955.11103043147
 30
0.0
 11
-799.7502874053208
 21
-955.11103043147
 31
0.0
  0
LINE
  5
331
330
6D
100
AcDbEntity
  8
1
  6
Continuous
 62
     6
100
AcDbLine
 10
-804.7502874053204
 20
-955.11103043147
 30
0.0
 11
-804.7502874053183
 21
-1012.51103043147
 31
0.0
  0
LINE
  5
332
330
6D
100
AcDbEntity
  8
1
  6
Continuous
 62
     2
100
AcDbLine
 10
-799.7502874053208
 20
-955.11103043147
 30
0.0
 11
-799.7502874053208
 21
-1012.51103043147
 31
0.0
  0
LINE
  5
333
330
6D
100
AcDbEntity
  8
1
  6
Continuous
 62
     2
100
AcDbLine
 10
-804.7502874053183
 20
-1012.51103043147
 30
0.0
 11
-799.7502874053208
 21
-1012.51103043147
 31
0.0
  0
LINE
  5
334
330
6D
100
AcDbEntity
  8
1
  6
Continuous
 62
     6
100
AcDbLine
 10
-804.7502874053183
 20
-1012.51103043147
 30
0.0
 11
-804.7502874053183
 21
-1069.91103043147
 31
0.0
  0
LINE
  5
335
330
6D
100
AcDbEntity
  8
1
  6
Continuous
 62
     2
100
AcDbLine
 10
-799.7502874053208
 20
-1012.51103043147
 30
0.0
 11
-799.7502874053208
 21
-1069.91103043147
 31
0.0
  0
LINE
  5
336
330
6D
100
AcDbEntity
  8
1
  6
Continuous
 62
     2
100
AcDbLine
 10
-804.7502874053183
 20
-1069.91103043147
 30
0.0
 11
-799.7502874053208
 21
-1069.91103043147
 31
0.0
  0
LINE
  5
337
330
6D
100
AcDbEntity
  8
1
  6
Continuous
 62
     6
100
AcDbLine
 10
-804.7502874053183
 20
-1069.91103043147
 30
0.0
 11
-804.7502874053184
 21
-1127.31103043147
 31
0.0
  0
LINE
  5
338
330
6D
100
AcDbEntity
  8
1
  6
Continuous
 62
     6
100
AcDbLine
 10
-1199.750287405319
 20
-897.7110304314697
 30
0.0
 11
-1146.416954071985
 21
-897.7110304314697
 31
0.0
  0
LINE
  5
339
330
6D
100
AcDbEntity
  8
1
  6
Continuous
 62
     2
100
AcDbLine
 10
-804.7502874053208
 20
-892.7110304314699
 30
0.0
 11
-873.0836207386518
 21
-892.7110304314699
 31
0.0
  0
LINE
  5
33A
330
6D
100
AcDbEntity
  8
1
  6
Continuous
 62
     2
100
AcDbLine
 10
-873.0836207386518
 20
-897.7110304314699
 30
0.0
 11
-873.0836207386518
 21
-892.7110304314699
 31
0.0
  0
LINE
  5
33B
330
6D
100
AcDbEntity
  8
1
  6
Continuous
 62
     6
100
AcDbLine
 10
-873.0836207386518
 20
-897.7110304314699
 30
0.0
 11
-804.7502874053208
 21
-897.7110304314699
 31
0.0
  0
LINE
  5
33C
330
6D
100
AcDbEntity
  8
1
  6
Continuous
 62
     2
100
AcDbLine
 10
-873.0836207386518
 20
-892.7110304314699
 30
0.0
 11
-941.416954071985
 21
-892.7110304314699
 31
0.0
  0
LINE
  5
33D
330
6D
100
AcDbEntity
  8
1
  6
Continuous
 62
     2
100
AcDbLine
 10
-941.416954071985
 20
-897.7110304314699
 30
0.0
 11
-941.416954071985
 21
-892.7110304314699
 31
0.0
  0
LINE
  5
33E
330
6D
100
AcDbEntity
  8
1
  6
Continuous
 62
     6
100
AcDbLine
 10
-941.416954071985
 20
-897.7110304314699
 30
0.0
 11
-873.0836207386518
 21
-897.7110304314699
 31
0.0
  0
LINE
  5
33F
330
6D
100
AcDbEntity
  8
1
  6
Continuous
 62
     2
100
AcDbLine
 10
-941.416954071985
 20
-892.7110304314699
 30
0.0
 11
-989.7502874053212
 21
-892.7110304314699
 31
0.0
  0
LINE
  5
340
330
6D
100
AcDbEntity
  8
1
  6
Continuous
 62
     2
100
AcDbLine
 10
-1009.750287405318
 20
-897.7110304314699
 30
0.0
 11
-1009.750287405318
 21
-892.7110304314699
 31
0.0
  0
LINE
  5
341
330
6D
100
AcDbEntity
  8
1
  6
Continuous
 62
     6
100
AcDbLine
 10
-1009.750287405318
 20
-897.7110304314699
 30
0.0
 11
-941.416954071985
 21
-897.7110304314699
 31
0.0
  0
LINE
  5
342
330
6D
100
AcDbEntity
  8
1
  6
Continuous
 62
     2
100
AcDbLine
 10
-1009.750287405318
 20
-892.7110304314699
 30
0.0
 11
-1078.083620738652
 21
-892.7110304314699
 31
0.0
  0
LINE
  5
343
330
6D
100
AcDbEntity
  8
1
  6
Continuous
 62
     2
100
AcDbLine
 10
-1078.083620738652
 20
-897.7110304314699
 30
0.0
 11
-1078.083620738652
 21
-892.7110304314699
 31
0.0
  0
LINE
  5
344
330
6D
100
AcDbEntity
  8
1
  6
Continuous
 62
     6
100
AcDbLine
 10
-1078.083620738652
 20
-897.7110304314699
 30
0.0
 11
-1009.750287405318
 21
-897.7110304314699
 31
0.0
  0
LINE
  5
345
330
6D
100
AcDbEntity
  8
1
  6
Continuous
 62
     2
100
AcDbLine
 10
-1078.083620738652
 20
-892.7110304314699
 30
0.0
 11
-1146.416954071985
 21
-892.7110304314699
 31
0.0
  0
LINE
  5
346
330
6D
100
AcDbEntity
  8
1
  6
Continuous
 62
     2
100
AcDbLine
 10
-1146.416954071985
 20
-897.7110304314697
 30
0.0
 11
-1146.416954071985
 21
-892.7110304314699
 31
0.0
  0
LINE
  5
347
330
6D
100
AcDbEntity
  8
1
  6
Continuous
 62
     6
100
AcDbLine
 10
-1146.416954071985
 20
-897.7110304314697
 30
0.0
 11
-1078.083620738652
 21
-897.7110304314699
 31
0.0
  0
LINE
  5
348
330
6D
100
AcDbEntity
  8
1
  6
Continuous
 62
     2
100
AcDbLine
 10
-1146.416954071985
 20
-892.7110304314699
 30
0.0
 11
-1199.750287405319
 21
-892.7110304314699
 31
0.0
  0
LINE
  5
349
330
6D
100
AcDbEntity
  8
1
  6
Continuous
 62
     2
100
AcDbLine
 10
-1199.750287405319
 20
-892.7110304314699
 30
0.0
 11
-1199.750287405319
 21
-896.7110304314697
 31
0.0
  0
LINE
  5
34A
330
6D
100
AcDbEntity
  8
1
  6
Continuous
 62
     2
100
AcDbLine
 10
-1199.750287405319
 20
-892.7110304314699
 30
0.0
 11
-1219.750287405319
 21
-892.7110304314699
 31
0.0
  0
LINE
  5
34B
330
6D
100
AcDbEntity
  8
1
  6
Continuous
 62
     2
100
AcDbLine
 10
-989.7502874053212
 20
-892.7110304314699
 30
0.0
 11
-989.7502874053212
 21
-896.7110304314697
 31
0.0
  0
LINE
  5
34C
330
6D
100
AcDbEntity
  8
1
  6
Continuous
 62
     2
100
AcDbLine
 10
-989.7502874053212
 20
-892.7110304314699
 30
0.0
 11
-1009.750287405318
 21
-892.7110304314699
 31
0.0
  0
LINE
  5
34D
330
6D
100
AcDbEntity
  8
1
  6
Continuous
 62
     2
100
AcDbLine
 10
-1219.750287405319
 20
-892.7110304314699
 30
0.0
 11
-1219.750287405319
 21
-1041.21103043147
 31
0.0
  0
LINE
  5
34E
330
6D
100
AcDbEntity
  8
1
  6
Continuous
 62
     2
100
AcDbLine
 10
-1219.750287405319
 20
-1041.21103043147
 30
0.0
 11
-1209.750287405319
 21
-1041.21103043147
 31
0.0
  0
LINE
  5
34F
330
6D
100
AcDbEntity
  8
1
  6
Continuous
 62
     2
100
AcDbLine
 10
-1219.750287405319
 20
-1041.21103043147
 30
0.0
 11
-1219.750287405319
 21
-1189.71103043147
 31
0.0
  0
LINE
  5
350
330
6D
100
AcDbEntity
  8
1
  6
Continuous
 62
     6
100
AcDbLine
 10
-1199.750287405318
 20
-1184.71103043147
 30
0.0
 11
-1199.750287405319
 21
-897.7110304314697
 31
0.0
  0
LINE
  5
351
330
6D
100
AcDbEntity
  8
1
  6
Continuous
 62
     6
100
AcDbLine
 10
-804.7502874053184
 20
-1184.71103043147
 30
0.0
 11
-804.7502874053188
 21
-1176.21103043147
 31
0.0
  0
LINE
  5
352
330
6D
100
AcDbEntity
  8
1
  6
Continuous
 62
     6
100
AcDbLine
 10
-1078.083620738652
 20
-1184.71103043147
 30
0.0
 11
-1056.750287405318
 21
-1184.71103043147
 31
0.0
  0
LINE
  5
353
330
6D
100
AcDbEntity
  8
1
  6
Continuous
 62
     2
100
AcDbLine
 10
-833.3095507205277
 20
-1169.261249710503
 30
0.0
 11
-833.3095507205276
 21
-1171.318645675356
 31
0.0
  0
LINE
  5
354
330
6D
100
AcDbEntity
  8
1
  6
Continuous
 62
     7
100
AcDbLine
 10
-868.250287405316
 20
-1167.71103043147
 30
0.0
 11
-868.250287405316
 21
-1163.46103043147
 31
0.0
  0
LINE
  5
355
330
6D
100
AcDbEntity
  8
1
  6
Continuous
 62
     7
100
AcDbLine
 10
-868.250287405316
 20
-1163.46103043147
 30
0.0
 11
-874.9950919320702
 21
-1163.46103043147
 31
0.0
  0
ARC
  5
356
102
{ACAD_REACTORS
330
402
330
402
330
403
330
403
102
}
330
6D
100
AcDbEntity
  8
0
  6
Continuous
 62
     2
100
AcDbCircle
 10
-918.4160439990452
 20
-1177.599125669559
 30
0.0
 40
0.6378510567600505
100
AcDbArc
 50
321.8795802028355
 51
38.12041979716452
  0
ARC
  5
357
102
{ACAD_REACTORS
330
402
330
402
330
403
330
403
102
}
330
6D
100
AcDbEntity
  8
0
  6
Continuous
 62
     2
100
AcDbCircle
 10
-918.2509695888415
 20
-1177.728655568832
 30
0.0
 40
0.4280236140609378
100
AcDbArc
 50
218.1204197971633
 51
321.8795802028085
  0
ARC
  5
358
102
{ACAD_REACTORS
330
402
330
402
330
403
330
403
102
}
330
6D
100
AcDbEntity
  8
0
  6
Continuous
 62
     2
100
AcDbCircle
 10
-918.0858951786382
 20
-1177.599125669559
 30
0.0
 40
0.637851056759961
100
AcDbArc
 50
141.8795802028292
 51
218.1204197971708
  0
ARC
  5
359
102
{ACAD_REACTORS
330
402
330
402
330
403
330
403
102
}
330
6D
100
AcDbEntity
  8
0
  6
Continuous
 62
     2
100
AcDbCircle
 10
-918.2509695888415
 20
-1177.469595770286
 30
0.0
 40
0.4280236140606695
100
AcDbArc
 50
38.1204197971915
 51
141.8795802028367
  0
ARC
  5
35A
102
{ACAD_REACTORS
330
3FA
330
3FA
330
3FB
330
3FB
102
}
330
6D
100
AcDbEntity
  8
0
  6
Continuous
 62
     2
100
AcDbCircle
 10
-920.7815597835225
 20
-1178.764800351715
 30
0.0
 40
1.840813230556213
100
AcDbArc
 50
58.06909105002977
 51
71.55192388186956
  0
ARC
  5
35B
102
{ACAD_REACTORS
330
3FA
330
3FA
330
3FB
330
3FB
102
}
330
6D
100
AcDbEntity
  8
0
  6
Continuous
 62
     2
100
AcDbCircle
 10
-920.5652558984326
 20
-1177.429645149445
 30
0.0
 40
0.4227934381778725
100
AcDbArc
 50
113.3722778881805
 51
151.4785267422638
  0
ARC
  5
35C
102
{ACAD_REACTORS
330
3FA
330
3FA
330
3FB
330
3FB
102
}
330
6D
100
AcDbEntity
  8
0
  6
Continuous
 62
     2
100
AcDbCircle
 10
-920.2533903958869
 20
-1177.599125669559
 30
0.0
 40
0.7777353184570868
100
AcDbArc
 50
151.4785267422948
 51
208.5214732577052
  0
ARC
  5
35D
102
{ACAD_REACTORS
330
3FA
330
3FA
330
3FB
330
3FB
102
}
330
6D
100
AcDbEntity
  8
0
  6
Continuous
 62
     2
100
AcDbCircle
 10
-920.9120332340125
 20
-1174.86137282224
 30
0.0
 40
4.010410630990424
100
AcDbArc
 50
275.1581447696242
 51
285.9799912583509
  0
ARC
  5
35E
102
{ACAD_REACTORS
330
3FA
330
3FA
330
3FB
330
3FB
102
}
330
6D
100
AcDbEntity
  8
0
  6
Continuous
 62
     2
100
AcDbCircle
 10
-920.6733091887762
 20
-1177.505910494324
 30
0.0
 40
1.35511993714002
100
AcDbArc
 50
195.0618917770906
 51
275.1581447696393
  0
ARC
  5
35F
102
{ACAD_REACTORS
330
3FA
330
3FA
330
3FB
330
3FB
102
}
330
6D
100
AcDbEntity
  8
0
  6
Continuous
 62
     2
100
AcDbCircle
 10
-921.0196958362661
 20
-1177.599125669559
 30
0.0
 40
0.9964100565212273
100
AcDbArc
 50
164.9381082229301
 51
195.0618917771204
  0
ARC
  5
360
102
{ACAD_REACTORS
330
3FA
330
3FA
330
3FB
330
3FB
102
}
330
6D
100
AcDbEntity
  8
0
  6
Continuous
 62
     2
100
AcDbCircle
 10
-920.6733091887762
 20
-1177.692340844795
 30
0.0
 40
1.355119937141545
100
AcDbArc
 50
84.84185523036508
 51
164.9381082229094
  0
ARC
  5
361
102
{ACAD_REACTORS
330
3FE
330
3FE
330
3FF
330
3FF
102
}
330
6D
100
AcDbEntity
  8
0
  6
Continuous
 62
     2
100
AcDbCircle
 10
-924.6650565062654
 20
-1176.744723360176
 30
0.0
 40
0.2609230769232637
100
AcDbArc
 50
115.3740086783036
 51
180.0
  0
ARC
  5
362
102
{ACAD_REACTORS
330
3FE
330
3FE
330
3FF
330
3FF
102
}
330
6D
100
AcDbEntity
  8
0
  6
Continuous
 62
     2
100
AcDbCircle
 10
-924.6650565062654
 20
-1174.911431459402
 30
0.0
 40
0.2609230769229498
100
AcDbArc
 50
180.0
 51
244.6259913216964
  0
ARC
  5
363
102
{ACAD_REACTORS
330
3FE
330
3FE
330
3FF
330
3FF
102
}
330
6D
100
AcDbEntity
  8
0
  6
Continuous
 62
     2
100
AcDbCircle
 10
-924.6604150721249
 20
-1175.818290681767
 30
0.0
 40
1.668232340440956
100
AcDbArc
 50
269.8110329575862
 51
90.18896704241386
  0
ARC
  5
364
102
{ACAD_REACTORS
330
3FE
330
3FE
330
3FF
330
3FF
102
}
330
6D
100
AcDbEntity
  8
0
  6
Continuous
 62
     2
100
AcDbCircle
 10
-924.6650565062654
 20
-1177.225592291328
 30
0.0
 40
0.2609230769229498
100
AcDbArc
 50
180.0
 51
269.8110329574468
  0
ARC
  5
365
102
{ACAD_REACTORS
330
3FC
330
3FC
330
3FD
330
3FD
102
}
330
6D
100
AcDbEntity
  8
0
  6
Continuous
 62
     2
100
AcDbCircle
 10
-907.2572381469839
 20
-1177.429645149445
 30
0.0
 40
0.4227934381776318
100
AcDbArc
 50
109.3371432194667
 51
151.4785267423226
  0
ARC
  5
366
102
{ACAD_REACTORS
330
3FC
330
3FC
330
3FD
330
3FD
102
}
330
6D
100
AcDbEntity
  8
0
  6
Continuous
 62
     2
100
AcDbCircle
 10
-907.2572381469839
 20
-1177.768606189674
 30
0.0
 40
0.4227934381785061
100
AcDbArc
 50
208.5214732576774
 51
246.6277221118336
  0
ARC
  5
367
102
{ACAD_REACTORS
330
3FC
330
3FC
330
3FD
330
3FD
102
}
330
6D
100
AcDbEntity
  8
0
  6
Continuous
 62
     2
100
AcDbCircle
 10
-907.7116780848165
 20
-1177.599125669559
 30
0.0
 40
0.9964100565228741
100
AcDbArc
 50
164.9381082229556
 51
195.0618917770949
  0
ARC
  5
368
102
{ACAD_REACTORS
330
3FC
330
3FC
330
3FD
330
3FD
102
}
330
6D
100
AcDbEntity
  8
0
  6
Continuous
 62
     2
100
AcDbCircle
 10
-907.3652914373275
 20
-1177.692340844795
 30
0.0
 40
1.355119937140898
100
AcDbArc
 50
90.0
 51
164.9381082229181
  0
ARC
  5
369
102
{ACAD_REACTORS
330
400
330
400
330
401
330
401
102
}
330
6D
100
AcDbEntity
  8
0
  6
Continuous
 62
     2
100
AcDbCircle
 10
-915.1561964726199
 20
-1174.822935193382
 30
0.0
 40
1.261904761904816
100
AcDbArc
 50
90.0
 51
270.0
  0
ARC
  5
36A
102
{ACAD_REACTORS
330
404
330
404
330
405
330
405
102
}
330
6D
100
AcDbEntity
  8
0
  6
Continuous
 62
     2
100
AcDbCircle
 10
-920.7286681628891
 20
-1174.40067478694
 30
0.0
 40
0.2916229955958443
100
AcDbArc
 50
270.0
 51
90.0
  0
ARC
  5
36B
102
{ACAD_REACTORS
330
3FE
330
3FE
330
3FF
330
3FF
102
}
330
6D
100
AcDbEntity
  8
0
  6
Continuous
 62
     2
100
AcDbCircle
 10
-926.7936091397627
 20
-1174.410842397291
 30
0.0
 40
0.2609230769228361
100
AcDbArc
 50
90.0
 51
180.0
  0
ARC
  5
36C
102
{ACAD_REACTORS
330
3FE
330
3FE
330
3FF
330
3FF
102
}
330
6D
100
AcDbEntity
  8
0
  6
Continuous
 62
     2
100
AcDbCircle
 10
-925.142024256635
 20
-1175.828077409789
 30
0.0
 40
0.7536343169905662
100
AcDbArc
 50
115.1944106484949
 51
244.8055893514683
  0
ARC
  5
36D
102
{ACAD_REACTORS
330
3FE
330
3FE
330
3FF
330
3FF
102
}
330
6D
100
AcDbEntity
  8
0
  6
Continuous
 62
     2
100
AcDbCircle
 10
-925.5739122298374
 20
-1176.746118522237
 30
0.0
 40
0.2609230769228361
100
AcDbArc
 50
0.0
 51
64.80558935145723
  0
ARC
  5
36E
102
{ACAD_REACTORS
330
3FE
330
3FE
330
3FF
330
3FF
102
}
330
6D
100
AcDbEntity
  8
0
  6
Continuous
 62
     2
100
AcDbCircle
 10
-927.2844311866606
 20
-1178.51041504685
 30
0.0
 40
0.3506153846138886
100
AcDbArc
 50
180.0
 51
270.0
  0
ARC
  5
36F
102
{ACAD_REACTORS
330
400
330
400
330
401
330
401
102
}
330
6D
100
AcDbEntity
  8
0
  6
Continuous
 62
     2
100
AcDbCircle
 10
-914.9774592741362
 20
-1174.693405294109
 30
0.0
 40
0.4280236140608484
100
AcDbArc
 50
38.12041979717272
 51
141.8795802028273
  0
ARC
  5
370
102
{ACAD_REACTORS
330
400
330
400
330
401
330
401
102
}
330
6D
100
AcDbEntity
  8
0
  6
Continuous
 62
     2
100
AcDbCircle
 10
-914.8123848639327
 20
-1174.822935193382
 30
0.0
 40
0.6378510567600505
100
AcDbArc
 50
141.8795802028355
 51
218.1204197971645
  0
ARC
  5
371
102
{ACAD_REACTORS
330
402
330
402
330
403
330
403
102
}
330
6D
100
AcDbEntity
  8
0
  6
Continuous
 62
     2
100
AcDbCircle
 10
-918.2509695888415
 20
-1177.154022355259
 30
0.0
 40
1.707008076205781
100
AcDbArc
 50
242.4518518243417
 51
297.5481481756786
  0
ARC
  5
372
102
{ACAD_REACTORS
330
402
330
402
330
403
330
403
102
}
330
6D
100
AcDbEntity
  8
0
  6
Continuous
 62
     2
100
AcDbCircle
 10
-918.2509695888415
 20
-1178.044228983859
 30
0.0
 40
1.707008076205289
100
AcDbArc
 50
62.45185182430729
 51
117.5481481756724
  0
ARC
  5
373
102
{ACAD_REACTORS
330
402
330
402
330
403
330
403
102
}
330
6D
100
AcDbEntity
  8
0
  6
Continuous
 62
     2
100
AcDbCircle
 10
-918.4831513176294
 20
-1177.599125669559
 30
0.0
 40
1.204986845992721
100
AcDbArc
 50
117.5481481756702
 51
242.4518518243497
  0
ARC
  5
374
102
{ACAD_REACTORS
330
402
330
402
330
403
330
403
102
}
330
6D
100
AcDbEntity
  8
0
  6
Continuous
 62
     2
100
AcDbCircle
 10
-918.0187878600537
 20
-1177.599125669559
 30
0.0
 40
1.204986845993948
100
AcDbArc
 50
297.5481481756886
 51
62.45185182429142
  0
ARC
  5
375
102
{ACAD_REACTORS
330
400
330
400
330
401
330
401
102
}
330
6D
100
AcDbEntity
  8
0
  6
Continuous
 62
     2
100
AcDbCircle
 10
-914.9774592741362
 20
-1174.952465092655
 30
0.0
 40
0.428023614060708
100
AcDbArc
 50
218.1204197971487
 51
321.8795802028513
  0
ARC
  5
376
102
{ACAD_REACTORS
330
400
330
400
330
401
330
401
102
}
330
6D
100
AcDbEntity
  8
0
  6
Continuous
 62
     2
100
AcDbCircle
 10
-915.1425336843396
 20
-1174.822935193382
 30
0.0
 40
0.637851056759961
100
AcDbArc
 50
321.8795802028292
 51
38.12041979717083
  0
ARC
  5
377
102
{ACAD_REACTORS
330
3FE
330
3FE
330
3FF
330
3FF
102
}
330
6D
100
AcDbEntity
  8
0
  6
Continuous
 62
     2
100
AcDbCircle
 10
-922.7610327645806
 20
-1178.51041504685
 30
0.0
 40
0.3506153846149118
100
AcDbArc
 50
270.0
 51
0.0
  0
ARC
  5
378
102
{ACAD_REACTORS
330
3FE
330
3FE
330
3FF
330
3FF
102
}
330
6D
100
AcDbEntity
  8
0
  6
Continuous
 62
     2
100
AcDbCircle
 10
-922.7610327645806
 20
-1173.911645816106
 30
0.0
 40
0.3506153846149118
100
AcDbArc
 50
0.0
 51
90.0
  0
ARC
  5
379
102
{ACAD_REACTORS
330
3FE
330
3FE
330
3FF
330
3FF
102
}
330
6D
100
AcDbEntity
  8
0
  6
Continuous
 62
     2
100
AcDbCircle
 10
-927.2844311866606
 20
-1173.911645816106
 30
0.0
 40
0.3506153846140023
100
AcDbArc
 50
90.0
 51
180.0
  0
ARC
  5
37A
102
{ACAD_REACTORS
330
3FE
330
3FE
330
3FF
330
3FF
102
}
330
6D
100
AcDbEntity
  8
0
  6
Continuous
 62
     2
100
AcDbCircle
 10
-925.5739122298374
 20
-1178.011218465652
 30
0.0
 40
0.2609230769219266
100
AcDbArc
 50
270.0
 51
0.0
  0
ARC
  5
37B
102
{ACAD_REACTORS
330
3FE
330
3FE
330
3FF
330
3FF
102
}
330
6D
100
AcDbEntity
  8
0
  6
Continuous
 62
     2
100
AcDbCircle
 10
-925.5739122298374
 20
-1174.91003629734
 30
0.0
 40
0.2609230769225737
100
AcDbArc
 50
295.1944106485428
 51
0.0
  0
ARC
  5
37C
102
{ACAD_REACTORS
330
3FE
330
3FE
330
3FF
330
3FF
102
}
330
6D
100
AcDbEntity
  8
0
  6
Continuous
 62
     2
100
AcDbCircle
 10
-925.5739122298374
 20
-1174.410842397291
 30
0.0
 40
0.2609230769228361
100
AcDbArc
 50
0.0
 51
90.0
  0
ARC
  5
37D
102
{ACAD_REACTORS
330
3FE
330
3FE
330
3FF
330
3FF
102
}
330
6D
100
AcDbEntity
  8
0
  6
Continuous
 62
     2
100
AcDbCircle
 10
-926.7936091397627
 20
-1178.011218465652
 30
0.0
 40
0.2609230769220403
100
AcDbArc
 50
180.0
 51
270.0
  0
ARC
  5
37E
102
{ACAD_REACTORS
330
404
330
404
330
405
330
405
102
}
330
6D
100
AcDbEntity
  8
0
  6
Continuous
 62
     2
100
AcDbCircle
 10
-920.3638148354194
 20
-1174.433233440843
 30
0.0
 40
0.8722030093670128
100
AcDbArc
 50
270.0
 51
90.0
  0
ARC
  5
37F
102
{ACAD_REACTORS
330
3FC
330
3FC
330
3FD
330
3FD
102
}
330
6D
100
AcDbEntity
  8
0
  6
Continuous
 62
     2
100
AcDbCircle
 10
-907.3652914373275
 20
-1177.505910494324
 30
0.0
 40
1.355119937140789
100
AcDbArc
 50
195.0618917770819
 51
275.1581447696775
  0
ARC
  5
380
102
{ACAD_REACTORS
330
3FC
330
3FC
330
3FD
330
3FD
102
}
330
6D
100
AcDbEntity
  8
0
  6
Continuous
 62
     2
100
AcDbCircle
 10
-907.6040154825638
 20
-1174.86137282224
 30
0.0
 40
4.010410630990505
100
AcDbArc
 50
275.1581447696372
 51
285.9799912583384
  0
ARC
  5
381
102
{ACAD_REACTORS
330
3FC
330
3FC
330
3FD
330
3FD
102
}
330
6D
100
AcDbEntity
  8
0
  6
Continuous
 62
     2
100
AcDbCircle
 10
-907.4735420320739
 20
-1176.433450987404
 30
0.0
 40
1.840813230556274
100
AcDbArc
 50
288.4480761181304
 51
301.9309089499462
  0
ARC
  5
382
102
{ACAD_REACTORS
330
3FC
330
3FC
330
3FD
330
3FD
102
}
330
6D
100
AcDbEntity
  8
0
  6
Continuous
 62
     2
100
AcDbCircle
 10
-907.1279488637582
 20
-1177.469439232062
 30
0.0
 40
0.7487023016409623
100
AcDbArc
 50
246.6277221118237
 51
288.4480761180652
  0
ARC
  5
383
102
{ACAD_REACTORS
330
3FC
330
3FC
330
3FD
330
3FD
102
}
330
6D
100
AcDbEntity
  8
0
  6
Continuous
 62
     2
100
AcDbCircle
 10
-906.9453726444373
 20
-1177.599125669559
 30
0.0
 40
0.777735318458685
100
AcDbArc
 50
151.4785267423588
 51
208.5214732577001
  0
ARC
  5
384
102
{ACAD_REACTORS
330
3FC
330
3FC
330
3FD
330
3FD
102
}
330
6D
100
AcDbEntity
  8
0
  6
Continuous
 62
     2
100
AcDbCircle
 10
-907.1360232725181
 20
-1177.775062488604
 30
0.0
 40
0.788861989113002
100
AcDbArc
 50
90.0
 51
109.3371432194318
  0
ARC
  5
385
102
{ACAD_REACTORS
330
3FE
330
3FE
330
3FF
330
3FF
102
}
330
6D
100
AcDbEntity
  8
0
  6
Continuous
 62
     2
100
AcDbCircle
 10
-924.6650565062654
 20
-1174.410989072206
 30
0.0
 40
0.2609230769216719
100
AcDbArc
 50
90.18896704255407
 51
180.0
  0
ARC
  5
386
102
{ACAD_REACTORS
330
3FE
330
3FE
330
3FF
330
3FF
102
}
330
6D
100
AcDbEntity
  8
0
  6
Continuous
 62
     2
100
AcDbCircle
 10
-925.099802537743
 20
-1175.828077409789
 30
0.0
 40
0.7535935125154551
100
AcDbArc
 50
295.3740086782012
 51
64.6259913218062
  0
ARC
  5
387
102
{ACAD_REACTORS
330
3FA
330
3FA
330
3FB
330
3FB
102
}
330
6D
100
AcDbEntity
  8
0
  6
Continuous
 62
     2
100
AcDbCircle
 10
-920.7815597835225
 20
-1176.433450987403
 30
0.0
 40
1.840813230556274
100
AcDbArc
 50
288.4480761181304
 51
301.9309089499515
  0
ARC
  5
388
102
{ACAD_REACTORS
330
3FA
330
3FA
330
3FB
330
3FB
102
}
330
6D
100
AcDbEntity
  8
0
  6
Continuous
 62
     2
100
AcDbCircle
 10
-920.4359666152078
 20
-1177.469439232062
 30
0.0
 40
0.7487023016406467
100
AcDbArc
 50
246.6277221118796
 51
288.4480761181587
  0
ARC
  5
389
102
{ACAD_REACTORS
330
3FA
330
3FA
330
3FB
330
3FB
102
}
330
6D
100
AcDbEntity
  8
0
  6
Continuous
 62
     2
100
AcDbCircle
 10
-920.5652558984326
 20
-1177.768606189674
 30
0.0
 40
0.4227934381772727
100
AcDbArc
 50
208.5214732576279
 51
246.6277221118195
  0
ARC
  5
38A
102
{ACAD_REACTORS
330
3FA
330
3FA
330
3FB
330
3FB
102
}
330
6D
100
AcDbEntity
  8
0
  6
Continuous
 62
     2
100
AcDbCircle
 10
-920.4359666152078
 20
-1177.728812107057
 30
0.0
 40
0.7487023016413397
100
AcDbArc
 50
71.5519238818688
 51
113.3722778881204
  0
ARC
  5
38B
102
{ACAD_REACTORS
330
3FA
330
3FA
330
3FB
330
3FB
102
}
330
6D
100
AcDbEntity
  8
0
  6
Continuous
 62
     2
100
AcDbCircle
 10
-920.9120332340125
 20
-1180.336878516878
 30
0.0
 40
4.01041063098956
100
AcDbArc
 50
74.02000874164463
 51
84.84185523037571
  0
CIRCLE
  5
38C
102
{ACAD_REACTORS
330
3FE
330
3FE
330
3FF
330
3FF
102
}
330
6D
100
AcDbEntity
  8
0
  6
Continuous
 62
     2
100
AcDbCircle
 10
-925.1194843680511
 20
-1175.828077409789
 30
0.0
 40
0.3892387874202541
  0
CIRCLE
  5
38D
330
6D
100
AcDbEntity
  8
1
  6
Continuous
 62
     2
100
AcDbCircle
 10
-929.2028321069668
 20
-1169.83603043147
 30
0.0
 40
1.0
  0
CIRCLE
  5
38E
330
6D
100
AcDbEntity
  8
1
  6
Continuous
 62
     2
100
AcDbCircle
 10
-929.2028321069668
 20
-1169.83603043147
 30
0.0
 40
1.5
  0
MTEXT
  5
390
330
6D
100
AcDbEntity
  8
1
 62
     2
100
AcDbMText
 10
-1036.05028740532
 20
-1178.33603043147
 30
0.0
 40
2.0
 41
0.0
 71
     4
 72
     1
  1
 
  7
CONVERTER_12
 73
     1
 44
1.20048019207683
  0
MTEXT
  5
391
330
6D
100
AcDbEntity
  8
1
 62
     2
100
AcDbMText
 10
-1036.05028740532
 20
-1174.08603043147
 30
0.0
 40
2.0
 41
0.0
 71
     4
 72
     1
  1
 
  7
CONVERTER_12
 73
     1
 44
1.20048019207683
  0
MTEXT
  5
392
330
6D
100
AcDbEntity
  8
1
 62
     2
100
AcDbMText
 10
-1036.05028740532
 20
-1169.83603043147
 30
0.0
 40
2.0
 41
0.0
 71
     4
 72
     1
  1
 
  7
CONVERTER_12
 73
     1
 44
1.20048019207683
  0
MTEXT
  5
393
330
6D
100
AcDbEntity
  8
1
 62
     2
100
AcDbMText
 10
-1036.05028740532
 20
-1165.58603043147
 30
0.0
 40
2.0
 41
0.0
 71
     4
 72
     1
  1
 
  7
CONVERTER_12
 73
     1
 44
1.20048019207683
  0
MTEXT
  5
394
330
6D
100
AcDbEntity
  8
1
 62
     2
100
AcDbMText
 10
-1036.05028740532
 20
-1161.33603043147
 30
0.0
 40
2.0
 41
0.0
 71
     4
 72
     1
  1
 
  7
CONVERTER_12
 73
     1
 44
1.20048019207683
  0
MTEXT
  5
395
330
6D
100
AcDbEntity
  8
1
 62
     2
100
AcDbMText
 10
-1036.05028740532
 20
-1157.08603043147
 30
0.0
 40
2.0
 41
0.0
 71
     4
 72
     1
  1
 
  7
CONVERTER_12
 73
     1
 44
1.20048019207683
  0
MTEXT
  5
396
330
6D
100
AcDbEntity
  8
1
 62
     2
100
AcDbMText
 10
-941.0450919320701
 20
-1178.33603043147
 30
0.0
 40
2.0
 41
0.0
 71
     5
 72
     1
  1
 
  7
CONVERTER_11
 73
     1
 44
1.20048019207683
  0
MTEXT
  5
397
330
6D
100
AcDbEntity
  8
1
 62
     2
100
AcDbMText
 10
-941.0450919320701
 20
-1174.08603043147
 30
0.0
 40
2.0
 41
0.0
 71
     5
 72
     1
  1
 
  7
CONVERTER_11
 73
     1
 44
1.20048019207683
  0
MTEXT
  5
398
330
6D
100
AcDbEntity
  8
1
 62
     2
100
AcDbMText
 10
-941.0450919320701
 20
-1169.83603043147
 30
0.0
 40
2.0
 41
0.0
 71
     5
 72
     1
  1
 
  7
CONVERTER_11
 73
     1
 44
1.20048019207683
  0
MTEXT
  5
399
330
6D
100
AcDbEntity
  8
1
 62
     2
100
AcDbMText
 10
-941.0450919320701
 20
-1165.58603043147
 30
0.0
 40
2.0
 41
0.0
 71
     5
 72
     1
  1
 
  7
CONVERTER_11
 73
     1
 44
1.20048019207683
  0
MTEXT
  5
39A
330
6D
100
AcDbEntity
  8
1
 62
     2
100
AcDbMText
 10
-941.0450919320701
 20
-1161.33603043147
 30
0.0
 40
2.0
 41
0.0
 71
     5
 72
     1
  1
 
  7
CONVERTER_11
 73
     1
 44
1.20048019207683
  0
MTEXT
  5
39B
330
6D
100
AcDbEntity
  8
1
 62
     2
100
AcDbMText
 10
-941.0450919320701
 20
-1157.08603043147
 30
0.0
 40
2.0
 41
0.0
 71
     5
 72
     1
  1
 
  7
CONVERTER_11
 73
     1
 44
1.20048019207683
  0
MTEXT
  5
39C
330
6D
100
AcDbEntity
  8
1
 62
     2
100
AcDbMText
 10
-954.5450919320701
 20
-1178.33603043147
 30
0.0
 40
2.0
 41
0.0
 71
     5
 72
     1
  1
 
  7
CONVERTER_11
 73
     1
 44
1.20048019207683
  0
MTEXT
  5
39D
330
6D
100
AcDbEntity
  8
1
 62
     2
100
AcDbMText
 10
-954.54509193207
 20
-1174.08603043147
 30
0.0
 40
2.0
 41
0.0
 71
     5
 72
     1
  1
 
  7
CONVERTER_11
 73
     1
 44
1.20048019207683
  0
MTEXT
  5
39E
330
6D
100
AcDbEntity
  8
1
 62
     2
100
AcDbMText
 10
-954.54509193207
 20
-1169.83603043147
 30
0.0
 40
2.0
 41
0.0
 71
     5
 72
     1
  1
 
  7
CONVERTER_11
 73
     1
 44
1.20048019207683
  0
MTEXT
  5
39F
330
6D
100
AcDbEntity
  8
1
 62
     2
100
AcDbMText
 10
-954.54509193207
 20
-1165.58603043147
 30
0.0
 40
2.0
 41
0.0
 71
     5
 72
     1
  1
 
  7
CONVERTER_11
 73
     1
 44
1.20048019207683
  0
MTEXT
  5
3A0
330
6D
100
AcDbEntity
  8
1
 62
     2
100
AcDbMText
 10
-954.54509193207
 20
-1161.33603043147
 30
0.0
 40
2.0
 41
0.0
 71
     5
 72
     1
  1
 
  7
CONVERTER_11
 73
     1
 44
1.20048019207683
  0
MTEXT
  5
3A1
330
6D
100
AcDbEntity
  8
1
 62
     2
100
AcDbMText
 10
-954.54509193207
 20
-1157.08603043147
 30
0.0
 40
2.0
 41
0.0
 71
     5
 72
     1
  1
 
  7
CONVERTER_11
 73
     1
 44
1.20048019207683
  0
MTEXT
  5
3A2
330
6D
100
AcDbEntity
  8
1
 62
     2
100
AcDbMText
 10
-968.04509193207
 20
-1157.08603043147
 30
0.0
 40
2.0
 41
0.0
 71
     5
 72
     1
  1
 
  7
CONVERTER_11
 73
     1
 44
1.20048019207683
  0
MTEXT
  5
3A3
330
6D
100
AcDbEntity
  8
1
 62
     2
100
AcDbMText
 10
-968.04509193207
 20
-1161.33603043147
 30
0.0
 40
2.0
 41
0.0
 71
     5
 72
     1
  1
 
  7
CONVERTER_11
 73
     1
 44
1.20048019207683
  0
MTEXT
  5
3A4
330
6D
100
AcDbEntity
  8
1
 62
     2
100
AcDbMText
 10
-968.04509193207
 20
-1165.58603043147
 30
0.0
 40
2.0
 41
0.0
 71
     5
 72
     1
  1
 
  7
CONVERTER_11
 73
     1
 44
1.20048019207683
  0
MTEXT
  5
3A5
330
6D
100
AcDbEntity
  8
1
 62
     2
100
AcDbMText
 10
-968.04509193207
 20
-1169.83603043147
 30
0.0
 40
2.0
 41
0.0
 71
     5
 72
     1
  1
 
  7
CONVERTER_11
 73
     1
 44
1.20048019207683
  0
MTEXT
  5
3A6
330
6D
100
AcDbEntity
  8
1
 62
     2
100
AcDbMText
 10
-968.04509193207
 20
-1174.08603043147
 30
0.0
 40
2.0
 41
0.0
 71
     5
 72
     1
  1
 
  7
CONVERTER_11
 73
     1
 44
1.20048019207683
  0
MTEXT
  5
3A7
330
6D
100
AcDbEntity
  8
1
 62
     2
100
AcDbMText
 10
-968.04509193207
 20
-1178.33603043147
 30
0.0
 40
2.0
 41
0.0
 71
     5
 72
     1
  1
 
  7
CONVERTER_11
 73
     1
 44
1.20048019207683
  0
MTEXT
  5
3A8
330
6D
100
AcDbEntity
  8
1
 62
     2
100
AcDbMText
 10
-1043.80028740532
 20
-1157.08603043147
 30
0.0
 40
2.0
 41
0.0
 71
     5
 72
     1
  1
 
  7
CONVERTER_11
 73
     1
 44
1.20048019207683
  0
MTEXT
  5
3A9
330
6D
100
AcDbEntity
  8
1
 62
     2
100
AcDbMText
 10
-1043.80028740532
 20
-1161.33603043147
 30
0.0
 40
2.0
 41
0.0
 71
     5
 72
     1
  1
 
  7
CONVERTER_11
 73
     1
 44
1.20048019207683
  0
MTEXT
  5
3AA
330
6D
100
AcDbEntity
  8
1
 62
     2
100
AcDbMText
 10
-1043.80028740532
 20
-1165.58603043147
 30
0.0
 40
2.0
 41
0.0
 71
     5
 72
     1
  1
 
  7
CONVERTER_11
 73
     1
 44
1.20048019207683
  0
MTEXT
  5
3AB
330
6D
100
AcDbEntity
  8
1
 62
     2
100
AcDbMText
 10
-1043.80028740532
 20
-1169.83603043147
 30
0.0
 40
2.0
 41
0.0
 71
     5
 72
     1
  1
 
  7
CONVERTER_11
 73
     1
 44
1.20048019207683
  0
MTEXT
  5
3AC
330
6D
100
AcDbEntity
  8
1
 62
     2
100
AcDbMText
 10
-1043.80028740532
 20
-1174.08603043147
 30
0.0
 40
2.0
 41
0.0
 71
     5
 72
     1
  1
 
  7
CONVERTER_11
 73
     1
 44
1.20048019207683
  0
MTEXT
  5
3AD
330
6D
100
AcDbEntity
  8
1
 62
     2
100
AcDbMText
 10
-1043.80028740532
 20
-1178.33603043147
 30
0.0
 40
2.0
 41
0.0
 71
     5
 72
     1
  1
 
  7
CONVERTER_11
 73
     1
 44
1.20048019207683
  0
MTEXT
  5
3AE
330
6D
100
AcDbEntity
  8
1
 62
     2
100
AcDbMText
 10
-1053.650287405319
 20
-1178.33603043147
 30
0.0
 40
2.0
 41
0.0
 71
     5
 72
     1
  1
 
  7
CONVERTER_11
 73
     1
 44
1.20048019207683
  0
MTEXT
  5
3AF
330
6D
100
AcDbEntity
  8
1
 62
     2
100
AcDbMText
 10
-1053.650287405319
 20
-1174.08603043147
 30
0.0
 40
2.0
 41
0.0
 71
     5
 72
     1
  1
 
  7
CONVERTER_11
 73
     1
 44
1.20048019207683
  0
MTEXT
  5
3B0
330
6D
100
AcDbEntity
  8
1
 62
     2
100
AcDbMText
 10
-1053.650287405319
 20
-1169.83603043147
 30
0.0
 40
2.0
 41
0.0
 71
     5
 72
     1
  1
 
  7
CONVERTER_11
 73
     1
 44
1.20048019207683
  0
MTEXT
  5
3B1
330
6D
100
AcDbEntity
  8
1
 62
     2
100
AcDbMText
 10
-1053.650287405319
 20
-1165.58603043147
 30
0.0
 40
2.0
 41
0.0
 71
     5
 72
     1
  1
 
  7
CONVERTER_11
 73
     1
 44
1.20048019207683
  0
MTEXT
  5
3B2
330
6D
100
AcDbEntity
  8
1
 62
     2
100
AcDbMText
 10
-1053.650287405319
 20
-1161.33603043147
 30
0.0
 40
2.0
 41
0.0
 71
     5
 72
     1
  1
 
  7
CONVERTER_11
 73
     1
 44
1.20048019207683
  0
MTEXT
  5
3B3
330
6D
100
AcDbEntity
  8
1
 62
     2
100
AcDbMText
 10
-1053.650287405319
 20
-1157.08603043147
 30
0.0
 40
2.0
 41
0.0
 71
     5
 72
     1
  1
 
  7
CONVERTER_11
 73
     1
 44
1.20048019207683
  0
MTEXT
  5
3B4
330
6D
100
AcDbEntity
  8
1
 62
     2
100
AcDbMText
 10
-848.7502874053165
 20
-1168.71103043147
 30
0.0
 40
1.8
 41
0.0
 71
     1
 72
     1
  1
surface in um
  7
CONVERTER_11
 73
     1
 44
1.32052821128451
  0
MTEXT
  5
3B5
330
6D
100
AcDbEntity
  8
1
 62
     2
100
AcDbMText
 10
-821.3318791236394
 20
-1155.96103043147
 30
0.0
 40
1.8
 41
0.0
 71
     1
 72
     1
  1
dim.var.
  7
CONVERTER_11
 73
     1
 44
1.20048019207683
  0
MTEXT
  5
3B7
330
6D
100
AcDbEntity
  8
1
 62
     2
100
AcDbMText
 10
-867.250287405316
 20
-1168.71103043147
 30
0.0
 40
1.8
 41
0.0
 71
     1
 72
     1
  1
document-No.
  7
CONVERTER_13
 73
     1
 44
1.32052821128451
  0
TEXT
  5
3B8
330
6D
100
AcDbEntity
  8
1
 62
     2
100
AcDbText
 10
-915.0950919320702
 20
-1183.470047646462
 30
0.0
 40
1.8
  1
of
 41
0.9
  7
CONVERTER_11
100
AcDbText
  0
TEXT
  5
3B9
330
6D
100
AcDbEntity
  8
1
 62
     2
100
AcDbText
 10
-933.29509193207
 20
-1183.470047646462
 30
0.0
 40
1.8
  1
page
 41
0.9
  7
CONVERTER_11
100
AcDbText
  0
MTEXT
  5
3BA
330
6D
100
AcDbEntity
  8
1
 62
     2
100
AcDbMText
 10
-941.0450919320701
 20
-1183.46103043147
 30
0.0
 40
1.8
 41
0.0
 71
     8
 72
     1
  1
name
  7
CONVERTER_11
 73
     1
 44
1.32052821128451
  0
MTEXT
  5
3BB
330
6D
100
AcDbEntity
  8
1
 62
     2
100
AcDbMText
 10
-954.54509193207
 20
-1183.46103043147
 30
0.0
 40
1.8
 41
0.0
 71
     8
 72
     1
  1
check.on
  7
CONVERTER_11
 73
     1
 44
1.32052821128451
  0
MTEXT
  5
3BC
330
6D
100
AcDbEntity
  8
1
 62
     2
100
AcDbMText
 10
-968.04509193207
 20
-1183.46103043147
 30
0.0
 40
1.8
 41
0.0
 71
     8
 72
     1
  1
name
  7
CONVERTER_11
 73
     1
 44
1.32052821128451
  0
MTEXT
  5
3BD
330
6D
100
AcDbEntity
  8
1
 62
     2
100
AcDbMText
 10
-1043.80028740532
 20
-1183.46103043147
 30
0.0
 40
1.8
 41
0.0
 71
     8
 72
     1
  1
date
  7
CONVERTER_11
 73
     1
 44
1.32052821128451
  0
MTEXT
  5
3BE
330
6D
100
AcDbEntity
  8
1
 62
     2
100
AcDbMText
 10
-873.7699027744786
 20
-1155.961030431471
 30
0.0
 40
1.8
 41
0.0
 71
     1
 72
     1
  1
material
  7
CONVERTER_11
 73
     1
 44
1.20048019207683
  0
MTEXT
  5
3BF
330
6D
100
AcDbEntity
  8
1
 62
     2
100
AcDbMText
 10
-1053.650287405319
 20
-1183.46103043147
 30
0.0
 40
1.8
 41
0.0
 71
     8
 72
     1
  1
RI
  7
CONVERTER_11
 73
     1
 44
1.32052821128451
  0
MTEXT
  5
3C0
330
6D
100
AcDbEntity
  8
1
 62
     2
100
AcDbMText
 10
-918.1450919320702
 20
-1158.011030431471
 30
0.0
 40
1.8
 41
0.0
 71
     8
 72
     1
  1
date
  7
CONVERTER_11
 73
     1
 44
1.32052821128451
  0
MTEXT
  5
3C1
330
6D
100
AcDbEntity
  8
1
 62
     2
100
AcDbMText
 10
-904.6450919320702
 20
-1158.011030431471
 30
0.0
 40
1.8
 41
0.0
 71
     8
 72
     1
  1
name
  7
CONVERTER_11
 73
     1
 44
1.32052821128451
  0
MTEXT
  5
3C2
330
6D
100
AcDbEntity
  8
1
 62
     2
100
AcDbMText
 10
-1005.922689668695
 20
-1183.46103043147
 30
0.0
 40
1.8
 41
0.0
 71
     8
 72
     1
  1
revision
  7
CONVERTER_11
 73
     1
 44
1.32052821128451
  0
MTEXT
  5
3C3
330
6D
100
AcDbEntity
  8
1
 62
     2
100
AcDbMText
 10
-830.4502874053182
 20
-1155.96103043147
 30
0.0
 40
1.8
 41
0.0
 71
     1
 72
     1
  1
scale
  7
CONVERTER_11
 73
     1
 44
1.20048019207683
  0
MTEXT
  5
3C4
330
6D
100
AcDbEntity
  8
1
 62
     2
100
AcDbMText
 10
-929.5950919320701
 20
-1161.33603043147
 30
0.0
 40
1.8
 41
0.0
 71
     5
 72
     1
  1
creat.
  7
CONVERTER_11
 73
     1
 44
1.20048019207683
  0
MTEXT
  5
3C5
330
6D
100
AcDbEntity
  8
1
 62
     2
100
AcDbMText
 10
-929.5950919320701
 20
-1165.58603043147
 30
0.0
 40
1.8
 41
0.0
 71
     5
 72
     1
  1
check.
  7
CONVERTER_11
 73
     1
 44
1.20048019207683
  0
MTEXT
  5
3C6
330
6D
100
AcDbEntity
  8
1
 62
     3
100
AcDbMText
 10
-908.0950919320702
 20
-1169.83603043147
 30
0.0
 40
2.5
 41
0.0
 71
     5
 72
     1
  1
DIN A3
  7
CONVERTER_11
 73
     1
 44
1.20048019207683
  0
MTEXT
  5
3C7
330
6D
100
AcDbEntity
  8
1
 62
     2
100
AcDbMText
 10
-896.7950919320701
 20
-1155.96103043147
 30
0.0
 40
1.8
 41
0.0
 71
     1
 72
     1
  1
ident.-No. / RI
  7
CONVERTER_11
 73
     1
 44
1.20048019207683
  0
TEXT
  5
3C8
330
6D
100
AcDbEntity
  8
1
 62
     2
100
AcDbText
 10
-924.648826961728
 20
-1183.510279085272
 30
0.0
 40
1.8
  1
 
 41
0.9
  7
CONVERTER_11
100
AcDbText
  0
TEXT
  5
3C9
330
6D
100
AcDbEntity
  8
1
 62
     2
100
AcDbText
 10
-909.8597831222564
 20
-1183.46103043147
 30
0.0
 40
1.8
  1
1
 41
0.9
  7
CONVERTER_11
100
AcDbText
  0
MTEXT
  5
3CA
330
6D
100
AcDbEntity
  8
1
 62
     2
100
AcDbMText
 10
-896.8950919320702
 20
-1177.21103043147
 30
0.0
 40
1.8
 41
0.0
 71
     1
 72
     1
  1
description
  7
CONVERTER_11
 73
     1
 44
1.20048019207683
  0
MTEXT
  5
3CB
330
6D
100
AcDbEntity
  8
1
 62
     2
100
AcDbMText
 10
-929.5950919320701
 20
-1158.011030431471
 30
0.0
 40
1.8
 41
0.0
 71
     8
 72
     1
  1
00
  7
CONVERTER_11
 73
     1
 44
1.20048019207683
  0
MTEXT
  5
3CC
330
6D
100
AcDbEntity
  8
1
 62
     2
100
AcDbMText
 10
-896.8950919320702
 20
-1168.71103043147
 30
0.0
 40
1.8
 41
0.0
 71
     1
 72
     1
  1
document-type
  7
CONVERTER_11
 73
     1
 44
1.20048019207683
  0
MTEXT
  5
3CD
330
6D
100
AcDbEntity
  8
1
 62
     2
100
AcDbMText
 10
-904.6450919320702
 20
-1165.58603043147
 30
0.0
 40
1.8
 41
0.0
 71
     5
 72
     1
  1
pbam06
  7
CONVERTER_11
 73
     1
 44
1.32052821128451
  0
MTEXT
  5
3CE
330
6D
100
AcDbEntity
  8
1
 62
     2
100
AcDbMText
 10
-904.6450919320702
 20
-1161.33603043147
 30
0.0
 40
1.8
 41
0.0
 71
     5
 72
     1
  1
pbfm09
  7
CONVERTER_11
 73
     1
 44
1.32052821128451
  0
MTEXT
  5
3CF
330
6D
100
AcDbEntity
  8
1
 62
     2
100
AcDbMText
 10
-918.1450919320702
 20
-1165.58603043147
 30
0.0
 40
1.8
 41
0.0
 71
     5
 72
     1
  1
04.11.09
  7
CONVERTER_11
 73
     1
 44
1.32052821128451
  0
MTEXT
  5
3D0
330
6D
100
AcDbEntity
  8
1
 62
     2
100
AcDbMText
 10
-918.1450919320702
 20
-1161.33603043147
 30
0.0
 40
1.8
 41
0.0
 71
     5
 72
     1
  1
21.10.09
  7
CONVERTER_11
 73
     1
 44
1.32052821128451
  0
TEXT
  5
3D1
330
6D
100
AcDbEntity
  8
1
 62
     7
100
AcDbText
 10
-881.9215442100564
 20
-1162.161030431471
 30
0.0
 40
2.5
  1
/
 41
0.9
  7
CONVERTER_11
100
AcDbText
  0
MTEXT
  5
3D3
330
6D
100
AcDbEntity
  8
1
 62
     3
100
AcDbMText
 10
-827.0910832644787
 20
-1162.16103043147
 30
0.0
 40
2.5
 41
0.0
 71
     8
 72
     1
  1
1:1
  7
CONVERTER_14
 73
     1
 44
1.32052821128451
  0
TEXT
  5
3D5
330
6D
100
AcDbEntity
  8
1
 62
     3
100
AcDbText
 10
-873.9950919320702
 20
-1162.161030431471
 30
0.0
 40
2.5
  1
 
 41
0.54
  7
CONVERTER_15
100
AcDbText
  0
TEXT
  5
3D7
330
6D
100
AcDbEntity
  8
1
 62
     7
100
AcDbText
 10
-896.3950919320704
 20
-1162.161030431471
 30
0.0
 40
2.5
  1
3074541
 41
0.81
  7
CONVERTER_16
100
AcDbText
  0
TEXT
  5
3D8
330
6D
100
AcDbEntity
  8
1
 62
     7
100
AcDbText
 10
-867.250287405316
 20
-1174.911030431471
 30
0.0
 40
2.5
  1
00531626
 41
0.81
  7
CONVERTER_16
100
AcDbText
  0
TEXT
  5
3D9
330
6D
100
AcDbEntity
  8
1
 62
     3
100
AcDbText
 10
-821.6318791236392
 20
-1162.161030431471
 30
0.0
 40
2.5
  1
 
 41
0.54
  7
CONVERTER_15
100
AcDbText
  0
TEXT
  5
3DA
330
6D
100
AcDbEntity
  8
1
 62
     7
100
AcDbText
 10
-879.7651797130144
 20
-1162.161030431471
 30
0.0
 40
2.5
  1
00
 41
0.81
  7
CONVERTER_16
100
AcDbText
  0
TEXT
  5
3DB
330
6D
100
AcDbEntity
  8
1
 62
     7
100
AcDbText
 10
-840.0836207386518
 20
-1188.71103043147
 30
0.0
 40
2.5
  1
6
 41
0.9
  7
CONVERTER_11
100
AcDbText
  0
TEXT
  5
3DC
330
6D
100
AcDbEntity
  8
1
 62
     7
100
AcDbText
 10
-908.4169540719852
 20
-1188.71103043147
 30
0.0
 40
2.5
  1
5
 41
0.9
  7
CONVERTER_11
100
AcDbText
  0
TEXT
  5
3DD
330
6D
100
AcDbEntity
  8
1
 62
     7
100
AcDbText
 10
-976.7502874053183
 20
-1188.71103043147
 30
0.0
 40
2.5
  1
4
 41
0.9
  7
CONVERTER_11
100
AcDbText
  0
TEXT
  5
3DE
330
6D
100
AcDbEntity
  8
1
 62
     7
100
AcDbText
 10
-1045.083620738652
 20
-1188.71103043147
 30
0.0
 40
2.5
  1
3
 41
0.9
  7
CONVERTER_11
100
AcDbText
  0
TEXT
  5
3DF
330
6D
100
AcDbEntity
  8
1
 62
     7
100
AcDbText
 10
-803.7502874053183
 20
-1157.21103043147
 30
0.0
 40
2.5
  1
E
 41
0.9
  7
CONVERTER_11
100
AcDbText
  0
TEXT
  5
3E0
330
6D
100
AcDbEntity
  8
1
 62
     7
100
AcDbText
 10
-1181.750287405318
 20
-1188.71103043147
 30
0.0
 40
2.5
  1
1
 41
0.9
  7
CONVERTER_11
100
AcDbText
  0
TEXT
  5
3E1
330
6D
100
AcDbEntity
  8
1
 62
     7
100
AcDbText
 10
-1113.416954071985
 20
-1188.71103043147
 30
0.0
 40
2.5
  1
2
 41
0.9
  7
CONVERTER_11
100
AcDbText
  0
TEXT
  5
3E2
330
6D
100
AcDbEntity
  8
1
 62
     7
100
AcDbText
 10
-803.7502874053183
 20
-1099.81103043147
 30
0.0
 40
2.5
  1
D
 41
0.9
  7
CONVERTER_11
100
AcDbText
  0
TEXT
  5
3E3
330
6D
100
AcDbEntity
  8
1
 62
     7
100
AcDbText
 10
-803.7502874053183
 20
-1042.41103043147
 30
0.0
 40
2.5
  1
C
 41
0.9
  7
CONVERTER_11
100
AcDbText
  0
TEXT
  5
3E4
330
6D
100
AcDbEntity
  8
1
 62
     7
100
AcDbText
 10
-803.7502874053183
 20
-985.0110304314699
 30
0.0
 40
2.5
  1
B
 41
0.9
  7
CONVERTER_11
100
AcDbText
  0
TEXT
  5
3E5
330
6D
100
AcDbEntity
  8
1
 62
     7
100
AcDbText
 10
-803.7502874053183
 20
-927.61103043147
 30
0.0
 40
2.5
  1
A
 41
0.9
  7
CONVERTER_11
100
AcDbText
  0
TEXT
  5
3E6
330
6D
100
AcDbEntity
  8
1
 62
     7
100
AcDbText
 10
-840.0836207386518
 20
-896.7110304314697
 30
0.0
 40
2.5
  1
6
 41
0.9
  7
CONVERTER_11
100
AcDbText
  0
TEXT
  5
3E7
330
6D
100
AcDbEntity
  8
1
 62
     7
100
AcDbText
 10
-908.416954071985
 20
-896.7110304314697
 30
0.0
 40
2.5
  1
5
 41
0.9
  7
CONVERTER_11
100
AcDbText
  0
TEXT
  5
3E8
330
6D
100
AcDbEntity
  8
1
 62
     7
100
AcDbText
 10
-976.7502874053183
 20
-896.7110304314697
 30
0.0
 40
2.5
  1
4
 41
0.9
  7
CONVERTER_11
100
AcDbText
  0
TEXT
  5
3E9
330
6D
100
AcDbEntity
  8
1
 62
     7
100
AcDbText
 10
-1045.083620738652
 20
-896.7110304314697
 30
0.0
 40
2.5
  1
3
 41
0.9
  7
CONVERTER_11
100
AcDbText
  0
TEXT
  5
3EA
330
6D
100
AcDbEntity
  8
1
 62
     7
100
AcDbText
 10
-1113.416954071985
 20
-896.7110304314697
 30
0.0
 40
2.5
  1
2
 41
0.9
  7
CONVERTER_11
100
AcDbText
  0
TEXT
  5
3EB
330
6D
100
AcDbEntity
  8
1
 62
     7
100
AcDbText
 10
-1181.750287405318
 20
-896.7110304314697
 30
0.0
 40
2.5
  1
1
 41
0.9
  7
CONVERTER_11
100
AcDbText
  0
MTEXT
  5
3EC
330
6D
100
AcDbEntity
  8
1
 62
     3
100
AcDbMText
 10
-1201.327614093965
 20
-1184.684116331969
 30
0.0
 40
1.8
 41
0.0
 71
     7
 72
     1
  3
Weitergabe sowie Vervielf\U+00e4ltigung dieses Dokuments, Verwertung und\PMitteilung seines Inhalts gem\U+00e4\U+00df \U+00a718 UWG verboten, soweit nicht aus-\Pdr\U+00fccklich gestattet. Zuwiderhandlungen verpflichten zu Schadenersatz\P(\U+00a719 U
  1
WG). Alle Rechte vorbehalten, insbesondere das Recht, Patent-,\PGebrauchsmuster- oder Geschmacksmusteranmeldungen durchzuf\U+00fchren.\PPhoenix Contact GmbH & Co. KG
  7
CONVERTER_11
 11
6.123233764940082E-17
 21
1.0
 31
0.0
 73
     1
 44
0.99639855942377
  0
MTEXT
  5
3ED
330
6D
100
AcDbEntity
  8
1
 62
     3
100
AcDbMText
 10
-1201.481820405059
 20
-1011.724746317816
 30
0.0
 40
1.8
 41
0.0
 71
     7
 72
     1
  3
The copying, distribution and utilistion of this document as well as the communication\Pof the contents to others without expressed authorization is prohibited according to\P\U+00a718 UWG German Law. Offenders will be held liable for the payment of 
  1
damages\Paccording to (\U+00a719 UWG German Law). All rights reserved, in particular the right to\Pcarry out patent, utility model or ornamental design registrations.\PFlachsmarktstra\U+00dfe 8  D-32825 Blomberg
  7
CONVERTER_11
 11
6.123233764940082E-17
 21
1.0
 31
0.0
 73
     1
 44
0.99639855942377
  0
TEXT
  5
3EE
330
6D
100
AcDbEntity
  8
1
 62
     3
100
AcDbText
 10
-896.7950919320684
 20
-1145.666258857866
 30
0.0
 40
2.5
  1
 
 41
0.72
  7
CONVERTER_14
100
AcDbText
  0
TEXT
  5
3EF
330
6D
100
AcDbEntity
  8
1
 62
     3
100
AcDbText
 10
-896.7950919320684
 20
-1149.166258857866
 30
0.0
 40
2.5
  1
 
 41
0.72
  7
CONVERTER_14
100
AcDbText
  0
TEXT
  5
3F0
330
6D
100
AcDbEntity
  8
1
 62
     3
100
AcDbText
 10
-896.7950919320684
 20
-1152.666258857866
 30
0.0
 40
2.5
  1
 
 41
0.72
  7
CONVERTER_14
100
AcDbText
  0
TEXT
  5
3F2
330
6D
100
AcDbEntity
  8
1
 62
     3
100
AcDbText
 10
-896.8950919320702
 20
-1174.911030431471
 30
0.0
 40
2.5
  1
KUNDENZCHNG-SELECT
 41
0.45
  7
CONVERTER_17
100
AcDbText
  0
MTEXT
  5
3F3
330
6D
100
AcDbEntity
  8
1
 62
     3
100
AcDbMText
 10
-857.0432675187097
 20
-1164.361030431471
 30
0.0
 40
2.0
 41
0.0
 71
     1
 72
     1
  1
 
  7
CONVERTER_14
 73
     1
 44
1.20048019207683
  0
MTEXT
  5
3F5
330
6D
100
AcDbEntity
  8
1
 62
     3
100
AcDbMText
 10
-887.5628551139553
 20
-1165.58603043147
 30
0.0
 40
2.5
 41
0.0
 71
     4
 72
     1
  1
N01-07046/80
  7
CONVERTER_18
 73
     1
 44
1.20048019207683
  0
MTEXT
  5
3F6
330
6D
100
AcDbEntity
  8
1
 62
     2
100
AcDbMText
 10
-896.7950919320701
 20
-1165.386030431471
 30
0.0
 40
1.4
 41
0.0
 71
     4
 72
     1
  1
SAP\Pchange-No.
  7
CONVERTER_18
 73
     1
 44
0.66026410564226
  0
MTEXT
  5
3F7
330
6D
100
AcDbEntity
  8
1
 62
     2
100
AcDbMText
 10
-867.2502874053177
 20
-1164.46103043147
 30
0.0
 40
1.8
 41
0.0
 71
     1
 72
     1
  1
part-rev.
  7
CONVERTER_14
 73
     1
 44
1.20048019207683
  0
TEXT
  5
3F8
330
6D
100
AcDbEntity
  8
1
 62
     3
100
AcDbText
 10
-848.7502874053181
 20
-1174.911030431471
 30
0.0
 40
2.5
  1
 
 41
0.54
  7
CONVERTER_15
100
AcDbText
  0
MTEXT
  5
3F9
330
6D
100
AcDbEntity
  8
1
 62
     7
100
AcDbMText
 10
-851.3226896686946
 20
-1181.46103043147
 30
0.0
 40
3.0
 41
0.0
 71
     5
 72
     1
  1
UW 25-F
  7
CONVERTER_16
 73
     1
 44
1.20048019207683
  0
HATCH
  5
3FA
330
6D
100
AcDbEntity
  8
1
  6
Continuous
 62
     2
100
AcDbHatch
 10
0.0
 20
0.0
 30
0.0
210
0.0
220
0.0
230
1.0
  2
_USER
 70
     0
 71
     1
 91
        1
 92
        1
 93
       14
 72
     2
 10
-921.0196958362661
 20
-1177.599125669559
 40
0.9964100565212273
 50
164.9381082229301
 51
195.0618917771204
 73
     1
 72
     2
 10
-920.6733091887762
 20
-1177.505910494324
 40
1.35511993714002
 50
195.0618917770906
 51
275.1581447696393
 73
     1
 72
     2
 10
-920.9120332340125
 20
-1174.86137282224
 40
4.010410630990424
 50
275.1581447696242
 51
285.9799912583509
 73
     1
 72
     1
 10
-919.8079605752374
 20
-1178.71681274439
 11
-919.8079605752374
 21
-1177.995724309015
 72
     2
 10
-920.7815597835225
 20
-1176.433450987403
 40
1.840813230556274
 50
58.06909105004848
 51
71.55192388186957
 73
     0
 72
     2
 10
-920.4359666152078
 20
-1177.469439232062
 40
0.7487023016406467
 50
71.55192388184128
 51
113.3722778881204
 73
     0
 72
     2
 10
-920.5652558984326
 20
-1177.768606189674
 40
0.4227934381772727
 50
113.3722778881805
 51
151.4785267423721
 73
     0
 72
     2
 10
-920.2533903958869
 20
-1177.599125669559
 40
0.7777353184570868
 50
151.4785267422948
 51
208.5214732577052
 73
     0
 72
     2
 10
-920.5652558984326
 20
-1177.429645149445
 40
0.4227934381778725
 50
208.5214732577362
 51
246.6277221118195
 73
     0
 72
     2
 10
-920.4359666152078
 20
-1177.728812107057
 40
0.7487023016413397
 50
246.6277221118796
 51
288.4480761181312
 73
     0
 72
     2
 10
-920.7815597835225
 20
-1178.764800351715
 40
1.840813230556213
 50
288.4480761181304
 51
301.9309089499702
 73
     0
 72
     1
 10
-919.8079605752374
 20
-1177.202527030104
 11
-919.8079605752374
 21
-1176.481438594729
 72
     2
 10
-920.9120332340125
 20
-1180.336878516878
 40
4.01041063098956
 50
74.02000874164463
 51
84.84185523037571
 73
     1
 72
     2
 10
-920.6733091887762
 20
-1177.692340844795
 40
1.355119937141545
 50
84.84185523036508
 51
164.9381082229094
 73
     1
 97
       14
330
38B
330
207
330
35A
330
38A
330
35B
330
35C
330
389
330
388
330
387
330
208
330
35D
330
35E
330
35F
330
360
 75
     1
 76
     0
 52
45.0
 41
0.1
 77
     0
 78
     1
 53
45.0
 43
0.0
 44
0.0
 45
-0.0707106781186548
 46
0.0707106781186548
 79
     0
 98
        1
 10
0.0
 20
0.0
  0
HATCH
  5
3FB
330
6D
100
AcDbEntity
  8
1
  6
Continuous
 62
     2
100
AcDbHatch
 10
0.0
 20
0.0
 30
0.0
210
0.0
220
0.0
230
1.0
  2
_USER
 70
     0
 71
     1
 91
        1
 92
        1
 93
       14
 72
     2
 10
-921.0196958362661
 20
-1177.599125669559
 40
0.9964100565212273
 50
164.9381082229301
 51
195.0618917771204
 73
     1
 72
     2
 10
-920.6733091887762
 20
-1177.505910494324
 40
1.35511993714002
 50
195.0618917770906
 51
275.1581447696393
 73
     1
 72
     2
 10
-920.9120332340125
 20
-1174.86137282224
 40
4.010410630990424
 50
275.1581447696242
 51
285.9799912583509
 73
     1
 72
     1
 10
-919.8079605752374
 20
-1178.71681274439
 11
-919.8079605752374
 21
-1177.995724309015
 72
     2
 10
-920.7815597835225
 20
-1176.433450987403
 40
1.840813230556274
 50
58.06909105004848
 51
71.55192388186957
 73
     0
 72
     2
 10
-920.4359666152078
 20
-1177.469439232062
 40
0.7487023016406467
 50
71.55192388184128
 51
113.3722778881204
 73
     0
 72
     2
 10
-920.5652558984326
 20
-1177.768606189674
 40
0.4227934381772727
 50
113.3722778881805
 51
151.4785267423721
 73
     0
 72
     2
 10
-920.2533903958869
 20
-1177.599125669559
 40
0.7777353184570868
 50
151.4785267422948
 51
208.5214732577052
 73
     0
 72
     2
 10
-920.5652558984326
 20
-1177.429645149445
 40
0.4227934381778725
 50
208.5214732577362
 51
246.6277221118195
 73
     0
 72
     2
 10
-920.4359666152078
 20
-1177.728812107057
 40
0.7487023016413397
 50
246.6277221118796
 51
288.4480761181312
 73
     0
 72
     2
 10
-920.7815597835225
 20
-1178.764800351715
 40
1.840813230556213
 50
288.4480761181304
 51
301.9309089499702
 73
     0
 72
     1
 10
-919.8079605752374
 20
-1177.202527030104
 11
-919.8079605752374
 21
-1176.481438594729
 72
     2
 10
-920.9120332340125
 20
-1180.336878516878
 40
4.01041063098956
 50
74.02000874164463
 51
84.84185523037571
 73
     1
 72
     2
 10
-920.6733091887762
 20
-1177.692340844795
 40
1.355119937141545
 50
84.84185523036508
 51
164.9381082229094
 73
     1
 97
       14
330
38B
330
207
330
35A
330
38A
330
35B
330
35C
330
389
330
388
330
387
330
208
330
35D
330
35E
330
35F
330
360
 75
     1
 76
     0
 52
45.0
 41
0.1
 77
     0
 78
     1
 53
45.0
 43
0.0
 44
0.0
 45
-0.0707106781186548
 46
0.0707106781186548
 79
     0
 98
        1
 10
0.0
 20
0.0
  0
HATCH
  5
3FC
330
6D
100
AcDbEntity
  8
1
  6
Continuous
 62
     2
100
AcDbHatch
 10
0.0
 20
0.0
 30
0.0
210
0.0
220
0.0
230
1.0
  2
_USER
 70
     0
 71
     1
 91
        1
 92
        1
 93
       18
 72
     2
 10
-907.3652914373275
 20
-1177.692340844795
 40
1.355119937140898
 50
90.0
 51
164.9381082229181
 73
     1
 72
     2
 10
-907.7116780848165
 20
-1177.599125669559
 40
0.9964100565228741
 50
164.9381082229556
 51
195.0618917770949
 73
     1
 72
     2
 10
-907.3652914373275
 20
-1177.505910494324
 40
1.355119937140789
 50
195.0618917770819
 51
275.1581447696775
 73
     1
 72
     2
 10
-907.6040154825638
 20
-1174.86137282224
 40
4.010410630990505
 50
275.1581447696372
 51
285.9799912583384
 73
     1
 72
     1
 10
-906.4999428237896
 20
-1178.71681274439
 11
-906.4999428237896
 21
-1177.995724309015
 72
     2
 10
-907.4735420320739
 20
-1176.433450987404
 40
1.840813230556274
 50
58.06909105005379
 51
71.55192388186957
 73
     0
 72
     2
 10
-907.1279488637582
 20
-1177.469439232062
 40
0.7487023016409623
 50
71.55192388193481
 51
113.3722778881762
 73
     0
 72
     2
 10
-907.2572381469839
 20
-1177.768606189674
 40
0.4227934381785061
 50
113.3722778881664
 51
151.4785267423226
 73
     0
 72
     2
 10
-906.9453726444373
 20
-1177.599125669559
 40
0.777735318458685
 50
151.4785267422999
 51
208.5214732576412
 73
     0
 72
     2
 10
-907.2572381469839
 20
-1177.429645149445
 40
0.4227934381776318
 50
208.5214732576774
 51
250.6628567805333
 73
     0
 72
     2
 10
-907.1360232725181
 20
-1177.775062488604
 40
0.788861989113002
 50
250.6628567805682
 51
270.0
 73
     0
 72
     1
 10
-907.1360232725181
 20
-1176.986200499491
 11
-906.2239246778337
 21
-1176.986200499491
 72
     1
 10
-906.2239246778337
 20
-1176.986200499491
 11
-906.2239246778337
 21
-1178.861030431465
 72
     1
 10
-906.2239246778337
 20
-1178.861030431465
 11
-905.2381455851331
 21
-1178.861030431465
 72
     1
 10
-905.2381455851331
 20
-1178.861030431465
 11
-905.2381455851331
 21
-1176.986200499491
 72
     1
 10
-905.2381455851331
 20
-1176.986200499491
 11
-904.5678158020972
 21
-1176.986200499491
 72
     1
 10
-904.5678158020972
 20
-1176.986200499491
 11
-904.5678158020972
 21
-1176.337220907654
 72
     1
 10
-904.5678158020972
 20
-1176.337220907654
 11
-907.3652914373275
 21
-1176.337220907654
 97
       18
330
26D
330
26C
330
26B
330
26A
330
26F
330
209
330
384
330
365
330
383
330
366
330
382
330
381
330
20A
330
380
330
37F
330
367
330
368
330
26E
 75
     1
 76
     0
 52
45.0
 41
0.1
 77
     0
 78
     1
 53
45.0
 43
0.0
 44
0.0
 45
-0.0707106781186548
 46
0.0707106781186548
 79
     0
 98
        1
 10
0.0
 20
0.0
  0
HATCH
  5
3FD
330
6D
100
AcDbEntity
  8
1
  6
Continuous
 62
     2
100
AcDbHatch
 10
0.0
 20
0.0
 30
0.0
210
0.0
220
0.0
230
1.0
  2
_USER
 70
     0
 71
     1
 91
        1
 92
        1
 93
       18
 72
     2
 10
-907.3652914373275
 20
-1177.692340844795
 40
1.355119937140898
 50
90.0
 51
164.9381082229181
 73
     1
 72
     2
 10
-907.7116780848165
 20
-1177.599125669559
 40
0.9964100565228741
 50
164.9381082229556
 51
195.0618917770949
 73
     1
 72
     2
 10
-907.3652914373275
 20
-1177.505910494324
 40
1.355119937140789
 50
195.0618917770819
 51
275.1581447696775
 73
     1
 72
     2
 10
-907.6040154825638
 20
-1174.86137282224
 40
4.010410630990505
 50
275.1581447696372
 51
285.9799912583384
 73
     1
 72
     1
 10
-906.4999428237896
 20
-1178.71681274439
 11
-906.4999428237896
 21
-1177.995724309015
 72
     2
 10
-907.4735420320739
 20
-1176.433450987404
 40
1.840813230556274
 50
58.06909105005379
 51
71.55192388186957
 73
     0
 72
     2
 10
-907.1279488637582
 20
-1177.469439232062
 40
0.7487023016409623
 50
71.55192388193481
 51
113.3722778881762
 73
     0
 72
     2
 10
-907.2572381469839
 20
-1177.768606189674
 40
0.4227934381785061
 50
113.3722778881664
 51
151.4785267423226
 73
     0
 72
     2
 10
-906.9453726444373
 20
-1177.599125669559
 40
0.777735318458685
 50
151.4785267422999
 51
208.5214732576412
 73
     0
 72
     2
 10
-907.2572381469839
 20
-1177.429645149445
 40
0.4227934381776318
 50
208.5214732576774
 51
250.6628567805333
 73
     0
 72
     2
 10
-907.1360232725181
 20
-1177.775062488604
 40
0.788861989113002
 50
250.6628567805682
 51
270.0
 73
     0
 72
     1
 10
-907.1360232725181
 20
-1176.986200499491
 11
-906.2239246778337
 21
-1176.986200499491
 72
     1
 10
-906.2239246778337
 20
-1176.986200499491
 11
-906.2239246778337
 21
-1178.861030431465
 72
     1
 10
-906.2239246778337
 20
-1178.861030431465
 11
-905.2381455851331
 21
-1178.861030431465
 72
     1
 10
-905.2381455851331
 20
-1178.861030431465
 11
-905.2381455851331
 21
-1176.986200499491
 72
     1
 10
-905.2381455851331
 20
-1176.986200499491
 11
-904.5678158020972
 21
-1176.986200499491
 72
     1
 10
-904.5678158020972
 20
-1176.986200499491
 11
-904.5678158020972
 21
-1176.337220907654
 72
     1
 10
-904.5678158020972
 20
-1176.337220907654
 11
-907.3652914373275
 21
-1176.337220907654
 97
       18
330
26D
330
26C
330
26B
330
26A
330
26F
330
209
330
384
330
365
330
383
330
366
330
382
330
381
330
20A
330
380
330
37F
330
367
330
368
330
26E
 75
     1
 76
     0
 52
45.0
 41
0.1
 77
     0
 78
     1
 53
45.0
 43
0.0
 44
0.0
 45
-0.0707106781186548
 46
0.0707106781186548
 79
     0
 98
        1
 10
0.0
 20
0.0
  0
HATCH
  5
3FE
330
6D
100
AcDbEntity
  8
1
  6
Continuous
 62
     2
100
AcDbHatch
 10
0.0
 20
0.0
 30
0.0
210
0.0
220
0.0
230
1.0
  2
_USER
 70
     0
 71
     1
 91
        4
 92
        1
 93
        8
 72
     2
 10
-927.2844311866606
 20
-1173.911645816106
 40
0.3506153846140023
 50
90.0
 51
180.0
 73
     1
 72
     1
 10
-927.6350465712745
 20
-1173.911645816106
 11
-927.6350465712745
 21
-1178.51041504685
 72
     2
 10
-927.2844311866606
 20
-1178.51041504685
 40
0.3506153846138886
 50
180.0
 51
270.0
 73
     1
 72
     1
 10
-927.2844311866606
 20
-1178.861030431465
 11
-922.7610327645806
 21
-1178.861030431465
 72
     2
 10
-922.7610327645806
 20
-1178.51041504685
 40
0.3506153846149118
 50
270.0
 51
360.0
 73
     1
 72
     1
 10
-922.4104173799657
 20
-1178.51041504685
 11
-922.4104173799657
 21
-1173.911645816106
 72
     2
 10
-922.7610327645806
 20
-1173.911645816106
 40
0.3506153846149118
 50
0.0
 51
90.0
 73
     1
 72
     1
 10
-922.7610327645806
 20
-1173.561030431492
 11
-927.2844311866606
 21
-1173.561030431492
 97
        8
330
378
330
238
330
377
330
239
330
36E
330
236
330
379
330
237
 92
       16
 93
        1
 72
     2
 10
-925.1194843680511
 20
-1175.828077409789
 40
0.3892387874202541
 50
0.0
 51
360.0
 73
     1
 97
        1
330
38C
 92
       16
 93
        8
 72
     2
 10
-925.099802537743
 20
-1175.828077409789
 40
0.7535935125154551
 50
295.3740086782012
 51
424.6259913218063
 73
     1
 72
     2
 10
-924.6650565062654
 20
-1174.911431459402
 40
0.2609230769229498
 50
115.3740086783036
 51
180.0
 73
     0
 72
     1
 10
-924.9259795831883
 20
-1174.911431459402
 11
-924.9259795831883
 21
-1174.410989072206
 72
     2
 10
-924.6650565062654
 20
-1174.410989072206
 40
0.2609230769216719
 50
180.0
 51
269.8110329574459
 73
     0
 72
     2
 10
-924.6604150721249
 20
-1175.818290681767
 40
1.668232340440956
 50
269.8110329575861
 51
450.1889670424137
 73
     0
 72
     2
 10
-924.6650565062654
 20
-1177.225592291328
 40
0.2609230769229498
 50
90.18896704255323
 51
180.0
 73
     0
 72
     1
 10
-924.9259795831883
 20
-1177.225592291328
 11
-924.9259795831883
 21
-1176.744723360176
 72
     2
 10
-924.6650565062654
 20
-1176.744723360176
 40
0.2609230769232637
 50
180.0
 51
244.6259913216964
 73
     0
 97
        8
330
386
330
362
330
271
330
385
330
363
330
364
330
270
330
361
 92
       16
 93
       12
 72
     1
 10
-926.7936091397627
 20
-1178.272141542574
 11
-925.5739122298374
 21
-1178.272141542574
 72
     2
 10
-925.5739122298374
 20
-1178.011218465652
 40
0.2609230769219266
 50
270.0
 51
360.0
 73
     1
 72
     1
 10
-925.3129891529146
 20
-1178.011218465652
 11
-925.3129891529146
 21
-1176.746118522237
 72
     2
 10
-925.5739122298374
 20
-1176.746118522237
 40
0.2609230769228361
 50
0.0
 51
64.80558935145723
 73
     1
 72
     2
 10
-925.142024256635
 20
-1175.828077409789
 40
0.7536343169905662
 50
115.1944106485317
 51
244.8055893515051
 73
     0
 72
     2
 10
-925.5739122298374
 20
-1174.91003629734
 40
0.2609230769225737
 50
295.1944106485428
 51
360.0
 73
     1
 72
     1
 10
-925.3129891529146
 20
-1174.91003629734
 11
-925.3129891529146
 21
-1174.410842397291
 72
     2
 10
-925.5739122298374
 20
-1174.410842397291
 40
0.2609230769228361
 50
0.0
 51
90.0
 73
     1
 72
     1
 10
-925.5739122298374
 20
-1174.149919320368
 11
-926.7936091397627
 21
-1174.149919320368
 72
     2
 10
-926.7936091397627
 20
-1174.410842397291
 40
0.2609230769228361
 50
90.0
 51
180.0
 73
     1
 72
     1
 10
-927.0545322166847
 20
-1174.410842397291
 11
-927.0545322166847
 21
-1178.011218465652
 72
     2
 10
-926.7936091397627
 20
-1178.011218465652
 40
0.2609230769220403
 50
180.0
 51
270.0
 73
     1
 97
       12
330
23D
330
36B
330
23C
330
37C
330
23B
330
37B
330
36C
330
36D
330
23A
330
37A
330
235
330
37D
 75
     1
 76
     0
 52
45.0
 41
0.1
 77
     0
 78
     1
 53
45.0
 43
0.0
 44
0.0
 45
-0.0707106781186548
 46
0.0707106781186548
 79
     0
 98
        1
 10
0.0
 20
0.0
  0
HATCH
  5
3FF
330
6D
100
AcDbEntity
  8
1
  6
Continuous
 62
     2
100
AcDbHatch
 10
0.0
 20
0.0
 30
0.0
210
0.0
220
0.0
230
1.0
  2
_USER
 70
     0
 71
     1
 91
        4
 92
        1
 93
        8
 72
     2
 10
-927.2844311866606
 20
-1173.911645816106
 40
0.3506153846140023
 50
90.0
 51
180.0
 73
     1
 72
     1
 10
-927.6350465712745
 20
-1173.911645816106
 11
-927.6350465712745
 21
-1178.51041504685
 72
     2
 10
-927.2844311866606
 20
-1178.51041504685
 40
0.3506153846138886
 50
180.0
 51
270.0
 73
     1
 72
     1
 10
-927.2844311866606
 20
-1178.861030431465
 11
-922.7610327645806
 21
-1178.861030431465
 72
     2
 10
-922.7610327645806
 20
-1178.51041504685
 40
0.3506153846149118
 50
270.0
 51
360.0
 73
     1
 72
     1
 10
-922.4104173799657
 20
-1178.51041504685
 11
-922.4104173799657
 21
-1173.911645816106
 72
     2
 10
-922.7610327645806
 20
-1173.911645816106
 40
0.3506153846149118
 50
0.0
 51
90.0
 73
     1
 72
     1
 10
-922.7610327645806
 20
-1173.561030431492
 11
-927.2844311866606
 21
-1173.561030431492
 97
        8
330
378
330
238
330
377
330
239
330
36E
330
236
330
379
330
237
 92
       16
 93
        1
 72
     2
 10
-925.1194843680511
 20
-1175.828077409789
 40
0.3892387874202541
 50
0.0
 51
360.0
 73
     1
 97
        1
330
38C
 92
       16
 93
        8
 72
     2
 10
-925.099802537743
 20
-1175.828077409789
 40
0.7535935125154551
 50
295.3740086782012
 51
424.6259913218063
 73
     1
 72
     2
 10
-924.6650565062654
 20
-1174.911431459402
 40
0.2609230769229498
 50
115.3740086783036
 51
180.0
 73
     0
 72
     1
 10
-924.9259795831883
 20
-1174.911431459402
 11
-924.9259795831883
 21
-1174.410989072206
 72
     2
 10
-924.6650565062654
 20
-1174.410989072206
 40
0.2609230769216719
 50
180.0
 51
269.8110329574459
 73
     0
 72
     2
 10
-924.6604150721249
 20
-1175.818290681767
 40
1.668232340440956
 50
269.8110329575861
 51
450.1889670424137
 73
     0
 72
     2
 10
-924.6650565062654
 20
-1177.225592291328
 40
0.2609230769229498
 50
90.18896704255323
 51
180.0
 73
     0
 72
     1
 10
-924.9259795831883
 20
-1177.225592291328
 11
-924.9259795831883
 21
-1176.744723360176
 72
     2
 10
-924.6650565062654
 20
-1176.744723360176
 40
0.2609230769232637
 50
180.0
 51
244.6259913216964
 73
     0
 97
        8
330
386
330
362
330
271
330
385
330
363
330
364
330
270
330
361
 92
       16
 93
       12
 72
     1
 10
-926.7936091397627
 20
-1178.272141542574
 11
-925.5739122298374
 21
-1178.272141542574
 72
     2
 10
-925.5739122298374
 20
-1178.011218465652
 40
0.2609230769219266
 50
270.0
 51
360.0
 73
     1
 72
     1
 10
-925.3129891529146
 20
-1178.011218465652
 11
-925.3129891529146
 21
-1176.746118522237
 72
     2
 10
-925.5739122298374
 20
-1176.746118522237
 40
0.2609230769228361
 50
0.0
 51
64.80558935145723
 73
     1
 72
     2
 10
-925.142024256635
 20
-1175.828077409789
 40
0.7536343169905662
 50
115.1944106485317
 51
244.8055893515051
 73
     0
 72
     2
 10
-925.5739122298374
 20
-1174.91003629734
 40
0.2609230769225737
 50
295.1944106485428
 51
360.0
 73
     1
 72
     1
 10
-925.3129891529146
 20
-1174.91003629734
 11
-925.3129891529146
 21
-1174.410842397291
 72
     2
 10
-925.5739122298374
 20
-1174.410842397291
 40
0.2609230769228361
 50
0.0
 51
90.0
 73
     1
 72
     1
 10
-925.5739122298374
 20
-1174.149919320368
 11
-926.7936091397627
 21
-1174.149919320368
 72
     2
 10
-926.7936091397627
 20
-1174.410842397291
 40
0.2609230769228361
 50
90.0
 51
180.0
 73
     1
 72
     1
 10
-927.0545322166847
 20
-1174.410842397291
 11
-927.0545322166847
 21
-1178.011218465652
 72
     2
 10
-926.7936091397627
 20
-1178.011218465652
 40
0.2609230769220403
 50
180.0
 51
270.0
 73
     1
 97
       12
330
23D
330
36B
330
23C
330
37C
330
23B
330
37B
330
36C
330
36D
330
23A
330
37A
330
235
330
37D
 75
     1
 76
     0
 52
45.0
 41
0.1
 77
     0
 78
     1
 53
45.0
 43
0.0
 44
0.0
 45
-0.0707106781186548
 46
0.0707106781186548
 79
     0
 98
        1
 10
0.0
 20
0.0
  0
HATCH
  5
400
330
6D
100
AcDbEntity
  8
1
  6
Continuous
 62
     2
100
AcDbHatch
 10
0.0
 20
0.0
 30
0.0
210
0.0
220
0.0
230
1.0
  2
_USER
 70
     0
 71
     1
 91
        2
 92
        1
 93
       12
 72
     2
 10
-915.1561964726199
 20
-1174.822935193382
 40
1.261904761904816
 50
90.0
 51
270.0
 73
     1
 72
     1
 10
-915.1561964726199
 20
-1176.084839955287
 11
-912.5526264529661
 21
-1176.084839955287
 72
     1
 10
-912.5526264529661
 20
-1176.084839955287
 11
-912.5526264529661
 21
-1175.507969206988
 72
     1
 10
-912.5526264529661
 20
-1175.507969206988
 11
-913.6566990367907
 21
-1175.507969206988
 72
     1
 10
-913.6566990367907
 20
-1175.507969206988
 11
-913.6566990367907
 21
-1175.111370567532
 72
     1
 10
-913.6566990367907
 20
-1175.111370567532
 11
-912.5526264529661
 21
-1175.111370567532
 72
     1
 10
-912.5526264529661
 20
-1175.111370567532
 11
-912.5526264529661
 21
-1174.534499819233
 72
     1
 10
-912.5526264529661
 20
-1174.534499819233
 11
-913.6566990367907
 21
-1174.534499819233
 72
     1
 10
-913.6566990367907
 20
-1174.534499819233
 11
-913.6566990367907
 21
-1174.137901179777
 72
     1
 10
-913.6566990367907
 20
-1174.137901179777
 11
-912.5526264529661
 21
-1174.137901179777
 72
     1
 10
-912.5526264529661
 20
-1174.137901179777
 11
-912.5526264529661
 21
-1173.561030431477
 72
     1
 10
-912.5526264529661
 20
-1173.561030431477
 11
-915.1561964726199
 21
-1173.561030431477
 97
       12
330
22C
330
226
330
24D
330
24C
330
24B
330
24A
330
227
330
228
330
229
330
22A
330
369
330
22B
 92
       16
 93
        4
 72
     2
 10
-914.8123848639327
 20
-1174.822935193382
 40
0.6378510567600505
 50
141.8795802028355
 51
218.1204197971645
 73
     1
 72
     2
 10
-914.9774592741362
 20
-1174.952465092655
 40
0.428023614060708
 50
218.1204197971487
 51
321.8795802028513
 73
     1
 72
     2
 10
-915.1425336843396
 20
-1174.822935193382
 40
0.637851056759961
 50
321.8795802028292
 51
398.1204197971709
 73
     1
 72
     2
 10
-914.9774592741362
 20
-1174.693405294109
 40
0.4280236140608484
 50
38.12041979717272
 51
141.8795802028273
 73
     1
 97
        4
330
376
330
375
330
370
330
36F
 75
     1
 76
     0
 52
45.0
 41
0.1
 77
     0
 78
     1
 53
45.0
 43
0.0
 44
0.0
 45
-0.0707106781186548
 46
0.0707106781186548
 79
     0
 98
        1
 10
0.0
 20
0.0
  0
HATCH
  5
401
330
6D
100
AcDbEntity
  8
1
  6
Continuous
 62
     2
100
AcDbHatch
 10
0.0
 20
0.0
 30
0.0
210
0.0
220
0.0
230
1.0
  2
_USER
 70
     0
 71
     1
 91
        2
 92
        1
 93
       12
 72
     2
 10
-915.1561964726199
 20
-1174.822935193382
 40
1.261904761904816
 50
90.0
 51
270.0
 73
     1
 72
     1
 10
-915.1561964726199
 20
-1176.084839955287
 11
-912.5526264529661
 21
-1176.084839955287
 72
     1
 10
-912.5526264529661
 20
-1176.084839955287
 11
-912.5526264529661
 21
-1175.507969206988
 72
     1
 10
-912.5526264529661
 20
-1175.507969206988
 11
-913.6566990367907
 21
-1175.507969206988
 72
     1
 10
-913.6566990367907
 20
-1175.507969206988
 11
-913.6566990367907
 21
-1175.111370567532
 72
     1
 10
-913.6566990367907
 20
-1175.111370567532
 11
-912.5526264529661
 21
-1175.111370567532
 72
     1
 10
-912.5526264529661
 20
-1175.111370567532
 11
-912.5526264529661
 21
-1174.534499819233
 72
     1
 10
-912.5526264529661
 20
-1174.534499819233
 11
-913.6566990367907
 21
-1174.534499819233
 72
     1
 10
-913.6566990367907
 20
-1174.534499819233
 11
-913.6566990367907
 21
-1174.137901179777
 72
     1
 10
-913.6566990367907
 20
-1174.137901179777
 11
-912.5526264529661
 21
-1174.137901179777
 72
     1
 10
-912.5526264529661
 20
-1174.137901179777
 11
-912.5526264529661
 21
-1173.561030431477
 72
     1
 10
-912.5526264529661
 20
-1173.561030431477
 11
-915.1561964726199
 21
-1173.561030431477
 97
       12
330
22C
330
226
330
24D
330
24C
330
24B
330
24A
330
227
330
228
330
229
330
22A
330
369
330
22B
 92
       16
 93
        4
 72
     2
 10
-914.8123848639327
 20
-1174.822935193382
 40
0.6378510567600505
 50
141.8795802028355
 51
218.1204197971645
 73
     1
 72
     2
 10
-914.9774592741362
 20
-1174.952465092655
 40
0.428023614060708
 50
218.1204197971487
 51
321.8795802028513
 73
     1
 72
     2
 10
-915.1425336843396
 20
-1174.822935193382
 40
0.637851056759961
 50
321.8795802028292
 51
398.1204197971709
 73
     1
 72
     2
 10
-914.9774592741362
 20
-1174.693405294109
 40
0.4280236140608484
 50
38.12041979717272
 51
141.8795802028273
 73
     1
 97
        4
330
376
330
375
330
370
330
36F
 75
     1
 76
     0
 52
45.0
 41
0.1
 77
     0
 78
     1
 53
45.0
 43
0.0
 44
0.0
 45
-0.0707106781186548
 46
0.0707106781186548
 79
     0
 98
        1
 10
0.0
 20
0.0
  0
HATCH
  5
402
330
6D
100
AcDbEntity
  8
1
  6
Continuous
 62
     2
100
AcDbHatch
 10
0.0
 20
0.0
 30
0.0
210
0.0
220
0.0
230
1.0
  2
_USER
 70
     0
 71
     1
 91
        2
 92
        1
 93
        4
 72
     2
 10
-918.4831513176294
 20
-1177.599125669559
 40
1.204986845992721
 50
117.5481481756702
 51
242.4518518243497
 73
     1
 72
     2
 10
-918.2509695888415
 20
-1177.154022355259
 40
1.707008076205781
 50
242.4518518243417
 51
297.5481481756786
 73
     1
 72
     2
 10
-918.0187878600537
 20
-1177.599125669559
 40
1.204986845993948
 50
297.5481481756886
 51
422.4518518242915
 73
     1
 72
     2
 10
-918.2509695888415
 20
-1178.044228983859
 40
1.707008076205289
 50
62.45185182430729
 51
117.5481481756724
 73
     1
 97
        4
330
374
330
371
330
373
330
372
 92
       16
 93
        4
 72
     2
 10
-918.2509695888415
 20
-1177.469595770286
 40
0.4280236140606695
 50
38.1204197971915
 51
141.8795802028367
 73
     1
 72
     2
 10
-918.0858951786382
 20
-1177.599125669559
 40
0.637851056759961
 50
141.8795802028292
 51
218.1204197971708
 73
     1
 72
     2
 10
-918.2509695888415
 20
-1177.728655568832
 40
0.4280236140609378
 50
218.1204197971633
 51
321.8795802028085
 73
     1
 72
     2
 10
-918.4160439990452
 20
-1177.599125669559
 40
0.6378510567600505
 50
321.8795802028355
 51
398.1204197971646
 73
     1
 97
        4
330
357
330
358
330
359
330
356
 75
     1
 76
     0
 52
45.0
 41
0.1
 77
     0
 78
     1
 53
45.0
 43
0.0
 44
0.0
 45
-0.0707106781186548
 46
0.0707106781186548
 79
     0
 98
        1
 10
0.0
 20
0.0
  0
HATCH
  5
403
330
6D
100
AcDbEntity
  8
1
  6
Continuous
 62
     2
100
AcDbHatch
 10
0.0
 20
0.0
 30
0.0
210
0.0
220
0.0
230
1.0
  2
_USER
 70
     0
 71
     1
 91
        2
 92
        1
 93
        4
 72
     2
 10
-918.4831513176294
 20
-1177.599125669559
 40
1.204986845992721
 50
117.5481481756702
 51
242.4518518243497
 73
     1
 72
     2
 10
-918.2509695888415
 20
-1177.154022355259
 40
1.707008076205781
 50
242.4518518243417
 51
297.5481481756786
 73
     1
 72
     2
 10
-918.0187878600537
 20
-1177.599125669559
 40
1.204986845993948
 50
297.5481481756886
 51
422.4518518242915
 73
     1
 72
     2
 10
-918.2509695888415
 20
-1178.044228983859
 40
1.707008076205289
 50
62.45185182430729
 51
117.5481481756724
 73
     1
 97
        4
330
374
330
371
330
373
330
372
 92
       16
 93
        4
 72
     2
 10
-918.2509695888415
 20
-1177.469595770286
 40
0.4280236140606695
 50
38.1204197971915
 51
141.8795802028367
 73
     1
 72
     2
 10
-918.0858951786382
 20
-1177.599125669559
 40
0.637851056759961
 50
141.8795802028292
 51
218.1204197971708
 73
     1
 72
     2
 10
-918.2509695888415
 20
-1177.728655568832
 40
0.4280236140609378
 50
218.1204197971633
 51
321.8795802028085
 73
     1
 72
     2
 10
-918.4160439990452
 20
-1177.599125669559
 40
0.6378510567600505
 50
321.8795802028355
 51
398.1204197971646
 73
     1
 97
        4
330
357
330
358
330
359
330
356
 75
     1
 76
     0
 52
45.0
 41
0.1
 77
     0
 78
     1
 53
45.0
 43
0.0
 44
0.0
 45
-0.0707106781186548
 46
0.0707106781186548
 79
     0
 98
        1
 10
0.0
 20
0.0
  0
HATCH
  5
404
330
6D
100
AcDbEntity
  8
1
  6
Continuous
 62
     2
100
AcDbHatch
 10
0.0
 20
0.0
 30
0.0
210
0.0
220
0.0
230
1.0
  2
_USER
 70
     0
 71
     1
 91
        2
 92
        1
 93
        6
 72
     1
 10
-922.0161057428858
 20
-1173.561030431477
 11
-922.0161057428858
 21
-1176.084839955287
 72
     1
 10
-922.0161057428858
 20
-1176.084839955287
 11
-920.9908954864775
 21
-1176.084839955287
 72
     1
 10
-920.9908954864775
 20
-1176.084839955287
 11
-920.9908954864775
 21
-1175.30543645021
 72
     1
 10
-920.9908954864775
 20
-1175.30543645021
 11
-920.3638148354194
 21
-1175.30543645021
 72
     2
 10
-920.3638148354194
 20
-1174.433233440843
 40
0.8722030093670128
 50
270.0
 51
450.0
 73
     1
 72
     1
 10
-920.3638148354194
 20
-1173.561030431477
 11
-922.0161057428858
 21
-1173.561030431477
 97
        6
330
37E
330
23E
330
234
330
233
330
240
330
23F
 92
       16
 93
        4
 72
     1
 10
-920.7286681628891
 20
-1174.109051791344
 11
-920.9908954864775
 21
-1174.109051791344
 72
     1
 10
-920.9908954864775
 20
-1174.109051791344
 11
-920.9908954864775
 21
-1174.692297782536
 72
     1
 10
-920.9908954864775
 20
-1174.692297782536
 11
-920.7286681628891
 21
-1174.692297782536
 72
     2
 10
-920.7286681628891
 20
-1174.40067478694
 40
0.2916229955958443
 50
270.0
 51
450.0
 73
     1
 97
        4
330
241
330
232
330
242
330
36A
 75
     1
 76
     0
 52
45.0
 41
0.1
 77
     0
 78
     1
 53
45.0
 43
0.0
 44
0.0
 45
-0.0707106781186548
 46
0.0707106781186548
 79
     0
 98
        1
 10
0.0
 20
0.0
  0
HATCH
  5
405
330
6D
100
AcDbEntity
  8
1
  6
Continuous
 62
     2
100
AcDbHatch
 10
0.0
 20
0.0
 30
0.0
210
0.0
220
0.0
230
1.0
  2
_USER
 70
     0
 71
     1
 91
        2
 92
        1
 93
        6
 72
     1
 10
-922.0161057428858
 20
-1173.561030431477
 11
-922.0161057428858
 21
-1176.084839955287
 72
     1
 10
-922.0161057428858
 20
-1176.084839955287
 11
-920.9908954864775
 21
-1176.084839955287
 72
     1
 10
-920.9908954864775
 20
-1176.084839955287
 11
-920.9908954864775
 21
-1175.30543645021
 72
     1
 10
-920.9908954864775
 20
-1175.30543645021
 11
-920.3638148354194
 21
-1175.30543645021
 72
     2
 10
-920.3638148354194
 20
-1174.433233440843
 40
0.8722030093670128
 50
270.0
 51
450.0
 73
     1
 72
     1
 10
-920.3638148354194
 20
-1173.561030431477
 11
-922.0161057428858
 21
-1173.561030431477
 97
        6
330
37E
330
23E
330
234
330
233
330
240
330
23F
 92
       16
 93
        4
 72
     1
 10
-920.7286681628891
 20
-1174.109051791344
 11
-920.9908954864775
 21
-1174.109051791344
 72
     1
 10
-920.9908954864775
 20
-1174.109051791344
 11
-920.9908954864775
 21
-1174.692297782536
 72
     1
 10
-920.9908954864775
 20
-1174.692297782536
 11
-920.7286681628891
 21
-1174.692297782536
 72
     2
 10
-920.7286681628891
 20
-1174.40067478694
 40
0.2916229955958443
 50
270.0
 51
450.0
 73
     1
 97
        4
330
241
330
232
330
242
330
36A
 75
     1
 76
     0
 52
45.0
 41
0.1
 77
     0
 78
     1
 53
45.0
 43
0.0
 44
0.0
 45
-0.0707106781186548
 46
0.0707106781186548
 79
     0
 98
        1
 10
0.0
 20
0.0
  0
HATCH
  5
406
330
6D
100
AcDbEntity
  8
1
  6
Continuous
 62
     2
100
AcDbHatch
 10
0.0
 20
0.0
 30
0.0
210
0.0
220
0.0
230
1.0
  2
_USER
 70
     0
 71
     1
 91
        1
 92
        1
 93
       12
 72
     1
 10
-905.8059543425278
 20
-1173.561030431477
 11
-904.6466781295136
 21
-1173.561030431477
 72
     1
 10
-904.6466781295136
 20
-1173.561030431477
 11
-905.7231488987421
 21
-1174.77834491911
 72
     1
 10
-905.7231488987421
 20
-1174.77834491911
 11
-904.5678158020972
 21
-1176.084839955287
 72
     1
 10
-904.5678158020972
 20
-1176.084839955287
 11
-905.7270920151124
 21
-1176.084839955287
 72
     1
 10
-905.7270920151124
 20
-1176.084839955287
 11
-906.3027870052491
 21
-1175.433821950913
 72
     1
 10
-906.3027870052491
 20
-1175.433821950913
 11
-906.8784819953861
 21
-1176.084839955287
 72
     1
 10
-906.8784819953861
 20
-1176.084839955287
 11
-908.037758208401
 21
-1176.084839955287
 72
     1
 10
-908.037758208401
 20
-1176.084839955287
 11
-906.8824251117562
 21
-1174.77834491911
 72
     1
 10
-906.8824251117562
 20
-1174.77834491911
 11
-907.9588958809856
 21
-1173.561030431477
 72
     1
 10
-907.9588958809856
 20
-1173.561030431477
 11
-906.7996196679696
 21
-1173.561030431477
 72
     1
 10
-906.7996196679696
 20
-1173.561030431477
 11
-906.3027870052491
 21
-1174.122867887307
 72
     1
 10
-906.3027870052491
 20
-1174.122867887307
 11
-905.8059543425278
 21
-1173.561030431477
 97
       12
330
20D
330
266
330
265
330
264
330
263
330
20E
330
20F
330
20B
330
20C
330
269
330
268
330
267
 75
     1
 76
     0
 52
45.0
 41
0.1
 77
     0
 78
     1
 53
45.0
 43
0.0
 44
0.0
 45
-0.0707106781186548
 46
0.0707106781186548
 79
     0
 98
        1
 10
0.0
 20
0.0
  0
HATCH
  5
407
330
6D
100
AcDbEntity
  8
1
  6
Continuous
 62
     2
100
AcDbHatch
 10
0.0
 20
0.0
 30
0.0
210
0.0
220
0.0
230
1.0
  2
_USER
 70
     0
 71
     1
 91
        1
 92
        1
 93
       12
 72
     1
 10
-905.8059543425278
 20
-1173.561030431477
 11
-904.6466781295136
 21
-1173.561030431477
 72
     1
 10
-904.6466781295136
 20
-1173.561030431477
 11
-905.7231488987421
 21
-1174.77834491911
 72
     1
 10
-905.7231488987421
 20
-1174.77834491911
 11
-904.5678158020972
 21
-1176.084839955287
 72
     1
 10
-904.5678158020972
 20
-1176.084839955287
 11
-905.7270920151124
 21
-1176.084839955287
 72
     1
 10
-905.7270920151124
 20
-1176.084839955287
 11
-906.3027870052491
 21
-1175.433821950913
 72
     1
 10
-906.3027870052491
 20
-1175.433821950913
 11
-906.8784819953861
 21
-1176.084839955287
 72
     1
 10
-906.8784819953861
 20
-1176.084839955287
 11
-908.037758208401
 21
-1176.084839955287
 72
     1
 10
-908.037758208401
 20
-1176.084839955287
 11
-906.8824251117562
 21
-1174.77834491911
 72
     1
 10
-906.8824251117562
 20
-1174.77834491911
 11
-907.9588958809856
 21
-1173.561030431477
 72
     1
 10
-907.9588958809856
 20
-1173.561030431477
 11
-906.7996196679696
 21
-1173.561030431477
 72
     1
 10
-906.7996196679696
 20
-1173.561030431477
 11
-906.3027870052491
 21
-1174.122867887307
 72
     1
 10
-906.3027870052491
 20
-1174.122867887307
 11
-905.8059543425278
 21
-1173.561030431477
 97
       12
330
20D
330
266
330
265
330
264
330
263
330
20E
330
20F
330
20B
330
20C
330
269
330
268
330
267
 75
     1
 76
     0
 52
45.0
 41
0.1
 77
     0
 78
     1
 53
45.0
 43
0.0
 44
0.0
 45
-0.0707106781186548
 46
0.0707106781186548
 79
     0
 98
        1
 10
0.0
 20
0.0
  0
HATCH
  5
408
330
6D
100
AcDbEntity
  8
1
  6
Continuous
 62
     2
100
AcDbHatch
 10
0.0
 20
0.0
 30
0.0
210
0.0
220
0.0
230
1.0
  2
_USER
 70
     0
 71
     1
 91
        1
 92
        1
 93
        4
 72
     1
 10
-908.1363361176712
 20
-1173.561030431477
 11
-908.1363361176712
 21
-1176.084839955287
 72
     1
 10
-908.1363361176712
 20
-1176.084839955287
 11
-909.1615463740786
 21
-1176.084839955287
 72
     1
 10
-909.1615463740786
 20
-1176.084839955287
 11
-909.1615463740786
 21
-1173.561030431477
 72
     1
 10
-909.1615463740786
 20
-1173.561030431477
 11
-908.1363361176712
 21
-1173.561030431477
 97
        4
330
261
330
210
330
260
330
262
 75
     1
 76
     0
 52
45.0
 41
0.1
 77
     0
 78
     1
 53
45.0
 43
0.0
 44
0.0
 45
-0.0707106781186548
 46
0.0707106781186548
 79
     0
 98
        1
 10
0.0
 20
0.0
  0
HATCH
  5
409
330
6D
100
AcDbEntity
  8
1
  6
Continuous
 62
     2
100
AcDbHatch
 10
0.0
 20
0.0
 30
0.0
210
0.0
220
0.0
230
1.0
  2
_USER
 70
     0
 71
     1
 91
        1
 92
        1
 93
        4
 72
     1
 10
-908.1363361176712
 20
-1173.561030431477
 11
-908.1363361176712
 21
-1176.084839955287
 72
     1
 10
-908.1363361176712
 20
-1176.084839955287
 11
-909.1615463740786
 21
-1176.084839955287
 72
     1
 10
-909.1615463740786
 20
-1176.084839955287
 11
-909.1615463740786
 21
-1173.561030431477
 72
     1
 10
-909.1615463740786
 20
-1173.561030431477
 11
-908.1363361176712
 21
-1173.561030431477
 97
        4
330
261
330
210
330
260
330
262
 75
     1
 76
     0
 52
45.0
 41
0.1
 77
     0
 78
     1
 53
45.0
 43
0.0
 44
0.0
 45
-0.0707106781186548
 46
0.0707106781186548
 79
     0
 98
        1
 10
0.0
 20
0.0
  0
HATCH
  5
40A
330
6D
100
AcDbEntity
  8
1
  6
Continuous
 62
     2
100
AcDbHatch
 10
0.0
 20
0.0
 30
0.0
210
0.0
220
0.0
230
1.0
  2
_USER
 70
     0
 71
     1
 91
        2
 92
        1
 93
        8
 72
     1
 10
-908.4590171123258
 20
-1178.861030431465
 11
-909.484227368734
 21
-1178.861030431465
 72
     1
 10
-909.484227368734
 20
-1178.861030431465
 11
-909.659004272433
 21
-1178.413955601532
 72
     1
 10
-909.659004272433
 20
-1178.413955601532
 11
-910.5949064019155
 21
-1178.413955601532
 72
     1
 10
-910.5949064019155
 20
-1178.413955601532
 11
-910.7696833056145
 21
-1178.861030431465
 72
     1
 10
-910.7696833056145
 20
-1178.861030431465
 11
-911.7948935620219
 21
-1178.861030431465
 72
     1
 10
-911.7948935620219
 20
-1178.861030431465
 11
-910.6395604653779
 21
-1176.337220907654
 72
     1
 10
-910.6395604653779
 20
-1176.337220907654
 11
-909.6143502089707
 21
-1176.337220907654
 72
     1
 10
-909.6143502089707
 20
-1176.337220907654
 11
-908.4590171123258
 21
-1178.861030431465
 97
        8
330
25C
330
216
330
25B
330
25E
330
213
330
25D
330
214
330
215
 92
       16
 93
        3
 72
     1
 10
-910.3750257811345
 20
-1177.85150662194
 11
-909.8788848932151
 21
-1177.85150662194
 72
     1
 10
-909.8788848932151
 20
-1177.85150662194
 11
-910.1269553371739
 21
-1177.216948798811
 72
     1
 10
-910.1269553371739
 20
-1177.216948798811
 11
-910.3750257811345
 21
-1177.85150662194
 97
        3
330
212
330
211
330
25F
 75
     1
 76
     0
 52
45.0
 41
0.1
 77
     0
 78
     1
 53
45.0
 43
0.0
 44
0.0
 45
-0.0707106781186548
 46
0.0707106781186548
 79
     0
 98
        1
 10
0.0
 20
0.0
  0
HATCH
  5
40B
330
6D
100
AcDbEntity
  8
1
  6
Continuous
 62
     2
100
AcDbHatch
 10
0.0
 20
0.0
 30
0.0
210
0.0
220
0.0
230
1.0
  2
_USER
 70
     0
 71
     1
 91
        2
 92
        1
 93
        8
 72
     1
 10
-908.4590171123258
 20
-1178.861030431465
 11
-909.484227368734
 21
-1178.861030431465
 72
     1
 10
-909.484227368734
 20
-1178.861030431465
 11
-909.659004272433
 21
-1178.413955601532
 72
     1
 10
-909.659004272433
 20
-1178.413955601532
 11
-910.5949064019155
 21
-1178.413955601532
 72
     1
 10
-910.5949064019155
 20
-1178.413955601532
 11
-910.7696833056145
 21
-1178.861030431465
 72
     1
 10
-910.7696833056145
 20
-1178.861030431465
 11
-911.7948935620219
 21
-1178.861030431465
 72
     1
 10
-911.7948935620219
 20
-1178.861030431465
 11
-910.6395604653779
 21
-1176.337220907654
 72
     1
 10
-910.6395604653779
 20
-1176.337220907654
 11
-909.6143502089707
 21
-1176.337220907654
 72
     1
 10
-909.6143502089707
 20
-1176.337220907654
 11
-908.4590171123258
 21
-1178.861030431465
 97
        8
330
25C
330
216
330
25B
330
25E
330
213
330
25D
330
214
330
215
 92
       16
 93
        3
 72
     1
 10
-910.3750257811345
 20
-1177.85150662194
 11
-909.8788848932151
 21
-1177.85150662194
 72
     1
 10
-909.8788848932151
 20
-1177.85150662194
 11
-910.1269553371739
 21
-1177.216948798811
 72
     1
 10
-910.1269553371739
 20
-1177.216948798811
 11
-910.3750257811345
 21
-1177.85150662194
 97
        3
330
212
330
211
330
25F
 75
     1
 76
     0
 52
45.0
 41
0.1
 77
     0
 78
     1
 53
45.0
 43
0.0
 44
0.0
 45
-0.0707106781186548
 46
0.0707106781186548
 79
     0
 98
        1
 10
0.0
 20
0.0
  0
HATCH
  5
40C
330
6D
100
AcDbEntity
  8
1
  6
Continuous
 62
     2
100
AcDbHatch
 10
0.0
 20
0.0
 30
0.0
210
0.0
220
0.0
230
1.0
  2
_USER
 70
     0
 71
     1
 91
        1
 92
        1
 93
        8
 72
     1
 10
-913.5779614456436
 20
-1176.337220907654
 11
-913.5779614456436
 21
-1176.986200499491
 72
     1
 10
-913.5779614456436
 20
-1176.986200499491
 11
-912.9076316626067
 21
-1176.986200499491
 72
     1
 10
-912.9076316626067
 20
-1176.986200499491
 11
-912.9076316626067
 21
-1178.861030431465
 72
     1
 10
-912.9076316626067
 20
-1178.861030431465
 11
-911.9218525699072
 21
-1178.861030431465
 72
     1
 10
-911.9218525699072
 20
-1178.861030431465
 11
-911.9218525699072
 21
-1176.986200499491
 72
     1
 10
-911.9218525699072
 20
-1176.986200499491
 11
-911.251522786872
 21
-1176.986200499491
 72
     1
 10
-911.251522786872
 20
-1176.986200499491
 11
-911.251522786872
 21
-1176.337220907654
 72
     1
 10
-911.251522786872
 20
-1176.337220907654
 11
-913.5779614456436
 21
-1176.337220907654
 97
        8
330
258
330
257
330
256
330
217
330
218
330
25A
330
219
330
259
 75
     1
 76
     0
 52
45.0
 41
0.1
 77
     0
 78
     1
 53
45.0
 43
0.0
 44
0.0
 45
-0.0707106781186548
 46
0.0707106781186548
 79
     0
 98
        1
 10
0.0
 20
0.0
  0
HATCH
  5
40D
330
6D
100
AcDbEntity
  8
1
  6
Continuous
 62
     2
100
AcDbHatch
 10
0.0
 20
0.0
 30
0.0
210
0.0
220
0.0
230
1.0
  2
_USER
 70
     0
 71
     1
 91
        1
 92
        1
 93
        8
 72
     1
 10
-913.5779614456436
 20
-1176.337220907654
 11
-913.5779614456436
 21
-1176.986200499491
 72
     1
 10
-913.5779614456436
 20
-1176.986200499491
 11
-912.9076316626067
 21
-1176.986200499491
 72
     1
 10
-912.9076316626067
 20
-1176.986200499491
 11
-912.9076316626067
 21
-1178.861030431465
 72
     1
 10
-912.9076316626067
 20
-1178.861030431465
 11
-911.9218525699072
 21
-1178.861030431465
 72
     1
 10
-911.9218525699072
 20
-1178.861030431465
 11
-911.9218525699072
 21
-1176.986200499491
 72
     1
 10
-911.9218525699072
 20
-1176.986200499491
 11
-911.251522786872
 21
-1176.986200499491
 72
     1
 10
-911.251522786872
 20
-1176.986200499491
 11
-911.251522786872
 21
-1176.337220907654
 72
     1
 10
-911.251522786872
 20
-1176.337220907654
 11
-913.5779614456436
 21
-1176.337220907654
 97
        8
330
258
330
257
330
256
330
217
330
218
330
25A
330
219
330
259
 75
     1
 76
     0
 52
45.0
 41
0.1
 77
     0
 78
     1
 53
45.0
 43
0.0
 44
0.0
 45
-0.0707106781186548
 46
0.0707106781186548
 79
     0
 98
        1
 10
0.0
 20
0.0
  0
HATCH
  5
40E
330
6D
100
AcDbEntity
  8
1
  6
Continuous
 62
     2
100
AcDbHatch
 10
0.0
 20
0.0
 30
0.0
210
0.0
220
0.0
230
1.0
  2
_USER
 70
     0
 71
     1
 91
        1
 92
        1
 93
       10
 72
     1
 10
-911.369691541727
 20
-1173.561030431477
 11
-912.3554706344265
 21
-1173.561030431477
 72
     1
 10
-912.3554706344265
 20
-1173.561030431477
 11
-912.3554706344265
 21
-1176.084839955287
 72
     1
 10
-912.3554706344265
 20
-1176.084839955287
 11
-911.369691541727
 21
-1176.084839955287
 72
     1
 10
-911.369691541727
 20
-1176.084839955287
 11
-911.369691541727
 21
-1175.003207302226
 72
     1
 10
-911.369691541727
 20
-1175.003207302226
 11
-910.3444812853187
 21
-1176.084839955287
 72
     1
 10
-910.3444812853187
 20
-1176.084839955287
 11
-909.358702192619
 21
-1176.084839955287
 72
     1
 10
-909.358702192619
 20
-1176.084839955287
 11
-909.358702192619
 21
-1173.561030431477
 72
     1
 10
-909.358702192619
 20
-1173.561030431477
 11
-910.3444812853187
 21
-1173.561030431477
 72
     1
 10
-910.3444812853187
 20
-1173.561030431477
 11
-910.3444812853187
 21
-1174.642663084539
 72
     1
 10
-910.3444812853187
 20
-1174.642663084539
 11
-911.369691541727
 21
-1173.561030431477
 97
       10
330
252
330
21C
330
21D
330
21E
330
21F
330
255
330
21A
330
254
330
253
330
21B
 75
     1
 76
     0
 52
45.0
 41
0.1
 77
     0
 78
     1
 53
45.0
 43
0.0
 44
0.0
 45
-0.0707106781186548
 46
0.0707106781186548
 79
     0
 98
        1
 10
0.0
 20
0.0
  0
HATCH
  5
40F
330
6D
100
AcDbEntity
  8
1
  6
Continuous
 62
     2
100
AcDbHatch
 10
0.0
 20
0.0
 30
0.0
210
0.0
220
0.0
230
1.0
  2
_USER
 70
     0
 71
     1
 91
        1
 92
        1
 93
       10
 72
     1
 10
-911.369691541727
 20
-1173.561030431477
 11
-912.3554706344265
 21
-1173.561030431477
 72
     1
 10
-912.3554706344265
 20
-1173.561030431477
 11
-912.3554706344265
 21
-1176.084839955287
 72
     1
 10
-912.3554706344265
 20
-1176.084839955287
 11
-911.369691541727
 21
-1176.084839955287
 72
     1
 10
-911.369691541727
 20
-1176.084839955287
 11
-911.369691541727
 21
-1175.003207302226
 72
     1
 10
-911.369691541727
 20
-1175.003207302226
 11
-910.3444812853187
 21
-1176.084839955287
 72
     1
 10
-910.3444812853187
 20
-1176.084839955287
 11
-909.358702192619
 21
-1176.084839955287
 72
     1
 10
-909.358702192619
 20
-1176.084839955287
 11
-909.358702192619
 21
-1173.561030431477
 72
     1
 10
-909.358702192619
 20
-1173.561030431477
 11
-910.3444812853187
 21
-1173.561030431477
 72
     1
 10
-910.3444812853187
 20
-1173.561030431477
 11
-910.3444812853187
 21
-1174.642663084539
 72
     1
 10
-910.3444812853187
 20
-1174.642663084539
 11
-911.369691541727
 21
-1173.561030431477
 97
       10
330
252
330
21C
330
21D
330
21E
330
21F
330
255
330
21A
330
254
330
253
330
21B
 75
     1
 76
     0
 52
45.0
 41
0.1
 77
     0
 78
     1
 53
45.0
 43
0.0
 44
0.0
 45
-0.0707106781186548
 46
0.0707106781186548
 79
     0
 98
        1
 10
0.0
 20
0.0
  0
HATCH
  5
410
330
6D
100
AcDbEntity
  8
1
  6
Continuous
 62
     2
100
AcDbHatch
 10
0.0
 20
0.0
 30
0.0
210
0.0
220
0.0
230
1.0
  2
_USER
 70
     0
 71
     1
 91
        1
 92
        1
 93
       10
 72
     1
 10
-915.7072442858745
 20
-1176.337220907654
 11
-916.693023378575
 21
-1176.337220907654
 72
     1
 10
-916.693023378575
 20
-1176.337220907654
 11
-916.693023378575
 21
-1178.861030431465
 72
     1
 10
-916.693023378575
 20
-1178.861030431465
 11
-915.7072442858745
 21
-1178.861030431465
 72
     1
 10
-915.7072442858745
 20
-1178.861030431465
 11
-915.7072442858745
 21
-1177.779397778403
 72
     1
 10
-915.7072442858745
 20
-1177.779397778403
 11
-914.6820340294672
 21
-1178.861030431465
 72
     1
 10
-914.6820340294672
 20
-1178.861030431465
 11
-913.6962549367677
 21
-1178.861030431465
 72
     1
 10
-913.6962549367677
 20
-1178.861030431465
 11
-913.6962549367677
 21
-1176.337220907654
 72
     1
 10
-913.6962549367677
 20
-1176.337220907654
 11
-914.6820340294672
 21
-1176.337220907654
 72
     1
 10
-914.6820340294672
 20
-1176.337220907654
 11
-914.6820340294672
 21
-1177.418853560716
 72
     1
 10
-914.6820340294672
 20
-1177.418853560716
 11
-915.7072442858745
 21
-1176.337220907654
 97
       10
330
221
330
222
330
223
330
24F
330
224
330
225
330
24E
330
251
330
250
330
220
 75
     1
 76
     0
 52
45.0
 41
0.1
 77
     0
 78
     1
 53
45.0
 43
0.0
 44
0.0
 45
-0.0707106781186548
 46
0.0707106781186548
 79
     0
 98
        1
 10
0.0
 20
0.0
  0
HATCH
  5
411
330
6D
100
AcDbEntity
  8
1
  6
Continuous
 62
     2
100
AcDbHatch
 10
0.0
 20
0.0
 30
0.0
210
0.0
220
0.0
230
1.0
  2
_USER
 70
     0
 71
     1
 91
        1
 92
        1
 93
       10
 72
     1
 10
-915.7072442858745
 20
-1176.337220907654
 11
-916.693023378575
 21
-1176.337220907654
 72
     1
 10
-916.693023378575
 20
-1176.337220907654
 11
-916.693023378575
 21
-1178.861030431465
 72
     1
 10
-916.693023378575
 20
-1178.861030431465
 11
-915.7072442858745
 21
-1178.861030431465
 72
     1
 10
-915.7072442858745
 20
-1178.861030431465
 11
-915.7072442858745
 21
-1177.779397778403
 72
     1
 10
-915.7072442858745
 20
-1177.779397778403
 11
-914.6820340294672
 21
-1178.861030431465
 72
     1
 10
-914.6820340294672
 20
-1178.861030431465
 11
-913.6962549367677
 21
-1178.861030431465
 72
     1
 10
-913.6962549367677
 20
-1178.861030431465
 11
-913.6962549367677
 21
-1176.337220907654
 72
     1
 10
-913.6962549367677
 20
-1176.337220907654
 11
-914.6820340294672
 21
-1176.337220907654
 72
     1
 10
-914.6820340294672
 20
-1176.337220907654
 11
-914.6820340294672
 21
-1177.418853560716
 72
     1
 10
-914.6820340294672
 20
-1177.418853560716
 11
-915.7072442858745
 21
-1176.337220907654
 97
       10
330
221
330
222
330
223
330
24F
330
224
330
225
330
24E
330
251
330
250
330
220
 75
     1
 76
     0
 52
45.0
 41
0.1
 77
     0
 78
     1
 53
45.0
 43
0.0
 44
0.0
 45
-0.0707106781186548
 46
0.0707106781186548
 79
     0
 98
        1
 10
0.0
 20
0.0
  0
HATCH
  5
412
330
6D
100
AcDbEntity
  8
1
  6
Continuous
 62
     2
100
AcDbHatch
 10
0.0
 20
0.0
 30
0.0
210
0.0
220
0.0
230
1.0
  2
_USER
 70
     0
 71
     1
 91
        1
 92
        1
 93
       12
 72
     1
 10
-916.5351739874741
 20
-1173.561030431477
 11
-916.5351739874741
 21
-1176.084839955287
 72
     1
 10
-916.5351739874741
 20
-1176.084839955287
 11
-917.5209530801736
 21
-1176.084839955287
 72
     1
 10
-917.5209530801736
 20
-1176.084839955287
 11
-917.5209530801736
 21
-1175.147424989301
 72
     1
 10
-917.5209530801736
 20
-1175.147424989301
 11
-918.38843868175
 21
-1175.147424989301
 72
     1
 10
-918.38843868175
 20
-1175.147424989301
 11
-918.38843868175
 21
-1176.084839955287
 72
     1
 10
-918.38843868175
 20
-1176.084839955287
 11
-919.3742177744497
 21
-1176.084839955287
 72
     1
 10
-919.3742177744497
 20
-1176.084839955287
 11
-919.3742177744497
 21
-1173.561030431477
 72
     1
 10
-919.3742177744497
 20
-1173.561030431477
 11
-918.38843868175
 21
-1173.561030431477
 72
     1
 10
-918.38843868175
 20
-1173.561030431477
 11
-918.38843868175
 21
-1174.444363764811
 72
     1
 10
-918.38843868175
 20
-1174.444363764811
 11
-917.5209530801736
 21
-1174.444363764811
 72
     1
 10
-917.5209530801736
 20
-1174.444363764811
 11
-917.5209530801736
 21
-1173.561030431477
 72
     1
 10
-917.5209530801736
 20
-1173.561030431477
 11
-916.5351739874741
 21
-1173.561030431477
 97
       12
330
249
330
248
330
247
330
22F
330
230
330
246
330
231
330
245
330
244
330
243
330
22D
330
22E
 75
     1
 76
     0
 52
45.0
 41
0.1
 77
     0
 78
     1
 53
45.0
 43
0.0
 44
0.0
 45
-0.0707106781186548
 46
0.0707106781186548
 79
     0
 98
        1
 10
0.0
 20
0.0
  0
HATCH
  5
413
330
6D
100
AcDbEntity
  8
1
  6
Continuous
 62
     2
100
AcDbHatch
 10
0.0
 20
0.0
 30
0.0
210
0.0
220
0.0
230
1.0
  2
_USER
 70
     0
 71
     1
 91
        1
 92
        1
 93
       12
 72
     1
 10
-916.5351739874741
 20
-1173.561030431477
 11
-916.5351739874741
 21
-1176.084839955287
 72
     1
 10
-916.5351739874741
 20
-1176.084839955287
 11
-917.5209530801736
 21
-1176.084839955287
 72
     1
 10
-917.5209530801736
 20
-1176.084839955287
 11
-917.5209530801736
 21
-1175.147424989301
 72
     1
 10
-917.5209530801736
 20
-1175.147424989301
 11
-918.38843868175
 21
-1175.147424989301
 72
     1
 10
-918.38843868175
 20
-1175.147424989301
 11
-918.38843868175
 21
-1176.084839955287
 72
     1
 10
-918.38843868175
 20
-1176.084839955287
 11
-919.3742177744497
 21
-1176.084839955287
 72
     1
 10
-919.3742177744497
 20
-1176.084839955287
 11
-919.3742177744497
 21
-1173.561030431477
 72
     1
 10
-919.3742177744497
 20
-1173.561030431477
 11
-918.38843868175
 21
-1173.561030431477
 72
     1
 10
-918.38843868175
 20
-1173.561030431477
 11
-918.38843868175
 21
-1174.444363764811
 72
     1
 10
-918.38843868175
 20
-1174.444363764811
 11
-917.5209530801736
 21
-1174.444363764811
 72
     1
 10
-917.5209530801736
 20
-1174.444363764811
 11
-917.5209530801736
 21
-1173.561030431477
 72
     1
 10
-917.5209530801736
 20
-1173.561030431477
 11
-916.5351739874741
 21
-1173.561030431477
 97
       12
330
249
330
248
330
247
330
22F
330
230
330
246
330
231
330
245
330
244
330
243
330
22D
330
22E
 75
     1
 76
     0
 52
45.0
 41
0.1
 77
     0
 78
     1
 53
45.0
 43
0.0
 44
0.0
 45
-0.0707106781186548
 46
0.0707106781186548
 79
     0
 98
        1
 10
0.0
 20
0.0
  0
ENDBLK
  5
6F
330
6D
100
AcDbEntity
  8
0
100
AcDbBlockEnd
  0
BLOCK
  5
71
330
70
100
AcDbEntity
  8
0
100
AcDbBlockBegin
  2
_punkt
 70
     0
 10
-804.7502874053184
 20
-1184.71103043147
 30
0.0
  3
_punkt
  1

  0
LINE
  5
414
330
70
100
AcDbEntity
  8
1
  6
Continuous
 62
     2
100
AcDbLine
 10
-804.7502874053183
 20
-1184.71103043147
 30
0.0
 11
-804.7502874053183
 21
-1189.71103043147
 31
0.0
  0
LINE
  5
415
330
70
100
AcDbEntity
  8
1
  6
Continuous
 62
     2
100
AcDbLine
 10
-804.7502874053183
 20
-1184.71103043147
 30
0.0
 11
-799.7502874053208
 21
-1184.71103043147
 31
0.0
  0
ENDBLK
  5
72
330
70
100
AcDbEntity
  8
0
100
AcDbBlockEnd
  0
BLOCK
  5
76
330
73
100
AcDbEntity
  8
0
100
AcDbBlockBegin
  2
A3I
 70
     0
 10
-804.7502874053183
 20
-1189.71103043147
 30
0.0
  3
A3I
  1

  0
INSERT
  5
74
330
73
100
AcDbEntity
  8
1
100
AcDbBlockReference
  2
_rahmen
 10
-804.7502874053183
 20
-1189.71103043147
 30
0.0
  0
INSERT
  5
75
330
73
100
AcDbEntity
  8
1
100
AcDbBlockReference
  2
_punkt
 10
-804.7502874053184
 20
-1184.71103043147
 30
0.0
  0
ENDBLK
  5
77
330
73
100
AcDbEntity
  8
0
100
AcDbBlockEnd
  0
BLOCK
  5
14A
330
140
100
AcDbEntity
  8
0
100
AcDbBlockBegin
  2
*D16
 70
     1
 10
0.0
 20
0.0
 30
0.0
  3
*D16
  1

  0
LINE
  5
141
330
140
100
AcDbEntity
  8
1
  6
Continuous
 62
     2
100
AcDbLine
 10
-1000.45833875879
 20
-1025.707162170063
 30
0.0
 11
-1000.45833875879
 21
-1032.707162170063
 31
0.0
  0
LINE
  5
142
330
140
100
AcDbEntity
  8
1
  6
Continuous
 62
     2
100
AcDbLine
 10
-1000.45833875879
 20
-1032.707162170063
 30
0.0
 11
-1000.45833875879
 21
-1041.807162169495
 31
0.0
  0
LINE
  5
143
330
140
100
AcDbEntity
  8
1
  6
Continuous
 62
     2
100
AcDbLine
 10
-1000.45833875879
 20
-1041.807162169495
 30
0.0
 11
-1000.45833875879
 21
-1048.807162169495
 31
0.0
  0
LINE
  5
144
330
140
100
AcDbEntity
  8
1
  6
Continuous
 62
     2
100
AcDbLine
 10
-1028.499999999789
 20
-1032.707162170063
 30
0.0
 11
-998.4583387587901
 21
-1032.707162170063
 31
0.0
  0
LINE
  5
145
330
140
100
AcDbEntity
  8
1
  6
Continuous
 62
     2
100
AcDbLine
 10
-1009.99871923624
 20
-1041.807162169495
 30
0.0
 11
-998.4583387587901
 21
-1041.807162169495
 31
0.0
  0
LINE
  5
146
330
140
100
AcDbEntity
  8
1
  6
Continuous
 62
     2
100
AcDbLine
 10
-1051.27394972069
 20
-1041.807162169495
 30
0.0
 11
-1012.929572987
 21
-1041.807162169495
 31
0.0
  0
SOLID
  5
147
330
140
100
AcDbEntity
  8
1
 62
     2
100
AcDbTrace
 10
-1000.919122500346
 20
-1029.207162170063
 30
0.0
 11
-999.9975550172342
 21
-1029.207162170063
 31
0.0
 12
-1000.45833875879
 22
-1032.707162170063
 32
0.0
 13
-1000.45833875879
 23
-1032.707162170063
 33
0.0
  0
SOLID
  5
148
330
140
100
AcDbEntity
  8
1
 62
     2
100
AcDbTrace
 10
-999.9975550172342
 20
-1045.307162169495
 30
0.0
 11
-1000.919122500346
 21
-1045.307162169495
 31
0.0
 12
-1000.45833875879
 22
-1041.807162169495
 32
0.0
 13
-1000.45833875879
 23
-1041.807162169495
 33
0.0
  0
MTEXT
  5
149
330
140
100
AcDbEntity
  8
1
 62
     3
100
AcDbMText
 10
-1002.80833875879
 20
-1040.16383959197
 30
0.0
 40
3.5
 41
0.0
 71
     7
 72
     1
  1
9,1
  7
CONVERTER_11
 11
0.0
 21
1.0
 31
0.0
 73
     1
 44
0.60024009603842
  0
ENDBLK
  5
14B
330
140
100
AcDbEntity
  8
0
100
AcDbBlockEnd
  0
BLOCK
  5
157
330
14E
100
AcDbEntity
  8
0
100
AcDbBlockBegin
  2
*D17
 70
     1
 10
0.0
 20
0.0
 30
0.0
  3
*D17
  1

  0
LINE
  5
14F
330
14E
100
AcDbEntity
  8
1
  6
Continuous
 62
     2
100
AcDbLine
 10
-1011.6418734648
 20
-1043.707162170063
 30
0.0
 11
-1011.6418734648
 21
-1036.707162170063
 31
0.0
  0
LINE
  5
150
330
14E
100
AcDbEntity
  8
1
  6
Continuous
 62
     2
100
AcDbLine
 10
-1011.6418734648
 20
-1036.707162170063
 30
0.0
 11
-1011.6418734648
 21
-1032.707162170063
 31
0.0
  0
LINE
  5
151
330
14E
100
AcDbEntity
  8
1
  6
Continuous
 62
     2
100
AcDbLine
 10
-1011.6418734648
 20
-1032.707162170063
 30
0.0
 11
-1011.6418734648
 21
-1024.8728125364
 31
0.0
  0
LINE
  5
152
330
14E
100
AcDbEntity
  8
1
  6
Continuous
 62
     2
100
AcDbLine
 10
-1028.499999999913
 20
-1036.707162170063
 30
0.0
 11
-1009.6418734648
 21
-1036.707162170063
 31
0.0
  0
LINE
  5
153
330
14E
100
AcDbEntity
  8
1
  6
Continuous
 62
     2
100
AcDbLine
 10
-1028.499999999789
 20
-1032.707162170063
 30
0.0
 11
-1009.6418734648
 21
-1032.707162170063
 31
0.0
  0
SOLID
  5
154
330
14E
100
AcDbEntity
  8
1
 62
     2
100
AcDbTrace
 10
-1011.181089723244
 20
-1040.207162170063
 30
0.0
 11
-1012.102657206356
 21
-1040.207162170063
 31
0.0
 12
-1011.6418734648
 22
-1036.707162170063
 32
0.0
 13
-1011.6418734648
 23
-1036.707162170063
 33
0.0
  0
SOLID
  5
155
330
14E
100
AcDbEntity
  8
1
 62
     2
100
AcDbTrace
 10
-1012.102657206356
 20
-1029.207162170063
 30
0.0
 11
-1011.181089723244
 21
-1029.207162170063
 31
0.0
 12
-1011.6418734648
 22
-1032.707162170063
 32
0.0
 13
-1011.6418734648
 23
-1032.707162170063
 33
0.0
  0
MTEXT
  5
156
330
14E
100
AcDbEntity
  8
1
 62
     3
100
AcDbMText
 10
-1013.6418734648
 20
-1026.9728125364
 30
0.0
 40
3.5
 41
0.0
 71
     7
 72
     1
  1
4
  7
CONVERTER_11
 11
0.0
 21
1.0
 31
0.0
 73
     1
 44
0.60024009603842
  0
ENDBLK
  5
158
330
14E
100
AcDbEntity
  8
0
100
AcDbBlockEnd
  0
BLOCK
  5
1F7
330
1F0
100
AcDbEntity
  8
0
100
AcDbBlockBegin
  2
*D18
 70
     1
 10
0.0
 20
0.0
 30
0.0
  3
*D18
  1

  0
LINE
  5
1F1
330
1F0
100
AcDbEntity
  8
1
  6
Continuous
 62
     2
100
AcDbLine
 10
-1028.529162911952
 20
-1004.71439643116
 30
0.0
 11
-1135.470837087847
 21
-1004.71439643116
 31
0.0
  0
LINE
  5
1F2
330
1F0
100
AcDbEntity
  8
1
  6
Continuous
 62
     2
100
AcDbLine
 10
-1028.529162911952
 20
-991.674508573771
 30
0.0
 11
-1028.529162911952
 21
-1006.71439643116
 31
0.0
  0
LINE
  5
1F3
330
1F0
100
AcDbEntity
  8
1
  6
Continuous
 62
     2
100
AcDbLine
 10
-1135.470837087847
 20
-991.6745085737832
 30
0.0
 11
-1135.470837087847
 21
-1006.71439643116
 31
0.0
  0
SOLID
  5
1F4
330
1F0
100
AcDbEntity
  8
1
 62
     2
100
AcDbTrace
 10
-1032.029162911952
 20
-1005.175180172716
 30
0.0
 11
-1032.029162911952
 21
-1004.253612689604
 31
0.0
 12
-1028.529162911952
 22
-1004.71439643116
 32
0.0
 13
-1028.529162911952
 23
-1004.71439643116
 33
0.0
  0
SOLID
  5
1F5
330
1F0
100
AcDbEntity
  8
1
 62
     2
100
AcDbTrace
 10
-1131.970837087847
 20
-1004.253612689604
 30
0.0
 11
-1131.970837087847
 21
-1005.175180172716
 31
0.0
 12
-1135.470837087847
 22
-1004.71439643116
 32
0.0
 13
-1135.470837087847
 23
-1004.71439643116
 33
0.0
  0
MTEXT
  5
1F6
330
1F0
100
AcDbEntity
  8
1
 62
     3
100
AcDbMText
 10
-1087.96956065308
 20
-1002.36439643116
 30
0.0
 40
3.5
 41
0.0
 71
     7
 72
     1
  1
106,9
  7
CONVERTER_11
 11
0.9999999999970619
 21
2.424068405545306E-6
 31
0.0
 73
     1
 44
0.60024009603842
  0
ENDBLK
  5
1F8
330
1F0
100
AcDbEntity
  8
0
100
AcDbBlockEnd
  0
BLOCK
  5
202
330
1FB
100
AcDbEntity
  8
0
100
AcDbBlockBegin
  2
*D19
 70
     1
 10
0.0
 20
0.0
 30
0.0
  3
*D19
  1

  0
LINE
  5
1FC
330
1FB
100
AcDbEntity
  8
1
  6
Continuous
 62
     2
100
AcDbLine
 10
-1011.4668734648
 20
-949.8362478513176
 30
0.0
 11
-1011.4668734648
 21
-992.1637516016618
 31
0.0
  0
LINE
  5
1FD
330
1FB
100
AcDbEntity
  8
1
  6
Continuous
 62
     2
100
AcDbLine
 10
-1050.087791271919
 20
-949.8362478513176
 30
0.0
 11
-1009.4668734648
 21
-949.8362478513176
 31
0.0
  0
LINE
  5
1FE
330
1FB
100
AcDbEntity
  8
1
  6
Continuous
 62
     2
100
AcDbLine
 10
-1048.233949720517
 20
-992.1637516016618
 30
0.0
 11
-1009.4668734648
 21
-992.1637516016618
 31
0.0
  0
SOLID
  5
1FF
330
1FB
100
AcDbEntity
  8
1
 62
     2
100
AcDbTrace
 10
-1011.006089723244
 20
-953.3362478513176
 30
0.0
 11
-1011.927657206356
 21
-953.3362478513176
 31
0.0
 12
-1011.4668734648
 22
-949.8362478513176
 32
0.0
 13
-1011.4668734648
 23
-949.8362478513176
 33
0.0
  0
SOLID
  5
200
330
1FB
100
AcDbEntity
  8
1
 62
     2
100
AcDbTrace
 10
-1011.927657206356
 20
-988.6637516016618
 30
0.0
 11
-1011.006089723244
 21
-988.6637516016618
 31
0.0
 12
-1011.4668734648
 22
-992.1637516016618
 32
0.0
 13
-1011.4668734648
 23
-992.1637516016618
 33
0.0
  0
MTEXT
  5
201
330
1FB
100
AcDbEntity
  8
1
 62
     3
100
AcDbMText
 10
-1013.8168734648
 20
-975.179366655863
 30
0.0
 40
3.5
 41
0.0
 71
     7
 72
     1
  1
42,3
  7
CONVERTER_11
 11
0.0
 21
1.0
 31
0.0
 73
     1
 44
0.60024009603842
  0
ENDBLK
  5
203
330
1FB
100
AcDbEntity
  8
0
100
AcDbBlockEnd
  0
ENDSEC
  0
SECTION
  2
ENTITIES
  0
INSERT
  5
78
330
1F
100
AcDbEntity
  8
0
100
AcDbBlockReference
  2
AllgSicht1
 10
-896.000000000012
 20
-1092.99999999997
 30
0.0
  0
INSERT
  5
79
330
1F
100
AcDbEntity
  8
0
100
AcDbBlockReference
  2
Drfsicht1
 10
-1082.000000000014
 20
-1040.207162170686
 30
0.0
  0
INSERT
  5
7A
330
1F
100
AcDbEntity
  8
0
100
AcDbBlockReference
  2
Rckans1
 10
-886.9999999954011
 20
-970.99999999997
 30
0.0
  0
INSERT
  5
7B
330
1F
100
AcDbEntity
  8
0
100
AcDbBlockReference
  2
SA_Links1
 10
-980.6166226566386
 20
-970.99999999997
 30
0.0
  0
INSERT
  5
7C
330
1F
100
AcDbEntity
  8
0
100
AcDbBlockReference
  2
SA_Rechts1
 10
-1178.000000006904
 20
-970.99999999997
 30
0.0
  0
INSERT
  5
7D
330
1F
100
AcDbEntity
  8
0
100
AcDbBlockReference
  2
Vordans1
 10
-1082.0
 20
-970.99999999997
 30
0.0
  0
INSERT
  5
7E
330
1F
100
AcDbEntity
  8
0
100
AcDbBlockReference
  2
A3I
 10
-804.7502874053183
 20
-1189.71103043147
 30
0.0
  0
ENDSEC
  0
SECTION
  2
OBJECTS
  0
DICTIONARY
  5
C
330
0
100
AcDbDictionary
281
     1
  3
ACAD_GROUP
350
D
  3
ACAD_LAYOUT
350
1A
  3
ACAD_MLEADERSTYLE
350
417
  3
ACAD_MLINESTYLE
350
17
  3
ACAD_PLOTSETTINGS
350
19
  3
ACAD_PLOTSTYLENAME
350
E
  3
ACAD_TABLESTYLE
350
416
  3
ACAD_VISUALSTYLE
350
2A
  0
DICTIONARY
  5
D
102
{ACAD_REACTORS
330
C
102
}
330
C
100
AcDbDictionary
281
     1
  0
DICTIONARY
  5
1A
102
{ACAD_REACTORS
330
C
102
}
330
C
100
AcDbDictionary
281
     1
  3
Layout1
350
1E
  3
Layout2
350
26
  3
Model
350
22
  0
DICTIONARY
  5
417
102
{ACAD_REACTORS
330
C
102
}
330
C
100
AcDbDictionary
281
     1
  0
DICTIONARY
  5
17
102
{ACAD_REACTORS
330
C
102
}
330
C
100
AcDbDictionary
281
     1
  3
Standard
350
18
  0
DICTIONARY
  5
19
102
{ACAD_REACTORS
330
C
102
}
330
C
100
AcDbDictionary
281
     1
  0
ACDBDICTIONARYWDFLT
  5
E
102
{ACAD_REACTORS
330
C
102
}
330
C
100
AcDbDictionary
281
     1
  3
Normal
350
F
100
AcDbDictionaryWithDefault
340
F
  0
DICTIONARY
  5
416
102
{ACAD_REACTORS
330
C
102
}
330
C
100
AcDbDictionary
281
     1
  0
DICTIONARY
  5
2A
102
{ACAD_REACTORS
330
C
102
}
330
C
100
AcDbDictionary
281
     1
  3
2dWireframe
350
2F
  3
3D Hidden
350
31
  3
3dWireframe
350
30
  3
Basic
350
32
  3
Brighten
350
36
  3
ColorChange
350
3A
  3
Conceptual
350
34
  3
Dim
350
35
  3
Facepattern
350
39
  3
Flat
350
2B
  3
FlatWithEdges
350
2C
  3
Gouraud
350
2D
  3
GouraudWithEdges
350
2E
  3
Linepattern
350
38
  3
Realistic
350
33
  3
Thicken
350
37
  0
LAYOUT
  5
1E
102
{ACAD_REACTORS
330
1A
102
}
330
1A
100
AcDbPlotSettings
  1

  2
none_device
  4

  6

 40
0.0
 41
0.0
 42
0.0
 43
0.0
 44
0.0
 45
0.0
 46
0.0
 47
0.0
 48
0.0
 49
0.0
140
0.0
141
0.0
142
1.0
143
1.0
 70
   688
 72
     0
 73
     0
 74
     5
  7

 75
    16
147
1.0
148
0.0
149
0.0
100
AcDbLayout
  1
Layout1
 70
     1
 71
     1
 10
0.0
 20
0.0
 11
12.0
 21
9.0
 12
0.0
 22
0.0
 32
0.0
 14
1.00000000000000E+20
 24
1.00000000000000E+20
 34
1.00000000000000E+20
 15
-1.00000000000000E+20
 25
-1.00000000000000E+20
 35
-1.00000000000000E+20
146
0.0
 13
0.0
 23
0.0
 33
0.0
 16
1.0
 26
0.0
 36
0.0
 17
0.0
 27
1.0
 37
0.0
 76
     0
330
1B
  0
LAYOUT
  5
26
102
{ACAD_REACTORS
330
1A
102
}
330
1A
100
AcDbPlotSettings
  1

  2
none_device
  4

  6

 40
0.0
 41
0.0
 42
0.0
 43
0.0
 44
0.0
 45
0.0
 46
0.0
 47
0.0
 48
0.0
 49
0.0
140
0.0
141
0.0
142
1.0
143
1.0
 70
   688
 72
     0
 73
     0
 74
     5
  7

 75
    16
147
1.0
148
0.0
149
0.0
100
AcDbLayout
  1
Layout2
 70
     1
 71
     2
 10
0.0
 20
0.0
 11
0.0
 21
0.0
 12
0.0
 22
0.0
 32
0.0
 14
0.0
 24
0.0
 34
0.0
 15
0.0
 25
0.0
 35
0.0
146
0.0
 13
0.0
 23
0.0
 33
0.0
 16
1.0
 26
0.0
 36
0.0
 17
0.0
 27
1.0
 37
0.0
 76
     0
330
23
  0
LAYOUT
  5
22
102
{ACAD_REACTORS
330
1A
102
}
330
1A
100
AcDbPlotSettings
  1

  2
none_device
  4

  6

 40
0.0
 41
0.0
 42
0.0
 43
0.0
 44
0.0
 45
0.0
 46
0.0
 47
0.0
 48
0.0
 49
0.0
140
0.0
141
0.0
142
1.0
143
1.0
 70
  1712
 72
     0
 73
     0
 74
     0
  7

 75
     0
147
1.0
148
0.0
149
0.0
100
AcDbLayout
  1
Model
 70
     1
 71
     0
 10
0.0
 20
0.0
 11
12.0
 21
9.0
 12
0.0
 22
0.0
 32
0.0
 14
-1219.750287405319
 24
-1189.71103043147
 34
0.0
 15
-799.7502874053208
 25
-892.7110304314699
 35
0.0
146
0.0
 13
0.0
 23
0.0
 33
0.0
 16
1.0
 26
0.0
 36
0.0
 17
0.0
 27
1.0
 37
0.0
 76
     0
330
1F
331
29
  0
MLINESTYLE
  5
18
102
{ACAD_REACTORS
330
17
102
}
330
17
100
AcDbMlineStyle
  2
Standard
 70
     0
  3

 62
   256
 51
90.0
 52
90.0
 71
     2
 49
0.5
 62
   256
  6
BYLAYER
 49
-0.5
 62
   256
  6
BYLAYER
  0
ACDBPLACEHOLDER
  5
F
102
{ACAD_REACTORS
330
E
102
}
330
E
  0
VISUALSTYLE
  5
2F
102
{ACAD_REACTORS
330
2A
102
}
330
2A
100
AcDbVisualStyle
  2
2dWireframe
 70
     4
 71
     0
 72
     2
 73
     0
 90
        0
 40
-0.6
 41
-30.0
 62
     5
 63
     7
 74
     1
 91
        4
 64
     7
 65
   257
 75
     1
175
     1
 42
1.0
 92
        0
 66
   257
 43
1.0
 76
     1
 77
     6
 78
     2
 67
     7
 79
     5
170
     0
171
     0
290
     0
174
     0
 93
        1
 44
0.0
173
     0
291
     0
 45
0.0
1001
ACAD
1000
AcDbSavedByObjectVersion
1070
     0
  0
VISUALSTYLE
  5
31
102
{ACAD_REACTORS
330
2A
102
}
330
2A
100
AcDbVisualStyle
  2
3D Hidden
 70
     6
 71
     1
 72
     2
 73
     2
 90
        0
 40
-0.6
 41
-30.0
 62
     5
 63
     7
 74
     2
 91
        2
 64
     7
 65
   257
 75
     2
175
     1
 42
40.0
 92
        0
 66
   257
 43
1.0
 76
     1
 77
     6
 78
     2
 67
     7
 79
     3
170
     0
171
     0
290
     0
174
     0
 93
        1
 44
0.0
173
     0
291
     0
 45
0.0
1001
ACAD
1000
AcDbSavedByObjectVersion
1070
     0
  0
VISUALSTYLE
  5
30
102
{ACAD_REACTORS
330
2A
102
}
330
2A
100
AcDbVisualStyle
  2
3dWireframe
 70
     5
 71
     0
 72
     2
 73
     0
 90
        0
 40
-0.6
 41
-30.0
 62
     5
 63
     7
 74
     1
 91
        4
 64
     7
 65
   257
 75
     1
175
     1
 42
1.0
 92
        0
 66
   257
 43
1.0
 76
     1
 77
     6
 78
     2
 67
     7
 79
     5
170
     0
171
     0
290
     0
174
     0
 93
        1
 44
0.0
173
     0
291
     0
 45
0.0
1001
ACAD
1000
AcDbSavedByObjectVersion
1070
     0
  0
VISUALSTYLE
  5
32
102
{ACAD_REACTORS
330
2A
102
}
330
2A
100
AcDbVisualStyle
  2
Basic
 70
     7
 71
     1
 72
     0
 73
     1
 90
        0
 40
-0.6
 41
-30.0
 62
     5
 63
     7
 74
     0
 91
        4
 64
     7
 65
   257
 75
     1
175
     1
 42
1.0
 92
        8
 66
     7
 43
1.0
 76
     1
 77
     6
 78
     2
 67
     7
 79
     5
170
     0
171
     0
290
     0
174
     0
 93
        1
 44
0.0
173
     0
291
     1
 45
0.0
1001
ACAD
1000
AcDbSavedByObjectVersion
1070
     0
  0
VISUALSTYLE
  5
36
102
{ACAD_REACTORS
330
2A
102
}
330
2A
100
AcDbVisualStyle
  2
Brighten
 70
    12
 71
     2
 72
     2
 73
     0
 90
        0
 40
-0.6
 41
-30.0
 62
     5
 63
     7
 74
     1
 91
        4
 64
     7
 65
   257
 75
     1
175
     1
 42
1.0
 92
        8
 66
     7
 43
1.0
 76
     1
 77
     6
 78
     2
 67
     7
 79
     5
170
     0
171
     0
290
     0
174
     0
 93
        1
 44
50.0
173
     0
291
     1
 45
0.0
1001
ACAD
1000
AcDbSavedByObjectVersion
1070
     0
  0
VISUALSTYLE
  5
3A
102
{ACAD_REACTORS
330
2A
102
}
330
2A
100
AcDbVisualStyle
  2
ColorChange
 70
    16
 71
     2
 72
     2
 73
     3
 90
        0
 40
-0.6
 41
-30.0
 62
     5
 63
     8
 74
     1
 91
        4
 64
     7
 65
   257
 75
     1
175
     1
 42
1.0
 92
        8
 66
     8
 43
1.0
 76
     1
 77
     6
 78
     2
 67
     7
 79
     5
170
     0
171
     0
290
     0
174
     0
 93
        1
 44
0.0
173
     0
291
     1
 45
0.0
1001
ACAD
1000
AcDbSavedByObjectVersion
1070
     0
  0
VISUALSTYLE
  5
34
102
{ACAD_REACTORS
330
2A
102
}
330
2A
100
AcDbVisualStyle
  2
Conceptual
 70
     9
 71
     3
 72
     2
 73
     0
 90
        0
 40
-0.6
 41
-30.0
 62
     5
 63
     7
 74
     2
 91
        2
 64
     7
 65
   257
 75
     1
175
     1
 42
40.0
 92
        8
 66
     7
 43
1.0
 76
     1
 77
     6
 78
     2
 67
     7
 79
     3
170
     0
171
     0
290
     0
174
     0
 93
        1
 44
0.0
173
     0
291
     0
 45
0.0
1001
ACAD
1000
AcDbSavedByObjectVersion
1070
     0
  0
VISUALSTYLE
  5
35
102
{ACAD_REACTORS
330
2A
102
}
330
2A
100
AcDbVisualStyle
  2
Dim
 70
    11
 71
     2
 72
     2
 73
     0
 90
        0
 40
-0.6
 41
-30.0
 62
     5
 63
     7
 74
     1
 91
        4
 64
     7
 65
   257
 75
     1
175
     1
 42
1.0
 92
        8
 66
     7
 43
1.0
 76
     1
 77
     6
 78
     2
 67
     7
 79
     5
170
     0
171
     0
290
     0
174
     0
 93
        1
 44
-50.0
173
     0
291
     1
 45
0.0
1001
ACAD
1000
AcDbSavedByObjectVersion
1070
     0
  0
VISUALSTYLE
  5
39
102
{ACAD_REACTORS
330
2A
102
}
330
2A
100
AcDbVisualStyle
  2
Facepattern
 70
    15
 71
     2
 72
     2
 73
     0
 90
        0
 40
-0.6
 41
-30.0
 62
     5
 63
     7
 74
     1
 91
        4
 64
     7
 65
   257
 75
     1
175
     1
 42
1.0
 92
        8
 66
     7
 43
1.0
 76
     1
 77
     6
 78
     2
 67
     7
 79
     5
170
     0
171
     0
290
     0
174
     0
 93
        1
 44
0.0
173
     0
291
     1
 45
0.0
1001
ACAD
1000
AcDbSavedByObjectVersion
1070
     0
  0
VISUALSTYLE
  5
2B
102
{ACAD_REACTORS
330
2A
102
}
330
2A
100
AcDbVisualStyle
  2
Flat
 70
     0
 71
     2
 72
     1
 73
     1
 90
        2
 40
-0.6
 41
30.0
 62
     5
 63
     7
 74
     0
 91
        4
 64
     7
 65
   257
 75
     1
175
     1
 42
1.0
 92
        8
 66
     7
 43
1.0
 76
     1
 77
     6
 78
     2
 67
     7
 79
     5
170
     0
171
     0
290
     0
174
     0
 93
       13
 44
0.0
173
     0
291
     1
 45
0.0
1001
ACAD
1000
AcDbSavedByObjectVersion
1070
     0
  0
VISUALSTYLE
  5
2C
102
{ACAD_REACTORS
330
2A
102
}
330
2A
100
AcDbVisualStyle
  2
FlatWithEdges
 70
     1
 71
     2
 72
     1
 73
     1
 90
        2
 40
-0.6
 41
30.0
 62
     5
 63
     7
 74
     1
 91
        4
 64
     7
 65
   257
 75
     1
175
     1
 42
1.0
 92
        0
 66
   257
 43
1.0
 76
     1
 77
     6
 78
     2
 67
     7
 79
     5
170
     0
171
     0
290
     0
174
     0
 93
       13
 44
0.0
173
     0
291
     1
 45
0.0
1001
ACAD
1000
AcDbSavedByObjectVersion
1070
     0
  0
VISUALSTYLE
  5
2D
102
{ACAD_REACTORS
330
2A
102
}
330
2A
100
AcDbVisualStyle
  2
Gouraud
 70
     2
 71
     2
 72
     2
 73
     1
 90
        2
 40
-0.6
 41
30.0
 62
     5
 63
     7
 74
     0
 91
        4
 64
     7
 65
   257
 75
     1
175
     1
 42
1.0
 92
        0
 66
     7
 43
1.0
 76
     1
 77
     6
 78
     2
 67
     7
 79
     5
170
     0
171
     0
290
     0
174
     0
 93
       13
 44
0.0
173
     0
291
     1
 45
0.0
1001
ACAD
1000
AcDbSavedByObjectVersion
1070
     0
  0
VISUALSTYLE
  5
2E
102
{ACAD_REACTORS
330
2A
102
}
330
2A
100
AcDbVisualStyle
  2
GouraudWithEdges
 70
     3
 71
     2
 72
     2
 73
     1
 90
        2
 40
-0.6
 41
30.0
 62
     5
 63
     7
 74
     1
 91
        4
 64
     7
 65
   257
 75
     1
175
     1
 42
1.0
 92
        0
 66
   257
 43
1.0
 76
     1
 77
     6
 78
     2
 67
     7
 79
     5
170
     0
171
     0
290
     0
174
     0
 93
       13
 44
0.0
173
     0
291
     1
 45
0.0
1001
ACAD
1000
AcDbSavedByObjectVersion
1070
     0
  0
VISUALSTYLE
  5
38
102
{ACAD_REACTORS
330
2A
102
}
330
2A
100
AcDbVisualStyle
  2
Linepattern
 70
    14
 71
     2
 72
     2
 73
     0
 90
        0
 40
-0.6
 41
-30.0
 62
     5
 63
     7
 74
     1
 91
        4
 64
     7
 65
   257
 75
     7
175
     7
 42
1.0
 92
        8
 66
     7
 43
1.0
 76
     1
 77
     6
 78
     2
 67
     7
 79
     5
170
     0
171
     0
290
     0
174
     0
 93
        1
 44
0.0
173
     0
291
     1
 45
0.0
1001
ACAD
1000
AcDbSavedByObjectVersion
1070
     0
  0
VISUALSTYLE
  5
33
102
{ACAD_REACTORS
330
2A
102
}
330
2A
100
AcDbVisualStyle
  2
Realistic
 70
     8
 71
     2
 72
     2
 73
     0
 90
        0
 40
-0.6
 41
-30.0
 62
     5
 63
     7
 74
     1
 91
        0
 64
     7
 65
   257
 75
     1
175
     1
 42
1.0
 92
        8
 66
     8
 43
1.0
 76
     1
 77
     6
 78
     2
 67
     7
 79
     5
170
     0
171
     0
290
     0
174
     0
 93
       13
 44
0.0
173
     0
291
     0
 45
0.0
1001
ACAD
1000
AcDbSavedByObjectVersion
1070
     0
  0
VISUALSTYLE
  5
37
102
{ACAD_REACTORS
330
2A
102
}
330
2A
100
AcDbVisualStyle
  2
Thicken
 70
    13
 71
     2
 72
     2
 73
     0
 90
        0
 40
-0.6
 41
-30.0
 62
     5
 63
     7
 74
     1
 91
        4
 64
     7
 65
   257
 75
     1
175
     1
 42
1.0
 92
       12
 66
     7
 43
1.0
 76
     1
 77
     6
 78
     2
 67
     7
 79
     5
170
     0
171
     0
290
     0
174
     0
 93
        1
 44
0.0
173
     0
291
     1
 45
0.0
1001
ACAD
1000
AcDbSavedByObjectVersion
1070
     0
  0
ENDSEC
  0
EOF
