  0
SECTION
  2
HEADER
  9
$ACADVER
  1
AC1015
  9
$ACADMAINTVER
 70
     6
  9
$DWGCODEPAGE
  3
ANSI_1252
  9
$INSBASE
 10
0.0
 20
0.0
 30
0.0
  9
$EXTMIN
 10
-212.2568790360334
 20
-0.74466986522802
 30
0.0
  9
$EXTMAX
 10
84.74312096396474
 20
209.255330134772
 30
0.0
  9
$LIMMIN
 10
0.0
 20
0.0
  9
$LIMMAX
 10
12.0
 20
9.0
  9
$ORTHOMODE
 70
     0
  9
$REGENMODE
 70
     1
  9
$FILLMODE
 70
     1
  9
$QTEXTMODE
 70
     0
  9
$MIRRTEXT
 70
     1
  9
$LTSCALE
 40
1.0
  9
$ATTMODE
 70
     1
  9
$TEXTSIZE
 40
0.2
  9
$TRACEWID
 40
0.05
  9
$TEXTSTYLE
  7
Standard
  9
$CLAYER
  8
0
  9
$CELTYPE
  6
ByLayer
  9
$CECOLOR
 62
   256
  9
$CELTSCALE
 40
1.0
  9
$DISPSILH
 70
     0
  9
$DIMSCALE
 40
1.0
  9
$DIMASZ
 40
0.18
  9
$DIMEXO
 40
0.0625
  9
$DIMDLI
 40
0.38
  9
$DIMRND
 40
0.0
  9
$DIMDLE
 40
0.0
  9
$DIMEXE
 40
0.18
  9
$DIMTP
 40
0.0
  9
$DIMTM
 40
0.0
  9
$DIMTXT
 40
0.18
  9
$DIMCEN
 40
0.09
  9
$DIMTSZ
 40
0.0
  9
$DIMTOL
 70
     0
  9
$DIMLIM
 70
     0
  9
$DIMTIH
 70
     1
  9
$DIMTOH
 70
     1
  9
$DIMSE1
 70
     0
  9
$DIMSE2
 70
     0
  9
$DIMTAD
 70
     0
  9
$DIMZIN
 70
     0
  9
$DIMBLK
  1

  9
$DIMASO
 70
     1
  9
$DIMSHO
 70
     1
  9
$DIMPOST
  1

  9
$DIMAPOST
  1

  9
$DIMALT
 70
     0
  9
$DIMALTD
 70
     2
  9
$DIMALTF
 40
25.4
  9
$DIMLFAC
 40
1.0
  9
$DIMTOFL
 70
     0
  9
$DIMTVP
 40
0.0
  9
$DIMTIX
 70
     0
  9
$DIMSOXD
 70
     0
  9
$DIMSAH
 70
     0
  9
$DIMBLK1
  1

  9
$DIMBLK2
  1

  9
$DIMSTYLE
  2
Standard
  9
$DIMCLRD
 70
     0
  9
$DIMCLRE
 70
     0
  9
$DIMCLRT
 70
     0
  9
$DIMTFAC
 40
1.0
  9
$DIMGAP
 40
0.09
  9
$DIMJUST
 70
     0
  9
$DIMSD1
 70
     0
  9
$DIMSD2
 70
     0
  9
$DIMTOLJ
 70
     1
  9
$DIMTZIN
 70
     0
  9
$DIMALTZ
 70
     0
  9
$DIMALTTZ
 70
     0
  9
$DIMUPT
 70
     0
  9
$DIMDEC
 70
     4
  9
$DIMTDEC
 70
     4
  9
$DIMALTU
 70
     2
  9
$DIMALTTD
 70
     2
  9
$DIMTXSTY
  7
Standard
  9
$DIMAUNIT
 70
     0
  9
$DIMADEC
 70
     0
  9
$DIMALTRND
 40
0.0
  9
$DIMAZIN
 70
     0
  9
$DIMDSEP
 70
    46
  9
$DIMATFIT
 70
     3
  9
$DIMFRAC
 70
     0
  9
$DIMLDRBLK
  1

  9
$DIMLUNIT
 70
     2
  9
$DIMLWD
 70
    -2
  9
$DIMLWE
 70
    -2
  9
$DIMTMOVE
 70
     0
  9
$LUNITS
 70
     2
  9
$LUPREC
 70
     4
  9
$SKETCHINC
 40
0.1
  9
$FILLETRAD
 40
0.5
  9
$AUNITS
 70
     0
  9
$AUPREC
 70
     0
  9
$MENU
  1
.
  9
$ELEVATION
 40
0.0
  9
$PELEVATION
 40
0.0
  9
$THICKNESS
 40
0.0
  9
$LIMCHECK
 70
     0
  9
$CHAMFERA
 40
0.5
  9
$CHAMFERB
 40
0.5
  9
$CHAMFERC
 40
1.0
  9
$CHAMFERD
 40
0.0
  9
$SKPOLY
 70
     0
  9
$TDCREATE
 40
2455133.544834097
  9
$TDUCREATE
 40
2455133.50316743
  9
$TDUPDATE
 40
2455133.544834109
  9
$TDUUPDATE
 40
2455133.503167442
  9
$TDINDWG
 40
0.0000000116
  9
$TDUSRTIMER
 40
0.0000000116
  9
$USRTIMER
 70
     1
  9
$ANGBASE
 50
0.0
  9
$ANGDIR
 70
     0
  9
$PDMODE
 70
     0
  9
$PDSIZE
 40
0.0
  9
$PLINEWID
 40
0.0
  9
$SPLFRAME
 70
     0
  9
$SPLINETYPE
 70
     6
  9
$SPLINESEGS
 70
     8
  9
$HANDSEED
  5
2E9
  9
$SURFTAB1
 70
     6
  9
$SURFTAB2
 70
     6
  9
$SURFTYPE
 70
     6
  9
$SURFU
 70
     6
  9
$SURFV
 70
     6
  9
$UCSBASE
  2

  9
$UCSNAME
  2

  9
$UCSORG
 10
0.0
 20
0.0
 30
0.0
  9
$UCSXDIR
 10
1.0
 20
0.0
 30
0.0
  9
$UCSYDIR
 10
0.0
 20
1.0
 30
0.0
  9
$UCSORTHOREF
  2

  9
$UCSORTHOVIEW
 70
     0
  9
$UCSORGTOP
 10
0.0
 20
0.0
 30
0.0
  9
$UCSORGBOTTOM
 10
0.0
 20
0.0
 30
0.0
  9
$UCSORGLEFT
 10
0.0
 20
0.0
 30
0.0
  9
$UCSORGRIGHT
 10
0.0
 20
0.0
 30
0.0
  9
$UCSORGFRONT
 10
0.0
 20
0.0
 30
0.0
  9
$UCSORGBACK
 10
0.0
 20
0.0
 30
0.0
  9
$PUCSBASE
  2

  9
$PUCSNAME
  2

  9
$PUCSORG
 10
0.0
 20
0.0
 30
0.0
  9
$PUCSXDIR
 10
1.0
 20
0.0
 30
0.0
  9
$PUCSYDIR
 10
0.0
 20
1.0
 30
0.0
  9
$PUCSORTHOREF
  2

  9
$PUCSORTHOVIEW
 70
     0
  9
$PUCSORGTOP
 10
0.0
 20
0.0
 30
0.0
  9
$PUCSORGBOTTOM
 10
0.0
 20
0.0
 30
0.0
  9
$PUCSORGLEFT
 10
0.0
 20
0.0
 30
0.0
  9
$PUCSORGRIGHT
 10
0.0
 20
0.0
 30
0.0
  9
$PUCSORGFRONT
 10
0.0
 20
0.0
 30
0.0
  9
$PUCSORGBACK
 10
0.0
 20
0.0
 30
0.0
  9
$USERI1
 70
     0
  9
$USERI2
 70
     0
  9
$USERI3
 70
     0
  9
$USERI4
 70
     0
  9
$USERI5
 70
     0
  9
$USERR1
 40
16.0
  9
$USERR2
 40
0.0
  9
$USERR3
 40
0.0
  9
$USERR4
 40
0.0
  9
$USERR5
 40
0.0
  9
$WORLDVIEW
 70
     1
  9
$SHADEDGE
 70
     3
  9
$SHADEDIF
 70
    70
  9
$TILEMODE
 70
     1
  9
$MAXACTVP
 70
    64
  9
$PINSBASE
 10
0.0
 20
0.0
 30
0.0
  9
$PLIMCHECK
 70
     0
  9
$PEXTMIN
 10
1.00000000000000E+20
 20
1.00000000000000E+20
 30
1.00000000000000E+20
  9
$PEXTMAX
 10
-1.00000000000000E+20
 20
-1.00000000000000E+20
 30
-1.00000000000000E+20
  9
$PLIMMIN
 10
0.0
 20
0.0
  9
$PLIMMAX
 10
12.0
 20
9.0
  9
$UNITMODE
 70
     0
  9
$VISRETAIN
 70
     1
  9
$PLINEGEN
 70
     0
  9
$PSLTSCALE
 70
     1
  9
$TREEDEPTH
 70
  3020
  9
$CMLSTYLE
  2
Standard
  9
$CMLJUST
 70
     0
  9
$CMLSCALE
 40
1.0
  9
$PROXYGRAPHICS
 70
     1
  9
$MEASUREMENT
 70
     1
  9
$CELWEIGHT
370
    -1
  9
$ENDCAPS
280
     0
  9
$JOINSTYLE
280
     0
  9
$LWDISPLAY
290
     0
  9
$INSUNITS
 70
     1
  9
$HYPERLINKBASE
  1

  9
$STYLESHEET
  1

  9
$XEDIT
290
     1
  9
$CEPSNTYPE
380
     0
  9
$PSTYLEMODE
290
     1
  9
$FINGERPRINTGUID
  2
{AA0D9440-E389-448F-97A5-4C941EB266C1}
  9
$VERSIONGUID
  2
{FAEB1C32-E019-11D5-929B-00C0DF256EC4}
  9
$EXTNAMES
290
     1
  9
$PSVPSCALE
 40
0.0
  9
$OLESTARTUP
290
     0
  0
ENDSEC
  0
SECTION
  2
CLASSES
  0
CLASS
  1
ACDBDICTIONARYWDFLT
  2
AcDbDictionaryWithDefault
  3
ObjectDBX Classes
 90
        0
280
     0
281
     0
  0
CLASS
  1
VISUALSTYLE
  2
AcDbVisualStyle
  3
ObjectDBX Classes
 90
     4095
280
     0
281
     0
  0
CLASS
  1

  2
exOdDbSpline
  3

 90
        0
280
     0
281
     1
  0
CLASS
  1

  2
exOdDbCircle
  3

 90
        0
280
     0
281
     1
  0
CLASS
  1
ACDBPLACEHOLDER
  2
AcDbPlaceHolder
  3
ObjectDBX Classes
 90
        0
280
     0
281
     0
  0
CLASS
  1
LAYOUT
  2
AcDbLayout
  3
ObjectDBX Classes
 90
        0
280
     0
281
     0
  0
ENDSEC
  0
SECTION
  2
TABLES
  0
TABLE
  2
VPORT
  5
8
330
0
100
AcDbSymbolTable
 70
     1
  0
VPORT
  5
29
330
8
100
AcDbSymbolTableRecord
100
AcDbViewportTableRecord
  2
*Active
 70
     0
 10
0.0
 20
0.0
 11
1.0
 21
1.0
 12
-63.75687903603433
 22
104.255330134772
 13
0.0
 23
0.0
 14
0.5
 24
0.5
 15
0.5
 25
0.5
 16
0.0
 26
0.0
 36
1.0
 17
0.0
 27
0.0
 37
0.0
 40
231.0000000000001
 41
1.60267857142857
 42
50.0
 43
0.0
 44
0.0
 50
0.0
 51
0.0
 71
     0
 72
   100
 73
     1
 74
     3
 75
     0
 76
     0
 77
     0
 78
     0
281
     0
 65
     1
110
0.0
120
0.0
130
0.0
111
1.0
121
0.0
131
0.0
112
0.0
122
1.0
132
0.0
 79
     0
146
0.0
  0
ENDTAB
  0
TABLE
  2
LTYPE
  5
5
330
0
100
AcDbSymbolTable
 70
     8
  0
LTYPE
  5
14
330
5
100
AcDbSymbolTableRecord
100
AcDbLinetypeTableRecord
  2
ByBlock
 70
     0
  3

 72
    65
 73
     0
 40
0.0
  0
LTYPE
  5
15
330
5
100
AcDbSymbolTableRecord
100
AcDbLinetypeTableRecord
  2
ByLayer
 70
     0
  3

 72
    65
 73
     0
 40
0.0
  0
LTYPE
  5
16
330
5
100
AcDbSymbolTableRecord
100
AcDbLinetypeTableRecord
  2
Continuous
 70
     0
  3
Solid line
 72
    65
 73
     0
 40
0.0
  0
LTYPE
  5
3B
330
5
100
AcDbSymbolTableRecord
100
AcDbLinetypeTableRecord
  2
DASHED
 70
     0
  3
Dashed
 72
    65
 73
     2
 40
15.0
 49
7.0
 74
     0
 49
-8.0
 74
     0
  0
LTYPE
  5
3C
330
5
100
AcDbSymbolTableRecord
100
AcDbLinetypeTableRecord
  2
DOTTED
 70
     0
  3
Dotted
 72
    65
 73
     2
 40
1.0
 49
0.0
 74
     0
 49
-1.0
 74
     0
  0
LTYPE
  5
3D
330
5
100
AcDbSymbolTableRecord
100
AcDbLinetypeTableRecord
  2
DOT_CENTER
 70
     0
  3
Dot_Center
 72
    65
 73
     4
 40
14.0
 49
12.0
 74
     0
 49
-1.0
 74
     0
 49
0.0
 74
     0
 49
-1.0
 74
     0
  0
LTYPE
  5
3E
330
5
100
AcDbSymbolTableRecord
100
AcDbLinetypeTableRecord
  2
LONG_DASHED
 70
     0
  3
Long_Dashed
 72
    65
 73
     2
 40
15.0
 49
10.0
 74
     0
 49
-5.0
 74
     0
  0
LTYPE
  5
3F
330
5
100
AcDbSymbolTableRecord
100
AcDbLinetypeTableRecord
  2
DASH_CENTER
 70
     0
  3
Dash_Center
 72
    65
 73
     4
 40
14.0
 49
11.0
 74
     0
 49
-1.0
 74
     0
 49
1.0
 74
     0
 49
-1.0
 74
     0
  0
LTYPE
  5
40
330
5
100
AcDbSymbolTableRecord
100
AcDbLinetypeTableRecord
  2
PHANTOM
 70
     0
  3
Phantom
 72
    65
 73
     6
 40
13.0
 49
10.0
 74
     0
 49
-1.0
 74
     0
 49
0.0
 74
     0
 49
-1.0
 74
     0
 49
0.0
 74
     0
 49
-1.0
 74
     0
  0
LTYPE
  5
41
330
5
100
AcDbSymbolTableRecord
100
AcDbLinetypeTableRecord
  2
CENTER_DASH_DASH
 70
     0
  3
Center_Dash_Dash
 72
    65
 73
     6
 40
14.0
 49
9.0
 74
     0
 49
-1.0
 74
     0
 49
1.0
 74
     0
 49
-1.0
 74
     0
 49
1.0
 74
     0
 49
-1.0
 74
     0
  0
ENDTAB
  0
TABLE
  2
LAYER
  5
2
330
0
100
AcDbSymbolTable
 70
     2
  0
LAYER
  5
10
330
2
100
AcDbSymbolTableRecord
100
AcDbLayerTableRecord
  2
0
 70
     0
 62
     7
  6
Continuous
370
    -3
390
F
  0
LAYER
  5
42
330
2
100
AcDbSymbolTableRecord
100
AcDbLayerTableRecord
  2
1
 70
     0
 62
     7
  6
Continuous
370
    -3
390
F
  0
ENDTAB
  0
TABLE
  2
STYLE
  5
3
330
0
100
AcDbSymbolTable
 70
     9
  0
STYLE
  5
11
330
3
100
AcDbSymbolTableRecord
100
AcDbTextStyleTableRecord
  2
Standard
 70
     0
 40
0.0
 41
1.0
 50
0.0
 71
     0
 42
0.2
  3
txt
  4

  0
STYLE
  5
92
330
3
100
AcDbSymbolTableRecord
100
AcDbTextStyleTableRecord
  2
CONVERTER_11
 70
     0
 40
0.0
 41
0.9
 50
0.0
 71
     0
 42
0.2
  3
txt.shx
  4

  0
STYLE
  5
265
330
3
100
AcDbSymbolTableRecord
100
AcDbTextStyleTableRecord
  2
CONVERTER_12
 70
     0
 40
0.0
 41
0.63
 50
0.0
 71
     0
 42
0.2
  3
txt.shx
  4

  0
STYLE
  5
268
330
3
100
AcDbSymbolTableRecord
100
AcDbTextStyleTableRecord
  2
CONVERTER_13
 70
     0
 40
0.0
 41
0.72
 50
0.0
 71
     0
 42
0.2
  3
txt.shx
  4

  0
STYLE
  5
26C
330
3
100
AcDbSymbolTableRecord
100
AcDbTextStyleTableRecord
  2
CONVERTER_14
 70
     0
 40
0.0
 41
0.765
 50
0.0
 71
     0
 42
0.2
  3
txt.shx
  4

  0
STYLE
  5
2A4
330
3
100
AcDbSymbolTableRecord
100
AcDbTextStyleTableRecord
  2
CONVERTER_15
 70
     0
 40
0.0
 41
0.855
 50
0.0
 71
     0
 42
0.2
  3
txt.shx
  4

  0
STYLE
  5
2C0
330
3
100
AcDbSymbolTableRecord
100
AcDbTextStyleTableRecord
  2
CONVERTER_16
 70
     0
 40
0.0
 41
0.54
 50
0.0
 71
     0
 42
0.2
  3
txt.shx
  4

  0
STYLE
  5
2C2
330
3
100
AcDbSymbolTableRecord
100
AcDbTextStyleTableRecord
  2
CONVERTER_17
 70
     0
 40
0.0
 41
0.81
 50
0.0
 71
     0
 42
0.2
  3
txt.shx
  4

  0
STYLE
  5
2C9
330
3
100
AcDbSymbolTableRecord
100
AcDbTextStyleTableRecord
  2
CONVERTER_18
 70
     0
 40
0.0
 41
0.45
 50
0.0
 71
     0
 42
0.2
  3
txt.shx
  4

  0
ENDTAB
  0
TABLE
  2
VIEW
  5
6
330
0
100
AcDbSymbolTable
 70
     0
  0
ENDTAB
  0
TABLE
  2
UCS
  5
7
330
0
100
AcDbSymbolTable
 70
     0
  0
ENDTAB
  0
TABLE
  2
APPID
  5
9
330
0
100
AcDbSymbolTable
 70
     1
  0
APPID
  5
12
330
9
100
AcDbSymbolTableRecord
100
AcDbRegAppTableRecord
  2
ACAD
 70
     0
  0
ENDTAB
  0
TABLE
  2
DIMSTYLE
  5
A
330
0
100
AcDbSymbolTable
 70
     4
100
AcDbDimStyleTable
  0
DIMSTYLE
105
27
330
A
100
AcDbSymbolTableRecord
100
AcDbDimStyleTableRecord
  2
Standard
 70
     0
340
11
  0
DIMSTYLE
105
BC
102
{ACAD_REACTORS
330
BD
102
}
330
A
100
AcDbSymbolTableRecord
100
AcDbDimStyleTableRecord
  2
ME10_DIM_10
 70
     0
 41
3.5
 42
0.0
 44
2.0
 73
     0
 74
     0
 77
     1
 78
     8
140
3.5
147
2.0
172
     1
173
     1
176
     2
177
     2
178
     3
340
92
  0
DIMSTYLE
105
DB
102
{ACAD_REACTORS
330
DC
102
}
330
A
100
AcDbSymbolTableRecord
100
AcDbDimStyleTableRecord
  2
ME10_DIM_11
 70
     0
 41
3.5
 42
0.0
 44
2.0
 73
     0
 74
     0
 77
     1
 78
     8
140
3.5
147
2.0
172
     1
173
     1
176
     2
177
     2
178
     3
271
     1
340
92
  0
DIMSTYLE
105
E6
102
{ACAD_REACTORS
330
E7
102
}
330
A
100
AcDbSymbolTableRecord
100
AcDbDimStyleTableRecord
  2
ME10_DIM_12
 70
     0
 41
3.5
 42
0.0
 44
2.0
 73
     0
 74
     0
 77
     1
 78
     8
140
3.5
147
2.0
172
     1
173
     1
176
     2
177
     2
178
     3
271
     1
340
92
  0
ENDTAB
  0
TABLE
  2
BLOCK_RECORD
  5
1
330
0
100
AcDbSymbolTable
 70
    19
  0
BLOCK_RECORD
  5
1F
330
1
100
AcDbSymbolTableRecord
100
AcDbBlockTableRecord
  2
*Model_Space
340
22
  0
BLOCK_RECORD
  5
1B
330
1
100
AcDbSymbolTableRecord
100
AcDbBlockTableRecord
  2
*Paper_Space
340
1E
  0
BLOCK_RECORD
  5
23
330
1
100
AcDbSymbolTableRecord
100
AcDbBlockTableRecord
  2
*Paper_Space0
340
26
  0
BLOCK_RECORD
  5
43
330
1
100
AcDbSymbolTableRecord
100
AcDbBlockTableRecord
  2
3074431_dp_uwv_25-select__1
340
0
102
{BLKREFS
331
47
102
}
  0
BLOCK_RECORD
  5
46
330
1
100
AcDbSymbolTableRecord
100
AcDbBlockTableRecord
  2
AllgSicht1
340
0
102
{BLKREFS
331
78
102
}
  0
BLOCK_RECORD
  5
4A
330
1
100
AcDbSymbolTableRecord
100
AcDbBlockTableRecord
  2
3074431_dp_uwv_25-select__2
340
0
102
{BLKREFS
331
4E
102
}
  0
BLOCK_RECORD
  5
4D
330
1
100
AcDbSymbolTableRecord
100
AcDbBlockTableRecord
  2
Drfsicht1
340
0
102
{BLKREFS
331
79
102
}
  0
BLOCK_RECORD
  5
51
330
1
100
AcDbSymbolTableRecord
100
AcDbBlockTableRecord
  2
3074431_dp_uwv_25-select__3
340
0
102
{BLKREFS
331
55
102
}
  0
BLOCK_RECORD
  5
54
330
1
100
AcDbSymbolTableRecord
100
AcDbBlockTableRecord
  2
Rckans1
340
0
102
{BLKREFS
331
7A
102
}
  0
BLOCK_RECORD
  5
58
330
1
100
AcDbSymbolTableRecord
100
AcDbBlockTableRecord
  2
3074431_dp_uwv_25-select__4
340
0
102
{BLKREFS
331
5C
102
}
  0
BLOCK_RECORD
  5
5B
330
1
100
AcDbSymbolTableRecord
100
AcDbBlockTableRecord
  2
SA_Links1
340
0
102
{BLKREFS
331
7B
102
}
  0
BLOCK_RECORD
  5
5F
330
1
100
AcDbSymbolTableRecord
100
AcDbBlockTableRecord
  2
3074431_dp_uwv_25-select__5
340
0
102
{BLKREFS
331
63
102
}
  0
BLOCK_RECORD
  5
62
330
1
100
AcDbSymbolTableRecord
100
AcDbBlockTableRecord
  2
SA_Rechts1
340
0
102
{BLKREFS
331
7C
102
}
  0
BLOCK_RECORD
  5
66
330
1
100
AcDbSymbolTableRecord
100
AcDbBlockTableRecord
  2
3074431_dp_uwv_25-select__6
340
0
102
{BLKREFS
331
6A
102
}
  0
BLOCK_RECORD
  5
69
330
1
100
AcDbSymbolTableRecord
100
AcDbBlockTableRecord
  2
Vordans1
340
0
102
{BLKREFS
331
7D
102
}
  0
BLOCK_RECORD
  5
6D
330
1
100
AcDbSymbolTableRecord
100
AcDbBlockTableRecord
  2
_punkt
340
0
102
{BLKREFS
331
74
102
}
  0
BLOCK_RECORD
  5
70
330
1
100
AcDbSymbolTableRecord
100
AcDbBlockTableRecord
  2
_rahmen
340
0
102
{BLKREFS
331
75
102
}
  0
BLOCK_RECORD
  5
73
330
1
100
AcDbSymbolTableRecord
100
AcDbBlockTableRecord
  2
A4I
340
0
102
{BLKREFS
331
7E
102
}
  0
BLOCK_RECORD
  5
B1
330
1
100
AcDbSymbolTableRecord
100
AcDbBlockTableRecord
  2
*D16
340
0
  0
BLOCK_RECORD
  5
D2
330
1
100
AcDbSymbolTableRecord
100
AcDbBlockTableRecord
  2
*D17
340
0
  0
BLOCK_RECORD
  5
DD
330
1
100
AcDbSymbolTableRecord
100
AcDbBlockTableRecord
  2
*D18
340
0
  0
ENDTAB
  0
ENDSEC
  0
SECTION
  2
BLOCKS
  0
BLOCK
  5
20
330
1F
100
AcDbEntity
  8
0
100
AcDbBlockBegin
  2
*Model_Space
 70
     0
 10
0.0
 20
0.0
 30
0.0
  3
*Model_Space
  1

  0
ENDBLK
  5
21
330
1F
100
AcDbEntity
  8
0
100
AcDbBlockEnd
  0
BLOCK
  5
1C
330
1B
100
AcDbEntity
 67
     1
  8
0
100
AcDbBlockBegin
  2
*Paper_Space
 70
     0
 10
0.0
 20
0.0
 30
0.0
  3
*Paper_Space
  1

  0
ENDBLK
  5
1D
330
1B
100
AcDbEntity
 67
     1
  8
0
100
AcDbBlockEnd
  0
BLOCK
  5
24
330
23
100
AcDbEntity
  8
0
100
AcDbBlockBegin
  2
*Paper_Space0
 70
     0
 10
0.0
 20
0.0
 30
0.0
  3
*Paper_Space0
  1

  0
ENDBLK
  5
25
330
23
100
AcDbEntity
  8
0
100
AcDbBlockEnd
  0
BLOCK
  5
44
330
43
100
AcDbEntity
  8
0
100
AcDbBlockBegin
  2
3074431_dp_uwv_25-select__1
 70
     0
 10
21.29065432155882
 20
41.81215514424081
 30
0.0
  3
3074431_dp_uwv_25-select__1
  1

  0
LINE
  5
7F
330
43
100
AcDbEntity
  8
0
  6
Continuous
 62
     7
100
AcDbLine
 10
60.69654436465844
 20
42.14260317713252
 30
0.0
 11
60.69654436465304
 21
88.75353999160764
 31
0.0
  0
LINE
  5
80
330
43
100
AcDbEntity
  8
0
  6
Continuous
 62
     7
100
AcDbLine
 10
62.69654436465844
 20
43.8746539847014
 30
0.0
 11
62.69654436465304
 21
90.48559079917652
 31
0.0
  0
LINE
  5
81
330
43
100
AcDbEntity
  8
0
  6
Continuous
 62
     7
100
AcDbLine
 10
60.59085849812024
 20
41.88963870412324
 30
0.0
 11
62.59085849812024
 21
43.62168951169213
 31
0.0
  0
LINE
  5
82
330
43
100
AcDbEntity
  8
0
  6
Continuous
 62
     2
100
AcDbLine
 10
60.69654436465844
 20
42.14260317713252
 30
0.0
 11
62.69654436465844
 21
43.8746539847014
 31
0.0
  0
LINE
  5
83
330
43
100
AcDbEntity
  8
0
  6
Continuous
 62
     7
100
AcDbLine
 10
62.26353166276084
 20
91.04360350106872
 30
0.0
 11
25.901530983793
 21
101.5404089412022
 31
0.0
  0
LINE
  5
84
330
43
100
AcDbEntity
  8
0
  6
Continuous
 62
     7
100
AcDbLine
 10
60.26353166276084
 20
89.31155269349983
 30
0.0
 11
23.901530983793
 21
99.80835813363335
 31
0.0
  0
LINE
  5
85
330
43
100
AcDbEntity
  8
0
  6
Continuous
 62
     2
100
AcDbLine
 10
25.901530983793
 20
101.5404089412022
 30
0.0
 11
23.901530983793
 21
99.80835813363335
 31
0.0
  0
LINE
  5
86
330
43
100
AcDbEntity
  8
0
  6
Continuous
 62
     2
100
AcDbLine
 10
62.26353166276084
 20
91.04360350106872
 30
0.0
 11
60.26353166276084
 21
89.31155269349983
 31
0.0
  0
LINE
  5
87
330
43
100
AcDbEntity
  8
0
  6
Continuous
 62
     2
100
AcDbLine
 10
62.69654436465304
 20
90.48559079917652
 30
0.0
 11
60.69654436465304
 21
88.75353999160764
 31
0.0
  0
LINE
  5
88
330
43
100
AcDbEntity
  8
0
  6
Continuous
 62
     7
100
AcDbLine
 10
23.93756997166936
 20
101.2101195679042
 30
0.0
 11
21.93756997166936
 21
99.4780687603353
 31
0.0
  0
SPLINE
  5
89
330
43
100
AcDbEntity
  8
0
  6
Continuous
 62
     7
100
AcDbSpline
210
0.0
220
0.0
230
1.0
 70
     8
 71
     3
 72
    19
 73
    15
 74
    13
 42
0.0000000001
 43
0.0000000001
 44
0.00000001
 40
0.0
 40
0.0
 40
0.0
 40
0.0
 40
4.955435129065015
 40
10.02625941783344
 40
16.54972102778151
 40
23.2332130546414
 40
29.8029545284699
 40
36.47272341101068
 40
42.89562414260472
 40
49.32928170597068
 40
55.44322915425256
 40
61.45894018341891
 40
66.92458999504373
 40
72.2130061039012
 40
72.2130061039012
 40
72.2130061039012
 40
72.2130061039012
 10
21.30640278558418
 20
97.83569879493686
 30
0.0
 10
21.42384700856989
 20
96.18716324632331
 30
0.0
 10
21.66147018718324
 20
92.85170538249727
 30
0.0
 10
22.61048261944212
 20
87.4087625212588
 30
0.0
 10
24.1431744433439
 20
81.5038743130428
 30
0.0
 10
26.41714908664374
 20
75.30473648698772
 30
0.0
 10
29.28321843290524
 20
69.30362058290254
 30
0.0
 10
32.66353568864822
 20
63.67618948048657
 30
0.0
 10
36.54743794286487
 20
58.44034920375899
 30
0.0
 10
40.81454864060045
 20
53.75835681229925
 30
0.0
 10
45.45490216272206
 20
49.64465316576162
 30
0.0
 10
50.27037704613571
 20
46.27883492527508
 30
0.0
 10
55.20006866494145
 20
43.59623964333627
 30
0.0
 10
58.59041296174818
 20
42.41648487179359
 30
0.0
 10
60.25764761758724
 20
41.8363290326477
 30
0.0
 11
21.30640278558418
 21
97.83569879493686
 31
0.0
 11
21.7411340269633
 21
92.89936958527706
 31
0.0
 11
22.58598176515626
 21
87.89942045885246
 31
0.0
 11
24.23005288129314
 21
81.58653034880376
 31
0.0
 11
26.52754870741997
 21
75.31033893983371
 31
0.0
 11
29.36030727025661
 21
69.38269337370731
 31
0.0
 11
32.79767623678891
 21
63.66689845659998
 31
0.0
 11
36.62881608979388
 21
58.51170483903059
 31
0.0
 11
40.96906552401233
 21
53.76258023638827
 31
0.0
 11
45.55251150336495
 21
49.71630091400966
 31
0.0
 11
50.48484989302505
 21
46.27234719824649
 31
0.0
 11
55.31133385024129
 21
43.70751182847152
 31
0.0
 11
60.25764761758724
 21
41.8363290326477
 31
0.0
  0
SPLINE
  5
8A
330
43
100
AcDbEntity
  8
0
  6
Continuous
 62
     7
100
AcDbSpline
210
0.0
220
0.0
230
1.0
 70
     8
 71
     3
 72
    11
 73
     7
 74
     5
 42
0.0000000001
 43
0.0000000001
 44
0.00000001
 40
0.0
 40
0.0
 40
0.0
 40
0.0
 40
0.4291217419013124
 40
0.8697387449714007
 40
1.330941188059705
 40
1.817952853584634
 40
1.817952853584634
 40
1.817952853584634
 40
1.817952853584634
 10
21.93756997166936
 20
99.4780687603353
 30
0.0
 10
21.83611142377492
 20
99.37608573860898
 30
0.0
 10
21.63047646871215
 20
99.16938778634105
 30
0.0
 10
21.42930152141967
 20
98.76705022927942
 30
0.0
 10
21.30839961907427
 20
98.31596971129188
 30
0.0
 10
21.3070803662278
 20
97.99866795497562
 30
0.0
 10
21.30640278558418
 20
97.83569879493686
 30
0.0
 11
21.93756997166936
 21
99.4780687603353
 31
0.0
 11
21.65125037101356
 21
99.15843372525198
 31
0.0
 11
21.44621235484197
 21
98.76843019280787
 31
0.0
 11
21.32986240790094
 21
98.32214510078995
 31
0.0
 11
21.30640278558418
 21
97.83569879493686
 31
0.0
  0
SPLINE
  5
8B
330
43
100
AcDbEntity
  8
0
  6
Continuous
 62
     7
100
AcDbSpline
210
0.0
220
0.0
230
1.0
 70
     8
 71
     3
 72
    11
 73
     7
 74
     5
 42
0.0000000001
 43
0.0000000001
 44
0.00000001
 40
0.0
 40
0.0
 40
0.0
 40
0.0
 40
0.0818363329575573
 40
0.166495881846735
 40
0.2560484916188662
 40
0.3514185866674208
 40
0.3514185866674208
 40
0.3514185866674208
 40
0.3514185866674208
 10
60.59085849812024
 20
41.88963870412324
 30
0.0
 10
60.56862642907333
 20
41.8734876889017
 30
0.0
 10
60.52339532196639
 20
41.84062847558105
 30
0.0
 10
60.43955457001309
 20
41.81782744438526
 30
0.0
 10
60.34884882607731
 20
41.81413604075167
 30
0.0
 10
60.28867898166899
 20
41.82877782994993
 30
0.0
 10
60.25764761758724
 20
41.8363290326477
 30
0.0
 11
60.59085849812024
 21
41.88963870412324
 31
0.0
 11
60.52191874301606
 21
41.84554226936809
 31
0.0
 11
60.44078538498893
 21
41.8213634060085
 31
0.0
 11
60.35128714567137
 21
41.81824329766813
 31
0.0
 11
60.25764761758724
 21
41.8363290326477
 31
0.0
  0
SPLINE
  5
8C
330
43
100
AcDbEntity
  8
0
  6
Continuous
 62
     7
100
AcDbSpline
210
0.0
220
0.0
230
1.0
 70
     8
 71
     3
 72
     9
 73
     5
 74
     3
 42
0.0000000001
 43
0.0000000001
 44
0.00000001
 40
0.0
 40
0.0
 40
0.0
 40
0.0
 40
0.1459633107831648
 40
0.2806984726867415
 40
0.2806984726867415
 40
0.2806984726867415
 40
0.2806984726867415
 10
60.69654436465844
 20
42.14260317713252
 30
0.0
 10
60.69244742721543
 20
42.09266665470892
 30
0.0
 10
60.68456870703032
 20
41.99663494988948
 30
0.0
 10
60.62125098230599
 20
41.9243401709667
 30
0.0
 10
60.59085849812024
 20
41.88963870412324
 30
0.0
 11
60.69654436465844
 21
42.14260317713252
 31
0.0
 11
60.6692628239374
 21
41.99921208385728
 31
0.0
 11
60.59085849812024
 21
41.88963870412324
 31
0.0
  0
SPLINE
  5
8D
330
43
100
AcDbEntity
  8
0
  6
Continuous
 62
     7
100
AcDbSpline
210
0.0
220
0.0
230
1.0
 70
     8
 71
     3
 72
     9
 73
     5
 74
     3
 42
0.0000000001
 43
0.0000000001
 44
0.00000001
 40
0.0
 40
0.0
 40
0.0
 40
0.0
 40
0.1459633107831788
 40
0.2806984726867381
 40
0.2806984726867381
 40
0.2806984726867381
 40
0.2806984726867381
 10
62.69654436465844
 20
43.8746539847014
 30
0.0
 10
62.69244742721542
 20
43.82471746227779
 30
0.0
 10
62.68456870703033
 20
43.72868575745836
 30
0.0
 10
62.62125098230599
 20
43.65639097853557
 30
0.0
 10
62.59085849812024
 20
43.62168951169213
 30
0.0
 11
62.69654436465844
 21
43.8746539847014
 31
0.0
 11
62.6692628239374
 21
43.73126289142615
 31
0.0
 11
62.59085849812024
 21
43.62168951169213
 31
0.0
  0
SPLINE
  5
8E
330
43
100
AcDbEntity
  8
0
  6
Continuous
 62
     7
100
AcDbSpline
210
0.0
220
0.0
230
1.0
 70
     8
 71
     3
 72
    13
 73
     9
 74
     7
 42
0.0000000001
 43
0.0000000001
 44
0.00000001
 40
0.0
 40
0.0
 40
0.0
 40
0.0
 40
0.117263165582418
 40
0.2419307416505271
 40
0.3712960201058143
 40
0.5017221228342389
 40
0.6293737809694162
 40
0.7509434495035516
 40
0.7509434495035516
 40
0.7509434495035516
 40
0.7509434495035516
 10
60.69654436465304
 20
88.75353999160764
 30
0.0
 10
60.69346999036431
 20
88.79269035457244
 30
0.0
 10
60.68712711493455
 20
88.87346317271114
 30
0.0
 10
60.64125707467171
 20
88.99011108802884
 30
0.0
 10
60.57298759580917
 20
89.09931884126728
 30
0.0
 10
60.48338917295846
 20
89.19325724654998
 30
0.0
 10
60.37998723973566
 20
89.26866028292895
 30
0.0
 10
60.30171345809816
 20
89.29748974104632
 30
0.0
 10
60.26353166276084
 20
89.31155269349983
 30
0.0
 11
60.69654436465304
 21
88.75353999160764
 31
0.0
 11
60.68178970311971
 21
88.86987119965366
 31
0.0
 11
60.63853166276084
 21
88.98679316708069
 31
0.0
 11
60.56971779897771
 21
89.09633780374105
 31
0.0
 11
60.48003801370695
 21
89.19103999160762
 31
0.0
 11
60.37560356690283
 21
89.264445659954
 31
0.0
 11
60.26353166276084
 21
89.31155269349983
 31
0.0
  0
SPLINE
  5
8F
330
43
100
AcDbEntity
  8
0
  6
Continuous
 62
     7
100
AcDbSpline
210
0.0
220
0.0
230
1.0
 70
     8
 71
     3
 72
    11
 73
     7
 74
     5
 42
0.0000000001
 43
0.0000000001
 44
0.00000001
 40
0.0
 40
0.0
 40
0.0
 40
0.0
 40
0.5614235734406275
 40
1.089108834243695
 40
1.588614599734006
 40
2.071930691490773
 40
2.071930691490773
 40
2.071930691490773
 40
2.071930691490773
 10
23.901530983793
 20
99.80835813363335
 30
0.0
 10
23.71834913954513
 20
99.85060053569606
 30
0.0
 10
23.36299362139193
 20
99.93254681555075
 30
0.0
 10
22.82879995676208
 20
99.90570584016534
 30
0.0
 10
22.33537651091545
 20
99.76791818977436
 30
0.0
 10
22.06870790582783
 20
99.5736183595593
 30
0.0
 10
21.93756997166936
 20
99.4780687603353
 30
0.0
 11
23.901530983793
 21
99.80835813363335
 31
0.0
 11
23.34909633694076
 21
99.90842006331734
 31
0.0
 11
22.82192741703331
 21
99.88508201814611
 31
0.0
 11
22.34413475514416
 21
99.73941053156433
 31
0.0
 11
21.93756997166936
 21
99.4780687603353
 31
0.0
  0
SPLINE
  5
90
330
43
100
AcDbEntity
  8
0
  6
Continuous
 62
     7
100
AcDbSpline
210
0.0
220
0.0
230
1.0
 70
     8
 71
     3
 72
    13
 73
     9
 74
     7
 42
0.0000000001
 43
0.0000000001
 44
0.00000001
 40
0.0
 40
0.0
 40
0.0
 40
0.0
 40
0.117263165582418
 40
0.2419307416505271
 40
0.3712960201058143
 40
0.5017221228342492
 40
0.6293737809694183
 40
0.7509434495035536
 40
0.7509434495035536
 40
0.7509434495035536
 40
0.7509434495035536
 10
62.69654436465304
 20
90.48559079917652
 30
0.0
 10
62.69346999036431
 20
90.52474116214132
 30
0.0
 10
62.68712711493455
 20
90.60551398028002
 30
0.0
 10
62.64125707467171
 20
90.72216189559774
 30
0.0
 10
62.57298759580917
 20
90.83136964883617
 30
0.0
 10
62.48338917295848
 20
90.92530805411887
 30
0.0
 10
62.37998723973566
 20
91.00071109049783
 30
0.0
 10
62.30171345809816
 20
91.0295405486152
 30
0.0
 10
62.26353166276084
 20
91.04360350106872
 30
0.0
 11
62.69654436465304
 21
90.48559079917652
 31
0.0
 11
62.68178970311971
 21
90.60192200722254
 31
0.0
 11
62.63853166276084
 21
90.71884397464957
 31
0.0
 11
62.56971779897771
 21
90.82838861130993
 31
0.0
 11
62.48003801370695
 21
90.92309079917652
 31
0.0
 11
62.37560356690283
 21
90.99649646752289
 31
0.0
 11
62.26353166276084
 21
91.04360350106872
 31
0.0
  0
SPLINE
  5
91
330
43
100
AcDbEntity
  8
0
  6
Continuous
 62
     7
100
AcDbSpline
210
0.0
220
0.0
230
1.0
 70
     8
 71
     3
 72
    11
 73
     7
 74
     5
 42
0.0000000001
 43
0.0000000001
 44
0.00000001
 40
0.0
 40
0.0
 40
0.0
 40
0.0
 40
0.5614235734406351
 40
1.089108834243703
 40
1.588614599734017
 40
2.071930691490777
 40
2.071930691490777
 40
2.071930691490777
 40
2.071930691490777
 10
25.901530983793
 20
101.5404089412022
 30
0.0
 10
25.71834913954513
 20
101.5826513432649
 30
0.0
 10
25.36299362139194
 20
101.6645976231196
 30
0.0
 10
24.82879995676209
 20
101.6377566477343
 30
0.0
 10
24.33537651091545
 20
101.4999689973432
 30
0.0
 10
24.06870790582783
 20
101.3056691671282
 30
0.0
 10
23.93756997166936
 20
101.2101195679042
 30
0.0
 11
25.901530983793
 21
101.5404089412022
 31
0.0
 11
25.34909633694076
 21
101.6404708708862
 31
0.0
 11
24.82192741703331
 21
101.617132825715
 31
0.0
 11
24.34413475514416
 21
101.4714613391332
 31
0.0
 11
23.93756997166936
 21
101.2101195679042
 31
0.0
  0
ENDBLK
  5
45
330
43
100
AcDbEntity
  8
0
100
AcDbBlockEnd
  0
BLOCK
  5
48
330
46
100
AcDbEntity
  8
0
100
AcDbBlockBegin
  2
AllgSicht1
 70
     0
 10
42.00000000000009
 20
71.99999999999295
 30
0.0
  3
AllgSicht1
  1

  0
INSERT
  5
47
330
46
100
AcDbEntity
  8
0
100
AcDbBlockReference
  2
3074431_dp_uwv_25-select__1
 10
21.29065432155882
 20
41.81215514424081
 30
0.0
  0
MTEXT
  5
93
330
46
100
AcDbEntity
  8
1
 62
     6
100
AcDbMText
 10
42.0
 20
36.70959056623588
 30
0.0
 40
5.0
 41
0.0
 71
     2
 72
     1
  1
 
  7
CONVERTER_11
 73
     1
 44
1.32052821128451
  0
ENDBLK
  5
49
330
46
100
AcDbEntity
  8
0
100
AcDbBlockEnd
  0
BLOCK
  5
4B
330
4A
100
AcDbEntity
  8
0
100
AcDbBlockBegin
  2
3074431_dp_uwv_25-select__2
 70
     0
 10
-139.4872209963842
 20
79.58916329266643
 30
0.0
  3
3074431_dp_uwv_25-select__2
  1

  0
LINE
  5
94
330
4A
100
AcDbEntity
  8
0
  6
Continuous
 62
     7
100
AcDbLine
 10
-94.49999923583368
 20
79.58916329266643
 30
0.0
 11
-136.4872209963845
 21
79.58916329266643
 31
0.0
  0
LINE
  5
95
330
4A
100
AcDbEntity
  8
0
  6
Continuous
 62
     7
100
AcDbLine
 10
-93.99999923583363
 20
79.58916329266643
 30
0.0
 11
-94.49999923583368
 21
79.58916329266643
 31
0.0
  0
LINE
  5
96
330
4A
100
AcDbEntity
  8
0
  6
Continuous
 62
     2
100
AcDbLine
 10
-94.49999923583368
 20
83.58916329266643
 30
0.0
 11
-94.49999923583368
 21
79.58916329266643
 31
0.0
  0
LINE
  5
97
330
4A
100
AcDbEntity
  8
0
  6
Continuous
 62
     2
100
AcDbLine
 10
-136.4872209963845
 20
83.58916329266643
 30
0.0
 11
-136.4872209963845
 21
79.58916329266643
 31
0.0
  0
LINE
  5
98
330
4A
100
AcDbEntity
  8
0
  6
Continuous
 62
     7
100
AcDbLine
 10
-93.99999923583363
 20
83.58916329266643
 30
0.0
 11
-93.99999923583363
 21
79.58916329266643
 31
0.0
  0
LINE
  5
99
330
4A
100
AcDbEntity
  8
0
  6
Continuous
 62
     7
100
AcDbLine
 10
-94.49999923583368
 20
83.58916329266643
 30
0.0
 11
-136.4872209963845
 21
83.58916329266643
 31
0.0
  0
LINE
  5
9A
330
4A
100
AcDbEntity
  8
0
  6
Continuous
 62
     7
100
AcDbLine
 10
-93.99999923583363
 20
83.58916329266643
 30
0.0
 11
-94.49999923583368
 21
83.58916329266643
 31
0.0
  0
LINE
  5
9B
330
4A
100
AcDbEntity
  8
0
  6
Continuous
 62
     7
100
AcDbLine
 10
-139.4872209963842
 20
83.58916329266643
 30
0.0
 11
-139.4872209963842
 21
79.58916329266643
 31
0.0
  0
LINE
  5
9C
330
4A
100
AcDbEntity
  8
0
  6
Continuous
 62
     7
100
AcDbLine
 10
-136.4872209963845
 20
79.58916329266643
 30
0.0
 11
-139.4872209963842
 21
79.58916329266643
 31
0.0
  0
LINE
  5
9D
330
4A
100
AcDbEntity
  8
0
  6
Continuous
 62
     7
100
AcDbLine
 10
-136.4872209963845
 20
83.58916329266643
 30
0.0
 11
-139.4872209963842
 21
83.58916329266643
 31
0.0
  0
ENDBLK
  5
4C
330
4A
100
AcDbEntity
  8
0
100
AcDbBlockEnd
  0
BLOCK
  5
4F
330
4D
100
AcDbEntity
  8
0
100
AcDbBlockBegin
  2
Drfsicht1
 70
     0
 10
-116.7436096179121
 20
81.58916329267143
 30
0.0
  3
Drfsicht1
  1

  0
INSERT
  5
4E
330
4D
100
AcDbEntity
  8
0
100
AcDbBlockReference
  2
3074431_dp_uwv_25-select__2
 10
-139.4872209963842
 20
79.58916329266643
 30
0.0
  0
MTEXT
  5
9E
330
4D
100
AcDbEntity
  8
1
 62
     6
100
AcDbMText
 10
-116.7436096179122
 20
74.5891632926714
 30
0.0
 40
5.0
 41
0.0
 71
     2
 72
     1
  1
 
  7
CONVERTER_11
 73
     1
 44
1.32052821128451
  0
ENDBLK
  5
50
330
4D
100
AcDbEntity
  8
0
100
AcDbBlockEnd
  0
BLOCK
  5
52
330
51
100
AcDbEntity
  8
0
100
AcDbBlockBegin
  2
3074431_dp_uwv_25-select__3
 70
     0
 10
-24.55792349658888
 20
113.5891626022579
 30
0.0
  3
3074431_dp_uwv_25-select__3
  1

  0
LINE
  5
9F
330
51
100
AcDbEntity
  8
0
  6
Continuous
 62
     7
100
AcDbLine
 10
-24.05792349658267
 20
168.4108364362918
 30
0.0
 11
17.92929826396815
 21
168.410836436287
 31
0.0
  0
LINE
  5
A0
330
51
100
AcDbEntity
  8
0
  6
Continuous
 62
     7
100
AcDbLine
 10
-24.55792349658888
 20
114.0891626022579
 30
0.0
 11
-24.55792349658273
 21
167.9108364362918
 31
0.0
  0
ARC
  5
A1
330
51
100
AcDbEntity
  8
0
  6
Continuous
 62
     7
100
AcDbCircle
 10
-24.05792349658273
 20
167.9108364362918
 30
0.0
 40
0.5
100
AcDbArc
 50
89.99999999999308
 51
180.0
  0
ARC
  5
A2
330
51
100
AcDbEntity
  8
0
  6
Continuous
 62
     7
100
AcDbCircle
 10
-24.0579234965889
 20
114.0891626022579
 30
0.0
 40
0.4999999999999822
100
AcDbArc
 50
180.0
 51
270.7785945540837
  0
ARC
  5
A3
330
51
100
AcDbEntity
  8
0
  6
Continuous
 62
     7
100
AcDbCircle
 10
17.92929826396785
 20
165.410836436287
 30
0.0
 40
2.999999999999946
100
AcDbArc
 50
357.2702840602872
 51
89.9999999999943
  0
SPLINE
  5
A4
330
51
100
AcDbEntity
  8
0
  6
Continuous
 62
     7
100
AcDbSpline
210
0.0
220
0.0
230
1.0
 70
     8
 71
     3
 72
    19
 73
    15
 74
    13
 42
0.0000000001
 43
0.0000000001
 44
0.00000001
 40
0.0
 40
0.0
 40
0.0
 40
0.0
 40
5.577706396525882
 40
11.1555075279406
 40
18.15918014810389
 40
25.16240071992895
 40
31.90881555511692
 40
38.65438899002582
 40
45.09115499706166
 40
51.52659822587407
 40
57.68273730193547
 40
63.83728114985875
 40
69.57225868952895
 40
75.30666237383707
 40
75.30666237383707
 40
75.30666237383707
 40
75.30666237383707
 10
20.92589419181375
 20
165.2679629075385
 30
0.0
 10
20.79184827154915
 20
163.4124147729835
 30
0.0
 10
20.52375415430898
 20
159.7012869882051
 30
0.0
 10
19.43720342219011
 20
153.7355869136386
 30
0.0
 10
17.67804190976974
 20
147.4365722852584
 30
0.0
 10
15.05507481700613
 20
141.0174872951125
 30
0.0
 10
11.7431549957426
 20
135.0243786124876
 30
0.0
 10
7.831745169463104
 20
129.6326797729373
 30
0.0
 10
3.332210818292727
 20
124.8623210578447
 30
0.0
 10
-1.616287066601798
 20
120.8619273917528
 30
0.0
 10
-7.002464548225515
 20
117.6488132563527
 30
0.0
 10
-12.58703331031441
 20
115.3644944931209
 30
0.0
 10
-18.31546213564391
 20
113.9218510554776
 30
0.0
 10
-22.13930394314072
 20
113.7000858312753
 30
0.0
 10
-24.05112918644842
 20
113.5892087670393
 30
0.0
 11
20.92589419181375
 21
165.2679629075385
 31
0.0
 11
20.42390979340627
 21
159.7128913229771
 31
0.0
 11
19.44836365499241
 21
154.2210632854802
 31
0.0
 11
17.54995385205535
 21
147.4795893820569
 31
0.0
 11
14.89703418470261
 21
140.9982997251903
 31
0.0
 11
11.62604634709672
 21
135.0978970529416
 31
0.0
 11
7.656914550833751
 21
129.6436552404032
 31
0.0
 11
3.233095299962718
 21
124.9679970124148
 31
0.0
 11
-1.778593058429578
 21
120.9309300883197
 31
0.0
 11
-7.071100598420284
 21
117.7865045027872
 31
0.0
 11
-12.76647439242946
 21
115.4538820895956
 31
0.0
 11
-18.33961801630376
 21
114.1010932930014
 31
0.0
 11
-24.05112918644842
 21
113.5892087670393
 31
0.0
  0
ENDBLK
  5
53
330
51
100
AcDbEntity
  8
0
100
AcDbBlockEnd
  0
BLOCK
  5
56
330
54
100
AcDbEntity
  8
0
100
AcDbBlockBegin
  2
Rckans1
 70
     0
 10
-1.81431311450422
 20
140.999999999995
 30
0.0
  3
Rckans1
  1

  0
INSERT
  5
55
330
54
100
AcDbEntity
  8
0
100
AcDbBlockReference
  2
3074431_dp_uwv_25-select__3
 10
-24.55792349658888
 20
113.5891626022579
 30
0.0
  0
MTEXT
  5
A5
330
54
100
AcDbEntity
  8
1
 62
     6
100
AcDbMText
 10
-1.81431311450423
 20
108.5891627073186
 30
0.0
 40
5.0
 41
0.0
 71
     2
 72
     1
  1
 
  7
CONVERTER_11
 73
     1
 44
1.32052821128451
  0
ENDBLK
  5
57
330
54
100
AcDbEntity
  8
0
100
AcDbBlockEnd
  0
BLOCK
  5
59
330
58
100
AcDbEntity
  8
0
100
AcDbBlockBegin
  2
3074431_dp_uwv_25-select__4
 70
     0
 10
-59.99999999998499
 20
113.5891626022529
 30
0.0
  3
3074431_dp_uwv_25-select__4
  1

  0
LINE
  5
A6
330
58
100
AcDbEntity
  8
0
  6
Continuous
 62
     7
100
AcDbLine
 10
-55.99999999998499
 20
165.2679629033487
 30
0.0
 11
-55.99999999998499
 21
113.5892087670343
 31
0.0
  0
LINE
  5
A7
330
58
100
AcDbEntity
  8
0
  6
Continuous
 62
     7
100
AcDbLine
 10
-55.99999999998499
 20
168.410836436282
 30
0.0
 11
-55.99999999998499
 21
165.2679629033487
 31
0.0
  0
LINE
  5
A8
330
58
100
AcDbEntity
  8
0
  6
Continuous
 62
     7
100
AcDbLine
 10
-59.99999999998499
 20
168.410836436282
 30
0.0
 11
-55.99999999998499
 21
168.410836436282
 31
0.0
  0
LINE
  5
A9
330
58
100
AcDbEntity
  8
0
  6
Continuous
 62
     2
100
AcDbLine
 10
-55.99999999998499
 20
113.5892087670343
 30
0.0
 11
-59.99999999998499
 21
113.5892087670343
 31
0.0
  0
LINE
  5
AA
330
58
100
AcDbEntity
  8
0
  6
Continuous
 62
     2
100
AcDbLine
 10
-59.99999999998499
 20
165.2679629075335
 30
0.0
 11
-55.99999999998499
 21
165.2679629033487
 31
0.0
  0
LINE
  5
AB
330
58
100
AcDbEntity
  8
0
  6
Continuous
 62
     7
100
AcDbLine
 10
-59.99999999998499
 20
165.2679629075335
 30
0.0
 11
-59.99999999998499
 21
113.5892087670343
 31
0.0
  0
LINE
  5
AC
330
58
100
AcDbEntity
  8
0
  6
Continuous
 62
     7
100
AcDbLine
 10
-59.99999999998499
 20
168.410836436282
 30
0.0
 11
-59.99999999998499
 21
165.2679629075335
 31
0.0
  0
LINE
  5
AD
330
58
100
AcDbEntity
  8
0
  6
Continuous
 62
     7
100
AcDbLine
 10
-55.99999999998499
 20
113.5891626022529
 30
0.0
 11
-59.99999999998499
 21
113.5891626022529
 31
0.0
  0
LINE
  5
AE
330
58
100
AcDbEntity
  8
0
  6
Continuous
 62
     7
100
AcDbLine
 10
-55.99999999998499
 20
113.5891626022529
 30
0.0
 11
-55.99999999998499
 21
113.5892087670343
 31
0.0
  0
LINE
  5
AF
330
58
100
AcDbEntity
  8
0
  6
Continuous
 62
     7
100
AcDbLine
 10
-59.99999999998499
 20
113.5891626022529
 30
0.0
 11
-59.99999999998499
 21
113.5892087670343
 31
0.0
  0
ENDBLK
  5
5A
330
58
100
AcDbEntity
  8
0
100
AcDbBlockEnd
  0
BLOCK
  5
5D
330
5B
100
AcDbEntity
  8
0
100
AcDbBlockBegin
  2
SA_Links1
 70
     0
 10
-57.99999999999
 20
140.99999999999
 30
0.0
  3
SA_Links1
  1

  0
INSERT
  5
5C
330
5B
100
AcDbEntity
  8
0
100
AcDbBlockReference
  2
3074431_dp_uwv_25-select__4
 10
-59.99999999998499
 20
113.5891626022529
 30
0.0
  0
MTEXT
  5
B0
330
5B
100
AcDbEntity
  8
1
 62
     6
100
AcDbMText
 10
-57.99999999999
 20
108.5891627073136
 30
0.0
 40
5.0
 41
0.0
 71
     2
 72
     1
  1
 
  7
CONVERTER_11
 73
     1
 44
1.32052821128451
  0
DIMENSION
  5
BD
330
5B
100
AcDbEntity
  8
1
100
AcDbDimension
  2
*D16
 10
-59.99999999998499
 20
101.004495725384
 30
0.0
 11
-46.3575711212915
 21
104.754495725384
 31
0.0
 70
    32
  1
<>
 71
     5
 42
-1.0
 53
0.00013888888889
  3
ME10_DIM_10
100
AcDbAlignedDimension
 13
-55.99999999998499
 23
113.5892087670343
 33
0.0
 14
-59.99999999998499
 24
113.5892087670343
 34
0.0
100
AcDbRotatedDimension
  0
ENDBLK
  5
5E
330
5B
100
AcDbEntity
  8
0
100
AcDbBlockEnd
  0
BLOCK
  5
60
330
5F
100
AcDbEntity
  8
0
100
AcDbBlockBegin
  2
3074431_dp_uwv_25-select__5
 70
     0
 10
-165.728504036099
 20
113.5891626022578
 30
0.0
  3
3074431_dp_uwv_25-select__5
  1

  0
LINE
  5
BE
330
5F
100
AcDbEntity
  8
0
  6
Continuous
 62
     7
100
AcDbLine
 10
-165.728504036099
 20
114.0891626022579
 30
0.0
 11
-165.728504036099
 21
167.9108364362918
 31
0.0
  0
LINE
  5
BF
330
5F
100
AcDbEntity
  8
0
  6
Continuous
 62
     7
100
AcDbLine
 10
-165.728504036099
 20
114.0891626022579
 30
0.0
 11
-165.728504036099
 21
113.5891626022578
 31
0.0
  0
LINE
  5
C0
330
5F
100
AcDbEntity
  8
0
  6
Continuous
 62
     7
100
AcDbLine
 10
-165.728504036099
 20
113.5891626022578
 30
0.0
 11
-161.728504036099
 21
113.5891626022578
 31
0.0
  0
LINE
  5
C1
330
5F
100
AcDbEntity
  8
0
  6
Continuous
 62
     2
100
AcDbLine
 10
-161.728504036099
 20
167.9108364362918
 30
0.0
 11
-165.728504036099
 21
167.9108364362918
 31
0.0
  0
LINE
  5
C2
330
5F
100
AcDbEntity
  8
0
  6
Continuous
 62
     2
100
AcDbLine
 10
-165.728504036099
 20
114.0891626022579
 30
0.0
 11
-161.728504036099
 21
114.0891626022579
 31
0.0
  0
LINE
  5
C3
330
5F
100
AcDbEntity
  8
0
  6
Continuous
 62
     7
100
AcDbLine
 10
-161.728504036099
 20
114.0891626022579
 30
0.0
 11
-161.728504036099
 21
167.9108364362918
 31
0.0
  0
LINE
  5
C4
330
5F
100
AcDbEntity
  8
0
  6
Continuous
 62
     7
100
AcDbLine
 10
-161.728504036099
 20
114.0891626022579
 30
0.0
 11
-161.728504036099
 21
113.5891626022578
 31
0.0
  0
LINE
  5
C5
330
5F
100
AcDbEntity
  8
0
  6
Continuous
 62
     7
100
AcDbLine
 10
-161.728504036099
 20
168.4108364362917
 30
0.0
 11
-165.728504036099
 21
168.4108364362917
 31
0.0
  0
LINE
  5
C6
330
5F
100
AcDbEntity
  8
0
  6
Continuous
 62
     7
100
AcDbLine
 10
-165.728504036099
 20
167.9108364362918
 30
0.0
 11
-165.728504036099
 21
168.4108364362917
 31
0.0
  0
LINE
  5
C7
330
5F
100
AcDbEntity
  8
0
  6
Continuous
 62
     7
100
AcDbLine
 10
-161.728504036099
 20
167.9108364362918
 30
0.0
 11
-161.728504036099
 21
168.4108364362917
 31
0.0
  0
ENDBLK
  5
61
330
5F
100
AcDbEntity
  8
0
100
AcDbBlockEnd
  0
BLOCK
  5
64
330
62
100
AcDbEntity
  8
0
100
AcDbBlockBegin
  2
SA_Rechts1
 70
     0
 10
-163.728504036094
 20
140.999999999995
 30
0.0
  3
SA_Rechts1
  1

  0
INSERT
  5
63
330
62
100
AcDbEntity
  8
0
100
AcDbBlockReference
  2
3074431_dp_uwv_25-select__5
 10
-165.728504036099
 20
113.5891626022578
 30
0.0
  0
MTEXT
  5
C8
330
62
100
AcDbEntity
  8
1
 62
     6
100
AcDbMText
 10
-163.728504036094
 20
108.5891627073186
 30
0.0
 40
5.0
 41
0.0
 71
     2
 72
     1
  1
 
  7
CONVERTER_11
 73
     1
 44
1.32052821128451
  0
ENDBLK
  5
65
330
62
100
AcDbEntity
  8
0
100
AcDbBlockEnd
  0
BLOCK
  5
67
330
66
100
AcDbEntity
  8
0
100
AcDbBlockBegin
  2
3074431_dp_uwv_25-select__6
 70
     0
 10
-139.4872209963842
 20
113.5891626022578
 30
0.0
  3
3074431_dp_uwv_25-select__6
  1

  0
LINE
  5
C9
330
66
100
AcDbEntity
  8
0
  6
Continuous
 62
     7
100
AcDbLine
 10
-93.99999923582747
 20
114.0891626022579
 30
0.0
 11
-93.99999923583363
 21
167.9108364362918
 31
0.0
  0
LINE
  5
CA
330
66
100
AcDbEntity
  8
0
  6
Continuous
 62
     7
100
AcDbLine
 10
-94.49999923583368
 20
168.4108364362917
 30
0.0
 11
-136.4872209963845
 21
168.4108364362869
 31
0.0
  0
ARC
  5
CB
330
66
100
AcDbEntity
  8
0
  6
Continuous
 62
     7
100
AcDbCircle
 10
-94.49999923583363
 20
167.9108364362917
 30
0.0
 40
0.5
100
AcDbArc
 50
0.00000000000977
 51
90.00000000000651
  0
ARC
  5
CC
330
66
100
AcDbEntity
  8
0
  6
Continuous
 62
     7
100
AcDbCircle
 10
-94.49999923582746
 20
114.0891626022578
 30
0.0
 40
0.5
100
AcDbArc
 50
270.0
 51
0.0000000000114
  0
ARC
  5
CD
330
66
100
AcDbEntity
  8
0
  6
Continuous
 62
     7
100
AcDbCircle
 10
-136.4872209963842
 20
165.4108364362869
 30
0.0
 40
3.0
100
AcDbArc
 50
180.0
 51
182.7297160197271
  0
ARC
  5
CE
330
66
100
AcDbEntity
  8
0
  6
Continuous
 62
     7
100
AcDbCircle
 10
-136.4872209963842
 20
165.4108364362869
 30
0.0
 40
3.0
100
AcDbArc
 50
90.00000000000597
 51
180.0
  0
ARC
  5
CF
330
66
100
AcDbEntity
  8
0
  6
Continuous
 62
     7
100
AcDbCircle
 10
-94.49999923582746
 20
114.0891626022578
 30
0.0
 40
0.5000000000000189
100
AcDbArc
 50
269.2214054464064
 51
270.0
  0
SPLINE
  5
D0
330
66
100
AcDbEntity
  8
0
  6
Continuous
 62
     7
100
AcDbSpline
210
0.0
220
0.0
230
1.0
 70
     8
 71
     3
 72
    19
 73
    15
 74
    13
 42
0.0000000001
 43
0.0000000001
 44
0.00000001
 40
0.0
 40
0.0
 40
0.0
 40
0.0
 40
5.577706394403449
 40
11.15550752375486
 40
18.15918014391816
 40
25.16240071574317
 40
31.90881555093124
 40
38.65438898584016
 40
45.09115499287601
 40
51.5265982216884
 40
57.68273729774978
 40
63.83728114567306
 40
69.57225868534539
 40
75.30666236965568
 40
75.30666236965568
 40
75.30666236965568
 40
75.30666236965568
 10
-139.4838169240306
 20
165.2679629033536
 30
0.0
 10
-139.3497710037164
 20
163.4124147695128
 30
0.0
 10
-139.0816768863756
 20
159.701286986143
 30
0.0
 10
-137.9951261544223
 20
153.735586912976
 30
0.0
 10
-136.2359646421858
 20
147.436572285258
 30
0.0
 10
-133.6129975494226
 20
141.0174872951125
 30
0.0
 10
-130.301077728159
 20
135.0243786124875
 30
0.0
 10
-126.3896679018795
 20
129.6326797729372
 30
0.0
 10
-121.8901335507091
 20
124.8623210578446
 30
0.0
 10
-116.9416356658145
 20
120.8619273917527
 30
0.0
 10
-111.5554581841909
 20
117.6488132563526
 30
0.0
 10
-105.9708894221014
 20
115.3644944931205
 30
0.0
 10
-100.2424605967703
 20
113.9218510554771
 30
0.0
 10
-96.41861878927209
 20
113.700085831275
 30
0.0
 10
-94.50679354596366
 20
113.5892087670392
 30
0.0
 11
-139.4838169240306
 21
165.2679629033536
 31
0.0
 11
-138.9818325255501
 21
159.7128913209299
 31
0.0
 11
-138.0062863874088
 21
154.2210632854802
 31
0.0
 11
-136.1078765844718
 21
147.4795893820569
 31
0.0
 11
-133.454956917119
 21
140.9982997251903
 31
0.0
 11
-130.1839690795131
 21
135.0978970529416
 31
0.0
 11
-126.2148372832501
 21
129.6436552404031
 31
0.0
 11
-121.7910180323791
 21
124.9679970124147
 31
0.0
 11
-116.7793296739868
 21
120.9309300883197
 31
0.0
 11
-111.4868221339961
 21
117.7865045027871
 31
0.0
 11
-105.7914483399869
 21
115.4538820895955
 31
0.0
 11
-100.2183047161105
 21
114.101093293001
 31
0.0
 11
-94.50679354596366
 21
113.5892087670392
 31
0.0
  0
ENDBLK
  5
68
330
66
100
AcDbEntity
  8
0
100
AcDbBlockEnd
  0
BLOCK
  5
6B
330
69
100
AcDbEntity
  8
0
100
AcDbBlockBegin
  2
Vordans1
 70
     0
 10
-116.7436096179121
 20
140.999999999995
 30
0.0
  3
Vordans1
  1

  0
INSERT
  5
6A
330
69
100
AcDbEntity
  8
0
100
AcDbBlockReference
  2
3074431_dp_uwv_25-select__6
 10
-139.4872209963842
 20
113.5891626022578
 30
0.0
  0
MTEXT
  5
D1
330
69
100
AcDbEntity
  8
1
 62
     6
100
AcDbMText
 10
-116.7436096179122
 20
108.5891627073186
 30
0.0
 40
5.0
 41
0.0
 71
     2
 72
     1
  1
 
  7
CONVERTER_11
 73
     1
 44
1.32052821128451
  0
DIMENSION
  5
DC
330
69
100
AcDbEntity
  8
1
100
AcDbDimension
  2
*D17
 10
-139.4872209963842
 20
101.004495725384
 30
0.0
 11
-116.962104811894
 21
104.929495725384
 31
0.0
 70
    32
  1
<>
 71
     5
 42
-1.0
 53
0.00013888888889
  3
ME10_DIM_11
100
AcDbAlignedDimension
 13
-93.99999923583363
 23
167.9108364362918
 33
0.0
 14
-139.4872209963842
 24
165.4108364362869
 34
0.0
100
AcDbRotatedDimension
  0
DIMENSION
  5
E7
330
69
100
AcDbEntity
  8
1
100
AcDbDimension
  2
*D18
 10
-80.8095820825203
 20
113.5891626022578
 30
0.0
 11
-84.73458208252029
 21
141.319019357189
 31
0.0
 70
    33
  1
<>
 71
     5
 42
-1.0
 53
-89.99999999999348
  3
ME10_DIM_12
100
AcDbAlignedDimension
 13
-94.49999923583368
 23
168.4108364362917
 33
0.0
 14
-94.49999923582746
 24
113.5891626022578
 34
0.0
  0
ENDBLK
  5
6C
330
69
100
AcDbEntity
  8
0
100
AcDbBlockEnd
  0
BLOCK
  5
6E
330
6D
100
AcDbEntity
  8
0
100
AcDbBlockBegin
  2
_punkt
 70
     0
 10
79.74312096396574
 20
4.25533013477209
 30
0.0
  3
_punkt
  1

  0
LINE
  5
E8
330
6D
100
AcDbEntity
  8
1
  6
Continuous
 62
     2
100
AcDbLine
 10
79.74312096396574
 20
4.25533013477209
 30
0.0
 11
79.74312096396574
 21
-0.74466986522802
 31
0.0
  0
LINE
  5
E9
330
6D
100
AcDbEntity
  8
1
  6
Continuous
 62
     2
100
AcDbLine
 10
79.74312096396574
 20
4.25533013477209
 30
0.0
 11
84.74312096396474
 21
4.25533013477209
 31
0.0
  0
ENDBLK
  5
6F
330
6D
100
AcDbEntity
  8
0
100
AcDbBlockEnd
  0
BLOCK
  5
71
330
70
100
AcDbEntity
  8
0
100
AcDbBlockBegin
  2
_rahmen
 70
     0
 10
79.74312096396574
 20
-0.74466986522802
 30
0.0
  3
_rahmen
  1

  0
POINT
  5
EA
330
70
100
AcDbEntity
  8
1
 62
     3
 60
     1
100
AcDbPoint
 10
16.24312096396812
 20
25.50533013477196
 30
0.0
  0
LINE
  5
EB
102
{ACAD_REACTORS
330
2CD
330
2CD
330
2CE
330
2CE
102
}
330
70
100
AcDbEntity
  8
0
  6
Continuous
 62
     2
100
AcDbLine
 10
-35.31455220595159
 20
11.76383353613908
 30
0.0
 11
-35.31455220595159
 21
12.48492197151367
 31
0.0
  0
LINE
  5
EC
102
{ACAD_REACTORS
330
2CD
330
2CD
330
2CE
330
2CE
102
}
330
70
100
AcDbEntity
  8
0
  6
Continuous
 62
     2
100
AcDbLine
 10
-35.31455220595159
 20
10.97063625722762
 30
0.0
 11
-35.31455220595159
 21
10.24954782185303
 31
0.0
  0
LINE
  5
ED
102
{ACAD_REACTORS
330
2CF
330
2CF
330
2D0
330
2D0
102
}
330
70
100
AcDbEntity
  8
0
  6
Continuous
 62
     2
100
AcDbLine
 10
-22.64261490323224
 20
11.98016006675105
 30
0.0
 11
-21.73051630854786
 21
11.98016006675105
 31
0.0
  0
LINE
  5
EE
102
{ACAD_REACTORS
330
2CF
330
2CF
330
2D0
330
2D0
102
}
330
70
100
AcDbEntity
  8
0
  6
Continuous
 62
     2
100
AcDbLine
 10
-22.00653445450382
 20
10.97063625722716
 30
0.0
 11
-22.00653445450382
 21
10.24954782185259
 31
0.0
  0
LINE
  5
EF
102
{ACAD_REACTORS
330
2D9
330
2D9
330
2DA
330
2DA
102
}
330
70
100
AcDbEntity
  8
0
  6
Continuous
 62
     2
100
AcDbLine
 10
-23.54434983911528
 20
12.88152061095509
 30
0.0
 11
-22.3890167424704
 21
14.1880156471327
 31
0.0
  0
LINE
  5
F0
102
{ACAD_REACTORS
330
2D9
330
2D9
330
2DA
330
2DA
102
}
330
70
100
AcDbEntity
  8
0
  6
Continuous
 62
     2
100
AcDbLine
 10
-23.46548751169973
 20
15.40533013476592
 30
0.0
 11
-22.3890167424704
 21
14.1880156471327
 31
0.0
  0
LINE
  5
F1
102
{ACAD_REACTORS
330
2D9
330
2D9
330
2DA
330
2DA
102
}
330
70
100
AcDbEntity
  8
0
  6
Continuous
 62
     2
100
AcDbLine
 10
-21.31254597324198
 20
15.40533013476592
 30
0.0
 11
-20.15326976022777
 21
15.40533013476592
 31
0.0
  0
LINE
  5
F2
102
{ACAD_REACTORS
330
2D9
330
2D9
330
2DA
330
2DA
102
}
330
70
100
AcDbEntity
  8
0
  6
Continuous
 62
     2
100
AcDbLine
 10
-22.38507362610027
 20
12.88152061095509
 30
0.0
 11
-21.80937863596329
 21
13.53253861533003
 31
0.0
  0
LINE
  5
F3
102
{ACAD_REACTORS
330
2D9
330
2D9
330
2DA
330
2DA
102
}
330
70
100
AcDbEntity
  8
0
  6
Continuous
 62
     2
100
AcDbLine
 10
-22.38507362610027
 20
12.88152061095509
 30
0.0
 11
-23.54434983911528
 21
12.88152061095509
 31
0.0
  0
LINE
  5
F4
102
{ACAD_REACTORS
330
2DB
330
2DB
330
2DC
330
2DC
102
}
330
70
100
AcDbEntity
  8
0
  6
Continuous
 62
     2
100
AcDbLine
 10
-23.64292774838543
 20
12.88152061095509
 30
0.0
 11
-24.6681380047928
 21
12.88152061095509
 31
0.0
  0
LINE
  5
F5
102
{ACAD_REACTORS
330
2DD
330
2DD
330
2DE
330
2DE
102
}
330
70
100
AcDbEntity
  8
0
  6
Continuous
 62
     2
100
AcDbLine
 10
-25.38547652392924
 20
11.11485394430226
 30
0.0
 11
-25.63354696788803
 21
11.7494117674318
 31
0.0
  0
LINE
  5
F6
102
{ACAD_REACTORS
330
2DD
330
2DD
330
2DE
330
2DE
102
}
330
70
100
AcDbEntity
  8
0
  6
Continuous
 62
     2
100
AcDbLine
 10
-25.88161741184865
 20
11.11485394430226
 30
0.0
 11
-25.38547652392924
 21
11.11485394430226
 31
0.0
  0
LINE
  5
F7
102
{ACAD_REACTORS
330
2DD
330
2DD
330
2DE
330
2DE
102
}
330
70
100
AcDbEntity
  8
0
  6
Continuous
 62
     2
100
AcDbLine
 10
-27.30148519273609
 20
10.10533013477794
 30
0.0
 11
-26.27627493632871
 21
10.10533013477794
 31
0.0
  0
LINE
  5
F8
102
{ACAD_REACTORS
330
2DD
330
2DD
330
2DE
330
2DE
102
}
330
70
100
AcDbEntity
  8
0
  6
Continuous
 62
     2
100
AcDbLine
 10
-26.14615209609212
 20
12.62913965858877
 30
0.0
 11
-25.12094183968486
 21
12.62913965858877
 31
0.0
  0
LINE
  5
F9
102
{ACAD_REACTORS
330
2DD
330
2DD
330
2DE
330
2DE
102
}
330
70
100
AcDbEntity
  8
0
  6
Continuous
 62
     2
100
AcDbLine
 10
-25.12094183968486
 20
12.62913965858877
 30
0.0
 11
-23.96560874303997
 21
10.10533013477794
 31
0.0
  0
LINE
  5
FA
102
{ACAD_REACTORS
330
2DD
330
2DD
330
2DE
330
2DE
102
}
330
70
100
AcDbEntity
  8
0
  6
Continuous
 62
     2
100
AcDbLine
 10
-24.99081899944815
 20
10.10533013477794
 30
0.0
 11
-25.16559590314716
 21
10.55240496471006
 31
0.0
  0
LINE
  5
FB
102
{ACAD_REACTORS
330
2DF
330
2DF
330
2E0
330
2E0
102
}
330
70
100
AcDbEntity
  8
0
  6
Continuous
 62
     2
100
AcDbLine
 10
-28.4142232933209
 20
10.10533013477794
 30
0.0
 11
-27.42844420062135
 21
10.10533013477794
 31
0.0
  0
LINE
  5
FC
102
{ACAD_REACTORS
330
2DF
330
2DF
330
2E0
330
2E0
102
}
330
70
100
AcDbEntity
  8
0
  6
Continuous
 62
     2
100
AcDbLine
 10
-28.4142232933209
 20
11.98016006675105
 30
0.0
 11
-28.4142232933209
 21
10.10533013477794
 31
0.0
  0
LINE
  5
FD
102
{ACAD_REACTORS
330
2DF
330
2DF
330
2E0
330
2E0
102
}
330
70
100
AcDbEntity
  8
0
  6
Continuous
 62
     2
100
AcDbLine
 10
-29.08455307635779
 20
12.62913965858877
 30
0.0
 11
-29.08455307635779
 21
11.98016006675105
 31
0.0
  0
LINE
  5
FE
102
{ACAD_REACTORS
330
2E1
330
2E1
330
2E2
330
2E2
102
}
330
70
100
AcDbEntity
  8
0
  6
Continuous
 62
     2
100
AcDbLine
 10
-27.8620622651407
 20
12.88152061095509
 30
0.0
 11
-26.87628317244116
 21
12.88152061095509
 31
0.0
  0
LINE
  5
FF
102
{ACAD_REACTORS
330
2E1
330
2E1
330
2E2
330
2E2
102
}
330
70
100
AcDbEntity
  8
0
  6
Continuous
 62
     2
100
AcDbLine
 10
-25.85107291603287
 20
14.32369748170381
 30
0.0
 11
-26.87628317244116
 21
15.40533013476592
 31
0.0
  0
LINE
  5
100
102
{ACAD_REACTORS
330
2E1
330
2E1
330
2E2
330
2E2
102
}
330
70
100
AcDbEntity
  8
0
  6
Continuous
 62
     2
100
AcDbLine
 10
-24.86529382333321
 20
15.40533013476592
 30
0.0
 11
-25.85107291603287
 21
15.40533013476592
 31
0.0
  0
LINE
  5
101
102
{ACAD_REACTORS
330
2E1
330
2E1
330
2E2
330
2E2
102
}
330
70
100
AcDbEntity
  8
0
  6
Continuous
 62
     2
100
AcDbLine
 10
-24.86529382333321
 20
12.88152061095509
 30
0.0
 11
-24.86529382333321
 21
15.40533013476592
 31
0.0
  0
LINE
  5
102
102
{ACAD_REACTORS
330
2E1
330
2E1
330
2E2
330
2E2
102
}
330
70
100
AcDbEntity
  8
0
  6
Continuous
 62
     2
100
AcDbLine
 10
-25.85107291603287
 20
12.88152061095509
 30
0.0
 11
-24.86529382333321
 21
12.88152061095509
 31
0.0
  0
LINE
  5
103
102
{ACAD_REACTORS
330
2E1
330
2E1
330
2E2
330
2E2
102
}
330
70
100
AcDbEntity
  8
0
  6
Continuous
 62
     2
100
AcDbLine
 10
-26.87628317244116
 20
13.96315326401675
 30
0.0
 11
-25.85107291603287
 21
12.88152061095509
 31
0.0
  0
LINE
  5
104
102
{ACAD_REACTORS
330
2E3
330
2E3
330
2E4
330
2E4
102
}
330
70
100
AcDbEntity
  8
0
  6
Continuous
 62
     2
100
AcDbLine
 10
-30.1886256601814
 20
11.54750700552666
 30
0.0
 11
-31.21383591658877
 21
12.62913965858877
 31
0.0
  0
LINE
  5
105
102
{ACAD_REACTORS
330
2E3
330
2E3
330
2E4
330
2E4
102
}
330
70
100
AcDbEntity
  8
0
  6
Continuous
 62
     2
100
AcDbLine
 10
-30.1886256601814
 20
12.62913965858877
 30
0.0
 11
-30.1886256601814
 21
11.54750700552666
 31
0.0
  0
LINE
  5
106
102
{ACAD_REACTORS
330
2E3
330
2E3
330
2E4
330
2E4
102
}
330
70
100
AcDbEntity
  8
0
  6
Continuous
 62
     2
100
AcDbLine
 10
-29.20284656748185
 20
12.62913965858877
 30
0.0
 11
-30.1886256601814
 21
12.62913965858877
 31
0.0
  0
LINE
  5
107
102
{ACAD_REACTORS
330
2E3
330
2E3
330
2E4
330
2E4
102
}
330
70
100
AcDbEntity
  8
0
  6
Continuous
 62
     2
100
AcDbLine
 10
-29.20284656748185
 20
10.10533013477794
 30
0.0
 11
-29.20284656748185
 21
12.62913965858877
 31
0.0
  0
LINE
  5
108
102
{ACAD_REACTORS
330
2E3
330
2E3
330
2E4
330
2E4
102
}
330
70
100
AcDbEntity
  8
0
  6
Continuous
 62
     2
100
AcDbLine
 10
-31.21383591658877
 20
11.18696278783959
 30
0.0
 11
-30.1886256601814
 21
10.10533013477794
 31
0.0
  0
LINE
  5
109
102
{ACAD_REACTORS
330
2E3
330
2E3
330
2E4
330
2E4
102
}
330
70
100
AcDbEntity
  8
0
  6
Continuous
 62
     2
100
AcDbLine
 10
-31.21383591658877
 20
10.10533013477794
 30
0.0
 11
-31.21383591658877
 21
11.18696278783959
 31
0.0
  0
LINE
  5
10A
102
{ACAD_REACTORS
330
2D3
330
2D3
330
2D4
330
2D4
102
}
330
70
100
AcDbEntity
  8
0
  6
Continuous
 62
     2
100
AcDbLine
 10
-29.16329066750483
 20
14.82845938646598
 30
0.0
 11
-28.05921808368032
 21
14.82845938646598
 31
0.0
  0
LINE
  5
10B
102
{ACAD_REACTORS
330
2D3
330
2D3
330
2D4
330
2D4
102
}
330
70
100
AcDbEntity
  8
0
  6
Continuous
 62
     2
100
AcDbLine
 10
-29.16329066750483
 20
13.45839135925458
 30
0.0
 11
-29.16329066750483
 21
13.85498999871054
 31
0.0
  0
LINE
  5
10C
102
{ACAD_REACTORS
330
2D3
330
2D3
330
2D4
330
2D4
102
}
330
70
100
AcDbEntity
  8
0
  6
Continuous
 62
     2
100
AcDbLine
 10
-28.05921808368032
 20
13.45839135925458
 30
0.0
 11
-29.16329066750483
 21
13.45839135925458
 31
0.0
  0
LINE
  5
10D
102
{ACAD_REACTORS
330
2D3
330
2D3
330
2D4
330
2D4
102
}
330
70
100
AcDbEntity
  8
0
  6
Continuous
 62
     2
100
AcDbLine
 10
-28.05921808368032
 20
12.88152061095509
 30
0.0
 11
-28.05921808368032
 21
13.45839135925458
 31
0.0
  0
LINE
  5
10E
102
{ACAD_REACTORS
330
2D3
330
2D3
330
2D4
330
2D4
102
}
330
70
100
AcDbEntity
  8
0
  6
Continuous
 62
     2
100
AcDbLine
 10
-30.66278810333403
 20
12.88152061095509
 30
0.0
 11
-28.05921808368032
 21
12.88152061095509
 31
0.0
  0
LINE
  5
10F
102
{ACAD_REACTORS
330
2D3
330
2D3
330
2D4
330
2D4
102
}
330
70
100
AcDbEntity
  8
0
  6
Continuous
 62
     2
100
AcDbLine
 10
-30.66278810333403
 20
15.40533013476592
 30
0.0
 11
-28.05921808368032
 21
15.40533013476592
 31
0.0
  0
LINE
  5
110
102
{ACAD_REACTORS
330
2D3
330
2D3
330
2D4
330
2D4
102
}
330
70
100
AcDbEntity
  8
0
  6
Continuous
 62
     2
100
AcDbLine
 10
-28.05921808368032
 20
14.82845938646598
 30
0.0
 11
-28.05921808368032
 21
15.40533013476592
 31
0.0
  0
LINE
  5
111
102
{ACAD_REACTORS
330
2E5
330
2E5
330
2E6
330
2E6
102
}
330
70
100
AcDbEntity
  8
0
  6
Continuous
 62
     2
100
AcDbLine
 10
-33.0275447108878
 20
14.52199680143156
 30
0.0
 11
-33.0275447108878
 21
15.40533013476592
 31
0.0
  0
LINE
  5
112
102
{ACAD_REACTORS
330
2E5
330
2E5
330
2E6
330
2E6
102
}
330
70
100
AcDbEntity
  8
0
  6
Continuous
 62
     2
100
AcDbLine
 10
-33.0275447108878
 20
15.40533013476592
 30
0.0
 11
-32.04176561818826
 21
15.40533013476592
 31
0.0
  0
LINE
  5
113
102
{ACAD_REACTORS
330
2E5
330
2E5
330
2E6
330
2E6
102
}
330
70
100
AcDbEntity
  8
0
  6
Continuous
 62
     2
100
AcDbLine
 10
-33.0275447108878
 20
13.81893557694165
 30
0.0
 11
-33.89503031246419
 21
13.81893557694165
 31
0.0
  0
LINE
  5
114
102
{ACAD_REACTORS
330
2E5
330
2E5
330
2E6
330
2E6
102
}
330
70
100
AcDbEntity
  8
0
  6
Continuous
 62
     2
100
AcDbLine
 10
-33.89503031246419
 20
13.81893557694165
 30
0.0
 11
-33.89503031246419
 21
12.88152061095509
 31
0.0
  0
LINE
  5
115
102
{ACAD_REACTORS
330
2E5
330
2E5
330
2E6
330
2E6
102
}
330
70
100
AcDbEntity
  8
0
  6
Continuous
 62
     2
100
AcDbLine
 10
-34.88080940516385
 20
15.40533013476592
 30
0.0
 11
-34.88080940516385
 21
12.88152061095509
 31
0.0
  0
LINE
  5
116
102
{ACAD_REACTORS
330
2D7
330
2D7
330
2D8
330
2D8
102
}
330
70
100
AcDbEntity
  8
0
  6
Continuous
 62
     2
100
AcDbLine
 10
-36.49748711719166
 20
14.27406278370615
 30
0.0
 11
-36.49748711719166
 21
14.85730877489811
 31
0.0
  0
LINE
  5
117
102
{ACAD_REACTORS
330
2D7
330
2D7
330
2D8
330
2D8
102
}
330
70
100
AcDbEntity
  8
0
  6
Continuous
 62
     2
100
AcDbLine
 10
-37.52269737359995
 20
12.88152061095509
 30
0.0
 11
-36.49748711719166
 21
12.88152061095509
 31
0.0
  0
LINE
  5
118
102
{ACAD_REACTORS
330
2D7
330
2D7
330
2D8
330
2D8
102
}
330
70
100
AcDbEntity
  8
0
  6
Continuous
 62
     2
100
AcDbLine
 10
-36.49748711719166
 20
12.88152061095509
 30
0.0
 11
-36.49748711719166
 21
13.66092411603256
 31
0.0
  0
LINE
  5
119
102
{ACAD_REACTORS
330
2D1
330
2D1
330
2D2
330
2D2
102
}
330
70
100
AcDbEntity
  8
0
  6
Continuous
 62
     2
100
AcDbLine
 10
-41.08050386055162
 20
10.69421902366796
 30
0.0
 11
-42.30020077047686
 21
10.69421902366796
 31
0.0
  0
LINE
  5
11A
102
{ACAD_REACTORS
330
2D1
330
2D1
330
2D2
330
2D2
102
}
330
70
100
AcDbEntity
  8
0
  6
Continuous
 62
     2
100
AcDbLine
 10
-43.14163820198871
 20
15.05471475013619
 30
0.0
 11
-43.14163820198871
 21
10.45594551939222
 31
0.0
  0
LINE
  5
11B
102
{ACAD_REACTORS
330
2D1
330
2D1
330
2D2
330
2D2
102
}
330
70
100
AcDbEntity
  8
0
  6
Continuous
 62
     2
100
AcDbLine
 10
-42.79102281737482
 20
15.40533013475093
 30
0.0
 11
-38.26762439529477
 21
15.40533013475093
 31
0.0
  0
LINE
  5
11C
102
{ACAD_REACTORS
330
2D1
330
2D1
330
2D2
330
2D2
102
}
330
70
100
AcDbEntity
  8
0
  6
Continuous
 62
     2
100
AcDbLine
 10
-37.91700901067997
 20
15.05471475013619
 30
0.0
 11
-37.91700901067997
 21
10.45594551939222
 31
0.0
  0
LINE
  5
11D
102
{ACAD_REACTORS
330
2D1
330
2D1
330
2D2
330
2D2
102
}
330
70
100
AcDbEntity
  8
0
  6
Continuous
 62
     2
100
AcDbLine
 10
-38.26762439529477
 20
10.10533013477794
 30
0.0
 11
-42.79102281737482
 21
10.10533013477794
 31
0.0
  0
LINE
  5
11E
102
{ACAD_REACTORS
330
2D1
330
2D1
330
2D2
330
2D2
102
}
330
70
100
AcDbEntity
  8
0
  6
Continuous
 62
     2
100
AcDbLine
 10
-40.81958078362879
 20
10.95514210059085
 30
0.0
 11
-40.81958078362879
 21
12.22024204400541
 31
0.0
  0
LINE
  5
11F
102
{ACAD_REACTORS
330
2D1
330
2D1
330
2D2
330
2D2
102
}
330
70
100
AcDbEntity
  8
0
  6
Continuous
 62
     2
100
AcDbLine
 10
-40.81958078362879
 20
14.05632426890203
 30
0.0
 11
-40.81958078362879
 21
14.55551816895209
 31
0.0
  0
LINE
  5
120
102
{ACAD_REACTORS
330
2D1
330
2D1
330
2D2
330
2D2
102
}
330
70
100
AcDbEntity
  8
0
  6
Continuous
 62
     2
100
AcDbLine
 10
-42.30020077047686
 20
14.81644124587454
 30
0.0
 11
-41.08050386055162
 21
14.81644124587454
 31
0.0
  0
LINE
  5
121
102
{ACAD_REACTORS
330
2D1
330
2D1
330
2D2
330
2D2
102
}
330
70
100
AcDbEntity
  8
0
  6
Continuous
 62
     2
100
AcDbLine
 10
-42.5611238473989
 20
14.55551816895209
 30
0.0
 11
-42.5611238473989
 21
10.95514210059085
 31
0.0
  0
LINE
  5
122
102
{ACAD_REACTORS
330
2D7
330
2D7
330
2D8
330
2D8
102
}
330
70
100
AcDbEntity
  8
0
  6
Continuous
 62
     2
100
AcDbLine
 10
-36.49748711719166
 20
13.66092411603256
 30
0.0
 11
-35.87040646613354
 21
13.66092411603256
 31
0.0
  0
LINE
  5
123
102
{ACAD_REACTORS
330
2D7
330
2D7
330
2D8
330
2D8
102
}
330
70
100
AcDbEntity
  8
0
  6
Continuous
 62
     2
100
AcDbLine
 10
-37.52269737359995
 20
15.40533013476592
 30
0.0
 11
-35.87040646613354
 21
15.40533013476592
 31
0.0
  0
LINE
  5
124
102
{ACAD_REACTORS
330
2D7
330
2D7
330
2D8
330
2D8
102
}
330
70
100
AcDbEntity
  8
0
  6
Continuous
 62
     2
100
AcDbLine
 10
-37.52269737359995
 20
15.40533013476592
 30
0.0
 11
-37.52269737359995
 21
12.88152061095509
 31
0.0
  0
LINE
  5
125
102
{ACAD_REACTORS
330
2D7
330
2D7
330
2D8
330
2D8
102
}
330
70
100
AcDbEntity
  8
0
  6
Continuous
 62
     2
100
AcDbLine
 10
-36.49748711719166
 20
14.27406278370615
 30
0.0
 11
-36.23525979360328
 21
14.27406278370615
 31
0.0
  0
LINE
  5
126
102
{ACAD_REACTORS
330
2D7
330
2D7
330
2D8
330
2D8
102
}
330
70
100
AcDbEntity
  8
0
  6
Continuous
 62
     2
100
AcDbLine
 10
-36.49748711719166
 20
14.85730877489811
 30
0.0
 11
-36.23525979360328
 21
14.85730877489811
 31
0.0
  0
LINE
  5
127
102
{ACAD_REACTORS
330
2E5
330
2E5
330
2E6
330
2E6
102
}
330
70
100
AcDbEntity
  8
0
  6
Continuous
 62
     2
100
AcDbLine
 10
-33.89503031246419
 20
14.52199680143156
 30
0.0
 11
-33.0275447108878
 21
14.52199680143156
 31
0.0
  0
LINE
  5
128
102
{ACAD_REACTORS
330
2E5
330
2E5
330
2E6
330
2E6
102
}
330
70
100
AcDbEntity
  8
0
  6
Continuous
 62
     2
100
AcDbLine
 10
-33.89503031246419
 20
15.40533013476592
 30
0.0
 11
-33.89503031246419
 21
14.52199680143156
 31
0.0
  0
LINE
  5
129
102
{ACAD_REACTORS
330
2E5
330
2E5
330
2E6
330
2E6
102
}
330
70
100
AcDbEntity
  8
0
  6
Continuous
 62
     2
100
AcDbLine
 10
-34.88080940516385
 20
15.40533013476592
 30
0.0
 11
-33.89503031246419
 21
15.40533013476592
 31
0.0
  0
LINE
  5
12A
102
{ACAD_REACTORS
330
2E5
330
2E5
330
2E6
330
2E6
102
}
330
70
100
AcDbEntity
  8
0
  6
Continuous
 62
     2
100
AcDbLine
 10
-33.89503031246419
 20
12.88152061095509
 30
0.0
 11
-34.88080940516385
 21
12.88152061095509
 31
0.0
  0
LINE
  5
12B
102
{ACAD_REACTORS
330
2E5
330
2E5
330
2E6
330
2E6
102
}
330
70
100
AcDbEntity
  8
0
  6
Continuous
 62
     2
100
AcDbLine
 10
-33.0275447108878
 20
12.88152061095509
 30
0.0
 11
-33.0275447108878
 21
13.81893557694165
 31
0.0
  0
LINE
  5
12C
102
{ACAD_REACTORS
330
2E5
330
2E5
330
2E6
330
2E6
102
}
330
70
100
AcDbEntity
  8
0
  6
Continuous
 62
     2
100
AcDbLine
 10
-32.04176561818826
 20
12.88152061095509
 30
0.0
 11
-33.0275447108878
 21
12.88152061095509
 31
0.0
  0
LINE
  5
12D
102
{ACAD_REACTORS
330
2E5
330
2E5
330
2E6
330
2E6
102
}
330
70
100
AcDbEntity
  8
0
  6
Continuous
 62
     2
100
AcDbLine
 10
-32.04176561818826
 20
15.40533013476592
 30
0.0
 11
-32.04176561818826
 21
12.88152061095509
 31
0.0
  0
LINE
  5
12E
102
{ACAD_REACTORS
330
2D3
330
2D3
330
2D4
330
2D4
102
}
330
70
100
AcDbEntity
  8
0
  6
Continuous
 62
     2
100
AcDbLine
 10
-29.16329066750483
 20
13.85498999871054
 30
0.0
 11
-28.05921808368032
 21
13.85498999871054
 31
0.0
  0
LINE
  5
12F
102
{ACAD_REACTORS
330
2D3
330
2D3
330
2D4
330
2D4
102
}
330
70
100
AcDbEntity
  8
0
  6
Continuous
 62
     2
100
AcDbLine
 10
-28.05921808368032
 20
13.85498999871054
 30
0.0
 11
-28.05921808368032
 21
14.43186074701002
 31
0.0
  0
LINE
  5
130
102
{ACAD_REACTORS
330
2D3
330
2D3
330
2D4
330
2D4
102
}
330
70
100
AcDbEntity
  8
0
  6
Continuous
 62
     2
100
AcDbLine
 10
-28.05921808368032
 20
14.43186074701002
 30
0.0
 11
-29.16329066750483
 21
14.43186074701002
 31
0.0
  0
LINE
  5
131
102
{ACAD_REACTORS
330
2D3
330
2D3
330
2D4
330
2D4
102
}
330
70
100
AcDbEntity
  8
0
  6
Continuous
 62
     2
100
AcDbLine
 10
-29.16329066750483
 20
14.43186074701002
 30
0.0
 11
-29.16329066750483
 21
14.82845938646598
 31
0.0
  0
LINE
  5
132
102
{ACAD_REACTORS
330
2E3
330
2E3
330
2E4
330
2E4
102
}
330
70
100
AcDbEntity
  8
0
  6
Continuous
 62
     2
100
AcDbLine
 10
-32.19961500928923
 20
10.10533013477794
 30
0.0
 11
-31.21383591658877
 21
10.10533013477794
 31
0.0
  0
LINE
  5
133
102
{ACAD_REACTORS
330
2E3
330
2E3
330
2E4
330
2E4
102
}
330
70
100
AcDbEntity
  8
0
  6
Continuous
 62
     2
100
AcDbLine
 10
-30.1886256601814
 20
10.10533013477794
 30
0.0
 11
-29.20284656748185
 21
10.10533013477794
 31
0.0
  0
LINE
  5
134
102
{ACAD_REACTORS
330
2E3
330
2E3
330
2E4
330
2E4
102
}
330
70
100
AcDbEntity
  8
0
  6
Continuous
 62
     2
100
AcDbLine
 10
-31.21383591658877
 20
12.62913965858877
 30
0.0
 11
-32.19961500928923
 21
12.62913965858877
 31
0.0
  0
LINE
  5
135
102
{ACAD_REACTORS
330
2E3
330
2E3
330
2E4
330
2E4
102
}
330
70
100
AcDbEntity
  8
0
  6
Continuous
 62
     2
100
AcDbLine
 10
-32.19961500928923
 20
12.62913965858877
 30
0.0
 11
-32.19961500928923
 21
10.10533013477794
 31
0.0
  0
LINE
  5
136
102
{ACAD_REACTORS
330
2E1
330
2E1
330
2E2
330
2E2
102
}
330
70
100
AcDbEntity
  8
0
  6
Continuous
 62
     2
100
AcDbLine
 10
-25.85107291603287
 20
15.40533013476592
 30
0.0
 11
-25.85107291603287
 21
14.32369748170381
 31
0.0
  0
LINE
  5
137
102
{ACAD_REACTORS
330
2E1
330
2E1
330
2E2
330
2E2
102
}
330
70
100
AcDbEntity
  8
0
  6
Continuous
 62
     2
100
AcDbLine
 10
-26.87628317244116
 20
15.40533013476592
 30
0.0
 11
-27.8620622651407
 21
15.40533013476592
 31
0.0
  0
LINE
  5
138
102
{ACAD_REACTORS
330
2E1
330
2E1
330
2E2
330
2E2
102
}
330
70
100
AcDbEntity
  8
0
  6
Continuous
 62
     2
100
AcDbLine
 10
-27.8620622651407
 20
15.40533013476592
 30
0.0
 11
-27.8620622651407
 21
12.88152061095509
 31
0.0
  0
LINE
  5
139
102
{ACAD_REACTORS
330
2E1
330
2E1
330
2E2
330
2E2
102
}
330
70
100
AcDbEntity
  8
0
  6
Continuous
 62
     2
100
AcDbLine
 10
-26.87628317244116
 20
12.88152061095509
 30
0.0
 11
-26.87628317244116
 21
13.96315326401675
 31
0.0
  0
LINE
  5
13A
102
{ACAD_REACTORS
330
2DF
330
2DF
330
2E0
330
2E0
102
}
330
70
100
AcDbEntity
  8
0
  6
Continuous
 62
     2
100
AcDbLine
 10
-27.42844420062135
 20
10.10533013477794
 30
0.0
 11
-27.42844420062135
 21
11.98016006675105
 31
0.0
  0
LINE
  5
13B
102
{ACAD_REACTORS
330
2DF
330
2DF
330
2E0
330
2E0
102
}
330
70
100
AcDbEntity
  8
0
  6
Continuous
 62
     2
100
AcDbLine
 10
-27.42844420062135
 20
11.98016006675105
 30
0.0
 11
-26.75811441758617
 21
11.98016006675105
 31
0.0
  0
LINE
  5
13C
102
{ACAD_REACTORS
330
2DF
330
2DF
330
2E0
330
2E0
102
}
330
70
100
AcDbEntity
  8
0
  6
Continuous
 62
     2
100
AcDbLine
 10
-26.75811441758617
 20
11.98016006675105
 30
0.0
 11
-26.75811441758617
 21
12.62913965858877
 31
0.0
  0
LINE
  5
13D
102
{ACAD_REACTORS
330
2DF
330
2DF
330
2E0
330
2E0
102
}
330
70
100
AcDbEntity
  8
0
  6
Continuous
 62
     2
100
AcDbLine
 10
-26.75811441758617
 20
12.62913965858877
 30
0.0
 11
-29.08455307635779
 21
12.62913965858877
 31
0.0
  0
LINE
  5
13E
102
{ACAD_REACTORS
330
2DF
330
2DF
330
2E0
330
2E0
102
}
330
70
100
AcDbEntity
  8
0
  6
Continuous
 62
     2
100
AcDbLine
 10
-29.08455307635779
 20
11.98016006675105
 30
0.0
 11
-28.4142232933209
 21
11.98016006675105
 31
0.0
  0
LINE
  5
13F
102
{ACAD_REACTORS
330
2DD
330
2DD
330
2DE
330
2DE
102
}
330
70
100
AcDbEntity
  8
0
  6
Continuous
 62
     2
100
AcDbLine
 10
-26.1014980326297
 20
10.55240496471006
 30
0.0
 11
-25.16559590314716
 21
10.55240496471006
 31
0.0
  0
LINE
  5
140
102
{ACAD_REACTORS
330
2DD
330
2DD
330
2DE
330
2DE
102
}
330
70
100
AcDbEntity
  8
0
  6
Continuous
 62
     2
100
AcDbLine
 10
-23.96560874303997
 20
10.10533013477794
 30
0.0
 11
-24.99081899944815
 21
10.10533013477794
 31
0.0
  0
LINE
  5
141
102
{ACAD_REACTORS
330
2DD
330
2DD
330
2DE
330
2DE
102
}
330
70
100
AcDbEntity
  8
0
  6
Continuous
 62
     2
100
AcDbLine
 10
-26.14615209609212
 20
12.62913965858877
 30
0.0
 11
-27.30148519273609
 21
10.10533013477794
 31
0.0
  0
LINE
  5
142
102
{ACAD_REACTORS
330
2DD
330
2DD
330
2DE
330
2DE
102
}
330
70
100
AcDbEntity
  8
0
  6
Continuous
 62
     2
100
AcDbLine
 10
-26.27627493632871
 20
10.10533013477794
 30
0.0
 11
-26.1014980326297
 21
10.55240496471006
 31
0.0
  0
LINE
  5
143
102
{ACAD_REACTORS
330
2DD
330
2DD
330
2DE
330
2DE
102
}
330
70
100
AcDbEntity
  8
0
  6
Continuous
 62
     2
100
AcDbLine
 10
-25.88161741184865
 20
11.11485394430226
 30
0.0
 11
-25.63354696788803
 21
11.7494117674318
 31
0.0
  0
LINE
  5
144
102
{ACAD_REACTORS
330
2DB
330
2DB
330
2DC
330
2DC
102
}
330
70
100
AcDbEntity
  8
0
  6
Continuous
 62
     2
100
AcDbLine
 10
-24.6681380047928
 20
12.88152061095509
 30
0.0
 11
-24.6681380047928
 21
15.40533013476592
 31
0.0
  0
LINE
  5
145
102
{ACAD_REACTORS
330
2DB
330
2DB
330
2DC
330
2DC
102
}
330
70
100
AcDbEntity
  8
0
  6
Continuous
 62
     2
100
AcDbLine
 10
-23.64292774838543
 20
15.40533013476592
 30
0.0
 11
-23.64292774838543
 21
12.88152061095509
 31
0.0
  0
LINE
  5
146
102
{ACAD_REACTORS
330
2DB
330
2DB
330
2DC
330
2DC
102
}
330
70
100
AcDbEntity
  8
0
  6
Continuous
 62
     2
100
AcDbLine
 10
-24.6681380047928
 20
15.40533013476592
 30
0.0
 11
-23.64292774838543
 21
15.40533013476592
 31
0.0
  0
LINE
  5
147
102
{ACAD_REACTORS
330
2D9
330
2D9
330
2DA
330
2DA
102
}
330
70
100
AcDbEntity
  8
0
  6
Continuous
 62
     2
100
AcDbLine
 10
-21.80937863596329
 20
13.53253861533003
 30
0.0
 11
-21.23368364582654
 21
12.88152061095509
 31
0.0
  0
LINE
  5
148
102
{ACAD_REACTORS
330
2D9
330
2D9
330
2DA
330
2DA
102
}
330
70
100
AcDbEntity
  8
0
  6
Continuous
 62
     2
100
AcDbLine
 10
-21.23368364582654
 20
12.88152061095509
 30
0.0
 11
-20.07440743281142
 21
12.88152061095509
 31
0.0
  0
LINE
  5
149
102
{ACAD_REACTORS
330
2D9
330
2D9
330
2DA
330
2DA
102
}
330
70
100
AcDbEntity
  8
0
  6
Continuous
 62
     2
100
AcDbLine
 10
-21.2297405294563
 20
14.1880156471327
 30
0.0
 11
-20.07440743281142
 21
12.88152061095509
 31
0.0
  0
LINE
  5
14A
102
{ACAD_REACTORS
330
2D9
330
2D9
330
2DA
330
2DA
102
}
330
70
100
AcDbEntity
  8
0
  6
Continuous
 62
     2
100
AcDbLine
 10
-21.2297405294563
 20
14.1880156471327
 30
0.0
 11
-20.15326976022777
 21
15.40533013476592
 31
0.0
  0
LINE
  5
14B
102
{ACAD_REACTORS
330
2D9
330
2D9
330
2DA
330
2DA
102
}
330
70
100
AcDbEntity
  8
0
  6
Continuous
 62
     2
100
AcDbLine
 10
-21.80937863596329
 20
14.84349267893493
 30
0.0
 11
-21.31254597324198
 21
15.40533013476592
 31
0.0
  0
LINE
  5
14C
102
{ACAD_REACTORS
330
2D9
330
2D9
330
2DA
330
2DA
102
}
330
70
100
AcDbEntity
  8
0
  6
Continuous
 62
     2
100
AcDbLine
 10
-22.30621129868382
 20
15.40533013476592
 30
0.0
 11
-21.80937863596329
 21
14.84349267893493
 31
0.0
  0
LINE
  5
14D
102
{ACAD_REACTORS
330
2D9
330
2D9
330
2DA
330
2DA
102
}
330
70
100
AcDbEntity
  8
0
  6
Continuous
 62
     2
100
AcDbLine
 10
-22.30621129868382
 20
15.40533013476592
 30
0.0
 11
-23.46548751169973
 21
15.40533013476592
 31
0.0
  0
LINE
  5
14E
102
{ACAD_REACTORS
330
2CF
330
2CF
330
2D0
330
2D0
102
}
330
70
100
AcDbEntity
  8
0
  6
Continuous
 62
     2
100
AcDbLine
 10
-21.73051630854786
 20
10.10533013477794
 30
0.0
 11
-20.74473721584729
 21
10.10533013477794
 31
0.0
  0
LINE
  5
14F
102
{ACAD_REACTORS
330
2CF
330
2CF
330
2D0
330
2D0
102
}
330
70
100
AcDbEntity
  8
0
  6
Continuous
 62
     2
100
AcDbLine
 10
-20.74473721584729
 20
10.10533013477794
 30
0.0
 11
-20.74473721584729
 21
11.98016006675105
 31
0.0
  0
LINE
  5
150
102
{ACAD_REACTORS
330
2CF
330
2CF
330
2D0
330
2D0
102
}
330
70
100
AcDbEntity
  8
0
  6
Continuous
 62
     2
100
AcDbLine
 10
-20.74473721584729
 20
11.98016006675105
 30
0.0
 11
-20.07440743281142
 21
11.98016006675105
 31
0.0
  0
LINE
  5
151
102
{ACAD_REACTORS
330
2CF
330
2CF
330
2D0
330
2D0
102
}
330
70
100
AcDbEntity
  8
0
  6
Continuous
 62
     2
100
AcDbLine
 10
-20.07440743281142
 20
11.98016006675105
 30
0.0
 11
-20.07440743281142
 21
12.62913965858877
 31
0.0
  0
LINE
  5
152
102
{ACAD_REACTORS
330
2CF
330
2CF
330
2D0
330
2D0
102
}
330
70
100
AcDbEntity
  8
0
  6
Continuous
 62
     2
100
AcDbLine
 10
-22.87188306804171
 20
12.62913965858831
 30
0.0
 11
-20.07440743281142
 21
12.62913965858877
 31
0.0
  0
LINE
  5
153
102
{ACAD_REACTORS
330
2CF
330
2CF
330
2D0
330
2D0
102
}
330
70
100
AcDbEntity
  8
0
  6
Continuous
 62
     2
100
AcDbLine
 10
-21.73051630854786
 20
11.98016006675105
 30
0.0
 11
-21.73051630854786
 21
10.10533013477794
 31
0.0
  0
LINE
  5
154
102
{ACAD_REACTORS
330
2D1
330
2D1
330
2D2
330
2D2
102
}
330
70
100
AcDbEntity
  8
0
  6
Continuous
 62
     2
100
AcDbLine
 10
-40.43257121390251
 20
11.74076827491389
 30
0.0
 11
-40.43257121390251
 21
12.22163720606686
 31
0.0
  0
LINE
  5
155
102
{ACAD_REACTORS
330
2D1
330
2D1
330
2D2
330
2D2
102
}
330
70
100
AcDbEntity
  8
0
  6
Continuous
 62
     2
100
AcDbLine
 10
-40.43257121390251
 20
14.05492910684057
 30
0.0
 11
-40.43257121390251
 21
14.55537149403624
 31
0.0
  0
LINE
  5
156
330
70
100
AcDbEntity
  8
1
  6
Continuous
 62
     7
100
AcDbLine
 10
16.24312096396812
 20
21.25533013477198
 30
0.0
 11
16.24312096396812
 21
25.50533013477196
 31
0.0
  0
LINE
  5
157
330
70
100
AcDbEntity
  8
1
  6
Continuous
 62
     6
100
AcDbLine
 10
-63.75687903603427
 20
4.25533013477209
 30
0.0
 11
-63.30168356278427
 21
4.25533013477198
 31
0.0
  0
LINE
  5
158
330
70
100
AcDbEntity
  8
1
  6
Continuous
 62
     6
100
AcDbLine
 10
-113.7568790360344
 20
4.25533013477209
 30
0.0
 11
-152.5568790360344
 21
4.25533013477209
 31
0.0
  0
LINE
  5
159
330
70
100
AcDbEntity
  8
1
  6
Continuous
 62
     6
100
AcDbLine
 10
-163.7568790360343
 20
4.25533013477209
 30
0.0
 11
-152.5568790360344
 21
4.25533013477209
 31
0.0
  0
LINE
  5
15A
330
70
100
AcDbEntity
  8
1
  6
Continuous
 62
     6
100
AcDbLine
 10
36.24312096396575
 20
4.25533013477209
 30
0.0
 11
79.74312096396574
 21
4.25533013477209
 31
0.0
  0
LINE
  5
15B
330
70
100
AcDbEntity
  8
1
  6
Continuous
 62
     6
100
AcDbLine
 10
-13.75687903603426
 20
4.25533013477209
 30
0.0
 11
-31.6016835627843
 21
4.25533013477209
 31
0.0
  0
LINE
  5
15C
330
70
100
AcDbEntity
  8
1
  6
PHANTOM
 62
     2
100
AcDbLine
 10
-41.6824203479839
 20
19.13033013477198
 30
0.0
 11
-37.36682537879489
 21
19.13033013477198
 31
0.0
  0
LINE
  5
15D
330
70
100
AcDbEntity
  8
1
  6
PHANTOM
 62
     2
100
AcDbLine
 10
-44.7094237376809
 20
20.78033013477201
 30
0.0
 11
-44.7094237376809
 21
17.480330134772
 31
0.0
  0
LINE
  5
15E
330
70
100
AcDbEntity
  8
1
  6
PHANTOM
 62
     2
100
AcDbLine
 10
-43.0594237376809
 20
19.13033013477198
 30
0.0
 11
-46.35942373768089
 21
19.13033013477198
 31
0.0
  0
LINE
  5
15F
330
70
100
AcDbEntity
  8
1
  6
Continuous
 62
     2
100
AcDbLine
 10
79.74312096396574
 20
4.25533013477209
 30
0.0
 11
84.74312096396474
 21
4.25533013477209
 31
0.0
  0
LINE
  5
160
330
70
100
AcDbEntity
  8
1
  6
Continuous
 62
     2
100
AcDbLine
 10
79.74312096396574
 20
4.25533013477209
 30
0.0
 11
79.74312096396574
 21
-0.74466986522802
 31
0.0
  0
LINE
  5
161
330
70
100
AcDbEntity
  8
1
  6
Continuous
 62
     7
100
AcDbLine
 10
-13.40168356278427
 20
17.00533013477198
 30
0.0
 11
-13.40168356278427
 21
21.25533013477198
 31
0.0
  0
LINE
  5
162
330
70
100
AcDbEntity
  8
1
  6
Continuous
 62
     7
100
AcDbLine
 10
-49.80168356278417
 20
17.00533013477198
 30
0.0
 11
-13.40168356278427
 21
17.00533013477198
 31
0.0
  0
LINE
  5
163
330
70
100
AcDbEntity
  8
1
  6
Continuous
 62
     2
100
AcDbLine
 10
84.74312096396474
 20
-0.74466986522802
 30
0.0
 11
84.74312096396474
 21
4.25533013477209
 31
0.0
  0
LINE
  5
164
330
70
100
AcDbEntity
  8
1
  6
Continuous
 62
     2
100
AcDbLine
 10
84.74312096396474
 20
-0.74466986522802
 30
0.0
 11
79.74312096396574
 21
-0.74466986522802
 31
0.0
  0
LINE
  5
165
330
70
100
AcDbEntity
  8
1
  6
Continuous
 62
     2
100
AcDbLine
 10
79.74312096396574
 20
-0.74466986522802
 30
0.0
 11
36.24312096396575
 21
-0.74466986522802
 31
0.0
  0
LINE
  5
166
330
70
100
AcDbEntity
  8
1
  6
Continuous
 62
     6
100
AcDbLine
 10
79.74312096396744
 20
34.00533013477198
 30
0.0
 11
79.74312096396665
 21
54.25533013477209
 31
0.0
  0
LINE
  5
167
330
70
100
AcDbEntity
  8
1
  6
Continuous
 62
     2
100
AcDbLine
 10
84.74312096396474
 20
209.255330134772
 30
0.0
 11
-63.75687903603427
 21
209.255330134772
 31
0.0
  0
LINE
  5
168
330
70
100
AcDbEntity
  8
1
  6
Continuous
 62
     6
100
AcDbLine
 10
79.74312096396474
 20
189.255330134772
 30
0.0
 11
-207.2568790360334
 21
189.255330134772
 31
0.0
  0
LINE
  5
169
330
70
100
AcDbEntity
  8
1
  6
Continuous
 62
     2
100
AcDbLine
 10
79.74312096396665
 20
54.25533013477209
 30
0.0
 11
84.74312096396474
 21
54.25533013477209
 31
0.0
  0
LINE
  5
16A
330
70
100
AcDbEntity
  8
1
  6
Continuous
 62
     6
100
AcDbLine
 10
79.74312096396665
 20
54.25533013477209
 30
0.0
 11
79.74312096396613
 21
104.2553301347719
 31
0.0
  0
LINE
  5
16B
330
70
100
AcDbEntity
  8
1
  6
Continuous
 62
     2
100
AcDbLine
 10
84.74312096396474
 20
54.25533013477209
 30
0.0
 11
84.74312096396474
 21
104.2553301347719
 31
0.0
  0
LINE
  5
16C
330
70
100
AcDbEntity
  8
1
  6
Continuous
 62
     2
100
AcDbLine
 10
79.74312096396613
 20
104.2553301347719
 30
0.0
 11
84.74312096396474
 21
104.2553301347719
 31
0.0
  0
LINE
  5
16D
330
70
100
AcDbEntity
  8
1
  6
Continuous
 62
     6
100
AcDbLine
 10
79.74312096396613
 20
104.2553301347719
 30
0.0
 11
79.74312096396503
 21
154.255330134772
 31
0.0
  0
LINE
  5
16E
330
70
100
AcDbEntity
  8
1
  6
Continuous
 62
     2
100
AcDbLine
 10
84.74312096396474
 20
104.2553301347719
 30
0.0
 11
84.74312096396474
 21
154.255330134772
 31
0.0
  0
LINE
  5
16F
330
70
100
AcDbEntity
  8
1
  6
Continuous
 62
     2
100
AcDbLine
 10
79.74312096396503
 20
154.255330134772
 30
0.0
 11
84.74312096396474
 21
154.255330134772
 31
0.0
  0
LINE
  5
170
330
70
100
AcDbEntity
  8
1
  6
Continuous
 62
     6
100
AcDbLine
 10
79.74312096396503
 20
154.255330134772
 30
0.0
 11
79.74312096396474
 21
189.255330134772
 31
0.0
  0
LINE
  5
171
330
70
100
AcDbEntity
  8
1
  6
Continuous
 62
     2
100
AcDbLine
 10
84.74312096396474
 20
154.255330134772
 30
0.0
 11
84.74312096396474
 21
209.255330134772
 31
0.0
  0
LINE
  5
172
330
70
100
AcDbEntity
  8
1
  6
Continuous
 62
     2
100
AcDbLine
 10
84.74312096396474
 20
4.25533013477209
 30
0.0
 11
84.74312096396474
 21
54.25533013477209
 31
0.0
  0
LINE
  5
173
330
70
100
AcDbEntity
  8
1
  6
Continuous
 62
     2
100
AcDbLine
 10
-63.75687903603427
 20
209.255330134772
 30
0.0
 11
-212.2568790360334
 21
209.255330134772
 31
0.0
  0
LINE
  5
174
330
70
100
AcDbEntity
  8
1
  6
Continuous
 62
     2
100
AcDbLine
 10
-63.75687903603427
 20
209.255330134772
 30
0.0
 11
-63.75687903603427
 21
200.0466382900707
 31
0.0
  0
LINE
  5
175
330
70
100
AcDbEntity
  8
1
  6
Continuous
 62
     2
100
AcDbLine
 10
-212.2568790360334
 20
-0.74466986522802
 30
0.0
 11
-207.2568790360323
 21
-0.74466986522802
 31
0.0
  0
LINE
  5
176
330
70
100
AcDbEntity
  8
1
  6
Continuous
 62
     2
100
AcDbLine
 10
-212.2568790360334
 20
209.255330134772
 30
0.0
 11
-212.2568790360334
 21
154.255330134772
 31
0.0
  0
LINE
  5
177
330
70
100
AcDbEntity
  8
1
  6
Continuous
 62
     6
100
AcDbLine
 10
-207.2568790360334
 20
189.255330134772
 30
0.0
 11
-207.2568790360332
 21
154.255330134772
 31
0.0
  0
LINE
  5
178
330
70
100
AcDbEntity
  8
1
  6
Continuous
 62
     2
100
AcDbLine
 10
-212.2568790360334
 20
154.255330134772
 30
0.0
 11
-207.2568790360332
 21
154.255330134772
 31
0.0
  0
LINE
  5
179
330
70
100
AcDbEntity
  8
1
  6
Continuous
 62
     2
100
AcDbLine
 10
-212.2568790360334
 20
154.255330134772
 30
0.0
 11
-212.2568790360334
 21
104.2553301347719
 31
0.0
  0
LINE
  5
17A
330
70
100
AcDbEntity
  8
1
  6
Continuous
 62
     6
100
AcDbLine
 10
-207.2568790360332
 20
154.255330134772
 30
0.0
 11
-207.2568790360328
 21
104.2553301347719
 31
0.0
  0
LINE
  5
17B
330
70
100
AcDbEntity
  8
1
  6
Continuous
 62
     2
100
AcDbLine
 10
-212.2568790360334
 20
104.2553301347719
 30
0.0
 11
-207.2568790360328
 21
104.2553301347719
 31
0.0
  0
LINE
  5
17C
330
70
100
AcDbEntity
  8
1
  6
Continuous
 62
     2
100
AcDbLine
 10
-212.2568790360334
 20
104.2553301347719
 30
0.0
 11
-212.2568790360334
 21
54.25533013477209
 31
0.0
  0
LINE
  5
17D
330
70
100
AcDbEntity
  8
1
  6
Continuous
 62
     6
100
AcDbLine
 10
-207.2568790360328
 20
104.2553301347719
 30
0.0
 11
-207.2568790360325
 21
54.25533013477209
 31
0.0
  0
LINE
  5
17E
330
70
100
AcDbEntity
  8
1
  6
Continuous
 62
     2
100
AcDbLine
 10
-212.2568790360334
 20
54.25533013477209
 30
0.0
 11
-207.2568790360325
 21
54.25533013477209
 31
0.0
  0
LINE
  5
17F
330
70
100
AcDbEntity
  8
1
  6
Continuous
 62
     2
100
AcDbLine
 10
-212.2568790360334
 20
54.25533013477209
 30
0.0
 11
-212.2568790360334
 21
4.25533013477209
 31
0.0
  0
LINE
  5
180
330
70
100
AcDbEntity
  8
1
  6
Continuous
 62
     6
100
AcDbLine
 10
-207.2568790360325
 20
54.25533013477209
 30
0.0
 11
-207.2568790360323
 21
4.25533013477209
 31
0.0
  0
LINE
  5
181
330
70
100
AcDbEntity
  8
1
  6
Continuous
 62
     2
100
AcDbLine
 10
-163.7568790360343
 20
-0.74466986522802
 30
0.0
 11
-163.7568790360343
 21
4.25533013477209
 31
0.0
  0
LINE
  5
182
330
70
100
AcDbEntity
  8
1
  6
Continuous
 62
     2
100
AcDbLine
 10
-163.7568790360343
 20
-0.74466986522802
 30
0.0
 11
-113.7568790360344
 21
-0.74466986522802
 31
0.0
  0
LINE
  5
183
330
70
100
AcDbEntity
  8
1
  6
Continuous
 62
     2
100
AcDbLine
 10
-113.7568790360344
 20
-0.74466986522802
 30
0.0
 11
-113.7568790360344
 21
4.25533013477209
 31
0.0
  0
LINE
  5
184
330
70
100
AcDbEntity
  8
1
  6
Continuous
 62
     2
100
AcDbLine
 10
-113.7568790360344
 20
-0.74466986522802
 30
0.0
 11
-63.75687903603427
 21
-0.74466986522802
 31
0.0
  0
LINE
  5
185
330
70
100
AcDbEntity
  8
1
  6
Continuous
 62
     2
100
AcDbLine
 10
-63.75687903603427
 20
-0.74466986522802
 30
0.0
 11
-63.75687903603427
 21
4.25533013477209
 31
0.0
  0
LINE
  5
186
330
70
100
AcDbEntity
  8
1
  6
Continuous
 62
     2
100
AcDbLine
 10
-63.75687903603427
 20
-0.74466986522802
 30
0.0
 11
-13.75687903603426
 21
-0.74466986522802
 31
0.0
  0
LINE
  5
187
330
70
100
AcDbEntity
  8
1
  6
Continuous
 62
     2
100
AcDbLine
 10
-13.75687903603426
 20
-0.74466986522802
 30
0.0
 11
-13.75687903603426
 21
4.25533013477209
 31
0.0
  0
LINE
  5
188
330
70
100
AcDbEntity
  8
1
  6
Continuous
 62
     2
100
AcDbLine
 10
36.24312096396575
 20
-0.74466986522802
 30
0.0
 11
36.24312096396575
 21
4.25533013477209
 31
0.0
  0
LINE
  5
189
330
70
100
AcDbEntity
  8
1
  6
Continuous
 62
     2
100
AcDbLine
 10
36.24312096396575
 20
-0.74466986522802
 30
0.0
 11
-13.75687903603426
 21
-0.74466986522802
 31
0.0
  0
LINE
  5
18A
330
70
100
AcDbEntity
  8
1
  6
Continuous
 62
     2
100
AcDbLine
 10
-207.2568790360323
 20
4.25533013477209
 30
0.0
 11
-207.2568790360323
 21
-0.74466986522802
 31
0.0
  0
LINE
  5
18B
330
70
100
AcDbEntity
  8
1
  6
Continuous
 62
     2
100
AcDbLine
 10
-207.2568790360323
 20
-0.74466986522802
 30
0.0
 11
-163.7568790360343
 21
-0.74466986522802
 31
0.0
  0
LINE
  5
18C
330
70
100
AcDbEntity
  8
1
  6
Continuous
 62
     2
100
AcDbLine
 10
-207.2568790360323
 20
4.25533013477209
 30
0.0
 11
-212.2568790360334
 21
4.25533013477209
 31
0.0
  0
LINE
  5
18D
330
70
100
AcDbEntity
  8
1
  6
Continuous
 62
     2
100
AcDbLine
 10
-212.2568790360334
 20
4.25533013477209
 30
0.0
 11
-212.2568790360334
 21
-0.74466986522802
 31
0.0
  0
LINE
  5
18E
330
70
100
AcDbEntity
  8
1
  6
Continuous
 62
     7
100
AcDbLine
 10
-152.5568790360344
 20
8.50533013477209
 30
0.0
 11
-90.30168356278415
 21
8.50533013477209
 31
0.0
  0
LINE
  5
18F
330
70
100
AcDbEntity
  8
1
  6
Continuous
 62
     2
100
AcDbLine
 10
-152.5568790360344
 20
8.50533013477209
 30
0.0
 11
-152.5568790360344
 21
4.25533013477209
 31
0.0
  0
LINE
  5
190
330
70
100
AcDbEntity
  8
1
  6
Continuous
 62
     2
100
AcDbLine
 10
-152.5568790360344
 20
12.75533013477198
 30
0.0
 11
-166.0568790360344
 21
12.75533013477198
 31
0.0
  0
LINE
  5
191
330
70
100
AcDbEntity
  8
1
  6
Continuous
 62
     2
100
AcDbLine
 10
-152.5568790360344
 20
12.75533013477198
 30
0.0
 11
-152.5568790360344
 21
8.50533013477209
 31
0.0
  0
LINE
  5
192
330
70
100
AcDbEntity
  8
1
  6
Continuous
 62
     2
100
AcDbLine
 10
-152.5568790360344
 20
21.25533013477198
 30
0.0
 11
-166.0568790360344
 21
21.25533013477198
 31
0.0
  0
LINE
  5
193
330
70
100
AcDbEntity
  8
1
  6
Continuous
 62
     2
100
AcDbLine
 10
-152.5568790360344
 20
21.25533013477198
 30
0.0
 11
-152.5568790360344
 21
17.00533013477198
 31
0.0
  0
LINE
  5
194
330
70
100
AcDbEntity
  8
1
  6
Continuous
 62
     2
100
AcDbLine
 10
-152.5568790360344
 20
17.00533013477198
 30
0.0
 11
-166.0568790360344
 21
17.00533013477198
 31
0.0
  0
LINE
  5
195
330
70
100
AcDbEntity
  8
1
  6
Continuous
 62
     2
100
AcDbLine
 10
-152.5568790360344
 20
17.00533013477198
 30
0.0
 11
-152.5568790360344
 21
12.75533013477198
 31
0.0
  0
LINE
  5
196
330
70
100
AcDbEntity
  8
1
  6
Continuous
 62
     2
100
AcDbLine
 10
-152.5568790360344
 20
29.75533013477198
 30
0.0
 11
-166.0568790360344
 21
29.75533013477198
 31
0.0
  0
LINE
  5
197
330
70
100
AcDbEntity
  8
1
  6
Continuous
 62
     2
100
AcDbLine
 10
-152.5568790360344
 20
25.50533013477198
 30
0.0
 11
-166.0568790360344
 21
25.50533013477198
 31
0.0
  0
LINE
  5
198
330
70
100
AcDbEntity
  8
1
  6
Continuous
 62
     2
100
AcDbLine
 10
-152.5568790360344
 20
25.50533013477198
 30
0.0
 11
-152.5568790360344
 21
21.25533013477198
 31
0.0
  0
LINE
  5
199
330
70
100
AcDbEntity
  8
1
  6
Continuous
 62
     2
100
AcDbLine
 10
-152.5568790360344
 20
29.75533013477198
 30
0.0
 11
-152.5568790360344
 21
25.50533013477198
 31
0.0
  0
LINE
  5
19A
330
70
100
AcDbEntity
  8
1
  6
Continuous
 62
     6
100
AcDbLine
 10
-152.5568790360344
 20
34.00533013477198
 30
0.0
 11
-166.0568790360344
 21
34.00533013477198
 31
0.0
  0
LINE
  5
19B
330
70
100
AcDbEntity
  8
1
  6
Continuous
 62
     2
100
AcDbLine
 10
-152.5568790360344
 20
34.00533013477198
 30
0.0
 11
-152.5568790360344
 21
29.75533013477198
 31
0.0
  0
LINE
  5
19C
330
70
100
AcDbEntity
  8
1
  6
Continuous
 62
     6
100
AcDbLine
 10
79.74312096396574
 20
4.25533013477209
 30
0.0
 11
79.74312096396704
 21
12.75533013477198
 31
0.0
  0
LINE
  5
19D
330
70
100
AcDbEntity
  8
1
  6
Continuous
 62
     6
100
AcDbLine
 10
79.74312096396653
 20
25.50533013477198
 30
0.0
 11
79.74312096396753
 21
21.25533013477198
 31
0.0
  0
LINE
  5
19E
330
70
100
AcDbEntity
  8
1
  6
Continuous
 62
     6
100
AcDbLine
 10
-13.40168356278427
 20
4.25533013477198
 30
0.0
 11
36.24312096396575
 21
4.25533013477209
 31
0.0
  0
LINE
  5
19F
330
70
100
AcDbEntity
  8
1
  6
Continuous
 62
     6
100
AcDbLine
 10
-49.80168356278417
 20
4.25533013477198
 30
0.0
 11
-31.6016835627843
 21
4.25533013477209
 31
0.0
  0
LINE
  5
1A0
330
70
100
AcDbEntity
  8
1
  6
Continuous
 62
     6
100
AcDbLine
 10
-166.0568790360344
 20
4.25533013477198
 30
0.0
 11
-163.7568790360343
 21
4.25533013477209
 31
0.0
  0
LINE
  5
1A1
330
70
100
AcDbEntity
  8
1
  6
Continuous
 62
     6
100
AcDbLine
 10
-90.30168356278415
 20
4.25533013477198
 30
0.0
 11
-113.7568790360344
 21
4.25533013477209
 31
0.0
  0
LINE
  5
1A2
330
70
100
AcDbEntity
  8
1
  6
Continuous
 62
     6
100
AcDbLine
 10
79.74312096396744
 20
34.00533013477198
 30
0.0
 11
61.86152924564664
 21
34.00533013477198
 31
0.0
  0
LINE
  5
1A3
330
70
100
AcDbEntity
  8
1
  6
Continuous
 62
     7
100
AcDbLine
 10
79.74312096396704
 20
12.75533013477198
 30
0.0
 11
34.74312096396774
 21
12.75533013477198
 31
0.0
  0
LINE
  5
1A4
330
70
100
AcDbEntity
  8
1
  6
Continuous
 62
     7
100
AcDbLine
 10
79.74312096396653
 20
25.50533013477198
 30
0.0
 11
61.86152924564664
 21
25.50533013477198
 31
0.0
  0
LINE
  5
1A5
330
70
100
AcDbEntity
  8
1
  6
Continuous
 62
     7
100
AcDbLine
 10
34.74312096396774
 20
21.25533013477198
 30
0.0
 11
79.74312096396753
 21
21.25533013477198
 31
0.0
  0
LINE
  5
1A6
330
70
100
AcDbEntity
  8
1
  6
Continuous
 62
     7
100
AcDbLine
 10
-13.40168356278427
 20
29.75533013477198
 30
0.0
 11
-13.40168356278427
 21
25.50533013477198
 31
0.0
  0
LINE
  5
1A7
330
70
100
AcDbEntity
  8
1
  6
Continuous
 62
     7
100
AcDbLine
 10
-26.90168356278429
 20
29.75533013477198
 30
0.0
 11
-13.40168356278427
 21
29.75533013477198
 31
0.0
  0
LINE
  5
1A8
330
70
100
AcDbEntity
  8
1
  6
Continuous
 62
     7
100
AcDbLine
 10
-26.90168356278429
 20
29.75533013477198
 30
0.0
 11
-40.40168356278419
 21
29.75533013477198
 31
0.0
  0
LINE
  5
1A9
330
70
100
AcDbEntity
  8
1
  6
Continuous
 62
     7
100
AcDbLine
 10
61.86152924564664
 20
25.50533013477198
 30
0.0
 11
61.86152924564664
 21
34.00533013477198
 31
0.0
  0
LINE
  5
1AA
330
70
100
AcDbEntity
  8
1
  6
Continuous
 62
     6
100
AcDbLine
 10
52.94312096396745
 20
34.00533013477198
 30
0.0
 11
61.86152924564664
 21
34.00533013477198
 31
0.0
  0
LINE
  5
1AB
330
70
100
AcDbEntity
  8
1
  6
Continuous
 62
     7
100
AcDbLine
 10
52.94312096396745
 20
34.00533013477198
 30
0.0
 11
52.94312096396775
 21
25.50533013477209
 31
0.0
  0
LINE
  5
1AC
330
70
100
AcDbEntity
  8
1
  6
Continuous
 62
     7
100
AcDbLine
 10
34.74312096396774
 20
12.75533013477198
 30
0.0
 11
16.24312096396812
 21
12.75533013477198
 31
0.0
  0
LINE
  5
1AD
330
70
100
AcDbEntity
  8
1
  6
Continuous
 62
     7
100
AcDbLine
 10
34.74312096396774
 20
21.25533013477198
 30
0.0
 11
34.74312096396774
 21
12.75533013477198
 31
0.0
  0
LINE
  5
1AE
330
70
100
AcDbEntity
  8
1
  6
Continuous
 62
     2
100
AcDbLine
 10
-63.30168356278427
 20
34.00533013477198
 30
0.0
 11
-63.30168356278427
 21
29.75533013477198
 31
0.0
  0
LINE
  5
1AF
330
70
100
AcDbEntity
  8
1
  6
Continuous
 62
     2
100
AcDbLine
 10
-76.80168356278415
 20
34.00533013477198
 30
0.0
 11
-76.80168356278415
 21
29.75533013477198
 31
0.0
  0
LINE
  5
1B0
330
70
100
AcDbEntity
  8
1
  6
Continuous
 62
     6
100
AcDbLine
 10
-63.30168356278427
 20
34.00533013477198
 30
0.0
 11
-76.80168356278415
 21
34.00533013477198
 31
0.0
  0
LINE
  5
1B1
330
70
100
AcDbEntity
  8
1
  6
Continuous
 62
     6
100
AcDbLine
 10
-76.80168356278415
 20
34.00533013477198
 30
0.0
 11
-90.30168356278415
 21
34.00533013477198
 31
0.0
  0
LINE
  5
1B2
330
70
100
AcDbEntity
  8
1
  6
Continuous
 62
     2
100
AcDbLine
 10
-90.30168356278415
 20
34.00533013477198
 30
0.0
 11
-90.30168356278415
 21
29.75533013477198
 31
0.0
  0
LINE
  5
1B3
330
70
100
AcDbEntity
  8
1
  6
Continuous
 62
     7
100
AcDbLine
 10
-31.6016835627843
 20
8.50533013477209
 30
0.0
 11
-31.6016835627843
 21
4.25533013477209
 31
0.0
  0
LINE
  5
1B4
330
70
100
AcDbEntity
  8
1
  6
Continuous
 62
     7
100
AcDbLine
 10
-31.6016835627843
 20
8.50533013477209
 30
0.0
 11
-49.80168356278417
 21
8.50533013477209
 31
0.0
  0
LINE
  5
1B5
330
70
100
AcDbEntity
  8
1
  6
Continuous
 62
     7
100
AcDbLine
 10
-26.90168356278429
 20
21.25533013477198
 30
0.0
 11
-40.40168356278419
 21
21.25533013477209
 31
0.0
  0
LINE
  5
1B6
330
70
100
AcDbEntity
  8
1
  6
Continuous
 62
     7
100
AcDbLine
 10
-13.40168356278427
 20
8.50533013477209
 30
0.0
 11
-31.6016835627843
 21
8.50533013477209
 31
0.0
  0
LINE
  5
1B7
330
70
100
AcDbEntity
  8
1
  6
Continuous
 62
     6
100
AcDbLine
 10
-13.40168356278427
 20
34.00533013477198
 30
0.0
 11
9.49831643721575
 21
34.00533013477198
 31
0.0
  0
LINE
  5
1B8
330
70
100
AcDbEntity
  8
1
  6
Continuous
 62
     6
100
AcDbLine
 10
52.94312096396745
 20
34.00533013477198
 30
0.0
 11
9.49831643721575
 21
34.00533013477198
 31
0.0
  0
LINE
  5
1B9
330
70
100
AcDbEntity
  8
1
  6
Continuous
 62
     7
100
AcDbLine
 10
9.49831643721575
 20
34.00533013477198
 30
0.0
 11
9.49831643721575
 21
25.50533013477192
 31
0.0
  0
LINE
  5
1BA
330
70
100
AcDbEntity
  8
1
  6
Continuous
 62
     6
100
AcDbLine
 10
-166.0568790360344
 20
34.00533013477198
 30
0.0
 11
-172.2568790360324
 21
34.00533013477198
 31
0.0
  0
LINE
  5
1BB
330
70
100
AcDbEntity
  8
1
  6
Continuous
 62
     6
100
AcDbLine
 10
-172.2568790360324
 20
4.25533013477209
 30
0.0
 11
-172.2568790360324
 21
8.50533013477209
 31
0.0
  0
LINE
  5
1BC
330
70
100
AcDbEntity
  8
1
  6
Continuous
 62
     6
100
AcDbLine
 10
-172.2568790360324
 20
8.50533013477209
 30
0.0
 11
-172.2568790360324
 21
12.75533013477198
 31
0.0
  0
LINE
  5
1BD
330
70
100
AcDbEntity
  8
1
  6
Continuous
 62
     7
100
AcDbLine
 10
-26.90168356278429
 20
25.50533013477198
 30
0.0
 11
-26.90168356278429
 21
21.25533013477198
 31
0.0
  0
LINE
  5
1BE
330
70
100
AcDbEntity
  8
1
  6
Continuous
 62
     7
100
AcDbLine
 10
-40.40168356278419
 20
25.50533013477198
 30
0.0
 11
-40.40168356278419
 21
21.25533013477209
 31
0.0
  0
LINE
  5
1BF
330
70
100
AcDbEntity
  8
1
  6
Continuous
 62
     7
100
AcDbLine
 10
-26.90168356278429
 20
25.50533013477198
 30
0.0
 11
-40.40168356278419
 21
25.50533013477198
 31
0.0
  0
LINE
  5
1C0
330
70
100
AcDbEntity
  8
1
  6
Continuous
 62
     2
100
AcDbLine
 10
-49.80168356278417
 20
21.25533013477198
 30
0.0
 11
-63.30168356278427
 21
21.25533013477198
 31
0.0
  0
LINE
  5
1C1
330
70
100
AcDbEntity
  8
1
  6
Continuous
 62
     2
100
AcDbLine
 10
-166.0568790360344
 20
21.25533013477198
 30
0.0
 11
-166.0568790360344
 21
25.50533013477198
 31
0.0
  0
LINE
  5
1C2
330
70
100
AcDbEntity
  8
1
  6
Continuous
 62
     2
100
AcDbLine
 10
-166.0568790360344
 20
21.25533013477198
 30
0.0
 11
-172.2568790360324
 21
21.25533013477198
 31
0.0
  0
LINE
  5
1C3
330
70
100
AcDbEntity
  8
1
  6
Continuous
 62
     2
100
AcDbLine
 10
-49.80168356278417
 20
25.50533013477198
 30
0.0
 11
-63.30168356278427
 21
25.50533013477198
 31
0.0
  0
LINE
  5
1C4
330
70
100
AcDbEntity
  8
1
  6
Continuous
 62
     2
100
AcDbLine
 10
-166.0568790360344
 20
25.50533013477198
 30
0.0
 11
-166.0568790360344
 21
29.75533013477198
 31
0.0
  0
LINE
  5
1C5
330
70
100
AcDbEntity
  8
1
  6
Continuous
 62
     2
100
AcDbLine
 10
-49.80168356278417
 20
29.75533013477198
 30
0.0
 11
-63.30168356278427
 21
29.75533013477198
 31
0.0
  0
LINE
  5
1C6
330
70
100
AcDbEntity
  8
1
  6
Continuous
 62
     2
100
AcDbLine
 10
-166.0568790360344
 20
29.75533013477198
 30
0.0
 11
-166.0568790360344
 21
34.00533013477198
 31
0.0
  0
LINE
  5
1C7
330
70
100
AcDbEntity
  8
1
  6
Continuous
 62
     2
100
AcDbLine
 10
-166.0568790360344
 20
29.75533013477198
 30
0.0
 11
-172.2568790360324
 21
29.75533013477198
 31
0.0
  0
LINE
  5
1C8
330
70
100
AcDbEntity
  8
1
  6
Continuous
 62
     6
100
AcDbLine
 10
-49.80168356278417
 20
34.00533013477198
 30
0.0
 11
-63.30168356278427
 21
34.00533013477198
 31
0.0
  0
LINE
  5
1C9
330
70
100
AcDbEntity
  8
1
  6
Continuous
 62
     2
100
AcDbLine
 10
-49.80168356278417
 20
12.75533013477198
 30
0.0
 11
-63.30168356278427
 21
12.75533013477198
 31
0.0
  0
LINE
  5
1CA
330
70
100
AcDbEntity
  8
1
  6
Continuous
 62
     2
100
AcDbLine
 10
-49.80168356278417
 20
17.00533013477198
 30
0.0
 11
-63.30168356278427
 21
17.00533013477198
 31
0.0
  0
LINE
  5
1CB
330
70
100
AcDbEntity
  8
1
  6
Continuous
 62
     2
100
AcDbLine
 10
-166.0568790360344
 20
12.75533013477198
 30
0.0
 11
-166.0568790360344
 21
17.00533013477198
 31
0.0
  0
LINE
  5
1CC
330
70
100
AcDbEntity
  8
1
  6
Continuous
 62
     2
100
AcDbLine
 10
-166.0568790360344
 20
17.00533013477198
 30
0.0
 11
-166.0568790360344
 21
21.25533013477198
 31
0.0
  0
LINE
  5
1CD
330
70
100
AcDbEntity
  8
1
  6
Continuous
 62
     7
100
AcDbLine
 10
-166.0568790360344
 20
8.50533013477209
 30
0.0
 11
-152.5568790360344
 21
8.50533013477209
 31
0.0
  0
LINE
  5
1CE
330
70
100
AcDbEntity
  8
1
  6
Continuous
 62
     2
100
AcDbLine
 10
-166.0568790360344
 20
8.50533013477209
 30
0.0
 11
-166.0568790360344
 21
12.75533013477198
 31
0.0
  0
LINE
  5
1CF
330
70
100
AcDbEntity
  8
1
  6
Continuous
 62
     7
100
AcDbLine
 10
-13.40168356278427
 20
12.75533013477198
 30
0.0
 11
-13.40168356278427
 21
17.00533013477198
 31
0.0
  0
LINE
  5
1D0
330
70
100
AcDbEntity
  8
1
  6
Continuous
 62
     6
100
AcDbLine
 10
-26.90168356278429
 20
34.00533013477198
 30
0.0
 11
-13.40168356278427
 21
34.00533013477198
 31
0.0
  0
LINE
  5
1D1
330
70
100
AcDbEntity
  8
1
  6
Continuous
 62
     7
100
AcDbLine
 10
-13.40168356278427
 20
34.00533013477198
 30
0.0
 11
-13.40168356278427
 21
29.75533013477198
 31
0.0
  0
LINE
  5
1D2
330
70
100
AcDbEntity
  8
1
  6
Continuous
 62
     6
100
AcDbLine
 10
-40.40168356278419
 20
34.00533013477198
 30
0.0
 11
-26.90168356278429
 21
34.00533013477198
 31
0.0
  0
LINE
  5
1D3
330
70
100
AcDbEntity
  8
1
  6
Continuous
 62
     7
100
AcDbLine
 10
-49.80168356278417
 20
21.25533013477198
 30
0.0
 11
-49.80168356278417
 21
17.00533013477198
 31
0.0
  0
LINE
  5
1D4
330
70
100
AcDbEntity
  8
1
  6
Continuous
 62
     7
100
AcDbLine
 10
-49.80168356278417
 20
25.50533013477198
 30
0.0
 11
-49.80168356278417
 21
21.25533013477198
 31
0.0
  0
LINE
  5
1D5
330
70
100
AcDbEntity
  8
1
  6
Continuous
 62
     2
100
AcDbLine
 10
-172.2568790360324
 20
25.50533013477198
 30
0.0
 11
-166.0568790360344
 21
25.50533013477198
 31
0.0
  0
LINE
  5
1D6
330
70
100
AcDbEntity
  8
1
  6
Continuous
 62
     7
100
AcDbLine
 10
-49.80168356278417
 20
29.75533013477198
 30
0.0
 11
-49.80168356278417
 21
25.50533013477198
 31
0.0
  0
LINE
  5
1D7
330
70
100
AcDbEntity
  8
1
  6
Continuous
 62
     7
100
AcDbLine
 10
-13.40168356278427
 20
25.50533013477198
 30
0.0
 11
-13.40168356278427
 21
21.25533013477198
 31
0.0
  0
LINE
  5
1D8
330
70
100
AcDbEntity
  8
1
  6
Continuous
 62
     7
100
AcDbLine
 10
-26.90168356278429
 20
34.00533013477198
 30
0.0
 11
-26.90168356278429
 21
29.75533013477198
 31
0.0
  0
LINE
  5
1D9
330
70
100
AcDbEntity
  8
1
  6
Continuous
 62
     7
100
AcDbLine
 10
-40.40168356278419
 20
34.00533013477198
 30
0.0
 11
-40.40168356278419
 21
29.75533013477198
 31
0.0
  0
LINE
  5
1DA
330
70
100
AcDbEntity
  8
1
  6
Continuous
 62
     2
100
AcDbLine
 10
-166.0568790360344
 20
4.25533013477198
 30
0.0
 11
-166.0568790360344
 21
8.50533013477209
 31
0.0
  0
LINE
  5
1DB
330
70
100
AcDbEntity
  8
1
  6
Continuous
 62
     2
100
AcDbLine
 10
-172.2568790360324
 20
12.75533013477198
 30
0.0
 11
-166.0568790360344
 21
12.75533013477198
 31
0.0
  0
LINE
  5
1DC
330
70
100
AcDbEntity
  8
1
  6
Continuous
 62
     2
100
AcDbLine
 10
-172.2568790360324
 20
17.00533013477198
 30
0.0
 11
-166.0568790360344
 21
17.00533013477198
 31
0.0
  0
LINE
  5
1DD
330
70
100
AcDbEntity
  8
1
  6
Continuous
 62
     7
100
AcDbLine
 10
-172.2568790360324
 20
8.50533013477209
 30
0.0
 11
-166.0568790360344
 21
8.50533013477209
 31
0.0
  0
LINE
  5
1DE
330
70
100
AcDbEntity
  8
1
  6
Continuous
 62
     7
100
AcDbLine
 10
-13.40168356278427
 20
12.75533013477198
 30
0.0
 11
-13.40168356278427
 21
8.50533013477209
 31
0.0
  0
LINE
  5
1DF
330
70
100
AcDbEntity
  8
1
  6
Continuous
 62
     7
100
AcDbLine
 10
-49.80168356278417
 20
17.00533013477198
 30
0.0
 11
-49.80168356278417
 21
12.75533013477198
 31
0.0
  0
LINE
  5
1E0
330
70
100
AcDbEntity
  8
1
  6
Continuous
 62
     7
100
AcDbLine
 10
-49.80168356278417
 20
12.75533013477198
 30
0.0
 11
-49.80168356278417
 21
8.50533013477209
 31
0.0
  0
LINE
  5
1E1
330
70
100
AcDbEntity
  8
1
  6
Continuous
 62
     7
100
AcDbLine
 10
-26.90168356278429
 20
29.75533013477198
 30
0.0
 11
-26.90168356278429
 21
25.50533013477198
 31
0.0
  0
LINE
  5
1E2
330
70
100
AcDbEntity
  8
1
  6
Continuous
 62
     7
100
AcDbLine
 10
-40.40168356278419
 20
29.75533013477198
 30
0.0
 11
-40.40168356278419
 21
25.50533013477198
 31
0.0
  0
LINE
  5
1E3
330
70
100
AcDbEntity
  8
1
  6
Continuous
 62
     7
100
AcDbLine
 10
-49.80168356278417
 20
25.50533013477198
 30
0.0
 11
-40.40168356278419
 21
25.50533013477198
 31
0.0
  0
LINE
  5
1E4
330
70
100
AcDbEntity
  8
1
  6
Continuous
 62
     7
100
AcDbLine
 10
-13.40168356278427
 20
21.25533013477198
 30
0.0
 11
-26.90168356278429
 21
21.25533013477198
 31
0.0
  0
LINE
  5
1E5
330
70
100
AcDbEntity
  8
1
  6
Continuous
 62
     7
100
AcDbLine
 10
-13.40168356278427
 20
8.50533013477209
 30
0.0
 11
-13.40168356278427
 21
4.25533013477198
 31
0.0
  0
LINE
  5
1E6
330
70
100
AcDbEntity
  8
1
  6
Continuous
 62
     7
100
AcDbLine
 10
-49.80168356278417
 20
8.50533013477209
 30
0.0
 11
-49.80168356278417
 21
4.25533013477198
 31
0.0
  0
LINE
  5
1E7
330
70
100
AcDbEntity
  8
1
  6
Continuous
 62
     7
100
AcDbLine
 10
-49.80168356278417
 20
34.00533013477198
 30
0.0
 11
-49.80168356278417
 21
29.75533013477198
 31
0.0
  0
LINE
  5
1E8
330
70
100
AcDbEntity
  8
1
  6
Continuous
 62
     7
100
AcDbLine
 10
-13.40168356278427
 20
12.75533013477198
 30
0.0
 11
16.24312096396812
 21
12.75533013477198
 31
0.0
  0
LINE
  5
1E9
330
70
100
AcDbEntity
  8
1
  6
Continuous
 62
     7
100
AcDbLine
 10
-13.40168356278427
 20
21.25533013477198
 30
0.0
 11
16.24312096396812
 21
21.25533013477198
 31
0.0
  0
LINE
  5
1EA
330
70
100
AcDbEntity
  8
1
  6
Continuous
 62
     7
100
AcDbLine
 10
52.94312096396775
 20
25.50533013477209
 30
0.0
 11
61.86152924564664
 21
25.50533013477198
 31
0.0
  0
LINE
  5
1EB
330
70
100
AcDbEntity
  8
1
  6
Continuous
 62
     7
100
AcDbLine
 10
52.94312096396775
 20
25.50533013477209
 30
0.0
 11
16.24312096396812
 21
25.50533013477196
 31
0.0
  0
LINE
  5
1EC
330
70
100
AcDbEntity
  8
1
  6
Continuous
 62
     7
100
AcDbLine
 10
16.24312096396812
 20
21.25533013477198
 30
0.0
 11
34.74312096396774
 21
21.25533013477198
 31
0.0
  0
LINE
  5
1ED
330
70
100
AcDbEntity
  8
1
  6
Continuous
 62
     7
100
AcDbLine
 10
16.24312096396812
 20
21.25533013477198
 30
0.0
 11
16.24312096396812
 21
12.75533013477198
 31
0.0
  0
LINE
  5
1EE
330
70
100
AcDbEntity
  8
1
  6
Continuous
 62
     6
100
AcDbLine
 10
-166.0568790360344
 20
4.25533013477198
 30
0.0
 11
-172.2568790360324
 21
4.25533013477209
 31
0.0
  0
LINE
  5
1EF
330
70
100
AcDbEntity
  8
1
  6
Continuous
 62
     6
100
AcDbLine
 10
-172.2568790360324
 20
29.75533013477198
 30
0.0
 11
-172.2568790360324
 21
34.00533013477198
 31
0.0
  0
LINE
  5
1F0
330
70
100
AcDbEntity
  8
1
  6
Continuous
 62
     6
100
AcDbLine
 10
-172.2568790360324
 20
25.50533013477198
 30
0.0
 11
-172.2568790360324
 21
29.75533013477198
 31
0.0
  0
LINE
  5
1F1
330
70
100
AcDbEntity
  8
1
  6
Continuous
 62
     6
100
AcDbLine
 10
-172.2568790360324
 20
21.25533013477198
 30
0.0
 11
-172.2568790360324
 21
25.50533013477198
 31
0.0
  0
LINE
  5
1F2
330
70
100
AcDbEntity
  8
1
  6
Continuous
 62
     6
100
AcDbLine
 10
-172.2568790360324
 20
12.75533013477198
 30
0.0
 11
-172.2568790360324
 21
17.00533013477198
 31
0.0
  0
LINE
  5
1F3
330
70
100
AcDbEntity
  8
1
  6
Continuous
 62
     6
100
AcDbLine
 10
-90.30168356278415
 20
34.00533013477198
 30
0.0
 11
-152.5568790360344
 21
34.00533013477198
 31
0.0
  0
LINE
  5
1F4
330
70
100
AcDbEntity
  8
1
  6
Continuous
 62
     2
100
AcDbLine
 10
-152.5568790360344
 20
29.75533013477198
 30
0.0
 11
-90.30168356278415
 21
29.75533013477198
 31
0.0
  0
LINE
  5
1F5
330
70
100
AcDbEntity
  8
1
  6
Continuous
 62
     2
100
AcDbLine
 10
-152.5568790360344
 20
25.50533013477198
 30
0.0
 11
-90.30168356278415
 21
25.50533013477198
 31
0.0
  0
LINE
  5
1F6
330
70
100
AcDbEntity
  8
1
  6
Continuous
 62
     6
100
AcDbLine
 10
-13.40168356278427
 20
4.25533013477198
 30
0.0
 11
-13.75687903603426
 21
4.25533013477209
 31
0.0
  0
LINE
  5
1F7
330
70
100
AcDbEntity
  8
1
  6
Continuous
 62
     7
100
AcDbLine
 10
-26.90168356278429
 20
25.50533013477198
 30
0.0
 11
-13.40168356278427
 21
25.50533013477198
 31
0.0
  0
LINE
  5
1F8
330
70
100
AcDbEntity
  8
1
  6
Continuous
 62
     7
100
AcDbLine
 10
9.49831643721575
 20
25.50533013477192
 30
0.0
 11
-13.40168356278427
 21
25.50533013477198
 31
0.0
  0
LINE
  5
1F9
330
70
100
AcDbEntity
  8
1
  6
Continuous
 62
     6
100
AcDbLine
 10
79.74312096396753
 20
21.25533013477198
 30
0.0
 11
79.74312096396704
 21
12.75533013477198
 31
0.0
  0
LINE
  5
1FA
330
70
100
AcDbEntity
  8
1
  6
Continuous
 62
     6
100
AcDbLine
 10
-63.30168356278427
 20
4.25533013477198
 30
0.0
 11
-49.80168356278417
 21
4.25533013477198
 31
0.0
  0
LINE
  5
1FB
330
70
100
AcDbEntity
  8
1
  6
Continuous
 62
     2
100
AcDbLine
 10
-63.30168356278427
 20
12.75533013477198
 30
0.0
 11
-63.30168356278427
 21
8.50533013477209
 31
0.0
  0
LINE
  5
1FC
330
70
100
AcDbEntity
  8
1
  6
Continuous
 62
     2
100
AcDbLine
 10
-63.30168356278427
 20
12.75533013477198
 30
0.0
 11
-76.80168356278415
 21
12.75533013477198
 31
0.0
  0
LINE
  5
1FD
330
70
100
AcDbEntity
  8
1
  6
Continuous
 62
     2
100
AcDbLine
 10
-63.30168356278427
 20
8.50533013477209
 30
0.0
 11
-63.30168356278427
 21
4.25533013477198
 31
0.0
  0
LINE
  5
1FE
330
70
100
AcDbEntity
  8
1
  6
Continuous
 62
     7
100
AcDbLine
 10
-63.30168356278427
 20
8.50533013477209
 30
0.0
 11
-49.80168356278417
 21
8.50533013477209
 31
0.0
  0
LINE
  5
1FF
330
70
100
AcDbEntity
  8
1
  6
Continuous
 62
     2
100
AcDbLine
 10
-63.30168356278427
 20
21.25533013477198
 30
0.0
 11
-63.30168356278427
 21
17.00533013477198
 31
0.0
  0
LINE
  5
200
330
70
100
AcDbEntity
  8
1
  6
Continuous
 62
     2
100
AcDbLine
 10
-63.30168356278427
 20
21.25533013477198
 30
0.0
 11
-76.80168356278415
 21
21.25533013477198
 31
0.0
  0
LINE
  5
201
330
70
100
AcDbEntity
  8
1
  6
Continuous
 62
     2
100
AcDbLine
 10
-63.30168356278427
 20
25.50533013477198
 30
0.0
 11
-63.30168356278427
 21
21.25533013477198
 31
0.0
  0
LINE
  5
202
330
70
100
AcDbEntity
  8
1
  6
Continuous
 62
     2
100
AcDbLine
 10
-63.30168356278427
 20
25.50533013477198
 30
0.0
 11
-76.80168356278415
 21
25.50533013477198
 31
0.0
  0
LINE
  5
203
330
70
100
AcDbEntity
  8
1
  6
Continuous
 62
     2
100
AcDbLine
 10
-63.30168356278427
 20
29.75533013477198
 30
0.0
 11
-63.30168356278427
 21
25.50533013477198
 31
0.0
  0
LINE
  5
204
330
70
100
AcDbEntity
  8
1
  6
Continuous
 62
     2
100
AcDbLine
 10
-63.30168356278427
 20
29.75533013477198
 30
0.0
 11
-76.80168356278415
 21
29.75533013477198
 31
0.0
  0
LINE
  5
205
330
70
100
AcDbEntity
  8
1
  6
Continuous
 62
     2
100
AcDbLine
 10
-63.30168356278427
 20
17.00533013477198
 30
0.0
 11
-63.30168356278427
 21
12.75533013477198
 31
0.0
  0
LINE
  5
206
330
70
100
AcDbEntity
  8
1
  6
Continuous
 62
     2
100
AcDbLine
 10
-63.30168356278427
 20
17.00533013477198
 30
0.0
 11
-76.80168356278415
 21
17.00533013477198
 31
0.0
  0
LINE
  5
207
330
70
100
AcDbEntity
  8
1
  6
Continuous
 62
     6
100
AcDbLine
 10
-76.80168356278415
 20
4.25533013477198
 30
0.0
 11
-63.75687903603427
 21
4.25533013477209
 31
0.0
  0
LINE
  5
208
330
70
100
AcDbEntity
  8
1
  6
Continuous
 62
     2
100
AcDbLine
 10
-76.80168356278415
 20
12.75533013477198
 30
0.0
 11
-76.80168356278415
 21
8.50533013477209
 31
0.0
  0
LINE
  5
209
330
70
100
AcDbEntity
  8
1
  6
Continuous
 62
     2
100
AcDbLine
 10
-76.80168356278415
 20
12.75533013477198
 30
0.0
 11
-90.30168356278415
 21
12.75533013477198
 31
0.0
  0
LINE
  5
20A
330
70
100
AcDbEntity
  8
1
  6
Continuous
 62
     2
100
AcDbLine
 10
-76.80168356278415
 20
8.50533013477209
 30
0.0
 11
-76.80168356278415
 21
4.25533013477198
 31
0.0
  0
LINE
  5
20B
330
70
100
AcDbEntity
  8
1
  6
Continuous
 62
     7
100
AcDbLine
 10
-76.80168356278415
 20
8.50533013477209
 30
0.0
 11
-63.30168356278427
 21
8.50533013477209
 31
0.0
  0
LINE
  5
20C
330
70
100
AcDbEntity
  8
1
  6
Continuous
 62
     2
100
AcDbLine
 10
-76.80168356278415
 20
21.25533013477198
 30
0.0
 11
-76.80168356278415
 21
17.00533013477198
 31
0.0
  0
LINE
  5
20D
330
70
100
AcDbEntity
  8
1
  6
Continuous
 62
     2
100
AcDbLine
 10
-76.80168356278415
 20
21.25533013477198
 30
0.0
 11
-90.30168356278415
 21
21.25533013477198
 31
0.0
  0
LINE
  5
20E
330
70
100
AcDbEntity
  8
1
  6
Continuous
 62
     2
100
AcDbLine
 10
-76.80168356278415
 20
25.50533013477198
 30
0.0
 11
-76.80168356278415
 21
21.25533013477198
 31
0.0
  0
LINE
  5
20F
330
70
100
AcDbEntity
  8
1
  6
Continuous
 62
     2
100
AcDbLine
 10
-76.80168356278415
 20
25.50533013477198
 30
0.0
 11
-90.30168356278415
 21
25.50533013477198
 31
0.0
  0
LINE
  5
210
330
70
100
AcDbEntity
  8
1
  6
Continuous
 62
     2
100
AcDbLine
 10
-76.80168356278415
 20
29.75533013477198
 30
0.0
 11
-76.80168356278415
 21
25.50533013477198
 31
0.0
  0
LINE
  5
211
330
70
100
AcDbEntity
  8
1
  6
Continuous
 62
     2
100
AcDbLine
 10
-76.80168356278415
 20
29.75533013477198
 30
0.0
 11
-90.30168356278415
 21
29.75533013477198
 31
0.0
  0
LINE
  5
212
330
70
100
AcDbEntity
  8
1
  6
Continuous
 62
     2
100
AcDbLine
 10
-76.80168356278415
 20
17.00533013477198
 30
0.0
 11
-76.80168356278415
 21
12.75533013477198
 31
0.0
  0
LINE
  5
213
330
70
100
AcDbEntity
  8
1
  6
Continuous
 62
     2
100
AcDbLine
 10
-76.80168356278415
 20
17.00533013477198
 30
0.0
 11
-90.30168356278415
 21
17.00533013477198
 31
0.0
  0
LINE
  5
214
330
70
100
AcDbEntity
  8
1
  6
Continuous
 62
     6
100
AcDbLine
 10
-90.30168356278415
 20
4.25533013477198
 30
0.0
 11
-76.80168356278415
 21
4.25533013477198
 31
0.0
  0
LINE
  5
215
330
70
100
AcDbEntity
  8
1
  6
Continuous
 62
     2
100
AcDbLine
 10
-90.30168356278415
 20
12.75533013477198
 30
0.0
 11
-90.30168356278415
 21
8.50533013477209
 31
0.0
  0
LINE
  5
216
330
70
100
AcDbEntity
  8
1
  6
Continuous
 62
     2
100
AcDbLine
 10
-90.30168356278415
 20
12.75533013477198
 30
0.0
 11
-152.5568790360344
 21
12.75533013477198
 31
0.0
  0
LINE
  5
217
330
70
100
AcDbEntity
  8
1
  6
Continuous
 62
     2
100
AcDbLine
 10
-90.30168356278415
 20
8.50533013477209
 30
0.0
 11
-90.30168356278415
 21
4.25533013477198
 31
0.0
  0
LINE
  5
218
330
70
100
AcDbEntity
  8
1
  6
Continuous
 62
     7
100
AcDbLine
 10
-90.30168356278415
 20
8.50533013477209
 30
0.0
 11
-76.80168356278415
 21
8.50533013477209
 31
0.0
  0
LINE
  5
219
330
70
100
AcDbEntity
  8
1
  6
Continuous
 62
     2
100
AcDbLine
 10
-90.30168356278415
 20
21.25533013477198
 30
0.0
 11
-90.30168356278415
 21
17.00533013477198
 31
0.0
  0
LINE
  5
21A
330
70
100
AcDbEntity
  8
1
  6
Continuous
 62
     2
100
AcDbLine
 10
-90.30168356278415
 20
21.25533013477198
 30
0.0
 11
-152.5568790360344
 21
21.25533013477198
 31
0.0
  0
LINE
  5
21B
330
70
100
AcDbEntity
  8
1
  6
Continuous
 62
     2
100
AcDbLine
 10
-90.30168356278415
 20
25.50533013477198
 30
0.0
 11
-90.30168356278415
 21
21.25533013477198
 31
0.0
  0
LINE
  5
21C
330
70
100
AcDbEntity
  8
1
  6
Continuous
 62
     2
100
AcDbLine
 10
-90.30168356278415
 20
29.75533013477198
 30
0.0
 11
-90.30168356278415
 21
25.50533013477198
 31
0.0
  0
LINE
  5
21D
330
70
100
AcDbEntity
  8
1
  6
Continuous
 62
     2
100
AcDbLine
 10
-90.30168356278415
 20
17.00533013477198
 30
0.0
 11
-90.30168356278415
 21
12.75533013477198
 31
0.0
  0
LINE
  5
21E
330
70
100
AcDbEntity
  8
1
  6
Continuous
 62
     2
100
AcDbLine
 10
-90.30168356278415
 20
17.00533013477198
 30
0.0
 11
-152.5568790360344
 21
17.00533013477198
 31
0.0
  0
LINE
  5
21F
330
70
100
AcDbEntity
  8
1
  6
Continuous
 62
     7
100
AcDbLine
 10
-40.40168356278419
 20
21.25533013477209
 30
0.0
 11
-49.80168356278417
 21
21.25533013477198
 31
0.0
  0
LINE
  5
220
330
70
100
AcDbEntity
  8
1
  6
Continuous
 62
     6
100
AcDbLine
 10
-40.40168356278419
 20
34.00533013477198
 30
0.0
 11
-49.80168356278417
 21
34.00533013477198
 31
0.0
  0
LINE
  5
221
330
70
100
AcDbEntity
  8
1
  6
Continuous
 62
     7
100
AcDbLine
 10
-49.80168356278417
 20
29.75533013477198
 30
0.0
 11
-40.40168356278419
 21
29.75533013477198
 31
0.0
  0
LINE
  5
222
330
70
100
AcDbEntity
  8
1
  6
Continuous
 62
     6
100
AcDbLine
 10
-172.2568790360324
 20
17.00533013477198
 30
0.0
 11
-172.2568790360324
 21
21.25533013477198
 31
0.0
  0
LINE
  5
223
330
70
100
AcDbEntity
  8
1
  6
Continuous
 62
     6
100
AcDbLine
 10
79.74312096396744
 20
34.00533013477198
 30
0.0
 11
79.74312096396653
 21
25.50533013477198
 31
0.0
  0
LINE
  5
224
330
70
100
AcDbEntity
  8
1
  6
Continuous
 62
     6
100
AcDbLine
 10
-172.2568790360324
 20
4.25533013477209
 30
0.0
 11
-207.2568790360323
 21
4.25533013477209
 31
0.0
  0
LINE
  5
225
330
70
100
AcDbEntity
  8
1
  6
Continuous
 62
     2
100
AcDbLine
 10
-41.52141442826891
 20
20.63033013477198
 30
0.0
 11
-37.52141442826891
 21
20.13033013477198
 31
0.0
  0
LINE
  5
226
330
70
100
AcDbEntity
  8
1
  6
Continuous
 62
     2
100
AcDbLine
 10
-37.52141442826891
 20
20.13033013477198
 30
0.0
 11
-37.52141442826891
 21
18.13033013477198
 31
0.0
  0
LINE
  5
227
330
70
100
AcDbEntity
  8
1
  6
Continuous
 62
     2
100
AcDbLine
 10
-37.52141442826891
 20
18.13033013477198
 30
0.0
 11
-41.52141442826891
 21
17.63033013477198
 31
0.0
  0
LINE
  5
228
330
70
100
AcDbEntity
  8
1
  6
Continuous
 62
     2
100
AcDbLine
 10
-41.52141442826891
 20
17.63033013477198
 30
0.0
 11
-41.52141442826891
 21
20.63033013477198
 31
0.0
  0
LINE
  5
229
330
70
100
AcDbEntity
  8
1
  6
Continuous
 62
     7
100
AcDbLine
 10
16.24312096396812
 20
25.50533013477196
 30
0.0
 11
9.49831643721575
 21
25.50533013477192
 31
0.0
  0
LINE
  5
22A
330
70
100
AcDbEntity
  8
1
  6
Continuous
 62
     7
100
AcDbLine
 10
16.24312096396812
 20
21.25533013477198
 30
0.0
 11
18.24312096396812
 21
21.25533013477198
 31
0.0
  0
LINE
  5
22B
330
70
100
AcDbEntity
  8
1
  6
Continuous
 62
     2
100
AcDbLine
 10
51.17785764875473
 20
19.70511085573922
 30
0.0
 11
51.17785764875473
 21
17.64771489088572
 31
0.0
  0
ARC
  5
22C
102
{ACAD_REACTORS
330
2D5
330
2D5
330
2D6
330
2D6
102
}
330
70
100
AcDbEntity
  8
0
  6
Continuous
 62
     2
100
AcDbCircle
 10
-33.92263562975938
 20
11.36723489668313
 30
0.0
 40
0.6378510567600055
100
AcDbArc
 50
321.8795802028406
 51
38.12041979715874
  0
ARC
  5
22D
102
{ACAD_REACTORS
330
2D5
330
2D5
330
2D6
330
2D6
102
}
330
70
100
AcDbEntity
  8
0
  6
Continuous
 62
     2
100
AcDbCircle
 10
-33.75756121955578
 20
11.23770499741045
 30
0.0
 40
0.4280236140609524
100
AcDbArc
 50
218.1204197971935
 51
321.8795802027988
  0
ARC
  5
22E
102
{ACAD_REACTORS
330
2D5
330
2D5
330
2D6
330
2D6
102
}
330
70
100
AcDbEntity
  8
0
  6
Continuous
 62
     2
100
AcDbCircle
 10
-33.5924868093524
 20
11.36723489668313
 30
0.0
 40
0.637851056759905
100
AcDbArc
 50
141.8795802028345
 51
218.1204197971661
  0
ARC
  5
22F
102
{ACAD_REACTORS
330
2D5
330
2D5
330
2D6
330
2D6
102
}
330
70
100
AcDbEntity
  8
0
  6
Continuous
 62
     2
100
AcDbCircle
 10
-33.75756121955578
 20
11.49676479595625
 30
0.0
 40
0.4280236140606022
100
AcDbArc
 50
38.12041979715384
 51
141.8795802028538
  0
ARC
  5
230
102
{ACAD_REACTORS
330
2CD
330
2CD
330
2CE
330
2CE
102
}
330
70
100
AcDbEntity
  8
0
  6
Continuous
 62
     2
100
AcDbCircle
 10
-36.28815141423672
 20
10.20156021452763
 30
0.0
 40
1.840813230556621
100
AcDbArc
 50
58.06909105003743
 51
71.55192388186671
  0
ARC
  5
231
102
{ACAD_REACTORS
330
2CD
330
2CD
330
2CE
330
2CE
102
}
330
70
100
AcDbEntity
  8
0
  6
Continuous
 62
     2
100
AcDbCircle
 10
-36.07184752914679
 20
11.53671541679804
 30
0.0
 40
0.4227934381775721
100
AcDbArc
 50
113.3722778881992
 51
151.4785267423096
  0
ARC
  5
232
102
{ACAD_REACTORS
330
2CD
330
2CD
330
2CE
330
2CE
102
}
330
70
100
AcDbEntity
  8
0
  6
Continuous
 62
     2
100
AcDbCircle
 10
-35.75998202660104
 20
11.36723489668313
 30
0.0
 40
0.7777353184572864
100
AcDbArc
 50
151.4785267422689
 51
208.5214732577025
  0
ARC
  5
233
102
{ACAD_REACTORS
330
2CD
330
2CD
330
2CE
330
2CE
102
}
330
70
100
AcDbEntity
  8
0
  6
Continuous
 62
     2
100
AcDbCircle
 10
-36.41862486472666
 20
14.10498774400248
 30
0.0
 40
4.010410630990215
100
AcDbArc
 50
275.1581447696245
 51
285.9799912583532
  0
ARC
  5
234
102
{ACAD_REACTORS
330
2CD
330
2CD
330
2CE
330
2CE
102
}
330
70
100
AcDbEntity
  8
0
  6
Continuous
 62
     2
100
AcDbCircle
 10
-36.17990081949039
 20
11.46045007191852
 30
0.0
 40
1.355119937140016
100
AcDbArc
 50
195.0618917770911
 51
275.1581447696391
  0
ARC
  5
235
102
{ACAD_REACTORS
330
2CD
330
2CD
330
2CE
330
2CE
102
}
330
70
100
AcDbEntity
  8
0
  6
Continuous
 62
     2
100
AcDbCircle
 10
-36.5262874669803
 20
11.36723489668313
 30
0.0
 40
0.9964100565214554
100
AcDbArc
 50
164.9381082228798
 51
195.0618917770963
  0
ARC
  5
236
102
{ACAD_REACTORS
330
2CD
330
2CD
330
2CE
330
2CE
102
}
330
70
100
AcDbEntity
  8
0
  6
Continuous
 62
     2
100
AcDbCircle
 10
-36.17990081949039
 20
11.27401972144772
 30
0.0
 40
1.355119937140908
100
AcDbArc
 50
84.84185523036265
 51
164.9381082228906
  0
ARC
  5
237
102
{ACAD_REACTORS
330
2D1
330
2D1
330
2D2
330
2D2
102
}
330
70
100
AcDbEntity
  8
0
  6
Continuous
 62
     2
100
AcDbCircle
 10
-40.17164813697956
 20
12.22163720606686
 30
0.0
 40
0.2609230769227309
100
AcDbArc
 50
115.3740086783591
 51
180.0
  0
ARC
  5
238
102
{ACAD_REACTORS
330
2D1
330
2D1
330
2D2
330
2D2
102
}
330
70
100
AcDbEntity
  8
0
  6
Continuous
 62
     2
100
AcDbCircle
 10
-40.17164813697956
 20
14.05492910684057
 30
0.0
 40
0.2609230769229498
100
AcDbArc
 50
180.0
 51
244.6259913216401
  0
ARC
  5
239
102
{ACAD_REACTORS
330
2D1
330
2D1
330
2D2
330
2D2
102
}
330
70
100
AcDbEntity
  8
0
  6
Continuous
 62
     2
100
AcDbCircle
 10
-40.1670067028391
 20
13.14806988447506
 30
0.0
 40
1.668232340440702
100
AcDbArc
 50
269.8110329575865
 51
90.18896704241352
  0
ARC
  5
23A
102
{ACAD_REACTORS
330
2D1
330
2D1
330
2D2
330
2D2
102
}
330
70
100
AcDbEntity
  8
0
  6
Continuous
 62
     2
100
AcDbCircle
 10
-40.17164813697956
 20
11.74076827491389
 30
0.0
 40
0.2609230769229498
100
AcDbArc
 50
180.0
 51
269.8110329574465
  0
ARC
  5
23B
102
{ACAD_REACTORS
330
2CF
330
2CF
330
2D0
330
2D0
102
}
330
70
100
AcDbEntity
  8
0
  6
Continuous
 62
     2
100
AcDbCircle
 10
-22.7638297776981
 20
11.53671541679804
 30
0.0
 40
0.4227934381772274
100
AcDbArc
 50
109.3371432194864
 51
151.4785267424222
  0
ARC
  5
23C
102
{ACAD_REACTORS
330
2CF
330
2CF
330
2D0
330
2D0
102
}
330
70
100
AcDbEntity
  8
0
  6
Continuous
 62
     2
100
AcDbCircle
 10
-22.7638297776981
 20
11.19775437656867
 30
0.0
 40
0.4227934381785459
100
AcDbArc
 50
208.5214732576873
 51
246.6277221118391
  0
ARC
  5
23D
102
{ACAD_REACTORS
330
2CF
330
2CF
330
2D0
330
2D0
102
}
330
70
100
AcDbEntity
  8
0
  6
Continuous
 62
     2
100
AcDbCircle
 10
-23.2182697155307
 20
11.36723489668313
 30
0.0
 40
0.996410056523109
100
AcDbArc
 50
164.9381082229054
 51
195.0618917770957
  0
ARC
  5
23E
102
{ACAD_REACTORS
330
2CF
330
2CF
330
2D0
330
2D0
102
}
330
70
100
AcDbEntity
  8
0
  6
Continuous
 62
     2
100
AcDbCircle
 10
-22.87188306804171
 20
11.27401972144772
 30
0.0
 40
1.355119937140589
100
AcDbArc
 50
90.0
 51
164.9381082228993
  0
ARC
  5
23F
102
{ACAD_REACTORS
330
2D3
330
2D3
330
2D4
330
2D4
102
}
330
70
100
AcDbEntity
  8
0
  6
Continuous
 62
     2
100
AcDbCircle
 10
-30.66278810333403
 20
14.14342537286028
 30
0.0
 40
1.26190476190564
100
AcDbArc
 50
90.0
 51
270.0
  0
ARC
  5
240
102
{ACAD_REACTORS
330
2D7
330
2D7
330
2D8
330
2D8
102
}
330
70
100
AcDbEntity
  8
0
  6
Continuous
 62
     2
100
AcDbCircle
 10
-36.23525979360328
 20
14.56568577930214
 30
0.0
 40
0.2916229955959899
100
AcDbArc
 50
270.0
 51
90.0
  0
ARC
  5
241
102
{ACAD_REACTORS
330
2D1
330
2D1
330
2D2
330
2D2
102
}
330
70
100
AcDbEntity
  8
0
  6
Continuous
 62
     2
100
AcDbCircle
 10
-42.30020077047686
 20
14.55551816895209
 30
0.0
 40
0.2609230769224489
100
AcDbArc
 50
90.0
 51
180.0
  0
ARC
  5
242
102
{ACAD_REACTORS
330
2D1
330
2D1
330
2D2
330
2D2
102
}
330
70
100
AcDbEntity
  8
0
  6
Continuous
 62
     2
100
AcDbCircle
 10
-40.64861588734913
 20
13.13828315645395
 30
0.0
 40
0.7536343169897672
100
AcDbArc
 50
115.1944106485235
 51
244.8055893514914
  0
ARC
  5
243
102
{ACAD_REACTORS
330
2D1
330
2D1
330
2D2
330
2D2
102
}
330
70
100
AcDbEntity
  8
0
  6
Continuous
 62
     2
100
AcDbCircle
 10
-41.08050386055162
 20
12.22024204400541
 30
0.0
 40
0.2609230769228361
100
AcDbArc
 50
0.0
 51
64.8055893514401
  0
ARC
  5
244
102
{ACAD_REACTORS
330
2D1
330
2D1
330
2D2
330
2D2
102
}
330
70
100
AcDbEntity
  8
0
  6
Continuous
 62
     2
100
AcDbCircle
 10
-42.79102281737482
 20
10.45594551939222
 30
0.0
 40
0.3506153846138957
100
AcDbArc
 50
180.0
 51
270.0
  0
ARC
  5
245
102
{ACAD_REACTORS
330
2D3
330
2D3
330
2D4
330
2D4
102
}
330
70
100
AcDbEntity
  8
0
  6
Continuous
 62
     2
100
AcDbCircle
 10
-30.48405090485039
 20
14.2729552721334
 30
0.0
 40
0.4280236140606861
100
AcDbArc
 50
38.12041979714503
 51
141.8795802028553
  0
ARC
  5
246
102
{ACAD_REACTORS
330
2D3
330
2D3
330
2D4
330
2D4
102
}
330
70
100
AcDbEntity
  8
0
  6
Continuous
 62
     2
100
AcDbCircle
 10
-30.3189764946469
 20
14.14342537286028
 30
0.0
 40
0.6378510567600029
100
AcDbArc
 50
141.8795802028415
 51
218.1204197971586
  0
ARC
  5
247
102
{ACAD_REACTORS
330
2D5
330
2D5
330
2D6
330
2D6
102
}
330
70
100
AcDbEntity
  8
0
  6
Continuous
 62
     2
100
AcDbCircle
 10
-33.75756121955578
 20
11.8123382109834
 30
0.0
 40
1.707008076205435
100
AcDbArc
 50
242.4518518243405
 51
297.5481481756872
  0
ARC
  5
248
102
{ACAD_REACTORS
330
2D5
330
2D5
330
2D6
330
2D6
102
}
330
70
100
AcDbEntity
  8
0
  6
Continuous
 62
     2
100
AcDbCircle
 10
-33.75756121955578
 20
10.92213158238331
 30
0.0
 40
1.707008076205448
100
AcDbArc
 50
62.45185182430549
 51
117.5481481756668
  0
ARC
  5
249
102
{ACAD_REACTORS
330
2D5
330
2D5
330
2D6
330
2D6
102
}
330
70
100
AcDbEntity
  8
0
  6
Continuous
 62
     2
100
AcDbCircle
 10
-33.98974294834363
 20
11.36723489668313
 30
0.0
 40
1.204986845992988
100
AcDbArc
 50
117.5481481756628
 51
242.4518518243375
  0
ARC
  5
24A
102
{ACAD_REACTORS
330
2D5
330
2D5
330
2D6
330
2D6
102
}
330
70
100
AcDbEntity
  8
0
  6
Continuous
 62
     2
100
AcDbCircle
 10
-33.52537949076793
 20
11.36723489668313
 30
0.0
 40
1.204986845993436
100
AcDbArc
 50
297.5481481757017
 51
62.4518518242979
  0
ARC
  5
24B
102
{ACAD_REACTORS
330
2D3
330
2D3
330
2D4
330
2D4
102
}
330
70
100
AcDbEntity
  8
0
  6
Continuous
 62
     2
100
AcDbCircle
 10
-30.48405090485039
 20
14.01389547358715
 30
0.0
 40
0.4280236140606823
100
AcDbArc
 50
218.1204197971436
 51
321.8795802028561
  0
ARC
  5
24C
102
{ACAD_REACTORS
330
2D3
330
2D3
330
2D4
330
2D4
102
}
330
70
100
AcDbEntity
  8
0
  6
Continuous
 62
     2
100
AcDbCircle
 10
-30.64912531505387
 20
14.14342537286028
 30
0.0
 40
0.6378510567599944
100
AcDbArc
 50
321.8795802028409
 51
38.12041979715914
  0
ARC
  5
24D
102
{ACAD_REACTORS
330
2D1
330
2D1
330
2D2
330
2D2
102
}
330
70
100
AcDbEntity
  8
0
  6
Continuous
 62
     2
100
AcDbCircle
 10
-38.26762439529477
 20
10.45594551939222
 30
0.0
 40
0.3506153846142794
100
AcDbArc
 50
270.0
 51
0.0
  0
ARC
  5
24E
102
{ACAD_REACTORS
330
2D1
330
2D1
330
2D2
330
2D2
102
}
330
70
100
AcDbEntity
  8
0
  6
Continuous
 62
     2
100
AcDbCircle
 10
-38.26762439529477
 20
15.05471475013619
 30
0.0
 40
0.3506153846147981
100
AcDbArc
 50
0.0
 51
90.0
  0
ARC
  5
24F
102
{ACAD_REACTORS
330
2D1
330
2D1
330
2D2
330
2D2
102
}
330
70
100
AcDbEntity
  8
0
  6
Continuous
 62
     2
100
AcDbCircle
 10
-42.79102281737482
 20
15.05471475013619
 30
0.0
 40
0.3506153846147395
100
AcDbArc
 50
90.0
 51
180.0
  0
ARC
  5
250
102
{ACAD_REACTORS
330
2D1
330
2D1
330
2D2
330
2D2
102
}
330
70
100
AcDbEntity
  8
0
  6
Continuous
 62
     2
100
AcDbCircle
 10
-41.08050386055162
 20
10.95514210059085
 30
0.0
 40
0.2609230769228894
100
AcDbArc
 50
270.0
 51
0.0
  0
ARC
  5
251
102
{ACAD_REACTORS
330
2D1
330
2D1
330
2D2
330
2D2
102
}
330
70
100
AcDbEntity
  8
0
  6
Continuous
 62
     2
100
AcDbCircle
 10
-41.08050386055162
 20
14.05632426890203
 30
0.0
 40
0.2609230769224081
100
AcDbArc
 50
295.1944106485599
 51
0.0
  0
ARC
  5
252
102
{ACAD_REACTORS
330
2D1
330
2D1
330
2D2
330
2D2
102
}
330
70
100
AcDbEntity
  8
0
  6
Continuous
 62
     2
100
AcDbCircle
 10
-41.08050386055162
 20
14.55551816895209
 30
0.0
 40
0.2609230769228361
100
AcDbArc
 50
0.0
 51
90.0
  0
ARC
  5
253
102
{ACAD_REACTORS
330
2D1
330
2D1
330
2D2
330
2D2
102
}
330
70
100
AcDbEntity
  8
0
  6
Continuous
 62
     2
100
AcDbCircle
 10
-42.30020077047686
 20
10.95514210059085
 30
0.0
 40
0.2609230769220403
100
AcDbArc
 50
180.0
 51
270.0
  0
ARC
  5
254
102
{ACAD_REACTORS
330
2D7
330
2D7
330
2D8
330
2D8
102
}
330
70
100
AcDbEntity
  8
0
  6
Continuous
 62
     2
100
AcDbCircle
 10
-35.87040646613354
 20
14.53312712539923
 30
0.0
 40
0.87220300936667
100
AcDbArc
 50
270.0
 51
90.0
  0
ARC
  5
255
102
{ACAD_REACTORS
330
2CF
330
2CF
330
2D0
330
2D0
102
}
330
70
100
AcDbEntity
  8
0
  6
Continuous
 62
     2
100
AcDbCircle
 10
-22.87188306804171
 20
11.46045007191852
 30
0.0
 40
1.355119937140898
100
AcDbArc
 50
195.0618917771008
 51
275.1581447696759
  0
ARC
  5
256
102
{ACAD_REACTORS
330
2CF
330
2CF
330
2D0
330
2D0
102
}
330
70
100
AcDbEntity
  8
0
  6
Continuous
 62
     2
100
AcDbCircle
 10
-23.11060711327797
 20
14.10498774400248
 30
0.0
 40
4.010410630990743
100
AcDbArc
 50
275.1581447696368
 51
285.9799912583388
  0
ARC
  5
257
102
{ACAD_REACTORS
330
2CF
330
2CF
330
2D0
330
2D0
102
}
330
70
100
AcDbEntity
  8
0
  6
Continuous
 62
     2
100
AcDbCircle
 10
-22.98013366278803
 20
12.53290957883861
 30
0.0
 40
1.840813230556001
100
AcDbArc
 50
288.4480761181333
 51
301.9309089499383
  0
ARC
  5
258
102
{ACAD_REACTORS
330
2CF
330
2CF
330
2D0
330
2D0
102
}
330
70
100
AcDbEntity
  8
0
  6
Continuous
 62
     2
100
AcDbCircle
 10
-22.63454049447238
 20
11.49692133418025
 30
0.0
 40
0.7487023016407024
100
AcDbArc
 50
246.6277221118142
 51
288.4480761180797
  0
ARC
  5
259
102
{ACAD_REACTORS
330
2CF
330
2CF
330
2D0
330
2D0
102
}
330
70
100
AcDbEntity
  8
0
  6
Continuous
 62
     2
100
AcDbCircle
 10
-22.45196427515145
 20
11.36723489668313
 30
0.0
 40
0.7777353184586598
100
AcDbArc
 50
151.4785267423617
 51
208.5214732576687
  0
ARC
  5
25A
102
{ACAD_REACTORS
330
2CF
330
2CF
330
2D0
330
2D0
102
}
330
70
100
AcDbEntity
  8
0
  6
Continuous
 62
     2
100
AcDbCircle
 10
-22.64261490323224
 20
11.19129807763861
 30
0.0
 40
0.7888619891124407
100
AcDbArc
 50
90.0
 51
109.3371432194314
  0
ARC
  5
25B
102
{ACAD_REACTORS
330
2D1
330
2D1
330
2D2
330
2D2
102
}
330
70
100
AcDbEntity
  8
0
  6
Continuous
 62
     2
100
AcDbCircle
 10
-40.17164813697956
 20
14.55537149403624
 30
0.0
 40
0.2609230769224198
100
AcDbArc
 50
90.18896704255353
 51
180.0
  0
ARC
  5
25C
102
{ACAD_REACTORS
330
2D1
330
2D1
330
2D2
330
2D2
102
}
330
70
100
AcDbEntity
  8
0
  6
Continuous
 62
     2
100
AcDbCircle
 10
-40.60639416845719
 20
13.13828315645395
 30
0.0
 40
0.7535935125161003
100
AcDbArc
 50
295.3740086781779
 51
64.62599132180708
  0
ARC
  5
25D
102
{ACAD_REACTORS
330
2CD
330
2CD
330
2CE
330
2CE
102
}
330
70
100
AcDbEntity
  8
0
  6
Continuous
 62
     2
100
AcDbCircle
 10
-36.28815141423672
 20
12.53290957883907
 30
0.0
 40
1.840813230556013
100
AcDbArc
 50
288.4480761181334
 51
301.9309089499626
  0
ARC
  5
25E
102
{ACAD_REACTORS
330
2CD
330
2CD
330
2CE
330
2CE
102
}
330
70
100
AcDbEntity
  8
0
  6
Continuous
 62
     2
100
AcDbCircle
 10
-35.94255824592198
 20
11.49692133418025
 30
0.0
 40
0.7487023016403853
100
AcDbArc
 50
246.6277221118704
 51
288.4480761181571
  0
ARC
  5
25F
102
{ACAD_REACTORS
330
2CD
330
2CD
330
2CE
330
2CE
102
}
330
70
100
AcDbEntity
  8
0
  6
Continuous
 62
     2
100
AcDbCircle
 10
-36.07184752914679
 20
11.19775437656867
 30
0.0
 40
0.4227934381775271
100
AcDbArc
 50
208.5214732576914
 51
246.627722111825
  0
ARC
  5
260
102
{ACAD_REACTORS
330
2CD
330
2CD
330
2CE
330
2CE
102
}
330
70
100
AcDbEntity
  8
0
  6
Continuous
 62
     2
100
AcDbCircle
 10
-35.94255824592198
 20
11.23754845918599
 30
0.0
 40
0.7487023016407717
100
AcDbArc
 50
71.55192388185432
 51
113.372277888129
  0
ARC
  5
261
102
{ACAD_REACTORS
330
2CD
330
2CD
330
2CE
330
2CE
102
}
330
70
100
AcDbEntity
  8
0
  6
Continuous
 62
     2
100
AcDbCircle
 10
-36.41862486472666
 20
8.62948204936423
 30
0.0
 40
4.010410630990089
100
AcDbArc
 50
74.02000874164679
 51
84.84185523037544
  0
CIRCLE
  5
262
102
{ACAD_REACTORS
330
2D1
330
2D1
330
2D2
330
2D2
102
}
330
70
100
AcDbEntity
  8
0
  6
Continuous
 62
     2
100
AcDbCircle
 10
-40.62607599876525
 20
13.13828315645395
 30
0.0
 40
0.3892387874202541
  0
CIRCLE
  5
263
330
70
100
AcDbEntity
  8
1
  6
Continuous
 62
     2
100
AcDbCircle
 10
-44.7094237376809
 20
19.13033013477198
 30
0.0
 40
1.0
  0
CIRCLE
  5
264
330
70
100
AcDbEntity
  8
1
  6
Continuous
 62
     2
100
AcDbCircle
 10
-44.7094237376809
 20
19.13033013477198
 30
0.0
 40
1.5
  0
MTEXT
  5
266
330
70
100
AcDbEntity
  8
1
 62
     2
100
AcDbMText
 10
-12.30168356278426
 20
23.58033013477197
 30
0.0
 40
1.4
 41
0.0
 71
     4
 72
     1
  1
SAP\Pchange-No.
  7
CONVERTER_12
 73
     1
 44
0.66026410564226
  0
MTEXT
  5
267
330
70
100
AcDbEntity
  8
1
 62
     3
100
AcDbMText
 10
-3.06944674466937
 20
23.38033013477197
 30
0.0
 40
2.5
 41
0.0
 71
     4
 72
     1
  1
N01-07046/73
  7
CONVERTER_12
 73
     1
 44
1.20048019207683
  0
TEXT
  5
269
330
70
100
AcDbEntity
  8
1
 62
     3
100
AcDbText
 10
-12.30168356278434
 20
36.30010170837623
 30
0.0
 40
2.5
  1
 
 41
0.72
  7
CONVERTER_13
100
AcDbText
  0
TEXT
  5
26A
330
70
100
AcDbEntity
  8
1
 62
     3
100
AcDbText
 10
-12.30168356278434
 20
39.80010170837623
 30
0.0
 40
2.5
  1
 
 41
0.72
  7
CONVERTER_13
100
AcDbText
  0
TEXT
  5
26B
330
70
100
AcDbEntity
  8
1
 62
     3
100
AcDbText
 10
-12.30168356278434
 20
43.30010170837623
 30
0.0
 40
2.5
  1
 
 41
0.72
  7
CONVERTER_13
100
AcDbText
  0
MTEXT
  5
26D
330
70
100
AcDbEntity
  8
1
 62
     2
100
AcDbMText
 10
-151.5568790360344
 20
10.63033013477209
 30
0.0
 40
2.0
 41
0.0
 71
     4
 72
     1
  1
 
  7
CONVERTER_14
 73
     1
 44
1.20048019207683
  0
MTEXT
  5
26E
330
70
100
AcDbEntity
  8
1
 62
     2
100
AcDbMText
 10
-151.5568790360344
 20
14.88033013477198
 30
0.0
 40
2.0
 41
0.0
 71
     4
 72
     1
  1
 
  7
CONVERTER_14
 73
     1
 44
1.20048019207683
  0
MTEXT
  5
26F
330
70
100
AcDbEntity
  8
1
 62
     2
100
AcDbMText
 10
-151.5568790360344
 20
19.13033013477198
 30
0.0
 40
2.0
 41
0.0
 71
     4
 72
     1
  1
 
  7
CONVERTER_14
 73
     1
 44
1.20048019207683
  0
MTEXT
  5
270
330
70
100
AcDbEntity
  8
1
 62
     2
100
AcDbMText
 10
-151.5568790360344
 20
23.38033013477198
 30
0.0
 40
2.0
 41
0.0
 71
     4
 72
     1
  1
 
  7
CONVERTER_14
 73
     1
 44
1.20048019207683
  0
MTEXT
  5
271
330
70
100
AcDbEntity
  8
1
 62
     2
100
AcDbMText
 10
-151.5568790360344
 20
27.63033013477198
 30
0.0
 40
2.0
 41
0.0
 71
     4
 72
     1
  1
 
  7
CONVERTER_14
 73
     1
 44
1.20048019207683
  0
MTEXT
  5
272
330
70
100
AcDbEntity
  8
1
 62
     2
100
AcDbMText
 10
-151.5568790360344
 20
31.88033013477198
 30
0.0
 40
2.0
 41
0.0
 71
     4
 72
     1
  1
 
  7
CONVERTER_14
 73
     1
 44
1.20048019207683
  0
MTEXT
  5
273
330
70
100
AcDbEntity
  8
1
 62
     2
100
AcDbMText
 10
-56.55168356278424
 20
10.63033013477209
 30
0.0
 40
2.0
 41
0.0
 71
     5
 72
     1
  1
 
  7
CONVERTER_11
 73
     1
 44
1.20048019207683
  0
MTEXT
  5
274
330
70
100
AcDbEntity
  8
1
 62
     2
100
AcDbMText
 10
-56.55168356278424
 20
14.88033013477198
 30
0.0
 40
2.0
 41
0.0
 71
     5
 72
     1
  1
 
  7
CONVERTER_11
 73
     1
 44
1.20048019207683
  0
MTEXT
  5
275
330
70
100
AcDbEntity
  8
1
 62
     2
100
AcDbMText
 10
-56.55168356278424
 20
19.13033013477198
 30
0.0
 40
2.0
 41
0.0
 71
     5
 72
     1
  1
 
  7
CONVERTER_11
 73
     1
 44
1.20048019207683
  0
MTEXT
  5
276
330
70
100
AcDbEntity
  8
1
 62
     2
100
AcDbMText
 10
-56.55168356278424
 20
23.38033013477198
 30
0.0
 40
2.0
 41
0.0
 71
     5
 72
     1
  1
 
  7
CONVERTER_11
 73
     1
 44
1.20048019207683
  0
MTEXT
  5
277
330
70
100
AcDbEntity
  8
1
 62
     2
100
AcDbMText
 10
-56.55168356278424
 20
27.63033013477198
 30
0.0
 40
2.0
 41
0.0
 71
     5
 72
     1
  1
 
  7
CONVERTER_11
 73
     1
 44
1.20048019207683
  0
MTEXT
  5
278
330
70
100
AcDbEntity
  8
1
 62
     2
100
AcDbMText
 10
-56.55168356278424
 20
31.88033013477198
 30
0.0
 40
2.0
 41
0.0
 71
     5
 72
     1
  1
 
  7
CONVERTER_11
 73
     1
 44
1.20048019207683
  0
MTEXT
  5
279
330
70
100
AcDbEntity
  8
1
 62
     2
100
AcDbMText
 10
-70.05168356278426
 20
10.63033013477209
 30
0.0
 40
2.0
 41
0.0
 71
     5
 72
     1
  1
 
  7
CONVERTER_11
 73
     1
 44
1.20048019207683
  0
MTEXT
  5
27A
330
70
100
AcDbEntity
  8
1
 62
     2
100
AcDbMText
 10
-70.05168356278426
 20
14.88033013477198
 30
0.0
 40
2.0
 41
0.0
 71
     5
 72
     1
  1
 
  7
CONVERTER_11
 73
     1
 44
1.20048019207683
  0
MTEXT
  5
27B
330
70
100
AcDbEntity
  8
1
 62
     2
100
AcDbMText
 10
-70.05168356278426
 20
19.13033013477198
 30
0.0
 40
2.0
 41
0.0
 71
     5
 72
     1
  1
 
  7
CONVERTER_11
 73
     1
 44
1.20048019207683
  0
MTEXT
  5
27C
330
70
100
AcDbEntity
  8
1
 62
     2
100
AcDbMText
 10
-70.05168356278426
 20
23.38033013477198
 30
0.0
 40
2.0
 41
0.0
 71
     5
 72
     1
  1
 
  7
CONVERTER_11
 73
     1
 44
1.20048019207683
  0
MTEXT
  5
27D
330
70
100
AcDbEntity
  8
1
 62
     2
100
AcDbMText
 10
-70.05168356278426
 20
27.63033013477198
 30
0.0
 40
2.0
 41
0.0
 71
     5
 72
     1
  1
 
  7
CONVERTER_11
 73
     1
 44
1.20048019207683
  0
MTEXT
  5
27E
330
70
100
AcDbEntity
  8
1
 62
     2
100
AcDbMText
 10
-70.05168356278426
 20
31.88033013477198
 30
0.0
 40
2.0
 41
0.0
 71
     5
 72
     1
  1
 
  7
CONVERTER_11
 73
     1
 44
1.20048019207683
  0
MTEXT
  5
27F
330
70
100
AcDbEntity
  8
1
 62
     2
100
AcDbMText
 10
-83.55168356278415
 20
31.88033013477198
 30
0.0
 40
2.0
 41
0.0
 71
     5
 72
     1
  1
 
  7
CONVERTER_11
 73
     1
 44
1.20048019207683
  0
MTEXT
  5
280
330
70
100
AcDbEntity
  8
1
 62
     2
100
AcDbMText
 10
-83.55168356278415
 20
27.63033013477198
 30
0.0
 40
2.0
 41
0.0
 71
     5
 72
     1
  1
 
  7
CONVERTER_11
 73
     1
 44
1.20048019207683
  0
MTEXT
  5
281
330
70
100
AcDbEntity
  8
1
 62
     2
100
AcDbMText
 10
-83.55168356278415
 20
23.38033013477198
 30
0.0
 40
2.0
 41
0.0
 71
     5
 72
     1
  1
 
  7
CONVERTER_11
 73
     1
 44
1.20048019207683
  0
MTEXT
  5
282
330
70
100
AcDbEntity
  8
1
 62
     2
100
AcDbMText
 10
-83.55168356278415
 20
19.13033013477198
 30
0.0
 40
2.0
 41
0.0
 71
     5
 72
     1
  1
 
  7
CONVERTER_11
 73
     1
 44
1.20048019207683
  0
MTEXT
  5
283
330
70
100
AcDbEntity
  8
1
 62
     2
100
AcDbMText
 10
-83.55168356278415
 20
14.88033013477198
 30
0.0
 40
2.0
 41
0.0
 71
     5
 72
     1
  1
 
  7
CONVERTER_11
 73
     1
 44
1.20048019207683
  0
MTEXT
  5
284
330
70
100
AcDbEntity
  8
1
 62
     2
100
AcDbMText
 10
-83.55168356278415
 20
10.63033013477209
 30
0.0
 40
2.0
 41
0.0
 71
     5
 72
     1
  1
 
  7
CONVERTER_11
 73
     1
 44
1.20048019207683
  0
MTEXT
  5
285
330
70
100
AcDbEntity
  8
1
 62
     2
100
AcDbMText
 10
-159.3068790360344
 20
31.88033013477198
 30
0.0
 40
2.0
 41
0.0
 71
     5
 72
     1
  1
 
  7
CONVERTER_11
 73
     1
 44
1.20048019207683
  0
MTEXT
  5
286
330
70
100
AcDbEntity
  8
1
 62
     2
100
AcDbMText
 10
-159.3068790360344
 20
27.63033013477198
 30
0.0
 40
2.0
 41
0.0
 71
     5
 72
     1
  1
 
  7
CONVERTER_11
 73
     1
 44
1.20048019207683
  0
MTEXT
  5
287
330
70
100
AcDbEntity
  8
1
 62
     2
100
AcDbMText
 10
-159.3068790360344
 20
23.38033013477198
 30
0.0
 40
2.0
 41
0.0
 71
     5
 72
     1
  1
 
  7
CONVERTER_11
 73
     1
 44
1.20048019207683
  0
MTEXT
  5
288
330
70
100
AcDbEntity
  8
1
 62
     2
100
AcDbMText
 10
-159.3068790360344
 20
19.13033013477198
 30
0.0
 40
2.0
 41
0.0
 71
     5
 72
     1
  1
 
  7
CONVERTER_11
 73
     1
 44
1.20048019207683
  0
MTEXT
  5
289
330
70
100
AcDbEntity
  8
1
 62
     2
100
AcDbMText
 10
-159.3068790360344
 20
14.88033013477198
 30
0.0
 40
2.0
 41
0.0
 71
     5
 72
     1
  1
 
  7
CONVERTER_11
 73
     1
 44
1.20048019207683
  0
MTEXT
  5
28A
330
70
100
AcDbEntity
  8
1
 62
     2
100
AcDbMText
 10
-159.3068790360344
 20
10.63033013477209
 30
0.0
 40
2.0
 41
0.0
 71
     5
 72
     1
  1
 
  7
CONVERTER_11
 73
     1
 44
1.20048019207683
  0
MTEXT
  5
28B
330
70
100
AcDbEntity
  8
1
 62
     2
100
AcDbMText
 10
-169.1568790360334
 20
10.63033013477209
 30
0.0
 40
2.0
 41
0.0
 71
     5
 72
     1
  1
 
  7
CONVERTER_11
 73
     1
 44
1.20048019207683
  0
MTEXT
  5
28C
330
70
100
AcDbEntity
  8
1
 62
     2
100
AcDbMText
 10
-169.1568790360334
 20
14.88033013477198
 30
0.0
 40
2.0
 41
0.0
 71
     5
 72
     1
  1
 
  7
CONVERTER_11
 73
     1
 44
1.20048019207683
  0
MTEXT
  5
28D
330
70
100
AcDbEntity
  8
1
 62
     2
100
AcDbMText
 10
-169.1568790360334
 20
19.13033013477198
 30
0.0
 40
2.0
 41
0.0
 71
     5
 72
     1
  1
 
  7
CONVERTER_11
 73
     1
 44
1.20048019207683
  0
MTEXT
  5
28E
330
70
100
AcDbEntity
  8
1
 62
     2
100
AcDbMText
 10
-169.1568790360334
 20
23.38033013477198
 30
0.0
 40
2.0
 41
0.0
 71
     5
 72
     1
  1
 
  7
CONVERTER_11
 73
     1
 44
1.20048019207683
  0
MTEXT
  5
28F
330
70
100
AcDbEntity
  8
1
 62
     2
100
AcDbMText
 10
-169.1568790360334
 20
27.63033013477198
 30
0.0
 40
2.0
 41
0.0
 71
     5
 72
     1
  1
 
  7
CONVERTER_11
 73
     1
 44
1.20048019207683
  0
MTEXT
  5
290
330
70
100
AcDbEntity
  8
1
 62
     2
100
AcDbMText
 10
-169.1568790360334
 20
31.88033013477198
 30
0.0
 40
2.0
 41
0.0
 71
     5
 72
     1
  1
 
  7
CONVERTER_11
 73
     1
 44
1.20048019207683
  0
MTEXT
  5
291
330
70
100
AcDbEntity
  8
1
 62
     2
100
AcDbMText
 10
17.24312096396812
 20
24.50533013477198
 30
0.0
 40
1.8
 41
0.0
 71
     1
 72
     1
  1
part-rev.
  7
CONVERTER_13
 73
     1
 44
1.20048019207683
  0
MTEXT
  5
292
330
70
100
AcDbEntity
  8
1
 62
     2
100
AcDbMText
 10
35.74312096396774
 20
20.25533013477198
 30
0.0
 40
1.8
 41
0.0
 71
     1
 72
     1
  1
surface in um
  7
CONVERTER_11
 73
     1
 44
1.32052821128451
  0
MTEXT
  5
293
330
70
100
AcDbEntity
  8
1
 62
     7
100
AcDbMText
 10
82.24312096396483
 20
79.25533013477391
 30
0.0
 40
3.5
 41
0.0
 71
     5
 72
     1
  1
C
  7
CONVERTER_11
 73
     1
 44
1.20048019207683
  0
MTEXT
  5
294
330
70
100
AcDbEntity
  8
1
 62
     7
100
AcDbMText
 10
82.24312096396483
 20
181.755330134772
 30
0.0
 40
3.5
 41
0.0
 71
     5
 72
     1
  1
A
  7
CONVERTER_11
 73
     1
 44
1.20048019207683
  0
MTEXT
  5
295
330
70
100
AcDbEntity
  8
1
 62
     7
100
AcDbMText
 10
82.24312096396483
 20
129.2553301347739
 30
0.0
 40
3.5
 41
0.0
 71
     5
 72
     1
  1
B
  7
CONVERTER_11
 73
     1
 44
1.20048019207683
  0
MTEXT
  5
296
330
70
100
AcDbEntity
  8
1
 62
     7
100
AcDbMText
 10
82.24312096396483
 20
26.75533013477198
 30
0.0
 40
3.5
 41
0.0
 71
     5
 72
     1
  1
D
  7
CONVERTER_11
 73
     1
 44
1.20048019207683
  0
MTEXT
  5
297
330
70
100
AcDbEntity
  8
1
 62
     3
100
AcDbMText
 10
-207.2518112499624
 20
191.0466382900708
 30
0.0
 40
1.8
 41
0.0
 71
     7
 72
     1
  3
Weitergabe sowie Vervielf\U+00e4ltigung dieses Dokuments, Verwertung und\PMitteilung seines Inhalts gem\U+00e4\U+00df \U+00a718 UWG verboten, soweit nicht aus-\Pdr\U+00fccklich gestattet. Zuwiderhandlungen verpflichten zu Schadenersatz\P(\U+00a719 U
  1
WG). Alle Rechte vorbehalten, insbesondere das Recht, Patent-,\PGebrauchsmuster- oder Geschmacksmusteranmeldungen durchzuf\U+00fchren.\PPhoenix Contact GmbH & Co. KG
  7
CONVERTER_11
 73
     1
 44
0.99639855942377
  0
MTEXT
  5
298
330
70
100
AcDbEntity
  8
1
 62
     3
100
AcDbMText
 10
-34.39870141117429
 20
191.0466382900708
 30
0.0
 40
1.8
 41
0.0
 71
     7
 72
     1
  3
The copying, distribution and utilistion of this document as well as the communication\Pof the contents to others without expressed authorization is prohibited according to\P\U+00a718 UWG German Law. Offenders will be held liable for the payment of 
  1
damages\Paccording to (\U+00a719 UWG German Law). All rights reserved, in particular the right to\Pcarry out patent, utility model or ornamental design registrations.\PFlachsmarktstra\U+00dfe 8  D-32825 Blomberg
  7
CONVERTER_11
 73
     1
 44
0.99639855942377
  0
MTEXT
  5
299
330
70
100
AcDbEntity
  8
1
 62
     7
100
AcDbMText
 10
-188.0068790360339
 20
1.75533013477198
 30
0.0
 40
3.5
 41
0.0
 71
     5
 72
     1
  1
1
  7
CONVERTER_11
 73
     1
 44
1.20048019207683
  0
MTEXT
  5
29A
330
70
100
AcDbEntity
  8
1
 62
     7
100
AcDbMText
 10
-138.7568790360343
 20
1.75533013477198
 30
0.0
 40
3.5
 41
0.0
 71
     5
 72
     1
  1
2
  7
CONVERTER_11
 73
     1
 44
1.20048019207683
  0
MTEXT
  5
29B
330
70
100
AcDbEntity
  8
1
 62
     7
100
AcDbMText
 10
-88.75687903603426
 20
1.75533013477198
 30
0.0
 40
3.5
 41
0.0
 71
     5
 72
     1
  1
3
  7
CONVERTER_11
 73
     1
 44
1.20048019207683
  0
MTEXT
  5
29C
330
70
100
AcDbEntity
  8
1
 62
     7
100
AcDbMText
 10
-38.7568790360343
 20
1.75533013477198
 30
0.0
 40
3.5
 41
0.0
 71
     5
 72
     1
  1
4
  7
CONVERTER_11
 73
     1
 44
1.20048019207683
  0
MTEXT
  5
29D
330
70
100
AcDbEntity
  8
1
 62
     7
100
AcDbMText
 10
11.24312096396575
 20
1.75533013477198
 30
0.0
 40
3.5
 41
0.0
 71
     5
 72
     1
  1
5
  7
CONVERTER_11
 73
     1
 44
1.20048019207683
  0
MTEXT
  5
29E
330
70
100
AcDbEntity
  8
1
 62
     7
100
AcDbMText
 10
60.49312096396503
 20
1.75533013477198
 30
0.0
 40
3.5
 41
0.0
 71
     5
 72
     1
  1
6
  7
CONVERTER_11
 73
     1
 44
1.20048019207683
  0
MTEXT
  5
29F
330
70
100
AcDbEntity
  8
1
 62
     7
100
AcDbMText
 10
-209.7568790360333
 20
181.755330134772
 30
0.0
 40
3.5
 41
0.0
 71
     5
 72
     1
  1
A
  7
CONVERTER_11
 73
     1
 44
1.20048019207683
  0
MTEXT
  5
2A0
330
70
100
AcDbEntity
  8
1
 62
     7
100
AcDbMText
 10
-209.7568790360333
 20
129.255330134772
 30
0.0
 40
3.5
 41
0.0
 71
     5
 72
     1
  1
B
  7
CONVERTER_11
 73
     1
 44
1.20048019207683
  0
MTEXT
  5
2A1
330
70
100
AcDbEntity
  8
1
 62
     7
100
AcDbMText
 10
-209.7568790360333
 20
79.25533013477198
 30
0.0
 40
3.5
 41
0.0
 71
     5
 72
     1
  1
C
  7
CONVERTER_11
 73
     1
 44
1.20048019207683
  0
MTEXT
  5
2A2
330
70
100
AcDbEntity
  8
1
 62
     7
100
AcDbMText
 10
-209.7568790360333
 20
26.75533013477198
 30
0.0
 40
3.5
 41
0.0
 71
     5
 72
     1
  1
D
  7
CONVERTER_11
 73
     1
 44
1.20048019207683
  0
MTEXT
  5
2A3
330
70
100
AcDbEntity
  8
1
 62
     2
100
AcDbMText
 10
63.16152924564654
 20
33.00533013477198
 30
0.0
 40
1.8
 41
0.0
 71
     1
 72
     1
  1
dim.var.
  7
CONVERTER_11
 73
     1
 44
1.20048019207683
  0
MTEXT
  5
2A5
330
70
100
AcDbEntity
  8
1
 62
     2
100
AcDbMText
 10
17.24312096396812
 20
20.25533013477198
 30
0.0
 40
1.8
 41
0.0
 71
     1
 72
     1
  1
document-No.
  7
CONVERTER_15
 73
     1
 44
1.32052821128451
  0
TEXT
  5
2A6
330
70
100
AcDbEntity
  8
1
 62
     2
100
AcDbText
 10
-30.6016835627843
 20
5.49631291978042
 30
0.0
 40
1.8
  1
of
 41
0.9
  7
CONVERTER_11
100
AcDbText
  0
TEXT
  5
2A7
330
70
100
AcDbEntity
  8
1
 62
     2
100
AcDbText
 10
-48.80168356278417
 20
5.49631291978031
 30
0.0
 40
1.8
  1
page
 41
0.9
  7
CONVERTER_11
100
AcDbText
  0
MTEXT
  5
2A8
330
70
100
AcDbEntity
  8
1
 62
     2
100
AcDbMText
 10
-56.55168356278427
 20
5.50533013477198
 30
0.0
 40
1.8
 41
0.0
 71
     8
 72
     1
  1
name
  7
CONVERTER_11
 73
     1
 44
1.32052821128451
  0
MTEXT
  5
2A9
330
70
100
AcDbEntity
  8
1
 62
     2
100
AcDbMText
 10
-70.05168356278415
 20
5.50533013477198
 30
0.0
 40
1.8
 41
0.0
 71
     8
 72
     1
  1
check.on
  7
CONVERTER_11
 73
     1
 44
1.32052821128451
  0
MTEXT
  5
2AA
330
70
100
AcDbEntity
  8
1
 62
     2
100
AcDbMText
 10
-83.55168356278415
 20
5.50533013477198
 30
0.0
 40
1.8
 41
0.0
 71
     8
 72
     1
  1
name
  7
CONVERTER_11
 73
     1
 44
1.32052821128451
  0
MTEXT
  5
2AB
330
70
100
AcDbEntity
  8
1
 62
     2
100
AcDbMText
 10
-159.3068790360344
 20
5.50533013477198
 30
0.0
 40
1.8
 41
0.0
 71
     8
 72
     1
  1
date
  7
CONVERTER_11
 73
     1
 44
1.32052821128451
  0
MTEXT
  5
2AC
330
70
100
AcDbEntity
  8
1
 62
     2
100
AcDbMText
 10
10.72350559480723
 20
33.00533013477181
 30
0.0
 40
1.8
 41
0.0
 71
     1
 72
     1
  1
material
  7
CONVERTER_11
 73
     1
 44
1.20048019207683
  0
MTEXT
  5
2AD
330
70
100
AcDbEntity
  8
1
 62
     2
100
AcDbMText
 10
-169.1568790360334
 20
5.50533013477198
 30
0.0
 40
1.8
 41
0.0
 71
     8
 72
     1
  1
RI
  7
CONVERTER_11
 73
     1
 44
1.32052821128451
  0
MTEXT
  5
2AE
330
70
100
AcDbEntity
  8
1
 62
     2
100
AcDbMText
 10
-33.65168356278429
 20
30.95533013477203
 30
0.0
 40
1.8
 41
0.0
 71
     8
 72
     1
  1
date
  7
CONVERTER_11
 73
     1
 44
1.32052821128451
  0
MTEXT
  5
2AF
330
70
100
AcDbEntity
  8
1
 62
     2
100
AcDbMText
 10
-20.15168356278431
 20
30.95533013477203
 30
0.0
 40
1.8
 41
0.0
 71
     8
 72
     1
  1
name
  7
CONVERTER_11
 73
     1
 44
1.32052821128451
  0
MTEXT
  5
2B0
330
70
100
AcDbEntity
  8
1
 62
     2
100
AcDbMText
 10
-121.4292812994093
 20
5.50533013477198
 30
0.0
 40
1.8
 41
0.0
 71
     8
 72
     1
  1
revision
  7
CONVERTER_11
 73
     1
 44
1.32052821128451
  0
MTEXT
  5
2B1
330
70
100
AcDbEntity
  8
1
 62
     2
100
AcDbMText
 10
54.04312096396763
 20
33.00533013477198
 30
0.0
 40
1.8
 41
0.0
 71
     1
 72
     1
  1
scale
  7
CONVERTER_11
 73
     1
 44
1.20048019207683
  0
MTEXT
  5
2B2
330
70
100
AcDbEntity
  8
1
 62
     2
100
AcDbMText
 10
-45.1016835627842
 20
27.63033013477198
 30
0.0
 40
1.8
 41
0.0
 71
     5
 72
     1
  1
creat.
  7
CONVERTER_11
 73
     1
 44
1.20048019207683
  0
MTEXT
  5
2B3
330
70
100
AcDbEntity
  8
1
 62
     2
100
AcDbMText
 10
-45.1016835627842
 20
23.38033013477198
 30
0.0
 40
1.8
 41
0.0
 71
     5
 72
     1
  1
check.
  7
CONVERTER_11
 73
     1
 44
1.20048019207683
  0
MTEXT
  5
2B4
330
70
100
AcDbEntity
  8
1
 62
     3
100
AcDbMText
 10
-23.6016835627843
 20
19.13033013477209
 30
0.0
 40
2.5
 41
0.0
 71
     5
 72
     1
  1
DIN A4
  7
CONVERTER_11
 73
     1
 44
1.20048019207683
  0
MTEXT
  5
2B5
330
70
100
AcDbEntity
  8
1
 62
     2
100
AcDbMText
 10
-12.30168356278426
 20
33.00533013477198
 30
0.0
 40
1.8
 41
0.0
 71
     1
 72
     1
  1
ident.-No. / RI
  7
CONVERTER_11
 73
     1
 44
1.20048019207683
  0
TEXT
  5
2B6
330
70
100
AcDbEntity
  8
1
 62
     2
100
AcDbText
 10
-40.1554185924421
 20
5.45608148097003
 30
0.0
 40
1.8
  1
 
 41
0.9
  7
CONVERTER_11
100
AcDbText
  0
TEXT
  5
2B7
330
70
100
AcDbEntity
  8
1
 62
     2
100
AcDbText
 10
-25.3663747529706
 20
5.50533013477198
 30
0.0
 40
1.8
  1
1
 41
0.9
  7
CONVERTER_11
100
AcDbText
  0
MTEXT
  5
2B8
330
70
100
AcDbEntity
  8
1
 62
     2
100
AcDbMText
 10
-12.40168356278427
 20
11.75533013477198
 30
0.0
 40
1.8
 41
0.0
 71
     1
 72
     1
  1
description
  7
CONVERTER_11
 73
     1
 44
1.20048019207683
  0
MTEXT
  5
2B9
330
70
100
AcDbEntity
  8
1
 62
     2
100
AcDbMText
 10
-45.1016835627842
 20
30.95533013477203
 30
0.0
 40
1.8
 41
0.0
 71
     8
 72
     1
  1
00
  7
CONVERTER_11
 73
     1
 44
1.20048019207683
  0
MTEXT
  5
2BA
330
70
100
AcDbEntity
  8
1
 62
     2
100
AcDbMText
 10
-12.40168356278427
 20
20.25533013477192
 30
0.0
 40
1.8
 41
0.0
 71
     1
 72
     1
  1
document-type
  7
CONVERTER_11
 73
     1
 44
1.20048019207683
  0
MTEXT
  5
2BB
330
70
100
AcDbEntity
  8
1
 62
     2
100
AcDbMText
 10
-20.15168356278431
 20
23.38033013477198
 30
0.0
 40
1.8
 41
0.0
 71
     5
 72
     1
  1
pbam06
  7
CONVERTER_11
 73
     1
 44
1.32052821128451
  0
MTEXT
  5
2BC
330
70
100
AcDbEntity
  8
1
 62
     2
100
AcDbMText
 10
-20.15168356278431
 20
27.63033013477198
 30
0.0
 40
1.8
 41
0.0
 71
     5
 72
     1
  1
pbfm09
  7
CONVERTER_11
 73
     1
 44
1.32052821128451
  0
MTEXT
  5
2BD
330
70
100
AcDbEntity
  8
1
 62
     2
100
AcDbMText
 10
-33.65168356278425
 20
23.38033013477198
 30
0.0
 40
1.8
 41
0.0
 71
     5
 72
     1
  1
28.10.09
  7
CONVERTER_11
 73
     1
 44
1.32052821128451
  0
MTEXT
  5
2BE
330
70
100
AcDbEntity
  8
1
 62
     2
100
AcDbMText
 10
-33.65168356278425
 20
27.63033013477198
 30
0.0
 40
1.8
 41
0.0
 71
     5
 72
     1
  1
20.10.09
  7
CONVERTER_11
 73
     1
 44
1.32052821128451
  0
TEXT
  5
2BF
330
70
100
AcDbEntity
  8
1
 62
     7
100
AcDbText
 10
2.57186415922954
 20
26.80533013477198
 30
0.0
 40
2.5
  1
/
 41
0.9
  7
CONVERTER_11
100
AcDbText
  0
TEXT
  5
2C1
330
70
100
AcDbEntity
  8
1
 62
     3
100
AcDbText
 10
35.74312096396774
 20
14.05533013477198
 30
0.0
 40
2.5
  1
 
 41
0.54
  7
CONVERTER_16
100
AcDbText
  0
MTEXT
  5
2C3
330
70
100
AcDbEntity
  8
1
 62
     7
100
AcDbMText
 10
33.17071870059124
 20
7.50533013477221
 30
0.0
 40
3.0
 41
0.0
 71
     5
 72
     1
  1
DP-UWV 25
  7
CONVERTER_17
 73
     1
 44
1.20048019207683
  0
MTEXT
  5
2C4
330
70
100
AcDbEntity
  8
1
 62
     3
100
AcDbMText
 10
57.40232510480715
 20
26.80533013477209
 30
0.0
 40
2.5
 41
0.0
 71
     8
 72
     1
  1
1:1
  7
CONVERTER_13
 73
     1
 44
1.32052821128451
  0
TEXT
  5
2C5
330
70
100
AcDbEntity
  8
1
 62
     3
100
AcDbText
 10
10.49831643721575
 20
26.80533013477198
 30
0.0
 40
2.5
  1
 
 41
0.54
  7
CONVERTER_16
100
AcDbText
  0
TEXT
  5
2C6
330
70
100
AcDbEntity
  8
1
 62
     7
100
AcDbText
 10
-11.90168356278446
 20
26.80533013477198
 30
0.0
 40
2.5
  1
3074431
 41
0.81
  7
CONVERTER_17
100
AcDbText
  0
TEXT
  5
2C7
330
70
100
AcDbEntity
  8
1
 62
     7
100
AcDbText
 10
17.24312096396812
 20
14.05533013477198
 30
0.0
 40
2.5
  1
00531442
 41
0.81
  7
CONVERTER_17
100
AcDbText
  0
TEXT
  5
2C8
330
70
100
AcDbEntity
  8
1
 62
     3
100
AcDbText
 10
62.86152924564664
 20
26.80533013477198
 30
0.0
 40
2.5
  1
 
 41
0.54
  7
CONVERTER_16
100
AcDbText
  0
TEXT
  5
2CA
330
70
100
AcDbEntity
  8
1
 62
     3
100
AcDbText
 10
-12.40168356278427
 20
14.05533013477198
 30
0.0
 40
2.5
  1
KUNDENZCHNG-SELECT
 41
0.45
  7
CONVERTER_18
100
AcDbText
  0
TEXT
  5
2CB
330
70
100
AcDbEntity
  8
1
 62
     7
100
AcDbText
 10
4.72822865627155
 20
26.80533013477198
 30
0.0
 40
2.5
  1
00
 41
0.81
  7
CONVERTER_17
100
AcDbText
  0
MTEXT
  5
2CC
330
70
100
AcDbEntity
  8
1
 62
     3
100
AcDbMText
 10
27.45014085057614
 20
24.60533013477198
 30
0.0
 40
2.0
 41
0.0
 71
     1
 72
     1
  1
 
  7
CONVERTER_13
 73
     1
 44
1.20048019207683
  0
HATCH
  5
2CD
330
70
100
AcDbEntity
  8
1
  6
Continuous
 62
     2
100
AcDbHatch
 10
0.0
 20
0.0
 30
0.0
210
0.0
220
0.0
230
1.0
  2
_USER
 70
     0
 71
     1
 91
        1
 92
        1
 93
       14
 72
     2
 10
-36.5262874669803
 20
11.36723489668313
 40
0.9964100565214554
 50
164.9381082228798
 51
195.0618917770963
 73
     1
 72
     2
 10
-36.17990081949039
 20
11.46045007191852
 40
1.355119937140016
 50
195.0618917770911
 51
275.1581447696391
 73
     1
 72
     2
 10
-36.41862486472666
 20
14.10498774400248
 40
4.010410630990215
 50
275.1581447696245
 51
285.9799912583532
 73
     1
 72
     1
 10
-35.31455220595159
 20
10.24954782185303
 11
-35.31455220595159
 21
10.97063625722762
 72
     2
 10
-36.28815141423672
 20
12.53290957883907
 40
1.840813230556013
 50
58.06909105003739
 51
71.55192388186661
 73
     0
 72
     2
 10
-35.94255824592198
 20
11.49692133418025
 40
0.7487023016403853
 50
71.55192388184295
 51
113.3722778881296
 73
     0
 72
     2
 10
-36.07184752914679
 20
11.19775437656867
 40
0.4227934381775271
 50
113.372277888175
 51
151.4785267423086
 73
     0
 72
     2
 10
-35.75998202660104
 20
11.36723489668313
 40
0.7777353184572864
 50
151.4785267422975
 51
208.5214732577311
 73
     0
 72
     2
 10
-36.07184752914679
 20
11.53671541679804
 40
0.4227934381775721
 50
208.5214732576904
 51
246.6277221118009
 73
     0
 72
     2
 10
-35.94255824592198
 20
11.23754845918599
 40
0.7487023016407717
 50
246.627722111871
 51
288.4480761181457
 73
     0
 72
     2
 10
-36.28815141423672
 20
10.20156021452763
 40
1.840813230556621
 50
288.4480761181333
 51
301.9309089499626
 73
     0
 72
     1
 10
-35.31455220595159
 20
11.76383353613908
 11
-35.31455220595159
 21
12.48492197151367
 72
     2
 10
-36.41862486472666
 20
8.62948204936423
 40
4.010410630990089
 50
74.02000874164679
 51
84.84185523037544
 73
     1
 72
     2
 10
-36.17990081949039
 20
11.27401972144772
 40
1.355119937140908
 50
84.84185523036265
 51
164.9381082228906
 73
     1
 97
       14
330
261
330
EB
330
230
330
260
330
231
330
232
330
25F
330
25E
330
25D
330
EC
330
233
330
234
330
235
330
236
 75
     1
 76
     0
 52
45.0
 41
0.1
 77
     0
 78
     1
 53
45.0
 43
0.0
 44
0.0
 45
-0.0707106781186548
 46
0.0707106781186548
 79
     0
 98
        1
 10
0.0
 20
0.0
  0
HATCH
  5
2CE
330
70
100
AcDbEntity
  8
1
  6
Continuous
 62
     2
100
AcDbHatch
 10
0.0
 20
0.0
 30
0.0
210
0.0
220
0.0
230
1.0
  2
_USER
 70
     0
 71
     1
 91
        1
 92
        1
 93
       14
 72
     2
 10
-36.5262874669803
 20
11.36723489668313
 40
0.9964100565214554
 50
164.9381082228798
 51
195.0618917770963
 73
     1
 72
     2
 10
-36.17990081949039
 20
11.46045007191852
 40
1.355119937140016
 50
195.0618917770911
 51
275.1581447696391
 73
     1
 72
     2
 10
-36.41862486472666
 20
14.10498774400248
 40
4.010410630990215
 50
275.1581447696245
 51
285.9799912583532
 73
     1
 72
     1
 10
-35.31455220595159
 20
10.24954782185303
 11
-35.31455220595159
 21
10.97063625722762
 72
     2
 10
-36.28815141423672
 20
12.53290957883907
 40
1.840813230556013
 50
58.06909105003739
 51
71.55192388186661
 73
     0
 72
     2
 10
-35.94255824592198
 20
11.49692133418025
 40
0.7487023016403853
 50
71.55192388184295
 51
113.3722778881296
 73
     0
 72
     2
 10
-36.07184752914679
 20
11.19775437656867
 40
0.4227934381775271
 50
113.372277888175
 51
151.4785267423086
 73
     0
 72
     2
 10
-35.75998202660104
 20
11.36723489668313
 40
0.7777353184572864
 50
151.4785267422975
 51
208.5214732577311
 73
     0
 72
     2
 10
-36.07184752914679
 20
11.53671541679804
 40
0.4227934381775721
 50
208.5214732576904
 51
246.6277221118009
 73
     0
 72
     2
 10
-35.94255824592198
 20
11.23754845918599
 40
0.7487023016407717
 50
246.627722111871
 51
288.4480761181457
 73
     0
 72
     2
 10
-36.28815141423672
 20
10.20156021452763
 40
1.840813230556621
 50
288.4480761181333
 51
301.9309089499626
 73
     0
 72
     1
 10
-35.31455220595159
 20
11.76383353613908
 11
-35.31455220595159
 21
12.48492197151367
 72
     2
 10
-36.41862486472666
 20
8.62948204936423
 40
4.010410630990089
 50
74.02000874164679
 51
84.84185523037544
 73
     1
 72
     2
 10
-36.17990081949039
 20
11.27401972144772
 40
1.355119937140908
 50
84.84185523036265
 51
164.9381082228906
 73
     1
 97
       14
330
261
330
EB
330
230
330
260
330
231
330
232
330
25F
330
25E
330
25D
330
EC
330
233
330
234
330
235
330
236
 75
     1
 76
     0
 52
45.0
 41
0.1
 77
     0
 78
     1
 53
45.0
 43
0.0
 44
0.0
 45
-0.0707106781186548
 46
0.0707106781186548
 79
     0
 98
        1
 10
0.0
 20
0.0
  0
HATCH
  5
2CF
330
70
100
AcDbEntity
  8
1
  6
Continuous
 62
     2
100
AcDbHatch
 10
0.0
 20
0.0
 30
0.0
210
0.0
220
0.0
230
1.0
  2
_USER
 70
     0
 71
     1
 91
        1
 92
        1
 93
       18
 72
     2
 10
-22.87188306804171
 20
11.27401972144772
 40
1.355119937140589
 50
90.0
 51
164.9381082228993
 73
     1
 72
     2
 10
-23.2182697155307
 20
11.36723489668313
 40
0.996410056523109
 50
164.9381082229054
 51
195.0618917770957
 73
     1
 72
     2
 10
-22.87188306804171
 20
11.46045007191852
 40
1.355119937140898
 50
195.0618917771008
 51
275.1581447696759
 73
     1
 72
     2
 10
-23.11060711327797
 20
14.10498774400248
 40
4.010410630990743
 50
275.1581447696368
 51
285.9799912583388
 73
     1
 72
     1
 10
-22.00653445450382
 20
10.24954782185259
 11
-22.00653445450382
 21
10.97063625722716
 72
     2
 10
-22.98013366278803
 20
12.53290957883861
 40
1.840813230556001
 50
58.06909105006173
 51
71.55192388186671
 73
     0
 72
     2
 10
-22.63454049447238
 20
11.49692133418025
 40
0.7487023016407024
 50
71.55192388192036
 51
113.3722778881858
 73
     0
 72
     2
 10
-22.7638297776981
 20
11.19775437656867
 40
0.4227934381785459
 50
113.3722778881608
 51
151.4785267423127
 73
     0
 72
     2
 10
-22.45196427515145
 20
11.36723489668313
 40
0.7777353184586598
 50
151.4785267423313
 51
208.5214732576383
 73
     0
 72
     2
 10
-22.7638297776981
 20
11.53671541679804
 40
0.4227934381772274
 50
208.5214732575778
 51
250.6628567805136
 73
     0
 72
     2
 10
-22.64261490323224
 20
11.19129807763861
 40
0.7888619891124407
 50
250.6628567805685
 51
270.0
 73
     0
 72
     1
 10
-22.64261490323224
 20
11.98016006675105
 11
-21.73051630854786
 21
11.98016006675105
 72
     1
 10
-21.73051630854786
 20
11.98016006675105
 11
-21.73051630854786
 21
10.10533013477794
 72
     1
 10
-21.73051630854786
 20
10.10533013477794
 11
-20.74473721584729
 21
10.10533013477794
 72
     1
 10
-20.74473721584729
 20
10.10533013477794
 11
-20.74473721584729
 21
11.98016006675105
 72
     1
 10
-20.74473721584729
 20
11.98016006675105
 11
-20.07440743281142
 21
11.98016006675105
 72
     1
 10
-20.07440743281142
 20
11.98016006675105
 11
-20.07440743281142
 21
12.62913965858877
 72
     1
 10
-20.07440743281142
 20
12.62913965858877
 11
-22.87188306804171
 21
12.62913965858831
 97
       18
330
151
330
150
330
14F
330
14E
330
153
330
ED
330
25A
330
23B
330
259
330
23C
330
258
330
257
330
EE
330
256
330
255
330
23D
330
23E
330
152
 75
     1
 76
     0
 52
45.0
 41
0.1
 77
     0
 78
     1
 53
45.0
 43
0.0
 44
0.0
 45
-0.0707106781186548
 46
0.0707106781186548
 79
     0
 98
        1
 10
0.0
 20
0.0
  0
HATCH
  5
2D0
330
70
100
AcDbEntity
  8
1
  6
Continuous
 62
     2
100
AcDbHatch
 10
0.0
 20
0.0
 30
0.0
210
0.0
220
0.0
230
1.0
  2
_USER
 70
     0
 71
     1
 91
        1
 92
        1
 93
       18
 72
     2
 10
-22.87188306804171
 20
11.27401972144772
 40
1.355119937140589
 50
90.0
 51
164.9381082228993
 73
     1
 72
     2
 10
-23.2182697155307
 20
11.36723489668313
 40
0.996410056523109
 50
164.9381082229054
 51
195.0618917770957
 73
     1
 72
     2
 10
-22.87188306804171
 20
11.46045007191852
 40
1.355119937140898
 50
195.0618917771008
 51
275.1581447696759
 73
     1
 72
     2
 10
-23.11060711327797
 20
14.10498774400248
 40
4.010410630990743
 50
275.1581447696368
 51
285.9799912583388
 73
     1
 72
     1
 10
-22.00653445450382
 20
10.24954782185259
 11
-22.00653445450382
 21
10.97063625722716
 72
     2
 10
-22.98013366278803
 20
12.53290957883861
 40
1.840813230556001
 50
58.06909105006173
 51
71.55192388186671
 73
     0
 72
     2
 10
-22.63454049447238
 20
11.49692133418025
 40
0.7487023016407024
 50
71.55192388192036
 51
113.3722778881858
 73
     0
 72
     2
 10
-22.7638297776981
 20
11.19775437656867
 40
0.4227934381785459
 50
113.3722778881608
 51
151.4785267423127
 73
     0
 72
     2
 10
-22.45196427515145
 20
11.36723489668313
 40
0.7777353184586598
 50
151.4785267423313
 51
208.5214732576383
 73
     0
 72
     2
 10
-22.7638297776981
 20
11.53671541679804
 40
0.4227934381772274
 50
208.5214732575778
 51
250.6628567805136
 73
     0
 72
     2
 10
-22.64261490323224
 20
11.19129807763861
 40
0.7888619891124407
 50
250.6628567805685
 51
270.0
 73
     0
 72
     1
 10
-22.64261490323224
 20
11.98016006675105
 11
-21.73051630854786
 21
11.98016006675105
 72
     1
 10
-21.73051630854786
 20
11.98016006675105
 11
-21.73051630854786
 21
10.10533013477794
 72
     1
 10
-21.73051630854786
 20
10.10533013477794
 11
-20.74473721584729
 21
10.10533013477794
 72
     1
 10
-20.74473721584729
 20
10.10533013477794
 11
-20.74473721584729
 21
11.98016006675105
 72
     1
 10
-20.74473721584729
 20
11.98016006675105
 11
-20.07440743281142
 21
11.98016006675105
 72
     1
 10
-20.07440743281142
 20
11.98016006675105
 11
-20.07440743281142
 21
12.62913965858877
 72
     1
 10
-20.07440743281142
 20
12.62913965858877
 11
-22.87188306804171
 21
12.62913965858831
 97
       18
330
151
330
150
330
14F
330
14E
330
153
330
ED
330
25A
330
23B
330
259
330
23C
330
258
330
257
330
EE
330
256
330
255
330
23D
330
23E
330
152
 75
     1
 76
     0
 52
45.0
 41
0.1
 77
     0
 78
     1
 53
45.0
 43
0.0
 44
0.0
 45
-0.0707106781186548
 46
0.0707106781186548
 79
     0
 98
        1
 10
0.0
 20
0.0
  0
HATCH
  5
2D1
330
70
100
AcDbEntity
  8
1
  6
Continuous
 62
     2
100
AcDbHatch
 10
0.0
 20
0.0
 30
0.0
210
0.0
220
0.0
230
1.0
  2
_USER
 70
     0
 71
     1
 91
        4
 92
        1
 93
        8
 72
     2
 10
-42.79102281737482
 20
15.05471475013619
 40
0.3506153846147395
 50
90.0
 51
180.0
 73
     1
 72
     1
 10
-43.14163820198871
 20
15.05471475013619
 11
-43.14163820198871
 21
10.45594551939222
 72
     2
 10
-42.79102281737482
 20
10.45594551939222
 40
0.3506153846138957
 50
180.0
 51
270.0
 73
     1
 72
     1
 10
-42.79102281737482
 20
10.10533013477794
 11
-38.26762439529477
 21
10.10533013477794
 72
     2
 10
-38.26762439529477
 20
10.45594551939222
 40
0.3506153846142794
 50
270.0
 51
360.0
 73
     1
 72
     1
 10
-37.91700901067997
 20
10.45594551939222
 11
-37.91700901067997
 21
15.05471475013619
 72
     2
 10
-38.26762439529477
 20
15.05471475013619
 40
0.3506153846147981
 50
0.0
 51
90.0
 73
     1
 72
     1
 10
-38.26762439529477
 20
15.40533013475093
 11
-42.79102281737482
 21
15.40533013475093
 97
        8
330
24E
330
11C
330
24D
330
11D
330
244
330
11A
330
24F
330
11B
 92
       16
 93
        1
 72
     2
 10
-40.62607599876525
 20
13.13828315645395
 40
0.3892387874202541
 50
0.0
 51
360.0
 73
     1
 97
        1
330
262
 92
       16
 93
        8
 72
     2
 10
-40.60639416845719
 20
13.13828315645395
 40
0.7535935125161003
 50
295.3740086781779
 51
424.6259913218071
 73
     1
 72
     2
 10
-40.17164813697956
 20
14.05492910684057
 40
0.2609230769229498
 50
115.3740086783599
 51
180.0
 73
     0
 72
     1
 10
-40.43257121390251
 20
14.05492910684057
 11
-40.43257121390251
 21
14.55537149403624
 72
     2
 10
-40.17164813697956
 20
14.55537149403624
 40
0.2609230769224198
 50
180.0
 51
269.8110329574465
 73
     0
 72
     2
 10
-40.1670067028391
 20
13.14806988447506
 40
1.668232340440702
 50
269.8110329575865
 51
450.1889670424135
 73
     0
 72
     2
 10
-40.17164813697956
 20
11.74076827491389
 40
0.2609230769229498
 50
90.18896704255353
 51
180.0
 73
     0
 72
     1
 10
-40.43257121390251
 20
11.74076827491389
 11
-40.43257121390251
 21
12.22163720606686
 72
     2
 10
-40.17164813697956
 20
12.22163720606686
 40
0.2609230769227309
 50
180.0
 51
244.6259913216409
 73
     0
 97
        8
330
25C
330
238
330
155
330
25B
330
239
330
23A
330
154
330
237
 92
       16
 93
       12
 72
     1
 10
-42.30020077047686
 20
10.69421902366796
 11
-41.08050386055162
 21
10.69421902366796
 72
     2
 10
-41.08050386055162
 20
10.95514210059085
 40
0.2609230769228894
 50
270.0
 51
360.0
 73
     1
 72
     1
 10
-40.81958078362879
 20
10.95514210059085
 11
-40.81958078362879
 21
12.22024204400541
 72
     2
 10
-41.08050386055162
 20
12.22024204400541
 40
0.2609230769228361
 50
0.0
 51
64.8055893514401
 73
     1
 72
     2
 10
-40.64861588734913
 20
13.13828315645395
 40
0.7536343169897672
 50
115.1944106485086
 51
244.8055893514766
 73
     0
 72
     2
 10
-41.08050386055162
 20
14.05632426890203
 40
0.2609230769224081
 50
295.1944106485599
 51
360.0
 73
     1
 72
     1
 10
-40.81958078362879
 20
14.05632426890203
 11
-40.81958078362879
 21
14.55551816895209
 72
     2
 10
-41.08050386055162
 20
14.55551816895209
 40
0.2609230769228361
 50
0.0
 51
90.0
 73
     1
 72
     1
 10
-41.08050386055162
 20
14.81644124587454
 11
-42.30020077047686
 21
14.81644124587454
 72
     2
 10
-42.30020077047686
 20
14.55551816895209
 40
0.2609230769224489
 50
90.0
 51
180.0
 73
     1
 72
     1
 10
-42.5611238473989
 20
14.55551816895209
 11
-42.5611238473989
 21
10.95514210059085
 72
     2
 10
-42.30020077047686
 20
10.95514210059085
 40
0.2609230769220403
 50
180.0
 51
270.0
 73
     1
 97
       12
330
121
330
241
330
120
330
252
330
11F
330
251
330
242
330
243
330
11E
330
250
330
119
330
253
 75
     1
 76
     0
 52
45.0
 41
0.1
 77
     0
 78
     1
 53
45.0
 43
0.0
 44
0.0
 45
-0.0707106781186548
 46
0.0707106781186548
 79
     0
 98
        1
 10
0.0
 20
0.0
  0
HATCH
  5
2D2
330
70
100
AcDbEntity
  8
1
  6
Continuous
 62
     2
100
AcDbHatch
 10
0.0
 20
0.0
 30
0.0
210
0.0
220
0.0
230
1.0
  2
_USER
 70
     0
 71
     1
 91
        4
 92
        1
 93
        8
 72
     2
 10
-42.79102281737482
 20
15.05471475013619
 40
0.3506153846147395
 50
90.0
 51
180.0
 73
     1
 72
     1
 10
-43.14163820198871
 20
15.05471475013619
 11
-43.14163820198871
 21
10.45594551939222
 72
     2
 10
-42.79102281737482
 20
10.45594551939222
 40
0.3506153846138957
 50
180.0
 51
270.0
 73
     1
 72
     1
 10
-42.79102281737482
 20
10.10533013477794
 11
-38.26762439529477
 21
10.10533013477794
 72
     2
 10
-38.26762439529477
 20
10.45594551939222
 40
0.3506153846142794
 50
270.0
 51
360.0
 73
     1
 72
     1
 10
-37.91700901067997
 20
10.45594551939222
 11
-37.91700901067997
 21
15.05471475013619
 72
     2
 10
-38.26762439529477
 20
15.05471475013619
 40
0.3506153846147981
 50
0.0
 51
90.0
 73
     1
 72
     1
 10
-38.26762439529477
 20
15.40533013475093
 11
-42.79102281737482
 21
15.40533013475093
 97
        8
330
24E
330
11C
330
24D
330
11D
330
244
330
11A
330
24F
330
11B
 92
       16
 93
        1
 72
     2
 10
-40.62607599876525
 20
13.13828315645395
 40
0.3892387874202541
 50
0.0
 51
360.0
 73
     1
 97
        1
330
262
 92
       16
 93
        8
 72
     2
 10
-40.60639416845719
 20
13.13828315645395
 40
0.7535935125161003
 50
295.3740086781779
 51
424.6259913218071
 73
     1
 72
     2
 10
-40.17164813697956
 20
14.05492910684057
 40
0.2609230769229498
 50
115.3740086783599
 51
180.0
 73
     0
 72
     1
 10
-40.43257121390251
 20
14.05492910684057
 11
-40.43257121390251
 21
14.55537149403624
 72
     2
 10
-40.17164813697956
 20
14.55537149403624
 40
0.2609230769224198
 50
180.0
 51
269.8110329574465
 73
     0
 72
     2
 10
-40.1670067028391
 20
13.14806988447506
 40
1.668232340440702
 50
269.8110329575865
 51
450.1889670424135
 73
     0
 72
     2
 10
-40.17164813697956
 20
11.74076827491389
 40
0.2609230769229498
 50
90.18896704255353
 51
180.0
 73
     0
 72
     1
 10
-40.43257121390251
 20
11.74076827491389
 11
-40.43257121390251
 21
12.22163720606686
 72
     2
 10
-40.17164813697956
 20
12.22163720606686
 40
0.2609230769227309
 50
180.0
 51
244.6259913216409
 73
     0
 97
        8
330
25C
330
238
330
155
330
25B
330
239
330
23A
330
154
330
237
 92
       16
 93
       12
 72
     1
 10
-42.30020077047686
 20
10.69421902366796
 11
-41.08050386055162
 21
10.69421902366796
 72
     2
 10
-41.08050386055162
 20
10.95514210059085
 40
0.2609230769228894
 50
270.0
 51
360.0
 73
     1
 72
     1
 10
-40.81958078362879
 20
10.95514210059085
 11
-40.81958078362879
 21
12.22024204400541
 72
     2
 10
-41.08050386055162
 20
12.22024204400541
 40
0.2609230769228361
 50
0.0
 51
64.8055893514401
 73
     1
 72
     2
 10
-40.64861588734913
 20
13.13828315645395
 40
0.7536343169897672
 50
115.1944106485086
 51
244.8055893514766
 73
     0
 72
     2
 10
-41.08050386055162
 20
14.05632426890203
 40
0.2609230769224081
 50
295.1944106485599
 51
360.0
 73
     1
 72
     1
 10
-40.81958078362879
 20
14.05632426890203
 11
-40.81958078362879
 21
14.55551816895209
 72
     2
 10
-41.08050386055162
 20
14.55551816895209
 40
0.2609230769228361
 50
0.0
 51
90.0
 73
     1
 72
     1
 10
-41.08050386055162
 20
14.81644124587454
 11
-42.30020077047686
 21
14.81644124587454
 72
     2
 10
-42.30020077047686
 20
14.55551816895209
 40
0.2609230769224489
 50
90.0
 51
180.0
 73
     1
 72
     1
 10
-42.5611238473989
 20
14.55551816895209
 11
-42.5611238473989
 21
10.95514210059085
 72
     2
 10
-42.30020077047686
 20
10.95514210059085
 40
0.2609230769220403
 50
180.0
 51
270.0
 73
     1
 97
       12
330
121
330
241
330
120
330
252
330
11F
330
251
330
242
330
243
330
11E
330
250
330
119
330
253
 75
     1
 76
     0
 52
45.0
 41
0.1
 77
     0
 78
     1
 53
45.0
 43
0.0
 44
0.0
 45
-0.0707106781186548
 46
0.0707106781186548
 79
     0
 98
        1
 10
0.0
 20
0.0
  0
HATCH
  5
2D3
330
70
100
AcDbEntity
  8
1
  6
Continuous
 62
     2
100
AcDbHatch
 10
0.0
 20
0.0
 30
0.0
210
0.0
220
0.0
230
1.0
  2
_USER
 70
     0
 71
     1
 91
        2
 92
        1
 93
       12
 72
     2
 10
-30.66278810333403
 20
14.14342537286028
 40
1.26190476190564
 50
90.0
 51
270.0
 73
     1
 72
     1
 10
-30.66278810333403
 20
12.88152061095509
 11
-28.05921808368032
 21
12.88152061095509
 72
     1
 10
-28.05921808368032
 20
12.88152061095509
 11
-28.05921808368032
 21
13.45839135925458
 72
     1
 10
-28.05921808368032
 20
13.45839135925458
 11
-29.16329066750483
 21
13.45839135925458
 72
     1
 10
-29.16329066750483
 20
13.45839135925458
 11
-29.16329066750483
 21
13.85498999871054
 72
     1
 10
-29.16329066750483
 20
13.85498999871054
 11
-28.05921808368032
 21
13.85498999871054
 72
     1
 10
-28.05921808368032
 20
13.85498999871054
 11
-28.05921808368032
 21
14.43186074701002
 72
     1
 10
-28.05921808368032
 20
14.43186074701002
 11
-29.16329066750483
 21
14.43186074701002
 72
     1
 10
-29.16329066750483
 20
14.43186074701002
 11
-29.16329066750483
 21
14.82845938646598
 72
     1
 10
-29.16329066750483
 20
14.82845938646598
 11
-28.05921808368032
 21
14.82845938646598
 72
     1
 10
-28.05921808368032
 20
14.82845938646598
 11
-28.05921808368032
 21
15.40533013476592
 72
     1
 10
-28.05921808368032
 20
15.40533013476592
 11
-30.66278810333403
 21
15.40533013476592
 97
       12
330
110
330
10A
330
131
330
130
330
12F
330
12E
330
10B
330
10C
330
10D
330
10E
330
23F
330
10F
 92
       16
 93
        4
 72
     2
 10
-30.3189764946469
 20
14.14342537286028
 40
0.6378510567600029
 50
141.8795802028415
 51
218.1204197971586
 73
     1
 72
     2
 10
-30.48405090485039
 20
14.01389547358715
 40
0.4280236140606823
 50
218.1204197971436
 51
321.8795802028561
 73
     1
 72
     2
 10
-30.64912531505387
 20
14.14342537286028
 40
0.6378510567599944
 50
321.8795802028409
 51
398.1204197971591
 73
     1
 72
     2
 10
-30.48405090485039
 20
14.2729552721334
 40
0.4280236140606861
 50
38.12041979714503
 51
141.8795802028553
 73
     1
 97
        4
330
24C
330
24B
330
246
330
245
 75
     1
 76
     0
 52
45.0
 41
0.1
 77
     0
 78
     1
 53
45.0
 43
0.0
 44
0.0
 45
-0.0707106781186548
 46
0.0707106781186548
 79
     0
 98
        1
 10
0.0
 20
0.0
  0
HATCH
  5
2D4
330
70
100
AcDbEntity
  8
1
  6
Continuous
 62
     2
100
AcDbHatch
 10
0.0
 20
0.0
 30
0.0
210
0.0
220
0.0
230
1.0
  2
_USER
 70
     0
 71
     1
 91
        2
 92
        1
 93
       12
 72
     2
 10
-30.66278810333403
 20
14.14342537286028
 40
1.26190476190564
 50
90.0
 51
270.0
 73
     1
 72
     1
 10
-30.66278810333403
 20
12.88152061095509
 11
-28.05921808368032
 21
12.88152061095509
 72
     1
 10
-28.05921808368032
 20
12.88152061095509
 11
-28.05921808368032
 21
13.45839135925458
 72
     1
 10
-28.05921808368032
 20
13.45839135925458
 11
-29.16329066750483
 21
13.45839135925458
 72
     1
 10
-29.16329066750483
 20
13.45839135925458
 11
-29.16329066750483
 21
13.85498999871054
 72
     1
 10
-29.16329066750483
 20
13.85498999871054
 11
-28.05921808368032
 21
13.85498999871054
 72
     1
 10
-28.05921808368032
 20
13.85498999871054
 11
-28.05921808368032
 21
14.43186074701002
 72
     1
 10
-28.05921808368032
 20
14.43186074701002
 11
-29.16329066750483
 21
14.43186074701002
 72
     1
 10
-29.16329066750483
 20
14.43186074701002
 11
-29.16329066750483
 21
14.82845938646598
 72
     1
 10
-29.16329066750483
 20
14.82845938646598
 11
-28.05921808368032
 21
14.82845938646598
 72
     1
 10
-28.05921808368032
 20
14.82845938646598
 11
-28.05921808368032
 21
15.40533013476592
 72
     1
 10
-28.05921808368032
 20
15.40533013476592
 11
-30.66278810333403
 21
15.40533013476592
 97
       12
330
110
330
10A
330
131
330
130
330
12F
330
12E
330
10B
330
10C
330
10D
330
10E
330
23F
330
10F
 92
       16
 93
        4
 72
     2
 10
-30.3189764946469
 20
14.14342537286028
 40
0.6378510567600029
 50
141.8795802028415
 51
218.1204197971586
 73
     1
 72
     2
 10
-30.48405090485039
 20
14.01389547358715
 40
0.4280236140606823
 50
218.1204197971436
 51
321.8795802028561
 73
     1
 72
     2
 10
-30.64912531505387
 20
14.14342537286028
 40
0.6378510567599944
 50
321.8795802028409
 51
398.1204197971591
 73
     1
 72
     2
 10
-30.48405090485039
 20
14.2729552721334
 40
0.4280236140606861
 50
38.12041979714503
 51
141.8795802028553
 73
     1
 97
        4
330
24C
330
24B
330
246
330
245
 75
     1
 76
     0
 52
45.0
 41
0.1
 77
     0
 78
     1
 53
45.0
 43
0.0
 44
0.0
 45
-0.0707106781186548
 46
0.0707106781186548
 79
     0
 98
        1
 10
0.0
 20
0.0
  0
HATCH
  5
2D5
330
70
100
AcDbEntity
  8
1
  6
Continuous
 62
     2
100
AcDbHatch
 10
0.0
 20
0.0
 30
0.0
210
0.0
220
0.0
230
1.0
  2
_USER
 70
     0
 71
     1
 91
        2
 92
        1
 93
        4
 72
     2
 10
-33.98974294834363
 20
11.36723489668313
 40
1.204986845992988
 50
117.5481481756628
 51
242.4518518243375
 73
     1
 72
     2
 10
-33.75756121955578
 20
11.8123382109834
 40
1.707008076205435
 50
242.4518518243405
 51
297.5481481756872
 73
     1
 72
     2
 10
-33.52537949076793
 20
11.36723489668313
 40
1.204986845993436
 50
297.5481481757017
 51
422.4518518242979
 73
     1
 72
     2
 10
-33.75756121955578
 20
10.92213158238331
 40
1.707008076205448
 50
62.45185182430549
 51
117.5481481756668
 73
     1
 97
        4
330
24A
330
247
330
249
330
248
 92
       16
 93
        4
 72
     2
 10
-33.75756121955578
 20
11.49676479595625
 40
0.4280236140606022
 50
38.12041979715384
 51
141.8795802028538
 73
     1
 72
     2
 10
-33.5924868093524
 20
11.36723489668313
 40
0.637851056759905
 50
141.8795802028345
 51
218.1204197971661
 73
     1
 72
     2
 10
-33.75756121955578
 20
11.23770499741045
 40
0.4280236140609524
 50
218.1204197971935
 51
321.8795802027988
 73
     1
 72
     2
 10
-33.92263562975938
 20
11.36723489668313
 40
0.6378510567600055
 50
321.8795802028406
 51
398.1204197971587
 73
     1
 97
        4
330
22D
330
22E
330
22F
330
22C
 75
     1
 76
     0
 52
45.0
 41
0.1
 77
     0
 78
     1
 53
45.0
 43
0.0
 44
0.0
 45
-0.0707106781186548
 46
0.0707106781186548
 79
     0
 98
        1
 10
0.0
 20
0.0
  0
HATCH
  5
2D6
330
70
100
AcDbEntity
  8
1
  6
Continuous
 62
     2
100
AcDbHatch
 10
0.0
 20
0.0
 30
0.0
210
0.0
220
0.0
230
1.0
  2
_USER
 70
     0
 71
     1
 91
        2
 92
        1
 93
        4
 72
     2
 10
-33.98974294834363
 20
11.36723489668313
 40
1.204986845992988
 50
117.5481481756628
 51
242.4518518243375
 73
     1
 72
     2
 10
-33.75756121955578
 20
11.8123382109834
 40
1.707008076205435
 50
242.4518518243405
 51
297.5481481756872
 73
     1
 72
     2
 10
-33.52537949076793
 20
11.36723489668313
 40
1.204986845993436
 50
297.5481481757017
 51
422.4518518242979
 73
     1
 72
     2
 10
-33.75756121955578
 20
10.92213158238331
 40
1.707008076205448
 50
62.45185182430549
 51
117.5481481756668
 73
     1
 97
        4
330
24A
330
247
330
249
330
248
 92
       16
 93
        4
 72
     2
 10
-33.75756121955578
 20
11.49676479595625
 40
0.4280236140606022
 50
38.12041979715384
 51
141.8795802028538
 73
     1
 72
     2
 10
-33.5924868093524
 20
11.36723489668313
 40
0.637851056759905
 50
141.8795802028345
 51
218.1204197971661
 73
     1
 72
     2
 10
-33.75756121955578
 20
11.23770499741045
 40
0.4280236140609524
 50
218.1204197971935
 51
321.8795802027988
 73
     1
 72
     2
 10
-33.92263562975938
 20
11.36723489668313
 40
0.6378510567600055
 50
321.8795802028406
 51
398.1204197971587
 73
     1
 97
        4
330
22D
330
22E
330
22F
330
22C
 75
     1
 76
     0
 52
45.0
 41
0.1
 77
     0
 78
     1
 53
45.0
 43
0.0
 44
0.0
 45
-0.0707106781186548
 46
0.0707106781186548
 79
     0
 98
        1
 10
0.0
 20
0.0
  0
HATCH
  5
2D7
330
70
100
AcDbEntity
  8
1
  6
Continuous
 62
     2
100
AcDbHatch
 10
0.0
 20
0.0
 30
0.0
210
0.0
220
0.0
230
1.0
  2
_USER
 70
     0
 71
     1
 91
        2
 92
        1
 93
        6
 72
     1
 10
-37.52269737359995
 20
15.40533013476592
 11
-37.52269737359995
 21
12.88152061095509
 72
     1
 10
-37.52269737359995
 20
12.88152061095509
 11
-36.49748711719166
 21
12.88152061095509
 72
     1
 10
-36.49748711719166
 20
12.88152061095509
 11
-36.49748711719166
 21
13.66092411603256
 72
     1
 10
-36.49748711719166
 20
13.66092411603256
 11
-35.87040646613354
 21
13.66092411603256
 72
     2
 10
-35.87040646613354
 20
14.53312712539923
 40
0.87220300936667
 50
270.0
 51
450.0
 73
     1
 72
     1
 10
-35.87040646613354
 20
15.40533013476592
 11
-37.52269737359995
 21
15.40533013476592
 97
        6
330
254
330
122
330
118
330
117
330
124
330
123
 92
       16
 93
        4
 72
     1
 10
-36.23525979360328
 20
14.85730877489811
 11
-36.49748711719166
 21
14.85730877489811
 72
     1
 10
-36.49748711719166
 20
14.85730877489811
 11
-36.49748711719166
 21
14.27406278370615
 72
     1
 10
-36.49748711719166
 20
14.27406278370615
 11
-36.23525979360328
 21
14.27406278370615
 72
     2
 10
-36.23525979360328
 20
14.56568577930214
 40
0.2916229955959899
 50
270.0
 51
450.0
 73
     1
 97
        4
330
125
330
116
330
126
330
240
 75
     1
 76
     0
 52
45.0
 41
0.1
 77
     0
 78
     1
 53
45.0
 43
0.0
 44
0.0
 45
-0.0707106781186548
 46
0.0707106781186548
 79
     0
 98
        1
 10
0.0
 20
0.0
  0
HATCH
  5
2D8
330
70
100
AcDbEntity
  8
1
  6
Continuous
 62
     2
100
AcDbHatch
 10
0.0
 20
0.0
 30
0.0
210
0.0
220
0.0
230
1.0
  2
_USER
 70
     0
 71
     1
 91
        2
 92
        1
 93
        6
 72
     1
 10
-37.52269737359995
 20
15.40533013476592
 11
-37.52269737359995
 21
12.88152061095509
 72
     1
 10
-37.52269737359995
 20
12.88152061095509
 11
-36.49748711719166
 21
12.88152061095509
 72
     1
 10
-36.49748711719166
 20
12.88152061095509
 11
-36.49748711719166
 21
13.66092411603256
 72
     1
 10
-36.49748711719166
 20
13.66092411603256
 11
-35.87040646613354
 21
13.66092411603256
 72
     2
 10
-35.87040646613354
 20
14.53312712539923
 40
0.87220300936667
 50
270.0
 51
450.0
 73
     1
 72
     1
 10
-35.87040646613354
 20
15.40533013476592
 11
-37.52269737359995
 21
15.40533013476592
 97
        6
330
254
330
122
330
118
330
117
330
124
330
123
 92
       16
 93
        4
 72
     1
 10
-36.23525979360328
 20
14.85730877489811
 11
-36.49748711719166
 21
14.85730877489811
 72
     1
 10
-36.49748711719166
 20
14.85730877489811
 11
-36.49748711719166
 21
14.27406278370615
 72
     1
 10
-36.49748711719166
 20
14.27406278370615
 11
-36.23525979360328
 21
14.27406278370615
 72
     2
 10
-36.23525979360328
 20
14.56568577930214
 40
0.2916229955959899
 50
270.0
 51
450.0
 73
     1
 97
        4
330
125
330
116
330
126
330
240
 75
     1
 76
     0
 52
45.0
 41
0.1
 77
     0
 78
     1
 53
45.0
 43
0.0
 44
0.0
 45
-0.0707106781186548
 46
0.0707106781186548
 79
     0
 98
        1
 10
0.0
 20
0.0
  0
HATCH
  5
2D9
330
70
100
AcDbEntity
  8
1
  6
Continuous
 62
     2
100
AcDbHatch
 10
0.0
 20
0.0
 30
0.0
210
0.0
220
0.0
230
1.0
  2
_USER
 70
     0
 71
     1
 91
        1
 92
        1
 93
       12
 72
     1
 10
-21.31254597324198
 20
15.40533013476592
 11
-20.15326976022777
 21
15.40533013476592
 72
     1
 10
-20.15326976022777
 20
15.40533013476592
 11
-21.2297405294563
 21
14.1880156471327
 72
     1
 10
-21.2297405294563
 20
14.1880156471327
 11
-20.07440743281142
 21
12.88152061095509
 72
     1
 10
-20.07440743281142
 20
12.88152061095509
 11
-21.23368364582654
 21
12.88152061095509
 72
     1
 10
-21.23368364582654
 20
12.88152061095509
 11
-21.80937863596329
 21
13.53253861533003
 72
     1
 10
-21.80937863596329
 20
13.53253861533003
 11
-22.38507362610027
 21
12.88152061095509
 72
     1
 10
-22.38507362610027
 20
12.88152061095509
 11
-23.54434983911528
 21
12.88152061095509
 72
     1
 10
-23.54434983911528
 20
12.88152061095509
 11
-22.3890167424704
 21
14.1880156471327
 72
     1
 10
-22.3890167424704
 20
14.1880156471327
 11
-23.46548751169973
 21
15.40533013476592
 72
     1
 10
-23.46548751169973
 20
15.40533013476592
 11
-22.30621129868382
 21
15.40533013476592
 72
     1
 10
-22.30621129868382
 20
15.40533013476592
 11
-21.80937863596329
 21
14.84349267893493
 72
     1
 10
-21.80937863596329
 20
14.84349267893493
 11
-21.31254597324198
 21
15.40533013476592
 97
       12
330
F1
330
14A
330
149
330
148
330
147
330
F2
330
F3
330
EF
330
F0
330
14D
330
14C
330
14B
 75
     1
 76
     0
 52
45.0
 41
0.1
 77
     0
 78
     1
 53
45.0
 43
0.0
 44
0.0
 45
-0.0707106781186548
 46
0.0707106781186548
 79
     0
 98
        1
 10
0.0
 20
0.0
  0
HATCH
  5
2DA
330
70
100
AcDbEntity
  8
1
  6
Continuous
 62
     2
100
AcDbHatch
 10
0.0
 20
0.0
 30
0.0
210
0.0
220
0.0
230
1.0
  2
_USER
 70
     0
 71
     1
 91
        1
 92
        1
 93
       12
 72
     1
 10
-21.31254597324198
 20
15.40533013476592
 11
-20.15326976022777
 21
15.40533013476592
 72
     1
 10
-20.15326976022777
 20
15.40533013476592
 11
-21.2297405294563
 21
14.1880156471327
 72
     1
 10
-21.2297405294563
 20
14.1880156471327
 11
-20.07440743281142
 21
12.88152061095509
 72
     1
 10
-20.07440743281142
 20
12.88152061095509
 11
-21.23368364582654
 21
12.88152061095509
 72
     1
 10
-21.23368364582654
 20
12.88152061095509
 11
-21.80937863596329
 21
13.53253861533003
 72
     1
 10
-21.80937863596329
 20
13.53253861533003
 11
-22.38507362610027
 21
12.88152061095509
 72
     1
 10
-22.38507362610027
 20
12.88152061095509
 11
-23.54434983911528
 21
12.88152061095509
 72
     1
 10
-23.54434983911528
 20
12.88152061095509
 11
-22.3890167424704
 21
14.1880156471327
 72
     1
 10
-22.3890167424704
 20
14.1880156471327
 11
-23.46548751169973
 21
15.40533013476592
 72
     1
 10
-23.46548751169973
 20
15.40533013476592
 11
-22.30621129868382
 21
15.40533013476592
 72
     1
 10
-22.30621129868382
 20
15.40533013476592
 11
-21.80937863596329
 21
14.84349267893493
 72
     1
 10
-21.80937863596329
 20
14.84349267893493
 11
-21.31254597324198
 21
15.40533013476592
 97
       12
330
F1
330
14A
330
149
330
148
330
147
330
F2
330
F3
330
EF
330
F0
330
14D
330
14C
330
14B
 75
     1
 76
     0
 52
45.0
 41
0.1
 77
     0
 78
     1
 53
45.0
 43
0.0
 44
0.0
 45
-0.0707106781186548
 46
0.0707106781186548
 79
     0
 98
        1
 10
0.0
 20
0.0
  0
HATCH
  5
2DB
330
70
100
AcDbEntity
  8
1
  6
Continuous
 62
     2
100
AcDbHatch
 10
0.0
 20
0.0
 30
0.0
210
0.0
220
0.0
230
1.0
  2
_USER
 70
     0
 71
     1
 91
        1
 92
        1
 93
        4
 72
     1
 10
-23.64292774838543
 20
15.40533013476592
 11
-23.64292774838543
 21
12.88152061095509
 72
     1
 10
-23.64292774838543
 20
12.88152061095509
 11
-24.6681380047928
 21
12.88152061095509
 72
     1
 10
-24.6681380047928
 20
12.88152061095509
 11
-24.6681380047928
 21
15.40533013476592
 72
     1
 10
-24.6681380047928
 20
15.40533013476592
 11
-23.64292774838543
 21
15.40533013476592
 97
        4
330
145
330
F4
330
144
330
146
 75
     1
 76
     0
 52
45.0
 41
0.1
 77
     0
 78
     1
 53
45.0
 43
0.0
 44
0.0
 45
-0.0707106781186548
 46
0.0707106781186548
 79
     0
 98
        1
 10
0.0
 20
0.0
  0
HATCH
  5
2DC
330
70
100
AcDbEntity
  8
1
  6
Continuous
 62
     2
100
AcDbHatch
 10
0.0
 20
0.0
 30
0.0
210
0.0
220
0.0
230
1.0
  2
_USER
 70
     0
 71
     1
 91
        1
 92
        1
 93
        4
 72
     1
 10
-23.64292774838543
 20
15.40533013476592
 11
-23.64292774838543
 21
12.88152061095509
 72
     1
 10
-23.64292774838543
 20
12.88152061095509
 11
-24.6681380047928
 21
12.88152061095509
 72
     1
 10
-24.6681380047928
 20
12.88152061095509
 11
-24.6681380047928
 21
15.40533013476592
 72
     1
 10
-24.6681380047928
 20
15.40533013476592
 11
-23.64292774838543
 21
15.40533013476592
 97
        4
330
145
330
F4
330
144
330
146
 75
     1
 76
     0
 52
45.0
 41
0.1
 77
     0
 78
     1
 53
45.0
 43
0.0
 44
0.0
 45
-0.0707106781186548
 46
0.0707106781186548
 79
     0
 98
        1
 10
0.0
 20
0.0
  0
HATCH
  5
2DD
330
70
100
AcDbEntity
  8
1
  6
Continuous
 62
     2
100
AcDbHatch
 10
0.0
 20
0.0
 30
0.0
210
0.0
220
0.0
230
1.0
  2
_USER
 70
     0
 71
     1
 91
        2
 92
        1
 93
        8
 72
     1
 10
-23.96560874303997
 20
10.10533013477794
 11
-24.99081899944815
 21
10.10533013477794
 72
     1
 10
-24.99081899944815
 20
10.10533013477794
 11
-25.16559590314716
 21
10.55240496471006
 72
     1
 10
-25.16559590314716
 20
10.55240496471006
 11
-26.1014980326297
 21
10.55240496471006
 72
     1
 10
-26.1014980326297
 20
10.55240496471006
 11
-26.27627493632871
 21
10.10533013477794
 72
     1
 10
-26.27627493632871
 20
10.10533013477794
 11
-27.30148519273609
 21
10.10533013477794
 72
     1
 10
-27.30148519273609
 20
10.10533013477794
 11
-26.14615209609212
 21
12.62913965858877
 72
     1
 10
-26.14615209609212
 20
12.62913965858877
 11
-25.12094183968486
 21
12.62913965858877
 72
     1
 10
-25.12094183968486
 20
12.62913965858877
 11
-23.96560874303997
 21
10.10533013477794
 97
        8
330
140
330
FA
330
13F
330
142
330
F7
330
141
330
F8
330
F9
 92
       16
 93
        3
 72
     1
 10
-25.88161741184865
 20
11.11485394430226
 11
-25.38547652392924
 21
11.11485394430226
 72
     1
 10
-25.38547652392924
 20
11.11485394430226
 11
-25.63354696788803
 21
11.7494117674318
 72
     1
 10
-25.63354696788803
 20
11.7494117674318
 11
-25.88161741184865
 21
11.11485394430226
 97
        3
330
F6
330
F5
330
143
 75
     1
 76
     0
 52
45.0
 41
0.1
 77
     0
 78
     1
 53
45.0
 43
0.0
 44
0.0
 45
-0.0707106781186548
 46
0.0707106781186548
 79
     0
 98
        1
 10
0.0
 20
0.0
  0
HATCH
  5
2DE
330
70
100
AcDbEntity
  8
1
  6
Continuous
 62
     2
100
AcDbHatch
 10
0.0
 20
0.0
 30
0.0
210
0.0
220
0.0
230
1.0
  2
_USER
 70
     0
 71
     1
 91
        2
 92
        1
 93
        8
 72
     1
 10
-23.96560874303997
 20
10.10533013477794
 11
-24.99081899944815
 21
10.10533013477794
 72
     1
 10
-24.99081899944815
 20
10.10533013477794
 11
-25.16559590314716
 21
10.55240496471006
 72
     1
 10
-25.16559590314716
 20
10.55240496471006
 11
-26.1014980326297
 21
10.55240496471006
 72
     1
 10
-26.1014980326297
 20
10.55240496471006
 11
-26.27627493632871
 21
10.10533013477794
 72
     1
 10
-26.27627493632871
 20
10.10533013477794
 11
-27.30148519273609
 21
10.10533013477794
 72
     1
 10
-27.30148519273609
 20
10.10533013477794
 11
-26.14615209609212
 21
12.62913965858877
 72
     1
 10
-26.14615209609212
 20
12.62913965858877
 11
-25.12094183968486
 21
12.62913965858877
 72
     1
 10
-25.12094183968486
 20
12.62913965858877
 11
-23.96560874303997
 21
10.10533013477794
 97
        8
330
140
330
FA
330
13F
330
142
330
F7
330
141
330
F8
330
F9
 92
       16
 93
        3
 72
     1
 10
-25.88161741184865
 20
11.11485394430226
 11
-25.38547652392924
 21
11.11485394430226
 72
     1
 10
-25.38547652392924
 20
11.11485394430226
 11
-25.63354696788803
 21
11.7494117674318
 72
     1
 10
-25.63354696788803
 20
11.7494117674318
 11
-25.88161741184865
 21
11.11485394430226
 97
        3
330
F6
330
F5
330
143
 75
     1
 76
     0
 52
45.0
 41
0.1
 77
     0
 78
     1
 53
45.0
 43
0.0
 44
0.0
 45
-0.0707106781186548
 46
0.0707106781186548
 79
     0
 98
        1
 10
0.0
 20
0.0
  0
HATCH
  5
2DF
330
70
100
AcDbEntity
  8
1
  6
Continuous
 62
     2
100
AcDbHatch
 10
0.0
 20
0.0
 30
0.0
210
0.0
220
0.0
230
1.0
  2
_USER
 70
     0
 71
     1
 91
        1
 92
        1
 93
        8
 72
     1
 10
-29.08455307635779
 20
12.62913965858877
 11
-29.08455307635779
 21
11.98016006675105
 72
     1
 10
-29.08455307635779
 20
11.98016006675105
 11
-28.4142232933209
 21
11.98016006675105
 72
     1
 10
-28.4142232933209
 20
11.98016006675105
 11
-28.4142232933209
 21
10.10533013477794
 72
     1
 10
-28.4142232933209
 20
10.10533013477794
 11
-27.42844420062135
 21
10.10533013477794
 72
     1
 10
-27.42844420062135
 20
10.10533013477794
 11
-27.42844420062135
 21
11.98016006675105
 72
     1
 10
-27.42844420062135
 20
11.98016006675105
 11
-26.75811441758617
 21
11.98016006675105
 72
     1
 10
-26.75811441758617
 20
11.98016006675105
 11
-26.75811441758617
 21
12.62913965858877
 72
     1
 10
-26.75811441758617
 20
12.62913965858877
 11
-29.08455307635779
 21
12.62913965858877
 97
        8
330
13C
330
13B
330
13A
330
FB
330
FC
330
13E
330
FD
330
13D
 75
     1
 76
     0
 52
45.0
 41
0.1
 77
     0
 78
     1
 53
45.0
 43
0.0
 44
0.0
 45
-0.0707106781186548
 46
0.0707106781186548
 79
     0
 98
        1
 10
0.0
 20
0.0
  0
HATCH
  5
2E0
330
70
100
AcDbEntity
  8
1
  6
Continuous
 62
     2
100
AcDbHatch
 10
0.0
 20
0.0
 30
0.0
210
0.0
220
0.0
230
1.0
  2
_USER
 70
     0
 71
     1
 91
        1
 92
        1
 93
        8
 72
     1
 10
-29.08455307635779
 20
12.62913965858877
 11
-29.08455307635779
 21
11.98016006675105
 72
     1
 10
-29.08455307635779
 20
11.98016006675105
 11
-28.4142232933209
 21
11.98016006675105
 72
     1
 10
-28.4142232933209
 20
11.98016006675105
 11
-28.4142232933209
 21
10.10533013477794
 72
     1
 10
-28.4142232933209
 20
10.10533013477794
 11
-27.42844420062135
 21
10.10533013477794
 72
     1
 10
-27.42844420062135
 20
10.10533013477794
 11
-27.42844420062135
 21
11.98016006675105
 72
     1
 10
-27.42844420062135
 20
11.98016006675105
 11
-26.75811441758617
 21
11.98016006675105
 72
     1
 10
-26.75811441758617
 20
11.98016006675105
 11
-26.75811441758617
 21
12.62913965858877
 72
     1
 10
-26.75811441758617
 20
12.62913965858877
 11
-29.08455307635779
 21
12.62913965858877
 97
        8
330
13C
330
13B
330
13A
330
FB
330
FC
330
13E
330
FD
330
13D
 75
     1
 76
     0
 52
45.0
 41
0.1
 77
     0
 78
     1
 53
45.0
 43
0.0
 44
0.0
 45
-0.0707106781186548
 46
0.0707106781186548
 79
     0
 98
        1
 10
0.0
 20
0.0
  0
HATCH
  5
2E1
330
70
100
AcDbEntity
  8
1
  6
Continuous
 62
     2
100
AcDbHatch
 10
0.0
 20
0.0
 30
0.0
210
0.0
220
0.0
230
1.0
  2
_USER
 70
     0
 71
     1
 91
        1
 92
        1
 93
       10
 72
     1
 10
-26.87628317244116
 20
15.40533013476592
 11
-27.8620622651407
 21
15.40533013476592
 72
     1
 10
-27.8620622651407
 20
15.40533013476592
 11
-27.8620622651407
 21
12.88152061095509
 72
     1
 10
-27.8620622651407
 20
12.88152061095509
 11
-26.87628317244116
 21
12.88152061095509
 72
     1
 10
-26.87628317244116
 20
12.88152061095509
 11
-26.87628317244116
 21
13.96315326401675
 72
     1
 10
-26.87628317244116
 20
13.96315326401675
 11
-25.85107291603287
 21
12.88152061095509
 72
     1
 10
-25.85107291603287
 20
12.88152061095509
 11
-24.86529382333321
 21
12.88152061095509
 72
     1
 10
-24.86529382333321
 20
12.88152061095509
 11
-24.86529382333321
 21
15.40533013476592
 72
     1
 10
-24.86529382333321
 20
15.40533013476592
 11
-25.85107291603287
 21
15.40533013476592
 72
     1
 10
-25.85107291603287
 20
15.40533013476592
 11
-25.85107291603287
 21
14.32369748170381
 72
     1
 10
-25.85107291603287
 20
14.32369748170381
 11
-26.87628317244116
 21
15.40533013476592
 97
       10
330
136
330
100
330
101
330
102
330
103
330
139
330
FE
330
138
330
137
330
FF
 75
     1
 76
     0
 52
45.0
 41
0.1
 77
     0
 78
     1
 53
45.0
 43
0.0
 44
0.0
 45
-0.0707106781186548
 46
0.0707106781186548
 79
     0
 98
        1
 10
0.0
 20
0.0
  0
HATCH
  5
2E2
330
70
100
AcDbEntity
  8
1
  6
Continuous
 62
     2
100
AcDbHatch
 10
0.0
 20
0.0
 30
0.0
210
0.0
220
0.0
230
1.0
  2
_USER
 70
     0
 71
     1
 91
        1
 92
        1
 93
       10
 72
     1
 10
-26.87628317244116
 20
15.40533013476592
 11
-27.8620622651407
 21
15.40533013476592
 72
     1
 10
-27.8620622651407
 20
15.40533013476592
 11
-27.8620622651407
 21
12.88152061095509
 72
     1
 10
-27.8620622651407
 20
12.88152061095509
 11
-26.87628317244116
 21
12.88152061095509
 72
     1
 10
-26.87628317244116
 20
12.88152061095509
 11
-26.87628317244116
 21
13.96315326401675
 72
     1
 10
-26.87628317244116
 20
13.96315326401675
 11
-25.85107291603287
 21
12.88152061095509
 72
     1
 10
-25.85107291603287
 20
12.88152061095509
 11
-24.86529382333321
 21
12.88152061095509
 72
     1
 10
-24.86529382333321
 20
12.88152061095509
 11
-24.86529382333321
 21
15.40533013476592
 72
     1
 10
-24.86529382333321
 20
15.40533013476592
 11
-25.85107291603287
 21
15.40533013476592
 72
     1
 10
-25.85107291603287
 20
15.40533013476592
 11
-25.85107291603287
 21
14.32369748170381
 72
     1
 10
-25.85107291603287
 20
14.32369748170381
 11
-26.87628317244116
 21
15.40533013476592
 97
       10
330
136
330
100
330
101
330
102
330
103
330
139
330
FE
330
138
330
137
330
FF
 75
     1
 76
     0
 52
45.0
 41
0.1
 77
     0
 78
     1
 53
45.0
 43
0.0
 44
0.0
 45
-0.0707106781186548
 46
0.0707106781186548
 79
     0
 98
        1
 10
0.0
 20
0.0
  0
HATCH
  5
2E3
330
70
100
AcDbEntity
  8
1
  6
Continuous
 62
     2
100
AcDbHatch
 10
0.0
 20
0.0
 30
0.0
210
0.0
220
0.0
230
1.0
  2
_USER
 70
     0
 71
     1
 91
        1
 92
        1
 93
       10
 72
     1
 10
-31.21383591658877
 20
12.62913965858877
 11
-32.19961500928923
 21
12.62913965858877
 72
     1
 10
-32.19961500928923
 20
12.62913965858877
 11
-32.19961500928923
 21
10.10533013477794
 72
     1
 10
-32.19961500928923
 20
10.10533013477794
 11
-31.21383591658877
 21
10.10533013477794
 72
     1
 10
-31.21383591658877
 20
10.10533013477794
 11
-31.21383591658877
 21
11.18696278783959
 72
     1
 10
-31.21383591658877
 20
11.18696278783959
 11
-30.1886256601814
 21
10.10533013477794
 72
     1
 10
-30.1886256601814
 20
10.10533013477794
 11
-29.20284656748185
 21
10.10533013477794
 72
     1
 10
-29.20284656748185
 20
10.10533013477794
 11
-29.20284656748185
 21
12.62913965858877
 72
     1
 10
-29.20284656748185
 20
12.62913965858877
 11
-30.1886256601814
 21
12.62913965858877
 72
     1
 10
-30.1886256601814
 20
12.62913965858877
 11
-30.1886256601814
 21
11.54750700552666
 72
     1
 10
-30.1886256601814
 20
11.54750700552666
 11
-31.21383591658877
 21
12.62913965858877
 97
       10
330
105
330
106
330
107
330
133
330
108
330
109
330
132
330
135
330
134
330
104
 75
     1
 76
     0
 52
45.0
 41
0.1
 77
     0
 78
     1
 53
45.0
 43
0.0
 44
0.0
 45
-0.0707106781186548
 46
0.0707106781186548
 79
     0
 98
        1
 10
0.0
 20
0.0
  0
HATCH
  5
2E4
330
70
100
AcDbEntity
  8
1
  6
Continuous
 62
     2
100
AcDbHatch
 10
0.0
 20
0.0
 30
0.0
210
0.0
220
0.0
230
1.0
  2
_USER
 70
     0
 71
     1
 91
        1
 92
        1
 93
       10
 72
     1
 10
-31.21383591658877
 20
12.62913965858877
 11
-32.19961500928923
 21
12.62913965858877
 72
     1
 10
-32.19961500928923
 20
12.62913965858877
 11
-32.19961500928923
 21
10.10533013477794
 72
     1
 10
-32.19961500928923
 20
10.10533013477794
 11
-31.21383591658877
 21
10.10533013477794
 72
     1
 10
-31.21383591658877
 20
10.10533013477794
 11
-31.21383591658877
 21
11.18696278783959
 72
     1
 10
-31.21383591658877
 20
11.18696278783959
 11
-30.1886256601814
 21
10.10533013477794
 72
     1
 10
-30.1886256601814
 20
10.10533013477794
 11
-29.20284656748185
 21
10.10533013477794
 72
     1
 10
-29.20284656748185
 20
10.10533013477794
 11
-29.20284656748185
 21
12.62913965858877
 72
     1
 10
-29.20284656748185
 20
12.62913965858877
 11
-30.1886256601814
 21
12.62913965858877
 72
     1
 10
-30.1886256601814
 20
12.62913965858877
 11
-30.1886256601814
 21
11.54750700552666
 72
     1
 10
-30.1886256601814
 20
11.54750700552666
 11
-31.21383591658877
 21
12.62913965858877
 97
       10
330
105
330
106
330
107
330
133
330
108
330
109
330
132
330
135
330
134
330
104
 75
     1
 76
     0
 52
45.0
 41
0.1
 77
     0
 78
     1
 53
45.0
 43
0.0
 44
0.0
 45
-0.0707106781186548
 46
0.0707106781186548
 79
     0
 98
        1
 10
0.0
 20
0.0
  0
HATCH
  5
2E5
330
70
100
AcDbEntity
  8
1
  6
Continuous
 62
     2
100
AcDbHatch
 10
0.0
 20
0.0
 30
0.0
210
0.0
220
0.0
230
1.0
  2
_USER
 70
     0
 71
     1
 91
        1
 92
        1
 93
       12
 72
     1
 10
-32.04176561818826
 20
15.40533013476592
 11
-32.04176561818826
 21
12.88152061095509
 72
     1
 10
-32.04176561818826
 20
12.88152061095509
 11
-33.0275447108878
 21
12.88152061095509
 72
     1
 10
-33.0275447108878
 20
12.88152061095509
 11
-33.0275447108878
 21
13.81893557694165
 72
     1
 10
-33.0275447108878
 20
13.81893557694165
 11
-33.89503031246419
 21
13.81893557694165
 72
     1
 10
-33.89503031246419
 20
13.81893557694165
 11
-33.89503031246419
 21
12.88152061095509
 72
     1
 10
-33.89503031246419
 20
12.88152061095509
 11
-34.88080940516385
 21
12.88152061095509
 72
     1
 10
-34.88080940516385
 20
12.88152061095509
 11
-34.88080940516385
 21
15.40533013476592
 72
     1
 10
-34.88080940516385
 20
15.40533013476592
 11
-33.89503031246419
 21
15.40533013476592
 72
     1
 10
-33.89503031246419
 20
15.40533013476592
 11
-33.89503031246419
 21
14.52199680143156
 72
     1
 10
-33.89503031246419
 20
14.52199680143156
 11
-33.0275447108878
 21
14.52199680143156
 72
     1
 10
-33.0275447108878
 20
14.52199680143156
 11
-33.0275447108878
 21
15.40533013476592
 72
     1
 10
-33.0275447108878
 20
15.40533013476592
 11
-32.04176561818826
 21
15.40533013476592
 97
       12
330
12D
330
12C
330
12B
330
113
330
114
330
12A
330
115
330
129
330
128
330
127
330
111
330
112
 75
     1
 76
     0
 52
45.0
 41
0.1
 77
     0
 78
     1
 53
45.0
 43
0.0
 44
0.0
 45
-0.0707106781186548
 46
0.0707106781186548
 79
     0
 98
        1
 10
0.0
 20
0.0
  0
HATCH
  5
2E6
330
70
100
AcDbEntity
  8
1
  6
Continuous
 62
     2
100
AcDbHatch
 10
0.0
 20
0.0
 30
0.0
210
0.0
220
0.0
230
1.0
  2
_USER
 70
     0
 71
     1
 91
        1
 92
        1
 93
       12
 72
     1
 10
-32.04176561818826
 20
15.40533013476592
 11
-32.04176561818826
 21
12.88152061095509
 72
     1
 10
-32.04176561818826
 20
12.88152061095509
 11
-33.0275447108878
 21
12.88152061095509
 72
     1
 10
-33.0275447108878
 20
12.88152061095509
 11
-33.0275447108878
 21
13.81893557694165
 72
     1
 10
-33.0275447108878
 20
13.81893557694165
 11
-33.89503031246419
 21
13.81893557694165
 72
     1
 10
-33.89503031246419
 20
13.81893557694165
 11
-33.89503031246419
 21
12.88152061095509
 72
     1
 10
-33.89503031246419
 20
12.88152061095509
 11
-34.88080940516385
 21
12.88152061095509
 72
     1
 10
-34.88080940516385
 20
12.88152061095509
 11
-34.88080940516385
 21
15.40533013476592
 72
     1
 10
-34.88080940516385
 20
15.40533013476592
 11
-33.89503031246419
 21
15.40533013476592
 72
     1
 10
-33.89503031246419
 20
15.40533013476592
 11
-33.89503031246419
 21
14.52199680143156
 72
     1
 10
-33.89503031246419
 20
14.52199680143156
 11
-33.0275447108878
 21
14.52199680143156
 72
     1
 10
-33.0275447108878
 20
14.52199680143156
 11
-33.0275447108878
 21
15.40533013476592
 72
     1
 10
-33.0275447108878
 20
15.40533013476592
 11
-32.04176561818826
 21
15.40533013476592
 97
       12
330
12D
330
12C
330
12B
330
113
330
114
330
12A
330
115
330
129
330
128
330
127
330
111
330
112
 75
     1
 76
     0
 52
45.0
 41
0.1
 77
     0
 78
     1
 53
45.0
 43
0.0
 44
0.0
 45
-0.0707106781186548
 46
0.0707106781186548
 79
     0
 98
        1
 10
0.0
 20
0.0
  0
ENDBLK
  5
72
330
70
100
AcDbEntity
  8
0
100
AcDbBlockEnd
  0
BLOCK
  5
76
330
73
100
AcDbEntity
  8
0
100
AcDbBlockBegin
  2
A4I
 70
     0
 10
79.74312096396574
 20
-0.74466986522802
 30
0.0
  3
A4I
  1

  0
INSERT
  5
74
330
73
100
AcDbEntity
  8
1
100
AcDbBlockReference
  2
_punkt
 10
79.74312096396574
 20
4.25533013477209
 30
0.0
  0
INSERT
  5
75
330
73
100
AcDbEntity
  8
1
100
AcDbBlockReference
  2
_rahmen
 10
79.74312096396574
 20
-0.74466986522802
 30
0.0
  0
ENDBLK
  5
77
330
73
100
AcDbEntity
  8
0
100
AcDbBlockEnd
  0
BLOCK
  5
BA
330
B1
100
AcDbEntity
  8
0
100
AcDbBlockBegin
  2
*D16
 70
     1
 10
0.0
 20
0.0
 30
0.0
  3
*D16
  1

  0
LINE
  5
B2
330
B1
100
AcDbEntity
  8
1
  6
Continuous
 62
     2
100
AcDbLine
 10
-66.999999999985
 20
101.004495725384
 30
0.0
 11
-59.99999999998499
 21
101.004495725384
 31
0.0
  0
LINE
  5
B3
330
B1
100
AcDbEntity
  8
1
  6
Continuous
 62
     2
100
AcDbLine
 10
-59.99999999998499
 20
101.004495725384
 30
0.0
 11
-55.99999999998499
 21
101.004495725384
 31
0.0
  0
LINE
  5
B4
330
B1
100
AcDbEntity
  8
1
  6
Continuous
 62
     2
100
AcDbLine
 10
-55.99999999998499
 20
101.004495725384
 30
0.0
 11
-45.3075711212915
 21
101.004495725384
 31
0.0
  0
LINE
  5
B5
330
B1
100
AcDbEntity
  8
1
  6
Continuous
 62
     2
100
AcDbLine
 10
-59.99999999998499
 20
113.5892087670343
 30
0.0
 11
-59.99999999998499
 21
99.004495725384
 31
0.0
  0
LINE
  5
B6
330
B1
100
AcDbEntity
  8
1
  6
Continuous
 62
     2
100
AcDbLine
 10
-55.99999999998499
 20
113.5892087670342
 30
0.0
 11
-55.99999999998499
 21
99.004495725384
 31
0.0
  0
SOLID
  5
B7
330
B1
100
AcDbEntity
  8
1
 62
     2
100
AcDbTrace
 10
-63.49999999998499
 20
100.5437119838281
 30
0.0
 11
-63.49999999998499
 21
101.4652794669399
 31
0.0
 12
-59.99999999998499
 22
101.004495725384
 32
0.0
 13
-59.99999999998499
 23
101.004495725384
 33
0.0
  0
SOLID
  5
B8
330
B1
100
AcDbEntity
  8
1
 62
     2
100
AcDbTrace
 10
-52.49999999998499
 20
101.4652794669399
 30
0.0
 11
-52.49999999998499
 21
100.5437119838281
 31
0.0
 12
-55.99999999998499
 22
101.004495725384
 32
0.0
 13
-55.99999999998499
 23
101.004495725384
 33
0.0
  0
MTEXT
  5
B9
330
B1
100
AcDbEntity
  8
1
 62
     3
100
AcDbMText
 10
-47.4075711212915
 20
103.004495725384
 30
0.0
 40
3.5
 41
0.0
 71
     7
 72
     1
  1
4
  7
CONVERTER_11
 11
0.9999999999970619
 21
2.424068405545306E-6
 31
0.0
 73
     1
 44
0.60024009603842
  0
ENDBLK
  5
BB
330
B1
100
AcDbEntity
  8
0
100
AcDbBlockEnd
  0
BLOCK
  5
D9
330
D2
100
AcDbEntity
  8
0
100
AcDbBlockBegin
  2
*D17
 70
     1
 10
0.0
 20
0.0
 30
0.0
  3
*D17
  1

  0
LINE
  5
D3
330
D2
100
AcDbEntity
  8
1
  6
Continuous
 62
     2
100
AcDbLine
 10
-139.4872209963842
 20
101.004495725384
 30
0.0
 11
-93.99999923583363
 21
101.004495725384
 31
0.0
  0
LINE
  5
D4
330
D2
100
AcDbEntity
  8
1
  6
Continuous
 62
     2
100
AcDbLine
 10
-139.4872209963842
 20
165.4108364362869
 30
0.0
 11
-139.4872209963842
 21
99.004495725384
 31
0.0
  0
LINE
  5
D5
330
D2
100
AcDbEntity
  8
1
  6
Continuous
 62
     2
100
AcDbLine
 10
-93.99999923583363
 20
167.9108364362918
 30
0.0
 11
-93.99999923583363
 21
99.004495725384
 31
0.0
  0
SOLID
  5
D6
330
D2
100
AcDbEntity
  8
1
 62
     2
100
AcDbTrace
 10
-135.9872209963842
 20
101.4652794669399
 30
0.0
 11
-135.9872209963842
 21
100.5437119838281
 31
0.0
 12
-139.4872209963842
 22
101.004495725384
 32
0.0
 13
-139.4872209963842
 23
101.004495725384
 33
0.0
  0
SOLID
  5
D7
330
D2
100
AcDbEntity
  8
1
 62
     2
100
AcDbTrace
 10
-97.49999923583363
 20
100.5437119838281
 30
0.0
 11
-97.49999923583363
 21
101.4652794669399
 31
0.0
 12
-93.99999923583363
 22
101.004495725384
 32
0.0
 13
-93.99999923583363
 23
101.004495725384
 33
0.0
  0
MTEXT
  5
D8
330
D2
100
AcDbEntity
  8
1
 62
     3
100
AcDbMText
 10
-121.774604811894
 20
103.354495725384
 30
0.0
 40
3.5
 41
0.0
 71
     7
 72
     1
  1
45,5
  7
CONVERTER_11
 11
0.9999999999970619
 21
2.424068405545306E-6
 31
0.0
 73
     1
 44
0.60024009603842
  0
ENDBLK
  5
DA
330
D2
100
AcDbEntity
  8
0
100
AcDbBlockEnd
  0
BLOCK
  5
E4
330
DD
100
AcDbEntity
  8
0
100
AcDbBlockBegin
  2
*D18
 70
     1
 10
0.0
 20
0.0
 30
0.0
  3
*D18
  1

  0
LINE
  5
DE
330
DD
100
AcDbEntity
  8
1
  6
Continuous
 62
     2
100
AcDbLine
 10
-80.8095820825203
 20
113.5891626022578
 30
0.0
 11
-80.8095820825203
 21
168.4108364362917
 31
0.0
  0
LINE
  5
DF
330
DD
100
AcDbEntity
  8
1
  6
Continuous
 62
     2
100
AcDbLine
 10
-94.49999923582746
 20
113.5891626022578
 30
0.0
 11
-78.8095820825203
 21
113.5891626022578
 31
0.0
  0
LINE
  5
E0
330
DD
100
AcDbEntity
  8
1
  6
Continuous
 62
     2
100
AcDbLine
 10
-94.49999923583368
 20
168.4108364362917
 30
0.0
 11
-78.8095820825203
 21
168.4108364362917
 31
0.0
  0
SOLID
  5
E1
330
DD
100
AcDbEntity
  8
1
 62
     2
100
AcDbTrace
 10
-81.27036582407618
 20
117.0891626022578
 30
0.0
 11
-80.34879834096441
 21
117.0891626022578
 31
0.0
 12
-80.8095820825203
 22
113.5891626022578
 32
0.0
 13
-80.8095820825203
 23
113.5891626022578
 33
0.0
  0
SOLID
  5
E2
330
DD
100
AcDbEntity
  8
1
 62
     2
100
AcDbTrace
 10
-80.34879834096441
 20
164.9108364362917
 30
0.0
 11
-81.27036582407618
 21
164.9108364362917
 31
0.0
 12
-80.8095820825203
 22
168.4108364362917
 32
0.0
 13
-80.8095820825203
 23
168.4108364362917
 33
0.0
  0
MTEXT
  5
E3
330
DD
100
AcDbEntity
  8
1
 62
     3
100
AcDbMText
 10
-83.15958208252029
 20
136.506519357189
 30
0.0
 40
3.5
 41
0.0
 71
     7
 72
     1
  1
54,8
  7
CONVERTER_11
 11
0.0
 21
1.0
 31
0.0
 73
     1
 44
0.60024009603842
  0
ENDBLK
  5
E5
330
DD
100
AcDbEntity
  8
0
100
AcDbBlockEnd
  0
ENDSEC
  0
SECTION
  2
ENTITIES
  0
INSERT
  5
78
330
1F
100
AcDbEntity
  8
0
100
AcDbBlockReference
  2
AllgSicht1
 10
42.00000000000009
 20
71.99999999999295
 30
0.0
  0
INSERT
  5
79
330
1F
100
AcDbEntity
  8
0
100
AcDbBlockReference
  2
Drfsicht1
 10
-116.7436096179121
 20
81.58916329267143
 30
0.0
  0
INSERT
  5
7A
330
1F
100
AcDbEntity
  8
0
100
AcDbBlockReference
  2
Rckans1
 10
-1.81431311450422
 20
140.999999999995
 30
0.0
  0
INSERT
  5
7B
330
1F
100
AcDbEntity
  8
0
100
AcDbBlockReference
  2
SA_Links1
 10
-57.99999999999
 20
140.99999999999
 30
0.0
  0
INSERT
  5
7C
330
1F
100
AcDbEntity
  8
0
100
AcDbBlockReference
  2
SA_Rechts1
 10
-163.728504036094
 20
140.999999999995
 30
0.0
  0
INSERT
  5
7D
330
1F
100
AcDbEntity
  8
0
100
AcDbBlockReference
  2
Vordans1
 10
-116.7436096179121
 20
140.999999999995
 30
0.0
  0
INSERT
  5
7E
330
1F
100
AcDbEntity
  8
0
100
AcDbBlockReference
  2
A4I
 10
79.74312096396574
 20
-0.74466986522802
 30
0.0
  0
ENDSEC
  0
SECTION
  2
OBJECTS
  0
DICTIONARY
  5
C
330
0
100
AcDbDictionary
281
     1
  3
ACAD_GROUP
350
D
  3
ACAD_LAYOUT
350
1A
  3
ACAD_MLEADERSTYLE
350
2E8
  3
ACAD_MLINESTYLE
350
17
  3
ACAD_PLOTSETTINGS
350
19
  3
ACAD_PLOTSTYLENAME
350
E
  3
ACAD_TABLESTYLE
350
2E7
  3
ACAD_VISUALSTYLE
350
2A
  0
DICTIONARY
  5
D
102
{ACAD_REACTORS
330
C
102
}
330
C
100
AcDbDictionary
281
     1
  0
DICTIONARY
  5
1A
102
{ACAD_REACTORS
330
C
102
}
330
C
100
AcDbDictionary
281
     1
  3
Layout1
350
1E
  3
Layout2
350
26
  3
Model
350
22
  0
DICTIONARY
  5
2E8
102
{ACAD_REACTORS
330
C
102
}
330
C
100
AcDbDictionary
281
     1
  0
DICTIONARY
  5
17
102
{ACAD_REACTORS
330
C
102
}
330
C
100
AcDbDictionary
281
     1
  3
Standard
350
18
  0
DICTIONARY
  5
19
102
{ACAD_REACTORS
330
C
102
}
330
C
100
AcDbDictionary
281
     1
  0
ACDBDICTIONARYWDFLT
  5
E
102
{ACAD_REACTORS
330
C
102
}
330
C
100
AcDbDictionary
281
     1
  3
Normal
350
F
100
AcDbDictionaryWithDefault
340
F
  0
DICTIONARY
  5
2E7
102
{ACAD_REACTORS
330
C
102
}
330
C
100
AcDbDictionary
281
     1
  0
DICTIONARY
  5
2A
102
{ACAD_REACTORS
330
C
102
}
330
C
100
AcDbDictionary
281
     1
  3
2dWireframe
350
2F
  3
3D Hidden
350
31
  3
3dWireframe
350
30
  3
Basic
350
32
  3
Brighten
350
36
  3
ColorChange
350
3A
  3
Conceptual
350
34
  3
Dim
350
35
  3
Facepattern
350
39
  3
Flat
350
2B
  3
FlatWithEdges
350
2C
  3
Gouraud
350
2D
  3
GouraudWithEdges
350
2E
  3
Linepattern
350
38
  3
Realistic
350
33
  3
Thicken
350
37
  0
LAYOUT
  5
1E
102
{ACAD_REACTORS
330
1A
102
}
330
1A
100
AcDbPlotSettings
  1

  2
none_device
  4

  6

 40
0.0
 41
0.0
 42
0.0
 43
0.0
 44
0.0
 45
0.0
 46
0.0
 47
0.0
 48
0.0
 49
0.0
140
0.0
141
0.0
142
1.0
143
1.0
 70
   688
 72
     0
 73
     0
 74
     5
  7

 75
    16
147
1.0
148
0.0
149
0.0
100
AcDbLayout
  1
Layout1
 70
     1
 71
     1
 10
0.0
 20
0.0
 11
12.0
 21
9.0
 12
0.0
 22
0.0
 32
0.0
 14
1.00000000000000E+20
 24
1.00000000000000E+20
 34
1.00000000000000E+20
 15
-1.00000000000000E+20
 25
-1.00000000000000E+20
 35
-1.00000000000000E+20
146
0.0
 13
0.0
 23
0.0
 33
0.0
 16
1.0
 26
0.0
 36
0.0
 17
0.0
 27
1.0
 37
0.0
 76
     0
330
1B
  0
LAYOUT
  5
26
102
{ACAD_REACTORS
330
1A
102
}
330
1A
100
AcDbPlotSettings
  1

  2
none_device
  4

  6

 40
0.0
 41
0.0
 42
0.0
 43
0.0
 44
0.0
 45
0.0
 46
0.0
 47
0.0
 48
0.0
 49
0.0
140
0.0
141
0.0
142
1.0
143
1.0
 70
   688
 72
     0
 73
     0
 74
     5
  7

 75
    16
147
1.0
148
0.0
149
0.0
100
AcDbLayout
  1
Layout2
 70
     1
 71
     2
 10
0.0
 20
0.0
 11
0.0
 21
0.0
 12
0.0
 22
0.0
 32
0.0
 14
0.0
 24
0.0
 34
0.0
 15
0.0
 25
0.0
 35
0.0
146
0.0
 13
0.0
 23
0.0
 33
0.0
 16
1.0
 26
0.0
 36
0.0
 17
0.0
 27
1.0
 37
0.0
 76
     0
330
23
  0
LAYOUT
  5
22
102
{ACAD_REACTORS
330
1A
102
}
330
1A
100
AcDbPlotSettings
  1

  2
none_device
  4

  6

 40
0.0
 41
0.0
 42
0.0
 43
0.0
 44
0.0
 45
0.0
 46
0.0
 47
0.0
 48
0.0
 49
0.0
140
0.0
141
0.0
142
1.0
143
1.0
 70
  1712
 72
     0
 73
     0
 74
     0
  7

 75
     0
147
1.0
148
0.0
149
0.0
100
AcDbLayout
  1
Model
 70
     1
 71
     0
 10
0.0
 20
0.0
 11
12.0
 21
9.0
 12
0.0
 22
0.0
 32
0.0
 14
-212.2568790360334
 24
-0.74466986522802
 34
0.0
 15
84.74312096396474
 25
209.255330134772
 35
0.0
146
0.0
 13
0.0
 23
0.0
 33
0.0
 16
1.0
 26
0.0
 36
0.0
 17
0.0
 27
1.0
 37
0.0
 76
     0
330
1F
331
29
  0
MLINESTYLE
  5
18
102
{ACAD_REACTORS
330
17
102
}
330
17
100
AcDbMlineStyle
  2
Standard
 70
     0
  3

 62
   256
 51
90.0
 52
90.0
 71
     2
 49
0.5
 62
   256
  6
BYLAYER
 49
-0.5
 62
   256
  6
BYLAYER
  0
ACDBPLACEHOLDER
  5
F
102
{ACAD_REACTORS
330
E
102
}
330
E
  0
VISUALSTYLE
  5
2F
102
{ACAD_REACTORS
330
2A
102
}
330
2A
100
AcDbVisualStyle
  2
2dWireframe
 70
     4
 71
     0
 72
     2
 73
     0
 90
        0
 40
-0.6
 41
-30.0
 62
     5
 63
     7
 74
     1
 91
        4
 64
     7
 65
   257
 75
     1
175
     1
 42
1.0
 92
        0
 66
   257
 43
1.0
 76
     1
 77
     6
 78
     2
 67
     7
 79
     5
170
     0
171
     0
290
     0
174
     0
 93
        1
 44
0.0
173
     0
291
     0
 45
0.0
1001
ACAD
1000
AcDbSavedByObjectVersion
1070
     0
  0
VISUALSTYLE
  5
31
102
{ACAD_REACTORS
330
2A
102
}
330
2A
100
AcDbVisualStyle
  2
3D Hidden
 70
     6
 71
     1
 72
     2
 73
     2
 90
        0
 40
-0.6
 41
-30.0
 62
     5
 63
     7
 74
     2
 91
        2
 64
     7
 65
   257
 75
     2
175
     1
 42
40.0
 92
        0
 66
   257
 43
1.0
 76
     1
 77
     6
 78
     2
 67
     7
 79
     3
170
     0
171
     0
290
     0
174
     0
 93
        1
 44
0.0
173
     0
291
     0
 45
0.0
1001
ACAD
1000
AcDbSavedByObjectVersion
1070
     0
  0
VISUALSTYLE
  5
30
102
{ACAD_REACTORS
330
2A
102
}
330
2A
100
AcDbVisualStyle
  2
3dWireframe
 70
     5
 71
     0
 72
     2
 73
     0
 90
        0
 40
-0.6
 41
-30.0
 62
     5
 63
     7
 74
     1
 91
        4
 64
     7
 65
   257
 75
     1
175
     1
 42
1.0
 92
        0
 66
   257
 43
1.0
 76
     1
 77
     6
 78
     2
 67
     7
 79
     5
170
     0
171
     0
290
     0
174
     0
 93
        1
 44
0.0
173
     0
291
     0
 45
0.0
1001
ACAD
1000
AcDbSavedByObjectVersion
1070
     0
  0
VISUALSTYLE
  5
32
102
{ACAD_REACTORS
330
2A
102
}
330
2A
100
AcDbVisualStyle
  2
Basic
 70
     7
 71
     1
 72
     0
 73
     1
 90
        0
 40
-0.6
 41
-30.0
 62
     5
 63
     7
 74
     0
 91
        4
 64
     7
 65
   257
 75
     1
175
     1
 42
1.0
 92
        8
 66
     7
 43
1.0
 76
     1
 77
     6
 78
     2
 67
     7
 79
     5
170
     0
171
     0
290
     0
174
     0
 93
        1
 44
0.0
173
     0
291
     1
 45
0.0
1001
ACAD
1000
AcDbSavedByObjectVersion
1070
     0
  0
VISUALSTYLE
  5
36
102
{ACAD_REACTORS
330
2A
102
}
330
2A
100
AcDbVisualStyle
  2
Brighten
 70
    12
 71
     2
 72
     2
 73
     0
 90
        0
 40
-0.6
 41
-30.0
 62
     5
 63
     7
 74
     1
 91
        4
 64
     7
 65
   257
 75
     1
175
     1
 42
1.0
 92
        8
 66
     7
 43
1.0
 76
     1
 77
     6
 78
     2
 67
     7
 79
     5
170
     0
171
     0
290
     0
174
     0
 93
        1
 44
50.0
173
     0
291
     1
 45
0.0
1001
ACAD
1000
AcDbSavedByObjectVersion
1070
     0
  0
VISUALSTYLE
  5
3A
102
{ACAD_REACTORS
330
2A
102
}
330
2A
100
AcDbVisualStyle
  2
ColorChange
 70
    16
 71
     2
 72
     2
 73
     3
 90
        0
 40
-0.6
 41
-30.0
 62
     5
 63
     8
 74
     1
 91
        4
 64
     7
 65
   257
 75
     1
175
     1
 42
1.0
 92
        8
 66
     8
 43
1.0
 76
     1
 77
     6
 78
     2
 67
     7
 79
     5
170
     0
171
     0
290
     0
174
     0
 93
        1
 44
0.0
173
     0
291
     1
 45
0.0
1001
ACAD
1000
AcDbSavedByObjectVersion
1070
     0
  0
VISUALSTYLE
  5
34
102
{ACAD_REACTORS
330
2A
102
}
330
2A
100
AcDbVisualStyle
  2
Conceptual
 70
     9
 71
     3
 72
     2
 73
     0
 90
        0
 40
-0.6
 41
-30.0
 62
     5
 63
     7
 74
     2
 91
        2
 64
     7
 65
   257
 75
     1
175
     1
 42
40.0
 92
        8
 66
     7
 43
1.0
 76
     1
 77
     6
 78
     2
 67
     7
 79
     3
170
     0
171
     0
290
     0
174
     0
 93
        1
 44
0.0
173
     0
291
     0
 45
0.0
1001
ACAD
1000
AcDbSavedByObjectVersion
1070
     0
  0
VISUALSTYLE
  5
35
102
{ACAD_REACTORS
330
2A
102
}
330
2A
100
AcDbVisualStyle
  2
Dim
 70
    11
 71
     2
 72
     2
 73
     0
 90
        0
 40
-0.6
 41
-30.0
 62
     5
 63
     7
 74
     1
 91
        4
 64
     7
 65
   257
 75
     1
175
     1
 42
1.0
 92
        8
 66
     7
 43
1.0
 76
     1
 77
     6
 78
     2
 67
     7
 79
     5
170
     0
171
     0
290
     0
174
     0
 93
        1
 44
-50.0
173
     0
291
     1
 45
0.0
1001
ACAD
1000
AcDbSavedByObjectVersion
1070
     0
  0
VISUALSTYLE
  5
39
102
{ACAD_REACTORS
330
2A
102
}
330
2A
100
AcDbVisualStyle
  2
Facepattern
 70
    15
 71
     2
 72
     2
 73
     0
 90
        0
 40
-0.6
 41
-30.0
 62
     5
 63
     7
 74
     1
 91
        4
 64
     7
 65
   257
 75
     1
175
     1
 42
1.0
 92
        8
 66
     7
 43
1.0
 76
     1
 77
     6
 78
     2
 67
     7
 79
     5
170
     0
171
     0
290
     0
174
     0
 93
        1
 44
0.0
173
     0
291
     1
 45
0.0
1001
ACAD
1000
AcDbSavedByObjectVersion
1070
     0
  0
VISUALSTYLE
  5
2B
102
{ACAD_REACTORS
330
2A
102
}
330
2A
100
AcDbVisualStyle
  2
Flat
 70
     0
 71
     2
 72
     1
 73
     1
 90
        2
 40
-0.6
 41
30.0
 62
     5
 63
     7
 74
     0
 91
        4
 64
     7
 65
   257
 75
     1
175
     1
 42
1.0
 92
        8
 66
     7
 43
1.0
 76
     1
 77
     6
 78
     2
 67
     7
 79
     5
170
     0
171
     0
290
     0
174
     0
 93
       13
 44
0.0
173
     0
291
     1
 45
0.0
1001
ACAD
1000
AcDbSavedByObjectVersion
1070
     0
  0
VISUALSTYLE
  5
2C
102
{ACAD_REACTORS
330
2A
102
}
330
2A
100
AcDbVisualStyle
  2
FlatWithEdges
 70
     1
 71
     2
 72
     1
 73
     1
 90
        2
 40
-0.6
 41
30.0
 62
     5
 63
     7
 74
     1
 91
        4
 64
     7
 65
   257
 75
     1
175
     1
 42
1.0
 92
        0
 66
   257
 43
1.0
 76
     1
 77
     6
 78
     2
 67
     7
 79
     5
170
     0
171
     0
290
     0
174
     0
 93
       13
 44
0.0
173
     0
291
     1
 45
0.0
1001
ACAD
1000
AcDbSavedByObjectVersion
1070
     0
  0
VISUALSTYLE
  5
2D
102
{ACAD_REACTORS
330
2A
102
}
330
2A
100
AcDbVisualStyle
  2
Gouraud
 70
     2
 71
     2
 72
     2
 73
     1
 90
        2
 40
-0.6
 41
30.0
 62
     5
 63
     7
 74
     0
 91
        4
 64
     7
 65
   257
 75
     1
175
     1
 42
1.0
 92
        0
 66
     7
 43
1.0
 76
     1
 77
     6
 78
     2
 67
     7
 79
     5
170
     0
171
     0
290
     0
174
     0
 93
       13
 44
0.0
173
     0
291
     1
 45
0.0
1001
ACAD
1000
AcDbSavedByObjectVersion
1070
     0
  0
VISUALSTYLE
  5
2E
102
{ACAD_REACTORS
330
2A
102
}
330
2A
100
AcDbVisualStyle
  2
GouraudWithEdges
 70
     3
 71
     2
 72
     2
 73
     1
 90
        2
 40
-0.6
 41
30.0
 62
     5
 63
     7
 74
     1
 91
        4
 64
     7
 65
   257
 75
     1
175
     1
 42
1.0
 92
        0
 66
   257
 43
1.0
 76
     1
 77
     6
 78
     2
 67
     7
 79
     5
170
     0
171
     0
290
     0
174
     0
 93
       13
 44
0.0
173
     0
291
     1
 45
0.0
1001
ACAD
1000
AcDbSavedByObjectVersion
1070
     0
  0
VISUALSTYLE
  5
38
102
{ACAD_REACTORS
330
2A
102
}
330
2A
100
AcDbVisualStyle
  2
Linepattern
 70
    14
 71
     2
 72
     2
 73
     0
 90
        0
 40
-0.6
 41
-30.0
 62
     5
 63
     7
 74
     1
 91
        4
 64
     7
 65
   257
 75
     7
175
     7
 42
1.0
 92
        8
 66
     7
 43
1.0
 76
     1
 77
     6
 78
     2
 67
     7
 79
     5
170
     0
171
     0
290
     0
174
     0
 93
        1
 44
0.0
173
     0
291
     1
 45
0.0
1001
ACAD
1000
AcDbSavedByObjectVersion
1070
     0
  0
VISUALSTYLE
  5
33
102
{ACAD_REACTORS
330
2A
102
}
330
2A
100
AcDbVisualStyle
  2
Realistic
 70
     8
 71
     2
 72
     2
 73
     0
 90
        0
 40
-0.6
 41
-30.0
 62
     5
 63
     7
 74
     1
 91
        0
 64
     7
 65
   257
 75
     1
175
     1
 42
1.0
 92
        8
 66
     8
 43
1.0
 76
     1
 77
     6
 78
     2
 67
     7
 79
     5
170
     0
171
     0
290
     0
174
     0
 93
       13
 44
0.0
173
     0
291
     0
 45
0.0
1001
ACAD
1000
AcDbSavedByObjectVersion
1070
     0
  0
VISUALSTYLE
  5
37
102
{ACAD_REACTORS
330
2A
102
}
330
2A
100
AcDbVisualStyle
  2
Thicken
 70
    13
 71
     2
 72
     2
 73
     0
 90
        0
 40
-0.6
 41
-30.0
 62
     5
 63
     7
 74
     1
 91
        4
 64
     7
 65
   257
 75
     1
175
     1
 42
1.0
 92
       12
 66
     7
 43
1.0
 76
     1
 77
     6
 78
     2
 67
     7
 79
     5
170
     0
171
     0
290
     0
174
     0
 93
        1
 44
0.0
173
     0
291
     1
 45
0.0
1001
ACAD
1000
AcDbSavedByObjectVersion
1070
     0
  0
ENDSEC
  0
EOF
