  0
SECTION
  2
HEADER
  9
$ACADVER
  1
AC1015
  9
$ACADMAINTVER
 70
     6
  9
$DWGCODEPAGE
  3
ANSI_1252
  9
$INSBASE
 10
0.0
 20
0.0
 30
0.0
  9
$EXTMIN
 10
-1296.731738904545
 20
-1176.650000095578
 30
0.0
  9
$EXTMAX
 10
-876.7317389045468
 20
-879.6500000955775
 30
0.0
  9
$LIMMIN
 10
0.0
 20
0.0
  9
$LIMMAX
 10
12.0
 20
9.0
  9
$ORTHOMODE
 70
     0
  9
$REGENMODE
 70
     1
  9
$FILLMODE
 70
     1
  9
$QTEXTMODE
 70
     0
  9
$MIRRTEXT
 70
     1
  9
$LTSCALE
 40
1.0
  9
$ATTMODE
 70
     1
  9
$TEXTSIZE
 40
0.2
  9
$TRACEWID
 40
0.05
  9
$TEXTSTYLE
  7
Standard
  9
$CLAYER
  8
0
  9
$CELTYPE
  6
ByLayer
  9
$CECOLOR
 62
   256
  9
$CELTSCALE
 40
1.0
  9
$DISPSILH
 70
     0
  9
$DIMSCALE
 40
1.0
  9
$DIMASZ
 40
0.18
  9
$DIMEXO
 40
0.0625
  9
$DIMDLI
 40
0.38
  9
$DIMRND
 40
0.0
  9
$DIMDLE
 40
0.0
  9
$DIMEXE
 40
0.18
  9
$DIMTP
 40
0.0
  9
$DIMTM
 40
0.0
  9
$DIMTXT
 40
0.18
  9
$DIMCEN
 40
0.09
  9
$DIMTSZ
 40
0.0
  9
$DIMTOL
 70
     0
  9
$DIMLIM
 70
     0
  9
$DIMTIH
 70
     1
  9
$DIMTOH
 70
     1
  9
$DIMSE1
 70
     0
  9
$DIMSE2
 70
     0
  9
$DIMTAD
 70
     0
  9
$DIMZIN
 70
     0
  9
$DIMBLK
  1

  9
$DIMASO
 70
     1
  9
$DIMSHO
 70
     1
  9
$DIMPOST
  1

  9
$DIMAPOST
  1

  9
$DIMALT
 70
     0
  9
$DIMALTD
 70
     2
  9
$DIMALTF
 40
25.4
  9
$DIMLFAC
 40
1.0
  9
$DIMTOFL
 70
     0
  9
$DIMTVP
 40
0.0
  9
$DIMTIX
 70
     0
  9
$DIMSOXD
 70
     0
  9
$DIMSAH
 70
     0
  9
$DIMBLK1
  1

  9
$DIMBLK2
  1

  9
$DIMSTYLE
  2
Standard
  9
$DIMCLRD
 70
     0
  9
$DIMCLRE
 70
     0
  9
$DIMCLRT
 70
     0
  9
$DIMTFAC
 40
1.0
  9
$DIMGAP
 40
0.09
  9
$DIMJUST
 70
     0
  9
$DIMSD1
 70
     0
  9
$DIMSD2
 70
     0
  9
$DIMTOLJ
 70
     1
  9
$DIMTZIN
 70
     0
  9
$DIMALTZ
 70
     0
  9
$DIMALTTZ
 70
     0
  9
$DIMUPT
 70
     0
  9
$DIMDEC
 70
     4
  9
$DIMTDEC
 70
     4
  9
$DIMALTU
 70
     2
  9
$DIMALTTD
 70
     2
  9
$DIMTXSTY
  7
Standard
  9
$DIMAUNIT
 70
     0
  9
$DIMADEC
 70
     0
  9
$DIMALTRND
 40
0.0
  9
$DIMAZIN
 70
     0
  9
$DIMDSEP
 70
    46
  9
$DIMATFIT
 70
     3
  9
$DIMFRAC
 70
     0
  9
$DIMLDRBLK
  1

  9
$DIMLUNIT
 70
     2
  9
$DIMLWD
 70
    -2
  9
$DIMLWE
 70
    -2
  9
$DIMTMOVE
 70
     0
  9
$LUNITS
 70
     2
  9
$LUPREC
 70
     4
  9
$SKETCHINC
 40
0.1
  9
$FILLETRAD
 40
0.5
  9
$AUNITS
 70
     0
  9
$AUPREC
 70
     0
  9
$MENU
  1
.
  9
$ELEVATION
 40
0.0
  9
$PELEVATION
 40
0.0
  9
$THICKNESS
 40
0.0
  9
$LIMCHECK
 70
     0
  9
$CHAMFERA
 40
0.5
  9
$CHAMFERB
 40
0.5
  9
$CHAMFERC
 40
1.0
  9
$CHAMFERD
 40
0.0
  9
$SKPOLY
 70
     0
  9
$TDCREATE
 40
2457485.309279445
  9
$TDUCREATE
 40
2457485.225946111
  9
$TDUPDATE
 40
2457485.309280891
  9
$TDUUPDATE
 40
2457485.225947558
  9
$TDINDWG
 40
0.0000000116
  9
$TDUSRTIMER
 40
0.0000000116
  9
$USRTIMER
 70
     1
  9
$ANGBASE
 50
0.0
  9
$ANGDIR
 70
     0
  9
$PDMODE
 70
     0
  9
$PDSIZE
 40
0.0
  9
$PLINEWID
 40
0.0
  9
$SPLFRAME
 70
     0
  9
$SPLINETYPE
 70
     6
  9
$SPLINESEGS
 70
     8
  9
$HANDSEED
  5
436
  9
$SURFTAB1
 70
     6
  9
$SURFTAB2
 70
     6
  9
$SURFTYPE
 70
     6
  9
$SURFU
 70
     6
  9
$SURFV
 70
     6
  9
$UCSBASE
  2

  9
$UCSNAME
  2

  9
$UCSORG
 10
0.0
 20
0.0
 30
0.0
  9
$UCSXDIR
 10
1.0
 20
0.0
 30
0.0
  9
$UCSYDIR
 10
0.0
 20
1.0
 30
0.0
  9
$UCSORTHOREF
  2

  9
$UCSORTHOVIEW
 70
     0
  9
$UCSORGTOP
 10
0.0
 20
0.0
 30
0.0
  9
$UCSORGBOTTOM
 10
0.0
 20
0.0
 30
0.0
  9
$UCSORGLEFT
 10
0.0
 20
0.0
 30
0.0
  9
$UCSORGRIGHT
 10
0.0
 20
0.0
 30
0.0
  9
$UCSORGFRONT
 10
0.0
 20
0.0
 30
0.0
  9
$UCSORGBACK
 10
0.0
 20
0.0
 30
0.0
  9
$PUCSBASE
  2

  9
$PUCSNAME
  2

  9
$PUCSORG
 10
0.0
 20
0.0
 30
0.0
  9
$PUCSXDIR
 10
1.0
 20
0.0
 30
0.0
  9
$PUCSYDIR
 10
0.0
 20
1.0
 30
0.0
  9
$PUCSORTHOREF
  2

  9
$PUCSORTHOVIEW
 70
     0
  9
$PUCSORGTOP
 10
0.0
 20
0.0
 30
0.0
  9
$PUCSORGBOTTOM
 10
0.0
 20
0.0
 30
0.0
  9
$PUCSORGLEFT
 10
0.0
 20
0.0
 30
0.0
  9
$PUCSORGRIGHT
 10
0.0
 20
0.0
 30
0.0
  9
$PUCSORGFRONT
 10
0.0
 20
0.0
 30
0.0
  9
$PUCSORGBACK
 10
0.0
 20
0.0
 30
0.0
  9
$USERI1
 70
     0
  9
$USERI2
 70
     0
  9
$USERI3
 70
     0
  9
$USERI4
 70
     0
  9
$USERI5
 70
     0
  9
$USERR1
 40
18.1
  9
$USERR2
 40
0.0
  9
$USERR3
 40
0.0
  9
$USERR4
 40
0.0
  9
$USERR5
 40
0.0
  9
$WORLDVIEW
 70
     1
  9
$SHADEDGE
 70
     3
  9
$SHADEDIF
 70
    70
  9
$TILEMODE
 70
     1
  9
$MAXACTVP
 70
    64
  9
$PINSBASE
 10
0.0
 20
0.0
 30
0.0
  9
$PLIMCHECK
 70
     0
  9
$PEXTMIN
 10
1.00000000000000E+20
 20
1.00000000000000E+20
 30
1.00000000000000E+20
  9
$PEXTMAX
 10
-1.00000000000000E+20
 20
-1.00000000000000E+20
 30
-1.00000000000000E+20
  9
$PLIMMIN
 10
0.0
 20
0.0
  9
$PLIMMAX
 10
12.0
 20
9.0
  9
$UNITMODE
 70
     0
  9
$VISRETAIN
 70
     1
  9
$PLINEGEN
 70
     0
  9
$PSLTSCALE
 70
     1
  9
$TREEDEPTH
 70
  3020
  9
$CMLSTYLE
  2
Standard
  9
$CMLJUST
 70
     0
  9
$CMLSCALE
 40
1.0
  9
$PROXYGRAPHICS
 70
     1
  9
$MEASUREMENT
 70
     1
  9
$CELWEIGHT
370
    -1
  9
$ENDCAPS
280
     0
  9
$JOINSTYLE
280
     0
  9
$LWDISPLAY
290
     0
  9
$INSUNITS
 70
     4
  9
$HYPERLINKBASE
  1

  9
$STYLESHEET
  1

  9
$XEDIT
290
     1
  9
$CEPSNTYPE
380
     0
  9
$PSTYLEMODE
290
     1
  9
$FINGERPRINTGUID
  2
{FC3F6282-AEA5-4EC4-8469-6130D53ADD51}
  9
$VERSIONGUID
  2
{FAEB1C32-E019-11D5-929B-00C0DF256EC4}
  9
$EXTNAMES
290
     1
  9
$PSVPSCALE
 40
0.0
  9
$OLESTARTUP
290
     0
  0
ENDSEC
  0
SECTION
  2
CLASSES
  0
CLASS
  1
ACDBDICTIONARYWDFLT
  2
AcDbDictionaryWithDefault
  3
ObjectDBX Classes
 90
        0
280
     0
281
     0
  0
CLASS
  1
VISUALSTYLE
  2
AcDbVisualStyle
  3
ObjectDBX Classes
 90
     4095
280
     0
281
     0
  0
CLASS
  1
MATERIAL
  2
AcDbMaterial
  3
ObjectDBX Classes
 90
     1153
280
     0
281
     0
  0
CLASS
  1
DICTIONARYVAR
  2
AcDbDictionaryVar
  3
ObjectDBX Classes
 90
        0
280
     0
281
     0
  0
CLASS
  1
ACDBPLACEHOLDER
  2
AcDbPlaceHolder
  3
ObjectDBX Classes
 90
        0
280
     0
281
     0
  0
CLASS
  1
LAYOUT
  2
AcDbLayout
  3
ObjectDBX Classes
 90
        0
280
     0
281
     0
  0
ENDSEC
  0
SECTION
  2
TABLES
  0
TABLE
  2
VPORT
  5
8
330
0
100
AcDbSymbolTable
 70
     1
  0
VPORT
  5
29
330
8
100
AcDbSymbolTableRecord
100
AcDbViewportTableRecord
  2
*Active
 70
     0
 10
0.0
 20
0.0
 11
1.0
 21
1.0
 12
-1086.731738904546
 22
-1028.150000095578
 13
0.0
 23
0.0
 14
0.5
 24
0.5
 15
0.5
 25
0.5
 16
0.0
 26
0.0
 36
1.0
 17
0.0
 27
0.0
 37
0.0
 40
326.7000000000005
 41
1.60267857142857
 42
50.0
 43
0.0
 44
0.0
 50
0.0
 51
0.0
 71
     0
 72
   100
 73
     1
 74
     3
 75
     0
 76
     0
 77
     0
 78
     0
281
     0
 65
     1
110
0.0
120
0.0
130
0.0
111
1.0
121
0.0
131
0.0
112
0.0
122
1.0
132
0.0
 79
     0
146
0.0
  0
ENDTAB
  0
TABLE
  2
LTYPE
  5
5
330
0
100
AcDbSymbolTable
 70
     8
  0
LTYPE
  5
14
330
5
100
AcDbSymbolTableRecord
100
AcDbLinetypeTableRecord
  2
ByBlock
 70
     0
  3

 72
    65
 73
     0
 40
0.0
  0
LTYPE
  5
15
330
5
100
AcDbSymbolTableRecord
100
AcDbLinetypeTableRecord
  2
ByLayer
 70
     0
  3

 72
    65
 73
     0
 40
0.0
  0
LTYPE
  5
16
330
5
100
AcDbSymbolTableRecord
100
AcDbLinetypeTableRecord
  2
Continuous
 70
     0
  3
Solid line
 72
    65
 73
     0
 40
0.0
  0
LTYPE
  5
3F
330
5
100
AcDbSymbolTableRecord
100
AcDbLinetypeTableRecord
  2
DASHED
 70
     0
  3
Dashed
 72
    65
 73
     2
 40
15.0
 49
7.0
 74
     0
 49
-8.0
 74
     0
  0
LTYPE
  5
40
330
5
100
AcDbSymbolTableRecord
100
AcDbLinetypeTableRecord
  2
DOTTED
 70
     0
  3
Dotted
 72
    65
 73
     2
 40
1.0
 49
0.0
 74
     0
 49
-1.0
 74
     0
  0
LTYPE
  5
41
330
5
100
AcDbSymbolTableRecord
100
AcDbLinetypeTableRecord
  2
DOT_CENTER
 70
     0
  3
Dot_Center
 72
    65
 73
     4
 40
14.0
 49
12.0
 74
     0
 49
-1.0
 74
     0
 49
0.0
 74
     0
 49
-1.0
 74
     0
  0
LTYPE
  5
42
330
5
100
AcDbSymbolTableRecord
100
AcDbLinetypeTableRecord
  2
LONG_DASHED
 70
     0
  3
Long_Dashed
 72
    65
 73
     2
 40
15.0
 49
10.0
 74
     0
 49
-5.0
 74
     0
  0
LTYPE
  5
43
330
5
100
AcDbSymbolTableRecord
100
AcDbLinetypeTableRecord
  2
DASH_CENTER
 70
     0
  3
Dash_Center
 72
    65
 73
     4
 40
14.0
 49
11.0
 74
     0
 49
-1.0
 74
     0
 49
1.0
 74
     0
 49
-1.0
 74
     0
  0
LTYPE
  5
44
330
5
100
AcDbSymbolTableRecord
100
AcDbLinetypeTableRecord
  2
PHANTOM
 70
     0
  3
Phantom
 72
    65
 73
     6
 40
13.0
 49
10.0
 74
     0
 49
-1.0
 74
     0
 49
0.0
 74
     0
 49
-1.0
 74
     0
 49
0.0
 74
     0
 49
-1.0
 74
     0
  0
LTYPE
  5
45
330
5
100
AcDbSymbolTableRecord
100
AcDbLinetypeTableRecord
  2
CENTER_DASH_DASH
 70
     0
  3
Center_Dash_Dash
 72
    65
 73
     6
 40
14.0
 49
9.0
 74
     0
 49
-1.0
 74
     0
 49
1.0
 74
     0
 49
-1.0
 74
     0
 49
1.0
 74
     0
 49
-1.0
 74
     0
  0
ENDTAB
  0
TABLE
  2
LAYER
  5
2
330
0
100
AcDbSymbolTable
 70
     2
  0
LAYER
  5
10
330
2
100
AcDbSymbolTableRecord
100
AcDbLayerTableRecord
  2
0
 70
     0
 62
     7
  6
Continuous
370
    -3
390
F
  0
LAYER
  5
46
330
2
100
AcDbSymbolTableRecord
100
AcDbLayerTableRecord
  2
1
 70
     0
 62
     7
  6
Continuous
370
    -3
390
F
  0
ENDTAB
  0
TABLE
  2
STYLE
  5
3
330
0
100
AcDbSymbolTable
 70
     5
  0
STYLE
  5
11
330
3
100
AcDbSymbolTableRecord
100
AcDbTextStyleTableRecord
  2
Standard
 70
     0
 40
0.0
 41
1.0
 50
0.0
 71
     0
 42
0.2
  3
txt
  4

  0
STYLE
  5
124
330
3
100
AcDbSymbolTableRecord
100
AcDbTextStyleTableRecord
  2
CONVERTER_11
 70
     0
 40
0.0
 41
0.9
 50
0.0
 71
     0
 42
0.2
  3
txt.shx
  4

  0
STYLE
  5
3D7
330
3
100
AcDbSymbolTableRecord
100
AcDbTextStyleTableRecord
  2
CONVERTER_12
 70
     0
 40
0.0
 41
0.81
 50
0.0
 71
     0
 42
0.2
  3
txt.shx
  4

  0
STYLE
  5
3DD
330
3
100
AcDbSymbolTableRecord
100
AcDbTextStyleTableRecord
  2
CONVERTER_13
 70
     0
 40
0.0
 41
0.855
 50
0.0
 71
     0
 42
0.2
  3
txt.shx
  4

  0
STYLE
  5
3E0
330
3
100
AcDbSymbolTableRecord
100
AcDbTextStyleTableRecord
  2
CONVERTER_14
 70
     0
 40
0.0
 41
0.72
 50
0.0
 71
     0
 42
0.2
  3
txt.shx
  4

  0
ENDTAB
  0
TABLE
  2
VIEW
  5
6
330
0
100
AcDbSymbolTable
 70
     0
  0
ENDTAB
  0
TABLE
  2
UCS
  5
7
330
0
100
AcDbSymbolTable
 70
     0
  0
ENDTAB
  0
TABLE
  2
APPID
  5
9
330
0
100
AcDbSymbolTable
 70
     1
  0
APPID
  5
12
330
9
100
AcDbSymbolTableRecord
100
AcDbRegAppTableRecord
  2
ACAD
 70
     0
  0
ENDTAB
  0
TABLE
  2
DIMSTYLE
  5
A
330
0
100
AcDbSymbolTable
 70
     5
100
AcDbDimStyleTable
  0
DIMSTYLE
105
27
330
A
100
AcDbSymbolTableRecord
100
AcDbDimStyleTableRecord
  2
Standard
 70
     0
178
     0
340
11
  0
DIMSTYLE
105
1FB
102
{ACAD_REACTORS
330
1FC
102
}
330
A
100
AcDbSymbolTableRecord
100
AcDbDimStyleTableRecord
  2
ME10_DIM_10
 70
     0
 41
3.5
 42
0.0
 44
1.5
 73
     0
 74
     0
 77
     1
 78
     8
140
3.5
147
1.5
172
     1
173
     1
174
     1
175
     1
176
     2
177
     2
178
     3
340
124
  0
DIMSTYLE
105
208
102
{ACAD_REACTORS
330
209
102
}
330
A
100
AcDbSymbolTableRecord
100
AcDbDimStyleTableRecord
  2
ME10_DIM_11
 70
     0
 41
3.5
 42
0.0
 44
1.5
 73
     0
 74
     0
 77
     1
 78
     8
140
3.5
147
1.5
172
     1
173
     1
174
     1
175
     1
176
     2
177
     2
271
     1
178
     3
271
     1
340
124
  0
DIMSTYLE
105
2B1
102
{ACAD_REACTORS
330
2B2
102
}
330
A
100
AcDbSymbolTableRecord
100
AcDbDimStyleTableRecord
  2
ME10_DIM_12
 70
     0
 41
3.5
 42
0.0
 44
1.5
 73
     0
 74
     0
 77
     1
 78
     8
140
3.5
147
1.5
172
     1
173
     1
174
     1
175
     1
176
     2
177
     2
271
     0
178
     3
271
     0
340
124
  0
DIMSTYLE
105
2BC
102
{ACAD_REACTORS
330
2BD
102
}
330
A
100
AcDbSymbolTableRecord
100
AcDbDimStyleTableRecord
  2
ME10_DIM_13
 70
     0
 41
3.5
 42
0.0
 44
1.5
 73
     0
 74
     0
 77
     1
 78
     8
140
3.5
147
1.5
172
     1
173
     1
174
     1
175
     1
176
     2
177
     2
271
     1
178
     3
271
     1
340
124
  0
ENDTAB
  0
TABLE
  2
BLOCK_RECORD
  5
1
330
0
100
AcDbSymbolTable
 70
    20
  0
BLOCK_RECORD
  5
1F
330
1
100
AcDbSymbolTableRecord
100
AcDbBlockTableRecord
  2
*Model_Space
340
22
  0
BLOCK_RECORD
  5
1B
330
1
100
AcDbSymbolTableRecord
100
AcDbBlockTableRecord
  2
*Paper_Space
340
1E
  0
BLOCK_RECORD
  5
23
330
1
100
AcDbSymbolTableRecord
100
AcDbBlockTableRecord
  2
*Paper_Space0
340
26
  0
BLOCK_RECORD
  5
47
330
1
100
AcDbSymbolTableRecord
100
AcDbBlockTableRecord
  2
3069055_E_UTWE_6-select__1
340
0
102
{BLKREFS
331
4B
102
}
  0
BLOCK_RECORD
  5
4A
330
1
100
AcDbSymbolTableRecord
100
AcDbBlockTableRecord
  2
Allg1
340
0
102
{BLKREFS
331
7C
102
}
  0
BLOCK_RECORD
  5
4E
330
1
100
AcDbSymbolTableRecord
100
AcDbBlockTableRecord
  2
3069055_E_UTWE_6-select__2
340
0
102
{BLKREFS
331
52
102
}
  0
BLOCK_RECORD
  5
51
330
1
100
AcDbSymbolTableRecord
100
AcDbBlockTableRecord
  2
Drfsicht1
340
0
102
{BLKREFS
331
7D
102
}
  0
BLOCK_RECORD
  5
55
330
1
100
AcDbSymbolTableRecord
100
AcDbBlockTableRecord
  2
3069055_E_UTWE_6-select__3
340
0
102
{BLKREFS
331
59
102
}
  0
BLOCK_RECORD
  5
58
330
1
100
AcDbSymbolTableRecord
100
AcDbBlockTableRecord
  2
Rckans1
340
0
102
{BLKREFS
331
7E
102
}
  0
BLOCK_RECORD
  5
5C
330
1
100
AcDbSymbolTableRecord
100
AcDbBlockTableRecord
  2
3069055_E_UTWE_6-select__4
340
0
102
{BLKREFS
331
60
102
}
  0
BLOCK_RECORD
  5
5F
330
1
100
AcDbSymbolTableRecord
100
AcDbBlockTableRecord
  2
SA_Links1
340
0
102
{BLKREFS
331
7F
102
}
  0
BLOCK_RECORD
  5
63
330
1
100
AcDbSymbolTableRecord
100
AcDbBlockTableRecord
  2
3069055_E_UTWE_6-select__5
340
0
102
{BLKREFS
331
67
102
}
  0
BLOCK_RECORD
  5
66
330
1
100
AcDbSymbolTableRecord
100
AcDbBlockTableRecord
  2
SA_Rechts1
340
0
102
{BLKREFS
331
80
102
}
  0
BLOCK_RECORD
  5
6A
330
1
100
AcDbSymbolTableRecord
100
AcDbBlockTableRecord
  2
3069055_E_UTWE_6-select__6
340
0
102
{BLKREFS
331
6E
102
}
  0
BLOCK_RECORD
  5
6D
330
1
100
AcDbSymbolTableRecord
100
AcDbBlockTableRecord
  2
Vordans1
340
0
102
{BLKREFS
331
81
102
}
  0
BLOCK_RECORD
  5
71
330
1
100
AcDbSymbolTableRecord
100
AcDbBlockTableRecord
  2
_rahmen
340
0
102
{BLKREFS
331
78
102
}
  0
BLOCK_RECORD
  5
74
330
1
100
AcDbSymbolTableRecord
100
AcDbBlockTableRecord
  2
_punkt
340
0
102
{BLKREFS
331
79
102
}
  0
BLOCK_RECORD
  5
77
330
1
100
AcDbSymbolTableRecord
100
AcDbBlockTableRecord
  2
A3I_CS
340
0
102
{BLKREFS
331
82
102
}
  0
BLOCK_RECORD
  5
1F2
330
1
100
AcDbSymbolTableRecord
100
AcDbBlockTableRecord
  2
*D16
340
0
  0
BLOCK_RECORD
  5
1FD
330
1
100
AcDbSymbolTableRecord
100
AcDbBlockTableRecord
  2
*D17
340
0
  0
BLOCK_RECORD
  5
2A8
330
1
100
AcDbSymbolTableRecord
100
AcDbBlockTableRecord
  2
*D18
340
0
  0
BLOCK_RECORD
  5
2B3
330
1
100
AcDbSymbolTableRecord
100
AcDbBlockTableRecord
  2
*D19
340
0
  0
ENDTAB
  0
ENDSEC
  0
SECTION
  2
BLOCKS
  0
BLOCK
  5
20
330
1F
100
AcDbEntity
  8
0
100
AcDbBlockBegin
  2
*Model_Space
 70
     0
 10
0.0
 20
0.0
 30
0.0
  3
*Model_Space
  1

  0
ENDBLK
  5
21
330
1F
100
AcDbEntity
  8
0
100
AcDbBlockEnd
  0
BLOCK
  5
1C
330
1B
100
AcDbEntity
 67
     1
  8
0
100
AcDbBlockBegin
  2
*Paper_Space
 70
     0
 10
0.0
 20
0.0
 30
0.0
  3
*Paper_Space
  1

  0
ENDBLK
  5
1D
330
1B
100
AcDbEntity
 67
     1
  8
0
100
AcDbBlockEnd
  0
BLOCK
  5
24
330
23
100
AcDbEntity
  8
0
100
AcDbBlockBegin
  2
*Paper_Space0
 70
     0
 10
0.0
 20
0.0
 30
0.0
  3
*Paper_Space0
  1

  0
ENDBLK
  5
25
330
23
100
AcDbEntity
  8
0
100
AcDbBlockEnd
  0
BLOCK
  5
48
330
47
100
AcDbEntity
  8
0
100
AcDbBlockBegin
  2
3069055_E_UTWE_6-select__1
 70
     0
 10
-999.0849247020055
 20
-1125.224896677195
 30
0.0
  3
3069055_E_UTWE_6-select__1
  1

  0
LINE
  5
83
330
47
100
AcDbEntity
  8
0
  6
Continuous
 62
     7
100
AcDbLine
 10
-973.8293012826106
 20
-1114.851725477835
 30
0.0
 11
-975.8872061856841
 21
-1114.257659505556
 31
0.0
  0
LINE
  5
84
330
47
100
AcDbEntity
  8
0
  6
Continuous
 62
     7
100
AcDbLine
 10
-972.5186335656381
 20
-1113.295116174772
 30
0.0
 11
-973.0155036019781
 21
-1114.516821360744
 31
0.0
  0
LINE
  5
85
330
47
100
AcDbEntity
  8
0
  6
Continuous
 62
     2
100
AcDbLine
 10
-972.4664058435757
 20
-1113.013994886677
 30
0.0
 11
-971.1664058435738
 21
-1111.888161861756
 31
0.0
  0
LINE
  5
86
330
47
100
AcDbEntity
  8
0
  6
Continuous
 62
     7
100
AcDbLine
 10
-971.7155036019763
 20
-1113.390988335823
 30
0.0
 11
-971.2186335656363
 21
-1112.169283149851
 31
0.0
  0
LINE
  5
87
330
47
100
AcDbEntity
  8
0
  6
Continuous
 62
     7
100
AcDbLine
 10
-972.4664058442547
 20
-1112.47387820812
 30
0.0
 11
-972.4664058435757
 21
-1113.013994886677
 31
0.0
  0
LINE
  5
88
330
47
100
AcDbEntity
  8
0
  6
Continuous
 62
     7
100
AcDbLine
 10
-975.4974947602257
 20
-1109.408410986147
 30
0.0
 11
-978.0621521252866
 21
-1112.330768558227
 31
0.0
  0
LINE
  5
89
330
47
100
AcDbEntity
  8
0
  6
Continuous
 62
     7
100
AcDbLine
 10
-978.0621521252866
 20
-1112.330768558227
 30
0.0
 11
-979.4521521261007
 21
-1113.534543870192
 31
0.0
  0
LINE
  5
8A
330
47
100
AcDbEntity
  8
0
  6
Continuous
 62
     2
100
AcDbLine
 10
-984.9565819095526
 20
-1072.912549733924
 30
0.0
 11
-985.3851533381236
 21
-1073.283703478402
 31
0.0
  0
LINE
  5
8B
330
47
100
AcDbEntity
  8
0
  6
Continuous
 62
     7
100
AcDbLine
 10
-985.0101533381227
 20
-1072.742437601039
 30
0.0
 11
-985.7391056706506
 21
-1071.269424712142
 31
0.0
  0
LINE
  5
8C
330
47
100
AcDbEntity
  8
0
  6
Continuous
 62
     7
100
AcDbLine
 10
-985.7391056706506
 20
-1071.269424712142
 30
0.0
 11
-986.1352453430361
 21
-1071.030331896827
 31
0.0
  0
LINE
  5
8D
330
47
100
AcDbEntity
  8
0
  6
Continuous
 62
     7
100
AcDbLine
 10
-986.8467875369626
 20
-1072.861766029326
 30
0.0
 11
-985.3851533381236
 21
-1073.283703478402
 31
0.0
  0
LINE
  5
8E
330
47
100
AcDbEntity
  8
0
  6
Continuous
 62
     7
100
AcDbLine
 10
-981.0444166951506
 20
-1113.074896681417
 30
0.0
 11
-981.0444166951886
 21
-1105.70881876743
 31
0.0
  0
LINE
  5
8F
330
47
100
AcDbEntity
  8
0
  6
Continuous
 62
     7
100
AcDbLine
 10
-979.4521521261007
 20
-1113.534543870192
 30
0.0
 11
-981.0444166951506
 21
-1113.074896681417
 31
0.0
  0
LINE
  5
90
330
47
100
AcDbEntity
  8
0
  6
Continuous
 62
     7
100
AcDbLine
 10
-975.3286491041963
 20
-1108.835923912718
 30
0.0
 11
-979.4521521261007
 21
-1113.534543870192
 31
0.0
  0
LINE
  5
91
330
47
100
AcDbEntity
  8
0
  6
Continuous
 62
     2
100
AcDbLine
 10
-972.5186335656381
 20
-1113.295116174772
 30
0.0
 11
-971.2186335656363
 21
-1112.169283149851
 31
0.0
  0
LINE
  5
92
330
47
100
AcDbEntity
  8
0
  6
Continuous
 62
     2
100
AcDbLine
 10
-972.4664058442547
 20
-1112.47387820812
 30
0.0
 11
-971.166405844253
 21
-1111.348045183199
 31
0.0
  0
LINE
  5
93
330
47
100
AcDbEntity
  8
0
  6
Continuous
 62
     7
100
AcDbLine
 10
-971.8746476129899
 20
-1113.615795994834
 30
0.0
 11
-973.1746476129916
 21
-1114.741629019755
 31
0.0
  0
LINE
  5
94
330
47
100
AcDbEntity
  8
0
  6
Continuous
 62
     2
100
AcDbLine
 10
-973.0155036019781
 20
-1114.516821360744
 30
0.0
 11
-971.7155036019763
 21
-1113.390988335823
 31
0.0
  0
LINE
  5
95
330
47
100
AcDbEntity
  8
0
  6
Continuous
 62
     7
100
AcDbLine
 10
-950.9075656752369
 20
-1115.885683459999
 30
0.0
 11
-952.0325656736584
 21
-1116.859962037889
 31
0.0
  0
LINE
  5
96
330
47
100
AcDbEntity
  8
0
  6
Continuous
 62
     7
100
AcDbLine
 10
-952.0325656736584
 20
-1116.859962037889
 30
0.0
 11
-952.0325656752916
 21
-1115.560923933569
 31
0.0
  0
LINE
  5
97
330
47
100
AcDbEntity
  8
0
  6
Continuous
 62
     7
100
AcDbLine
 10
-952.0325656752916
 20
-1115.560923933569
 30
0.0
 11
-944.6713497347987
 21
-1117.685923935941
 31
0.0
  0
LINE
  5
98
330
47
100
AcDbEntity
  8
0
  6
Continuous
 62
     7
100
AcDbLine
 10
-944.5824114397294
 20
-1117.838615259117
 30
0.0
 11
-951.0175656732592
 21
-1115.980946252702
 31
0.0
  0
LINE
  5
99
330
47
100
AcDbEntity
  8
0
  6
Continuous
 62
     7
100
AcDbLine
 10
-934.2608930961966
 20
-1086.129904655562
 30
0.0
 11
-933.8647534238112
 21
-1086.119523186724
 31
0.0
  0
LINE
  5
9A
330
47
100
AcDbEntity
  8
0
  6
Continuous
 62
     7
100
AcDbLine
 10
-934.6148454286969
 20
-1087.939828947358
 30
0.0
 11
-933.1532112303738
 21
-1088.361766396279
 31
0.0
  0
LINE
  5
9B
330
47
100
AcDbEntity
  8
0
  6
Continuous
 62
     7
100
AcDbLine
 10
-930.8301874589805
 20
-1083.530809945107
 30
0.0
 11
-930.9148454278687
 21
-1083.653003197922
 31
0.0
  0
LINE
  5
9C
330
47
100
AcDbEntity
  8
0
  6
Continuous
 62
     2
100
AcDbLine
 10
-934.6148454286969
 20
-1087.939828947358
 30
0.0
 11
-930.5398454278671
 21
-1084.410775426236
 31
0.0
  0
LINE
  5
9D
330
47
100
AcDbEntity
  8
0
  6
Continuous
 62
     7
100
AcDbLine
 10
-967.9674331032057
 20
-1112.259962057951
 30
0.0
 11
-952.0325656736584
 21
-1116.859962037889
 31
0.0
  0
LINE
  5
9E
330
47
100
AcDbEntity
  8
0
  6
Continuous
 62
     2
100
AcDbLine
 10
-929.6692016401536
 20
-1082.445276419684
 30
0.0
 11
-933.7442016410289
 21
-1085.974329940828
 31
0.0
  0
LINE
  5
9F
330
47
100
AcDbEntity
  8
0
  6
Continuous
 62
     2
100
AcDbLine
 10
-925.7752357203756
 20
-1112.639583898349
 30
0.0
 11
-929.8502357212485
 21
-1116.168637419455
 31
0.0
  0
LINE
  5
A0
330
47
100
AcDbEntity
  8
0
  6
Continuous
 62
     7
100
AcDbLine
 10
-925.9373265455374
 20
-1112.856981663882
 30
0.0
 11
-930.0123265463033
 21
-1116.386035185015
 31
0.0
  0
LINE
  5
A1
330
47
100
AcDbEntity
  8
0
  6
Continuous
 62
     2
100
AcDbLine
 10
-924.9911209218744
 20
-1091.83788012528
 30
0.0
 11
-929.0661209228954
 21
-1095.366933646529
 31
0.0
  0
LINE
  5
A2
330
47
100
AcDbEntity
  8
0
  6
Continuous
 62
     2
100
AcDbLine
 10
-920.9293399051679
 20
-1087.607602075026
 30
0.0
 11
-929.0793399070719
 21
-1094.665709117405
 31
0.0
  0
LINE
  5
A3
330
47
100
AcDbEntity
  8
0
  6
Continuous
 62
     2
100
AcDbLine
 10
-921.362225281686
 20
-1087.060126157142
 30
0.0
 11
-929.5122252838155
 21
-1094.118233199696
 31
0.0
  0
LINE
  5
A4
330
47
100
AcDbEntity
  8
0
  6
Continuous
 62
     7
100
AcDbLine
 10
-925.0967664300256
 20
-1092.096768063008
 30
0.0
 11
-929.1717664312886
 21
-1095.625821584467
 31
0.0
  0
LINE
  5
A5
330
47
100
AcDbEntity
  8
0
  6
Continuous
 62
     7
100
AcDbLine
 10
-921.362225281686
 20
-1087.060126157142
 30
0.0
 11
-930.5398454278671
 21
-1084.410775426236
 31
0.0
  0
LINE
  5
A6
330
47
100
AcDbEntity
  8
0
  6
Continuous
 62
     2
100
AcDbLine
 10
-979.613028107882
 20
-1057.526989993638
 30
0.0
 11
-983.6880281086867
 21
-1061.056043514766
 31
0.0
  0
LINE
  5
A7
330
47
100
AcDbEntity
  8
0
  6
Continuous
 62
     7
100
AcDbLine
 10
-944.7013651996518
 20
-1121.325269829422
 30
0.0
 11
-944.2044951598778
 21
-1122.833843064369
 31
0.0
  0
LINE
  5
A8
330
47
100
AcDbEntity
  8
0
  6
Continuous
 62
     7
100
AcDbLine
 10
-944.7535929231392
 20
-1120.473878173294
 30
0.0
 11
-944.7535929224596
 21
-1121.013994851851
 31
0.0
  0
LINE
  5
A9
330
47
100
AcDbEntity
  8
0
  6
Continuous
 62
     2
100
AcDbLine
 10
-944.2040887253575
 20
-1120.351877056123
 30
0.0
 11
-943.4825022393937
 21
-1119.726964828251
 31
0.0
  0
LINE
  5
AA
330
47
100
AcDbEntity
  8
0
  6
Continuous
 62
     7
100
AcDbLine
 10
-944.6690442299086
 20
-1120.271506594451
 30
0.0
 11
-943.6695181374216
 21
-1119.405891606612
 31
0.0
  0
LINE
  5
AB
330
47
100
AcDbEntity
  8
0
  6
Continuous
 62
     7
100
AcDbLine
 10
-943.7875526646365
 20
-1120.773571667323
 30
0.0
 11
-944.2040887253575
 21
-1120.351877056123
 31
0.0
  0
LINE
  5
AC
330
47
100
AcDbEntity
  8
0
  6
Continuous
 62
     7
100
AcDbLine
 10
-943.0589476967642
 20
-1120.454133068897
 30
0.0
 11
-943.2788144253199
 21
-1120.802841142605
 31
0.0
  0
LINE
  5
AD
330
47
100
AcDbEntity
  8
0
  6
Continuous
 62
     2
100
AcDbLine
 10
-943.7875526646365
 20
-1120.773571667323
 30
0.0
 11
-943.1795710347428
 21
-1120.247044130801
 31
0.0
  0
LINE
  5
AE
330
47
100
AcDbEntity
  8
0
  6
Continuous
 62
     2
100
AcDbLine
 10
-938.2002143954882
 20
-1117.204650778328
 30
0.0
 11
-938.9555820712783
 21
-1117.858818374809
 31
0.0
  0
LINE
  5
AF
330
47
100
AcDbEntity
  8
0
  6
Continuous
 62
     7
100
AcDbLine
 10
-933.4805380657233
 20
-1088.416814625161
 30
0.0
 11
-937.555538066882
 21
-1091.945868146562
 31
0.0
  0
LINE
  5
B0
330
47
100
AcDbEntity
  8
0
  6
Continuous
 62
     7
100
AcDbLine
 10
-934.8805820704281
 20
-1121.695843156074
 30
0.0
 11
-934.8805820704515
 21
-1117.046457084979
 31
0.0
  0
LINE
  5
B1
330
47
100
AcDbEntity
  8
0
  6
Continuous
 62
     7
100
AcDbLine
 10
-937.6612239334166
 20
-1092.891652942603
 30
0.0
 11
-937.6612239334204
 21
-1092.198832619574
 31
0.0
  0
LINE
  5
B2
330
47
100
AcDbEntity
  8
0
  6
Continuous
 62
     7
100
AcDbLine
 10
-938.9555820712783
 20
-1117.858818374809
 30
0.0
 11
-938.9555820712371
 21
-1125.224896677195
 31
0.0
  0
LINE
  5
B3
330
47
100
AcDbEntity
  8
0
  6
Continuous
 62
     2
100
AcDbLine
 10
-934.9898454287091
 20
-1087.182056719053
 30
0.0
 11
-930.9148454278687
 21
-1083.653003197922
 31
0.0
  0
LINE
  5
B4
330
47
100
AcDbEntity
  8
0
  6
Continuous
 62
     7
100
AcDbLine
 10
-934.9898454287091
 20
-1087.182056719053
 30
0.0
 11
-934.2608930961966
 21
-1086.129904655562
 31
0.0
  0
LINE
  5
B5
330
47
100
AcDbEntity
  8
0
  6
Continuous
 62
     2
100
AcDbLine
 10
-933.1532112303738
 20
-1088.361766396279
 30
0.0
 11
-937.228211231534
 21
-1091.890819917681
 31
0.0
  0
LINE
  5
B6
330
47
100
AcDbEntity
  8
0
  6
Continuous
 62
     7
100
AcDbLine
 10
-940.5478466205305
 20
-1124.765249508245
 30
0.0
 11
-944.6713497347987
 21
-1117.685923935941
 31
0.0
  0
LINE
  5
B7
330
47
100
AcDbEntity
  8
0
  6
Continuous
 62
     7
100
AcDbLine
 10
-943.3906974778118
 20
-1123.638593489808
 30
0.0
 11
-941.3327925747047
 21
-1124.232659462108
 31
0.0
  0
LINE
  5
B8
330
47
100
AcDbEntity
  8
0
  6
Continuous
 62
     7
100
AcDbLine
 10
-978.0621521252866
 20
-1112.330768558227
 30
0.0
 11
-978.1027341308322
 21
-1112.377010653881
 31
0.0
  0
LINE
  5
B9
330
47
100
AcDbEntity
  8
0
  6
Continuous
 62
     7
100
AcDbLine
 10
-985.9698687510751
 20
-1068.40950598303
 30
0.0
 11
-990.4877734834724
 21
-1067.105299226319
 31
0.0
  0
LINE
  5
BA
330
47
100
AcDbEntity
  8
0
  6
Continuous
 62
     7
100
AcDbLine
 10
-979.9604440436249
 20
-1057.66944731295
 30
0.0
 11
-984.0354440444692
 21
-1061.198500834112
 31
0.0
  0
LINE
  5
BB
330
47
100
AcDbEntity
  8
0
  6
Continuous
 62
     7
100
AcDbLine
 10
-929.7108437848617
 20
-1082.561429887764
 30
0.0
 11
-933.7858437857022
 21
-1086.090483408879
 31
0.0
  0
LINE
  5
BC
330
47
100
AcDbEntity
  8
0
  6
Continuous
 62
     7
100
AcDbLine
 10
-938.9555820712371
 20
-1125.224896677195
 30
0.0
 11
-940.5478466205305
 21
-1124.765249508245
 31
0.0
  0
LINE
  5
BD
330
47
100
AcDbEntity
  8
0
  6
Continuous
 62
     2
100
AcDbLine
 10
-932.2369708606076
 20
-1071.203279135109
 30
0.0
 11
-936.3119708614416
 21
-1074.732332656263
 31
0.0
  0
LINE
  5
BE
330
47
100
AcDbEntity
  8
0
  6
Continuous
 62
     2
100
AcDbLine
 10
-931.7224083156224
 20
-1071.888303777085
 30
0.0
 11
-935.7974083164651
 21
-1075.417357298246
 31
0.0
  0
LINE
  5
BF
330
47
100
AcDbEntity
  8
0
  6
Continuous
 62
     7
100
AcDbLine
 10
-938.9555820712371
 20
-1125.224896677195
 30
0.0
 11
-934.8805820704281
 21
-1121.695843156074
 31
0.0
  0
LINE
  5
C0
330
47
100
AcDbEntity
  8
0
  6
Continuous
 62
     7
100
AcDbLine
 10
-929.5122252838155
 20
-1094.118233199696
 30
0.0
 11
-937.228211231534
 21
-1091.890819917681
 31
0.0
  0
LINE
  5
C1
330
47
100
AcDbEntity
  8
0
  6
Continuous
 62
     7
100
AcDbLine
 10
-929.4990932666356
 20
-1095.680869813337
 30
0.0
 11
-937.2282112315257
 21
-1093.449665644497
 31
0.0
  0
LINE
  5
C2
330
47
100
AcDbEntity
  8
0
  6
Continuous
 62
     7
100
AcDbLine
 10
-971.1664058435738
 20
-1111.888161861756
 30
0.0
 11
-971.166405844253
 21
-1111.348045183199
 31
0.0
  0
LINE
  5
C3
330
47
100
AcDbEntity
  8
0
  6
Continuous
 62
     7
100
AcDbLine
 10
-971.7159100427489
 20
-1110.908787670699
 30
0.0
 11
-972.1324461027051
 21
-1111.089995076391
 31
0.0
  0
LINE
  5
C4
330
47
100
AcDbEntity
  8
0
  6
Continuous
 62
     7
100
AcDbLine
 10
-973.432446102707
 20
-1112.215828101312
 30
0.0
 11
-973.015910042747
 21
-1112.034620695626
 31
0.0
  0
LINE
  5
C5
330
47
100
AcDbEntity
  8
0
  6
Continuous
 62
     2
100
AcDbLine
 10
-973.015910042747
 20
-1112.034620695626
 30
0.0
 11
-971.7159100427489
 21
-1110.908787670699
 31
0.0
  0
LINE
  5
C6
330
47
100
AcDbEntity
  8
0
  6
Continuous
 62
     2
100
AcDbLine
 10
-973.9411843423219
 20
-1111.951377418367
 30
0.0
 11
-972.64118434232
 21
-1110.825544393447
 31
0.0
  0
LINE
  5
C7
330
47
100
AcDbEntity
  8
0
  6
Continuous
 62
     7
100
AcDbLine
 10
-974.1804358405425
 20
-1111.433793234964
 30
0.0
 11
-972.8804358405407
 21
-1110.307960210043
 31
0.0
  0
LINE
  5
C8
330
47
100
AcDbEntity
  8
0
  6
Continuous
 62
     2
100
AcDbLine
 10
-973.432446102707
 20
-1112.215828101312
 30
0.0
 11
-972.1324461027051
 21
-1111.089995076391
 31
0.0
  0
LINE
  5
C9
330
47
100
AcDbEntity
  8
0
  6
Continuous
 62
     7
100
AcDbLine
 10
-973.9411843423219
 20
-1111.951377418367
 30
0.0
 11
-974.1804358405425
 21
-1111.433793234964
 31
0.0
  0
LINE
  5
CA
330
47
100
AcDbEntity
  8
0
  6
Continuous
 62
     7
100
AcDbLine
 10
-967.9674331048419
 20
-1110.960923965645
 30
0.0
 11
-967.9674331032057
 21
-1112.259962057951
 31
0.0
  0
LINE
  5
CB
330
47
100
AcDbEntity
  8
0
  6
Continuous
 62
     2
100
AcDbLine
 10
-975.1943858678968
 20
-1110.293914668013
 30
0.0
 11
-974.0752946687993
 21
-1109.324753260443
 31
0.0
  0
LINE
  5
CC
330
47
100
AcDbEntity
  8
0
  6
Continuous
 62
     7
100
AcDbLine
 10
-972.64118434232
 20
-1110.825544393447
 30
0.0
 11
-972.8804358405407
 21
-1110.307960210043
 31
0.0
  0
LINE
  5
CD
330
47
100
AcDbEntity
  8
0
  6
Continuous
 62
     7
100
AcDbLine
 10
-975.0625058105552
 20
-1108.912752865043
 30
0.0
 11
-975.1514441308273
 21
-1109.014095671001
 31
0.0
  0
LINE
  5
CE
330
47
100
AcDbEntity
  8
0
  6
Continuous
 62
     7
100
AcDbLine
 10
-975.4974947602257
 20
-1109.408410986147
 30
0.0
 11
-975.4974947597412
 21
-1109.793346877198
 31
0.0
  0
LINE
  5
CF
330
47
100
AcDbEntity
  8
0
  6
Continuous
 62
     2
100
AcDbLine
 10
-975.4974947597412
 20
-1109.793346877198
 30
0.0
 11
-974.7361307615644
 21
-1109.13398631325
 31
0.0
  0
LINE
  5
D0
330
47
100
AcDbEntity
  8
0
  6
Continuous
 62
     7
100
AcDbLine
 10
-975.4974947602257
 20
-1109.408410986147
 30
0.0
 11
-975.069495022769
 21
-1109.037752340696
 31
0.0
  0
LINE
  5
D1
330
47
100
AcDbEntity
  8
0
  6
Continuous
 62
     7
100
AcDbLine
 10
-990.5944607017224
 20
-1077.894617047637
 30
0.0
 11
-986.5194607016124
 21
-1074.365563527262
 31
0.0
  0
LINE
  5
D2
330
47
100
AcDbEntity
  8
0
  6
Continuous
 62
     7
100
AcDbLine
 10
-986.4137748350735
 20
-1073.419778731221
 30
0.0
 11
-986.4137748350707
 21
-1074.112599054248
 31
0.0
  0
LINE
  5
D3
330
47
100
AcDbEntity
  8
0
  6
Continuous
 62
     2
100
AcDbLine
 10
-990.9217875370741
 20
-1076.390819549702
 30
0.0
 11
-986.8467875369626
 21
-1072.861766029326
 31
0.0
  0
LINE
  5
D4
330
47
100
AcDbEntity
  8
0
  6
Continuous
 62
     2
100
AcDbLine
 10
-990.4887748351811
 20
-1076.948832251594
 30
0.0
 11
-986.4137748350735
 21
-1073.419778731221
 31
0.0
  0
LINE
  5
D5
330
47
100
AcDbEntity
  8
0
  6
Continuous
 62
     7
100
AcDbLine
 10
-967.9674331048419
 20
-1110.960923965645
 30
0.0
 11
-975.3286491041963
 21
-1108.835923912718
 31
0.0
  0
LINE
  5
D6
330
47
100
AcDbEntity
  8
0
  6
Continuous
 62
     2
100
AcDbLine
 10
-986.4137748350707
 20
-1074.112599054248
 30
0.0
 11
-990.4887748351796
 21
-1077.641652574623
 31
0.0
  0
LINE
  5
D7
330
47
100
AcDbEntity
  8
0
  6
Continuous
 62
     7
100
AcDbLine
 10
-975.1514441308273
 20
-1109.014095671001
 30
0.0
 11
-967.967433104682
 21
-1111.087941011875
 31
0.0
  0
LINE
  5
D8
330
47
100
AcDbEntity
  8
0
  6
Continuous
 62
     2
100
AcDbLine
 10
-994.5627734842669
 20
-1070.634352747476
 30
0.0
 11
-990.4877734834724
 21
-1067.105299226319
 31
0.0
  0
LINE
  5
D9
330
47
100
AcDbEntity
  8
0
  6
Continuous
 62
     2
100
AcDbLine
 10
-994.5627734842669
 20
-1070.634352747476
 30
0.0
 11
-998.637773484222
 21
-1074.163406267908
 31
0.0
  0
LINE
  5
DA
330
47
100
AcDbEntity
  8
0
  6
Continuous
 62
     7
100
AcDbLine
 10
-990.8151003188278
 20
-1067.160347455204
 30
0.0
 11
-998.9651003195761
 21
-1074.218454496792
 31
0.0
  0
LINE
  5
DB
330
47
100
AcDbEntity
  8
0
  6
Continuous
 62
     7
100
AcDbLine
 10
-998.6509055013905
 20
-1075.718461107897
 30
0.0
 11
-990.9217875370709
 21
-1077.949665276517
 31
0.0
  0
LINE
  5
DC
330
47
100
AcDbEntity
  8
0
  6
Continuous
 62
     7
100
AcDbLine
 10
-990.4887748351796
 20
-1077.641652574623
 30
0.0
 11
-990.4887748351811
 21
-1076.948832251594
 31
0.0
  0
LINE
  5
DD
330
47
100
AcDbEntity
  8
0
  6
Continuous
 62
     7
100
AcDbLine
 10
-998.637773484222
 20
-1074.163406267908
 30
0.0
 11
-990.9217875370741
 21
-1076.390819549702
 31
0.0
  0
SPLINE
  5
DE
330
47
100
AcDbEntity
  8
0
  6
Continuous
 62
     7
100
AcDbSpline
210
0.0
220
0.0
230
1.0
 70
     8
 71
     3
 72
    11
 73
     7
 74
     5
 42
0.000000001
 43
0.0000000001
 44
0.00000001
 40
0.0
 40
0.0
 40
0.0
 40
0.0
 40
0.1871411904522737
 40
0.3630362748098436
 40
0.5295381935364323
 40
0.6906435552394551
 40
0.6906435552394551
 40
0.6906435552394551
 40
0.6906435552394551
 10
-973.8293012826106
 20
-1114.851725477835
 30
0.0
 10
-973.7682406680723
 20
-1114.865806278402
 30
0.0
 10
-973.6497888274087
 20
-1114.893121690252
 30
0.0
 10
-973.4717242746731
 20
-1114.884174705137
 30
0.0
 10
-973.3072497984781
 20
-1114.838245482247
 30
0.0
 10
-973.2183602571049
 20
-1114.77347888573
 30
0.0
 10
-973.1746476129916
 20
-1114.741629019755
 30
0.0
 11
-973.8293012826106
 21
-1114.851725477835
 31
0.0
 11
-973.6451564006173
 21
-1114.885079454139
 31
0.0
 11
-973.4694334276177
 21
-1114.877300105609
 31
0.0
 11
-973.3101692072653
 21
-1114.828742943398
 31
0.0
 11
-973.1746476129916
 21
-1114.741629019755
 31
0.0
  0
SPLINE
  5
DF
330
47
100
AcDbEntity
  8
0
  6
Continuous
 62
     7
100
AcDbSpline
210
0.0
220
0.0
230
1.0
 70
     8
 71
     3
 72
     9
 73
     5
 74
     3
 42
0.000000001
 43
0.0000000001
 44
0.00000001
 40
0.0
 40
0.0
 40
0.0
 40
0.0
 40
0.1369970414821997
 40
0.277375387538445
 40
0.277375387538445
 40
0.277375387538445
 40
0.277375387538445
 10
-971.8746476129899
 20
-1113.615795994834
 30
0.0
 10
-971.8418277050625
 20
-1113.583485053685
 30
0.0
 10
-971.7753778571398
 20
-1113.518065673639
 30
0.0
 10
-971.7356232224247
 20
-1113.433690307203
 30
0.0
 10
-971.7155036019763
 20
-1113.390988335823
 30
0.0
 11
-971.8746476129899
 21
-1113.615795994834
 31
0.0
 11
-971.7826999792453
 21
-1113.514239004198
 31
0.0
 11
-971.7155036019763
 21
-1113.390988335823
 31
0.0
  0
SPLINE
  5
E0
330
47
100
AcDbEntity
  8
0
  6
Continuous
 62
     7
100
AcDbSpline
210
0.0
220
0.0
230
1.0
 70
     8
 71
     3
 72
     9
 73
     5
 74
     3
 42
0.000000001
 43
0.0000000001
 44
0.00000001
 40
0.0
 40
0.0
 40
0.0
 40
0.0
 40
0.1369970414822919
 40
0.2773753875385373
 40
0.2773753875385373
 40
0.2773753875385373
 40
0.2773753875385373
 10
-973.1746476129916
 20
-1114.741629019755
 30
0.0
 10
-973.1418277050642
 20
-1114.709318078605
 30
0.0
 10
-973.0753778571418
 20
-1114.64389869856
 30
0.0
 10
-973.0356232224264
 20
-1114.559523332124
 30
0.0
 10
-973.0155036019781
 20
-1114.516821360744
 30
0.0
 11
-973.1746476129916
 21
-1114.741629019755
 31
0.0
 11
-973.0826999792472
 21
-1114.640072029119
 31
0.0
 11
-973.0155036019781
 21
-1114.516821360744
 31
0.0
  0
SPLINE
  5
E1
330
47
100
AcDbEntity
  8
0
  6
Continuous
 62
     7
100
AcDbSpline
210
0.0
220
0.0
230
1.0
 70
     8
 71
     3
 72
    13
 73
     9
 74
     7
 42
0.000000001
 43
0.0000000001
 44
0.00000001
 40
0.0
 40
0.0
 40
0.0
 40
0.0
 40
0.1326766307829538
 40
0.2753891802501581
 40
0.4209469249346057
 40
0.5611001141971854
 40
0.6896547071068974
 40
0.8055679737607203
 40
0.8055679737607203
 40
0.8055679737607203
 40
0.8055679737607203
 10
-972.4664058442547
 20
-1112.47387820812
 30
0.0
 10
-972.4713301623042
 20
-1112.429552406678
 30
0.0
 10
-972.4815512981083
 20
-1112.337547916474
 30
0.0
 10
-972.5511603693722
 20
-1112.212089609694
 30
0.0
 10
-972.6495950868646
 20
-1112.106610373065
 30
0.0
 10
-972.7695028278011
 20
-1112.035751050921
 30
0.0
 10
-972.8982973028692
 20
-1112.002686791756
 30
0.0
 10
-972.9780809901316
 20
-1112.024349445259
 30
0.0
 10
-973.015910042747
 20
-1112.034620695626
 30
0.0
 11
-972.4664058442547
 21
-1112.47387820812
 31
0.0
 11
-972.4893765018953
 21
-1112.343205192052
 31
0.0
 11
-972.5552396645344
 21
-1112.216599837781
 31
0.0
 11
-972.6552628984873
 21
-1112.110852922356
 31
0.0
 11
-972.7761798308312
 21
-1112.039986759802
 31
0.0
 11
-972.9019554949298
 21
-1112.013401666099
 31
0.0
 11
-973.015910042747
 21
-1112.034620695626
 31
0.0
  0
SPLINE
  5
E2
330
47
100
AcDbEntity
  8
0
  6
Continuous
 62
     7
100
AcDbSpline
210
0.0
220
0.0
230
1.0
 70
     8
 71
     3
 72
     9
 73
     5
 74
     3
 42
0.000000001
 43
0.0000000001
 44
0.00000001
 40
0.0
 40
0.0
 40
0.0
 40
0.0
 40
0.1400941260406788
 40
0.2872690555737255
 40
0.2872690555737255
 40
0.2872690555737255
 40
0.2872690555737255
 10
-972.5186335656381
 20
-1113.295116174772
 30
0.0
 10
-972.5034522398032
 20
-1113.250677166421
 30
0.0
 10
-972.4723222948542
 20
-1113.159553055989
 30
0.0
 10
-972.4684101305211
 20
-1113.063305072694
 30
0.0
 10
-972.4664058435757
 20
-1113.013994886677
 30
0.0
 11
-972.5186335656381
 21
-1113.295116174772
 31
0.0
 11
-972.4795627351701
 21
-1113.160580548904
 31
0.0
 11
-972.4664058435757
 21
-1113.013994886677
 31
0.0
  0
SPLINE
  5
E3
330
47
100
AcDbEntity
  8
0
  6
Continuous
 62
     7
100
AcDbSpline
210
0.0
220
0.0
230
1.0
 70
     8
 71
     3
 72
     9
 73
     5
 74
     3
 42
0.000000001
 43
0.0000000001
 44
0.00000001
 40
0.0
 40
0.0
 40
0.0
 40
0.0
 40
0.1941445355148725
 40
0.3801651591494266
 40
0.3801651591494266
 40
0.3801651591494266
 40
0.3801651591494266
 10
-983.6880281086867
 20
-1061.056043514766
 30
0.0
 10
-983.7529342133281
 20
-1061.066366210763
 30
0.0
 10
-983.880030442698
 20
-1061.086579671662
 30
0.0
 10
-983.9843828304017
 20
-1061.161729074187
 30
0.0
 10
-984.0354440444692
 20
-1061.198500834112
 30
0.0
 11
-983.6880281086867
 21
-1061.056043514766
 31
0.0
 11
-983.8768148518427
 21
-1061.101338844394
 31
0.0
 11
-984.0354440444692
 21
-1061.198500834112
 31
0.0
  0
SPLINE
  5
E4
330
47
100
AcDbEntity
  8
0
  6
Continuous
 62
     7
100
AcDbSpline
210
0.0
220
0.0
230
1.0
 70
     8
 71
     3
 72
     9
 73
     5
 74
     3
 42
0.000000001
 43
0.0000000001
 44
0.00000001
 40
0.0
 40
0.0
 40
0.0
 40
0.0
 40
0.1475988961369045
 40
0.2993930751939048
 40
0.2993930751939048
 40
0.2993930751939048
 40
0.2993930751939048
 10
-984.0354440444692
 20
-1061.198500834112
 30
0.0
 10
-984.0706587651105
 20
-1061.233546279854
 30
0.0
 10
-984.1420891178401
 20
-1061.30463329909
 30
0.0
 10
-984.1822359496783
 20
-1061.397102743968
 30
0.0
 10
-984.2025906382617
 20
-1061.443985341359
 30
0.0
 11
-984.0354440444692
 21
-1061.198500834112
 31
0.0
 11
-984.1334849655861
 21
-1061.30883402178
 31
0.0
 11
-984.2025906382617
 21
-1061.443985341359
 31
0.0
  0
SPLINE
  5
E5
330
47
100
AcDbEntity
  8
0
  6
Continuous
 62
     7
100
AcDbSpline
210
0.0
220
0.0
230
1.0
 70
     8
 71
     3
 72
    11
 73
     7
 74
     5
 42
0.000000001
 43
0.0000000001
 44
0.00000001
 40
0.0
 40
0.0
 40
0.0
 40
0.0
 40
0.1165985043506955
 40
0.240808709995045
 40
0.3765095978645117
 40
0.5229597702072057
 40
0.5229597702072057
 40
0.5229597702072057
 40
0.5229597702072057
 10
-985.0578265027707
 20
-1073.228655249519
 30
0.0
 10
-985.0314667912136
 20
-1073.199348547037
 30
0.0
 10
-984.9770265836997
 20
-1073.138821953996
 30
0.0
 10
-984.9473934626067
 20
-1073.012488344359
 30
0.0
 10
-984.9551019338061
 20
-1072.875343606763
 30
0.0
 10
-984.9913426370858
 20
-1072.787850692106
 30
0.0
 10
-985.0101533381227
 20
-1072.742437601039
 30
0.0
 11
-985.0578265027707
 21
-1073.228655249519
 31
0.0
 11
-984.987067225221
 21
-1073.135981971005
 31
0.0
 11
-984.9540957173319
 21
-1073.016227823317
 31
0.0
 11
-984.9620429454502
 21
-1072.880759844365
 31
0.0
 11
-985.0101533381227
 21
-1072.742437601039
 31
0.0
  0
SPLINE
  5
E6
330
47
100
AcDbEntity
  8
0
  6
Continuous
 62
     7
100
AcDbSpline
210
0.0
220
0.0
230
1.0
 70
     8
 71
     3
 72
    11
 73
     7
 74
     5
 42
0.000000001
 43
0.0000000001
 44
0.00000001
 40
0.0
 40
0.0
 40
0.0
 40
0.0
 40
0.0664049900192487
 40
0.1335036091614183
 40
0.1980685738281282
 40
0.2576960356534801
 40
0.2576960356534801
 40
0.2576960356534801
 40
0.2576960356534801
 10
-986.1352453430361
 20
-1071.030331896827
 30
0.0
 10
-986.1533499989447
 20
-1071.017353521931
 30
0.0
 10
-986.1897484122865
 20
-1070.991261195935
 30
0.0
 10
-986.2287485796768
 20
-1070.936963505158
 30
0.0
 10
-986.2545914963596
 20
-1070.877324522821
 30
0.0
 10
-986.2554060488467
 20
-1070.835580333
 30
0.0
 10
-986.2557971258894
 20
-1070.815538046672
 30
0.0
 11
-986.1352453430361
 21
-1071.030331896827
 31
0.0
 11
-986.187057696778
 21
-1070.98879754044
 31
0.0
 11
-986.2271340545987
 21
-1070.934982016835
 31
0.0
 11
-986.2509440325001
 21
-1070.874967684917
 31
0.0
 11
-986.2557971258894
 21
-1070.815538046672
 31
0.0
  0
SPLINE
  5
E7
330
47
100
AcDbEntity
  8
0
  6
Continuous
 62
     7
100
AcDbSpline
210
0.0
220
0.0
230
1.0
 70
     8
 71
     3
 72
     9
 73
     5
 74
     3
 42
0.000000001
 43
0.0000000001
 44
0.00000001
 40
0.0
 40
0.0
 40
0.0
 40
0.0
 40
4.728550128369769
 40
9.614890221593871
 40
9.614890221593871
 40
9.614890221593871
 40
9.614890221593871
 10
-984.2025906382617
 20
-1061.443985341359
 30
0.0
 10
-984.6927553223783
 20
-1062.946455262552
 30
0.0
 10
-985.6894412851047
 20
-1066.001531974174
 30
0.0
 10
-986.0649576525439
 20
-1069.193408724657
 30
0.0
 10
-986.2557971258894
 20
-1070.815538046672
 30
0.0
 11
-984.2025906382617
 21
-1061.443985341359
 31
0.0
 11
-985.5228474662341
 21
-1065.984481815419
 31
0.0
 11
-986.2557971258894
 21
-1070.815538046672
 31
0.0
  0
SPLINE
  5
E8
330
47
100
AcDbEntity
  8
0
  6
Continuous
 62
     7
100
AcDbSpline
210
0.0
220
0.0
230
1.0
 70
     8
 71
     3
 72
    11
 73
     7
 74
     5
 42
0.000000001
 43
0.0000000001
 44
0.00000001
 40
0.0
 40
0.0
 40
0.0
 40
0.0
 40
0.2866651805007068
 40
0.5936946386966953
 40
0.9101381893559419
 40
1.222370538996741
 40
1.222370538996741
 40
1.222370538996741
 40
1.222370538996741
 10
-981.0444166951886
 20
-1105.70881876743
 30
0.0
 10
-981.0535725098657
 20
-1105.613019248402
 30
0.0
 10
-981.072534569794
 20
-1105.414614754274
 30
0.0
 10
-981.2065893484868
 20
-1105.137042938519
 30
0.0
 10
-981.3975730792733
 20
-1104.885953604684
 30
0.0
 10
-981.5700224199279
 20
-1104.764822783405
 30
0.0
 10
-981.6556695168315
 20
-1104.704663077409
 30
0.0
 11
-981.0444166951886
 21
-1105.70881876743
 31
0.0
 11
-981.0878506541111
 21
-1105.425463129015
 31
0.0
 11
-981.2137931456034
 21
-1105.145453166991
 31
0.0
 11
-981.4096140076401
 21
-1104.896875790119
 31
0.0
 11
-981.6556695168315
 21
-1104.704663077409
 31
0.0
  0
SPLINE
  5
E9
330
47
100
AcDbEntity
  8
0
  6
Continuous
 62
     7
100
AcDbSpline
210
0.0
220
0.0
230
1.0
 70
     8
 71
     3
 72
     9
 73
     5
 74
     3
 42
0.000000001
 43
0.0000000001
 44
0.00000001
 40
0.0
 40
0.0
 40
0.0
 40
0.0
 40
4.046280232487256
 40
8.027972639974076
 40
8.027972639974076
 40
8.027972639974076
 40
8.027972639974076
 10
-938.3443292646297
 20
-1117.207569665952
 30
0.0
 10
-936.9954636764481
 20
-1117.160852979037
 30
0.0
 10
-934.3192634606293
 20
-1117.068165289725
 30
0.0
 10
-931.6651187665144
 20
-1116.713244418266
 30
0.0
 10
-930.3487231778801
 20
-1116.537211703447
 30
0.0
 11
-938.3443292646297
 21
-1117.207569665952
 31
0.0
 11
-934.3033354600999
 21
-1117.000802177642
 31
0.0
 11
-930.3487231778801
 21
-1116.537211703447
 31
0.0
  0
SPLINE
  5
EA
330
47
100
AcDbEntity
  8
0
  6
Continuous
 62
     7
100
AcDbSpline
210
0.0
220
0.0
230
1.0
 70
     8
 71
     3
 72
     9
 73
     5
 74
     3
 42
0.000000001
 43
0.0000000001
 44
0.00000001
 40
0.0
 40
0.0
 40
0.0
 40
0.0
 40
0.060446486471928
 40
0.1269496677171073
 40
0.1269496677171073
 40
0.1269496677171073
 40
0.1269496677171073
 10
-933.7858437857022
 20
-1086.090483408879
 30
0.0
 10
-933.7724613876643
 20
-1086.074565012929
 30
0.0
 10
-933.7443557017516
 20
-1086.041133200177
 30
0.0
 10
-933.7442545960552
 20
-1085.997294862758
 30
0.0
 10
-933.7442016410289
 20
-1085.974329940828
 30
0.0
 11
-933.7858437857022
 21
-1086.090483408879
 31
0.0
 11
-933.7520456381653
 21
-1086.040368907641
 31
0.0
 11
-933.7442016410289
 21
-1085.974329940828
 31
0.0
  0
SPLINE
  5
EB
330
47
100
AcDbEntity
  8
0
  6
Continuous
 62
     7
100
AcDbSpline
210
0.0
220
0.0
230
1.0
 70
     8
 71
     3
 72
     9
 73
     5
 74
     3
 42
0.000000001
 43
0.0000000001
 44
0.00000001
 40
0.0
 40
0.0
 40
0.0
 40
0.0
 40
0.0437904985438734
 40
0.0853632297617599
 40
0.0853632297617599
 40
0.0853632297617599
 40
0.0853632297617599
 10
-933.8647534238112
 20
-1086.119523186724
 30
0.0
 10
-933.8499505424702
 20
-1086.118066666098
 30
0.0
 10
-933.8210944761563
 20
-1086.1152273715
 30
0.0
 10
-933.7973887184088
 20
-1086.09858729709
 30
0.0
 10
-933.7858437857022
 20
-1086.090483408879
 30
0.0
 11
-933.8647534238112
 21
-1086.119523186724
 31
0.0
 11
-933.8217001313686
 21
-1086.11152181661
 31
0.0
 11
-933.7858437857022
 21
-1086.090483408879
 31
0.0
  0
SPLINE
  5
EC
330
47
100
AcDbEntity
  8
0
  6
Continuous
 62
     7
100
AcDbSpline
210
0.0
220
0.0
230
1.0
 70
     8
 71
     3
 72
    13
 73
     9
 74
     7
 42
0.000000001
 43
0.0000000001
 44
0.00000001
 40
0.0
 40
0.0
 40
0.0
 40
0.0
 40
0.1633276505569441
 40
0.3356136710602583
 40
0.5083075082481583
 40
0.6727220658148652
 40
0.8231054956679049
 40
0.9596313758716226
 40
0.9596313758716226
 40
0.9596313758716226
 40
0.9596313758716226
 10
-934.6148454286969
 20
-1087.939828947358
 30
0.0
 10
-934.6658053596345
 20
-1087.919630977525
 30
0.0
 10
-934.7705203201232
 20
-1087.878127184575
 30
0.0
 10
-934.898542974048
 20
-1087.762360476639
 30
0.0
 10
-934.995700458267
 20
-1087.621015403571
 30
0.0
 10
-935.0477121712049
 20
-1087.465641179238
 30
0.0
 10
-935.054189082735
 20
-1087.309905732115
 30
0.0
 10
-935.0105914036261
 20
-1087.223278371673
 30
0.0
 10
-934.9898454287091
 20
-1087.182056719053
 30
0.0
 11
-934.6148454286969
 21
-1087.939828947358
 31
0.0
 11
-934.7629442730488
 21
-1087.87096202234
 31
0.0
 11
-934.8931806283144
 21
-1087.758174768342
 31
0.0
 11
-934.9898448665454
 21
-1087.615069258659
 31
0.0
 11
-935.04127969468
 21
-1087.458907142929
 31
0.0
 11
-935.0412790554188
 21
-1087.308523707006
 31
0.0
 11
-934.9898454287091
 21
-1087.182056719053
 31
0.0
  0
SPLINE
  5
ED
330
47
100
AcDbEntity
  8
0
  6
Continuous
 62
     7
100
AcDbSpline
210
0.0
220
0.0
230
1.0
 70
     8
 71
     3
 72
    11
 73
     7
 74
     5
 42
0.000000001
 43
0.0000000001
 44
0.00000001
 40
0.0
 40
0.0
 40
0.0
 40
0.0
 40
0.0935705952092244
 40
0.1815181363947215
 40
0.2647690944657802
 40
0.3453217744457371
 40
0.3453217744457371
 40
0.3453217744457371
 40
0.3453217744457371
 10
-933.1532112303738
 20
-1088.361766396279
 30
0.0
 10
-933.1837415376295
 20
-1088.354725995963
 30
0.0
 10
-933.2429674587761
 20
-1088.341068297242
 30
0.0
 10
-933.3319997343815
 20
-1088.345541786317
 30
0.0
 10
-933.414236969897
 20
-1088.36850640078
 30
0.0
 10
-933.4586817439006
 20
-1088.400889692349
 30
0.0
 10
-933.4805380657233
 20
-1088.416814625161
 30
0.0
 11
-933.1532112303738
 21
-1088.361766396279
 31
0.0
 11
-933.2452836715141
 21
-1088.345089407998
 31
0.0
 11
-933.3331451581641
 21
-1088.348979082194
 31
0.0
 11
-933.4127772684782
 21
-1088.37325766329
 31
0.0
 11
-933.4805380657233
 21
-1088.416814625161
 31
0.0
  0
SPLINE
  5
EE
330
47
100
AcDbEntity
  8
0
  6
Continuous
 62
     7
100
AcDbSpline
210
0.0
220
0.0
230
1.0
 70
     8
 71
     3
 72
    11
 73
     7
 74
     5
 42
0.000000001
 43
0.0000000001
 44
0.00000001
 40
0.0
 40
0.0
 40
0.0
 40
0.0
 40
0.1340578103046321
 40
0.2712905770939947
 40
0.4142835042395981
 40
0.5646514904311635
 40
0.5646514904311635
 40
0.5646514904311635
 40
0.5646514904311635
 10
-938.7442103382072
 20
-1117.352889428792
 30
0.0
 10
-938.7760383813592
 20
-1117.384574748669
 30
0.0
 10
-938.8404482556423
 20
-1117.448695817139
 30
0.0
 10
-938.9059569114439
 20
-1117.572188981463
 30
0.0
 10
-938.9482515453979
 20
-1117.710560393027
 30
0.0
 10
-938.953097954911
 20
-1117.808577666081
 30
0.0
 10
-938.9555820712783
 20
-1117.858818374809
 30
0.0
 11
-938.7442103382072
 21
-1117.352889428792
 31
0.0
 11
-938.8344416072658
 21
-1117.452034852337
 31
0.0
 11
-938.9010203787984
 21
-1117.572035269466
 31
0.0
 11
-938.9418324769134
 21
-1117.709080336625
 31
0.0
 11
-938.9555820712783
 21
-1117.858818374809
 31
0.0
  0
SPLINE
  5
EF
330
47
100
AcDbEntity
  8
0
  6
Continuous
 62
     7
100
AcDbSpline
210
0.0
220
0.0
230
1.0
 70
     8
 71
     3
 72
     9
 73
     5
 74
     3
 42
0.000000001
 43
0.0000000001
 44
0.00000001
 40
0.0
 40
0.0
 40
0.0
 40
0.0
 40
5.46463252340368
 40
10.76973365190624
 40
10.76973365190624
 40
10.76973365190624
 40
10.76973365190624
 10
-931.7224083156224
 20
-1071.888303777085
 30
0.0
 10
-931.2345193531623
 20
-1073.646627833063
 30
0.0
 10
-930.2729846024897
 20
-1077.111944430107
 30
0.0
 10
-929.8684652477842
 20
-1080.685142274581
 30
0.0
 10
-929.6692016401536
 20
-1082.445276419684
 30
0.0
 11
-931.7224083156224
 21
-1071.888303777085
 31
0.0
 11
-930.4021513599196
 21
-1077.191051196349
 31
0.0
 11
-929.6692016401536
 21
-1082.445276419684
 31
0.0
  0
SPLINE
  5
F0
330
47
100
AcDbEntity
  8
0
  6
Continuous
 62
     7
100
AcDbSpline
210
0.0
220
0.0
230
1.0
 70
     8
 71
     3
 72
    13
 73
     9
 74
     7
 42
0.000000001
 43
0.0000000001
 44
0.00000001
 40
0.0
 40
0.0
 40
0.0
 40
0.0
 40
0.1633276505570782
 40
0.3356136710597447
 40
0.5083075082464431
 40
0.6727220658126495
 40
0.8231054956659165
 40
0.959631375877923
 40
0.959631375877923
 40
0.959631375877923
 40
0.959631375877923
 10
-930.5398454278671
 20
-1084.410775426236
 30
0.0
 10
-930.5908053588045
 20
-1084.390577456402
 30
0.0
 10
-930.6955203192925
 20
-1084.349073663451
 30
0.0
 10
-930.8235429732156
 20
-1084.233306955514
 30
0.0
 10
-930.9207004574346
 20
-1084.091961882447
 30
0.0
 10
-930.9727121703709
 20
-1083.936587658113
 30
0.0
 10
-930.9791890819002
 20
-1083.780852210989
 30
0.0
 10
-930.935591402788
 20
-1083.694224850545
 30
0.0
 10
-930.9148454278687
 20
-1083.653003197922
 30
0.0
 11
-930.5398454278671
 21
-1084.410775426236
 31
0.0
 11
-930.6879442722181
 21
-1084.341908501216
 31
0.0
 11
-930.8181806274825
 21
-1084.229121247217
 31
0.0
 11
-930.9148448657123
 21
-1084.086015737535
 31
0.0
 11
-930.9662796938461
 21
-1083.929853621805
 31
0.0
 11
-930.9662790545837
 21
-1083.779470185882
 31
0.0
 11
-930.9148454278687
 21
-1083.653003197922
 31
0.0
  0
SPLINE
  5
F1
330
47
100
AcDbEntity
  8
0
  6
Continuous
 62
     7
100
AcDbSpline
210
0.0
220
0.0
230
1.0
 70
     8
 71
     3
 72
     9
 73
     5
 74
     3
 42
0.000000001
 43
0.0000000001
 44
0.00000001
 40
0.0
 40
0.0
 40
0.0
 40
0.0
 40
0.1350101821377494
 40
0.2727212693360703
 40
0.2727212693360703
 40
0.2727212693360703
 40
0.2727212693360703
 10
-925.9373265455374
 20
-1112.856981663882
 30
0.0
 10
-925.904807245106
 20
-1112.825420421232
 30
0.0
 10
-925.8391181044835
 20
-1112.761666534405
 30
0.0
 10
-925.7966699717483
 20
-1112.68054590777
 30
0.0
 10
-925.7752357203756
 20
-1112.639583898349
 30
0.0
 11
-925.9373265455374
 21
-1112.856981663882
 31
0.0
 11
-925.8454643890343
 21
-1112.758041814626
 31
0.0
 11
-925.7752357203756
 21
-1112.639583898349
 31
0.0
  0
SPLINE
  5
F2
330
47
100
AcDbEntity
  8
0
  6
Continuous
 62
     7
100
AcDbSpline
210
0.0
220
0.0
230
1.0
 70
     8
 71
     3
 72
     9
 73
     5
 74
     3
 42
0.000000001
 43
0.0000000001
 44
0.00000001
 40
0.0
 40
0.0
 40
0.0
 40
0.0
 40
0.1350101821310437
 40
0.2727212693019904
 40
0.2727212693019904
 40
0.2727212693019904
 40
0.2727212693019904
 10
-930.0123265463033
 20
-1116.386035185015
 30
0.0
 10
-929.9798072458708
 20
-1116.354473942366
 30
0.0
 10
-929.9141181052505
 20
-1116.290720055549
 30
0.0
 10
-929.8716699725844
 20
-1116.209599428887
 30
0.0
 10
-929.8502357212485
 20
-1116.168637419455
 30
0.0
 11
-930.0123265463033
 21
-1116.386035185015
 31
0.0
 11
-929.9204643898137
 21
-1116.287095335756
 31
0.0
 11
-929.8502357212485
 21
-1116.168637419455
 31
0.0
  0
SPLINE
  5
F3
330
47
100
AcDbEntity
  8
0
  6
Continuous
 62
     7
100
AcDbSpline
210
0.0
220
0.0
230
1.0
 70
     8
 71
     3
 72
     9
 73
     5
 74
     3
 42
0.000000001
 43
0.0000000001
 44
0.00000001
 40
0.0
 40
0.0
 40
0.0
 40
0.0
 40
0.1895271482961999
 40
0.372545009785665
 40
0.372545009785665
 40
0.372545009785665
 40
0.372545009785665
 10
-930.3487231778801
 20
-1116.537211703447
 30
0.0
 10
-930.2861878849358
 20
-1116.523709663508
 30
0.0
 10
-930.1632650729107
 20
-1116.497169291126
 30
0.0
 10
-930.0620498918752
 20
-1116.422645856194
 30
0.0
 10
-930.0123265463033
 20
-1116.386035185015
 30
0.0
 11
-930.3487231778801
 21
-1116.537211703447
 31
0.0
 11
-930.1667355095304
 21
-1116.48428695455
 31
0.0
 11
-930.0123265463033
 21
-1116.386035185015
 31
0.0
  0
SPLINE
  5
F4
330
47
100
AcDbEntity
  8
0
  6
Continuous
 62
     7
100
AcDbSpline
210
0.0
220
0.0
230
1.0
 70
     8
 71
     3
 72
     9
 73
     5
 74
     3
 42
0.000000001
 43
0.0000000001
 44
0.00000001
 40
0.0
 40
0.0
 40
0.0
 40
0.0
 40
0.3504092008242359
 40
0.7013515239817663
 40
0.7013515239817663
 40
0.7013515239817663
 40
0.7013515239817663
 10
-929.0661209228954
 20
-1095.366933646529
 30
0.0
 10
-929.0678632107613
 20
-1095.250143073694
 30
0.0
 10
-929.071350457255
 20
-1095.01638423994
 30
0.0
 10
-929.0766754012359
 20
-1094.782660045483
 30
0.0
 10
-929.0793399070719
 20
-1094.665709117405
 30
0.0
 11
-929.0661209228954
 21
-1095.366933646529
 31
0.0
 11
-929.0718065226637
 21
-1095.016570574851
 31
0.0
 11
-929.0793399070719
 21
-1094.665709117405
 31
0.0
  0
SPLINE
  5
F5
330
47
100
AcDbEntity
  8
0
  6
Continuous
 62
     7
100
AcDbSpline
210
0.0
220
0.0
230
1.0
 70
     8
 71
     3
 72
    11
 73
     7
 74
     5
 42
0.000000001
 43
0.0000000001
 44
0.00000001
 40
0.0
 40
0.0
 40
0.0
 40
0.0
 40
0.0935705952104287
 40
0.1815181363949368
 40
0.2647690944650778
 40
0.3453217744443107
 40
0.3453217744443107
 40
0.3453217744443107
 40
0.3453217744443107
 10
-929.4990932666356
 20
-1095.680869813337
 30
0.0
 10
-929.4685629593802
 20
-1095.687910213657
 30
0.0
 10
-929.4093370382345
 20
-1095.701567912384
 30
0.0
 10
-929.3203047626291
 20
-1095.697094423309
 30
0.0
 10
-929.2380675271143
 20
-1095.674129808847
 30
0.0
 10
-929.1936227531113
 20
-1095.641746517279
 30
0.0
 10
-929.1717664312886
 20
-1095.625821584467
 30
0.0
 11
-929.4990932666356
 21
-1095.680869813337
 31
0.0
 11
-929.4070208254956
 21
-1095.697546801626
 31
0.0
 11
-929.3191593388465
 21
-1095.693657127433
 31
0.0
 11
-929.2395272285331
 21
-1095.669378546337
 31
0.0
 11
-929.1717664312886
 21
-1095.625821584467
 31
0.0
  0
SPLINE
  5
F6
330
47
100
AcDbEntity
  8
0
  6
Continuous
 62
     7
100
AcDbSpline
210
0.0
220
0.0
230
1.0
 70
     8
 71
     3
 72
    11
 73
     7
 74
     5
 42
0.000000001
 43
0.0000000001
 44
0.00000001
 40
0.0
 40
0.0
 40
0.0
 40
0.0
 40
0.0683157025477118
 40
0.1383089975322611
 40
0.211334761569664
 40
0.2882203848933504
 40
0.2882203848933504
 40
0.2882203848933504
 40
0.2882203848933504
 10
-929.1717664312886
 20
-1095.625821584467
 30
0.0
 10
-929.1555661846653
 20
-1095.609649427828
 30
0.0
 10
-929.1227678816676
 20
-1095.576907973681
 30
0.0
 10
-929.0897713370264
 20
-1095.513653422448
 30
0.0
 10
-929.068876000752
 20
-1095.442760240212
 30
0.0
 10
-929.0670549067954
 20
-1095.392639342605
 30
0.0
 10
-929.0661209228954
 20
-1095.366933646529
 30
0.0
 11
-929.1717664312886
 21
-1095.625821584467
 31
0.0
 11
-929.125899051326
 21
-1095.575193342444
 31
0.0
 11
-929.0923382365729
 21
-1095.51377076196
 31
0.0
 11
-929.0721907464848
 21
-1095.44357930128
 31
0.0
 11
-929.0661209228954
 21
-1095.366933646529
 31
0.0
  0
SPLINE
  5
F7
330
47
100
AcDbEntity
  8
0
  6
Continuous
 62
     7
100
AcDbSpline
210
0.0
220
0.0
230
1.0
 70
     8
 71
     3
 72
    13
 73
     9
 74
     7
 42
0.000000001
 43
0.0000000001
 44
0.00000001
 40
0.0
 40
0.0
 40
0.0
 40
0.0
 40
0.1161495820045782
 40
0.2393253191795806
 40
0.3668573522019668
 40
0.4952446331240969
 40
0.620831259178658
 40
0.7404784002947548
 40
0.7404784002947548
 40
0.7404784002947548
 40
0.7404784002947548
 10
-920.9293399051679
 20
-1087.607602075026
 30
0.0
 10
-920.9332246425032
 20
-1087.568907901727
 30
0.0
 10
-920.9412291285106
 20
-1087.489178857839
 30
0.0
 10
-920.9881430641436
 20
-1087.374645955981
 30
0.0
 10
-921.0565954945017
 20
-1087.267698916756
 30
0.0
 10
-921.1454922356343
 20
-1087.175874793653
 30
0.0
 10
-921.2475913869864
 20
-1087.102200512751
 30
0.0
 10
-921.324635980218
 20
-1087.073922644201
 30
0.0
 10
-921.362225281686
 20
-1087.060126157142
 30
0.0
 11
-920.9293399051679
 21
-1087.607602075026
 31
0.0
 11
-920.9463173801587
 21
-1087.492699981791
 31
0.0
 11
-920.9907744906279
 21
-1087.377826885958
 31
0.0
 11
-921.0597742398676
 21
-1087.270572726939
 31
0.0
 11
-921.1487573659472
 21
-1087.178023833482
 31
0.0
 11
-921.2518448258043
 21
-1087.106295340522
 31
0.0
 11
-921.362225281686
 21
-1087.060126157142
 31
0.0
  0
SPLINE
  5
F8
330
47
100
AcDbEntity
  8
0
  6
Continuous
 62
     7
100
AcDbSpline
210
0.0
220
0.0
230
1.0
 70
     8
 71
     3
 72
    11
 73
     7
 74
     5
 42
0.000000001
 43
0.0000000001
 44
0.00000001
 40
0.0
 40
0.0
 40
0.0
 40
0.0
 40
0.0683157025477881
 40
0.138308997532392
 40
0.2113347615363185
 40
0.2882203846601217
 40
0.2882203846601217
 40
0.2882203846601217
 40
0.2882203846601217
 10
-925.0967664300256
 20
-1092.096768063008
 30
0.0
 10
-925.0805661834015
 20
-1092.080595906369
 30
0.0
 10
-925.0477678804032
 20
-1092.047854452222
 30
0.0
 10
-925.0147713357744
 20
-1091.984599901
 30
0.0
 10
-924.9938759994902
 20
-1091.913706718835
 30
0.0
 10
-924.992054905692
 20
-1091.863585821295
 30
0.0
 10
-924.9911209218744
 20
-1091.83788012528
 30
0.0
 11
-925.0967664300256
 21
-1092.096768063008
 31
0.0
 11
-925.0508990500629
 21
-1092.046139820985
 31
0.0
 11
-925.0173382353097
 21
-1091.984717240501
 31
0.0
 11
-924.9971907452518
 21
-1091.914525779847
 31
0.0
 11
-924.9911209218744
 21
-1091.83788012528
 31
0.0
  0
SPLINE
  5
F9
330
47
100
AcDbEntity
  8
0
  6
Continuous
 62
     7
100
AcDbSpline
210
0.0
220
0.0
230
1.0
 70
     8
 71
     3
 72
    13
 73
     9
 74
     7
 42
0.000000001
 43
0.0000000001
 44
0.00000001
 40
0.0
 40
0.0
 40
0.0
 40
0.0
 40
0.1161495818627607
 40
0.2393253190258861
 40
0.3668573520481493
 40
0.4952446329702921
 40
0.6208312590260747
 40
0.7404784001482809
 40
0.7404784001482809
 40
0.7404784001482809
 40
0.7404784001482809
 10
-929.0793399070719
 20
-1094.665709117405
 30
0.0
 10
-929.0832246444926
 20
-1094.627014944166
 30
0.0
 10
-929.0912291306802
 20
-1094.547285900355
 30
0.0
 10
-929.1381430662727
 20
-1094.432752998556
 30
0.0
 10
-929.2065954966342
 20
-1094.325805959331
 30
0.0
 10
-929.2954922377648
 20
-1094.233981836227
 30
0.0
 10
-929.3975913891195
 20
-1094.160307555326
 30
0.0
 10
-929.4746359823484
 20
-1094.132029686762
 30
0.0
 10
-929.5122252838155
 20
-1094.118233199696
 30
0.0
 11
-929.0793399070719
 21
-1094.665709117405
 31
0.0
 11
-929.096317382262
 21
-1094.550807024342
 31
0.0
 11
-929.1407744927594
 21
-1094.435933928533
 31
0.0
 11
-929.2097742419988
 21
-1094.328679769515
 31
0.0
 11
-929.298757368078
 21
-1094.236130876057
 31
0.0
 11
-929.4018448279345
 21
-1094.164402383094
 31
0.0
 11
-929.5122252838155
 21
-1094.118233199696
 31
0.0
  0
SPLINE
  5
FA
330
47
100
AcDbEntity
  8
0
  6
Continuous
 62
     7
100
AcDbSpline
210
0.0
220
0.0
230
1.0
 70
     8
 71
     3
 72
    11
 73
     7
 74
     5
 42
0.000000001
 43
0.0000000001
 44
0.00000001
 40
0.0
 40
0.0
 40
0.0
 40
0.0
 40
6.519074346035964
 40
12.85094796776492
 40
19.00656787224805
 40
25.00518616806524
 40
25.00518616806524
 40
25.00518616806524
 40
25.00518616806524
 10
-924.9911209218744
 20
-1091.83788012528
 30
0.0
 10
-925.0220912892588
 20
-1094.012950407587
 30
0.0
 10
-925.0831426986263
 20
-1098.300631991822
 30
0.0
 10
-926.018072046716
 20
-1104.58147762983
 30
0.0
 10
-927.5097084744832
 20
-1110.580073380538
 30
0.0
 10
-929.0768076025648
 20
-1114.32189432058
 30
0.0
 10
-929.8502357212485
 20
-1116.168637419455
 30
0.0
 11
-924.9911209218744
 21
-1091.83788012528
 31
0.0
 11
-925.2309928888724
 21
-1098.352539884064
 31
0.0
 11
-926.1278757721934
 21
-1104.620571845437
 31
0.0
 11
-927.6727832904635
 21
-1110.579172115929
 31
0.0
 11
-929.8502357212485
 21
-1116.168637419455
 31
0.0
  0
SPLINE
  5
FB
330
47
100
AcDbEntity
  8
0
  6
Continuous
 62
     7
100
AcDbSpline
210
0.0
220
0.0
230
1.0
 70
     8
 71
     3
 72
    11
 73
     7
 74
     5
 42
0.000000001
 43
0.0000000001
 44
0.00000001
 40
0.0
 40
0.0
 40
0.0
 40
0.0
 40
6.709470521240656
 40
13.22118191539923
 40
19.54638408107796
 40
25.70554133651004
 40
25.70554133651004
 40
25.70554133651004
 40
25.70554133651004
 10
-920.9293399051679
 20
-1087.607602075026
 30
0.0
 10
-920.9389748149221
 20
-1089.846505965377
 30
0.0
 10
-920.9579606639279
 20
-1094.25832289312
 30
0.0
 10
-921.8737074214819
 20
-1100.724833939905
 30
0.0
 10
-923.3768659583964
 20
-1106.897247917434
 30
0.0
 10
-924.9828993353728
 20
-1110.742519578309
 30
0.0
 10
-925.7752357203756
 20
-1112.639583898349
 30
0.0
 11
-920.9293399051679
 21
-1087.607602075026
 31
0.0
 11
-921.1128751363751
 21
-1094.314561855624
 31
0.0
 11
-921.9890715066444
 21
-1100.767054801446
 31
0.0
 11
-923.5486797544909
 21
-1106.896965450535
 31
0.0
 11
-925.7752357203756
 21
-1112.639583898349
 31
0.0
  0
SPLINE
  5
FC
330
47
100
AcDbEntity
  8
0
  6
Continuous
 62
     7
100
AcDbSpline
210
0.0
220
0.0
230
1.0
 70
     8
 71
     3
 72
     9
 73
     5
 74
     3
 42
0.000000001
 43
0.0000000001
 44
0.00000001
 40
0.0
 40
0.0
 40
0.0
 40
0.0
 40
0.1941445354744754
 40
0.3801651591022698
 40
0.3801651591022698
 40
0.3801651591022698
 40
0.3801651591022698
 10
-979.613028107882
 20
-1057.526989993638
 30
0.0
 10
-979.6779342125121
 20
-1057.537312689625
 30
0.0
 10
-979.8050304418691
 20
-1057.557526150506
 30
0.0
 10
-979.9093828295595
 20
-1057.632675553025
 30
0.0
 10
-979.9604440436249
 20
-1057.66944731295
 30
0.0
 11
-979.613028107882
 21
-1057.526989993638
 31
0.0
 11
-979.8018148510034
 21
-1057.572285323237
 31
0.0
 11
-979.9604440436249
 21
-1057.66944731295
 31
0.0
  0
SPLINE
  5
FD
330
47
100
AcDbEntity
  8
0
  6
Continuous
 62
     7
100
AcDbSpline
210
0.0
220
0.0
230
1.0
 70
     8
 71
     3
 72
    13
 73
     9
 74
     7
 42
0.000000001
 43
0.0000000001
 44
0.00000001
 40
0.0
 40
0.0
 40
0.0
 40
0.0
 40
8.982915678798133
 40
17.75705206838072
 40
26.28600325904876
 40
34.54507033484906
 40
42.52357716338459
 40
50.22689919448251
 40
50.22689919448251
 40
50.22689919448251
 40
50.22689919448251
 10
-932.2369708606076
 20
-1071.203279135109
 30
0.0
 10
-934.7731265588325
 20
-1069.606889577614
 30
0.0
 10
-939.7864930941812
 20
-1066.451213470264
 30
0.0
 10
-947.7446490662445
 20
-1062.734063866382
 30
0.0
 10
-955.7937560843834
 20
-1059.89129319586
 30
0.0
 10
-963.8567505233132
 20
-1058.05571445578
 30
0.0
 10
-971.8165406309474
 20
-1057.135819294087
 30
0.0
 10
-977.0447806749545
 20
-1057.39813412286
 30
0.0
 10
-979.613028107882
 20
-1057.526989993638
 30
0.0
 11
-932.2369708606076
 21
-1071.203279135109
 31
0.0
 11
-939.9382391028882
 21
-1066.579077415303
 31
0.0
 11
-947.8728537916387
 21
-1062.833765794893
 31
0.0
 11
-955.9249995356869
 21
-1060.022012365661
 31
0.0
 11
-963.9771452681946
 21
-1058.184857476017
 31
0.0
 11
-971.9117599224887
 21
-1057.349117367799
 31
0.0
 11
-979.613028107882
 21
-1057.526989993638
 31
0.0
  0
SPLINE
  5
FE
330
47
100
AcDbEntity
  8
0
  6
Continuous
 62
     7
100
AcDbSpline
210
0.0
220
0.0
230
1.0
 70
     8
 71
     3
 72
     9
 73
     5
 74
     3
 42
0.000000001
 43
0.0000000001
 44
0.00000001
 40
0.0
 40
0.0
 40
0.0
 40
0.0
 40
0.1167706467130586
 40
0.2245587742796792
 40
0.2245587742796792
 40
0.2245587742796792
 40
0.2245587742796792
 10
-944.7535929231392
 20
-1120.473878173294
 30
0.0
 10
-944.7503153732862
 20
-1120.433928956002
 30
0.0
 10
-944.7440123790217
 20
-1120.357103599199
 30
0.0
 10
-944.6933582168097
 20
-1120.299267767431
 30
0.0
 10
-944.6690442299086
 20
-1120.271506594451
 30
0.0
 11
-944.7535929231392
 21
-1120.473878173294
 31
0.0
 11
-944.7317676906385
 21
-1120.35916529842
 31
0.0
 11
-944.6690442299086
 21
-1120.271506594451
 31
0.0
  0
SPLINE
  5
FF
330
47
100
AcDbEntity
  8
0
  6
Continuous
 62
     7
100
AcDbSpline
210
0.0
220
0.0
230
1.0
 70
     8
 71
     3
 72
     9
 73
     5
 74
     3
 42
0.000000001
 43
0.0000000001
 44
0.00000001
 40
0.0
 40
0.0
 40
0.0
 40
0.0
 40
0.1618789575039017
 40
0.3166210983416947
 40
0.3166210983416947
 40
0.3166210983416947
 40
0.3166210983416947
 10
-944.7013651996518
 20
-1121.325269829422
 30
0.0
 10
-944.7165452740793
 20
-1121.273263290484
 30
0.0
 10
-944.7462361539607
 20
-1121.171543039865
 30
0.0
 10
-944.7511778018983
 20
-1121.065715780107
 30
0.0
 10
-944.7535929224596
 20
-1121.013994851851
 30
0.0
 11
-944.7013651996518
 21
-1121.325269829422
 31
0.0
 11
-944.7404360304868
 21
-1121.168176649058
 31
0.0
 11
-944.7535929224596
 21
-1121.013994851851
 31
0.0
  0
SPLINE
  5
100
330
47
100
AcDbEntity
  8
0
  6
Continuous
 62
     7
100
AcDbSpline
210
0.0
220
0.0
230
1.0
 70
     8
 71
     3
 72
    11
 73
     7
 74
     5
 42
0.000000001
 43
0.0000000001
 44
0.00000001
 40
0.0
 40
0.0
 40
0.0
 40
0.0
 40
0.1120814190347438
 40
0.2341182392822234
 40
0.3695065289215793
 40
0.5146512471856696
 40
0.5146512471856696
 40
0.5146512471856696
 40
0.5146512471856696
 10
-944.6690442299086
 20
-1120.271506594451
 30
0.0
 10
-944.6367983616577
 20
-1120.251228185146
 30
0.0
 10
-944.5694424460924
 20
-1120.208870191555
 30
0.0
 10
-944.4406804400453
 20
-1120.212350121556
 30
0.0
 10
-944.3122551418005
 20
-1120.258162731959
 30
0.0
 10
-944.2409705772277
 20
-1120.319922974395
 30
0.0
 10
-944.2040887253575
 20
-1120.351877056123
 30
0.0
 11
-944.6690442299086
 21
-1120.271506594451
 31
0.0
 11
-944.569045855256
 21
-1120.220884757837
 31
0.0
 11
-944.4470371890607
 21
-1120.218263288713
 31
0.0
 11
-944.3196087608396
 21
-1120.264001516839
 31
0.0
 11
-944.2040887253575
 21
-1120.351877056123
 31
0.0
  0
SPLINE
  5
101
330
47
100
AcDbEntity
  8
0
  6
Continuous
 62
     7
100
AcDbSpline
210
0.0
220
0.0
230
1.0
 70
     8
 71
     3
 72
     9
 73
     5
 74
     3
 42
0.000000001
 43
0.0000000001
 44
0.00000001
 40
0.0
 40
0.0
 40
0.0
 40
0.0
 40
0.0335774140789015
 40
0.067475820445538
 40
0.067475820445538
 40
0.067475820445538
 40
0.067475820445538
 10
-943.3225971600875
 20
-1120.853942128998
 30
0.0
 10
-943.3143935884984
 20
-1120.846272765445
 30
0.0
 10
-943.2979080356978
 20
-1120.830860707493
 30
0.0
 10
-943.2851991096327
 20
-1120.812210575515
 30
0.0
 10
-943.2788144253199
 20
-1120.802841142605
 30
0.0
 11
-943.3225971600875
 21
-1120.853942128998
 31
0.0
 11
-943.2989216473468
 21
-1120.830132196571
 31
0.0
 11
-943.2788144253199
 21
-1120.802841142605
 31
0.0
  0
SPLINE
  5
102
330
47
100
AcDbEntity
  8
0
  6
Continuous
 62
     7
100
AcDbSpline
210
0.0
220
0.0
230
1.0
 70
     8
 71
     3
 72
    11
 73
     7
 74
     5
 42
0.000000001
 43
0.0000000001
 44
0.00000001
 40
0.0
 40
0.0
 40
0.0
 40
0.0
 40
0.1451447182641135
 40
0.2805330079032252
 40
0.4025698281508184
 40
0.5146512471855622
 40
0.5146512471855622
 40
0.5146512471855622
 40
0.5146512471855622
 10
-943.7875526646365
 20
-1120.773571667323
 30
0.0
 10
-943.7506708127665
 20
-1120.805525749051
 30
0.0
 10
-943.6793862481954
 20
-1120.86728599149
 30
0.0
 10
-943.5509609499511
 20
-1120.913098601893
 30
0.0
 10
-943.4221989439033
 20
-1120.916578531893
 30
0.0
 10
-943.3548430283386
 20
-1120.874220538303
 30
0.0
 10
-943.3225971600875
 20
-1120.853942128998
 30
0.0
 11
-943.7875526646365
 21
-1120.773571667323
 31
0.0
 11
-943.6720326291563
 21
-1120.86144720661
 31
0.0
 11
-943.5446042009356
 21
-1120.907185434736
 31
0.0
 11
-943.4225955347401
 21
-1120.904563965612
 31
0.0
 11
-943.3225971600875
 21
-1120.853942128998
 31
0.0
  0
SPLINE
  5
103
330
47
100
AcDbEntity
  8
0
  6
Continuous
 62
     7
100
AcDbSpline
210
0.0
220
0.0
230
1.0
 70
     8
 71
     3
 72
     9
 73
     5
 74
     3
 42
0.000000001
 43
0.0000000001
 44
0.00000001
 40
0.0
 40
0.0
 40
0.0
 40
0.0
 40
0.266959635410284
 40
0.5418544919723977
 40
0.5418544919723977
 40
0.5418544919723977
 40
0.5418544919723977
 10
-940.8006720452565
 20
-1124.331192968212
 30
0.0
 10
-940.8892856030956
 20
-1124.321657269265
 30
0.0
 10
-941.0691467025492
 20
-1124.302302408505
 30
0.0
 10
-941.2440567915511
 20
-1124.25609932547
 30
0.0
 10
-941.3327925747047
 20
-1124.232659462108
 30
0.0
 11
-940.8006720452565
 21
-1124.331192968212
 31
0.0
 11
-941.0653109521452
 21
-1124.296068956935
 31
0.0
 11
-941.3327925747047
 21
-1124.232659462108
 31
0.0
  0
SPLINE
  5
104
330
47
100
AcDbEntity
  8
0
  6
Continuous
 62
     7
100
AcDbSpline
210
0.0
220
0.0
230
1.0
 70
     8
 71
     3
 72
    11
 73
     7
 74
     5
 42
0.000000001
 43
0.0000000001
 44
0.00000001
 40
0.0
 40
0.0
 40
0.0
 40
0.0
 40
0.2847851583168143
 40
0.5847482050485898
 40
0.8888295146979937
 40
1.184913209271473
 40
1.184913209271473
 40
1.184913209271473
 40
1.184913209271473
 10
-943.3906974778118
 20
-1123.638593489808
 30
0.0
 10
-943.4799094932692
 20
-1123.604540043646
 30
0.0
 10
-943.6630881547844
 20
-1123.534618227779
 30
0.0
 10
-943.8952715069719
 20
-1123.344391974444
 30
0.0
 10
-944.0895178565073
 20
-1123.111303762783
 30
0.0
 10
-944.1665113939324
 20
-1122.92550466539
 30
0.0
 10
-944.2044951598778
 20
-1122.833843064369
 30
0.0
 11
-943.3906974778118
 21
-1123.638593489808
 31
0.0
 11
-943.6511161641635
 21
-1123.523334238928
 31
0.0
 11
-943.8874292429008
 21
-1123.33858045742
 31
0.0
 11
-944.0777611630488
 21
-1123.101432392892
 31
0.0
 11
-944.2044951598778
 21
-1122.833843064369
 31
0.0
  0
SPLINE
  5
105
330
47
100
AcDbEntity
  8
0
  6
Continuous
 62
     7
100
AcDbSpline
210
0.0
220
0.0
230
1.0
 70
     8
 71
     3
 72
     9
 73
     5
 74
     3
 42
0.000000001
 43
0.0000000001
 44
0.00000001
 40
0.0
 40
0.0
 40
0.0
 40
0.0
 40
0.2217676799099255
 40
0.4320797923791299
 40
0.4320797923791299
 40
0.4320797923791299
 40
0.4320797923791299
 10
-938.3443292646297
 20
-1117.207569665952
 30
0.0
 10
-938.4193718137493
 20
-1117.214454614336
 30
0.0
 10
-938.5655805304843
 20
-1117.227868882958
 30
0.0
 10
-938.6857288876163
 20
-1117.3119590581
 30
0.0
 10
-938.7442103382072
 20
-1117.352889428792
 30
0.0
 11
-938.3443292646297
 21
-1117.207569665952
 31
0.0
 11
-938.5625917764339
 21
-1117.246842819209
 31
0.0
 11
-938.7442103382072
 21
-1117.352889428792
 31
0.0
  0
SPLINE
  5
106
330
47
100
AcDbEntity
  8
0
  6
Continuous
 62
     7
100
AcDbSpline
210
0.0
220
0.0
230
1.0
 70
     8
 71
     3
 72
     9
 73
     5
 74
     3
 42
0.000000001
 43
0.0000000001
 44
0.00000001
 40
0.0
 40
0.0
 40
0.0
 40
0.0
 40
0.1347351597556124
 40
0.2806984683927593
 40
0.2806984683927593
 40
0.2806984683927593
 40
0.2806984683927593
 10
-937.555538066882
 20
-1091.945868146562
 30
0.0
 10
-937.5859305505835
 20
-1091.980569612852
 30
0.0
 10
-937.6492482576577
 20
-1092.052864400276
 30
0.0
 10
-937.6571269960382
 20
-1092.148896097885
 30
0.0
 10
-937.6612239334204
 20
-1092.198832619574
 30
0.0
 11
-937.555538066882
 21
-1091.945868146562
 31
0.0
 11
-937.6339423926997
 21
-1092.055441526296
 31
0.0
 11
-937.6612239334204
 21
-1092.198832619574
 31
0.0
  0
SPLINE
  5
107
330
47
100
AcDbEntity
  8
0
  6
Continuous
 62
     7
100
AcDbSpline
210
0.0
220
0.0
230
1.0
 70
     8
 71
     3
 72
    11
 73
     7
 74
     5
 42
0.000000001
 43
0.0000000001
 44
0.00000001
 40
0.0
 40
0.0
 40
0.0
 40
0.0
 40
0.0935705952092244
 40
0.181518136394237
 40
0.2647690944645531
 40
0.3453217744443734
 40
0.3453217744443734
 40
0.3453217744443734
 40
0.3453217744443734
 10
-937.228211231534
 20
-1091.890819917681
 30
0.0
 10
-937.2587415387896
 20
-1091.883779517364
 30
0.0
 10
-937.317967459936
 20
-1091.870121818644
 30
0.0
 10
-937.4069997355414
 20
-1091.874595307719
 30
0.0
 10
-937.4892369710564
 20
-1091.897559922181
 30
0.0
 10
-937.5336817450595
 20
-1091.929943213749
 30
0.0
 10
-937.555538066882
 20
-1091.945868146562
 30
0.0
 11
-937.228211231534
 21
-1091.890819917681
 31
0.0
 11
-937.3202836726743
 21
-1091.8741429294
 31
0.0
 11
-937.4081451593239
 21
-1091.878032603595
 31
0.0
 11
-937.4877772696374
 21
-1091.902311184691
 31
0.0
 11
-937.555538066882
 21
-1091.945868146562
 31
0.0
  0
SPLINE
  5
108
330
47
100
AcDbEntity
  8
0
  6
Continuous
 62
     7
100
AcDbSpline
210
0.0
220
0.0
230
1.0
 70
     8
 71
     3
 72
    13
 73
     9
 74
     7
 42
0.000000001
 43
0.0000000001
 44
0.00000001
 40
0.0
 40
0.0
 40
0.0
 40
0.0
 40
0.1172631642632747
 40
0.2419307378217314
 40
0.3712960139468437
 40
0.5017221147114788
 40
0.6293737711448318
 40
0.7509434390747728
 40
0.7509434390747728
 40
0.7509434390747728
 40
0.7509434390747728
 10
-937.6612239334166
 20
-1092.891652942603
 30
0.0
 10
-937.6581495591621
 20
-1092.930803305127
 30
0.0
 10
-937.6518066691438
 20
-1093.011576120103
 30
0.0
 10
-937.6059366360428
 20
-1093.128224034414
 30
0.0
 10
-937.5376671565612
 20
-1093.237431785148
 30
0.0
 10
-937.4480687363733
 20
-1093.331370190751
 30
0.0
 10
-937.3446668018311
 20
-1093.406773220615
 30
0.0
 10
-937.266393026673
 20
-1093.435602692113
 30
0.0
 10
-937.2282112315257
 20
-1093.449665644497
 30
0.0
 11
-937.6612239334166
 21
-1092.891652942603
 31
0.0
 11
-937.6464692718829
 21
-1093.007984150649
 31
0.0
 11
-937.6032112315238
 21
-1093.124906118077
 31
0.0
 11
-937.5343973677409
 21
-1093.234450754737
 31
0.0
 11
-937.4447175824704
 21
-1093.329152942604
 31
0.0
 11
-937.3402831356668
 21
-1093.40255861095
 31
0.0
 11
-937.2282112315257
 21
-1093.449665644497
 31
0.0
  0
SPLINE
  5
109
330
47
100
AcDbEntity
  8
0
  6
Continuous
 62
     7
100
AcDbSpline
210
0.0
220
0.0
230
1.0
 70
     8
 71
     3
 72
    11
 73
     7
 74
     5
 42
0.000000001
 43
0.0000000001
 44
0.00000001
 40
0.0
 40
0.0
 40
0.0
 40
0.0
 40
0.7109021505208525
 40
1.456923178872727
 40
2.219825694265638
 40
2.978311888107172
 40
2.978311888107172
 40
2.978311888107172
 40
2.978311888107172
 10
-975.8872061856841
 20
-1114.257659505556
 30
0.0
 10
-976.1106978153156
 20
-1114.175906726119
 30
0.0
 10
-976.5687216530828
 20
-1114.008362530305
 30
0.0
 10
-977.1748054005662
 20
-1113.571547372587
 30
0.0
 10
-977.7123591127672
 20
-1113.032196952851
 30
0.0
 10
-977.9728611927018
 20
-1112.594983038162
 30
0.0
 10
-978.1027341308322
 20
-1112.377010653881
 30
0.0
 11
-975.8872061856841
 21
-1114.257659505556
 31
0.0
 11
-976.543339076566
 21
-1113.984032937412
 31
0.0
 11
-977.1569351122539
 21
-1113.559713148757
 31
0.0
 11
-977.6882139591514
 21
-1113.012206949859
 31
0.0
 11
-978.1027341308322
 21
-1112.377010653881
 31
0.0
  0
SPLINE
  5
10A
330
47
100
AcDbEntity
  8
0
  6
Continuous
 62
     7
100
AcDbSpline
210
0.0
220
0.0
230
1.0
 70
     8
 71
     3
 72
     9
 73
     5
 74
     3
 42
0.000000001
 43
0.0000000001
 44
0.00000001
 40
0.0
 40
0.0
 40
0.0
 40
0.0
 40
0.0604464864846107
 40
0.1269496677521196
 40
0.1269496677521196
 40
0.1269496677521196
 40
0.1269496677521196
 10
-929.7108437848617
 20
-1082.561429887764
 30
0.0
 10
-929.6974613868224
 20
-1082.545511491812
 30
0.0
 10
-929.6693557009048
 20
-1082.512079679049
 30
0.0
 10
-929.6692545951894
 20
-1082.468241341621
 30
0.0
 10
-929.6692016401536
 20
-1082.445276419684
 30
0.0
 11
-929.7108437848617
 21
-1082.561429887764
 31
0.0
 11
-929.6770456373166
 21
-1082.511315386516
 31
0.0
 11
-929.6692016401536
 21
-1082.445276419684
 31
0.0
  0
SPLINE
  5
10B
330
47
100
AcDbEntity
  8
0
  6
Continuous
 62
     7
100
AcDbSpline
210
0.0
220
0.0
230
1.0
 70
     8
 71
     3
 72
    11
 73
     7
 74
     5
 42
0.000000001
 43
0.0000000001
 44
0.00000001
 40
0.0
 40
0.0
 40
0.0
 40
0.0
 40
0.2129399255150451
 40
0.4322934720431422
 40
0.6536156843114553
 40
0.8721977173109593
 40
0.8721977173109593
 40
0.8721977173109593
 40
0.8721977173109593
 10
-931.7224083156224
 20
-1071.888303777085
 30
0.0
 10
-931.7467747181046
 20
-1071.821417785039
 30
0.0
 10
-931.796241438135
 20
-1071.685631241373
 30
0.0
 10
-931.9154754103888
 20
-1071.501580879257
 30
0.0
 10
-932.0603979725671
 20
-1071.334661249102
 30
0.0
 10
-932.1783581541766
 20
-1071.246890927784
 30
0.0
 10
-932.2369708606076
 20
-1071.203279135109
 30
0.0
 11
-931.7224083156224
 21
-1071.888303777085
 31
0.0
 11
-931.8026393978832
 21
-1071.691056760145
 31
0.0
 11
-931.9192003747185
 21
-1071.505235561555
 31
0.0
 11
-932.0663810981025
 21
-1071.33994382834
 31
0.0
 11
-932.2369708606076
 21
-1071.203279135109
 31
0.0
  0
SPLINE
  5
10C
330
47
100
AcDbEntity
  8
0
  6
Continuous
 62
     7
100
AcDbSpline
210
0.0
220
0.0
230
1.0
 70
     8
 71
     3
 72
    11
 73
     7
 74
     5
 42
0.000000001
 43
0.0000000001
 44
0.00000001
 40
0.0
 40
0.0
 40
0.0
 40
0.0
 40
0.2129399255187043
 40
0.4322934720469563
 40
0.6536156843151939
 40
0.8721977173141826
 40
0.8721977173141826
 40
0.8721977173141826
 40
0.8721977173141826
 10
-935.7974083164651
 20
-1075.417357298246
 30
0.0
 10
-935.8217747189441
 20
-1075.350471306198
 30
0.0
 10
-935.8712414389674
 20
-1075.214684762527
 30
0.0
 10
-935.990475411223
 20
-1075.03063440041
 30
0.0
 10
-936.135397973401
 20
-1074.863714770256
 30
0.0
 10
-936.2533581550105
 20
-1074.775944448938
 30
0.0
 10
-936.3119708614416
 20
-1074.732332656263
 30
0.0
 11
-935.7974083164651
 21
-1075.417357298246
 31
0.0
 11
-935.8776393987183
 21
-1075.220110281299
 31
0.0
 11
-935.9942003755527
 21
-1075.034289082709
 31
0.0
 11
-936.1413810989367
 21
-1074.868997349493
 31
0.0
 11
-936.3119708614416
 21
-1074.732332656263
 31
0.0
  0
SPLINE
  5
10D
330
47
100
AcDbEntity
  8
0
  6
Continuous
 62
     7
100
AcDbSpline
210
0.0
220
0.0
230
1.0
 70
     8
 71
     3
 72
     9
 73
     5
 74
     3
 42
0.000000001
 43
0.0000000001
 44
0.00000001
 40
0.0
 40
0.0
 40
0.0
 40
0.0
 40
5.464632523383084
 40
10.76973365188464
 40
10.76973365188464
 40
10.76973365188464
 40
10.76973365188464
 10
-935.7974083164651
 20
-1075.417357298246
 30
0.0
 10
-935.309519354005
 20
-1077.175681354218
 30
0.0
 10
-934.3479846033306
 20
-1080.640997951253
 30
0.0
 10
-933.9434652486484
 20
-1084.214195795724
 30
0.0
 10
-933.7442016410289
 20
-1085.974329940828
 30
0.0
 11
-935.7974083164651
 21
-1075.417357298246
 31
0.0
 11
-934.4771513607681
 21
-1080.720104717491
 31
0.0
 11
-933.7442016410289
 21
-1085.974329940828
 31
0.0
  0
SPLINE
  5
10E
330
47
100
AcDbEntity
  8
0
  6
Continuous
 62
     7
100
AcDbSpline
210
0.0
220
0.0
230
1.0
 70
     8
 71
     3
 72
    13
 73
     9
 74
     7
 42
0.000000001
 43
0.0000000001
 44
0.00000001
 40
0.0
 40
0.0
 40
0.0
 40
0.0
 40
0.0893566579090526
 40
0.1859979442342582
 40
0.2904924632634912
 40
0.4010608722747032
 40
0.5144039450700789
 40
0.6265961547894302
 40
0.6265961547894302
 40
0.6265961547894302
 40
0.6265961547894302
 10
-973.432446102707
 20
-1112.215828101312
 30
0.0
 10
-973.4611729855081
 20
-1112.224702423441
 30
0.0
 10
-973.5209686577987
 20
-1112.243174515519
 30
0.0
 10
-973.6195149785274
 20
-1112.231465821843
 30
0.0
 10
-973.7173442502531
 20
-1112.194491362845
 30
0.0
 10
-973.8082234228847
 20
-1112.131924159535
 30
0.0
 10
-973.887104606491
 20
-1112.050616369828
 30
0.0
 10
-973.9232191964021
 20
-1111.984344346893
 30
0.0
 10
-973.9411843423219
 20
-1111.951377418367
 30
0.0
 11
-973.432446102707
 21
-1112.215828101312
 31
0.0
 11
-973.5193888718721
 21
-1112.236457396668
 31
0.0
 11
-973.6156720936856
 21
-1112.228145934381
 31
0.0
 11
-973.7135530633351
 21
-1112.191561498073
 31
0.0
 11
-973.8051605240244
 21
-1112.129646665186
 31
0.0
 11
-973.8831274585099
 21
-1112.047379969104
 31
0.0
 11
-973.9411843423219
 21
-1111.951377418367
 31
0.0
  0
SPLINE
  5
10F
330
47
100
AcDbEntity
  8
0
  6
Continuous
 62
     7
100
AcDbSpline
210
0.0
220
0.0
230
1.0
 70
     8
 71
     3
 72
    13
 73
     9
 74
     7
 42
0.000000001
 43
0.0000000001
 44
0.00000001
 40
0.0
 40
0.0
 40
0.0
 40
0.0
 40
0.0893566579091107
 40
0.1859979442343163
 40
0.290492463263629
 40
0.4010608722747137
 40
0.5144039450696811
 40
0.6265961547884488
 40
0.6265961547884488
 40
0.6265961547884488
 40
0.6265961547884488
 10
-972.1324461027051
 20
-1111.089995076391
 30
0.0
 10
-972.1611729855064
 20
-1111.09886939852
 30
0.0
 10
-972.2209686577972
 20
-1111.117341490598
 30
0.0
 10
-972.3195149785254
 20
-1111.105632796922
 30
0.0
 10
-972.4173442502512
 20
-1111.068658337924
 30
0.0
 10
-972.5082234228831
 20
-1111.006091134614
 30
0.0
 10
-972.5871046064885
 20
-1110.924783344907
 30
0.0
 10
-972.6232191964006
 20
-1110.858511321973
 30
0.0
 10
-972.64118434232
 20
-1110.825544393447
 30
0.0
 11
-972.1324461027051
 21
-1111.089995076391
 31
0.0
 11
-972.2193888718704
 21
-1111.110624371747
 31
0.0
 11
-972.3156720936838
 21
-1111.102312909459
 31
0.0
 11
-972.4135530633333
 21
-1111.065728473151
 31
0.0
 11
-972.5051605240226
 21
-1111.003813640265
 31
0.0
 11
-972.583127458508
 21
-1110.921546944183
 31
0.0
 11
-972.64118434232
 21
-1110.825544393447
 31
0.0
  0
SPLINE
  5
110
330
47
100
AcDbEntity
  8
0
  6
Continuous
 62
     7
100
AcDbSpline
210
0.0
220
0.0
230
1.0
 70
     8
 71
     3
 72
     9
 73
     5
 74
     3
 42
0.000000001
 43
0.0000000001
 44
0.00000001
 40
0.0
 40
0.0
 40
0.0
 40
0.0
 40
0.1400941260407104
 40
0.2872690555737571
 40
0.2872690555737571
 40
0.2872690555737571
 40
0.2872690555737571
 10
-971.2186335656363
 20
-1112.169283149851
 30
0.0
 10
-971.2034522398013
 20
-1112.1248441415
 30
0.0
 10
-971.1723222948523
 20
-1112.033720031068
 30
0.0
 10
-971.1684101305192
 20
-1111.937472047772
 30
0.0
 10
-971.1664058435738
 20
-1111.888161861756
 30
0.0
 11
-971.2186335656363
 21
-1112.169283149851
 31
0.0
 11
-971.1795627351682
 21
-1112.034747523983
 31
0.0
 11
-971.1664058435738
 21
-1111.888161861756
 31
0.0
  0
SPLINE
  5
111
330
47
100
AcDbEntity
  8
0
  6
Continuous
 62
     7
100
AcDbSpline
210
0.0
220
0.0
230
1.0
 70
     8
 71
     3
 72
    11
 73
     7
 74
     5
 42
0.000000001
 43
0.0000000001
 44
0.00000001
 40
0.0
 40
0.0
 40
0.0
 40
0.0
 40
0.384320772663175
 40
0.774483936251555
 40
1.164057831170193
 40
1.5466718775904
 40
1.5466718775904
 40
1.5466718775904
 40
1.5466718775904
 10
-974.1804358405425
 20
-1111.433793234964
 30
0.0
 10
-974.2388985188184
 20
-1111.319498541245
 30
0.0
 10
-974.3567126299215
 20
-1111.089171669155
 30
0.0
 10
-974.5972866760087
 20
-1110.782391490112
 30
0.0
 10
-974.8735028519943
 20
-1110.508031265352
 30
0.0
 10
-975.0880695003916
 20
-1110.36485671171
 30
0.0
 10
-975.1943858678968
 20
-1110.293914668013
 30
0.0
 11
-974.1804358405425
 21
-1111.433793234964
 31
0.0
 11
-974.366226956708
 21
-1111.097364761178
 31
0.0
 11
-974.6034541639211
 21
-1110.787605907271
 31
0.0
 11
-974.8830641891091
 21
-1110.516338410843
 31
0.0
 11
-975.1943858678968
 21
-1110.293914668013
 31
0.0
  0
SPLINE
  5
112
330
47
100
AcDbEntity
  8
0
  6
Continuous
 62
     7
100
AcDbSpline
210
0.0
220
0.0
230
1.0
 70
     8
 71
     3
 72
    13
 73
     9
 74
     7
 42
0.000000001
 43
0.0000000001
 44
0.00000001
 40
0.0
 40
0.0
 40
0.0
 40
0.0
 40
0.1326766307840735
 40
0.2753891802512778
 40
0.4209469249358035
 40
0.5611001141984813
 40
0.6896547071086381
 40
0.8055679737644512
 40
0.8055679737644512
 40
0.8055679737644512
 40
0.8055679737644512
 10
-971.166405844253
 20
-1111.348045183199
 30
0.0
 10
-971.1713301623025
 20
-1111.303719381757
 30
0.0
 10
-971.1815512981066
 20
-1111.211714891552
 30
0.0
 10
-971.2511603693706
 20
-1111.086256584771
 30
0.0
 10
-971.3495950868628
 20
-1110.980777348143
 30
0.0
 10
-971.4695028277997
 20
-1110.909918025999
 30
0.0
 10
-971.5982973028686
 20
-1110.876853766836
 30
0.0
 10
-971.6780809901321
 20
-1110.898516420334
 30
0.0
 10
-971.7159100427489
 20
-1110.908787670699
 30
0.0
 11
-971.166405844253
 21
-1111.348045183199
 31
0.0
 11
-971.1893765018935
 21
-1111.21737216713
 31
0.0
 11
-971.2552396645326
 21
-1111.090766812859
 31
0.0
 11
-971.3552628984856
 21
-1110.985019897434
 31
0.0
 11
-971.4761798308297
 21
-1110.91415373488
 31
0.0
 11
-971.6019554949287
 21
-1110.887568641177
 31
0.0
 11
-971.7159100427489
 21
-1110.908787670699
 31
0.0
  0
SPLINE
  5
113
330
47
100
AcDbEntity
  8
0
  6
Continuous
 62
     7
100
AcDbSpline
210
0.0
220
0.0
230
1.0
 70
     8
 71
     3
 72
    11
 73
     7
 74
     5
 42
0.000000001
 43
0.0000000001
 44
0.00000001
 40
0.0
 40
0.0
 40
0.0
 40
0.0
 40
0.1554656606971053
 40
0.3129197888652526
 40
0.4656498499514129
 40
0.6082736242643425
 40
0.6082736242643425
 40
0.6082736242643425
 40
0.6082736242643425
 10
-975.1943858678968
 20
-1110.293914668013
 30
0.0
 10
-975.2368973469054
 20
-1110.263776155204
 30
0.0
 10
-975.3224640341807
 20
-1110.203113634522
 30
0.0
 10
-975.4171572684409
 20
-1110.077919072828
 30
0.0
 10
-975.4835756623568
 20
-1109.939710645003
 30
0.0
 10
-975.4929621260006
 20
-1109.841009024482
 30
0.0
 10
-975.4974947597412
 20
-1109.793346877198
 30
0.0
 11
-975.1943858678968
 21
-1110.293914668013
 31
0.0
 11
-975.3165067141574
 21
-1110.197706192577
 31
0.0
 11
-975.4135880586209
 21
-1110.073742424481
 31
0.0
 11
-975.4759834358564
 21
-1109.934339091131
 31
0.0
 11
-975.4974947597412
 21
-1109.793346877198
 31
0.0
  0
SPLINE
  5
114
330
47
100
AcDbEntity
  8
0
  6
Continuous
 62
     7
100
AcDbSpline
210
0.0
220
0.0
230
1.0
 70
     8
 71
     3
 72
     9
 73
     5
 74
     3
 42
0.000000001
 43
0.0000000001
 44
0.00000001
 40
0.0
 40
0.0
 40
0.0
 40
0.0
 40
0.4937127492422278
 40
0.994075336942118
 40
0.994075336942118
 40
0.994075336942118
 40
0.994075336942118
 10
-972.8804358405407
 20
-1110.307960210043
 30
0.0
 10
-972.9567462269819
 20
-1110.161120585305
 30
0.0
 10
-973.1103948444511
 20
-1109.865463557301
 30
0.0
 10
-973.3406674786044
 20
-1109.624599952155
 30
0.0
 10
-973.4565740046141
 20
-1109.503362530676
 30
0.0
 11
-972.8804358405407
 21
-1110.307960210043
 31
0.0
 11
-973.1282675825994
 21
-1109.880957039881
 31
0.0
 11
-973.4565740046141
 21
-1109.503362530676
 31
0.0
  0
SPLINE
  5
115
330
47
100
AcDbEntity
  8
0
  6
Continuous
 62
     7
100
AcDbSpline
210
0.0
220
0.0
230
1.0
 70
     8
 71
     3
 72
    11
 73
     7
 74
     5
 42
0.000000001
 43
0.0000000001
 44
0.00000001
 40
0.0
 40
0.0
 40
0.0
 40
0.0
 40
0.1861054480580438
 40
0.3765104221073098
 40
0.568282731027614
 40
0.7583531311069901
 40
0.7583531311069901
 40
0.7583531311069901
 40
0.7583531311069901
 10
-990.1363499098616
 20
-1098.798429996596
 30
0.0
 10
-990.1123690914361
 20
-1098.855785648529
 30
0.0
 10
-990.0638534209209
 20
-1098.971822012646
 30
0.0
 10
-989.958105520172
 20
-1099.130083564397
 30
0.0
 10
-989.8330751349188
 20
-1099.275262881444
 30
0.0
 10
-989.7333688330281
 20
-1099.354788045731
 30
0.0
 10
-989.6837378773766
 20
-1099.394373396677
 30
0.0
 11
-990.1363499098616
 21
-1098.798429996596
 31
0.0
 11
-990.0591431185964
 21
-1098.967765017952
 31
0.0
 11
-989.9552858034729
 21
-1099.127351085091
 31
0.0
 11
-989.8285975618728
 21
-1099.271318819249
 31
0.0
 11
-989.6837378773766
 21
-1099.394373396677
 31
0.0
  0
SPLINE
  5
116
330
47
100
AcDbEntity
  8
0
  6
Continuous
 62
     7
100
AcDbSpline
210
0.0
220
0.0
230
1.0
 70
     8
 71
     3
 72
     9
 73
     5
 74
     3
 42
0.000000001
 43
0.0000000001
 44
0.00000001
 40
0.0
 40
0.0
 40
0.0
 40
0.0
 40
0.1459633086384975
 40
0.2806984683960403
 40
0.2806984683960403
 40
0.2806984683960403
 40
0.2806984683960403
 10
-986.4137748350707
 20
-1074.112599054248
 30
0.0
 10
-986.4178717724539
 20
-1074.162535575938
 30
0.0
 10
-986.4257505108341
 20
-1074.258567273547
 30
0.0
 10
-986.4890682179101
 20
-1074.330862060972
 30
0.0
 10
-986.5194607016124
 20
-1074.365563527262
 30
0.0
 11
-986.4137748350707
 21
-1074.112599054248
 31
0.0
 11
-986.4410563757926
 21
-1074.255990147527
 31
0.0
 11
-986.5194607016124
 21
-1074.365563527262
 31
0.0
  0
SPLINE
  5
117
330
47
100
AcDbEntity
  8
0
  6
Continuous
 62
     7
100
AcDbSpline
210
0.0
220
0.0
230
1.0
 70
     8
 71
     3
 72
    11
 73
     7
 74
     5
 42
0.000000001
 43
0.0000000001
 44
0.00000001
 40
0.0
 40
0.0
 40
0.0
 40
0.0
 40
0.0935705952106381
 40
0.1815181363969403
 40
0.2647690944686091
 40
0.34532177444929
 40
0.34532177444929
 40
0.34532177444929
 40
0.34532177444929
 10
-985.3851533381236
 20
-1073.283703478402
 30
0.0
 10
-985.3546230308672
 20
-1073.290743878719
 30
0.0
 10
-985.2953971097202
 20
-1073.304401577439
 30
0.0
 10
-985.2063648341136
 20
-1073.299928088364
 30
0.0
 10
-985.1241275985977
 20
-1073.2769634739
 30
0.0
 10
-985.0796828245936
 20
-1073.244580182332
 30
0.0
 10
-985.0578265027707
 20
-1073.228655249519
 30
0.0
 11
-985.3851533381236
 21
-1073.283703478402
 31
0.0
 11
-985.2930808969818
 21
-1073.300380466683
 31
0.0
 11
-985.205219410331
 21
-1073.296490792487
 31
0.0
 11
-985.1255873000164
 21
-1073.27221221139
 31
0.0
 11
-985.0578265027707
 21
-1073.228655249519
 31
0.0
  0
SPLINE
  5
118
330
47
100
AcDbEntity
  8
0
  6
Continuous
 62
     7
100
AcDbSpline
210
0.0
220
0.0
230
1.0
 70
     8
 71
     3
 72
    13
 73
     9
 74
     7
 42
0.000000001
 43
0.0000000001
 44
0.00000001
 40
0.0
 40
0.0
 40
0.0
 40
0.0
 40
0.1215696679298362
 40
0.2492213243633955
 40
0.3796474251278048
 40
0.5090127012529887
 40
0.6336802748111139
 40
0.7509434390745712
 40
0.7509434390745712
 40
0.7509434390745712
 40
0.7509434390745712
 10
-986.8467875369626
 20
-1072.861766029326
 30
0.0
 10
-986.8086057418152
 20
-1072.87582898171
 30
0.0
 10
-986.7303319666566
 20
-1072.904658453207
 30
0.0
 10
-986.6269300321155
 20
-1072.980061483073
 30
0.0
 10
-986.537331611928
 20
-1073.073999888675
 30
0.0
 10
-986.469062132447
 20
-1073.183207639411
 30
0.0
 10
-986.4231920993459
 20
-1073.299855553721
 30
0.0
 10
-986.4168492093276
 20
-1073.380628368697
 30
0.0
 10
-986.4137748350735
 20
-1073.419778731221
 30
0.0
 11
-986.8467875369626
 21
-1072.861766029326
 31
0.0
 11
-986.7347156328216
 21
-1072.908873062873
 31
0.0
 11
-986.6302811860182
 21
-1072.98227873122
 31
0.0
 11
-986.5406014007483
 21
-1073.076980919087
 31
0.0
 11
-986.4717875369656
 21
-1073.186525555747
 31
0.0
 11
-986.4285294966069
 21
-1073.303447523175
 31
0.0
 11
-986.4137748350735
 21
-1073.419778731221
 31
0.0
  0
SPLINE
  5
119
330
47
100
AcDbEntity
  8
0
  6
Continuous
 62
     7
100
AcDbSpline
210
0.0
220
0.0
230
1.0
 70
     8
 71
     3
 72
     9
 73
     5
 74
     3
 42
0.000000001
 43
0.0000000001
 44
0.00000001
 40
0.0
 40
0.0
 40
0.0
 40
0.0
 40
4.835199483596591
 40
9.62800009269468
 40
9.62800009269468
 40
9.62800009269468
 40
9.62800009269468
 10
-989.6837378773766
 20
-1099.394373396677
 30
0.0
 10
-988.3705521371943
 20
-1100.329768527935
 30
0.0
 10
-985.7556957025567
 20
-1102.192356485473
 30
0.0
 10
-983.0183267269641
 20
-1103.869689712716
 30
0.0
 10
-981.6556695168315
 20
-1104.704663077409
 30
0.0
 11
-989.6837378773766
 21
-1099.394373396677
 31
0.0
 11
-985.713282167321
 21
-1102.153836297839
 31
0.0
 11
-981.6556695168315
 21
-1104.704663077409
 31
0.0
  0
SPLINE
  5
11A
330
47
100
AcDbEntity
  8
0
  6
Continuous
 62
     7
100
AcDbSpline
210
0.0
220
0.0
230
1.0
 70
     8
 71
     3
 72
    11
 73
     7
 74
     5
 42
0.000000001
 43
0.0000000001
 44
0.00000001
 40
0.0
 40
0.0
 40
0.0
 40
0.0
 40
0.093570595211533
 40
0.1815181363986303
 40
0.264769094471108
 40
0.3453217744525949
 40
0.3453217744525949
 40
0.3453217744525949
 40
0.3453217744525949
 10
-990.4877734834724
 20
-1067.105299226319
 30
0.0
 10
-990.5183037907291
 20
-1067.098258826003
 30
0.0
 10
-990.5775297118771
 20
-1067.084601127282
 30
0.0
 10
-990.666561987484
 20
-1067.089074616357
 30
0.0
 10
-990.748799223001
 20
-1067.112039230822
 30
0.0
 10
-990.7932439970049
 20
-1067.144422522391
 30
0.0
 10
-990.8151003188278
 20
-1067.160347455204
 30
0.0
 11
-990.4877734834724
 21
-1067.105299226319
 31
0.0
 11
-990.5798459246151
 21
-1067.088622238038
 31
0.0
 11
-990.6677074112667
 21
-1067.092511912234
 31
0.0
 11
-990.7473395215819
 21
-1067.116790493332
 31
0.0
 11
-990.8151003188278
 21
-1067.160347455204
 31
0.0
  0
SPLINE
  5
11B
330
47
100
AcDbEntity
  8
0
  6
Continuous
 62
     7
100
AcDbSpline
210
0.0
220
0.0
230
1.0
 70
     8
 71
     3
 72
     9
 73
     5
 74
     3
 42
0.000000001
 43
0.0000000001
 44
0.00000001
 40
0.0
 40
0.0
 40
0.0
 40
0.0
 40
0.1301003184441502
 40
0.2704316146913591
 40
0.2704316146913591
 40
0.2704316146913591
 40
0.2704316146913591
 10
-998.9651003195761
 20
-1074.218454496792
 30
0.0
 10
-998.9945938200689
 20
-1074.251751292077
 30
0.0
 10
-999.0559001480988
 20
-1074.320963323956
 30
0.0
 10
-999.0656167632258
 20
-1074.413129295075
 30
0.0
 10
-999.0706588609659
 20
-1074.460955696814
 30
0.0
 11
-998.9651003195761
 21
-1074.218454496792
 31
0.0
 11
-999.0416407982323
 21
-1074.323657389003
 31
0.0
 11
-999.0706588609659
 21
-1074.460955696814
 31
0.0
  0
SPLINE
  5
11C
330
47
100
AcDbEntity
  8
0
  6
Continuous
 62
     7
100
AcDbSpline
210
0.0
220
0.0
230
1.0
 70
     8
 71
     3
 72
     9
 73
     5
 74
     3
 42
0.000000001
 43
0.0000000001
 44
0.00000001
 40
0.0
 40
0.0
 40
0.0
 40
0.0
 40
0.3465939364262047
 40
0.6937209909111636
 40
0.6937209909111636
 40
0.6937209909111636
 40
0.6937209909111636
 10
-999.0706588609659
 20
-1074.460955696814
 30
0.0
 10
-999.0733245799231
 20
-1074.576456768827
 30
0.0
 10
-999.0786600981546
 20
-1074.807636572768
 30
0.0
 10
-999.0821377119762
 20
-1075.038851789809
 30
0.0
 10
-999.0838778451373
 20
-1075.154548241867
 30
0.0
 11
-999.0706588609659
 21
-1074.460955696814
 31
0.0
 11
-999.0781922453715
 21
-1074.807467752745
 31
0.0
 11
-999.0838778451373
 21
-1075.154548241867
 31
0.0
  0
SPLINE
  5
11D
330
47
100
AcDbEntity
  8
0
  6
Continuous
 62
     7
100
AcDbSpline
210
0.0
220
0.0
230
1.0
 70
     8
 71
     3
 72
    13
 73
     9
 74
     7
 42
0.000000001
 43
0.0000000001
 44
0.00000001
 40
0.0
 40
0.0
 40
0.0
 40
0.0
 40
0.1178768801544823
 40
0.2433723699443974
 40
0.3737626193663527
 40
0.5053342482796719
 40
0.6341489115969089
 40
0.7568014407522498
 40
0.7568014407522498
 40
0.7568014407522498
 40
0.7568014407522498
 10
-999.0838778451373
 20
-1075.154548241867
 30
0.0
 10
-999.081272655761
 20
-1075.193944129761
 30
0.0
 10
-999.0758938838959
 20
-1075.275282135893
 30
0.0
 10
-999.0306408507267
 20
-1075.393111511582
 30
0.0
 10
-998.9624965581538
 20
-1075.50359017978
 30
0.0
 10
-998.8725160896024
 20
-1075.598723557242
 30
0.0
 10
-998.768386599818
 20
-1075.675106011082
 30
0.0
 10
-998.6894208581722
 20
-1075.704247447682
 30
0.0
 10
-998.6509055013905
 20
-1075.718461107897
 30
0.0
 11
-999.0838778451373
 21
-1075.154548241867
 31
0.0
 11
-999.0704115510794
 21
-1075.271653400257
 31
0.0
 11
-999.0278606062564
 21
-1075.38971497614
 31
0.0
 11
-998.9591746889835
 21
-1075.500547564001
 31
0.0
 11
-998.8691162511726
 21
-1075.596467175292
 31
0.0
 11
-998.7639288713201
 21
-1075.670823298353
 31
0.0
 11
-998.6509055013905
 21
-1075.718461107897
 31
0.0
  0
SPLINE
  5
11E
330
47
100
AcDbEntity
  8
0
  6
Continuous
 62
     7
100
AcDbSpline
210
0.0
220
0.0
230
1.0
 70
     8
 71
     3
 72
    13
 73
     9
 74
     7
 42
0.000000001
 43
0.0000000001
 44
0.00000001
 40
0.0
 40
0.0
 40
0.0
 40
0.0
 40
0.1172631642637258
 40
0.2419307378212506
 40
0.3712960139464123
 40
0.5017221147111167
 40
0.6293737711449349
 40
0.7509434390754667
 40
0.7509434390754667
 40
0.7509434390754667
 40
0.7509434390754667
 10
-990.4887748351811
 20
-1076.948832251594
 30
0.0
 10
-990.4918492094355
 20
-1076.90968188907
 30
0.0
 10
-990.4981920994537
 20
-1076.828909074094
 30
0.0
 10
-990.5440621325549
 20
-1076.712261159784
 30
0.0
 10
-990.6123316120369
 20
-1076.603053409049
 30
0.0
 10
-990.7019300322247
 20
-1076.509115003447
 30
0.0
 10
-990.8053319667678
 20
-1076.433711973582
 30
0.0
 10
-990.8836057419263
 20
-1076.404882502086
 30
0.0
 10
-990.9217875370741
 20
-1076.390819549702
 30
0.0
 11
-990.4887748351811
 21
-1076.948832251594
 31
0.0
 11
-990.5035294967148
 21
-1076.832501043548
 31
0.0
 11
-990.5467875370737
 21
-1076.715579076121
 31
0.0
 11
-990.615601400857
 21
-1076.60603443946
 31
0.0
 11
-990.7052811861279
 21
-1076.511332251594
 31
0.0
 11
-990.809715632932
 21
-1076.437926583248
 31
0.0
 11
-990.9217875370741
 21
-1076.390819549702
 31
0.0
  0
SPLINE
  5
11F
330
47
100
AcDbEntity
  8
0
  6
Continuous
 62
     7
100
AcDbSpline
210
0.0
220
0.0
230
1.0
 70
     8
 71
     3
 72
     9
 73
     5
 74
     3
 42
0.000000001
 43
0.0000000001
 44
0.00000001
 40
0.0
 40
0.0
 40
0.0
 40
0.0
 40
0.134735159758257
 40
0.2806984683963503
 40
0.2806984683963503
 40
0.2806984683963503
 40
0.2806984683963503
 10
-990.5944607017224
 20
-1077.894617047637
 30
0.0
 10
-990.5640682180199
 20
-1077.859915581346
 30
0.0
 10
-990.5007505109438
 20
-1077.787620793922
 30
0.0
 10
-990.4928717725621
 20
-1077.691589096313
 30
0.0
 10
-990.4887748351796
 20
-1077.641652574623
 30
0.0
 11
-990.5944607017224
 21
-1077.894617047637
 31
0.0
 11
-990.5160563759017
 21
-1077.785043667902
 31
0.0
 11
-990.4887748351796
 21
-1077.641652574623
 31
0.0
  0
SPLINE
  5
120
330
47
100
AcDbEntity
  8
0
  6
Continuous
 62
     7
100
AcDbSpline
210
0.0
220
0.0
230
1.0
 70
     8
 71
     3
 72
    11
 73
     7
 74
     5
 42
0.000000001
 43
0.0000000001
 44
0.00000001
 40
0.0
 40
0.0
 40
0.0
 40
0.0
 40
0.0935705952088385
 40
0.1815181363939748
 40
0.2647690944641583
 40
0.3453217744436917
 40
0.3453217744436917
 40
0.3453217744436917
 40
0.3453217744436917
 10
-990.9217875370709
 20
-1077.949665276517
 30
0.0
 10
-990.8912572298151
 20
-1077.956705676833
 30
0.0
 10
-990.8320313086688
 20
-1077.970363375552
 30
0.0
 10
-990.7429990330643
 20
-1077.965889886479
 30
0.0
 10
-990.660761797549
 20
-1077.942925272017
 30
0.0
 10
-990.6163170235452
 20
-1077.910541980449
 30
0.0
 10
-990.5944607017224
 20
-1077.894617047637
 30
0.0
 11
-990.9217875370709
 21
-1077.949665276517
 31
0.0
 11
-990.8297150959309
 21
-1077.966342264797
 31
0.0
 11
-990.7418536092812
 21
-1077.962452590602
 31
0.0
 11
-990.6622214989677
 21
-1077.938174009506
 31
0.0
 11
-990.5944607017224
 21
-1077.894617047637
 31
0.0
  0
SPLINE
  5
121
330
47
100
AcDbEntity
  8
0
  6
Continuous
 62
     7
100
AcDbSpline
210
0.0
220
0.0
230
1.0
 70
     8
 71
     3
 72
    11
 73
     7
 74
     5
 42
0.000000001
 43
0.0000000001
 44
0.00000001
 40
0.0
 40
0.0
 40
0.0
 40
0.0
 40
0.0935705952109737
 40
0.1815181363979674
 40
0.26476909446992
 40
0.3453217744509698
 40
0.3453217744509698
 40
0.3453217744509698
 40
0.3453217744509698
 10
-998.637773484222
 20
-1074.163406267908
 30
0.0
 10
-998.6683037914785
 20
-1074.156365867592
 30
0.0
 10
-998.7275297126259
 20
-1074.142708168871
 30
0.0
 10
-998.8165619882327
 20
-1074.147181657947
 30
0.0
 10
-998.898799223749
 20
-1074.17014627241
 30
0.0
 10
-998.9432439977534
 20
-1074.202529563979
 30
0.0
 10
-998.9651003195761
 20
-1074.218454496792
 30
0.0
 11
-998.637773484222
 21
-1074.163406267908
 31
0.0
 11
-998.7298459253641
 21
-1074.146729279627
 31
0.0
 11
-998.8177074120156
 21
-1074.150618953823
 31
0.0
 11
-998.8973395223304
 21
-1074.17489753492
 31
0.0
 11
-998.9651003195761
 21
-1074.218454496792
 31
0.0
  0
SPLINE
  5
122
330
47
100
AcDbEntity
  8
0
  6
Continuous
 62
     7
100
AcDbSpline
210
0.0
220
0.0
230
1.0
 70
     8
 71
     3
 72
    11
 73
     7
 74
     5
 42
0.000000001
 43
0.0000000001
 44
0.00000001
 40
0.0
 40
0.0
 40
0.0
 40
0.0
 40
5.471355098937501
 40
11.06138870391984
 40
16.76339395567308
 40
22.56822001394859
 40
22.56822001394859
 40
22.56822001394859
 40
22.56822001394859
 10
-994.8779292449701
 20
-1076.807625536523
 30
0.0
 10
-994.7213205548741
 20
-1078.625635339754
 30
0.0
 10
-994.4047061794363
 20
-1082.301089176817
 30
0.0
 10
-993.3895976523207
 20
-1087.802915101684
 30
0.0
 10
-992.0139992949051
 20
-1093.339171163535
 30
0.0
 10
-990.7659504113745
 20
-1096.967868818524
 30
0.0
 10
-990.1363499098616
 20
-1098.798429996596
 30
0.0
 11
-994.8779292449701
 21
-1076.807625536523
 31
0.0
 11
-994.3216856041963
 21
-1082.250632025172
 31
0.0
 11
-993.3412976682079
 21
-1087.754023271342
 31
0.0
 11
-991.9431504606622
 21
-1093.281956726538
 31
0.0
 11
-990.1363499098616
 21
-1098.798429996596
 31
0.0
  0
SPLINE
  5
123
330
47
100
AcDbEntity
  8
0
  6
Continuous
 62
     7
100
AcDbSpline
210
0.0
220
0.0
230
1.0
 70
     8
 71
     3
 72
    13
 73
     9
 74
     7
 42
0.000000001
 43
0.0000000001
 44
0.00000001
 40
0.0
 40
0.0
 40
0.0
 40
0.0
 40
8.98291567878816
 40
17.75705206836853
 40
26.28600325903679
 40
34.5450703348373
 40
42.52357716337283
 40
50.22689919447066
 40
50.22689919447066
 40
50.22689919447066
 40
50.22689919447066
 10
-936.3119708614416
 20
-1074.732332656263
 30
0.0
 10
-938.8481265596566
 20
-1073.135943098758
 30
0.0
 10
-943.8614930949878
 20
-1069.980266991387
 30
0.0
 10
-951.8196490670506
 20
-1066.263117387511
 30
0.0
 10
-959.8687560851881
 20
-1063.420346716987
 30
0.0
 10
-967.9317505241177
 20
-1061.584767976907
 30
0.0
 10
-975.8915406317524
 20
-1060.664872815214
 30
0.0
 10
-981.1197806757593
 20
-1060.927187643988
 30
0.0
 10
-983.6880281086867
 20
-1061.056043514766
 30
0.0
 11
-936.3119708614416
 21
-1074.732332656263
 31
0.0
 11
-944.0132391036966
 21
-1070.108130936434
 31
0.0
 11
-951.9478537924434
 21
-1066.362819316021
 31
0.0
 11
-959.9999995364916
 21
-1063.551065886788
 31
0.0
 11
-968.0521452689994
 21
-1061.713910997144
 31
0.0
 11
-975.9867599232936
 21
-1060.878170888926
 31
0.0
 11
-983.6880281086867
 21
-1061.056043514766
 31
0.0
  0
ENDBLK
  5
49
330
47
100
AcDbEntity
  8
0
100
AcDbBlockEnd
  0
BLOCK
  5
4C
330
4A
100
AcDbEntity
  8
0
100
AcDbBlockBegin
  2
Allg1
 70
     0
 10
-959.9999999999603
 20
-1092.00000000022
 30
0.0
  3
Allg1
  1

  0
INSERT
  5
4B
330
4A
100
AcDbEntity
  8
0
100
AcDbBlockReference
  2
3069055_E_UTWE_6-select__1
 10
-999.0849247020055
 20
-1125.224896677195
 30
0.0
  0
MTEXT
  5
125
330
4A
100
AcDbEntity
  8
1
 62
     6
100
AcDbMText
 10
-959.99999999996
 20
-1139.085922293942
 30
0.0
 40
5.0
 41
0.0
 71
     2
 72
     1
  1
 
  7
CONVERTER_11
 73
     1
 44
1.32052821128451
  0
ENDBLK
  5
4D
330
4A
100
AcDbEntity
  8
0
100
AcDbBlockEnd
  0
BLOCK
  5
4F
330
4E
100
AcDbEntity
  8
0
100
AcDbBlockBegin
  2
3069055_E_UTWE_6-select__2
 70
     0
 10
-1167.595331224987
 20
-1063.149999886626
 30
0.0
  3
3069055_E_UTWE_6-select__2
  1

  0
LINE
  5
126
330
4E
100
AcDbEntity
  8
0
  6
Continuous
 62
     7
100
AcDbLine
 10
-1167.588294387401
 20
-1054.999999884162
 30
0.0
 11
-1167.595331224938
 21
-1054.999999884647
 31
0.0
  0
LINE
  5
127
330
4E
100
AcDbEntity
  8
0
  6
Continuous
 62
     7
100
AcDbLine
 10
-1167.588247785779
 20
-1063.149999884157
 30
0.0
 11
-1167.588294387352
 21
-1063.149999884157
 31
0.0
  0
LINE
  5
128
330
4E
100
AcDbEntity
  8
0
  6
Continuous
 62
     7
100
AcDbLine
 10
-1167.57298381764
 20
-1063.149999884156
 30
0.0
 11
-1167.588247785779
 21
-1063.149999884157
 31
0.0
  0
LINE
  5
129
330
4E
100
AcDbEntity
  8
0
  6
Continuous
 62
     7
100
AcDbLine
 10
-1167.588247785828
 20
-1054.999999884646
 30
0.0
 11
-1167.588294387401
 21
-1054.999999884162
 31
0.0
  0
LINE
  5
12A
330
4E
100
AcDbEntity
  8
0
  6
Continuous
 62
     2
100
AcDbLine
 10
-1167.572983817738
 20
-1046.849999883003
 30
0.0
 11
-1167.57298381764
 21
-1063.149999884156
 31
0.0
  0
LINE
  5
12B
330
4E
100
AcDbEntity
  8
0
  6
Continuous
 62
     7
100
AcDbLine
 10
-1167.588294387401
 20
-1054.999999884162
 30
0.0
 11
-1167.588294387352
 21
-1063.149999884157
 31
0.0
  0
LINE
  5
12C
330
4E
100
AcDbEntity
  8
0
  6
Continuous
 62
     2
100
AcDbLine
 10
-1167.588247785828
 20
-1054.999999884646
 30
0.0
 11
-1167.588247785779
 21
-1063.149999884157
 31
0.0
  0
LINE
  5
12D
330
4E
100
AcDbEntity
  8
0
  6
Continuous
 62
     7
100
AcDbLine
 10
-1167.595331224987
 20
-1046.849999883003
 30
0.0
 11
-1167.595331224938
 21
-1054.999999884647
 31
0.0
  0
LINE
  5
12E
330
4E
100
AcDbEntity
  8
0
  6
Continuous
 62
     7
100
AcDbLine
 10
-1167.572983817738
 20
-1046.849999883003
 30
0.0
 11
-1167.595331224987
 21
-1046.849999883003
 31
0.0
  0
LINE
  5
12F
330
4E
100
AcDbEntity
  8
0
  6
Continuous
 62
     7
100
AcDbLine
 10
-1157.481060766749
 20
-1046.849999882498
 30
0.0
 11
-1157.481790770632
 21
-1046.849999882498
 31
0.0
  0
LINE
  5
130
330
4E
100
AcDbEntity
  8
0
  6
Continuous
 62
     7
100
AcDbLine
 10
-1155.11022213009
 20
-1046.849999882559
 30
0.0
 11
-1157.481060766749
 21
-1046.849999882498
 31
0.0
  0
LINE
  5
131
330
4E
100
AcDbEntity
  8
0
  6
Continuous
 62
     7
100
AcDbLine
 10
-1167.073130840155
 20
-1046.849999882487
 30
0.0
 11
-1167.572983817738
 21
-1046.849999883003
 31
0.0
  0
LINE
  5
132
330
4E
100
AcDbEntity
  8
0
  6
Continuous
 62
     7
100
AcDbLine
 10
-1157.481790770632
 20
-1046.849999882498
 30
0.0
 11
-1167.073130840155
 21
-1046.849999882487
 31
0.0
  0
LINE
  5
133
330
4E
100
AcDbEntity
  8
0
  6
Continuous
 62
     7
100
AcDbLine
 10
-1154.516056500165
 20
-1046.84999988251
 30
0.0
 11
-1155.11022213009
 21
-1046.849999882559
 31
0.0
  0
LINE
  5
134
330
4E
100
AcDbEntity
  8
0
  6
Continuous
 62
     7
100
AcDbLine
 10
-1086.73865956856
 20
-1063.149999886626
 30
0.0
 11
-1086.738706170133
 21
-1063.149999886626
 31
0.0
  0
LINE
  5
135
330
4E
100
AcDbEntity
  8
0
  6
Continuous
 62
     7
100
AcDbLine
 10
-1086.738706170077
 20
-1054.999999884681
 30
0.0
 11
-1086.738659568504
 21
-1054.999999884197
 31
0.0
  0
LINE
  5
136
330
4E
100
AcDbEntity
  8
0
  6
Continuous
 62
     7
100
AcDbLine
 10
-1086.738659568504
 20
-1054.999999884197
 30
0.0
 11
-1086.731622730958
 21
-1054.999999884681
 31
0.0
  0
LINE
  5
137
330
4E
100
AcDbEntity
  8
0
  6
Continuous
 62
     7
100
AcDbLine
 10
-1086.738706170133
 20
-1063.149999886626
 30
0.0
 11
-1086.753970138279
 21
-1063.149999886625
 31
0.0
  0
LINE
  5
138
330
4E
100
AcDbEntity
  8
0
  6
Continuous
 62
     7
100
AcDbLine
 10
-1086.753970138168
 20
-1046.849999883011
 30
0.0
 11
-1086.731622730902
 21
-1046.849999883011
 31
0.0
  0
LINE
  5
139
330
4E
100
AcDbEntity
  8
0
  6
Continuous
 62
     7
100
AcDbLine
 10
-1096.845893189201
 20
-1054.999999884196
 30
0.0
 11
-1096.845163185318
 21
-1054.999999884196
 31
0.0
  0
LINE
  5
13A
330
4E
100
AcDbEntity
  8
0
  6
Continuous
 62
     7
100
AcDbLine
 10
-1096.663476243881
 20
-1054.99999988419
 30
0.0
 11
-1096.663476243895
 21
-1063.149999886481
 31
0.0
  0
LINE
  5
13B
330
4E
100
AcDbEntity
  8
0
  6
Continuous
 62
     7
100
AcDbLine
 10
-1096.163476243898
 20
-1063.149999886488
 30
0.0
 11
-1096.663476243895
 21
-1063.149999886481
 31
0.0
  0
LINE
  5
13C
330
4E
100
AcDbEntity
  8
0
  6
Continuous
 62
     2
100
AcDbLine
 10
-1096.845893189184
 20
-1046.849999882546
 30
0.0
 11
-1096.845893189201
 21
-1054.999999884196
 31
0.0
  0
LINE
  5
13D
330
4E
100
AcDbEntity
  8
0
  6
Continuous
 62
     2
100
AcDbLine
 10
-1096.163476243884
 20
-1054.999999884192
 30
0.0
 11
-1096.163476243898
 21
-1063.149999886488
 31
0.0
  0
LINE
  5
13E
330
4E
100
AcDbEntity
  8
0
  6
Continuous
 62
     7
100
AcDbLine
 10
-1086.753970138279
 20
-1063.149999886625
 30
0.0
 11
-1087.253823115866
 21
-1063.149999886617
 31
0.0
  0
LINE
  5
13F
330
4E
100
AcDbEntity
  8
0
  6
Continuous
 62
     2
100
AcDbLine
 10
-1087.253823115754
 20
-1046.849999882551
 30
0.0
 11
-1087.253823115866
 21
-1063.149999886617
 31
0.0
  0
LINE
  5
140
330
4E
100
AcDbEntity
  8
0
  6
Continuous
 62
     7
100
AcDbLine
 10
-1087.253823115866
 20
-1063.149999886617
 30
0.0
 11
-1096.163476243898
 21
-1063.149999886488
 31
0.0
  0
LINE
  5
141
330
4E
100
AcDbEntity
  8
0
  6
Continuous
 62
     7
100
AcDbLine
 10
-1096.8451631853
 20
-1046.849999882546
 30
0.0
 11
-1096.845163185318
 21
-1054.999999884196
 31
0.0
  0
LINE
  5
142
330
4E
100
AcDbEntity
  8
0
  6
Continuous
 62
     7
100
AcDbLine
 10
-1086.731622730902
 20
-1046.849999883011
 30
0.0
 11
-1086.731622730958
 21
-1054.999999884681
 31
0.0
  0
LINE
  5
143
330
4E
100
AcDbEntity
  8
0
  6
Continuous
 62
     2
100
AcDbLine
 10
-1086.738706170077
 20
-1054.999999884681
 30
0.0
 11
-1086.738706170133
 21
-1063.149999886626
 31
0.0
  0
LINE
  5
144
330
4E
100
AcDbEntity
  8
0
  6
Continuous
 62
     7
100
AcDbLine
 10
-1086.738659568504
 20
-1054.999999884197
 30
0.0
 11
-1086.73865956856
 21
-1063.149999886626
 31
0.0
  0
LINE
  5
145
330
4E
100
AcDbEntity
  8
0
  6
Continuous
 62
     7
100
AcDbLine
 10
-1096.845163185318
 20
-1054.999999884196
 30
0.0
 11
-1096.663476243881
 21
-1054.99999988419
 31
0.0
  0
LINE
  5
146
330
4E
100
AcDbEntity
  8
0
  6
Continuous
 62
     7
100
AcDbLine
 10
-1096.663476243881
 20
-1054.99999988419
 30
0.0
 11
-1096.163476243884
 21
-1054.999999884192
 31
0.0
  0
LINE
  5
147
330
4E
100
AcDbEntity
  8
0
  6
Continuous
 62
     7
100
AcDbLine
 10
-1099.216732042751
 20
-1054.999999884215
 30
0.0
 11
-1096.845893189201
 21
-1054.999999884196
 31
0.0
  0
LINE
  5
148
330
4E
100
AcDbEntity
  8
0
  6
Continuous
 62
     7
100
AcDbLine
 10
-1099.216732042751
 20
-1054.999999884215
 30
0.0
 11
-1099.810897690475
 21
-1054.999999884216
 31
0.0
  0
LINE
  5
149
330
4E
100
AcDbEntity
  8
0
  6
Continuous
 62
     2
100
AcDbLine
 10
-1099.810897690471
 20
-1046.849999882554
 30
0.0
 11
-1099.810897690475
 21
-1054.999999884216
 31
0.0
  0
LINE
  5
14A
330
4E
100
AcDbEntity
  8
0
  6
Continuous
 62
     2
100
AcDbLine
 10
-1086.753970138168
 20
-1046.849999883011
 30
0.0
 11
-1086.753970138279
 21
-1063.149999886625
 31
0.0
  0
LINE
  5
14B
330
4E
100
AcDbEntity
  8
0
  6
Continuous
 62
     2
100
AcDbLine
 10
-1099.216732042747
 20
-1046.849999882553
 30
0.0
 11
-1099.216732042751
 21
-1054.999999884215
 31
0.0
  0
LINE
  5
14C
330
4E
100
AcDbEntity
  8
0
  6
Continuous
 62
     7
100
AcDbLine
 10
-1157.663477712755
 20
-1063.14999988416
 30
0.0
 11
-1158.163477712757
 21
-1063.149999884159
 31
0.0
  0
LINE
  5
14D
330
4E
100
AcDbEntity
  8
0
  6
Continuous
 62
     7
100
AcDbLine
 10
-1157.481790770632
 20
-1046.849999882498
 30
0.0
 11
-1157.481790770622
 21
-1054.99999988417
 31
0.0
  0
LINE
  5
14E
330
4E
100
AcDbEntity
  8
0
  6
Continuous
 62
     7
100
AcDbLine
 10
-1157.663477712624
 20
-1054.999999884172
 30
0.0
 11
-1157.481790770622
 21
-1054.99999988417
 31
0.0
  0
LINE
  5
14F
330
4E
100
AcDbEntity
  8
0
  6
Continuous
 62
     7
100
AcDbLine
 10
-1157.481790770622
 20
-1054.99999988417
 30
0.0
 11
-1157.481060766738
 21
-1054.99999988417
 31
0.0
  0
LINE
  5
150
330
4E
100
AcDbEntity
  8
0
  6
Continuous
 62
     2
100
AcDbLine
 10
-1158.163477712757
 20
-1063.149999884159
 30
0.0
 11
-1158.163477712626
 21
-1054.999999884164
 31
0.0
  0
LINE
  5
151
330
4E
100
AcDbEntity
  8
0
  6
Continuous
 62
     2
100
AcDbLine
 10
-1157.481060766749
 20
-1046.849999882498
 30
0.0
 11
-1157.481060766738
 21
-1054.99999988417
 31
0.0
  0
LINE
  5
152
330
4E
100
AcDbEntity
  8
0
  6
Continuous
 62
     7
100
AcDbLine
 10
-1157.663477712755
 20
-1063.14999988416
 30
0.0
 11
-1157.663477712624
 21
-1054.999999884172
 31
0.0
  0
LINE
  5
153
330
4E
100
AcDbEntity
  8
0
  6
Continuous
 62
     2
100
AcDbLine
 10
-1167.073130840106
 20
-1054.99999988416
 30
0.0
 11
-1167.073130840155
 21
-1046.849999882487
 31
0.0
  0
LINE
  5
154
330
4E
100
AcDbEntity
  8
0
  6
Continuous
 62
     2
100
AcDbLine
 10
-1167.073130840106
 20
-1054.99999988416
 30
0.0
 11
-1167.073130840057
 21
-1063.149999884156
 31
0.0
  0
LINE
  5
155
330
4E
100
AcDbEntity
  8
0
  6
Continuous
 62
     7
100
AcDbLine
 10
-1154.516056500168
 20
-1054.999999884193
 30
0.0
 11
-1155.110222130089
 21
-1054.999999884209
 31
0.0
  0
LINE
  5
156
330
4E
100
AcDbEntity
  8
0
  6
Continuous
 62
     7
100
AcDbLine
 10
-1155.110222130089
 20
-1054.999999884209
 30
0.0
 11
-1157.481060766738
 21
-1054.99999988417
 31
0.0
  0
LINE
  5
157
330
4E
100
AcDbEntity
  8
0
  6
Continuous
 62
     7
100
AcDbLine
 10
-1158.163477712626
 20
-1054.999999884164
 30
0.0
 11
-1157.663477712624
 21
-1054.999999884172
 31
0.0
  0
LINE
  5
158
330
4E
100
AcDbEntity
  8
0
  6
Continuous
 62
     2
100
AcDbLine
 10
-1154.516056500165
 20
-1046.84999988251
 30
0.0
 11
-1154.516056500168
 21
-1054.999999884193
 31
0.0
  0
LINE
  5
159
330
4E
100
AcDbEntity
  8
0
  6
Continuous
 62
     2
100
AcDbLine
 10
-1155.11022213009
 20
-1046.849999882559
 30
0.0
 11
-1155.110222130089
 21
-1054.999999884209
 31
0.0
  0
LINE
  5
15A
330
4E
100
AcDbEntity
  8
0
  6
Continuous
 62
     7
100
AcDbLine
 10
-1086.753970138168
 20
-1046.849999883011
 30
0.0
 11
-1087.253823115754
 21
-1046.849999882551
 31
0.0
  0
LINE
  5
15B
330
4E
100
AcDbEntity
  8
0
  6
Continuous
 62
     7
100
AcDbLine
 10
-1096.8451631853
 20
-1046.849999882546
 30
0.0
 11
-1096.845893189184
 21
-1046.849999882546
 31
0.0
  0
LINE
  5
15C
330
4E
100
AcDbEntity
  8
0
  6
Continuous
 62
     7
100
AcDbLine
 10
-1099.216732042747
 20
-1046.849999882553
 30
0.0
 11
-1099.810897690471
 21
-1046.849999882554
 31
0.0
  0
LINE
  5
15D
330
4E
100
AcDbEntity
  8
0
  6
Continuous
 62
     7
100
AcDbLine
 10
-1099.216732042747
 20
-1046.849999882553
 30
0.0
 11
-1096.845893189184
 21
-1046.849999882546
 31
0.0
  0
LINE
  5
15E
330
4E
100
AcDbEntity
  8
0
  6
Continuous
 62
     7
100
AcDbLine
 10
-1099.810897690471
 20
-1046.849999882554
 30
0.0
 11
-1154.516056500165
 21
-1046.84999988251
 31
0.0
  0
LINE
  5
15F
330
4E
100
AcDbEntity
  8
0
  6
Continuous
 62
     7
100
AcDbLine
 10
-1087.253823115754
 20
-1046.849999882551
 30
0.0
 11
-1096.8451631853
 21
-1046.849999882546
 31
0.0
  0
LINE
  5
160
330
4E
100
AcDbEntity
  8
0
  6
Continuous
 62
     7
100
AcDbLine
 10
-1167.073130840057
 20
-1063.149999884156
 30
0.0
 11
-1167.57298381764
 21
-1063.149999884156
 31
0.0
  0
LINE
  5
161
330
4E
100
AcDbEntity
  8
0
  6
Continuous
 62
     7
100
AcDbLine
 10
-1167.073130840057
 20
-1063.149999884156
 30
0.0
 11
-1158.163477712757
 21
-1063.149999884159
 31
0.0
  0
LINE
  5
162
330
4E
100
AcDbEntity
  8
0
  6
Continuous
 62
     7
100
AcDbLine
 10
-1099.810897690475
 20
-1054.999999884216
 30
0.0
 11
-1154.516056500168
 21
-1054.999999884193
 31
0.0
  0
ENDBLK
  5
50
330
4E
100
AcDbEntity
  8
0
100
AcDbBlockEnd
  0
BLOCK
  5
53
330
51
100
AcDbEntity
  8
0
100
AcDbBlockBegin
  2
Drfsicht1
 70
     0
 10
-1127.163477898039
 20
-1054.999999523648
 30
0.0
  3
Drfsicht1
  1

  0
INSERT
  5
52
330
51
100
AcDbEntity
  8
0
100
AcDbBlockReference
  2
3069055_E_UTWE_6-select__2
 10
-1167.595331224987
 20
-1063.149999886626
 30
0.0
  0
MTEXT
  5
163
330
51
100
AcDbEntity
  8
1
 62
     6
100
AcDbMText
 10
-1127.163477898039
 20
-1068.149999619102
 30
0.0
 40
5.0
 41
0.0
 71
     2
 72
     1
  1
 
  7
CONVERTER_11
 73
     1
 44
1.32052821128451
  0
ENDBLK
  5
54
330
51
100
AcDbEntity
  8
0
100
AcDbBlockEnd
  0
BLOCK
  5
56
330
55
100
AcDbEntity
  8
0
100
AcDbBlockBegin
  2
3069055_E_UTWE_6-select__3
 70
     0
 10
-1005.431855167336
 20
-1008.849999903461
 30
0.0
  3
3069055_E_UTWE_6-select__3
  1

  0
LINE
  5
164
330
55
100
AcDbEntity
  8
0
  6
Continuous
 62
     7
100
AcDbLine
 10
-949.0000009197372
 20
-1006.273672917772
 30
0.0
 11
-949.0000009189532
 21
-1005.64999989848
 31
0.0
  0
LINE
  5
165
330
55
100
AcDbEntity
  8
0
  6
Continuous
 62
     7
100
AcDbLine
 10
-942.5385896756164
 20
-1007.349999869047
 30
0.0
 11
-942.4917296119562
 21
-1007.41692297698
 31
0.0
  0
LINE
  5
166
330
55
100
AcDbEntity
  8
0
  6
Continuous
 62
     7
100
AcDbLine
 10
-947.2970733932443
 20
-1005.538260787939
 30
0.0
 11
-947.020809559441
 21
-1005.020356552113
 31
0.0
  0
LINE
  5
167
330
55
100
AcDbEntity
  8
0
  6
Continuous
 62
     7
100
AcDbLine
 10
-945.5000009158058
 20
-1003.120666218875
 30
0.0
 11
-945.8995857638791
 21
-1002.549999902384
 31
0.0
  0
LINE
  5
168
330
55
100
AcDbEntity
  8
0
  6
Continuous
 62
     7
100
AcDbLine
 10
-945.5000009163649
 20
-1003.565151899352
 30
0.0
 11
-945.5000009158058
 21
-1003.120666218875
 31
0.0
  0
LINE
  5
169
330
55
100
AcDbEntity
  8
0
  6
Continuous
 62
     7
100
AcDbLine
 10
-945.8995857638791
 20
-1002.549999902384
 30
0.0
 11
-947.3000008350263
 21
-1000.549999867201
 31
0.0
  0
LINE
  5
16A
330
55
100
AcDbEntity
  8
0
  6
Continuous
 62
     7
100
AcDbLine
 10
-942.5385896756164
 20
-1007.349999869047
 30
0.0
 11
-945.5000009158058
 21
-1003.120666218875
 31
0.0
  0
LINE
  5
16B
330
55
100
AcDbEntity
  8
0
  6
Continuous
 62
     7
100
AcDbLine
 10
-948.3654881251126
 20
-1005.32595707848
 30
0.0
 11
-947.884513712422
 21
-1005.674042720705
 31
0.0
  0
LINE
  5
16C
330
55
100
AcDbEntity
  8
0
  6
Continuous
 62
     7
100
AcDbLine
 10
-948.3659574424859
 20
-1008.192020042603
 30
0.0
 11
-948.939693540953
 21
-1006.615693061173
 31
0.0
  0
LINE
  5
16D
330
55
100
AcDbEntity
  8
0
  6
Continuous
 62
     7
100
AcDbLine
 10
-945.0500009230135
 20
-1008.849999903461
 30
0.0
 11
-947.426264822527
 21
-1008.849999900458
 31
0.0
  0
LINE
  5
16E
330
55
100
AcDbEntity
  8
0
  6
Continuous
 62
     7
100
AcDbLine
 10
-940.7000009204918
 20
-1007.349999869056
 30
0.0
 11
-942.5385896756164
 21
-1007.349999869047
 31
0.0
  0
LINE
  5
16F
330
55
100
AcDbEntity
  8
0
  6
Continuous
 62
     7
100
AcDbLine
 10
-940.7000009203975
 20
-998.8443857360452
 30
0.0
 11
-940.7000009204918
 21
-1007.349999869056
 31
0.0
  0
LINE
  5
170
330
55
100
AcDbEntity
  8
0
  6
Continuous
 62
     7
100
AcDbLine
 10
-935.2790410329897
 20
-960.6420952040644
 30
0.0
 11
-936.1207626838097
 21
-962.0999998690656
 31
0.0
  0
LINE
  5
171
330
55
100
AcDbEntity
  8
0
  6
Continuous
 62
     7
100
AcDbLine
 10
-934.8216183400148
 20
-960.4980611589697
 30
0.0
 11
-935.2790410329897
 21
-960.6420952040644
 31
0.0
  0
LINE
  5
172
330
55
100
AcDbEntity
  8
0
  6
Continuous
 62
     2
100
AcDbLine
 10
-963.5707015520146
 20
-1002.549999880165
 30
0.0
 11
-963.570701551386
 21
-1002.049999880165
 31
0.0
  0
LINE
  5
173
330
55
100
AcDbEntity
  8
0
  6
Continuous
 62
     7
100
AcDbLine
 10
-963.3000009150708
 20
-1002.549999880506
 30
0.0
 11
-963.3000009144421
 21
-1002.049999880506
 31
0.0
  0
LINE
  5
174
330
55
100
AcDbEntity
  8
0
  6
Continuous
 62
     7
100
AcDbLine
 10
-963.5707015520146
 20
-1002.549999880165
 30
0.0
 11
-966.4293002781293
 21
-1002.549999876571
 31
0.0
  0
LINE
  5
175
330
55
100
AcDbEntity
  8
0
  6
Continuous
 62
     7
100
AcDbLine
 10
-963.3000009150708
 20
-1002.549999880506
 30
0.0
 11
-963.5707015520146
 21
-1002.549999880165
 31
0.0
  0
LINE
  5
176
330
55
100
AcDbEntity
  8
0
  6
Continuous
 62
     7
100
AcDbLine
 10
-945.8995857638791
 20
-1002.549999902384
 30
0.0
 11
-963.3000009150708
 21
-1002.549999880506
 31
0.0
  0
LINE
  5
177
330
55
100
AcDbEntity
  8
0
  6
Continuous
 62
     7
100
AcDbLine
 10
-966.4293002781293
 20
-1002.549999876571
 30
0.0
 11
-966.7000009150707
 21
-1002.549999876231
 31
0.0
  0
LINE
  5
178
330
55
100
AcDbEntity
  8
0
  6
Continuous
 62
     7
100
AcDbLine
 10
-966.7000009150707
 20
-1002.549999876231
 30
0.0
 11
-969.5000009150268
 21
-1002.549999872711
 31
0.0
  0
LINE
  5
179
330
55
100
AcDbEntity
  8
0
  6
Continuous
 62
     7
100
AcDbLine
 10
-969.5000009150268
 20
-1002.549999872711
 30
0.0
 11
-969.5000009143981
 21
-1002.049999872708
 31
0.0
  0
LINE
  5
17A
330
55
100
AcDbEntity
  8
0
  6
Continuous
 62
     7
100
AcDbLine
 10
-966.7000009150707
 20
-1002.549999876231
 30
0.0
 11
-966.7000009144421
 21
-1002.049999876229
 31
0.0
  0
LINE
  5
17B
330
55
100
AcDbEntity
  8
0
  6
Continuous
 62
     2
100
AcDbLine
 10
-966.4293002781293
 20
-1002.549999876571
 30
0.0
 11
-966.4293002775006
 21
-1002.049999876569
 31
0.0
  0
LINE
  5
17C
330
55
100
AcDbEntity
  8
0
  6
Continuous
 62
     7
100
AcDbLine
 10
-963.570701551386
 20
-1002.049999880165
 30
0.0
 11
-966.4293002775006
 21
-1002.049999876569
 31
0.0
  0
LINE
  5
17D
330
55
100
AcDbEntity
  8
0
  6
Continuous
 62
     7
100
AcDbLine
 10
-963.3000009144421
 20
-1002.049999880506
 30
0.0
 11
-963.570701551386
 21
-1002.049999880165
 31
0.0
  0
LINE
  5
17E
330
55
100
AcDbEntity
  8
0
  6
Continuous
 62
     7
100
AcDbLine
 10
-966.4293002775006
 20
-1002.049999876569
 30
0.0
 11
-966.7000009144421
 21
-1002.049999876229
 31
0.0
  0
LINE
  5
17F
330
55
100
AcDbEntity
  8
0
  6
Continuous
 62
     7
100
AcDbLine
 10
-969.5000009143981
 20
-1002.049999872708
 30
0.0
 11
-974.2000009144012
 21
-1002.049999866794
 31
0.0
  0
LINE
  5
180
330
55
100
AcDbEntity
  8
0
  6
Continuous
 62
     7
100
AcDbLine
 10
-984.100415987818
 20
-1002.549999854353
 30
0.0
 11
-974.2000009150212
 21
-1002.549999866801
 31
0.0
  0
LINE
  5
181
330
55
100
AcDbEntity
  8
0
  6
Continuous
 62
     7
100
AcDbLine
 10
-969.5000009150268
 20
-1002.549999872711
 30
0.0
 11
-974.2000009150212
 21
-1002.549999866801
 31
0.0
  0
LINE
  5
182
330
55
100
AcDbEntity
  8
0
  6
Continuous
 62
     7
100
AcDbLine
 10
-966.7000009144421
 20
-1002.049999876229
 30
0.0
 11
-969.5000009143981
 21
-1002.049999872708
 31
0.0
  0
LINE
  5
183
330
55
100
AcDbEntity
  8
0
  6
Continuous
 62
     7
100
AcDbLine
 10
-955.8000009144964
 20
-1002.049999889936
 30
0.0
 11
-963.3000009144421
 21
-1002.049999880506
 31
0.0
  0
LINE
  5
184
330
55
100
AcDbEntity
  8
0
  6
Continuous
 62
     7
100
AcDbLine
 10
-947.3000008350263
 20
-1000.549999867201
 30
0.0
 11
-955.8000009126087
 21
-1000.549999856063
 31
0.0
  0
LINE
  5
185
330
55
100
AcDbEntity
  8
0
  6
Continuous
 62
     7
100
AcDbLine
 10
-955.8000009126087
 20
-1000.549999856063
 30
0.0
 11
-955.8000009144964
 21
-1002.049999889936
 31
0.0
  0
LINE
  5
186
330
55
100
AcDbEntity
  8
0
  6
Continuous
 62
     7
100
AcDbLine
 10
-1004.909654782483
 20
-962.8499998687392
 30
0.0
 11
-994.3122518586426
 21
-962.8499998688053
 31
0.0
  0
LINE
  5
187
330
55
100
AcDbEntity
  8
0
  6
Continuous
 62
     7
100
AcDbLine
 10
-974.200000912517
 20
-1000.549999868903
 30
0.0
 11
-982.7000009221322
 21
-1000.549999868864
 31
0.0
  0
LINE
  5
188
330
55
100
AcDbEntity
  8
0
  6
Continuous
 62
     7
100
AcDbLine
 10
-982.573737023457
 20
-1008.849999856265
 30
0.0
 11
-984.9500009230093
 21
-1008.849999853277
 31
0.0
  0
LINE
  5
189
330
55
100
AcDbEntity
  8
0
  6
Continuous
 62
     7
100
AcDbLine
 10
-981.0000009189838
 20
-1005.649999858245
 30
0.0
 11
-981.0000009197681
 21
-1006.273672877536
 31
0.0
  0
LINE
  5
18A
330
55
100
AcDbEntity
  8
0
  6
Continuous
 62
     7
100
AcDbLine
 10
-974.2000009144012
 20
-1002.049999866794
 30
0.0
 11
-974.200000912517
 21
-1000.549999868903
 31
0.0
  0
LINE
  5
18B
330
55
100
AcDbEntity
  8
0
  6
Continuous
 62
     7
100
AcDbLine
 10
-974.2000009150212
 20
-1002.549999866801
 30
0.0
 11
-974.2000009144012
 21
-1002.049999866794
 31
0.0
  0
LINE
  5
18C
330
55
100
AcDbEntity
  8
0
  6
Continuous
 62
     7
100
AcDbLine
 10
-982.1154881255734
 20
-1005.674042677648
 30
0.0
 11
-981.6345137120044
 21
-1005.325957036637
 31
0.0
  0
LINE
  5
18D
330
55
100
AcDbEntity
  8
0
  6
Continuous
 62
     7
100
AcDbLine
 10
-987.5082722186534
 20
-1007.41692293964
 30
0.0
 11
-987.4614121881802
 21
-1007.349999880483
 31
0.0
  0
LINE
  5
18E
330
55
100
AcDbEntity
  8
0
  6
Continuous
 62
     7
100
AcDbLine
 10
-981.0603082994124
 20
-1006.615693020786
 30
0.0
 11
-981.6340444018437
 21
-1008.192020000773
 31
0.0
  0
LINE
  5
18F
330
55
100
AcDbEntity
  8
0
  6
Continuous
 62
     7
100
AcDbLine
 10
-994.7209608075555
 20
-960.6420952037937
 30
0.0
 11
-993.8792391567487
 21
-962.0999998688028
 31
0.0
  0
LINE
  5
190
330
55
100
AcDbEntity
  8
0
  6
Continuous
 62
     7
100
AcDbLine
 10
-995.1783835005291
 20
-960.4980611586949
 30
0.0
 11
-994.7209608075555
 21
-960.6420952037937
 31
0.0
  0
LINE
  5
191
330
55
100
AcDbEntity
  8
0
  6
Continuous
 62
     7
100
AcDbLine
 10
-989.3000009204919
 20
-1007.34999986417
 30
0.0
 11
-989.3000009204532
 21
-998.8443852826722
 31
0.0
  0
LINE
  5
192
330
55
100
AcDbEntity
  8
0
  6
Continuous
 62
     7
100
AcDbLine
 10
-984.100415987818
 20
-1002.549999854353
 30
0.0
 11
-984.5000009158051
 21
-1003.120666273011
 31
0.0
  0
LINE
  5
193
330
55
100
AcDbEntity
  8
0
  6
Continuous
 62
     7
100
AcDbLine
 10
-984.5000009158051
 20
-1003.120666273011
 30
0.0
 11
-984.5000009163641
 21
-1003.5651518503
 31
0.0
  0
LINE
  5
194
330
55
100
AcDbEntity
  8
0
  6
Continuous
 62
     7
100
AcDbLine
 10
-982.9916110901453
 20
-1004.997075298014
 30
0.0
 11
-982.7029284444067
 21
-1005.538260743408
 31
0.0
  0
LINE
  5
195
330
55
100
AcDbEntity
  8
0
  6
Continuous
 62
     7
100
AcDbLine
 10
-987.4614121881802
 20
-1007.349999880483
 30
0.0
 11
-989.3000009204919
 21
-1007.34999986417
 31
0.0
  0
LINE
  5
196
330
55
100
AcDbEntity
  8
0
  6
Continuous
 62
     7
100
AcDbLine
 10
-984.5000009158051
 20
-1003.120666273011
 30
0.0
 11
-987.4614121881802
 21
-1007.349999880483
 31
0.0
  0
LINE
  5
197
330
55
100
AcDbEntity
  8
0
  6
Continuous
 62
     7
100
AcDbLine
 10
-982.7000009221322
 20
-1000.549999868864
 30
0.0
 11
-984.100415987818
 21
-1002.549999854353
 31
0.0
  0
LINE
  5
198
330
55
100
AcDbEntity
  8
0
  6
Continuous
 62
     7
100
AcDbLine
 10
-935.6877499819227
 20
-962.8499998690721
 30
0.0
 11
-925.0903470580822
 21
-962.8499998691025
 31
0.0
  0
ARC
  5
199
330
55
100
AcDbEntity
  8
0
  6
Continuous
 62
     7
100
AcDbCircle
 10
-946.0000009163649
 20
-1003.565151898723
 30
0.0
 40
0.4999999999997094
100
AcDbArc
 50
287.457603051623
 51
359.9999999279186
  0
ARC
  5
19A
330
55
100
AcDbEntity
  8
0
  6
Continuous
 62
     7
100
AcDbCircle
 10
-945.2500009193661
 20
-1005.949999903209
 30
0.0
 40
2.000000000000099
100
AcDbArc
 50
107.4576030516185
 51
152.301318191217
  0
ARC
  5
19B
330
55
100
AcDbEntity
  8
0
  6
Continuous
 62
     7
100
AcDbCircle
 10
-947.6500009185862
 20
-1005.34999990019
 30
0.0
 40
0.3999999999998928
100
AcDbArc
 50
234.1063919349988
 51
331.9233581638057
  0
ARC
  5
19C
330
55
100
AcDbEntity
  8
0
  6
Continuous
 62
     7
100
AcDbCircle
 10
-948.0000009197372
 20
-1006.273672919029
 30
0.0
 40
1.0
100
AcDbArc
 50
179.9999999279837
 51
199.9999999279569
  0
ARC
  5
19D
330
55
100
AcDbEntity
  8
0
  6
Continuous
 62
     7
100
AcDbCircle
 10
-947.42626482127
 20
-1007.849999900458
 30
0.0
 40
1.000000000000183
100
AcDbArc
 50
199.9999999280058
 51
269.9999999279837
  0
ARC
  5
19E
330
55
100
AcDbEntity
  8
0
  6
Continuous
 62
     7
100
AcDbCircle
 10
-945.0500009192403
 20
-1005.849999903461
 30
0.0
 40
3.0
100
AcDbArc
 50
269.9999999279381
 51
328.5128254555095
  0
ARC
  5
19F
330
55
100
AcDbEntity
  8
0
  6
Continuous
 62
     7
100
AcDbCircle
 10
-938.0021889759998
 20
-949.0999604420692
 30
0.0
 40
1.000000000001409
100
AcDbArc
 50
18.38961506643495
 51
69.2207995551556
  0
ARC
  5
1A0
330
55
100
AcDbEntity
  8
0
  6
Continuous
 62
     7
100
AcDbCircle
 10
-935.6877499819212
 20
-962.3499998690721
 30
0.0
 40
0.5000000000000321
100
AcDbArc
 50
149.9999999991447
 51
269.9999999998307
  0
ARC
  5
1A1
330
55
100
AcDbEntity
  8
0
  6
Continuous
 62
     7
100
AcDbCircle
 10
-934.8816871276051
 20
-960.3072949650111
 30
0.0
 40
0.2000000000000174
100
AcDbArc
 50
287.478261998814
 51
4.89685680665909
  0
ARC
  5
1A2
330
55
100
AcDbEntity
  8
0
  6
Continuous
 62
     7
100
AcDbCircle
 10
-984.4999161607304
 20
-964.5583357336133
 30
0.0
 40
49.99999999999999
100
AcDbArc
 50
4.89685680666264
 51
18.38961506630709
  0
ARC
  5
1A3
330
55
100
AcDbEntity
  8
0
  6
Continuous
 62
     7
100
AcDbCircle
 10
-948.600000918957
 20
-1005.649999898985
 30
0.0
 40
0.3999999999969459
100
AcDbArc
 50
54.10639193316568
 51
179.9999999276645
  0
ARC
  5
1A4
330
55
100
AcDbEntity
  8
0
  6
Continuous
 62
     7
100
AcDbCircle
 10
-1004.909654782492
 20
-963.3499998687334
 30
0.0
 40
0.499999999994202
100
AcDbArc
 50
89.99999999897082
 51
178.6105112059932
  0
ARC
  5
1A5
330
55
100
AcDbEntity
  8
0
  6
Continuous
 62
     7
100
AcDbCircle
 10
-998.7952610494208
 20
-993.442557527636
 30
0.0
 40
1.100000000048613
100
AcDbArc
 50
202.1681945463301
 51
246.2464085836059
  0
ARC
  5
1A6
330
55
100
AcDbEntity
  8
0
  6
Continuous
 62
     7
100
AcDbCircle
 10
-965.0000001839265
 20
-916.6500426384728
 30
0.0
 40
84.99999999986494
100
AcDbArc
 50
246.2464085773655
 51
252.8912639026298
  0
ARC
  5
1A7
330
55
100
AcDbEntity
  8
0
  6
Continuous
 62
     7
100
AcDbCircle
 10
-929.4318551667936
 20
-965.1807825579731
 30
0.0
 40
76.00000000054231
100
AcDbArc
 50
178.6105112066818
 51
202.1681945404522
  0
ARC
  5
1A8
330
55
100
AcDbEntity
  8
0
  6
Continuous
 62
     7
100
AcDbCircle
 10
-982.5737370221993
 20
-1007.849999856265
 30
0.0
 40
1.0
100
AcDbArc
 50
269.9999999279381
 51
339.9999999279083
  0
ARC
  5
1A9
330
55
100
AcDbEntity
  8
0
  6
Continuous
 62
     7
100
AcDbCircle
 10
-981.4000009189838
 20
-1005.649999857742
 30
0.0
 40
0.3999999999999773
100
AcDbArc
 50
359.9999999279576
 51
125.8936079208536
  0
ARC
  5
1AA
330
55
100
AcDbEntity
  8
0
  6
Continuous
 62
     7
100
AcDbCircle
 10
-982.3500009185943
 20
-1005.349999856546
 30
0.0
 40
0.3999999999976279
100
AcDbArc
 50
208.076641692394
 51
305.8936079211509
  0
ARC
  5
1AB
330
55
100
AcDbEntity
  8
0
  6
Continuous
 62
     7
100
AcDbCircle
 10
-984.950000919236
 20
-1005.849999853277
 30
0.0
 40
2.999999999999974
100
AcDbArc
 50
211.4871748321476
 51
269.9999999279359
  0
ARC
  5
1AC
330
55
100
AcDbEntity
  8
0
  6
Continuous
 62
     7
100
AcDbCircle
 10
-982.0000009197681
 20
-1006.273672876279
 30
0.0
 40
0.999999999999778
100
AcDbArc
 50
339.9999999279634
 51
359.9999999279772
  0
ARC
  5
1AD
330
55
100
AcDbEntity
  8
0
  6
Continuous
 62
     7
100
AcDbCircle
 10
-995.1183147129369
 20
-960.3072949647369
 30
0.0
 40
0.2000000000000537
100
AcDbArc
 50
175.1031431928189
 51
252.52173800064
  0
ARC
  5
1AE
330
55
100
AcDbEntity
  8
0
  6
Continuous
 62
     7
100
AcDbCircle
 10
-994.3122518586395
 20
-962.3499998688052
 30
0.0
 40
0.5000000000001137
100
AcDbArc
 50
269.9999999996352
 51
30.00000000031889
  0
ARC
  5
1AF
330
55
100
AcDbEntity
  8
0
  6
Continuous
 62
     7
100
AcDbCircle
 10
-990.3000009204254
 20
-998.84438528263
 30
0.0
 40
0.9999999999722604
100
AcDbArc
 50
359.9999999975834
 51
72.89126390047872
  0
ARC
  5
1B0
330
55
100
AcDbEntity
  8
0
  6
Continuous
 62
     7
100
AcDbCircle
 10
-991.9978126519771
 20
-949.0999598027537
 30
0.0
 40
1.000000000000104
100
AcDbArc
 50
110.7791990882405
 51
161.610384145735
  0
ARC
  5
1B1
330
55
100
AcDbEntity
  8
0
  6
Continuous
 62
     7
100
AcDbCircle
 10
-984.0000009163641
 20
-1003.565151850929
 30
0.0
 40
0.5
100
AcDbArc
 50
179.9999999279186
 51
252.5423968042201
  0
ARC
  5
1B2
330
55
100
AcDbEntity
  8
0
  6
Continuous
 62
     7
100
AcDbCircle
 10
-984.7500009193635
 20
-1005.949999853528
 30
0.0
 40
1.999999999999899
100
AcDbArc
 50
28.45460155539652
 51
72.54239680421537
  0
ARC
  5
1B3
330
55
100
AcDbEntity
  8
0
  6
Continuous
 62
     7
100
AcDbCircle
 10
-945.5000856798528
 20
-964.5583357338027
 30
0.0
 40
49.99999999999856
100
AcDbArc
 50
161.6103841456811
 51
175.1031431928019
  0
ARC
  5
1B4
330
55
100
AcDbEntity
  8
0
  6
Continuous
 62
     7
100
AcDbCircle
 10
-939.7000009203975
 20
-998.8443857360497
 30
0.0
 40
1.000000000000023
100
AcDbArc
 50
107.1087350706186
 51
179.9999999997395
  0
ARC
  5
1B5
330
55
100
AcDbEntity
  8
0
  6
Continuous
 62
     7
100
AcDbCircle
 10
-965.0000001839265
 20
-916.6500426384728
 30
0.0
 40
84.9999999998649
100
AcDbArc
 50
287.1087350706162
 51
293.7811987444965
  0
ARC
  5
1B6
330
55
100
AcDbEntity
  8
0
  6
Continuous
 62
     7
100
AcDbCircle
 10
-931.1274171366329
 20
-993.5177739545555
 30
0.0
 40
0.9999999999999527
100
AcDbArc
 50
293.7811987444939
 51
337.800880895232
  0
ARC
  5
1B7
330
55
100
AcDbEntity
  8
0
  6
Continuous
 62
     7
100
AcDbCircle
 10
-925.0903470580777
 20
-963.3499998690968
 30
0.0
 40
0.4999999999942857
100
AcDbArc
 50
1.3894887934858
 51
90.0000000005211
  0
ARC
  5
1B8
330
55
100
AcDbEntity
  8
0
  6
Continuous
 62
     7
100
AcDbCircle
 10
-1000.568146673793
 20
-965.1807825576492
 30
0.0
 40
76.00000000054244
100
AcDbArc
 50
337.8008808952299
 51
1.38948879279651
  0
ARC
  5
1B9
330
55
100
AcDbEntity
  8
0
  6
Continuous
 62
     7
100
AcDbCircle
 10
-965.0000016564128
 20
-1020.249999869137
 30
0.0
 40
77.10000000000113
100
AcDbArc
 50
69.22079955498354
 51
110.7791990882417
  0
ENDBLK
  5
57
330
55
100
AcDbEntity
  8
0
100
AcDbBlockEnd
  0
BLOCK
  5
5A
330
58
100
AcDbEntity
  8
0
100
AcDbBlockBegin
  2
Rckans1
 70
     0
 10
-965.000000000059
 20
-976.000000000227
 30
0.0
  3
Rckans1
  1

  0
INSERT
  5
59
330
58
100
AcDbEntity
  8
0
100
AcDbBlockReference
  2
3069055_E_UTWE_6-select__3
 10
-1005.431855167336
 20
-1008.849999903461
 30
0.0
  0
MTEXT
  5
1BA
330
58
100
AcDbEntity
  8
1
 62
     6
100
AcDbMText
 10
-965.0000000000591
 20
-1013.849999428174
 30
0.0
 40
5.0
 41
0.0
 71
     2
 72
     1
  1
 
  7
CONVERTER_11
 73
     1
 44
1.32052821128451
  0
ENDBLK
  5
5B
330
58
100
AcDbEntity
  8
0
100
AcDbBlockEnd
  0
BLOCK
  5
5D
330
5C
100
AcDbEntity
  8
0
100
AcDbBlockBegin
  2
3069055_E_UTWE_6-select__4
 70
     0
 10
-1049.731738692135
 20
-1008.849999856268
 30
0.0
  3
3069055_E_UTWE_6-select__4
  1

  0
LINE
  5
1BB
330
5C
100
AcDbEntity
  8
0
  6
Continuous
 62
     2
100
AcDbLine
 10
-1049.731738692135
 20
-998.8443857360451
 30
0.0
 11
-1041.581738690501
 21
-998.8443857360442
 31
0.0
  0
LINE
  5
1BC
330
5C
100
AcDbEntity
  8
0
  6
Continuous
 62
     2
100
AcDbLine
 10
-1049.731738691884
 20
-997.8886375604949
 30
0.0
 11
-1041.58173869018
 21
-997.8886375604941
 31
0.0
  0
LINE
  5
1BD
330
5C
100
AcDbEntity
  8
0
  6
Continuous
 62
     7
100
AcDbLine
 10
-1049.731738692101
 20
-960.4980611589697
 30
0.0
 11
-1049.731738692102
 21
-960.6420952040643
 31
0.0
  0
LINE
  5
1BE
330
5C
100
AcDbEntity
  8
0
  6
Continuous
 62
     7
100
AcDbLine
 10
-1049.731738692112
 20
-962.8499998690909
 30
0.0
 11
-1049.731738691596
 21
-963.337875480425
 31
0.0
  0
LINE
  5
1BF
330
5C
100
AcDbEntity
  8
0
  6
Continuous
 62
     7
100
AcDbLine
 10
-1049.731738691989
 20
-943.1499998691357
 30
0.0
 11
-1049.731738692089
 21
-948.1650059160869
 31
0.0
  0
LINE
  5
1C0
330
5C
100
AcDbEntity
  8
0
  6
Continuous
 62
     7
100
AcDbLine
 10
-1049.731738692135
 20
-998.8443857360451
 30
0.0
 11
-1049.731738692135
 21
-1007.349999869056
 31
0.0
  0
LINE
  5
1C1
330
5C
100
AcDbEntity
  8
0
  6
Continuous
 62
     7
100
AcDbLine
 10
-1041.581738690487
 20
-994.4328659940139
 30
0.0
 11
-1041.58173869018
 21
-997.8886375604941
 31
0.0
  0
LINE
  5
1C2
330
5C
100
AcDbEntity
  8
0
  6
Continuous
 62
     7
100
AcDbLine
 10
-1041.581738689953
 20
-964.1431734936692
 30
0.0
 11
-1041.58173869044
 21
-964.6499998690902
 31
0.0
  0
LINE
  5
1C3
330
5C
100
AcDbEntity
  8
0
  6
Continuous
 62
     7
100
AcDbLine
 10
-1041.58173869039
 20
-948.7844833953094
 30
0.0
 11
-1041.581738690429
 21
-960.2902225121054
 31
0.0
  0
LINE
  5
1C4
330
5C
100
AcDbEntity
  8
0
  6
Continuous
 62
     7
100
AcDbLine
 10
-1041.581738690386
 20
-943.1499998691502
 30
0.0
 11
-1041.581738690406
 21
-948.1650059161013
 31
0.0
  0
LINE
  5
1C5
330
5C
100
AcDbEntity
  8
0
  6
Continuous
 62
     7
100
AcDbLine
 10
-1041.581738690429
 20
-960.6420952040534
 30
0.0
 11
-1041.581738690428
 21
-960.4980611589489
 31
0.0
  0
LINE
  5
1C6
330
5C
100
AcDbEntity
  8
0
  6
Continuous
 62
     7
100
AcDbLine
 10
-1041.58173869051
 20
-1007.349999869062
 30
0.0
 11
-1041.581738690501
 21
-998.8443857360442
 31
0.0
  0
LINE
  5
1C7
330
5C
100
AcDbEntity
  8
0
  6
Continuous
 62
     7
100
AcDbLine
 10
-1041.581738690501
 20
-998.8443857360442
 30
0.0
 11
-1041.58173869018
 21
-997.8886375604941
 31
0.0
  0
LINE
  5
1C8
330
5C
100
AcDbEntity
  8
0
  6
Continuous
 62
     7
100
AcDbLine
 10
-1041.581738690484
 20
-993.8956005064974
 30
0.0
 11
-1041.581738690487
 21
-994.4328659940139
 31
0.0
  0
LINE
  5
1C9
330
5C
100
AcDbEntity
  8
0
  6
Continuous
 62
     7
100
AcDbLine
 10
-1041.58173869044
 20
-964.6499998690902
 30
0.0
 11
-1041.581738690484
 21
-993.8956005064974
 31
0.0
  0
LINE
  5
1CA
330
5C
100
AcDbEntity
  8
0
  6
Continuous
 62
     7
100
AcDbLine
 10
-1046.961738692102
 20
-1008.849999856265
 30
0.0
 11
-1046.961738692133
 21
-1007.416922976979
 31
0.0
  0
LINE
  5
1CB
330
5C
100
AcDbEntity
  8
0
  6
Continuous
 62
     7
100
AcDbLine
 10
-1044.361738692102
 20
-1008.849999856268
 30
0.0
 11
-1046.961738692102
 21
-1008.849999856265
 31
0.0
  0
LINE
  5
1CC
330
5C
100
AcDbEntity
  8
0
  6
Continuous
 62
     7
100
AcDbLine
 10
-1044.361738692102
 20
-1008.849999856268
 30
0.0
 11
-1044.361738692133
 21
-1007.416922976982
 31
0.0
  0
LINE
  5
1CD
330
5C
100
AcDbEntity
  8
0
  6
Continuous
 62
     7
100
AcDbLine
 10
-1046.961738692097
 20
-1007.349999880485
 30
0.0
 11
-1046.961738692133
 21
-1007.416922976979
 31
0.0
  0
LINE
  5
1CE
330
5C
100
AcDbEntity
  8
0
  6
Continuous
 62
     7
100
AcDbLine
 10
-1044.361738692097
 20
-1007.349999880487
 30
0.0
 11
-1044.361738692133
 21
-1007.416922976982
 31
0.0
  0
LINE
  5
1CF
330
5C
100
AcDbEntity
  8
0
  6
Continuous
 62
     7
100
AcDbLine
 10
-1046.961738692097
 20
-1007.349999880485
 30
0.0
 11
-1044.361738692097
 21
-1007.349999880487
 31
0.0
  0
LINE
  5
1D0
330
5C
100
AcDbEntity
  8
0
  6
Continuous
 62
     7
100
AcDbLine
 10
-1044.361738692097
 20
-1007.349999880487
 30
0.0
 11
-1041.58173869051
 21
-1007.349999869062
 31
0.0
  0
LINE
  5
1D1
330
5C
100
AcDbEntity
  8
0
  6
Continuous
 62
     7
100
AcDbLine
 10
-1049.731738692135
 20
-1007.349999869056
 30
0.0
 11
-1046.961738692097
 21
-1007.349999880485
 31
0.0
  0
LINE
  5
1D2
330
5C
100
AcDbEntity
  8
0
  6
Continuous
 62
     7
100
AcDbLine
 10
-1044.361738692133
 20
-1007.416922976982
 30
0.0
 11
-1046.961738692133
 21
-1007.416922976979
 31
0.0
  0
LINE
  5
1D3
330
5C
100
AcDbEntity
  8
0
  6
Continuous
 62
     7
100
AcDbLine
 10
-1033.431738690442
 20
-964.1431734936684
 30
0.0
 11
-1033.431738690441
 21
-964.6499998690892
 31
0.0
  0
LINE
  5
1D4
330
5C
100
AcDbEntity
  8
0
  6
Continuous
 62
     2
100
AcDbLine
 10
-1041.581738689953
 20
-964.1431734936692
 30
0.0
 11
-1033.431738690442
 21
-964.1431734936684
 31
0.0
  0
LINE
  5
1D5
330
5C
100
AcDbEntity
  8
0
  6
Continuous
 62
     7
100
AcDbLine
 10
-1033.431738690443
 20
-963.3378754804233
 30
0.0
 11
-1033.431738690442
 21
-964.1431734936684
 31
0.0
  0
LINE
  5
1D6
330
5C
100
AcDbEntity
  8
0
  6
Continuous
 62
     7
100
AcDbLine
 10
-1033.431738690443
 20
-962.8499998690892
 30
0.0
 11
-1033.431738690443
 21
-963.3378754804233
 31
0.0
  0
LINE
  5
1D7
330
5C
100
AcDbEntity
  8
0
  6
Continuous
 62
     2
100
AcDbLine
 10
-1049.731738691596
 20
-963.337875480425
 30
0.0
 11
-1033.431738690443
 21
-963.3378754804233
 31
0.0
  0
LINE
  5
1D8
330
5C
100
AcDbEntity
  8
0
  6
Continuous
 62
     7
100
AcDbLine
 10
-1041.581738690438
 20
-962.8499998690901
 30
0.0
 11
-1033.431738690443
 21
-962.8499998690892
 31
0.0
  0
LINE
  5
1D9
330
5C
100
AcDbEntity
  8
0
  6
Continuous
 62
     7
100
AcDbLine
 10
-1041.58173869044
 20
-964.6499998690902
 30
0.0
 11
-1033.431738690441
 21
-964.6499998690892
 31
0.0
  0
LINE
  5
1DA
330
5C
100
AcDbEntity
  8
0
  6
Continuous
 62
     2
100
AcDbLine
 10
-1049.731738692126
 20
-993.8956005065114
 30
0.0
 11
-1041.581738690484
 21
-993.8956005064974
 31
0.0
  0
LINE
  5
1DB
330
5C
100
AcDbEntity
  8
0
  6
Continuous
 62
     2
100
AcDbLine
 10
-1049.731738692129
 20
-994.4328659940342
 30
0.0
 11
-1041.581738690487
 21
-994.4328659940139
 31
0.0
  0
LINE
  5
1DC
330
5C
100
AcDbEntity
  8
0
  6
Continuous
 62
     7
100
AcDbLine
 10
-1049.731738692126
 20
-993.8956005065114
 30
0.0
 11
-1049.731738692129
 21
-994.4328659940342
 31
0.0
  0
LINE
  5
1DD
330
5C
100
AcDbEntity
  8
0
  6
Continuous
 62
     7
100
AcDbLine
 10
-1049.731738692129
 20
-994.4328659940342
 30
0.0
 11
-1049.731738691884
 21
-997.8886375604949
 31
0.0
  0
LINE
  5
1DE
330
5C
100
AcDbEntity
  8
0
  6
Continuous
 62
     7
100
AcDbLine
 10
-1049.731738692135
 20
-998.8443857360451
 30
0.0
 11
-1049.731738691884
 21
-997.8886375604949
 31
0.0
  0
LINE
  5
1DF
330
5C
100
AcDbEntity
  8
0
  6
Continuous
 62
     7
100
AcDbLine
 10
-1049.731738692089
 20
-948.1650059160869
 30
0.0
 11
-1049.73173869204
 21
-948.7844833953003
 31
0.0
  0
LINE
  5
1E0
330
5C
100
AcDbEntity
  8
0
  6
Continuous
 62
     7
100
AcDbLine
 10
-1049.731738691989
 20
-943.1499998691357
 30
0.0
 11
-1041.581738690386
 21
-943.1499998691502
 31
0.0
  0
LINE
  5
1E1
330
5C
100
AcDbEntity
  8
0
  6
Continuous
 62
     7
100
AcDbLine
 10
-1049.731738692102
 20
-960.6420952040643
 30
0.0
 11
-1049.731738692103
 21
-962.0999998690656
 31
0.0
  0
LINE
  5
1E2
330
5C
100
AcDbEntity
  8
0
  6
Continuous
 62
     7
100
AcDbLine
 10
-1049.731738692112
 20
-962.8499998690909
 30
0.0
 11
-1049.731738692103
 21
-962.0999998690656
 31
0.0
  0
LINE
  5
1E3
330
5C
100
AcDbEntity
  8
0
  6
Continuous
 62
     7
100
AcDbLine
 10
-1049.731738692101
 20
-960.4980611589697
 30
0.0
 11
-1049.731738692102
 21
-960.2902225121252
 31
0.0
  0
LINE
  5
1E4
330
5C
100
AcDbEntity
  8
0
  6
Continuous
 62
     7
100
AcDbLine
 10
-1041.581738690438
 20
-962.8499998690901
 30
0.0
 11
-1041.581738690433
 21
-962.0999998690626
 31
0.0
  0
LINE
  5
1E5
330
5C
100
AcDbEntity
  8
0
  6
Continuous
 62
     7
100
AcDbLine
 10
-1041.581738690433
 20
-962.0999998690626
 30
0.0
 11
-1041.581738690429
 21
-960.6420952040534
 31
0.0
  0
LINE
  5
1E6
330
5C
100
AcDbEntity
  8
0
  6
Continuous
 62
     7
100
AcDbLine
 10
-1041.581738690428
 20
-960.4980611589489
 30
0.0
 11
-1041.581738690429
 21
-960.2902225121054
 31
0.0
  0
LINE
  5
1E7
330
5C
100
AcDbEntity
  8
0
  6
Continuous
 62
     2
100
AcDbLine
 10
-1049.731738692103
 20
-962.0999998690656
 30
0.0
 11
-1041.581738690433
 21
-962.0999998690626
 31
0.0
  0
LINE
  5
1E8
330
5C
100
AcDbEntity
  8
0
  6
Continuous
 62
     7
100
AcDbLine
 10
-1041.581738690406
 20
-948.1650059161013
 30
0.0
 11
-1041.58173869039
 21
-948.7844833953094
 31
0.0
  0
LINE
  5
1E9
330
5C
100
AcDbEntity
  8
0
  6
Continuous
 62
     2
100
AcDbLine
 10
-1049.73173869204
 20
-948.7844833953003
 30
0.0
 11
-1041.58173869039
 21
-948.7844833953094
 31
0.0
  0
LINE
  5
1EA
330
5C
100
AcDbEntity
  8
0
  6
Continuous
 62
     2
100
AcDbLine
 10
-1049.731738692102
 20
-960.2902225121252
 30
0.0
 11
-1041.581738690429
 21
-960.2902225121054
 31
0.0
  0
LINE
  5
1EB
330
5C
100
AcDbEntity
  8
0
  6
Continuous
 62
     2
100
AcDbLine
 10
-1049.731738692101
 20
-960.4980611589697
 30
0.0
 11
-1041.581738690428
 21
-960.4980611589489
 31
0.0
  0
LINE
  5
1EC
330
5C
100
AcDbEntity
  8
0
  6
Continuous
 62
     2
100
AcDbLine
 10
-1049.731738692089
 20
-948.1650059160869
 30
0.0
 11
-1041.581738690406
 21
-948.1650059161013
 31
0.0
  0
LINE
  5
1ED
330
5C
100
AcDbEntity
  8
0
  6
Continuous
 62
     7
100
AcDbLine
 10
-1049.731738692112
 20
-962.8499998690909
 30
0.0
 11
-1041.581738690438
 21
-962.8499998690901
 31
0.0
  0
LINE
  5
1EE
330
5C
100
AcDbEntity
  8
0
  6
Continuous
 62
     7
100
AcDbLine
 10
-1049.731738692102
 20
-960.6420952040643
 30
0.0
 11
-1041.581738690429
 21
-960.6420952040534
 31
0.0
  0
LINE
  5
1EF
330
5C
100
AcDbEntity
  8
0
  6
Continuous
 62
     7
100
AcDbLine
 10
-1049.73173869204
 20
-948.7844833953003
 30
0.0
 11
-1049.731738692102
 21
-960.2902225121252
 31
0.0
  0
LINE
  5
1F0
330
5C
100
AcDbEntity
  8
0
  6
Continuous
 62
     7
100
AcDbLine
 10
-1049.731738691596
 20
-963.337875480425
 30
0.0
 11
-1049.731738692126
 21
-993.8956005065114
 31
0.0
  0
ENDBLK
  5
5E
330
5C
100
AcDbEntity
  8
0
100
AcDbBlockEnd
  0
BLOCK
  5
61
330
5F
100
AcDbEntity
  8
0
100
AcDbBlockBegin
  2
SA_Links1
 70
     0
 10
-1041.581739050951
 20
-976.0000000002269
 30
0.0
  3
SA_Links1
  1

  0
INSERT
  5
60
330
5F
100
AcDbEntity
  8
0
100
AcDbBlockReference
  2
3069055_E_UTWE_6-select__4
 10
-1049.731738692135
 20
-1008.849999856268
 30
0.0
  0
MTEXT
  5
1F1
330
5F
100
AcDbEntity
  8
1
 62
     6
100
AcDbMText
 10
-1041.581739050951
 20
-1013.849999428174
 30
0.0
 40
5.0
 41
0.0
 71
     2
 72
     1
  1
 
  7
CONVERTER_11
 73
     1
 44
1.32052821128451
  0
DIMENSION
  5
1FC
330
5F
100
AcDbEntity
  8
1
100
AcDbDimension
  2
*D16
 10
-1049.731738691596
 20
-1034.18547977348
 30
0.0
 11
-1041.86101365086
 21
-1030.76047977348
 31
0.0
 70
    32
  1
<>
 71
     5
 42
-1.0
 53
0.00013888888889
  3
ME10_DIM_10
100
AcDbAlignedDimension
 13
-1033.431738690443
 23
-963.3378754804233
 33
0.0
 14
-1049.731738691596
 24
-963.337875480425
 34
0.0
100
AcDbRotatedDimension
  0
DIMENSION
  5
209
330
5F
100
AcDbEntity
  8
1
100
AcDbDimension
  2
*D17
 10
-1041.581738690483
 20
-1022.381968300415
 30
0.0
 11
-1059.235875887873
 21
-1018.956968300415
 31
0.0
 70
    32
  1
<>
 71
     5
 42
-1.0
 53
0.00013888888889
  3
ME10_DIM_11
100
AcDbAlignedDimension
 13
-1049.731738692126
 23
-993.8956005065114
 33
0.0
 14
-1041.581738690484
 24
-993.8956005064974
 34
0.0
100
AcDbRotatedDimension
  0
ENDBLK
  5
62
330
5F
100
AcDbEntity
  8
0
100
AcDbBlockEnd
  0
BLOCK
  5
64
330
63
100
AcDbEntity
  8
0
100
AcDbBlockBegin
  2
3069055_E_UTWE_6-select__5
 70
     0
 10
-1212.895216930211
 20
-1008.849999853279
 30
0.0
  3
3069055_E_UTWE_6-select__5
  1

  0
LINE
  5
20A
330
63
100
AcDbEntity
  8
0
  6
Continuous
 62
     7
100
AcDbLine
 10
-1204.745216927781
 20
-960.498061158674
 30
0.0
 11
-1204.745216927781
 21
-960.2902225118293
 31
0.0
  0
LINE
  5
20B
330
63
100
AcDbEntity
  8
0
  6
Continuous
 62
     7
100
AcDbLine
 10
-1204.7452169278
 20
-948.7844827429515
 30
0.0
 11
-1204.745216927801
 21
-948.165005268387
 31
0.0
  0
LINE
  5
20C
330
63
100
AcDbEntity
  8
0
  6
Continuous
 62
     7
100
AcDbLine
 10
-1204.745216927777
 20
-962.0999998688022
 30
0.0
 11
-1204.74521692778
 21
-960.6420952037931
 31
0.0
  0
LINE
  5
20D
330
63
100
AcDbEntity
  8
0
  6
Continuous
 62
     7
100
AcDbLine
 10
-1204.7452169278
 20
-948.7844827429515
 30
0.0
 11
-1204.745216927781
 21
-960.2902225118293
 31
0.0
  0
LINE
  5
20E
330
63
100
AcDbEntity
  8
0
  6
Continuous
 62
     7
100
AcDbLine
 10
-1204.745216927801
 20
-948.165005268387
 30
0.0
 11
-1204.745216927798
 21
-943.1499998691501
 31
0.0
  0
LINE
  5
20F
330
63
100
AcDbEntity
  8
0
  6
Continuous
 62
     7
100
AcDbLine
 10
-1204.74521692778
 20
-960.6420952037931
 30
0.0
 11
-1204.745216927781
 21
-960.498061158674
 31
0.0
  0
LINE
  5
210
330
63
100
AcDbEntity
  8
0
  6
Continuous
 62
     7
100
AcDbLine
 10
-1204.745216927776
 20
-962.8499998687926
 30
0.0
 11
-1204.745216927777
 21
-962.0999998688022
 31
0.0
  0
LINE
  5
211
330
63
100
AcDbEntity
  8
0
  6
Continuous
 62
     2
100
AcDbLine
 10
-1196.595216926595
 20
-963.3378754800569
 30
0.0
 11
-1212.895216930209
 21
-963.3378754800553
 31
0.0
  0
LINE
  5
212
330
63
100
AcDbEntity
  8
0
  6
Continuous
 62
     2
100
AcDbLine
 10
-1204.745216927777
 20
-962.0999998688022
 30
0.0
 11
-1196.595216926128
 21
-962.0999998688026
 31
0.0
  0
LINE
  5
213
330
63
100
AcDbEntity
  8
0
  6
Continuous
 62
     7
100
AcDbLine
 10
-1204.74521692778
 20
-960.6420952037931
 30
0.0
 11
-1196.59521692613
 21
-960.6420952037935
 31
0.0
  0
LINE
  5
214
330
63
100
AcDbEntity
  8
0
  6
Continuous
 62
     2
100
AcDbLine
 10
-1196.595216926131
 20
-960.4980611586947
 30
0.0
 11
-1204.745216927781
 21
-960.498061158674
 31
0.0
  0
LINE
  5
215
330
63
100
AcDbEntity
  8
0
  6
Continuous
 62
     2
100
AcDbLine
 10
-1196.595216926131
 20
-960.2902225118489
 30
0.0
 11
-1204.745216927781
 21
-960.2902225118293
 31
0.0
  0
LINE
  5
216
330
63
100
AcDbEntity
  8
0
  6
Continuous
 62
     7
100
AcDbLine
 10
-1201.965216926086
 20
-1007.416922939642
 30
0.0
 11
-1201.965216926083
 21
-1008.849999853279
 31
0.0
  0
LINE
  5
217
330
63
100
AcDbEntity
  8
0
  6
Continuous
 62
     7
100
AcDbLine
 10
-1199.365216926087
 20
-1007.41692293964
 30
0.0
 11
-1199.365216926083
 21
-1008.849999853277
 31
0.0
  0
LINE
  5
218
330
63
100
AcDbEntity
  8
0
  6
Continuous
 62
     7
100
AcDbLine
 10
-1199.365216926087
 20
-1007.41692293964
 30
0.0
 11
-1199.365216926051
 21
-1007.349999869049
 31
0.0
  0
LINE
  5
219
330
63
100
AcDbEntity
  8
0
  6
Continuous
 62
     7
100
AcDbLine
 10
-1196.595216926088
 20
-1007.34999986417
 30
0.0
 11
-1196.595216926095
 21
-998.844385282672
 31
0.0
  0
LINE
  5
21A
330
63
100
AcDbEntity
  8
0
  6
Continuous
 62
     7
100
AcDbLine
 10
-1196.595216926104
 20
-994.4493723832509
 30
0.0
 11
-1196.59521692656
 21
-993.8576169732398
 31
0.0
  0
LINE
  5
21B
330
63
100
AcDbEntity
  8
0
  6
Continuous
 62
     7
100
AcDbLine
 10
-1196.595216925999
 20
-997.8886371123846
 30
0.0
 11
-1196.595216926104
 21
-994.4493723832509
 31
0.0
  0
LINE
  5
21C
330
63
100
AcDbEntity
  8
0
  6
Continuous
 62
     7
100
AcDbLine
 10
-1201.965216926086
 20
-1007.416922939642
 30
0.0
 11
-1199.365216926087
 21
-1007.41692293964
 31
0.0
  0
LINE
  5
21D
330
63
100
AcDbEntity
  8
0
  6
Continuous
 62
     7
100
AcDbLine
 10
-1201.965216926086
 20
-1007.416922939642
 30
0.0
 11
-1201.965216926051
 21
-1007.349999869051
 31
0.0
  0
LINE
  5
21E
330
63
100
AcDbEntity
  8
0
  6
Continuous
 62
     7
100
AcDbLine
 10
-1201.965216926083
 20
-1008.849999853279
 30
0.0
 11
-1199.365216926083
 21
-1008.849999853277
 31
0.0
  0
LINE
  5
21F
330
63
100
AcDbEntity
  8
0
  6
Continuous
 62
     7
100
AcDbLine
 10
-1201.965216926051
 20
-1007.349999869051
 30
0.0
 11
-1199.365216926051
 21
-1007.349999869049
 31
0.0
  0
LINE
  5
220
330
63
100
AcDbEntity
  8
0
  6
Continuous
 62
     7
100
AcDbLine
 10
-1199.365216926051
 20
-1007.349999869049
 30
0.0
 11
-1196.595216926088
 21
-1007.34999986417
 31
0.0
  0
LINE
  5
221
330
63
100
AcDbEntity
  8
0
  6
Continuous
 62
     7
100
AcDbLine
 10
-1204.745216927695
 20
-1007.349999864176
 30
0.0
 11
-1201.965216926051
 21
-1007.349999869051
 31
0.0
  0
LINE
  5
222
330
63
100
AcDbEntity
  8
0
  6
Continuous
 62
     2
100
AcDbLine
 10
-1196.595216926104
 20
-994.4493723832509
 30
0.0
 11
-1204.745216927721
 21
-994.44937238325
 31
0.0
  0
LINE
  5
223
330
63
100
AcDbEntity
  8
0
  6
Continuous
 62
     2
100
AcDbLine
 10
-1196.595216925999
 20
-997.8886371123846
 30
0.0
 11
-1204.745216927703
 21
-997.8886371123838
 31
0.0
  0
LINE
  5
224
330
63
100
AcDbEntity
  8
0
  6
Continuous
 62
     2
100
AcDbLine
 10
-1196.595216926095
 20
-998.844385282672
 30
0.0
 11
-1204.74521692771
 21
-998.8443852826712
 31
0.0
  0
LINE
  5
225
330
63
100
AcDbEntity
  8
0
  6
Continuous
 62
     2
100
AcDbLine
 10
-1196.59521692656
 20
-993.8576169732398
 30
0.0
 11
-1204.74521692823
 21
-993.8576169732085
 31
0.0
  0
LINE
  5
226
330
63
100
AcDbEntity
  8
0
  6
Continuous
 62
     7
100
AcDbLine
 10
-1196.595216926131
 20
-960.4980611586947
 30
0.0
 11
-1196.59521692613
 21
-960.6420952037935
 31
0.0
  0
LINE
  5
227
330
63
100
AcDbEntity
  8
0
  6
Continuous
 62
     7
100
AcDbLine
 10
-1196.595216925999
 20
-997.8886371123846
 30
0.0
 11
-1196.595216926095
 21
-998.844385282672
 31
0.0
  0
LINE
  5
228
330
63
100
AcDbEntity
  8
0
  6
Continuous
 62
     7
100
AcDbLine
 10
-1196.595216926131
 20
-960.4980611586947
 30
0.0
 11
-1196.595216926131
 21
-960.2902225118489
 31
0.0
  0
LINE
  5
229
330
63
100
AcDbEntity
  8
0
  6
Continuous
 62
     7
100
AcDbLine
 10
-1196.595216926595
 20
-963.3378754800569
 30
0.0
 11
-1196.595216926136
 21
-962.8499998687274
 31
0.0
  0
LINE
  5
22A
330
63
100
AcDbEntity
  8
0
  6
Continuous
 62
     7
100
AcDbLine
 10
-1196.595216926138
 20
-948.784482742937
 30
0.0
 11
-1196.595216926139
 21
-948.1650052683725
 31
0.0
  0
LINE
  5
22B
330
63
100
AcDbEntity
  8
0
  6
Continuous
 62
     7
100
AcDbLine
 10
-1196.59521692613
 20
-960.6420952037935
 30
0.0
 11
-1196.595216926128
 21
-962.0999998688026
 31
0.0
  0
LINE
  5
22C
330
63
100
AcDbEntity
  8
0
  6
Continuous
 62
     7
100
AcDbLine
 10
-1196.595216926136
 20
-962.8499998687274
 30
0.0
 11
-1196.595216926128
 21
-962.0999998688026
 31
0.0
  0
LINE
  5
22D
330
63
100
AcDbEntity
  8
0
  6
Continuous
 62
     7
100
AcDbLine
 10
-1196.595216926138
 20
-948.784482742937
 30
0.0
 11
-1196.595216926131
 21
-960.2902225118489
 31
0.0
  0
LINE
  5
22E
330
63
100
AcDbEntity
  8
0
  6
Continuous
 62
     7
100
AcDbLine
 10
-1204.74521692771
 20
-998.8443852826712
 30
0.0
 11
-1204.745216927695
 21
-1007.349999864176
 31
0.0
  0
LINE
  5
22F
330
63
100
AcDbEntity
  8
0
  6
Continuous
 62
     7
100
AcDbLine
 10
-1204.745216927703
 20
-997.8886371123838
 30
0.0
 11
-1204.74521692771
 21
-998.8443852826712
 31
0.0
  0
LINE
  5
230
330
63
100
AcDbEntity
  8
0
  6
Continuous
 62
     7
100
AcDbLine
 10
-1204.745216927721
 20
-994.44937238325
 30
0.0
 11
-1204.74521692823
 21
-993.8576169732085
 31
0.0
  0
LINE
  5
231
330
63
100
AcDbEntity
  8
0
  6
Continuous
 62
     7
100
AcDbLine
 10
-1204.745216927749
 20
-964.6499998690643
 30
0.0
 11
-1204.74521692823
 21
-993.8576169732085
 31
0.0
  0
LINE
  5
232
330
63
100
AcDbEntity
  8
0
  6
Continuous
 62
     7
100
AcDbLine
 10
-1204.745216927703
 20
-997.8886371123838
 30
0.0
 11
-1204.745216927721
 21
-994.44937238325
 31
0.0
  0
LINE
  5
233
330
63
100
AcDbEntity
  8
0
  6
Continuous
 62
     2
100
AcDbLine
 10
-1196.595216926138
 20
-948.784482742937
 30
0.0
 11
-1204.7452169278
 21
-948.7844827429515
 31
0.0
  0
LINE
  5
234
330
63
100
AcDbEntity
  8
0
  6
Continuous
 62
     7
100
AcDbLine
 10
-1196.595216926139
 20
-948.1650052683725
 30
0.0
 11
-1196.595216926195
 21
-943.1499998691356
 31
0.0
  0
LINE
  5
235
330
63
100
AcDbEntity
  8
0
  6
Continuous
 62
     2
100
AcDbLine
 10
-1196.595216926139
 20
-948.1650052683725
 30
0.0
 11
-1204.745216927801
 21
-948.165005268387
 31
0.0
  0
LINE
  5
236
330
63
100
AcDbEntity
  8
0
  6
Continuous
 62
     7
100
AcDbLine
 10
-1196.595216926195
 20
-943.1499998691356
 30
0.0
 11
-1204.745216927798
 21
-943.1499998691501
 31
0.0
  0
LINE
  5
237
330
63
100
AcDbEntity
  8
0
  6
Continuous
 62
     2
100
AcDbLine
 10
-1204.745216928266
 20
-964.1431734933011
 30
0.0
 11
-1212.895216930211
 21
-964.1431734933002
 31
0.0
  0
LINE
  5
238
330
63
100
AcDbEntity
  8
0
  6
Continuous
 62
     7
100
AcDbLine
 10
-1212.895216927746
 20
-964.1499998690506
 30
0.0
 11
-1212.895216930211
 21
-964.1431734933002
 31
0.0
  0
LINE
  5
239
330
63
100
AcDbEntity
  8
0
  6
Continuous
 62
     7
100
AcDbLine
 10
-1212.895216930211
 20
-964.1431734933002
 30
0.0
 11
-1212.895216930209
 21
-963.3378754800553
 31
0.0
  0
LINE
  5
23A
330
63
100
AcDbEntity
  8
0
  6
Continuous
 62
     7
100
AcDbLine
 10
-1196.595216926136
 20
-962.8499998687274
 30
0.0
 11
-1204.745216927776
 21
-962.8499998687926
 31
0.0
  0
LINE
  5
23B
330
63
100
AcDbEntity
  8
0
  6
Continuous
 62
     7
100
AcDbLine
 10
-1204.745216928266
 20
-964.1431734933011
 30
0.0
 11
-1204.745216927749
 21
-964.6499998690643
 31
0.0
  0
LINE
  5
23C
330
63
100
AcDbEntity
  8
0
  6
Continuous
 62
     7
100
AcDbLine
 10
-1212.895216927747
 20
-964.649999869052
 30
0.0
 11
-1212.895216927746
 21
-964.1499998690506
 31
0.0
  0
LINE
  5
23D
330
63
100
AcDbEntity
  8
0
  6
Continuous
 62
     7
100
AcDbLine
 10
-1212.895216930209
 20
-963.3378754800553
 30
0.0
 11
-1212.895216930201
 21
-962.8499998687257
 31
0.0
  0
LINE
  5
23E
330
63
100
AcDbEntity
  8
0
  6
Continuous
 62
     7
100
AcDbLine
 10
-1204.745216927776
 20
-962.8499998687926
 30
0.0
 11
-1212.895216930201
 21
-962.8499998687257
 31
0.0
  0
LINE
  5
23F
330
63
100
AcDbEntity
  8
0
  6
Continuous
 62
     7
100
AcDbLine
 10
-1212.895216927747
 20
-964.649999869052
 30
0.0
 11
-1204.745216927749
 21
-964.6499998690643
 31
0.0
  0
LINE
  5
240
330
63
100
AcDbEntity
  8
0
  6
Continuous
 62
     7
100
AcDbLine
 10
-1196.595216926595
 20
-963.3378754800569
 30
0.0
 11
-1196.59521692656
 21
-993.8576169732398
 31
0.0
  0
ENDBLK
  5
65
330
63
100
AcDbEntity
  8
0
100
AcDbBlockEnd
  0
BLOCK
  5
68
330
66
100
AcDbEntity
  8
0
100
AcDbBlockBegin
  2
SA_Rechts1
 70
     0
 10
-1204.745216567233
 20
-976.0000000002268
 30
0.0
  3
SA_Rechts1
  1

  0
INSERT
  5
67
330
66
100
AcDbEntity
  8
0
100
AcDbBlockReference
  2
3069055_E_UTWE_6-select__5
 10
-1212.895216930211
 20
-1008.849999853279
 30
0.0
  0
MTEXT
  5
241
330
66
100
AcDbEntity
  8
1
 62
     6
100
AcDbMText
 10
-1204.745216567233
 20
-1013.849999428174
 30
0.0
 40
5.0
 41
0.0
 71
     2
 72
     1
  1
 
  7
CONVERTER_11
 73
     1
 44
1.32052821128451
  0
ENDBLK
  5
69
330
66
100
AcDbEntity
  8
0
100
AcDbBlockEnd
  0
BLOCK
  5
6B
330
6A
100
AcDbEntity
  8
0
100
AcDbBlockBegin
  2
3069055_E_UTWE_6-select__6
 70
     0
 10
-1167.59533122506
 20
-1008.849999903462
 30
0.0
  3
3069055_E_UTWE_6-select__6
  1

  0
LINE
  5
242
330
6A
100
AcDbEntity
  8
0
  6
Continuous
 62
     7
100
AcDbLine
 10
-1144.737213075822
 20
-1008.84999990046
 30
0.0
 11
-1147.113476975336
 21
-1008.849999903462
 31
0.0
  0
LINE
  5
243
330
6A
100
AcDbEntity
  8
0
  6
Continuous
 62
     7
100
AcDbLine
 10
-1143.223784357396
 20
-1006.615693061175
 30
0.0
 11
-1143.797520455863
 21
-1008.192020042605
 31
0.0
  0
LINE
  5
244
330
6A
100
AcDbEntity
  8
0
  6
Continuous
 62
     7
100
AcDbLine
 10
-1109.589740874892
 20
-1008.849999856268
 30
0.0
 11
-1107.21347697534
 21
-1008.849999853279
 31
0.0
  0
LINE
  5
245
330
6A
100
AcDbEntity
  8
0
  6
Continuous
 62
     7
100
AcDbLine
 10
-1149.624888222749
 20
-1007.349999869054
 30
0.0
 11
-1149.671748286393
 21
-1007.416922976982
 31
0.0
  0
LINE
  5
246
330
6A
100
AcDbEntity
  8
0
  6
Continuous
 62
     7
100
AcDbLine
 10
-1111.103169598937
 20
-1006.615693020788
 30
0.0
 11
-1110.529433496506
 21
-1008.192020000775
 31
0.0
  0
LINE
  5
247
330
6A
100
AcDbEntity
  8
0
  6
Continuous
 62
     7
100
AcDbLine
 10
-1104.655205679696
 20
-1007.416922939642
 30
0.0
 11
-1104.702065710185
 21
-1007.34999988049
 31
0.0
  0
LINE
  5
248
330
6A
100
AcDbEntity
  8
0
  6
Continuous
 62
     7
100
AcDbLine
 10
-1102.863476977874
 20
-1007.349999864176
 30
0.0
 11
-1104.702065710185
 21
-1007.34999988049
 31
0.0
  0
LINE
  5
249
330
6A
100
AcDbEntity
  8
0
  6
Continuous
 62
     7
100
AcDbLine
 10
-1136.363476985757
 20
-1000.549999905925
 30
0.0
 11
-1144.863477063339
 21
-1000.549999867208
 31
0.0
  0
LINE
  5
24A
330
6A
100
AcDbEntity
  8
0
  6
Continuous
 62
     7
100
AcDbLine
 10
-1146.663476982543
 20
-1003.120666218877
 30
0.0
 11
-1146.663476981984
 21
-1003.565151899354
 31
0.0
  0
LINE
  5
24B
330
6A
100
AcDbEntity
  8
0
  6
Continuous
 62
     7
100
AcDbLine
 10
-1146.26389213447
 20
-1002.549999902387
 30
0.0
 11
-1146.663476982543
 21
-1003.120666218877
 31
0.0
  0
LINE
  5
24C
330
6A
100
AcDbEntity
  8
0
  6
Continuous
 62
     7
100
AcDbLine
 10
-1107.663476982544
 20
-1003.120666273013
 30
0.0
 11
-1108.063061910531
 21
-1002.549999854355
 31
0.0
  0
LINE
  5
24D
330
6A
100
AcDbEntity
  8
0
  6
Continuous
 62
     7
100
AcDbLine
 10
-1109.171866808204
 20
-1004.997075298017
 30
0.0
 11
-1109.460549453942
 21
-1005.53826074341
 31
0.0
  0
LINE
  5
24E
330
6A
100
AcDbEntity
  8
0
  6
Continuous
 62
     7
100
AcDbLine
 10
-1107.663476982544
 20
-1003.120666273013
 30
0.0
 11
-1107.663476981985
 21
-1003.565151850302
 31
0.0
  0
LINE
  5
24F
330
6A
100
AcDbEntity
  8
0
  6
Continuous
 62
     7
100
AcDbLine
 10
-1111.163476979365
 20
-1005.649999858247
 30
0.0
 11
-1111.163476978581
 21
-1006.273672877538
 31
0.0
  0
LINE
  5
250
330
6A
100
AcDbEntity
  8
0
  6
Continuous
 62
     7
100
AcDbLine
 10
-1110.047989772776
 20
-1005.67404267765
 30
0.0
 11
-1110.528964186345
 21
-1005.325957036639
 31
0.0
  0
LINE
  5
251
330
6A
100
AcDbEntity
  8
0
  6
Continuous
 62
     7
100
AcDbLine
 10
-1117.963476985849
 20
-1000.549999868909
 30
0.0
 11
-1109.463476976233
 21
-1000.549999868871
 31
0.0
  0
LINE
  5
252
330
6A
100
AcDbEntity
  8
0
  6
Continuous
 62
     7
100
AcDbLine
 10
-1117.963476983964
 20
-1002.049999866801
 30
0.0
 11
-1117.963476985849
 21
-1000.549999868909
 31
0.0
  0
LINE
  5
253
330
6A
100
AcDbEntity
  8
0
  6
Continuous
 62
     7
100
AcDbLine
 10
-1136.363476985757
 20
-1000.549999905925
 30
0.0
 11
-1136.363476983869
 21
-1002.049999889943
 31
0.0
  0
LINE
  5
254
330
6A
100
AcDbEntity
  8
0
  6
Continuous
 62
     7
100
AcDbLine
 10
-1131.663476983234
 20
-1002.549999884029
 30
0.0
 11
-1131.663476983863
 21
-1002.049999884029
 31
0.0
  0
LINE
  5
255
330
6A
100
AcDbEntity
  8
0
  6
Continuous
 62
     7
100
AcDbLine
 10
-1144.278964185927
 20
-1005.674042720707
 30
0.0
 11
-1143.797989773237
 21
-1005.325957078482
 31
0.0
  0
LINE
  5
256
330
6A
100
AcDbEntity
  8
0
  6
Continuous
 62
     7
100
AcDbLine
 10
-1149.624888222749
 20
-1007.349999869054
 30
0.0
 11
-1151.463476977874
 21
-1007.349999869062
 31
0.0
  0
LINE
  5
257
330
6A
100
AcDbEntity
  8
0
  6
Continuous
 62
     7
100
AcDbLine
 10
-1143.163476979396
 20
-1005.649999898482
 30
0.0
 11
-1143.163476978612
 21
-1006.273672917774
 31
0.0
  0
LINE
  5
258
330
6A
100
AcDbEntity
  8
0
  6
Continuous
 62
     7
100
AcDbLine
 10
-1144.866404505105
 20
-1005.538260787942
 30
0.0
 11
-1145.142668338908
 21
-1005.020356552115
 31
0.0
  0
LINE
  5
259
330
6A
100
AcDbEntity
  8
0
  6
Continuous
 62
     7
100
AcDbLine
 10
-1151.463476977874
 20
-1007.349999869062
 30
0.0
 11
-1151.463476977912
 21
-998.8443857360442
 31
0.0
  0
LINE
  5
25A
330
6A
100
AcDbEntity
  8
0
  6
Continuous
 62
     7
100
AcDbLine
 10
-1146.26389213447
 20
-1002.549999902387
 30
0.0
 11
-1136.363476983235
 21
-1002.549999889938
 31
0.0
  0
LINE
  5
25B
330
6A
100
AcDbEntity
  8
0
  6
Continuous
 62
     7
100
AcDbLine
 10
-1131.663476983234
 20
-1002.549999884029
 30
0.0
 11
-1136.363476983235
 21
-1002.549999889938
 31
0.0
  0
LINE
  5
25C
330
6A
100
AcDbEntity
  8
0
  6
Continuous
 62
     7
100
AcDbLine
 10
-1136.363476983235
 20
-1002.549999889938
 30
0.0
 11
-1136.363476983869
 21
-1002.049999889943
 31
0.0
  0
LINE
  5
25D
330
6A
100
AcDbEntity
  8
0
  6
Continuous
 62
     7
100
AcDbLine
 10
-1131.663476983234
 20
-1002.549999884029
 30
0.0
 11
-1128.863476983278
 21
-1002.549999880508
 31
0.0
  0
LINE
  5
25E
330
6A
100
AcDbEntity
  8
0
  6
Continuous
 62
     7
100
AcDbLine
 10
-1128.863476983278
 20
-1002.549999880508
 30
0.0
 11
-1128.592776346337
 21
-1002.549999880168
 31
0.0
  0
LINE
  5
25F
330
6A
100
AcDbEntity
  8
0
  6
Continuous
 62
     7
100
AcDbLine
 10
-1128.863476983278
 20
-1002.549999880508
 30
0.0
 11
-1128.863476983907
 21
-1002.049999880508
 31
0.0
  0
LINE
  5
260
330
6A
100
AcDbEntity
  8
0
  6
Continuous
 62
     7
100
AcDbLine
 10
-1128.592776346337
 20
-1002.549999880168
 30
0.0
 11
-1125.734177620222
 21
-1002.549999876574
 31
0.0
  0
LINE
  5
261
330
6A
100
AcDbEntity
  8
0
  6
Continuous
 62
     2
100
AcDbLine
 10
-1128.592776346337
 20
-1002.549999880168
 30
0.0
 11
-1128.592776346966
 21
-1002.049999880168
 31
0.0
  0
LINE
  5
262
330
6A
100
AcDbEntity
  8
0
  6
Continuous
 62
     7
100
AcDbLine
 10
-1125.734177620222
 20
-1002.549999876574
 30
0.0
 11
-1125.463476983279
 21
-1002.549999876233
 31
0.0
  0
LINE
  5
263
330
6A
100
AcDbEntity
  8
0
  6
Continuous
 62
     2
100
AcDbLine
 10
-1125.734177620222
 20
-1002.549999876574
 30
0.0
 11
-1125.734177620851
 21
-1002.049999876573
 31
0.0
  0
LINE
  5
264
330
6A
100
AcDbEntity
  8
0
  6
Continuous
 62
     7
100
AcDbLine
 10
-1125.463476983279
 20
-1002.549999876233
 30
0.0
 11
-1125.463476983907
 21
-1002.049999876231
 31
0.0
  0
LINE
  5
265
330
6A
100
AcDbEntity
  8
0
  6
Continuous
 62
     7
100
AcDbLine
 10
-1128.592776346966
 20
-1002.049999880168
 30
0.0
 11
-1125.734177620851
 21
-1002.049999876573
 31
0.0
  0
LINE
  5
266
330
6A
100
AcDbEntity
  8
0
  6
Continuous
 62
     7
100
AcDbLine
 10
-1128.863476983907
 20
-1002.049999880508
 30
0.0
 11
-1128.592776346966
 21
-1002.049999880168
 31
0.0
  0
LINE
  5
267
330
6A
100
AcDbEntity
  8
0
  6
Continuous
 62
     7
100
AcDbLine
 10
-1125.463476983907
 20
-1002.049999876231
 30
0.0
 11
-1117.963476983964
 21
-1002.049999866801
 31
0.0
  0
LINE
  5
268
330
6A
100
AcDbEntity
  8
0
  6
Continuous
 62
     7
100
AcDbLine
 10
-1125.734177620851
 20
-1002.049999876573
 30
0.0
 11
-1125.463476983907
 21
-1002.049999876231
 31
0.0
  0
LINE
  5
269
330
6A
100
AcDbEntity
  8
0
  6
Continuous
 62
     7
100
AcDbLine
 10
-1131.663476983863
 20
-1002.049999884029
 30
0.0
 11
-1128.863476983907
 21
-1002.049999880508
 31
0.0
  0
LINE
  5
26A
330
6A
100
AcDbEntity
  8
0
  6
Continuous
 62
     7
100
AcDbLine
 10
-1108.063061910531
 20
-1002.549999854355
 30
0.0
 11
-1125.463476983279
 21
-1002.549999876233
 31
0.0
  0
LINE
  5
26B
330
6A
100
AcDbEntity
  8
0
  6
Continuous
 62
     7
100
AcDbLine
 10
-1136.363476983869
 20
-1002.049999889943
 30
0.0
 11
-1131.663476983863
 21
-1002.049999884029
 31
0.0
  0
LINE
  5
26C
330
6A
100
AcDbEntity
  8
0
  6
Continuous
 62
     7
100
AcDbLine
 10
-1102.863476977912
 20
-998.8443852826713
 30
0.0
 11
-1102.863476977874
 21
-1007.349999864176
 31
0.0
  0
LINE
  5
26D
330
6A
100
AcDbEntity
  8
0
  6
Continuous
 62
     7
100
AcDbLine
 10
-1146.663476982543
 20
-1003.120666218877
 30
0.0
 11
-1149.624888222749
 21
-1007.349999869054
 31
0.0
  0
LINE
  5
26E
330
6A
100
AcDbEntity
  8
0
  6
Continuous
 62
     7
100
AcDbLine
 10
-1108.063061910531
 20
-1002.549999854355
 30
0.0
 11
-1109.463476976233
 21
-1000.549999868871
 31
0.0
  0
LINE
  5
26F
330
6A
100
AcDbEntity
  8
0
  6
Continuous
 62
     7
100
AcDbLine
 10
-1144.863477063339
 20
-1000.549999867208
 30
0.0
 11
-1146.26389213447
 21
-1002.549999902387
 31
0.0
  0
LINE
  5
270
330
6A
100
AcDbEntity
  8
0
  6
Continuous
 62
     7
100
AcDbLine
 10
-1104.702065710185
 20
-1007.34999988049
 30
0.0
 11
-1107.663476982544
 21
-1003.120666273013
 31
0.0
  0
LINE
  5
271
330
6A
100
AcDbEntity
  8
0
  6
Continuous
 62
     7
100
AcDbLine
 10
-1097.442517090822
 20
-960.6420952037934
 30
0.0
 11
-1096.985094397845
 21
-960.4980611586741
 31
0.0
  0
LINE
  5
272
330
6A
100
AcDbEntity
  8
0
  6
Continuous
 62
     7
100
AcDbLine
 10
-1156.88443686536
 20
-960.6420952040535
 30
0.0
 11
-1157.341859558337
 21
-960.4980611589489
 31
0.0
  0
LINE
  5
273
330
6A
100
AcDbEntity
  8
0
  6
Continuous
 62
     7
100
AcDbLine
 10
-1098.284238741629
 20
-962.0999998688023
 30
0.0
 11
-1097.442517090822
 21
-960.6420952037934
 31
0.0
  0
LINE
  5
274
330
6A
100
AcDbEntity
  8
0
  6
Continuous
 62
     7
100
AcDbLine
 10
-1096.663476244029
 20
-964.1499998687731
 30
0.0
 11
-1096.663476244034
 21
-963.349999868773
 31
0.0
  0
LINE
  5
275
330
6A
100
AcDbEntity
  8
0
  6
Continuous
 62
     7
100
AcDbLine
 10
-1087.238659568696
 20
-964.6499998687143
 30
0.0
 11
-1096.163476244026
 21
-964.6499998687699
 31
0.0
  0
LINE
  5
276
330
6A
100
AcDbEntity
  8
0
  6
Continuous
 62
     7
100
AcDbLine
 10
-1087.253823116005
 20
-962.8499998687145
 30
0.0
 11
-1096.163476244005
 21
-962.8499998687823
 31
0.0
  0
LINE
  5
277
330
6A
100
AcDbEntity
  8
0
  6
Continuous
 62
     7
100
AcDbLine
 10
-1097.851226039723
 20
-962.8499998687928
 30
0.0
 11
-1096.163476244005
 21
-962.8499998687823
 31
0.0
  0
LINE
  5
278
330
6A
100
AcDbEntity
  8
0
  6
Continuous
 62
     7
100
AcDbLine
 10
-1158.163477712747
 20
-962.8499998690645
 30
0.0
 11
-1156.475727916432
 21
-962.8499998690597
 31
0.0
  0
LINE
  5
279
330
6A
100
AcDbEntity
  8
0
  6
Continuous
 62
     7
100
AcDbLine
 10
-1167.073130840196
 20
-962.8499998690893
 30
0.0
 11
-1158.163477712747
 21
-962.8499998690645
 31
0.0
  0
LINE
  5
27A
330
6A
100
AcDbEntity
  8
0
  6
Continuous
 62
     7
100
AcDbLine
 10
-1157.663477712892
 20
-964.1499998690507
 30
0.0
 11
-1157.663477712894
 21
-963.3499998690507
 31
0.0
  0
LINE
  5
27B
330
6A
100
AcDbEntity
  8
0
  6
Continuous
 62
     7
100
AcDbLine
 10
-1167.088294387489
 20
-964.6499998690892
 30
0.0
 11
-1158.16347771289
 21
-964.6499998690522
 31
0.0
  0
LINE
  5
27C
330
6A
100
AcDbEntity
  8
0
  6
Continuous
 62
     7
100
AcDbLine
 10
-1156.042715214539
 20
-962.0999998690627
 30
0.0
 11
-1156.88443686536
 21
-960.6420952040535
 31
0.0
  0
ARC
  5
27D
330
6A
100
AcDbEntity
  8
0
  6
Continuous
 62
     7
100
AcDbCircle
 10
-1144.737213077079
 20
-1007.84999990046
 30
0.0
 40
1.0
100
AcDbArc
 50
270.0000000720294
 51
340.0000000720008
  0
ARC
  5
27E
330
6A
100
AcDbEntity
  8
0
  6
Continuous
 62
     7
100
AcDbCircle
 10
-1107.213476979113
 20
-1005.849999853279
 30
0.0
 40
3.0
100
AcDbArc
 50
270.0000000720597
 51
328.5128251678478
  0
ARC
  5
27F
330
6A
100
AcDbEntity
  8
0
  6
Continuous
 62
     7
100
AcDbCircle
 10
-1109.58974087615
 20
-1007.849999856268
 30
0.0
 40
1.00000000000006
100
AcDbArc
 50
200.0000000720238
 51
270.0000000720814
  0
ARC
  5
280
330
6A
100
AcDbEntity
  8
0
  6
Continuous
 62
     7
100
AcDbCircle
 10
-1108.163476981985
 20
-1003.565151850931
 30
0.0
 40
0.5000000000001457
100
AcDbArc
 50
287.4576031957799
 51
0.00000007208145
  0
ARC
  5
281
330
6A
100
AcDbEntity
  8
0
  6
Continuous
 62
     7
100
AcDbCircle
 10
-1109.813476979755
 20
-1005.349999856548
 30
0.0
 40
0.3999999999977908
100
AcDbArc
 50
234.1063920788491
 51
331.923358307674
  0
ARC
  5
282
330
6A
100
AcDbEntity
  8
0
  6
Continuous
 62
     7
100
AcDbCircle
 10
-1107.413476978986
 20
-1005.94999985353
 30
0.0
 40
1.999999999999687
100
AcDbArc
 50
107.4576031957743
 51
151.5453984446233
  0
ARC
  5
283
330
6A
100
AcDbEntity
  8
0
  6
Continuous
 62
     7
100
AcDbCircle
 10
-1110.163476978581
 20
-1006.273672876281
 30
0.0
 40
1.0
100
AcDbArc
 50
180.0000000720228
 51
200.0000000720238
  0
ARC
  5
284
330
6A
100
AcDbEntity
  8
0
  6
Continuous
 62
     7
100
AcDbCircle
 10
-1110.763476979365
 20
-1005.649999857744
 30
0.0
 40
0.3999999999995188
100
AcDbArc
 50
54.10639207922924
 51
180.0000000720586
  0
ARC
  5
285
330
6A
100
AcDbEntity
  8
0
  6
Continuous
 62
     7
100
AcDbCircle
 10
-1144.513476979763
 20
-1005.349999900192
 30
0.0
 40
0.4000000000005964
100
AcDbArc
 50
208.0766418363303
 51
305.8936080650311
  0
ARC
  5
286
330
6A
100
AcDbEntity
  8
0
  6
Continuous
 62
     7
100
AcDbCircle
 10
-1144.163476978612
 20
-1006.273672919031
 30
0.0
 40
0.9999999999999397
100
AcDbArc
 50
340.0000000720514
 51
0.00000007202282
  0
ARC
  5
287
330
6A
100
AcDbEntity
  8
0
  6
Continuous
 62
     7
100
AcDbCircle
 10
-1143.563476979392
 20
-1005.649999898987
 30
0.0
 40
0.3999999999959982
100
AcDbArc
 50
0.00000007233548
 51
125.8936080669362
  0
ARC
  5
288
330
6A
100
AcDbEntity
  8
0
  6
Continuous
 62
     7
100
AcDbCircle
 10
-1146.913476978983
 20
-1005.949999903211
 30
0.0
 40
2.000000000000405
100
AcDbArc
 50
27.69868180878002
 51
72.54239694838147
  0
ARC
  5
289
330
6A
100
AcDbEntity
  8
0
  6
Continuous
 62
     7
100
AcDbCircle
 10
-1146.163476981984
 20
-1003.565151898725
 30
0.0
 40
0.5
100
AcDbArc
 50
180.0000000720684
 51
252.5423969483645
  0
ARC
  5
28A
330
6A
100
AcDbEntity
  8
0
  6
Continuous
 62
     7
100
AcDbCircle
 10
-1147.113476979109
 20
-1005.849999903462
 30
0.0
 40
3.000000000000352
100
AcDbArc
 50
211.4871745445083
 51
270.0000000720597
  0
ARC
  5
28B
330
6A
100
AcDbEntity
  8
0
  6
Continuous
 62
     7
100
AcDbCircle
 10
-1093.368216848979
 20
-993.4425575277279
 30
0.0
 40
1.09999999999984
100
AcDbArc
 50
293.7535914226114
 51
337.8318054595607
  0
ARC
  5
28C
330
6A
100
AcDbEntity
  8
0
  6
Continuous
 62
     7
100
AcDbCircle
 10
-1162.731622731692
 20
-965.1807825579587
 30
0.0
 40
76.00000000061269
100
AcDbArc
 50
337.8318054595832
 51
0.78226930595685
  0
ARC
  5
28D
330
6A
100
AcDbEntity
  8
0
  6
Continuous
 62
     7
100
AcDbCircle
 10
-1097.04516318544
 20
-960.3072949647171
 30
0.0
 40
0.1999999999999334
100
AcDbArc
 50
287.4782620002557
 51
4.89685680717829
  0
ARC
  5
28E
330
6A
100
AcDbEntity
  8
0
  6
Continuous
 62
     7
100
AcDbCircle
 10
-1146.663392218527
 20
-964.558335733771
 30
0.0
 40
50.00000000000041
100
AcDbArc
 50
4.89685680718418
 51
18.38961585426262
  0
ARC
  5
28F
330
6A
100
AcDbEntity
  8
0
  6
Continuous
 62
     7
100
AcDbCircle
 10
-1157.281790770743
 20
-960.3072949649913
 30
0.0
 40
0.2000000000000117
100
AcDbArc
 50
175.1031431933409
 51
252.5217380001039
  0
ARC
  5
290
330
6A
100
AcDbEntity
  8
0
  6
Continuous
 62
     7
100
AcDbCircle
 10
-1087.253823116008
 20
-963.3499998687201
 30
0.0
 40
0.5000000000061621
100
AcDbArc
 50
1.38948879264484
 51
89.99999999963524
  0
ARC
  5
291
330
6A
100
AcDbEntity
  8
0
  6
Continuous
 62
     7
100
AcDbCircle
 10
-1162.731622731563
 20
-965.1807825648988
 30
0.0
 40
76.00000000057817
100
AcDbArc
 50
0.78226931118979
 51
1.38948879854157
  0
ARC
  5
292
330
6A
100
AcDbEntity
  8
0
  6
Continuous
 62
     7
100
AcDbCircle
 10
-1096.163476244029
 20
-964.1499998687699
 30
0.0
 40
0.5
100
AcDbArc
 50
180.0000000003648
 51
270.0000000003387
  0
ARC
  5
293
330
6A
100
AcDbEntity
  8
0
  6
Continuous
 62
     7
100
AcDbCircle
 10
-1097.851226039731
 20
-962.3499998687928
 30
0.0
 40
0.500000000000189
100
AcDbArc
 50
150.0000000012761
 51
270.0000000009119
  0
ARC
  5
294
330
6A
100
AcDbEntity
  8
0
  6
Continuous
 62
     7
100
AcDbCircle
 10
-1096.16347624404
 20
-963.3499998687761
 30
0.0
 40
0.4999999999937472
100
AcDbArc
 50
89.99999999598751
 51
179.9999999996483
  0
ARC
  5
295
330
6A
100
AcDbEntity
  8
0
  6
Continuous
 62
     7
100
AcDbCircle
 10
-1087.238659568657
 20
-964.1499998686834
 30
0.0
 40
0.5000000000309228
100
AcDbArc
 50
269.9999999955446
 51
0.78226930096253
  0
ARC
  5
296
330
6A
100
AcDbEntity
  8
0
  6
Continuous
 62
     7
100
AcDbCircle
 10
-1167.088294387506
 20
-964.1499998690736
 30
0.0
 40
0.5000000000159044
100
AcDbArc
 50
179.2177306964869
 51
270.0000000019541
  0
ARC
  5
297
330
6A
100
AcDbEntity
  8
0
  6
Continuous
 62
     7
100
AcDbCircle
 10
-1091.595331224573
 20
-965.1807825606196
 30
0.0
 40
76.00000000052714
100
AcDbArc
 50
178.610511204962
 51
179.2177306923136
  0
ARC
  5
298
330
6A
100
AcDbEntity
  8
0
  6
Continuous
 62
     7
100
AcDbCircle
 10
-1167.073130840195
 20
-963.3499998690893
 30
0.0
 40
0.5
100
AcDbArc
 50
90.00000000010422
 51
178.6105112072079
  0
ARC
  5
299
330
6A
100
AcDbEntity
  8
0
  6
Continuous
 62
     7
100
AcDbCircle
 10
-1158.163477712888
 20
-963.3499998690584
 30
0.0
 40
0.4999999999938609
100
AcDbArc
 50
0.00000000087285
 51
89.99999998384583
  0
ARC
  5
29A
330
6A
100
AcDbEntity
  8
0
  6
Continuous
 62
     7
100
AcDbCircle
 10
-1158.163477712892
 20
-964.1499998690522
 30
0.0
 40
0.5
100
AcDbArc
 50
270.0000000002345
 51
0.00000000016936
  0
ARC
  5
29B
330
6A
100
AcDbEntity
  8
0
  6
Continuous
 62
     7
100
AcDbCircle
 10
-1154.16128892236
 20
-949.0999604420813
 30
0.0
 40
1.000000000000042
100
AcDbArc
 50
110.7792004450124
 51
161.6103849333653
  0
ARC
  5
29C
330
6A
100
AcDbEntity
  8
0
  6
Continuous
 62
     7
100
AcDbCircle
 10
-1107.663561737618
 20
-964.5583357335935
 30
0.0
 40
49.99999999999955
100
AcDbArc
 50
161.6103849337276
 51
175.1031431933373
  0
ARC
  5
29D
330
6A
100
AcDbEntity
  8
0
  6
Continuous
 62
     7
100
AcDbCircle
 10
-1156.475727916433
 20
-962.3499998690597
 30
0.0
 40
0.5
100
AcDbArc
 50
270.0000000001043
 51
29.99999999959973
  0
ARC
  5
29E
330
6A
100
AcDbEntity
  8
0
  6
Continuous
 62
     7
100
AcDbCircle
 10
-1091.595331224517
 20
-965.1807825576484
 30
0.0
 40
76.00000000054236
100
AcDbArc
 50
179.2177306945539
 51
202.1991191047591
  0
ARC
  5
29F
330
6A
100
AcDbEntity
  8
0
  6
Continuous
 62
     7
100
AcDbCircle
 10
-1100.165665246385
 20
-949.099959802768
 30
0.0
 40
0.9999999999999123
100
AcDbArc
 50
18.3896158542671
 51
69.22080091176937
  0
ARC
  5
2A0
330
6A
100
AcDbEntity
  8
0
  6
Continuous
 62
     7
100
AcDbCircle
 10
-1161.036060761677
 20
-993.5177739545546
 30
0.0
 40
1.000000000000509
100
AcDbArc
 50
202.1991191039404
 51
246.2188012527494
  0
ARC
  5
2A1
330
6A
100
AcDbEntity
  8
0
  6
Continuous
 62
     7
100
AcDbCircle
 10
-1101.863476977912
 20
-998.8443852826668
 30
0.0
 40
1.000000000000238
100
AcDbArc
 50
107.1087360973909
 51
180.000000000254
  0
ARC
  5
2A2
330
6A
100
AcDbEntity
  8
0
  6
Continuous
 62
     7
100
AcDbCircle
 10
-1127.163477714383
 20
-916.6500426384719
 30
0.0
 40
84.99999999986468
100
AcDbArc
 50
287.1087360973698
 51
293.753591422634
  0
ARC
  5
2A3
330
6A
100
AcDbEntity
  8
0
  6
Continuous
 62
     7
100
AcDbCircle
 10
-1127.163477714383
 20
-916.6500426384719
 30
0.0
 40
84.99999999986517
100
AcDbArc
 50
246.2188012554709
 51
252.8912649293835
  0
ARC
  5
2A4
330
6A
100
AcDbEntity
  8
0
  6
Continuous
 62
     7
100
AcDbCircle
 10
-1152.463476977912
 20
-998.8443857360488
 30
0.0
 40
1.0
100
AcDbArc
 50
0.00000000026706
 51
72.89126492940632
  0
ARC
  5
2A5
330
6A
100
AcDbEntity
  8
0
  6
Continuous
 62
     7
100
AcDbCircle
 10
-1127.16347624195
 20
-1020.249999869151
 30
0.0
 40
77.10000000000082
100
AcDbArc
 50
90.0
 51
110.779200445016
  0
ARC
  5
2A6
330
6A
100
AcDbEntity
  8
0
  6
Continuous
 62
     7
100
AcDbCircle
 10
-1127.16347624195
 20
-1020.249999869151
 30
0.0
 40
77.10000000000095
100
AcDbArc
 50
69.2208009117579
 51
90.0
  0
ENDBLK
  5
6C
330
6A
100
AcDbEntity
  8
0
100
AcDbBlockEnd
  0
BLOCK
  5
6F
330
6D
100
AcDbEntity
  8
0
100
AcDbBlockBegin
  2
Vordans1
 70
     0
 10
-1127.163477898039
 20
-976.000000000227
 30
0.0
  3
Vordans1
  1

  0
INSERT
  5
6E
330
6D
100
AcDbEntity
  8
0
100
AcDbBlockReference
  2
3069055_E_UTWE_6-select__6
 10
-1167.59533122506
 20
-1008.849999903462
 30
0.0
  0
MTEXT
  5
2A7
330
6D
100
AcDbEntity
  8
1
 62
     6
100
AcDbMText
 10
-1127.16347789804
 20
-1013.849999428174
 30
0.0
 40
5.0
 41
0.0
 71
     2
 72
     1
  1
 
  7
CONVERTER_11
 73
     1
 44
1.32052821128451
  0
DIMENSION
  5
2B2
330
6D
100
AcDbEntity
  8
1
100
AcDbDimension
  2
*D18
 10
-1073.71393005033
 20
-943.1499998691502
 30
0.0
 11
-1076.96393005033
 21
-972.788366673889
 31
0.0
 70
    32
  1
<>
 71
     5
 42
-1.0
 53
90.0
  3
ME10_DIM_12
100
AcDbAlignedDimension
 13
-1102.863476977874
 23
-1007.349999864176
 33
0.0
 14
-1127.16347624195
 24
-943.1499998691502
 34
0.0
 50
90.0
100
AcDbRotatedDimension
  0
DIMENSION
  5
2BD
330
6D
100
AcDbEntity
  8
1
100
AcDbDimension
  2
*D19
 10
-1086.738706169934
 20
-1022.381968300541
 30
0.0
 11
-1127.163477714429
 21
-1018.956968300725
 31
0.0
 70
    33
  1
<>
 71
     5
 42
-1.0
 53
0.00013888888889
  3
ME10_DIM_13
100
AcDbAlignedDimension
 13
-1167.588247785949
 23
-964.1431734936693
 33
0.0
 14
-1086.738706170199
 24
-964.1431734933012
 34
0.0
  0
ENDBLK
  5
70
330
6D
100
AcDbEntity
  8
0
100
AcDbBlockEnd
  0
BLOCK
  5
72
330
71
100
AcDbEntity
  8
0
100
AcDbBlockBegin
  2
_rahmen
 70
     0
 10
-881.7317389045443
 20
-1176.650000095578
 30
0.0
  3
_rahmen
  1

  0
LINE
  5
2BE
330
71
100
AcDbEntity
  8
1
  6
Continuous
 62
     6
100
AcDbLine
 10
-950.0650722378778
 20
-1171.650000095578
 30
0.0
 11
-881.7317389045444
 21
-1171.650000095578
 31
0.0
  0
LINE
  5
2BF
330
71
100
AcDbEntity
  8
1
  6
Continuous
 62
     6
100
AcDbLine
 10
-881.7317389045447
 20
-1163.150000095578
 30
0.0
 11
-881.7317389045443
 21
-1154.650000095578
 31
0.0
  0
LINE
  5
2C0
330
71
100
AcDbEntity
  8
1
  6
Continuous
 62
     6
100
AcDbLine
 10
-881.7317389045443
 20
-1154.650000095578
 30
0.0
 11
-881.7317389045453
 21
-1150.400000095578
 31
0.0
  0
LINE
  5
2C1
330
71
100
AcDbEntity
  8
1
  6
Continuous
 62
     6
100
AcDbLine
 10
-881.7317389045453
 20
-1150.400000095578
 30
0.0
 11
-881.7317389045444
 21
-1114.250000095577
 31
0.0
  0
LINE
  5
2C2
330
71
100
AcDbEntity
  8
1
  6
Continuous
 62
     2
100
AcDbLine
 10
-1086.731738904544
 20
-1176.650000095578
 30
0.0
 11
-1155.065072237877
 21
-1176.650000095578
 31
0.0
  0
LINE
  5
2C3
330
71
100
AcDbEntity
  8
1
  6
Continuous
 62
     2
100
AcDbLine
 10
-950.0650722378778
 20
-1176.650000095578
 30
0.0
 11
-881.7317389045443
 21
-1176.650000095578
 31
0.0
  0
LINE
  5
2C4
330
71
100
AcDbEntity
  8
1
  6
Continuous
 62
     2
100
AcDbLine
 10
-950.0650722378778
 20
-1176.650000095578
 30
0.0
 11
-950.0650722378778
 21
-1171.650000095578
 31
0.0
  0
LINE
  5
2C5
330
71
100
AcDbEntity
  8
1
  6
Continuous
 62
     2
100
AcDbLine
 10
-1018.398405571211
 20
-1176.650000095578
 30
0.0
 11
-1018.398405571211
 21
-1171.650000095581
 31
0.0
  0
LINE
  5
2C6
330
71
100
AcDbEntity
  8
1
  6
Continuous
 62
     2
100
AcDbLine
 10
-1086.731738904544
 20
-1176.650000095578
 30
0.0
 11
-1086.731738904544
 21
-1171.650000095578
 31
0.0
  0
LINE
  5
2C7
330
71
100
AcDbEntity
  8
1
  6
Continuous
 62
     2
100
AcDbLine
 10
-876.7317389045468
 20
-1114.250000095577
 30
0.0
 11
-876.7317389045468
 21
-1056.850000095577
 31
0.0
  0
LINE
  5
2C8
330
71
100
AcDbEntity
  8
1
  6
Continuous
 62
     2
100
AcDbLine
 10
-876.7317389045468
 20
-1114.250000095577
 30
0.0
 11
-881.7317389045444
 21
-1114.250000095577
 31
0.0
  0
LINE
  5
2C9
330
71
100
AcDbEntity
  8
1
  6
Continuous
 62
     2
100
AcDbLine
 10
-1276.731738904545
 20
-1176.650000095578
 30
0.0
 11
-1296.731738904545
 21
-1176.650000095578
 31
0.0
  0
LINE
  5
2CA
330
71
100
AcDbEntity
  8
1
  6
Continuous
 62
     2
100
AcDbLine
 10
-1223.398405571211
 20
-1176.650000095578
 30
0.0
 11
-1223.398405571211
 21
-1171.650000095578
 31
0.0
  0
LINE
  5
2CB
330
71
100
AcDbEntity
  8
1
  6
Continuous
 62
     2
100
AcDbLine
 10
-1223.398405571211
 20
-1176.650000095578
 30
0.0
 11
-1155.065072237877
 21
-1176.650000095578
 31
0.0
  0
LINE
  5
2CC
330
71
100
AcDbEntity
  8
1
  6
Continuous
 62
     6
100
AcDbLine
 10
-1223.398405571211
 20
-1171.650000095578
 30
0.0
 11
-1155.065072237877
 21
-1171.650000095578
 31
0.0
  0
LINE
  5
2CD
330
71
100
AcDbEntity
  8
1
  6
Continuous
 62
     6
100
AcDbLine
 10
-1223.398405571211
 20
-1171.650000095578
 30
0.0
 11
-1276.731738904544
 21
-1171.650000095578
 31
0.0
  0
LINE
  5
2CE
330
71
100
AcDbEntity
  8
1
  6
Continuous
 62
     2
100
AcDbLine
 10
-1155.065072237877
 20
-1176.650000095578
 30
0.0
 11
-1155.065072237877
 21
-1171.650000095578
 31
0.0
  0
LINE
  5
2CF
330
71
100
AcDbEntity
  8
1
  6
Continuous
 62
     2
100
AcDbLine
 10
-1276.731738904545
 20
-1176.650000095578
 30
0.0
 11
-1276.731738904545
 21
-1172.650000095578
 31
0.0
  0
LINE
  5
2D0
330
71
100
AcDbEntity
  8
1
  6
Continuous
 62
     2
100
AcDbLine
 10
-1276.731738904545
 20
-1176.650000095578
 30
0.0
 11
-1223.398405571211
 21
-1176.650000095578
 31
0.0
  0
LINE
  5
2D1
330
71
100
AcDbEntity
  8
1
  6
Continuous
 62
     2
100
AcDbLine
 10
-1066.731738904547
 20
-1176.650000095578
 30
0.0
 11
-1086.731738904544
 21
-1176.650000095578
 31
0.0
  0
LINE
  5
2D2
330
71
100
AcDbEntity
  8
1
  6
Continuous
 62
     2
100
AcDbLine
 10
-1066.731738904547
 20
-1176.650000095578
 30
0.0
 11
-1066.731738904547
 21
-1172.650000095578
 31
0.0
  0
LINE
  5
2D3
330
71
100
AcDbEntity
  8
1
  6
Continuous
 62
     2
100
AcDbLine
 10
-1066.731738904547
 20
-1176.650000095578
 30
0.0
 11
-1018.398405571211
 21
-1176.650000095578
 31
0.0
  0
LINE
  5
2D4
330
71
100
AcDbEntity
  8
1
  6
Continuous
 62
     2
100
AcDbLine
 10
-1018.398405571211
 20
-1176.650000095578
 30
0.0
 11
-950.0650722378778
 21
-1176.650000095578
 31
0.0
  0
LINE
  5
2D5
330
71
100
AcDbEntity
  8
1
  6
Continuous
 62
     2
100
AcDbLine
 10
-876.7317389045468
 20
-1176.650000095578
 30
0.0
 11
-881.7317389045443
 21
-1176.650000095578
 31
0.0
  0
LINE
  5
2D6
330
71
100
AcDbEntity
  8
1
  6
Continuous
 62
     2
100
AcDbLine
 10
-876.7317389045468
 20
-1171.650000095578
 30
0.0
 11
-876.7317389045468
 21
-1176.650000095578
 31
0.0
  0
LINE
  5
2D7
330
71
100
AcDbEntity
  8
1
  6
Continuous
 62
     2
100
AcDbLine
 10
-876.7317389045468
 20
-1171.650000095578
 30
0.0
 11
-876.7317389045468
 21
-1114.250000095577
 31
0.0
  0
LINE
  5
2D8
330
71
100
AcDbEntity
  8
1
  6
Continuous
 62
     2
100
AcDbLine
 10
-876.7317389045468
 20
-879.6500000955775
 30
0.0
 11
-881.7317389045468
 21
-879.6500000955775
 31
0.0
  0
LINE
  5
2D9
330
71
100
AcDbEntity
  8
1
  6
Continuous
 62
     6
100
AcDbLine
 10
-881.7317389045468
 20
-884.6500000955775
 30
0.0
 11
-881.7317389045463
 21
-942.0500000955776
 31
0.0
  0
LINE
  5
2DA
330
71
100
AcDbEntity
  8
1
  6
Continuous
 62
     2
100
AcDbLine
 10
-876.7317389045468
 20
-879.6500000955775
 30
0.0
 11
-876.7317389045468
 21
-884.6500000955775
 31
0.0
  0
LINE
  5
2DB
330
71
100
AcDbEntity
  8
1
  6
Continuous
 62
     2
100
AcDbLine
 10
-881.7317389045468
 20
-884.6500000955775
 30
0.0
 11
-881.7317389045468
 21
-879.6500000955775
 31
0.0
  0
LINE
  5
2DC
330
71
100
AcDbEntity
  8
1
  6
Continuous
 62
     2
100
AcDbLine
 10
-881.7317389045468
 20
-884.6500000955775
 30
0.0
 11
-876.7317389045468
 21
-884.6500000955775
 31
0.0
  0
LINE
  5
2DD
330
71
100
AcDbEntity
  8
1
  6
Continuous
 62
     2
100
AcDbLine
 10
-876.7317389045468
 20
-884.6500000955775
 30
0.0
 11
-876.7317389045468
 21
-942.0500000955776
 31
0.0
  0
LINE
  5
2DE
330
71
100
AcDbEntity
  8
1
  6
Continuous
 62
     2
100
AcDbLine
 10
-881.7317389045463
 20
-942.0500000955776
 30
0.0
 11
-876.7317389045468
 21
-942.0500000955776
 31
0.0
  0
LINE
  5
2DF
330
71
100
AcDbEntity
  8
1
  6
Continuous
 62
     6
100
AcDbLine
 10
-881.7317389045463
 20
-942.0500000955776
 30
0.0
 11
-881.7317389045443
 21
-999.4500000955775
 31
0.0
  0
LINE
  5
2E0
330
71
100
AcDbEntity
  8
1
  6
Continuous
 62
     2
100
AcDbLine
 10
-876.7317389045468
 20
-942.0500000955776
 30
0.0
 11
-876.7317389045468
 21
-999.4500000955775
 31
0.0
  0
LINE
  5
2E1
330
71
100
AcDbEntity
  8
1
  6
Continuous
 62
     2
100
AcDbLine
 10
-881.7317389045443
 20
-999.4500000955775
 30
0.0
 11
-876.7317389045468
 21
-999.4500000955775
 31
0.0
  0
LINE
  5
2E2
330
71
100
AcDbEntity
  8
1
  6
Continuous
 62
     6
100
AcDbLine
 10
-881.7317389045443
 20
-999.4500000955775
 30
0.0
 11
-881.7317389045443
 21
-1056.850000095577
 31
0.0
  0
LINE
  5
2E3
330
71
100
AcDbEntity
  8
1
  6
Continuous
 62
     2
100
AcDbLine
 10
-876.7317389045468
 20
-999.4500000955775
 30
0.0
 11
-876.7317389045468
 21
-1056.850000095577
 31
0.0
  0
LINE
  5
2E4
330
71
100
AcDbEntity
  8
1
  6
Continuous
 62
     2
100
AcDbLine
 10
-881.7317389045443
 20
-1056.850000095577
 30
0.0
 11
-876.7317389045468
 21
-1056.850000095577
 31
0.0
  0
LINE
  5
2E5
330
71
100
AcDbEntity
  8
1
  6
Continuous
 62
     6
100
AcDbLine
 10
-881.7317389045443
 20
-1056.850000095577
 30
0.0
 11
-881.7317389045444
 21
-1114.250000095577
 31
0.0
  0
LINE
  5
2E6
330
71
100
AcDbEntity
  8
1
  6
Continuous
 62
     6
100
AcDbLine
 10
-1276.731738904545
 20
-884.6500000955773
 30
0.0
 11
-1223.398405571211
 21
-884.6500000955773
 31
0.0
  0
LINE
  5
2E7
330
71
100
AcDbEntity
  8
1
  6
Continuous
 62
     2
100
AcDbLine
 10
-881.7317389045468
 20
-879.6500000955775
 30
0.0
 11
-950.0650722378778
 21
-879.6500000955775
 31
0.0
  0
LINE
  5
2E8
330
71
100
AcDbEntity
  8
1
  6
Continuous
 62
     2
100
AcDbLine
 10
-950.0650722378778
 20
-884.6500000955775
 30
0.0
 11
-950.0650722378778
 21
-879.6500000955775
 31
0.0
  0
LINE
  5
2E9
330
71
100
AcDbEntity
  8
1
  6
Continuous
 62
     6
100
AcDbLine
 10
-950.0650722378778
 20
-884.6500000955775
 30
0.0
 11
-881.7317389045468
 21
-884.6500000955775
 31
0.0
  0
LINE
  5
2EA
330
71
100
AcDbEntity
  8
1
  6
Continuous
 62
     2
100
AcDbLine
 10
-950.0650722378778
 20
-879.6500000955775
 30
0.0
 11
-1018.398405571211
 21
-879.6500000955775
 31
0.0
  0
LINE
  5
2EB
330
71
100
AcDbEntity
  8
1
  6
Continuous
 62
     2
100
AcDbLine
 10
-1018.398405571211
 20
-884.6500000955775
 30
0.0
 11
-1018.398405571211
 21
-879.6500000955775
 31
0.0
  0
LINE
  5
2EC
330
71
100
AcDbEntity
  8
1
  6
Continuous
 62
     6
100
AcDbLine
 10
-1018.398405571211
 20
-884.6500000955775
 30
0.0
 11
-950.0650722378778
 21
-884.6500000955775
 31
0.0
  0
LINE
  5
2ED
330
71
100
AcDbEntity
  8
1
  6
Continuous
 62
     2
100
AcDbLine
 10
-1018.398405571211
 20
-879.6500000955775
 30
0.0
 11
-1066.731738904547
 21
-879.6500000955775
 31
0.0
  0
LINE
  5
2EE
330
71
100
AcDbEntity
  8
1
  6
Continuous
 62
     2
100
AcDbLine
 10
-1086.731738904544
 20
-884.6500000955775
 30
0.0
 11
-1086.731738904544
 21
-879.6500000955775
 31
0.0
  0
LINE
  5
2EF
330
71
100
AcDbEntity
  8
1
  6
Continuous
 62
     6
100
AcDbLine
 10
-1086.731738904544
 20
-884.6500000955775
 30
0.0
 11
-1018.398405571211
 21
-884.6500000955775
 31
0.0
  0
LINE
  5
2F0
330
71
100
AcDbEntity
  8
1
  6
Continuous
 62
     2
100
AcDbLine
 10
-1086.731738904544
 20
-879.6500000955775
 30
0.0
 11
-1155.065072237877
 21
-879.6500000955775
 31
0.0
  0
LINE
  5
2F1
330
71
100
AcDbEntity
  8
1
  6
Continuous
 62
     2
100
AcDbLine
 10
-1155.065072237877
 20
-884.6500000955775
 30
0.0
 11
-1155.065072237877
 21
-879.6500000955775
 31
0.0
  0
LINE
  5
2F2
330
71
100
AcDbEntity
  8
1
  6
Continuous
 62
     6
100
AcDbLine
 10
-1155.065072237877
 20
-884.6500000955775
 30
0.0
 11
-1086.731738904544
 21
-884.6500000955775
 31
0.0
  0
LINE
  5
2F3
330
71
100
AcDbEntity
  8
1
  6
Continuous
 62
     2
100
AcDbLine
 10
-1155.065072237877
 20
-879.6500000955775
 30
0.0
 11
-1223.398405571211
 21
-879.6500000955775
 31
0.0
  0
LINE
  5
2F4
330
71
100
AcDbEntity
  8
1
  6
Continuous
 62
     2
100
AcDbLine
 10
-1223.398405571211
 20
-884.6500000955773
 30
0.0
 11
-1223.398405571211
 21
-879.6500000955775
 31
0.0
  0
LINE
  5
2F5
330
71
100
AcDbEntity
  8
1
  6
Continuous
 62
     6
100
AcDbLine
 10
-1223.398405571211
 20
-884.6500000955773
 30
0.0
 11
-1155.065072237877
 21
-884.6500000955775
 31
0.0
  0
LINE
  5
2F6
330
71
100
AcDbEntity
  8
1
  6
Continuous
 62
     2
100
AcDbLine
 10
-1223.398405571211
 20
-879.6500000955775
 30
0.0
 11
-1276.731738904545
 21
-879.6500000955775
 31
0.0
  0
LINE
  5
2F7
330
71
100
AcDbEntity
  8
1
  6
Continuous
 62
     2
100
AcDbLine
 10
-1276.731738904545
 20
-879.6500000955775
 30
0.0
 11
-1276.731738904545
 21
-883.6500000955773
 31
0.0
  0
LINE
  5
2F8
330
71
100
AcDbEntity
  8
1
  6
Continuous
 62
     2
100
AcDbLine
 10
-1276.731738904545
 20
-879.6500000955775
 30
0.0
 11
-1296.731738904545
 21
-879.6500000955775
 31
0.0
  0
LINE
  5
2F9
330
71
100
AcDbEntity
  8
1
  6
Continuous
 62
     2
100
AcDbLine
 10
-1066.731738904547
 20
-879.6500000955775
 30
0.0
 11
-1066.731738904547
 21
-883.6500000955773
 31
0.0
  0
LINE
  5
2FA
330
71
100
AcDbEntity
  8
1
  6
Continuous
 62
     2
100
AcDbLine
 10
-1066.731738904547
 20
-879.6500000955775
 30
0.0
 11
-1086.731738904544
 21
-879.6500000955775
 31
0.0
  0
LINE
  5
2FB
330
71
100
AcDbEntity
  8
1
  6
Continuous
 62
     2
100
AcDbLine
 10
-1296.731738904545
 20
-879.6500000955775
 30
0.0
 11
-1296.731738904545
 21
-1028.150000095578
 31
0.0
  0
LINE
  5
2FC
330
71
100
AcDbEntity
  8
1
  6
Continuous
 62
     2
100
AcDbLine
 10
-1296.731738904545
 20
-1028.150000095578
 30
0.0
 11
-1286.731738904545
 21
-1028.150000095578
 31
0.0
  0
LINE
  5
2FD
330
71
100
AcDbEntity
  8
1
  6
Continuous
 62
     2
100
AcDbLine
 10
-1296.731738904545
 20
-1028.150000095578
 30
0.0
 11
-1296.731738904545
 21
-1176.650000095578
 31
0.0
  0
LINE
  5
2FE
330
71
100
AcDbEntity
  8
1
  6
Continuous
 62
     6
100
AcDbLine
 10
-1276.731738904544
 20
-1171.650000095578
 30
0.0
 11
-1276.731738904545
 21
-884.6500000955773
 31
0.0
  0
LINE
  5
2FF
330
71
100
AcDbEntity
  8
1
  6
Continuous
 62
     6
100
AcDbLine
 10
-881.7317389045444
 20
-1171.650000095578
 30
0.0
 11
-881.7317389045447
 21
-1163.150000095578
 31
0.0
  0
LINE
  5
300
330
71
100
AcDbEntity
  8
1
  6
Continuous
 62
     6
100
AcDbLine
 10
-1155.065072237877
 20
-1171.650000095578
 30
0.0
 11
-1011.276543431294
 21
-1171.650000095581
 31
0.0
  0
LINE
  5
301
330
71
100
AcDbEntity
  8
1
  6
Continuous
 62
     2
100
AcDbLine
 10
-1018.398405571211
 20
-1171.650000095581
 30
0.0
 11
-1018.398405571211
 21
-1171.650000095578
 31
0.0
  0
LINE
  5
302
330
71
100
AcDbEntity
  8
1
  6
Continuous
 62
     6
100
AcDbLine
 10
-881.7317389045426
 20
-1154.650000095578
 30
0.0
 11
-881.7317389045426
 21
-1146.150000095578
 31
0.0
  0
LINE
  5
303
330
71
100
AcDbEntity
  8
1
  6
Continuous
 62
     7
100
AcDbLine
 10
-946.9765434312943
 20
-1163.150000095578
 30
0.0
 11
-946.9765434312943
 21
-1154.650000095578
 31
0.0
  0
LINE
  5
304
330
71
100
AcDbEntity
  8
1
  6
Continuous
 62
     6
100
AcDbLine
 10
-974.8765434312943
 20
-1154.650000095578
 30
0.0
 11
-881.7317389045426
 21
-1154.650000095578
 31
0.0
  0
LINE
  5
305
330
71
100
AcDbEntity
  8
1
  6
Continuous
 62
     7
100
AcDbLine
 10
-1011.276543431294
 20
-1154.650000095578
 30
0.0
 11
-1011.276543431294
 21
-1146.150000095578
 31
0.0
  0
LINE
  5
306
330
71
100
AcDbEntity
  8
1
  6
Continuous
 62
     7
100
AcDbLine
 10
-974.8765434312943
 20
-1154.650000095578
 30
0.0
 11
-974.8765434312943
 21
-1146.150000095578
 31
0.0
  0
LINE
  5
307
330
71
100
AcDbEntity
  8
1
  6
Continuous
 62
     7
100
AcDbLine
 10
-917.1501471862214
 20
-1146.150000095578
 30
0.0
 11
-917.1501471862214
 21
-1154.650000095578
 31
0.0
  0
LINE
  5
308
330
71
100
AcDbEntity
  8
1
  6
Continuous
 62
     7
100
AcDbLine
 10
-890.6501471862217
 20
-1146.150000095578
 30
0.0
 11
-890.6501471862217
 21
-1154.650000095578
 31
0.0
  0
LINE
  5
309
330
71
100
AcDbEntity
  8
1
  6
Continuous
 62
     7
100
AcDbLine
 10
-881.731738904543
 20
-1163.150000095578
 30
0.0
 11
-974.8765434312943
 21
-1163.150000095578
 31
0.0
  0
LINE
  5
30A
102
{ACAD_REACTORS
330
3EF
330
3F0
102
}
330
71
100
AcDbEntity
  8
0
  6
Continuous
 62
     2
100
AcDbLine
 10
-997.5691144895268
 20
-1162.349710979915
 30
0.0
 11
-997.5691144895268
 21
-1161.477193973112
 31
0.0
  0
LINE
  5
30B
102
{ACAD_REACTORS
330
3EF
330
3F0
102
}
330
71
100
AcDbEntity
  8
0
  6
Continuous
 62
     2
100
AcDbLine
 10
-997.5691144895268
 20
-1163.309479687398
 30
0.0
 11
-997.5691144895268
 21
-1164.181996694201
 31
0.0
  0
LINE
  5
30C
102
{ACAD_REACTORS
330
3F1
330
3F2
102
}
330
71
100
AcDbEntity
  8
0
  6
Continuous
 62
     2
100
AcDbLine
 10
-982.2360703532364
 20
-1162.087955877874
 30
0.0
 11
-981.1324310536684
 21
-1162.087955877874
 31
0.0
  0
LINE
  5
30D
102
{ACAD_REACTORS
330
3F1
330
3F2
102
}
330
71
100
AcDbEntity
  8
0
  6
Continuous
 62
     2
100
AcDbLine
 10
-981.466413010275
 20
-1163.309479687398
 30
0.0
 11
-981.466413010275
 21
-1164.181996694201
 31
0.0
  0
LINE
  5
30E
102
{ACAD_REACTORS
330
3FB
330
3FC
102
}
330
71
100
AcDbEntity
  8
0
  6
Continuous
 62
     2
100
AcDbLine
 10
-983.3271696256548
 20
-1160.997309619387
 30
0.0
 11
-981.9292165787145
 21
-1159.416450625613
 31
0.0
  0
LINE
  5
30F
102
{ACAD_REACTORS
330
3FB
330
3FC
102
}
330
71
100
AcDbEntity
  8
0
  6
Continuous
 62
     2
100
AcDbLine
 10
-983.231746209482
 20
-1157.943500095576
 30
0.0
 11
-981.9292165787145
 21
-1159.416450625613
 31
0.0
  0
LINE
  5
310
102
{ACAD_REACTORS
330
3FB
330
3FC
102
}
330
71
100
AcDbEntity
  8
0
  6
Continuous
 62
     2
100
AcDbLine
 10
-980.6266869479482
 20
-1157.943500095576
 30
0.0
 11
-979.2239627302009
 21
-1157.943500095576
 31
0.0
  0
LINE
  5
311
102
{ACAD_REACTORS
330
3FB
330
3FC
102
}
330
71
100
AcDbEntity
  8
0
  6
Continuous
 62
     2
100
AcDbLine
 10
-981.9244454079068
 20
-1160.997309619387
 30
0.0
 11
-981.227854469841
 21
-1160.209577834094
 31
0.0
  0
LINE
  5
312
102
{ACAD_REACTORS
330
3FB
330
3FC
102
}
330
71
100
AcDbEntity
  8
0
  6
Continuous
 62
     2
100
AcDbLine
 10
-981.9244454079068
 20
-1160.997309619387
 30
0.0
 11
-983.3271696256548
 21
-1160.997309619387
 31
0.0
  0
LINE
  5
313
102
{ACAD_REACTORS
330
3FD
330
3FE
102
}
330
71
100
AcDbEntity
  8
0
  6
Continuous
 62
     2
100
AcDbLine
 10
-983.4464488958718
 20
-1160.997309619387
 30
0.0
 11
-984.6869533061247
 21
-1160.997309619387
 31
0.0
  0
LINE
  5
314
102
{ACAD_REACTORS
330
3FF
330
400
102
}
330
71
100
AcDbEntity
  8
0
  6
Continuous
 62
     2
100
AcDbLine
 10
-985.5549329142798
 20
-1163.134976286037
 30
0.0
 11
-985.85509815147
 21
-1162.367161320051
 31
0.0
  0
LINE
  5
315
102
{ACAD_REACTORS
330
3FF
330
400
102
}
330
71
100
AcDbEntity
  8
0
  6
Continuous
 62
     2
100
AcDbLine
 10
-986.1552633886622
 20
-1163.134976286037
 30
0.0
 11
-985.5549329142798
 21
-1163.134976286037
 31
0.0
  0
LINE
  5
316
102
{ACAD_REACTORS
330
3FF
330
400
102
}
330
71
100
AcDbEntity
  8
0
  6
Continuous
 62
     2
100
AcDbLine
 10
-987.873303403536
 20
-1164.356500095562
 30
0.0
 11
-986.6327989932831
 21
-1164.356500095562
 31
0.0
  0
LINE
  5
317
102
{ACAD_REACTORS
330
3FF
330
400
102
}
330
71
100
AcDbEntity
  8
0
  6
Continuous
 62
     2
100
AcDbLine
 10
-986.4753503565969
 20
-1161.302690571751
 30
0.0
 11
-985.234845946344
 21
-1161.302690571751
 31
0.0
  0
LINE
  5
318
102
{ACAD_REACTORS
330
3FF
330
400
102
}
330
71
100
AcDbEntity
  8
0
  6
Continuous
 62
     2
100
AcDbLine
 10
-985.234845946344
 20
-1161.302690571751
 30
0.0
 11
-983.8368928994038
 21
-1164.356500095562
 31
0.0
  0
LINE
  5
319
102
{ACAD_REACTORS
330
3FF
330
400
102
}
330
71
100
AcDbEntity
  8
0
  6
Continuous
 62
     2
100
AcDbLine
 10
-985.0773973096576
 20
-1164.356500095562
 30
0.0
 11
-985.2888773631335
 21
-1163.815539551344
 31
0.0
  0
LINE
  5
31A
102
{ACAD_REACTORS
330
401
330
402
102
}
330
71
100
AcDbEntity
  8
0
  6
Continuous
 62
     2
100
AcDbLine
 10
-989.2197165052437
 20
-1164.356500095562
 30
0.0
 11
-988.0269238030772
 21
-1164.356500095562
 31
0.0
  0
LINE
  5
31B
102
{ACAD_REACTORS
330
401
330
402
102
}
330
71
100
AcDbEntity
  8
0
  6
Continuous
 62
     2
100
AcDbLine
 10
-989.2197165052437
 20
-1162.087955877874
 30
0.0
 11
-989.2197165052437
 21
-1164.356500095562
 31
0.0
  0
LINE
  5
31C
102
{ACAD_REACTORS
330
401
330
402
102
}
330
71
100
AcDbEntity
  8
0
  6
Continuous
 62
     2
100
AcDbLine
 10
-990.0308155427183
 20
-1161.302690571751
 30
0.0
 11
-990.0308155427183
 21
-1162.087955877874
 31
0.0
  0
LINE
  5
31D
102
{ACAD_REACTORS
330
403
330
404
102
}
330
71
100
AcDbEntity
  8
0
  6
Continuous
 62
     2
100
AcDbLine
 10
-988.5516016611457
 20
-1160.997309619387
 30
0.0
 11
-987.3588089589792
 21
-1160.997309619387
 31
0.0
  0
LINE
  5
31E
102
{ACAD_REACTORS
330
403
330
404
102
}
330
71
100
AcDbEntity
  8
0
  6
Continuous
 62
     2
100
AcDbLine
 10
-986.1183045487252
 20
-1159.252275605782
 30
0.0
 11
-987.3588089589792
 21
-1157.943500095576
 31
0.0
  0
LINE
  5
31F
102
{ACAD_REACTORS
330
403
330
404
102
}
330
71
100
AcDbEntity
  8
0
  6
Continuous
 62
     2
100
AcDbLine
 10
-984.9255118465585
 20
-1157.943500095576
 30
0.0
 11
-986.1183045487252
 21
-1157.943500095576
 31
0.0
  0
LINE
  5
320
102
{ACAD_REACTORS
330
403
330
404
102
}
330
71
100
AcDbEntity
  8
0
  6
Continuous
 62
     2
100
AcDbLine
 10
-984.9255118465585
 20
-1160.997309619387
 30
0.0
 11
-984.9255118465585
 21
-1157.943500095576
 31
0.0
  0
LINE
  5
321
102
{ACAD_REACTORS
330
403
330
404
102
}
330
71
100
AcDbEntity
  8
0
  6
Continuous
 62
     2
100
AcDbLine
 10
-986.1183045487252
 20
-1160.997309619387
 30
0.0
 11
-984.9255118465585
 21
-1160.997309619387
 31
0.0
  0
LINE
  5
322
102
{ACAD_REACTORS
330
403
330
404
102
}
330
71
100
AcDbEntity
  8
0
  6
Continuous
 62
     2
100
AcDbLine
 10
-987.3588089589792
 20
-1159.688534109183
 30
0.0
 11
-986.1183045487252
 21
-1160.997309619387
 31
0.0
  0
LINE
  5
323
102
{ACAD_REACTORS
330
405
330
406
102
}
330
71
100
AcDbEntity
  8
0
  6
Continuous
 62
     2
100
AcDbLine
 10
-991.3667433691448
 20
-1162.611466081956
 30
0.0
 11
-992.6072477793978
 21
-1161.302690571751
 31
0.0
  0
LINE
  5
324
102
{ACAD_REACTORS
330
405
330
406
102
}
330
71
100
AcDbEntity
  8
0
  6
Continuous
 62
     2
100
AcDbLine
 10
-991.3667433691448
 20
-1161.302690571751
 30
0.0
 11
-991.3667433691448
 21
-1162.611466081956
 31
0.0
  0
LINE
  5
325
102
{ACAD_REACTORS
330
405
330
406
102
}
330
71
100
AcDbEntity
  8
0
  6
Continuous
 62
     2
100
AcDbLine
 10
-990.1739506669785
 20
-1161.302690571751
 30
0.0
 11
-991.3667433691448
 21
-1161.302690571751
 31
0.0
  0
LINE
  5
326
102
{ACAD_REACTORS
330
405
330
406
102
}
330
71
100
AcDbEntity
  8
0
  6
Continuous
 62
     2
100
AcDbLine
 10
-990.1739506669785
 20
-1164.356500095562
 30
0.0
 11
-990.1739506669785
 21
-1161.302690571751
 31
0.0
  0
LINE
  5
327
102
{ACAD_REACTORS
330
405
330
406
102
}
330
71
100
AcDbEntity
  8
0
  6
Continuous
 62
     2
100
AcDbLine
 10
-992.6072477793978
 20
-1163.047724585357
 30
0.0
 11
-991.3667433691448
 21
-1164.356500095562
 31
0.0
  0
LINE
  5
328
102
{ACAD_REACTORS
330
405
330
406
102
}
330
71
100
AcDbEntity
  8
0
  6
Continuous
 62
     2
100
AcDbLine
 10
-992.6072477793978
 20
-1164.356500095562
 30
0.0
 11
-992.6072477793978
 21
-1163.047724585357
 31
0.0
  0
LINE
  5
329
102
{ACAD_REACTORS
330
3F5
330
3F6
102
}
330
71
100
AcDbEntity
  8
0
  6
Continuous
 62
     2
100
AcDbLine
 10
-990.1260880280063
 20
-1158.641513701019
 30
0.0
 11
-988.7901602015786
 21
-1158.641513701019
 31
0.0
  0
LINE
  5
32A
102
{ACAD_REACTORS
330
3F5
330
3F6
102
}
330
71
100
AcDbEntity
  8
0
  6
Continuous
 62
     2
100
AcDbLine
 10
-990.1260880280063
 20
-1160.299296013945
 30
0.0
 11
-990.1260880280063
 21
-1159.819411660203
 31
0.0
  0
LINE
  5
32B
102
{ACAD_REACTORS
330
3F5
330
3F6
102
}
330
71
100
AcDbEntity
  8
0
  6
Continuous
 62
     2
100
AcDbLine
 10
-988.7901602015786
 20
-1160.299296013945
 30
0.0
 11
-990.1260880280063
 21
-1160.299296013945
 31
0.0
  0
LINE
  5
32C
102
{ACAD_REACTORS
330
3F5
330
3F6
102
}
330
71
100
AcDbEntity
  8
0
  6
Continuous
 62
     2
100
AcDbLine
 10
-988.7901602015786
 20
-1160.997309619387
 30
0.0
 11
-988.7901602015786
 21
-1160.299296013945
 31
0.0
  0
LINE
  5
32D
102
{ACAD_REACTORS
330
3F5
330
3F6
102
}
330
71
100
AcDbEntity
  8
0
  6
Continuous
 62
     2
100
AcDbLine
 10
-991.9404799253596
 20
-1160.997309619387
 30
0.0
 11
-988.7901602015786
 21
-1160.997309619387
 31
0.0
  0
LINE
  5
32E
102
{ACAD_REACTORS
330
3F5
330
3F6
102
}
330
71
100
AcDbEntity
  8
0
  6
Continuous
 62
     2
100
AcDbLine
 10
-991.9404799253596
 20
-1157.943500095576
 30
0.0
 11
-988.7901602015786
 21
-1157.943500095576
 31
0.0
  0
LINE
  5
32F
102
{ACAD_REACTORS
330
3F5
330
3F6
102
}
330
71
100
AcDbEntity
  8
0
  6
Continuous
 62
     2
100
AcDbLine
 10
-988.7901602015786
 20
-1158.641513701019
 30
0.0
 11
-988.7901602015786
 21
-1157.943500095576
 31
0.0
  0
LINE
  5
330
102
{ACAD_REACTORS
330
407
330
408
102
}
330
71
100
AcDbEntity
  8
0
  6
Continuous
 62
     2
100
AcDbLine
 10
-994.8018354204996
 20
-1159.012333428911
 30
0.0
 11
-994.8018354204996
 21
-1157.943500095576
 31
0.0
  0
LINE
  5
331
102
{ACAD_REACTORS
330
407
330
408
102
}
330
71
100
AcDbEntity
  8
0
  6
Continuous
 62
     2
100
AcDbLine
 10
-994.8018354204996
 20
-1157.943500095576
 30
0.0
 11
-993.6090427183332
 21
-1157.943500095576
 31
0.0
  0
LINE
  5
332
102
{ACAD_REACTORS
330
407
330
408
102
}
330
71
100
AcDbEntity
  8
0
  6
Continuous
 62
     2
100
AcDbLine
 10
-994.8018354204996
 20
-1159.863037510544
 30
0.0
 11
-995.851492998407
 21
-1159.863037510544
 31
0.0
  0
LINE
  5
333
102
{ACAD_REACTORS
330
407
330
408
102
}
330
71
100
AcDbEntity
  8
0
  6
Continuous
 62
     2
100
AcDbLine
 10
-995.851492998407
 20
-1159.863037510544
 30
0.0
 11
-995.851492998407
 21
-1160.997309619387
 31
0.0
  0
LINE
  5
334
102
{ACAD_REACTORS
330
407
330
408
102
}
330
71
100
AcDbEntity
  8
0
  6
Continuous
 62
     2
100
AcDbLine
 10
-997.0442857005736
 20
-1157.943500095576
 30
0.0
 11
-997.0442857005736
 21
-1160.997309619387
 31
0.0
  0
LINE
  5
335
102
{ACAD_REACTORS
330
3F9
330
3FA
102
}
330
71
100
AcDbEntity
  8
0
  6
Continuous
 62
     2
100
AcDbLine
 10
-999.0004657321274
 20
-1159.312333590359
 30
0.0
 11
-999.0004657321274
 21
-1158.606605941016
 31
0.0
  0
LINE
  5
336
102
{ACAD_REACTORS
330
3F9
330
3FA
102
}
330
71
100
AcDbEntity
  8
0
  6
Continuous
 62
     2
100
AcDbLine
 10
-1000.240970142381
 20
-1160.997309619387
 30
0.0
 11
-999.0004657321274
 21
-1160.997309619387
 31
0.0
  0
LINE
  5
337
102
{ACAD_REACTORS
330
3F9
330
3FA
102
}
330
71
100
AcDbEntity
  8
0
  6
Continuous
 62
     2
100
AcDbLine
 10
-999.0004657321274
 20
-1160.997309619387
 30
0.0
 11
-999.0004657321274
 21
-1160.054231378244
 31
0.0
  0
LINE
  5
338
102
{ACAD_REACTORS
330
3F3
330
3F4
102
}
330
71
100
AcDbEntity
  8
0
  6
Continuous
 62
     2
100
AcDbLine
 10
-1004.545915991593
 20
-1163.643944540005
 30
0.0
 11
-1006.021749252602
 21
-1163.643944540005
 31
0.0
  0
LINE
  5
339
102
{ACAD_REACTORS
330
3F3
330
3F4
102
}
330
71
100
AcDbEntity
  8
0
  6
Continuous
 62
     2
100
AcDbLine
 10
-1007.039888544732
 20
-1158.367744710978
 30
0.0
 11
-1007.039888544732
 21
-1163.932255480179
 31
0.0
  0
LINE
  5
33A
102
{ACAD_REACTORS
330
3F3
330
3F4
102
}
330
71
100
AcDbEntity
  8
0
  6
Continuous
 62
     2
100
AcDbLine
 10
-1006.615643929349
 20
-1157.943500095594
 30
0.0
 11
-1001.142331838632
 21
-1157.943500095594
 31
0.0
  0
LINE
  5
33B
102
{ACAD_REACTORS
330
3F3
330
3F4
102
}
330
71
100
AcDbEntity
  8
0
  6
Continuous
 62
     2
100
AcDbLine
 10
-1000.718087223248
 20
-1158.367744710978
 30
0.0
 11
-1000.718087223248
 21
-1163.932255480179
 31
0.0
  0
LINE
  5
33C
102
{ACAD_REACTORS
330
3F3
330
3F4
102
}
330
71
100
AcDbEntity
  8
0
  6
Continuous
 62
     2
100
AcDbLine
 10
-1001.142331838632
 20
-1164.356500095562
 30
0.0
 11
-1006.615643929349
 21
-1164.356500095562
 31
0.0
  0
LINE
  5
33D
102
{ACAD_REACTORS
330
3F3
330
3F4
102
}
330
71
100
AcDbEntity
  8
0
  6
Continuous
 62
     2
100
AcDbLine
 10
-1004.230199068516
 20
-1163.328227616928
 30
0.0
 11
-1004.230199068516
 21
-1161.797456685397
 31
0.0
  0
LINE
  5
33E
102
{ACAD_REACTORS
330
3F3
330
3F4
102
}
330
71
100
AcDbEntity
  8
0
  6
Continuous
 62
     2
100
AcDbLine
 10
-1004.230199068516
 20
-1159.575797193272
 30
0.0
 11
-1004.230199068516
 21
-1158.971772574211
 31
0.0
  0
LINE
  5
33F
102
{ACAD_REACTORS
330
3F3
330
3F4
102
}
330
71
100
AcDbEntity
  8
0
  6
Continuous
 62
     2
100
AcDbLine
 10
-1006.021749252602
 20
-1158.656055651135
 30
0.0
 11
-1004.545915991593
 21
-1158.656055651135
 31
0.0
  0
LINE
  5
340
102
{ACAD_REACTORS
330
3F3
330
3F4
102
}
330
71
100
AcDbEntity
  8
0
  6
Continuous
 62
     2
100
AcDbLine
 10
-1006.337466175678
 20
-1158.971772574211
 30
0.0
 11
-1006.337466175678
 21
-1163.328227616928
 31
0.0
  0
LINE
  5
341
102
{ACAD_REACTORS
330
3F9
330
3FA
102
}
330
71
100
AcDbEntity
  8
0
  6
Continuous
 62
     2
100
AcDbLine
 10
-999.0004657321274
 20
-1160.054231378244
 30
0.0
 11
-998.241698144347
 21
-1160.054231378244
 31
0.0
  0
LINE
  5
342
102
{ACAD_REACTORS
330
3F9
330
3FA
102
}
330
71
100
AcDbEntity
  8
0
  6
Continuous
 62
     2
100
AcDbLine
 10
-1000.240970142381
 20
-1157.943500095576
 30
0.0
 11
-998.241698144347
 21
-1157.943500095576
 31
0.0
  0
LINE
  5
343
102
{ACAD_REACTORS
330
3F9
330
3FA
102
}
330
71
100
AcDbEntity
  8
0
  6
Continuous
 62
     2
100
AcDbLine
 10
-1000.240970142381
 20
-1157.943500095576
 30
0.0
 11
-1000.240970142381
 21
-1160.997309619387
 31
0.0
  0
LINE
  5
344
102
{ACAD_REACTORS
330
3F9
330
3FA
102
}
330
71
100
AcDbEntity
  8
0
  6
Continuous
 62
     2
100
AcDbLine
 10
-999.0004657321274
 20
-1159.312333590359
 30
0.0
 11
-998.6831706705854
 21
-1159.312333590359
 31
0.0
  0
LINE
  5
345
102
{ACAD_REACTORS
330
3F9
330
3FA
102
}
330
71
100
AcDbEntity
  8
0
  6
Continuous
 62
     2
100
AcDbLine
 10
-999.0004657321274
 20
-1158.606605941016
 30
0.0
 11
-998.6831706705854
 21
-1158.606605941016
 31
0.0
  0
LINE
  5
346
102
{ACAD_REACTORS
330
407
330
408
102
}
330
71
100
AcDbEntity
  8
0
  6
Continuous
 62
     2
100
AcDbLine
 10
-995.851492998407
 20
-1159.012333428911
 30
0.0
 11
-994.8018354204996
 21
-1159.012333428911
 31
0.0
  0
LINE
  5
347
102
{ACAD_REACTORS
330
407
330
408
102
}
330
71
100
AcDbEntity
  8
0
  6
Continuous
 62
     2
100
AcDbLine
 10
-995.851492998407
 20
-1157.943500095576
 30
0.0
 11
-995.851492998407
 21
-1159.012333428911
 31
0.0
  0
LINE
  5
348
102
{ACAD_REACTORS
330
407
330
408
102
}
330
71
100
AcDbEntity
  8
0
  6
Continuous
 62
     2
100
AcDbLine
 10
-997.0442857005736
 20
-1157.943500095576
 30
0.0
 11
-995.851492998407
 21
-1157.943500095576
 31
0.0
  0
LINE
  5
349
102
{ACAD_REACTORS
330
407
330
408
102
}
330
71
100
AcDbEntity
  8
0
  6
Continuous
 62
     2
100
AcDbLine
 10
-995.851492998407
 20
-1160.997309619387
 30
0.0
 11
-997.0442857005736
 21
-1160.997309619387
 31
0.0
  0
LINE
  5
34A
102
{ACAD_REACTORS
330
407
330
408
102
}
330
71
100
AcDbEntity
  8
0
  6
Continuous
 62
     2
100
AcDbLine
 10
-994.8018354204996
 20
-1160.997309619387
 30
0.0
 11
-994.8018354204996
 21
-1159.863037510544
 31
0.0
  0
LINE
  5
34B
102
{ACAD_REACTORS
330
407
330
408
102
}
330
71
100
AcDbEntity
  8
0
  6
Continuous
 62
     2
100
AcDbLine
 10
-993.6090427183332
 20
-1160.997309619387
 30
0.0
 11
-994.8018354204996
 21
-1160.997309619387
 31
0.0
  0
LINE
  5
34C
102
{ACAD_REACTORS
330
407
330
408
102
}
330
71
100
AcDbEntity
  8
0
  6
Continuous
 62
     2
100
AcDbLine
 10
-993.6090427183332
 20
-1157.943500095576
 30
0.0
 11
-993.6090427183332
 21
-1160.997309619387
 31
0.0
  0
LINE
  5
34D
102
{ACAD_REACTORS
330
3F5
330
3F6
102
}
330
71
100
AcDbEntity
  8
0
  6
Continuous
 62
     2
100
AcDbLine
 10
-990.1260880280063
 20
-1159.819411660203
 30
0.0
 11
-988.7901602015786
 21
-1159.819411660203
 31
0.0
  0
LINE
  5
34E
102
{ACAD_REACTORS
330
3F5
330
3F6
102
}
330
71
100
AcDbEntity
  8
0
  6
Continuous
 62
     2
100
AcDbLine
 10
-988.7901602015786
 20
-1159.819411660203
 30
0.0
 11
-988.7901602015786
 21
-1159.121398054761
 31
0.0
  0
LINE
  5
34F
102
{ACAD_REACTORS
330
3F5
330
3F6
102
}
330
71
100
AcDbEntity
  8
0
  6
Continuous
 62
     2
100
AcDbLine
 10
-988.7901602015786
 20
-1159.121398054761
 30
0.0
 11
-990.1260880280063
 21
-1159.121398054761
 31
0.0
  0
LINE
  5
350
102
{ACAD_REACTORS
330
3F5
330
3F6
102
}
330
71
100
AcDbEntity
  8
0
  6
Continuous
 62
     2
100
AcDbLine
 10
-990.1260880280063
 20
-1159.121398054761
 30
0.0
 11
-990.1260880280063
 21
-1158.641513701019
 31
0.0
  0
LINE
  5
351
102
{ACAD_REACTORS
330
405
330
406
102
}
330
71
100
AcDbEntity
  8
0
  6
Continuous
 62
     2
100
AcDbLine
 10
-993.8000404815654
 20
-1164.356500095562
 30
0.0
 11
-992.6072477793978
 21
-1164.356500095562
 31
0.0
  0
LINE
  5
352
102
{ACAD_REACTORS
330
405
330
406
102
}
330
71
100
AcDbEntity
  8
0
  6
Continuous
 62
     2
100
AcDbLine
 10
-991.3667433691448
 20
-1164.356500095562
 30
0.0
 11
-990.1739506669785
 21
-1164.356500095562
 31
0.0
  0
LINE
  5
353
102
{ACAD_REACTORS
330
405
330
406
102
}
330
71
100
AcDbEntity
  8
0
  6
Continuous
 62
     2
100
AcDbLine
 10
-992.6072477793978
 20
-1161.302690571751
 30
0.0
 11
-993.8000404815654
 21
-1161.302690571751
 31
0.0
  0
LINE
  5
354
102
{ACAD_REACTORS
330
405
330
406
102
}
330
71
100
AcDbEntity
  8
0
  6
Continuous
 62
     2
100
AcDbLine
 10
-993.8000404815654
 20
-1161.302690571751
 30
0.0
 11
-993.8000404815654
 21
-1164.356500095562
 31
0.0
  0
LINE
  5
355
102
{ACAD_REACTORS
330
403
330
404
102
}
330
71
100
AcDbEntity
  8
0
  6
Continuous
 62
     2
100
AcDbLine
 10
-986.1183045487252
 20
-1157.943500095576
 30
0.0
 11
-986.1183045487252
 21
-1159.252275605782
 31
0.0
  0
LINE
  5
356
102
{ACAD_REACTORS
330
403
330
404
102
}
330
71
100
AcDbEntity
  8
0
  6
Continuous
 62
     2
100
AcDbLine
 10
-987.3588089589792
 20
-1157.943500095576
 30
0.0
 11
-988.5516016611457
 21
-1157.943500095576
 31
0.0
  0
LINE
  5
357
102
{ACAD_REACTORS
330
403
330
404
102
}
330
71
100
AcDbEntity
  8
0
  6
Continuous
 62
     2
100
AcDbLine
 10
-988.5516016611457
 20
-1157.943500095576
 30
0.0
 11
-988.5516016611457
 21
-1160.997309619387
 31
0.0
  0
LINE
  5
358
102
{ACAD_REACTORS
330
403
330
404
102
}
330
71
100
AcDbEntity
  8
0
  6
Continuous
 62
     2
100
AcDbLine
 10
-987.3588089589792
 20
-1160.997309619387
 30
0.0
 11
-987.3588089589792
 21
-1159.688534109183
 31
0.0
  0
LINE
  5
359
102
{ACAD_REACTORS
330
401
330
402
102
}
330
71
100
AcDbEntity
  8
0
  6
Continuous
 62
     2
100
AcDbLine
 10
-988.0269238030772
 20
-1164.356500095562
 30
0.0
 11
-988.0269238030772
 21
-1162.087955877874
 31
0.0
  0
LINE
  5
35A
102
{ACAD_REACTORS
330
401
330
402
102
}
330
71
100
AcDbEntity
  8
0
  6
Continuous
 62
     2
100
AcDbLine
 10
-988.0269238030772
 20
-1162.087955877874
 30
0.0
 11
-987.2158247656046
 21
-1162.087955877874
 31
0.0
  0
LINE
  5
35B
102
{ACAD_REACTORS
330
401
330
402
102
}
330
71
100
AcDbEntity
  8
0
  6
Continuous
 62
     2
100
AcDbLine
 10
-987.2158247656046
 20
-1162.087955877874
 30
0.0
 11
-987.2158247656046
 21
-1161.302690571751
 31
0.0
  0
LINE
  5
35C
102
{ACAD_REACTORS
330
401
330
402
102
}
330
71
100
AcDbEntity
  8
0
  6
Continuous
 62
     2
100
AcDbLine
 10
-987.2158247656046
 20
-1161.302690571751
 30
0.0
 11
-990.0308155427183
 21
-1161.302690571751
 31
0.0
  0
LINE
  5
35D
102
{ACAD_REACTORS
330
401
330
402
102
}
330
71
100
AcDbEntity
  8
0
  6
Continuous
 62
     2
100
AcDbLine
 10
-990.0308155427183
 20
-1162.087955877874
 30
0.0
 11
-989.2197165052437
 21
-1162.087955877874
 31
0.0
  0
LINE
  5
35E
102
{ACAD_REACTORS
330
3FF
330
400
102
}
330
71
100
AcDbEntity
  8
0
  6
Continuous
 62
     2
100
AcDbLine
 10
-986.4213189398074
 20
-1163.815539551344
 30
0.0
 11
-985.2888773631335
 21
-1163.815539551344
 31
0.0
  0
LINE
  5
35F
102
{ACAD_REACTORS
330
3FF
330
400
102
}
330
71
100
AcDbEntity
  8
0
  6
Continuous
 62
     2
100
AcDbLine
 10
-983.8368928994038
 20
-1164.356500095562
 30
0.0
 11
-985.0773973096576
 21
-1164.356500095562
 31
0.0
  0
LINE
  5
360
102
{ACAD_REACTORS
330
3FF
330
400
102
}
330
71
100
AcDbEntity
  8
0
  6
Continuous
 62
     2
100
AcDbLine
 10
-986.4753503565969
 20
-1161.302690571751
 30
0.0
 11
-987.873303403536
 21
-1164.356500095562
 31
0.0
  0
LINE
  5
361
102
{ACAD_REACTORS
330
3FF
330
400
102
}
330
71
100
AcDbEntity
  8
0
  6
Continuous
 62
     2
100
AcDbLine
 10
-986.6327989932831
 20
-1164.356500095562
 30
0.0
 11
-986.4213189398074
 21
-1163.815539551344
 31
0.0
  0
LINE
  5
362
102
{ACAD_REACTORS
330
3FF
330
400
102
}
330
71
100
AcDbEntity
  8
0
  6
Continuous
 62
     2
100
AcDbLine
 10
-986.1552633886622
 20
-1163.134976286037
 30
0.0
 11
-985.85509815147
 21
-1162.367161320051
 31
0.0
  0
LINE
  5
363
102
{ACAD_REACTORS
330
3FD
330
3FE
102
}
330
71
100
AcDbEntity
  8
0
  6
Continuous
 62
     2
100
AcDbLine
 10
-984.6869533061247
 20
-1160.997309619387
 30
0.0
 11
-984.6869533061247
 21
-1157.943500095576
 31
0.0
  0
LINE
  5
364
102
{ACAD_REACTORS
330
3FD
330
3FE
102
}
330
71
100
AcDbEntity
  8
0
  6
Continuous
 62
     2
100
AcDbLine
 10
-983.4464488958718
 20
-1157.943500095576
 30
0.0
 11
-983.4464488958718
 21
-1160.997309619387
 31
0.0
  0
LINE
  5
365
102
{ACAD_REACTORS
330
3FD
330
3FE
102
}
330
71
100
AcDbEntity
  8
0
  6
Continuous
 62
     2
100
AcDbLine
 10
-984.6869533061247
 20
-1157.943500095576
 30
0.0
 11
-983.4464488958718
 21
-1157.943500095576
 31
0.0
  0
LINE
  5
366
102
{ACAD_REACTORS
330
3FB
330
3FC
102
}
330
71
100
AcDbEntity
  8
0
  6
Continuous
 62
     2
100
AcDbLine
 10
-981.227854469841
 20
-1160.209577834094
 30
0.0
 11
-980.5312635317755
 21
-1160.997309619387
 31
0.0
  0
LINE
  5
367
102
{ACAD_REACTORS
330
3FB
330
3FC
102
}
330
71
100
AcDbEntity
  8
0
  6
Continuous
 62
     2
100
AcDbLine
 10
-980.5312635317755
 20
-1160.997309619387
 30
0.0
 11
-979.1285393140272
 21
-1160.997309619387
 31
0.0
  0
LINE
  5
368
102
{ACAD_REACTORS
330
3FB
330
3FC
102
}
330
71
100
AcDbEntity
  8
0
  6
Continuous
 62
     2
100
AcDbLine
 10
-980.5264923609675
 20
-1159.416450625613
 30
0.0
 11
-979.1285393140272
 21
-1160.997309619387
 31
0.0
  0
LINE
  5
369
102
{ACAD_REACTORS
330
3FB
330
3FC
102
}
330
71
100
AcDbEntity
  8
0
  6
Continuous
 62
     2
100
AcDbLine
 10
-980.5264923609675
 20
-1159.416450625613
 30
0.0
 11
-979.2239627302009
 21
-1157.943500095576
 31
0.0
  0
LINE
  5
36A
102
{ACAD_REACTORS
330
3FB
330
3FC
102
}
330
71
100
AcDbEntity
  8
0
  6
Continuous
 62
     2
100
AcDbLine
 10
-981.227854469841
 20
-1158.623323417132
 30
0.0
 11
-980.6266869479482
 21
-1157.943500095576
 31
0.0
  0
LINE
  5
36B
102
{ACAD_REACTORS
330
3FB
330
3FC
102
}
330
71
100
AcDbEntity
  8
0
  6
Continuous
 62
     2
100
AcDbLine
 10
-981.8290219917328
 20
-1157.943500095576
 30
0.0
 11
-981.227854469841
 21
-1158.623323417132
 31
0.0
  0
LINE
  5
36C
102
{ACAD_REACTORS
330
3FB
330
3FC
102
}
330
71
100
AcDbEntity
  8
0
  6
Continuous
 62
     2
100
AcDbLine
 10
-981.8290219917328
 20
-1157.943500095576
 30
0.0
 11
-983.231746209482
 21
-1157.943500095576
 31
0.0
  0
LINE
  5
36D
102
{ACAD_REACTORS
330
3F1
330
3F2
102
}
330
71
100
AcDbEntity
  8
0
  6
Continuous
 62
     2
100
AcDbLine
 10
-981.1324310536684
 20
-1164.356500095562
 30
0.0
 11
-979.9396383515007
 21
-1164.356500095562
 31
0.0
  0
LINE
  5
36E
102
{ACAD_REACTORS
330
3F1
330
3F2
102
}
330
71
100
AcDbEntity
  8
0
  6
Continuous
 62
     2
100
AcDbLine
 10
-979.9396383515007
 20
-1164.356500095562
 30
0.0
 11
-979.9396383515007
 21
-1162.087955877874
 31
0.0
  0
LINE
  5
36F
102
{ACAD_REACTORS
330
3F1
330
3F2
102
}
330
71
100
AcDbEntity
  8
0
  6
Continuous
 62
     2
100
AcDbLine
 10
-979.9396383515007
 20
-1162.087955877874
 30
0.0
 11
-979.1285393140272
 21
-1162.087955877874
 31
0.0
  0
LINE
  5
370
102
{ACAD_REACTORS
330
3F1
330
3F2
102
}
330
71
100
AcDbEntity
  8
0
  6
Continuous
 62
     2
100
AcDbLine
 10
-979.1285393140272
 20
-1162.087955877874
 30
0.0
 11
-979.1285393140272
 21
-1161.302690571751
 31
0.0
  0
LINE
  5
371
102
{ACAD_REACTORS
330
3F1
330
3F2
102
}
330
71
100
AcDbEntity
  8
0
  6
Continuous
 62
     2
100
AcDbLine
 10
-982.5134848326559
 20
-1161.302690571751
 30
0.0
 11
-979.1285393140272
 21
-1161.302690571751
 31
0.0
  0
LINE
  5
372
102
{ACAD_REACTORS
330
3F1
330
3F2
102
}
330
71
100
AcDbEntity
  8
0
  6
Continuous
 62
     2
100
AcDbLine
 10
-981.1324310536684
 20
-1162.087955877874
 30
0.0
 11
-981.1324310536684
 21
-1164.356500095562
 31
0.0
  0
LINE
  5
373
102
{ACAD_REACTORS
330
3F3
330
3F4
102
}
330
71
100
AcDbEntity
  8
0
  6
Continuous
 62
     2
100
AcDbLine
 10
-1003.761917489147
 20
-1162.377619945997
 30
0.0
 11
-1003.761917489147
 21
-1161.795768539302
 31
0.0
  0
LINE
  5
374
102
{ACAD_REACTORS
330
3F3
330
3F4
102
}
330
71
100
AcDbEntity
  8
0
  6
Continuous
 62
     2
100
AcDbLine
 10
-1003.761917489147
 20
-1159.577485339366
 30
0.0
 11
-1003.761917489147
 21
-1158.971950050859
 31
0.0
  0
LINE
  5
375
330
71
100
AcDbEntity
  8
1
  6
Continuous
 62
     6
100
AcDbLine
 10
-925.2317389045443
 20
-1171.650000095578
 30
0.0
 11
-881.7317389045444
 21
-1171.650000095578
 31
0.0
  0
LINE
  5
376
330
71
100
AcDbEntity
  8
1
  6
Continuous
 62
     6
100
AcDbLine
 10
-975.2317389045443
 20
-1171.650000095578
 30
0.0
 11
-993.0765434312943
 21
-1171.650000095578
 31
0.0
  0
LINE
  5
377
330
71
100
AcDbEntity
  8
1
  6
Continuous
 62
     6
100
AcDbLine
 10
-1011.276543431294
 20
-1154.650000095578
 30
0.0
 11
-974.8765434312943
 21
-1154.650000095578
 31
0.0
  0
LINE
  5
378
330
71
100
AcDbEntity
  8
1
  6
Continuous
 62
     6
100
AcDbLine
 10
-881.7317389045444
 20
-1171.650000095578
 30
0.0
 11
-881.731738904543
 21
-1163.150000095578
 31
0.0
  0
LINE
  5
379
330
71
100
AcDbEntity
  8
1
  6
Continuous
 62
     6
100
AcDbLine
 10
-974.8765434312943
 20
-1171.650000095578
 30
0.0
 11
-925.2317389045443
 21
-1171.650000095578
 31
0.0
  0
LINE
  5
37A
330
71
100
AcDbEntity
  8
1
  6
Continuous
 62
     7
100
AcDbLine
 10
-1011.276543431294
 20
-1154.650000095578
 30
0.0
 11
-1011.276543431294
 21
-1167.400000095578
 31
0.0
  0
LINE
  5
37B
330
71
100
AcDbEntity
  8
1
  6
Continuous
 62
     7
100
AcDbLine
 10
-974.8765434312943
 20
-1154.650000095578
 30
0.0
 11
-974.8765434312943
 21
-1167.400000095578
 31
0.0
  0
LINE
  5
37C
330
71
100
AcDbEntity
  8
1
  6
Continuous
 62
     6
100
AcDbLine
 10
-974.8765434312943
 20
-1171.650000095578
 30
0.0
 11
-975.2317389045443
 21
-1171.650000095578
 31
0.0
  0
LINE
  5
37D
330
71
100
AcDbEntity
  8
1
  6
Continuous
 62
     6
100
AcDbLine
 10
-881.7317389045426
 20
-1154.650000095578
 30
0.0
 11
-881.731738904543
 21
-1163.150000095578
 31
0.0
  0
LINE
  5
37E
330
71
100
AcDbEntity
  8
1
  6
Continuous
 62
     2
100
AcDbLine
 10
-1007.039888544732
 20
-1149.275000095578
 30
0.0
 11
-1002.039888544732
 21
-1148.025000095578
 31
0.0
  0
LINE
  5
37F
330
71
100
AcDbEntity
  8
1
  6
Continuous
 62
     2
100
AcDbLine
 10
-1007.039888544732
 20
-1151.775000095578
 30
0.0
 11
-1007.039888544732
 21
-1149.275000095578
 31
0.0
  0
LINE
  5
380
330
71
100
AcDbEntity
  8
1
  6
Continuous
 62
     2
100
AcDbLine
 10
-1002.039888544732
 20
-1153.025000095578
 30
0.0
 11
-1007.039888544732
 21
-1151.775000095578
 31
0.0
  0
LINE
  5
381
330
71
100
AcDbEntity
  8
1
  6
Continuous
 62
     2
100
AcDbLine
 10
-1002.039888544732
 20
-1148.025000095578
 30
0.0
 11
-1002.039888544732
 21
-1153.025000095578
 31
0.0
  0
LINE
  5
382
330
71
100
AcDbEntity
  8
1
  6
Continuous
 62
     7
100
AcDbLine
 10
-1011.276543431294
 20
-1167.400000095578
 30
0.0
 11
-993.0765434312943
 21
-1167.400000095578
 31
0.0
  0
LINE
  5
383
330
71
100
AcDbEntity
  8
1
  6
Continuous
 62
     7
100
AcDbLine
 10
-1011.276543431294
 20
-1167.400000095578
 30
0.0
 11
-1011.276543431294
 21
-1171.650000095578
 31
0.0
  0
LINE
  5
384
330
71
100
AcDbEntity
  8
1
  6
Continuous
 62
     7
100
AcDbLine
 10
-974.8765434312943
 20
-1167.400000095578
 30
0.0
 11
-974.8765434312943
 21
-1171.650000095578
 31
0.0
  0
LINE
  5
385
330
71
100
AcDbEntity
  8
1
  6
Continuous
 62
     7
100
AcDbLine
 10
-993.0765434312943
 20
-1167.400000095578
 30
0.0
 11
-993.0765434312943
 21
-1171.650000095578
 31
0.0
  0
LINE
  5
386
330
71
100
AcDbEntity
  8
1
  6
Continuous
 62
     6
100
AcDbLine
 10
-993.0765434312943
 20
-1171.650000095578
 30
0.0
 11
-1011.276543431294
 21
-1171.650000095578
 31
0.0
  0
LINE
  5
387
330
71
100
AcDbEntity
  8
1
  6
Continuous
 62
     7
100
AcDbLine
 10
-993.0765434312943
 20
-1167.400000095578
 30
0.0
 11
-974.8765434312943
 21
-1167.400000095578
 31
0.0
  0
LINE
  5
388
330
71
100
AcDbEntity
  8
1
  6
Continuous
 62
     6
100
AcDbLine
 10
-1011.276543431294
 20
-1146.150000095578
 30
0.0
 11
-881.7317389045426
 21
-1146.150000095578
 31
0.0
  0
LINE
  5
389
330
71
100
AcDbEntity
  8
1
  6
PHANTOM
 62
     2
100
AcDbLine
 10
-995.7898885447318
 20
-1150.525000095578
 30
0.0
 11
-1001.289888544732
 21
-1150.525000095578
 31
0.0
  0
LINE
  5
38A
330
71
100
AcDbEntity
  8
1
  6
PHANTOM
 62
     2
100
AcDbLine
 10
-998.5398885447318
 20
-1147.775000095578
 30
0.0
 11
-998.5398885447318
 21
-1153.275000095578
 31
0.0
  0
LINE
  5
38B
330
71
100
AcDbEntity
  8
1
  6
DOT_CENTER
 62
     2
100
AcDbLine
 10
-1007.289888544732
 20
-1150.525000095578
 30
0.0
 11
-1001.789888544732
 21
-1150.525000095578
 31
0.0
  0
ARC
  5
38C
102
{ACAD_REACTORS
330
3F7
330
3F8
102
}
330
71
100
AcDbEntity
  8
0
  6
Continuous
 62
     2
100
AcDbCircle
 10
-995.8848954323342
 20
-1162.829595333657
 30
0.0
 40
0.7717997786795957
100
AcDbArc
 50
321.8795802028306
 51
38.12041979722252
  0
ARC
  5
38D
102
{ACAD_REACTORS
330
3F7
330
3F8
102
}
330
71
100
AcDbEntity
  8
0
  6
Continuous
 62
     2
100
AcDbCircle
 10
-995.6851553959879
 20
-1162.986326511777
 30
0.0
 40
0.5179085730138424
100
AcDbArc
 50
218.1204197971879
 51
321.8795802027889
  0
ARC
  5
38E
102
{ACAD_REACTORS
330
3F7
330
3F8
102
}
330
71
100
AcDbEntity
  8
0
  6
Continuous
 62
     2
100
AcDbCircle
 10
-995.4854153596418
 20
-1162.829595333657
 30
0.0
 40
0.7717997786801571
100
AcDbArc
 50
141.8795802027775
 51
218.1204197971694
  0
ARC
  5
38F
102
{ACAD_REACTORS
330
3F7
330
3F8
102
}
330
71
100
AcDbEntity
  8
0
  6
Continuous
 62
     2
100
AcDbCircle
 10
-995.6851553959879
 20
-1162.672864155536
 30
0.0
 40
0.517908573013574
100
AcDbArc
 50
38.12041979721116
 51
141.8795802028121
  0
ARC
  5
390
102
{ACAD_REACTORS
330
3EF
330
3F0
102
}
330
71
100
AcDbEntity
  8
0
  6
Continuous
 62
     2
100
AcDbCircle
 10
-998.7471695315519
 20
-1164.240061699065
 30
0.0
 40
2.227384008973766
100
AcDbArc
 50
58.06909105003847
 51
71.55192388187184
  0
ARC
  5
391
102
{ACAD_REACTORS
330
3EF
330
3F0
102
}
330
71
100
AcDbEntity
  8
0
  6
Continuous
 62
     2
100
AcDbCircle
 10
-998.485441830593
 20
-1162.624523904317
 30
0.0
 40
0.5115800601943187
100
AcDbArc
 50
113.3722778882227
 51
151.4785267423843
  0
ARC
  5
392
102
{ACAD_REACTORS
330
3EF
330
3F0
102
}
330
71
100
AcDbEntity
  8
0
  6
Continuous
 62
     2
100
AcDbCircle
 10
-998.1080845725127
 20
-1162.829595333657
 30
0.0
 40
0.941059735333413
100
AcDbArc
 50
151.4785267422564
 51
208.521473257695
  0
ARC
  5
393
102
{ACAD_REACTORS
330
3EF
330
3F0
102
}
330
71
100
AcDbEntity
  8
0
  6
Continuous
 62
     2
100
AcDbCircle
 10
-998.9050424066446
 20
-1159.5169143884
 30
0.0
 40
4.852596863497932
100
AcDbArc
 50
275.1581447696242
 51
285.9799912583526
  0
ARC
  5
394
102
{ACAD_REACTORS
330
3EF
330
3F0
102
}
330
71
100
AcDbEntity
  8
0
  6
Continuous
 62
     2
100
AcDbCircle
 10
-998.6161863119087
 20
-1162.716804971622
 30
0.0
 40
1.639695123939526
100
AcDbArc
 50
195.061891777077
 51
275.1581447696374
  0
ARC
  5
395
102
{ACAD_REACTORS
330
3EF
330
3F0
102
}
330
71
100
AcDbEntity
  8
0
  6
Continuous
 62
     2
100
AcDbCircle
 10
-999.0353141553716
 20
-1162.829595333657
 30
0.0
 40
1.205656168391273
100
AcDbArc
 50
164.9381082228443
 51
195.0618917770722
  0
ARC
  5
396
102
{ACAD_REACTORS
330
3EF
330
3F0
102
}
330
71
100
AcDbEntity
  8
0
  6
Continuous
 62
     2
100
AcDbCircle
 10
-998.6161863119087
 20
-1162.942385695691
 30
0.0
 40
1.639695123940213
100
AcDbArc
 50
84.84185523036543
 51
164.9381082228924
  0
ARC
  5
397
102
{ACAD_REACTORS
330
3F3
330
3F4
102
}
330
71
100
AcDbEntity
  8
0
  6
Continuous
 62
     2
100
AcDbCircle
 10
-1003.446200566071
 20
-1161.795768539302
 30
0.0
 40
0.3157169230758826
100
AcDbArc
 50
115.3740086783678
 51
180.0
  0
ARC
  5
398
102
{ACAD_REACTORS
330
3F3
330
3F4
102
}
330
71
100
AcDbEntity
  8
0
  6
Continuous
 62
     2
100
AcDbCircle
 10
-1003.446200566071
 20
-1159.577485339366
 30
0.0
 40
0.3157169230760246
100
AcDbArc
 50
180.0
 51
244.6259913217205
  0
ARC
  5
399
102
{ACAD_REACTORS
330
3F3
330
3F4
102
}
330
71
100
AcDbEntity
  8
0
  6
Continuous
 62
     2
100
AcDbCircle
 10
-1003.440584430761
 20
-1160.674784998428
 30
0.0
 40
2.018561131933151
100
AcDbArc
 50
269.8110329575939
 51
90.18896704240609
  0
ARC
  5
39A
102
{ACAD_REACTORS
330
3F3
330
3F4
102
}
330
71
100
AcDbEntity
  8
0
  6
Continuous
 62
     2
100
AcDbCircle
 10
-1003.446200566071
 20
-1162.377619945997
 30
0.0
 40
0.3157169230760246
100
AcDbArc
 50
180.0
 51
269.8110329575006
  0
ARC
  5
39B
102
{ACAD_REACTORS
330
3F1
330
3F2
102
}
330
71
100
AcDbEntity
  8
0
  6
Continuous
 62
     2
100
AcDbCircle
 10
-982.3827403513401
 20
-1162.624523904317
 30
0.0
 40
0.5115800601937612
100
AcDbArc
 50
109.3371432195076
 51
151.4785267424451
  0
ARC
  5
39C
102
{ACAD_REACTORS
330
3F1
330
3F2
102
}
330
71
100
AcDbEntity
  8
0
  6
Continuous
 62
     2
100
AcDbCircle
 10
-982.3827403513401
 20
-1163.034666762995
 30
0.0
 40
0.5115800601959901
100
AcDbArc
 50
208.5214732576668
 51
246.6277221118395
  0
ARC
  5
39D
102
{ACAD_REACTORS
330
3F1
330
3F2
102
}
330
71
100
AcDbEntity
  8
0
  6
Continuous
 62
     2
100
AcDbCircle
 10
-982.9326126761175
 20
-1162.829595333657
 30
0.0
 40
1.205656168393139
100
AcDbArc
 50
164.9381082228682
 51
195.0618917770901
  0
ARC
  5
39E
102
{ACAD_REACTORS
330
3F1
330
3F2
102
}
330
71
100
AcDbEntity
  8
0
  6
Continuous
 62
     2
100
AcDbCircle
 10
-982.5134848326559
 20
-1162.942385695691
 30
0.0
 40
1.639695123939873
100
AcDbArc
 50
90.0
 51
164.9381082228985
  0
ARC
  5
39F
102
{ACAD_REACTORS
330
3F5
330
3F6
102
}
330
71
100
AcDbEntity
  8
0
  6
Continuous
 62
     2
100
AcDbCircle
 10
-991.9404799253596
 20
-1159.470404857482
 30
0.0
 40
1.526904761906053
100
AcDbArc
 50
90.0
 51
270.0
  0
ARC
  5
3A0
102
{ACAD_REACTORS
330
3F9
330
3FA
102
}
330
71
100
AcDbEntity
  8
0
  6
Continuous
 62
     2
100
AcDbCircle
 10
-998.6831706705854
 20
-1158.959469765688
 30
0.0
 40
0.3528638246709761
100
AcDbArc
 50
270.0
 51
90.0
  0
ARC
  5
3A1
102
{ACAD_REACTORS
330
3F3
330
3F4
102
}
330
71
100
AcDbEntity
  8
0
  6
Continuous
 62
     2
100
AcDbCircle
 10
-1006.021749252602
 20
-1158.971772574211
 30
0.0
 40
0.3157169230760246
100
AcDbArc
 50
90.0
 51
180.0
  0
ARC
  5
3A2
102
{ACAD_REACTORS
330
3F3
330
3F4
102
}
330
71
100
AcDbEntity
  8
0
  6
Continuous
 62
     2
100
AcDbCircle
 10
-1004.023331544018
 20
-1160.686626939334
 30
0.0
 40
0.9118975235577705
100
AcDbArc
 50
115.1944106484861
 51
244.8055893515139
  0
ARC
  5
3A3
102
{ACAD_REACTORS
330
3F3
330
3F4
102
}
330
71
100
AcDbEntity
  8
0
  6
Continuous
 62
     2
100
AcDbCircle
 10
-1004.545915991593
 20
-1161.797456685397
 30
0.0
 40
0.3157169230770478
100
AcDbArc
 50
0.0
 51
64.80558935139767
  0
ARC
  5
3A4
102
{ACAD_REACTORS
330
3F3
330
3F4
102
}
330
71
100
AcDbEntity
  8
0
  6
Continuous
 62
     2
100
AcDbCircle
 10
-1006.615643929349
 20
-1163.932255480179
 30
0.0
 40
0.4242446153830315
100
AcDbArc
 50
180.0
 51
270.0
  0
ARC
  5
3A5
102
{ACAD_REACTORS
330
3F5
330
3F6
102
}
330
71
100
AcDbEntity
  8
0
  6
Continuous
 62
     2
100
AcDbCircle
 10
-991.7242079151944
 20
-1159.313673679362
 30
0.0
 40
0.5179085730137529
100
AcDbArc
 50
38.12041979719563
 51
141.8795802028121
  0
ARC
  5
3A6
102
{ACAD_REACTORS
330
3F5
330
3F6
102
}
330
71
100
AcDbEntity
  8
0
  6
Continuous
 62
     2
100
AcDbCircle
 10
-991.5244678788481
 20
-1159.470404857482
 30
0.0
 40
0.7717997786797746
100
AcDbArc
 50
141.879580202841
 51
218.120419797159
  0
ARC
  5
3A7
102
{ACAD_REACTORS
330
3F7
330
3F8
102
}
330
71
100
AcDbEntity
  8
0
  6
Continuous
 62
     2
100
AcDbCircle
 10
-995.6851553959879
 20
-1162.291020323353
 30
0.0
 40
2.065479772208775
100
AcDbArc
 50
242.4518518243414
 51
297.5481481756838
  0
ARC
  5
3A8
102
{ACAD_REACTORS
330
3F7
330
3F8
102
}
330
71
100
AcDbEntity
  8
0
  6
Continuous
 62
     2
100
AcDbCircle
 10
-995.6851553959879
 20
-1163.368170343959
 30
0.0
 40
2.065479772208441
100
AcDbArc
 50
62.45185182430455
 51
117.5481481756703
  0
ARC
  5
3A9
102
{ACAD_REACTORS
330
3F7
330
3F8
102
}
330
71
100
AcDbEntity
  8
0
  6
Continuous
 62
     2
100
AcDbCircle
 10
-995.9660952878212
 20
-1162.829595333657
 30
0.0
 40
1.458034083651995
100
AcDbArc
 50
117.5481481756546
 51
242.4518518243289
  0
ARC
  5
3AA
102
{ACAD_REACTORS
330
3F7
330
3F8
102
}
330
71
100
AcDbEntity
  8
0
  6
Continuous
 62
     2
100
AcDbCircle
 10
-995.4042155041546
 20
-1162.829595333657
 30
0.0
 40
1.458034083651714
100
AcDbArc
 50
297.5481481757107
 51
62.4518518243058
  0
ARC
  5
3AB
102
{ACAD_REACTORS
330
3F5
330
3F6
102
}
330
71
100
AcDbEntity
  8
0
  6
Continuous
 62
     2
100
AcDbCircle
 10
-991.7242079151944
 20
-1159.627136035603
 30
0.0
 40
0.517908573013281
100
AcDbArc
 50
218.1204197971087
 51
321.8795802028835
  0
ARC
  5
3AC
102
{ACAD_REACTORS
330
3F5
330
3F6
102
}
330
71
100
AcDbEntity
  8
0
  6
Continuous
 62
     2
100
AcDbCircle
 10
-991.9239479515405
 20
-1159.470404857482
 30
0.0
 40
0.7717997786795957
100
AcDbArc
 50
321.8795802028306
 51
38.1204197971694
  0
ARC
  5
3AD
102
{ACAD_REACTORS
330
3F3
330
3F4
102
}
330
71
100
AcDbEntity
  8
0
  6
Continuous
 62
     2
100
AcDbCircle
 10
-1001.142331838632
 20
-1163.932255480179
 30
0.0
 40
0.4242446153830315
100
AcDbArc
 50
270.0
 51
0.0
  0
ARC
  5
3AE
102
{ACAD_REACTORS
330
3F3
330
3F4
102
}
330
71
100
AcDbEntity
  8
0
  6
Continuous
 62
     2
100
AcDbCircle
 10
-1001.142331838632
 20
-1158.367744710978
 30
0.0
 40
0.4242446153840547
100
AcDbArc
 50
0.0
 51
90.0
  0
ARC
  5
3AF
102
{ACAD_REACTORS
330
3F3
330
3F4
102
}
330
71
100
AcDbEntity
  8
0
  6
Continuous
 62
     2
100
AcDbCircle
 10
-1006.615643929349
 20
-1158.367744710978
 30
0.0
 40
0.4242446153841684
100
AcDbArc
 50
90.0
 51
180.0
  0
ARC
  5
3B0
102
{ACAD_REACTORS
330
3F3
330
3F4
102
}
330
71
100
AcDbEntity
  8
0
  6
Continuous
 62
     2
100
AcDbCircle
 10
-1004.545915991593
 20
-1163.328227616928
 30
0.0
 40
0.3157169230769341
100
AcDbArc
 50
270.0
 51
0.0
  0
ARC
  5
3B1
102
{ACAD_REACTORS
330
3F3
330
3F4
102
}
330
71
100
AcDbEntity
  8
0
  6
Continuous
 62
     2
100
AcDbCircle
 10
-1004.545915991593
 20
-1159.575797193272
 30
0.0
 40
0.3157169230758993
100
AcDbArc
 50
295.1944106486726
 51
0.0
  0
ARC
  5
3B2
102
{ACAD_REACTORS
330
3F3
330
3F4
102
}
330
71
100
AcDbEntity
  8
0
  6
Continuous
 62
     2
100
AcDbCircle
 10
-1004.545915991593
 20
-1158.971772574211
 30
0.0
 40
0.3157169230770478
100
AcDbArc
 50
0.0
 51
90.0
  0
ARC
  5
3B3
102
{ACAD_REACTORS
330
3F3
330
3F4
102
}
330
71
100
AcDbEntity
  8
0
  6
Continuous
 62
     2
100
AcDbCircle
 10
-1006.021749252602
 20
-1163.328227616928
 30
0.0
 40
0.3157169230759109
100
AcDbArc
 50
180.0
 51
270.0
  0
ARC
  5
3B4
102
{ACAD_REACTORS
330
3F9
330
3FA
102
}
330
71
100
AcDbEntity
  8
0
  6
Continuous
 62
     2
100
AcDbCircle
 10
-998.241698144347
 20
-1158.99886573691
 30
0.0
 40
1.055365641333992
100
AcDbArc
 50
270.0
 51
90.0
  0
ARC
  5
3B5
102
{ACAD_REACTORS
330
3F1
330
3F2
102
}
330
71
100
AcDbEntity
  8
0
  6
Continuous
 62
     2
100
AcDbCircle
 10
-982.5134848326559
 20
-1162.716804971622
 30
0.0
 40
1.639695123940421
100
AcDbArc
 50
195.0618917771015
 51
275.1581447696774
  0
ARC
  5
3B6
102
{ACAD_REACTORS
330
3F1
330
3F2
102
}
330
71
100
AcDbEntity
  8
0
  6
Continuous
 62
     2
100
AcDbCircle
 10
-982.8023409273917
 20
-1159.5169143884
 30
0.0
 40
4.852596863499167
100
AcDbArc
 50
275.1581447696363
 51
285.9799912583397
  0
ARC
  5
3B7
102
{ACAD_REACTORS
330
3F1
330
3F2
102
}
330
71
100
AcDbEntity
  8
0
  6
Continuous
 62
     2
100
AcDbCircle
 10
-982.644468052299
 20
-1161.419128968248
 30
0.0
 40
2.227384008973474
100
AcDbArc
 50
288.4480761181272
 51
301.9309089499398
  0
ARC
  5
3B8
102
{ACAD_REACTORS
330
3F1
330
3F2
102
}
330
71
100
AcDbEntity
  8
0
  6
Continuous
 62
     2
100
AcDbCircle
 10
-982.226300318637
 20
-1162.672674744285
 30
0.0
 40
0.9059297849852503
100
AcDbArc
 50
246.6277221118135
 51
288.4480761180647
  0
ARC
  5
3B9
102
{ACAD_REACTORS
330
3F1
330
3F2
102
}
330
71
100
AcDbEntity
  8
0
  6
Continuous
 62
     2
100
AcDbCircle
 10
-982.0053830932586
 20
-1162.829595333657
 30
0.0
 40
0.9410597353354108
100
AcDbArc
 50
151.4785267423225
 51
208.5214732576289
  0
ARC
  5
3BA
102
{ACAD_REACTORS
330
3F1
330
3F2
102
}
330
71
100
AcDbEntity
  8
0
  6
Continuous
 62
     2
100
AcDbCircle
 10
-982.2360703532364
 20
-1163.0424788847
 30
0.0
 40
0.9545230068258661
100
AcDbArc
 50
90.0
 51
109.3371432194401
  0
ARC
  5
3BB
102
{ACAD_REACTORS
330
3F3
330
3F4
102
}
330
71
100
AcDbEntity
  8
0
  6
Continuous
 62
     2
100
AcDbCircle
 10
-1003.446200566071
 20
-1158.971950050859
 30
0.0
 40
0.3157169230760134
100
AcDbArc
 50
90.18896704249953
 51
180.0
  0
ARC
  5
3BC
102
{ACAD_REACTORS
330
3F3
330
3F4
102
}
330
71
100
AcDbEntity
  8
0
  6
Continuous
 62
     2
100
AcDbCircle
 10
-1003.972243264159
 20
-1160.686626939334
 30
0.0
 40
0.9118481501447065
100
AcDbArc
 50
295.3740086781968
 51
64.62599132177876
  0
ARC
  5
3BD
102
{ACAD_REACTORS
330
3EF
330
3F0
102
}
330
71
100
AcDbEntity
  8
0
  6
Continuous
 62
     2
100
AcDbCircle
 10
-998.7471695315519
 20
-1161.419128968248
 30
0.0
 40
2.227384008972647
100
AcDbArc
 50
288.4480761181374
 51
301.9309089499646
  0
ARC
  5
3BE
102
{ACAD_REACTORS
330
3EF
330
3F0
102
}
330
71
100
AcDbEntity
  8
0
  6
Continuous
 62
     2
100
AcDbCircle
 10
-998.3290017978909
 20
-1162.672674744285
 30
0.0
 40
0.9059297849848895
100
AcDbArc
 50
246.6277221118663
 51
288.4480761181511
  0
ARC
  5
3BF
102
{ACAD_REACTORS
330
3EF
330
3F0
102
}
330
71
100
AcDbEntity
  8
0
  6
Continuous
 62
     2
100
AcDbCircle
 10
-998.485441830593
 20
-1163.034666762995
 30
0.0
 40
0.5115800601949912
100
AcDbArc
 50
208.5214732577276
 51
246.6277221118278
  0
ARC
  5
3C0
102
{ACAD_REACTORS
330
3EF
330
3F0
102
}
330
71
100
AcDbEntity
  8
0
  6
Continuous
 62
     2
100
AcDbCircle
 10
-998.3290017978909
 20
-1162.986515923028
 30
0.0
 40
0.9059297849857901
100
AcDbArc
 50
71.55192388186713
 51
113.3722778881337
  0
ARC
  5
3C1
102
{ACAD_REACTORS
330
3EF
330
3F0
102
}
330
71
100
AcDbEntity
  8
0
  6
Continuous
 62
     2
100
AcDbCircle
 10
-998.9050424066446
 20
-1166.142276278912
 30
0.0
 40
4.852596863497284
100
AcDbArc
 50
74.02000874164439
 51
84.84185523037584
  0
CIRCLE
  5
3C2
102
{ACAD_REACTORS
330
3F3
330
3F4
102
}
330
71
100
AcDbEntity
  8
0
  6
Continuous
 62
     2
100
AcDbCircle
 10
-1003.996058278831
 20
-1160.686626939334
 30
0.0
 40
0.4709789327780527
  0
CIRCLE
  5
3C3
330
71
100
AcDbEntity
  8
1
  6
Continuous
 62
     2
100
AcDbCircle
 10
-998.5398885447318
 20
-1150.525000095578
 30
0.0
 40
1.25
  0
CIRCLE
  5
3C4
330
71
100
AcDbEntity
  8
1
  6
Continuous
 62
     2
100
AcDbCircle
 10
-998.5398885447318
 20
-1150.525000095578
 30
0.0
 40
2.5
  0
TEXT
  5
3C5
330
71
100
AcDbEntity
  8
1
 62
     7
100
AcDbText
 10
-917.0650722378778
 20
-1175.650000095578
 30
0.0
 40
2.5
  1
6
 41
0.9
  7
CONVERTER_11
100
AcDbText
  0
TEXT
  5
3C6
330
71
100
AcDbEntity
  8
1
 62
     7
100
AcDbText
 10
-985.3984055712111
 20
-1175.650000095578
 30
0.0
 40
2.5
  1
5
 41
0.9
  7
CONVERTER_11
100
AcDbText
  0
TEXT
  5
3C7
330
71
100
AcDbEntity
  8
1
 62
     7
100
AcDbText
 10
-1053.731738904544
 20
-1175.650000095578
 30
0.0
 40
2.5
  1
4
 41
0.9
  7
CONVERTER_11
100
AcDbText
  0
TEXT
  5
3C8
330
71
100
AcDbEntity
  8
1
 62
     7
100
AcDbText
 10
-1122.065072237877
 20
-1175.650000095578
 30
0.0
 40
2.5
  1
3
 41
0.9
  7
CONVERTER_11
100
AcDbText
  0
TEXT
  5
3C9
330
71
100
AcDbEntity
  8
1
 62
     7
100
AcDbText
 10
-880.7317389045443
 20
-1144.150000095578
 30
0.0
 40
2.5
  1
E
 41
0.9
  7
CONVERTER_11
100
AcDbText
  0
TEXT
  5
3CA
330
71
100
AcDbEntity
  8
1
 62
     7
100
AcDbText
 10
-1258.731738904544
 20
-1175.650000095578
 30
0.0
 40
2.5
  1
1
 41
0.9
  7
CONVERTER_11
100
AcDbText
  0
TEXT
  5
3CB
330
71
100
AcDbEntity
  8
1
 62
     7
100
AcDbText
 10
-1190.398405571211
 20
-1175.650000095578
 30
0.0
 40
2.5
  1
2
 41
0.9
  7
CONVERTER_11
100
AcDbText
  0
TEXT
  5
3CC
330
71
100
AcDbEntity
  8
1
 62
     7
100
AcDbText
 10
-880.7317389045443
 20
-1086.750000095577
 30
0.0
 40
2.5
  1
D
 41
0.9
  7
CONVERTER_11
100
AcDbText
  0
TEXT
  5
3CD
330
71
100
AcDbEntity
  8
1
 62
     7
100
AcDbText
 10
-880.7317389045443
 20
-1029.350000095577
 30
0.0
 40
2.5
  1
C
 41
0.9
  7
CONVERTER_11
100
AcDbText
  0
TEXT
  5
3CE
330
71
100
AcDbEntity
  8
1
 62
     7
100
AcDbText
 10
-880.7317389045443
 20
-971.9500000955775
 30
0.0
 40
2.5
  1
B
 41
0.9
  7
CONVERTER_11
100
AcDbText
  0
TEXT
  5
3CF
330
71
100
AcDbEntity
  8
1
 62
     7
100
AcDbText
 10
-880.7317389045443
 20
-914.5500000955776
 30
0.0
 40
2.5
  1
A
 41
0.9
  7
CONVERTER_11
100
AcDbText
  0
TEXT
  5
3D0
330
71
100
AcDbEntity
  8
1
 62
     7
100
AcDbText
 10
-917.0650722378778
 20
-883.6500000955773
 30
0.0
 40
2.5
  1
6
 41
0.9
  7
CONVERTER_11
100
AcDbText
  0
TEXT
  5
3D1
330
71
100
AcDbEntity
  8
1
 62
     7
100
AcDbText
 10
-985.3984055712109
 20
-883.6500000955773
 30
0.0
 40
2.5
  1
5
 41
0.9
  7
CONVERTER_11
100
AcDbText
  0
TEXT
  5
3D2
330
71
100
AcDbEntity
  8
1
 62
     7
100
AcDbText
 10
-1053.731738904544
 20
-883.6500000955773
 30
0.0
 40
2.5
  1
4
 41
0.9
  7
CONVERTER_11
100
AcDbText
  0
TEXT
  5
3D3
330
71
100
AcDbEntity
  8
1
 62
     7
100
AcDbText
 10
-1122.065072237877
 20
-883.6500000955773
 30
0.0
 40
2.5
  1
3
 41
0.9
  7
CONVERTER_11
100
AcDbText
  0
TEXT
  5
3D4
330
71
100
AcDbEntity
  8
1
 62
     7
100
AcDbText
 10
-1190.398405571211
 20
-883.6500000955773
 30
0.0
 40
2.5
  1
2
 41
0.9
  7
CONVERTER_11
100
AcDbText
  0
TEXT
  5
3D5
330
71
100
AcDbEntity
  8
1
 62
     7
100
AcDbText
 10
-1258.731738904544
 20
-883.6500000955773
 30
0.0
 40
2.5
  1
1
 41
0.9
  7
CONVERTER_11
100
AcDbText
  0
TEXT
  5
3D6
330
71
100
AcDbEntity
  8
1
 62
     7
100
AcDbText
 10
-955.9029957092805
 20
-1153.350000095578
 30
0.0
 40
2.5
  1
/
 41
0.9
  7
CONVERTER_11
100
AcDbText
  0
TEXT
  5
3D8
330
71
100
AcDbEntity
  8
1
 62
     7
100
AcDbText
 10
-953.7466312122385
 20
-1153.350000095578
 30
0.0
 40
2.5
  1
00
 41
0.81
  7
CONVERTER_12
100
AcDbText
  0
TEXT
  5
3D9
330
71
100
AcDbEntity
  8
1
 62
     3
100
AcDbText
 10
-916.1501471862214
 20
-1153.350000095578
 30
0.0
 40
2.5
  1
06.04.2016
 41
0.81
  7
CONVERTER_12
100
AcDbText
  0
MTEXT
  5
3DA
330
71
100
AcDbEntity
  8
1
 62
     2
100
AcDbMText
 10
-916.1501471862214
 20
-1147.150000095578
 30
0.0
 40
1.8
 41
0.0
 71
     1
 72
     1
  1
date
  7
CONVERTER_11
 73
     1
 44
1.32052821128451
  0
MTEXT
  5
3DB
330
71
100
AcDbEntity
  8
1
 62
     2
100
AcDbMText
 10
-945.9765434312943
 20
-1155.650000095578
 30
0.0
 40
1.8
 41
0.0
 71
     1
 72
     1
  1
document-type
  7
CONVERTER_11
 73
     1
 44
1.20048019207683
  0
TEXT
  5
3DC
330
71
100
AcDbEntity
  8
1
 62
     3
100
AcDbText
 10
-945.9765434312943
 20
-1161.850000095578
 30
0.0
 40
2.5
  1
Customer drawing select
 41
0.81
  7
CONVERTER_12
100
AcDbText
  0
MTEXT
  5
3DE
330
71
100
AcDbEntity
  8
1
 62
     2
100
AcDbMText
 10
-973.7765434312944
 20
-1147.150000095578
 30
0.0
 40
1.8
 41
0.0
 71
     1
 72
     1
  1
document-No. / RI
  7
CONVERTER_13
 73
     1
 44
1.32052821128451
  0
TEXT
  5
3DF
330
71
100
AcDbEntity
  8
1
 62
     7
100
AcDbText
 10
-973.7765434312944
 20
-1153.350000095578
 30
0.0
 40
2.5
  1
00936311
 41
0.81
  7
CONVERTER_12
100
AcDbText
  0
MTEXT
  5
3E1
330
71
100
AcDbEntity
  8
1
 62
     3
100
AcDbMText
 10
-886.190943045382
 20
-1153.350000095578
 30
0.0
 40
2.5
 41
0.0
 71
     8
 72
     1
  1
1:1
  7
CONVERTER_14
 73
     1
 44
1.32052821128451
  0
MTEXT
  5
3E2
330
71
100
AcDbEntity
  8
1
 62
     2
100
AcDbMText
 10
-889.5501471862216
 20
-1147.150000095578
 30
0.0
 40
1.8
 41
0.0
 71
     1
 72
     1
  1
scale
  7
CONVERTER_11
 73
     1
 44
1.20048019207683
  0
MTEXT
  5
3E3
330
71
100
AcDbEntity
  8
1
 62
     2
100
AcDbMText
 10
-973.7765434312944
 20
-1155.650000095578
 30
0.0
 40
1.8
 41
0.0
 71
     1
 72
     1
  1
ident.-No.
  7
CONVERTER_11
 73
     1
 44
1.20048019207683
  0
TEXT
  5
3E4
330
71
100
AcDbEntity
  8
1
 62
     7
100
AcDbText
 10
-973.3765434312945
 20
-1161.850000095578
 30
0.0
 40
2.5
  1
3069055
 41
0.81
  7
CONVERTER_12
100
AcDbText
  0
MTEXT
  5
3E5
330
71
100
AcDbEntity
  8
1
 62
     2
100
AcDbMText
 10
-1045.687566700504
 20
-1158.900000095579
 30
0.0
 40
2.0
 41
0.0
 71
     5
 72
     1
  1
General Information\P- Simplified representation\P- Document excluded from change process\P- Linear dimensions [mm]
  7
CONVERTER_11
 73
     1
 44
1.20048019207683
  0
MTEXT
  5
3E6
330
71
100
AcDbEntity
  8
1
 62
     3
100
AcDbMText
 10
-985.0765434312943
 20
-1150.525000095578
 30
0.0
 40
2.5
 41
0.0
 71
     5
 72
     1
  1
DIN A3
  7
CONVERTER_11
 73
     1
 44
1.20048019207683
  0
MTEXT
  5
3E7
330
71
100
AcDbEntity
  8
1
 62
     2
100
AcDbMText
 10
-973.8765434312943
 20
-1164.150000095578
 30
0.0
 40
1.8
 41
0.0
 71
     1
 72
     1
  1
description
  7
CONVERTER_11
 73
     1
 44
1.20048019207683
  0
MTEXT
  5
3E8
330
71
100
AcDbEntity
  8
1
 62
     7
100
AcDbMText
 10
-928.3041411679188
 20
-1168.400000095578
 30
0.0
 40
3.0
 41
0.0
 71
     5
 72
     1
  1
E-UTWE 6
  7
CONVERTER_12
 73
     1
 44
1.20048019207683
  0
TEXT
  5
3E9
330
71
100
AcDbEntity
  8
1
 62
     2
100
AcDbText
 10
-986.8412346214807
 20
-1170.400000095578
 30
0.0
 40
1.8
  1
1
 41
0.9
  7
CONVERTER_11
100
AcDbText
  0
TEXT
  5
3EA
330
71
100
AcDbEntity
  8
1
 62
     2
100
AcDbText
 10
-1001.630278460952
 20
-1170.44924874938
 30
0.0
 40
1.8
  1
1
 41
0.9
  7
CONVERTER_11
100
AcDbText
  0
TEXT
  5
3EB
330
71
100
AcDbEntity
  8
1
 62
     2
100
AcDbText
 10
-1010.276543431294
 20
-1170.40901731057
 30
0.0
 40
1.8
  1
page
 41
0.9
  7
CONVERTER_11
100
AcDbText
  0
TEXT
  5
3EC
330
71
100
AcDbEntity
  8
1
 62
     2
100
AcDbText
 10
-992.0765434312945
 20
-1170.40901731057
 30
0.0
 40
1.8
  1
of
 41
0.9
  7
CONVERTER_11
100
AcDbText
  0
MTEXT
  5
3ED
330
71
100
AcDbEntity
  8
1
 62
     3
100
AcDbMText
 10
-1278.463271904285
 20
-998.6637159819238
 30
0.0
 40
1.8
 41
0.0
 71
     7
 72
     1
  3
Transfer or duplication of this document as well as the utilisation or\Pcommunication of its content are not permitted unless express consent\Pis granted. Violations give rise to claims for damages. All rights reserved\Pin case of patent, utility mo
  1
del or design patent registrations.
  7
CONVERTER_11
 11
0.0
 21
1.0
 31
0.0
 73
     1
 44
0.99639855942377
  0
MTEXT
  5
3EE
330
71
100
AcDbEntity
  8
1
 62
     3
100
AcDbMText
 10
-1278.309065593191
 20
-1171.623085996077
 30
0.0
 40
1.8
 41
0.0
 71
     7
 72
     1
  3
Weitergabe sowie Vervielf\U+00e4ltigung dieses Dokuments, Verwertung und \PMitteilung seines Inhalts sind verboten, soweit nicht ausdr\U+00fccklich gestattet. \PZuwiderhandlungen verpflichten zu Schadenersatz. Alle Rechte f\U+00fcr den Fall\Pder Pat
  1
ent-, Gebrauchsmuster- oder Designeintragung vorbehalten.
  7
CONVERTER_11
 11
0.0
 21
1.0
 31
0.0
 73
     1
 44
0.99639855942377
  0
HATCH
  5
3EF
330
71
100
AcDbEntity
  8
1
  6
Continuous
 62
     2
100
AcDbHatch
 10
0.0
 20
0.0
 30
0.0
210
0.0
220
0.0
230
1.0
  2
CUSTOM0
 70
     0
 71
     1
 91
        1
 92
        1
 93
       14
 72
     2
 10
-999.0353141553716
 20
-1162.829595333657
 40
1.205656168391273
 50
164.9381082228443
 51
195.0618917770722
 73
     1
 72
     2
 10
-998.6161863119087
 20
-1162.716804971622
 40
1.639695123939526
 50
195.061891777077
 51
275.1581447696374
 73
     1
 72
     2
 10
-998.9050424066446
 20
-1159.5169143884
 40
4.852596863497932
 50
275.1581447696242
 51
285.9799912583526
 73
     1
 72
     1
 10
-997.5691144895268
 20
-1164.181996694201
 11
-997.5691144895268
 21
-1163.309479687398
 72
     2
 10
-998.7471695315519
 20
-1161.419128968248
 40
2.227384008972647
 50
58.06909105003535
 51
71.5519238818626
 73
     0
 72
     2
 10
-998.3290017978909
 20
-1162.672674744285
 40
0.9059297849848895
 50
71.55192388184892
 51
113.3722778881337
 73
     0
 72
     2
 10
-998.485441830593
 20
-1163.034666762995
 40
0.5115800601949912
 50
113.3722778881722
 51
151.4785267422724
 73
     0
 72
     2
 10
-998.1080845725127
 20
-1162.829595333657
 40
0.941059735333413
 50
151.478526742305
 51
208.5214732577436
 73
     0
 72
     2
 10
-998.485441830593
 20
-1162.624523904317
 40
0.5115800601943187
 50
208.5214732576157
 51
246.6277221117773
 73
     0
 72
     2
 10
-998.3290017978909
 20
-1162.986515923028
 40
0.9059297849857901
 50
246.6277221118663
 51
288.4480761181329
 73
     0
 72
     2
 10
-998.7471695315519
 20
-1164.240061699065
 40
2.227384008973766
 50
288.4480761181281
 51
301.9309089499615
 73
     0
 72
     1
 10
-997.5691144895268
 20
-1162.349710979915
 11
-997.5691144895268
 21
-1161.477193973112
 72
     2
 10
-998.9050424066446
 20
-1166.142276278912
 40
4.852596863497284
 50
74.02000874164439
 51
84.84185523037584
 73
     1
 72
     2
 10
-998.6161863119087
 20
-1162.942385695691
 40
1.639695123940213
 50
84.84185523036543
 51
164.9381082228924
 73
     1
 97
       14
330
3C1
330
30A
330
390
330
3C0
330
391
330
392
330
3BF
330
3BE
330
3BD
330
30B
330
393
330
394
330
395
330
396
 75
     1
 76
     2
 52
45.0
 41
0.1
 77
     0
 78
     1
 53
45.0
 43
62.7811309658083
 44
-72.3161373035813
 45
-0.1414213562373095
 46
0.0
 79
     0
 98
        1
 10
0.0
 20
0.0
  0
HATCH
  5
3F0
330
71
100
AcDbEntity
  8
1
  6
Continuous
 62
     2
100
AcDbHatch
 10
0.0
 20
0.0
 30
0.0
210
0.0
220
0.0
230
1.0
  2
CUSTOM1
 70
     0
 71
     1
 91
        1
 92
        1
 93
       14
 72
     2
 10
-999.0353141553716
 20
-1162.829595333657
 40
1.205656168391273
 50
164.9381082228443
 51
195.0618917770722
 73
     1
 72
     2
 10
-998.6161863119087
 20
-1162.716804971622
 40
1.639695123939526
 50
195.061891777077
 51
275.1581447696374
 73
     1
 72
     2
 10
-998.9050424066446
 20
-1159.5169143884
 40
4.852596863497932
 50
275.1581447696242
 51
285.9799912583526
 73
     1
 72
     1
 10
-997.5691144895268
 20
-1164.181996694201
 11
-997.5691144895268
 21
-1163.309479687398
 72
     2
 10
-998.7471695315519
 20
-1161.419128968248
 40
2.227384008972647
 50
58.06909105003535
 51
71.5519238818626
 73
     0
 72
     2
 10
-998.3290017978909
 20
-1162.672674744285
 40
0.9059297849848895
 50
71.55192388184892
 51
113.3722778881337
 73
     0
 72
     2
 10
-998.485441830593
 20
-1163.034666762995
 40
0.5115800601949912
 50
113.3722778881722
 51
151.4785267422724
 73
     0
 72
     2
 10
-998.1080845725127
 20
-1162.829595333657
 40
0.941059735333413
 50
151.478526742305
 51
208.5214732577436
 73
     0
 72
     2
 10
-998.485441830593
 20
-1162.624523904317
 40
0.5115800601943187
 50
208.5214732576157
 51
246.6277221117773
 73
     0
 72
     2
 10
-998.3290017978909
 20
-1162.986515923028
 40
0.9059297849857901
 50
246.6277221118663
 51
288.4480761181329
 73
     0
 72
     2
 10
-998.7471695315519
 20
-1164.240061699065
 40
2.227384008973766
 50
288.4480761181281
 51
301.9309089499615
 73
     0
 72
     1
 10
-997.5691144895268
 20
-1162.349710979915
 11
-997.5691144895268
 21
-1161.477193973112
 72
     2
 10
-998.9050424066446
 20
-1166.142276278912
 40
4.852596863497284
 50
74.02000874164439
 51
84.84185523037584
 73
     1
 72
     2
 10
-998.6161863119087
 20
-1162.942385695691
 40
1.639695123940213
 50
84.84185523036543
 51
164.9381082228924
 73
     1
 97
       14
330
3C1
330
30A
330
390
330
3C0
330
391
330
392
330
3BF
330
3BE
330
3BD
330
30B
330
393
330
394
330
395
330
396
 75
     1
 76
     2
 52
45.0
 41
0.1
 77
     0
 78
     1
 53
45.0
 43
62.7811309658083
 44
-72.3161373035813
 45
-0.1414213562373095
 46
0.0
 79
     0
 98
        1
 10
0.0
 20
0.0
  0
HATCH
  5
3F1
330
71
100
AcDbEntity
  8
1
  6
Continuous
 62
     2
100
AcDbHatch
 10
0.0
 20
0.0
 30
0.0
210
0.0
220
0.0
230
1.0
  2
CUSTOM2
 70
     0
 71
     1
 91
        1
 92
        1
 93
       18
 72
     2
 10
-982.5134848326559
 20
-1162.942385695691
 40
1.639695123939873
 50
90.0
 51
164.9381082228985
 73
     1
 72
     2
 10
-982.9326126761175
 20
-1162.829595333657
 40
1.205656168393139
 50
164.9381082228682
 51
195.0618917770901
 73
     1
 72
     2
 10
-982.5134848326559
 20
-1162.716804971622
 40
1.639695123940421
 50
195.0618917771015
 51
275.1581447696774
 73
     1
 72
     2
 10
-982.8023409273917
 20
-1159.5169143884
 40
4.852596863499167
 50
275.1581447696363
 51
285.9799912583397
 73
     1
 72
     1
 10
-981.466413010275
 20
-1164.181996694201
 11
-981.466413010275
 21
-1163.309479687398
 72
     2
 10
-982.644468052299
 20
-1161.419128968248
 40
2.227384008973474
 50
58.06909105006019
 51
71.55192388187278
 73
     0
 72
     2
 10
-982.226300318637
 20
-1162.672674744285
 40
0.9059297849852503
 50
71.55192388193531
 51
113.3722778881865
 73
     0
 72
     2
 10
-982.3827403513401
 20
-1163.034666762995
 40
0.5115800601959901
 50
113.3722778881605
 51
151.4785267423332
 73
     0
 72
     2
 10
-982.0053830932586
 20
-1162.829595333657
 40
0.9410597353354108
 50
151.4785267423711
 51
208.5214732576775
 73
     0
 72
     2
 10
-982.3827403513401
 20
-1162.624523904317
 40
0.5115800601937612
 50
208.5214732575549
 51
250.6628567804924
 73
     0
 72
     2
 10
-982.2360703532364
 20
-1163.0424788847
 40
0.9545230068258661
 50
250.6628567805599
 51
270.0
 73
     0
 72
     1
 10
-982.2360703532364
 20
-1162.087955877874
 11
-981.1324310536684
 21
-1162.087955877874
 72
     1
 10
-981.1324310536684
 20
-1162.087955877874
 11
-981.1324310536684
 21
-1164.356500095562
 72
     1
 10
-981.1324310536684
 20
-1164.356500095562
 11
-979.9396383515007
 21
-1164.356500095562
 72
     1
 10
-979.9396383515007
 20
-1164.356500095562
 11
-979.9396383515007
 21
-1162.087955877874
 72
     1
 10
-979.9396383515007
 20
-1162.087955877874
 11
-979.1285393140272
 21
-1162.087955877874
 72
     1
 10
-979.1285393140272
 20
-1162.087955877874
 11
-979.1285393140272
 21
-1161.302690571751
 72
     1
 10
-979.1285393140272
 20
-1161.302690571751
 11
-982.5134848326559
 21
-1161.302690571751
 97
       18
330
370
330
36F
330
36E
330
36D
330
372
330
30C
330
3BA
330
39B
330
3B9
330
39C
330
3B8
330
3B7
330
30D
330
3B6
330
3B5
330
39D
330
39E
330
371
 75
     1
 76
     2
 52
45.0
 41
0.1
 77
     0
 78
     1
 53
45.0
 43
62.7811309658083
 44
-72.3161373035813
 45
-0.1414213562373095
 46
0.0
 79
     0
 98
        1
 10
0.0
 20
0.0
  0
HATCH
  5
3F2
330
71
100
AcDbEntity
  8
1
  6
Continuous
 62
     2
100
AcDbHatch
 10
0.0
 20
0.0
 30
0.0
210
0.0
220
0.0
230
1.0
  2
CUSTOM3
 70
     0
 71
     1
 91
        1
 92
        1
 93
       18
 72
     2
 10
-982.5134848326559
 20
-1162.942385695691
 40
1.639695123939873
 50
90.0
 51
164.9381082228985
 73
     1
 72
     2
 10
-982.9326126761175
 20
-1162.829595333657
 40
1.205656168393139
 50
164.9381082228682
 51
195.0618917770901
 73
     1
 72
     2
 10
-982.5134848326559
 20
-1162.716804971622
 40
1.639695123940421
 50
195.0618917771015
 51
275.1581447696774
 73
     1
 72
     2
 10
-982.8023409273917
 20
-1159.5169143884
 40
4.852596863499167
 50
275.1581447696363
 51
285.9799912583397
 73
     1
 72
     1
 10
-981.466413010275
 20
-1164.181996694201
 11
-981.466413010275
 21
-1163.309479687398
 72
     2
 10
-982.644468052299
 20
-1161.419128968248
 40
2.227384008973474
 50
58.06909105006019
 51
71.55192388187278
 73
     0
 72
     2
 10
-982.226300318637
 20
-1162.672674744285
 40
0.9059297849852503
 50
71.55192388193531
 51
113.3722778881865
 73
     0
 72
     2
 10
-982.3827403513401
 20
-1163.034666762995
 40
0.5115800601959901
 50
113.3722778881605
 51
151.4785267423332
 73
     0
 72
     2
 10
-982.0053830932586
 20
-1162.829595333657
 40
0.9410597353354108
 50
151.4785267423711
 51
208.5214732576775
 73
     0
 72
     2
 10
-982.3827403513401
 20
-1162.624523904317
 40
0.5115800601937612
 50
208.5214732575549
 51
250.6628567804924
 73
     0
 72
     2
 10
-982.2360703532364
 20
-1163.0424788847
 40
0.9545230068258661
 50
250.6628567805599
 51
270.0
 73
     0
 72
     1
 10
-982.2360703532364
 20
-1162.087955877874
 11
-981.1324310536684
 21
-1162.087955877874
 72
     1
 10
-981.1324310536684
 20
-1162.087955877874
 11
-981.1324310536684
 21
-1164.356500095562
 72
     1
 10
-981.1324310536684
 20
-1164.356500095562
 11
-979.9396383515007
 21
-1164.356500095562
 72
     1
 10
-979.9396383515007
 20
-1164.356500095562
 11
-979.9396383515007
 21
-1162.087955877874
 72
     1
 10
-979.9396383515007
 20
-1162.087955877874
 11
-979.1285393140272
 21
-1162.087955877874
 72
     1
 10
-979.1285393140272
 20
-1162.087955877874
 11
-979.1285393140272
 21
-1161.302690571751
 72
     1
 10
-979.1285393140272
 20
-1161.302690571751
 11
-982.5134848326559
 21
-1161.302690571751
 97
       18
330
370
330
36F
330
36E
330
36D
330
372
330
30C
330
3BA
330
39B
330
3B9
330
39C
330
3B8
330
3B7
330
30D
330
3B6
330
3B5
330
39D
330
39E
330
371
 75
     1
 76
     2
 52
45.0
 41
0.1
 77
     0
 78
     1
 53
45.0
 43
62.7811309658083
 44
-72.3161373035813
 45
-0.1414213562373095
 46
0.0
 79
     0
 98
        1
 10
0.0
 20
0.0
  0
HATCH
  5
3F3
330
71
100
AcDbEntity
  8
1
  6
Continuous
 62
     2
100
AcDbHatch
 10
0.0
 20
0.0
 30
0.0
210
0.0
220
0.0
230
1.0
  2
CUSTOM4
 70
     0
 71
     1
 91
        4
 92
        1
 93
        8
 72
     2
 10
-1006.615643929349
 20
-1158.367744710978
 40
0.4242446153841684
 50
90.0
 51
180.0
 73
     1
 72
     1
 10
-1007.039888544732
 20
-1158.367744710978
 11
-1007.039888544732
 21
-1163.932255480179
 72
     2
 10
-1006.615643929349
 20
-1163.932255480179
 40
0.4242446153830315
 50
180.0
 51
270.0
 73
     1
 72
     1
 10
-1006.615643929349
 20
-1164.356500095562
 11
-1001.142331838632
 21
-1164.356500095562
 72
     2
 10
-1001.142331838632
 20
-1163.932255480179
 40
0.4242446153830315
 50
270.0
 51
360.0
 73
     1
 72
     1
 10
-1000.718087223248
 20
-1163.932255480179
 11
-1000.718087223248
 21
-1158.367744710978
 72
     2
 10
-1001.142331838632
 20
-1158.367744710978
 40
0.4242446153840547
 50
0.0
 51
90.0
 73
     1
 72
     1
 10
-1001.142331838632
 20
-1157.943500095594
 11
-1006.615643929349
 21
-1157.943500095594
 97
        8
330
3AE
330
33B
330
3AD
330
33C
330
3A4
330
339
330
3AF
330
33A
 92
       16
 93
       12
 72
     1
 10
-1006.021749252602
 20
-1163.643944540005
 11
-1004.545915991593
 21
-1163.643944540005
 72
     2
 10
-1004.545915991593
 20
-1163.328227616928
 40
0.3157169230769341
 50
270.0
 51
360.0
 73
     1
 72
     1
 10
-1004.230199068516
 20
-1163.328227616928
 11
-1004.230199068516
 21
-1161.797456685397
 72
     2
 10
-1004.545915991593
 20
-1161.797456685397
 40
0.3157169230770478
 50
0.0
 51
64.80558935139767
 73
     1
 72
     2
 10
-1004.023331544018
 20
-1160.686626939334
 40
0.9118975235577705
 50
115.1944106484861
 51
244.8055893515139
 73
     0
 72
     2
 10
-1004.545915991593
 20
-1159.575797193272
 40
0.3157169230758993
 50
295.1944106486726
 51
360.0
 73
     1
 72
     1
 10
-1004.230199068516
 20
-1159.575797193272
 11
-1004.230199068516
 21
-1158.971772574211
 72
     2
 10
-1004.545915991593
 20
-1158.971772574211
 40
0.3157169230770478
 50
0.0
 51
90.0
 73
     1
 72
     1
 10
-1004.545915991593
 20
-1158.656055651135
 11
-1006.021749252602
 21
-1158.656055651135
 72
     2
 10
-1006.021749252602
 20
-1158.971772574211
 40
0.3157169230760246
 50
90.0
 51
180.0
 73
     1
 72
     1
 10
-1006.337466175678
 20
-1158.971772574211
 11
-1006.337466175678
 21
-1163.328227616928
 72
     2
 10
-1006.021749252602
 20
-1163.328227616928
 40
0.3157169230759109
 50
180.0
 51
270.0
 73
     1
 97
       12
330
340
330
3A1
330
33F
330
3B2
330
33E
330
3B1
330
3A2
330
3A3
330
33D
330
3B0
330
338
330
3B3
 92
       16
 93
        8
 72
     2
 10
-1003.972243264159
 20
-1160.686626939334
 40
0.9118481501447065
 50
295.3740086781968
 51
424.6259913217788
 73
     1
 72
     2
 10
-1003.446200566071
 20
-1159.577485339366
 40
0.3157169230760246
 50
115.3740086782795
 51
180.0
 73
     0
 72
     1
 10
-1003.761917489147
 20
-1159.577485339366
 11
-1003.761917489147
 21
-1158.971950050859
 72
     2
 10
-1003.446200566071
 20
-1158.971950050859
 40
0.3157169230760134
 50
180.0
 51
269.8110329575005
 73
     0
 72
     2
 10
-1003.440584430761
 20
-1160.674784998428
 40
2.018561131933151
 50
269.8110329575939
 51
450.1889670424061
 73
     0
 72
     2
 10
-1003.446200566071
 20
-1162.377619945997
 40
0.3157169230760246
 50
90.18896704249939
 51
180.0
 73
     0
 72
     1
 10
-1003.761917489147
 20
-1162.377619945997
 11
-1003.761917489147
 21
-1161.795768539302
 72
     2
 10
-1003.446200566071
 20
-1161.795768539302
 40
0.3157169230758826
 50
180.0
 51
244.6259913216321
 73
     0
 97
        8
330
3BC
330
398
330
374
330
3BB
330
399
330
39A
330
373
330
397
 92
       16
 93
        1
 72
     2
 10
-1003.996058278831
 20
-1160.686626939334
 40
0.4709789327780527
 50
0.0
 51
360.0
 73
     1
 97
        1
330
3C2
 75
     1
 76
     2
 52
45.0
 41
0.1
 77
     0
 78
     1
 53
45.0
 43
62.7811309658083
 44
-72.3161373035813
 45
-0.1414213562373095
 46
0.0
 79
     0
 98
        1
 10
0.0
 20
0.0
  0
HATCH
  5
3F4
330
71
100
AcDbEntity
  8
1
  6
Continuous
 62
     2
100
AcDbHatch
 10
0.0
 20
0.0
 30
0.0
210
0.0
220
0.0
230
1.0
  2
CUSTOM5
 70
     0
 71
     1
 91
        4
 92
        1
 93
        8
 72
     2
 10
-1006.615643929349
 20
-1158.367744710978
 40
0.4242446153841684
 50
90.0
 51
180.0
 73
     1
 72
     1
 10
-1007.039888544732
 20
-1158.367744710978
 11
-1007.039888544732
 21
-1163.932255480179
 72
     2
 10
-1006.615643929349
 20
-1163.932255480179
 40
0.4242446153830315
 50
180.0
 51
270.0
 73
     1
 72
     1
 10
-1006.615643929349
 20
-1164.356500095562
 11
-1001.142331838632
 21
-1164.356500095562
 72
     2
 10
-1001.142331838632
 20
-1163.932255480179
 40
0.4242446153830315
 50
270.0
 51
360.0
 73
     1
 72
     1
 10
-1000.718087223248
 20
-1163.932255480179
 11
-1000.718087223248
 21
-1158.367744710978
 72
     2
 10
-1001.142331838632
 20
-1158.367744710978
 40
0.4242446153840547
 50
0.0
 51
90.0
 73
     1
 72
     1
 10
-1001.142331838632
 20
-1157.943500095594
 11
-1006.615643929349
 21
-1157.943500095594
 97
        8
330
3AE
330
33B
330
3AD
330
33C
330
3A4
330
339
330
3AF
330
33A
 92
       16
 93
       12
 72
     1
 10
-1006.021749252602
 20
-1163.643944540005
 11
-1004.545915991593
 21
-1163.643944540005
 72
     2
 10
-1004.545915991593
 20
-1163.328227616928
 40
0.3157169230769341
 50
270.0
 51
360.0
 73
     1
 72
     1
 10
-1004.230199068516
 20
-1163.328227616928
 11
-1004.230199068516
 21
-1161.797456685397
 72
     2
 10
-1004.545915991593
 20
-1161.797456685397
 40
0.3157169230770478
 50
0.0
 51
64.80558935139767
 73
     1
 72
     2
 10
-1004.023331544018
 20
-1160.686626939334
 40
0.9118975235577705
 50
115.1944106484861
 51
244.8055893515139
 73
     0
 72
     2
 10
-1004.545915991593
 20
-1159.575797193272
 40
0.3157169230758993
 50
295.1944106486726
 51
360.0
 73
     1
 72
     1
 10
-1004.230199068516
 20
-1159.575797193272
 11
-1004.230199068516
 21
-1158.971772574211
 72
     2
 10
-1004.545915991593
 20
-1158.971772574211
 40
0.3157169230770478
 50
0.0
 51
90.0
 73
     1
 72
     1
 10
-1004.545915991593
 20
-1158.656055651135
 11
-1006.021749252602
 21
-1158.656055651135
 72
     2
 10
-1006.021749252602
 20
-1158.971772574211
 40
0.3157169230760246
 50
90.0
 51
180.0
 73
     1
 72
     1
 10
-1006.337466175678
 20
-1158.971772574211
 11
-1006.337466175678
 21
-1163.328227616928
 72
     2
 10
-1006.021749252602
 20
-1163.328227616928
 40
0.3157169230759109
 50
180.0
 51
270.0
 73
     1
 97
       12
330
340
330
3A1
330
33F
330
3B2
330
33E
330
3B1
330
3A2
330
3A3
330
33D
330
3B0
330
338
330
3B3
 92
       16
 93
        8
 72
     2
 10
-1003.972243264159
 20
-1160.686626939334
 40
0.9118481501447065
 50
295.3740086781968
 51
424.6259913217788
 73
     1
 72
     2
 10
-1003.446200566071
 20
-1159.577485339366
 40
0.3157169230760246
 50
115.3740086782795
 51
180.0
 73
     0
 72
     1
 10
-1003.761917489147
 20
-1159.577485339366
 11
-1003.761917489147
 21
-1158.971950050859
 72
     2
 10
-1003.446200566071
 20
-1158.971950050859
 40
0.3157169230760134
 50
180.0
 51
269.8110329575005
 73
     0
 72
     2
 10
-1003.440584430761
 20
-1160.674784998428
 40
2.018561131933151
 50
269.8110329575939
 51
450.1889670424061
 73
     0
 72
     2
 10
-1003.446200566071
 20
-1162.377619945997
 40
0.3157169230760246
 50
90.18896704249939
 51
180.0
 73
     0
 72
     1
 10
-1003.761917489147
 20
-1162.377619945997
 11
-1003.761917489147
 21
-1161.795768539302
 72
     2
 10
-1003.446200566071
 20
-1161.795768539302
 40
0.3157169230758826
 50
180.0
 51
244.6259913216321
 73
     0
 97
        8
330
3BC
330
398
330
374
330
3BB
330
399
330
39A
330
373
330
397
 92
       16
 93
        1
 72
     2
 10
-1003.996058278831
 20
-1160.686626939334
 40
0.4709789327780527
 50
0.0
 51
360.0
 73
     1
 97
        1
330
3C2
 75
     1
 76
     2
 52
45.0
 41
0.1
 77
     0
 78
     1
 53
45.0
 43
62.7811309658083
 44
-72.3161373035813
 45
-0.1414213562373095
 46
0.0
 79
     0
 98
        1
 10
0.0
 20
0.0
  0
HATCH
  5
3F5
330
71
100
AcDbEntity
  8
1
  6
Continuous
 62
     2
100
AcDbHatch
 10
0.0
 20
0.0
 30
0.0
210
0.0
220
0.0
230
1.0
  2
CUSTOM6
 70
     0
 71
     1
 91
        2
 92
        1
 93
       12
 72
     2
 10
-991.9404799253596
 20
-1159.470404857482
 40
1.526904761906053
 50
90.0
 51
270.0
 73
     1
 72
     1
 10
-991.9404799253596
 20
-1160.997309619387
 11
-988.7901602015786
 21
-1160.997309619387
 72
     1
 10
-988.7901602015786
 20
-1160.997309619387
 11
-988.7901602015786
 21
-1160.299296013945
 72
     1
 10
-988.7901602015786
 20
-1160.299296013945
 11
-990.1260880280063
 21
-1160.299296013945
 72
     1
 10
-990.1260880280063
 20
-1160.299296013945
 11
-990.1260880280063
 21
-1159.819411660203
 72
     1
 10
-990.1260880280063
 20
-1159.819411660203
 11
-988.7901602015786
 21
-1159.819411660203
 72
     1
 10
-988.7901602015786
 20
-1159.819411660203
 11
-988.7901602015786
 21
-1159.121398054761
 72
     1
 10
-988.7901602015786
 20
-1159.121398054761
 11
-990.1260880280063
 21
-1159.121398054761
 72
     1
 10
-990.1260880280063
 20
-1159.121398054761
 11
-990.1260880280063
 21
-1158.641513701019
 72
     1
 10
-990.1260880280063
 20
-1158.641513701019
 11
-988.7901602015786
 21
-1158.641513701019
 72
     1
 10
-988.7901602015786
 20
-1158.641513701019
 11
-988.7901602015786
 21
-1157.943500095576
 72
     1
 10
-988.7901602015786
 20
-1157.943500095576
 11
-991.9404799253596
 21
-1157.943500095576
 97
       12
330
32F
330
329
330
350
330
34F
330
34E
330
34D
330
32A
330
32B
330
32C
330
32D
330
39F
330
32E
 92
       16
 93
        4
 72
     2
 10
-991.5244678788481
 20
-1159.470404857482
 40
0.7717997786797746
 50
141.879580202841
 51
218.120419797159
 73
     1
 72
     2
 10
-991.7242079151944
 20
-1159.627136035603
 40
0.517908573013281
 50
218.1204197971087
 51
321.8795802028835
 73
     1
 72
     2
 10
-991.9239479515405
 20
-1159.470404857482
 40
0.7717997786795957
 50
321.8795802028306
 51
398.1204197971695
 73
     1
 72
     2
 10
-991.7242079151944
 20
-1159.313673679362
 40
0.5179085730137529
 50
38.12041979719563
 51
141.8795802028121
 73
     1
 97
        4
330
3AC
330
3AB
330
3A6
330
3A5
 75
     1
 76
     2
 52
45.0
 41
0.1
 77
     0
 78
     1
 53
45.0
 43
62.7811309658083
 44
-72.3161373035813
 45
-0.1414213562373095
 46
0.0
 79
     0
 98
        1
 10
0.0
 20
0.0
  0
HATCH
  5
3F6
330
71
100
AcDbEntity
  8
1
  6
Continuous
 62
     2
100
AcDbHatch
 10
0.0
 20
0.0
 30
0.0
210
0.0
220
0.0
230
1.0
  2
CUSTOM7
 70
     0
 71
     1
 91
        2
 92
        1
 93
       12
 72
     2
 10
-991.9404799253596
 20
-1159.470404857482
 40
1.526904761906053
 50
90.0
 51
270.0
 73
     1
 72
     1
 10
-991.9404799253596
 20
-1160.997309619387
 11
-988.7901602015786
 21
-1160.997309619387
 72
     1
 10
-988.7901602015786
 20
-1160.997309619387
 11
-988.7901602015786
 21
-1160.299296013945
 72
     1
 10
-988.7901602015786
 20
-1160.299296013945
 11
-990.1260880280063
 21
-1160.299296013945
 72
     1
 10
-990.1260880280063
 20
-1160.299296013945
 11
-990.1260880280063
 21
-1159.819411660203
 72
     1
 10
-990.1260880280063
 20
-1159.819411660203
 11
-988.7901602015786
 21
-1159.819411660203
 72
     1
 10
-988.7901602015786
 20
-1159.819411660203
 11
-988.7901602015786
 21
-1159.121398054761
 72
     1
 10
-988.7901602015786
 20
-1159.121398054761
 11
-990.1260880280063
 21
-1159.121398054761
 72
     1
 10
-990.1260880280063
 20
-1159.121398054761
 11
-990.1260880280063
 21
-1158.641513701019
 72
     1
 10
-990.1260880280063
 20
-1158.641513701019
 11
-988.7901602015786
 21
-1158.641513701019
 72
     1
 10
-988.7901602015786
 20
-1158.641513701019
 11
-988.7901602015786
 21
-1157.943500095576
 72
     1
 10
-988.7901602015786
 20
-1157.943500095576
 11
-991.9404799253596
 21
-1157.943500095576
 97
       12
330
32F
330
329
330
350
330
34F
330
34E
330
34D
330
32A
330
32B
330
32C
330
32D
330
39F
330
32E
 92
       16
 93
        4
 72
     2
 10
-991.5244678788481
 20
-1159.470404857482
 40
0.7717997786797746
 50
141.879580202841
 51
218.120419797159
 73
     1
 72
     2
 10
-991.7242079151944
 20
-1159.627136035603
 40
0.517908573013281
 50
218.1204197971087
 51
321.8795802028835
 73
     1
 72
     2
 10
-991.9239479515405
 20
-1159.470404857482
 40
0.7717997786795957
 50
321.8795802028306
 51
398.1204197971695
 73
     1
 72
     2
 10
-991.7242079151944
 20
-1159.313673679362
 40
0.5179085730137529
 50
38.12041979719563
 51
141.8795802028121
 73
     1
 97
        4
330
3AC
330
3AB
330
3A6
330
3A5
 75
     1
 76
     2
 52
45.0
 41
0.1
 77
     0
 78
     1
 53
45.0
 43
62.7811309658083
 44
-72.3161373035813
 45
-0.1414213562373095
 46
0.0
 79
     0
 98
        1
 10
0.0
 20
0.0
  0
HATCH
  5
3F7
330
71
100
AcDbEntity
  8
1
  6
Continuous
 62
     2
100
AcDbHatch
 10
0.0
 20
0.0
 30
0.0
210
0.0
220
0.0
230
1.0
  2
CUSTOM8
 70
     0
 71
     1
 91
        2
 92
        1
 93
        4
 72
     2
 10
-995.9660952878212
 20
-1162.829595333657
 40
1.458034083651995
 50
117.5481481756546
 51
242.4518518243289
 73
     1
 72
     2
 10
-995.6851553959879
 20
-1162.291020323353
 40
2.065479772208775
 50
242.4518518243414
 51
297.5481481756838
 73
     1
 72
     2
 10
-995.4042155041546
 20
-1162.829595333657
 40
1.458034083651714
 50
297.5481481757107
 51
422.4518518243058
 73
     1
 72
     2
 10
-995.6851553959879
 20
-1163.368170343959
 40
2.065479772208441
 50
62.45185182430455
 51
117.5481481756703
 73
     1
 97
        4
330
3AA
330
3A7
330
3A9
330
3A8
 92
       16
 93
        4
 72
     2
 10
-995.6851553959879
 20
-1162.672864155536
 40
0.517908573013574
 50
38.12041979721116
 51
141.8795802028121
 73
     1
 72
     2
 10
-995.4854153596418
 20
-1162.829595333657
 40
0.7717997786801571
 50
141.8795802027775
 51
218.1204197971694
 73
     1
 72
     2
 10
-995.6851553959879
 20
-1162.986326511777
 40
0.5179085730138424
 50
218.1204197971879
 51
321.8795802027889
 73
     1
 72
     2
 10
-995.8848954323342
 20
-1162.829595333657
 40
0.7717997786795957
 50
321.8795802028306
 51
398.1204197972225
 73
     1
 97
        4
330
38D
330
38E
330
38F
330
38C
 75
     1
 76
     2
 52
45.0
 41
0.1
 77
     0
 78
     1
 53
45.0
 43
62.7811309658083
 44
-72.3161373035813
 45
-0.1414213562373095
 46
0.0
 79
     0
 98
        1
 10
0.0
 20
0.0
  0
HATCH
  5
3F8
330
71
100
AcDbEntity
  8
1
  6
Continuous
 62
     2
100
AcDbHatch
 10
0.0
 20
0.0
 30
0.0
210
0.0
220
0.0
230
1.0
  2
CUSTOM9
 70
     0
 71
     1
 91
        2
 92
        1
 93
        4
 72
     2
 10
-995.9660952878212
 20
-1162.829595333657
 40
1.458034083651995
 50
117.5481481756546
 51
242.4518518243289
 73
     1
 72
     2
 10
-995.6851553959879
 20
-1162.291020323353
 40
2.065479772208775
 50
242.4518518243414
 51
297.5481481756838
 73
     1
 72
     2
 10
-995.4042155041546
 20
-1162.829595333657
 40
1.458034083651714
 50
297.5481481757107
 51
422.4518518243058
 73
     1
 72
     2
 10
-995.6851553959879
 20
-1163.368170343959
 40
2.065479772208441
 50
62.45185182430455
 51
117.5481481756703
 73
     1
 97
        4
330
3AA
330
3A7
330
3A9
330
3A8
 92
       16
 93
        4
 72
     2
 10
-995.6851553959879
 20
-1162.672864155536
 40
0.517908573013574
 50
38.12041979721116
 51
141.8795802028121
 73
     1
 72
     2
 10
-995.4854153596418
 20
-1162.829595333657
 40
0.7717997786801571
 50
141.8795802027775
 51
218.1204197971694
 73
     1
 72
     2
 10
-995.6851553959879
 20
-1162.986326511777
 40
0.5179085730138424
 50
218.1204197971879
 51
321.8795802027889
 73
     1
 72
     2
 10
-995.8848954323342
 20
-1162.829595333657
 40
0.7717997786795957
 50
321.8795802028306
 51
398.1204197972225
 73
     1
 97
        4
330
38D
330
38E
330
38F
330
38C
 75
     1
 76
     2
 52
45.0
 41
0.1
 77
     0
 78
     1
 53
45.0
 43
62.7811309658083
 44
-72.3161373035813
 45
-0.1414213562373095
 46
0.0
 79
     0
 98
        1
 10
0.0
 20
0.0
  0
HATCH
  5
3F9
330
71
100
AcDbEntity
  8
1
  6
Continuous
 62
     2
100
AcDbHatch
 10
0.0
 20
0.0
 30
0.0
210
0.0
220
0.0
230
1.0
  2
CUSTOM10
 70
     0
 71
     1
 91
        2
 92
        1
 93
        6
 72
     1
 10
-1000.240970142381
 20
-1157.943500095576
 11
-1000.240970142381
 21
-1160.997309619387
 72
     1
 10
-1000.240970142381
 20
-1160.997309619387
 11
-999.0004657321274
 21
-1160.997309619387
 72
     1
 10
-999.0004657321274
 20
-1160.997309619387
 11
-999.0004657321274
 21
-1160.054231378244
 72
     1
 10
-999.0004657321274
 20
-1160.054231378244
 11
-998.241698144347
 21
-1160.054231378244
 72
     2
 10
-998.241698144347
 20
-1158.99886573691
 40
1.055365641333992
 50
270.0
 51
450.0
 73
     1
 72
     1
 10
-998.241698144347
 20
-1157.943500095576
 11
-1000.240970142381
 21
-1157.943500095576
 97
        6
330
3B4
330
341
330
337
330
336
330
343
330
342
 92
       16
 93
        4
 72
     1
 10
-998.6831706705854
 20
-1158.606605941016
 11
-999.0004657321274
 21
-1158.606605941016
 72
     1
 10
-999.0004657321274
 20
-1158.606605941016
 11
-999.0004657321274
 21
-1159.312333590359
 72
     1
 10
-999.0004657321274
 20
-1159.312333590359
 11
-998.6831706705854
 21
-1159.312333590359
 72
     2
 10
-998.6831706705854
 20
-1158.959469765688
 40
0.3528638246709761
 50
270.0
 51
450.0
 73
     1
 97
        4
330
344
330
335
330
345
330
3A0
 75
     1
 76
     2
 52
45.0
 41
0.1
 77
     0
 78
     1
 53
45.0
 43
62.7811309658083
 44
-72.3161373035813
 45
-0.1414213562373095
 46
0.0
 79
     0
 98
        1
 10
0.0
 20
0.0
  0
HATCH
  5
3FA
330
71
100
AcDbEntity
  8
1
  6
Continuous
 62
     2
100
AcDbHatch
 10
0.0
 20
0.0
 30
0.0
210
0.0
220
0.0
230
1.0
  2
CUSTOM11
 70
     0
 71
     1
 91
        2
 92
        1
 93
        6
 72
     1
 10
-1000.240970142381
 20
-1157.943500095576
 11
-1000.240970142381
 21
-1160.997309619387
 72
     1
 10
-1000.240970142381
 20
-1160.997309619387
 11
-999.0004657321274
 21
-1160.997309619387
 72
     1
 10
-999.0004657321274
 20
-1160.997309619387
 11
-999.0004657321274
 21
-1160.054231378244
 72
     1
 10
-999.0004657321274
 20
-1160.054231378244
 11
-998.241698144347
 21
-1160.054231378244
 72
     2
 10
-998.241698144347
 20
-1158.99886573691
 40
1.055365641333992
 50
270.0
 51
450.0
 73
     1
 72
     1
 10
-998.241698144347
 20
-1157.943500095576
 11
-1000.240970142381
 21
-1157.943500095576
 97
        6
330
3B4
330
341
330
337
330
336
330
343
330
342
 92
       16
 93
        4
 72
     1
 10
-998.6831706705854
 20
-1158.606605941016
 11
-999.0004657321274
 21
-1158.606605941016
 72
     1
 10
-999.0004657321274
 20
-1158.606605941016
 11
-999.0004657321274
 21
-1159.312333590359
 72
     1
 10
-999.0004657321274
 20
-1159.312333590359
 11
-998.6831706705854
 21
-1159.312333590359
 72
     2
 10
-998.6831706705854
 20
-1158.959469765688
 40
0.3528638246709761
 50
270.0
 51
450.0
 73
     1
 97
        4
330
344
330
335
330
345
330
3A0
 75
     1
 76
     2
 52
45.0
 41
0.1
 77
     0
 78
     1
 53
45.0
 43
62.7811309658083
 44
-72.3161373035813
 45
-0.1414213562373095
 46
0.0
 79
     0
 98
        1
 10
0.0
 20
0.0
  0
HATCH
  5
3FB
330
71
100
AcDbEntity
  8
1
  6
Continuous
 62
     2
100
AcDbHatch
 10
0.0
 20
0.0
 30
0.0
210
0.0
220
0.0
230
1.0
  2
CUSTOM12
 70
     0
 71
     1
 91
        1
 92
        1
 93
       12
 72
     1
 10
-980.6266869479482
 20
-1157.943500095576
 11
-979.2239627302009
 21
-1157.943500095576
 72
     1
 10
-979.2239627302009
 20
-1157.943500095576
 11
-980.5264923609675
 21
-1159.416450625613
 72
     1
 10
-980.5264923609675
 20
-1159.416450625613
 11
-979.1285393140272
 21
-1160.997309619387
 72
     1
 10
-979.1285393140272
 20
-1160.997309619387
 11
-980.5312635317755
 21
-1160.997309619387
 72
     1
 10
-980.5312635317755
 20
-1160.997309619387
 11
-981.227854469841
 21
-1160.209577834094
 72
     1
 10
-981.227854469841
 20
-1160.209577834094
 11
-981.9244454079068
 21
-1160.997309619387
 72
     1
 10
-981.9244454079068
 20
-1160.997309619387
 11
-983.3271696256548
 21
-1160.997309619387
 72
     1
 10
-983.3271696256548
 20
-1160.997309619387
 11
-981.9292165787145
 21
-1159.416450625613
 72
     1
 10
-981.9292165787145
 20
-1159.416450625613
 11
-983.231746209482
 21
-1157.943500095576
 72
     1
 10
-983.231746209482
 20
-1157.943500095576
 11
-981.8290219917328
 21
-1157.943500095576
 72
     1
 10
-981.8290219917328
 20
-1157.943500095576
 11
-981.227854469841
 21
-1158.623323417132
 72
     1
 10
-981.227854469841
 20
-1158.623323417132
 11
-980.6266869479482
 21
-1157.943500095576
 97
       12
330
310
330
369
330
368
330
367
330
366
330
311
330
312
330
30E
330
30F
330
36C
330
36B
330
36A
 75
     1
 76
     2
 52
45.0
 41
0.1
 77
     0
 78
     1
 53
45.0
 43
62.7811309658083
 44
-72.3161373035813
 45
-0.1414213562373095
 46
0.0
 79
     0
 98
        1
 10
0.0
 20
0.0
  0
HATCH
  5
3FC
330
71
100
AcDbEntity
  8
1
  6
Continuous
 62
     2
100
AcDbHatch
 10
0.0
 20
0.0
 30
0.0
210
0.0
220
0.0
230
1.0
  2
CUSTOM13
 70
     0
 71
     1
 91
        1
 92
        1
 93
       12
 72
     1
 10
-980.6266869479482
 20
-1157.943500095576
 11
-979.2239627302009
 21
-1157.943500095576
 72
     1
 10
-979.2239627302009
 20
-1157.943500095576
 11
-980.5264923609675
 21
-1159.416450625613
 72
     1
 10
-980.5264923609675
 20
-1159.416450625613
 11
-979.1285393140272
 21
-1160.997309619387
 72
     1
 10
-979.1285393140272
 20
-1160.997309619387
 11
-980.5312635317755
 21
-1160.997309619387
 72
     1
 10
-980.5312635317755
 20
-1160.997309619387
 11
-981.227854469841
 21
-1160.209577834094
 72
     1
 10
-981.227854469841
 20
-1160.209577834094
 11
-981.9244454079068
 21
-1160.997309619387
 72
     1
 10
-981.9244454079068
 20
-1160.997309619387
 11
-983.3271696256548
 21
-1160.997309619387
 72
     1
 10
-983.3271696256548
 20
-1160.997309619387
 11
-981.9292165787145
 21
-1159.416450625613
 72
     1
 10
-981.9292165787145
 20
-1159.416450625613
 11
-983.231746209482
 21
-1157.943500095576
 72
     1
 10
-983.231746209482
 20
-1157.943500095576
 11
-981.8290219917328
 21
-1157.943500095576
 72
     1
 10
-981.8290219917328
 20
-1157.943500095576
 11
-981.227854469841
 21
-1158.623323417132
 72
     1
 10
-981.227854469841
 20
-1158.623323417132
 11
-980.6266869479482
 21
-1157.943500095576
 97
       12
330
310
330
369
330
368
330
367
330
366
330
311
330
312
330
30E
330
30F
330
36C
330
36B
330
36A
 75
     1
 76
     2
 52
45.0
 41
0.1
 77
     0
 78
     1
 53
45.0
 43
62.7811309658083
 44
-72.3161373035813
 45
-0.1414213562373095
 46
0.0
 79
     0
 98
        1
 10
0.0
 20
0.0
  0
HATCH
  5
3FD
330
71
100
AcDbEntity
  8
1
  6
Continuous
 62
     2
100
AcDbHatch
 10
0.0
 20
0.0
 30
0.0
210
0.0
220
0.0
230
1.0
  2
CUSTOM14
 70
     0
 71
     1
 91
        1
 92
        1
 93
        4
 72
     1
 10
-983.4464488958718
 20
-1157.943500095576
 11
-983.4464488958718
 21
-1160.997309619387
 72
     1
 10
-983.4464488958718
 20
-1160.997309619387
 11
-984.6869533061247
 21
-1160.997309619387
 72
     1
 10
-984.6869533061247
 20
-1160.997309619387
 11
-984.6869533061247
 21
-1157.943500095576
 72
     1
 10
-984.6869533061247
 20
-1157.943500095576
 11
-983.4464488958718
 21
-1157.943500095576
 97
        4
330
364
330
313
330
363
330
365
 75
     1
 76
     2
 52
45.0
 41
0.1
 77
     0
 78
     1
 53
45.0
 43
62.7811309658083
 44
-72.3161373035813
 45
-0.1414213562373095
 46
0.0
 79
     0
 98
        1
 10
0.0
 20
0.0
  0
HATCH
  5
3FE
330
71
100
AcDbEntity
  8
1
  6
Continuous
 62
     2
100
AcDbHatch
 10
0.0
 20
0.0
 30
0.0
210
0.0
220
0.0
230
1.0
  2
CUSTOM15
 70
     0
 71
     1
 91
        1
 92
        1
 93
        4
 72
     1
 10
-983.4464488958718
 20
-1157.943500095576
 11
-983.4464488958718
 21
-1160.997309619387
 72
     1
 10
-983.4464488958718
 20
-1160.997309619387
 11
-984.6869533061247
 21
-1160.997309619387
 72
     1
 10
-984.6869533061247
 20
-1160.997309619387
 11
-984.6869533061247
 21
-1157.943500095576
 72
     1
 10
-984.6869533061247
 20
-1157.943500095576
 11
-983.4464488958718
 21
-1157.943500095576
 97
        4
330
364
330
313
330
363
330
365
 75
     1
 76
     2
 52
45.0
 41
0.1
 77
     0
 78
     1
 53
45.0
 43
62.7811309658083
 44
-72.3161373035813
 45
-0.1414213562373095
 46
0.0
 79
     0
 98
        1
 10
0.0
 20
0.0
  0
HATCH
  5
3FF
330
71
100
AcDbEntity
  8
1
  6
Continuous
 62
     2
100
AcDbHatch
 10
0.0
 20
0.0
 30
0.0
210
0.0
220
0.0
230
1.0
  2
CUSTOM16
 70
     0
 71
     1
 91
        2
 92
        1
 93
        8
 72
     1
 10
-983.8368928994038
 20
-1164.356500095562
 11
-985.0773973096576
 21
-1164.356500095562
 72
     1
 10
-985.0773973096576
 20
-1164.356500095562
 11
-985.2888773631335
 21
-1163.815539551344
 72
     1
 10
-985.2888773631335
 20
-1163.815539551344
 11
-986.4213189398074
 21
-1163.815539551344
 72
     1
 10
-986.4213189398074
 20
-1163.815539551344
 11
-986.6327989932831
 21
-1164.356500095562
 72
     1
 10
-986.6327989932831
 20
-1164.356500095562
 11
-987.873303403536
 21
-1164.356500095562
 72
     1
 10
-987.873303403536
 20
-1164.356500095562
 11
-986.4753503565969
 21
-1161.302690571751
 72
     1
 10
-986.4753503565969
 20
-1161.302690571751
 11
-985.234845946344
 21
-1161.302690571751
 72
     1
 10
-985.234845946344
 20
-1161.302690571751
 11
-983.8368928994038
 21
-1164.356500095562
 97
        8
330
35F
330
319
330
35E
330
361
330
316
330
360
330
317
330
318
 92
       16
 93
        3
 72
     1
 10
-986.1552633886622
 20
-1163.134976286037
 11
-985.5549329142798
 21
-1163.134976286037
 72
     1
 10
-985.5549329142798
 20
-1163.134976286037
 11
-985.85509815147
 21
-1162.367161320051
 72
     1
 10
-985.85509815147
 20
-1162.367161320051
 11
-986.1552633886622
 21
-1163.134976286037
 97
        3
330
315
330
314
330
362
 75
     1
 76
     2
 52
45.0
 41
0.1
 77
     0
 78
     1
 53
45.0
 43
62.7811309658083
 44
-72.3161373035813
 45
-0.1414213562373095
 46
0.0
 79
     0
 98
        1
 10
0.0
 20
0.0
  0
HATCH
  5
400
330
71
100
AcDbEntity
  8
1
  6
Continuous
 62
     2
100
AcDbHatch
 10
0.0
 20
0.0
 30
0.0
210
0.0
220
0.0
230
1.0
  2
CUSTOM17
 70
     0
 71
     1
 91
        2
 92
        1
 93
        8
 72
     1
 10
-983.8368928994038
 20
-1164.356500095562
 11
-985.0773973096576
 21
-1164.356500095562
 72
     1
 10
-985.0773973096576
 20
-1164.356500095562
 11
-985.2888773631335
 21
-1163.815539551344
 72
     1
 10
-985.2888773631335
 20
-1163.815539551344
 11
-986.4213189398074
 21
-1163.815539551344
 72
     1
 10
-986.4213189398074
 20
-1163.815539551344
 11
-986.6327989932831
 21
-1164.356500095562
 72
     1
 10
-986.6327989932831
 20
-1164.356500095562
 11
-987.873303403536
 21
-1164.356500095562
 72
     1
 10
-987.873303403536
 20
-1164.356500095562
 11
-986.4753503565969
 21
-1161.302690571751
 72
     1
 10
-986.4753503565969
 20
-1161.302690571751
 11
-985.234845946344
 21
-1161.302690571751
 72
     1
 10
-985.234845946344
 20
-1161.302690571751
 11
-983.8368928994038
 21
-1164.356500095562
 97
        8
330
35F
330
319
330
35E
330
361
330
316
330
360
330
317
330
318
 92
       16
 93
        3
 72
     1
 10
-986.1552633886622
 20
-1163.134976286037
 11
-985.5549329142798
 21
-1163.134976286037
 72
     1
 10
-985.5549329142798
 20
-1163.134976286037
 11
-985.85509815147
 21
-1162.367161320051
 72
     1
 10
-985.85509815147
 20
-1162.367161320051
 11
-986.1552633886622
 21
-1163.134976286037
 97
        3
330
315
330
314
330
362
 75
     1
 76
     2
 52
45.0
 41
0.1
 77
     0
 78
     1
 53
45.0
 43
62.7811309658083
 44
-72.3161373035813
 45
-0.1414213562373095
 46
0.0
 79
     0
 98
        1
 10
0.0
 20
0.0
  0
HATCH
  5
401
330
71
100
AcDbEntity
  8
1
  6
Continuous
 62
     2
100
AcDbHatch
 10
0.0
 20
0.0
 30
0.0
210
0.0
220
0.0
230
1.0
  2
CUSTOM18
 70
     0
 71
     1
 91
        1
 92
        1
 93
        8
 72
     1
 10
-990.0308155427183
 20
-1161.302690571751
 11
-990.0308155427183
 21
-1162.087955877874
 72
     1
 10
-990.0308155427183
 20
-1162.087955877874
 11
-989.2197165052437
 21
-1162.087955877874
 72
     1
 10
-989.2197165052437
 20
-1162.087955877874
 11
-989.2197165052437
 21
-1164.356500095562
 72
     1
 10
-989.2197165052437
 20
-1164.356500095562
 11
-988.0269238030772
 21
-1164.356500095562
 72
     1
 10
-988.0269238030772
 20
-1164.356500095562
 11
-988.0269238030772
 21
-1162.087955877874
 72
     1
 10
-988.0269238030772
 20
-1162.087955877874
 11
-987.2158247656046
 21
-1162.087955877874
 72
     1
 10
-987.2158247656046
 20
-1162.087955877874
 11
-987.2158247656046
 21
-1161.302690571751
 72
     1
 10
-987.2158247656046
 20
-1161.302690571751
 11
-990.0308155427183
 21
-1161.302690571751
 97
        8
330
35B
330
35A
330
359
330
31A
330
31B
330
35D
330
31C
330
35C
 75
     1
 76
     2
 52
45.0
 41
0.1
 77
     0
 78
     1
 53
45.0
 43
62.7811309658083
 44
-72.3161373035813
 45
-0.1414213562373095
 46
0.0
 79
     0
 98
        1
 10
0.0
 20
0.0
  0
HATCH
  5
402
330
71
100
AcDbEntity
  8
1
  6
Continuous
 62
     2
100
AcDbHatch
 10
0.0
 20
0.0
 30
0.0
210
0.0
220
0.0
230
1.0
  2
CUSTOM19
 70
     0
 71
     1
 91
        1
 92
        1
 93
        8
 72
     1
 10
-990.0308155427183
 20
-1161.302690571751
 11
-990.0308155427183
 21
-1162.087955877874
 72
     1
 10
-990.0308155427183
 20
-1162.087955877874
 11
-989.2197165052437
 21
-1162.087955877874
 72
     1
 10
-989.2197165052437
 20
-1162.087955877874
 11
-989.2197165052437
 21
-1164.356500095562
 72
     1
 10
-989.2197165052437
 20
-1164.356500095562
 11
-988.0269238030772
 21
-1164.356500095562
 72
     1
 10
-988.0269238030772
 20
-1164.356500095562
 11
-988.0269238030772
 21
-1162.087955877874
 72
     1
 10
-988.0269238030772
 20
-1162.087955877874
 11
-987.2158247656046
 21
-1162.087955877874
 72
     1
 10
-987.2158247656046
 20
-1162.087955877874
 11
-987.2158247656046
 21
-1161.302690571751
 72
     1
 10
-987.2158247656046
 20
-1161.302690571751
 11
-990.0308155427183
 21
-1161.302690571751
 97
        8
330
35B
330
35A
330
359
330
31A
330
31B
330
35D
330
31C
330
35C
 75
     1
 76
     2
 52
45.0
 41
0.1
 77
     0
 78
     1
 53
45.0
 43
62.7811309658083
 44
-72.3161373035813
 45
-0.1414213562373095
 46
0.0
 79
     0
 98
        1
 10
0.0
 20
0.0
  0
HATCH
  5
403
330
71
100
AcDbEntity
  8
1
  6
Continuous
 62
     2
100
AcDbHatch
 10
0.0
 20
0.0
 30
0.0
210
0.0
220
0.0
230
1.0
  2
CUSTOM20
 70
     0
 71
     1
 91
        1
 92
        1
 93
       10
 72
     1
 10
-987.3588089589792
 20
-1157.943500095576
 11
-988.5516016611457
 21
-1157.943500095576
 72
     1
 10
-988.5516016611457
 20
-1157.943500095576
 11
-988.5516016611457
 21
-1160.997309619387
 72
     1
 10
-988.5516016611457
 20
-1160.997309619387
 11
-987.3588089589792
 21
-1160.997309619387
 72
     1
 10
-987.3588089589792
 20
-1160.997309619387
 11
-987.3588089589792
 21
-1159.688534109183
 72
     1
 10
-987.3588089589792
 20
-1159.688534109183
 11
-986.1183045487252
 21
-1160.997309619387
 72
     1
 10
-986.1183045487252
 20
-1160.997309619387
 11
-984.9255118465585
 21
-1160.997309619387
 72
     1
 10
-984.9255118465585
 20
-1160.997309619387
 11
-984.9255118465585
 21
-1157.943500095576
 72
     1
 10
-984.9255118465585
 20
-1157.943500095576
 11
-986.1183045487252
 21
-1157.943500095576
 72
     1
 10
-986.1183045487252
 20
-1157.943500095576
 11
-986.1183045487252
 21
-1159.252275605782
 72
     1
 10
-986.1183045487252
 20
-1159.252275605782
 11
-987.3588089589792
 21
-1157.943500095576
 97
       10
330
355
330
31F
330
320
330
321
330
322
330
358
330
31D
330
357
330
356
330
31E
 75
     1
 76
     2
 52
45.0
 41
0.1
 77
     0
 78
     1
 53
45.0
 43
62.7811309658083
 44
-72.3161373035813
 45
-0.1414213562373095
 46
0.0
 79
     0
 98
        1
 10
0.0
 20
0.0
  0
HATCH
  5
404
330
71
100
AcDbEntity
  8
1
  6
Continuous
 62
     2
100
AcDbHatch
 10
0.0
 20
0.0
 30
0.0
210
0.0
220
0.0
230
1.0
  2
CUSTOM21
 70
     0
 71
     1
 91
        1
 92
        1
 93
       10
 72
     1
 10
-987.3588089589792
 20
-1157.943500095576
 11
-988.5516016611457
 21
-1157.943500095576
 72
     1
 10
-988.5516016611457
 20
-1157.943500095576
 11
-988.5516016611457
 21
-1160.997309619387
 72
     1
 10
-988.5516016611457
 20
-1160.997309619387
 11
-987.3588089589792
 21
-1160.997309619387
 72
     1
 10
-987.3588089589792
 20
-1160.997309619387
 11
-987.3588089589792
 21
-1159.688534109183
 72
     1
 10
-987.3588089589792
 20
-1159.688534109183
 11
-986.1183045487252
 21
-1160.997309619387
 72
     1
 10
-986.1183045487252
 20
-1160.997309619387
 11
-984.9255118465585
 21
-1160.997309619387
 72
     1
 10
-984.9255118465585
 20
-1160.997309619387
 11
-984.9255118465585
 21
-1157.943500095576
 72
     1
 10
-984.9255118465585
 20
-1157.943500095576
 11
-986.1183045487252
 21
-1157.943500095576
 72
     1
 10
-986.1183045487252
 20
-1157.943500095576
 11
-986.1183045487252
 21
-1159.252275605782
 72
     1
 10
-986.1183045487252
 20
-1159.252275605782
 11
-987.3588089589792
 21
-1157.943500095576
 97
       10
330
355
330
31F
330
320
330
321
330
322
330
358
330
31D
330
357
330
356
330
31E
 75
     1
 76
     2
 52
45.0
 41
0.1
 77
     0
 78
     1
 53
45.0
 43
62.7811309658083
 44
-72.3161373035813
 45
-0.1414213562373095
 46
0.0
 79
     0
 98
        1
 10
0.0
 20
0.0
  0
HATCH
  5
405
330
71
100
AcDbEntity
  8
1
  6
Continuous
 62
     2
100
AcDbHatch
 10
0.0
 20
0.0
 30
0.0
210
0.0
220
0.0
230
1.0
  2
CUSTOM22
 70
     0
 71
     1
 91
        1
 92
        1
 93
       10
 72
     1
 10
-992.6072477793978
 20
-1161.302690571751
 11
-993.8000404815654
 21
-1161.302690571751
 72
     1
 10
-993.8000404815654
 20
-1161.302690571751
 11
-993.8000404815654
 21
-1164.356500095562
 72
     1
 10
-993.8000404815654
 20
-1164.356500095562
 11
-992.6072477793978
 21
-1164.356500095562
 72
     1
 10
-992.6072477793978
 20
-1164.356500095562
 11
-992.6072477793978
 21
-1163.047724585357
 72
     1
 10
-992.6072477793978
 20
-1163.047724585357
 11
-991.3667433691448
 21
-1164.356500095562
 72
     1
 10
-991.3667433691448
 20
-1164.356500095562
 11
-990.1739506669785
 21
-1164.356500095562
 72
     1
 10
-990.1739506669785
 20
-1164.356500095562
 11
-990.1739506669785
 21
-1161.302690571751
 72
     1
 10
-990.1739506669785
 20
-1161.302690571751
 11
-991.3667433691448
 21
-1161.302690571751
 72
     1
 10
-991.3667433691448
 20
-1161.302690571751
 11
-991.3667433691448
 21
-1162.611466081956
 72
     1
 10
-991.3667433691448
 20
-1162.611466081956
 11
-992.6072477793978
 21
-1161.302690571751
 97
       10
330
324
330
325
330
326
330
352
330
327
330
328
330
351
330
354
330
353
330
323
 75
     1
 76
     2
 52
45.0
 41
0.1
 77
     0
 78
     1
 53
45.0
 43
62.7811309658083
 44
-72.3161373035813
 45
-0.1414213562373095
 46
0.0
 79
     0
 98
        1
 10
0.0
 20
0.0
  0
HATCH
  5
406
330
71
100
AcDbEntity
  8
1
  6
Continuous
 62
     2
100
AcDbHatch
 10
0.0
 20
0.0
 30
0.0
210
0.0
220
0.0
230
1.0
  2
CUSTOM23
 70
     0
 71
     1
 91
        1
 92
        1
 93
       10
 72
     1
 10
-992.6072477793978
 20
-1161.302690571751
 11
-993.8000404815654
 21
-1161.302690571751
 72
     1
 10
-993.8000404815654
 20
-1161.302690571751
 11
-993.8000404815654
 21
-1164.356500095562
 72
     1
 10
-993.8000404815654
 20
-1164.356500095562
 11
-992.6072477793978
 21
-1164.356500095562
 72
     1
 10
-992.6072477793978
 20
-1164.356500095562
 11
-992.6072477793978
 21
-1163.047724585357
 72
     1
 10
-992.6072477793978
 20
-1163.047724585357
 11
-991.3667433691448
 21
-1164.356500095562
 72
     1
 10
-991.3667433691448
 20
-1164.356500095562
 11
-990.1739506669785
 21
-1164.356500095562
 72
     1
 10
-990.1739506669785
 20
-1164.356500095562
 11
-990.1739506669785
 21
-1161.302690571751
 72
     1
 10
-990.1739506669785
 20
-1161.302690571751
 11
-991.3667433691448
 21
-1161.302690571751
 72
     1
 10
-991.3667433691448
 20
-1161.302690571751
 11
-991.3667433691448
 21
-1162.611466081956
 72
     1
 10
-991.3667433691448
 20
-1162.611466081956
 11
-992.6072477793978
 21
-1161.302690571751
 97
       10
330
324
330
325
330
326
330
352
330
327
330
328
330
351
330
354
330
353
330
323
 75
     1
 76
     2
 52
45.0
 41
0.1
 77
     0
 78
     1
 53
45.0
 43
62.7811309658083
 44
-72.3161373035813
 45
-0.1414213562373095
 46
0.0
 79
     0
 98
        1
 10
0.0
 20
0.0
  0
HATCH
  5
407
330
71
100
AcDbEntity
  8
1
  6
Continuous
 62
     2
100
AcDbHatch
 10
0.0
 20
0.0
 30
0.0
210
0.0
220
0.0
230
1.0
  2
CUSTOM24
 70
     0
 71
     1
 91
        1
 92
        1
 93
       12
 72
     1
 10
-993.6090427183332
 20
-1157.943500095576
 11
-993.6090427183332
 21
-1160.997309619387
 72
     1
 10
-993.6090427183332
 20
-1160.997309619387
 11
-994.8018354204996
 21
-1160.997309619387
 72
     1
 10
-994.8018354204996
 20
-1160.997309619387
 11
-994.8018354204996
 21
-1159.863037510544
 72
     1
 10
-994.8018354204996
 20
-1159.863037510544
 11
-995.851492998407
 21
-1159.863037510544
 72
     1
 10
-995.851492998407
 20
-1159.863037510544
 11
-995.851492998407
 21
-1160.997309619387
 72
     1
 10
-995.851492998407
 20
-1160.997309619387
 11
-997.0442857005736
 21
-1160.997309619387
 72
     1
 10
-997.0442857005736
 20
-1160.997309619387
 11
-997.0442857005736
 21
-1157.943500095576
 72
     1
 10
-997.0442857005736
 20
-1157.943500095576
 11
-995.851492998407
 21
-1157.943500095576
 72
     1
 10
-995.851492998407
 20
-1157.943500095576
 11
-995.851492998407
 21
-1159.012333428911
 72
     1
 10
-995.851492998407
 20
-1159.012333428911
 11
-994.8018354204996
 21
-1159.012333428911
 72
     1
 10
-994.8018354204996
 20
-1159.012333428911
 11
-994.8018354204996
 21
-1157.943500095576
 72
     1
 10
-994.8018354204996
 20
-1157.943500095576
 11
-993.6090427183332
 21
-1157.943500095576
 97
       12
330
34C
330
34B
330
34A
330
332
330
333
330
349
330
334
330
348
330
347
330
346
330
330
330
331
 75
     1
 76
     2
 52
45.0
 41
0.1
 77
     0
 78
     1
 53
45.0
 43
62.7811309658083
 44
-72.3161373035813
 45
-0.1414213562373095
 46
0.0
 79
     0
 98
        1
 10
0.0
 20
0.0
  0
HATCH
  5
408
330
71
100
AcDbEntity
  8
1
  6
Continuous
 62
     2
100
AcDbHatch
 10
0.0
 20
0.0
 30
0.0
210
0.0
220
0.0
230
1.0
  2
CUSTOM25
 70
     0
 71
     1
 91
        1
 92
        1
 93
       12
 72
     1
 10
-993.6090427183332
 20
-1157.943500095576
 11
-993.6090427183332
 21
-1160.997309619387
 72
     1
 10
-993.6090427183332
 20
-1160.997309619387
 11
-994.8018354204996
 21
-1160.997309619387
 72
     1
 10
-994.8018354204996
 20
-1160.997309619387
 11
-994.8018354204996
 21
-1159.863037510544
 72
     1
 10
-994.8018354204996
 20
-1159.863037510544
 11
-995.851492998407
 21
-1159.863037510544
 72
     1
 10
-995.851492998407
 20
-1159.863037510544
 11
-995.851492998407
 21
-1160.997309619387
 72
     1
 10
-995.851492998407
 20
-1160.997309619387
 11
-997.0442857005736
 21
-1160.997309619387
 72
     1
 10
-997.0442857005736
 20
-1160.997309619387
 11
-997.0442857005736
 21
-1157.943500095576
 72
     1
 10
-997.0442857005736
 20
-1157.943500095576
 11
-995.851492998407
 21
-1157.943500095576
 72
     1
 10
-995.851492998407
 20
-1157.943500095576
 11
-995.851492998407
 21
-1159.012333428911
 72
     1
 10
-995.851492998407
 20
-1159.012333428911
 11
-994.8018354204996
 21
-1159.012333428911
 72
     1
 10
-994.8018354204996
 20
-1159.012333428911
 11
-994.8018354204996
 21
-1157.943500095576
 72
     1
 10
-994.8018354204996
 20
-1157.943500095576
 11
-993.6090427183332
 21
-1157.943500095576
 97
       12
330
34C
330
34B
330
34A
330
332
330
333
330
349
330
334
330
348
330
347
330
346
330
330
330
331
 75
     1
 76
     2
 52
45.0
 41
0.1
 77
     0
 78
     1
 53
45.0
 43
62.7811309658083
 44
-72.3161373035813
 45
-0.1414213562373095
 46
0.0
 79
     0
 98
        1
 10
0.0
 20
0.0
  0
ENDBLK
  5
73
330
71
100
AcDbEntity
  8
0
100
AcDbBlockEnd
  0
BLOCK
  5
75
330
74
100
AcDbEntity
  8
0
100
AcDbBlockBegin
  2
_punkt
 70
     0
 10
-881.7317389045444
 20
-1171.650000095578
 30
0.0
  3
_punkt
  1

  0
LINE
  5
409
330
74
100
AcDbEntity
  8
1
  6
Continuous
 62
     2
100
AcDbLine
 10
-881.7317389045443
 20
-1171.650000095578
 30
0.0
 11
-881.7317389045443
 21
-1176.650000095578
 31
0.0
  0
LINE
  5
40A
330
74
100
AcDbEntity
  8
1
  6
Continuous
 62
     2
100
AcDbLine
 10
-881.7317389045443
 20
-1171.650000095578
 30
0.0
 11
-876.7317389045468
 21
-1171.650000095578
 31
0.0
  0
ENDBLK
  5
76
330
74
100
AcDbEntity
  8
0
100
AcDbBlockEnd
  0
BLOCK
  5
7A
330
77
100
AcDbEntity
  8
0
100
AcDbBlockBegin
  2
A3I_CS
 70
     0
 10
-881.7317389045443
 20
-1176.650000095578
 30
0.0
  3
A3I_CS
  1

  0
INSERT
  5
78
330
77
100
AcDbEntity
  8
1
100
AcDbBlockReference
  2
_rahmen
 10
-881.7317389045443
 20
-1176.650000095578
 30
0.0
  0
INSERT
  5
79
330
77
100
AcDbEntity
  8
1
100
AcDbBlockReference
  2
_punkt
 10
-881.7317389045444
 20
-1171.650000095578
 30
0.0
  0
ENDBLK
  5
7B
330
77
100
AcDbEntity
  8
0
100
AcDbBlockEnd
  0
BLOCK
  5
1F9
330
1F2
100
AcDbEntity
  8
0
100
AcDbBlockBegin
  2
*D16
 70
     1
 10
0.0
 20
0.0
 30
0.0
  3
*D16
  1

  0
LINE
  5
1F3
330
1F2
100
AcDbEntity
  8
1
  6
Continuous
 62
     2
100
AcDbLine
 10
-1049.731738691596
 20
-1034.18547977348
 30
0.0
 11
-1033.431738690443
 21
-1034.18547977348
 31
0.0
  0
LINE
  5
1F4
330
1F2
100
AcDbEntity
  8
1
  6
Continuous
 62
     2
100
AcDbLine
 10
-1049.731738691596
 20
-963.337875480425
 30
0.0
 11
-1049.731738691596
 21
-1035.68547977348
 31
0.0
  0
LINE
  5
1F5
330
1F2
100
AcDbEntity
  8
1
  6
Continuous
 62
     2
100
AcDbLine
 10
-1033.431738690443
 20
-963.3378754804233
 30
0.0
 11
-1033.431738690443
 21
-1035.68547977348
 31
0.0
  0
SOLID
  5
1F6
330
1F2
100
AcDbEntity
  8
1
 62
     2
100
AcDbTrace
 10
-1046.231738691596
 20
-1033.724696031924
 30
0.0
 11
-1046.231738691596
 21
-1034.646263515036
 31
0.0
 12
-1049.731738691596
 22
-1034.18547977348
 32
0.0
 13
-1049.731738691596
 23
-1034.18547977348
 33
0.0
  0
SOLID
  5
1F7
330
1F2
100
AcDbEntity
  8
1
 62
     2
100
AcDbTrace
 10
-1036.931738690443
 20
-1034.646263515036
 30
0.0
 11
-1036.931738690443
 21
-1033.724696031924
 31
0.0
 12
-1033.431738690443
 22
-1034.18547977348
 32
0.0
 13
-1033.431738690443
 23
-1034.18547977348
 33
0.0
  0
MTEXT
  5
1F8
330
1F2
100
AcDbEntity
  8
1
 62
     3
100
AcDbMText
 10
-1046.14851365086
 20
-1032.33547977348
 30
0.0
 40
3.5
 41
0.0
 71
     7
 72
     1
  1
16,3
  7
CONVERTER_11
 11
0.9999999999970619
 21
2.424068405545306E-6
 31
0.0
 73
     1
 44
0.60024009603842
  0
ENDBLK
  5
1FA
330
1F2
100
AcDbEntity
  8
0
100
AcDbBlockEnd
  0
BLOCK
  5
206
330
1FD
100
AcDbEntity
  8
0
100
AcDbBlockBegin
  2
*D17
 70
     1
 10
0.0
 20
0.0
 30
0.0
  3
*D17
  1

  0
LINE
  5
1FE
330
1FD
100
AcDbEntity
  8
1
  6
Continuous
 62
     2
100
AcDbLine
 10
-1034.581738690483
 20
-1022.381968300415
 30
0.0
 11
-1041.581738690483
 21
-1022.381968300415
 31
0.0
  0
LINE
  5
1FF
330
1FD
100
AcDbEntity
  8
1
  6
Continuous
 62
     2
100
AcDbLine
 10
-1041.581738690483
 20
-1022.381968300415
 30
0.0
 11
-1049.731738692125
 21
-1022.381968300415
 31
0.0
  0
LINE
  5
200
330
1FD
100
AcDbEntity
  8
1
  6
Continuous
 62
     2
100
AcDbLine
 10
-1049.731738692125
 20
-1022.381968300415
 30
0.0
 11
-1062.473375887873
 21
-1022.381968300415
 31
0.0
  0
LINE
  5
201
330
1FD
100
AcDbEntity
  8
1
  6
Continuous
 62
     2
100
AcDbLine
 10
-1041.581738690483
 20
-993.8956005064971
 30
0.0
 11
-1041.581738690483
 21
-1023.881968300415
 31
0.0
  0
LINE
  5
202
330
1FD
100
AcDbEntity
  8
1
  6
Continuous
 62
     2
100
AcDbLine
 10
-1049.731738692125
 20
-993.8956005065111
 30
0.0
 11
-1049.731738692125
 21
-1023.881968300415
 31
0.0
  0
SOLID
  5
203
330
1FD
100
AcDbEntity
  8
1
 62
     2
100
AcDbTrace
 10
-1038.081738690483
 20
-1021.921184558859
 30
0.0
 11
-1038.081738690483
 21
-1022.842752041971
 31
0.0
 12
-1041.581738690483
 22
-1022.381968300415
 32
0.0
 13
-1041.581738690483
 23
-1022.381968300415
 33
0.0
  0
SOLID
  5
204
330
1FD
100
AcDbEntity
  8
1
 62
     2
100
AcDbTrace
 10
-1053.231738692125
 20
-1022.842752041971
 30
0.0
 11
-1053.231738692125
 21
-1021.921184558859
 31
0.0
 12
-1049.731738692125
 22
-1022.381968300415
 32
0.0
 13
-1049.731738692125
 23
-1022.381968300415
 33
0.0
  0
MTEXT
  5
205
330
1FD
100
AcDbEntity
  8
1
 62
     3
100
AcDbMText
 10
-1062.473375887873
 20
-1020.531968300415
 30
0.0
 40
3.5
 41
0.0
 71
     7
 72
     1
  1
8,2
  7
CONVERTER_11
 11
0.9999999999970619
 21
2.424068405545306E-6
 31
0.0
 73
     1
 44
0.60024009603842
  0
ENDBLK
  5
207
330
1FD
100
AcDbEntity
  8
0
100
AcDbBlockEnd
  0
BLOCK
  5
2AF
330
2A8
100
AcDbEntity
  8
0
100
AcDbBlockBegin
  2
*D18
 70
     1
 10
0.0
 20
0.0
 30
0.0
  3
*D18
  1

  0
LINE
  5
2A9
330
2A8
100
AcDbEntity
  8
1
  6
Continuous
 62
     2
100
AcDbLine
 10
-1073.71393005033
 20
-943.1499998691502
 30
0.0
 11
-1073.71393005033
 21
-1007.349999864176
 31
0.0
  0
LINE
  5
2AA
330
2A8
100
AcDbEntity
  8
1
  6
Continuous
 62
     2
100
AcDbLine
 10
-1127.16347624195
 20
-943.1499998691502
 30
0.0
 11
-1072.21393005033
 21
-943.1499998691502
 31
0.0
  0
LINE
  5
2AB
330
2A8
100
AcDbEntity
  8
1
  6
Continuous
 62
     2
100
AcDbLine
 10
-1102.863476977873
 20
-1007.349999864176
 30
0.0
 11
-1072.21393005033
 21
-1007.349999864176
 31
0.0
  0
SOLID
  5
2AC
330
2A8
100
AcDbEntity
  8
1
 62
     2
100
AcDbTrace
 10
-1073.253146308774
 20
-946.6499998691502
 30
0.0
 11
-1074.174713791886
 21
-946.6499998691502
 31
0.0
 12
-1073.71393005033
 22
-943.1499998691502
 32
0.0
 13
-1073.71393005033
 23
-943.1499998691502
 33
0.0
  0
SOLID
  5
2AD
330
2A8
100
AcDbEntity
  8
1
 62
     2
100
AcDbTrace
 10
-1074.174713791886
 20
-1003.849999864176
 30
0.0
 11
-1073.253146308774
 21
-1003.849999864176
 31
0.0
 12
-1073.71393005033
 22
-1007.349999864176
 32
0.0
 13
-1073.71393005033
 23
-1007.349999864176
 33
0.0
  0
MTEXT
  5
2AE
330
2A8
100
AcDbEntity
  8
1
 62
     3
100
AcDbMText
 10
-1075.21393005033
 20
-975.413366673889
 30
0.0
 40
3.5
 41
0.0
 71
     7
 72
     1
  1
64
  7
CONVERTER_11
 11
0.0
 21
1.0
 31
0.0
 73
     1
 44
0.60024009603842
  0
ENDBLK
  5
2B0
330
2A8
100
AcDbEntity
  8
0
100
AcDbBlockEnd
  0
BLOCK
  5
2BA
330
2B3
100
AcDbEntity
  8
0
100
AcDbBlockBegin
  2
*D19
 70
     1
 10
0.0
 20
0.0
 30
0.0
  3
*D19
  1

  0
LINE
  5
2B4
330
2B3
100
AcDbEntity
  8
1
  6
Continuous
 62
     2
100
AcDbLine
 10
-1086.738706169934
 20
-1022.381968300541
 30
0.0
 11
-1167.588247785684
 21
-1022.381968300909
 31
0.0
  0
LINE
  5
2B5
330
2B3
100
AcDbEntity
  8
1
  6
Continuous
 62
     2
100
AcDbLine
 10
-1086.738706170199
 20
-964.1431734933016
 30
0.0
 11
-1086.738706169927
 21
-1023.881968300541
 31
0.0
  0
LINE
  5
2B6
330
2B3
100
AcDbEntity
  8
1
  6
Continuous
 62
     2
100
AcDbLine
 10
-1167.588247785949
 20
-964.1431734936697
 30
0.0
 11
-1167.588247785677
 21
-1023.881968300909
 31
0.0
  0
SOLID
  5
2B7
330
2B3
100
AcDbEntity
  8
1
 62
     2
100
AcDbTrace
 10
-1090.238706169934
 20
-1022.842752042097
 30
0.0
 11
-1090.238706169934
 21
-1021.921184558985
 31
0.0
 12
-1086.738706169934
 22
-1022.381968300541
 32
0.0
 13
-1086.738706169934
 23
-1022.381968300541
 33
0.0
  0
SOLID
  5
2B8
330
2B3
100
AcDbEntity
  8
1
 62
     2
100
AcDbTrace
 10
-1164.088247785684
 20
-1021.921184559353
 30
0.0
 11
-1164.088247785684
 21
-1022.842752042465
 31
0.0
 12
-1167.588247785684
 22
-1022.381968300909
 32
0.0
 13
-1167.588247785684
 23
-1022.381968300909
 33
0.0
  0
MTEXT
  5
2B9
330
2B3
100
AcDbEntity
  8
1
 62
     3
100
AcDbMText
 10
-1131.975977714429
 20
-1020.531968300725
 30
0.0
 40
3.5
 41
0.0
 71
     7
 72
     1
  1
80,8
  7
CONVERTER_11
 11
0.9999999999970619
 21
2.424068405545306E-6
 31
0.0
 73
     1
 44
0.60024009603842
  0
ENDBLK
  5
2BB
330
2B3
100
AcDbEntity
  8
0
100
AcDbBlockEnd
  0
ENDSEC
  0
SECTION
  2
ENTITIES
  0
INSERT
  5
7C
330
1F
100
AcDbEntity
  8
0
100
AcDbBlockReference
  2
Allg1
 10
-959.9999999999603
 20
-1092.00000000022
 30
0.0
  0
INSERT
  5
7D
330
1F
100
AcDbEntity
  8
0
100
AcDbBlockReference
  2
Drfsicht1
 10
-1127.163477898039
 20
-1054.999999523648
 30
0.0
  0
INSERT
  5
7E
330
1F
100
AcDbEntity
  8
0
100
AcDbBlockReference
  2
Rckans1
 10
-965.000000000059
 20
-976.000000000227
 30
0.0
  0
INSERT
  5
7F
330
1F
100
AcDbEntity
  8
0
100
AcDbBlockReference
  2
SA_Links1
 10
-1041.581739050951
 20
-976.0000000002269
 30
0.0
  0
INSERT
  5
80
330
1F
100
AcDbEntity
  8
0
100
AcDbBlockReference
  2
SA_Rechts1
 10
-1204.745216567233
 20
-976.0000000002268
 30
0.0
  0
INSERT
  5
81
330
1F
100
AcDbEntity
  8
0
100
AcDbBlockReference
  2
Vordans1
 10
-1127.163477898039
 20
-976.000000000227
 30
0.0
  0
INSERT
  5
82
330
1F
100
AcDbEntity
  8
0
100
AcDbBlockReference
  2
A3I_CS
 10
-881.7317389045443
 20
-1176.650000095578
 30
0.0
  0
ENDSEC
  0
SECTION
  2
OBJECTS
  0
DICTIONARY
  5
C
330
0
100
AcDbDictionary
281
     1
  3
ACAD_GROUP
350
D
  3
ACAD_LAYOUT
350
1A
  3
ACAD_MATERIAL
350
3B
  3
ACAD_MLEADERSTYLE
350
40D
  3
ACAD_MLINESTYLE
350
17
  3
ACAD_PLOTSETTINGS
350
19
  3
ACAD_PLOTSTYLENAME
350
E
  3
ACAD_VISUALSTYLE
350
2A
  3
AcDbVariableDictionary
350
40B
  0
DICTIONARY
  5
D
102
{ACAD_REACTORS
330
C
102
}
330
C
100
AcDbDictionary
281
     1
  0
DICTIONARY
  5
1A
102
{ACAD_REACTORS
330
C
102
}
330
C
100
AcDbDictionary
281
     1
  3
Layout1
350
1E
  3
Layout2
350
26
  3
Model
350
22
  0
DICTIONARY
  5
3B
102
{ACAD_REACTORS
330
C
102
}
330
C
100
AcDbDictionary
281
     1
  3
ByBlock
350
3D
  3
ByLayer
350
3C
  3
Global
350
3E
  0
DICTIONARY
  5
40D
102
{ACAD_REACTORS
330
C
102
}
330
C
100
AcDbDictionary
281
     1
  0
DICTIONARY
  5
17
102
{ACAD_REACTORS
330
C
102
}
330
C
100
AcDbDictionary
281
     1
  3
Standard
350
18
  0
DICTIONARY
  5
19
102
{ACAD_REACTORS
330
C
102
}
330
C
100
AcDbDictionary
281
     1
  0
ACDBDICTIONARYWDFLT
  5
E
102
{ACAD_REACTORS
330
C
102
}
330
C
100
AcDbDictionary
281
     1
  3
Normal
350
F
100
AcDbDictionaryWithDefault
340
F
  0
DICTIONARY
  5
2A
102
{ACAD_REACTORS
330
C
102
}
330
C
100
AcDbDictionary
281
     1
  3
2dWireframe
350
2F
  3
3D Hidden
350
31
  3
3dWireframe
350
30
  3
Basic
350
32
  3
Brighten
350
36
  3
ColorChange
350
3A
  3
Conceptual
350
34
  3
Dim
350
35
  3
Facepattern
350
39
  3
Flat
350
2B
  3
FlatWithEdges
350
2C
  3
Gouraud
350
2D
  3
GouraudWithEdges
350
2E
  3
Linepattern
350
38
  3
Realistic
350
33
  3
Thicken
350
37
  0
DICTIONARY
  5
40B
102
{ACAD_REACTORS
330
C
102
}
330
C
100
AcDbDictionary
281
     1
  3
DIMASSOC
350
40E
  3
HIDETEXT
350
40F
  0
LAYOUT
  5
1E
102
{ACAD_REACTORS
330
1A
102
}
330
1A
100
AcDbPlotSettings
  1

  2
none_device
  4

  6

 40
0.0
 41
0.0
 42
0.0
 43
0.0
 44
0.0
 45
0.0
 46
0.0
 47
0.0
 48
0.0
 49
0.0
140
0.0
141
0.0
142
1.0
143
1.0
 70
   688
 72
     0
 73
     0
 74
     5
  7

 75
    16
147
1.0
148
0.0
149
0.0
100
AcDbLayout
  1
Layout1
 70
     1
 71
     1
 10
0.0
 20
0.0
 11
12.0
 21
9.0
 12
0.0
 22
0.0
 32
0.0
 14
1.00000000000000E+20
 24
1.00000000000000E+20
 34
1.00000000000000E+20
 15
-1.00000000000000E+20
 25
-1.00000000000000E+20
 35
-1.00000000000000E+20
146
0.0
 13
0.0
 23
0.0
 33
0.0
 16
1.0
 26
0.0
 36
0.0
 17
0.0
 27
1.0
 37
0.0
 76
     0
330
1B
  0
LAYOUT
  5
26
102
{ACAD_REACTORS
330
1A
102
}
330
1A
100
AcDbPlotSettings
  1

  2
none_device
  4

  6

 40
0.0
 41
0.0
 42
0.0
 43
0.0
 44
0.0
 45
0.0
 46
0.0
 47
0.0
 48
0.0
 49
0.0
140
0.0
141
0.0
142
1.0
143
1.0
 70
   688
 72
     0
 73
     0
 74
     5
  7

 75
    16
147
1.0
148
0.0
149
0.0
100
AcDbLayout
  1
Layout2
 70
     1
 71
     2
 10
0.0
 20
0.0
 11
0.0
 21
0.0
 12
0.0
 22
0.0
 32
0.0
 14
0.0
 24
0.0
 34
0.0
 15
0.0
 25
0.0
 35
0.0
146
0.0
 13
0.0
 23
0.0
 33
0.0
 16
1.0
 26
0.0
 36
0.0
 17
0.0
 27
1.0
 37
0.0
 76
     0
330
23
  0
LAYOUT
  5
22
102
{ACAD_REACTORS
330
1A
102
}
330
1A
100
AcDbPlotSettings
  1

  2
none_device
  4

  6

 40
0.0
 41
0.0
 42
0.0
 43
0.0
 44
0.0
 45
0.0
 46
0.0
 47
0.0
 48
0.0
 49
0.0
140
0.0
141
0.0
142
1.0
143
1.0
 70
  1712
 72
     0
 73
     0
 74
     0
  7

 75
     0
147
1.0
148
0.0
149
0.0
100
AcDbLayout
  1
Model
 70
     1
 71
     0
 10
0.0
 20
0.0
 11
12.0
 21
9.0
 12
0.0
 22
0.0
 32
0.0
 14
-1296.731738904545
 24
-1176.650000095578
 34
0.0
 15
-876.7317389045468
 25
-879.6500000955775
 35
0.0
146
0.0
 13
0.0
 23
0.0
 33
0.0
 16
1.0
 26
0.0
 36
0.0
 17
0.0
 27
1.0
 37
0.0
 76
     0
330
1F
331
29
  0
MATERIAL
  5
3D
102
{ACAD_REACTORS
330
3B
102
}
102
{ACAD_XDICTIONARY
360
432
102
}
330
3B
100
AcDbMaterial
  1
ByBlock
  0
MATERIAL
  5
3C
102
{ACAD_REACTORS
330
3B
102
}
102
{ACAD_XDICTIONARY
360
430
102
}
330
3B
100
AcDbMaterial
  1
ByLayer
  0
MATERIAL
  5
3E
102
{ACAD_REACTORS
330
3B
102
}
102
{ACAD_XDICTIONARY
360
434
102
}
330
3B
100
AcDbMaterial
  1
Global
  0
MLINESTYLE
  5
18
102
{ACAD_REACTORS
330
17
102
}
330
17
100
AcDbMlineStyle
  2
Standard
 70
     0
  3

 62
   256
 51
90.0
 52
90.0
 71
     2
 49
0.5
 62
   256
  6
BYLAYER
 49
-0.5
 62
   256
  6
BYLAYER
  0
ACDBPLACEHOLDER
  5
F
102
{ACAD_REACTORS
330
E
102
}
330
E
  0
VISUALSTYLE
  5
2F
102
{ACAD_REACTORS
330
2A
102
}
102
{ACAD_XDICTIONARY
360
418
102
}
330
2A
100
AcDbVisualStyle
  2
2dWireframe
 70
     4
 71
     0
 72
     2
 73
     0
 90
        0
 40
-0.6
 41
-30.0
 62
     5
 63
     7
 74
     1
 91
        4
 64
     7
 65
   257
 75
     1
175
     1
 42
1.0
 92
        0
 66
   257
 43
1.0
 76
     1
 77
     6
 78
     2
 67
     7
 79
     5
170
     0
171
     0
290
     0
174
     0
 93
        1
 44
0.0
173
     0
291
     0
 45
0.0
1001
ACAD
1000
AcDbSavedByObjectVersion
1070
     0
  0
VISUALSTYLE
  5
31
102
{ACAD_REACTORS
330
2A
102
}
102
{ACAD_XDICTIONARY
360
41C
102
}
330
2A
100
AcDbVisualStyle
  2
3D Hidden
 70
     6
 71
     1
 72
     2
 73
     2
 90
        0
 40
-0.6
 41
-30.0
 62
     5
 63
     7
 74
     2
 91
        2
 64
     7
 65
   257
 75
     2
175
     1
 42
40.0
 92
        0
 66
   257
 43
1.0
 76
     1
 77
     6
 78
     2
 67
     7
 79
     3
170
     0
171
     0
290
     0
174
     0
 93
        1
 44
0.0
173
     0
291
     0
 45
0.0
1001
ACAD
1000
AcDbSavedByObjectVersion
1070
     0
  0
VISUALSTYLE
  5
30
102
{ACAD_REACTORS
330
2A
102
}
102
{ACAD_XDICTIONARY
360
41A
102
}
330
2A
100
AcDbVisualStyle
  2
3dWireframe
 70
     5
 71
     0
 72
     2
 73
     0
 90
        0
 40
-0.6
 41
-30.0
 62
     5
 63
     7
 74
     1
 91
        4
 64
     7
 65
   257
 75
     1
175
     1
 42
1.0
 92
        0
 66
   257
 43
1.0
 76
     1
 77
     6
 78
     2
 67
     7
 79
     5
170
     0
171
     0
290
     0
174
     0
 93
        1
 44
0.0
173
     0
291
     0
 45
0.0
1001
ACAD
1000
AcDbSavedByObjectVersion
1070
     0
  0
VISUALSTYLE
  5
32
102
{ACAD_REACTORS
330
2A
102
}
102
{ACAD_XDICTIONARY
360
41E
102
}
330
2A
100
AcDbVisualStyle
  2
Basic
 70
     7
 71
     1
 72
     0
 73
     1
 90
        0
 40
-0.6
 41
-30.0
 62
     5
 63
     7
 74
     0
 91
        4
 64
     7
 65
   257
 75
     1
175
     1
 42
1.0
 92
        8
 66
     7
 43
1.0
 76
     1
 77
     6
 78
     2
 67
     7
 79
     5
170
     0
171
     0
290
     0
174
     0
 93
        1
 44
0.0
173
     0
291
     1
 45
0.0
1001
ACAD
1000
AcDbSavedByObjectVersion
1070
     0
  0
VISUALSTYLE
  5
36
102
{ACAD_REACTORS
330
2A
102
}
102
{ACAD_XDICTIONARY
360
426
102
}
330
2A
100
AcDbVisualStyle
  2
Brighten
 70
    12
 71
     2
 72
     2
 73
     0
 90
        0
 40
-0.6
 41
-30.0
 62
     5
 63
     7
 74
     1
 91
        4
 64
     7
 65
   257
 75
     1
175
     1
 42
1.0
 92
        8
 66
     7
 43
1.0
 76
     1
 77
     6
 78
     2
 67
     7
 79
     5
170
     0
171
     0
290
     0
174
     0
 93
        1
 44
50.0
173
     0
291
     1
 45
0.0
1001
ACAD
1000
AcDbSavedByObjectVersion
1070
     0
  0
VISUALSTYLE
  5
3A
102
{ACAD_REACTORS
330
2A
102
}
102
{ACAD_XDICTIONARY
360
42E
102
}
330
2A
100
AcDbVisualStyle
  2
ColorChange
 70
    16
 71
     2
 72
     2
 73
     3
 90
        0
 40
-0.6
 41
-30.0
 62
     5
 63
     8
 74
     1
 91
        4
 64
     7
 65
   257
 75
     1
175
     1
 42
1.0
 92
        8
 66
     8
 43
1.0
 76
     1
 77
     6
 78
     2
 67
     7
 79
     5
170
     0
171
     0
290
     0
174
     0
 93
        1
 44
0.0
173
     0
291
     1
 45
0.0
1001
ACAD
1000
AcDbSavedByObjectVersion
1070
     0
  0
VISUALSTYLE
  5
34
102
{ACAD_REACTORS
330
2A
102
}
102
{ACAD_XDICTIONARY
360
422
102
}
330
2A
100
AcDbVisualStyle
  2
Conceptual
 70
     9
 71
     3
 72
     2
 73
     0
 90
        0
 40
-0.6
 41
-30.0
 62
     5
 63
     7
 74
     2
 91
        2
 64
     7
 65
   257
 75
     1
175
     1
 42
40.0
 92
        8
 66
     7
 43
1.0
 76
     1
 77
     6
 78
     2
 67
     7
 79
     3
170
     0
171
     0
290
     0
174
     0
 93
        1
 44
0.0
173
     0
291
     0
 45
0.0
1001
ACAD
1000
AcDbSavedByObjectVersion
1070
     0
  0
VISUALSTYLE
  5
35
102
{ACAD_REACTORS
330
2A
102
}
102
{ACAD_XDICTIONARY
360
424
102
}
330
2A
100
AcDbVisualStyle
  2
Dim
 70
    11
 71
     2
 72
     2
 73
     0
 90
        0
 40
-0.6
 41
-30.0
 62
     5
 63
     7
 74
     1
 91
        4
 64
     7
 65
   257
 75
     1
175
     1
 42
1.0
 92
        8
 66
     7
 43
1.0
 76
     1
 77
     6
 78
     2
 67
     7
 79
     5
170
     0
171
     0
290
     0
174
     0
 93
        1
 44
-50.0
173
     0
291
     1
 45
0.0
1001
ACAD
1000
AcDbSavedByObjectVersion
1070
     0
  0
VISUALSTYLE
  5
39
102
{ACAD_REACTORS
330
2A
102
}
102
{ACAD_XDICTIONARY
360
42C
102
}
330
2A
100
AcDbVisualStyle
  2
Facepattern
 70
    15
 71
     2
 72
     2
 73
     0
 90
        0
 40
-0.6
 41
-30.0
 62
     5
 63
     7
 74
     1
 91
        4
 64
     7
 65
   257
 75
     1
175
     1
 42
1.0
 92
        8
 66
     7
 43
1.0
 76
     1
 77
     6
 78
     2
 67
     7
 79
     5
170
     0
171
     0
290
     0
174
     0
 93
        1
 44
0.0
173
     0
291
     1
 45
0.0
1001
ACAD
1000
AcDbSavedByObjectVersion
1070
     0
  0
VISUALSTYLE
  5
2B
102
{ACAD_REACTORS
330
2A
102
}
102
{ACAD_XDICTIONARY
360
410
102
}
330
2A
100
AcDbVisualStyle
  2
Flat
 70
     0
 71
     2
 72
     1
 73
     1
 90
        2
 40
-0.6
 41
30.0
 62
     5
 63
     7
 74
     0
 91
        4
 64
     7
 65
   257
 75
     1
175
     1
 42
1.0
 92
        8
 66
     7
 43
1.0
 76
     1
 77
     6
 78
     2
 67
     7
 79
     5
170
     0
171
     0
290
     0
174
     0
 93
       13
 44
0.0
173
     0
291
     1
 45
0.0
1001
ACAD
1000
AcDbSavedByObjectVersion
1070
     0
  0
VISUALSTYLE
  5
2C
102
{ACAD_REACTORS
330
2A
102
}
102
{ACAD_XDICTIONARY
360
412
102
}
330
2A
100
AcDbVisualStyle
  2
FlatWithEdges
 70
     1
 71
     2
 72
     1
 73
     1
 90
        2
 40
-0.6
 41
30.0
 62
     5
 63
     7
 74
     1
 91
        4
 64
     7
 65
   257
 75
     1
175
     1
 42
1.0
 92
        0
 66
   257
 43
1.0
 76
     1
 77
     6
 78
     2
 67
     7
 79
     5
170
     0
171
     0
290
     0
174
     0
 93
       13
 44
0.0
173
     0
291
     1
 45
0.0
1001
ACAD
1000
AcDbSavedByObjectVersion
1070
     0
  0
VISUALSTYLE
  5
2D
102
{ACAD_REACTORS
330
2A
102
}
102
{ACAD_XDICTIONARY
360
414
102
}
330
2A
100
AcDbVisualStyle
  2
Gouraud
 70
     2
 71
     2
 72
     2
 73
     1
 90
        2
 40
-0.6
 41
30.0
 62
     5
 63
     7
 74
     0
 91
        4
 64
     7
 65
   257
 75
     1
175
     1
 42
1.0
 92
        0
 66
     7
 43
1.0
 76
     1
 77
     6
 78
     2
 67
     7
 79
     5
170
     0
171
     0
290
     0
174
     0
 93
       13
 44
0.0
173
     0
291
     1
 45
0.0
1001
ACAD
1000
AcDbSavedByObjectVersion
1070
     0
  0
VISUALSTYLE
  5
2E
102
{ACAD_REACTORS
330
2A
102
}
102
{ACAD_XDICTIONARY
360
416
102
}
330
2A
100
AcDbVisualStyle
  2
GouraudWithEdges
 70
     3
 71
     2
 72
     2
 73
     1
 90
        2
 40
-0.6
 41
30.0
 62
     5
 63
     7
 74
     1
 91
        4
 64
     7
 65
   257
 75
     1
175
     1
 42
1.0
 92
        0
 66
   257
 43
1.0
 76
     1
 77
     6
 78
     2
 67
     7
 79
     5
170
     0
171
     0
290
     0
174
     0
 93
       13
 44
0.0
173
     0
291
     1
 45
0.0
1001
ACAD
1000
AcDbSavedByObjectVersion
1070
     0
  0
VISUALSTYLE
  5
38
102
{ACAD_REACTORS
330
2A
102
}
102
{ACAD_XDICTIONARY
360
42A
102
}
330
2A
100
AcDbVisualStyle
  2
Linepattern
 70
    14
 71
     2
 72
     2
 73
     0
 90
        0
 40
-0.6
 41
-30.0
 62
     5
 63
     7
 74
     1
 91
        4
 64
     7
 65
   257
 75
     7
175
     7
 42
1.0
 92
        8
 66
     7
 43
1.0
 76
     1
 77
     6
 78
     2
 67
     7
 79
     5
170
     0
171
     0
290
     0
174
     0
 93
        1
 44
0.0
173
     0
291
     1
 45
0.0
1001
ACAD
1000
AcDbSavedByObjectVersion
1070
     0
  0
VISUALSTYLE
  5
33
102
{ACAD_REACTORS
330
2A
102
}
102
{ACAD_XDICTIONARY
360
420
102
}
330
2A
100
AcDbVisualStyle
  2
Realistic
 70
     8
 71
     2
 72
     2
 73
     0
 90
        0
 40
-0.6
 41
-30.0
 62
     5
 63
     7
 74
     1
 91
        0
 64
     7
 65
   257
 75
     1
175
     1
 42
1.0
 92
        8
 66
     8
 43
1.0
 76
     1
 77
     6
 78
     2
 67
     7
 79
     5
170
     0
171
     0
290
     0
174
     0
 93
       13
 44
0.0
173
     0
291
     0
 45
0.0
1001
ACAD
1000
AcDbSavedByObjectVersion
1070
     0
  0
VISUALSTYLE
  5
37
102
{ACAD_REACTORS
330
2A
102
}
102
{ACAD_XDICTIONARY
360
428
102
}
330
2A
100
AcDbVisualStyle
  2
Thicken
 70
    13
 71
     2
 72
     2
 73
     0
 90
        0
 40
-0.6
 41
-30.0
 62
     5
 63
     7
 74
     1
 91
        4
 64
     7
 65
   257
 75
     1
175
     1
 42
1.0
 92
       12
 66
     7
 43
1.0
 76
     1
 77
     6
 78
     2
 67
     7
 79
     5
170
     0
171
     0
290
     0
174
     0
 93
        1
 44
0.0
173
     0
291
     1
 45
0.0
1001
ACAD
1000
AcDbSavedByObjectVersion
1070
     0
  0
DICTIONARYVAR
  5
40E
102
{ACAD_REACTORS
330
40B
102
}
330
40B
100
DictionaryVariables
280
     0
  1
2
  0
DICTIONARYVAR
  5
40F
102
{ACAD_REACTORS
330
40B
102
}
330
40B
100
DictionaryVariables
280
     0
  1
1
  0
DICTIONARY
  5
432
330
3D
100
AcDbDictionary
280
     1
281
     1
  3
ACAD_XREC_ROUNDTRIP
360
433
  0
DICTIONARY
  5
430
330
3C
100
AcDbDictionary
280
     1
281
     1
  3
ACAD_XREC_ROUNDTRIP
360
431
  0
DICTIONARY
  5
434
330
3E
100
AcDbDictionary
280
     1
281
     1
  3
ACAD_XREC_ROUNDTRIP
360
435
  0
DICTIONARY
  5
418
330
2F
100
AcDbDictionary
280
     1
281
     1
  3
ACAD_XREC_ROUNDTRIP
360
419
  0
DICTIONARY
  5
41C
330
31
100
AcDbDictionary
280
     1
281
     1
  3
ACAD_XREC_ROUNDTRIP
360
41D
  0
DICTIONARY
  5
41A
330
30
100
AcDbDictionary
280
     1
281
     1
  3
ACAD_XREC_ROUNDTRIP
360
41B
  0
DICTIONARY
  5
41E
330
32
100
AcDbDictionary
280
     1
281
     1
  3
ACAD_XREC_ROUNDTRIP
360
41F
  0
DICTIONARY
  5
426
330
36
100
AcDbDictionary
280
     1
281
     1
  3
ACAD_XREC_ROUNDTRIP
360
427
  0
DICTIONARY
  5
42E
330
3A
100
AcDbDictionary
280
     1
281
     1
  3
ACAD_XREC_ROUNDTRIP
360
42F
  0
DICTIONARY
  5
422
330
34
100
AcDbDictionary
280
     1
281
     1
  3
ACAD_XREC_ROUNDTRIP
360
423
  0
DICTIONARY
  5
424
330
35
100
AcDbDictionary
280
     1
281
     1
  3
ACAD_XREC_ROUNDTRIP
360
425
  0
DICTIONARY
  5
42C
330
39
100
AcDbDictionary
280
     1
281
     1
  3
ACAD_XREC_ROUNDTRIP
360
42D
  0
DICTIONARY
  5
410
330
2B
100
AcDbDictionary
280
     1
281
     1
  3
ACAD_XREC_ROUNDTRIP
360
411
  0
DICTIONARY
  5
412
330
2C
100
AcDbDictionary
280
     1
281
     1
  3
ACAD_XREC_ROUNDTRIP
360
413
  0
DICTIONARY
  5
414
330
2D
100
AcDbDictionary
280
     1
281
     1
  3
ACAD_XREC_ROUNDTRIP
360
415
  0
DICTIONARY
  5
416
330
2E
100
AcDbDictionary
280
     1
281
     1
  3
ACAD_XREC_ROUNDTRIP
360
417
  0
DICTIONARY
  5
42A
330
38
100
AcDbDictionary
280
     1
281
     1
  3
ACAD_XREC_ROUNDTRIP
360
42B
  0
DICTIONARY
  5
420
330
33
100
AcDbDictionary
280
     1
281
     1
  3
ACAD_XREC_ROUNDTRIP
360
421
  0
DICTIONARY
  5
428
330
37
100
AcDbDictionary
280
     1
281
     1
  3
ACAD_XREC_ROUNDTRIP
360
429
  0
XRECORD
  5
433
102
{ACAD_REACTORS
330
432
102
}
330
432
100
AcDbXrecord
280
     1
102
MATERIAL
148
0.0
149
0.0
149
0.0
 93
        0
 94
      127
282
     0
 72
     1
 77
     1
171
     1
175
     1
179
     1
273
     0
  0
XRECORD
  5
431
102
{ACAD_REACTORS
330
430
102
}
330
430
100
AcDbXrecord
280
     1
102
MATERIAL
148
0.0
149
0.0
149
0.0
 93
        0
 94
      127
282
     0
 72
     1
 77
     1
171
     1
175
     1
179
     1
273
     0
  0
XRECORD
  5
435
102
{ACAD_REACTORS
330
434
102
}
330
434
100
AcDbXrecord
280
     1
102
MATERIAL
148
0.0
149
0.0
149
0.0
 93
        0
 94
      127
282
     0
 72
     1
 77
     1
171
     1
175
     1
179
     1
273
     0
  0
XRECORD
  5
419
102
{ACAD_REACTORS
330
418
102
}
330
418
100
AcDbXrecord
280
     1
102
RTVSPropertyOp0
 70
     1
102
RTVSPropertyOp1
 70
     1
102
RTVSPropertyOp2
 70
     1
102
RTVSPropertyOp3
 70
     1
102
RTVSPropertyOp4
 70
     1
102
RTVSPropertyOp5
 70
     1
102
RTVSPropertyOp6
 70
     1
102
RTVSPropertyOp7
 70
     1
102
RTVSPropertyOp8
 70
     1
102
RTVSPropertyOp9
 70
     1
102
RTVSPropertyOp10
 70
     1
102
RTVSPropertyOp11
 70
     1
102
RTVSPropertyOp12
 70
     1
102
RTVSPropertyOp13
 70
     1
102
RTVSPropertyOp14
 70
     1
102
RTVSPropertyOp15
 70
     1
102
RTVSPropertyOp16
 70
     1
102
RTVSPropertyOp17
 70
     1
102
RTVSPropertyOp18
 70
     1
102
RTVSPropertyOp19
 70
     1
102
RTVSPropertyOp20
 70
     1
102
RTVSPropertyOp21
 70
     1
102
RTVSPropertyOp22
 70
     1
102
RTVSPropertyOp23
 70
     1
102
RTVSPropertyOp24
 70
     1
102
RTVSPropertyOp25
 70
     1
102
RTVSPropertyOp26
 70
     1
102
RTVSPropertyOp27
 70
     1
102
RTVSPropertyOp28
 70
     1
102
RTVSPropertyOp29
 70
     1
102
RTVSPropertyOp30
 70
     1
102
RTVSPropertyOp31
 70
     1
102
RTVSPropertyOp32
 70
     1
  0
XRECORD
  5
41D
102
{ACAD_REACTORS
330
41C
102
}
330
41C
100
AcDbXrecord
280
     1
102
RTVSPropertyOp0
 70
     1
102
RTVSPropertyOp1
 70
     1
102
RTVSPropertyOp2
 70
     1
102
RTVSPropertyOp3
 70
     1
102
RTVSPropertyOp4
 70
     1
102
RTVSPropertyOp5
 70
     1
102
RTVSPropertyOp6
 70
     1
102
RTVSPropertyOp7
 70
     1
102
RTVSPropertyOp8
 70
     1
102
RTVSPropertyOp9
 70
     1
102
RTVSPropertyOp10
 70
     1
102
RTVSPropertyOp11
 70
     1
102
RTVSPropertyOp12
 70
     1
102
RTVSPropertyOp13
 70
     1
102
RTVSPropertyOp14
 70
     1
102
RTVSPropertyOp15
 70
     1
102
RTVSPropertyOp16
 70
     1
102
RTVSPropertyOp17
 70
     1
102
RTVSPropertyOp18
 70
     1
102
RTVSPropertyOp19
 70
     1
102
RTVSPropertyOp20
 70
     1
102
RTVSPropertyOp21
 70
     1
102
RTVSPropertyOp22
 70
     1
102
RTVSPropertyOp23
 70
     1
102
RTVSPropertyOp24
 70
     1
102
RTVSPropertyOp25
 70
     1
102
RTVSPropertyOp26
 70
     1
102
RTVSPropertyOp27
 70
     1
102
RTVSPropertyOp28
 70
     1
102
RTVSPropertyOp29
 70
     1
102
RTVSPropertyOp30
 70
     1
102
RTVSPropertyOp31
 70
     1
102
RTVSPropertyOp32
 70
     1
  0
XRECORD
  5
41B
102
{ACAD_REACTORS
330
41A
102
}
330
41A
100
AcDbXrecord
280
     1
102
RTVSPropertyOp0
 70
     1
102
RTVSPropertyOp1
 70
     1
102
RTVSPropertyOp2
 70
     1
102
RTVSPropertyOp3
 70
     1
102
RTVSPropertyOp4
 70
     1
102
RTVSPropertyOp5
 70
     1
102
RTVSPropertyOp6
 70
     1
102
RTVSPropertyOp7
 70
     1
102
RTVSPropertyOp8
 70
     1
102
RTVSPropertyOp9
 70
     1
102
RTVSPropertyOp10
 70
     1
102
RTVSPropertyOp11
 70
     1
102
RTVSPropertyOp12
 70
     1
102
RTVSPropertyOp13
 70
     1
102
RTVSPropertyOp14
 70
     1
102
RTVSPropertyOp15
 70
     1
102
RTVSPropertyOp16
 70
     1
102
RTVSPropertyOp17
 70
     1
102
RTVSPropertyOp18
 70
     1
102
RTVSPropertyOp19
 70
     1
102
RTVSPropertyOp20
 70
     1
102
RTVSPropertyOp21
 70
     1
102
RTVSPropertyOp22
 70
     1
102
RTVSPropertyOp23
 70
     1
102
RTVSPropertyOp24
 70
     1
102
RTVSPropertyOp25
 70
     1
102
RTVSPropertyOp26
 70
     1
102
RTVSPropertyOp27
 70
     1
102
RTVSPropertyOp28
 70
     1
102
RTVSPropertyOp29
 70
     1
102
RTVSPropertyOp30
 70
     1
102
RTVSPropertyOp31
 70
     1
102
RTVSPropertyOp32
 70
     1
  0
XRECORD
  5
41F
102
{ACAD_REACTORS
330
41E
102
}
330
41E
100
AcDbXrecord
280
     1
102
RTVSPropertyOp0
 70
     1
102
RTVSPropertyOp1
 70
     1
102
RTVSPropertyOp2
 70
     1
102
RTVSPropertyOp3
 70
     1
102
RTVSPropertyOp4
 70
     1
102
RTVSPropertyOp5
 70
     1
102
RTVSPropertyOp6
 70
     1
102
RTVSPropertyOp7
 70
     1
102
RTVSPropertyOp8
 70
     1
102
RTVSPropertyOp9
 70
     1
102
RTVSPropertyOp10
 70
     1
102
RTVSPropertyOp11
 70
     1
102
RTVSPropertyOp12
 70
     1
102
RTVSPropertyOp13
 70
     1
102
RTVSPropertyOp14
 70
     1
102
RTVSPropertyOp15
 70
     1
102
RTVSPropertyOp16
 70
     1
102
RTVSPropertyOp17
 70
     1
102
RTVSPropertyOp18
 70
     1
102
RTVSPropertyOp19
 70
     1
102
RTVSPropertyOp20
 70
     1
102
RTVSPropertyOp21
 70
     1
102
RTVSPropertyOp22
 70
     1
102
RTVSPropertyOp23
 70
     1
102
RTVSPropertyOp24
 70
     1
102
RTVSPropertyOp25
 70
     1
102
RTVSPropertyOp26
 70
     1
102
RTVSPropertyOp27
 70
     1
102
RTVSPropertyOp28
 70
     1
102
RTVSPropertyOp29
 70
     1
102
RTVSPropertyOp30
 70
     1
102
RTVSPropertyOp31
 70
     1
102
RTVSPropertyOp32
 70
     1
  0
XRECORD
  5
427
102
{ACAD_REACTORS
330
426
102
}
330
426
100
AcDbXrecord
280
     1
102
RTVSPropertyOp0
 70
     1
102
RTVSPropertyOp1
 70
     1
102
RTVSPropertyOp2
 70
     1
102
RTVSPropertyOp3
 70
     1
102
RTVSPropertyOp4
 70
     1
102
RTVSPropertyOp5
 70
     1
102
RTVSPropertyOp6
 70
     1
102
RTVSPropertyOp7
 70
     1
102
RTVSPropertyOp8
 70
     1
102
RTVSPropertyOp9
 70
     1
102
RTVSPropertyOp10
 70
     1
102
RTVSPropertyOp11
 70
     1
102
RTVSPropertyOp12
 70
     1
102
RTVSPropertyOp13
 70
     1
102
RTVSPropertyOp14
 70
     1
102
RTVSPropertyOp15
 70
     1
102
RTVSPropertyOp16
 70
     1
102
RTVSPropertyOp17
 70
     1
102
RTVSPropertyOp18
 70
     1
102
RTVSPropertyOp19
 70
     1
102
RTVSPropertyOp20
 70
     1
102
RTVSPropertyOp21
 70
     1
102
RTVSPropertyOp22
 70
     1
102
RTVSPropertyOp23
 70
     1
102
RTVSPropertyOp24
 70
     1
102
RTVSPropertyOp25
 70
     1
102
RTVSPropertyOp26
 70
     1
102
RTVSPropertyOp27
 70
     1
102
RTVSPropertyOp28
 70
     1
102
RTVSPropertyOp29
 70
     1
102
RTVSPropertyOp30
 70
     1
102
RTVSPropertyOp31
 70
     1
102
RTVSPropertyOp32
 70
     1
  0
XRECORD
  5
42F
102
{ACAD_REACTORS
330
42E
102
}
330
42E
100
AcDbXrecord
280
     1
102
RTVSPropertyOp0
 70
     1
102
RTVSPropertyOp1
 70
     1
102
RTVSPropertyOp2
 70
     1
102
RTVSPropertyOp3
 70
     1
102
RTVSPropertyOp4
 70
     1
102
RTVSPropertyOp5
 70
     1
102
RTVSPropertyOp6
 70
     1
102
RTVSPropertyOp7
 70
     1
102
RTVSPropertyOp8
 70
     1
102
RTVSPropertyOp9
 70
     1
102
RTVSPropertyOp10
 70
     1
102
RTVSPropertyOp11
 70
     1
102
RTVSPropertyOp12
 70
     1
102
RTVSPropertyOp13
 70
     1
102
RTVSPropertyOp14
 70
     1
102
RTVSPropertyOp15
 70
     1
102
RTVSPropertyOp16
 70
     1
102
RTVSPropertyOp17
 70
     1
102
RTVSPropertyOp18
 70
     1
102
RTVSPropertyOp19
 70
     1
102
RTVSPropertyOp20
 70
     1
102
RTVSPropertyOp21
 70
     1
102
RTVSPropertyOp22
 70
     1
102
RTVSPropertyOp23
 70
     1
102
RTVSPropertyOp24
 70
     1
102
RTVSPropertyOp25
 70
     1
102
RTVSPropertyOp26
 70
     1
102
RTVSPropertyOp27
 70
     1
102
RTVSPropertyOp28
 70
     1
102
RTVSPropertyOp29
 70
     1
102
RTVSPropertyOp30
 70
     1
102
RTVSPropertyOp31
 70
     1
102
RTVSPropertyOp32
 70
     1
  0
XRECORD
  5
423
102
{ACAD_REACTORS
330
422
102
}
330
422
100
AcDbXrecord
280
     1
102
RTVSPropertyOp0
 70
     1
102
RTVSPropertyOp1
 70
     1
102
RTVSPropertyOp2
 70
     1
102
RTVSPropertyOp3
 70
     1
102
RTVSPropertyOp4
 70
     1
102
RTVSPropertyOp5
 70
     1
102
RTVSPropertyOp6
 70
     1
102
RTVSPropertyOp7
 70
     1
102
RTVSPropertyOp8
 70
     1
102
RTVSPropertyOp9
 70
     1
102
RTVSPropertyOp10
 70
     1
102
RTVSPropertyOp11
 70
     1
102
RTVSPropertyOp12
 70
     1
102
RTVSPropertyOp13
 70
     1
102
RTVSPropertyOp14
 70
     1
102
RTVSPropertyOp15
 70
     1
102
RTVSPropertyOp16
 70
     1
102
RTVSPropertyOp17
 70
     1
102
RTVSPropertyOp18
 70
     1
102
RTVSPropertyOp19
 70
     1
102
RTVSPropertyOp20
 70
     1
102
RTVSPropertyOp21
 70
     1
102
RTVSPropertyOp22
 70
     1
102
RTVSPropertyOp23
 70
     1
102
RTVSPropertyOp24
 70
     1
102
RTVSPropertyOp25
 70
     1
102
RTVSPropertyOp26
 70
     1
102
RTVSPropertyOp27
 70
     1
102
RTVSPropertyOp28
 70
     1
102
RTVSPropertyOp29
 70
     1
102
RTVSPropertyOp30
 70
     1
102
RTVSPropertyOp31
 70
     1
102
RTVSPropertyOp32
 70
     1
  0
XRECORD
  5
425
102
{ACAD_REACTORS
330
424
102
}
330
424
100
AcDbXrecord
280
     1
102
RTVSPropertyOp0
 70
     1
102
RTVSPropertyOp1
 70
     1
102
RTVSPropertyOp2
 70
     1
102
RTVSPropertyOp3
 70
     1
102
RTVSPropertyOp4
 70
     1
102
RTVSPropertyOp5
 70
     1
102
RTVSPropertyOp6
 70
     1
102
RTVSPropertyOp7
 70
     1
102
RTVSPropertyOp8
 70
     1
102
RTVSPropertyOp9
 70
     1
102
RTVSPropertyOp10
 70
     1
102
RTVSPropertyOp11
 70
     1
102
RTVSPropertyOp12
 70
     1
102
RTVSPropertyOp13
 70
     1
102
RTVSPropertyOp14
 70
     1
102
RTVSPropertyOp15
 70
     1
102
RTVSPropertyOp16
 70
     1
102
RTVSPropertyOp17
 70
     1
102
RTVSPropertyOp18
 70
     1
102
RTVSPropertyOp19
 70
     1
102
RTVSPropertyOp20
 70
     1
102
RTVSPropertyOp21
 70
     1
102
RTVSPropertyOp22
 70
     1
102
RTVSPropertyOp23
 70
     1
102
RTVSPropertyOp24
 70
     1
102
RTVSPropertyOp25
 70
     1
102
RTVSPropertyOp26
 70
     1
102
RTVSPropertyOp27
 70
     1
102
RTVSPropertyOp28
 70
     1
102
RTVSPropertyOp29
 70
     1
102
RTVSPropertyOp30
 70
     1
102
RTVSPropertyOp31
 70
     1
102
RTVSPropertyOp32
 70
     1
  0
XRECORD
  5
42D
102
{ACAD_REACTORS
330
42C
102
}
330
42C
100
AcDbXrecord
280
     1
102
RTVSPropertyOp0
 70
     1
102
RTVSPropertyOp1
 70
     1
102
RTVSPropertyOp2
 70
     1
102
RTVSPropertyOp3
 70
     1
102
RTVSPropertyOp4
 70
     1
102
RTVSPropertyOp5
 70
     1
102
RTVSPropertyOp6
 70
     1
102
RTVSPropertyOp7
 70
     1
102
RTVSPropertyOp8
 70
     1
102
RTVSPropertyOp9
 70
     1
102
RTVSPropertyOp10
 70
     1
102
RTVSPropertyOp11
 70
     1
102
RTVSPropertyOp12
 70
     1
102
RTVSPropertyOp13
 70
     1
102
RTVSPropertyOp14
 70
     1
102
RTVSPropertyOp15
 70
     1
102
RTVSPropertyOp16
 70
     1
102
RTVSPropertyOp17
 70
     1
102
RTVSPropertyOp18
 70
     1
102
RTVSPropertyOp19
 70
     1
102
RTVSPropertyOp20
 70
     1
102
RTVSPropertyOp21
 70
     1
102
RTVSPropertyOp22
 70
     1
102
RTVSPropertyOp23
 70
     1
102
RTVSPropertyOp24
 70
     1
102
RTVSPropertyOp25
 70
     1
102
RTVSPropertyOp26
 70
     1
102
RTVSPropertyOp27
 70
     1
102
RTVSPropertyOp28
 70
     1
102
RTVSPropertyOp29
 70
     1
102
RTVSPropertyOp30
 70
     1
102
RTVSPropertyOp31
 70
     1
102
RTVSPropertyOp32
 70
     1
  0
XRECORD
  5
411
102
{ACAD_REACTORS
330
410
102
}
330
410
100
AcDbXrecord
280
     1
102
RTVSPropertyOp0
 70
     1
102
RTVSPropertyOp1
 70
     1
102
RTVSPropertyOp2
 70
     1
102
RTVSPropertyOp3
 70
     1
102
RTVSPropertyOp4
 70
     1
102
RTVSPropertyOp5
 70
     1
102
RTVSPropertyOp6
 70
     1
102
RTVSPropertyOp7
 70
     1
102
RTVSPropertyOp8
 70
     1
102
RTVSPropertyOp9
 70
     1
102
RTVSPropertyOp10
 70
     1
102
RTVSPropertyOp11
 70
     1
102
RTVSPropertyOp12
 70
     1
102
RTVSPropertyOp13
 70
     1
102
RTVSPropertyOp14
 70
     1
102
RTVSPropertyOp15
 70
     1
102
RTVSPropertyOp16
 70
     1
102
RTVSPropertyOp17
 70
     1
102
RTVSPropertyOp18
 70
     1
102
RTVSPropertyOp19
 70
     1
102
RTVSPropertyOp20
 70
     1
102
RTVSPropertyOp21
 70
     1
102
RTVSPropertyOp22
 70
     1
102
RTVSPropertyOp23
 70
     1
102
RTVSPropertyOp24
 70
     1
102
RTVSPropertyOp25
 70
     1
102
RTVSPropertyOp26
 70
     1
102
RTVSPropertyOp27
 70
     1
102
RTVSPropertyOp28
 70
     1
102
RTVSPropertyOp29
 70
     1
102
RTVSPropertyOp30
 70
     1
102
RTVSPropertyOp31
 70
     1
102
RTVSPropertyOp32
 70
     1
  0
XRECORD
  5
413
102
{ACAD_REACTORS
330
412
102
}
330
412
100
AcDbXrecord
280
     1
102
RTVSPropertyOp0
 70
     1
102
RTVSPropertyOp1
 70
     1
102
RTVSPropertyOp2
 70
     1
102
RTVSPropertyOp3
 70
     1
102
RTVSPropertyOp4
 70
     1
102
RTVSPropertyOp5
 70
     1
102
RTVSPropertyOp6
 70
     1
102
RTVSPropertyOp7
 70
     1
102
RTVSPropertyOp8
 70
     1
102
RTVSPropertyOp9
 70
     1
102
RTVSPropertyOp10
 70
     1
102
RTVSPropertyOp11
 70
     1
102
RTVSPropertyOp12
 70
     1
102
RTVSPropertyOp13
 70
     1
102
RTVSPropertyOp14
 70
     1
102
RTVSPropertyOp15
 70
     1
102
RTVSPropertyOp16
 70
     1
102
RTVSPropertyOp17
 70
     1
102
RTVSPropertyOp18
 70
     1
102
RTVSPropertyOp19
 70
     1
102
RTVSPropertyOp20
 70
     1
102
RTVSPropertyOp21
 70
     1
102
RTVSPropertyOp22
 70
     1
102
RTVSPropertyOp23
 70
     1
102
RTVSPropertyOp24
 70
     1
102
RTVSPropertyOp25
 70
     1
102
RTVSPropertyOp26
 70
     1
102
RTVSPropertyOp27
 70
     1
102
RTVSPropertyOp28
 70
     1
102
RTVSPropertyOp29
 70
     1
102
RTVSPropertyOp30
 70
     1
102
RTVSPropertyOp31
 70
     1
102
RTVSPropertyOp32
 70
     1
  0
XRECORD
  5
415
102
{ACAD_REACTORS
330
414
102
}
330
414
100
AcDbXrecord
280
     1
102
RTVSPropertyOp0
 70
     1
102
RTVSPropertyOp1
 70
     1
102
RTVSPropertyOp2
 70
     1
102
RTVSPropertyOp3
 70
     1
102
RTVSPropertyOp4
 70
     1
102
RTVSPropertyOp5
 70
     1
102
RTVSPropertyOp6
 70
     1
102
RTVSPropertyOp7
 70
     1
102
RTVSPropertyOp8
 70
     1
102
RTVSPropertyOp9
 70
     1
102
RTVSPropertyOp10
 70
     1
102
RTVSPropertyOp11
 70
     1
102
RTVSPropertyOp12
 70
     1
102
RTVSPropertyOp13
 70
     1
102
RTVSPropertyOp14
 70
     1
102
RTVSPropertyOp15
 70
     1
102
RTVSPropertyOp16
 70
     1
102
RTVSPropertyOp17
 70
     1
102
RTVSPropertyOp18
 70
     1
102
RTVSPropertyOp19
 70
     1
102
RTVSPropertyOp20
 70
     1
102
RTVSPropertyOp21
 70
     1
102
RTVSPropertyOp22
 70
     1
102
RTVSPropertyOp23
 70
     1
102
RTVSPropertyOp24
 70
     1
102
RTVSPropertyOp25
 70
     1
102
RTVSPropertyOp26
 70
     1
102
RTVSPropertyOp27
 70
     1
102
RTVSPropertyOp28
 70
     1
102
RTVSPropertyOp29
 70
     1
102
RTVSPropertyOp30
 70
     1
102
RTVSPropertyOp31
 70
     1
102
RTVSPropertyOp32
 70
     1
  0
XRECORD
  5
417
102
{ACAD_REACTORS
330
416
102
}
330
416
100
AcDbXrecord
280
     1
102
RTVSPropertyOp0
 70
     1
102
RTVSPropertyOp1
 70
     1
102
RTVSPropertyOp2
 70
     1
102
RTVSPropertyOp3
 70
     1
102
RTVSPropertyOp4
 70
     1
102
RTVSPropertyOp5
 70
     1
102
RTVSPropertyOp6
 70
     1
102
RTVSPropertyOp7
 70
     1
102
RTVSPropertyOp8
 70
     1
102
RTVSPropertyOp9
 70
     1
102
RTVSPropertyOp10
 70
     1
102
RTVSPropertyOp11
 70
     1
102
RTVSPropertyOp12
 70
     1
102
RTVSPropertyOp13
 70
     1
102
RTVSPropertyOp14
 70
     1
102
RTVSPropertyOp15
 70
     1
102
RTVSPropertyOp16
 70
     1
102
RTVSPropertyOp17
 70
     1
102
RTVSPropertyOp18
 70
     1
102
RTVSPropertyOp19
 70
     1
102
RTVSPropertyOp20
 70
     1
102
RTVSPropertyOp21
 70
     1
102
RTVSPropertyOp22
 70
     1
102
RTVSPropertyOp23
 70
     1
102
RTVSPropertyOp24
 70
     1
102
RTVSPropertyOp25
 70
     1
102
RTVSPropertyOp26
 70
     1
102
RTVSPropertyOp27
 70
     1
102
RTVSPropertyOp28
 70
     1
102
RTVSPropertyOp29
 70
     1
102
RTVSPropertyOp30
 70
     1
102
RTVSPropertyOp31
 70
     1
102
RTVSPropertyOp32
 70
     1
  0
XRECORD
  5
42B
102
{ACAD_REACTORS
330
42A
102
}
330
42A
100
AcDbXrecord
280
     1
102
RTVSPropertyOp0
 70
     1
102
RTVSPropertyOp1
 70
     1
102
RTVSPropertyOp2
 70
     1
102
RTVSPropertyOp3
 70
     1
102
RTVSPropertyOp4
 70
     1
102
RTVSPropertyOp5
 70
     1
102
RTVSPropertyOp6
 70
     1
102
RTVSPropertyOp7
 70
     1
102
RTVSPropertyOp8
 70
     1
102
RTVSPropertyOp9
 70
     1
102
RTVSPropertyOp10
 70
     1
102
RTVSPropertyOp11
 70
     1
102
RTVSPropertyOp12
 70
     1
102
RTVSPropertyOp13
 70
     1
102
RTVSPropertyOp14
 70
     1
102
RTVSPropertyOp15
 70
     1
102
RTVSPropertyOp16
 70
     1
102
RTVSPropertyOp17
 70
     1
102
RTVSPropertyOp18
 70
     1
102
RTVSPropertyOp19
 70
     1
102
RTVSPropertyOp20
 70
     1
102
RTVSPropertyOp21
 70
     1
102
RTVSPropertyOp22
 70
     1
102
RTVSPropertyOp23
 70
     1
102
RTVSPropertyOp24
 70
     1
102
RTVSPropertyOp25
 70
     1
102
RTVSPropertyOp26
 70
     1
102
RTVSPropertyOp27
 70
     1
102
RTVSPropertyOp28
 70
     1
102
RTVSPropertyOp29
 70
     1
102
RTVSPropertyOp30
 70
     1
102
RTVSPropertyOp31
 70
     1
102
RTVSPropertyOp32
 70
     1
  0
XRECORD
  5
421
102
{ACAD_REACTORS
330
420
102
}
330
420
100
AcDbXrecord
280
     1
102
RTVSPropertyOp0
 70
     1
102
RTVSPropertyOp1
 70
     1
102
RTVSPropertyOp2
 70
     1
102
RTVSPropertyOp3
 70
     1
102
RTVSPropertyOp4
 70
     1
102
RTVSPropertyOp5
 70
     1
102
RTVSPropertyOp6
 70
     1
102
RTVSPropertyOp7
 70
     1
102
RTVSPropertyOp8
 70
     1
102
RTVSPropertyOp9
 70
     1
102
RTVSPropertyOp10
 70
     1
102
RTVSPropertyOp11
 70
     1
102
RTVSPropertyOp12
 70
     1
102
RTVSPropertyOp13
 70
     1
102
RTVSPropertyOp14
 70
     1
102
RTVSPropertyOp15
 70
     1
102
RTVSPropertyOp16
 70
     1
102
RTVSPropertyOp17
 70
     1
102
RTVSPropertyOp18
 70
     1
102
RTVSPropertyOp19
 70
     1
102
RTVSPropertyOp20
 70
     1
102
RTVSPropertyOp21
 70
     1
102
RTVSPropertyOp22
 70
     1
102
RTVSPropertyOp23
 70
     1
102
RTVSPropertyOp24
 70
     1
102
RTVSPropertyOp25
 70
     1
102
RTVSPropertyOp26
 70
     1
102
RTVSPropertyOp27
 70
     1
102
RTVSPropertyOp28
 70
     1
102
RTVSPropertyOp29
 70
     1
102
RTVSPropertyOp30
 70
     1
102
RTVSPropertyOp31
 70
     1
102
RTVSPropertyOp32
 70
     1
  0
XRECORD
  5
429
102
{ACAD_REACTORS
330
428
102
}
330
428
100
AcDbXrecord
280
     1
102
RTVSPropertyOp0
 70
     1
102
RTVSPropertyOp1
 70
     1
102
RTVSPropertyOp2
 70
     1
102
RTVSPropertyOp3
 70
     1
102
RTVSPropertyOp4
 70
     1
102
RTVSPropertyOp5
 70
     1
102
RTVSPropertyOp6
 70
     1
102
RTVSPropertyOp7
 70
     1
102
RTVSPropertyOp8
 70
     1
102
RTVSPropertyOp9
 70
     1
102
RTVSPropertyOp10
 70
     1
102
RTVSPropertyOp11
 70
     1
102
RTVSPropertyOp12
 70
     1
102
RTVSPropertyOp13
 70
     1
102
RTVSPropertyOp14
 70
     1
102
RTVSPropertyOp15
 70
     1
102
RTVSPropertyOp16
 70
     1
102
RTVSPropertyOp17
 70
     1
102
RTVSPropertyOp18
 70
     1
102
RTVSPropertyOp19
 70
     1
102
RTVSPropertyOp20
 70
     1
102
RTVSPropertyOp21
 70
     1
102
RTVSPropertyOp22
 70
     1
102
RTVSPropertyOp23
 70
     1
102
RTVSPropertyOp24
 70
     1
102
RTVSPropertyOp25
 70
     1
102
RTVSPropertyOp26
 70
     1
102
RTVSPropertyOp27
 70
     1
102
RTVSPropertyOp28
 70
     1
102
RTVSPropertyOp29
 70
     1
102
RTVSPropertyOp30
 70
     1
102
RTVSPropertyOp31
 70
     1
102
RTVSPropertyOp32
 70
     1
  0
ENDSEC
  0
EOF
