  0
SECTION
  2
HEADER
  9
$ACADVER
  1
AC1015
  9
$ACADMAINTVER
 70
     6
  9
$DWGCODEPAGE
  3
ANSI_1252
  9
$INSBASE
 10
0.0
 20
0.0
 30
0.0
  9
$EXTMIN
 10
-123.8582400613376
 20
273.1866236350681
 30
0.0
  9
$EXTMAX
 10
296.1417599386608
 20
570.1866236350681
 30
0.0
  9
$LIMMIN
 10
0.0
 20
0.0
  9
$LIMMAX
 10
12.0
 20
9.0
  9
$ORTHOMODE
 70
     0
  9
$REGENMODE
 70
     1
  9
$FILLMODE
 70
     1
  9
$QTEXTMODE
 70
     0
  9
$MIRRTEXT
 70
     1
  9
$LTSCALE
 40
1.0
  9
$ATTMODE
 70
     1
  9
$TEXTSIZE
 40
0.2
  9
$TRACEWID
 40
0.05
  9
$TEXTSTYLE
  7
Standard
  9
$CLAYER
  8
0
  9
$CELTYPE
  6
ByLayer
  9
$CECOLOR
 62
   256
  9
$CELTSCALE
 40
1.0
  9
$DISPSILH
 70
     0
  9
$DIMSCALE
 40
1.0
  9
$DIMASZ
 40
0.18
  9
$DIMEXO
 40
0.0625
  9
$DIMDLI
 40
0.38
  9
$DIMRND
 40
0.0
  9
$DIMDLE
 40
0.0
  9
$DIMEXE
 40
0.18
  9
$DIMTP
 40
0.0
  9
$DIMTM
 40
0.0
  9
$DIMTXT
 40
0.18
  9
$DIMCEN
 40
0.09
  9
$DIMTSZ
 40
0.0
  9
$DIMTOL
 70
     0
  9
$DIMLIM
 70
     0
  9
$DIMTIH
 70
     1
  9
$DIMTOH
 70
     1
  9
$DIMSE1
 70
     0
  9
$DIMSE2
 70
     0
  9
$DIMTAD
 70
     0
  9
$DIMZIN
 70
     0
  9
$DIMBLK
  1

  9
$DIMASO
 70
     1
  9
$DIMSHO
 70
     1
  9
$DIMPOST
  1

  9
$DIMAPOST
  1

  9
$DIMALT
 70
     0
  9
$DIMALTD
 70
     2
  9
$DIMALTF
 40
25.4
  9
$DIMLFAC
 40
1.0
  9
$DIMTOFL
 70
     0
  9
$DIMTVP
 40
0.0
  9
$DIMTIX
 70
     0
  9
$DIMSOXD
 70
     0
  9
$DIMSAH
 70
     0
  9
$DIMBLK1
  1

  9
$DIMBLK2
  1

  9
$DIMSTYLE
  2
Standard
  9
$DIMCLRD
 70
     0
  9
$DIMCLRE
 70
     0
  9
$DIMCLRT
 70
     0
  9
$DIMTFAC
 40
1.0
  9
$DIMGAP
 40
0.09
  9
$DIMJUST
 70
     0
  9
$DIMSD1
 70
     0
  9
$DIMSD2
 70
     0
  9
$DIMTOLJ
 70
     1
  9
$DIMTZIN
 70
     0
  9
$DIMALTZ
 70
     0
  9
$DIMALTTZ
 70
     0
  9
$DIMUPT
 70
     0
  9
$DIMDEC
 70
     4
  9
$DIMTDEC
 70
     4
  9
$DIMALTU
 70
     2
  9
$DIMALTTD
 70
     2
  9
$DIMTXSTY
  7
Standard
  9
$DIMAUNIT
 70
     0
  9
$DIMADEC
 70
     0
  9
$DIMALTRND
 40
0.0
  9
$DIMAZIN
 70
     0
  9
$DIMDSEP
 70
    46
  9
$DIMATFIT
 70
     3
  9
$DIMFRAC
 70
     0
  9
$DIMLDRBLK
  1

  9
$DIMLUNIT
 70
     2
  9
$DIMLWD
 70
    -2
  9
$DIMLWE
 70
    -2
  9
$DIMTMOVE
 70
     0
  9
$LUNITS
 70
     2
  9
$LUPREC
 70
     4
  9
$SKETCHINC
 40
0.1
  9
$FILLETRAD
 40
0.5
  9
$AUNITS
 70
     0
  9
$AUPREC
 70
     0
  9
$MENU
  1
.
  9
$ELEVATION
 40
0.0
  9
$PELEVATION
 40
0.0
  9
$THICKNESS
 40
0.0
  9
$LIMCHECK
 70
     0
  9
$CHAMFERA
 40
0.5
  9
$CHAMFERB
 40
0.5
  9
$CHAMFERC
 40
1.0
  9
$CHAMFERD
 40
0.0
  9
$SKPOLY
 70
     0
  9
$TDCREATE
 40
2456729.60201625
  9
$TDUCREATE
 40
2456729.560349583
  9
$TDUPDATE
 40
2456729.602016262
  9
$TDUUPDATE
 40
2456729.560349595
  9
$TDINDWG
 40
0.0000000116
  9
$TDUSRTIMER
 40
0.0000000116
  9
$USRTIMER
 70
     1
  9
$ANGBASE
 50
0.0
  9
$ANGDIR
 70
     0
  9
$PDMODE
 70
     0
  9
$PDSIZE
 40
0.0
  9
$PLINEWID
 40
0.0
  9
$SPLFRAME
 70
     0
  9
$SPLINETYPE
 70
     6
  9
$SPLINESEGS
 70
     8
  9
$HANDSEED
  5
388
  9
$SURFTAB1
 70
     6
  9
$SURFTAB2
 70
     6
  9
$SURFTYPE
 70
     6
  9
$SURFU
 70
     6
  9
$SURFV
 70
     6
  9
$UCSBASE
  2

  9
$UCSNAME
  2

  9
$UCSORG
 10
0.0
 20
0.0
 30
0.0
  9
$UCSXDIR
 10
1.0
 20
0.0
 30
0.0
  9
$UCSYDIR
 10
0.0
 20
1.0
 30
0.0
  9
$UCSORTHOREF
  2

  9
$UCSORTHOVIEW
 70
     0
  9
$UCSORGTOP
 10
0.0
 20
0.0
 30
0.0
  9
$UCSORGBOTTOM
 10
0.0
 20
0.0
 30
0.0
  9
$UCSORGLEFT
 10
0.0
 20
0.0
 30
0.0
  9
$UCSORGRIGHT
 10
0.0
 20
0.0
 30
0.0
  9
$UCSORGFRONT
 10
0.0
 20
0.0
 30
0.0
  9
$UCSORGBACK
 10
0.0
 20
0.0
 30
0.0
  9
$PUCSBASE
  2

  9
$PUCSNAME
  2

  9
$PUCSORG
 10
0.0
 20
0.0
 30
0.0
  9
$PUCSXDIR
 10
1.0
 20
0.0
 30
0.0
  9
$PUCSYDIR
 10
0.0
 20
1.0
 30
0.0
  9
$PUCSORTHOREF
  2

  9
$PUCSORTHOVIEW
 70
     0
  9
$PUCSORGTOP
 10
0.0
 20
0.0
 30
0.0
  9
$PUCSORGBOTTOM
 10
0.0
 20
0.0
 30
0.0
  9
$PUCSORGLEFT
 10
0.0
 20
0.0
 30
0.0
  9
$PUCSORGRIGHT
 10
0.0
 20
0.0
 30
0.0
  9
$PUCSORGFRONT
 10
0.0
 20
0.0
 30
0.0
  9
$PUCSORGBACK
 10
0.0
 20
0.0
 30
0.0
  9
$USERI1
 70
     0
  9
$USERI2
 70
     0
  9
$USERI3
 70
     0
  9
$USERI4
 70
     0
  9
$USERI5
 70
     0
  9
$USERR1
 40
16.0
  9
$USERR2
 40
0.0
  9
$USERR3
 40
0.0
  9
$USERR4
 40
0.0
  9
$USERR5
 40
0.0
  9
$WORLDVIEW
 70
     1
  9
$SHADEDGE
 70
     3
  9
$SHADEDIF
 70
    70
  9
$TILEMODE
 70
     1
  9
$MAXACTVP
 70
    64
  9
$PINSBASE
 10
0.0
 20
0.0
 30
0.0
  9
$PLIMCHECK
 70
     0
  9
$PEXTMIN
 10
1.00000000000000E+20
 20
1.00000000000000E+20
 30
1.00000000000000E+20
  9
$PEXTMAX
 10
-1.00000000000000E+20
 20
-1.00000000000000E+20
 30
-1.00000000000000E+20
  9
$PLIMMIN
 10
0.0
 20
0.0
  9
$PLIMMAX
 10
12.0
 20
9.0
  9
$UNITMODE
 70
     0
  9
$VISRETAIN
 70
     1
  9
$PLINEGEN
 70
     0
  9
$PSLTSCALE
 70
     1
  9
$TREEDEPTH
 70
  3020
  9
$CMLSTYLE
  2
Standard
  9
$CMLJUST
 70
     0
  9
$CMLSCALE
 40
1.0
  9
$PROXYGRAPHICS
 70
     1
  9
$MEASUREMENT
 70
     1
  9
$CELWEIGHT
370
    -1
  9
$ENDCAPS
280
     0
  9
$JOINSTYLE
280
     0
  9
$LWDISPLAY
290
     0
  9
$INSUNITS
 70
     1
  9
$HYPERLINKBASE
  1

  9
$STYLESHEET
  1

  9
$XEDIT
290
     1
  9
$CEPSNTYPE
380
     0
  9
$PSTYLEMODE
290
     1
  9
$FINGERPRINTGUID
  2
{AF3A1C83-3ED9-4724-AA77-10C590FF7D30}
  9
$VERSIONGUID
  2
{FAEB1C32-E019-11D5-929B-00C0DF256EC4}
  9
$EXTNAMES
290
     1
  9
$PSVPSCALE
 40
0.0
  9
$OLESTARTUP
290
     0
  0
ENDSEC
  0
SECTION
  2
CLASSES
  0
CLASS
  1
ACDBDICTIONARYWDFLT
  2
AcDbDictionaryWithDefault
  3
ObjectDBX Classes
 90
        0
280
     0
281
     0
  0
CLASS
  1
VISUALSTYLE
  2
AcDbVisualStyle
  3
ObjectDBX Classes
 90
     4095
280
     0
281
     0
  0
CLASS
  1

  2
exOdDbCircle
  3

 90
        0
280
     0
281
     1
  0
CLASS
  1
ACDBPLACEHOLDER
  2
AcDbPlaceHolder
  3
ObjectDBX Classes
 90
        0
280
     0
281
     0
  0
CLASS
  1
LAYOUT
  2
AcDbLayout
  3
ObjectDBX Classes
 90
        0
280
     0
281
     0
  0
ENDSEC
  0
SECTION
  2
TABLES
  0
TABLE
  2
VPORT
  5
8
330
0
100
AcDbSymbolTable
 70
     1
  0
VPORT
  5
29
330
8
100
AcDbSymbolTableRecord
100
AcDbViewportTableRecord
  2
*Active
 70
     0
 10
0.0
 20
0.0
 11
1.0
 21
1.0
 12
86.14175993866161
 22
421.6866236350681
 13
0.0
 23
0.0
 14
0.5
 24
0.5
 15
0.5
 25
0.5
 16
0.0
 26
0.0
 36
1.0
 17
0.0
 27
0.0
 37
0.0
 40
326.7000000000001
 41
1.60267857142857
 42
50.0
 43
0.0
 44
0.0
 50
0.0
 51
0.0
 71
     0
 72
   100
 73
     1
 74
     3
 75
     0
 76
     0
 77
     0
 78
     0
281
     0
 65
     1
110
0.0
120
0.0
130
0.0
111
1.0
121
0.0
131
0.0
112
0.0
122
1.0
132
0.0
 79
     0
146
0.0
  0
ENDTAB
  0
TABLE
  2
LTYPE
  5
5
330
0
100
AcDbSymbolTable
 70
     8
  0
LTYPE
  5
14
330
5
100
AcDbSymbolTableRecord
100
AcDbLinetypeTableRecord
  2
ByBlock
 70
     0
  3

 72
    65
 73
     0
 40
0.0
  0
LTYPE
  5
15
330
5
100
AcDbSymbolTableRecord
100
AcDbLinetypeTableRecord
  2
ByLayer
 70
     0
  3

 72
    65
 73
     0
 40
0.0
  0
LTYPE
  5
16
330
5
100
AcDbSymbolTableRecord
100
AcDbLinetypeTableRecord
  2
Continuous
 70
     0
  3
Solid line
 72
    65
 73
     0
 40
0.0
  0
LTYPE
  5
3B
330
5
100
AcDbSymbolTableRecord
100
AcDbLinetypeTableRecord
  2
DASHED
 70
     0
  3
Dashed
 72
    65
 73
     2
 40
15.0
 49
7.0
 74
     0
 49
-8.0
 74
     0
  0
LTYPE
  5
3C
330
5
100
AcDbSymbolTableRecord
100
AcDbLinetypeTableRecord
  2
DOTTED
 70
     0
  3
Dotted
 72
    65
 73
     2
 40
1.0
 49
0.0
 74
     0
 49
-1.0
 74
     0
  0
LTYPE
  5
3D
330
5
100
AcDbSymbolTableRecord
100
AcDbLinetypeTableRecord
  2
DOT_CENTER
 70
     0
  3
Dot_Center
 72
    65
 73
     4
 40
14.0
 49
12.0
 74
     0
 49
-1.0
 74
     0
 49
0.0
 74
     0
 49
-1.0
 74
     0
  0
LTYPE
  5
3E
330
5
100
AcDbSymbolTableRecord
100
AcDbLinetypeTableRecord
  2
LONG_DASHED
 70
     0
  3
Long_Dashed
 72
    65
 73
     2
 40
15.0
 49
10.0
 74
     0
 49
-5.0
 74
     0
  0
LTYPE
  5
3F
330
5
100
AcDbSymbolTableRecord
100
AcDbLinetypeTableRecord
  2
DASH_CENTER
 70
     0
  3
Dash_Center
 72
    65
 73
     4
 40
14.0
 49
11.0
 74
     0
 49
-1.0
 74
     0
 49
1.0
 74
     0
 49
-1.0
 74
     0
  0
LTYPE
  5
40
330
5
100
AcDbSymbolTableRecord
100
AcDbLinetypeTableRecord
  2
PHANTOM
 70
     0
  3
Phantom
 72
    65
 73
     6
 40
13.0
 49
10.0
 74
     0
 49
-1.0
 74
     0
 49
0.0
 74
     0
 49
-1.0
 74
     0
 49
0.0
 74
     0
 49
-1.0
 74
     0
  0
LTYPE
  5
41
330
5
100
AcDbSymbolTableRecord
100
AcDbLinetypeTableRecord
  2
CENTER_DASH_DASH
 70
     0
  3
Center_Dash_Dash
 72
    65
 73
     6
 40
14.0
 49
9.0
 74
     0
 49
-1.0
 74
     0
 49
1.0
 74
     0
 49
-1.0
 74
     0
 49
1.0
 74
     0
 49
-1.0
 74
     0
  0
ENDTAB
  0
TABLE
  2
LAYER
  5
2
330
0
100
AcDbSymbolTable
 70
     2
  0
LAYER
  5
10
330
2
100
AcDbSymbolTableRecord
100
AcDbLayerTableRecord
  2
0
 70
     0
 62
     7
  6
Continuous
370
    -3
390
F
  0
LAYER
  5
42
330
2
100
AcDbSymbolTableRecord
100
AcDbLayerTableRecord
  2
1
 70
     0
 62
     7
  6
Continuous
370
    -3
390
F
  0
ENDTAB
  0
TABLE
  2
STYLE
  5
3
330
0
100
AcDbSymbolTable
 70
     9
  0
STYLE
  5
11
330
3
100
AcDbSymbolTableRecord
100
AcDbTextStyleTableRecord
  2
Standard
 70
     0
 40
0.0
 41
1.0
 50
0.0
 71
     0
 42
0.2
  3
txt
  4

  0
STYLE
  5
11C
330
3
100
AcDbSymbolTableRecord
100
AcDbTextStyleTableRecord
  2
CONVERTER_11
 70
     0
 40
0.0
 41
0.9
 50
0.0
 71
     0
 42
0.2
  3
txt.shx
  4

  0
STYLE
  5
2FF
330
3
100
AcDbSymbolTableRecord
100
AcDbTextStyleTableRecord
  2
CONVERTER_12
 70
     0
 40
0.0
 41
0.81
 50
0.0
 71
     0
 42
0.2
  3
txt.shx
  4

  0
STYLE
  5
301
330
3
100
AcDbSymbolTableRecord
100
AcDbTextStyleTableRecord
  2
CONVERTER_13
 70
     0
 40
0.0
 41
0.54
 50
0.0
 71
     0
 42
0.2
  3
txt.shx
  4

  0
STYLE
  5
303
330
3
100
AcDbSymbolTableRecord
100
AcDbTextStyleTableRecord
  2
CONVERTER_14
 70
     0
 40
0.0
 41
0.72
 50
0.0
 71
     0
 42
0.2
  3
txt.shx
  4

  0
STYLE
  5
305
330
3
100
AcDbSymbolTableRecord
100
AcDbTextStyleTableRecord
  2
CONVERTER_15
 70
     0
 40
0.0
 41
0.63
 50
0.0
 71
     0
 42
0.2
  3
txt.shx
  4

  0
STYLE
  5
309
330
3
100
AcDbSymbolTableRecord
100
AcDbTextStyleTableRecord
  2
CONVERTER_16
 70
     0
 40
0.0
 41
0.45
 50
0.0
 71
     0
 42
0.2
  3
txt.shx
  4

  0
STYLE
  5
341
330
3
100
AcDbSymbolTableRecord
100
AcDbTextStyleTableRecord
  2
CONVERTER_17
 70
     0
 40
0.0
 41
0.855
 50
0.0
 71
     0
 42
0.2
  3
txt.shx
  4

  0
STYLE
  5
363
330
3
100
AcDbSymbolTableRecord
100
AcDbTextStyleTableRecord
  2
CONVERTER_18
 70
     0
 40
0.0
 41
0.765
 50
0.0
 71
     0
 42
0.2
  3
txt.shx
  4

  0
ENDTAB
  0
TABLE
  2
VIEW
  5
6
330
0
100
AcDbSymbolTable
 70
     0
  0
ENDTAB
  0
TABLE
  2
UCS
  5
7
330
0
100
AcDbSymbolTable
 70
     0
  0
ENDTAB
  0
TABLE
  2
APPID
  5
9
330
0
100
AcDbSymbolTable
 70
     1
  0
APPID
  5
12
330
9
100
AcDbSymbolTableRecord
100
AcDbRegAppTableRecord
  2
ACAD
 70
     0
  0
ENDTAB
  0
TABLE
  2
DIMSTYLE
  5
A
330
0
100
AcDbSymbolTable
 70
     4
100
AcDbDimStyleTable
  0
DIMSTYLE
105
27
330
A
100
AcDbSymbolTableRecord
100
AcDbDimStyleTableRecord
  2
Standard
 70
     0
340
11
  0
DIMSTYLE
105
120
102
{ACAD_REACTORS
330
121
102
}
330
A
100
AcDbSymbolTableRecord
100
AcDbDimStyleTableRecord
  2
ME10_DIM_10
 70
     0
 41
3.5
 42
0.0
 44
2.0
 73
     0
 74
     0
 77
     1
 78
     8
140
3.5
147
2.0
172
     1
173
     1
176
     2
177
     2
178
     3
340
11C
  0
DIMSTYLE
105
169
102
{ACAD_REACTORS
330
16A
102
}
330
A
100
AcDbSymbolTableRecord
100
AcDbDimStyleTableRecord
  2
ME10_DIM_11
 70
     0
 41
3.5
 42
0.0
 44
2.0
 73
     0
 74
     0
 77
     1
 78
     8
140
3.5
147
2.0
172
     1
173
     1
176
     2
177
     2
178
     3
340
11C
  0
DIMSTYLE
105
174
102
{ACAD_REACTORS
330
175
102
}
330
A
100
AcDbSymbolTableRecord
100
AcDbDimStyleTableRecord
  2
ME10_DIM_12
 70
     0
 41
3.5
 42
0.0
 44
2.0
 73
     0
 74
     0
 77
     1
 78
     8
140
3.5
147
2.0
172
     1
173
     1
176
     2
177
     2
178
     3
340
11C
  0
ENDTAB
  0
TABLE
  2
BLOCK_RECORD
  5
1
330
0
100
AcDbSymbolTable
 70
    20
  0
BLOCK_RECORD
  5
1F
330
1
100
AcDbSymbolTableRecord
100
AcDbBlockTableRecord
  2
*Model_Space
340
22
  0
BLOCK_RECORD
  5
1B
330
1
100
AcDbSymbolTableRecord
100
AcDbBlockTableRecord
  2
*Paper_Space
340
1E
  0
BLOCK_RECORD
  5
23
330
1
100
AcDbSymbolTableRecord
100
AcDbBlockTableRecord
  2
*Paper_Space0
340
26
  0
BLOCK_RECORD
  5
43
330
1
100
AcDbSymbolTableRecord
100
AcDbBlockTableRecord
  2
2859686_flt-cp-n-pe-350-st_bugy_select__1
340
0
102
{BLKREFS
331
47
102
}
  0
BLOCK_RECORD
  5
46
330
1
100
AcDbSymbolTableRecord
100
AcDbBlockTableRecord
  2
AllgSicht1
340
0
102
{BLKREFS
331
79
102
}
  0
BLOCK_RECORD
  5
4A
330
1
100
AcDbSymbolTableRecord
100
AcDbBlockTableRecord
  2
2859686_flt-cp-n-pe-350-st_bugy_select__2
340
0
102
{BLKREFS
331
4E
102
}
  0
BLOCK_RECORD
  5
4D
330
1
100
AcDbSymbolTableRecord
100
AcDbBlockTableRecord
  2
Drfsicht1
340
0
102
{BLKREFS
331
7A
102
}
  0
BLOCK_RECORD
  5
51
330
1
100
AcDbSymbolTableRecord
100
AcDbBlockTableRecord
  2
2859686_flt-cp-n-pe-350-st_bugy_select__3
340
0
102
{BLKREFS
331
55
102
}
  0
BLOCK_RECORD
  5
54
330
1
100
AcDbSymbolTableRecord
100
AcDbBlockTableRecord
  2
Rcksicht1
340
0
102
{BLKREFS
331
7B
102
}
  0
BLOCK_RECORD
  5
58
330
1
100
AcDbSymbolTableRecord
100
AcDbBlockTableRecord
  2
2859686_flt-cp-n-pe-350-st_bugy_select__4
340
0
102
{BLKREFS
331
5C
102
}
  0
BLOCK_RECORD
  5
5B
330
1
100
AcDbSymbolTableRecord
100
AcDbBlockTableRecord
  2
SA_links1
340
0
102
{BLKREFS
331
7C
102
}
  0
BLOCK_RECORD
  5
5F
330
1
100
AcDbSymbolTableRecord
100
AcDbBlockTableRecord
  2
2859686_flt-cp-n-pe-350-st_bugy_select__5
340
0
102
{BLKREFS
331
63
102
}
  0
BLOCK_RECORD
  5
62
330
1
100
AcDbSymbolTableRecord
100
AcDbBlockTableRecord
  2
SA_rechts1
340
0
102
{BLKREFS
331
7D
102
}
  0
BLOCK_RECORD
  5
66
330
1
100
AcDbSymbolTableRecord
100
AcDbBlockTableRecord
  2
2859686_flt-cp-n-pe-350-st_bugy_select__6
340
0
102
{BLKREFS
331
6A
102
}
  0
BLOCK_RECORD
  5
69
330
1
100
AcDbSymbolTableRecord
100
AcDbBlockTableRecord
  2
Vordans1
340
0
102
{BLKREFS
331
7E
102
}
  0
BLOCK_RECORD
  5
6D
330
1
100
AcDbSymbolTableRecord
100
AcDbBlockTableRecord
  2
_rahmen
340
0
102
{BLKREFS
331
74
102
}
  0
BLOCK_RECORD
  5
70
330
1
100
AcDbSymbolTableRecord
100
AcDbBlockTableRecord
  2
_punkt
340
0
102
{BLKREFS
331
75
102
}
  0
BLOCK_RECORD
  5
73
330
1
100
AcDbSymbolTableRecord
100
AcDbBlockTableRecord
  2
A3I
340
0
102
{BLKREFS
331
7F
102
}
  0
BLOCK_RECORD
  5
78
330
1
100
AcDbSymbolTableRecord
100
AcDbBlockTableRecord
  2
1
340
0
102
{BLKREFS
331
82
102
}
  0
BLOCK_RECORD
  5
116
330
1
100
AcDbSymbolTableRecord
100
AcDbBlockTableRecord
  2
*D17
340
0
  0
BLOCK_RECORD
  5
160
330
1
100
AcDbSymbolTableRecord
100
AcDbBlockTableRecord
  2
*D18
340
0
  0
BLOCK_RECORD
  5
16B
330
1
100
AcDbSymbolTableRecord
100
AcDbBlockTableRecord
  2
*D19
340
0
  0
ENDTAB
  0
ENDSEC
  0
SECTION
  2
BLOCKS
  0
BLOCK
  5
20
330
1F
100
AcDbEntity
  8
0
100
AcDbBlockBegin
  2
*Model_Space
 70
     0
 10
0.0
 20
0.0
 30
0.0
  3
*Model_Space
  1

  0
ENDBLK
  5
21
330
1F
100
AcDbEntity
  8
0
100
AcDbBlockEnd
  0
BLOCK
  5
1C
330
1B
100
AcDbEntity
 67
     1
  8
0
100
AcDbBlockBegin
  2
*Paper_Space
 70
     0
 10
0.0
 20
0.0
 30
0.0
  3
*Paper_Space
  1

  0
ENDBLK
  5
1D
330
1B
100
AcDbEntity
 67
     1
  8
0
100
AcDbBlockEnd
  0
BLOCK
  5
24
330
23
100
AcDbEntity
  8
0
100
AcDbBlockBegin
  2
*Paper_Space0
 70
     0
 10
0.0
 20
0.0
 30
0.0
  3
*Paper_Space0
  1

  0
ENDBLK
  5
25
330
23
100
AcDbEntity
  8
0
100
AcDbBlockEnd
  0
BLOCK
  5
44
330
43
100
AcDbEntity
  8
0
100
AcDbBlockBegin
  2
2859686_flt-cp-n-pe-350-st_bugy_select__1
 70
     0
 10
211.0457106322036
 20
329.3952639151295
 30
0.0
  3
2859686_flt-cp-n-pe-350-st_bugy_select__1
  1

  0
LINE
  5
83
330
43
100
AcDbEntity
  8
0
  6
Continuous
 62
     7
100
AcDbLine
 10
211.0457106322036
 20
365.8972259919095
 30
0.0
 11
211.7103635147262
 21
366.4728322728727
 31
0.0
  0
LINE
  5
84
330
43
100
AcDbEntity
  8
0
  6
Continuous
 62
     7
100
AcDbLine
 10
232.3281739393226
 20
396.4280247587265
 30
0.0
 11
236.6057846182589
 21
395.1931849202401
 31
0.0
  0
LINE
  5
85
330
43
100
AcDbEntity
  8
0
  6
Continuous
 62
     7
100
AcDbLine
 10
232.3281739393232
 20
397.813665404781
 30
0.0
 11
232.3281739393226
 21
396.4280247587265
 31
0.0
  0
LINE
  5
86
330
43
100
AcDbEntity
  8
0
  6
Continuous
 62
     7
100
AcDbLine
 10
236.5941475877275
 20
385.9271884660473
 30
0.0
 11
235.0697700614683
 21
384.6070388033487
 31
0.0
  0
LINE
  5
87
330
43
100
AcDbEntity
  8
0
  6
Continuous
 62
     7
100
AcDbLine
 10
235.9023953252264
 20
384.3666805932663
 30
0.0
 11
232.8197700614686
 21
385.2565578561869
 31
0.0
  0
LINE
  5
88
330
43
100
AcDbEntity
  8
0
  6
Continuous
 62
     7
100
AcDbLine
 10
232.8197700614686
 20
385.2565578561869
 30
0.0
 11
236.5941475877275
 21
388.5252646774003
 31
0.0
  0
LINE
  5
89
330
43
100
AcDbEntity
  8
0
  6
Continuous
 62
     7
100
AcDbLine
 10
237.8057846182589
 20
396.2324154047814
 30
0.0
 11
253.0569816989664
 21
391.8297740347761
 31
0.0
  0
LINE
  5
8A
330
43
100
AcDbEntity
  8
0
  6
Continuous
 62
     7
100
AcDbLine
 10
220.0807846182589
 20
380.8821151227022
 30
0.0
 11
237.8057846182589
 21
396.2324154047814
 31
0.0
  0
LINE
  5
8B
330
43
100
AcDbEntity
  8
0
  6
Continuous
 62
     7
100
AcDbLine
 10
214.6031739393227
 20
381.0777244766472
 30
0.0
 11
232.3281739393226
 21
396.4280247587265
 31
0.0
  0
LINE
  5
8C
330
43
100
AcDbEntity
  8
0
  6
Continuous
 62
     7
100
AcDbLine
 10
229.4353635147262
 20
398.6487478434589
 30
0.0
 11
232.3281739393232
 21
397.813665404781
 31
0.0
  0
LINE
  5
8D
330
43
100
AcDbEntity
  8
0
  6
Continuous
 62
     7
100
AcDbLine
 10
214.6031739393232
 20
382.4633651227019
 30
0.0
 11
232.3281739393232
 21
397.813665404781
 31
0.0
  0
LINE
  5
8E
330
43
100
AcDbEntity
  8
0
  6
Continuous
 62
     7
100
AcDbLine
 10
211.7103635147262
 20
383.2984475613797
 30
0.0
 11
229.4353635147262
 21
398.6487478434589
 31
0.0
  0
LINE
  5
8F
330
43
100
AcDbEntity
  8
0
  6
Continuous
 62
     7
100
AcDbLine
 10
267.988627660283
 20
375.9347817783888
 30
0.0
 11
267.988627660283
 21
370.3562290898667
 31
0.0
  0
LINE
  5
90
330
43
100
AcDbEntity
  8
0
  6
Continuous
 62
     7
100
AcDbLine
 10
267.323974777755
 20
367.471494442993
 30
0.0
 11
267.323974777755
 21
367.0946531238973
 31
0.0
  0
LINE
  5
91
330
43
100
AcDbEntity
  8
0
  6
Continuous
 62
     7
100
AcDbLine
 10
266.5544377992791
 20
380.1406341654418
 30
0.0
 11
267.988627660283
 21
375.9347817783888
 31
0.0
  0
LINE
  5
92
330
43
100
AcDbEntity
  8
0
  6
Continuous
 62
     7
100
AcDbLine
 10
264.0776084560926
 20
384.0835000536911
 30
0.0
 11
266.5544377992791
 21
380.1406341654418
 31
0.0
  0
LINE
  5
93
330
43
100
AcDbEntity
  8
0
  6
Continuous
 62
     7
100
AcDbLine
 10
260.8497416118585
 20
387.4921342925878
 30
0.0
 11
264.0776084560926
 21
384.0835000536911
 31
0.0
  0
LINE
  5
94
330
43
100
AcDbEntity
  8
0
  6
Continuous
 62
     7
100
AcDbLine
 10
257.0908110577008
 20
390.1342440917921
 30
0.0
 11
260.8497416118585
 21
387.4921342925878
 31
0.0
  0
LINE
  5
95
330
43
100
AcDbEntity
  8
0
  6
Continuous
 62
     7
100
AcDbLine
 10
236.5941475877275
 20
388.5252646774003
 30
0.0
 11
236.5941475877275
 21
385.9271884660473
 31
0.0
  0
LINE
  5
96
330
43
100
AcDbEntity
  8
0
  6
Continuous
 62
     7
100
AcDbLine
 10
237.4267728514856
 20
385.6868302559649
 30
0.0
 11
236.5941475877275
 21
385.9271884660473
 31
0.0
  0
LINE
  5
97
330
43
100
AcDbEntity
  8
0
  6
Continuous
 62
     7
100
AcDbLine
 10
239.6767728514853
 20
387.6353874144796
 30
0.0
 11
235.9023953252264
 21
384.3666805932663
 31
0.0
  0
LINE
  5
98
330
43
100
AcDbEntity
  8
0
  6
Continuous
 62
     7
100
AcDbLine
 10
236.5941475877275
 20
388.5252646774003
 30
0.0
 11
239.6767728514853
 21
387.6353874144796
 31
0.0
  0
LINE
  5
99
330
43
100
AcDbEntity
  8
0
  6
Continuous
 62
     7
100
AcDbLine
 10
248.8294377992815
 20
364.7903338833588
 30
0.0
 11
246.3526084560959
 21
368.7331997716085
 31
0.0
  0
LINE
  5
9A
330
43
100
AcDbEntity
  8
0
  6
Continuous
 62
     7
100
AcDbLine
 10
246.3526084560959
 20
368.7331997716085
 30
0.0
 11
243.1247416118585
 21
372.1418340105087
 31
0.0
  0
LINE
  5
9B
330
43
100
AcDbEntity
  8
0
  6
Continuous
 62
     7
100
AcDbLine
 10
257.0908110577008
 20
390.1342440917921
 30
0.0
 11
239.3658110577023
 21
374.7839438097124
 31
0.0
  0
LINE
  5
9C
330
43
100
AcDbEntity
  8
0
  6
Continuous
 62
     7
100
AcDbLine
 10
235.3319816989664
 20
376.4794737526969
 30
0.0
 11
253.0569816989664
 21
391.8297740347761
 31
0.0
  0
LINE
  5
9D
330
43
100
AcDbEntity
  8
0
  6
Continuous
 62
     7
100
AcDbLine
 10
260.8497416118585
 20
387.4921342925878
 30
0.0
 11
243.1247416118585
 21
372.1418340105087
 31
0.0
  0
LINE
  5
9E
330
43
100
AcDbEntity
  8
0
  6
Continuous
 62
     7
100
AcDbLine
 10
264.0776084560926
 20
384.0835000536911
 30
0.0
 11
246.3526084560959
 21
368.7331997716085
 31
0.0
  0
LINE
  5
9F
330
43
100
AcDbEntity
  8
0
  6
Continuous
 62
     7
100
AcDbLine
 10
266.5544377992791
 20
380.1406341654418
 30
0.0
 11
248.8294377992815
 21
364.7903338833588
 31
0.0
  0
LINE
  5
A0
330
43
100
AcDbEntity
  8
0
  6
Continuous
 62
     7
100
AcDbLine
 10
250.263627660283
 20
355.0059288077875
 30
0.0
 11
250.263627660283
 21
360.5844814963097
 31
0.0
  0
LINE
  5
A1
330
43
100
AcDbEntity
  8
0
  6
Continuous
 62
     7
100
AcDbLine
 10
267.988627660283
 20
375.9347817783888
 30
0.0
 11
250.263627660283
 21
360.5844814963097
 31
0.0
  0
LINE
  5
A2
330
43
100
AcDbEntity
  8
0
  6
Continuous
 62
     7
100
AcDbLine
 10
249.598974777755
 20
351.7443528418181
 30
0.0
 11
249.598974777755
 21
353.8610852511531
 31
0.0
  0
LINE
  5
A3
330
43
100
AcDbEntity
  8
0
  6
Continuous
 62
     7
100
AcDbLine
 10
211.7385309552258
 20
362.3325015501176
 30
0.0
 11
211.7385309552258
 21
340.5952639151301
 31
0.0
  0
LINE
  5
A4
330
43
100
AcDbEntity
  8
0
  6
Continuous
 62
     7
100
AcDbLine
 10
211.7103635147262
 20
383.2984475613797
 30
0.0
 11
211.7103635147262
 21
366.0012797606607
 31
0.0
  0
LINE
  5
A5
330
43
100
AcDbEntity
  8
0
  6
Continuous
 62
     7
100
AcDbLine
 10
214.6031739393227
 20
381.0777244766472
 30
0.0
 11
214.6031739393232
 21
382.4633651227019
 31
0.0
  0
LINE
  5
A6
330
43
100
AcDbEntity
  8
0
  6
Continuous
 62
     7
100
AcDbLine
 10
220.0807846182589
 20
380.8821151227022
 30
0.0
 11
220.0807846182595
 21
379.4964744766468
 31
0.0
  0
LINE
  5
A7
330
43
100
AcDbEntity
  8
0
  6
Continuous
 62
     7
100
AcDbLine
 10
243.1247416118585
 20
372.1418340105087
 30
0.0
 11
239.3658110577023
 21
374.7839438097124
 31
0.0
  0
LINE
  5
A8
330
43
100
AcDbEntity
  8
0
  6
Continuous
 62
     7
100
AcDbLine
 10
239.3658110577023
 20
374.7839438097124
 30
0.0
 11
235.3319816989664
 21
376.4794737526969
 31
0.0
  0
LINE
  5
A9
330
43
100
AcDbEntity
  8
0
  6
Continuous
 62
     7
100
AcDbLine
 10
220.0807846182595
 20
379.4964744766468
 30
0.0
 11
214.6031739393227
 21
381.0777244766472
 31
0.0
  0
LINE
  5
AA
330
43
100
AcDbEntity
  8
0
  6
Continuous
 62
     7
100
AcDbLine
 10
214.6031739393232
 20
382.4633651227019
 30
0.0
 11
211.7103635147262
 21
383.2984475613797
 31
0.0
  0
LINE
  5
AB
330
43
100
AcDbEntity
  8
0
  6
Continuous
 62
     7
100
AcDbLine
 10
235.3319816989664
 20
376.4794737526969
 30
0.0
 11
220.0807846182589
 21
380.8821151227022
 31
0.0
  0
LINE
  5
AC
330
43
100
AcDbEntity
  8
0
  6
Continuous
 62
     7
100
AcDbLine
 10
251.2292893677968
 20
353.5330880120505
 30
0.0
 11
251.2292893677968
 21
354.2972259919085
 31
0.0
  0
LINE
  5
AD
330
43
100
AcDbEntity
  8
0
  6
Continuous
 62
     7
100
AcDbLine
 10
253.0569816989664
 20
391.8297740347761
 30
0.0
 11
257.0908110577008
 21
390.1342440917921
 31
0.0
  0
LINE
  5
AE
330
43
100
AcDbEntity
  8
0
  6
Continuous
 62
     7
100
AcDbLine
 10
268.9542893677968
 20
369.6475262739876
 30
0.0
 11
268.9542893677968
 21
368.8833882941297
 31
0.0
  0
LINE
  5
AF
330
43
100
AcDbEntity
  8
0
  6
Continuous
 62
     7
100
AcDbLine
 10
267.323974777755
 20
367.0946531238973
 30
0.0
 11
268.2614690447709
 21
366.4828018321956
 31
0.0
  0
LINE
  5
B0
330
43
100
AcDbEntity
  8
0
  6
Continuous
 62
     7
100
AcDbLine
 10
267.988627660283
 20
370.3562290898667
 30
0.0
 11
268.9542893677968
 21
369.6475262739876
 31
0.0
  0
LINE
  5
B1
330
43
100
AcDbEntity
  8
0
  6
Continuous
 62
     7
100
AcDbLine
 10
251.2292893677968
 20
354.2972259919085
 30
0.0
 11
250.263627660283
 21
355.0059288077875
 31
0.0
  0
LINE
  5
B2
330
43
100
AcDbEntity
  8
0
  6
Continuous
 62
     7
100
AcDbLine
 10
250.263627660283
 20
355.0059288077875
 30
0.0
 11
267.988627660283
 21
370.3562290898667
 31
0.0
  0
LINE
  5
B3
330
43
100
AcDbEntity
  8
0
  6
Continuous
 62
     7
100
AcDbLine
 10
251.2292893677968
 20
354.2972259919085
 30
0.0
 11
268.9542893677968
 21
369.6475262739876
 31
0.0
  0
LINE
  5
B4
330
43
100
AcDbEntity
  8
0
  6
Continuous
 62
     7
100
AcDbLine
 10
250.5364690447709
 20
351.1325015501164
 30
0.0
 11
249.598974777755
 21
351.7443528418181
 31
0.0
  0
LINE
  5
B5
330
43
100
AcDbEntity
  8
0
  6
Continuous
 62
     7
100
AcDbLine
 10
268.2614690447709
 20
366.4828018321956
 30
0.0
 11
268.2614690447709
 21
344.7455641972086
 31
0.0
  0
LINE
  5
B6
330
43
100
AcDbEntity
  8
0
  6
Continuous
 62
     7
100
AcDbLine
 10
249.598974777755
 20
353.8610852511531
 30
0.0
 11
251.2292893677968
 21
353.5330880120505
 31
0.0
  0
LINE
  5
B7
330
43
100
AcDbEntity
  8
0
  6
Continuous
 62
     7
100
AcDbLine
 10
250.5364690447709
 20
351.1325015501164
 30
0.0
 11
268.2614690447709
 21
366.4828018321956
 31
0.0
  0
LINE
  5
B8
330
43
100
AcDbEntity
  8
0
  6
Continuous
 62
     7
100
AcDbLine
 10
249.598974777755
 20
351.7443528418181
 30
0.0
 11
267.323974777755
 21
367.0946531238973
 31
0.0
  0
LINE
  5
B9
330
43
100
AcDbEntity
  8
0
  6
Continuous
 62
     7
100
AcDbLine
 10
251.2292893677968
 20
353.5330880120505
 30
0.0
 11
268.9542893677968
 21
368.8833882941297
 31
0.0
  0
LINE
  5
BA
330
43
100
AcDbEntity
  8
0
  6
Continuous
 62
     7
100
AcDbLine
 10
211.0457106322036
 20
365.8972259919095
 30
0.0
 11
211.0457106322036
 21
365.1330880120487
 31
0.0
  0
LINE
  5
BB
330
43
100
AcDbEntity
  8
0
  6
Continuous
 62
     7
100
AcDbLine
 10
211.7103635147262
 20
366.0012797606607
 30
0.0
 11
211.0457106322036
 21
365.8972259919095
 31
0.0
  0
LINE
  5
BC
330
43
100
AcDbEntity
  8
0
  6
Continuous
 62
     7
100
AcDbLine
 10
212.6760252222401
 20
362.4030902743938
 30
0.0
 11
211.7385309552258
 21
362.3325015501176
 31
0.0
  0
LINE
  5
BD
330
43
100
AcDbEntity
  8
0
  6
Continuous
 62
     7
100
AcDbLine
 10
212.6760252222401
 20
364.5198226837289
 30
0.0
 11
212.6760252222401
 21
362.4030902743938
 31
0.0
  0
LINE
  5
BE
330
43
100
AcDbEntity
  8
0
  6
Continuous
 62
     7
100
AcDbLine
 10
250.263627660283
 20
360.5844814963097
 30
0.0
 11
248.8294377992815
 21
364.7903338833588
 31
0.0
  0
LINE
  5
BF
330
43
100
AcDbEntity
  8
0
  6
Continuous
 62
     7
100
AcDbLine
 10
211.7385309552258
 20
362.3325015501176
 30
0.0
 11
212.6760252222401
 21
363.1443954012542
 31
0.0
  0
LINE
  5
C0
330
43
100
AcDbEntity
  8
0
  6
Continuous
 62
     7
100
AcDbLine
 10
211.0457106322036
 20
365.1330880120487
 30
0.0
 11
212.6760252222401
 21
364.5198226837289
 31
0.0
  0
LINE
  5
C1
330
43
100
AcDbEntity
  8
0
  6
Continuous
 62
     7
100
AcDbLine
 10
250.5364690447709
 20
329.3952639151295
 30
0.0
 11
250.5364690447709
 21
351.1325015501164
 31
0.0
  0
LINE
  5
C2
330
43
100
AcDbEntity
  8
0
  6
Continuous
 62
     7
100
AcDbLine
 10
268.2614690447709
 20
344.7455641972086
 30
0.0
 11
250.5364690447709
 21
329.3952639151295
 31
0.0
  0
LINE
  5
C3
330
43
100
AcDbEntity
  8
0
  6
Continuous
 62
     7
100
AcDbLine
 10
211.7385309552258
 20
340.5952639151301
 30
0.0
 11
250.5364690447709
 21
329.3952639151295
 31
0.0
  0
ENDBLK
  5
45
330
43
100
AcDbEntity
  8
0
100
AcDbBlockEnd
  0
BLOCK
  5
48
330
46
100
AcDbEntity
  8
0
100
AcDbBlockBegin
  2
AllgSicht1
 70
     0
 10
240.0000000000002
 20
364.0179402594549
 30
0.0
  3
AllgSicht1
  1

  0
INSERT
  5
47
330
46
100
AcDbEntity
  8
0
100
AcDbBlockReference
  2
2859686_flt-cp-n-pe-350-st_bugy_select__1
 10
211.0457106322036
 20
329.3952639151295
 30
0.0
  0
ENDBLK
  5
49
330
46
100
AcDbEntity
  8
0
100
AcDbBlockEnd
  0
BLOCK
  5
4B
330
4A
100
AcDbEntity
  8
0
100
AcDbBlockBegin
  2
2859686_flt-cp-n-pe-350-st_bugy_select__2
 70
     0
 10
28.17994270821419
 20
352.168287152237
 30
0.0
  3
2859686_flt-cp-n-pe-350-st_bugy_select__2
  1

  0
LINE
  5
C4
330
4A
100
AcDbEntity
  8
0
  6
Continuous
 62
     7
100
AcDbLine
 10
28.94741774949841
 20
352.168287152237
 30
0.0
 11
28.17994270821419
 21
352.168287152237
 31
0.0
  0
LINE
  5
C5
330
4A
100
AcDbEntity
  8
0
  6
Continuous
 62
     7
100
AcDbLine
 10
32.28774750420967
 20
352.168287152237
 30
0.0
 11
28.94741774949841
 21
352.168287152237
 31
0.0
  0
LINE
  5
C6
330
4A
100
AcDbEntity
  8
0
  6
Continuous
 62
     7
100
AcDbLine
 10
32.28774750420967
 20
352.168287152237
 30
0.0
 11
32.28774750420967
 21
387.618287152237
 31
0.0
  0
LINE
  5
C7
330
4A
100
AcDbEntity
  8
0
  6
Continuous
 62
     7
100
AcDbLine
 10
28.94741774949841
 20
387.618287152237
 30
0.0
 11
32.28774750420967
 21
387.618287152237
 31
0.0
  0
LINE
  5
C8
330
4A
100
AcDbEntity
  8
0
  6
Continuous
 62
     7
100
AcDbLine
 10
48.83009883466618
 20
366.1145369430381
 30
0.0
 11
45.27058978298356
 21
366.1145369430381
 31
0.0
  0
LINE
  5
C9
330
4A
100
AcDbEntity
  8
0
  6
Continuous
 62
     7
100
AcDbLine
 10
48.83009883466618
 20
373.663291995556
 30
0.0
 11
48.83009883466618
 21
366.1145369430381
 31
0.0
  0
LINE
  5
CA
330
4A
100
AcDbEntity
  8
0
  6
Continuous
 62
     7
100
AcDbLine
 10
45.27058978298356
 20
373.663291995556
 30
0.0
 11
48.83009883466618
 21
373.663291995556
 31
0.0
  0
LINE
  5
CB
330
4A
100
AcDbEntity
  8
0
  6
Continuous
 62
     7
100
AcDbLine
 10
45.27058978298356
 20
366.1145369430381
 30
0.0
 11
45.27058978298356
 21
373.663291995556
 31
0.0
  0
LINE
  5
CC
330
4A
100
AcDbEntity
  8
0
  6
Continuous
 62
     7
100
AcDbLine
 10
56.22331298422963
 20
352.168287152237
 30
0.0
 11
56.2233129842296
 21
387.618287152237
 31
0.0
  0
LINE
  5
CD
330
4A
100
AcDbEntity
  8
0
  6
Continuous
 62
     7
100
AcDbLine
 10
38.61274750420862
 20
352.168287152237
 30
0.0
 11
38.61274750420862
 21
387.618287152237
 31
0.0
  0
LINE
  5
CE
330
4A
100
AcDbEntity
  8
0
  6
Continuous
 62
     7
100
AcDbLine
 10
28.94741774949841
 20
352.168287152237
 30
0.0
 11
28.94741774949841
 21
387.618287152237
 31
0.0
  0
LINE
  5
CF
330
4A
100
AcDbEntity
  8
0
  6
Continuous
 62
     7
100
AcDbLine
 10
28.17994270821419
 20
352.168287152237
 30
0.0
 11
28.17994270821419
 21
387.618287152237
 31
0.0
  0
LINE
  5
D0
330
4A
100
AcDbEntity
  8
0
  6
Continuous
 62
     7
100
AcDbLine
 10
65.22161705110642
 20
387.618287152237
 30
0.0
 11
68.94883663396004
 21
387.618287152237
 31
0.0
  0
LINE
  5
D1
330
4A
100
AcDbEntity
  8
0
  6
Continuous
 62
     7
100
AcDbLine
 10
68.94883663396004
 20
387.618287152237
 30
0.0
 11
71.80883281001098
 21
387.618287152237
 31
0.0
  0
LINE
  5
D2
330
4A
100
AcDbEntity
  8
0
  6
Continuous
 62
     7
100
AcDbLine
 10
73.4648926146503
 20
387.618287152237
 30
0.0
 11
74.57994270820876
 21
387.618287152237
 31
0.0
  0
LINE
  5
D3
330
4A
100
AcDbEntity
  8
0
  6
Continuous
 62
     7
100
AcDbLine
 10
60.88117791649199
 20
352.168287152237
 30
0.0
 11
56.22331298422963
 21
352.168287152237
 31
0.0
  0
LINE
  5
D4
330
4A
100
AcDbEntity
  8
0
  6
Continuous
 62
     7
100
AcDbLine
 10
56.22331298422963
 20
352.168287152237
 30
0.0
 11
38.61274750420862
 21
352.168287152237
 31
0.0
  0
LINE
  5
D5
330
4A
100
AcDbEntity
  8
0
  6
Continuous
 62
     7
100
AcDbLine
 10
38.61274750420862
 20
352.168287152237
 30
0.0
 11
32.28774750420967
 21
352.168287152237
 31
0.0
  0
LINE
  5
D6
330
4A
100
AcDbEntity
  8
0
  6
Continuous
 62
     7
100
AcDbLine
 10
68.94883663396385
 20
352.168287152237
 30
0.0
 11
65.22161705110645
 21
352.168287152237
 31
0.0
  0
LINE
  5
D7
330
4A
100
AcDbEntity
  8
0
  6
Continuous
 62
     7
100
AcDbLine
 10
73.4648926146503
 20
352.168287152237
 30
0.0
 11
71.80883281001385
 21
352.168287152237
 31
0.0
  0
LINE
  5
D8
330
4A
100
AcDbEntity
  8
0
  6
Continuous
 62
     7
100
AcDbLine
 10
60.88117791649025
 20
387.618287152237
 30
0.0
 11
65.22161705110642
 21
387.618287152237
 31
0.0
  0
LINE
  5
D9
330
4A
100
AcDbEntity
  8
0
  6
Continuous
 62
     7
100
AcDbLine
 10
65.22161705110642
 20
387.618287152237
 30
0.0
 11
65.22161705110645
 21
352.168287152237
 31
0.0
  0
LINE
  5
DA
330
4A
100
AcDbEntity
  8
0
  6
Continuous
 62
     7
100
AcDbLine
 10
65.22161705110645
 20
352.168287152237
 30
0.0
 11
60.88117791649199
 21
352.168287152237
 31
0.0
  0
LINE
  5
DB
330
4A
100
AcDbEntity
  8
0
  6
Continuous
 62
     7
100
AcDbLine
 10
60.88117791649025
 20
387.618287152237
 30
0.0
 11
60.88117791649199
 21
352.168287152237
 31
0.0
  0
LINE
  5
DC
330
4A
100
AcDbEntity
  8
0
  6
Continuous
 62
     7
100
AcDbLine
 10
74.57994270820876
 20
352.168287152237
 30
0.0
 11
73.4648926146503
 21
352.168287152237
 31
0.0
  0
LINE
  5
DD
330
4A
100
AcDbEntity
  8
0
  6
Continuous
 62
     7
100
AcDbLine
 10
71.80883281001098
 20
387.618287152237
 30
0.0
 11
73.4648926146503
 21
387.618287152237
 31
0.0
  0
LINE
  5
DE
330
4A
100
AcDbEntity
  8
0
  6
Continuous
 62
     7
100
AcDbLine
 10
71.80883281001385
 20
352.168287152237
 30
0.0
 11
68.94883663396385
 21
352.168287152237
 31
0.0
  0
LINE
  5
DF
330
4A
100
AcDbEntity
  8
0
  6
Continuous
 62
     7
100
AcDbLine
 10
71.80883281001098
 20
387.618287152237
 30
0.0
 11
71.80883281001385
 21
352.168287152237
 31
0.0
  0
LINE
  5
E0
330
4A
100
AcDbEntity
  8
0
  6
Continuous
 62
     7
100
AcDbLine
 10
73.4648926146503
 20
387.618287152237
 30
0.0
 11
73.4648926146503
 21
352.168287152237
 31
0.0
  0
LINE
  5
E1
330
4A
100
AcDbEntity
  8
0
  6
Continuous
 62
     7
100
AcDbLine
 10
74.57994270820876
 20
352.168287152237
 30
0.0
 11
74.57994270820876
 21
387.618287152237
 31
0.0
  0
LINE
  5
E2
330
4A
100
AcDbEntity
  8
0
  6
Continuous
 62
     7
100
AcDbLine
 10
56.2233129842296
 20
387.618287152237
 30
0.0
 11
60.88117791649025
 21
387.618287152237
 31
0.0
  0
LINE
  5
E3
330
4A
100
AcDbEntity
  8
0
  6
Continuous
 62
     7
100
AcDbLine
 10
38.61274750420862
 20
387.618287152237
 30
0.0
 11
56.2233129842296
 21
387.618287152237
 31
0.0
  0
LINE
  5
E4
330
4A
100
AcDbEntity
  8
0
  6
Continuous
 62
     7
100
AcDbLine
 10
32.28774750420967
 20
387.618287152237
 30
0.0
 11
38.61274750420862
 21
387.618287152237
 31
0.0
  0
LINE
  5
E5
330
4A
100
AcDbEntity
  8
0
  6
Continuous
 62
     7
100
AcDbLine
 10
28.17994270821419
 20
387.618287152237
 30
0.0
 11
28.94741774949841
 21
387.618287152237
 31
0.0
  0
LINE
  5
E6
330
4A
100
AcDbEntity
  8
0
  6
Continuous
 62
     7
100
AcDbLine
 10
68.94883663396004
 20
387.618287152237
 30
0.0
 11
68.94883663396385
 21
352.168287152237
 31
0.0
  0
ENDBLK
  5
4C
330
4A
100
AcDbEntity
  8
0
100
AcDbBlockEnd
  0
BLOCK
  5
4F
330
4D
100
AcDbEntity
  8
0
100
AcDbBlockBegin
  2
Drfsicht1
 70
     0
 10
51.37994270821238
 20
369.893287152237
 30
0.0
  3
Drfsicht1
  1

  0
INSERT
  5
4E
330
4D
100
AcDbEntity
  8
0
100
AcDbBlockReference
  2
2859686_flt-cp-n-pe-350-st_bugy_select__2
 10
28.17994270821419
 20
352.168287152237
 30
0.0
  0
ENDBLK
  5
50
330
4D
100
AcDbEntity
  8
0
100
AcDbBlockEnd
  0
BLOCK
  5
52
330
51
100
AcDbEntity
  8
0
100
AcDbBlockBegin
  2
2859686_flt-cp-n-pe-350-st_bugy_select__3
 70
     0
 10
178.7250000000002
 20
432.8696570000005
 30
0.0
  3
2859686_flt-cp-n-pe-350-st_bugy_select__3
  1

  0
LINE
  5
E7
330
51
100
AcDbEntity
  8
0
  6
Continuous
 62
     7
100
AcDbLine
 10
179.5249999999984
 20
457.9696569999977
 30
0.0
 11
179.5249999999984
 21
432.8696570000005
 31
0.0
  0
LINE
  5
E8
330
51
100
AcDbEntity
  8
0
  6
Continuous
 62
     7
100
AcDbLine
 10
224.3250000000009
 20
432.8696570000005
 30
0.0
 11
224.3250000000009
 21
457.9696569999983
 31
0.0
  0
LINE
  5
E9
330
51
100
AcDbEntity
  8
0
  6
Continuous
 62
     7
100
AcDbLine
 10
179.5249999999984
 20
432.8696570000005
 30
0.0
 11
224.3250000000009
 21
432.8696570000005
 31
0.0
  0
LINE
  5
EA
330
51
100
AcDbEntity
  8
0
  6
Continuous
 62
     7
100
AcDbLine
 10
224.3575249587106
 20
482.1696569999998
 30
0.0
 11
221.0171952039993
 21
482.1696569999998
 31
0.0
  0
LINE
  5
EB
330
51
100
AcDbEntity
  8
0
  6
Continuous
 62
     7
100
AcDbLine
 10
214.6921952040004
 20
482.1696569999998
 30
0.0
 11
197.0816297239794
 21
482.1696569999998
 31
0.0
  0
LINE
  5
EC
330
51
100
AcDbEntity
  8
0
  6
Continuous
 62
     7
100
AcDbLine
 10
197.0816297239794
 20
482.1696569999998
 30
0.0
 11
192.4237647917187
 21
481.5564374482429
 31
0.0
  0
LINE
  5
ED
330
51
100
AcDbEntity
  8
0
  6
Continuous
 62
     7
100
AcDbLine
 10
221.0171952039993
 20
482.1696569999998
 30
0.0
 11
221.017195204
 21
480.5696570000001
 31
0.0
  0
LINE
  5
EE
330
51
100
AcDbEntity
  8
0
  6
Continuous
 62
     7
100
AcDbLine
 10
221.017195204
 20
480.5696570000001
 30
0.0
 11
214.6921952039997
 21
480.5696569999997
 31
0.0
  0
LINE
  5
EF
330
51
100
AcDbEntity
  8
0
  6
Continuous
 62
     7
100
AcDbLine
 10
192.4237647917187
 20
481.5564374482429
 30
0.0
 11
188.0833256571026
 21
479.7585686920305
 31
0.0
  0
LINE
  5
F0
330
51
100
AcDbEntity
  8
0
  6
Continuous
 62
     7
100
AcDbLine
 10
224.3575249587106
 20
462.1966080280733
 30
0.0
 11
224.3575249587106
 21
482.1696569999998
 31
0.0
  0
LINE
  5
F1
330
51
100
AcDbEntity
  8
0
  6
Continuous
 62
     7
100
AcDbLine
 10
214.6921952039997
 20
480.5696569999997
 30
0.0
 11
214.6921952040004
 21
482.1696569999998
 31
0.0
  0
LINE
  5
F2
330
51
100
AcDbEntity
  8
0
  6
Continuous
 62
     7
100
AcDbLine
 10
188.0833256571026
 20
479.7585686920305
 30
0.0
 11
184.356106074249
 21
476.8985725159832
 31
0.0
  0
LINE
  5
F3
330
51
100
AcDbEntity
  8
0
  6
Continuous
 62
     7
100
AcDbLine
 10
181.496109898198
 20
473.1713529331267
 30
0.0
 11
179.8400500935587
 21
468.7929162044543
 31
0.0
  0
LINE
  5
F4
330
51
100
AcDbEntity
  8
0
  6
Continuous
 62
     7
100
AcDbLine
 10
225.1249999999948
 20
461.8549061244351
 30
0.0
 11
224.3575249587106
 21
462.1966080280733
 31
0.0
  0
LINE
  5
F5
330
51
100
AcDbEntity
  8
0
  6
Continuous
 62
     7
100
AcDbLine
 10
179.8400500935587
 20
468.7929162044543
 30
0.0
 11
179.8400500935587
 21
462.3513584116407
 31
0.0
  0
LINE
  5
F6
330
51
100
AcDbEntity
  8
0
  6
Continuous
 62
     7
100
AcDbLine
 10
178.7250000000002
 20
461.8549061244323
 30
0.0
 11
178.7250000000002
 21
460.9725555876942
 31
0.0
  0
LINE
  5
F7
330
51
100
AcDbEntity
  8
0
  6
Continuous
 62
     7
100
AcDbLine
 10
225.1249999999948
 20
460.9725555876937
 30
0.0
 11
225.1249999999948
 21
461.8549061244351
 31
0.0
  0
LINE
  5
F8
330
51
100
AcDbEntity
  8
0
  6
Continuous
 62
     7
100
AcDbLine
 10
179.8400500935587
 20
462.3513584116407
 30
0.0
 11
178.7250000000002
 21
461.8549061244323
 31
0.0
  0
LINE
  5
F9
330
51
100
AcDbEntity
  8
0
  6
Continuous
 62
     7
100
AcDbLine
 10
223.2424748651521
 20
460.8078559795923
 30
0.0
 11
225.1249999999948
 21
460.9725555876937
 31
0.0
  0
LINE
  5
FA
330
51
100
AcDbEntity
  8
0
  6
Continuous
 62
     7
100
AcDbLine
 10
178.7250000000002
 20
460.9725555876942
 30
0.0
 11
180.6075251348491
 21
460.8078559795923
 31
0.0
  0
LINE
  5
FB
330
51
100
AcDbEntity
  8
0
  6
Continuous
 62
     7
100
AcDbLine
 10
180.6075251348491
 20
460.8078559795923
 30
0.0
 11
180.6075251348491
 21
458.3636639269284
 31
0.0
  0
LINE
  5
FC
330
51
100
AcDbEntity
  8
0
  6
Continuous
 62
     7
100
AcDbLine
 10
223.2424748651521
 20
458.3636639269283
 30
0.0
 11
223.2424748651521
 21
460.8078559795923
 31
0.0
  0
LINE
  5
FD
330
51
100
AcDbEntity
  8
0
  6
Continuous
 62
     7
100
AcDbLine
 10
224.3250000000009
 20
457.9696569999983
 30
0.0
 11
223.2424748651521
 21
458.3636639269283
 31
0.0
  0
LINE
  5
FE
330
51
100
AcDbEntity
  8
0
  6
Continuous
 62
     7
100
AcDbLine
 10
180.6075251348491
 20
458.3636639269284
 30
0.0
 11
179.5249999999984
 21
457.9696569999977
 31
0.0
  0
LINE
  5
FF
330
51
100
AcDbEntity
  8
0
  6
Continuous
 62
     7
100
AcDbLine
 10
184.356106074249
 20
476.8985725159832
 30
0.0
 11
181.496109898198
 21
473.1713529331267
 31
0.0
  0
ENDBLK
  5
53
330
51
100
AcDbEntity
  8
0
100
AcDbBlockEnd
  0
BLOCK
  5
56
330
54
100
AcDbEntity
  8
0
100
AcDbBlockBegin
  2
Rcksicht1
 70
     0
 10
201.9249999999975
 20
457.5196570000001
 30
0.0
  3
Rcksicht1
  1

  0
INSERT
  5
55
330
54
100
AcDbEntity
  8
0
100
AcDbBlockReference
  2
2859686_flt-cp-n-pe-350-st_bugy_select__3
 10
178.7250000000002
 20
432.8696570000005
 30
0.0
  0
ENDBLK
  5
57
330
54
100
AcDbEntity
  8
0
100
AcDbBlockEnd
  0
BLOCK
  5
59
330
58
100
AcDbEntity
  8
0
100
AcDbBlockBegin
  2
2859686_flt-cp-n-pe-350-st_bugy_select__4
 70
     0
 10
113.133978500761
 20
432.6959236144624
 30
0.0
  3
2859686_flt-cp-n-pe-350-st_bugy_select__4
  1

  0
LINE
  5
100
330
58
100
AcDbEntity
  8
0
  6
Continuous
 62
     7
100
AcDbLine
 10
113.133978500761
 20
457.7959236144602
 30
0.0
 11
113.133978500761
 21
458.1899305413903
 31
0.0
  0
LINE
  5
101
330
58
100
AcDbEntity
  8
0
  6
Continuous
 62
     7
100
AcDbLine
 10
113.133978500761
 20
458.1899305413903
 30
0.0
 11
113.133978500761
 21
460.6341225940542
 31
0.0
  0
LINE
  5
102
330
58
100
AcDbEntity
  8
0
  6
Continuous
 62
     7
100
AcDbLine
 10
113.133978500761
 20
461.681172738897
 30
0.0
 11
113.133978500761
 21
462.0228746425353
 31
0.0
  0
LINE
  5
103
330
58
100
AcDbEntity
  8
0
  6
Continuous
 62
     7
100
AcDbLine
 10
148.583978500761
 20
460.7988222021556
 30
0.0
 11
148.583978500761
 21
460.6341225940543
 31
0.0
  0
LINE
  5
104
330
58
100
AcDbEntity
  8
0
  6
Continuous
 62
     7
100
AcDbLine
 10
148.583978500761
 20
481.9959236144617
 30
0.0
 11
148.583978500761
 21
462.0228746425353
 31
0.0
  0
LINE
  5
105
330
58
100
AcDbEntity
  8
0
  6
Continuous
 62
     7
100
AcDbLine
 10
148.583978500761
 20
462.0228746425353
 30
0.0
 11
148.583978500761
 21
461.681172738897
 31
0.0
  0
LINE
  5
106
330
58
100
AcDbEntity
  8
0
  6
Continuous
 62
     7
100
AcDbLine
 10
148.583978500761
 20
461.681172738897
 30
0.0
 11
113.133978500761
 21
461.681172738897
 31
0.0
  0
LINE
  5
107
330
58
100
AcDbEntity
  8
0
  6
Continuous
 62
     7
100
AcDbLine
 10
148.583978500761
 20
461.681172738897
 30
0.0
 11
148.583978500761
 21
460.7988222021556
 31
0.0
  0
LINE
  5
108
330
58
100
AcDbEntity
  8
0
  6
Continuous
 62
     7
100
AcDbLine
 10
113.133978500761
 20
462.0228746425353
 30
0.0
 11
113.133978500761
 21
481.9959236144617
 31
0.0
  0
LINE
  5
109
330
58
100
AcDbEntity
  8
0
  6
Continuous
 62
     7
100
AcDbLine
 10
148.583978500761
 20
460.7988222021556
 30
0.0
 11
113.133978500761
 21
460.7988222021556
 31
0.0
  0
LINE
  5
10A
330
58
100
AcDbEntity
  8
0
  6
Continuous
 62
     7
100
AcDbLine
 10
148.583978500761
 20
481.9959236144617
 30
0.0
 11
113.133978500761
 21
481.9959236144617
 31
0.0
  0
LINE
  5
10B
330
58
100
AcDbEntity
  8
0
  6
Continuous
 62
     7
100
AcDbLine
 10
113.133978500761
 20
460.7988222021556
 30
0.0
 11
113.133978500761
 21
461.681172738897
 31
0.0
  0
LINE
  5
10C
330
58
100
AcDbEntity
  8
0
  6
Continuous
 62
     7
100
AcDbLine
 10
113.133978500761
 20
460.6341225940542
 30
0.0
 11
113.133978500761
 21
460.7988222021556
 31
0.0
  0
LINE
  5
10D
330
58
100
AcDbEntity
  8
0
  6
Continuous
 62
     7
100
AcDbLine
 10
113.133978500761
 20
462.0228746425353
 30
0.0
 11
148.583978500761
 21
462.0228746425353
 31
0.0
  0
LINE
  5
10E
330
58
100
AcDbEntity
  8
0
  6
Continuous
 62
     7
100
AcDbLine
 10
148.583978500761
 20
458.1899305413903
 30
0.0
 11
148.583978500761
 21
457.7959236144602
 31
0.0
  0
LINE
  5
10F
330
58
100
AcDbEntity
  8
0
  6
Continuous
 62
     7
100
AcDbLine
 10
148.583978500761
 20
460.6341225940543
 30
0.0
 11
148.583978500761
 21
458.1899305413903
 31
0.0
  0
LINE
  5
110
330
58
100
AcDbEntity
  8
0
  6
Continuous
 62
     7
100
AcDbLine
 10
148.583978500761
 20
458.1899305413903
 30
0.0
 11
113.133978500761
 21
458.1899305413903
 31
0.0
  0
LINE
  5
111
330
58
100
AcDbEntity
  8
0
  6
Continuous
 62
     7
100
AcDbLine
 10
148.583978500761
 20
460.6341225940543
 30
0.0
 11
113.133978500761
 21
460.6341225940542
 31
0.0
  0
LINE
  5
112
330
58
100
AcDbEntity
  8
0
  6
Continuous
 62
     7
100
AcDbLine
 10
148.583978500761
 20
457.7959236144602
 30
0.0
 11
113.133978500761
 21
457.7959236144602
 31
0.0
  0
LINE
  5
113
330
58
100
AcDbEntity
  8
0
  6
Continuous
 62
     7
100
AcDbLine
 10
113.133978500761
 20
432.6959236144624
 30
0.0
 11
113.133978500761
 21
457.7959236144602
 31
0.0
  0
LINE
  5
114
330
58
100
AcDbEntity
  8
0
  6
Continuous
 62
     7
100
AcDbLine
 10
148.583978500761
 20
457.7959236144602
 30
0.0
 11
148.583978500761
 21
432.6959236144624
 31
0.0
  0
LINE
  5
115
330
58
100
AcDbEntity
  8
0
  6
Continuous
 62
     7
100
AcDbLine
 10
113.133978500761
 20
432.6959236144624
 30
0.0
 11
148.583978500761
 21
432.6959236144624
 31
0.0
  0
ENDBLK
  5
5A
330
58
100
AcDbEntity
  8
0
100
AcDbBlockEnd
  0
BLOCK
  5
5D
330
5B
100
AcDbEntity
  8
0
100
AcDbBlockBegin
  2
SA_links1
 70
     0
 10
130.858978500761
 20
457.519656765093
 30
0.0
  3
SA_links1
  1

  0
INSERT
  5
5C
330
5B
100
AcDbEntity
  8
0
100
AcDbBlockReference
  2
2859686_flt-cp-n-pe-350-st_bugy_select__4
 10
113.133978500761
 20
432.6959236144624
 30
0.0
  0
DIMENSION
  5
121
330
5B
100
AcDbEntity
  8
1
100
AcDbDimension
  2
*D17
 10
113.133978500761
 20
421.1394339747354
 30
0.0
 11
130.1430544686209
 21
425.0644339747354
 31
0.0
 70
    32
  1
<>
 71
     5
 42
-1.0
 53
0.00013888888889
  3
ME10_DIM_10
100
AcDbAlignedDimension
 13
148.583978500761
 23
432.6959236144624
 33
0.0
 14
113.133978500761
 24
432.6959236144624
 34
0.0
100
AcDbRotatedDimension
  0
ENDBLK
  5
5E
330
5B
100
AcDbEntity
  8
0
100
AcDbBlockEnd
  0
BLOCK
  5
60
330
5F
100
AcDbEntity
  8
0
100
AcDbBlockBegin
  2
2859686_flt-cp-n-pe-350-st_bugy_select__5
 70
     0
 10
-54.72500000000096
 20
432.8696570000005
 30
0.0
  3
2859686_flt-cp-n-pe-350-st_bugy_select__5
  1

  0
LINE
  5
122
330
5F
100
AcDbEntity
  8
0
  6
Continuous
 62
     7
100
AcDbLine
 10
-19.275000000001
 20
479.7585686920305
 30
0.0
 11
-19.275000000001
 21
476.8985725159832
 31
0.0
  0
LINE
  5
123
330
5F
100
AcDbEntity
  8
0
  6
Continuous
 62
     7
100
AcDbLine
 10
-19.275000000001
 20
458.3636639269284
 30
0.0
 11
-19.275000000001
 21
457.9696569999977
 31
0.0
  0
LINE
  5
124
330
5F
100
AcDbEntity
  8
0
  6
Continuous
 62
     7
100
AcDbLine
 10
-54.72500000000096
 20
458.3636639269283
 30
0.0
 11
-54.72500000000096
 21
460.8078559795923
 31
0.0
  0
LINE
  5
125
330
5F
100
AcDbEntity
  8
0
  6
Continuous
 62
     7
100
AcDbLine
 10
-54.72500000000096
 20
460.9725555876942
 30
0.0
 11
-54.72500000000096
 21
461.8549061244323
 31
0.0
  0
LINE
  5
126
330
5F
100
AcDbEntity
  8
0
  6
Continuous
 62
     7
100
AcDbLine
 10
-54.72500000000096
 20
460.8078559795923
 30
0.0
 11
-54.72500000000096
 21
460.9725555876942
 31
0.0
  0
LINE
  5
127
330
5F
100
AcDbEntity
  8
0
  6
Continuous
 62
     7
100
AcDbLine
 10
-54.72500000000096
 20
473.1713529331231
 30
0.0
 11
-54.72500000000096
 21
476.8985725159803
 31
0.0
  0
LINE
  5
128
330
5F
100
AcDbEntity
  8
0
  6
Continuous
 62
     7
100
AcDbLine
 10
-54.72500000000096
 20
468.7929162044543
 30
0.0
 11
-54.72500000000096
 21
473.1713529331231
 31
0.0
  0
LINE
  5
129
330
5F
100
AcDbEntity
  8
0
  6
Continuous
 62
     7
100
AcDbLine
 10
-54.72500000000096
 20
461.8549061244323
 30
0.0
 11
-54.72500000000096
 21
462.3513584116407
 31
0.0
  0
LINE
  5
12A
330
5F
100
AcDbEntity
  8
0
  6
Continuous
 62
     7
100
AcDbLine
 10
-54.72500000000096
 20
462.3513584116407
 30
0.0
 11
-54.72500000000096
 21
468.7929162044543
 31
0.0
  0
LINE
  5
12B
330
5F
100
AcDbEntity
  8
0
  6
Continuous
 62
     7
100
AcDbLine
 10
-54.72500000000096
 20
432.8696570000005
 30
0.0
 11
-54.72500000000096
 21
457.9696569999977
 31
0.0
  0
LINE
  5
12C
330
5F
100
AcDbEntity
  8
0
  6
Continuous
 62
     7
100
AcDbLine
 10
-19.275000000001
 20
460.8078559795923
 30
0.0
 11
-19.275000000001
 21
458.3636639269284
 31
0.0
  0
LINE
  5
12D
330
5F
100
AcDbEntity
  8
0
  6
Continuous
 62
     7
100
AcDbLine
 10
-19.275000000001
 20
461.8549061244323
 30
0.0
 11
-19.275000000001
 21
460.9725555876942
 31
0.0
  0
LINE
  5
12E
330
5F
100
AcDbEntity
  8
0
  6
Continuous
 62
     7
100
AcDbLine
 10
-19.275000000001
 20
460.9725555876942
 30
0.0
 11
-19.275000000001
 21
460.8078559795923
 31
0.0
  0
LINE
  5
12F
330
5F
100
AcDbEntity
  8
0
  6
Continuous
 62
     7
100
AcDbLine
 10
-19.275000000001
 20
476.8985725159832
 30
0.0
 11
-19.275000000001
 21
473.1713529331267
 31
0.0
  0
LINE
  5
130
330
5F
100
AcDbEntity
  8
0
  6
Continuous
 62
     7
100
AcDbLine
 10
-19.275000000001
 20
473.1713529331267
 30
0.0
 11
-19.275000000001
 21
468.7929162044543
 31
0.0
  0
LINE
  5
131
330
5F
100
AcDbEntity
  8
0
  6
Continuous
 62
     7
100
AcDbLine
 10
-19.275000000001
 20
462.3513584116407
 30
0.0
 11
-19.275000000001
 21
461.8549061244323
 31
0.0
  0
LINE
  5
132
330
5F
100
AcDbEntity
  8
0
  6
Continuous
 62
     7
100
AcDbLine
 10
-19.275000000001
 20
468.7929162044543
 30
0.0
 11
-19.275000000001
 21
462.3513584116407
 31
0.0
  0
LINE
  5
133
330
5F
100
AcDbEntity
  8
0
  6
Continuous
 62
     7
100
AcDbLine
 10
-19.275000000001
 20
457.9696569999977
 30
0.0
 11
-19.275000000001
 21
432.8696570000005
 31
0.0
  0
LINE
  5
134
330
5F
100
AcDbEntity
  8
0
  6
Continuous
 62
     7
100
AcDbLine
 10
-54.72500000000096
 20
457.9696569999977
 30
0.0
 11
-54.72500000000096
 21
458.3636639269283
 31
0.0
  0
LINE
  5
135
330
5F
100
AcDbEntity
  8
0
  6
Continuous
 62
     7
100
AcDbLine
 10
-54.72500000000096
 20
457.9696569999977
 30
0.0
 11
-19.275000000001
 21
457.9696569999977
 31
0.0
  0
LINE
  5
136
330
5F
100
AcDbEntity
  8
0
  6
Continuous
 62
     7
100
AcDbLine
 10
-19.275000000001
 20
473.1713529331267
 30
0.0
 11
-54.72500000000096
 21
473.1713529331231
 31
0.0
  0
LINE
  5
137
330
5F
100
AcDbEntity
  8
0
  6
Continuous
 62
     7
100
AcDbLine
 10
-19.275000000001
 20
468.7929162044543
 30
0.0
 11
-54.72500000000096
 21
468.7929162044543
 31
0.0
  0
LINE
  5
138
330
5F
100
AcDbEntity
  8
0
  6
Continuous
 62
     7
100
AcDbLine
 10
-54.72500000000096
 20
462.3513584116407
 30
0.0
 11
-19.275000000001
 21
462.3513584116407
 31
0.0
  0
LINE
  5
139
330
5F
100
AcDbEntity
  8
0
  6
Continuous
 62
     7
100
AcDbLine
 10
-54.72500000000096
 20
461.8549061244323
 30
0.0
 11
-19.275000000001
 21
461.8549061244323
 31
0.0
  0
LINE
  5
13A
330
5F
100
AcDbEntity
  8
0
  6
Continuous
 62
     7
100
AcDbLine
 10
-54.72500000000096
 20
460.9725555876942
 30
0.0
 11
-19.275000000001
 21
460.9725555876942
 31
0.0
  0
LINE
  5
13B
330
5F
100
AcDbEntity
  8
0
  6
Continuous
 62
     7
100
AcDbLine
 10
-54.72500000000096
 20
460.8078559795923
 30
0.0
 11
-19.275000000001
 21
460.8078559795923
 31
0.0
  0
LINE
  5
13C
330
5F
100
AcDbEntity
  8
0
  6
Continuous
 62
     7
100
AcDbLine
 10
-54.72500000000096
 20
458.3636639269283
 30
0.0
 11
-19.275000000001
 21
458.3636639269284
 31
0.0
  0
LINE
  5
13D
330
5F
100
AcDbEntity
  8
0
  6
Continuous
 62
     7
100
AcDbLine
 10
-19.275000000001
 20
432.8696570000005
 30
0.0
 11
-54.72500000000096
 21
432.8696570000005
 31
0.0
  0
LINE
  5
13E
330
5F
100
AcDbEntity
  8
0
  6
Continuous
 62
     7
100
AcDbLine
 10
-19.275000000001
 20
476.8985725159832
 30
0.0
 11
-54.72500000000096
 21
476.8985725159803
 31
0.0
  0
LINE
  5
13F
330
5F
100
AcDbEntity
  8
0
  6
Continuous
 62
     7
100
AcDbLine
 10
-54.72500000000096
 20
476.8985725159803
 30
0.0
 11
-54.72500000000096
 21
479.7585686920305
 31
0.0
  0
LINE
  5
140
330
5F
100
AcDbEntity
  8
0
  6
Continuous
 62
     7
100
AcDbLine
 10
-19.275000000001
 20
481.5564374482429
 30
0.0
 11
-19.275000000001
 21
479.7585686920305
 31
0.0
  0
LINE
  5
141
330
5F
100
AcDbEntity
  8
0
  6
Continuous
 62
     7
100
AcDbLine
 10
-19.275000000001
 20
482.1696569999998
 30
0.0
 11
-19.275000000001
 21
481.5564374482429
 31
0.0
  0
LINE
  5
142
330
5F
100
AcDbEntity
  8
0
  6
Continuous
 62
     7
100
AcDbLine
 10
-54.72500000000096
 20
479.7585686920305
 30
0.0
 11
-54.72500000000096
 21
481.5564374482427
 31
0.0
  0
LINE
  5
143
330
5F
100
AcDbEntity
  8
0
  6
Continuous
 62
     7
100
AcDbLine
 10
-54.72500000000096
 20
481.5564374482427
 30
0.0
 11
-54.72500000000096
 21
482.1696569999998
 31
0.0
  0
LINE
  5
144
330
5F
100
AcDbEntity
  8
0
  6
Continuous
 62
     7
100
AcDbLine
 10
-19.275000000001
 20
479.7585686920305
 30
0.0
 11
-54.72500000000096
 21
479.7585686920305
 31
0.0
  0
LINE
  5
145
330
5F
100
AcDbEntity
  8
0
  6
Continuous
 62
     7
100
AcDbLine
 10
-54.72500000000096
 20
482.1696569999998
 30
0.0
 11
-19.275000000001
 21
482.1696569999998
 31
0.0
  0
LINE
  5
146
330
5F
100
AcDbEntity
  8
0
  6
Continuous
 62
     7
100
AcDbLine
 10
-19.275000000001
 20
481.5564374482429
 30
0.0
 11
-54.72500000000096
 21
481.5564374482427
 31
0.0
  0
ENDBLK
  5
61
330
5F
100
AcDbEntity
  8
0
100
AcDbBlockEnd
  0
BLOCK
  5
64
330
62
100
AcDbEntity
  8
0
100
AcDbBlockBegin
  2
SA_rechts1
 70
     0
 10
-37.000000000001
 20
457.5196570000001
 30
0.0
  3
SA_rechts1
  1

  0
INSERT
  5
63
330
62
100
AcDbEntity
  8
0
100
AcDbBlockReference
  2
2859686_flt-cp-n-pe-350-st_bugy_select__5
 10
-54.72500000000096
 20
432.8696570000005
 30
0.0
  0
ENDBLK
  5
65
330
62
100
AcDbEntity
  8
0
100
AcDbBlockEnd
  0
BLOCK
  5
67
330
66
100
AcDbEntity
  8
0
100
AcDbBlockBegin
  2
2859686_flt-cp-n-pe-350-st_bugy_select__6
 70
     0
 10
28.17994270821419
 20
432.6959236144624
 30
0.0
  3
2859686_flt-cp-n-pe-350-st_bugy_select__6
  1

  0
LINE
  5
147
330
66
100
AcDbEntity
  8
0
  6
Continuous
 62
     7
100
AcDbLine
 10
73.77994270821063
 20
432.6959236144624
 30
0.0
 11
73.77994270821063
 21
457.7959236144596
 31
0.0
  0
LINE
  5
148
330
66
100
AcDbEntity
  8
0
  6
Continuous
 62
     7
100
AcDbLine
 10
28.97994270820805
 20
457.7959236144602
 30
0.0
 11
28.97994270820804
 21
432.6959236144624
 31
0.0
  0
LINE
  5
149
330
66
100
AcDbEntity
  8
0
  6
Continuous
 62
     7
100
AcDbLine
 10
28.97994270820804
 20
432.6959236144624
 30
0.0
 11
73.77994270821063
 21
432.6959236144624
 31
0.0
  0
LINE
  5
14A
330
66
100
AcDbEntity
  8
0
  6
Continuous
 62
     7
100
AcDbLine
 10
71.80883281001385
 20
472.997619547585
 30
0.0
 11
68.94883663396385
 21
476.7248391304422
 31
0.0
  0
LINE
  5
14B
330
66
100
AcDbEntity
  8
0
  6
Continuous
 62
     7
100
AcDbLine
 10
73.4648926146503
 20
468.6191828189162
 30
0.0
 11
71.80883281001385
 21
472.997619547585
 31
0.0
  0
LINE
  5
14C
330
66
100
AcDbEntity
  8
0
  6
Continuous
 62
     7
100
AcDbLine
 10
32.287747504209
 20
480.395923614462
 30
0.0
 11
32.28774750420967
 21
481.9959236144617
 31
0.0
  0
LINE
  5
14D
330
66
100
AcDbEntity
  8
0
  6
Continuous
 62
     7
100
AcDbLine
 10
38.61274750420862
 20
481.9959236144617
 30
0.0
 11
38.61274750420929
 21
480.3959236144617
 31
0.0
  0
LINE
  5
14E
330
66
100
AcDbEntity
  8
0
  6
Continuous
 62
     7
100
AcDbLine
 10
65.22161705110645
 20
479.5848353064924
 30
0.0
 11
60.88117791649199
 21
481.3827040627046
 31
0.0
  0
LINE
  5
14F
330
66
100
AcDbEntity
  8
0
  6
Continuous
 62
     7
100
AcDbLine
 10
60.88117791649199
 20
481.3827040627046
 30
0.0
 11
56.22331298422963
 21
481.9959236144617
 31
0.0
  0
LINE
  5
150
330
66
100
AcDbEntity
  8
0
  6
Continuous
 62
     7
100
AcDbLine
 10
56.22331298422963
 20
481.9959236144617
 30
0.0
 11
38.61274750420862
 21
481.9959236144617
 31
0.0
  0
LINE
  5
151
330
66
100
AcDbEntity
  8
0
  6
Continuous
 62
     7
100
AcDbLine
 10
38.61274750420929
 20
480.3959236144617
 30
0.0
 11
32.287747504209
 21
480.395923614462
 31
0.0
  0
LINE
  5
152
330
66
100
AcDbEntity
  8
0
  6
Continuous
 62
     7
100
AcDbLine
 10
32.28774750420967
 20
481.9959236144617
 30
0.0
 11
28.94741774949841
 21
481.9959236144617
 31
0.0
  0
LINE
  5
153
330
66
100
AcDbEntity
  8
0
  6
Continuous
 62
     7
100
AcDbLine
 10
28.94741774949841
 20
481.9959236144617
 30
0.0
 11
28.94741774949839
 21
462.0228746425353
 31
0.0
  0
LINE
  5
154
330
66
100
AcDbEntity
  8
0
  6
Continuous
 62
     7
100
AcDbLine
 10
73.4648926146503
 20
462.1776250261027
 30
0.0
 11
73.4648926146503
 21
468.6191828189162
 31
0.0
  0
LINE
  5
155
330
66
100
AcDbEntity
  8
0
  6
Continuous
 62
     7
100
AcDbLine
 10
72.69741757335993
 20
458.1899305413903
 30
0.0
 11
72.69741757335993
 21
460.6341225940542
 31
0.0
  0
LINE
  5
156
330
66
100
AcDbEntity
  8
0
  6
Continuous
 62
     7
100
AcDbLine
 10
30.06246784305687
 20
460.6341225940543
 30
0.0
 11
30.06246784305689
 21
458.1899305413903
 31
0.0
  0
LINE
  5
157
330
66
100
AcDbEntity
  8
0
  6
Continuous
 62
     7
100
AcDbLine
 10
74.57994270820876
 20
461.6811727388942
 30
0.0
 11
73.4648926146503
 21
462.1776250261027
 31
0.0
  0
LINE
  5
158
330
66
100
AcDbEntity
  8
0
  6
Continuous
 62
     7
100
AcDbLine
 10
28.94741774949839
 20
462.0228746425353
 30
0.0
 11
28.17994270821419
 21
461.681172738897
 31
0.0
  0
LINE
  5
159
330
66
100
AcDbEntity
  8
0
  6
Continuous
 62
     7
100
AcDbLine
 10
74.57994270820876
 20
460.7988222021561
 30
0.0
 11
74.57994270820876
 21
461.6811727388942
 31
0.0
  0
LINE
  5
15A
330
66
100
AcDbEntity
  8
0
  6
Continuous
 62
     7
100
AcDbLine
 10
28.17994270821419
 20
461.681172738897
 30
0.0
 11
28.17994270821419
 21
460.7988222021556
 31
0.0
  0
LINE
  5
15B
330
66
100
AcDbEntity
  8
0
  6
Continuous
 62
     7
100
AcDbLine
 10
72.69741757335993
 20
460.6341225940542
 30
0.0
 11
74.57994270820876
 21
460.7988222021561
 31
0.0
  0
LINE
  5
15C
330
66
100
AcDbEntity
  8
0
  6
Continuous
 62
     7
100
AcDbLine
 10
28.17994270821419
 20
460.7988222021556
 30
0.0
 11
30.06246784305687
 21
460.6341225940543
 31
0.0
  0
LINE
  5
15D
330
66
100
AcDbEntity
  8
0
  6
Continuous
 62
     7
100
AcDbLine
 10
73.77994270821063
 20
457.7959236144596
 30
0.0
 11
72.69741757335993
 21
458.1899305413903
 31
0.0
  0
LINE
  5
15E
330
66
100
AcDbEntity
  8
0
  6
Continuous
 62
     7
100
AcDbLine
 10
30.06246784305689
 20
458.1899305413903
 30
0.0
 11
28.97994270820805
 21
457.7959236144602
 31
0.0
  0
LINE
  5
15F
330
66
100
AcDbEntity
  8
0
  6
Continuous
 62
     7
100
AcDbLine
 10
68.94883663396385
 20
476.7248391304422
 30
0.0
 11
65.22161705110645
 21
479.5848353064924
 31
0.0
  0
ENDBLK
  5
68
330
66
100
AcDbEntity
  8
0
100
AcDbBlockEnd
  0
BLOCK
  5
6B
330
69
100
AcDbEntity
  8
0
100
AcDbBlockBegin
  2
Vordans1
 70
     0
 10
51.37994270821238
 20
457.519656765093
 30
0.0
  3
Vordans1
  1

  0
INSERT
  5
6A
330
69
100
AcDbEntity
  8
0
100
AcDbBlockReference
  2
2859686_flt-cp-n-pe-350-st_bugy_select__6
 10
28.17994270821419
 20
432.6959236144624
 30
0.0
  0
DIMENSION
  5
16A
330
69
100
AcDbEntity
  8
1
100
AcDbDimension
  2
*D18
 10
28.97994270820802
 20
420.9007926306887
 30
0.0
 11
52.3345080843994
 21
424.8257926306887
 31
0.0
 70
    32
  1
<>
 71
     5
 42
-1.0
 53
0.00013888888889
  3
ME10_DIM_11
100
AcDbAlignedDimension
 13
73.77994270821063
 23
432.6959236144624
 33
0.0
 14
28.97994270820804
 24
432.6959236144624
 34
0.0
100
AcDbRotatedDimension
  0
DIMENSION
  5
175
330
69
100
AcDbEntity
  8
1
100
AcDbDimension
  2
*D19
 10
21.17923050952644
 20
432.6959236144624
 30
0.0
 11
17.25423050952644
 21
459.6674288615139
 31
0.0
 70
    32
  1
<>
 71
     5
 42
-1.0
 53
90.0
  3
ME10_DIM_12
100
AcDbAlignedDimension
 13
38.61274750420862
 23
481.9959236144617
 33
0.0
 14
28.97994270820804
 24
432.6959236144624
 34
0.0
 50
90.0
100
AcDbRotatedDimension
  0
ENDBLK
  5
6C
330
69
100
AcDbEntity
  8
0
100
AcDbBlockEnd
  0
BLOCK
  5
6E
330
6D
100
AcDbEntity
  8
0
100
AcDbBlockBegin
  2
_rahmen
 70
     0
 10
291.1417599386632
 20
273.1866236350681
 30
0.0
  3
_rahmen
  1

  0
POINT
  5
176
330
6D
100
AcDbEntity
  8
1
 62
     3
 60
     1
100
AcDbPoint
 10
227.6417599386655
 20
299.4366236350676
 30
0.0
  0
LINE
  5
177
330
6D
100
AcDbEntity
  8
1
  6
Continuous
 62
     7
100
AcDbLine
 10
227.6417599386655
 20
299.4366236350676
 30
0.0
 11
220.8969554119114
 21
299.4366236350676
 31
0.0
  0
LINE
  5
178
330
6D
100
AcDbEntity
  8
1
  6
Continuous
 62
     7
100
AcDbLine
 10
227.6417599386655
 20
295.1866236350676
 30
0.0
 11
227.6417599386655
 21
299.4366236350676
 31
0.0
  0
LINE
  5
179
330
6D
100
AcDbEntity
  8
1
  6
Continuous
 62
     2
100
AcDbLine
 10
262.582496623454
 20
293.6364043560354
 30
0.0
 11
262.582496623454
 21
291.5790083911818
 31
0.0
  0
LINE
  5
17A
330
6D
100
AcDbEntity
  8
1
  6
Continuous
 62
     6
100
AcDbLine
 10
17.80842660533003
 20
278.1866236350681
 30
0.0
 11
39.14175993866328
 21
278.1866236350677
 31
0.0
  0
LINE
  5
17B
330
6D
100
AcDbEntity
  8
1
  6
Continuous
 62
     6
100
AcDbLine
 10
291.1417599386631
 20
278.1866236350677
 30
0.0
 11
291.1417599386627
 21
286.6866236350676
 31
0.0
  0
LINE
  5
17C
330
6D
100
AcDbEntity
  8
1
  6
Continuous
 62
     6
100
AcDbLine
 10
-103.8582400613366
 20
278.1866236350681
 30
0.0
 11
-103.8582400613376
 21
565.1866236350684
 31
0.0
  0
LINE
  5
17D
330
6D
100
AcDbEntity
  8
1
  6
Continuous
 62
     2
100
AcDbLine
 10
-123.8582400613376
 20
421.6866236350681
 30
0.0
 11
-123.8582400613376
 21
273.1866236350681
 31
0.0
  0
LINE
  5
17E
330
6D
100
AcDbEntity
  8
1
  6
Continuous
 62
     2
100
AcDbLine
 10
-123.8582400613376
 20
421.6866236350681
 30
0.0
 11
-113.8582400613376
 21
421.6866236350681
 31
0.0
  0
LINE
  5
17F
330
6D
100
AcDbEntity
  8
1
  6
Continuous
 62
     2
100
AcDbLine
 10
-123.8582400613376
 20
570.1866236350681
 30
0.0
 11
-123.8582400613376
 21
421.6866236350681
 31
0.0
  0
LINE
  5
180
330
6D
100
AcDbEntity
  8
1
  6
Continuous
 62
     2
100
AcDbLine
 10
106.1417599386604
 20
570.1866236350681
 30
0.0
 11
86.1417599386632
 21
570.1866236350681
 31
0.0
  0
LINE
  5
181
330
6D
100
AcDbEntity
  8
1
  6
Continuous
 62
     2
100
AcDbLine
 10
106.1417599386604
 20
570.1866236350681
 30
0.0
 11
106.1417599386604
 21
566.1866236350684
 31
0.0
  0
LINE
  5
182
330
6D
100
AcDbEntity
  8
1
  6
Continuous
 62
     2
100
AcDbLine
 10
-103.8582400613376
 20
570.1866236350681
 30
0.0
 11
-123.8582400613376
 21
570.1866236350681
 31
0.0
  0
LINE
  5
183
330
6D
100
AcDbEntity
  8
1
  6
Continuous
 62
     2
100
AcDbLine
 10
-103.8582400613376
 20
570.1866236350681
 30
0.0
 11
-103.8582400613376
 21
566.1866236350684
 31
0.0
  0
LINE
  5
184
330
6D
100
AcDbEntity
  8
1
  6
Continuous
 62
     2
100
AcDbLine
 10
-50.5249067280034
 20
570.1866236350681
 30
0.0
 11
-103.8582400613376
 21
570.1866236350681
 31
0.0
  0
LINE
  5
185
330
6D
100
AcDbEntity
  8
1
  6
Continuous
 62
     6
100
AcDbLine
 10
-50.5249067280034
 20
565.1866236350684
 30
0.0
 11
17.80842660533003
 21
565.1866236350681
 31
0.0
  0
LINE
  5
186
330
6D
100
AcDbEntity
  8
1
  6
Continuous
 62
     2
100
AcDbLine
 10
-50.5249067280034
 20
565.1866236350684
 30
0.0
 11
-50.5249067280034
 21
570.1866236350681
 31
0.0
  0
LINE
  5
187
330
6D
100
AcDbEntity
  8
1
  6
Continuous
 62
     2
100
AcDbLine
 10
17.80842660533003
 20
570.1866236350681
 30
0.0
 11
-50.5249067280034
 21
570.1866236350681
 31
0.0
  0
LINE
  5
188
330
6D
100
AcDbEntity
  8
1
  6
Continuous
 62
     6
100
AcDbLine
 10
17.80842660533003
 20
565.1866236350681
 30
0.0
 11
86.1417599386632
 21
565.1866236350681
 31
0.0
  0
LINE
  5
189
330
6D
100
AcDbEntity
  8
1
  6
Continuous
 62
     2
100
AcDbLine
 10
17.80842660533003
 20
565.1866236350681
 30
0.0
 11
17.80842660533003
 21
570.1866236350681
 31
0.0
  0
LINE
  5
18A
330
6D
100
AcDbEntity
  8
1
  6
Continuous
 62
     2
100
AcDbLine
 10
86.1417599386632
 20
570.1866236350681
 30
0.0
 11
17.80842660533003
 21
570.1866236350681
 31
0.0
  0
LINE
  5
18B
330
6D
100
AcDbEntity
  8
1
  6
Continuous
 62
     6
100
AcDbLine
 10
86.1417599386632
 20
565.1866236350681
 30
0.0
 11
154.4750932719966
 21
565.1866236350681
 31
0.0
  0
LINE
  5
18C
330
6D
100
AcDbEntity
  8
1
  6
Continuous
 62
     2
100
AcDbLine
 10
86.1417599386632
 20
565.1866236350681
 30
0.0
 11
86.1417599386632
 21
570.1866236350681
 31
0.0
  0
LINE
  5
18D
330
6D
100
AcDbEntity
  8
1
  6
Continuous
 62
     2
100
AcDbLine
 10
154.4750932719966
 20
570.1866236350681
 30
0.0
 11
106.1417599386604
 21
570.1866236350681
 31
0.0
  0
LINE
  5
18E
330
6D
100
AcDbEntity
  8
1
  6
Continuous
 62
     6
100
AcDbLine
 10
154.4750932719966
 20
565.1866236350681
 30
0.0
 11
222.8084266053298
 21
565.1866236350681
 31
0.0
  0
LINE
  5
18F
330
6D
100
AcDbEntity
  8
1
  6
Continuous
 62
     2
100
AcDbLine
 10
154.4750932719966
 20
565.1866236350681
 30
0.0
 11
154.4750932719966
 21
570.1866236350681
 31
0.0
  0
LINE
  5
190
330
6D
100
AcDbEntity
  8
1
  6
Continuous
 62
     2
100
AcDbLine
 10
222.8084266053298
 20
570.1866236350681
 30
0.0
 11
154.4750932719966
 21
570.1866236350681
 31
0.0
  0
LINE
  5
191
330
6D
100
AcDbEntity
  8
1
  6
Continuous
 62
     6
100
AcDbLine
 10
222.8084266053298
 20
565.1866236350681
 30
0.0
 11
291.1417599386607
 21
565.1866236350681
 31
0.0
  0
LINE
  5
192
330
6D
100
AcDbEntity
  8
1
  6
Continuous
 62
     2
100
AcDbLine
 10
222.8084266053298
 20
565.1866236350681
 30
0.0
 11
222.8084266053298
 21
570.1866236350681
 31
0.0
  0
LINE
  5
193
330
6D
100
AcDbEntity
  8
1
  6
Continuous
 62
     2
100
AcDbLine
 10
291.1417599386607
 20
570.1866236350681
 30
0.0
 11
222.8084266053298
 21
570.1866236350681
 31
0.0
  0
LINE
  5
194
330
6D
100
AcDbEntity
  8
1
  6
Continuous
 62
     6
100
AcDbLine
 10
-103.8582400613376
 20
565.1866236350684
 30
0.0
 11
-50.5249067280034
 21
565.1866236350684
 31
0.0
  0
LINE
  5
195
330
6D
100
AcDbEntity
  8
1
  6
Continuous
 62
     6
100
AcDbLine
 10
291.1417599386632
 20
392.9866236350683
 30
0.0
 11
291.1417599386631
 21
335.5866236350682
 31
0.0
  0
LINE
  5
196
330
6D
100
AcDbEntity
  8
1
  6
Continuous
 62
     2
100
AcDbLine
 10
291.1417599386632
 20
392.9866236350683
 30
0.0
 11
296.1417599386607
 21
392.9866236350683
 31
0.0
  0
LINE
  5
197
330
6D
100
AcDbEntity
  8
1
  6
Continuous
 62
     2
100
AcDbLine
 10
296.1417599386607
 20
450.3866236350682
 30
0.0
 11
296.1417599386607
 21
392.9866236350683
 31
0.0
  0
LINE
  5
198
330
6D
100
AcDbEntity
  8
1
  6
Continuous
 62
     6
100
AcDbLine
 10
291.1417599386632
 20
450.3866236350682
 30
0.0
 11
291.1417599386632
 21
392.9866236350683
 31
0.0
  0
LINE
  5
199
330
6D
100
AcDbEntity
  8
1
  6
Continuous
 62
     2
100
AcDbLine
 10
291.1417599386632
 20
450.3866236350682
 30
0.0
 11
296.1417599386607
 21
450.3866236350682
 31
0.0
  0
LINE
  5
19A
330
6D
100
AcDbEntity
  8
1
  6
Continuous
 62
     2
100
AcDbLine
 10
296.1417599386607
 20
507.7866236350681
 30
0.0
 11
296.1417599386607
 21
450.3866236350682
 31
0.0
  0
LINE
  5
19B
330
6D
100
AcDbEntity
  8
1
  6
Continuous
 62
     6
100
AcDbLine
 10
291.1417599386612
 20
507.7866236350681
 30
0.0
 11
291.1417599386632
 21
450.3866236350682
 31
0.0
  0
LINE
  5
19C
330
6D
100
AcDbEntity
  8
1
  6
Continuous
 62
     2
100
AcDbLine
 10
291.1417599386612
 20
507.7866236350681
 30
0.0
 11
296.1417599386607
 21
507.7866236350681
 31
0.0
  0
LINE
  5
19D
330
6D
100
AcDbEntity
  8
1
  6
Continuous
 62
     2
100
AcDbLine
 10
296.1417599386607
 20
565.1866236350681
 30
0.0
 11
296.1417599386607
 21
507.7866236350681
 31
0.0
  0
LINE
  5
19E
330
6D
100
AcDbEntity
  8
1
  6
Continuous
 62
     2
100
AcDbLine
 10
291.1417599386607
 20
565.1866236350681
 30
0.0
 11
296.1417599386607
 21
565.1866236350681
 31
0.0
  0
LINE
  5
19F
330
6D
100
AcDbEntity
  8
1
  6
Continuous
 62
     2
100
AcDbLine
 10
291.1417599386607
 20
565.1866236350681
 30
0.0
 11
291.1417599386607
 21
570.1866236350681
 31
0.0
  0
LINE
  5
1A0
330
6D
100
AcDbEntity
  8
1
  6
Continuous
 62
     2
100
AcDbLine
 10
296.1417599386607
 20
570.1866236350681
 30
0.0
 11
296.1417599386607
 21
565.1866236350681
 31
0.0
  0
LINE
  5
1A1
330
6D
100
AcDbEntity
  8
1
  6
Continuous
 62
     6
100
AcDbLine
 10
291.1417599386607
 20
565.1866236350681
 30
0.0
 11
291.1417599386612
 21
507.7866236350681
 31
0.0
  0
LINE
  5
1A2
330
6D
100
AcDbEntity
  8
1
  6
Continuous
 62
     2
100
AcDbLine
 10
296.1417599386607
 20
570.1866236350681
 30
0.0
 11
291.1417599386607
 21
570.1866236350681
 31
0.0
  0
LINE
  5
1A3
330
6D
100
AcDbEntity
  8
1
  6
Continuous
 62
     2
100
AcDbLine
 10
296.1417599386607
 20
278.1866236350681
 30
0.0
 11
296.1417599386607
 21
335.5866236350682
 31
0.0
  0
LINE
  5
1A4
330
6D
100
AcDbEntity
  8
1
  6
Continuous
 62
     2
100
AcDbLine
 10
296.1417599386607
 20
278.1866236350681
 30
0.0
 11
296.1417599386607
 21
273.1866236350681
 31
0.0
  0
LINE
  5
1A5
330
6D
100
AcDbEntity
  8
1
  6
Continuous
 62
     2
100
AcDbLine
 10
296.1417599386607
 20
273.1866236350681
 30
0.0
 11
291.1417599386632
 21
273.1866236350681
 31
0.0
  0
LINE
  5
1A6
330
6D
100
AcDbEntity
  8
1
  6
Continuous
 62
     2
100
AcDbLine
 10
154.4750932719966
 20
273.1866236350681
 30
0.0
 11
222.8084266053298
 21
273.1866236350681
 31
0.0
  0
LINE
  5
1A7
330
6D
100
AcDbEntity
  8
1
  6
Continuous
 62
     2
100
AcDbLine
 10
106.1417599386604
 20
273.1866236350681
 30
0.0
 11
154.4750932719966
 21
273.1866236350681
 31
0.0
  0
LINE
  5
1A8
330
6D
100
AcDbEntity
  8
1
  6
Continuous
 62
     2
100
AcDbLine
 10
106.1417599386604
 20
273.1866236350681
 30
0.0
 11
106.1417599386604
 21
277.1866236350681
 31
0.0
  0
LINE
  5
1A9
330
6D
100
AcDbEntity
  8
1
  6
Continuous
 62
     2
100
AcDbLine
 10
106.1417599386604
 20
273.1866236350681
 30
0.0
 11
86.1417599386632
 21
273.1866236350681
 31
0.0
  0
LINE
  5
1AA
330
6D
100
AcDbEntity
  8
1
  6
Continuous
 62
     2
100
AcDbLine
 10
-103.8582400613376
 20
273.1866236350681
 30
0.0
 11
-50.5249067280034
 21
273.1866236350681
 31
0.0
  0
LINE
  5
1AB
330
6D
100
AcDbEntity
  8
1
  6
Continuous
 62
     2
100
AcDbLine
 10
-103.8582400613376
 20
273.1866236350681
 30
0.0
 11
-103.8582400613376
 21
277.1866236350681
 31
0.0
  0
LINE
  5
1AC
330
6D
100
AcDbEntity
  8
1
  6
Continuous
 62
     2
100
AcDbLine
 10
17.80842660533003
 20
273.1866236350681
 30
0.0
 11
17.80842660533003
 21
278.1866236350681
 31
0.0
  0
LINE
  5
1AD
330
6D
100
AcDbEntity
  8
1
  6
Continuous
 62
     6
100
AcDbLine
 10
-50.5249067280034
 20
278.1866236350681
 30
0.0
 11
-103.8582400613366
 21
278.1866236350681
 31
0.0
  0
LINE
  5
1AE
330
6D
100
AcDbEntity
  8
1
  6
Continuous
 62
     6
100
AcDbLine
 10
-50.5249067280034
 20
278.1866236350681
 30
0.0
 11
17.80842660533003
 21
278.1866236350681
 31
0.0
  0
LINE
  5
1AF
330
6D
100
AcDbEntity
  8
1
  6
Continuous
 62
     2
100
AcDbLine
 10
-50.5249067280034
 20
273.1866236350681
 30
0.0
 11
17.80842660533003
 21
273.1866236350681
 31
0.0
  0
LINE
  5
1B0
330
6D
100
AcDbEntity
  8
1
  6
Continuous
 62
     2
100
AcDbLine
 10
-50.5249067280034
 20
273.1866236350681
 30
0.0
 11
-50.5249067280034
 21
278.1866236350681
 31
0.0
  0
LINE
  5
1B1
330
6D
100
AcDbEntity
  8
1
  6
Continuous
 62
     2
100
AcDbLine
 10
-103.8582400613376
 20
273.1866236350681
 30
0.0
 11
-123.8582400613376
 21
273.1866236350681
 31
0.0
  0
LINE
  5
1B2
330
6D
100
AcDbEntity
  8
1
  6
Continuous
 62
     2
100
AcDbLine
 10
296.1417599386607
 20
335.5866236350682
 30
0.0
 11
291.1417599386631
 21
335.5866236350682
 31
0.0
  0
LINE
  5
1B3
330
6D
100
AcDbEntity
  8
1
  6
Continuous
 62
     2
100
AcDbLine
 10
296.1417599386607
 20
335.5866236350682
 30
0.0
 11
296.1417599386607
 21
392.9866236350683
 31
0.0
  0
LINE
  5
1B4
330
6D
100
AcDbEntity
  8
1
  6
Continuous
 62
     2
100
AcDbLine
 10
86.1417599386632
 20
273.1866236350681
 30
0.0
 11
86.1417599386632
 21
278.1866236350681
 31
0.0
  0
LINE
  5
1B5
330
6D
100
AcDbEntity
  8
1
  6
Continuous
 62
     2
100
AcDbLine
 10
154.4750932719966
 20
273.1866236350681
 30
0.0
 11
154.4750932719966
 21
278.1866236350681
 31
0.0
  0
LINE
  5
1B6
330
6D
100
AcDbEntity
  8
1
  6
Continuous
 62
     2
100
AcDbLine
 10
222.8084266053298
 20
273.1866236350681
 30
0.0
 11
222.8084266053298
 21
278.1866236350681
 31
0.0
  0
LINE
  5
1B7
330
6D
100
AcDbEntity
  8
1
  6
Continuous
 62
     2
100
AcDbLine
 10
222.8084266053298
 20
273.1866236350681
 30
0.0
 11
291.1417599386632
 21
273.1866236350681
 31
0.0
  0
LINE
  5
1B8
330
6D
100
AcDbEntity
  8
1
  6
Continuous
 62
     2
100
AcDbLine
 10
86.1417599386632
 20
273.1866236350681
 30
0.0
 11
17.80842660533003
 21
273.1866236350681
 31
0.0
  0
LINE
  5
1B9
330
6D
100
AcDbEntity
  8
1
  6
Continuous
 62
     2
100
AcDbLine
 10
169.8772245464268
 20
291.5616236350676
 30
0.0
 11
169.8772245464268
 21
294.5616236350676
 31
0.0
  0
LINE
  5
1BA
330
6D
100
AcDbEntity
  8
1
  6
Continuous
 62
     2
100
AcDbLine
 10
173.8772245464268
 20
292.0616236350676
 30
0.0
 11
169.8772245464268
 21
291.5616236350676
 31
0.0
  0
LINE
  5
1BB
330
6D
100
AcDbEntity
  8
1
  6
Continuous
 62
     2
100
AcDbLine
 10
173.8772245464268
 20
294.0616236350676
 30
0.0
 11
173.8772245464268
 21
292.0616236350676
 31
0.0
  0
LINE
  5
1BC
330
6D
100
AcDbEntity
  8
1
  6
Continuous
 62
     2
100
AcDbLine
 10
169.8772245464268
 20
294.5616236350676
 30
0.0
 11
173.8772245464268
 21
294.0616236350676
 31
0.0
  0
LINE
  5
1BD
330
6D
100
AcDbEntity
  8
1
  6
Continuous
 62
     6
100
AcDbLine
 10
39.14175993866328
 20
290.9366236350676
 30
0.0
 11
39.14175993866328
 21
295.1866236350676
 31
0.0
  0
LINE
  5
1BE
330
6D
100
AcDbEntity
  8
1
  6
Continuous
 62
     7
100
AcDbLine
 10
161.5969554119115
 20
303.6866236350676
 30
0.0
 11
170.9969554119115
 21
303.6866236350676
 31
0.0
  0
LINE
  5
1BF
330
6D
100
AcDbEntity
  8
1
  6
Continuous
 62
     6
100
AcDbLine
 10
170.9969554119115
 20
307.9366236350676
 30
0.0
 11
161.5969554119115
 21
307.9366236350676
 31
0.0
  0
LINE
  5
1C0
330
6D
100
AcDbEntity
  8
1
  6
Continuous
 62
     7
100
AcDbLine
 10
170.9969554119115
 20
295.1866236350677
 30
0.0
 11
161.5969554119115
 21
295.1866236350676
 31
0.0
  0
LINE
  5
1C1
330
6D
100
AcDbEntity
  8
1
  6
Continuous
 62
     2
100
AcDbLine
 10
121.0969554119115
 20
290.9366236350676
 30
0.0
 11
58.84175993866128
 21
290.9366236350676
 31
0.0
  0
LINE
  5
1C2
330
6D
100
AcDbEntity
  8
1
  6
Continuous
 62
     2
100
AcDbLine
 10
121.0969554119115
 20
290.9366236350676
 30
0.0
 11
121.0969554119115
 21
286.6866236350676
 31
0.0
  0
LINE
  5
1C3
330
6D
100
AcDbEntity
  8
1
  6
Continuous
 62
     2
100
AcDbLine
 10
121.0969554119115
 20
303.6866236350676
 30
0.0
 11
121.0969554119115
 21
299.4366236350676
 31
0.0
  0
LINE
  5
1C4
330
6D
100
AcDbEntity
  8
1
  6
Continuous
 62
     2
100
AcDbLine
 10
121.0969554119115
 20
299.4366236350676
 30
0.0
 11
121.0969554119115
 21
295.1866236350676
 31
0.0
  0
LINE
  5
1C5
330
6D
100
AcDbEntity
  8
1
  6
Continuous
 62
     2
100
AcDbLine
 10
121.0969554119115
 20
295.1866236350676
 30
0.0
 11
58.84175993866128
 21
295.1866236350676
 31
0.0
  0
LINE
  5
1C6
330
6D
100
AcDbEntity
  8
1
  6
Continuous
 62
     2
100
AcDbLine
 10
121.0969554119115
 20
295.1866236350676
 30
0.0
 11
121.0969554119115
 21
290.9366236350676
 31
0.0
  0
LINE
  5
1C7
330
6D
100
AcDbEntity
  8
1
  6
Continuous
 62
     7
100
AcDbLine
 10
121.0969554119115
 20
282.4366236350677
 30
0.0
 11
134.5969554119115
 21
282.4366236350677
 31
0.0
  0
LINE
  5
1C8
330
6D
100
AcDbEntity
  8
1
  6
Continuous
 62
     2
100
AcDbLine
 10
121.0969554119115
 20
282.4366236350677
 30
0.0
 11
121.0969554119115
 21
278.1866236350676
 31
0.0
  0
LINE
  5
1C9
330
6D
100
AcDbEntity
  8
1
  6
Continuous
 62
     2
100
AcDbLine
 10
121.0969554119115
 20
286.6866236350676
 30
0.0
 11
58.84175993866128
 21
286.6866236350676
 31
0.0
  0
LINE
  5
1CA
330
6D
100
AcDbEntity
  8
1
  6
Continuous
 62
     2
100
AcDbLine
 10
121.0969554119115
 20
286.6866236350676
 30
0.0
 11
121.0969554119115
 21
282.4366236350677
 31
0.0
  0
LINE
  5
1CB
330
6D
100
AcDbEntity
  8
1
  6
Continuous
 62
     2
100
AcDbLine
 10
134.5969554119115
 20
290.9366236350676
 30
0.0
 11
121.0969554119115
 21
290.9366236350676
 31
0.0
  0
LINE
  5
1CC
330
6D
100
AcDbEntity
  8
1
  6
Continuous
 62
     2
100
AcDbLine
 10
134.5969554119115
 20
290.9366236350676
 30
0.0
 11
134.5969554119115
 21
286.6866236350676
 31
0.0
  0
LINE
  5
1CD
330
6D
100
AcDbEntity
  8
1
  6
Continuous
 62
     2
100
AcDbLine
 10
134.5969554119115
 20
303.6866236350676
 30
0.0
 11
121.0969554119115
 21
303.6866236350676
 31
0.0
  0
LINE
  5
1CE
330
6D
100
AcDbEntity
  8
1
  6
Continuous
 62
     2
100
AcDbLine
 10
134.5969554119115
 20
303.6866236350676
 30
0.0
 11
134.5969554119115
 21
299.4366236350676
 31
0.0
  0
LINE
  5
1CF
330
6D
100
AcDbEntity
  8
1
  6
Continuous
 62
     2
100
AcDbLine
 10
134.5969554119115
 20
299.4366236350676
 30
0.0
 11
121.0969554119115
 21
299.4366236350676
 31
0.0
  0
LINE
  5
1D0
330
6D
100
AcDbEntity
  8
1
  6
Continuous
 62
     2
100
AcDbLine
 10
134.5969554119115
 20
299.4366236350676
 30
0.0
 11
134.5969554119115
 21
295.1866236350676
 31
0.0
  0
LINE
  5
1D1
330
6D
100
AcDbEntity
  8
1
  6
Continuous
 62
     2
100
AcDbLine
 10
134.5969554119115
 20
295.1866236350676
 30
0.0
 11
121.0969554119115
 21
295.1866236350676
 31
0.0
  0
LINE
  5
1D2
330
6D
100
AcDbEntity
  8
1
  6
Continuous
 62
     2
100
AcDbLine
 10
134.5969554119115
 20
295.1866236350676
 30
0.0
 11
134.5969554119115
 21
290.9366236350676
 31
0.0
  0
LINE
  5
1D3
330
6D
100
AcDbEntity
  8
1
  6
Continuous
 62
     7
100
AcDbLine
 10
134.5969554119115
 20
282.4366236350677
 30
0.0
 11
148.0969554119114
 21
282.4366236350677
 31
0.0
  0
LINE
  5
1D4
330
6D
100
AcDbEntity
  8
1
  6
Continuous
 62
     2
100
AcDbLine
 10
134.5969554119115
 20
282.4366236350677
 30
0.0
 11
134.5969554119115
 21
278.1866236350676
 31
0.0
  0
LINE
  5
1D5
330
6D
100
AcDbEntity
  8
1
  6
Continuous
 62
     2
100
AcDbLine
 10
134.5969554119115
 20
286.6866236350676
 30
0.0
 11
121.0969554119115
 21
286.6866236350676
 31
0.0
  0
LINE
  5
1D6
330
6D
100
AcDbEntity
  8
1
  6
Continuous
 62
     2
100
AcDbLine
 10
134.5969554119115
 20
286.6866236350676
 30
0.0
 11
134.5969554119115
 21
282.4366236350677
 31
0.0
  0
LINE
  5
1D7
330
6D
100
AcDbEntity
  8
1
  6
Continuous
 62
     2
100
AcDbLine
 10
148.0969554119114
 20
290.9366236350676
 30
0.0
 11
134.5969554119115
 21
290.9366236350676
 31
0.0
  0
LINE
  5
1D8
330
6D
100
AcDbEntity
  8
1
  6
Continuous
 62
     2
100
AcDbLine
 10
148.0969554119114
 20
290.9366236350676
 30
0.0
 11
148.0969554119114
 21
286.6866236350676
 31
0.0
  0
LINE
  5
1D9
330
6D
100
AcDbEntity
  8
1
  6
Continuous
 62
     2
100
AcDbLine
 10
148.0969554119114
 20
303.6866236350676
 30
0.0
 11
134.5969554119115
 21
303.6866236350676
 31
0.0
  0
LINE
  5
1DA
330
6D
100
AcDbEntity
  8
1
  6
Continuous
 62
     2
100
AcDbLine
 10
148.0969554119114
 20
303.6866236350676
 30
0.0
 11
148.0969554119114
 21
299.4366236350676
 31
0.0
  0
LINE
  5
1DB
330
6D
100
AcDbEntity
  8
1
  6
Continuous
 62
     2
100
AcDbLine
 10
148.0969554119114
 20
299.4366236350676
 30
0.0
 11
134.5969554119115
 21
299.4366236350676
 31
0.0
  0
LINE
  5
1DC
330
6D
100
AcDbEntity
  8
1
  6
Continuous
 62
     2
100
AcDbLine
 10
148.0969554119114
 20
299.4366236350676
 30
0.0
 11
148.0969554119114
 21
295.1866236350676
 31
0.0
  0
LINE
  5
1DD
330
6D
100
AcDbEntity
  8
1
  6
Continuous
 62
     2
100
AcDbLine
 10
148.0969554119114
 20
295.1866236350676
 30
0.0
 11
134.5969554119115
 21
295.1866236350676
 31
0.0
  0
LINE
  5
1DE
330
6D
100
AcDbEntity
  8
1
  6
Continuous
 62
     2
100
AcDbLine
 10
148.0969554119114
 20
295.1866236350676
 30
0.0
 11
148.0969554119114
 21
290.9366236350676
 31
0.0
  0
LINE
  5
1DF
330
6D
100
AcDbEntity
  8
1
  6
Continuous
 62
     7
100
AcDbLine
 10
148.0969554119114
 20
282.4366236350677
 30
0.0
 11
161.5969554119115
 21
282.4366236350677
 31
0.0
  0
LINE
  5
1E0
330
6D
100
AcDbEntity
  8
1
  6
Continuous
 62
     2
100
AcDbLine
 10
148.0969554119114
 20
282.4366236350677
 30
0.0
 11
148.0969554119114
 21
278.1866236350676
 31
0.0
  0
LINE
  5
1E1
330
6D
100
AcDbEntity
  8
1
  6
Continuous
 62
     2
100
AcDbLine
 10
148.0969554119114
 20
286.6866236350676
 30
0.0
 11
134.5969554119115
 21
286.6866236350676
 31
0.0
  0
LINE
  5
1E2
330
6D
100
AcDbEntity
  8
1
  6
Continuous
 62
     2
100
AcDbLine
 10
148.0969554119114
 20
286.6866236350676
 30
0.0
 11
148.0969554119114
 21
282.4366236350677
 31
0.0
  0
LINE
  5
1E3
330
6D
100
AcDbEntity
  8
1
  6
Continuous
 62
     7
100
AcDbLine
 10
220.8969554119114
 20
299.4366236350676
 30
0.0
 11
197.9969554119114
 21
299.4366236350676
 31
0.0
  0
LINE
  5
1E4
330
6D
100
AcDbEntity
  8
1
  6
Continuous
 62
     7
100
AcDbLine
 10
184.4969554119114
 20
299.4366236350676
 30
0.0
 11
197.9969554119114
 21
299.4366236350676
 31
0.0
  0
LINE
  5
1E5
330
6D
100
AcDbEntity
  8
1
  6
Continuous
 62
     2
100
AcDbLine
 10
58.84175993866128
 20
299.4366236350676
 30
0.0
 11
121.0969554119115
 21
299.4366236350676
 31
0.0
  0
LINE
  5
1E6
330
6D
100
AcDbEntity
  8
1
  6
Continuous
 62
     2
100
AcDbLine
 10
58.84175993866128
 20
303.6866236350676
 30
0.0
 11
121.0969554119115
 21
303.6866236350676
 31
0.0
  0
LINE
  5
1E7
330
6D
100
AcDbEntity
  8
1
  6
Continuous
 62
     6
100
AcDbLine
 10
121.0969554119115
 20
307.9366236350676
 30
0.0
 11
58.84175993866128
 21
307.9366236350676
 31
0.0
  0
LINE
  5
1E8
330
6D
100
AcDbEntity
  8
1
  6
Continuous
 62
     6
100
AcDbLine
 10
39.14175993866328
 20
286.6866236350676
 30
0.0
 11
39.14175993866328
 21
290.9366236350676
 31
0.0
  0
LINE
  5
1E9
330
6D
100
AcDbEntity
  8
1
  6
Continuous
 62
     6
100
AcDbLine
 10
39.14175993866328
 20
295.1866236350676
 30
0.0
 11
39.14175993866328
 21
299.4366236350676
 31
0.0
  0
LINE
  5
1EA
330
6D
100
AcDbEntity
  8
1
  6
Continuous
 62
     6
100
AcDbLine
 10
39.14175993866328
 20
299.4366236350676
 30
0.0
 11
39.14175993866328
 21
303.6866236350676
 31
0.0
  0
LINE
  5
1EB
330
6D
100
AcDbEntity
  8
1
  6
Continuous
 62
     6
100
AcDbLine
 10
39.14175993866328
 20
303.6866236350676
 30
0.0
 11
39.14175993866328
 21
307.9366236350676
 31
0.0
  0
LINE
  5
1EC
330
6D
100
AcDbEntity
  8
1
  6
Continuous
 62
     7
100
AcDbLine
 10
227.6417599386655
 20
295.1866236350676
 30
0.0
 11
227.6417599386655
 21
286.6866236350676
 31
0.0
  0
LINE
  5
1ED
330
6D
100
AcDbEntity
  8
1
  6
Continuous
 62
     7
100
AcDbLine
 10
227.6417599386655
 20
295.1866236350676
 30
0.0
 11
246.1417599386651
 21
295.1866236350676
 31
0.0
  0
LINE
  5
1EE
330
6D
100
AcDbEntity
  8
1
  6
Continuous
 62
     7
100
AcDbLine
 10
264.3417599386634
 20
299.4366236350677
 30
0.0
 11
227.6417599386655
 21
299.4366236350676
 31
0.0
  0
LINE
  5
1EF
330
6D
100
AcDbEntity
  8
1
  6
Continuous
 62
     7
100
AcDbLine
 10
264.3417599386634
 20
299.4366236350677
 30
0.0
 11
273.2601682203423
 21
299.4366236350676
 31
0.0
  0
LINE
  5
1F0
330
6D
100
AcDbEntity
  8
1
  6
Continuous
 62
     7
100
AcDbLine
 10
197.9969554119114
 20
295.1866236350676
 30
0.0
 11
227.6417599386655
 21
295.1866236350676
 31
0.0
  0
LINE
  5
1F1
330
6D
100
AcDbEntity
  8
1
  6
Continuous
 62
     7
100
AcDbLine
 10
197.9969554119114
 20
286.6866236350676
 30
0.0
 11
227.6417599386655
 21
286.6866236350676
 31
0.0
  0
LINE
  5
1F2
330
6D
100
AcDbEntity
  8
1
  6
Continuous
 62
     7
100
AcDbLine
 10
161.5969554119115
 20
307.9366236350676
 30
0.0
 11
161.5969554119115
 21
303.6866236350676
 31
0.0
  0
LINE
  5
1F3
330
6D
100
AcDbEntity
  8
1
  6
Continuous
 62
     7
100
AcDbLine
 10
161.5969554119115
 20
282.4366236350677
 30
0.0
 11
161.5969554119115
 21
278.1866236350676
 31
0.0
  0
LINE
  5
1F4
330
6D
100
AcDbEntity
  8
1
  6
Continuous
 62
     7
100
AcDbLine
 10
197.9969554119114
 20
282.4366236350677
 30
0.0
 11
197.9969554119114
 21
278.1866236350676
 31
0.0
  0
LINE
  5
1F5
330
6D
100
AcDbEntity
  8
1
  6
Continuous
 62
     7
100
AcDbLine
 10
197.9969554119114
 20
295.1866236350676
 30
0.0
 11
184.4969554119114
 21
295.1866236350676
 31
0.0
  0
LINE
  5
1F6
330
6D
100
AcDbEntity
  8
1
  6
Continuous
 62
     7
100
AcDbLine
 10
161.5969554119115
 20
299.4366236350676
 30
0.0
 11
170.9969554119115
 21
299.4366236350676
 31
0.0
  0
LINE
  5
1F7
330
6D
100
AcDbEntity
  8
1
  6
Continuous
 62
     7
100
AcDbLine
 10
170.9969554119115
 20
303.6866236350676
 30
0.0
 11
170.9969554119115
 21
299.4366236350676
 31
0.0
  0
LINE
  5
1F8
330
6D
100
AcDbEntity
  8
1
  6
Continuous
 62
     7
100
AcDbLine
 10
184.4969554119114
 20
303.6866236350676
 30
0.0
 11
184.4969554119114
 21
299.4366236350676
 31
0.0
  0
LINE
  5
1F9
330
6D
100
AcDbEntity
  8
1
  6
Continuous
 62
     7
100
AcDbLine
 10
161.5969554119115
 20
286.6866236350676
 30
0.0
 11
161.5969554119115
 21
282.4366236350677
 31
0.0
  0
LINE
  5
1FA
330
6D
100
AcDbEntity
  8
1
  6
Continuous
 62
     7
100
AcDbLine
 10
161.5969554119115
 20
290.9366236350676
 30
0.0
 11
161.5969554119115
 21
286.6866236350676
 31
0.0
  0
LINE
  5
1FB
330
6D
100
AcDbEntity
  8
1
  6
Continuous
 62
     7
100
AcDbLine
 10
197.9969554119114
 20
286.6866236350676
 30
0.0
 11
197.9969554119114
 21
282.4366236350677
 31
0.0
  0
LINE
  5
1FC
330
6D
100
AcDbEntity
  8
1
  6
Continuous
 62
     7
100
AcDbLine
 10
39.14175993866328
 20
282.4366236350677
 30
0.0
 11
45.34175993866128
 21
282.4366236350677
 31
0.0
  0
LINE
  5
1FD
330
6D
100
AcDbEntity
  8
1
  6
Continuous
 62
     2
100
AcDbLine
 10
39.14175993866328
 20
290.9366236350676
 30
0.0
 11
45.34175993866128
 21
290.9366236350676
 31
0.0
  0
LINE
  5
1FE
330
6D
100
AcDbEntity
  8
1
  6
Continuous
 62
     2
100
AcDbLine
 10
39.14175993866328
 20
286.6866236350676
 30
0.0
 11
45.34175993866128
 21
286.6866236350676
 31
0.0
  0
LINE
  5
1FF
330
6D
100
AcDbEntity
  8
1
  6
Continuous
 62
     2
100
AcDbLine
 10
45.34175993866128
 20
278.1866236350676
 30
0.0
 11
45.34175993866128
 21
282.4366236350677
 31
0.0
  0
LINE
  5
200
330
6D
100
AcDbEntity
  8
1
  6
Continuous
 62
     7
100
AcDbLine
 10
170.9969554119115
 20
307.9366236350676
 30
0.0
 11
170.9969554119115
 21
303.6866236350676
 31
0.0
  0
LINE
  5
201
330
6D
100
AcDbEntity
  8
1
  6
Continuous
 62
     7
100
AcDbLine
 10
184.4969554119114
 20
307.9366236350676
 30
0.0
 11
184.4969554119114
 21
303.6866236350676
 31
0.0
  0
LINE
  5
202
330
6D
100
AcDbEntity
  8
1
  6
Continuous
 62
     7
100
AcDbLine
 10
197.9969554119114
 20
299.4366236350676
 30
0.0
 11
197.9969554119114
 21
295.1866236350676
 31
0.0
  0
LINE
  5
203
330
6D
100
AcDbEntity
  8
1
  6
Continuous
 62
     7
100
AcDbLine
 10
161.5969554119115
 20
303.6866236350676
 30
0.0
 11
161.5969554119115
 21
299.4366236350676
 31
0.0
  0
LINE
  5
204
330
6D
100
AcDbEntity
  8
1
  6
Continuous
 62
     2
100
AcDbLine
 10
39.14175993866328
 20
299.4366236350676
 30
0.0
 11
45.34175993866128
 21
299.4366236350676
 31
0.0
  0
LINE
  5
205
330
6D
100
AcDbEntity
  8
1
  6
Continuous
 62
     7
100
AcDbLine
 10
161.5969554119115
 20
299.4366236350676
 30
0.0
 11
161.5969554119115
 21
295.1866236350676
 31
0.0
  0
LINE
  5
206
330
6D
100
AcDbEntity
  8
1
  6
Continuous
 62
     7
100
AcDbLine
 10
161.5969554119115
 20
295.1866236350676
 30
0.0
 11
161.5969554119115
 21
290.9366236350676
 31
0.0
  0
LINE
  5
207
330
6D
100
AcDbEntity
  8
1
  6
Continuous
 62
     6
100
AcDbLine
 10
170.9969554119115
 20
307.9366236350676
 30
0.0
 11
184.4969554119114
 21
307.9366236350676
 31
0.0
  0
LINE
  5
208
330
6D
100
AcDbEntity
  8
1
  6
Continuous
 62
     7
100
AcDbLine
 10
197.9969554119114
 20
307.9366236350676
 30
0.0
 11
197.9969554119114
 21
303.6866236350676
 31
0.0
  0
LINE
  5
209
330
6D
100
AcDbEntity
  8
1
  6
Continuous
 62
     6
100
AcDbLine
 10
184.4969554119114
 20
307.9366236350676
 30
0.0
 11
197.9969554119114
 21
307.9366236350676
 31
0.0
  0
LINE
  5
20A
330
6D
100
AcDbEntity
  8
1
  6
Continuous
 62
     7
100
AcDbLine
 10
197.9969554119114
 20
286.6866236350676
 30
0.0
 11
197.9969554119114
 21
290.9366236350676
 31
0.0
  0
LINE
  5
20B
330
6D
100
AcDbEntity
  8
1
  6
Continuous
 62
     2
100
AcDbLine
 10
45.34175993866128
 20
282.4366236350677
 30
0.0
 11
45.34175993866128
 21
286.6866236350676
 31
0.0
  0
LINE
  5
20C
330
6D
100
AcDbEntity
  8
1
  6
Continuous
 62
     7
100
AcDbLine
 10
45.34175993866128
 20
282.4366236350677
 30
0.0
 11
58.84175993866128
 21
282.4366236350677
 31
0.0
  0
LINE
  5
20D
330
6D
100
AcDbEntity
  8
1
  6
Continuous
 62
     2
100
AcDbLine
 10
45.34175993866128
 20
290.9366236350676
 30
0.0
 11
45.34175993866128
 21
295.1866236350676
 31
0.0
  0
LINE
  5
20E
330
6D
100
AcDbEntity
  8
1
  6
Continuous
 62
     2
100
AcDbLine
 10
45.34175993866128
 20
286.6866236350676
 30
0.0
 11
45.34175993866128
 21
290.9366236350676
 31
0.0
  0
LINE
  5
20F
330
6D
100
AcDbEntity
  8
1
  6
Continuous
 62
     2
100
AcDbLine
 10
161.5969554119115
 20
290.9366236350676
 30
0.0
 11
148.0969554119114
 21
290.9366236350676
 31
0.0
  0
LINE
  5
210
330
6D
100
AcDbEntity
  8
1
  6
Continuous
 62
     2
100
AcDbLine
 10
161.5969554119115
 20
286.6866236350676
 30
0.0
 11
148.0969554119114
 21
286.6866236350676
 31
0.0
  0
LINE
  5
211
330
6D
100
AcDbEntity
  8
1
  6
Continuous
 62
     6
100
AcDbLine
 10
161.5969554119115
 20
307.9366236350676
 30
0.0
 11
148.0969554119114
 21
307.9366236350676
 31
0.0
  0
LINE
  5
212
330
6D
100
AcDbEntity
  8
1
  6
Continuous
 62
     2
100
AcDbLine
 10
45.34175993866128
 20
303.6866236350676
 30
0.0
 11
39.14175993866328
 21
303.6866236350676
 31
0.0
  0
LINE
  5
213
330
6D
100
AcDbEntity
  8
1
  6
Continuous
 62
     2
100
AcDbLine
 10
45.34175993866128
 20
303.6866236350676
 30
0.0
 11
45.34175993866128
 21
307.9366236350676
 31
0.0
  0
LINE
  5
214
330
6D
100
AcDbEntity
  8
1
  6
Continuous
 62
     2
100
AcDbLine
 10
161.5969554119115
 20
303.6866236350676
 30
0.0
 11
148.0969554119114
 21
303.6866236350676
 31
0.0
  0
LINE
  5
215
330
6D
100
AcDbEntity
  8
1
  6
Continuous
 62
     2
100
AcDbLine
 10
45.34175993866128
 20
299.4366236350676
 30
0.0
 11
45.34175993866128
 21
303.6866236350676
 31
0.0
  0
LINE
  5
216
330
6D
100
AcDbEntity
  8
1
  6
Continuous
 62
     2
100
AcDbLine
 10
161.5969554119115
 20
299.4366236350676
 30
0.0
 11
148.0969554119114
 21
299.4366236350676
 31
0.0
  0
LINE
  5
217
330
6D
100
AcDbEntity
  8
1
  6
Continuous
 62
     2
100
AcDbLine
 10
45.34175993866128
 20
295.1866236350676
 30
0.0
 11
39.14175993866328
 21
295.1866236350676
 31
0.0
  0
LINE
  5
218
330
6D
100
AcDbEntity
  8
1
  6
Continuous
 62
     2
100
AcDbLine
 10
45.34175993866128
 20
295.1866236350676
 30
0.0
 11
45.34175993866128
 21
299.4366236350676
 31
0.0
  0
LINE
  5
219
330
6D
100
AcDbEntity
  8
1
  6
Continuous
 62
     2
100
AcDbLine
 10
161.5969554119115
 20
295.1866236350676
 30
0.0
 11
148.0969554119114
 21
295.1866236350676
 31
0.0
  0
LINE
  5
21A
330
6D
100
AcDbEntity
  8
1
  6
Continuous
 62
     7
100
AcDbLine
 10
184.4969554119114
 20
299.4366236350676
 30
0.0
 11
170.9969554119115
 21
299.4366236350676
 31
0.0
  0
LINE
  5
21B
330
6D
100
AcDbEntity
  8
1
  6
Continuous
 62
     7
100
AcDbLine
 10
170.9969554119115
 20
299.4366236350676
 30
0.0
 11
170.9969554119115
 21
295.1866236350677
 31
0.0
  0
LINE
  5
21C
330
6D
100
AcDbEntity
  8
1
  6
Continuous
 62
     7
100
AcDbLine
 10
184.4969554119114
 20
299.4366236350676
 30
0.0
 11
184.4969554119114
 21
295.1866236350676
 31
0.0
  0
LINE
  5
21D
330
6D
100
AcDbEntity
  8
1
  6
Continuous
 62
     6
100
AcDbLine
 10
39.14175993866328
 20
282.4366236350677
 30
0.0
 11
39.14175993866328
 21
286.6866236350676
 31
0.0
  0
LINE
  5
21E
330
6D
100
AcDbEntity
  8
1
  6
Continuous
 62
     6
100
AcDbLine
 10
39.14175993866328
 20
278.1866236350677
 30
0.0
 11
39.14175993866328
 21
282.4366236350677
 31
0.0
  0
LINE
  5
21F
330
6D
100
AcDbEntity
  8
1
  6
Continuous
 62
     6
100
AcDbLine
 10
45.34175993866128
 20
307.9366236350676
 30
0.0
 11
39.14175993866328
 21
307.9366236350676
 31
0.0
  0
LINE
  5
220
330
6D
100
AcDbEntity
  8
1
  6
Continuous
 62
     7
100
AcDbLine
 10
220.8969554119114
 20
307.9366236350676
 30
0.0
 11
220.8969554119114
 21
299.4366236350676
 31
0.0
  0
LINE
  5
221
330
6D
100
AcDbEntity
  8
1
  6
Continuous
 62
     6
100
AcDbLine
 10
264.3417599386631
 20
307.9366236350676
 30
0.0
 11
220.8969554119114
 21
307.9366236350676
 31
0.0
  0
LINE
  5
222
330
6D
100
AcDbEntity
  8
1
  6
Continuous
 62
     6
100
AcDbLine
 10
197.9969554119114
 20
307.9366236350676
 30
0.0
 11
220.8969554119114
 21
307.9366236350676
 31
0.0
  0
LINE
  5
223
330
6D
100
AcDbEntity
  8
1
  6
Continuous
 62
     7
100
AcDbLine
 10
197.9969554119114
 20
282.4366236350677
 30
0.0
 11
179.7969554119114
 21
282.4366236350677
 31
0.0
  0
LINE
  5
224
330
6D
100
AcDbEntity
  8
1
  6
Continuous
 62
     7
100
AcDbLine
 10
184.4969554119114
 20
295.1866236350676
 30
0.0
 11
170.9969554119115
 21
295.1866236350677
 31
0.0
  0
LINE
  5
225
330
6D
100
AcDbEntity
  8
1
  6
Continuous
 62
     7
100
AcDbLine
 10
179.7969554119114
 20
282.4366236350677
 30
0.0
 11
161.5969554119115
 21
282.4366236350677
 31
0.0
  0
LINE
  5
226
330
6D
100
AcDbEntity
  8
1
  6
Continuous
 62
     7
100
AcDbLine
 10
179.7969554119114
 20
282.4366236350677
 30
0.0
 11
179.7969554119114
 21
278.1866236350677
 31
0.0
  0
LINE
  5
227
330
6D
100
AcDbEntity
  8
1
  6
Continuous
 62
     2
100
AcDbLine
 10
121.0969554119115
 20
307.9366236350676
 30
0.0
 11
121.0969554119115
 21
303.6866236350676
 31
0.0
  0
LINE
  5
228
330
6D
100
AcDbEntity
  8
1
  6
Continuous
 62
     6
100
AcDbLine
 10
134.5969554119115
 20
307.9366236350676
 30
0.0
 11
121.0969554119115
 21
307.9366236350676
 31
0.0
  0
LINE
  5
229
330
6D
100
AcDbEntity
  8
1
  6
Continuous
 62
     6
100
AcDbLine
 10
148.0969554119114
 20
307.9366236350676
 30
0.0
 11
134.5969554119115
 21
307.9366236350676
 31
0.0
  0
LINE
  5
22A
330
6D
100
AcDbEntity
  8
1
  6
Continuous
 62
     2
100
AcDbLine
 10
134.5969554119115
 20
307.9366236350676
 30
0.0
 11
134.5969554119115
 21
303.6866236350676
 31
0.0
  0
LINE
  5
22B
330
6D
100
AcDbEntity
  8
1
  6
Continuous
 62
     2
100
AcDbLine
 10
148.0969554119114
 20
307.9366236350676
 30
0.0
 11
148.0969554119114
 21
303.6866236350676
 31
0.0
  0
LINE
  5
22C
330
6D
100
AcDbEntity
  8
1
  6
Continuous
 62
     7
100
AcDbLine
 10
246.1417599386651
 20
295.1866236350676
 30
0.0
 11
246.1417599386651
 21
286.6866236350676
 31
0.0
  0
LINE
  5
22D
330
6D
100
AcDbEntity
  8
1
  6
Continuous
 62
     7
100
AcDbLine
 10
246.1417599386651
 20
286.6866236350676
 30
0.0
 11
227.6417599386655
 21
286.6866236350676
 31
0.0
  0
LINE
  5
22E
330
6D
100
AcDbEntity
  8
1
  6
Continuous
 62
     7
100
AcDbLine
 10
264.3417599386631
 20
307.9366236350676
 30
0.0
 11
264.3417599386634
 21
299.4366236350677
 31
0.0
  0
LINE
  5
22F
330
6D
100
AcDbEntity
  8
1
  6
Continuous
 62
     6
100
AcDbLine
 10
264.3417599386631
 20
307.9366236350676
 30
0.0
 11
273.2601682203423
 21
307.9366236350676
 31
0.0
  0
LINE
  5
230
330
6D
100
AcDbEntity
  8
1
  6
Continuous
 62
     7
100
AcDbLine
 10
273.2601682203423
 20
299.4366236350676
 30
0.0
 11
273.2601682203423
 21
307.9366236350676
 31
0.0
  0
LINE
  5
231
330
6D
100
AcDbEntity
  8
1
  6
Continuous
 62
     7
100
AcDbLine
 10
184.4969554119114
 20
303.6866236350676
 30
0.0
 11
170.9969554119115
 21
303.6866236350676
 31
0.0
  0
LINE
  5
232
330
6D
100
AcDbEntity
  8
1
  6
Continuous
 62
     7
100
AcDbLine
 10
184.4969554119114
 20
303.6866236350676
 30
0.0
 11
197.9969554119114
 21
303.6866236350676
 31
0.0
  0
LINE
  5
233
330
6D
100
AcDbEntity
  8
1
  6
Continuous
 62
     7
100
AcDbLine
 10
197.9969554119114
 20
303.6866236350676
 30
0.0
 11
197.9969554119114
 21
299.4366236350676
 31
0.0
  0
LINE
  5
234
330
6D
100
AcDbEntity
  8
1
  6
Continuous
 62
     7
100
AcDbLine
 10
246.1417599386651
 20
295.1866236350676
 30
0.0
 11
291.1417599386632
 21
295.1866236350676
 31
0.0
  0
LINE
  5
235
330
6D
100
AcDbEntity
  8
1
  6
Continuous
 62
     7
100
AcDbLine
 10
291.1417599386622
 20
299.4366236350676
 30
0.0
 11
273.2601682203423
 21
299.4366236350676
 31
0.0
  0
LINE
  5
236
330
6D
100
AcDbEntity
  8
1
  6
Continuous
 62
     7
100
AcDbLine
 10
291.1417599386627
 20
286.6866236350676
 30
0.0
 11
246.1417599386651
 21
286.6866236350676
 31
0.0
  0
LINE
  5
237
330
6D
100
AcDbEntity
  8
1
  6
Continuous
 62
     6
100
AcDbLine
 10
291.1417599386631
 20
307.9366236350676
 30
0.0
 11
273.2601682203423
 21
307.9366236350676
 31
0.0
  0
LINE
  5
238
330
6D
100
AcDbEntity
  8
1
  6
Continuous
 62
     2
100
AcDbLine
 10
58.84175993866128
 20
307.9366236350676
 30
0.0
 11
58.84175993866128
 21
303.6866236350676
 31
0.0
  0
LINE
  5
239
330
6D
100
AcDbEntity
  8
1
  6
Continuous
 62
     6
100
AcDbLine
 10
58.84175993866128
 20
307.9366236350676
 30
0.0
 11
45.34175993866128
 21
307.9366236350676
 31
0.0
  0
LINE
  5
23A
330
6D
100
AcDbEntity
  8
1
  6
Continuous
 62
     2
100
AcDbLine
 10
58.84175993866128
 20
303.6866236350676
 30
0.0
 11
58.84175993866128
 21
299.4366236350676
 31
0.0
  0
LINE
  5
23B
330
6D
100
AcDbEntity
  8
1
  6
Continuous
 62
     2
100
AcDbLine
 10
58.84175993866128
 20
299.4366236350676
 30
0.0
 11
58.84175993866128
 21
295.1866236350676
 31
0.0
  0
LINE
  5
23C
330
6D
100
AcDbEntity
  8
1
  6
Continuous
 62
     2
100
AcDbLine
 10
58.84175993866128
 20
299.4366236350676
 30
0.0
 11
45.34175993866128
 21
299.4366236350676
 31
0.0
  0
LINE
  5
23D
330
6D
100
AcDbEntity
  8
1
  6
Continuous
 62
     2
100
AcDbLine
 10
58.84175993866128
 20
303.6866236350676
 30
0.0
 11
45.34175993866128
 21
303.6866236350676
 31
0.0
  0
LINE
  5
23E
330
6D
100
AcDbEntity
  8
1
  6
Continuous
 62
     2
100
AcDbLine
 10
58.84175993866128
 20
290.9366236350676
 30
0.0
 11
58.84175993866128
 21
286.6866236350676
 31
0.0
  0
LINE
  5
23F
330
6D
100
AcDbEntity
  8
1
  6
Continuous
 62
     2
100
AcDbLine
 10
58.84175993866128
 20
290.9366236350676
 30
0.0
 11
45.34175993866128
 21
290.9366236350676
 31
0.0
  0
LINE
  5
240
330
6D
100
AcDbEntity
  8
1
  6
Continuous
 62
     2
100
AcDbLine
 10
58.84175993866128
 20
295.1866236350676
 30
0.0
 11
58.84175993866128
 21
290.9366236350676
 31
0.0
  0
LINE
  5
241
330
6D
100
AcDbEntity
  8
1
  6
Continuous
 62
     2
100
AcDbLine
 10
58.84175993866128
 20
295.1866236350676
 30
0.0
 11
45.34175993866128
 21
295.1866236350676
 31
0.0
  0
LINE
  5
242
330
6D
100
AcDbEntity
  8
1
  6
Continuous
 62
     2
100
AcDbLine
 10
58.84175993866128
 20
286.6866236350676
 30
0.0
 11
58.84175993866128
 21
282.4366236350677
 31
0.0
  0
LINE
  5
243
330
6D
100
AcDbEntity
  8
1
  6
Continuous
 62
     2
100
AcDbLine
 10
58.84175993866128
 20
286.6866236350676
 30
0.0
 11
45.34175993866128
 21
286.6866236350676
 31
0.0
  0
LINE
  5
244
330
6D
100
AcDbEntity
  8
1
  6
Continuous
 62
     2
100
AcDbLine
 10
58.84175993866128
 20
282.4366236350677
 30
0.0
 11
58.84175993866128
 21
278.1866236350677
 31
0.0
  0
LINE
  5
245
330
6D
100
AcDbEntity
  8
1
  6
Continuous
 62
     7
100
AcDbLine
 10
58.84175993866128
 20
282.4366236350677
 30
0.0
 11
121.0969554119115
 21
282.4366236350677
 31
0.0
  0
LINE
  5
246
330
6D
100
AcDbEntity
  8
1
  6
Continuous
 62
     7
100
AcDbLine
 10
161.5969554119115
 20
290.9366236350676
 30
0.0
 11
197.9969554119114
 21
290.9366236350676
 31
0.0
  0
LINE
  5
247
330
6D
100
AcDbEntity
  8
1
  6
Continuous
 62
     7
100
AcDbLine
 10
197.9969554119114
 20
290.9366236350676
 30
0.0
 11
197.9969554119114
 21
295.1866236350676
 31
0.0
  0
LINE
  5
248
330
6D
100
AcDbEntity
  8
1
  6
PHANTOM
 62
     2
100
AcDbLine
 10
168.3392152370148
 20
293.0616236350676
 30
0.0
 11
165.0392152370148
 21
293.0616236350676
 31
0.0
  0
LINE
  5
249
330
6D
100
AcDbEntity
  8
1
  6
PHANTOM
 62
     2
100
AcDbLine
 10
166.6892152370148
 20
294.7116236350677
 30
0.0
 11
166.6892152370148
 21
291.4116236350676
 31
0.0
  0
LINE
  5
24A
330
6D
100
AcDbEntity
  8
1
  6
PHANTOM
 62
     2
100
AcDbLine
 10
169.7162186267118
 20
293.0616236350676
 30
0.0
 11
174.0318135959008
 21
293.0616236350676
 31
0.0
  0
LINE
  5
24B
330
6D
100
AcDbEntity
  8
1
  6
Continuous
 62
     6
100
AcDbLine
 10
291.1417599386631
 20
307.9366236350676
 30
0.0
 11
291.1417599386631
 21
335.5866236350682
 31
0.0
  0
LINE
  5
24C
330
6D
100
AcDbEntity
  8
1
  6
Continuous
 62
     6
100
AcDbLine
 10
291.1417599386622
 20
299.4366236350676
 30
0.0
 11
291.1417599386631
 21
307.9366236350676
 31
0.0
  0
LINE
  5
24D
330
6D
100
AcDbEntity
  8
1
  6
Continuous
 62
     6
100
AcDbLine
 10
291.1417599386632
 20
295.1866236350676
 30
0.0
 11
291.1417599386622
 21
299.4366236350676
 31
0.0
  0
LINE
  5
24E
330
6D
100
AcDbEntity
  8
1
  6
Continuous
 62
     6
100
AcDbLine
 10
291.1417599386627
 20
286.6866236350676
 30
0.0
 11
291.1417599386632
 21
295.1866236350676
 31
0.0
  0
LINE
  5
24F
330
6D
100
AcDbEntity
  8
1
  6
Continuous
 62
     6
100
AcDbLine
 10
222.8084266053298
 20
278.1866236350681
 30
0.0
 11
291.1417599386631
 21
278.1866236350677
 31
0.0
  0
LINE
  5
250
330
6D
100
AcDbEntity
  8
1
  6
Continuous
 62
     6
100
AcDbLine
 10
197.9969554119114
 20
278.1866236350676
 30
0.0
 11
222.8084266053298
 21
278.1866236350681
 31
0.0
  0
LINE
  5
251
330
6D
100
AcDbEntity
  8
1
  6
Continuous
 62
     6
100
AcDbLine
 10
179.7969554119114
 20
278.1866236350677
 30
0.0
 11
197.9969554119114
 21
278.1866236350676
 31
0.0
  0
LINE
  5
252
330
6D
100
AcDbEntity
  8
1
  6
Continuous
 62
     6
100
AcDbLine
 10
161.5969554119115
 20
278.1866236350676
 30
0.0
 11
179.7969554119114
 21
278.1866236350677
 31
0.0
  0
LINE
  5
253
330
6D
100
AcDbEntity
  8
1
  6
Continuous
 62
     6
100
AcDbLine
 10
154.4750932719966
 20
278.1866236350681
 30
0.0
 11
161.5969554119115
 21
278.1866236350676
 31
0.0
  0
LINE
  5
254
330
6D
100
AcDbEntity
  8
1
  6
Continuous
 62
     6
100
AcDbLine
 10
121.0969554119115
 20
278.1866236350676
 30
0.0
 11
134.5969554119115
 21
278.1866236350676
 31
0.0
  0
LINE
  5
255
330
6D
100
AcDbEntity
  8
1
  6
Continuous
 62
     6
100
AcDbLine
 10
134.5969554119115
 20
278.1866236350676
 30
0.0
 11
148.0969554119114
 21
278.1866236350676
 31
0.0
  0
LINE
  5
256
330
6D
100
AcDbEntity
  8
1
  6
Continuous
 62
     6
100
AcDbLine
 10
148.0969554119114
 20
278.1866236350676
 30
0.0
 11
154.4750932719966
 21
278.1866236350681
 31
0.0
  0
LINE
  5
257
330
6D
100
AcDbEntity
  8
1
  6
Continuous
 62
     6
100
AcDbLine
 10
86.1417599386632
 20
278.1866236350681
 30
0.0
 11
121.0969554119115
 21
278.1866236350676
 31
0.0
  0
LINE
  5
258
330
6D
100
AcDbEntity
  8
1
  6
Continuous
 62
     6
100
AcDbLine
 10
58.84175993866128
 20
278.1866236350677
 30
0.0
 11
86.1417599386632
 21
278.1866236350681
 31
0.0
  0
LINE
  5
259
330
6D
100
AcDbEntity
  8
1
  6
Continuous
 62
     6
100
AcDbLine
 10
45.34175993866128
 20
278.1866236350676
 30
0.0
 11
58.84175993866128
 21
278.1866236350677
 31
0.0
  0
LINE
  5
25A
330
6D
100
AcDbEntity
  8
1
  6
Continuous
 62
     6
100
AcDbLine
 10
39.14175993866328
 20
278.1866236350677
 30
0.0
 11
45.34175993866128
 21
278.1866236350676
 31
0.0
  0
LINE
  5
25B
102
{ACAD_REACTORS
330
37E
330
37E
330
37F
330
37F
102
}
330
6D
100
AcDbEntity
  8
0
  6
Continuous
 62
     2
100
AcDbLine
 10
170.9660677607932
 20
287.9862226071361
 30
0.0
 11
170.9660677607932
 21
288.4866649943318
 31
0.0
  0
LINE
  5
25C
102
{ACAD_REACTORS
330
37E
330
37E
330
37F
330
37F
102
}
330
6D
100
AcDbEntity
  8
0
  6
Continuous
 62
     2
100
AcDbLine
 10
170.9660677607932
 20
285.6720617752095
 30
0.0
 11
170.9660677607932
 21
286.1529307063624
 31
0.0
  0
LINE
  5
25D
102
{ACAD_REACTORS
330
380
330
380
330
381
330
381
102
}
330
6D
100
AcDbEntity
  8
0
  6
Continuous
 62
     2
100
AcDbLine
 10
189.6681226661479
 20
285.9114535670467
 30
0.0
 11
189.6681226661479
 21
284.0366236350735
 31
0.0
  0
LINE
  5
25E
102
{ACAD_REACTORS
330
380
330
380
330
381
330
381
102
}
330
6D
100
AcDbEntity
  8
0
  6
Continuous
 62
     2
100
AcDbLine
 10
188.526755906654
 20
286.5604331588839
 30
0.0
 11
191.3242315418843
 21
286.5604331588844
 31
0.0
  0
LINE
  5
25F
102
{ACAD_REACTORS
330
380
330
380
330
381
330
381
102
}
330
6D
100
AcDbEntity
  8
0
  6
Continuous
 62
     2
100
AcDbLine
 10
191.3242315418843
 20
285.9114535670467
 30
0.0
 11
191.3242315418843
 21
286.5604331588844
 31
0.0
  0
LINE
  5
260
102
{ACAD_REACTORS
330
380
330
380
330
381
330
381
102
}
330
6D
100
AcDbEntity
  8
0
  6
Continuous
 62
     2
100
AcDbLine
 10
190.6539017588484
 20
285.9114535670467
 30
0.0
 11
191.3242315418843
 21
285.9114535670467
 31
0.0
  0
LINE
  5
261
102
{ACAD_REACTORS
330
380
330
380
330
381
330
381
102
}
330
6D
100
AcDbEntity
  8
0
  6
Continuous
 62
     2
100
AcDbLine
 10
190.6539017588484
 20
284.0366236350735
 30
0.0
 11
190.6539017588484
 21
285.9114535670467
 31
0.0
  0
LINE
  5
262
102
{ACAD_REACTORS
330
380
330
380
330
381
330
381
102
}
330
6D
100
AcDbEntity
  8
0
  6
Continuous
 62
     2
100
AcDbLine
 10
189.6681226661479
 20
284.0366236350735
 30
0.0
 11
190.6539017588484
 21
284.0366236350735
 31
0.0
  0
LINE
  5
263
102
{ACAD_REACTORS
330
376
330
376
330
377
330
377
102
}
330
6D
100
AcDbEntity
  8
0
  6
Continuous
 62
     2
100
AcDbLine
 10
189.0924276760119
 20
289.3366236350615
 30
0.0
 11
187.933151462996
 21
289.3366236350615
 31
0.0
  0
LINE
  5
264
102
{ACAD_REACTORS
330
376
330
376
330
377
330
377
102
}
330
6D
100
AcDbEntity
  8
0
  6
Continuous
 62
     2
100
AcDbLine
 10
189.0924276760119
 20
289.3366236350615
 30
0.0
 11
189.5892603387324
 21
288.7747861792306
 31
0.0
  0
LINE
  5
265
102
{ACAD_REACTORS
330
376
330
376
330
377
330
377
102
}
330
6D
100
AcDbEntity
  8
0
  6
Continuous
 62
     2
100
AcDbLine
 10
189.5892603387324
 20
288.7747861792306
 30
0.0
 11
190.0860930014538
 21
289.3366236350615
 31
0.0
  0
LINE
  5
266
102
{ACAD_REACTORS
330
376
330
376
330
377
330
377
102
}
330
6D
100
AcDbEntity
  8
0
  6
Continuous
 62
     2
100
AcDbLine
 10
190.1688984452394
 20
288.1193091474283
 30
0.0
 11
191.245369214468
 21
289.3366236350615
 31
0.0
  0
LINE
  5
267
102
{ACAD_REACTORS
330
376
330
376
330
377
330
377
102
}
330
6D
100
AcDbEntity
  8
0
  6
Continuous
 62
     2
100
AcDbLine
 10
190.1688984452394
 20
288.1193091474283
 30
0.0
 11
191.3242315418843
 21
286.8128141112507
 31
0.0
  0
LINE
  5
268
102
{ACAD_REACTORS
330
376
330
376
330
377
330
377
102
}
330
6D
100
AcDbEntity
  8
0
  6
Continuous
 62
     2
100
AcDbLine
 10
190.1649553288692
 20
286.8128141112507
 30
0.0
 11
191.3242315418843
 21
286.8128141112507
 31
0.0
  0
LINE
  5
269
102
{ACAD_REACTORS
330
376
330
376
330
377
330
377
102
}
330
6D
100
AcDbEntity
  8
0
  6
Continuous
 62
     2
100
AcDbLine
 10
189.5892603387324
 20
287.4638321156257
 30
0.0
 11
190.1649553288692
 21
286.8128141112507
 31
0.0
  0
LINE
  5
26A
102
{ACAD_REACTORS
330
374
330
374
330
375
330
375
102
}
330
6D
100
AcDbEntity
  8
0
  6
Continuous
 62
     2
100
AcDbLine
 10
186.7305009699029
 20
289.3366236350615
 30
0.0
 11
187.7557112263103
 21
289.3366236350615
 31
0.0
  0
LINE
  5
26B
102
{ACAD_REACTORS
330
374
330
374
330
375
330
375
102
}
330
6D
100
AcDbEntity
  8
0
  6
Continuous
 62
     2
100
AcDbLine
 10
187.7557112263103
 20
289.3366236350615
 30
0.0
 11
187.7557112263103
 21
286.8128141112507
 31
0.0
  0
LINE
  5
26C
102
{ACAD_REACTORS
330
374
330
374
330
375
330
375
102
}
330
6D
100
AcDbEntity
  8
0
  6
Continuous
 62
     2
100
AcDbLine
 10
186.7305009699029
 20
286.8128141112507
 30
0.0
 11
186.7305009699029
 21
289.3366236350615
 31
0.0
  0
LINE
  5
26D
102
{ACAD_REACTORS
330
372
330
372
330
373
330
373
102
}
330
6D
100
AcDbEntity
  8
0
  6
Continuous
 62
     2
100
AcDbLine
 10
185.5170215628471
 20
285.0461474445979
 30
0.0
 11
185.7650920068077
 21
285.6807052677274
 31
0.0
  0
LINE
  5
26E
102
{ACAD_REACTORS
330
372
330
372
330
373
330
373
102
}
330
6D
100
AcDbEntity
  8
0
  6
Continuous
 62
     2
100
AcDbLine
 10
185.122364038367
 20
284.0366236350735
 30
0.0
 11
185.297140942066
 21
284.4836984650057
 31
0.0
  0
LINE
  5
26F
102
{ACAD_REACTORS
330
372
330
372
330
373
330
373
102
}
330
6D
100
AcDbEntity
  8
0
  6
Continuous
 62
     2
100
AcDbLine
 10
185.2524868786036
 20
286.5604331588844
 30
0.0
 11
184.0971537819596
 21
284.0366236350735
 31
0.0
  0
LINE
  5
270
102
{ACAD_REACTORS
330
372
330
372
330
373
330
373
102
}
330
6D
100
AcDbEntity
  8
0
  6
Continuous
 62
     2
100
AcDbLine
 10
187.4330302316558
 20
284.0366236350735
 30
0.0
 11
186.4078199752476
 21
284.0366236350735
 31
0.0
  0
LINE
  5
271
102
{ACAD_REACTORS
330
372
330
372
330
373
330
373
102
}
330
6D
100
AcDbEntity
  8
0
  6
Continuous
 62
     2
100
AcDbLine
 10
185.297140942066
 20
284.4836984650057
 30
0.0
 11
186.2330430715486
 21
284.4836984650057
 31
0.0
  0
LINE
  5
272
102
{ACAD_REACTORS
330
370
330
370
330
371
330
371
102
}
330
6D
100
AcDbEntity
  8
0
  6
Continuous
 62
     2
100
AcDbLine
 10
182.3140858983379
 20
285.9114535670467
 30
0.0
 11
182.9844156813748
 21
285.9114535670467
 31
0.0
  0
LINE
  5
273
102
{ACAD_REACTORS
330
370
330
370
330
371
330
371
102
}
330
6D
100
AcDbEntity
  8
0
  6
Continuous
 62
     2
100
AcDbLine
 10
184.6405245571096
 20
286.5604331588844
 30
0.0
 11
182.3140858983379
 21
286.5604331588844
 31
0.0
  0
LINE
  5
274
102
{ACAD_REACTORS
330
370
330
370
330
371
330
371
102
}
330
6D
100
AcDbEntity
  8
0
  6
Continuous
 62
     2
100
AcDbLine
 10
184.6405245571096
 20
285.9114535670467
 30
0.0
 11
184.6405245571096
 21
286.5604331588844
 31
0.0
  0
LINE
  5
275
102
{ACAD_REACTORS
330
370
330
370
330
371
330
371
102
}
330
6D
100
AcDbEntity
  8
0
  6
Continuous
 62
     2
100
AcDbLine
 10
183.9701947740744
 20
285.9114535670467
 30
0.0
 11
184.6405245571096
 21
285.9114535670467
 31
0.0
  0
LINE
  5
276
102
{ACAD_REACTORS
330
370
330
370
330
371
330
371
102
}
330
6D
100
AcDbEntity
  8
0
  6
Continuous
 62
     2
100
AcDbLine
 10
183.9701947740744
 20
284.0366236350735
 30
0.0
 11
183.9701947740744
 21
285.9114535670467
 31
0.0
  0
LINE
  5
277
102
{ACAD_REACTORS
330
36E
330
36E
330
36F
330
36F
102
}
330
6D
100
AcDbEntity
  8
0
  6
Continuous
 62
     2
100
AcDbLine
 10
184.5223558022546
 20
286.8128141112507
 30
0.0
 11
184.5223558022546
 21
287.8944467643123
 31
0.0
  0
LINE
  5
278
102
{ACAD_REACTORS
330
36E
330
36E
330
36F
330
36F
102
}
330
6D
100
AcDbEntity
  8
0
  6
Continuous
 62
     2
100
AcDbLine
 10
183.536576709555
 20
289.3366236350615
 30
0.0
 11
183.536576709555
 21
286.8128141112507
 31
0.0
  0
LINE
  5
279
102
{ACAD_REACTORS
330
36E
330
36E
330
36F
330
36F
102
}
330
6D
100
AcDbEntity
  8
0
  6
Continuous
 62
     2
100
AcDbLine
 10
184.5223558022546
 20
289.3366236350615
 30
0.0
 11
183.536576709555
 21
289.3366236350615
 31
0.0
  0
LINE
  5
27A
102
{ACAD_REACTORS
330
36E
330
36E
330
36F
330
36F
102
}
330
6D
100
AcDbEntity
  8
0
  6
Continuous
 62
     2
100
AcDbLine
 10
185.5475660586629
 20
289.3366236350615
 30
0.0
 11
185.5475660586629
 21
288.2549909819994
 31
0.0
  0
LINE
  5
27B
102
{ACAD_REACTORS
330
36C
330
36C
330
36D
330
36D
102
}
330
6D
100
AcDbEntity
  8
0
  6
Continuous
 62
     2
100
AcDbLine
 10
179.1990239654065
 20
286.5604331588844
 30
0.0
 11
179.1990239654065
 21
284.0366236350735
 31
0.0
  0
LINE
  5
27C
102
{ACAD_REACTORS
330
36C
330
36C
330
36D
330
36D
102
}
330
6D
100
AcDbEntity
  8
0
  6
Continuous
 62
     2
100
AcDbLine
 10
180.184803058107
 20
286.5604331588844
 30
0.0
 11
179.1990239654065
 21
286.5604331588844
 31
0.0
  0
LINE
  5
27D
102
{ACAD_REACTORS
330
36C
330
36C
330
36D
330
36D
102
}
330
6D
100
AcDbEntity
  8
0
  6
Continuous
 62
     2
100
AcDbLine
 10
181.2100133145143
 20
284.0366236350735
 30
0.0
 11
182.1957924072139
 21
284.0366236350735
 31
0.0
  0
LINE
  5
27E
102
{ACAD_REACTORS
330
36C
330
36C
330
36D
330
36D
102
}
330
6D
100
AcDbEntity
  8
0
  6
Continuous
 62
     2
100
AcDbLine
 10
179.1990239654065
 20
284.0366236350735
 30
0.0
 11
180.184803058107
 21
284.0366236350735
 31
0.0
  0
LINE
  5
27F
102
{ACAD_REACTORS
330
37C
330
37C
330
37D
330
37D
102
}
330
6D
100
AcDbEntity
  8
0
  6
Continuous
 62
     2
100
AcDbLine
 10
182.2353483071909
 20
288.3631542473056
 30
0.0
 11
182.2353483071909
 21
288.7597528867616
 31
0.0
  0
LINE
  5
280
102
{ACAD_REACTORS
330
37C
330
37C
330
37D
330
37D
102
}
330
6D
100
AcDbEntity
  8
0
  6
Continuous
 62
     2
100
AcDbLine
 10
183.3394208910154
 20
288.3631542473056
 30
0.0
 11
182.2353483071909
 21
288.3631542473056
 31
0.0
  0
LINE
  5
281
102
{ACAD_REACTORS
330
37C
330
37C
330
37D
330
37D
102
}
330
6D
100
AcDbEntity
  8
0
  6
Continuous
 62
     2
100
AcDbLine
 10
183.3394208910154
 20
287.7862834990061
 30
0.0
 11
183.3394208910154
 21
288.3631542473056
 31
0.0
  0
LINE
  5
282
102
{ACAD_REACTORS
330
37C
330
37C
330
37D
330
37D
102
}
330
6D
100
AcDbEntity
  8
0
  6
Continuous
 62
     2
100
AcDbLine
 10
182.2353483071909
 20
287.7862834990061
 30
0.0
 11
183.3394208910154
 21
287.7862834990061
 31
0.0
  0
LINE
  5
283
102
{ACAD_REACTORS
330
36A
330
36A
330
36B
330
36B
102
}
330
6D
100
AcDbEntity
  8
0
  6
Continuous
 62
     2
100
AcDbLine
 10
179.3568733565075
 20
289.3366236350615
 30
0.0
 11
179.3568733565075
 21
286.8128141112507
 31
0.0
  0
LINE
  5
284
102
{ACAD_REACTORS
330
36A
330
36A
330
36B
330
36B
102
}
330
6D
100
AcDbEntity
  8
0
  6
Continuous
 62
     2
100
AcDbLine
 10
179.3568733565075
 20
286.8128141112507
 30
0.0
 11
178.3710942638079
 21
286.8128141112507
 31
0.0
  0
LINE
  5
285
102
{ACAD_REACTORS
330
36A
330
36A
330
36B
330
36B
102
}
330
6D
100
AcDbEntity
  8
0
  6
Continuous
 62
     2
100
AcDbLine
 10
178.3710942638079
 20
286.8128141112507
 30
0.0
 11
178.3710942638079
 21
287.7502290772372
 31
0.0
  0
LINE
  5
286
102
{ACAD_REACTORS
330
36A
330
36A
330
36B
330
36B
102
}
330
6D
100
AcDbEntity
  8
0
  6
Continuous
 62
     2
100
AcDbLine
 10
177.5036086622315
 20
286.8128141112507
 30
0.0
 11
176.5178295695319
 21
286.8128141112507
 31
0.0
  0
LINE
  5
287
102
{ACAD_REACTORS
330
36A
330
36A
330
36B
330
36B
102
}
330
6D
100
AcDbEntity
  8
0
  6
Continuous
 62
     2
100
AcDbLine
 10
176.5178295695319
 20
289.3366236350615
 30
0.0
 11
177.5036086622315
 21
289.3366236350615
 31
0.0
  0
LINE
  5
288
102
{ACAD_REACTORS
330
36A
330
36A
330
36B
330
36B
102
}
330
6D
100
AcDbEntity
  8
0
  6
Continuous
 62
     2
100
AcDbLine
 10
177.5036086622315
 20
289.3366236350615
 30
0.0
 11
177.5036086622315
 21
288.4532903017272
 31
0.0
  0
LINE
  5
289
102
{ACAD_REACTORS
330
36A
330
36A
330
36B
330
36B
102
}
330
6D
100
AcDbEntity
  8
0
  6
Continuous
 62
     2
100
AcDbLine
 10
177.5036086622315
 20
288.4532903017272
 30
0.0
 11
178.3710942638079
 21
288.4532903017272
 31
0.0
  0
LINE
  5
28A
102
{ACAD_REACTORS
330
378
330
378
330
379
330
379
102
}
330
6D
100
AcDbEntity
  8
0
  6
Continuous
 62
     2
100
AcDbLine
 10
174.9011518575041
 20
288.7886022751937
 30
0.0
 11
175.1633791810924
 21
288.7886022751937
 31
0.0
  0
LINE
  5
28B
102
{ACAD_REACTORS
330
378
330
378
330
379
330
379
102
}
330
6D
100
AcDbEntity
  8
0
  6
Continuous
 62
     2
100
AcDbLine
 10
174.9011518575041
 20
288.2053562840017
 30
0.0
 11
175.1633791810924
 21
288.2053562840017
 31
0.0
  0
LINE
  5
28C
102
{ACAD_REACTORS
330
378
330
378
330
379
330
379
102
}
330
6D
100
AcDbEntity
  8
0
  6
Continuous
 62
     2
100
AcDbLine
 10
173.8759416010958
 20
289.3366236350615
 30
0.0
 11
173.8759416010958
 21
286.8128141112507
 31
0.0
  0
LINE
  5
28D
102
{ACAD_REACTORS
330
378
330
378
330
379
330
379
102
}
330
6D
100
AcDbEntity
  8
0
  6
Continuous
 62
     2
100
AcDbLine
 10
173.8759416010958
 20
289.3366236350615
 30
0.0
 11
175.5282325085622
 21
289.3366236350615
 31
0.0
  0
LINE
  5
28E
102
{ACAD_REACTORS
330
378
330
378
330
379
330
379
102
}
330
6D
100
AcDbEntity
  8
0
  6
Continuous
 62
     2
100
AcDbLine
 10
174.9011518575041
 20
287.5922176163282
 30
0.0
 11
175.5282325085622
 21
287.5922176163282
 31
0.0
  0
LINE
  5
28F
102
{ACAD_REACTORS
330
37E
330
37E
330
37F
330
37F
102
}
330
6D
100
AcDbEntity
  8
0
  6
Continuous
 62
     2
100
AcDbLine
 10
168.8375151272968
 20
288.4868116692477
 30
0.0
 11
168.8375151272968
 21
284.8864356008864
 31
0.0
  0
LINE
  5
290
102
{ACAD_REACTORS
330
37E
330
37E
330
37F
330
37F
102
}
330
6D
100
AcDbEntity
  8
0
  6
Continuous
 62
     2
100
AcDbLine
 10
169.0984382042189
 20
288.7477347461702
 30
0.0
 11
170.3181351141441
 21
288.7477347461702
 31
0.0
  0
LINE
  5
291
102
{ACAD_REACTORS
330
37E
330
37E
330
37F
330
37F
102
}
330
6D
100
AcDbEntity
  8
0
  6
Continuous
 62
     2
100
AcDbLine
 10
170.5790581910669
 20
287.9876177691976
 30
0.0
 11
170.5790581910669
 21
288.4868116692477
 31
0.0
  0
LINE
  5
292
102
{ACAD_REACTORS
330
37E
330
37E
330
37F
330
37F
102
}
330
6D
100
AcDbEntity
  8
0
  6
Continuous
 62
     2
100
AcDbLine
 10
170.5790581910669
 20
284.8864356008864
 30
0.0
 11
170.5790581910669
 21
286.1515355443011
 31
0.0
  0
LINE
  5
293
102
{ACAD_REACTORS
330
37E
330
37E
330
37F
330
37F
102
}
330
6D
100
AcDbEntity
  8
0
  6
Continuous
 62
     2
100
AcDbLine
 10
173.131014579401
 20
284.0366236350735
 30
0.0
 11
168.6076161573209
 21
284.0366236350735
 31
0.0
  0
LINE
  5
294
102
{ACAD_REACTORS
330
37E
330
37E
330
37F
330
37F
102
}
330
6D
100
AcDbEntity
  8
0
  6
Continuous
 62
     2
100
AcDbLine
 10
173.4816299640158
 20
288.9860082504318
 30
0.0
 11
173.4816299640158
 21
284.3872390196879
 31
0.0
  0
LINE
  5
295
102
{ACAD_REACTORS
330
37E
330
37E
330
37F
330
37F
102
}
330
6D
100
AcDbEntity
  8
0
  6
Continuous
 62
     2
100
AcDbLine
 10
168.6076161573209
 20
289.3366236350465
 30
0.0
 11
173.131014579401
 21
289.3366236350465
 31
0.0
  0
LINE
  5
296
102
{ACAD_REACTORS
330
37E
330
37E
330
37F
330
37F
102
}
330
6D
100
AcDbEntity
  8
0
  6
Continuous
 62
     2
100
AcDbLine
 10
168.257000772707
 20
288.9860082504318
 30
0.0
 11
168.257000772707
 21
284.3872390196879
 31
0.0
  0
LINE
  5
297
102
{ACAD_REACTORS
330
37E
330
37E
330
37F
330
37F
102
}
330
6D
100
AcDbEntity
  8
0
  6
Continuous
 62
     2
100
AcDbLine
 10
170.3181351141441
 20
284.6255125239636
 30
0.0
 11
169.0984382042189
 21
284.6255125239636
 31
0.0
  0
LINE
  5
298
102
{ACAD_REACTORS
330
378
330
378
330
379
330
379
102
}
330
6D
100
AcDbEntity
  8
0
  6
Continuous
 62
     2
100
AcDbLine
 10
174.9011518575041
 20
286.8128141112507
 30
0.0
 11
174.9011518575041
 21
287.5922176163282
 31
0.0
  0
LINE
  5
299
102
{ACAD_REACTORS
330
378
330
378
330
379
330
379
102
}
330
6D
100
AcDbEntity
  8
0
  6
Continuous
 62
     2
100
AcDbLine
 10
173.8759416010958
 20
286.8128141112507
 30
0.0
 11
174.9011518575041
 21
286.8128141112507
 31
0.0
  0
LINE
  5
29A
102
{ACAD_REACTORS
330
378
330
378
330
379
330
379
102
}
330
6D
100
AcDbEntity
  8
0
  6
Continuous
 62
     2
100
AcDbLine
 10
174.9011518575041
 20
288.2053562840017
 30
0.0
 11
174.9011518575041
 21
288.7886022751937
 31
0.0
  0
LINE
  5
29B
102
{ACAD_REACTORS
330
36A
330
36A
330
36B
330
36B
102
}
330
6D
100
AcDbEntity
  8
0
  6
Continuous
 62
     2
100
AcDbLine
 10
176.5178295695319
 20
289.3366236350615
 30
0.0
 11
176.5178295695319
 21
286.8128141112507
 31
0.0
  0
LINE
  5
29C
102
{ACAD_REACTORS
330
36A
330
36A
330
36B
330
36B
102
}
330
6D
100
AcDbEntity
  8
0
  6
Continuous
 62
     2
100
AcDbLine
 10
177.5036086622315
 20
287.7502290772372
 30
0.0
 11
177.5036086622315
 21
286.8128141112507
 31
0.0
  0
LINE
  5
29D
102
{ACAD_REACTORS
330
36A
330
36A
330
36B
330
36B
102
}
330
6D
100
AcDbEntity
  8
0
  6
Continuous
 62
     2
100
AcDbLine
 10
178.3710942638079
 20
287.7502290772372
 30
0.0
 11
177.5036086622315
 21
287.7502290772372
 31
0.0
  0
LINE
  5
29E
102
{ACAD_REACTORS
330
36A
330
36A
330
36B
330
36B
102
}
330
6D
100
AcDbEntity
  8
0
  6
Continuous
 62
     2
100
AcDbLine
 10
178.3710942638079
 20
289.3366236350615
 30
0.0
 11
179.3568733565075
 21
289.3366236350615
 31
0.0
  0
LINE
  5
29F
102
{ACAD_REACTORS
330
36A
330
36A
330
36B
330
36B
102
}
330
6D
100
AcDbEntity
  8
0
  6
Continuous
 62
     2
100
AcDbLine
 10
178.3710942638079
 20
288.4532903017272
 30
0.0
 11
178.3710942638079
 21
289.3366236350615
 31
0.0
  0
LINE
  5
2A0
102
{ACAD_REACTORS
330
37C
330
37C
330
37D
330
37D
102
}
330
6D
100
AcDbEntity
  8
0
  6
Continuous
 62
     2
100
AcDbLine
 10
183.3394208910154
 20
288.7597528867616
 30
0.0
 11
183.3394208910154
 21
289.3366236350615
 31
0.0
  0
LINE
  5
2A1
102
{ACAD_REACTORS
330
37C
330
37C
330
37D
330
37D
102
}
330
6D
100
AcDbEntity
  8
0
  6
Continuous
 62
     2
100
AcDbLine
 10
180.7358508713617
 20
289.3366236350615
 30
0.0
 11
183.3394208910154
 21
289.3366236350615
 31
0.0
  0
LINE
  5
2A2
102
{ACAD_REACTORS
330
37C
330
37C
330
37D
330
37D
102
}
330
6D
100
AcDbEntity
  8
0
  6
Continuous
 62
     2
100
AcDbLine
 10
180.7358508713617
 20
286.8128141112507
 30
0.0
 11
183.3394208910154
 21
286.8128141112507
 31
0.0
  0
LINE
  5
2A3
102
{ACAD_REACTORS
330
37C
330
37C
330
37D
330
37D
102
}
330
6D
100
AcDbEntity
  8
0
  6
Continuous
 62
     2
100
AcDbLine
 10
183.3394208910154
 20
286.8128141112507
 30
0.0
 11
183.3394208910154
 21
287.3896848595501
 31
0.0
  0
LINE
  5
2A4
102
{ACAD_REACTORS
330
37C
330
37C
330
37D
330
37D
102
}
330
6D
100
AcDbEntity
  8
0
  6
Continuous
 62
     2
100
AcDbLine
 10
183.3394208910154
 20
287.3896848595501
 30
0.0
 11
182.2353483071909
 21
287.3896848595501
 31
0.0
  0
LINE
  5
2A5
102
{ACAD_REACTORS
330
37C
330
37C
330
37D
330
37D
102
}
330
6D
100
AcDbEntity
  8
0
  6
Continuous
 62
     2
100
AcDbLine
 10
182.2353483071909
 20
287.3896848595501
 30
0.0
 11
182.2353483071909
 21
287.7862834990061
 31
0.0
  0
LINE
  5
2A6
102
{ACAD_REACTORS
330
37C
330
37C
330
37D
330
37D
102
}
330
6D
100
AcDbEntity
  8
0
  6
Continuous
 62
     2
100
AcDbLine
 10
182.2353483071909
 20
288.7597528867616
 30
0.0
 11
183.3394208910154
 21
288.7597528867616
 31
0.0
  0
LINE
  5
2A7
102
{ACAD_REACTORS
330
36C
330
36C
330
36D
330
36D
102
}
330
6D
100
AcDbEntity
  8
0
  6
Continuous
 62
     2
100
AcDbLine
 10
180.184803058107
 20
284.0366236350735
 30
0.0
 11
180.184803058107
 21
285.1182562881352
 31
0.0
  0
LINE
  5
2A8
102
{ACAD_REACTORS
330
36C
330
36C
330
36D
330
36D
102
}
330
6D
100
AcDbEntity
  8
0
  6
Continuous
 62
     2
100
AcDbLine
 10
180.184803058107
 20
285.1182562881352
 30
0.0
 11
181.2100133145143
 21
284.0366236350735
 31
0.0
  0
LINE
  5
2A9
102
{ACAD_REACTORS
330
36C
330
36C
330
36D
330
36D
102
}
330
6D
100
AcDbEntity
  8
0
  6
Continuous
 62
     2
100
AcDbLine
 10
182.1957924072139
 20
284.0366236350735
 30
0.0
 11
182.1957924072139
 21
286.5604331588844
 31
0.0
  0
LINE
  5
2AA
102
{ACAD_REACTORS
330
36C
330
36C
330
36D
330
36D
102
}
330
6D
100
AcDbEntity
  8
0
  6
Continuous
 62
     2
100
AcDbLine
 10
182.1957924072139
 20
286.5604331588844
 30
0.0
 11
181.2100133145143
 21
286.5604331588844
 31
0.0
  0
LINE
  5
2AB
102
{ACAD_REACTORS
330
36C
330
36C
330
36D
330
36D
102
}
330
6D
100
AcDbEntity
  8
0
  6
Continuous
 62
     2
100
AcDbLine
 10
181.2100133145143
 20
286.5604331588844
 30
0.0
 11
181.2100133145143
 21
285.4788005058223
 31
0.0
  0
LINE
  5
2AC
102
{ACAD_REACTORS
330
36C
330
36C
330
36D
330
36D
102
}
330
6D
100
AcDbEntity
  8
0
  6
Continuous
 62
     2
100
AcDbLine
 10
181.2100133145143
 20
285.4788005058223
 30
0.0
 11
180.184803058107
 21
286.5604331588844
 31
0.0
  0
LINE
  5
2AD
102
{ACAD_REACTORS
330
36E
330
36E
330
36F
330
36F
102
}
330
6D
100
AcDbEntity
  8
0
  6
Continuous
 62
     2
100
AcDbLine
 10
184.5223558022546
 20
287.8944467643123
 30
0.0
 11
185.5475660586629
 21
286.8128141112507
 31
0.0
  0
LINE
  5
2AE
102
{ACAD_REACTORS
330
36E
330
36E
330
36F
330
36F
102
}
330
6D
100
AcDbEntity
  8
0
  6
Continuous
 62
     2
100
AcDbLine
 10
185.5475660586629
 20
286.8128141112507
 30
0.0
 11
186.5333451513625
 21
286.8128141112507
 31
0.0
  0
LINE
  5
2AF
102
{ACAD_REACTORS
330
36E
330
36E
330
36F
330
36F
102
}
330
6D
100
AcDbEntity
  8
0
  6
Continuous
 62
     2
100
AcDbLine
 10
186.5333451513625
 20
286.8128141112507
 30
0.0
 11
186.5333451513625
 21
289.3366236350615
 31
0.0
  0
LINE
  5
2B0
102
{ACAD_REACTORS
330
36E
330
36E
330
36F
330
36F
102
}
330
6D
100
AcDbEntity
  8
0
  6
Continuous
 62
     2
100
AcDbLine
 10
186.5333451513625
 20
289.3366236350615
 30
0.0
 11
185.5475660586629
 21
289.3366236350615
 31
0.0
  0
LINE
  5
2B1
102
{ACAD_REACTORS
330
36E
330
36E
330
36F
330
36F
102
}
330
6D
100
AcDbEntity
  8
0
  6
Continuous
 62
     2
100
AcDbLine
 10
185.5475660586629
 20
288.2549909819994
 30
0.0
 11
184.5223558022546
 21
289.3366236350615
 31
0.0
  0
LINE
  5
2B2
102
{ACAD_REACTORS
330
36E
330
36E
330
36F
330
36F
102
}
330
6D
100
AcDbEntity
  8
0
  6
Continuous
 62
     2
100
AcDbLine
 10
183.536576709555
 20
286.8128141112507
 30
0.0
 11
184.5223558022546
 21
286.8128141112507
 31
0.0
  0
LINE
  5
2B3
102
{ACAD_REACTORS
330
370
330
370
330
371
330
371
102
}
330
6D
100
AcDbEntity
  8
0
  6
Continuous
 62
     2
100
AcDbLine
 10
182.3140858983379
 20
286.5604331588844
 30
0.0
 11
182.3140858983379
 21
285.9114535670467
 31
0.0
  0
LINE
  5
2B4
102
{ACAD_REACTORS
330
370
330
370
330
371
330
371
102
}
330
6D
100
AcDbEntity
  8
0
  6
Continuous
 62
     2
100
AcDbLine
 10
182.9844156813748
 20
285.9114535670467
 30
0.0
 11
182.9844156813748
 21
284.0366236350735
 31
0.0
  0
LINE
  5
2B5
102
{ACAD_REACTORS
330
370
330
370
330
371
330
371
102
}
330
6D
100
AcDbEntity
  8
0
  6
Continuous
 62
     2
100
AcDbLine
 10
182.9844156813748
 20
284.0366236350735
 30
0.0
 11
183.9701947740744
 21
284.0366236350735
 31
0.0
  0
LINE
  5
2B6
102
{ACAD_REACTORS
330
372
330
372
330
373
330
373
102
}
330
6D
100
AcDbEntity
  8
0
  6
Continuous
 62
     2
100
AcDbLine
 10
186.4078199752476
 20
284.0366236350735
 30
0.0
 11
186.2330430715486
 21
284.4836984650057
 31
0.0
  0
LINE
  5
2B7
102
{ACAD_REACTORS
330
372
330
372
330
373
330
373
102
}
330
6D
100
AcDbEntity
  8
0
  6
Continuous
 62
     2
100
AcDbLine
 10
186.2776971350109
 20
286.5604331588844
 30
0.0
 11
187.4330302316558
 21
284.0366236350735
 31
0.0
  0
LINE
  5
2B8
102
{ACAD_REACTORS
330
372
330
372
330
373
330
373
102
}
330
6D
100
AcDbEntity
  8
0
  6
Continuous
 62
     2
100
AcDbLine
 10
185.2524868786036
 20
286.5604331588844
 30
0.0
 11
186.2776971350109
 21
286.5604331588844
 31
0.0
  0
LINE
  5
2B9
102
{ACAD_REACTORS
330
372
330
372
330
373
330
373
102
}
330
6D
100
AcDbEntity
  8
0
  6
Continuous
 62
     2
100
AcDbLine
 10
184.0971537819596
 20
284.0366236350735
 30
0.0
 11
185.122364038367
 21
284.0366236350735
 31
0.0
  0
LINE
  5
2BA
102
{ACAD_REACTORS
330
372
330
372
330
373
330
373
102
}
330
6D
100
AcDbEntity
  8
0
  6
Continuous
 62
     2
100
AcDbLine
 10
185.5170215628471
 20
285.0461474445979
 30
0.0
 11
186.0131624507665
 21
285.0461474445979
 31
0.0
  0
LINE
  5
2BB
102
{ACAD_REACTORS
330
372
330
372
330
373
330
373
102
}
330
6D
100
AcDbEntity
  8
0
  6
Continuous
 62
     2
100
AcDbLine
 10
186.0131624507665
 20
285.0461474445979
 30
0.0
 11
185.7650920068077
 21
285.6807052677274
 31
0.0
  0
LINE
  5
2BC
102
{ACAD_REACTORS
330
374
330
374
330
375
330
375
102
}
330
6D
100
AcDbEntity
  8
0
  6
Continuous
 62
     2
100
AcDbLine
 10
187.7557112263103
 20
286.8128141112507
 30
0.0
 11
186.7305009699029
 21
286.8128141112507
 31
0.0
  0
LINE
  5
2BD
102
{ACAD_REACTORS
330
376
330
376
330
377
330
377
102
}
330
6D
100
AcDbEntity
  8
0
  6
Continuous
 62
     2
100
AcDbLine
 10
189.0135653485955
 20
286.8128141112507
 30
0.0
 11
187.8542891355805
 21
286.8128141112507
 31
0.0
  0
LINE
  5
2BE
102
{ACAD_REACTORS
330
376
330
376
330
377
330
377
102
}
330
6D
100
AcDbEntity
  8
0
  6
Continuous
 62
     2
100
AcDbLine
 10
189.0135653485955
 20
286.8128141112507
 30
0.0
 11
189.5892603387324
 21
287.4638321156257
 31
0.0
  0
LINE
  5
2BF
102
{ACAD_REACTORS
330
376
330
376
330
377
330
377
102
}
330
6D
100
AcDbEntity
  8
0
  6
Continuous
 62
     2
100
AcDbLine
 10
190.0860930014538
 20
289.3366236350615
 30
0.0
 11
191.245369214468
 21
289.3366236350615
 31
0.0
  0
LINE
  5
2C0
102
{ACAD_REACTORS
330
376
330
376
330
377
330
377
102
}
330
6D
100
AcDbEntity
  8
0
  6
Continuous
 62
     2
100
AcDbLine
 10
187.933151462996
 20
289.3366236350615
 30
0.0
 11
189.0096222322253
 21
288.1193091474283
 31
0.0
  0
LINE
  5
2C1
102
{ACAD_REACTORS
330
376
330
376
330
377
330
377
102
}
330
6D
100
AcDbEntity
  8
0
  6
Continuous
 62
     2
100
AcDbLine
 10
187.8542891355805
 20
286.8128141112507
 30
0.0
 11
189.0096222322253
 21
288.1193091474283
 31
0.0
  0
LINE
  5
2C2
102
{ACAD_REACTORS
330
380
330
380
330
381
330
381
102
}
330
6D
100
AcDbEntity
  8
0
  6
Continuous
 62
     2
100
AcDbLine
 10
189.3921045201919
 20
284.9019297575228
 30
0.0
 11
189.3921045201919
 21
284.1808413221481
 31
0.0
  0
LINE
  5
2C3
102
{ACAD_REACTORS
330
380
330
380
330
381
330
381
102
}
330
6D
100
AcDbEntity
  8
0
  6
Continuous
 62
     2
100
AcDbLine
 10
188.7560240714635
 20
285.9114535670467
 30
0.0
 11
189.6681226661479
 21
285.9114535670467
 31
0.0
  0
LINE
  5
2C4
102
{ACAD_REACTORS
330
382
330
382
330
383
330
383
102
}
330
6D
100
AcDbEntity
  8
0
  6
Continuous
 62
     2
100
AcDbLine
 10
176.0840867687441
 20
284.9019297575233
 30
0.0
 11
176.0840867687441
 21
284.1808413221486
 31
0.0
  0
LINE
  5
2C5
102
{ACAD_REACTORS
330
382
330
382
330
383
330
383
102
}
330
6D
100
AcDbEntity
  8
0
  6
Continuous
 62
     2
100
AcDbLine
 10
176.0840867687441
 20
285.6951270364347
 30
0.0
 11
176.0840867687441
 21
286.4162154718092
 31
0.0
  0
ARC
  5
2C6
102
{ACAD_REACTORS
330
382
330
382
330
383
330
383
102
}
330
6D
100
AcDbEntity
  8
0
  6
Continuous
 62
     2
100
AcDbCircle
 10
174.9800141099691
 20
282.5607755496599
 30
0.0
 40
4.010410630989926
100
AcDbArc
 50
74.02000874164698
 51
84.84185523037534
  0
ARC
  5
2C7
102
{ACAD_REACTORS
330
382
330
382
330
383
330
383
102
}
330
6D
100
AcDbEntity
  8
0
  6
Continuous
 62
     2
100
AcDbCircle
 10
175.4560807287738
 20
285.1688419594816
 30
0.0
 40
0.7487023016407734
100
AcDbArc
 50
71.55192388186123
 51
113.3722778881292
  0
ARC
  5
2C8
102
{ACAD_REACTORS
330
382
330
382
330
383
330
383
102
}
330
6D
100
AcDbEntity
  8
0
  6
Continuous
 62
     2
100
AcDbCircle
 10
175.3267914455489
 20
285.1290478768642
 30
0.0
 40
0.4227934381774399
100
AcDbArc
 50
208.5214732576858
 51
246.6277221118326
  0
ARC
  5
2C9
102
{ACAD_REACTORS
330
382
330
382
330
383
330
383
102
}
330
6D
100
AcDbEntity
  8
0
  6
Continuous
 62
     2
100
AcDbCircle
 10
175.4560807287738
 20
285.4282148344759
 30
0.0
 40
0.7487023016405014
100
AcDbArc
 50
246.6277221118725
 51
288.4480761181484
  0
ARC
  5
2CA
102
{ACAD_REACTORS
330
382
330
382
330
383
330
383
102
}
330
6D
100
AcDbEntity
  8
0
  6
Continuous
 62
     2
100
AcDbCircle
 10
175.110487560459
 20
286.4642030791347
 30
0.0
 40
1.840813230556049
100
AcDbArc
 50
288.4480761181319
 51
301.9309089499629
  0
ARC
  5
2CB
102
{ACAD_REACTORS
330
37E
330
37E
330
37F
330
37F
102
}
330
6D
100
AcDbEntity
  8
0
  6
Continuous
 62
     2
100
AcDbCircle
 10
170.7922448062385
 20
287.0695766567495
 30
0.0
 40
0.7535935125160201
100
AcDbArc
 50
295.3740086781809
 51
64.6259913218062
  0
ARC
  5
2CC
102
{ACAD_REACTORS
330
37E
330
37E
330
37F
330
37F
102
}
330
6D
100
AcDbEntity
  8
0
  6
Continuous
 62
     2
100
AcDbCircle
 10
171.2269908377162
 20
288.4866649943318
 30
0.0
 40
0.2609230769225246
100
AcDbArc
 50
90.18896704255344
 51
180.0
  0
ARC
  5
2CD
102
{ACAD_REACTORS
330
380
330
380
330
381
330
381
102
}
330
6D
100
AcDbEntity
  8
0
  6
Continuous
 62
     2
100
AcDbCircle
 10
188.7560240714635
 20
285.1225915779341
 30
0.0
 40
0.7888619891126041
100
AcDbArc
 50
90.0
 51
109.3371432194277
  0
ARC
  5
2CE
102
{ACAD_REACTORS
330
380
330
380
330
381
330
381
102
}
330
6D
100
AcDbEntity
  8
0
  6
Continuous
 62
     2
100
AcDbCircle
 10
188.9466746995443
 20
285.2985283969788
 30
0.0
 40
0.7777353184585786
100
AcDbArc
 50
151.4785267423688
 51
208.521473257668
  0
ARC
  5
2CF
102
{ACAD_REACTORS
330
380
330
380
330
381
330
381
102
}
330
6D
100
AcDbEntity
  8
0
  6
Continuous
 62
     2
100
AcDbCircle
 10
188.7640984802233
 20
285.4282148344759
 30
0.0
 40
0.7487023016407833
100
AcDbArc
 50
246.6277221118226
 51
288.4480761180789
  0
ARC
  5
2D0
102
{ACAD_REACTORS
330
380
330
380
330
381
330
381
102
}
330
6D
100
AcDbEntity
  8
0
  6
Continuous
 62
     2
100
AcDbCircle
 10
188.4185053119077
 20
286.4642030791342
 30
0.0
 40
1.840813230555995
100
AcDbArc
 50
288.4480761181324
 51
301.9309089499387
  0
ARC
  5
2D1
102
{ACAD_REACTORS
330
380
330
380
330
381
330
381
102
}
330
6D
100
AcDbEntity
  8
0
  6
Continuous
 62
     2
100
AcDbCircle
 10
188.2880318614178
 20
288.036281244298
 30
0.0
 40
4.010410630990616
100
AcDbArc
 50
275.1581447696367
 51
285.9799912583383
  0
ARC
  5
2D2
102
{ACAD_REACTORS
330
380
330
380
330
381
330
381
102
}
330
6D
100
AcDbEntity
  8
0
  6
Continuous
 62
     2
100
AcDbCircle
 10
188.526755906654
 20
285.3917435722141
 30
0.0
 40
1.355119937140852
100
AcDbArc
 50
195.061891777101
 51
275.1581447696782
  0
ARC
  5
2D3
102
{ACAD_REACTORS
330
378
330
378
330
379
330
379
102
}
330
6D
100
AcDbEntity
  8
0
  6
Continuous
 62
     2
100
AcDbCircle
 10
175.5282325085622
 20
288.4644206256949
 30
0.0
 40
0.8722030093667286
100
AcDbArc
 50
270.0
 51
90.0
  0
ARC
  5
2D4
102
{ACAD_REACTORS
330
37E
330
37E
330
37F
330
37F
102
}
330
6D
100
AcDbEntity
  8
0
  6
Continuous
 62
     2
100
AcDbCircle
 10
169.0984382042189
 20
284.8864356008864
 30
0.0
 40
0.2609230769220972
100
AcDbArc
 50
180.0
 51
270.0
  0
ARC
  5
2D5
102
{ACAD_REACTORS
330
37E
330
37E
330
37F
330
37F
102
}
330
6D
100
AcDbEntity
  8
0
  6
Continuous
 62
     2
100
AcDbCircle
 10
170.3181351141441
 20
288.4868116692477
 30
0.0
 40
0.2609230769228077
100
AcDbArc
 50
0.0
 51
90.0
  0
ARC
  5
2D6
102
{ACAD_REACTORS
330
37E
330
37E
330
37F
330
37F
102
}
330
6D
100
AcDbEntity
  8
0
  6
Continuous
 62
     2
100
AcDbCircle
 10
170.3181351141441
 20
287.9876177691976
 30
0.0
 40
0.2609230769223044
100
AcDbArc
 50
295.1944106485637
 51
0.0
  0
ARC
  5
2D7
102
{ACAD_REACTORS
330
37E
330
37E
330
37F
330
37F
102
}
330
6D
100
AcDbEntity
  8
0
  6
Continuous
 62
     2
100
AcDbCircle
 10
170.3181351141441
 20
284.8864356008864
 30
0.0
 40
0.2609230769227793
100
AcDbArc
 50
270.0
 51
0.0
  0
ARC
  5
2D8
102
{ACAD_REACTORS
330
37E
330
37E
330
37F
330
37F
102
}
330
6D
100
AcDbEntity
  8
0
  6
Continuous
 62
     2
100
AcDbCircle
 10
168.6076161573209
 20
288.9860082504318
 30
0.0
 40
0.3506153846147413
100
AcDbArc
 50
90.0
 51
180.0
  0
ARC
  5
2D9
102
{ACAD_REACTORS
330
37E
330
37E
330
37F
330
37F
102
}
330
6D
100
AcDbEntity
  8
0
  6
Continuous
 62
     2
100
AcDbCircle
 10
173.131014579401
 20
288.9860082504318
 30
0.0
 40
0.3506153846147981
100
AcDbArc
 50
0.0
 51
90.0
  0
ARC
  5
2DA
102
{ACAD_REACTORS
330
37E
330
37E
330
37F
330
37F
102
}
330
6D
100
AcDbEntity
  8
0
  6
Continuous
 62
     2
100
AcDbCircle
 10
173.131014579401
 20
284.3872390196879
 30
0.0
 40
0.3506153846144002
100
AcDbArc
 50
270.0
 51
0.0
  0
ARC
  5
2DB
102
{ACAD_REACTORS
330
37C
330
37C
330
37D
330
37D
102
}
330
6D
100
AcDbEntity
  8
0
  6
Continuous
 62
     2
100
AcDbCircle
 10
180.7495136596419
 20
288.0747188731559
 30
0.0
 40
0.6378510567600058
100
AcDbArc
 50
321.8795802028323
 51
38.12041979715963
  0
ARC
  5
2DC
102
{ACAD_REACTORS
330
37C
330
37C
330
37D
330
37D
102
}
330
6D
100
AcDbEntity
  8
0
  6
Continuous
 62
     2
100
AcDbCircle
 10
180.9145880698453
 20
287.9451889738828
 30
0.0
 40
0.4280236140606983
100
AcDbArc
 50
218.1204197971595
 51
321.8795802028476
  0
ARC
  5
2DD
102
{ACAD_REACTORS
330
37A
330
37A
330
37B
330
37B
102
}
330
6D
100
AcDbEntity
  8
0
  6
Continuous
 62
     2
100
AcDbCircle
 10
177.8732594839278
 20
285.2985283969788
 30
0.0
 40
1.204986845993431
100
AcDbArc
 50
297.5481481756999
 51
62.45185182429886
  0
ARC
  5
2DE
102
{ACAD_REACTORS
330
37A
330
37A
330
37B
330
37B
102
}
330
6D
100
AcDbEntity
  8
0
  6
Continuous
 62
     2
100
AcDbCircle
 10
177.4088960263521
 20
285.2985283969788
 30
0.0
 40
1.20498684599296
100
AcDbArc
 50
117.5481481756628
 51
242.4518518243384
  0
ARC
  5
2DF
102
{ACAD_REACTORS
330
37A
330
37A
330
37B
330
37B
102
}
330
6D
100
AcDbEntity
  8
0
  6
Continuous
 62
     2
100
AcDbCircle
 10
177.64107775514
 20
284.8534250826789
 30
0.0
 40
1.707008076205454
100
AcDbArc
 50
62.45185182430909
 51
117.5481481756672
  0
ARC
  5
2E0
102
{ACAD_REACTORS
330
37A
330
37A
330
37B
330
37B
102
}
330
6D
100
AcDbEntity
  8
0
  6
Continuous
 62
     2
100
AcDbCircle
 10
177.64107775514
 20
285.743631711279
 30
0.0
 40
1.707008076205438
100
AcDbArc
 50
242.451851824339
 51
297.5481481756847
  0
ARC
  5
2E1
102
{ACAD_REACTORS
330
37C
330
37C
330
37D
330
37D
102
}
330
6D
100
AcDbEntity
  8
0
  6
Continuous
 62
     2
100
AcDbCircle
 10
181.0796624800488
 20
288.0747188731559
 30
0.0
 40
0.6378510567599356
100
AcDbArc
 50
141.8795802028404
 51
218.1204197971676
  0
ARC
  5
2E2
102
{ACAD_REACTORS
330
37C
330
37C
330
37D
330
37D
102
}
330
6D
100
AcDbEntity
  8
0
  6
Continuous
 62
     2
100
AcDbCircle
 10
180.9145880698453
 20
288.204248772429
 30
0.0
 40
0.4280236140606953
100
AcDbArc
 50
38.12041979714043
 51
141.8795802028525
  0
ARC
  5
2E3
102
{ACAD_REACTORS
330
37E
330
37E
330
37F
330
37F
102
}
330
6D
100
AcDbEntity
  8
0
  6
Continuous
 62
     2
100
AcDbCircle
 10
168.6076161573209
 20
284.3872390196879
 30
0.0
 40
0.3506153846139171
100
AcDbArc
 50
180.0
 51
270.0
  0
ARC
  5
2E4
102
{ACAD_REACTORS
330
37E
330
37E
330
37F
330
37F
102
}
330
6D
100
AcDbEntity
  8
0
  6
Continuous
 62
     2
100
AcDbCircle
 10
170.3181351141441
 20
286.1515355443011
 30
0.0
 40
0.2609230769228077
100
AcDbArc
 50
0.0
 51
64.8055893514363
  0
ARC
  5
2E5
102
{ACAD_REACTORS
330
37E
330
37E
330
37F
330
37F
102
}
330
6D
100
AcDbEntity
  8
0
  6
Continuous
 62
     2
100
AcDbCircle
 10
170.7500230873466
 20
287.0695766567495
 30
0.0
 40
0.753634316989858
100
AcDbArc
 50
115.1944106485226
 51
244.8055893514885
  0
ARC
  5
2E6
102
{ACAD_REACTORS
330
37E
330
37E
330
37F
330
37F
102
}
330
6D
100
AcDbEntity
  8
0
  6
Continuous
 62
     2
100
AcDbCircle
 10
169.0984382042189
 20
288.4868116692477
 30
0.0
 40
0.2609230769224951
100
AcDbArc
 50
90.0
 51
180.0
  0
ARC
  5
2E7
102
{ACAD_REACTORS
330
378
330
378
330
379
330
379
102
}
330
6D
100
AcDbEntity
  8
0
  6
Continuous
 62
     2
100
AcDbCircle
 10
175.1633791810924
 20
288.4969792795978
 30
0.0
 40
0.2916229955960716
100
AcDbArc
 50
270.0
 51
90.0
  0
ARC
  5
2E8
102
{ACAD_REACTORS
330
37C
330
37C
330
37D
330
37D
102
}
330
6D
100
AcDbEntity
  8
0
  6
Continuous
 62
     2
100
AcDbCircle
 10
180.7358508713617
 20
288.0747188731559
 30
0.0
 40
1.261904761905612
100
AcDbArc
 50
90.0
 51
270.0
  0
ARC
  5
2E9
102
{ACAD_REACTORS
330
380
330
380
330
381
330
381
102
}
330
6D
100
AcDbEntity
  8
0
  6
Continuous
 62
     2
100
AcDbCircle
 10
188.526755906654
 20
285.2053132217433
 30
0.0
 40
1.355119937140557
100
AcDbArc
 50
90.0
 51
164.9381082229013
  0
ARC
  5
2EA
102
{ACAD_REACTORS
330
380
330
380
330
381
330
381
102
}
330
6D
100
AcDbEntity
  8
0
  6
Continuous
 62
     2
100
AcDbCircle
 10
188.180369259165
 20
285.2985283969788
 30
0.0
 40
0.9964100565230259
100
AcDbArc
 50
164.9381082229105
 51
195.0618917770989
  0
ARC
  5
2EB
102
{ACAD_REACTORS
330
380
330
380
330
381
330
381
102
}
330
6D
100
AcDbEntity
  8
0
  6
Continuous
 62
     2
100
AcDbCircle
 10
188.6348091969976
 20
285.1290478768642
 30
0.0
 40
0.422793438178404
100
AcDbArc
 50
208.5214732576761
 51
246.6277221118468
  0
ARC
  5
2EC
102
{ACAD_REACTORS
330
380
330
380
330
381
330
381
102
}
330
6D
100
AcDbEntity
  8
0
  6
Continuous
 62
     2
100
AcDbCircle
 10
188.6348091969976
 20
285.4680089170936
 30
0.0
 40
0.4227934381773005
100
AcDbArc
 50
109.3371432194784
 51
151.4785267424186
  0
ARC
  5
2ED
102
{ACAD_REACTORS
330
37E
330
37E
330
37F
330
37F
102
}
330
6D
100
AcDbEntity
  8
0
  6
Continuous
 62
     2
100
AcDbCircle
 10
171.2269908377162
 20
285.6720617752095
 30
0.0
 40
0.2609230769229782
100
AcDbArc
 50
180.0
 51
269.8110329574465
  0
ARC
  5
2EE
102
{ACAD_REACTORS
330
37E
330
37E
330
37F
330
37F
102
}
330
6D
100
AcDbEntity
  8
0
  6
Continuous
 62
     2
100
AcDbCircle
 10
171.2316322718566
 20
287.0793633847707
 30
0.0
 40
1.668232340440728
100
AcDbArc
 50
269.8110329575882
 51
90.18896704241182
  0
ARC
  5
2EF
102
{ACAD_REACTORS
330
37E
330
37E
330
37F
330
37F
102
}
330
6D
100
AcDbEntity
  8
0
  6
Continuous
 62
     2
100
AcDbCircle
 10
171.2269908377162
 20
287.9862226071361
 30
0.0
 40
0.2609230769229782
100
AcDbArc
 50
180.0
 51
244.6259913216263
  0
ARC
  5
2F0
102
{ACAD_REACTORS
330
37E
330
37E
330
37F
330
37F
102
}
330
6D
100
AcDbEntity
  8
0
  6
Continuous
 62
     2
100
AcDbCircle
 10
171.2269908377162
 20
286.1529307063624
 30
0.0
 40
0.2609230769228772
100
AcDbArc
 50
115.3740086783577
 51
180.0
  0
ARC
  5
2F1
102
{ACAD_REACTORS
330
382
330
382
330
383
330
383
102
}
330
6D
100
AcDbEntity
  8
0
  6
Continuous
 62
     2
100
AcDbCircle
 10
175.2187381552053
 20
285.2053132217433
 30
0.0
 40
1.355119937140927
100
AcDbArc
 50
84.84185523036031
 51
164.9381082228929
  0
ARC
  5
2F2
102
{ACAD_REACTORS
330
382
330
382
330
383
330
383
102
}
330
6D
100
AcDbEntity
  8
0
  6
Continuous
 62
     2
100
AcDbCircle
 10
174.8723515077154
 20
285.2985283969788
 30
0.0
 40
0.9964100565214067
100
AcDbArc
 50
164.9381082228855
 51
195.0618917771019
  0
ARC
  5
2F3
102
{ACAD_REACTORS
330
382
330
382
330
383
330
383
102
}
330
6D
100
AcDbEntity
  8
0
  6
Continuous
 62
     2
100
AcDbCircle
 10
175.2187381552053
 20
285.3917435722141
 30
0.0
 40
1.355119937140008
100
AcDbArc
 50
195.0618917770933
 51
275.1581447696415
  0
ARC
  5
2F4
102
{ACAD_REACTORS
330
382
330
382
330
383
330
383
102
}
330
6D
100
AcDbEntity
  8
0
  6
Continuous
 62
     2
100
AcDbCircle
 10
174.9800141099691
 20
288.036281244298
 30
0.0
 40
4.010410630990141
100
AcDbArc
 50
275.1581447696246
 51
285.9799912583526
  0
ARC
  5
2F5
102
{ACAD_REACTORS
330
382
330
382
330
383
330
383
102
}
330
6D
100
AcDbEntity
  8
0
  6
Continuous
 62
     2
100
AcDbCircle
 10
175.6386569480947
 20
285.2985283969788
 30
0.0
 40
0.7777353184572496
100
AcDbArc
 50
151.4785267422727
 51
208.5214732577052
  0
ARC
  5
2F6
102
{ACAD_REACTORS
330
382
330
382
330
383
330
383
102
}
330
6D
100
AcDbEntity
  8
0
  6
Continuous
 62
     2
100
AcDbCircle
 10
175.3267914455489
 20
285.4680089170936
 30
0.0
 40
0.4227934381776413
100
AcDbArc
 50
113.3722778881857
 51
151.4785267423007
  0
ARC
  5
2F7
102
{ACAD_REACTORS
330
382
330
382
330
383
330
383
102
}
330
6D
100
AcDbEntity
  8
0
  6
Continuous
 62
     2
100
AcDbCircle
 10
175.110487560459
 20
284.1328537148232
 30
0.0
 40
1.840813230556632
100
AcDbArc
 50
58.06909105003894
 51
71.55192388186816
  0
ARC
  5
2F8
102
{ACAD_REACTORS
330
37A
330
37A
330
37B
330
37B
102
}
330
6D
100
AcDbEntity
  8
0
  6
Continuous
 62
     2
100
AcDbCircle
 10
177.64107775514
 20
285.4280582962518
 30
0.0
 40
0.4280236140606089
100
AcDbArc
 50
38.12041979716885
 51
141.8795802028476
  0
ARC
  5
2F9
102
{ACAD_REACTORS
330
37A
330
37A
330
37B
330
37B
102
}
330
6D
100
AcDbEntity
  8
0
  6
Continuous
 62
     2
100
AcDbCircle
 10
177.8061521653433
 20
285.2985283969788
 30
0.0
 40
0.6378510567598462
100
AcDbArc
 50
141.8795802028341
 51
218.1204197971699
  0
ARC
  5
2FA
102
{ACAD_REACTORS
330
37A
330
37A
330
37B
330
37B
102
}
330
6D
100
AcDbEntity
  8
0
  6
Continuous
 62
     2
100
AcDbCircle
 10
177.64107775514
 20
285.1689984977061
 30
0.0
 40
0.4280236140610111
100
AcDbArc
 50
218.1204197971943
 51
321.8795802027893
  0
ARC
  5
2FB
102
{ACAD_REACTORS
330
37A
330
37A
330
37B
330
37B
102
}
330
6D
100
AcDbEntity
  8
0
  6
Continuous
 62
     2
100
AcDbCircle
 10
177.4760033449364
 20
285.2985283969788
 30
0.0
 40
0.6378510567599707
100
AcDbArc
 50
321.8795802028363
 51
38.12041979715963
  0
CIRCLE
  5
2FC
330
6D
100
AcDbEntity
  8
1
  6
Continuous
 62
     2
100
AcDbCircle
 10
166.6892152370148
 20
293.0616236350676
 30
0.0
 40
1.5
  0
CIRCLE
  5
2FD
330
6D
100
AcDbEntity
  8
1
  6
Continuous
 62
     2
100
AcDbCircle
 10
166.6892152370148
 20
293.0616236350676
 30
0.0
 40
1.0
  0
CIRCLE
  5
2FE
102
{ACAD_REACTORS
330
37E
330
37E
330
37F
330
37F
102
}
330
6D
100
AcDbEntity
  8
0
  6
Continuous
 62
     2
100
AcDbCircle
 10
170.7725629759305
 20
287.0695766567495
 30
0.0
 40
0.3892387874201972
  0
MTEXT
  5
300
330
6D
100
AcDbEntity
  8
1
 62
     7
100
AcDbMText
 10
244.5693576752869
 20
281.4366236350678
 30
0.0
 40
3.0
 41
0.0
 71
     5
 72
     1
  1
FLT-CP-N/PE-350-ST
  7
CONVERTER_12
 73
     1
 44
1.20048019207683
  0
TEXT
  5
302
330
6D
100
AcDbEntity
  8
1
 62
     3
100
AcDbText
 10
247.1417599386634
 20
287.9866236350675
 30
0.0
 40
2.5
  1
 
 41
0.54
  7
CONVERTER_13
100
AcDbText
  0
MTEXT
  5
304
330
6D
100
AcDbEntity
  8
1
 62
     2
100
AcDbMText
 10
228.6417599386638
 20
298.4366236350676
 30
0.0
 40
1.8
 41
0.0
 71
     1
 72
     1
  1
part-rev.
  7
CONVERTER_14
 73
     1
 44
1.20048019207683
  0
MTEXT
  5
306
330
6D
100
AcDbEntity
  8
1
 62
     2
100
AcDbMText
 10
199.0969554119114
 20
297.5116236350675
 30
0.0
 40
1.4
 41
0.0
 71
     4
 72
     1
  1
SAP\Pchange-No.
  7
CONVERTER_15
 73
     1
 44
0.66026410564226
  0
MTEXT
  5
307
330
6D
100
AcDbEntity
  8
1
 62
     3
100
AcDbMText
 10
208.3291922300263
 20
297.3116236350676
 30
0.0
 40
2.5
 41
0.0
 71
     4
 72
     1
  1
 
  7
CONVERTER_15
 73
     1
 44
1.20048019207683
  0
MTEXT
  5
308
330
6D
100
AcDbEntity
  8
1
 62
     3
100
AcDbMText
 10
238.8487798252718
 20
298.5366236350676
 30
0.0
 40
2.0
 41
0.0
 71
     1
 72
     1
  1
A07-13066/39
  7
CONVERTER_14
 73
     1
 44
1.20048019207683
  0
TEXT
  5
30A
330
6D
100
AcDbEntity
  8
1
 62
     3
100
AcDbText
 10
198.9969554119114
 20
287.9866236350675
 30
0.0
 40
2.5
  1
KUNDENZCHNG-SELECT
 41
0.45
  7
CONVERTER_16
100
AcDbText
  0
TEXT
  5
30B
330
6D
100
AcDbEntity
  8
1
 62
     3
100
AcDbText
 10
199.0969554119131
 20
310.2313952086724
 30
0.0
 40
2.5
  1
 
 41
0.72
  7
CONVERTER_14
100
AcDbText
  0
TEXT
  5
30C
330
6D
100
AcDbEntity
  8
1
 62
     3
100
AcDbText
 10
199.0969554119131
 20
313.7313952086724
 30
0.0
 40
2.5
  1
 
 41
0.72
  7
CONVERTER_14
100
AcDbText
  0
TEXT
  5
30D
330
6D
100
AcDbEntity
  8
1
 62
     3
100
AcDbText
 10
199.0969554119131
 20
317.2313952086724
 30
0.0
 40
2.5
  1
 
 41
0.72
  7
CONVERTER_14
100
AcDbText
  0
MTEXT
  5
30E
330
6D
100
AcDbEntity
  8
1
 62
     3
100
AcDbMText
 10
-105.5897730610776
 20
451.1729077487219
 30
0.0
 40
1.8
 41
0.0
 71
     7
 72
     1
  3
The copying, distribution and utilistion of this document as well as the communication\Pof the contents to others without expressed authorization is prohibited according to\P\U+00a718 UWG German Law. Offenders will be held liable for the payment of 
  1
damages\Paccording to (\U+00a719 UWG German Law). All rights reserved, in particular the right to\Pcarry out patent, utility model or ornamental design registrations.\PFlachsmarktstra\U+00dfe 8  D-32825 Blomberg
  7
CONVERTER_11
 11
6.123233764940082E-17
 21
1.0
 31
0.0
 73
     1
 44
0.99639855942377
  0
MTEXT
  5
30F
330
6D
100
AcDbEntity
  8
1
 62
     3
100
AcDbMText
 10
-105.4355667499836
 20
278.2135377345687
 30
0.0
 40
1.8
 41
0.0
 71
     7
 72
     1
  3
Weitergabe sowie Vervielf\U+00e4ltigung dieses Dokuments, Verwertung und\PMitteilung seines Inhalts gem\U+00e4\U+00df \U+00a718 UWG verboten, soweit nicht aus-\Pdr\U+00fccklich gestattet. Zuwiderhandlungen verpflichten zu Schadenersatz\P(\U+00a719 U
  1
WG). Alle Rechte vorbehalten, insbesondere das Recht, Patent-,\PGebrauchsmuster- oder Geschmacksmusteranmeldungen durchzuf\U+00fchren.\PPhoenix Contact GmbH & Co. KG
  7
CONVERTER_11
 11
6.123233764940082E-17
 21
1.0
 31
0.0
 73
     1
 44
0.99639855942377
  0
TEXT
  5
310
330
6D
100
AcDbEntity
  8
1
 62
     7
100
AcDbText
 10
-85.85824006133657
 20
566.1866236350684
 30
0.0
 40
2.5
  1
1
 41
0.9
  7
CONVERTER_11
100
AcDbText
  0
TEXT
  5
311
330
6D
100
AcDbEntity
  8
1
 62
     7
100
AcDbText
 10
-17.5249067280034
 20
566.1866236350684
 30
0.0
 40
2.5
  1
2
 41
0.9
  7
CONVERTER_11
100
AcDbText
  0
TEXT
  5
312
330
6D
100
AcDbEntity
  8
1
 62
     7
100
AcDbText
 10
50.80842660533003
 20
566.1866236350684
 30
0.0
 40
2.5
  1
3
 41
0.9
  7
CONVERTER_11
100
AcDbText
  0
TEXT
  5
313
330
6D
100
AcDbEntity
  8
1
 62
     7
100
AcDbText
 10
119.1417599386632
 20
566.1866236350684
 30
0.0
 40
2.5
  1
4
 41
0.9
  7
CONVERTER_11
100
AcDbText
  0
TEXT
  5
314
330
6D
100
AcDbEntity
  8
1
 62
     7
100
AcDbText
 10
187.4750932719966
 20
566.1866236350684
 30
0.0
 40
2.5
  1
5
 41
0.9
  7
CONVERTER_11
100
AcDbText
  0
TEXT
  5
315
330
6D
100
AcDbEntity
  8
1
 62
     7
100
AcDbText
 10
255.8084266053298
 20
566.1866236350684
 30
0.0
 40
2.5
  1
6
 41
0.9
  7
CONVERTER_11
100
AcDbText
  0
TEXT
  5
316
330
6D
100
AcDbEntity
  8
1
 62
     7
100
AcDbText
 10
292.1417599386632
 20
535.286623635068
 30
0.0
 40
2.5
  1
A
 41
0.9
  7
CONVERTER_11
100
AcDbText
  0
TEXT
  5
317
330
6D
100
AcDbEntity
  8
1
 62
     7
100
AcDbText
 10
292.1417599386632
 20
477.8866236350682
 30
0.0
 40
2.5
  1
B
 41
0.9
  7
CONVERTER_11
100
AcDbText
  0
TEXT
  5
318
330
6D
100
AcDbEntity
  8
1
 62
     7
100
AcDbText
 10
292.1417599386632
 20
420.4866236350683
 30
0.0
 40
2.5
  1
C
 41
0.9
  7
CONVERTER_11
100
AcDbText
  0
TEXT
  5
319
330
6D
100
AcDbEntity
  8
1
 62
     7
100
AcDbText
 10
292.1417599386632
 20
363.0866236350682
 30
0.0
 40
2.5
  1
D
 41
0.9
  7
CONVERTER_11
100
AcDbText
  0
TEXT
  5
31A
330
6D
100
AcDbEntity
  8
1
 62
     7
100
AcDbText
 10
-17.5249067280034
 20
274.1866236350681
 30
0.0
 40
2.5
  1
2
 41
0.9
  7
CONVERTER_11
100
AcDbText
  0
TEXT
  5
31B
330
6D
100
AcDbEntity
  8
1
 62
     7
100
AcDbText
 10
-85.85824006133657
 20
274.1866236350681
 30
0.0
 40
2.5
  1
1
 41
0.9
  7
CONVERTER_11
100
AcDbText
  0
TEXT
  5
31C
330
6D
100
AcDbEntity
  8
1
 62
     7
100
AcDbText
 10
292.1417599386632
 20
305.6866236350681
 30
0.0
 40
2.5
  1
E
 41
0.9
  7
CONVERTER_11
100
AcDbText
  0
TEXT
  5
31D
330
6D
100
AcDbEntity
  8
1
 62
     7
100
AcDbText
 10
50.80842660533003
 20
274.1866236350681
 30
0.0
 40
2.5
  1
3
 41
0.9
  7
CONVERTER_11
100
AcDbText
  0
TEXT
  5
31E
330
6D
100
AcDbEntity
  8
1
 62
     7
100
AcDbText
 10
119.1417599386632
 20
274.1866236350681
 30
0.0
 40
2.5
  1
4
 41
0.9
  7
CONVERTER_11
100
AcDbText
  0
TEXT
  5
31F
330
6D
100
AcDbEntity
  8
1
 62
     7
100
AcDbText
 10
187.4750932719964
 20
274.1866236350681
 30
0.0
 40
2.5
  1
5
 41
0.9
  7
CONVERTER_11
100
AcDbText
  0
TEXT
  5
320
330
6D
100
AcDbEntity
  8
1
 62
     7
100
AcDbText
 10
255.8084266053298
 20
274.1866236350681
 30
0.0
 40
2.5
  1
6
 41
0.9
  7
CONVERTER_11
100
AcDbText
  0
TEXT
  5
321
330
6D
100
AcDbEntity
  8
1
 62
     7
100
AcDbText
 10
216.1268676309672
 20
300.7366236350675
 30
0.0
 40
2.5
  1
12
 41
0.81
  7
CONVERTER_12
100
AcDbText
  0
TEXT
  5
322
330
6D
100
AcDbEntity
  8
1
 62
     3
100
AcDbText
 10
274.2601682203423
 20
300.7366236350675
 30
0.0
 40
2.5
  1
 
 41
0.54
  7
CONVERTER_13
100
AcDbText
  0
TEXT
  5
323
330
6D
100
AcDbEntity
  8
1
 62
     7
100
AcDbText
 10
228.6417599386655
 20
287.9866236350675
 30
0.0
 40
2.5
  1
00320824
 41
0.81
  7
CONVERTER_12
100
AcDbText
  0
TEXT
  5
324
330
6D
100
AcDbEntity
  8
1
 62
     7
100
AcDbText
 10
199.4969554119112
 20
300.7366236350675
 30
0.0
 40
2.5
  1
2859686
 41
0.81
  7
CONVERTER_12
100
AcDbText
  0
TEXT
  5
325
330
6D
100
AcDbEntity
  8
1
 62
     3
100
AcDbText
 10
221.8969554119114
 20
300.7366236350675
 30
0.0
 40
2.5
  1
 
 41
0.54
  7
CONVERTER_13
100
AcDbText
  0
MTEXT
  5
326
330
6D
100
AcDbEntity
  8
1
 62
     3
100
AcDbMText
 10
268.8009640795029
 20
300.7366236350676
 30
0.0
 40
2.5
 41
0.0
 71
     8
 72
     1
  1
1:1
  7
CONVERTER_14
 73
     1
 44
1.32052821128451
  0
TEXT
  5
327
330
6D
100
AcDbEntity
  8
1
 62
     7
100
AcDbText
 10
213.9705031339252
 20
300.7366236350675
 30
0.0
 40
2.5
  1
/
 41
0.9
  7
CONVERTER_11
100
AcDbText
  0
MTEXT
  5
328
330
6D
100
AcDbEntity
  8
1
 62
     2
100
AcDbMText
 10
177.7469554119114
 20
301.5616236350676
 30
0.0
 40
1.8
 41
0.0
 71
     5
 72
     1
  1
11.10.04
  7
CONVERTER_11
 73
     1
 44
1.32052821128451
  0
MTEXT
  5
329
330
6D
100
AcDbEntity
  8
1
 62
     2
100
AcDbMText
 10
177.7469554119114
 20
297.3116236350676
 30
0.0
 40
1.8
 41
0.0
 71
     5
 72
     1
  1
12.03.14
  7
CONVERTER_11
 73
     1
 44
1.32052821128451
  0
MTEXT
  5
32A
330
6D
100
AcDbEntity
  8
1
 62
     2
100
AcDbMText
 10
191.2469554119114
 20
301.5616236350676
 30
0.0
 40
1.8
 41
0.0
 71
     5
 72
     1
  1
pbgc04
  7
CONVERTER_11
 73
     1
 44
1.32052821128451
  0
MTEXT
  5
32B
330
6D
100
AcDbEntity
  8
1
 62
     2
100
AcDbMText
 10
191.2469554119114
 20
297.3116236350676
 30
0.0
 40
1.8
 41
0.0
 71
     5
 72
     1
  1
pbtk03
  7
CONVERTER_11
 73
     1
 44
1.32052821128451
  0
MTEXT
  5
32C
330
6D
100
AcDbEntity
  8
1
 62
     2
100
AcDbMText
 10
198.9969554119114
 20
294.1866236350676
 30
0.0
 40
1.8
 41
0.0
 71
     1
 72
     1
  1
document-type
  7
CONVERTER_11
 73
     1
 44
1.20048019207683
  0
MTEXT
  5
32D
330
6D
100
AcDbEntity
  8
1
 62
     2
100
AcDbMText
 10
166.2969554119115
 20
304.8866236350676
 30
0.0
 40
1.8
 41
0.0
 71
     8
 72
     1
  1
00
  7
CONVERTER_11
 73
     1
 44
1.20048019207683
  0
MTEXT
  5
32E
330
6D
100
AcDbEntity
  8
1
 62
     2
100
AcDbMText
 10
198.9969554119114
 20
285.6866236350676
 30
0.0
 40
1.8
 41
0.0
 71
     1
 72
     1
  1
description
  7
CONVERTER_11
 73
     1
 44
1.20048019207683
  0
TEXT
  5
32F
330
6D
100
AcDbEntity
  8
1
 62
     2
100
AcDbText
 10
186.0322642217251
 20
279.4366236350676
 30
0.0
 40
1.8
  1
1
 41
0.9
  7
CONVERTER_11
100
AcDbText
  0
TEXT
  5
330
330
6D
100
AcDbEntity
  8
1
 62
     2
100
AcDbText
 10
171.2432203822536
 20
279.3873749812657
 30
0.0
 40
1.8
  1
 
 41
0.9
  7
CONVERTER_11
100
AcDbText
  0
MTEXT
  5
331
330
6D
100
AcDbEntity
  8
1
 62
     2
100
AcDbMText
 10
199.0969554119114
 20
306.9366236350676
 30
0.0
 40
1.8
 41
0.0
 71
     1
 72
     1
  1
ident.-No. / RI
  7
CONVERTER_11
 73
     1
 44
1.20048019207683
  0
MTEXT
  5
332
330
6D
100
AcDbEntity
  8
1
 62
     3
100
AcDbMText
 10
187.7969554119114
 20
293.0616236350677
 30
0.0
 40
2.5
 41
0.0
 71
     5
 72
     1
  1
DIN A3
  7
CONVERTER_11
 73
     1
 44
1.20048019207683
  0
MTEXT
  5
333
330
6D
100
AcDbEntity
  8
1
 62
     2
100
AcDbMText
 10
166.2969554119115
 20
297.3116236350676
 30
0.0
 40
1.8
 41
0.0
 71
     5
 72
     1
  1
check.
  7
CONVERTER_11
 73
     1
 44
1.20048019207683
  0
MTEXT
  5
334
330
6D
100
AcDbEntity
  8
1
 62
     2
100
AcDbMText
 10
166.2969554119115
 20
301.5616236350676
 30
0.0
 40
1.8
 41
0.0
 71
     5
 72
     1
  1
creat.
  7
CONVERTER_11
 73
     1
 44
1.20048019207683
  0
MTEXT
  5
335
330
6D
100
AcDbEntity
  8
1
 62
     2
100
AcDbMText
 10
265.4417599386633
 20
306.9366236350676
 30
0.0
 40
1.8
 41
0.0
 71
     1
 72
     1
  1
scale
  7
CONVERTER_11
 73
     1
 44
1.20048019207683
  0
MTEXT
  5
336
330
6D
100
AcDbEntity
  8
1
 62
     2
100
AcDbMText
 10
89.96935767528639
 20
279.4366236350676
 30
0.0
 40
1.8
 41
0.0
 71
     8
 72
     1
  1
revision
  7
CONVERTER_11
 73
     1
 44
1.32052821128451
  0
MTEXT
  5
337
330
6D
100
AcDbEntity
  8
1
 62
     2
100
AcDbMText
 10
191.2469554119114
 20
304.8866236350676
 30
0.0
 40
1.8
 41
0.0
 71
     8
 72
     1
  1
name
  7
CONVERTER_11
 73
     1
 44
1.32052821128451
  0
MTEXT
  5
338
330
6D
100
AcDbEntity
  8
1
 62
     2
100
AcDbMText
 10
177.7469554119114
 20
304.8866236350676
 30
0.0
 40
1.8
 41
0.0
 71
     8
 72
     1
  1
date
  7
CONVERTER_11
 73
     1
 44
1.32052821128451
  0
MTEXT
  5
339
330
6D
100
AcDbEntity
  8
1
 62
     2
100
AcDbMText
 10
42.24175993866228
 20
279.4366236350676
 30
0.0
 40
1.8
 41
0.0
 71
     8
 72
     1
  1
RI
  7
CONVERTER_11
 73
     1
 44
1.32052821128451
  0
MTEXT
  5
33A
330
6D
100
AcDbEntity
  8
1
 62
     2
100
AcDbMText
 10
222.1221445695029
 20
306.9366236350674
 30
0.0
 40
1.8
 41
0.0
 71
     1
 72
     1
  1
material
  7
CONVERTER_11
 73
     1
 44
1.20048019207683
  0
MTEXT
  5
33B
330
6D
100
AcDbEntity
  8
1
 62
     2
100
AcDbMText
 10
52.09175993866128
 20
279.4366236350676
 30
0.0
 40
1.8
 41
0.0
 71
     8
 72
     1
  1
date
  7
CONVERTER_11
 73
     1
 44
1.32052821128451
  0
MTEXT
  5
33C
330
6D
100
AcDbEntity
  8
1
 62
     2
100
AcDbMText
 10
127.8469554119115
 20
279.4366236350676
 30
0.0
 40
1.8
 41
0.0
 71
     8
 72
     1
  1
name
  7
CONVERTER_11
 73
     1
 44
1.32052821128451
  0
MTEXT
  5
33D
330
6D
100
AcDbEntity
  8
1
 62
     2
100
AcDbMText
 10
141.3469554119115
 20
279.4366236350676
 30
0.0
 40
1.8
 41
0.0
 71
     8
 72
     1
  1
check.on
  7
CONVERTER_11
 73
     1
 44
1.32052821128451
  0
MTEXT
  5
33E
330
6D
100
AcDbEntity
  8
1
 62
     2
100
AcDbMText
 10
154.8469554119114
 20
279.4366236350676
 30
0.0
 40
1.8
 41
0.0
 71
     8
 72
     1
  1
name
  7
CONVERTER_11
 73
     1
 44
1.32052821128451
  0
TEXT
  5
33F
330
6D
100
AcDbEntity
  8
1
 62
     2
100
AcDbText
 10
162.5969554119115
 20
279.4276064200759
 30
0.0
 40
1.8
  1
page
 41
0.9
  7
CONVERTER_11
100
AcDbText
  0
TEXT
  5
340
330
6D
100
AcDbEntity
  8
1
 62
     2
100
AcDbText
 10
180.7969554119114
 20
279.427606420076
 30
0.0
 40
1.8
  1
of
 41
0.9
  7
CONVERTER_11
100
AcDbText
  0
MTEXT
  5
342
330
6D
100
AcDbEntity
  8
1
 62
     2
100
AcDbMText
 10
228.6417599386655
 20
294.1866236350676
 30
0.0
 40
1.8
 41
0.0
 71
     1
 72
     1
  1
document-No.
  7
CONVERTER_17
 73
     1
 44
1.32052821128451
  0
MTEXT
  5
343
330
6D
100
AcDbEntity
  8
1
 62
     2
100
AcDbMText
 10
274.5601682203422
 20
306.9366236350676
 30
0.0
 40
1.8
 41
0.0
 71
     1
 72
     1
  1
dim.var.
  7
CONVERTER_11
 73
     1
 44
1.20048019207683
  0
MTEXT
  5
344
330
6D
100
AcDbEntity
  8
1
 62
     2
100
AcDbMText
 10
247.1417599386651
 20
294.1866236350676
 30
0.0
 40
1.8
 41
0.0
 71
     1
 72
     1
  1
surface in um
  7
CONVERTER_11
 73
     1
 44
1.32052821128451
  0
MTEXT
  5
345
330
6D
100
AcDbEntity
  8
1
 62
     2
100
AcDbMText
 10
42.24175993866228
 20
305.8116236350676
 30
0.0
 40
2.0
 41
0.0
 71
     5
 72
     1
  1
 
  7
CONVERTER_11
 73
     1
 44
1.20048019207683
  0
MTEXT
  5
346
330
6D
100
AcDbEntity
  8
1
 62
     2
100
AcDbMText
 10
42.24175993866228
 20
301.5616236350676
 30
0.0
 40
2.0
 41
0.0
 71
     5
 72
     1
  1
 
  7
CONVERTER_11
 73
     1
 44
1.20048019207683
  0
MTEXT
  5
347
330
6D
100
AcDbEntity
  8
1
 62
     2
100
AcDbMText
 10
42.24175993866228
 20
297.3116236350676
 30
0.0
 40
2.0
 41
0.0
 71
     5
 72
     1
  1
 
  7
CONVERTER_11
 73
     1
 44
1.20048019207683
  0
MTEXT
  5
348
330
6D
100
AcDbEntity
  8
1
 62
     2
100
AcDbMText
 10
42.24175993866228
 20
293.0616236350676
 30
0.0
 40
2.0
 41
0.0
 71
     5
 72
     1
  1
 
  7
CONVERTER_11
 73
     1
 44
1.20048019207683
  0
MTEXT
  5
349
330
6D
100
AcDbEntity
  8
1
 62
     2
100
AcDbMText
 10
42.24175993866228
 20
288.8116236350676
 30
0.0
 40
2.0
 41
0.0
 71
     5
 72
     1
  1
 
  7
CONVERTER_11
 73
     1
 44
1.20048019207683
  0
MTEXT
  5
34A
330
6D
100
AcDbEntity
  8
1
 62
     2
100
AcDbMText
 10
42.24175993866228
 20
284.5616236350677
 30
0.0
 40
2.0
 41
0.0
 71
     5
 72
     1
  1
01
  7
CONVERTER_11
 73
     1
 44
1.20048019207683
  0
MTEXT
  5
34B
330
6D
100
AcDbEntity
  8
1
 62
     2
100
AcDbMText
 10
52.09175993866128
 20
284.5616236350677
 30
0.0
 40
2.0
 41
0.0
 71
     5
 72
     1
  1
12.03.14
  7
CONVERTER_11
 73
     1
 44
1.20048019207683
  0
MTEXT
  5
34C
330
6D
100
AcDbEntity
  8
1
 62
     2
100
AcDbMText
 10
52.09175993866128
 20
288.8116236350676
 30
0.0
 40
2.0
 41
0.0
 71
     5
 72
     1
  1
 
  7
CONVERTER_11
 73
     1
 44
1.20048019207683
  0
MTEXT
  5
34D
330
6D
100
AcDbEntity
  8
1
 62
     2
100
AcDbMText
 10
52.09175993866128
 20
293.0616236350676
 30
0.0
 40
2.0
 41
0.0
 71
     5
 72
     1
  1
 
  7
CONVERTER_11
 73
     1
 44
1.20048019207683
  0
MTEXT
  5
34E
330
6D
100
AcDbEntity
  8
1
 62
     2
100
AcDbMText
 10
52.09175993866128
 20
297.3116236350676
 30
0.0
 40
2.0
 41
0.0
 71
     5
 72
     1
  1
 
  7
CONVERTER_11
 73
     1
 44
1.20048019207683
  0
MTEXT
  5
34F
330
6D
100
AcDbEntity
  8
1
 62
     2
100
AcDbMText
 10
52.09175993866128
 20
301.5616236350676
 30
0.0
 40
2.0
 41
0.0
 71
     5
 72
     1
  1
 
  7
CONVERTER_11
 73
     1
 44
1.20048019207683
  0
MTEXT
  5
350
330
6D
100
AcDbEntity
  8
1
 62
     2
100
AcDbMText
 10
52.09175993866128
 20
305.8116236350676
 30
0.0
 40
2.0
 41
0.0
 71
     5
 72
     1
  1
 
  7
CONVERTER_11
 73
     1
 44
1.20048019207683
  0
MTEXT
  5
351
330
6D
100
AcDbEntity
  8
1
 62
     2
100
AcDbMText
 10
127.8469554119115
 20
284.5616236350677
 30
0.0
 40
2.0
 41
0.0
 71
     5
 72
     1
  1
pbls30
  7
CONVERTER_11
 73
     1
 44
1.20048019207683
  0
MTEXT
  5
352
330
6D
100
AcDbEntity
  8
1
 62
     2
100
AcDbMText
 10
127.8469554119115
 20
288.8116236350676
 30
0.0
 40
2.0
 41
0.0
 71
     5
 72
     1
  1
 
  7
CONVERTER_11
 73
     1
 44
1.20048019207683
  0
MTEXT
  5
353
330
6D
100
AcDbEntity
  8
1
 62
     2
100
AcDbMText
 10
127.8469554119115
 20
293.0616236350676
 30
0.0
 40
2.0
 41
0.0
 71
     5
 72
     1
  1
 
  7
CONVERTER_11
 73
     1
 44
1.20048019207683
  0
MTEXT
  5
354
330
6D
100
AcDbEntity
  8
1
 62
     2
100
AcDbMText
 10
127.8469554119115
 20
297.3116236350676
 30
0.0
 40
2.0
 41
0.0
 71
     5
 72
     1
  1
 
  7
CONVERTER_11
 73
     1
 44
1.20048019207683
  0
MTEXT
  5
355
330
6D
100
AcDbEntity
  8
1
 62
     2
100
AcDbMText
 10
127.8469554119115
 20
301.5616236350676
 30
0.0
 40
2.0
 41
0.0
 71
     5
 72
     1
  1
 
  7
CONVERTER_11
 73
     1
 44
1.20048019207683
  0
MTEXT
  5
356
330
6D
100
AcDbEntity
  8
1
 62
     2
100
AcDbMText
 10
127.8469554119115
 20
305.8116236350676
 30
0.0
 40
2.0
 41
0.0
 71
     5
 72
     1
  1
 
  7
CONVERTER_11
 73
     1
 44
1.20048019207683
  0
MTEXT
  5
357
330
6D
100
AcDbEntity
  8
1
 62
     2
100
AcDbMText
 10
141.3469554119115
 20
305.8116236350676
 30
0.0
 40
2.0
 41
0.0
 71
     5
 72
     1
  1
 
  7
CONVERTER_11
 73
     1
 44
1.20048019207683
  0
MTEXT
  5
358
330
6D
100
AcDbEntity
  8
1
 62
     2
100
AcDbMText
 10
141.3469554119115
 20
301.5616236350676
 30
0.0
 40
2.0
 41
0.0
 71
     5
 72
     1
  1
 
  7
CONVERTER_11
 73
     1
 44
1.20048019207683
  0
MTEXT
  5
359
330
6D
100
AcDbEntity
  8
1
 62
     2
100
AcDbMText
 10
141.3469554119115
 20
297.3116236350676
 30
0.0
 40
2.0
 41
0.0
 71
     5
 72
     1
  1
 
  7
CONVERTER_11
 73
     1
 44
1.20048019207683
  0
MTEXT
  5
35A
330
6D
100
AcDbEntity
  8
1
 62
     2
100
AcDbMText
 10
141.3469554119115
 20
293.0616236350676
 30
0.0
 40
2.0
 41
0.0
 71
     5
 72
     1
  1
 
  7
CONVERTER_11
 73
     1
 44
1.20048019207683
  0
MTEXT
  5
35B
330
6D
100
AcDbEntity
  8
1
 62
     2
100
AcDbMText
 10
141.3469554119115
 20
288.8116236350676
 30
0.0
 40
2.0
 41
0.0
 71
     5
 72
     1
  1
 
  7
CONVERTER_11
 73
     1
 44
1.20048019207683
  0
MTEXT
  5
35C
330
6D
100
AcDbEntity
  8
1
 62
     2
100
AcDbMText
 10
141.3469554119114
 20
284.5616236350677
 30
0.0
 40
2.0
 41
0.0
 71
     5
 72
     1
  1
 
  7
CONVERTER_11
 73
     1
 44
1.20048019207683
  0
MTEXT
  5
35D
330
6D
100
AcDbEntity
  8
1
 62
     2
100
AcDbMText
 10
154.8469554119114
 20
305.8116236350676
 30
0.0
 40
2.0
 41
0.0
 71
     5
 72
     1
  1
 
  7
CONVERTER_11
 73
     1
 44
1.20048019207683
  0
MTEXT
  5
35E
330
6D
100
AcDbEntity
  8
1
 62
     2
100
AcDbMText
 10
154.8469554119114
 20
301.5616236350676
 30
0.0
 40
2.0
 41
0.0
 71
     5
 72
     1
  1
 
  7
CONVERTER_11
 73
     1
 44
1.20048019207683
  0
MTEXT
  5
35F
330
6D
100
AcDbEntity
  8
1
 62
     2
100
AcDbMText
 10
154.8469554119114
 20
297.3116236350676
 30
0.0
 40
2.0
 41
0.0
 71
     5
 72
     1
  1
 
  7
CONVERTER_11
 73
     1
 44
1.20048019207683
  0
MTEXT
  5
360
330
6D
100
AcDbEntity
  8
1
 62
     2
100
AcDbMText
 10
154.8469554119114
 20
293.0616236350676
 30
0.0
 40
2.0
 41
0.0
 71
     5
 72
     1
  1
 
  7
CONVERTER_11
 73
     1
 44
1.20048019207683
  0
MTEXT
  5
361
330
6D
100
AcDbEntity
  8
1
 62
     2
100
AcDbMText
 10
154.8469554119114
 20
288.8116236350676
 30
0.0
 40
2.0
 41
0.0
 71
     5
 72
     1
  1
 
  7
CONVERTER_11
 73
     1
 44
1.20048019207683
  0
MTEXT
  5
362
330
6D
100
AcDbEntity
  8
1
 62
     2
100
AcDbMText
 10
154.8469554119114
 20
284.5616236350677
 30
0.0
 40
2.0
 41
0.0
 71
     5
 72
     1
  1
 
  7
CONVERTER_11
 73
     1
 44
1.20048019207683
  0
MTEXT
  5
364
330
6D
100
AcDbEntity
  8
1
 62
     2
100
AcDbMText
 10
59.84175993866128
 20
305.8116236350676
 30
0.0
 40
2.0
 41
0.0
 71
     4
 72
     1
  1
 
  7
CONVERTER_18
 73
     1
 44
1.20048019207683
  0
MTEXT
  5
365
330
6D
100
AcDbEntity
  8
1
 62
     2
100
AcDbMText
 10
59.84175993866128
 20
301.5616236350676
 30
0.0
 40
2.0
 41
0.0
 71
     4
 72
     1
  1
 
  7
CONVERTER_18
 73
     1
 44
1.20048019207683
  0
MTEXT
  5
366
330
6D
100
AcDbEntity
  8
1
 62
     2
100
AcDbMText
 10
59.84175993866128
 20
297.3116236350676
 30
0.0
 40
2.0
 41
0.0
 71
     4
 72
     1
  1
 
  7
CONVERTER_18
 73
     1
 44
1.20048019207683
  0
MTEXT
  5
367
330
6D
100
AcDbEntity
  8
1
 62
     2
100
AcDbMText
 10
59.84175993866128
 20
293.0616236350676
 30
0.0
 40
2.0
 41
0.0
 71
     4
 72
     1
  1
 
  7
CONVERTER_18
 73
     1
 44
1.20048019207683
  0
MTEXT
  5
368
330
6D
100
AcDbEntity
  8
1
 62
     2
100
AcDbMText
 10
59.84175993866128
 20
288.8116236350676
 30
0.0
 40
2.0
 41
0.0
 71
     4
 72
     1
  1
 
  7
CONVERTER_18
 73
     1
 44
1.20048019207683
  0
MTEXT
  5
369
330
6D
100
AcDbEntity
  8
1
 62
     2
100
AcDbMText
 10
59.84175993866128
 20
284.5616236350677
 30
0.0
 40
2.0
 41
0.0
 71
     4
 72
     1
  1
\U+00d6ffnung f.Signalisierung hinzu
  7
CONVERTER_18
 73
     1
 44
1.20048019207683
  0
HATCH
  5
36A
330
6D
100
AcDbEntity
  8
1
  6
Continuous
 62
     2
100
AcDbHatch
 10
0.0
 20
0.0
 30
0.0
210
0.0
220
0.0
230
1.0
  2
_USER
 70
     0
 71
     1
 91
        1
 92
        1
 93
       12
 72
     1
 10
179.3568733565075
 20
286.8128141112507
 11
178.3710942638079
 21
286.8128141112507
 72
     1
 10
178.3710942638079
 20
286.8128141112507
 11
178.3710942638079
 21
287.7502290772372
 72
     1
 10
178.3710942638079
 20
287.7502290772372
 11
177.5036086622315
 21
287.7502290772372
 72
     1
 10
177.5036086622315
 20
287.7502290772372
 11
177.5036086622315
 21
286.8128141112507
 72
     1
 10
177.5036086622315
 20
286.8128141112507
 11
176.5178295695319
 21
286.8128141112507
 72
     1
 10
176.5178295695319
 20
286.8128141112507
 11
176.5178295695319
 21
289.3366236350615
 72
     1
 10
176.5178295695319
 20
289.3366236350615
 11
177.5036086622315
 21
289.3366236350615
 72
     1
 10
177.5036086622315
 20
289.3366236350615
 11
177.5036086622315
 21
288.4532903017272
 72
     1
 10
177.5036086622315
 20
288.4532903017272
 11
178.3710942638079
 21
288.4532903017272
 72
     1
 10
178.3710942638079
 20
288.4532903017272
 11
178.3710942638079
 21
289.3366236350615
 72
     1
 10
178.3710942638079
 20
289.3366236350615
 11
179.3568733565075
 21
289.3366236350615
 72
     1
 10
179.3568733565075
 20
289.3366236350615
 11
179.3568733565075
 21
286.8128141112507
 97
       12
330
29E
330
29F
330
289
330
288
330
287
330
29B
330
286
330
29C
330
29D
330
285
330
284
330
283
 75
     1
 76
     0
 52
45.0
 41
0.1
 77
     0
 78
     1
 53
45.0
 43
0.0
 44
0.0
 45
-0.0707106781186548
 46
0.0707106781186548
 79
     0
 98
        1
 10
0.0
 20
0.0
  0
HATCH
  5
36B
330
6D
100
AcDbEntity
  8
1
  6
Continuous
 62
     2
100
AcDbHatch
 10
0.0
 20
0.0
 30
0.0
210
0.0
220
0.0
230
1.0
  2
_USER
 70
     0
 71
     1
 91
        1
 92
        1
 93
       12
 72
     1
 10
179.3568733565075
 20
286.8128141112507
 11
178.3710942638079
 21
286.8128141112507
 72
     1
 10
178.3710942638079
 20
286.8128141112507
 11
178.3710942638079
 21
287.7502290772372
 72
     1
 10
178.3710942638079
 20
287.7502290772372
 11
177.5036086622315
 21
287.7502290772372
 72
     1
 10
177.5036086622315
 20
287.7502290772372
 11
177.5036086622315
 21
286.8128141112507
 72
     1
 10
177.5036086622315
 20
286.8128141112507
 11
176.5178295695319
 21
286.8128141112507
 72
     1
 10
176.5178295695319
 20
286.8128141112507
 11
176.5178295695319
 21
289.3366236350615
 72
     1
 10
176.5178295695319
 20
289.3366236350615
 11
177.5036086622315
 21
289.3366236350615
 72
     1
 10
177.5036086622315
 20
289.3366236350615
 11
177.5036086622315
 21
288.4532903017272
 72
     1
 10
177.5036086622315
 20
288.4532903017272
 11
178.3710942638079
 21
288.4532903017272
 72
     1
 10
178.3710942638079
 20
288.4532903017272
 11
178.3710942638079
 21
289.3366236350615
 72
     1
 10
178.3710942638079
 20
289.3366236350615
 11
179.3568733565075
 21
289.3366236350615
 72
     1
 10
179.3568733565075
 20
289.3366236350615
 11
179.3568733565075
 21
286.8128141112507
 97
       12
330
29E
330
29F
330
289
330
288
330
287
330
29B
330
286
330
29C
330
29D
330
285
330
284
330
283
 75
     1
 76
     0
 52
45.0
 41
0.1
 77
     0
 78
     1
 53
45.0
 43
0.0
 44
0.0
 45
-0.0707106781186548
 46
0.0707106781186548
 79
     0
 98
        1
 10
0.0
 20
0.0
  0
HATCH
  5
36C
330
6D
100
AcDbEntity
  8
1
  6
Continuous
 62
     2
100
AcDbHatch
 10
0.0
 20
0.0
 30
0.0
210
0.0
220
0.0
230
1.0
  2
_USER
 70
     0
 71
     1
 91
        1
 92
        1
 93
       10
 72
     1
 10
181.2100133145143
 20
285.4788005058223
 11
180.184803058107
 21
286.5604331588844
 72
     1
 10
180.184803058107
 20
286.5604331588844
 11
179.1990239654065
 21
286.5604331588844
 72
     1
 10
179.1990239654065
 20
286.5604331588844
 11
179.1990239654065
 21
284.0366236350735
 72
     1
 10
179.1990239654065
 20
284.0366236350735
 11
180.184803058107
 21
284.0366236350735
 72
     1
 10
180.184803058107
 20
284.0366236350735
 11
180.184803058107
 21
285.1182562881352
 72
     1
 10
180.184803058107
 20
285.1182562881352
 11
181.2100133145143
 21
284.0366236350735
 72
     1
 10
181.2100133145143
 20
284.0366236350735
 11
182.1957924072139
 21
284.0366236350735
 72
     1
 10
182.1957924072139
 20
284.0366236350735
 11
182.1957924072139
 21
286.5604331588844
 72
     1
 10
182.1957924072139
 20
286.5604331588844
 11
181.2100133145143
 21
286.5604331588844
 72
     1
 10
181.2100133145143
 20
286.5604331588844
 11
181.2100133145143
 21
285.4788005058223
 97
       10
330
2AC
330
27C
330
27B
330
27E
330
2A7
330
2A8
330
27D
330
2A9
330
2AA
330
2AB
 75
     1
 76
     0
 52
45.0
 41
0.1
 77
     0
 78
     1
 53
45.0
 43
0.0
 44
0.0
 45
-0.0707106781186548
 46
0.0707106781186548
 79
     0
 98
        1
 10
0.0
 20
0.0
  0
HATCH
  5
36D
330
6D
100
AcDbEntity
  8
1
  6
Continuous
 62
     2
100
AcDbHatch
 10
0.0
 20
0.0
 30
0.0
210
0.0
220
0.0
230
1.0
  2
_USER
 70
     0
 71
     1
 91
        1
 92
        1
 93
       10
 72
     1
 10
181.2100133145143
 20
285.4788005058223
 11
180.184803058107
 21
286.5604331588844
 72
     1
 10
180.184803058107
 20
286.5604331588844
 11
179.1990239654065
 21
286.5604331588844
 72
     1
 10
179.1990239654065
 20
286.5604331588844
 11
179.1990239654065
 21
284.0366236350735
 72
     1
 10
179.1990239654065
 20
284.0366236350735
 11
180.184803058107
 21
284.0366236350735
 72
     1
 10
180.184803058107
 20
284.0366236350735
 11
180.184803058107
 21
285.1182562881352
 72
     1
 10
180.184803058107
 20
285.1182562881352
 11
181.2100133145143
 21
284.0366236350735
 72
     1
 10
181.2100133145143
 20
284.0366236350735
 11
182.1957924072139
 21
284.0366236350735
 72
     1
 10
182.1957924072139
 20
284.0366236350735
 11
182.1957924072139
 21
286.5604331588844
 72
     1
 10
182.1957924072139
 20
286.5604331588844
 11
181.2100133145143
 21
286.5604331588844
 72
     1
 10
181.2100133145143
 20
286.5604331588844
 11
181.2100133145143
 21
285.4788005058223
 97
       10
330
2AC
330
27C
330
27B
330
27E
330
2A7
330
2A8
330
27D
330
2A9
330
2AA
330
2AB
 75
     1
 76
     0
 52
45.0
 41
0.1
 77
     0
 78
     1
 53
45.0
 43
0.0
 44
0.0
 45
-0.0707106781186548
 46
0.0707106781186548
 79
     0
 98
        1
 10
0.0
 20
0.0
  0
HATCH
  5
36E
330
6D
100
AcDbEntity
  8
1
  6
Continuous
 62
     2
100
AcDbHatch
 10
0.0
 20
0.0
 30
0.0
210
0.0
220
0.0
230
1.0
  2
_USER
 70
     0
 71
     1
 91
        1
 92
        1
 93
       10
 72
     1
 10
185.5475660586629
 20
288.2549909819994
 11
184.5223558022546
 21
289.3366236350615
 72
     1
 10
184.5223558022546
 20
289.3366236350615
 11
183.536576709555
 21
289.3366236350615
 72
     1
 10
183.536576709555
 20
289.3366236350615
 11
183.536576709555
 21
286.8128141112507
 72
     1
 10
183.536576709555
 20
286.8128141112507
 11
184.5223558022546
 21
286.8128141112507
 72
     1
 10
184.5223558022546
 20
286.8128141112507
 11
184.5223558022546
 21
287.8944467643123
 72
     1
 10
184.5223558022546
 20
287.8944467643123
 11
185.5475660586629
 21
286.8128141112507
 72
     1
 10
185.5475660586629
 20
286.8128141112507
 11
186.5333451513625
 21
286.8128141112507
 72
     1
 10
186.5333451513625
 20
286.8128141112507
 11
186.5333451513625
 21
289.3366236350615
 72
     1
 10
186.5333451513625
 20
289.3366236350615
 11
185.5475660586629
 21
289.3366236350615
 72
     1
 10
185.5475660586629
 20
289.3366236350615
 11
185.5475660586629
 21
288.2549909819994
 97
       10
330
2B1
330
279
330
278
330
2B2
330
277
330
2AD
330
2AE
330
2AF
330
2B0
330
27A
 75
     1
 76
     0
 52
45.0
 41
0.1
 77
     0
 78
     1
 53
45.0
 43
0.0
 44
0.0
 45
-0.0707106781186548
 46
0.0707106781186548
 79
     0
 98
        1
 10
0.0
 20
0.0
  0
HATCH
  5
36F
330
6D
100
AcDbEntity
  8
1
  6
Continuous
 62
     2
100
AcDbHatch
 10
0.0
 20
0.0
 30
0.0
210
0.0
220
0.0
230
1.0
  2
_USER
 70
     0
 71
     1
 91
        1
 92
        1
 93
       10
 72
     1
 10
185.5475660586629
 20
288.2549909819994
 11
184.5223558022546
 21
289.3366236350615
 72
     1
 10
184.5223558022546
 20
289.3366236350615
 11
183.536576709555
 21
289.3366236350615
 72
     1
 10
183.536576709555
 20
289.3366236350615
 11
183.536576709555
 21
286.8128141112507
 72
     1
 10
183.536576709555
 20
286.8128141112507
 11
184.5223558022546
 21
286.8128141112507
 72
     1
 10
184.5223558022546
 20
286.8128141112507
 11
184.5223558022546
 21
287.8944467643123
 72
     1
 10
184.5223558022546
 20
287.8944467643123
 11
185.5475660586629
 21
286.8128141112507
 72
     1
 10
185.5475660586629
 20
286.8128141112507
 11
186.5333451513625
 21
286.8128141112507
 72
     1
 10
186.5333451513625
 20
286.8128141112507
 11
186.5333451513625
 21
289.3366236350615
 72
     1
 10
186.5333451513625
 20
289.3366236350615
 11
185.5475660586629
 21
289.3366236350615
 72
     1
 10
185.5475660586629
 20
289.3366236350615
 11
185.5475660586629
 21
288.2549909819994
 97
       10
330
2B1
330
279
330
278
330
2B2
330
277
330
2AD
330
2AE
330
2AF
330
2B0
330
27A
 75
     1
 76
     0
 52
45.0
 41
0.1
 77
     0
 78
     1
 53
45.0
 43
0.0
 44
0.0
 45
-0.0707106781186548
 46
0.0707106781186548
 79
     0
 98
        1
 10
0.0
 20
0.0
  0
HATCH
  5
370
330
6D
100
AcDbEntity
  8
1
  6
Continuous
 62
     2
100
AcDbHatch
 10
0.0
 20
0.0
 30
0.0
210
0.0
220
0.0
230
1.0
  2
_USER
 70
     0
 71
     1
 91
        1
 92
        1
 93
        8
 72
     1
 10
184.6405245571096
 20
286.5604331588844
 11
182.3140858983379
 21
286.5604331588844
 72
     1
 10
182.3140858983379
 20
286.5604331588844
 11
182.3140858983379
 21
285.9114535670467
 72
     1
 10
182.3140858983379
 20
285.9114535670467
 11
182.9844156813748
 21
285.9114535670467
 72
     1
 10
182.9844156813748
 20
285.9114535670467
 11
182.9844156813748
 21
284.0366236350735
 72
     1
 10
182.9844156813748
 20
284.0366236350735
 11
183.9701947740744
 21
284.0366236350735
 72
     1
 10
183.9701947740744
 20
284.0366236350735
 11
183.9701947740744
 21
285.9114535670467
 72
     1
 10
183.9701947740744
 20
285.9114535670467
 11
184.6405245571096
 21
285.9114535670467
 72
     1
 10
184.6405245571096
 20
285.9114535670467
 11
184.6405245571096
 21
286.5604331588844
 97
        8
330
273
330
2B3
330
272
330
2B4
330
2B5
330
276
330
275
330
274
 75
     1
 76
     0
 52
45.0
 41
0.1
 77
     0
 78
     1
 53
45.0
 43
0.0
 44
0.0
 45
-0.0707106781186548
 46
0.0707106781186548
 79
     0
 98
        1
 10
0.0
 20
0.0
  0
HATCH
  5
371
330
6D
100
AcDbEntity
  8
1
  6
Continuous
 62
     2
100
AcDbHatch
 10
0.0
 20
0.0
 30
0.0
210
0.0
220
0.0
230
1.0
  2
_USER
 70
     0
 71
     1
 91
        1
 92
        1
 93
        8
 72
     1
 10
184.6405245571096
 20
286.5604331588844
 11
182.3140858983379
 21
286.5604331588844
 72
     1
 10
182.3140858983379
 20
286.5604331588844
 11
182.3140858983379
 21
285.9114535670467
 72
     1
 10
182.3140858983379
 20
285.9114535670467
 11
182.9844156813748
 21
285.9114535670467
 72
     1
 10
182.9844156813748
 20
285.9114535670467
 11
182.9844156813748
 21
284.0366236350735
 72
     1
 10
182.9844156813748
 20
284.0366236350735
 11
183.9701947740744
 21
284.0366236350735
 72
     1
 10
183.9701947740744
 20
284.0366236350735
 11
183.9701947740744
 21
285.9114535670467
 72
     1
 10
183.9701947740744
 20
285.9114535670467
 11
184.6405245571096
 21
285.9114535670467
 72
     1
 10
184.6405245571096
 20
285.9114535670467
 11
184.6405245571096
 21
286.5604331588844
 97
        8
330
273
330
2B3
330
272
330
2B4
330
2B5
330
276
330
275
330
274
 75
     1
 76
     0
 52
45.0
 41
0.1
 77
     0
 78
     1
 53
45.0
 43
0.0
 44
0.0
 45
-0.0707106781186548
 46
0.0707106781186548
 79
     0
 98
        1
 10
0.0
 20
0.0
  0
HATCH
  5
372
330
6D
100
AcDbEntity
  8
1
  6
Continuous
 62
     2
100
AcDbHatch
 10
0.0
 20
0.0
 30
0.0
210
0.0
220
0.0
230
1.0
  2
_USER
 70
     0
 71
     1
 91
        2
 92
        1
 93
        8
 72
     1
 10
186.4078199752476
 20
284.0366236350735
 11
186.2330430715486
 21
284.4836984650057
 72
     1
 10
186.2330430715486
 20
284.4836984650057
 11
185.297140942066
 21
284.4836984650057
 72
     1
 10
185.297140942066
 20
284.4836984650057
 11
185.122364038367
 21
284.0366236350735
 72
     1
 10
185.122364038367
 20
284.0366236350735
 11
184.0971537819596
 21
284.0366236350735
 72
     1
 10
184.0971537819596
 20
284.0366236350735
 11
185.2524868786036
 21
286.5604331588844
 72
     1
 10
185.2524868786036
 20
286.5604331588844
 11
186.2776971350109
 21
286.5604331588844
 72
     1
 10
186.2776971350109
 20
286.5604331588844
 11
187.4330302316558
 21
284.0366236350735
 72
     1
 10
187.4330302316558
 20
284.0366236350735
 11
186.4078199752476
 21
284.0366236350735
 97
        8
330
2B7
330
2B8
330
26F
330
2B9
330
26E
330
271
330
2B6
330
270
 92
       16
 93
        3
 72
     1
 10
185.5170215628471
 20
285.0461474445979
 11
185.7650920068077
 21
285.6807052677274
 72
     1
 10
185.7650920068077
 20
285.6807052677274
 11
186.0131624507665
 21
285.0461474445979
 72
     1
 10
186.0131624507665
 20
285.0461474445979
 11
185.5170215628471
 21
285.0461474445979
 97
        3
330
26D
330
2BB
330
2BA
 75
     1
 76
     0
 52
45.0
 41
0.1
 77
     0
 78
     1
 53
45.0
 43
0.0
 44
0.0
 45
-0.0707106781186548
 46
0.0707106781186548
 79
     0
 98
        1
 10
0.0
 20
0.0
  0
HATCH
  5
373
330
6D
100
AcDbEntity
  8
1
  6
Continuous
 62
     2
100
AcDbHatch
 10
0.0
 20
0.0
 30
0.0
210
0.0
220
0.0
230
1.0
  2
_USER
 70
     0
 71
     1
 91
        2
 92
        1
 93
        8
 72
     1
 10
186.4078199752476
 20
284.0366236350735
 11
186.2330430715486
 21
284.4836984650057
 72
     1
 10
186.2330430715486
 20
284.4836984650057
 11
185.297140942066
 21
284.4836984650057
 72
     1
 10
185.297140942066
 20
284.4836984650057
 11
185.122364038367
 21
284.0366236350735
 72
     1
 10
185.122364038367
 20
284.0366236350735
 11
184.0971537819596
 21
284.0366236350735
 72
     1
 10
184.0971537819596
 20
284.0366236350735
 11
185.2524868786036
 21
286.5604331588844
 72
     1
 10
185.2524868786036
 20
286.5604331588844
 11
186.2776971350109
 21
286.5604331588844
 72
     1
 10
186.2776971350109
 20
286.5604331588844
 11
187.4330302316558
 21
284.0366236350735
 72
     1
 10
187.4330302316558
 20
284.0366236350735
 11
186.4078199752476
 21
284.0366236350735
 97
        8
330
2B7
330
2B8
330
26F
330
2B9
330
26E
330
271
330
2B6
330
270
 92
       16
 93
        3
 72
     1
 10
185.5170215628471
 20
285.0461474445979
 11
185.7650920068077
 21
285.6807052677274
 72
     1
 10
185.7650920068077
 20
285.6807052677274
 11
186.0131624507665
 21
285.0461474445979
 72
     1
 10
186.0131624507665
 20
285.0461474445979
 11
185.5170215628471
 21
285.0461474445979
 97
        3
330
26D
330
2BB
330
2BA
 75
     1
 76
     0
 52
45.0
 41
0.1
 77
     0
 78
     1
 53
45.0
 43
0.0
 44
0.0
 45
-0.0707106781186548
 46
0.0707106781186548
 79
     0
 98
        1
 10
0.0
 20
0.0
  0
HATCH
  5
374
330
6D
100
AcDbEntity
  8
1
  6
Continuous
 62
     2
100
AcDbHatch
 10
0.0
 20
0.0
 30
0.0
210
0.0
220
0.0
230
1.0
  2
_USER
 70
     0
 71
     1
 91
        1
 92
        1
 93
        4
 72
     1
 10
187.7557112263103
 20
286.8128141112507
 11
186.7305009699029
 21
286.8128141112507
 72
     1
 10
186.7305009699029
 20
286.8128141112507
 11
186.7305009699029
 21
289.3366236350615
 72
     1
 10
186.7305009699029
 20
289.3366236350615
 11
187.7557112263103
 21
289.3366236350615
 72
     1
 10
187.7557112263103
 20
289.3366236350615
 11
187.7557112263103
 21
286.8128141112507
 97
        4
330
26A
330
26C
330
2BC
330
26B
 75
     1
 76
     0
 52
45.0
 41
0.1
 77
     0
 78
     1
 53
45.0
 43
0.0
 44
0.0
 45
-0.0707106781186548
 46
0.0707106781186548
 79
     0
 98
        1
 10
0.0
 20
0.0
  0
HATCH
  5
375
330
6D
100
AcDbEntity
  8
1
  6
Continuous
 62
     2
100
AcDbHatch
 10
0.0
 20
0.0
 30
0.0
210
0.0
220
0.0
230
1.0
  2
_USER
 70
     0
 71
     1
 91
        1
 92
        1
 93
        4
 72
     1
 10
187.7557112263103
 20
286.8128141112507
 11
186.7305009699029
 21
286.8128141112507
 72
     1
 10
186.7305009699029
 20
286.8128141112507
 11
186.7305009699029
 21
289.3366236350615
 72
     1
 10
186.7305009699029
 20
289.3366236350615
 11
187.7557112263103
 21
289.3366236350615
 72
     1
 10
187.7557112263103
 20
289.3366236350615
 11
187.7557112263103
 21
286.8128141112507
 97
        4
330
26A
330
26C
330
2BC
330
26B
 75
     1
 76
     0
 52
45.0
 41
0.1
 77
     0
 78
     1
 53
45.0
 43
0.0
 44
0.0
 45
-0.0707106781186548
 46
0.0707106781186548
 79
     0
 98
        1
 10
0.0
 20
0.0
  0
HATCH
  5
376
330
6D
100
AcDbEntity
  8
1
  6
Continuous
 62
     2
100
AcDbHatch
 10
0.0
 20
0.0
 30
0.0
210
0.0
220
0.0
230
1.0
  2
_USER
 70
     0
 71
     1
 91
        1
 92
        1
 93
       12
 72
     1
 10
191.245369214468
 20
289.3366236350615
 11
190.1688984452394
 21
288.1193091474283
 72
     1
 10
190.1688984452394
 20
288.1193091474283
 11
191.3242315418843
 21
286.8128141112507
 72
     1
 10
191.3242315418843
 20
286.8128141112507
 11
190.1649553288692
 21
286.8128141112507
 72
     1
 10
190.1649553288692
 20
286.8128141112507
 11
189.5892603387324
 21
287.4638321156257
 72
     1
 10
189.5892603387324
 20
287.4638321156257
 11
189.0135653485955
 21
286.8128141112507
 72
     1
 10
189.0135653485955
 20
286.8128141112507
 11
187.8542891355805
 21
286.8128141112507
 72
     1
 10
187.8542891355805
 20
286.8128141112507
 11
189.0096222322253
 21
288.1193091474283
 72
     1
 10
189.0096222322253
 20
288.1193091474283
 11
187.933151462996
 21
289.3366236350615
 72
     1
 10
187.933151462996
 20
289.3366236350615
 11
189.0924276760119
 21
289.3366236350615
 72
     1
 10
189.0924276760119
 20
289.3366236350615
 11
189.5892603387324
 21
288.7747861792306
 72
     1
 10
189.5892603387324
 20
288.7747861792306
 11
190.0860930014538
 21
289.3366236350615
 72
     1
 10
190.0860930014538
 20
289.3366236350615
 11
191.245369214468
 21
289.3366236350615
 97
       12
330
265
330
264
330
263
330
2C0
330
2C1
330
2BD
330
2BE
330
269
330
268
330
267
330
266
330
2BF
 75
     1
 76
     0
 52
45.0
 41
0.1
 77
     0
 78
     1
 53
45.0
 43
0.0
 44
0.0
 45
-0.0707106781186548
 46
0.0707106781186548
 79
     0
 98
        1
 10
0.0
 20
0.0
  0
HATCH
  5
377
330
6D
100
AcDbEntity
  8
1
  6
Continuous
 62
     2
100
AcDbHatch
 10
0.0
 20
0.0
 30
0.0
210
0.0
220
0.0
230
1.0
  2
_USER
 70
     0
 71
     1
 91
        1
 92
        1
 93
       12
 72
     1
 10
191.245369214468
 20
289.3366236350615
 11
190.1688984452394
 21
288.1193091474283
 72
     1
 10
190.1688984452394
 20
288.1193091474283
 11
191.3242315418843
 21
286.8128141112507
 72
     1
 10
191.3242315418843
 20
286.8128141112507
 11
190.1649553288692
 21
286.8128141112507
 72
     1
 10
190.1649553288692
 20
286.8128141112507
 11
189.5892603387324
 21
287.4638321156257
 72
     1
 10
189.5892603387324
 20
287.4638321156257
 11
189.0135653485955
 21
286.8128141112507
 72
     1
 10
189.0135653485955
 20
286.8128141112507
 11
187.8542891355805
 21
286.8128141112507
 72
     1
 10
187.8542891355805
 20
286.8128141112507
 11
189.0096222322253
 21
288.1193091474283
 72
     1
 10
189.0096222322253
 20
288.1193091474283
 11
187.933151462996
 21
289.3366236350615
 72
     1
 10
187.933151462996
 20
289.3366236350615
 11
189.0924276760119
 21
289.3366236350615
 72
     1
 10
189.0924276760119
 20
289.3366236350615
 11
189.5892603387324
 21
288.7747861792306
 72
     1
 10
189.5892603387324
 20
288.7747861792306
 11
190.0860930014538
 21
289.3366236350615
 72
     1
 10
190.0860930014538
 20
289.3366236350615
 11
191.245369214468
 21
289.3366236350615
 97
       12
330
265
330
264
330
263
330
2C0
330
2C1
330
2BD
330
2BE
330
269
330
268
330
267
330
266
330
2BF
 75
     1
 76
     0
 52
45.0
 41
0.1
 77
     0
 78
     1
 53
45.0
 43
0.0
 44
0.0
 45
-0.0707106781186548
 46
0.0707106781186548
 79
     0
 98
        1
 10
0.0
 20
0.0
  0
HATCH
  5
378
330
6D
100
AcDbEntity
  8
1
  6
Continuous
 62
     2
100
AcDbHatch
 10
0.0
 20
0.0
 30
0.0
210
0.0
220
0.0
230
1.0
  2
_USER
 70
     0
 71
     1
 91
        2
 92
        1
 93
        6
 72
     1
 10
175.5282325085622
 20
287.5922176163282
 11
174.9011518575041
 21
287.5922176163282
 72
     1
 10
174.9011518575041
 20
287.5922176163282
 11
174.9011518575041
 21
286.8128141112507
 72
     1
 10
174.9011518575041
 20
286.8128141112507
 11
173.8759416010958
 21
286.8128141112507
 72
     1
 10
173.8759416010958
 20
286.8128141112507
 11
173.8759416010958
 21
289.3366236350615
 72
     1
 10
173.8759416010958
 20
289.3366236350615
 11
175.5282325085622
 21
289.3366236350615
 72
     2
 10
175.5282325085622
 20
288.4644206256949
 40
0.8722030093667286
 50
270.0
 51
450.0
 73
     0
 97
        6
330
28D
330
28C
330
299
330
298
330
28E
330
2D3
 92
       16
 93
        4
 72
     2
 10
175.1633791810924
 20
288.4969792795978
 40
0.2916229955960716
 50
270.0
 51
450.0
 73
     1
 72
     1
 10
175.1633791810924
 20
288.7886022751937
 11
174.9011518575041
 21
288.7886022751937
 72
     1
 10
174.9011518575041
 20
288.7886022751937
 11
174.9011518575041
 21
288.2053562840017
 72
     1
 10
174.9011518575041
 20
288.2053562840017
 11
175.1633791810924
 21
288.2053562840017
 97
        4
330
2E7
330
28A
330
29A
330
28B
 75
     1
 76
     0
 52
45.0
 41
0.1
 77
     0
 78
     1
 53
45.0
 43
0.0
 44
0.0
 45
-0.0707106781186548
 46
0.0707106781186548
 79
     0
 98
        1
 10
0.0
 20
0.0
  0
HATCH
  5
379
330
6D
100
AcDbEntity
  8
1
  6
Continuous
 62
     2
100
AcDbHatch
 10
0.0
 20
0.0
 30
0.0
210
0.0
220
0.0
230
1.0
  2
_USER
 70
     0
 71
     1
 91
        2
 92
        1
 93
        6
 72
     1
 10
175.5282325085622
 20
287.5922176163282
 11
174.9011518575041
 21
287.5922176163282
 72
     1
 10
174.9011518575041
 20
287.5922176163282
 11
174.9011518575041
 21
286.8128141112507
 72
     1
 10
174.9011518575041
 20
286.8128141112507
 11
173.8759416010958
 21
286.8128141112507
 72
     1
 10
173.8759416010958
 20
286.8128141112507
 11
173.8759416010958
 21
289.3366236350615
 72
     1
 10
173.8759416010958
 20
289.3366236350615
 11
175.5282325085622
 21
289.3366236350615
 72
     2
 10
175.5282325085622
 20
288.4644206256949
 40
0.8722030093667286
 50
270.0
 51
450.0
 73
     0
 97
        6
330
28D
330
28C
330
299
330
298
330
28E
330
2D3
 92
       16
 93
        4
 72
     2
 10
175.1633791810924
 20
288.4969792795978
 40
0.2916229955960716
 50
270.0
 51
450.0
 73
     1
 72
     1
 10
175.1633791810924
 20
288.7886022751937
 11
174.9011518575041
 21
288.7886022751937
 72
     1
 10
174.9011518575041
 20
288.7886022751937
 11
174.9011518575041
 21
288.2053562840017
 72
     1
 10
174.9011518575041
 20
288.2053562840017
 11
175.1633791810924
 21
288.2053562840017
 97
        4
330
2E7
330
28A
330
29A
330
28B
 75
     1
 76
     0
 52
45.0
 41
0.1
 77
     0
 78
     1
 53
45.0
 43
0.0
 44
0.0
 45
-0.0707106781186548
 46
0.0707106781186548
 79
     0
 98
        1
 10
0.0
 20
0.0
  0
HATCH
  5
37A
330
6D
100
AcDbEntity
  8
1
  6
Continuous
 62
     2
100
AcDbHatch
 10
0.0
 20
0.0
 30
0.0
210
0.0
220
0.0
230
1.0
  2
_USER
 70
     0
 71
     1
 91
        2
 92
        1
 93
        4
 72
     2
 10
177.64107775514
 20
284.8534250826789
 40
1.707008076205454
 50
62.45185182430909
 51
117.5481481756672
 73
     1
 72
     2
 10
177.4088960263521
 20
285.2985283969788
 40
1.20498684599296
 50
117.5481481756628
 51
242.4518518243384
 73
     1
 72
     2
 10
177.64107775514
 20
285.743631711279
 40
1.707008076205438
 50
242.451851824339
 51
297.5481481756847
 73
     1
 72
     2
 10
177.8732594839278
 20
285.2985283969788
 40
1.204986845993431
 50
297.5481481756999
 51
422.4518518242989
 73
     1
 97
        4
330
2DF
330
2DE
330
2E0
330
2DD
 92
       16
 93
        4
 72
     2
 10
177.4760033449364
 20
285.2985283969788
 40
0.6378510567599707
 50
321.8795802028363
 51
398.1204197971596
 73
     1
 72
     2
 10
177.64107775514
 20
285.4280582962518
 40
0.4280236140606089
 50
38.12041979716885
 51
141.8795802028476
 73
     1
 72
     2
 10
177.8061521653433
 20
285.2985283969788
 40
0.6378510567598462
 50
141.8795802028341
 51
218.1204197971699
 73
     1
 72
     2
 10
177.64107775514
 20
285.1689984977061
 40
0.4280236140610111
 50
218.1204197971943
 51
321.8795802027893
 73
     1
 97
        4
330
2FB
330
2F8
330
2F9
330
2FA
 75
     1
 76
     0
 52
45.0
 41
0.1
 77
     0
 78
     1
 53
45.0
 43
0.0
 44
0.0
 45
-0.0707106781186548
 46
0.0707106781186548
 79
     0
 98
        1
 10
0.0
 20
0.0
  0
HATCH
  5
37B
330
6D
100
AcDbEntity
  8
1
  6
Continuous
 62
     2
100
AcDbHatch
 10
0.0
 20
0.0
 30
0.0
210
0.0
220
0.0
230
1.0
  2
_USER
 70
     0
 71
     1
 91
        2
 92
        1
 93
        4
 72
     2
 10
177.64107775514
 20
284.8534250826789
 40
1.707008076205454
 50
62.45185182430909
 51
117.5481481756672
 73
     1
 72
     2
 10
177.4088960263521
 20
285.2985283969788
 40
1.20498684599296
 50
117.5481481756628
 51
242.4518518243384
 73
     1
 72
     2
 10
177.64107775514
 20
285.743631711279
 40
1.707008076205438
 50
242.451851824339
 51
297.5481481756847
 73
     1
 72
     2
 10
177.8732594839278
 20
285.2985283969788
 40
1.204986845993431
 50
297.5481481756999
 51
422.4518518242989
 73
     1
 97
        4
330
2DF
330
2DE
330
2E0
330
2DD
 92
       16
 93
        4
 72
     2
 10
177.4760033449364
 20
285.2985283969788
 40
0.6378510567599707
 50
321.8795802028363
 51
398.1204197971596
 73
     1
 72
     2
 10
177.64107775514
 20
285.4280582962518
 40
0.4280236140606089
 50
38.12041979716885
 51
141.8795802028476
 73
     1
 72
     2
 10
177.8061521653433
 20
285.2985283969788
 40
0.6378510567598462
 50
141.8795802028341
 51
218.1204197971699
 73
     1
 72
     2
 10
177.64107775514
 20
285.1689984977061
 40
0.4280236140610111
 50
218.1204197971943
 51
321.8795802027893
 73
     1
 97
        4
330
2FB
330
2F8
330
2F9
330
2FA
 75
     1
 76
     0
 52
45.0
 41
0.1
 77
     0
 78
     1
 53
45.0
 43
0.0
 44
0.0
 45
-0.0707106781186548
 46
0.0707106781186548
 79
     0
 98
        1
 10
0.0
 20
0.0
  0
HATCH
  5
37C
330
6D
100
AcDbEntity
  8
1
  6
Continuous
 62
     2
100
AcDbHatch
 10
0.0
 20
0.0
 30
0.0
210
0.0
220
0.0
230
1.0
  2
_USER
 70
     0
 71
     1
 91
        2
 92
        1
 93
       12
 72
     1
 10
183.3394208910154
 20
288.7597528867616
 11
182.2353483071909
 21
288.7597528867616
 72
     1
 10
182.2353483071909
 20
288.7597528867616
 11
182.2353483071909
 21
288.3631542473056
 72
     1
 10
182.2353483071909
 20
288.3631542473056
 11
183.3394208910154
 21
288.3631542473056
 72
     1
 10
183.3394208910154
 20
288.3631542473056
 11
183.3394208910154
 21
287.7862834990061
 72
     1
 10
183.3394208910154
 20
287.7862834990061
 11
182.2353483071909
 21
287.7862834990061
 72
     1
 10
182.2353483071909
 20
287.7862834990061
 11
182.2353483071909
 21
287.3896848595501
 72
     1
 10
182.2353483071909
 20
287.3896848595501
 11
183.3394208910154
 21
287.3896848595501
 72
     1
 10
183.3394208910154
 20
287.3896848595501
 11
183.3394208910154
 21
286.8128141112507
 72
     1
 10
183.3394208910154
 20
286.8128141112507
 11
180.7358508713617
 21
286.8128141112507
 72
     2
 10
180.7358508713617
 20
288.0747188731559
 40
1.261904761905612
 50
90.0
 51
270.0
 73
     0
 72
     1
 10
180.7358508713617
 20
289.3366236350615
 11
183.3394208910154
 21
289.3366236350615
 72
     1
 10
183.3394208910154
 20
289.3366236350615
 11
183.3394208910154
 21
288.7597528867616
 97
       12
330
2A1
330
2E8
330
2A2
330
2A3
330
2A4
330
2A5
330
282
330
281
330
280
330
27F
330
2A6
330
2A0
 92
       16
 93
        4
 72
     2
 10
180.9145880698453
 20
288.204248772429
 40
0.4280236140606953
 50
38.12041979714043
 51
141.8795802028525
 73
     1
 72
     2
 10
181.0796624800488
 20
288.0747188731559
 40
0.6378510567599356
 50
141.8795802028404
 51
218.1204197971676
 73
     1
 72
     2
 10
180.9145880698453
 20
287.9451889738828
 40
0.4280236140606983
 50
218.1204197971595
 51
321.8795802028476
 73
     1
 72
     2
 10
180.7495136596419
 20
288.0747188731559
 40
0.6378510567600058
 50
321.8795802028323
 51
398.1204197971596
 73
     1
 97
        4
330
2E2
330
2E1
330
2DC
330
2DB
 75
     1
 76
     0
 52
45.0
 41
0.1
 77
     0
 78
     1
 53
45.0
 43
0.0
 44
0.0
 45
-0.0707106781186548
 46
0.0707106781186548
 79
     0
 98
        1
 10
0.0
 20
0.0
  0
HATCH
  5
37D
330
6D
100
AcDbEntity
  8
1
  6
Continuous
 62
     2
100
AcDbHatch
 10
0.0
 20
0.0
 30
0.0
210
0.0
220
0.0
230
1.0
  2
_USER
 70
     0
 71
     1
 91
        2
 92
        1
 93
       12
 72
     1
 10
183.3394208910154
 20
288.7597528867616
 11
182.2353483071909
 21
288.7597528867616
 72
     1
 10
182.2353483071909
 20
288.7597528867616
 11
182.2353483071909
 21
288.3631542473056
 72
     1
 10
182.2353483071909
 20
288.3631542473056
 11
183.3394208910154
 21
288.3631542473056
 72
     1
 10
183.3394208910154
 20
288.3631542473056
 11
183.3394208910154
 21
287.7862834990061
 72
     1
 10
183.3394208910154
 20
287.7862834990061
 11
182.2353483071909
 21
287.7862834990061
 72
     1
 10
182.2353483071909
 20
287.7862834990061
 11
182.2353483071909
 21
287.3896848595501
 72
     1
 10
182.2353483071909
 20
287.3896848595501
 11
183.3394208910154
 21
287.3896848595501
 72
     1
 10
183.3394208910154
 20
287.3896848595501
 11
183.3394208910154
 21
286.8128141112507
 72
     1
 10
183.3394208910154
 20
286.8128141112507
 11
180.7358508713617
 21
286.8128141112507
 72
     2
 10
180.7358508713617
 20
288.0747188731559
 40
1.261904761905612
 50
90.0
 51
270.0
 73
     0
 72
     1
 10
180.7358508713617
 20
289.3366236350615
 11
183.3394208910154
 21
289.3366236350615
 72
     1
 10
183.3394208910154
 20
289.3366236350615
 11
183.3394208910154
 21
288.7597528867616
 97
       12
330
2A1
330
2E8
330
2A2
330
2A3
330
2A4
330
2A5
330
282
330
281
330
280
330
27F
330
2A6
330
2A0
 92
       16
 93
        4
 72
     2
 10
180.9145880698453
 20
288.204248772429
 40
0.4280236140606953
 50
38.12041979714043
 51
141.8795802028525
 73
     1
 72
     2
 10
181.0796624800488
 20
288.0747188731559
 40
0.6378510567599356
 50
141.8795802028404
 51
218.1204197971676
 73
     1
 72
     2
 10
180.9145880698453
 20
287.9451889738828
 40
0.4280236140606983
 50
218.1204197971595
 51
321.8795802028476
 73
     1
 72
     2
 10
180.7495136596419
 20
288.0747188731559
 40
0.6378510567600058
 50
321.8795802028323
 51
398.1204197971596
 73
     1
 97
        4
330
2E2
330
2E1
330
2DC
330
2DB
 75
     1
 76
     0
 52
45.0
 41
0.1
 77
     0
 78
     1
 53
45.0
 43
0.0
 44
0.0
 45
-0.0707106781186548
 46
0.0707106781186548
 79
     0
 98
        1
 10
0.0
 20
0.0
  0
HATCH
  5
37E
330
6D
100
AcDbEntity
  8
1
  6
Continuous
 62
     2
100
AcDbHatch
 10
0.0
 20
0.0
 30
0.0
210
0.0
220
0.0
230
1.0
  2
_USER
 70
     0
 71
     1
 91
        4
 92
        1
 93
        8
 72
     1
 10
173.4816299640158
 20
288.9860082504318
 11
173.4816299640158
 21
284.3872390196879
 72
     2
 10
173.131014579401
 20
284.3872390196879
 40
0.3506153846144002
 50
0.0
 51
90.0
 73
     0
 72
     1
 10
173.131014579401
 20
284.0366236350735
 11
168.6076161573209
 21
284.0366236350735
 72
     2
 10
168.6076161573209
 20
284.3872390196879
 40
0.3506153846139171
 50
90.0
 51
180.0
 73
     0
 72
     1
 10
168.257000772707
 20
284.3872390196879
 11
168.257000772707
 21
288.9860082504318
 72
     2
 10
168.6076161573209
 20
288.9860082504318
 40
0.3506153846147413
 50
180.0
 51
270.0
 73
     0
 72
     1
 10
168.6076161573209
 20
289.3366236350465
 11
173.131014579401
 21
289.3366236350465
 72
     2
 10
173.131014579401
 20
288.9860082504318
 40
0.3506153846147981
 50
270.0
 51
360.0
 73
     0
 97
        8
330
295
330
2D8
330
296
330
2E3
330
293
330
2DA
330
294
330
2D9
 92
       16
 93
        1
 72
     2
 10
170.7725629759305
 20
287.0695766567495
 40
0.3892387874201972
 50
0.0
 51
360.0
 73
     1
 97
        1
330
2FE
 92
       16
 93
        8
 72
     2
 10
171.2269908377162
 20
286.1529307063624
 40
0.2609230769228772
 50
115.3740086783577
 51
180.0
 73
     1
 72
     1
 10
170.9660677607932
 20
286.1529307063624
 11
170.9660677607932
 21
285.6720617752095
 72
     2
 10
171.2269908377162
 20
285.6720617752095
 40
0.2609230769229782
 50
180.0
 51
269.8110329574465
 73
     1
 72
     2
 10
171.2316322718566
 20
287.0793633847707
 40
1.668232340440728
 50
269.8110329575882
 51
450.1889670424118
 73
     1
 72
     2
 10
171.2269908377162
 20
288.4866649943318
 40
0.2609230769225246
 50
90.18896704255344
 51
180.0
 73
     1
 72
     1
 10
170.9660677607932
 20
288.4866649943318
 11
170.9660677607932
 21
287.9862226071361
 72
     2
 10
171.2269908377162
 20
287.9862226071361
 40
0.2609230769229782
 50
180.0
 51
244.6259913216263
 73
     1
 72
     2
 10
170.7922448062385
 20
287.0695766567495
 40
0.7535935125160201
 50
295.3740086781938
 51
424.6259913218191
 73
     0
 97
        8
330
2F0
330
25C
330
2ED
330
2EE
330
2CC
330
25B
330
2EF
330
2CB
 92
       16
 93
       12
 72
     2
 10
169.0984382042189
 20
284.8864356008864
 40
0.2609230769220972
 50
180.0
 51
270.0
 73
     1
 72
     1
 10
169.0984382042189
 20
284.6255125239636
 11
170.3181351141441
 21
284.6255125239636
 72
     2
 10
170.3181351141441
 20
284.8864356008864
 40
0.2609230769227793
 50
270.0
 51
360.0
 73
     1
 72
     1
 10
170.5790581910669
 20
284.8864356008864
 11
170.5790581910669
 21
286.1515355443011
 72
     2
 10
170.3181351141441
 20
286.1515355443011
 40
0.2609230769228077
 50
0.0
 51
64.8055893514363
 73
     1
 72
     2
 10
170.7500230873466
 20
287.0695766567495
 40
0.753634316989858
 50
115.1944106485115
 51
244.8055893514774
 73
     0
 72
     2
 10
170.3181351141441
 20
287.9876177691976
 40
0.2609230769223044
 50
295.1944106485637
 51
360.0
 73
     1
 72
     1
 10
170.5790581910669
 20
287.9876177691976
 11
170.5790581910669
 21
288.4868116692477
 72
     2
 10
170.3181351141441
 20
288.4868116692477
 40
0.2609230769228077
 50
0.0
 51
90.0
 73
     1
 72
     1
 10
170.3181351141441
 20
288.7477347461702
 11
169.0984382042189
 21
288.7477347461702
 72
     2
 10
169.0984382042189
 20
288.4868116692477
 40
0.2609230769224951
 50
90.0
 51
180.0
 73
     1
 72
     1
 10
168.8375151272968
 20
288.4868116692477
 11
168.8375151272968
 21
284.8864356008864
 97
       12
330
2D4
330
297
330
2D7
330
292
330
2E4
330
2E5
330
2D6
330
291
330
2D5
330
290
330
2E6
330
28F
 75
     1
 76
     0
 52
45.0
 41
0.1
 77
     0
 78
     1
 53
45.0
 43
0.0
 44
0.0
 45
-0.0707106781186548
 46
0.0707106781186548
 79
     0
 98
        1
 10
0.0
 20
0.0
  0
HATCH
  5
37F
330
6D
100
AcDbEntity
  8
1
  6
Continuous
 62
     2
100
AcDbHatch
 10
0.0
 20
0.0
 30
0.0
210
0.0
220
0.0
230
1.0
  2
_USER
 70
     0
 71
     1
 91
        4
 92
        1
 93
        8
 72
     1
 10
173.4816299640158
 20
288.9860082504318
 11
173.4816299640158
 21
284.3872390196879
 72
     2
 10
173.131014579401
 20
284.3872390196879
 40
0.3506153846144002
 50
0.0
 51
90.0
 73
     0
 72
     1
 10
173.131014579401
 20
284.0366236350735
 11
168.6076161573209
 21
284.0366236350735
 72
     2
 10
168.6076161573209
 20
284.3872390196879
 40
0.3506153846139171
 50
90.0
 51
180.0
 73
     0
 72
     1
 10
168.257000772707
 20
284.3872390196879
 11
168.257000772707
 21
288.9860082504318
 72
     2
 10
168.6076161573209
 20
288.9860082504318
 40
0.3506153846147413
 50
180.0
 51
270.0
 73
     0
 72
     1
 10
168.6076161573209
 20
289.3366236350465
 11
173.131014579401
 21
289.3366236350465
 72
     2
 10
173.131014579401
 20
288.9860082504318
 40
0.3506153846147981
 50
270.0
 51
360.0
 73
     0
 97
        8
330
295
330
2D8
330
296
330
2E3
330
293
330
2DA
330
294
330
2D9
 92
       16
 93
        1
 72
     2
 10
170.7725629759305
 20
287.0695766567495
 40
0.3892387874201972
 50
0.0
 51
360.0
 73
     1
 97
        1
330
2FE
 92
       16
 93
        8
 72
     2
 10
171.2269908377162
 20
286.1529307063624
 40
0.2609230769228772
 50
115.3740086783577
 51
180.0
 73
     1
 72
     1
 10
170.9660677607932
 20
286.1529307063624
 11
170.9660677607932
 21
285.6720617752095
 72
     2
 10
171.2269908377162
 20
285.6720617752095
 40
0.2609230769229782
 50
180.0
 51
269.8110329574465
 73
     1
 72
     2
 10
171.2316322718566
 20
287.0793633847707
 40
1.668232340440728
 50
269.8110329575882
 51
450.1889670424118
 73
     1
 72
     2
 10
171.2269908377162
 20
288.4866649943318
 40
0.2609230769225246
 50
90.18896704255344
 51
180.0
 73
     1
 72
     1
 10
170.9660677607932
 20
288.4866649943318
 11
170.9660677607932
 21
287.9862226071361
 72
     2
 10
171.2269908377162
 20
287.9862226071361
 40
0.2609230769229782
 50
180.0
 51
244.6259913216263
 73
     1
 72
     2
 10
170.7922448062385
 20
287.0695766567495
 40
0.7535935125160201
 50
295.3740086781938
 51
424.6259913218191
 73
     0
 97
        8
330
2F0
330
25C
330
2ED
330
2EE
330
2CC
330
25B
330
2EF
330
2CB
 92
       16
 93
       12
 72
     2
 10
169.0984382042189
 20
284.8864356008864
 40
0.2609230769220972
 50
180.0
 51
270.0
 73
     1
 72
     1
 10
169.0984382042189
 20
284.6255125239636
 11
170.3181351141441
 21
284.6255125239636
 72
     2
 10
170.3181351141441
 20
284.8864356008864
 40
0.2609230769227793
 50
270.0
 51
360.0
 73
     1
 72
     1
 10
170.5790581910669
 20
284.8864356008864
 11
170.5790581910669
 21
286.1515355443011
 72
     2
 10
170.3181351141441
 20
286.1515355443011
 40
0.2609230769228077
 50
0.0
 51
64.8055893514363
 73
     1
 72
     2
 10
170.7500230873466
 20
287.0695766567495
 40
0.753634316989858
 50
115.1944106485115
 51
244.8055893514774
 73
     0
 72
     2
 10
170.3181351141441
 20
287.9876177691976
 40
0.2609230769223044
 50
295.1944106485637
 51
360.0
 73
     1
 72
     1
 10
170.5790581910669
 20
287.9876177691976
 11
170.5790581910669
 21
288.4868116692477
 72
     2
 10
170.3181351141441
 20
288.4868116692477
 40
0.2609230769228077
 50
0.0
 51
90.0
 73
     1
 72
     1
 10
170.3181351141441
 20
288.7477347461702
 11
169.0984382042189
 21
288.7477347461702
 72
     2
 10
169.0984382042189
 20
288.4868116692477
 40
0.2609230769224951
 50
90.0
 51
180.0
 73
     1
 72
     1
 10
168.8375151272968
 20
288.4868116692477
 11
168.8375151272968
 21
284.8864356008864
 97
       12
330
2D4
330
297
330
2D7
330
292
330
2E4
330
2E5
330
2D6
330
291
330
2D5
330
290
330
2E6
330
28F
 75
     1
 76
     0
 52
45.0
 41
0.1
 77
     0
 78
     1
 53
45.0
 43
0.0
 44
0.0
 45
-0.0707106781186548
 46
0.0707106781186548
 79
     0
 98
        1
 10
0.0
 20
0.0
  0
HATCH
  5
380
330
6D
100
AcDbEntity
  8
1
  6
Continuous
 62
     2
100
AcDbHatch
 10
0.0
 20
0.0
 30
0.0
210
0.0
220
0.0
230
1.0
  2
_USER
 70
     0
 71
     1
 91
        1
 92
        1
 93
       18
 72
     1
 10
191.3242315418843
 20
285.9114535670467
 11
190.6539017588484
 21
285.9114535670467
 72
     1
 10
190.6539017588484
 20
285.9114535670467
 11
190.6539017588484
 21
284.0366236350735
 72
     1
 10
190.6539017588484
 20
284.0366236350735
 11
189.6681226661479
 21
284.0366236350735
 72
     1
 10
189.6681226661479
 20
284.0366236350735
 11
189.6681226661479
 21
285.9114535670467
 72
     1
 10
189.6681226661479
 20
285.9114535670467
 11
188.7560240714635
 21
285.9114535670467
 72
     2
 10
188.7560240714635
 20
285.1225915779341
 40
0.7888619891126041
 50
90.0
 51
109.3371432194277
 73
     1
 72
     2
 10
188.6348091969976
 20
285.4680089170936
 40
0.4227934381773005
 50
109.3371432194784
 51
151.4785267424186
 73
     1
 72
     2
 10
188.9466746995443
 20
285.2985283969788
 40
0.7777353184585786
 50
151.4785267423688
 51
208.521473257668
 73
     1
 72
     2
 10
188.6348091969976
 20
285.1290478768642
 40
0.422793438178404
 50
208.5214732576761
 51
246.6277221118468
 73
     1
 72
     2
 10
188.7640984802233
 20
285.4282148344759
 40
0.7487023016407833
 50
246.6277221118226
 51
288.4480761180789
 73
     1
 72
     2
 10
188.4185053119077
 20
286.4642030791342
 40
1.840813230555995
 50
288.4480761181324
 51
301.9309089499387
 73
     1
 72
     1
 10
189.3921045201919
 20
284.9019297575228
 11
189.3921045201919
 21
284.1808413221481
 72
     2
 10
188.2880318614178
 20
288.036281244298
 40
4.010410630990616
 50
74.0200087416617
 51
84.8418552303633
 73
     0
 72
     2
 10
188.526755906654
 20
285.3917435722141
 40
1.355119937140852
 50
84.84185523032178
 51
164.938108222899
 73
     0
 72
     2
 10
188.180369259165
 20
285.2985283969788
 40
0.9964100565230259
 50
164.9381082229011
 51
195.0618917770894
 73
     0
 72
     2
 10
188.526755906654
 20
285.2053132217433
 40
1.355119937140557
 50
195.0618917770987
 51
270.0
 73
     0
 72
     1
 10
188.526755906654
 20
286.5604331588839
 11
191.3242315418843
 21
286.5604331588844
 72
     1
 10
191.3242315418843
 20
286.5604331588844
 11
191.3242315418843
 21
285.9114535670467
 97
       18
330
25E
330
2E9
330
2EA
330
2D2
330
2D1
330
2C2
330
2D0
330
2CF
330
2EB
330
2CE
330
2EC
330
2CD
330
2C3
330
25D
330
262
330
261
330
260
330
25F
 75
     1
 76
     0
 52
45.0
 41
0.1
 77
     0
 78
     1
 53
45.0
 43
0.0
 44
0.0
 45
-0.0707106781186548
 46
0.0707106781186548
 79
     0
 98
        1
 10
0.0
 20
0.0
  0
HATCH
  5
381
330
6D
100
AcDbEntity
  8
1
  6
Continuous
 62
     2
100
AcDbHatch
 10
0.0
 20
0.0
 30
0.0
210
0.0
220
0.0
230
1.0
  2
_USER
 70
     0
 71
     1
 91
        1
 92
        1
 93
       18
 72
     1
 10
191.3242315418843
 20
285.9114535670467
 11
190.6539017588484
 21
285.9114535670467
 72
     1
 10
190.6539017588484
 20
285.9114535670467
 11
190.6539017588484
 21
284.0366236350735
 72
     1
 10
190.6539017588484
 20
284.0366236350735
 11
189.6681226661479
 21
284.0366236350735
 72
     1
 10
189.6681226661479
 20
284.0366236350735
 11
189.6681226661479
 21
285.9114535670467
 72
     1
 10
189.6681226661479
 20
285.9114535670467
 11
188.7560240714635
 21
285.9114535670467
 72
     2
 10
188.7560240714635
 20
285.1225915779341
 40
0.7888619891126041
 50
90.0
 51
109.3371432194277
 73
     1
 72
     2
 10
188.6348091969976
 20
285.4680089170936
 40
0.4227934381773005
 50
109.3371432194784
 51
151.4785267424186
 73
     1
 72
     2
 10
188.9466746995443
 20
285.2985283969788
 40
0.7777353184585786
 50
151.4785267423688
 51
208.521473257668
 73
     1
 72
     2
 10
188.6348091969976
 20
285.1290478768642
 40
0.422793438178404
 50
208.5214732576761
 51
246.6277221118468
 73
     1
 72
     2
 10
188.7640984802233
 20
285.4282148344759
 40
0.7487023016407833
 50
246.6277221118226
 51
288.4480761180789
 73
     1
 72
     2
 10
188.4185053119077
 20
286.4642030791342
 40
1.840813230555995
 50
288.4480761181324
 51
301.9309089499387
 73
     1
 72
     1
 10
189.3921045201919
 20
284.9019297575228
 11
189.3921045201919
 21
284.1808413221481
 72
     2
 10
188.2880318614178
 20
288.036281244298
 40
4.010410630990616
 50
74.0200087416617
 51
84.8418552303633
 73
     0
 72
     2
 10
188.526755906654
 20
285.3917435722141
 40
1.355119937140852
 50
84.84185523032178
 51
164.938108222899
 73
     0
 72
     2
 10
188.180369259165
 20
285.2985283969788
 40
0.9964100565230259
 50
164.9381082229011
 51
195.0618917770894
 73
     0
 72
     2
 10
188.526755906654
 20
285.2053132217433
 40
1.355119937140557
 50
195.0618917770987
 51
270.0
 73
     0
 72
     1
 10
188.526755906654
 20
286.5604331588839
 11
191.3242315418843
 21
286.5604331588844
 72
     1
 10
191.3242315418843
 20
286.5604331588844
 11
191.3242315418843
 21
285.9114535670467
 97
       18
330
25E
330
2E9
330
2EA
330
2D2
330
2D1
330
2C2
330
2D0
330
2CF
330
2EB
330
2CE
330
2EC
330
2CD
330
2C3
330
25D
330
262
330
261
330
260
330
25F
 75
     1
 76
     0
 52
45.0
 41
0.1
 77
     0
 78
     1
 53
45.0
 43
0.0
 44
0.0
 45
-0.0707106781186548
 46
0.0707106781186548
 79
     0
 98
        1
 10
0.0
 20
0.0
  0
HATCH
  5
382
330
6D
100
AcDbEntity
  8
1
  6
Continuous
 62
     2
100
AcDbHatch
 10
0.0
 20
0.0
 30
0.0
210
0.0
220
0.0
230
1.0
  2
_USER
 70
     0
 71
     1
 91
        1
 92
        1
 93
       14
 72
     2
 10
175.2187381552053
 20
285.2053132217433
 40
1.355119937140927
 50
84.84185523036031
 51
164.9381082228929
 73
     1
 72
     2
 10
174.8723515077154
 20
285.2985283969788
 40
0.9964100565214067
 50
164.9381082228855
 51
195.0618917771019
 73
     1
 72
     2
 10
175.2187381552053
 20
285.3917435722141
 40
1.355119937140008
 50
195.0618917770933
 51
275.1581447696415
 73
     1
 72
     2
 10
174.9800141099691
 20
288.036281244298
 40
4.010410630990141
 50
275.1581447696246
 51
285.9799912583526
 73
     1
 72
     1
 10
176.0840867687441
 20
284.1808413221486
 11
176.0840867687441
 21
284.9019297575233
 72
     2
 10
175.110487560459
 20
286.4642030791347
 40
1.840813230556049
 50
58.06909105003709
 51
71.55192388186815
 73
     0
 72
     2
 10
175.4560807287738
 20
285.4282148344759
 40
0.7487023016405014
 50
71.55192388185161
 51
113.3722778881275
 73
     0
 72
     2
 10
175.3267914455489
 20
285.1290478768642
 40
0.4227934381774399
 50
113.3722778881673
 51
151.4785267423142
 73
     0
 72
     2
 10
175.6386569480947
 20
285.2985283969788
 40
0.7777353184572496
 50
151.4785267422948
 51
208.5214732577273
 73
     0
 72
     2
 10
175.3267914455489
 20
285.4680089170936
 40
0.4227934381776413
 50
208.5214732576993
 51
246.6277221118143
 73
     0
 72
     2
 10
175.4560807287738
 20
285.1688419594816
 40
0.7487023016407734
 50
246.6277221118707
 51
288.4480761181387
 73
     0
 72
     2
 10
175.110487560459
 20
284.1328537148232
 40
1.840813230556632
 50
288.4480761181319
 51
301.9309089499611
 73
     0
 72
     1
 10
176.0840867687441
 20
285.6951270364347
 11
176.0840867687441
 21
286.4162154718092
 72
     2
 10
174.9800141099691
 20
282.5607755496599
 40
4.010410630989926
 50
74.02000874164698
 51
84.84185523037534
 73
     1
 97
       14
330
2F1
330
2F2
330
2F3
330
2F4
330
2C4
330
2CA
330
2C9
330
2C8
330
2F5
330
2F6
330
2C7
330
2F7
330
2C5
330
2C6
 75
     1
 76
     0
 52
45.0
 41
0.1
 77
     0
 78
     1
 53
45.0
 43
0.0
 44
0.0
 45
-0.0707106781186548
 46
0.0707106781186548
 79
     0
 98
        1
 10
0.0
 20
0.0
  0
HATCH
  5
383
330
6D
100
AcDbEntity
  8
1
  6
Continuous
 62
     2
100
AcDbHatch
 10
0.0
 20
0.0
 30
0.0
210
0.0
220
0.0
230
1.0
  2
_USER
 70
     0
 71
     1
 91
        1
 92
        1
 93
       14
 72
     2
 10
175.2187381552053
 20
285.2053132217433
 40
1.355119937140927
 50
84.84185523036031
 51
164.9381082228929
 73
     1
 72
     2
 10
174.8723515077154
 20
285.2985283969788
 40
0.9964100565214067
 50
164.9381082228855
 51
195.0618917771019
 73
     1
 72
     2
 10
175.2187381552053
 20
285.3917435722141
 40
1.355119937140008
 50
195.0618917770933
 51
275.1581447696415
 73
     1
 72
     2
 10
174.9800141099691
 20
288.036281244298
 40
4.010410630990141
 50
275.1581447696246
 51
285.9799912583526
 73
     1
 72
     1
 10
176.0840867687441
 20
284.1808413221486
 11
176.0840867687441
 21
284.9019297575233
 72
     2
 10
175.110487560459
 20
286.4642030791347
 40
1.840813230556049
 50
58.06909105003709
 51
71.55192388186815
 73
     0
 72
     2
 10
175.4560807287738
 20
285.4282148344759
 40
0.7487023016405014
 50
71.55192388185161
 51
113.3722778881275
 73
     0
 72
     2
 10
175.3267914455489
 20
285.1290478768642
 40
0.4227934381774399
 50
113.3722778881673
 51
151.4785267423142
 73
     0
 72
     2
 10
175.6386569480947
 20
285.2985283969788
 40
0.7777353184572496
 50
151.4785267422948
 51
208.5214732577273
 73
     0
 72
     2
 10
175.3267914455489
 20
285.4680089170936
 40
0.4227934381776413
 50
208.5214732576993
 51
246.6277221118143
 73
     0
 72
     2
 10
175.4560807287738
 20
285.1688419594816
 40
0.7487023016407734
 50
246.6277221118707
 51
288.4480761181387
 73
     0
 72
     2
 10
175.110487560459
 20
284.1328537148232
 40
1.840813230556632
 50
288.4480761181319
 51
301.9309089499611
 73
     0
 72
     1
 10
176.0840867687441
 20
285.6951270364347
 11
176.0840867687441
 21
286.4162154718092
 72
     2
 10
174.9800141099691
 20
282.5607755496599
 40
4.010410630989926
 50
74.02000874164698
 51
84.84185523037534
 73
     1
 97
       14
330
2F1
330
2F2
330
2F3
330
2F4
330
2C4
330
2CA
330
2C9
330
2C8
330
2F5
330
2F6
330
2C7
330
2F7
330
2C5
330
2C6
 75
     1
 76
     0
 52
45.0
 41
0.1
 77
     0
 78
     1
 53
45.0
 43
0.0
 44
0.0
 45
-0.0707106781186548
 46
0.0707106781186548
 79
     0
 98
        1
 10
0.0
 20
0.0
  0
ENDBLK
  5
6F
330
6D
100
AcDbEntity
  8
0
100
AcDbBlockEnd
  0
BLOCK
  5
71
330
70
100
AcDbEntity
  8
0
100
AcDbBlockBegin
  2
_punkt
 70
     0
 10
291.1417599386631
 20
278.1866236350677
 30
0.0
  3
_punkt
  1

  0
LINE
  5
384
330
70
100
AcDbEntity
  8
1
  6
Continuous
 62
     2
100
AcDbLine
 10
291.1417599386632
 20
278.1866236350677
 30
0.0
 11
296.1417599386608
 21
278.1866236350677
 31
0.0
  0
LINE
  5
385
330
70
100
AcDbEntity
  8
1
  6
Continuous
 62
     2
100
AcDbLine
 10
291.1417599386632
 20
278.1866236350677
 30
0.0
 11
291.1417599386632
 21
273.1866236350681
 31
0.0
  0
ENDBLK
  5
72
330
70
100
AcDbEntity
  8
0
100
AcDbBlockEnd
  0
BLOCK
  5
76
330
73
100
AcDbEntity
  8
0
100
AcDbBlockBegin
  2
A3I
 70
     0
 10
291.1417599386632
 20
273.1866236350681
 30
0.0
  3
A3I
  1

  0
INSERT
  5
74
330
73
100
AcDbEntity
  8
1
100
AcDbBlockReference
  2
_rahmen
 10
291.1417599386632
 20
273.1866236350681
 30
0.0
  0
INSERT
  5
75
330
73
100
AcDbEntity
  8
1
100
AcDbBlockReference
  2
_punkt
 10
291.1417599386631
 20
278.1866236350677
 30
0.0
  0
ENDBLK
  5
77
330
73
100
AcDbEntity
  8
0
100
AcDbBlockEnd
  0
BLOCK
  5
80
330
78
100
AcDbEntity
  8
0
100
AcDbBlockBegin
  2
1
 70
     0
 10
0.0
 20
0.0
 30
0.0
  3
1
  1

  0
INSERT
  5
79
330
78
100
AcDbEntity
  8
0
100
AcDbBlockReference
  2
AllgSicht1
 10
240.0000000000002
 20
364.0179402594549
 30
0.0
  0
INSERT
  5
7A
330
78
100
AcDbEntity
  8
0
100
AcDbBlockReference
  2
Drfsicht1
 10
51.37994270821238
 20
369.893287152237
 30
0.0
  0
INSERT
  5
7B
330
78
100
AcDbEntity
  8
0
100
AcDbBlockReference
  2
Rcksicht1
 10
201.9249999999975
 20
457.5196570000001
 30
0.0
  0
INSERT
  5
7C
330
78
100
AcDbEntity
  8
0
100
AcDbBlockReference
  2
SA_links1
 10
130.858978500761
 20
457.519656765093
 30
0.0
  0
INSERT
  5
7D
330
78
100
AcDbEntity
  8
0
100
AcDbBlockReference
  2
SA_rechts1
 10
-37.000000000001
 20
457.5196570000001
 30
0.0
  0
INSERT
  5
7E
330
78
100
AcDbEntity
  8
0
100
AcDbBlockReference
  2
Vordans1
 10
51.37994270821238
 20
457.519656765093
 30
0.0
  0
INSERT
  5
7F
330
78
100
AcDbEntity
  8
0
100
AcDbBlockReference
  2
A3I
 10
291.1417599386632
 20
273.1866236350681
 30
0.0
  0
ENDBLK
  5
81
330
78
100
AcDbEntity
  8
0
100
AcDbBlockEnd
  0
BLOCK
  5
11E
330
116
100
AcDbEntity
  8
0
100
AcDbBlockBegin
  2
*D17
 70
     1
 10
0.0
 20
0.0
 30
0.0
  3
*D17
  1

  0
LINE
  5
117
330
116
100
AcDbEntity
  8
1
  6
Continuous
 62
     2
100
AcDbLine
 10
113.133978500761
 20
421.1394339747354
 30
0.0
 11
148.583978500761
 21
421.1394339747354
 31
0.0
  0
LINE
  5
118
330
116
100
AcDbEntity
  8
1
  6
Continuous
 62
     2
100
AcDbLine
 10
113.133978500761
 20
432.6959236144624
 30
0.0
 11
113.133978500761
 21
419.1394339747354
 31
0.0
  0
LINE
  5
119
330
116
100
AcDbEntity
  8
1
  6
Continuous
 62
     2
100
AcDbLine
 10
148.583978500761
 20
432.6959236144624
 30
0.0
 11
148.583978500761
 21
419.1394339747354
 31
0.0
  0
SOLID
  5
11A
330
116
100
AcDbEntity
  8
1
 62
     2
100
AcDbTrace
 10
116.633978500761
 20
421.6002177162912
 30
0.0
 11
116.633978500761
 21
420.6786502331795
 31
0.0
 12
113.133978500761
 22
421.1394339747354
 32
0.0
 13
113.133978500761
 23
421.1394339747354
 33
0.0
  0
SOLID
  5
11B
330
116
100
AcDbEntity
  8
1
 62
     2
100
AcDbTrace
 10
145.083978500761
 20
420.6786502331795
 30
0.0
 11
145.083978500761
 21
421.6002177162912
 31
0.0
 12
148.583978500761
 22
421.1394339747354
 32
0.0
 13
148.583978500761
 23
421.1394339747354
 33
0.0
  0
MTEXT
  5
11D
330
116
100
AcDbEntity
  8
1
 62
     3
100
AcDbMText
 10
123.7555544686209
 20
423.4894339747354
 30
0.0
 40
3.5
 41
0.0
 71
     7
 72
     1
  1
35,45
  7
CONVERTER_11
 11
0.9999999999970619
 21
2.424068405545306E-6
 31
0.0
 73
     1
 44
0.60024009603842
  0
ENDBLK
  5
11F
330
116
100
AcDbEntity
  8
0
100
AcDbBlockEnd
  0
BLOCK
  5
167
330
160
100
AcDbEntity
  8
0
100
AcDbBlockBegin
  2
*D18
 70
     1
 10
0.0
 20
0.0
 30
0.0
  3
*D18
  1

  0
LINE
  5
161
330
160
100
AcDbEntity
  8
1
  6
Continuous
 62
     2
100
AcDbLine
 10
28.97994270820802
 20
420.9007926306887
 30
0.0
 11
73.77994270821063
 21
420.9007926306887
 31
0.0
  0
LINE
  5
162
330
160
100
AcDbEntity
  8
1
  6
Continuous
 62
     2
100
AcDbLine
 10
28.97994270820802
 20
432.6959236144624
 30
0.0
 11
28.97994270820802
 21
418.9007926306887
 31
0.0
  0
LINE
  5
163
330
160
100
AcDbEntity
  8
1
  6
Continuous
 62
     2
100
AcDbLine
 10
73.77994270821063
 20
432.6959236144624
 30
0.0
 11
73.77994270821063
 21
418.9007926306887
 31
0.0
  0
SOLID
  5
164
330
160
100
AcDbEntity
  8
1
 62
     2
100
AcDbTrace
 10
32.47994270820802
 20
421.3615763722445
 30
0.0
 11
32.47994270820802
 21
420.4400088891328
 31
0.0
 12
28.97994270820802
 22
420.9007926306887
 32
0.0
 13
28.97994270820802
 23
420.9007926306887
 33
0.0
  0
SOLID
  5
165
330
160
100
AcDbEntity
  8
1
 62
     2
100
AcDbTrace
 10
70.27994270821063
 20
420.4400088891328
 30
0.0
 11
70.27994270821063
 21
421.3615763722445
 31
0.0
 12
73.77994270821063
 22
420.9007926306887
 32
0.0
 13
73.77994270821063
 23
420.9007926306887
 33
0.0
  0
MTEXT
  5
166
330
160
100
AcDbEntity
  8
1
 62
     3
100
AcDbMText
 10
47.5220080843994
 20
423.2507926306887
 30
0.0
 40
3.5
 41
0.0
 71
     7
 72
     1
  1
44,8
  7
CONVERTER_11
 11
0.9999999999970619
 21
2.424068405545306E-6
 31
0.0
 73
     1
 44
0.60024009603842
  0
ENDBLK
  5
168
330
160
100
AcDbEntity
  8
0
100
AcDbBlockEnd
  0
BLOCK
  5
172
330
16B
100
AcDbEntity
  8
0
100
AcDbBlockBegin
  2
*D19
 70
     1
 10
0.0
 20
0.0
 30
0.0
  3
*D19
  1

  0
LINE
  5
16C
330
16B
100
AcDbEntity
  8
1
  6
Continuous
 62
     2
100
AcDbLine
 10
21.17923050952644
 20
432.6959236144624
 30
0.0
 11
21.17923050952644
 21
481.9959236144617
 31
0.0
  0
LINE
  5
16D
330
16B
100
AcDbEntity
  8
1
  6
Continuous
 62
     2
100
AcDbLine
 10
28.97994270820802
 20
432.6959236144624
 30
0.0
 11
19.17923050952644
 21
432.6959236144624
 31
0.0
  0
LINE
  5
16E
330
16B
100
AcDbEntity
  8
1
  6
Continuous
 62
     2
100
AcDbLine
 10
38.61274750420862
 20
481.9959236144617
 30
0.0
 11
19.17923050952644
 21
481.9959236144617
 31
0.0
  0
SOLID
  5
16F
330
16B
100
AcDbEntity
  8
1
 62
     2
100
AcDbTrace
 10
20.71844676797055
 20
436.1959236144624
 30
0.0
 11
21.64001425108233
 21
436.1959236144624
 31
0.0
 12
21.17923050952644
 22
432.6959236144624
 32
0.0
 13
21.17923050952644
 23
432.6959236144624
 33
0.0
  0
SOLID
  5
170
330
16B
100
AcDbEntity
  8
1
 62
     2
100
AcDbTrace
 10
21.64001425108233
 20
478.4959236144617
 30
0.0
 11
20.71844676797055
 21
478.4959236144617
 31
0.0
 12
21.17923050952644
 22
481.9959236144617
 32
0.0
 13
21.17923050952644
 23
481.9959236144617
 33
0.0
  0
MTEXT
  5
171
330
16B
100
AcDbEntity
  8
1
 62
     3
100
AcDbMText
 10
18.82923050952644
 20
454.8549288615139
 30
0.0
 40
3.5
 41
0.0
 71
     7
 72
     1
  1
49,3
  7
CONVERTER_11
 11
0.0
 21
1.0
 31
0.0
 73
     1
 44
0.60024009603842
  0
ENDBLK
  5
173
330
16B
100
AcDbEntity
  8
0
100
AcDbBlockEnd
  0
ENDSEC
  0
SECTION
  2
ENTITIES
  0
INSERT
  5
82
330
1F
100
AcDbEntity
  8
1
100
AcDbBlockReference
  2
1
 10
0.0
 20
0.0
 30
0.0
  0
ENDSEC
  0
SECTION
  2
OBJECTS
  0
DICTIONARY
  5
C
330
0
100
AcDbDictionary
281
     1
  3
ACAD_GROUP
350
D
  3
ACAD_LAYOUT
350
1A
  3
ACAD_MLEADERSTYLE
350
387
  3
ACAD_MLINESTYLE
350
17
  3
ACAD_PLOTSETTINGS
350
19
  3
ACAD_PLOTSTYLENAME
350
E
  3
ACAD_TABLESTYLE
350
386
  3
ACAD_VISUALSTYLE
350
2A
  0
DICTIONARY
  5
D
102
{ACAD_REACTORS
330
C
102
}
330
C
100
AcDbDictionary
281
     1
  0
DICTIONARY
  5
1A
102
{ACAD_REACTORS
330
C
102
}
330
C
100
AcDbDictionary
281
     1
  3
Layout1
350
1E
  3
Layout2
350
26
  3
Model
350
22
  0
DICTIONARY
  5
387
102
{ACAD_REACTORS
330
C
102
}
330
C
100
AcDbDictionary
281
     1
  0
DICTIONARY
  5
17
102
{ACAD_REACTORS
330
C
102
}
330
C
100
AcDbDictionary
281
     1
  3
Standard
350
18
  0
DICTIONARY
  5
19
102
{ACAD_REACTORS
330
C
102
}
330
C
100
AcDbDictionary
281
     1
  0
ACDBDICTIONARYWDFLT
  5
E
102
{ACAD_REACTORS
330
C
102
}
330
C
100
AcDbDictionary
281
     1
  3
Normal
350
F
100
AcDbDictionaryWithDefault
340
F
  0
DICTIONARY
  5
386
102
{ACAD_REACTORS
330
C
102
}
330
C
100
AcDbDictionary
281
     1
  0
DICTIONARY
  5
2A
102
{ACAD_REACTORS
330
C
102
}
330
C
100
AcDbDictionary
281
     1
  3
2dWireframe
350
2F
  3
3D Hidden
350
31
  3
3dWireframe
350
30
  3
Basic
350
32
  3
Brighten
350
36
  3
ColorChange
350
3A
  3
Conceptual
350
34
  3
Dim
350
35
  3
Facepattern
350
39
  3
Flat
350
2B
  3
FlatWithEdges
350
2C
  3
Gouraud
350
2D
  3
GouraudWithEdges
350
2E
  3
Linepattern
350
38
  3
Realistic
350
33
  3
Thicken
350
37
  0
LAYOUT
  5
1E
102
{ACAD_REACTORS
330
1A
102
}
330
1A
100
AcDbPlotSettings
  1

  2
none_device
  4

  6

 40
0.0
 41
0.0
 42
0.0
 43
0.0
 44
0.0
 45
0.0
 46
0.0
 47
0.0
 48
0.0
 49
0.0
140
0.0
141
0.0
142
1.0
143
1.0
 70
   688
 72
     0
 73
     0
 74
     5
  7

 75
    16
147
1.0
148
0.0
149
0.0
100
AcDbLayout
  1
Layout1
 70
     1
 71
     1
 10
0.0
 20
0.0
 11
12.0
 21
9.0
 12
0.0
 22
0.0
 32
0.0
 14
1.00000000000000E+20
 24
1.00000000000000E+20
 34
1.00000000000000E+20
 15
-1.00000000000000E+20
 25
-1.00000000000000E+20
 35
-1.00000000000000E+20
146
0.0
 13
0.0
 23
0.0
 33
0.0
 16
1.0
 26
0.0
 36
0.0
 17
0.0
 27
1.0
 37
0.0
 76
     0
330
1B
  0
LAYOUT
  5
26
102
{ACAD_REACTORS
330
1A
102
}
330
1A
100
AcDbPlotSettings
  1

  2
none_device
  4

  6

 40
0.0
 41
0.0
 42
0.0
 43
0.0
 44
0.0
 45
0.0
 46
0.0
 47
0.0
 48
0.0
 49
0.0
140
0.0
141
0.0
142
1.0
143
1.0
 70
   688
 72
     0
 73
     0
 74
     5
  7

 75
    16
147
1.0
148
0.0
149
0.0
100
AcDbLayout
  1
Layout2
 70
     1
 71
     2
 10
0.0
 20
0.0
 11
0.0
 21
0.0
 12
0.0
 22
0.0
 32
0.0
 14
0.0
 24
0.0
 34
0.0
 15
0.0
 25
0.0
 35
0.0
146
0.0
 13
0.0
 23
0.0
 33
0.0
 16
1.0
 26
0.0
 36
0.0
 17
0.0
 27
1.0
 37
0.0
 76
     0
330
23
  0
LAYOUT
  5
22
102
{ACAD_REACTORS
330
1A
102
}
330
1A
100
AcDbPlotSettings
  1

  2
none_device
  4

  6

 40
0.0
 41
0.0
 42
0.0
 43
0.0
 44
0.0
 45
0.0
 46
0.0
 47
0.0
 48
0.0
 49
0.0
140
0.0
141
0.0
142
1.0
143
1.0
 70
  1712
 72
     0
 73
     0
 74
     0
  7

 75
     0
147
1.0
148
0.0
149
0.0
100
AcDbLayout
  1
Model
 70
     1
 71
     0
 10
0.0
 20
0.0
 11
12.0
 21
9.0
 12
0.0
 22
0.0
 32
0.0
 14
-123.8582400613376
 24
273.1866236350681
 34
0.0
 15
296.1417599386608
 25
570.1866236350681
 35
0.0
146
0.0
 13
0.0
 23
0.0
 33
0.0
 16
1.0
 26
0.0
 36
0.0
 17
0.0
 27
1.0
 37
0.0
 76
     0
330
1F
331
29
  0
MLINESTYLE
  5
18
102
{ACAD_REACTORS
330
17
102
}
330
17
100
AcDbMlineStyle
  2
Standard
 70
     0
  3

 62
   256
 51
90.0
 52
90.0
 71
     2
 49
0.5
 62
   256
  6
BYLAYER
 49
-0.5
 62
   256
  6
BYLAYER
  0
ACDBPLACEHOLDER
  5
F
102
{ACAD_REACTORS
330
E
102
}
330
E
  0
VISUALSTYLE
  5
2F
102
{ACAD_REACTORS
330
2A
102
}
330
2A
100
AcDbVisualStyle
  2
2dWireframe
 70
     4
 71
     0
 72
     2
 73
     0
 90
        0
 40
-0.6
 41
-30.0
 62
     5
 63
     7
 74
     1
 91
        4
 64
     7
 65
   257
 75
     1
175
     1
 42
1.0
 92
        0
 66
   257
 43
1.0
 76
     1
 77
     6
 78
     2
 67
     7
 79
     5
170
     0
171
     0
290
     0
174
     0
 93
        1
 44
0.0
173
     0
291
     0
 45
0.0
1001
ACAD
1000
AcDbSavedByObjectVersion
1070
     0
  0
VISUALSTYLE
  5
31
102
{ACAD_REACTORS
330
2A
102
}
330
2A
100
AcDbVisualStyle
  2
3D Hidden
 70
     6
 71
     1
 72
     2
 73
     2
 90
        0
 40
-0.6
 41
-30.0
 62
     5
 63
     7
 74
     2
 91
        2
 64
     7
 65
   257
 75
     2
175
     1
 42
40.0
 92
        0
 66
   257
 43
1.0
 76
     1
 77
     6
 78
     2
 67
     7
 79
     3
170
     0
171
     0
290
     0
174
     0
 93
        1
 44
0.0
173
     0
291
     0
 45
0.0
1001
ACAD
1000
AcDbSavedByObjectVersion
1070
     0
  0
VISUALSTYLE
  5
30
102
{ACAD_REACTORS
330
2A
102
}
330
2A
100
AcDbVisualStyle
  2
3dWireframe
 70
     5
 71
     0
 72
     2
 73
     0
 90
        0
 40
-0.6
 41
-30.0
 62
     5
 63
     7
 74
     1
 91
        4
 64
     7
 65
   257
 75
     1
175
     1
 42
1.0
 92
        0
 66
   257
 43
1.0
 76
     1
 77
     6
 78
     2
 67
     7
 79
     5
170
     0
171
     0
290
     0
174
     0
 93
        1
 44
0.0
173
     0
291
     0
 45
0.0
1001
ACAD
1000
AcDbSavedByObjectVersion
1070
     0
  0
VISUALSTYLE
  5
32
102
{ACAD_REACTORS
330
2A
102
}
330
2A
100
AcDbVisualStyle
  2
Basic
 70
     7
 71
     1
 72
     0
 73
     1
 90
        0
 40
-0.6
 41
-30.0
 62
     5
 63
     7
 74
     0
 91
        4
 64
     7
 65
   257
 75
     1
175
     1
 42
1.0
 92
        8
 66
     7
 43
1.0
 76
     1
 77
     6
 78
     2
 67
     7
 79
     5
170
     0
171
     0
290
     0
174
     0
 93
        1
 44
0.0
173
     0
291
     1
 45
0.0
1001
ACAD
1000
AcDbSavedByObjectVersion
1070
     0
  0
VISUALSTYLE
  5
36
102
{ACAD_REACTORS
330
2A
102
}
330
2A
100
AcDbVisualStyle
  2
Brighten
 70
    12
 71
     2
 72
     2
 73
     0
 90
        0
 40
-0.6
 41
-30.0
 62
     5
 63
     7
 74
     1
 91
        4
 64
     7
 65
   257
 75
     1
175
     1
 42
1.0
 92
        8
 66
     7
 43
1.0
 76
     1
 77
     6
 78
     2
 67
     7
 79
     5
170
     0
171
     0
290
     0
174
     0
 93
        1
 44
50.0
173
     0
291
     1
 45
0.0
1001
ACAD
1000
AcDbSavedByObjectVersion
1070
     0
  0
VISUALSTYLE
  5
3A
102
{ACAD_REACTORS
330
2A
102
}
330
2A
100
AcDbVisualStyle
  2
ColorChange
 70
    16
 71
     2
 72
     2
 73
     3
 90
        0
 40
-0.6
 41
-30.0
 62
     5
 63
     8
 74
     1
 91
        4
 64
     7
 65
   257
 75
     1
175
     1
 42
1.0
 92
        8
 66
     8
 43
1.0
 76
     1
 77
     6
 78
     2
 67
     7
 79
     5
170
     0
171
     0
290
     0
174
     0
 93
        1
 44
0.0
173
     0
291
     1
 45
0.0
1001
ACAD
1000
AcDbSavedByObjectVersion
1070
     0
  0
VISUALSTYLE
  5
34
102
{ACAD_REACTORS
330
2A
102
}
330
2A
100
AcDbVisualStyle
  2
Conceptual
 70
     9
 71
     3
 72
     2
 73
     0
 90
        0
 40
-0.6
 41
-30.0
 62
     5
 63
     7
 74
     2
 91
        2
 64
     7
 65
   257
 75
     1
175
     1
 42
40.0
 92
        8
 66
     7
 43
1.0
 76
     1
 77
     6
 78
     2
 67
     7
 79
     3
170
     0
171
     0
290
     0
174
     0
 93
        1
 44
0.0
173
     0
291
     0
 45
0.0
1001
ACAD
1000
AcDbSavedByObjectVersion
1070
     0
  0
VISUALSTYLE
  5
35
102
{ACAD_REACTORS
330
2A
102
}
330
2A
100
AcDbVisualStyle
  2
Dim
 70
    11
 71
     2
 72
     2
 73
     0
 90
        0
 40
-0.6
 41
-30.0
 62
     5
 63
     7
 74
     1
 91
        4
 64
     7
 65
   257
 75
     1
175
     1
 42
1.0
 92
        8
 66
     7
 43
1.0
 76
     1
 77
     6
 78
     2
 67
     7
 79
     5
170
     0
171
     0
290
     0
174
     0
 93
        1
 44
-50.0
173
     0
291
     1
 45
0.0
1001
ACAD
1000
AcDbSavedByObjectVersion
1070
     0
  0
VISUALSTYLE
  5
39
102
{ACAD_REACTORS
330
2A
102
}
330
2A
100
AcDbVisualStyle
  2
Facepattern
 70
    15
 71
     2
 72
     2
 73
     0
 90
        0
 40
-0.6
 41
-30.0
 62
     5
 63
     7
 74
     1
 91
        4
 64
     7
 65
   257
 75
     1
175
     1
 42
1.0
 92
        8
 66
     7
 43
1.0
 76
     1
 77
     6
 78
     2
 67
     7
 79
     5
170
     0
171
     0
290
     0
174
     0
 93
        1
 44
0.0
173
     0
291
     1
 45
0.0
1001
ACAD
1000
AcDbSavedByObjectVersion
1070
     0
  0
VISUALSTYLE
  5
2B
102
{ACAD_REACTORS
330
2A
102
}
330
2A
100
AcDbVisualStyle
  2
Flat
 70
     0
 71
     2
 72
     1
 73
     1
 90
        2
 40
-0.6
 41
30.0
 62
     5
 63
     7
 74
     0
 91
        4
 64
     7
 65
   257
 75
     1
175
     1
 42
1.0
 92
        8
 66
     7
 43
1.0
 76
     1
 77
     6
 78
     2
 67
     7
 79
     5
170
     0
171
     0
290
     0
174
     0
 93
       13
 44
0.0
173
     0
291
     1
 45
0.0
1001
ACAD
1000
AcDbSavedByObjectVersion
1070
     0
  0
VISUALSTYLE
  5
2C
102
{ACAD_REACTORS
330
2A
102
}
330
2A
100
AcDbVisualStyle
  2
FlatWithEdges
 70
     1
 71
     2
 72
     1
 73
     1
 90
        2
 40
-0.6
 41
30.0
 62
     5
 63
     7
 74
     1
 91
        4
 64
     7
 65
   257
 75
     1
175
     1
 42
1.0
 92
        0
 66
   257
 43
1.0
 76
     1
 77
     6
 78
     2
 67
     7
 79
     5
170
     0
171
     0
290
     0
174
     0
 93
       13
 44
0.0
173
     0
291
     1
 45
0.0
1001
ACAD
1000
AcDbSavedByObjectVersion
1070
     0
  0
VISUALSTYLE
  5
2D
102
{ACAD_REACTORS
330
2A
102
}
330
2A
100
AcDbVisualStyle
  2
Gouraud
 70
     2
 71
     2
 72
     2
 73
     1
 90
        2
 40
-0.6
 41
30.0
 62
     5
 63
     7
 74
     0
 91
        4
 64
     7
 65
   257
 75
     1
175
     1
 42
1.0
 92
        0
 66
     7
 43
1.0
 76
     1
 77
     6
 78
     2
 67
     7
 79
     5
170
     0
171
     0
290
     0
174
     0
 93
       13
 44
0.0
173
     0
291
     1
 45
0.0
1001
ACAD
1000
AcDbSavedByObjectVersion
1070
     0
  0
VISUALSTYLE
  5
2E
102
{ACAD_REACTORS
330
2A
102
}
330
2A
100
AcDbVisualStyle
  2
GouraudWithEdges
 70
     3
 71
     2
 72
     2
 73
     1
 90
        2
 40
-0.6
 41
30.0
 62
     5
 63
     7
 74
     1
 91
        4
 64
     7
 65
   257
 75
     1
175
     1
 42
1.0
 92
        0
 66
   257
 43
1.0
 76
     1
 77
     6
 78
     2
 67
     7
 79
     5
170
     0
171
     0
290
     0
174
     0
 93
       13
 44
0.0
173
     0
291
     1
 45
0.0
1001
ACAD
1000
AcDbSavedByObjectVersion
1070
     0
  0
VISUALSTYLE
  5
38
102
{ACAD_REACTORS
330
2A
102
}
330
2A
100
AcDbVisualStyle
  2
Linepattern
 70
    14
 71
     2
 72
     2
 73
     0
 90
        0
 40
-0.6
 41
-30.0
 62
     5
 63
     7
 74
     1
 91
        4
 64
     7
 65
   257
 75
     7
175
     7
 42
1.0
 92
        8
 66
     7
 43
1.0
 76
     1
 77
     6
 78
     2
 67
     7
 79
     5
170
     0
171
     0
290
     0
174
     0
 93
        1
 44
0.0
173
     0
291
     1
 45
0.0
1001
ACAD
1000
AcDbSavedByObjectVersion
1070
     0
  0
VISUALSTYLE
  5
33
102
{ACAD_REACTORS
330
2A
102
}
330
2A
100
AcDbVisualStyle
  2
Realistic
 70
     8
 71
     2
 72
     2
 73
     0
 90
        0
 40
-0.6
 41
-30.0
 62
     5
 63
     7
 74
     1
 91
        0
 64
     7
 65
   257
 75
     1
175
     1
 42
1.0
 92
        8
 66
     8
 43
1.0
 76
     1
 77
     6
 78
     2
 67
     7
 79
     5
170
     0
171
     0
290
     0
174
     0
 93
       13
 44
0.0
173
     0
291
     0
 45
0.0
1001
ACAD
1000
AcDbSavedByObjectVersion
1070
     0
  0
VISUALSTYLE
  5
37
102
{ACAD_REACTORS
330
2A
102
}
330
2A
100
AcDbVisualStyle
  2
Thicken
 70
    13
 71
     2
 72
     2
 73
     0
 90
        0
 40
-0.6
 41
-30.0
 62
     5
 63
     7
 74
     1
 91
        4
 64
     7
 65
   257
 75
     1
175
     1
 42
1.0
 92
       12
 66
     7
 43
1.0
 76
     1
 77
     6
 78
     2
 67
     7
 79
     5
170
     0
171
     0
290
     0
174
     0
 93
        1
 44
0.0
173
     0
291
     1
 45
0.0
1001
ACAD
1000
AcDbSavedByObjectVersion
1070
     0
  0
ENDSEC
  0
EOF
