  0
SECTION
  2
HEADER
  9
$ACADVER
  1
AC1015
  9
$ACADMAINTVER
 70
     6
  9
$DWGCODEPAGE
  3
ANSI_1252
  9
$INSBASE
 10
0.0
 20
0.0
 30
0.0
  9
$EXTMIN
 10
-113.4592189657221
 20
714.3864633633442
 30
0.0
  9
$EXTMAX
 10
306.5407810342763
 20
1011.386463363344
 30
0.0
  9
$LIMMIN
 10
0.0
 20
0.0
  9
$LIMMAX
 10
12.0
 20
9.0
  9
$ORTHOMODE
 70
     0
  9
$REGENMODE
 70
     1
  9
$FILLMODE
 70
     1
  9
$QTEXTMODE
 70
     0
  9
$MIRRTEXT
 70
     1
  9
$LTSCALE
 40
1.0
  9
$ATTMODE
 70
     1
  9
$TEXTSIZE
 40
0.2
  9
$TRACEWID
 40
0.05
  9
$TEXTSTYLE
  7
Standard
  9
$CLAYER
  8
0
  9
$CELTYPE
  6
ByLayer
  9
$CECOLOR
 62
   256
  9
$CELTSCALE
 40
1.0
  9
$DISPSILH
 70
     0
  9
$DIMSCALE
 40
1.0
  9
$DIMASZ
 40
0.18
  9
$DIMEXO
 40
0.0625
  9
$DIMDLI
 40
0.38
  9
$DIMRND
 40
0.0
  9
$DIMDLE
 40
0.0
  9
$DIMEXE
 40
0.18
  9
$DIMTP
 40
0.0
  9
$DIMTM
 40
0.0
  9
$DIMTXT
 40
0.18
  9
$DIMCEN
 40
0.09
  9
$DIMTSZ
 40
0.0
  9
$DIMTOL
 70
     0
  9
$DIMLIM
 70
     0
  9
$DIMTIH
 70
     1
  9
$DIMTOH
 70
     1
  9
$DIMSE1
 70
     0
  9
$DIMSE2
 70
     0
  9
$DIMTAD
 70
     0
  9
$DIMZIN
 70
     0
  9
$DIMBLK
  1

  9
$DIMASO
 70
     1
  9
$DIMSHO
 70
     1
  9
$DIMPOST
  1

  9
$DIMAPOST
  1

  9
$DIMALT
 70
     0
  9
$DIMALTD
 70
     2
  9
$DIMALTF
 40
25.4
  9
$DIMLFAC
 40
1.0
  9
$DIMTOFL
 70
     0
  9
$DIMTVP
 40
0.0
  9
$DIMTIX
 70
     0
  9
$DIMSOXD
 70
     0
  9
$DIMSAH
 70
     0
  9
$DIMBLK1
  1

  9
$DIMBLK2
  1

  9
$DIMSTYLE
  2
Standard
  9
$DIMCLRD
 70
     0
  9
$DIMCLRE
 70
     0
  9
$DIMCLRT
 70
     0
  9
$DIMTFAC
 40
1.0
  9
$DIMGAP
 40
0.09
  9
$DIMJUST
 70
     0
  9
$DIMSD1
 70
     0
  9
$DIMSD2
 70
     0
  9
$DIMTOLJ
 70
     1
  9
$DIMTZIN
 70
     0
  9
$DIMALTZ
 70
     0
  9
$DIMALTTZ
 70
     0
  9
$DIMUPT
 70
     0
  9
$DIMDEC
 70
     4
  9
$DIMTDEC
 70
     4
  9
$DIMALTU
 70
     2
  9
$DIMALTTD
 70
     2
  9
$DIMTXSTY
  7
Standard
  9
$DIMAUNIT
 70
     0
  9
$DIMADEC
 70
     0
  9
$DIMALTRND
 40
0.0
  9
$DIMAZIN
 70
     0
  9
$DIMDSEP
 70
    46
  9
$DIMATFIT
 70
     3
  9
$DIMFRAC
 70
     0
  9
$DIMLDRBLK
  1

  9
$DIMLUNIT
 70
     2
  9
$DIMLWD
 70
    -2
  9
$DIMLWE
 70
    -2
  9
$DIMTMOVE
 70
     0
  9
$LUNITS
 70
     2
  9
$LUPREC
 70
     4
  9
$SKETCHINC
 40
0.1
  9
$FILLETRAD
 40
0.5
  9
$AUNITS
 70
     0
  9
$AUPREC
 70
     0
  9
$MENU
  1
.
  9
$ELEVATION
 40
0.0
  9
$PELEVATION
 40
0.0
  9
$THICKNESS
 40
0.0
  9
$LIMCHECK
 70
     0
  9
$CHAMFERA
 40
0.5
  9
$CHAMFERB
 40
0.5
  9
$CHAMFERC
 40
1.0
  9
$CHAMFERD
 40
0.0
  9
$SKPOLY
 70
     0
  9
$TDCREATE
 40
2457528.395208113
  9
$TDUCREATE
 40
2457528.31187478
  9
$TDUPDATE
 40
2457528.395209016
  9
$TDUUPDATE
 40
2457528.311875683
  9
$TDINDWG
 40
0.0000000116
  9
$TDUSRTIMER
 40
0.0000000116
  9
$USRTIMER
 70
     1
  9
$ANGBASE
 50
0.0
  9
$ANGDIR
 70
     0
  9
$PDMODE
 70
     0
  9
$PDSIZE
 40
0.0
  9
$PLINEWID
 40
0.0
  9
$SPLFRAME
 70
     0
  9
$SPLINETYPE
 70
     6
  9
$SPLINESEGS
 70
     8
  9
$HANDSEED
  5
479
  9
$SURFTAB1
 70
     6
  9
$SURFTAB2
 70
     6
  9
$SURFTYPE
 70
     6
  9
$SURFU
 70
     6
  9
$SURFV
 70
     6
  9
$UCSBASE
  2

  9
$UCSNAME
  2

  9
$UCSORG
 10
0.0
 20
0.0
 30
0.0
  9
$UCSXDIR
 10
1.0
 20
0.0
 30
0.0
  9
$UCSYDIR
 10
0.0
 20
1.0
 30
0.0
  9
$UCSORTHOREF
  2

  9
$UCSORTHOVIEW
 70
     0
  9
$UCSORGTOP
 10
0.0
 20
0.0
 30
0.0
  9
$UCSORGBOTTOM
 10
0.0
 20
0.0
 30
0.0
  9
$UCSORGLEFT
 10
0.0
 20
0.0
 30
0.0
  9
$UCSORGRIGHT
 10
0.0
 20
0.0
 30
0.0
  9
$UCSORGFRONT
 10
0.0
 20
0.0
 30
0.0
  9
$UCSORGBACK
 10
0.0
 20
0.0
 30
0.0
  9
$PUCSBASE
  2

  9
$PUCSNAME
  2

  9
$PUCSORG
 10
0.0
 20
0.0
 30
0.0
  9
$PUCSXDIR
 10
1.0
 20
0.0
 30
0.0
  9
$PUCSYDIR
 10
0.0
 20
1.0
 30
0.0
  9
$PUCSORTHOREF
  2

  9
$PUCSORTHOVIEW
 70
     0
  9
$PUCSORGTOP
 10
0.0
 20
0.0
 30
0.0
  9
$PUCSORGBOTTOM
 10
0.0
 20
0.0
 30
0.0
  9
$PUCSORGLEFT
 10
0.0
 20
0.0
 30
0.0
  9
$PUCSORGRIGHT
 10
0.0
 20
0.0
 30
0.0
  9
$PUCSORGFRONT
 10
0.0
 20
0.0
 30
0.0
  9
$PUCSORGBACK
 10
0.0
 20
0.0
 30
0.0
  9
$USERI1
 70
     0
  9
$USERI2
 70
     0
  9
$USERI3
 70
     0
  9
$USERI4
 70
     0
  9
$USERI5
 70
     0
  9
$USERR1
 40
18.1
  9
$USERR2
 40
0.0
  9
$USERR3
 40
0.0
  9
$USERR4
 40
0.0
  9
$USERR5
 40
0.0
  9
$WORLDVIEW
 70
     1
  9
$SHADEDGE
 70
     3
  9
$SHADEDIF
 70
    70
  9
$TILEMODE
 70
     1
  9
$MAXACTVP
 70
    64
  9
$PINSBASE
 10
0.0
 20
0.0
 30
0.0
  9
$PLIMCHECK
 70
     0
  9
$PEXTMIN
 10
1.00000000000000E+20
 20
1.00000000000000E+20
 30
1.00000000000000E+20
  9
$PEXTMAX
 10
-1.00000000000000E+20
 20
-1.00000000000000E+20
 30
-1.00000000000000E+20
  9
$PLIMMIN
 10
0.0
 20
0.0
  9
$PLIMMAX
 10
12.0
 20
9.0
  9
$UNITMODE
 70
     0
  9
$VISRETAIN
 70
     1
  9
$PLINEGEN
 70
     0
  9
$PSLTSCALE
 70
     1
  9
$TREEDEPTH
 70
  3020
  9
$CMLSTYLE
  2
Standard
  9
$CMLJUST
 70
     0
  9
$CMLSCALE
 40
1.0
  9
$PROXYGRAPHICS
 70
     1
  9
$MEASUREMENT
 70
     1
  9
$CELWEIGHT
370
    -1
  9
$ENDCAPS
280
     0
  9
$JOINSTYLE
280
     0
  9
$LWDISPLAY
290
     0
  9
$INSUNITS
 70
     4
  9
$HYPERLINKBASE
  1

  9
$STYLESHEET
  1

  9
$XEDIT
290
     1
  9
$CEPSNTYPE
380
     0
  9
$PSTYLEMODE
290
     1
  9
$FINGERPRINTGUID
  2
{7600A1F7-B5A4-4D3B-B44A-4D36ACE10AA5}
  9
$VERSIONGUID
  2
{FAEB1C32-E019-11D5-929B-00C0DF256EC4}
  9
$EXTNAMES
290
     1
  9
$PSVPSCALE
 40
0.0
  9
$OLESTARTUP
290
     0
  0
ENDSEC
  0
SECTION
  2
CLASSES
  0
CLASS
  1
ACDBDICTIONARYWDFLT
  2
AcDbDictionaryWithDefault
  3
ObjectDBX Classes
 90
        0
280
     0
281
     0
  0
CLASS
  1
VISUALSTYLE
  2
AcDbVisualStyle
  3
ObjectDBX Classes
 90
     4095
280
     0
281
     0
  0
CLASS
  1
MATERIAL
  2
AcDbMaterial
  3
ObjectDBX Classes
 90
     1153
280
     0
281
     0
  0
CLASS
  1
DICTIONARYVAR
  2
AcDbDictionaryVar
  3
ObjectDBX Classes
 90
        0
280
     0
281
     0
  0
CLASS
  1
ACDBPLACEHOLDER
  2
AcDbPlaceHolder
  3
ObjectDBX Classes
 90
        0
280
     0
281
     0
  0
CLASS
  1
LAYOUT
  2
AcDbLayout
  3
ObjectDBX Classes
 90
        0
280
     0
281
     0
  0
ENDSEC
  0
SECTION
  2
TABLES
  0
TABLE
  2
VPORT
  5
8
330
0
100
AcDbSymbolTable
 70
     1
  0
VPORT
  5
29
330
8
100
AcDbSymbolTableRecord
100
AcDbViewportTableRecord
  2
*Active
 70
     0
 10
0.0
 20
0.0
 11
1.0
 21
1.0
 12
96.54078103427709
 22
862.8864633633441
 13
0.0
 23
0.0
 14
0.5
 24
0.5
 15
0.5
 25
0.5
 16
0.0
 26
0.0
 36
1.0
 17
0.0
 27
0.0
 37
0.0
 40
326.6999999999998
 41
1.60267857142857
 42
50.0
 43
0.0
 44
0.0
 50
0.0
 51
0.0
 71
     0
 72
   100
 73
     1
 74
     3
 75
     0
 76
     0
 77
     0
 78
     0
281
     0
 65
     1
110
0.0
120
0.0
130
0.0
111
1.0
121
0.0
131
0.0
112
0.0
122
1.0
132
0.0
 79
     0
146
0.0
  0
ENDTAB
  0
TABLE
  2
LTYPE
  5
5
330
0
100
AcDbSymbolTable
 70
     8
  0
LTYPE
  5
14
330
5
100
AcDbSymbolTableRecord
100
AcDbLinetypeTableRecord
  2
ByBlock
 70
     0
  3

 72
    65
 73
     0
 40
0.0
  0
LTYPE
  5
15
330
5
100
AcDbSymbolTableRecord
100
AcDbLinetypeTableRecord
  2
ByLayer
 70
     0
  3

 72
    65
 73
     0
 40
0.0
  0
LTYPE
  5
16
330
5
100
AcDbSymbolTableRecord
100
AcDbLinetypeTableRecord
  2
Continuous
 70
     0
  3
Solid line
 72
    65
 73
     0
 40
0.0
  0
LTYPE
  5
3F
330
5
100
AcDbSymbolTableRecord
100
AcDbLinetypeTableRecord
  2
DASHED
 70
     0
  3
Dashed
 72
    65
 73
     2
 40
15.0
 49
7.0
 74
     0
 49
-8.0
 74
     0
  0
LTYPE
  5
40
330
5
100
AcDbSymbolTableRecord
100
AcDbLinetypeTableRecord
  2
DOTTED
 70
     0
  3
Dotted
 72
    65
 73
     2
 40
1.0
 49
0.0
 74
     0
 49
-1.0
 74
     0
  0
LTYPE
  5
41
330
5
100
AcDbSymbolTableRecord
100
AcDbLinetypeTableRecord
  2
DOT_CENTER
 70
     0
  3
Dot_Center
 72
    65
 73
     4
 40
14.0
 49
12.0
 74
     0
 49
-1.0
 74
     0
 49
0.0
 74
     0
 49
-1.0
 74
     0
  0
LTYPE
  5
42
330
5
100
AcDbSymbolTableRecord
100
AcDbLinetypeTableRecord
  2
LONG_DASHED
 70
     0
  3
Long_Dashed
 72
    65
 73
     2
 40
15.0
 49
10.0
 74
     0
 49
-5.0
 74
     0
  0
LTYPE
  5
43
330
5
100
AcDbSymbolTableRecord
100
AcDbLinetypeTableRecord
  2
DASH_CENTER
 70
     0
  3
Dash_Center
 72
    65
 73
     4
 40
14.0
 49
11.0
 74
     0
 49
-1.0
 74
     0
 49
1.0
 74
     0
 49
-1.0
 74
     0
  0
LTYPE
  5
44
330
5
100
AcDbSymbolTableRecord
100
AcDbLinetypeTableRecord
  2
PHANTOM
 70
     0
  3
Phantom
 72
    65
 73
     6
 40
13.0
 49
10.0
 74
     0
 49
-1.0
 74
     0
 49
0.0
 74
     0
 49
-1.0
 74
     0
 49
0.0
 74
     0
 49
-1.0
 74
     0
  0
LTYPE
  5
45
330
5
100
AcDbSymbolTableRecord
100
AcDbLinetypeTableRecord
  2
CENTER_DASH_DASH
 70
     0
  3
Center_Dash_Dash
 72
    65
 73
     6
 40
14.0
 49
9.0
 74
     0
 49
-1.0
 74
     0
 49
1.0
 74
     0
 49
-1.0
 74
     0
 49
1.0
 74
     0
 49
-1.0
 74
     0
  0
ENDTAB
  0
TABLE
  2
LAYER
  5
2
330
0
100
AcDbSymbolTable
 70
     2
  0
LAYER
  5
10
330
2
100
AcDbSymbolTableRecord
100
AcDbLayerTableRecord
  2
0
 70
     0
 62
     7
  6
Continuous
370
    -3
390
F
  0
LAYER
  5
46
330
2
100
AcDbSymbolTableRecord
100
AcDbLayerTableRecord
  2
1
 70
     0
 62
     7
  6
Continuous
370
    -3
390
F
  0
ENDTAB
  0
TABLE
  2
STYLE
  5
3
330
0
100
AcDbSymbolTable
 70
     5
  0
STYLE
  5
11
330
3
100
AcDbSymbolTableRecord
100
AcDbTextStyleTableRecord
  2
Standard
 70
     0
 40
0.0
 41
1.0
 50
0.0
 71
     0
 42
0.2
  3
txt
  4

  0
STYLE
  5
130
330
3
100
AcDbSymbolTableRecord
100
AcDbTextStyleTableRecord
  2
CONVERTER_11
 70
     0
 40
0.0
 41
0.9
 50
0.0
 71
     0
 42
0.2
  3
txt.shx
  4

  0
STYLE
  5
40E
330
3
100
AcDbSymbolTableRecord
100
AcDbTextStyleTableRecord
  2
CONVERTER_12
 70
     0
 40
0.0
 41
0.81
 50
0.0
 71
     0
 42
0.2
  3
txt.shx
  4

  0
STYLE
  5
416
330
3
100
AcDbSymbolTableRecord
100
AcDbTextStyleTableRecord
  2
CONVERTER_13
 70
     0
 40
0.0
 41
0.72
 50
0.0
 71
     0
 42
0.2
  3
txt.shx
  4

  0
STYLE
  5
419
330
3
100
AcDbSymbolTableRecord
100
AcDbTextStyleTableRecord
  2
CONVERTER_14
 70
     0
 40
0.0
 41
0.855
 50
0.0
 71
     0
 42
0.2
  3
txt.shx
  4

  0
ENDTAB
  0
TABLE
  2
VIEW
  5
6
330
0
100
AcDbSymbolTable
 70
     0
  0
ENDTAB
  0
TABLE
  2
UCS
  5
7
330
0
100
AcDbSymbolTable
 70
     0
  0
ENDTAB
  0
TABLE
  2
APPID
  5
9
330
0
100
AcDbSymbolTable
 70
     1
  0
APPID
  5
12
330
9
100
AcDbSymbolTableRecord
100
AcDbRegAppTableRecord
  2
ACAD
 70
     0
  0
ENDTAB
  0
TABLE
  2
DIMSTYLE
  5
A
330
0
100
AcDbSymbolTable
 70
     4
100
AcDbDimStyleTable
  0
DIMSTYLE
105
27
330
A
100
AcDbSymbolTableRecord
100
AcDbDimStyleTableRecord
  2
Standard
 70
     0
178
     0
340
11
  0
DIMSTYLE
105
177
102
{ACAD_REACTORS
330
178
102
}
330
A
100
AcDbSymbolTableRecord
100
AcDbDimStyleTableRecord
  2
ME10_DIM_10
 70
     0
 41
3.5
 42
0.0
 44
1.5
 73
     0
 74
     0
 77
     1
 78
     8
140
3.5
147
1.5
172
     1
173
     1
174
     1
175
     1
176
     2
177
     2
271
     1
178
     3
271
     1
340
130
  0
DIMSTYLE
105
2F4
102
{ACAD_REACTORS
330
2F5
102
}
330
A
100
AcDbSymbolTableRecord
100
AcDbDimStyleTableRecord
  2
ME10_DIM_11
 70
     0
 41
3.5
 42
0.0
 44
1.5
 73
     0
 74
     0
 77
     1
 78
     8
140
3.5
147
1.5
172
     1
173
     1
174
     1
175
     1
176
     2
177
     2
271
     1
178
     3
271
     1
340
130
  0
DIMSTYLE
105
2FF
102
{ACAD_REACTORS
330
300
102
}
330
A
100
AcDbSymbolTableRecord
100
AcDbDimStyleTableRecord
  2
ME10_DIM_12
 70
     0
 41
3.5
 42
0.0
 44
1.5
 73
     0
 74
     0
 77
     1
 78
     8
140
3.5
147
1.5
172
     1
173
     1
174
     1
175
     1
176
     2
177
     2
271
     1
178
     3
271
     1
340
130
  0
ENDTAB
  0
TABLE
  2
BLOCK_RECORD
  5
1
330
0
100
AcDbSymbolTable
 70
    19
  0
BLOCK_RECORD
  5
1F
330
1
100
AcDbSymbolTableRecord
100
AcDbBlockTableRecord
  2
*Model_Space
340
22
  0
BLOCK_RECORD
  5
1B
330
1
100
AcDbSymbolTableRecord
100
AcDbBlockTableRecord
  2
*Paper_Space
340
1E
  0
BLOCK_RECORD
  5
23
330
1
100
AcDbSymbolTableRecord
100
AcDbBlockTableRecord
  2
*Paper_Space0
340
26
  0
BLOCK_RECORD
  5
47
330
1
100
AcDbSymbolTableRecord
100
AcDbBlockTableRecord
  2
2320089_UTA_107_30-select__1
340
0
102
{BLKREFS
331
4B
102
}
  0
BLOCK_RECORD
  5
4A
330
1
100
AcDbSymbolTableRecord
100
AcDbBlockTableRecord
  2
Allg1
340
0
102
{BLKREFS
331
7C
102
}
  0
BLOCK_RECORD
  5
4E
330
1
100
AcDbSymbolTableRecord
100
AcDbBlockTableRecord
  2
2320089_UTA_107_30-select__2
340
0
102
{BLKREFS
331
52
102
}
  0
BLOCK_RECORD
  5
51
330
1
100
AcDbSymbolTableRecord
100
AcDbBlockTableRecord
  2
Drfsicht1
340
0
102
{BLKREFS
331
7D
102
}
  0
BLOCK_RECORD
  5
55
330
1
100
AcDbSymbolTableRecord
100
AcDbBlockTableRecord
  2
2320089_UTA_107_30-select__3
340
0
102
{BLKREFS
331
59
102
}
  0
BLOCK_RECORD
  5
58
330
1
100
AcDbSymbolTableRecord
100
AcDbBlockTableRecord
  2
Rckans1
340
0
102
{BLKREFS
331
7E
102
}
  0
BLOCK_RECORD
  5
5C
330
1
100
AcDbSymbolTableRecord
100
AcDbBlockTableRecord
  2
2320089_UTA_107_30-select__4
340
0
102
{BLKREFS
331
60
102
}
  0
BLOCK_RECORD
  5
5F
330
1
100
AcDbSymbolTableRecord
100
AcDbBlockTableRecord
  2
SA_Links1
340
0
102
{BLKREFS
331
7F
102
}
  0
BLOCK_RECORD
  5
63
330
1
100
AcDbSymbolTableRecord
100
AcDbBlockTableRecord
  2
2320089_UTA_107_30-select__5
340
0
102
{BLKREFS
331
67
102
}
  0
BLOCK_RECORD
  5
66
330
1
100
AcDbSymbolTableRecord
100
AcDbBlockTableRecord
  2
SA_Rechts1
340
0
102
{BLKREFS
331
80
102
}
  0
BLOCK_RECORD
  5
6A
330
1
100
AcDbSymbolTableRecord
100
AcDbBlockTableRecord
  2
2320089_UTA_107_30-select__6
340
0
102
{BLKREFS
331
6E
102
}
  0
BLOCK_RECORD
  5
6D
330
1
100
AcDbSymbolTableRecord
100
AcDbBlockTableRecord
  2
Vordans1
340
0
102
{BLKREFS
331
81
102
}
  0
BLOCK_RECORD
  5
71
330
1
100
AcDbSymbolTableRecord
100
AcDbBlockTableRecord
  2
_rahmen
340
0
102
{BLKREFS
331
78
102
}
  0
BLOCK_RECORD
  5
74
330
1
100
AcDbSymbolTableRecord
100
AcDbBlockTableRecord
  2
_punkt
340
0
102
{BLKREFS
331
79
102
}
  0
BLOCK_RECORD
  5
77
330
1
100
AcDbSymbolTableRecord
100
AcDbBlockTableRecord
  2
A3I_CS
340
0
102
{BLKREFS
331
82
102
}
  0
BLOCK_RECORD
  5
16C
330
1
100
AcDbSymbolTableRecord
100
AcDbBlockTableRecord
  2
*D16
340
0
  0
BLOCK_RECORD
  5
2EB
330
1
100
AcDbSymbolTableRecord
100
AcDbBlockTableRecord
  2
*D17
340
0
  0
BLOCK_RECORD
  5
2F6
330
1
100
AcDbSymbolTableRecord
100
AcDbBlockTableRecord
  2
*D18
340
0
  0
ENDTAB
  0
ENDSEC
  0
SECTION
  2
BLOCKS
  0
BLOCK
  5
20
330
1F
100
AcDbEntity
  8
0
100
AcDbBlockBegin
  2
*Model_Space
 70
     0
 10
0.0
 20
0.0
 30
0.0
  3
*Model_Space
  1

  0
ENDBLK
  5
21
330
1F
100
AcDbEntity
  8
0
100
AcDbBlockEnd
  0
BLOCK
  5
1C
330
1B
100
AcDbEntity
 67
     1
  8
0
100
AcDbBlockBegin
  2
*Paper_Space
 70
     0
 10
0.0
 20
0.0
 30
0.0
  3
*Paper_Space
  1

  0
ENDBLK
  5
1D
330
1B
100
AcDbEntity
 67
     1
  8
0
100
AcDbBlockEnd
  0
BLOCK
  5
24
330
23
100
AcDbEntity
  8
0
100
AcDbBlockBegin
  2
*Paper_Space0
 70
     0
 10
0.0
 20
0.0
 30
0.0
  3
*Paper_Space0
  1

  0
ENDBLK
  5
25
330
23
100
AcDbEntity
  8
0
100
AcDbBlockEnd
  0
BLOCK
  5
48
330
47
100
AcDbEntity
  8
0
100
AcDbBlockBegin
  2
2320089_UTA_107_30-select__1
 70
     0
 10
168.6449626659977
 20
772.9794342577052
 30
0.0
  3
2320089_UTA_107_30-select__1
  1

  0
LINE
  5
83
330
47
100
AcDbEntity
  8
0
  6
Continuous
 62
     7
100
AcDbLine
 10
254.3455792557948
 20
772.9794342577052
 30
0.0
 11
171.2071404924887
 21
796.9794342577052
 31
0.0
  0
LINE
  5
84
330
47
100
AcDbEntity
  8
0
  6
Continuous
 62
     7
100
AcDbLine
 10
204.3064363592497
 20
807.3430748554165
 30
0.0
 11
230.3397705121825
 21
799.8278986148669
 31
0.0
  0
LINE
  5
85
330
47
100
AcDbEntity
  8
0
  6
Continuous
 62
     7
100
AcDbLine
 10
200.2131603448291
 20
801.0768833872669
 30
0.0
 11
199.4631603448291
 21
800.4273643344286
 31
0.0
  0
LINE
  5
86
330
47
100
AcDbEntity
  8
0
  6
Continuous
 62
     7
100
AcDbLine
 10
199.6935451025584
 20
801.2268833872669
 30
0.0
 11
198.9435451025584
 21
800.5773643344286
 31
0.0
  0
LINE
  5
87
330
47
100
AcDbEntity
  8
0
  6
Continuous
 62
     7
100
AcDbLine
 10
204.7329464054671
 20
807.71244339041
 30
0.0
 11
202.7783107747298
 21
806.0196792790493
 31
0.0
  0
LINE
  5
88
330
47
100
AcDbEntity
  8
0
  6
Continuous
 62
     7
100
AcDbLine
 10
189.9488512069636
 20
802.4884350770948
 30
0.0
 11
194.7119909277779
 21
801.1134350770949
 31
0.0
  0
LINE
  5
89
330
47
100
AcDbEntity
  8
0
  6
Continuous
 62
     7
100
AcDbLine
 10
199.9488512069636
 20
811.1486891149391
 30
0.0
 11
204.7119909277779
 21
809.7736891149392
 31
0.0
  0
LINE
  5
8A
330
47
100
AcDbEntity
  8
0
  6
Continuous
 62
     7
100
AcDbLine
 10
192.6312729371164
 20
808.9813534201484
 30
0.0
 11
199.9488512069636
 21
811.1486891149391
 31
0.0
  0
LINE
  5
8B
330
47
100
AcDbEntity
  8
0
  6
Continuous
 62
     7
100
AcDbLine
 10
199.7698892658106
 20
804.6112113138834
 30
0.0
 11
190.6312729371164
 21
807.2493026125795
 31
0.0
  0
LINE
  5
8C
330
47
100
AcDbEntity
  8
0
  6
Continuous
 62
     7
100
AcDbLine
 10
198.0361265316047
 20
809.492220955633
 30
0.0
 11
202.799266252419
 21
808.117220955633
 31
0.0
  0
LINE
  5
8D
330
47
100
AcDbEntity
  8
0
  6
Continuous
 62
     7
100
AcDbLine
 10
202.7783107747298
 20
806.0196792790493
 30
0.0
 11
200.1680254177022
 21
805.5476030149124
 31
0.0
  0
LINE
  5
8E
330
47
100
AcDbEntity
  8
0
  6
Continuous
 62
     7
100
AcDbLine
 10
200.1680254177022
 20
805.5476030149124
 30
0.0
 11
199.7985021403506
 21
805.6542751967378
 31
0.0
  0
LINE
  5
8F
330
47
100
AcDbEntity
  8
0
  6
Continuous
 62
     7
100
AcDbLine
 10
202.799266252419
 20
808.117220955633
 30
0.0
 11
202.7783107747298
 21
806.0196792790493
 31
0.0
  0
LINE
  5
90
330
47
100
AcDbEntity
  8
0
  6
Continuous
 62
     7
100
AcDbLine
 10
201.0314506264361
 20
805.703755500618
 30
0.0
 11
199.7698892658106
 21
804.6112113138834
 31
0.0
  0
LINE
  5
91
330
47
100
AcDbEntity
  8
0
  6
Continuous
 62
     7
100
AcDbLine
 10
199.7985021403506
 20
805.6542751967378
 30
0.0
 11
199.7698892658106
 21
804.6112113138834
 31
0.0
  0
LINE
  5
92
330
47
100
AcDbEntity
  8
0
  6
Continuous
 62
     7
100
AcDbLine
 10
190.6312729371164
 20
807.2493026125795
 30
0.0
 11
198.0361265316047
 21
809.492220955633
 31
0.0
  0
LINE
  5
93
330
47
100
AcDbEntity
  8
0
  6
Continuous
 62
     7
100
AcDbLine
 10
192.6312729371164
 20
808.9813534201484
 30
0.0
 11
190.6312729371164
 21
807.2493026125795
 31
0.0
  0
LINE
  5
94
330
47
100
AcDbEntity
  8
0
  6
Continuous
 62
     7
100
AcDbLine
 10
198.0361265316047
 20
809.492220955633
 30
0.0
 11
199.9488512069636
 21
811.1486891149391
 31
0.0
  0
LINE
  5
95
330
47
100
AcDbEntity
  8
0
  6
Continuous
 62
     7
100
AcDbLine
 10
204.7119909277779
 20
809.7736891149392
 30
0.0
 11
202.799266252419
 21
808.117220955633
 31
0.0
  0
LINE
  5
96
330
47
100
AcDbEntity
  8
0
  6
Continuous
 62
     7
100
AcDbLine
 10
204.7119909277779
 20
809.7736891149392
 30
0.0
 11
204.7329464054671
 21
807.71244339041
 31
0.0
  0
LINE
  5
97
330
47
100
AcDbEntity
  8
0
  6
Continuous
 62
     7
100
AcDbLine
 10
198.4811095372602
 20
801.0115153981488
 30
0.0
 11
199.6935451025584
 21
801.2268833872669
 31
0.0
  0
LINE
  5
98
330
47
100
AcDbEntity
  8
0
  6
Continuous
 62
     7
100
AcDbLine
 10
199.6935451025584
 20
801.2268833872669
 30
0.0
 11
200.2131603448291
 21
801.0768833872669
 31
0.0
  0
LINE
  5
99
330
47
100
AcDbEntity
  8
0
  6
Continuous
 62
     7
100
AcDbLine
 10
197.7311095372602
 20
800.3619963453106
 30
0.0
 11
198.4811095372602
 21
801.0115153981488
 31
0.0
  0
LINE
  5
9A
330
47
100
AcDbEntity
  8
0
  6
Continuous
 62
     7
100
AcDbLine
 10
200.2131603448291
 20
800.2974605238609
 30
0.0
 11
200.2131603448291
 21
801.0768833872669
 31
0.0
  0
LINE
  5
9B
330
47
100
AcDbEntity
  8
0
  6
Continuous
 62
     7
100
AcDbLine
 10
230.1897705121825
 20
799.6979948042992
 30
0.0
 11
267.6099117752258
 21
788.8957304886333
 31
0.0
  0
LINE
  5
9C
330
47
100
AcDbEntity
  8
0
  6
Continuous
 62
     7
100
AcDbLine
 10
228.1138826375139
 20
792.9736813007669
 30
0.0
 11
260.4599314688283
 21
783.6361813007768
 31
0.0
  0
LINE
  5
9D
330
47
100
AcDbEntity
  8
0
  6
Continuous
 62
     7
100
AcDbLine
 10
254.3455792557948
 20
775.5775104690584
 30
0.0
 11
220.2897705121825
 21
785.4085756418559
 31
0.0
  0
LINE
  5
9E
330
47
100
AcDbEntity
  8
0
  6
Continuous
 62
     7
100
AcDbLine
 10
260.4436554671127
 20
777.858599382314
 30
0.0
 11
228.0976066357994
 21
787.196099382304
 31
0.0
  0
LINE
  5
9F
330
47
100
AcDbEntity
  8
0
  6
Continuous
 62
     7
100
AcDbLine
 10
262.6527589327673
 20
787.8152635816622
 30
0.0
 11
260.8527589327673
 21
786.2564178548502
 31
0.0
  0
LINE
  5
A0
330
47
100
AcDbEntity
  8
0
  6
Continuous
 62
     7
100
AcDbLine
 10
260.4436554671127
 20
777.858599382314
 30
0.0
 11
260.4599314688283
 21
783.6361813007768
 31
0.0
  0
LINE
  5
A1
330
47
100
AcDbEntity
  8
0
  6
Continuous
 62
     7
100
AcDbLine
 10
270.4436554671482
 20
786.5188534201484
 30
0.0
 11
270.4436554671482
 21
783.920777208795
 31
0.0
  0
LINE
  5
A2
330
47
100
AcDbEntity
  8
0
  6
Continuous
 62
     7
100
AcDbLine
 10
270.4436554671482
 20
783.920777208795
 30
0.0
 11
268.8435633534457
 21
782.5350567899336
 31
0.0
  0
LINE
  5
A3
330
47
100
AcDbEntity
  8
0
  6
Continuous
 62
     7
100
AcDbLine
 10
263.4096808709326
 20
783.670777208795
 30
0.0
 11
267.2096808709326
 21
786.961673743176
 31
0.0
  0
LINE
  5
A4
330
47
100
AcDbEntity
  8
0
  6
Continuous
 62
     7
100
AcDbLine
 10
267.7096808709326
 20
783.1511619665245
 30
0.0
 11
264.0346808709326
 21
784.2120430861603
 31
0.0
  0
LINE
  5
A5
330
47
100
AcDbEntity
  8
0
  6
Continuous
 62
     7
100
AcDbLine
 10
268.8658756468488
 20
781.5020146080527
 30
0.0
 11
268.6860523639826
 21
789.8276955765402
 31
0.0
  0
LINE
  5
A6
330
47
100
AcDbEntity
  8
0
  6
Continuous
 62
     7
100
AcDbLine
 10
267.6099117752258
 20
788.8957304886333
 30
0.0
 11
267.7096808709326
 21
783.1511619665245
 31
0.0
  0
LINE
  5
A7
330
47
100
AcDbEntity
  8
0
  6
Continuous
 62
     7
100
AcDbLine
 10
267.2096808709326
 20
786.961673743176
 30
0.0
 11
267.2096808709326
 21
788.3473143892311
 31
0.0
  0
LINE
  5
A8
330
47
100
AcDbEntity
  8
0
  6
Continuous
 62
     7
100
AcDbLine
 10
263.4096808709326
 20
783.670777208795
 30
0.0
 11
263.4096808709326
 21
785.0564178548502
 31
0.0
  0
LINE
  5
A9
330
47
100
AcDbEntity
  8
0
  6
Continuous
 62
     7
100
AcDbLine
 10
263.4096808709326
 20
783.670777208795
 30
0.0
 11
262.829810115242
 21
783.5930892584443
 31
0.0
  0
LINE
  5
AA
330
47
100
AcDbEntity
  8
0
  6
Continuous
 62
     7
100
AcDbLine
 10
263.4096808709326
 20
785.0564178548502
 30
0.0
 11
262.2485592777158
 21
784.9008570582417
 31
0.0
  0
LINE
  5
AB
330
47
100
AcDbEntity
  8
0
  6
Continuous
 62
     7
100
AcDbLine
 10
262.6527589327673
 20
787.8152635816622
 30
0.0
 11
262.6527589327673
 21
789.2009042277173
 31
0.0
  0
LINE
  5
AC
330
47
100
AcDbEntity
  8
0
  6
Continuous
 62
     7
100
AcDbLine
 10
263.4446173614715
 20
787.586673743176
 30
0.0
 11
262.6527589327673
 21
787.8152635816622
 31
0.0
  0
LINE
  5
AD
330
47
100
AcDbEntity
  8
0
  6
Continuous
 62
     7
100
AcDbLine
 10
230.1268500835643
 20
799.629555827121
 30
0.0
 11
266.8436554671482
 21
789.0303270911232
 31
0.0
  0
LINE
  5
AE
330
47
100
AcDbEntity
  8
0
  6
Continuous
 62
     7
100
AcDbLine
 10
224.4581529429037
 20
795.7234051529579
 30
0.0
 11
225.3147705121825
 21
795.47612096085
 31
0.0
  0
LINE
  5
AF
330
47
100
AcDbEntity
  8
0
  6
Continuous
 62
     7
100
AcDbLine
 10
224.4581529429037
 20
795.7234051529579
 30
0.0
 11
229.2581529429037
 21
799.8803270911231
 31
0.0
  0
LINE
  5
B0
330
47
100
AcDbEntity
  8
0
  6
Continuous
 62
     7
100
AcDbLine
 10
230.1268500835643
 20
799.629555827121
 30
0.0
 11
229.2581529429037
 21
799.8803270911231
 31
0.0
  0
LINE
  5
B1
330
47
100
AcDbEntity
  8
0
  6
Continuous
 62
     7
100
AcDbLine
 10
264.6446173614715
 20
788.6259042277172
 30
0.0
 11
262.6527589327673
 21
789.2009042277173
 31
0.0
  0
LINE
  5
B2
330
47
100
AcDbEntity
  8
0
  6
Continuous
 62
     7
100
AcDbLine
 10
268.3447280403706
 20
790.4646154353297
 30
0.0
 11
268.6860523639826
 21
789.8276955765402
 31
0.0
  0
LINE
  5
B3
330
47
100
AcDbEntity
  8
0
  6
Continuous
 62
     7
100
AcDbLine
 10
270.4436554671482
 20
786.5188534201484
 30
0.0
 11
268.7884788267254
 21
785.0854284017918
 31
0.0
  0
LINE
  5
B4
330
47
100
AcDbEntity
  8
0
  6
Continuous
 62
     7
100
AcDbLine
 10
263.4096808709326
 20
785.0564178548502
 30
0.0
 11
267.2096808709326
 21
788.3473143892311
 31
0.0
  0
LINE
  5
B5
330
47
100
AcDbEntity
  8
0
  6
Continuous
 62
     7
100
AcDbLine
 10
269.3455792557948
 20
788.5678915258251
 30
0.0
 11
270.4436554671482
 21
786.5188534201484
 31
0.0
  0
LINE
  5
B6
330
47
100
AcDbEntity
  8
0
  6
Continuous
 62
     7
100
AcDbLine
 10
268.7092951797594
 20
788.7515709171151
 30
0.0
 11
269.3455792557948
 21
788.5678915258251
 31
0.0
  0
LINE
  5
B7
330
47
100
AcDbEntity
  8
0
  6
Continuous
 62
     7
100
AcDbLine
 10
236.9032146018833
 20
796.2011447012981
 30
0.0
 11
241.0601365400485
 21
795.0011447012981
 31
0.0
  0
LINE
  5
B8
330
47
100
AcDbEntity
  8
0
  6
Continuous
 62
     7
100
AcDbLine
 10
234.6532146018833
 20
794.2525875427831
 30
0.0
 11
236.9032146018833
 21
796.2011447012981
 31
0.0
  0
LINE
  5
B9
330
47
100
AcDbEntity
  8
0
  6
Continuous
 62
     7
100
AcDbLine
 10
236.9032146018833
 20
794.815504055243
 30
0.0
 11
236.9032146018833
 21
796.2011447012981
 31
0.0
  0
LINE
  5
BA
330
47
100
AcDbEntity
  8
0
  6
Continuous
 62
     7
100
AcDbLine
 10
267.6099117752258
 20
788.8957304886333
 30
0.0
 11
268.6860523639826
 21
789.8276955765402
 31
0.0
  0
LINE
  5
BB
330
47
100
AcDbEntity
  8
0
  6
Continuous
 62
     7
100
AcDbLine
 10
267.2096808709326
 20
788.3473143892311
 30
0.0
 11
266.8436554671482
 21
789.0303270911232
 31
0.0
  0
LINE
  5
BC
330
47
100
AcDbEntity
  8
0
  6
Continuous
 62
     7
100
AcDbLine
 10
262.6527589327673
 20
789.2009042277173
 30
0.0
 11
259.6527589327673
 21
786.6028280163639
 31
0.0
  0
LINE
  5
BD
330
47
100
AcDbEntity
  8
0
  6
Continuous
 62
     7
100
AcDbLine
 10
259.6527589327673
 20
786.6028280163639
 30
0.0
 11
261.6446173614715
 21
786.027828016364
 31
0.0
  0
LINE
  5
BE
330
47
100
AcDbEntity
  8
0
  6
Continuous
 62
     7
100
AcDbLine
 10
261.6446173614715
 20
786.027828016364
 30
0.0
 11
264.6446173614715
 21
788.6259042277172
 31
0.0
  0
LINE
  5
BF
330
47
100
AcDbEntity
  8
0
  6
Continuous
 62
     7
100
AcDbLine
 10
241.0601365400485
 20
793.615504055243
 30
0.0
 11
236.9032146018833
 21
794.815504055243
 31
0.0
  0
LINE
  5
C0
330
47
100
AcDbEntity
  8
0
  6
Continuous
 62
     7
100
AcDbLine
 10
238.8101365400485
 20
793.0525875427832
 30
0.0
 11
234.6532146018833
 21
794.2525875427831
 31
0.0
  0
LINE
  5
C1
330
47
100
AcDbEntity
  8
0
  6
Continuous
 62
     7
100
AcDbLine
 10
236.9032146018833
 20
794.815504055243
 30
0.0
 11
235.8532146018833
 21
793.9061773812693
 31
0.0
  0
LINE
  5
C2
330
47
100
AcDbEntity
  8
0
  6
Continuous
 62
     2
100
AcDbLine
 10
241.0601365400485
 20
793.615504055243
 30
0.0
 11
241.0601365400485
 21
795.0011447012981
 31
0.0
  0
LINE
  5
C3
330
47
100
AcDbEntity
  8
0
  6
Continuous
 62
     7
100
AcDbLine
 10
268.3447280403706
 20
790.4646154353297
 30
0.0
 11
235.9986792089856
 21
799.8021154353358
 31
0.0
  0
LINE
  5
C4
330
47
100
AcDbEntity
  8
0
  6
Continuous
 62
     7
100
AcDbLine
 10
230.1268500835643
 20
799.629555827121
 30
0.0
 11
230.1897705121825
 21
799.6979948042992
 31
0.0
  0
LINE
  5
C5
330
47
100
AcDbEntity
  8
0
  6
Continuous
 62
     7
100
AcDbLine
 10
225.3897705121825
 20
795.541072866134
 30
0.0
 11
262.8099117752259
 21
784.738808550468
 31
0.0
  0
LINE
  5
C6
330
47
100
AcDbEntity
  8
0
  6
Continuous
 62
     7
100
AcDbLine
 10
221.5397705121825
 20
792.2068750615638
 30
0.0
 11
225.3897705121825
 21
795.541072866134
 31
0.0
  0
LINE
  5
C7
330
47
100
AcDbEntity
  8
0
  6
Continuous
 62
     7
100
AcDbLine
 10
221.5766700103239
 20
792.7880071198907
 30
0.0
 11
222.0522705121825
 21
792.6507130810033
 31
0.0
  0
LINE
  5
C8
330
47
100
AcDbEntity
  8
0
  6
Continuous
 62
     7
100
AcDbLine
 10
221.8093975105177
 20
792.12904045153
 30
0.0
 11
228.1138826375139
 21
792.9736813007669
 31
0.0
  0
LINE
  5
C9
330
47
100
AcDbEntity
  8
0
  6
Continuous
 62
     7
100
AcDbLine
 10
221.9504923187694
 20
786.372542223789
 30
0.0
 11
221.8093975105177
 21
792.12904045153
 31
0.0
  0
LINE
  5
CA
330
47
100
AcDbEntity
  8
0
  6
Continuous
 62
     7
100
AcDbLine
 10
221.9504923187694
 20
786.372542223789
 30
0.0
 11
228.0976066357994
 21
787.196099382304
 31
0.0
  0
LINE
  5
CB
330
47
100
AcDbEntity
  8
0
  6
Continuous
 62
     7
100
AcDbLine
 10
222.8022705121825
 20
793.3002321338416
 30
0.0
 11
222.3266700103239
 21
793.437526172729
 31
0.0
  0
LINE
  5
CC
330
47
100
AcDbEntity
  8
0
  6
Continuous
 62
     7
100
AcDbLine
 10
222.3266700103239
 20
793.437526172729
 30
0.0
 11
224.4581529429037
 21
795.7234051529579
 31
0.0
  0
LINE
  5
CD
330
47
100
AcDbEntity
  8
0
  6
Continuous
 62
     7
100
AcDbLine
 10
230.1897705121825
 20
799.6979948042992
 30
0.0
 11
234.0397705121825
 21
803.0321926088693
 31
0.0
  0
LINE
  5
CE
330
47
100
AcDbEntity
  8
0
  6
Continuous
 62
     7
100
AcDbLine
 10
234.3093975105132
 20
802.9543579988336
 30
0.0
 11
234.0397705121825
 21
803.0321926088693
 31
0.0
  0
LINE
  5
CF
330
47
100
AcDbEntity
  8
0
  6
Continuous
 62
     7
100
AcDbLine
 10
228.0976066357994
 20
787.196099382304
 30
0.0
 11
228.1138826375139
 21
792.9736813007669
 31
0.0
  0
LINE
  5
D0
330
47
100
AcDbEntity
  8
0
  6
Continuous
 62
     7
100
AcDbLine
 10
221.5397705121825
 20
786.4911073965865
 30
0.0
 11
221.9504923187694
 21
786.372542223789
 31
0.0
  0
LINE
  5
D1
330
47
100
AcDbEntity
  8
0
  6
Continuous
 62
     7
100
AcDbLine
 10
221.5397705121825
 20
786.4911073965865
 30
0.0
 11
221.4944209232289
 21
789.1022749066349
 31
0.0
  0
LINE
  5
D2
330
47
100
AcDbEntity
  8
0
  6
Continuous
 62
     7
100
AcDbLine
 10
220.7380567534712
 20
789.3206184351424
 30
0.0
 11
221.4944209232289
 21
789.1022749066349
 31
0.0
  0
LINE
  5
D3
330
47
100
AcDbEntity
  8
0
  6
Continuous
 62
     7
100
AcDbLine
 10
221.5397705121825
 20
792.2068750615638
 30
0.0
 11
221.8093975105177
 21
792.12904045153
 31
0.0
  0
LINE
  5
D4
330
47
100
AcDbEntity
  8
0
  6
Continuous
 62
     7
100
AcDbLine
 10
220.2897705121825
 20
785.4085756418559
 30
0.0
 11
221.5397705121825
 21
786.4911073965865
 31
0.0
  0
LINE
  5
D5
330
47
100
AcDbEntity
  8
0
  6
Continuous
 62
     7
100
AcDbLine
 10
220.2897705121825
 20
785.4085756418559
 30
0.0
 11
220.2444209232249
 21
788.0197431519053
 31
0.0
  0
LINE
  5
D6
330
47
100
AcDbEntity
  8
0
  6
Continuous
 62
     7
100
AcDbLine
 10
220.7380567534712
 20
789.3206184351424
 30
0.0
 11
220.255365696417
 21
788.9772682839513
 31
0.0
  0
LINE
  5
D7
330
47
100
AcDbEntity
  8
0
  6
Continuous
 62
     7
100
AcDbLine
 10
220.255365696417
 20
788.9772682839513
 30
0.0
 11
220.2881403989703
 21
790.8454684940158
 31
0.0
  0
LINE
  5
D8
330
47
100
AcDbEntity
  8
0
  6
Continuous
 62
     7
100
AcDbLine
 10
221.5397705121825
 20
792.2068750615638
 30
0.0
 11
220.2881403989703
 21
790.8454684940158
 31
0.0
  0
LINE
  5
D9
330
47
100
AcDbEntity
  8
0
  6
Continuous
 62
     7
100
AcDbLine
 10
218.9684415112006
 20
785.7900104690585
 30
0.0
 11
219.005365696417
 21
787.8947365292207
 31
0.0
  0
LINE
  5
DA
330
47
100
AcDbEntity
  8
0
  6
Continuous
 62
     7
100
AcDbLine
 10
182.6312729371163
 20
800.321099382304
 30
0.0
 11
180.6312729371164
 21
798.5890485747351
 31
0.0
  0
LINE
  5
DB
330
47
100
AcDbEntity
  8
0
  6
Continuous
 62
     7
100
AcDbLine
 10
180.6312729371164
 20
798.5890485747351
 30
0.0
 11
188.0361265316047
 21
800.8319669177887
 31
0.0
  0
LINE
  5
DC
330
47
100
AcDbEntity
  8
0
  6
Continuous
 62
     7
100
AcDbLine
 10
186.4866521272839
 20
795.166695391341
 30
0.0
 11
171.2071404924887
 21
799.5775104690584
 31
0.0
  0
LINE
  5
DD
330
47
100
AcDbEntity
  8
0
  6
Continuous
 62
     7
100
AcDbLine
 10
186.504791962867
 20
796.2006893564039
 30
0.0
 11
188.2880291013936
 21
795.6859131354252
 31
0.0
  0
LINE
  5
DE
330
47
100
AcDbEntity
  8
0
  6
Continuous
 62
     7
100
AcDbLine
 10
186.4866521272839
 20
795.166695391341
 30
0.0
 11
186.504791962867
 21
796.2006893564039
 31
0.0
  0
LINE
  5
DF
330
47
100
AcDbEntity
  8
0
  6
Continuous
 62
     7
100
AcDbLine
 10
188.2698892658106
 20
794.6519191703624
 30
0.0
 11
188.2880291013936
 21
795.6859131354252
 31
0.0
  0
LINE
  5
E0
330
47
100
AcDbEntity
  8
0
  6
Continuous
 62
     7
100
AcDbLine
 10
188.0361265316047
 20
800.8319669177887
 30
0.0
 11
192.799266252419
 21
799.4569669177887
 31
0.0
  0
LINE
  5
E1
330
47
100
AcDbEntity
  8
0
  6
Continuous
 62
     7
100
AcDbLine
 10
194.7119909277779
 20
801.1134350770949
 30
0.0
 11
194.7329464054671
 21
799.0521893525656
 31
0.0
  0
LINE
  5
E2
330
47
100
AcDbEntity
  8
0
  6
Continuous
 62
     7
100
AcDbLine
 10
194.7119909277779
 20
801.1134350770949
 30
0.0
 11
192.799266252419
 21
799.4569669177887
 31
0.0
  0
LINE
  5
E3
330
47
100
AcDbEntity
  8
0
  6
Continuous
 62
     7
100
AcDbLine
 10
220.255365696417
 20
788.9772682839513
 30
0.0
 11
219.005365696417
 21
787.8947365292207
 31
0.0
  0
LINE
  5
E4
330
47
100
AcDbEntity
  8
0
  6
Continuous
 62
     7
100
AcDbLine
 10
235.9986792089856
 20
799.8021154353358
 30
0.0
 11
234.3093975105132
 21
802.9543579988336
 31
0.0
  0
LINE
  5
E5
330
47
100
AcDbEntity
  8
0
  6
Continuous
 62
     7
100
AcDbLine
 10
222.3266700103239
 20
793.437526172729
 30
0.0
 11
221.5766700103239
 21
792.7880071198907
 31
0.0
  0
LINE
  5
E6
330
47
100
AcDbEntity
  8
0
  6
Continuous
 62
     7
100
AcDbLine
 10
220.5904614892795
 20
791.7303616215759
 30
0.0
 11
221.5766700103239
 21
792.7880071198907
 31
0.0
  0
LINE
  5
E7
330
47
100
AcDbEntity
  8
0
  6
Continuous
 62
     7
100
AcDbLine
 10
220.5904614892795
 20
791.383951460062
 30
0.0
 11
220.5904614892795
 21
791.7303616215759
 31
0.0
  0
LINE
  5
E8
330
47
100
AcDbEntity
  8
0
  6
Continuous
 62
     7
100
AcDbLine
 10
220.2444209232249
 20
788.0197431519053
 30
0.0
 11
221.4944209232289
 21
789.1022749066349
 31
0.0
  0
LINE
  5
E9
330
47
100
AcDbEntity
  8
0
  6
Continuous
 62
     7
100
AcDbLine
 10
220.719364954059
 20
791.3145143688223
 30
0.0
 11
220.5904614892795
 21
791.383951460062
 31
0.0
  0
LINE
  5
EA
330
47
100
AcDbEntity
  8
0
  6
Continuous
 62
     7
100
AcDbLine
 10
220.7380567534712
 20
789.3206184351424
 30
0.0
 11
219.4880567534712
 21
788.2380866804118
 31
0.0
  0
LINE
  5
EB
330
47
100
AcDbEntity
  8
0
  6
Continuous
 62
     7
100
AcDbLine
 10
219.4880567534712
 20
788.2380866804118
 30
0.0
 11
220.2444209232249
 21
788.0197431519053
 31
0.0
  0
LINE
  5
EC
330
47
100
AcDbEntity
  8
0
  6
Continuous
 62
     7
100
AcDbLine
 10
219.4880567534712
 20
788.2380866804118
 30
0.0
 11
219.005365696417
 21
787.8947365292207
 31
0.0
  0
LINE
  5
ED
330
47
100
AcDbEntity
  8
0
  6
Continuous
 62
     7
100
AcDbLine
 10
258.4436554671482
 20
776.1265485747351
 30
0.0
 11
258.4436554671481
 21
773.5284723633819
 31
0.0
  0
LINE
  5
EE
330
47
100
AcDbEntity
  8
0
  6
Continuous
 62
     7
100
AcDbLine
 10
260.4436554671127
 20
777.858599382314
 30
0.0
 11
260.4066276828383
 21
775.2284561690925
 31
0.0
  0
LINE
  5
EF
330
47
100
AcDbEntity
  8
0
  6
Continuous
 62
     7
100
AcDbLine
 10
258.4436554671482
 20
776.1265485747351
 30
0.0
 11
254.3455792557948
 21
775.5775104690584
 31
0.0
  0
LINE
  5
F0
330
47
100
AcDbEntity
  8
0
  6
Continuous
 62
     7
100
AcDbLine
 10
260.4436554671127
 20
777.858599382314
 30
0.0
 11
258.4436554671482
 21
776.1265485747351
 31
0.0
  0
LINE
  5
F1
330
47
100
AcDbEntity
  8
0
  6
Continuous
 62
     7
100
AcDbLine
 10
268.8658756468488
 20
781.5020146080527
 30
0.0
 11
261.8441852729727
 21
775.4210523667673
 31
0.0
  0
LINE
  5
F2
330
47
100
AcDbEntity
  8
0
  6
Continuous
 62
     7
100
AcDbLine
 10
261.73377118651
 20
783.8068434625966
 30
0.0
 11
261.8441852729727
 21
775.4210523667673
 31
0.0
  0
LINE
  5
F3
330
47
100
AcDbEntity
  8
0
  6
Continuous
 62
     7
100
AcDbLine
 10
261.73377118651
 20
783.8068434625966
 30
0.0
 11
262.8099117752259
 21
784.738808550468
 31
0.0
  0
LINE
  5
F4
330
47
100
AcDbEntity
  8
0
  6
Continuous
 62
     7
100
AcDbLine
 10
262.8099117752259
 20
784.738808550468
 30
0.0
 11
262.9096808709326
 21
778.9942400283591
 31
0.0
  0
LINE
  5
F5
330
47
100
AcDbEntity
  8
0
  6
Continuous
 62
     7
100
AcDbLine
 10
267.7096808709326
 20
783.1511619665245
 30
0.0
 11
262.9096808709326
 21
778.9942400283591
 31
0.0
  0
LINE
  5
F6
330
47
100
AcDbEntity
  8
0
  6
Continuous
 62
     7
100
AcDbLine
 10
261.73377118651
 20
783.8068434625966
 30
0.0
 11
260.4599314688283
 21
783.6361813007768
 31
0.0
  0
LINE
  5
F7
330
47
100
AcDbEntity
  8
0
  6
Continuous
 62
     7
100
AcDbLine
 10
218.9684415112006
 20
785.7900104690585
 30
0.0
 11
188.2698892658106
 21
794.6519191703624
 31
0.0
  0
LINE
  5
F8
330
47
100
AcDbEntity
  8
0
  6
Continuous
 62
     7
100
AcDbLine
 10
188.2698892658106
 20
794.6519191703624
 30
0.0
 11
191.0314506264293
 21
797.0435014627723
 31
0.0
  0
LINE
  5
F9
330
47
100
AcDbEntity
  8
0
  6
Continuous
 62
     7
100
AcDbLine
 10
188.2880291013936
 20
795.6859131354252
 30
0.0
 11
189.7985021403506
 21
796.9940211588934
 31
0.0
  0
LINE
  5
FA
330
47
100
AcDbEntity
  8
0
  6
Continuous
 62
     7
100
AcDbLine
 10
190.1680254177021
 20
796.887348977068
 30
0.0
 11
189.7985021403506
 21
796.9940211588934
 31
0.0
  0
LINE
  5
FB
330
47
100
AcDbEntity
  8
0
  6
Continuous
 62
     7
100
AcDbLine
 10
187.1047919628723
 20
796.720304598673
 30
0.0
 11
180.6312729371164
 21
798.5890485747351
 31
0.0
  0
LINE
  5
FC
330
47
100
AcDbEntity
  8
0
  6
Continuous
 62
     7
100
AcDbLine
 10
188.0152650018239
 20
797.508797379872
 30
0.0
 11
189.7985021403506
 21
796.9940211588934
 31
0.0
  0
LINE
  5
FD
330
47
100
AcDbEntity
  8
0
  6
Continuous
 62
     7
100
AcDbLine
 10
192.7783107747298
 20
797.3594252412049
 30
0.0
 11
190.1680254177021
 21
796.887348977068
 31
0.0
  0
LINE
  5
FE
330
47
100
AcDbEntity
  8
0
  6
Continuous
 62
     7
100
AcDbLine
 10
188.0152650018239
 20
797.508797379872
 30
0.0
 11
186.504791962867
 21
796.2006893564039
 31
0.0
  0
LINE
  5
FF
330
47
100
AcDbEntity
  8
0
  6
Continuous
 62
     7
100
AcDbLine
 10
194.7329464054671
 20
799.0521893525656
 30
0.0
 11
192.7783107747298
 21
797.3594252412049
 31
0.0
  0
LINE
  5
100
330
47
100
AcDbEntity
  8
0
  6
Continuous
 62
     7
100
AcDbLine
 10
192.799266252419
 20
799.4569669177887
 30
0.0
 11
192.7783107747298
 21
797.3594252412049
 31
0.0
  0
LINE
  5
101
330
47
100
AcDbEntity
  8
0
  6
Continuous
 62
     7
100
AcDbLine
 10
199.4631603448291
 20
799.6479414710226
 30
0.0
 11
200.2131603448291
 21
800.2974605238609
 31
0.0
  0
LINE
  5
102
330
47
100
AcDbEntity
  8
0
  6
Continuous
 62
     7
100
AcDbLine
 10
199.4631603448291
 20
799.6479414710226
 30
0.0
 11
199.4631603448291
 21
800.4273643344286
 31
0.0
  0
LINE
  5
103
330
47
100
AcDbEntity
  8
0
  6
Continuous
 62
     7
100
AcDbLine
 10
197.7311095372602
 20
800.1479414710226
 30
0.0
 11
199.4631603448291
 21
799.6479414710226
 31
0.0
  0
LINE
  5
104
330
47
100
AcDbEntity
  8
0
  6
Continuous
 62
     7
100
AcDbLine
 10
197.7311095372602
 20
800.1479414710226
 30
0.0
 11
197.7311095372602
 21
800.3619963453106
 31
0.0
  0
LINE
  5
105
330
47
100
AcDbEntity
  8
0
  6
Continuous
 62
     7
100
AcDbLine
 10
197.7311095372602
 20
800.3619963453106
 30
0.0
 11
198.9435451025584
 21
800.5773643344286
 31
0.0
  0
LINE
  5
106
330
47
100
AcDbEntity
  8
0
  6
Continuous
 62
     7
100
AcDbLine
 10
199.4631603448291
 20
800.4273643344286
 30
0.0
 11
198.9435451025584
 21
800.5773643344286
 31
0.0
  0
LINE
  5
107
330
47
100
AcDbEntity
  8
0
  6
Continuous
 62
     7
100
AcDbLine
 10
260.4066276828383
 20
775.2284561690925
 30
0.0
 11
258.4436554671481
 21
773.5284723633819
 31
0.0
  0
LINE
  5
108
330
47
100
AcDbEntity
  8
0
  6
Continuous
 62
     7
100
AcDbLine
 10
254.3455792557948
 20
772.9794342577052
 30
0.0
 11
254.3455792557948
 21
775.5775104690584
 31
0.0
  0
LINE
  5
109
330
47
100
AcDbEntity
  8
0
  6
Continuous
 62
     7
100
AcDbLine
 10
261.8441852729727
 20
775.4210523667673
 30
0.0
 11
260.4066276828383
 21
775.2284561690925
 31
0.0
  0
LINE
  5
10A
330
47
100
AcDbEntity
  8
0
  6
Continuous
 62
     7
100
AcDbLine
 10
258.4436554671481
 20
773.5284723633819
 30
0.0
 11
254.3455792557948
 21
772.9794342577052
 31
0.0
  0
LINE
  5
10B
330
47
100
AcDbEntity
  8
0
  6
Continuous
 62
     7
100
AcDbLine
 10
168.6449626659977
 20
804.358599382304
 30
0.0
 11
176.6449626659977
 21
811.2868026125795
 31
0.0
  0
LINE
  5
10C
330
47
100
AcDbEntity
  8
0
  6
Continuous
 62
     7
100
AcDbLine
 10
182.6312729371163
 20
800.321099382304
 30
0.0
 11
189.9488512069636
 21
802.4884350770948
 31
0.0
  0
LINE
  5
10D
330
47
100
AcDbEntity
  8
0
  6
Continuous
 62
     7
100
AcDbLine
 10
168.6449626659977
 20
804.358599382304
 30
0.0
 11
171.2071404924887
 21
799.5775104690584
 31
0.0
  0
LINE
  5
10E
330
47
100
AcDbEntity
  8
0
  6
Continuous
 62
     7
100
AcDbLine
 10
171.2071404924887
 20
799.5775104690584
 30
0.0
 11
171.2071404924887
 21
796.9794342577052
 31
0.0
  0
LINE
  5
10F
330
47
100
AcDbEntity
  8
0
  6
Continuous
 62
     7
100
AcDbLine
 10
168.6449626659977
 20
804.358599382304
 30
0.0
 11
168.6449626659977
 21
801.7605231709507
 31
0.0
  0
LINE
  5
110
330
47
100
AcDbEntity
  8
0
  6
Continuous
 62
     7
100
AcDbLine
 10
168.6449626659977
 20
801.7605231709507
 30
0.0
 11
171.2071404924887
 21
796.9794342577052
 31
0.0
  0
LINE
  5
111
330
47
100
AcDbEntity
  8
0
  6
Continuous
 62
     7
100
AcDbLine
 10
188.0361265316047
 20
800.8319669177887
 30
0.0
 11
189.9488512069636
 21
802.4884350770948
 31
0.0
  0
LINE
  5
112
330
47
100
AcDbEntity
  8
0
  6
Continuous
 62
     7
100
AcDbLine
 10
186.2071404924888
 20
812.5678915258251
 30
0.0
 11
176.6449626659977
 21
811.2868026125795
 31
0.0
  0
LINE
  5
113
330
47
100
AcDbEntity
  8
0
  6
Continuous
 62
     7
100
AcDbLine
 10
186.2071404924888
 20
812.5678915258251
 30
0.0
 11
195.5927662841601
 21
809.8584947371578
 31
0.0
  0
SPLINE
  5
114
330
47
100
AcDbEntity
  8
0
  6
Continuous
 62
     7
100
AcDbSpline
210
0.0
220
0.0
230
1.0
 70
     8
 71
     3
 72
    11
 73
     7
 74
     5
 42
0.000000001
 43
0.0000000001
 44
0.00000001
 40
0.0
 40
0.0
 40
0.0
 40
0.0
 40
0.7422948250071154
 40
1.836033414778985
 40
3.027318361432509
 40
3.784915756441825
 40
3.784915756441825
 40
3.784915756441825
 40
3.784915756441825
 10
191.0642542917102
 20
802.1664459414782
 30
0.0
 10
191.2374100318185
 20
802.3544258677626
 30
0.0
 10
191.6657031069037
 20
802.8193858828332
 30
0.0
 10
192.7182575373503
 20
802.8832356306282
 30
0.0
 10
193.8290703646562
 20
802.8254922789109
 30
0.0
 10
194.1994654845486
 20
802.2564192168627
 30
0.0
 10
194.3434507636074
 20
802.0352009974417
 30
0.0
 11
191.0642542917102
 21
802.1664459414782
 31
0.0
 11
191.6180578210558
 21
802.6607163701381
 31
0.0
 11
192.6934507636074
 21
802.8602009974418
 31
0.0
 11
193.8599481516951
 21
802.6184496914855
 31
0.0
 11
194.3434507636074
 21
802.0352009974417
 31
0.0
  0
SPLINE
  5
115
330
47
100
AcDbEntity
  8
0
  6
Continuous
 62
     7
100
AcDbSpline
210
0.0
220
0.0
230
1.0
 70
     8
 71
     3
 72
     9
 73
     5
 74
     3
 42
0.000000001
 43
0.0000000001
 44
0.00000001
 40
0.0
 40
0.0
 40
0.0
 40
0.0
 40
0.2208035530712495
 40
0.4791859358122067
 40
0.4791859358122067
 40
0.4791859358122067
 40
0.4791859358122067
 10
194.3434507636074
 20
802.0352009974417
 30
0.0
 10
194.3312099459497
 20
801.9606858356111
 30
0.0
 10
194.3046450125465
 20
801.7989736910483
 30
0.0
 10
194.186238692477
 20
801.6844522342685
 30
0.0
 10
194.1223926798517
 20
801.6227009974417
 30
0.0
 11
194.3434507636074
 21
802.0352009974417
 31
0.0
 11
194.287227952074
 21
801.8216753421594
 31
0.0
 11
194.1223926798517
 21
801.6227009974417
 31
0.0
  0
SPLINE
  5
116
330
47
100
AcDbEntity
  8
0
  6
Continuous
 62
     7
100
AcDbSpline
210
0.0
220
0.0
230
1.0
 70
     8
 71
     3
 72
     9
 73
     5
 74
     3
 42
0.000000001
 43
0.0000000001
 44
0.00000001
 40
0.0
 40
0.0
 40
0.0
 40
0.0
 40
0.2142391546757723
 40
0.4504173865226061
 40
0.4504173865226061
 40
0.4504173865226061
 40
0.4504173865226061
 10
194.1223926798517
 20
801.6227009974417
 30
0.0
 10
194.0654930612136
 20
801.5790952402692
 30
0.0
 10
193.9458670297451
 20
801.4874183120351
 30
0.0
 10
193.8076914069767
 20
801.4270523615586
 30
0.0
 10
193.7352384389164
 20
801.3953992332828
 30
0.0
 11
194.1223926798517
 21
801.6227009974417
 31
0.0
 11
193.9474971783726
 21
801.4989674963001
 31
0.0
 11
193.7352384389164
 21
801.3953992332828
 31
0.0
  0
SPLINE
  5
117
330
47
100
AcDbEntity
  8
0
  6
Continuous
 62
     7
100
AcDbSpline
210
0.0
220
0.0
230
1.0
 70
     8
 71
     3
 72
    11
 73
     7
 74
     5
 42
0.000000001
 43
0.0000000001
 44
0.00000001
 40
0.0
 40
0.0
 40
0.0
 40
0.0
 40
0.7575973960314262
 40
1.948882349662767
 40
3.140167303294109
 40
3.897764699325553
 40
3.897764699325553
 40
3.897764699325553
 40
3.897764699325553
 10
213.9464905940268
 20
800.6198153144717
 30
0.0
 10
214.090921102926
 20
800.8411996811894
 30
0.0
 10
214.4624615561027
 20
801.4107001498753
 30
0.0
 10
215.5964905940269
 20
801.4656687609015
 30
0.0
 10
216.7305196319509
 20
801.4107001498754
 30
0.0
 10
217.1020600851276
 20
800.8411996811898
 30
0.0
 10
217.2464905940268
 20
800.6198153144717
 30
0.0
 11
213.9464905940268
 21
800.6198153144717
 31
0.0
 11
214.4299932059392
 21
801.2030640085155
 31
0.0
 11
215.5964905940268
 21
801.4448153144717
 31
0.0
 11
216.7629879821144
 21
801.2030640085155
 31
0.0
 11
217.2464905940268
 21
800.6198153144717
 31
0.0
  0
SPLINE
  5
118
330
47
100
AcDbEntity
  8
0
  6
Continuous
 62
     7
100
AcDbSpline
210
0.0
220
0.0
230
1.0
 70
     8
 71
     3
 72
     9
 73
     5
 74
     3
 42
0.000000001
 43
0.0000000001
 44
0.00000001
 40
0.0
 40
0.0
 40
0.0
 40
0.0
 40
0.2208035530712495
 40
0.4791859358121373
 40
0.4791859358121373
 40
0.4791859358121373
 40
0.4791859358121373
 10
217.2464905940268
 20
800.6198153144717
 30
0.0
 10
217.2342497763691
 20
800.545300152641
 30
0.0
 10
217.2076848429658
 20
800.3835880080782
 30
0.0
 10
217.0892785228964
 20
800.2690665512987
 30
0.0
 10
217.0254325102711
 20
800.2073153144718
 30
0.0
 11
217.2464905940268
 21
800.6198153144717
 31
0.0
 11
217.1902677824934
 21
800.4062896591894
 31
0.0
 11
217.0254325102711
 21
800.2073153144718
 31
0.0
  0
SPLINE
  5
119
330
47
100
AcDbEntity
  8
0
  6
Continuous
 62
     7
100
AcDbSpline
210
0.0
220
0.0
230
1.0
 70
     8
 71
     3
 72
    11
 73
     7
 74
     5
 42
0.000000001
 43
0.0000000001
 44
0.00000001
 40
0.0
 40
0.0
 40
0.0
 40
0.0
 40
0.7575973960314444
 40
1.948882349662813
 40
3.140167303294155
 40
3.897764699325635
 40
3.897764699325635
 40
3.897764699325635
 40
3.897764699325635
 10
229.2966447414761
 20
785.3055549256812
 30
0.0
 10
229.1522142325769
 20
785.0841705589636
 30
0.0
 10
228.7806737794001
 20
784.5146700902775
 30
0.0
 10
227.6466447414762
 20
784.4597014792517
 30
0.0
 10
226.512615703552
 20
784.5146700902777
 30
0.0
 10
226.1410752503752
 20
785.0841705589634
 30
0.0
 10
225.996644741476
 20
785.3055549256812
 30
0.0
 11
229.2966447414761
 21
785.3055549256812
 31
0.0
 11
228.8131421295637
 21
784.7223062316374
 31
0.0
 11
227.6466447414761
 21
784.4805549256812
 31
0.0
 11
226.4801473533884
 21
784.7223062316374
 31
0.0
 11
225.996644741476
 21
785.3055549256812
 31
0.0
  0
SPLINE
  5
11A
330
47
100
AcDbEntity
  8
0
  6
Continuous
 62
     7
100
AcDbSpline
210
0.0
220
0.0
230
1.0
 70
     8
 71
     3
 72
     9
 73
     5
 74
     3
 42
0.000000001
 43
0.0000000001
 44
0.00000001
 40
0.0
 40
0.0
 40
0.0
 40
0.0
 40
0.2208035530713595
 40
0.4791859358122473
 40
0.4791859358122473
 40
0.4791859358122473
 40
0.4791859358122473
 10
249.3793306436559
 20
778.5555549256812
 30
0.0
 10
249.3915714613136
 20
778.630070087512
 30
0.0
 10
249.4181363947167
 20
778.7917822320746
 30
0.0
 10
249.5365427147862
 20
778.9063036888545
 30
0.0
 10
249.6003887274116
 20
778.9680549256813
 30
0.0
 11
249.3793306436559
 21
778.5555549256812
 31
0.0
 11
249.4355534551893
 21
778.7690805809636
 31
0.0
 11
249.6003887274116
 21
778.9680549256813
 31
0.0
  0
SPLINE
  5
11B
330
47
100
AcDbEntity
  8
0
  6
Continuous
 62
     7
100
AcDbSpline
210
0.0
220
0.0
230
1.0
 70
     8
 71
     3
 72
    11
 73
     7
 74
     5
 42
0.000000001
 43
0.0000000001
 44
0.00000001
 40
0.0
 40
0.0
 40
0.0
 40
0.0
 40
0.8708332475847131
 40
1.929840910188246
 40
2.859671341042604
 40
3.466727387429093
 40
3.466727387429093
 40
3.466727387429093
 40
3.466727387429093
 10
249.6003887274116
 20
778.9680549256813
 30
0.0
 10
249.8616405560147
 20
779.1068350783954
 30
0.0
 10
250.4405969427207
 20
779.4143837440773
 30
0.0
 10
251.3989312914522
 20
779.3847964704921
 30
0.0
 10
252.334058007423
 20
779.2151551470477
 30
0.0
 10
252.5815669066046
 20
778.7423203381692
 30
0.0
 10
252.6793306436559
 20
778.5555549256812
 30
0.0
 11
249.6003887274116
 21
778.9680549256813
 31
0.0
 11
250.3979443080577
 21
779.3177056529303
 31
0.0
 11
251.4563820680751
 21
779.3524437323697
 31
0.0
 11
252.3382779771354
 21
779.0577502330922
 31
0.0
 11
252.6793306436559
 21
778.5555549256812
 31
0.0
  0
SPLINE
  5
11C
330
47
100
AcDbEntity
  8
0
  6
Continuous
 62
     7
100
AcDbSpline
210
0.0
220
0.0
230
1.0
 70
     8
 71
     3
 72
    11
 73
     7
 74
     5
 42
0.000000001
 43
0.0000000001
 44
0.00000001
 40
0.0
 40
0.0
 40
0.0
 40
0.0
 40
0.7575973960314262
 40
1.948882349662795
 40
3.140167303294164
 40
3.89776469932559
 40
3.89776469932559
 40
3.89776469932559
 40
3.89776469932559
 10
252.6793306436559
 20
778.5555549256812
 30
0.0
 10
252.5349001347567
 20
778.3341705589636
 30
0.0
 10
252.16335968158
 20
777.7646700902774
 30
0.0
 10
251.029330643656
 20
777.709701479252
 30
0.0
 10
249.8953016057318
 20
777.7646700902776
 30
0.0
 10
249.5237611525551
 20
778.3341705589636
 30
0.0
 10
249.3793306436559
 20
778.5555549256812
 30
0.0
 11
252.6793306436559
 21
778.5555549256812
 31
0.0
 11
252.1958280317435
 21
777.9723062316374
 31
0.0
 11
251.0293306436559
 21
777.7305549256812
 31
0.0
 11
249.8628332555683
 21
777.9723062316374
 31
0.0
 11
249.3793306436559
 21
778.5555549256812
 31
0.0
  0
SPLINE
  5
11D
330
47
100
AcDbEntity
  8
0
  6
Continuous
 62
     7
100
AcDbSpline
210
0.0
220
0.0
230
1.0
 70
     8
 71
     3
 72
     9
 73
     5
 74
     3
 42
0.000000001
 43
0.0000000001
 44
0.00000001
 40
0.0
 40
0.0
 40
0.0
 40
0.0
 40
0.5480838445937793
 40
1.016455020191202
 40
1.016455020191202
 40
1.016455020191202
 40
1.016455020191202
 10
248.5520893077037
 20
791.5393661220406
 30
0.0
 10
248.4166583712348
 20
791.4083786494058
 30
0.0
 10
248.1654934304709
 20
791.1654543575833
 30
0.0
 10
248.1091435918723
 20
790.8224285873454
 30
0.0
 10
248.0831782209493
 20
790.6643661220406
 30
0.0
 11
248.5520893077037
 21
791.5393661220406
 31
0.0
 11
248.2024387302624
 21
791.1172993302152
 31
0.0
 11
248.0831782209493
 21
790.6643661220406
 31
0.0
  0
SPLINE
  5
11E
330
47
100
AcDbEntity
  8
0
  6
Continuous
 62
     7
100
AcDbSpline
210
0.0
220
0.0
230
1.0
 70
     8
 71
     3
 72
    13
 73
     9
 74
     7
 42
0.000000001
 43
0.0000000001
 44
0.00000001
 40
0.0
 40
0.0
 40
0.0
 40
0.0
 40
0.9927361449745822
 40
2.424997386870119
 40
4.190629106904879
 40
5.956260826939639
 40
7.388522068835176
 40
8.381258213809758
 40
8.381258213809758
 40
8.381258213809758
 40
8.381258213809758
 10
248.0831782209493
 20
790.6643661220406
 30
0.0
 10
248.2104610025541
 20
790.3455824160033
 30
0.0
 10
248.5213799016239
 20
789.5668763659471
 30
0.0
 10
249.9569620765306
 20
789.0602056119354
 30
0.0
 10
251.5831782209493
 20
788.8338911895303
 30
0.0
 10
253.209394365368
 20
789.0602056119355
 30
0.0
 10
254.6449765402747
 20
789.5668763659467
 30
0.0
 10
254.9558954393445
 20
790.3455824160031
 30
0.0
 10
255.0831782209493
 20
790.6643661220406
 30
0.0
 11
248.0831782209493
 21
790.6643661220406
 31
0.0
 11
248.552141183036
 21
789.7893810971591
 31
0.0
 11
249.8331782209493
 21
789.1488216654178
 31
0.0
 11
251.5831782209493
 21
788.9143960722777
 31
0.0
 11
253.3331782209493
 21
789.1488216654178
 31
0.0
 11
254.6142152588626
 21
789.7893810971591
 31
0.0
 11
255.0831782209493
 21
790.6643661220406
 31
0.0
  0
SPLINE
  5
11F
330
47
100
AcDbEntity
  8
0
  6
Continuous
 62
     7
100
AcDbSpline
210
0.0
220
0.0
230
1.0
 70
     8
 71
     3
 72
    11
 73
     7
 74
     5
 42
0.000000001
 43
0.0000000001
 44
0.00000001
 40
0.0
 40
0.0
 40
0.0
 40
0.0
 40
1.287694648164628
 40
3.260062242505741
 40
5.506442131045635
 40
7.353664165059487
 40
7.353664165059487
 40
7.353664165059487
 40
7.353664165059487
 10
255.0831782209493
 20
790.6643661220406
 30
0.0
 10
254.8758005962065
 20
791.0605351801611
 30
0.0
 10
254.3507817316579
 20
792.0635181269338
 30
0.0
 10
252.3671795855369
 20
792.4233633283238
 30
0.0
 10
250.3343491491976
 20
792.4861242359775
 30
0.0
 10
249.1062598513303
 20
791.833748263155
 30
0.0
 10
248.5520893077037
 20
791.5393661220406
 30
0.0
 11
255.0831782209493
 21
790.6643661220406
 31
0.0
 11
254.3597331707543
 21
791.7296288953366
 31
0.0
 11
252.4890448788081
 21
792.3547363180464
 31
0.0
 11
250.2438738727106
 21
792.281049482872
 31
0.0
 11
248.5520893077037
 21
791.5393661220406
 31
0.0
  0
SPLINE
  5
120
330
47
100
AcDbEntity
  8
0
  6
Continuous
 62
     7
100
AcDbSpline
210
0.0
220
0.0
230
1.0
 70
     8
 71
     3
 72
    11
 73
     7
 74
     5
 42
0.000000001
 43
0.0000000001
 44
0.00000001
 40
0.0
 40
0.0
 40
0.0
 40
0.0
 40
1.135048969414947
 40
2.270097930211278
 40
3.190837291790529
 40
3.829024808860615
 40
3.829024808860615
 40
3.829024808860615
 40
3.829024808860615
 10
238.8101365400485
 20
793.0525875427832
 30
0.0
 10
239.1859788208578
 20
792.9808555965285
 30
0.0
 10
239.93766337914
 20
792.8373917135768
 30
0.0
 10
240.9800202932101
 20
792.9983474434962
 30
0.0
 10
241.9035154839547
 20
793.3209335041637
 30
0.0
 10
242.1033351400552
 20
793.8218165390173
 30
0.0
 10
242.1851365400485
 20
794.0268661220406
 30
0.0
 11
238.8101365400485
 21
793.0525875427832
 31
0.0
 11
239.9351365400486
 21
792.9018853757643
 31
0.0
 11
241.0601365400486
 21
793.0525875427832
 31
0.0
 11
241.8836603501356
 21
793.4643757489025
 31
0.0
 11
242.1851365400485
 21
794.0268661220406
 31
0.0
  0
SPLINE
  5
121
330
47
100
AcDbEntity
  8
0
  6
Continuous
 62
     7
100
AcDbSpline
210
0.0
220
0.0
230
1.0
 70
     8
 71
     3
 72
     9
 73
     5
 74
     3
 42
0.000000001
 43
0.0000000001
 44
0.00000001
 40
0.0
 40
0.0
 40
0.0
 40
0.0
 40
0.6381875187539493
 40
1.558926888448119
 40
1.558926888448119
 40
1.558926888448119
 40
1.558926888448119
 10
242.1851365400485
 20
794.0268661220406
 30
0.0
 10
242.1030206085903
 20
794.2332671976852
 30
0.0
 10
241.9024326309722
 20
794.7374515797078
 30
0.0
 10
241.3728944283802
 20
794.9032312727212
 30
0.0
 10
241.0601365400485
 20
795.0011447012981
 30
0.0
 11
242.1851365400485
 21
794.0268661220406
 31
0.0
 11
241.8836603501356
 21
794.5893564951787
 31
0.0
 11
241.0601365400485
 21
795.0011447012981
 31
0.0
  0
SPLINE
  5
122
330
47
100
AcDbEntity
  8
0
  6
Continuous
 62
     7
100
AcDbSpline
210
0.0
220
0.0
230
1.0
 70
     8
 71
     3
 72
     9
 73
     5
 74
     3
 42
0.000000001
 43
0.0000000001
 44
0.00000001
 40
0.0
 40
0.0
 40
0.0
 40
0.0
 40
0.3326277420294103
 40
0.7079980143201308
 40
0.7079980143201308
 40
0.7079980143201308
 40
0.7079980143201308
 10
241.7078331971519
 20
793.3340457990131
 30
0.0
 10
241.6112625110069
 20
793.3891808581245
 30
0.0
 10
241.4057118358541
 20
793.5065357911706
 30
0.0
 10
241.179873011283
 20
793.5777482518794
 30
0.0
 10
241.0601365400485
 20
793.615504055243
 30
0.0
 11
241.7078331971519
 21
793.3340457990131
 31
0.0
 11
241.4136430190026
 21
793.4892661402114
 31
0.0
 11
241.0601365400485
 21
793.615504055243
 31
0.0
  0
SPLINE
  5
123
330
47
100
AcDbEntity
  8
0
  6
Continuous
 62
     7
100
AcDbSpline
210
0.0
220
0.0
230
1.0
 70
     8
 71
     3
 72
    13
 73
     9
 74
     7
 42
0.000000001
 43
0.0000000001
 44
0.00000001
 40
0.0
 40
0.0
 40
0.0
 40
0.0
 40
0.7552705456971192
 40
1.695642939335616
 40
3.461274656744969
 40
5.22690637415442
 40
6.167278767792924
 40
6.922549313489995
 40
6.922549313489995
 40
6.922549313489995
 40
6.922549313489995
 10
254.7971792423478
 20
789.971545799013
 30
0.0
 10
254.6069547921576
 20
790.139383621203
 30
0.0
 10
254.1798856359423
 20
790.5161929733199
 30
0.0
 10
253.0740772726566
 20
790.9118492398783
 30
0.0
 10
251.5831782209493
 20
791.1049361908192
 30
0.0
 10
250.0922791692418
 20
790.9118492398784
 30
0.0
 10
248.9864708059564
 20
790.5161929733199
 30
0.0
 10
248.5594016497411
 20
790.1393836212029
 30
0.0
 10
248.3691771995508
 20
789.971545799013
 30
0.0
 11
254.7971792423478
 21
789.971545799013
 31
0.0
 11
254.2037586151493
 21
790.4387561963282
 31
0.0
 11
253.3331782209493
 21
790.7942699326082
 31
0.0
 11
251.5831782209493
 21
791.0286955257485
 31
0.0
 11
249.8331782209493
 21
790.7942699326084
 31
0.0
 11
248.9625978267493
 21
790.4387561963281
 31
0.0
 11
248.3691771995508
 21
789.971545799013
 31
0.0
  0
SPLINE
  5
124
330
47
100
AcDbEntity
  8
0
  6
Continuous
 62
     7
100
AcDbSpline
210
0.0
220
0.0
230
1.0
 70
     8
 71
     3
 72
    11
 73
     7
 74
     5
 42
0.000000001
 43
0.0000000001
 44
0.00000001
 40
0.0
 40
0.0
 40
0.0
 40
0.0
 40
0.8708332475847652
 40
1.929840910188269
 40
2.859671341042628
 40
3.466727387429149
 40
3.466727387429149
 40
3.466727387429149
 40
3.466727387429149
 10
226.2177028252317
 20
785.7180549256813
 30
0.0
 10
226.478954653835
 20
785.8568350783956
 30
0.0
 10
227.0579110405407
 20
786.1643837440772
 30
0.0
 10
228.0162453892722
 20
786.1347964704919
 30
0.0
 10
228.9513721052432
 20
785.9651551470477
 30
0.0
 10
229.1988810044248
 20
785.4923203381692
 30
0.0
 10
229.2966447414761
 20
785.3055549256812
 30
0.0
 11
226.2177028252317
 21
785.7180549256813
 31
0.0
 11
227.0152584058778
 21
786.0677056529303
 31
0.0
 11
228.0736961658952
 21
786.1024437323697
 31
0.0
 11
228.9555920749556
 21
785.8077502330922
 31
0.0
 11
229.2966447414761
 21
785.3055549256812
 31
0.0
  0
SPLINE
  5
125
330
47
100
AcDbEntity
  8
0
  6
Continuous
 62
     7
100
AcDbSpline
210
0.0
220
0.0
230
1.0
 70
     8
 71
     3
 72
     9
 73
     5
 74
     3
 42
0.000000001
 43
0.0000000001
 44
0.00000001
 40
0.0
 40
0.0
 40
0.0
 40
0.0
 40
0.2208035530713667
 40
0.4791859358122364
 40
0.4791859358122364
 40
0.4791859358122364
 40
0.4791859358122364
 10
225.996644741476
 20
785.3055549256812
 30
0.0
 10
226.0088855591337
 20
785.3800700875122
 30
0.0
 10
226.035450492537
 20
785.5417822320751
 30
0.0
 10
226.1538568126064
 20
785.6563036888545
 30
0.0
 10
226.2177028252317
 20
785.7180549256813
 30
0.0
 11
225.996644741476
 21
785.3055549256812
 31
0.0
 11
226.0528675530094
 21
785.5190805809636
 31
0.0
 11
226.2177028252317
 21
785.7180549256813
 31
0.0
  0
SPLINE
  5
126
330
47
100
AcDbEntity
  8
0
  6
Continuous
 62
     7
100
AcDbSpline
210
0.0
220
0.0
230
1.0
 70
     8
 71
     3
 72
    11
 73
     7
 74
     5
 42
0.000000001
 43
0.0000000001
 44
0.00000001
 40
0.0
 40
0.0
 40
0.0
 40
0.0
 40
0.7575973960314444
 40
1.948882349662786
 40
3.140167303294127
 40
3.897764699325553
 40
3.897764699325553
 40
3.897764699325553
 40
3.897764699325553
 10
178.6341586200864
 20
799.9305549256812
 30
0.0
 10
178.4897281111872
 20
799.7091705589635
 30
0.0
 10
178.1181876580104
 20
799.1396700902775
 30
0.0
 10
176.9841586200864
 20
799.0847014792516
 30
0.0
 10
175.8501295821623
 20
799.1396700902774
 30
0.0
 10
175.4785891289856
 20
799.7091705589636
 30
0.0
 10
175.3341586200864
 20
799.9305549256812
 30
0.0
 11
178.6341586200864
 21
799.9305549256812
 31
0.0
 11
178.150656008174
 21
799.3473062316374
 31
0.0
 11
176.9841586200864
 21
799.1055549256812
 31
0.0
 11
175.8176612319988
 21
799.3473062316374
 31
0.0
 11
175.3341586200864
 21
799.9305549256812
 31
0.0
  0
SPLINE
  5
127
330
47
100
AcDbEntity
  8
0
  6
Continuous
 62
     7
100
AcDbSpline
210
0.0
220
0.0
230
1.0
 70
     8
 71
     3
 72
    11
 73
     7
 74
     5
 42
0.000000001
 43
0.0000000001
 44
0.00000001
 40
0.0
 40
0.0
 40
0.0
 40
0.0
 40
0.8708332475847391
 40
1.929840910188215
 40
2.8596713410426
 40
3.466727387429089
 40
3.466727387429089
 40
3.466727387429089
 40
3.466727387429089
 10
175.5552167038421
 20
800.3430549256813
 30
0.0
 10
175.8164685324453
 20
800.4818350783953
 30
0.0
 10
176.3954249191511
 20
800.7893837440772
 30
0.0
 10
177.3537592678827
 20
800.7597964704921
 30
0.0
 10
178.2888859838534
 20
800.5901551470478
 30
0.0
 10
178.5363948830351
 20
800.1173203381692
 30
0.0
 10
178.6341586200864
 20
799.9305549256812
 30
0.0
 11
175.5552167038421
 21
800.3430549256813
 31
0.0
 11
176.3527722844882
 21
800.6927056529303
 31
0.0
 11
177.4112100445055
 21
800.7274437323697
 31
0.0
 11
178.2931059535659
 21
800.4327502330922
 31
0.0
 11
178.6341586200864
 21
799.9305549256812
 31
0.0
  0
SPLINE
  5
128
330
47
100
AcDbEntity
  8
0
  6
Continuous
 62
     7
100
AcDbSpline
210
0.0
220
0.0
230
1.0
 70
     8
 71
     3
 72
    11
 73
     7
 74
     5
 42
0.000000001
 43
0.0000000001
 44
0.00000001
 40
0.0
 40
0.0
 40
0.0
 40
0.0
 40
0.8708332475847652
 40
1.929840910188269
 40
2.859671341042564
 40
3.466727387429132
 40
3.466727387429132
 40
3.466727387429132
 40
3.466727387429132
 10
208.0254325102711
 20
792.4130866804118
 30
0.0
 10
207.7641806816679
 20
792.2743065276977
 30
0.0
 10
207.1852242949621
 20
791.966757862016
 30
0.0
 10
206.2268899462306
 20
791.9963451356009
 30
0.0
 10
205.2917632302597
 20
792.1659864590455
 30
0.0
 10
205.044254331078
 20
792.6388212679235
 30
0.0
 10
204.9464905940268
 20
792.8255866804118
 30
0.0
 11
208.0254325102711
 21
792.4130866804118
 31
0.0
 11
207.227876929625
 21
792.0634359531628
 31
0.0
 11
206.1694391696076
 21
792.0286978737233
 31
0.0
 11
205.2875432605472
 21
792.3233913730007
 31
0.0
 11
204.9464905940268
 21
792.8255866804118
 31
0.0
  0
SPLINE
  5
129
330
47
100
AcDbEntity
  8
0
  6
Continuous
 62
     7
100
AcDbSpline
210
0.0
220
0.0
230
1.0
 70
     8
 71
     3
 72
    11
 73
     7
 74
     5
 42
0.000000001
 43
0.0000000001
 44
0.00000001
 40
0.0
 40
0.0
 40
0.0
 40
0.0
 40
0.7575973960313387
 40
1.948882349662675
 40
3.140167303293989
 40
3.897764699325415
 40
3.897764699325415
 40
3.897764699325415
 40
3.897764699325415
 10
204.9464905940268
 20
792.8255866804118
 30
0.0
 10
205.0909211029261
 20
793.0469710471298
 30
0.0
 10
205.4624615561027
 20
793.6164715158152
 30
0.0
 10
206.5964905940268
 20
793.6714401268417
 30
0.0
 10
207.7305196319506
 20
793.6164715158151
 30
0.0
 10
208.1020600851275
 20
793.0469710471298
 30
0.0
 10
208.2464905940267
 20
792.8255866804118
 30
0.0
 11
204.9464905940268
 21
792.8255866804118
 31
0.0
 11
205.4299932059392
 21
793.4088353744555
 31
0.0
 11
206.5964905940268
 21
793.6505866804118
 31
0.0
 11
207.7629879821143
 21
793.4088353744556
 31
0.0
 11
208.2464905940267
 21
792.8255866804118
 31
0.0
  0
SPLINE
  5
12A
330
47
100
AcDbEntity
  8
0
  6
Continuous
 62
     7
100
AcDbSpline
210
0.0
220
0.0
230
1.0
 70
     8
 71
     3
 72
     9
 73
     5
 74
     3
 42
0.000000001
 43
0.0000000001
 44
0.00000001
 40
0.0
 40
0.0
 40
0.0
 40
0.0
 40
0.2208035530713522
 40
0.4791859358122038
 40
0.4791859358122038
 40
0.4791859358122038
 40
0.4791859358122038
 10
208.2464905940267
 20
792.8255866804118
 30
0.0
 10
208.234249776369
 20
792.751071518581
 30
0.0
 10
208.2076848429659
 20
792.589359374018
 30
0.0
 10
208.0892785228964
 20
792.4748379172387
 30
0.0
 10
208.0254325102711
 20
792.4130866804118
 30
0.0
 11
208.2464905940267
 21
792.8255866804118
 31
0.0
 11
208.1902677824934
 21
792.6120610251294
 31
0.0
 11
208.0254325102711
 21
792.4130866804118
 31
0.0
  0
SPLINE
  5
12B
330
47
100
AcDbEntity
  8
0
  6
Continuous
 62
     7
100
AcDbSpline
210
0.0
220
0.0
230
1.0
 70
     8
 71
     3
 72
    11
 73
     7
 74
     5
 42
0.000000001
 43
0.0000000001
 44
0.00000001
 40
0.0
 40
0.0
 40
0.0
 40
0.0
 40
0.870833247584811
 40
1.929840910188315
 40
2.859671341042646
 40
3.46672738742912
 40
3.46672738742912
 40
3.46672738742912
 40
3.46672738742912
 10
217.0254325102711
 20
800.2073153144718
 30
0.0
 10
216.7641806816679
 20
800.0685351617575
 30
0.0
 10
216.1852242949621
 20
799.7609864960758
 30
0.0
 10
215.2268899462305
 20
799.7905737696609
 30
0.0
 10
214.2917632302598
 20
799.9602150931056
 30
0.0
 10
214.044254331078
 20
800.4330499019833
 30
0.0
 10
213.9464905940268
 20
800.6198153144717
 30
0.0
 11
217.0254325102711
 21
800.2073153144718
 31
0.0
 11
216.227876929625
 21
799.8576645872226
 31
0.0
 11
215.1694391696076
 21
799.8229265077832
 31
0.0
 11
214.2875432605472
 21
800.1176200070607
 31
0.0
 11
213.9464905940268
 21
800.6198153144717
 31
0.0
  0
SPLINE
  5
12C
330
47
100
AcDbEntity
  8
0
  6
Continuous
 62
     7
100
AcDbSpline
210
0.0
220
0.0
230
1.0
 70
     8
 71
     3
 72
    11
 73
     7
 74
     5
 42
0.000000001
 43
0.0000000001
 44
0.00000001
 40
0.0
 40
0.0
 40
0.0
 40
0.0
 40
0.870833247584811
 40
1.929840910188315
 40
2.859671341042646
 40
3.46672738742912
 40
3.46672738742912
 40
3.46672738742912
 40
3.46672738742912
 10
189.9131005363307
 20
809.4773470692023
 30
0.0
 10
189.6518487077275
 20
809.3385669164882
 30
0.0
 10
189.0728923210217
 20
809.0310182508061
 30
0.0
 10
188.1145579722901
 20
809.0606055243916
 30
0.0
 10
187.1794312563194
 20
809.2302468478362
 30
0.0
 10
186.9319223571376
 20
809.7030816567138
 30
0.0
 10
186.8341586200864
 20
809.8898470692022
 30
0.0
 11
189.9131005363307
 21
809.4773470692023
 31
0.0
 11
189.1155449556846
 21
809.1276963419532
 31
0.0
 11
188.0571071956672
 21
809.0929582625138
 31
0.0
 11
187.1752112866068
 21
809.3876517617913
 31
0.0
 11
186.8341586200864
 21
809.8898470692022
 31
0.0
  0
SPLINE
  5
12D
330
47
100
AcDbEntity
  8
0
  6
Continuous
 62
     7
100
AcDbSpline
210
0.0
220
0.0
230
1.0
 70
     8
 71
     3
 72
     9
 73
     5
 74
     3
 42
0.000000001
 43
0.0000000001
 44
0.00000001
 40
0.0
 40
0.0
 40
0.0
 40
0.0
 40
0.2208035530713522
 40
0.4791859358122401
 40
0.4791859358122401
 40
0.4791859358122401
 40
0.4791859358122401
 10
175.3341586200864
 20
799.9305549256812
 30
0.0
 10
175.3463994377441
 20
800.0050700875122
 30
0.0
 10
175.3729643711474
 20
800.1667822320751
 30
0.0
 10
175.4913706912167
 20
800.2813036888541
 30
0.0
 10
175.5552167038421
 20
800.3430549256813
 30
0.0
 11
175.3341586200864
 21
799.9305549256812
 31
0.0
 11
175.3903814316197
 21
800.1440805809636
 31
0.0
 11
175.5552167038421
 21
800.3430549256813
 31
0.0
  0
SPLINE
  5
12E
330
47
100
AcDbEntity
  8
0
  6
Continuous
 62
     7
100
AcDbSpline
210
0.0
220
0.0
230
1.0
 70
     8
 71
     3
 72
     9
 73
     5
 74
     3
 42
0.000000001
 43
0.0000000001
 44
0.00000001
 40
0.0
 40
0.0
 40
0.0
 40
0.0
 40
0.2208035530712495
 40
0.4791859358121373
 40
0.4791859358121373
 40
0.4791859358121373
 40
0.4791859358121373
 10
190.1341586200864
 20
809.8898470692022
 30
0.0
 10
190.1219178024286
 20
809.8153319073716
 30
0.0
 10
190.0953528690254
 20
809.6536197628084
 30
0.0
 10
189.9769465489561
 20
809.5390983060292
 30
0.0
 10
189.9131005363307
 20
809.4773470692023
 30
0.0
 11
190.1341586200864
 21
809.8898470692022
 31
0.0
 11
190.077935808553
 21
809.6763214139199
 31
0.0
 11
189.9131005363307
 21
809.4773470692023
 31
0.0
  0
SPLINE
  5
12F
330
47
100
AcDbEntity
  8
0
  6
Continuous
 62
     7
100
AcDbSpline
210
0.0
220
0.0
230
1.0
 70
     8
 71
     3
 72
    11
 73
     7
 74
     5
 42
0.000000001
 43
0.0000000001
 44
0.00000001
 40
0.0
 40
0.0
 40
0.0
 40
0.0
 40
0.7575973960314262
 40
1.948882349662767
 40
3.140167303294109
 40
3.897764699325553
 40
3.897764699325553
 40
3.897764699325553
 40
3.897764699325553
 10
186.8341586200864
 20
809.8898470692022
 30
0.0
 10
186.9785891289856
 20
810.11123143592
 30
0.0
 10
187.3501295821623
 20
810.6807319046058
 30
0.0
 10
188.4841586200864
 20
810.7357005156321
 30
0.0
 10
189.6181876580105
 20
810.6807319046058
 30
0.0
 10
189.9897281111872
 20
810.1112314359203
 30
0.0
 10
190.1341586200864
 20
809.8898470692022
 30
0.0
 11
186.8341586200864
 21
809.8898470692022
 31
0.0
 11
187.3176612319988
 21
810.4730957632461
 31
0.0
 11
188.4841586200864
 21
810.7148470692023
 31
0.0
 11
189.650656008174
 21
810.4730957632461
 31
0.0
 11
190.1341586200864
 21
809.8898470692022
 31
0.0
  0
ENDBLK
  5
49
330
47
100
AcDbEntity
  8
0
100
AcDbBlockEnd
  0
BLOCK
  5
4C
330
4A
100
AcDbEntity
  8
0
100
AcDbBlockBegin
  2
Allg1
 70
     0
 10
218.9999978486792
 20
796.00000066239
 30
0.0
  3
Allg1
  1

  0
INSERT
  5
4B
330
4A
100
AcDbEntity
  8
0
100
AcDbBlockReference
  2
2320089_UTA_107_30-select__1
 10
168.6449626659977
 20
772.9794342577052
 30
0.0
  0
MTEXT
  5
131
330
4A
100
AcDbEntity
  8
1
 62
     6
100
AcDbMText
 10
218.999997848679
 20
766.9437269265782
 30
0.0
 40
5.0
 41
0.0
 71
     2
 72
     1
  1
 
  7
CONVERTER_11
 73
     1
 44
1.32052821128451
  0
ENDBLK
  5
4D
330
4A
100
AcDbEntity
  8
0
100
AcDbBlockEnd
  0
BLOCK
  5
4F
330
4E
100
AcDbEntity
  8
0
100
AcDbBlockBegin
  2
2320089_UTA_107_30-select__2
 70
     0
 10
-8.52618656616239
 20
849.1999999044922
 30
0.0
  3
2320089_UTA_107_30-select__2
  1

  0
LINE
  5
132
330
4E
100
AcDbEntity
  8
0
  6
Continuous
 62
     7
100
AcDbLine
 10
7.6238134338376
 20
855.7999999044922
 30
0.0
 11
16.12381343383765
 21
850.7999999044922
 31
0.0
  0
LINE
  5
133
330
4E
100
AcDbEntity
  8
0
  6
Continuous
 62
     7
100
AcDbLine
 10
97.42609461134428
 20
849.1999999044922
 30
0.0
 11
60.07609461130677
 21
849.1999999044922
 31
0.0
  0
LINE
  5
134
330
4E
100
AcDbEntity
  8
0
  6
Continuous
 62
     7
100
AcDbLine
 10
60.12381343383761
 20
855.7999999044922
 30
0.0
 11
60.07609461130677
 21
849.1999999044922
 31
0.0
  0
LINE
  5
135
330
4E
100
AcDbEntity
  8
0
  6
Continuous
 62
     7
100
AcDbLine
 10
55.62381343383761
 20
855.7999999044922
 30
0.0
 11
55.46089118278378
 21
849.1999999044922
 31
0.0
  0
LINE
  5
136
330
4E
100
AcDbEntity
  8
0
  6
Continuous
 62
     7
100
AcDbLine
 10
55.14955274264761
 20
849.1999999044922
 30
0.0
 11
55.07689848984707
 21
849.2999999044922
 31
0.0
  0
LINE
  5
137
330
4E
100
AcDbEntity
  8
0
  6
Continuous
 62
     7
100
AcDbLine
 10
55.07689848984707
 20
849.2999999044922
 30
0.0
 11
53.70429477706975
 21
851.1892268387303
 31
0.0
  0
LINE
  5
138
330
4E
100
AcDbEntity
  8
0
  6
Continuous
 62
     7
100
AcDbLine
 10
55.07689848984707
 20
849.2999999044922
 30
0.0
 11
54.07381343383781
 21
849.2999999044922
 31
0.0
  0
LINE
  5
139
330
4E
100
AcDbEntity
  8
0
  6
Continuous
 62
     7
100
AcDbLine
 10
55.09718754786297
 20
852.7999999044922
 30
0.0
 11
54.22381343383761
 21
852.7999999044922
 31
0.0
  0
LINE
  5
13A
330
4E
100
AcDbEntity
  8
0
  6
Continuous
 62
     7
100
AcDbLine
 10
55.46089118278378
 20
849.1999999044922
 30
0.0
 11
55.14955274264761
 21
849.1999999044922
 31
0.0
  0
LINE
  5
13B
330
4E
100
AcDbEntity
  8
0
  6
Continuous
 62
     7
100
AcDbLine
 10
60.07609461130677
 20
849.1999999044922
 30
0.0
 11
55.46089118278378
 21
849.1999999044922
 31
0.0
  0
LINE
  5
13C
330
4E
100
AcDbEntity
  8
0
  6
Continuous
 62
     7
100
AcDbLine
 10
97.4738134338376
 20
855.7999999044922
 30
0.0
 11
97.42609461134428
 21
849.1999999044922
 31
0.0
  0
LINE
  5
13D
330
4E
100
AcDbEntity
  8
0
  6
Continuous
 62
     7
100
AcDbLine
 10
94.4738134338376
 20
855.7999999044922
 30
0.0
 11
97.4738134338376
 21
855.7999999044922
 31
0.0
  0
LINE
  5
13E
330
4E
100
AcDbEntity
  8
0
  6
Continuous
 62
     7
100
AcDbLine
 10
97.42609461134428
 20
849.1999999044922
 30
0.0
 11
98.35861000531138
 21
849.1999999044922
 31
0.0
  0
LINE
  5
13F
330
4E
100
AcDbEntity
  8
0
  6
Continuous
 62
     7
100
AcDbLine
 10
98.52617862862223
 20
858.7999999044922
 30
0.0
 11
98.35861000531138
 21
849.1999999044922
 31
0.0
  0
LINE
  5
140
330
4E
100
AcDbEntity
  8
0
  6
Continuous
 62
     7
100
AcDbLine
 10
98.4738134338376
 20
850.8999999044921
 30
0.0
 11
98.4738134338376
 21
849.2999999044922
 31
0.0
  0
LINE
  5
141
330
4E
100
AcDbEntity
  8
0
  6
Continuous
 62
     7
100
AcDbLine
 10
98.4738134338376
 20
850.8999999044921
 30
0.0
 11
98.38828361570472
 21
850.8999999044921
 31
0.0
  0
LINE
  5
142
330
4E
100
AcDbEntity
  8
0
  6
Continuous
 62
     7
100
AcDbLine
 10
98.4738134338376
 20
849.2999999044922
 30
0.0
 11
98.36035551181958
 21
849.2999999044922
 31
0.0
  0
LINE
  5
143
330
4E
100
AcDbEntity
  8
0
  6
Continuous
 62
     7
100
AcDbLine
 10
-1.52618656616237
 20
855.7999999044922
 30
0.0
 11
7.6238134338376
 21
855.7999999044922
 31
0.0
  0
LINE
  5
144
330
4E
100
AcDbEntity
  8
0
  6
Continuous
 62
     7
100
AcDbLine
 10
18.62381343383762
 20
854.5999999044923
 30
0.0
 11
18.19712470653611
 21
854.5999999044922
 31
0.0
  0
LINE
  5
145
330
4E
100
AcDbEntity
  8
0
  6
Continuous
 62
     7
100
AcDbLine
 10
16.1238134338376
 20
855.7999999044922
 30
0.0
 11
16.14475951174761
 21
854.5999999044922
 31
0.0
  0
LINE
  5
146
330
4E
100
AcDbEntity
  8
0
  6
Continuous
 62
     7
100
AcDbLine
 10
18.19712470653611
 20
854.5999999044922
 30
0.0
 11
16.14475951174761
 21
854.5999999044922
 31
0.0
  0
LINE
  5
147
330
4E
100
AcDbEntity
  8
0
  6
Continuous
 62
     7
100
AcDbLine
 10
16.12381343383765
 20
850.7999999044922
 30
0.0
 11
21.6238134338376
 21
850.7999999044922
 31
0.0
  0
LINE
  5
148
330
4E
100
AcDbEntity
  8
0
  6
Continuous
 62
     7
100
AcDbLine
 10
97.4738134338376
 20
855.7999999044922
 30
0.0
 11
97.4738134338376
 21
858.7999999044922
 31
0.0
  0
LINE
  5
149
330
4E
100
AcDbEntity
  8
0
  6
Continuous
 62
     7
100
AcDbLine
 10
53.66644981038628
 20
853.3573635279431
 30
0.0
 11
53.67879688836148
 21
852.6499999044921
 31
0.0
  0
LINE
  5
14A
330
4E
100
AcDbEntity
  8
0
  6
Continuous
 62
     7
100
AcDbLine
 10
55.14955274264761
 20
855.7999999044922
 30
0.0
 11
55.09718754786297
 21
852.7999999044922
 31
0.0
  0
LINE
  5
14B
330
4E
100
AcDbEntity
  8
0
  6
Continuous
 62
     7
100
AcDbLine
 10
97.4738134338376
 20
858.7999999044922
 30
0.0
 11
98.52617862862223
 21
858.7999999044922
 31
0.0
  0
LINE
  5
14C
330
4E
100
AcDbEntity
  8
0
  6
Continuous
 62
     7
100
AcDbLine
 10
94.4738134338376
 20
858.7999999044922
 30
0.0
 11
97.4738134338376
 21
858.7999999044922
 31
0.0
  0
LINE
  5
14D
330
4E
100
AcDbEntity
  8
0
  6
Continuous
 62
     7
100
AcDbLine
 10
50.47381343383761
 20
854.1999999044922
 30
0.0
 11
51.61258894404176
 21
852.6499999044921
 31
0.0
  0
LINE
  5
14E
330
4E
100
AcDbEntity
  8
0
  6
Continuous
 62
     7
100
AcDbLine
 10
52.47381343383761
 20
855.0999999044922
 30
0.0
 11
50.47381343383761
 21
854.5999999044923
 31
0.0
  0
LINE
  5
14F
330
4E
100
AcDbEntity
  8
0
  6
Continuous
 62
     7
100
AcDbLine
 10
52.47381343383761
 20
855.7999999044922
 30
0.0
 11
52.47381343383761
 21
855.0999999044922
 31
0.0
  0
LINE
  5
150
330
4E
100
AcDbEntity
  8
0
  6
Continuous
 62
     7
100
AcDbLine
 10
53.6238134338376
 20
855.7999999044922
 30
0.0
 11
53.66644981038628
 21
853.3573635279431
 31
0.0
  0
LINE
  5
151
330
4E
100
AcDbEntity
  8
0
  6
Continuous
 62
     7
100
AcDbLine
 10
50.47381343383761
 20
854.5999999044923
 30
0.0
 11
50.47381343383761
 21
854.1999999044922
 31
0.0
  0
LINE
  5
152
330
4E
100
AcDbEntity
  8
0
  6
Continuous
 62
     7
100
AcDbLine
 10
-1.52618656616237
 20
855.7999999044922
 30
0.0
 11
-8.52618656616239
 21
855.7999999044922
 31
0.0
  0
LINE
  5
153
330
4E
100
AcDbEntity
  8
0
  6
Continuous
 62
     7
100
AcDbLine
 10
-1.52618656616237
 20
855.7999999044922
 30
0.0
 11
-1.52618656616235
 21
858.7999999044922
 31
0.0
  0
LINE
  5
154
330
4E
100
AcDbEntity
  8
0
  6
Continuous
 62
     7
100
AcDbLine
 10
-1.52618656616235
 20
858.7999999044922
 30
0.0
 11
-8.52618656616239
 21
858.7999999044922
 31
0.0
  0
LINE
  5
155
330
4E
100
AcDbEntity
  8
0
  6
Continuous
 62
     7
100
AcDbLine
 10
-8.52618656616239
 20
855.7999999044922
 30
0.0
 11
-8.52618656616239
 21
858.7999999044922
 31
0.0
  0
LINE
  5
156
330
4E
100
AcDbEntity
  8
0
  6
Continuous
 62
     7
100
AcDbLine
 10
21.6238134338376
 20
853.2010769300272
 30
0.0
 11
18.62381343383762
 21
854.5999999044923
 31
0.0
  0
LINE
  5
157
330
4E
100
AcDbEntity
  8
0
  6
Continuous
 62
     7
100
AcDbLine
 10
18.19712470653611
 20
854.5999999044922
 30
0.0
 11
18.17617862862225
 21
855.7999999044922
 31
0.0
  0
LINE
  5
158
330
4E
100
AcDbEntity
  8
0
  6
Continuous
 62
     7
100
AcDbLine
 10
20.8738134338376
 20
855.7999999044922
 30
0.0
 11
20.8738134338376
 21
855.5528306259091
 31
0.0
  0
LINE
  5
159
330
4E
100
AcDbEntity
  8
0
  6
Continuous
 62
     7
100
AcDbLine
 10
18.17617862862225
 20
855.7999999044922
 30
0.0
 11
20.8738134338376
 21
855.7999999044922
 31
0.0
  0
LINE
  5
15A
330
4E
100
AcDbEntity
  8
0
  6
Continuous
 62
     7
100
AcDbLine
 10
54.07381343383781
 20
849.2999999044922
 30
0.0
 11
51.61258894404176
 21
852.6499999044921
 31
0.0
  0
LINE
  5
15B
330
4E
100
AcDbEntity
  8
0
  6
Continuous
 62
     7
100
AcDbLine
 10
54.22381343383761
 20
852.7999999044922
 30
0.0
 11
53.66644981038628
 21
853.3573635279431
 31
0.0
  0
LINE
  5
15C
330
4E
100
AcDbEntity
  8
0
  6
Continuous
 62
     7
100
AcDbLine
 10
53.67879688836148
 20
852.6499999044921
 30
0.0
 11
51.61258894404176
 21
852.6499999044921
 31
0.0
  0
LINE
  5
15D
330
4E
100
AcDbEntity
  8
0
  6
Continuous
 62
     7
100
AcDbLine
 10
53.67879688836148
 20
852.6499999044921
 30
0.0
 11
53.70429477706975
 21
851.1892268387303
 31
0.0
  0
LINE
  5
15E
330
4E
100
AcDbEntity
  8
0
  6
Continuous
 62
     7
100
AcDbLine
 10
-1.52618656616235
 20
858.7999999044922
 30
0.0
 11
94.4738134338376
 21
858.7999999044922
 31
0.0
  0
LINE
  5
15F
330
4E
100
AcDbEntity
  8
0
  6
Continuous
 62
     7
100
AcDbLine
 10
22.8738134338376
 20
855.7999999044922
 30
0.0
 11
52.47381343383761
 21
855.7999999044922
 31
0.0
  0
LINE
  5
160
330
4E
100
AcDbEntity
  8
0
  6
Continuous
 62
     7
100
AcDbLine
 10
52.47381343383761
 20
855.7999999044922
 30
0.0
 11
53.6238134338376
 21
855.7999999044922
 31
0.0
  0
LINE
  5
161
330
4E
100
AcDbEntity
  8
0
  6
Continuous
 62
     7
100
AcDbLine
 10
20.8738134338376
 20
855.7999999044922
 30
0.0
 11
22.8738134338376
 21
855.7999999044922
 31
0.0
  0
LINE
  5
162
330
4E
100
AcDbEntity
  8
0
  6
Continuous
 62
     7
100
AcDbLine
 10
55.62381343383761
 20
855.7999999044922
 30
0.0
 11
60.12381343383761
 21
855.7999999044922
 31
0.0
  0
LINE
  5
163
330
4E
100
AcDbEntity
  8
0
  6
Continuous
 62
     7
100
AcDbLine
 10
60.12381343383761
 20
855.7999999044922
 30
0.0
 11
94.4738134338376
 21
855.7999999044922
 31
0.0
  0
LINE
  5
164
330
4E
100
AcDbEntity
  8
0
  6
Continuous
 62
     7
100
AcDbLine
 10
55.14955274264761
 20
855.7999999044922
 30
0.0
 11
55.62381343383761
 21
855.7999999044922
 31
0.0
  0
LINE
  5
165
330
4E
100
AcDbEntity
  8
0
  6
Continuous
 62
     7
100
AcDbLine
 10
94.4738134338376
 20
855.7999999044922
 30
0.0
 11
94.4738134338376
 21
858.7999999044922
 31
0.0
  0
LINE
  5
166
330
4E
100
AcDbEntity
  8
0
  6
Continuous
 62
     7
100
AcDbLine
 10
7.6238134338376
 20
855.7999999044922
 30
0.0
 11
16.1238134338376
 21
855.7999999044922
 31
0.0
  0
LINE
  5
167
330
4E
100
AcDbEntity
  8
0
  6
Continuous
 62
     7
100
AcDbLine
 10
22.8738134338376
 20
855.7999999044922
 30
0.0
 11
22.8738134338376
 21
854.8999999044921
 31
0.0
  0
LINE
  5
168
330
4E
100
AcDbEntity
  8
0
  6
Continuous
 62
     7
100
AcDbLine
 10
22.27381343383765
 20
854.8999999044921
 30
0.0
 11
22.8738134338376
 21
854.8999999044921
 31
0.0
  0
LINE
  5
169
330
4E
100
AcDbEntity
  8
0
  6
Continuous
 62
     7
100
AcDbLine
 10
20.8738134338376
 20
855.5528306259091
 30
0.0
 11
22.27381343383765
 21
854.8999999044921
 31
0.0
  0
LINE
  5
16A
330
4E
100
AcDbEntity
  8
0
  6
Continuous
 62
     7
100
AcDbLine
 10
21.6238134338376
 20
850.7999999044922
 30
0.0
 11
21.6238134338376
 21
853.2010769300272
 31
0.0
  0
ENDBLK
  5
50
330
4E
100
AcDbEntity
  8
0
100
AcDbBlockEnd
  0
BLOCK
  5
53
330
51
100
AcDbEntity
  8
0
100
AcDbBlockBegin
  2
Drfsicht1
 70
     0
 10
44.99999751586904
 20
853.9999999522458
 30
0.0
  3
Drfsicht1
  1

  0
INSERT
  5
52
330
51
100
AcDbEntity
  8
0
100
AcDbBlockReference
  2
2320089_UTA_107_30-select__2
 10
-8.52618656616239
 20
849.1999999044922
 30
0.0
  0
MTEXT
  5
16B
330
51
100
AcDbEntity
  8
1
 62
     6
100
AcDbMText
 10
44.99999751586904
 20
844.1853999522456
 30
0.0
 40
5.0
 41
0.0
 71
     2
 72
     1
  1
 
  7
CONVERTER_11
 73
     1
 44
1.32052821128451
  0
DIMENSION
  5
178
330
51
100
AcDbEntity
  8
1
100
AcDbDimension
  2
*D16
 10
-18.5261865661624
 20
858.7999999044922
 30
0.0
 11
-21.9511865661624
 21
853.9999999044921
 31
0.0
 70
    32
  1
<>
 71
     5
 42
-1.0
 53
90.0
  3
ME10_DIM_10
100
AcDbAlignedDimension
 13
55.14955274264761
 23
849.1999999044922
 33
0.0
 14
-8.52618656616239
 24
858.7999999044922
 34
0.0
 50
90.0
100
AcDbRotatedDimension
  0
ENDBLK
  5
54
330
51
100
AcDbEntity
  8
0
100
AcDbBlockEnd
  0
BLOCK
  5
56
330
55
100
AcDbEntity
  8
0
100
AcDbBlockBegin
  2
2320089_UTA_107_30-select__3
 70
     0
 10
148.1845805671782
 20
888.8291998001102
 30
0.0
  3
2320089_UTA_107_30-select__3
  1

  0
LINE
  5
179
330
55
100
AcDbEntity
  8
1
  6
DOT_CENTER
 62
     2
100
AcDbLine
 10
243.5869457619628
 20
917.1441998001102
 30
0.0
 11
243.5869457619628
 21
913.5141998001103
 31
0.0
  0
LINE
  5
17A
330
55
100
AcDbEntity
  8
1
  6
DOT_CENTER
 62
     2
100
AcDbLine
 10
245.4019457619628
 20
915.3291998001102
 30
0.0
 11
241.7719457619628
 21
915.3291998001102
 31
0.0
  0
LINE
  5
17B
330
55
100
AcDbEntity
  8
1
  6
DOT_CENTER
 62
     2
100
AcDbLine
 10
158.0869457619628
 20
917.1441998001102
 30
0.0
 11
158.0869457619628
 21
913.5141998001103
 31
0.0
  0
LINE
  5
17C
330
55
100
AcDbEntity
  8
1
  6
DOT_CENTER
 62
     2
100
AcDbLine
 10
159.9019457619627
 20
915.3291998001102
 30
0.0
 11
156.2719457619628
 21
915.3291998001102
 31
0.0
  0
LINE
  5
17D
330
55
100
AcDbEntity
  8
1
  6
DOT_CENTER
 62
     2
100
AcDbLine
 10
185.0869457619628
 20
894.1441998001102
 30
0.0
 11
185.0869457619628
 21
890.5141998001103
 31
0.0
  0
LINE
  5
17E
330
55
100
AcDbEntity
  8
1
  6
DOT_CENTER
 62
     2
100
AcDbLine
 10
186.9019457619627
 20
892.3291998001102
 30
0.0
 11
183.2719457619628
 21
892.3291998001102
 31
0.0
  0
LINE
  5
17F
330
55
100
AcDbEntity
  8
1
  6
DOT_CENTER
 62
     2
100
AcDbLine
 10
210.8369457619628
 20
896.6441998001102
 30
0.0
 11
210.8369457619628
 21
893.0141998001103
 31
0.0
  0
LINE
  5
180
330
55
100
AcDbEntity
  8
1
  6
DOT_CENTER
 62
     2
100
AcDbLine
 10
212.6519457619628
 20
894.8291998001102
 30
0.0
 11
209.0219457619628
 21
894.8291998001102
 31
0.0
  0
LINE
  5
181
330
55
100
AcDbEntity
  8
1
  6
DOT_CENTER
 62
     2
100
AcDbLine
 10
232.0869457619628
 20
905.6441998001102
 30
0.0
 11
232.0869457619628
 21
902.0141998001103
 31
0.0
  0
LINE
  5
182
330
55
100
AcDbEntity
  8
1
  6
DOT_CENTER
 62
     2
100
AcDbLine
 10
233.9019457619628
 20
903.8291998001102
 30
0.0
 11
230.2719457619628
 21
903.8291998001102
 31
0.0
  0
LINE
  5
183
330
55
100
AcDbEntity
  8
1
  6
DOT_CENTER
 62
     2
100
AcDbLine
 10
185.0869457619628
 20
917.1441998001102
 30
0.0
 11
185.0869457619628
 21
913.5141998001103
 31
0.0
  0
LINE
  5
184
330
55
100
AcDbEntity
  8
1
  6
DOT_CENTER
 62
     2
100
AcDbLine
 10
186.9019457619627
 20
915.3291998001102
 30
0.0
 11
183.2719457619628
 21
915.3291998001102
 31
0.0
  0
LINE
  5
185
330
55
100
AcDbEntity
  8
1
  6
DOT_CENTER
 62
     2
100
AcDbLine
 10
210.8369457619628
 20
914.6441998001102
 30
0.0
 11
210.8369457619628
 21
911.0141998001103
 31
0.0
  0
LINE
  5
186
330
55
100
AcDbEntity
  8
1
  6
DOT_CENTER
 62
     2
100
AcDbLine
 10
212.6519457619628
 20
912.8291998001102
 30
0.0
 11
209.0219457619628
 21
912.8291998001102
 31
0.0
  0
LINE
  5
187
330
55
100
AcDbEntity
  8
1
  6
DOT_CENTER
 62
     2
100
AcDbLine
 10
164.0869457619628
 20
905.6441998001102
 30
0.0
 11
164.0869457619628
 21
902.0141998001103
 31
0.0
  0
LINE
  5
188
330
55
100
AcDbEntity
  8
1
  6
DOT_CENTER
 62
     2
100
AcDbLine
 10
165.9019457619628
 20
903.8291998001102
 30
0.0
 11
162.2719457619628
 21
903.8291998001102
 31
0.0
  0
LINE
  5
189
330
55
100
AcDbEntity
  8
1
  6
DOT_CENTER
 62
     2
100
AcDbLine
 10
243.5869457619628
 20
894.1441998001102
 30
0.0
 11
243.5869457619628
 21
890.5141998001103
 31
0.0
  0
LINE
  5
18A
330
55
100
AcDbEntity
  8
1
  6
DOT_CENTER
 62
     2
100
AcDbLine
 10
245.4019457619628
 20
892.3291998001102
 30
0.0
 11
241.7719457619628
 21
892.3291998001102
 31
0.0
  0
LINE
  5
18B
330
55
100
AcDbEntity
  8
1
  6
DOT_CENTER
 62
     2
100
AcDbLine
 10
158.0869457619628
 20
894.1441998001102
 30
0.0
 11
158.0869457619628
 21
890.5141998001103
 31
0.0
  0
LINE
  5
18C
330
55
100
AcDbEntity
  8
1
  6
DOT_CENTER
 62
     2
100
AcDbLine
 10
159.9019457619627
 20
892.3291998001102
 30
0.0
 11
156.2719457619628
 21
892.3291998001102
 31
0.0
  0
LINE
  5
18D
330
55
100
AcDbEntity
  8
0
  6
Continuous
 62
     7
100
AcDbLine
 10
248.2369457619627
 20
918.8291998001102
 30
0.0
 11
255.2369457619628
 21
911.8291998001102
 31
0.0
  0
LINE
  5
18E
330
55
100
AcDbEntity
  8
0
  6
Continuous
 62
     7
100
AcDbLine
 10
149.2369457619628
 20
911.9032553687916
 30
0.0
 11
148.1845805671782
 21
910.8508901740274
 31
0.0
  0
LINE
  5
18F
330
55
100
AcDbEntity
  8
0
  6
Continuous
 62
     7
100
AcDbLine
 10
149.2369457619628
 20
915.8291998001102
 30
0.0
 11
149.2369457619628
 21
911.9032553687916
 31
0.0
  0
LINE
  5
190
330
55
100
AcDbEntity
  8
0
  6
Continuous
 62
     7
100
AcDbLine
 10
248.2369457619627
 20
918.8291998001102
 30
0.0
 11
152.2369457619628
 21
918.8291998001102
 31
0.0
  0
LINE
  5
191
330
55
100
AcDbEntity
  8
0
  6
Continuous
 62
     7
100
AcDbLine
 10
255.2369457619628
 20
895.8291998001102
 30
0.0
 11
248.2369457619628
 21
888.8291998001102
 31
0.0
  0
LINE
  5
192
330
55
100
AcDbEntity
  8
0
  6
Continuous
 62
     7
100
AcDbLine
 10
152.2369457619628
 20
888.8291998001102
 30
0.0
 11
248.2369457619628
 21
888.8291998001102
 31
0.0
  0
LINE
  5
193
330
55
100
AcDbEntity
  8
0
  6
Continuous
 62
     7
100
AcDbLine
 10
152.2369457619628
 20
918.8291998001102
 30
0.0
 11
149.2369457619628
 21
915.8291998001102
 31
0.0
  0
LINE
  5
194
330
55
100
AcDbEntity
  8
0
  6
Continuous
 62
     7
100
AcDbLine
 10
148.1845805671782
 20
896.8075094262751
 30
0.0
 11
149.2369457619628
 21
895.7551442314905
 31
0.0
  0
LINE
  5
195
330
55
100
AcDbEntity
  8
0
  6
Continuous
 62
     7
100
AcDbLine
 10
148.1845805671782
 20
910.8508901740274
 30
0.0
 11
148.1845805671782
 21
896.8075094262751
 31
0.0
  0
LINE
  5
196
330
55
100
AcDbEntity
  8
0
  6
Continuous
 62
     7
100
AcDbLine
 10
255.2369457619628
 20
895.8291998001102
 30
0.0
 11
255.2369457619628
 21
911.8291998001102
 31
0.0
  0
LINE
  5
197
330
55
100
AcDbEntity
  8
0
  6
Continuous
 62
     7
100
AcDbLine
 10
149.2369457619628
 20
891.8291998001102
 30
0.0
 11
152.2369457619628
 21
888.8291998001102
 31
0.0
  0
LINE
  5
198
330
55
100
AcDbEntity
  8
0
  6
Continuous
 62
     7
100
AcDbLine
 10
149.2369457619628
 20
895.7551442314905
 30
0.0
 11
149.2369457619628
 21
891.8291998001102
 31
0.0
  0
CIRCLE
  5
199
330
55
100
AcDbEntity
  8
0
  6
Continuous
 62
     7
100
AcDbCircle
 10
210.8369457619628
 20
912.8291998001102
 30
0.0
 40
1.650000000000006
  0
CIRCLE
  5
19A
330
55
100
AcDbEntity
  8
0
  6
Continuous
 62
     7
100
AcDbCircle
 10
243.5869457619628
 20
915.3291998001102
 30
0.0
 40
1.650000000000006
  0
CIRCLE
  5
19B
330
55
100
AcDbEntity
  8
0
  6
Continuous
 62
     7
100
AcDbCircle
 10
243.5869457619628
 20
892.3291998001102
 30
0.0
 40
1.650000000000006
  0
CIRCLE
  5
19C
330
55
100
AcDbEntity
  8
0
  6
Continuous
 62
     7
100
AcDbCircle
 10
185.0869457619628
 20
915.3291998001102
 30
0.0
 40
1.650000000000006
  0
CIRCLE
  5
19D
330
55
100
AcDbEntity
  8
0
  6
Continuous
 62
     7
100
AcDbCircle
 10
158.0869457619628
 20
915.3291998001102
 30
0.0
 40
1.650000000000006
  0
CIRCLE
  5
19E
330
55
100
AcDbEntity
  8
0
  6
Continuous
 62
     7
100
AcDbCircle
 10
164.0869457619628
 20
903.8291998001102
 30
0.0
 40
1.650000000000006
  0
CIRCLE
  5
19F
330
55
100
AcDbEntity
  8
0
  6
Continuous
 62
     7
100
AcDbCircle
 10
232.0869457619628
 20
903.8291998001102
 30
0.0
 40
1.650000000000006
  0
CIRCLE
  5
1A0
330
55
100
AcDbEntity
  8
0
  6
Continuous
 62
     7
100
AcDbCircle
 10
210.8369457619628
 20
894.8291998001102
 30
0.0
 40
1.650000000000006
  0
CIRCLE
  5
1A1
330
55
100
AcDbEntity
  8
0
  6
Continuous
 62
     7
100
AcDbCircle
 10
185.0869457619628
 20
892.3291998001102
 30
0.0
 40
1.650000000000006
  0
CIRCLE
  5
1A2
330
55
100
AcDbEntity
  8
0
  6
Continuous
 62
     7
100
AcDbCircle
 10
158.0869457619628
 20
892.3291998001102
 30
0.0
 40
1.650000000000006
  0
ENDBLK
  5
57
330
55
100
AcDbEntity
  8
0
100
AcDbBlockEnd
  0
BLOCK
  5
5A
330
58
100
AcDbEntity
  8
0
100
AcDbBlockBegin
  2
Rckans1
 70
     0
 10
201.7107616799314
 20
903.8291998001102
 30
0.0
  3
Rckans1
  1

  0
INSERT
  5
59
330
58
100
AcDbEntity
  8
0
100
AcDbBlockReference
  2
2320089_UTA_107_30-select__3
 10
148.1845805671782
 20
888.8291998001102
 30
0.0
  0
MTEXT
  5
1A3
330
58
100
AcDbEntity
  8
1
 62
     6
100
AcDbMText
 10
201.7107616799314
 20
883.8146000000004
 30
0.0
 40
5.0
 41
0.0
 71
     2
 72
     1
  1
 
  7
CONVERTER_11
 73
     1
 44
1.32052821128451
  0
ENDBLK
  5
5B
330
58
100
AcDbEntity
  8
0
100
AcDbBlockEnd
  0
BLOCK
  5
5D
330
5C
100
AcDbEntity
  8
0
100
AcDbBlockBegin
  2
2320089_UTA_107_30-select__4
 70
     0
 10
118.5553796934043
 20
888.8291998001102
 30
0.0
  3
2320089_UTA_107_30-select__4
  1

  0
LINE
  5
1A4
330
5C
100
AcDbEntity
  8
0
  6
Continuous
 62
     7
100
AcDbLine
 10
121.5553796934043
 20
895.8291998001102
 30
0.0
 11
126.5553796934042
 21
895.7419244754692
 31
0.0
  0
LINE
  5
1A5
330
5C
100
AcDbEntity
  8
0
  6
Continuous
 62
     7
100
AcDbLine
 10
128.1553796934043
 20
908.6291998001102
 30
0.0
 11
128.1553796934043
 21
916.3291998001102
 31
0.0
  0
LINE
  5
1A6
330
5C
100
AcDbEntity
  8
0
  6
Continuous
 62
     7
100
AcDbLine
 10
128.1553796934043
 20
891.3291998001102
 30
0.0
 11
128.1553796934043
 21
899.0291998001103
 31
0.0
  0
LINE
  5
1A7
330
5C
100
AcDbEntity
  8
0
  6
Continuous
 62
     7
100
AcDbLine
 10
128.0553796934042
 20
899.0291998001103
 30
0.0
 11
128.0553796934042
 21
908.6291998001102
 31
0.0
  0
LINE
  5
1A8
330
5C
100
AcDbEntity
  8
0
  6
Continuous
 62
     7
100
AcDbLine
 10
128.0553796934042
 20
908.6291998001102
 30
0.0
 11
128.1553796934043
 21
908.6291998001102
 31
0.0
  0
LINE
  5
1A9
330
5C
100
AcDbEntity
  8
0
  6
Continuous
 62
     7
100
AcDbLine
 10
128.1553796934043
 20
916.3291998001102
 30
0.0
 11
126.1661527591662
 21
916.3291998001102
 31
0.0
  0
LINE
  5
1AA
330
5C
100
AcDbEntity
  8
0
  6
Continuous
 62
     7
100
AcDbLine
 10
122.2553796934043
 20
897.5291998001103
 30
0.0
 11
122.2553796934043
 21
903.0791998001102
 31
0.0
  0
LINE
  5
1AB
330
5C
100
AcDbEntity
  8
0
  6
Continuous
 62
     7
100
AcDbLine
 10
123.1553796934043
 20
910.1291998001102
 30
0.0
 11
123.1553796934043
 21
897.5291998001103
 31
0.0
  0
LINE
  5
1AC
330
5C
100
AcDbEntity
  8
0
  6
Continuous
 62
     7
100
AcDbLine
 10
124.7053796934043
 20
908.6291998001102
 30
0.0
 11
124.7053796934043
 21
910.1291998001102
 31
0.0
  0
LINE
  5
1AD
330
5C
100
AcDbEntity
  8
0
  6
Continuous
 62
     7
100
AcDbLine
 10
123.1553796934043
 20
910.1291998001102
 30
0.0
 11
124.7053796934043
 21
910.1291998001102
 31
0.0
  0
LINE
  5
1AE
330
5C
100
AcDbEntity
  8
0
  6
Continuous
 62
     7
100
AcDbLine
 10
122.7553796934042
 20
910.1291998001102
 30
0.0
 11
122.7553796934042
 21
897.5291998001103
 31
0.0
  0
LINE
  5
1AF
330
5C
100
AcDbEntity
  8
0
  6
Continuous
 62
     7
100
AcDbLine
 10
122.2553796934043
 20
910.1291998001102
 30
0.0
 11
122.7553796934042
 21
910.1291998001102
 31
0.0
  0
LINE
  5
1B0
330
5C
100
AcDbEntity
  8
0
  6
Continuous
 62
     7
100
AcDbLine
 10
122.2553796934043
 20
897.5291998001103
 30
0.0
 11
122.7553796934042
 21
897.5291998001103
 31
0.0
  0
LINE
  5
1B1
330
5C
100
AcDbEntity
  8
0
  6
Continuous
 62
     7
100
AcDbLine
 10
122.7553796934042
 20
910.1291998001102
 30
0.0
 11
123.1553796934043
 21
910.1291998001102
 31
0.0
  0
LINE
  5
1B2
330
5C
100
AcDbEntity
  8
0
  6
Continuous
 62
     7
100
AcDbLine
 10
122.7553796934042
 20
897.5291998001103
 30
0.0
 11
123.1553796934043
 21
897.5291998001103
 31
0.0
  0
LINE
  5
1B3
330
5C
100
AcDbEntity
  8
0
  6
Continuous
 62
     7
100
AcDbLine
 10
122.4553796934043
 20
904.5791998001102
 30
0.0
 11
122.4553796934043
 21
903.0791998001102
 31
0.0
  0
LINE
  5
1B4
330
5C
100
AcDbEntity
  8
0
  6
Continuous
 62
     7
100
AcDbLine
 10
122.2553796934043
 20
904.5791998001102
 30
0.0
 11
122.2553796934043
 21
910.1291998001102
 31
0.0
  0
LINE
  5
1B5
330
5C
100
AcDbEntity
  8
0
  6
Continuous
 62
     7
100
AcDbLine
 10
121.5553796934043
 20
911.8291998001102
 30
0.0
 11
126.5553796934042
 21
911.9164751247513
 31
0.0
  0
LINE
  5
1B6
330
5C
100
AcDbEntity
  8
0
  6
Continuous
 62
     7
100
AcDbLine
 10
128.0553796934042
 20
908.6291998001102
 30
0.0
 11
126.1661527591662
 21
908.6291998001102
 31
0.0
  0
LINE
  5
1B7
330
5C
100
AcDbEntity
  8
0
  6
Continuous
 62
     7
100
AcDbLine
 10
126.1661527591662
 20
908.6291998001102
 30
0.0
 11
124.7053796934043
 21
908.6291998001102
 31
0.0
  0
LINE
  5
1B8
330
5C
100
AcDbEntity
  8
0
  6
Continuous
 62
     7
100
AcDbLine
 10
126.5553796934042
 20
911.9164751247513
 30
0.0
 11
126.5553796934042
 21
915.7419244754692
 31
0.0
  0
LINE
  5
1B9
330
5C
100
AcDbEntity
  8
0
  6
Continuous
 62
     7
100
AcDbLine
 10
121.5553796934043
 20
915.8291998001102
 30
0.0
 11
121.5553796934043
 21
911.8291998001102
 31
0.0
  0
LINE
  5
1BA
330
5C
100
AcDbEntity
  8
0
  6
Continuous
 62
     7
100
AcDbLine
 10
121.5553796934043
 20
918.8291998001102
 30
0.0
 11
121.5553796934043
 21
915.8291998001102
 31
0.0
  0
LINE
  5
1BB
330
5C
100
AcDbEntity
  8
0
  6
Continuous
 62
     7
100
AcDbLine
 10
124.5553796934042
 20
916.3291998001102
 30
0.0
 11
126.1661527591662
 21
916.3291998001102
 31
0.0
  0
LINE
  5
1BC
330
5C
100
AcDbEntity
  8
0
  6
Continuous
 62
     7
100
AcDbLine
 10
122.7553796934043
 20
915.8082537221964
 30
0.0
 11
126.5553796934042
 21
915.7419244754692
 31
0.0
  0
LINE
  5
1BD
330
5C
100
AcDbEntity
  8
0
  6
Continuous
 62
     7
100
AcDbLine
 10
123.9980160699533
 20
916.3291998001102
 30
0.0
 11
124.5553796934042
 21
916.3291998001102
 31
0.0
  0
LINE
  5
1BE
330
5C
100
AcDbEntity
  8
0
  6
Continuous
 62
     7
100
AcDbLine
 10
121.5553796934043
 20
915.8291998001102
 30
0.0
 11
122.7553796934043
 21
915.8082537221964
 31
0.0
  0
LINE
  5
1BF
330
5C
100
AcDbEntity
  8
0
  6
Continuous
 62
     7
100
AcDbLine
 10
122.7553796934043
 20
918.8291998001102
 30
0.0
 11
123.9980160699533
 21
918.8291998001102
 31
0.0
  0
LINE
  5
1C0
330
5C
100
AcDbEntity
  8
0
  6
Continuous
 62
     7
100
AcDbLine
 10
121.5553796934043
 20
918.8291998001102
 30
0.0
 11
122.7553796934043
 21
918.8291998001102
 31
0.0
  0
LINE
  5
1C1
330
5C
100
AcDbEntity
  8
0
  6
Continuous
 62
     7
100
AcDbLine
 10
126.1661527591662
 20
915.7487184568781
 30
0.0
 11
126.1661527591662
 21
916.3291998001102
 31
0.0
  0
LINE
  5
1C2
330
5C
100
AcDbEntity
  8
0
  6
Continuous
 62
     7
100
AcDbLine
 10
126.1661527591662
 20
908.6291998001102
 30
0.0
 11
126.1661527591662
 21
911.9096811433424
 31
0.0
  0
LINE
  5
1C3
330
5C
100
AcDbEntity
  8
0
  6
Continuous
 62
     7
100
AcDbLine
 10
121.5553796934043
 20
910.1291998001102
 30
0.0
 11
122.2553796934043
 21
910.1291998001102
 31
0.0
  0
LINE
  5
1C4
330
5C
100
AcDbEntity
  8
0
  6
Continuous
 62
     7
100
AcDbLine
 10
124.5553796934042
 20
918.8291998001102
 30
0.0
 11
124.5553796934042
 21
916.3291998001102
 31
0.0
  0
LINE
  5
1C5
330
5C
100
AcDbEntity
  8
0
  6
Continuous
 62
     7
100
AcDbLine
 10
123.9980160699533
 20
918.8291998001102
 30
0.0
 11
123.9980160699533
 21
916.3291998001102
 31
0.0
  0
LINE
  5
1C6
330
5C
100
AcDbEntity
  8
0
  6
Continuous
 62
     7
100
AcDbLine
 10
122.7553796934043
 20
918.8291998001102
 30
0.0
 11
122.7553796934043
 21
915.8082537221964
 31
0.0
  0
LINE
  5
1C7
330
5C
100
AcDbEntity
  8
0
  6
Continuous
 62
     7
100
AcDbLine
 10
124.5553796934042
 20
918.8291998001102
 30
0.0
 11
123.9980160699533
 21
918.8291998001102
 31
0.0
  0
LINE
  5
1C8
330
5C
100
AcDbEntity
  8
0
  6
Continuous
 62
     7
100
AcDbLine
 10
118.5553796934043
 20
895.8291998001102
 30
0.0
 11
118.5553796934043
 21
888.8291998001102
 31
0.0
  0
LINE
  5
1C9
330
5C
100
AcDbEntity
  8
0
  6
Continuous
 62
     7
100
AcDbLine
 10
121.5553796934043
 20
895.8291998001102
 30
0.0
 11
121.5553796934043
 21
891.8291998001102
 31
0.0
  0
LINE
  5
1CA
330
5C
100
AcDbEntity
  8
0
  6
Continuous
 62
     7
100
AcDbLine
 10
122.7553796934044
 20
888.8291998001102
 30
0.0
 11
123.9980160699533
 21
888.8291998001102
 31
0.0
  0
LINE
  5
1CB
330
5C
100
AcDbEntity
  8
0
  6
Continuous
 62
     7
100
AcDbLine
 10
121.5553796934043
 20
888.8291998001102
 30
0.0
 11
122.7553796934044
 21
888.8291998001102
 31
0.0
  0
LINE
  5
1CC
330
5C
100
AcDbEntity
  8
0
  6
Continuous
 62
     7
100
AcDbLine
 10
122.7553796934043
 20
891.8501458780241
 30
0.0
 11
122.7553796934044
 21
888.8291998001102
 31
0.0
  0
LINE
  5
1CD
330
5C
100
AcDbEntity
  8
0
  6
Continuous
 62
     7
100
AcDbLine
 10
121.5553796934043
 20
891.8291998001102
 30
0.0
 11
122.7553796934043
 21
891.8501458780241
 31
0.0
  0
LINE
  5
1CE
330
5C
100
AcDbEntity
  8
0
  6
Continuous
 62
     7
100
AcDbLine
 10
121.5553796934043
 20
891.8291998001102
 30
0.0
 11
121.5553796934043
 21
888.8291998001102
 31
0.0
  0
LINE
  5
1CF
330
5C
100
AcDbEntity
  8
0
  6
Continuous
 62
     7
100
AcDbLine
 10
121.5553796934043
 20
888.8291998001102
 30
0.0
 11
118.5553796934043
 21
888.8291998001102
 31
0.0
  0
LINE
  5
1D0
330
5C
100
AcDbEntity
  8
0
  6
Continuous
 62
     7
100
AcDbLine
 10
122.7553796934043
 20
891.8501458780241
 30
0.0
 11
126.5553796934042
 21
891.9164751247513
 31
0.0
  0
LINE
  5
1D1
330
5C
100
AcDbEntity
  8
0
  6
Continuous
 62
     7
100
AcDbLine
 10
128.1553796934043
 20
891.3291998001102
 30
0.0
 11
126.1661527591662
 21
891.3291998001102
 31
0.0
  0
LINE
  5
1D2
330
5C
100
AcDbEntity
  8
0
  6
Continuous
 62
     7
100
AcDbLine
 10
124.5553796934042
 20
891.3291998001102
 30
0.0
 11
126.1661527591662
 21
891.3291998001102
 31
0.0
  0
LINE
  5
1D3
330
5C
100
AcDbEntity
  8
0
  6
Continuous
 62
     7
100
AcDbLine
 10
123.9980160699533
 20
891.3291998001102
 30
0.0
 11
124.5553796934042
 21
891.3291998001102
 31
0.0
  0
LINE
  5
1D4
330
5C
100
AcDbEntity
  8
0
  6
Continuous
 62
     7
100
AcDbLine
 10
124.5553796934042
 20
891.3291998001102
 30
0.0
 11
124.5553796934042
 21
888.8291998001102
 31
0.0
  0
LINE
  5
1D5
330
5C
100
AcDbEntity
  8
0
  6
Continuous
 62
     7
100
AcDbLine
 10
123.9980160699533
 20
891.3291998001102
 30
0.0
 11
123.9980160699533
 21
888.8291998001102
 31
0.0
  0
LINE
  5
1D6
330
5C
100
AcDbEntity
  8
0
  6
Continuous
 62
     7
100
AcDbLine
 10
124.5553796934042
 20
888.8291998001102
 30
0.0
 11
123.9980160699533
 21
888.8291998001102
 31
0.0
  0
LINE
  5
1D7
330
5C
100
AcDbEntity
  8
0
  6
Continuous
 62
     7
100
AcDbLine
 10
121.5553796934043
 20
895.8291998001102
 30
0.0
 11
118.5553796934043
 21
895.8291998001102
 31
0.0
  0
LINE
  5
1D8
330
5C
100
AcDbEntity
  8
0
  6
Continuous
 62
     7
100
AcDbLine
 10
123.1553796934043
 20
897.5291998001103
 30
0.0
 11
124.7053796934043
 21
897.5291998001103
 31
0.0
  0
LINE
  5
1D9
330
5C
100
AcDbEntity
  8
0
  6
Continuous
 62
     7
100
AcDbLine
 10
121.5553796934043
 20
897.5291998001103
 30
0.0
 11
122.2553796934043
 21
897.5291998001103
 31
0.0
  0
LINE
  5
1DA
330
5C
100
AcDbEntity
  8
0
  6
Continuous
 62
     7
100
AcDbLine
 10
121.5553796934043
 20
897.5291998001103
 30
0.0
 11
121.5553796934043
 21
903.0791998001102
 31
0.0
  0
LINE
  5
1DB
330
5C
100
AcDbEntity
  8
0
  6
Continuous
 62
     7
100
AcDbLine
 10
118.5553796934043
 20
895.8291998001102
 30
0.0
 11
118.5553796934043
 21
911.8291998001102
 31
0.0
  0
LINE
  5
1DC
330
5C
100
AcDbEntity
  8
0
  6
Continuous
 62
     7
100
AcDbLine
 10
121.5553796934043
 20
911.8291998001102
 30
0.0
 11
118.5553796934043
 21
911.8291998001102
 31
0.0
  0
LINE
  5
1DD
330
5C
100
AcDbEntity
  8
0
  6
Continuous
 62
     7
100
AcDbLine
 10
121.5553796934043
 20
895.8291998001102
 30
0.0
 11
121.5553796934043
 21
897.5291998001103
 31
0.0
  0
LINE
  5
1DE
330
5C
100
AcDbEntity
  8
0
  6
Continuous
 62
     7
100
AcDbLine
 10
121.5553796934043
 20
904.5791998001102
 30
0.0
 11
121.5553796934043
 21
910.1291998001102
 31
0.0
  0
LINE
  5
1DF
330
5C
100
AcDbEntity
  8
0
  6
Continuous
 62
     7
100
AcDbLine
 10
121.5553796934043
 20
910.1291998001102
 30
0.0
 11
121.5553796934043
 21
911.8291998001102
 31
0.0
  0
LINE
  5
1E0
330
5C
100
AcDbEntity
  8
0
  6
Continuous
 62
     7
100
AcDbLine
 10
121.5553796934043
 20
903.0791998001102
 30
0.0
 11
121.5553796934043
 21
904.5791998001102
 31
0.0
  0
LINE
  5
1E1
330
5C
100
AcDbEntity
  8
0
  6
Continuous
 62
     7
100
AcDbLine
 10
121.5553796934043
 20
918.8291998001102
 30
0.0
 11
118.5553796934043
 21
918.8291998001102
 31
0.0
  0
LINE
  5
1E2
330
5C
100
AcDbEntity
  8
0
  6
Continuous
 62
     7
100
AcDbLine
 10
118.5553796934043
 20
918.8291998001102
 30
0.0
 11
118.5553796934043
 21
911.8291998001102
 31
0.0
  0
LINE
  5
1E3
330
5C
100
AcDbEntity
  8
0
  6
Continuous
 62
     7
100
AcDbLine
 10
126.5553796934042
 20
891.9164751247513
 30
0.0
 11
126.5553796934042
 21
895.7419244754692
 31
0.0
  0
LINE
  5
1E4
330
5C
100
AcDbEntity
  8
0
  6
Continuous
 62
     7
100
AcDbLine
 10
124.7053796934043
 20
899.0291998001103
 30
0.0
 11
124.7053796934043
 21
897.5291998001103
 31
0.0
  0
LINE
  5
1E5
330
5C
100
AcDbEntity
  8
0
  6
Continuous
 62
     7
100
AcDbLine
 10
126.1661527591662
 20
895.7487184568781
 30
0.0
 11
126.1661527591662
 21
899.0291998001103
 31
0.0
  0
LINE
  5
1E6
330
5C
100
AcDbEntity
  8
0
  6
Continuous
 62
     7
100
AcDbLine
 10
126.1661527591662
 20
891.3291998001102
 30
0.0
 11
126.1661527591662
 21
891.9096811433424
 31
0.0
  0
LINE
  5
1E7
330
5C
100
AcDbEntity
  8
0
  6
Continuous
 62
     7
100
AcDbLine
 10
121.5553796934043
 20
904.5791998001102
 30
0.0
 11
121.8025489719873
 21
904.5791998001102
 31
0.0
  0
LINE
  5
1E8
330
5C
100
AcDbEntity
  8
0
  6
Continuous
 62
     7
100
AcDbLine
 10
121.8025489719873
 20
903.0791998001102
 30
0.0
 11
121.8025489719873
 21
904.5791998001102
 31
0.0
  0
LINE
  5
1E9
330
5C
100
AcDbEntity
  8
0
  6
Continuous
 62
     7
100
AcDbLine
 10
121.8025489719873
 20
904.5791998001102
 30
0.0
 11
122.4553796934043
 21
904.5791998001102
 31
0.0
  0
LINE
  5
1EA
330
5C
100
AcDbEntity
  8
0
  6
Continuous
 62
     7
100
AcDbLine
 10
128.0553796934042
 20
899.0291998001103
 30
0.0
 11
128.1553796934043
 21
899.0291998001103
 31
0.0
  0
LINE
  5
1EB
330
5C
100
AcDbEntity
  8
0
  6
Continuous
 62
     7
100
AcDbLine
 10
126.1661527591662
 20
899.0291998001103
 30
0.0
 11
128.0553796934042
 21
899.0291998001103
 31
0.0
  0
LINE
  5
1EC
330
5C
100
AcDbEntity
  8
0
  6
Continuous
 62
     7
100
AcDbLine
 10
124.7053796934043
 20
899.0291998001103
 30
0.0
 11
126.1661527591662
 21
899.0291998001103
 31
0.0
  0
LINE
  5
1ED
330
5C
100
AcDbEntity
  8
0
  6
Continuous
 62
     7
100
AcDbLine
 10
121.8025489719873
 20
903.0791998001102
 30
0.0
 11
122.4553796934043
 21
903.0791998001102
 31
0.0
  0
LINE
  5
1EE
330
5C
100
AcDbEntity
  8
0
  6
Continuous
 62
     7
100
AcDbLine
 10
121.5553796934043
 20
903.0791998001102
 30
0.0
 11
121.8025489719873
 21
903.0791998001102
 31
0.0
  0
ENDBLK
  5
5E
330
5C
100
AcDbEntity
  8
0
100
AcDbBlockEnd
  0
BLOCK
  5
61
330
5F
100
AcDbEntity
  8
0
100
AcDbBlockBegin
  2
SA_Links1
 70
     0
 10
123.3553796456506
 20
903.8291998001102
 30
0.0
  3
SA_Links1
  1

  0
INSERT
  5
60
330
5F
100
AcDbEntity
  8
0
100
AcDbBlockReference
  2
2320089_UTA_107_30-select__4
 10
118.5553796934043
 20
888.8291998001102
 30
0.0
  0
MTEXT
  5
1EF
330
5F
100
AcDbEntity
  8
1
 62
     6
100
AcDbMText
 10
123.3553796456507
 20
883.8146000000004
 30
0.0
 40
5.0
 41
0.0
 71
     2
 72
     1
  1
 
  7
CONVERTER_11
 73
     1
 44
1.32052821128451
  0
ENDBLK
  5
62
330
5F
100
AcDbEntity
  8
0
100
AcDbBlockEnd
  0
BLOCK
  5
64
330
63
100
AcDbEntity
  8
0
100
AcDbBlockBegin
  2
2320089_UTA_107_30-select__5
 70
     0
 10
-48.1553836934082
 20
888.8291998001102
 30
0.0
  3
2320089_UTA_107_30-select__5
  1

  0
LINE
  5
1F0
330
63
100
AcDbEntity
  8
0
  6
Continuous
 62
     7
100
AcDbLine
 10
-41.55538369340789
 20
895.8291998001102
 30
0.0
 11
-48.1553836934082
 21
895.9444032286365
 31
0.0
  0
LINE
  5
1F1
330
63
100
AcDbEntity
  8
0
  6
Continuous
 62
     7
100
AcDbLine
 10
-41.55538369340789
 20
895.8291998001102
 30
0.0
 11
-38.5553836934082
 21
895.7551442314905
 31
0.0
  0
LINE
  5
1F2
330
63
100
AcDbEntity
  8
0
  6
Continuous
 62
     7
100
AcDbLine
 10
-38.5553836934082
 20
910.8508901740274
 30
0.0
 11
-38.5553836934082
 21
896.8075094262751
 31
0.0
  0
LINE
  5
1F3
330
63
100
AcDbEntity
  8
0
  6
Continuous
 62
     7
100
AcDbLine
 10
-41.5553836934082
 20
908.6291998001102
 30
0.0
 11
-41.5553836934082
 21
907.7147296182585
 31
0.0
  0
LINE
  5
1F4
330
63
100
AcDbEntity
  8
0
  6
Continuous
 62
     7
100
AcDbLine
 10
-41.5553836934082
 20
907.7147296182585
 30
0.0
 11
-41.5553836934082
 21
899.943669981962
 31
0.0
  0
LINE
  5
1F5
330
63
100
AcDbEntity
  8
0
  6
Continuous
 62
     7
100
AcDbLine
 10
-38.5553836934082
 20
896.8075094262751
 30
0.0
 11
-38.5553836934082
 21
895.7551442314905
 31
0.0
  0
LINE
  5
1F6
330
63
100
AcDbEntity
  8
0
  6
Continuous
 62
     7
100
AcDbLine
 10
-38.5553836934082
 20
891.8291998001102
 30
0.0
 11
-38.5553836934082
 21
888.8291998001102
 31
0.0
  0
LINE
  5
1F7
330
63
100
AcDbEntity
  8
0
  6
Continuous
 62
     7
100
AcDbLine
 10
-41.5553836934082
 20
891.8291998001102
 30
0.0
 11
-38.5553836934082
 21
891.8291998001102
 31
0.0
  0
LINE
  5
1F8
330
63
100
AcDbEntity
  8
0
  6
Continuous
 62
     7
100
AcDbLine
 10
-38.5553836934082
 20
888.8291998001102
 30
0.0
 11
-41.5553836934082
 21
888.8291998001102
 31
0.0
  0
LINE
  5
1F9
330
63
100
AcDbEntity
  8
0
  6
Continuous
 62
     7
100
AcDbLine
 10
-38.5553836934082
 20
895.7551442314905
 30
0.0
 11
-38.5553836934082
 21
891.8291998001102
 31
0.0
  0
LINE
  5
1FA
330
63
100
AcDbEntity
  8
0
  6
Continuous
 62
     7
100
AcDbLine
 10
-48.0553836934082
 20
907.6291998001102
 30
0.0
 11
-48.0553836934082
 21
908.6291998001102
 31
0.0
  0
LINE
  5
1FB
330
63
100
AcDbEntity
  8
0
  6
Continuous
 62
     7
100
AcDbLine
 10
-48.1553836934082
 20
911.7139963715834
 30
0.0
 11
-48.1553836934082
 21
916.3291998001064
 31
0.0
  0
LINE
  5
1FC
330
63
100
AcDbEntity
  8
0
  6
Continuous
 62
     7
100
AcDbLine
 10
-48.1553836934082
 20
891.3291998001121
 30
0.0
 11
-48.1553836934082
 21
895.9444032286365
 31
0.0
  0
LINE
  5
1FD
330
63
100
AcDbEntity
  8
0
  6
Continuous
 62
     7
100
AcDbLine
 10
-48.1553836934082
 20
908.6291998001102
 30
0.0
 11
-48.1553836934082
 21
910.7814809776238
 31
0.0
  0
LINE
  5
1FE
330
63
100
AcDbEntity
  8
0
  6
Continuous
 62
     7
100
AcDbLine
 10
-48.1553836934082
 20
896.8769186226787
 30
0.0
 11
-48.1553836934082
 21
895.9444032286365
 31
0.0
  0
LINE
  5
1FF
330
63
100
AcDbEntity
  8
0
  6
Continuous
 62
     7
100
AcDbLine
 10
-48.1553836934082
 20
911.7139963715834
 30
0.0
 11
-48.1553836934082
 21
910.7814809776238
 31
0.0
  0
LINE
  5
200
330
63
100
AcDbEntity
  8
0
  6
Continuous
 62
     7
100
AcDbLine
 10
-48.0553836934082
 20
900.0291998001103
 30
0.0
 11
-48.0553836934082
 21
899.0291998001103
 31
0.0
  0
LINE
  5
201
330
63
100
AcDbEntity
  8
0
  6
Continuous
 62
     7
100
AcDbLine
 10
-46.45538369340819
 20
900.0291998001103
 30
0.0
 11
-46.45538369340819
 21
899.0291998001103
 31
0.0
  0
LINE
  5
202
330
63
100
AcDbEntity
  8
0
  6
Continuous
 62
     7
100
AcDbLine
 10
-44.5553836934082
 20
891.3291998001102
 30
0.0
 11
-48.1553836934082
 21
891.3291998001121
 31
0.0
  0
LINE
  5
203
330
63
100
AcDbEntity
  8
0
  6
Continuous
 62
     7
100
AcDbLine
 10
-48.1553836934082
 20
896.8769186226787
 30
0.0
 11
-48.1553836934082
 21
899.0291998001103
 31
0.0
  0
LINE
  5
204
330
63
100
AcDbEntity
  8
0
  6
Continuous
 62
     7
100
AcDbLine
 10
-44.5553836934081
 20
888.8291998001102
 30
0.0
 11
-44.5553836934082
 21
891.3291998001102
 31
0.0
  0
LINE
  5
205
330
63
100
AcDbEntity
  8
0
  6
Continuous
 62
     7
100
AcDbLine
 10
-46.45538369340819
 20
900.0291998001103
 30
0.0
 11
-41.5553836934082
 21
899.943669981962
 31
0.0
  0
LINE
  5
206
330
63
100
AcDbEntity
  8
0
  6
Continuous
 62
     7
100
AcDbLine
 10
-46.45538369340819
 20
908.6291998001102
 30
0.0
 11
-41.5553836934082
 21
908.6291998001102
 31
0.0
  0
LINE
  5
207
330
63
100
AcDbEntity
  8
0
  6
Continuous
 62
     7
100
AcDbLine
 10
-48.0553836934082
 20
908.6291998001102
 30
0.0
 11
-46.45538369340819
 21
908.6291998001102
 31
0.0
  0
LINE
  5
208
330
63
100
AcDbEntity
  8
0
  6
Continuous
 62
     7
100
AcDbLine
 10
-48.1553836934082
 20
908.6291998001102
 30
0.0
 11
-48.0553836934082
 21
908.6291998001102
 31
0.0
  0
LINE
  5
209
330
63
100
AcDbEntity
  8
0
  6
Continuous
 62
     7
100
AcDbLine
 10
-46.45538369340819
 20
907.6291998001102
 30
0.0
 11
-41.5553836934082
 21
907.7147296182585
 31
0.0
  0
LINE
  5
20A
330
63
100
AcDbEntity
  8
0
  6
Continuous
 62
     7
100
AcDbLine
 10
-46.45538369340819
 20
907.6291998001102
 30
0.0
 11
-48.0553836934082
 21
907.6291998001102
 31
0.0
  0
LINE
  5
20B
330
63
100
AcDbEntity
  8
0
  6
Continuous
 62
     7
100
AcDbLine
 10
-46.45538369340819
 20
900.0291998001103
 30
0.0
 11
-46.45538369340819
 21
907.6291998001102
 31
0.0
  0
LINE
  5
20C
330
63
100
AcDbEntity
  8
0
  6
Continuous
 62
     7
100
AcDbLine
 10
-46.45538369340819
 20
907.6291998001102
 30
0.0
 11
-46.45538369340819
 21
908.6291998001102
 31
0.0
  0
LINE
  5
20D
330
63
100
AcDbEntity
  8
0
  6
Continuous
 62
     7
100
AcDbLine
 10
-48.0553836934082
 20
900.0291998001103
 30
0.0
 11
-48.0553836934082
 21
907.6291998001102
 31
0.0
  0
LINE
  5
20E
330
63
100
AcDbEntity
  8
0
  6
Continuous
 62
     7
100
AcDbLine
 10
-46.45538369340819
 20
900.0291998001103
 30
0.0
 11
-48.0553836934082
 21
900.0291998001103
 31
0.0
  0
LINE
  5
20F
330
63
100
AcDbEntity
  8
0
  6
Continuous
 62
     7
100
AcDbLine
 10
-48.1553836934082
 20
896.8769186226787
 30
0.0
 11
-38.5553836934082
 21
896.8075094262751
 31
0.0
  0
LINE
  5
210
330
63
100
AcDbEntity
  8
0
  6
Continuous
 62
     7
100
AcDbLine
 10
-46.45538369340819
 20
899.0291998001103
 30
0.0
 11
-41.5553836934082
 21
899.0291998001103
 31
0.0
  0
LINE
  5
211
330
63
100
AcDbEntity
  8
0
  6
Continuous
 62
     7
100
AcDbLine
 10
-48.1553836934082
 20
899.0291998001103
 30
0.0
 11
-48.0553836934082
 21
899.0291998001103
 31
0.0
  0
LINE
  5
212
330
63
100
AcDbEntity
  8
0
  6
Continuous
 62
     7
100
AcDbLine
 10
-48.0553836934082
 20
899.0291998001103
 30
0.0
 11
-46.45538369340819
 21
899.0291998001103
 31
0.0
  0
LINE
  5
213
330
63
100
AcDbEntity
  8
0
  6
Continuous
 62
     7
100
AcDbLine
 10
-41.5553836934082
 20
891.3291998001102
 30
0.0
 11
-44.5553836934082
 21
891.3291998001102
 31
0.0
  0
LINE
  5
214
330
63
100
AcDbEntity
  8
0
  6
Continuous
 62
     7
100
AcDbLine
 10
-41.55538369340789
 20
895.8291998001102
 30
0.0
 11
-41.5553836934082
 21
891.8291998001102
 31
0.0
  0
LINE
  5
215
330
63
100
AcDbEntity
  8
0
  6
Continuous
 62
     7
100
AcDbLine
 10
-41.5553836934082
 20
891.8291998001102
 30
0.0
 11
-41.5553836934082
 21
891.3291998001102
 31
0.0
  0
LINE
  5
216
330
63
100
AcDbEntity
  8
0
  6
Continuous
 62
     7
100
AcDbLine
 10
-38.5553836934082
 20
910.8508901740274
 30
0.0
 11
-48.1553836934082
 21
910.7814809776238
 31
0.0
  0
LINE
  5
217
330
63
100
AcDbEntity
  8
0
  6
Continuous
 62
     7
100
AcDbLine
 10
-41.5553836934082
 20
891.3291998001102
 30
0.0
 11
-41.5553836934082
 21
888.8291998001102
 31
0.0
  0
LINE
  5
218
330
63
100
AcDbEntity
  8
0
  6
Continuous
 62
     7
100
AcDbLine
 10
-41.5553836934082
 20
899.943669981962
 30
0.0
 11
-41.5553836934082
 21
899.0291998001103
 31
0.0
  0
LINE
  5
219
330
63
100
AcDbEntity
  8
0
  6
Continuous
 62
     7
100
AcDbLine
 10
-41.5553836934082
 20
888.8291998001102
 30
0.0
 11
-44.5553836934081
 21
888.8291998001102
 31
0.0
  0
LINE
  5
21A
330
63
100
AcDbEntity
  8
0
  6
Continuous
 62
     7
100
AcDbLine
 10
-38.5553836934082
 20
915.8291998001102
 30
0.0
 11
-38.5553836934082
 21
911.9032553687916
 31
0.0
  0
LINE
  5
21B
330
63
100
AcDbEntity
  8
0
  6
Continuous
 62
     7
100
AcDbLine
 10
-41.5553836934082
 20
915.8291998001102
 30
0.0
 11
-41.5553836934082
 21
911.8291998001102
 31
0.0
  0
LINE
  5
21C
330
63
100
AcDbEntity
  8
0
  6
Continuous
 62
     7
100
AcDbLine
 10
-41.5553836934082
 20
915.8291998001102
 30
0.0
 11
-38.5553836934082
 21
915.8291998001102
 31
0.0
  0
LINE
  5
21D
330
63
100
AcDbEntity
  8
0
  6
Continuous
 62
     7
100
AcDbLine
 10
-38.5553836934082
 20
918.8291998001102
 30
0.0
 11
-38.5553836934082
 21
915.8291998001102
 31
0.0
  0
LINE
  5
21E
330
63
100
AcDbEntity
  8
0
  6
Continuous
 62
     7
100
AcDbLine
 10
-41.5553836934082
 20
918.8291998001102
 30
0.0
 11
-38.5553836934082
 21
918.8291998001102
 31
0.0
  0
LINE
  5
21F
330
63
100
AcDbEntity
  8
0
  6
Continuous
 62
     7
100
AcDbLine
 10
-44.5553836934082
 20
916.3291998001102
 30
0.0
 11
-48.1553836934082
 21
916.3291998001064
 31
0.0
  0
LINE
  5
220
330
63
100
AcDbEntity
  8
0
  6
Continuous
 62
     7
100
AcDbLine
 10
-41.5553836934082
 20
916.3291998001102
 30
0.0
 11
-41.5553836934082
 21
915.8291998001102
 31
0.0
  0
LINE
  5
221
330
63
100
AcDbEntity
  8
0
  6
Continuous
 62
     7
100
AcDbLine
 10
-41.5553836934082
 20
918.8291998001102
 30
0.0
 11
-41.5553836934082
 21
916.3291998001102
 31
0.0
  0
LINE
  5
222
330
63
100
AcDbEntity
  8
0
  6
Continuous
 62
     7
100
AcDbLine
 10
-41.5553836934082
 20
918.8291998001102
 30
0.0
 11
-44.5553836934081
 21
918.8291998001102
 31
0.0
  0
LINE
  5
223
330
63
100
AcDbEntity
  8
0
  6
Continuous
 62
     7
100
AcDbLine
 10
-44.5553836934082
 20
916.3291998001102
 30
0.0
 11
-44.5553836934081
 21
918.8291998001102
 31
0.0
  0
LINE
  5
224
330
63
100
AcDbEntity
  8
0
  6
Continuous
 62
     7
100
AcDbLine
 10
-41.5553836934082
 20
916.3291998001102
 30
0.0
 11
-44.5553836934082
 21
916.3291998001102
 31
0.0
  0
LINE
  5
225
330
63
100
AcDbEntity
  8
0
  6
Continuous
 62
     7
100
AcDbLine
 10
-41.5553836934082
 20
911.8291998001102
 30
0.0
 11
-38.5553836934082
 21
911.9032553687916
 31
0.0
  0
LINE
  5
226
330
63
100
AcDbEntity
  8
0
  6
Continuous
 62
     7
100
AcDbLine
 10
-38.5553836934082
 20
911.9032553687916
 30
0.0
 11
-38.5553836934082
 21
910.8508901740274
 31
0.0
  0
LINE
  5
227
330
63
100
AcDbEntity
  8
0
  6
Continuous
 62
     7
100
AcDbLine
 10
-41.5553836934082
 20
911.8291998001102
 30
0.0
 11
-48.1553836934082
 21
911.7139963715834
 31
0.0
  0
ENDBLK
  5
65
330
63
100
AcDbEntity
  8
0
100
AcDbBlockEnd
  0
BLOCK
  5
68
330
66
100
AcDbEntity
  8
0
100
AcDbBlockBegin
  2
SA_Rechts1
 70
     0
 10
-43.35538364565448
 20
903.8291998001102
 30
0.0
  3
SA_Rechts1
  1

  0
INSERT
  5
67
330
66
100
AcDbEntity
  8
0
100
AcDbBlockReference
  2
2320089_UTA_107_30-select__5
 10
-48.1553836934082
 20
888.8291998001102
 30
0.0
  0
MTEXT
  5
228
330
66
100
AcDbEntity
  8
1
 62
     6
100
AcDbMText
 10
-43.35538364565491
 20
883.8146000000004
 30
0.0
 40
5.0
 41
0.0
 71
     2
 72
     1
  1
 
  7
CONVERTER_11
 73
     1
 44
1.32052821128451
  0
ENDBLK
  5
69
330
66
100
AcDbEntity
  8
0
100
AcDbBlockEnd
  0
BLOCK
  5
6B
330
6A
100
AcDbEntity
  8
0
100
AcDbBlockBegin
  2
2320089_UTA_107_30-select__6
 70
     0
 10
-8.52618656616214
 20
888.8291998001102
 30
0.0
  3
2320089_UTA_107_30-select__6
  1

  0
LINE
  5
229
330
6A
100
AcDbEntity
  8
1
  6
DOT_CENTER
 62
     2
100
AcDbLine
 10
3.12381343383785
 20
917.1441998001102
 30
0.0
 11
3.12381343383785
 21
913.5141998001103
 31
0.0
  0
LINE
  5
22A
330
6A
100
AcDbEntity
  8
1
  6
DOT_CENTER
 62
     2
100
AcDbLine
 10
4.93881343383786
 20
915.3291998001102
 30
0.0
 11
1.30881343383785
 21
915.3291998001102
 31
0.0
  0
LINE
  5
22B
330
6A
100
AcDbEntity
  8
1
  6
DOT_CENTER
 62
     2
100
AcDbLine
 10
88.62381343383782
 20
894.1441998001102
 30
0.0
 11
88.62381343383782
 21
890.5141998001103
 31
0.0
  0
LINE
  5
22C
330
6A
100
AcDbEntity
  8
1
  6
DOT_CENTER
 62
     2
100
AcDbLine
 10
90.4388134338378
 20
892.3291998001102
 30
0.0
 11
86.80881343383786
 21
892.3291998001102
 31
0.0
  0
LINE
  5
22D
330
6A
100
AcDbEntity
  8
1
  6
DOT_CENTER
 62
     2
100
AcDbLine
 10
61.62381343383783
 20
894.1441998001102
 30
0.0
 11
61.62381343383783
 21
890.5141998001103
 31
0.0
  0
LINE
  5
22E
330
6A
100
AcDbEntity
  8
1
  6
DOT_CENTER
 62
     2
100
AcDbLine
 10
63.4388134338378
 20
892.3291998001102
 30
0.0
 11
59.80881343383785
 21
892.3291998001102
 31
0.0
  0
LINE
  5
22F
330
6A
100
AcDbEntity
  8
1
  6
DOT_CENTER
 62
     2
100
AcDbLine
 10
88.62381343383782
 20
917.1441998001102
 30
0.0
 11
88.62381343383782
 21
913.5141998001103
 31
0.0
  0
LINE
  5
230
330
6A
100
AcDbEntity
  8
1
  6
DOT_CENTER
 62
     2
100
AcDbLine
 10
90.43881343383784
 20
915.3291998001102
 30
0.0
 11
86.80881343383781
 21
915.3291998001102
 31
0.0
  0
LINE
  5
231
330
6A
100
AcDbEntity
  8
1
  6
DOT_CENTER
 62
     2
100
AcDbLine
 10
61.62381343383783
 20
917.1441998001102
 30
0.0
 11
61.62381343383783
 21
913.5141998001103
 31
0.0
  0
LINE
  5
232
330
6A
100
AcDbEntity
  8
1
  6
DOT_CENTER
 62
     2
100
AcDbLine
 10
63.4388134338378
 20
915.3291998001102
 30
0.0
 11
59.80881343383785
 21
915.3291998001102
 31
0.0
  0
LINE
  5
233
330
6A
100
AcDbEntity
  8
1
  6
DOT_CENTER
 62
     2
100
AcDbLine
 10
35.87381343383784
 20
896.6441998001102
 30
0.0
 11
35.87381343383784
 21
893.0141998001103
 31
0.0
  0
LINE
  5
234
330
6A
100
AcDbEntity
  8
1
  6
DOT_CENTER
 62
     2
100
AcDbLine
 10
37.68881343383784
 20
894.8291998001102
 30
0.0
 11
34.05881343383783
 21
894.8291998001102
 31
0.0
  0
LINE
  5
235
330
6A
100
AcDbEntity
  8
1
  6
DOT_CENTER
 62
     2
100
AcDbLine
 10
35.87381343383784
 20
914.6441998001102
 30
0.0
 11
35.87381343383784
 21
911.0141998001103
 31
0.0
  0
LINE
  5
236
330
6A
100
AcDbEntity
  8
1
  6
DOT_CENTER
 62
     2
100
AcDbLine
 10
37.68881343383784
 20
912.8291998001102
 30
0.0
 11
34.05881343383783
 21
912.8291998001102
 31
0.0
  0
LINE
  5
237
330
6A
100
AcDbEntity
  8
1
  6
DOT_CENTER
 62
     2
100
AcDbLine
 10
82.62381343383782
 20
907.6791998001103
 30
0.0
 11
82.62381343383782
 21
899.9791998001102
 31
0.0
  0
LINE
  5
238
330
6A
100
AcDbEntity
  8
1
  6
DOT_CENTER
 62
     2
100
AcDbLine
 10
86.47381343383782
 20
903.8291998001102
 30
0.0
 11
78.77381343383783
 21
903.8291998001102
 31
0.0
  0
LINE
  5
239
330
6A
100
AcDbEntity
  8
1
  6
DOT_CENTER
 62
     2
100
AcDbLine
 10
14.62381343383785
 20
905.6441998001102
 30
0.0
 11
14.62381343383785
 21
902.0141998001103
 31
0.0
  0
LINE
  5
23A
330
6A
100
AcDbEntity
  8
1
  6
DOT_CENTER
 62
     2
100
AcDbLine
 10
16.43881343383786
 20
903.8291998001102
 30
0.0
 11
12.80881343383785
 21
903.8291998001102
 31
0.0
  0
LINE
  5
23B
330
6A
100
AcDbEntity
  8
1
  6
DOT_CENTER
 62
     2
100
AcDbLine
 10
3.12381343383785
 20
894.1441998001102
 30
0.0
 11
3.12381343383785
 21
890.5141998001103
 31
0.0
  0
LINE
  5
23C
330
6A
100
AcDbEntity
  8
1
  6
DOT_CENTER
 62
     2
100
AcDbLine
 10
4.93881343383784
 20
892.3291998001102
 30
0.0
 11
1.30881343383786
 21
892.3291998001102
 31
0.0
  0
LINE
  5
23D
330
6A
100
AcDbEntity
  8
0
  6
Continuous
 62
     7
100
AcDbLine
 10
-1.52618656616212
 20
918.8291998001102
 30
0.0
 11
-8.52618656616214
 21
911.8291998001102
 31
0.0
  0
LINE
  5
23E
330
6A
100
AcDbEntity
  8
0
  6
Continuous
 62
     7
100
AcDbLine
 10
21.62381343383784
 20
915.7419244754692
 30
0.0
 11
21.62381343383784
 21
911.9164751247513
 31
0.0
  0
LINE
  5
23F
330
6A
100
AcDbEntity
  8
0
  6
Continuous
 62
     7
100
AcDbLine
 10
21.62381343383784
 20
915.7419244754692
 30
0.0
 11
21.62381343383784
 21
915.7838354308475
 31
0.0
  0
LINE
  5
240
330
6A
100
AcDbEntity
  8
0
  6
Continuous
 62
     7
100
AcDbLine
 10
21.62381343383784
 20
911.9164751247513
 30
0.0
 11
21.62381343383784
 21
911.8745641693729
 31
0.0
  0
LINE
  5
241
330
6A
100
AcDbEntity
  8
0
  6
Continuous
 62
     7
100
AcDbLine
 10
50.47381343383785
 20
910.1291998001102
 30
0.0
 11
51.61258894404205
 21
910.1291998001102
 31
0.0
  0
LINE
  5
242
330
6A
100
AcDbEntity
  8
0
  6
Continuous
 62
     7
100
AcDbLine
 10
18.19712470653634
 20
918.8291998001102
 30
0.0
 11
53.62381343383783
 21
918.8291998001102
 31
0.0
  0
LINE
  5
243
330
6A
100
AcDbEntity
  8
0
  6
Continuous
 62
     7
100
AcDbLine
 10
-1.52618656616212
 20
918.8291998001102
 30
0.0
 11
16.12381343383785
 21
918.8291998001102
 31
0.0
  0
LINE
  5
244
330
6A
100
AcDbEntity
  8
0
  6
Continuous
 62
     7
100
AcDbLine
 10
18.17617862862254
 20
911.8291998001102
 30
0.0
 11
7.62381343383785
 21
911.8291998001102
 31
0.0
  0
LINE
  5
245
330
6A
100
AcDbEntity
  8
0
  6
Continuous
 62
     7
100
AcDbLine
 10
16.14475951175172
 20
915.8082537221964
 30
0.0
 11
18.19712470653634
 21
915.8082537221964
 31
0.0
  0
LINE
  5
246
330
6A
100
AcDbEntity
  8
0
  6
Continuous
 62
     7
100
AcDbLine
 10
18.19712470653634
 20
911.8501458780241
 30
0.0
 11
18.17617862862254
 21
911.8291998001102
 31
0.0
  0
LINE
  5
247
330
6A
100
AcDbEntity
  8
0
  6
Continuous
 62
     7
100
AcDbLine
 10
-8.52618656616214
 20
895.8291998001102
 30
0.0
 11
-8.52618656616214
 21
911.8291998001102
 31
0.0
  0
LINE
  5
248
330
6A
100
AcDbEntity
  8
0
  6
Continuous
 62
     7
100
AcDbLine
 10
22.87381343383784
 20
904.5791998001102
 30
0.0
 11
22.87381343383784
 21
903.0791998001102
 31
0.0
  0
LINE
  5
249
330
6A
100
AcDbEntity
  8
0
  6
Continuous
 62
     7
100
AcDbLine
 10
22.27381343383794
 20
904.5791998001102
 30
0.0
 11
22.27381343383794
 21
903.0791998001102
 31
0.0
  0
LINE
  5
24A
330
6A
100
AcDbEntity
  8
0
  6
Continuous
 62
     7
100
AcDbLine
 10
18.19712470653634
 20
915.8082537221964
 30
0.0
 11
18.19712470653634
 21
918.8291998001102
 31
0.0
  0
LINE
  5
24B
330
6A
100
AcDbEntity
  8
0
  6
Continuous
 62
     7
100
AcDbLine
 10
16.12381343383791
 20
911.9164751247513
 30
0.0
 11
21.62381343383784
 21
911.9164751247513
 31
0.0
  0
LINE
  5
24C
330
6A
100
AcDbEntity
  8
0
  6
Continuous
 62
     7
100
AcDbLine
 10
16.12381343383791
 20
915.7419244754692
 30
0.0
 11
21.62381343383784
 21
915.7419244754692
 31
0.0
  0
LINE
  5
24D
330
6A
100
AcDbEntity
  8
0
  6
Continuous
 62
     7
100
AcDbLine
 10
16.12381343383785
 20
918.8291998001102
 30
0.0
 11
16.12381343383785
 21
915.8291998001102
 31
0.0
  0
LINE
  5
24E
330
6A
100
AcDbEntity
  8
0
  6
Continuous
 62
     7
100
AcDbLine
 10
16.12381343383785
 20
918.8291998001102
 30
0.0
 11
16.14475951174786
 21
918.8291998001102
 31
0.0
  0
LINE
  5
24F
330
6A
100
AcDbEntity
  8
0
  6
Continuous
 62
     7
100
AcDbLine
 10
18.19712470653634
 20
918.8291998001102
 30
0.0
 11
16.14475951174786
 21
918.8291998001102
 31
0.0
  0
LINE
  5
250
330
6A
100
AcDbEntity
  8
0
  6
Continuous
 62
     7
100
AcDbLine
 10
16.14475951174786
 20
918.8291998001102
 30
0.0
 11
16.14475951175172
 21
915.8082537221964
 31
0.0
  0
LINE
  5
251
330
6A
100
AcDbEntity
  8
0
  6
Continuous
 62
     7
100
AcDbLine
 10
20.87381343383784
 20
904.5791998001102
 30
0.0
 11
22.27381343383794
 21
904.5791998001102
 31
0.0
  0
LINE
  5
252
330
6A
100
AcDbEntity
  8
0
  6
Continuous
 62
     7
100
AcDbLine
 10
20.87381343383784
 20
903.0791998001102
 30
0.0
 11
22.27381343383794
 21
903.0791998001102
 31
0.0
  0
LINE
  5
253
330
6A
100
AcDbEntity
  8
0
  6
Continuous
 62
     7
100
AcDbLine
 10
22.27381343383794
 20
904.5791998001102
 30
0.0
 11
22.87381343383784
 21
904.5791998001102
 31
0.0
  0
LINE
  5
254
330
6A
100
AcDbEntity
  8
0
  6
Continuous
 62
     7
100
AcDbLine
 10
22.87381343383784
 20
903.0791998001102
 30
0.0
 11
22.27381343383794
 21
903.0791998001102
 31
0.0
  0
LINE
  5
255
330
6A
100
AcDbEntity
  8
0
  6
Continuous
 62
     7
100
AcDbLine
 10
55.14955274264784
 20
908.6291998001102
 30
0.0
 11
97.47381343383785
 21
908.6291998001102
 31
0.0
  0
LINE
  5
256
330
6A
100
AcDbEntity
  8
0
  6
Continuous
 62
     7
100
AcDbLine
 10
97.47381343383785
 20
911.8291998001102
 30
0.0
 11
60.12381343383783
 21
911.8291998001102
 31
0.0
  0
LINE
  5
257
330
6A
100
AcDbEntity
  8
0
  6
Continuous
 62
     7
100
AcDbLine
 10
97.47381343383785
 20
915.8291998001102
 30
0.0
 11
97.47381343383785
 21
911.9032553687916
 31
0.0
  0
LINE
  5
258
330
6A
100
AcDbEntity
  8
0
  6
Continuous
 62
     7
100
AcDbLine
 10
97.47381343383785
 20
911.9032553687916
 30
0.0
 11
97.47381343383785
 21
911.8291998001102
 31
0.0
  0
LINE
  5
259
330
6A
100
AcDbEntity
  8
0
  6
Continuous
 62
     7
100
AcDbLine
 10
97.42609461134452
 20
911.713996371591
 30
0.0
 11
60.07609461130704
 21
911.7139963715834
 31
0.0
  0
LINE
  5
25A
330
6A
100
AcDbEntity
  8
0
  6
Continuous
 62
     7
100
AcDbLine
 10
60.12381343383783
 20
911.8291998001102
 30
0.0
 11
60.07609461130704
 21
911.7139963715834
 31
0.0
  0
LINE
  5
25B
330
6A
100
AcDbEntity
  8
0
  6
Continuous
 62
     7
100
AcDbLine
 10
97.47381343383785
 20
911.8291998001102
 30
0.0
 11
97.42609461134452
 21
911.713996371591
 31
0.0
  0
LINE
  5
25C
330
6A
100
AcDbEntity
  8
0
  6
Continuous
 62
     7
100
AcDbLine
 10
94.47381343383785
 20
888.8291998001102
 30
0.0
 11
55.14955274264784
 21
888.8291998001102
 31
0.0
  0
LINE
  5
25D
330
6A
100
AcDbEntity
  8
0
  6
Continuous
 62
     7
100
AcDbLine
 10
60.07609461130915
 20
895.9444032286365
 30
0.0
 11
97.42609461126943
 21
895.9444032286365
 31
0.0
  0
LINE
  5
25E
330
6A
100
AcDbEntity
  8
0
  6
Continuous
 62
     7
100
AcDbLine
 10
55.14955274264784
 20
891.3291998001102
 30
0.0
 11
55.46089118278604
 21
891.3291998001121
 31
0.0
  0
LINE
  5
25F
330
6A
100
AcDbEntity
  8
0
  6
Continuous
 62
     7
100
AcDbLine
 10
97.47381343383785
 20
891.8291998001102
 30
0.0
 11
94.47381343383785
 21
888.8291998001102
 31
0.0
  0
LINE
  5
260
330
6A
100
AcDbEntity
  8
0
  6
Continuous
 62
     7
100
AcDbLine
 10
55.14955274264784
 20
899.0291998001103
 30
0.0
 11
97.47381343383785
 21
899.0291998001103
 31
0.0
  0
LINE
  5
261
330
6A
100
AcDbEntity
  8
0
  6
Continuous
 62
     7
100
AcDbLine
 10
55.14955274264784
 20
918.8291998001102
 30
0.0
 11
94.47381343383785
 21
918.8291998001102
 31
0.0
  0
LINE
  5
262
330
6A
100
AcDbEntity
  8
0
  6
Continuous
 62
     7
100
AcDbLine
 10
97.47381343383785
 20
911.9032553687916
 30
0.0
 11
98.52617862862255
 21
910.8508901740273
 31
0.0
  0
LINE
  5
263
330
6A
100
AcDbEntity
  8
0
  6
Continuous
 62
     7
100
AcDbLine
 10
98.47381343383785
 20
900.0291998001103
 30
0.0
 11
98.47381343383785
 21
907.6291998001102
 31
0.0
  0
LINE
  5
264
330
6A
100
AcDbEntity
  8
0
  6
Continuous
 62
     7
100
AcDbLine
 10
98.47381343383785
 20
900.0291998001103
 30
0.0
 11
97.47381343383785
 21
899.0291998001103
 31
0.0
  0
LINE
  5
265
330
6A
100
AcDbEntity
  8
0
  6
Continuous
 62
     7
100
AcDbLine
 10
93.67381343383784
 20
906.8291998001102
 30
0.0
 11
93.67381343383784
 21
900.8291998001102
 31
0.0
  0
LINE
  5
266
330
6A
100
AcDbEntity
  8
0
  6
Continuous
 62
     7
100
AcDbLine
 10
95.97381343383785
 20
900.8291998001102
 30
0.0
 11
95.97381343383785
 21
906.8291998001102
 31
0.0
  0
LINE
  5
267
330
6A
100
AcDbEntity
  8
0
  6
Continuous
 62
     7
100
AcDbLine
 10
94.47381343383785
 20
918.8291998001102
 30
0.0
 11
97.47381343383785
 21
915.8291998001102
 31
0.0
  0
LINE
  5
268
330
6A
100
AcDbEntity
  8
0
  6
Continuous
 62
     7
100
AcDbLine
 10
93.67381343383784
 20
900.8291998001102
 30
0.0
 11
95.97381343383785
 21
900.8291998001102
 31
0.0
  0
LINE
  5
269
330
6A
100
AcDbEntity
  8
0
  6
Continuous
 62
     7
100
AcDbLine
 10
95.97381343383785
 20
906.8291998001102
 30
0.0
 11
93.67381343383784
 21
906.8291998001102
 31
0.0
  0
LINE
  5
26A
330
6A
100
AcDbEntity
  8
0
  6
Continuous
 62
     7
100
AcDbLine
 10
98.47381343383785
 20
907.6291998001102
 30
0.0
 11
97.47381343383785
 21
908.6291998001102
 31
0.0
  0
LINE
  5
26B
330
6A
100
AcDbEntity
  8
0
  6
Continuous
 62
     7
100
AcDbLine
 10
97.47381343383785
 20
908.6291998001102
 30
0.0
 11
98.35861000531165
 21
908.6291998001102
 31
0.0
  0
LINE
  5
26C
330
6A
100
AcDbEntity
  8
0
  6
Continuous
 62
     7
100
AcDbLine
 10
98.35861000531165
 20
908.6291998001102
 30
0.0
 11
98.47381343383785
 21
908.6291998001102
 31
0.0
  0
LINE
  5
26D
330
6A
100
AcDbEntity
  8
0
  6
Continuous
 62
     7
100
AcDbLine
 10
98.47381343383785
 20
908.6291998001102
 30
0.0
 11
98.47381343383785
 21
907.6291998001102
 31
0.0
  0
LINE
  5
26E
330
6A
100
AcDbEntity
  8
0
  6
Continuous
 62
     7
100
AcDbLine
 10
98.35861000531165
 20
908.6291998001102
 30
0.0
 11
98.35861000531165
 21
910.7814809776238
 31
0.0
  0
LINE
  5
26F
330
6A
100
AcDbEntity
  8
0
  6
Continuous
 62
     7
100
AcDbLine
 10
97.42609461134452
 20
911.713996371591
 30
0.0
 11
98.35861000531165
 21
910.7814809776238
 31
0.0
  0
LINE
  5
270
330
6A
100
AcDbEntity
  8
0
  6
Continuous
 62
     7
100
AcDbLine
 10
98.47381343383785
 20
900.0291998001103
 30
0.0
 11
98.47381343383785
 21
899.0291998001103
 31
0.0
  0
LINE
  5
271
330
6A
100
AcDbEntity
  8
0
  6
Continuous
 62
     7
100
AcDbLine
 10
97.47381343383785
 20
899.0291998001103
 30
0.0
 11
98.35861000531165
 21
899.0291998001103
 31
0.0
  0
LINE
  5
272
330
6A
100
AcDbEntity
  8
0
  6
Continuous
 62
     7
100
AcDbLine
 10
98.35861000531165
 20
899.0291998001103
 30
0.0
 11
98.47381343383785
 21
899.0291998001103
 31
0.0
  0
LINE
  5
273
330
6A
100
AcDbEntity
  8
0
  6
Continuous
 62
     7
100
AcDbLine
 10
98.35861000531165
 20
896.8769186226787
 30
0.0
 11
98.35861000531165
 21
899.0291998001103
 31
0.0
  0
LINE
  5
274
330
6A
100
AcDbEntity
  8
0
  6
Continuous
 62
     7
100
AcDbLine
 10
98.35861000531165
 20
896.8769186226787
 30
0.0
 11
98.52617862862255
 21
896.8075094262751
 31
0.0
  0
LINE
  5
275
330
6A
100
AcDbEntity
  8
0
  6
Continuous
 62
     7
100
AcDbLine
 10
98.52617862862255
 20
910.8508901740273
 30
0.0
 11
98.35861000531165
 21
910.7814809776238
 31
0.0
  0
LINE
  5
276
330
6A
100
AcDbEntity
  8
0
  6
Continuous
 62
     7
100
AcDbLine
 10
98.52617862862255
 20
910.8508901740273
 30
0.0
 11
98.52617862862255
 21
896.8075094262751
 31
0.0
  0
LINE
  5
277
330
6A
100
AcDbEntity
  8
0
  6
Continuous
 62
     7
100
AcDbLine
 10
97.47381343383785
 20
895.7551442314905
 30
0.0
 11
97.47381343383785
 21
891.8291998001102
 31
0.0
  0
LINE
  5
278
330
6A
100
AcDbEntity
  8
0
  6
Continuous
 62
     7
100
AcDbLine
 10
97.47381343379683
 20
895.8291998001102
 30
0.0
 11
97.47381343383785
 21
895.7551442314905
 31
0.0
  0
LINE
  5
279
330
6A
100
AcDbEntity
  8
0
  6
Continuous
 62
     7
100
AcDbLine
 10
98.52617862862255
 20
896.8075094262751
 30
0.0
 11
97.47381343383785
 21
895.7551442314905
 31
0.0
  0
LINE
  5
27A
330
6A
100
AcDbEntity
  8
0
  6
Continuous
 62
     7
100
AcDbLine
 10
98.35861000531165
 20
896.8769186226787
 30
0.0
 11
97.42609461126943
 21
895.9444032286365
 31
0.0
  0
LINE
  5
27B
330
6A
100
AcDbEntity
  8
0
  6
Continuous
 62
     7
100
AcDbLine
 10
97.47381343379683
 20
895.8291998001102
 30
0.0
 11
97.42609461126943
 21
895.9444032286365
 31
0.0
  0
LINE
  5
27C
330
6A
100
AcDbEntity
  8
0
  6
Continuous
 62
     7
100
AcDbLine
 10
55.46089118278604
 20
891.3291998001121
 30
0.0
 11
60.07609461130915
 21
895.9444032286365
 31
0.0
  0
LINE
  5
27D
330
6A
100
AcDbEntity
  8
0
  6
Continuous
 62
     7
100
AcDbLine
 10
55.62381343383783
 20
891.3291998001102
 30
0.0
 11
60.12381343383783
 21
895.8291998001102
 31
0.0
  0
LINE
  5
27E
330
6A
100
AcDbEntity
  8
0
  6
Continuous
 62
     7
100
AcDbLine
 10
50.47381343383785
 20
910.1291998001102
 30
0.0
 11
50.47381343383785
 21
897.5291998001103
 31
0.0
  0
LINE
  5
27F
330
6A
100
AcDbEntity
  8
0
  6
Continuous
 62
     7
100
AcDbLine
 10
53.62381343383783
 20
910.1291998001102
 30
0.0
 11
53.62381343383783
 21
918.8291998001102
 31
0.0
  0
LINE
  5
280
330
6A
100
AcDbEntity
  8
0
  6
Continuous
 62
     7
100
AcDbLine
 10
53.70429477707003
 20
908.6291998001102
 30
0.0
 11
53.70429477707003
 21
916.3291998001102
 31
0.0
  0
LINE
  5
281
330
6A
100
AcDbEntity
  8
0
  6
Continuous
 62
     7
100
AcDbLine
 10
60.07609461130704
 20
911.7139963715834
 30
0.0
 11
55.46089118278403
 21
916.3291998001064
 31
0.0
  0
LINE
  5
282
330
6A
100
AcDbEntity
  8
0
  6
Continuous
 62
     7
100
AcDbLine
 10
60.12381343383783
 20
911.8291998001102
 30
0.0
 11
55.62381343383783
 21
916.3291998001102
 31
0.0
  0
LINE
  5
283
330
6A
100
AcDbEntity
  8
0
  6
Continuous
 62
     7
100
AcDbLine
 10
55.14955274264784
 20
908.6291998001102
 30
0.0
 11
55.14955274264784
 21
916.3291998001102
 31
0.0
  0
LINE
  5
284
330
6A
100
AcDbEntity
  8
0
  6
Continuous
 62
     7
100
AcDbLine
 10
55.14955274264784
 20
918.8291998001102
 30
0.0
 11
55.14955274264784
 21
916.3291998001102
 31
0.0
  0
LINE
  5
285
330
6A
100
AcDbEntity
  8
0
  6
Continuous
 62
     7
100
AcDbLine
 10
55.46089118278403
 20
916.3291998001064
 30
0.0
 11
55.14955274264784
 21
916.3291998001102
 31
0.0
  0
LINE
  5
286
330
6A
100
AcDbEntity
  8
0
  6
Continuous
 62
     7
100
AcDbLine
 10
55.62381343383783
 20
916.3291998001102
 30
0.0
 11
55.46089118278403
 21
916.3291998001064
 31
0.0
  0
LINE
  5
287
330
6A
100
AcDbEntity
  8
0
  6
Continuous
 62
     7
100
AcDbLine
 10
54.22381343383785
 20
918.8291998001102
 30
0.0
 11
54.22381343383785
 21
916.3291998001102
 31
0.0
  0
LINE
  5
288
330
6A
100
AcDbEntity
  8
0
  6
Continuous
 62
     7
100
AcDbLine
 10
55.09718754786783
 20
916.3291998001102
 30
0.0
 11
54.22381343383785
 21
916.3291998001102
 31
0.0
  0
LINE
  5
289
330
6A
100
AcDbEntity
  8
0
  6
Continuous
 62
     7
100
AcDbLine
 10
55.14955274264784
 20
916.3291998001102
 30
0.0
 11
55.09718754786783
 21
916.3291998001102
 31
0.0
  0
LINE
  5
28A
330
6A
100
AcDbEntity
  8
0
  6
Continuous
 62
     7
100
AcDbLine
 10
54.07381343383804
 20
908.6291998001102
 30
0.0
 11
55.14955274264784
 21
908.6291998001102
 31
0.0
  0
LINE
  5
28B
330
6A
100
AcDbEntity
  8
0
  6
Continuous
 62
     7
100
AcDbLine
 10
55.09718754786783
 20
916.3291998001102
 30
0.0
 11
55.09718754786323
 21
918.8291998001102
 31
0.0
  0
LINE
  5
28C
330
6A
100
AcDbEntity
  8
0
  6
Continuous
 62
     7
100
AcDbLine
 10
55.09718754786323
 20
918.8291998001102
 30
0.0
 11
54.22381343383785
 21
918.8291998001102
 31
0.0
  0
LINE
  5
28D
330
6A
100
AcDbEntity
  8
0
  6
Continuous
 62
     7
100
AcDbLine
 10
55.14955274264784
 20
918.8291998001102
 30
0.0
 11
55.09718754786323
 21
918.8291998001102
 31
0.0
  0
LINE
  5
28E
330
6A
100
AcDbEntity
  8
0
  6
Continuous
 62
     7
100
AcDbLine
 10
54.07381343383804
 20
899.0291998001103
 30
0.0
 11
54.07381343383804
 21
908.6291998001102
 31
0.0
  0
LINE
  5
28F
330
6A
100
AcDbEntity
  8
0
  6
Continuous
 62
     7
100
AcDbLine
 10
54.07381343383804
 20
899.0291998001103
 30
0.0
 11
55.14955274264784
 21
899.0291998001103
 31
0.0
  0
LINE
  5
290
330
6A
100
AcDbEntity
  8
0
  6
Continuous
 62
     7
100
AcDbLine
 10
69.17381343383784
 20
901.5791998001102
 30
0.0
 11
64.37381343383782
 21
901.5791998001102
 31
0.0
  0
LINE
  5
291
330
6A
100
AcDbEntity
  8
0
  6
Continuous
 62
     7
100
AcDbLine
 10
64.37381343383782
 20
901.5791998001102
 30
0.0
 11
64.37381343383782
 21
906.0791998001102
 31
0.0
  0
LINE
  5
292
330
6A
100
AcDbEntity
  8
0
  6
Continuous
 62
     7
100
AcDbLine
 10
54.22381343383785
 20
916.3291998001102
 30
0.0
 11
53.70429477707003
 21
916.3291998001102
 31
0.0
  0
LINE
  5
293
330
6A
100
AcDbEntity
  8
0
  6
Continuous
 62
     7
100
AcDbLine
 10
53.66644981038652
 20
918.8291998001102
 30
0.0
 11
53.66644981038652
 21
916.3291998001102
 31
0.0
  0
LINE
  5
294
330
6A
100
AcDbEntity
  8
0
  6
Continuous
 62
     7
100
AcDbLine
 10
53.66644981038652
 20
916.3291998001102
 30
0.0
 11
53.70429477707003
 21
916.3291998001102
 31
0.0
  0
LINE
  5
295
330
6A
100
AcDbEntity
  8
0
  6
Continuous
 62
     7
100
AcDbLine
 10
53.70429477707003
 20
899.0291998001103
 30
0.0
 11
54.07381343383804
 21
899.0291998001103
 31
0.0
  0
LINE
  5
296
330
6A
100
AcDbEntity
  8
0
  6
Continuous
 62
     7
100
AcDbLine
 10
53.67879688836175
 20
899.0291998001103
 30
0.0
 11
53.70429477707003
 21
899.0291998001103
 31
0.0
  0
LINE
  5
297
330
6A
100
AcDbEntity
  8
0
  6
Continuous
 62
     7
100
AcDbLine
 10
51.61258894404205
 20
899.0291998001103
 30
0.0
 11
51.61258894404205
 21
897.5291998001103
 31
0.0
  0
LINE
  5
298
330
6A
100
AcDbEntity
  8
0
  6
Continuous
 62
     7
100
AcDbLine
 10
53.62381343383783
 20
910.1291998001102
 30
0.0
 11
51.61258894404205
 21
910.1291998001102
 31
0.0
  0
LINE
  5
299
330
6A
100
AcDbEntity
  8
0
  6
Continuous
 62
     7
100
AcDbLine
 10
51.61258894404205
 20
908.6291998001102
 30
0.0
 11
51.61258894404205
 21
910.1291998001102
 31
0.0
  0
LINE
  5
29A
330
6A
100
AcDbEntity
  8
0
  6
Continuous
 62
     7
100
AcDbLine
 10
54.22381343383785
 20
918.8291998001102
 30
0.0
 11
53.66644981038652
 21
918.8291998001102
 31
0.0
  0
LINE
  5
29B
330
6A
100
AcDbEntity
  8
0
  6
Continuous
 62
     7
100
AcDbLine
 10
53.62381343383783
 20
918.8291998001102
 30
0.0
 11
53.66644981038652
 21
918.8291998001102
 31
0.0
  0
LINE
  5
29C
330
6A
100
AcDbEntity
  8
0
  6
Continuous
 62
     7
100
AcDbLine
 10
53.67879688836175
 20
910.1291998001102
 30
0.0
 11
53.67879688836175
 21
908.6291998001102
 31
0.0
  0
LINE
  5
29D
330
6A
100
AcDbEntity
  8
0
  6
Continuous
 62
     7
100
AcDbLine
 10
53.67879688836175
 20
899.0291998001103
 30
0.0
 11
53.67879688836175
 21
897.5291998001103
 31
0.0
  0
LINE
  5
29E
330
6A
100
AcDbEntity
  8
0
  6
Continuous
 62
     7
100
AcDbLine
 10
51.61258894404205
 20
897.5291998001103
 30
0.0
 11
53.62381343383783
 21
897.5291998001103
 31
0.0
  0
LINE
  5
29F
330
6A
100
AcDbEntity
  8
0
  6
Continuous
 62
     7
100
AcDbLine
 10
53.62381343383783
 20
897.5291998001103
 30
0.0
 11
53.67879688836175
 21
897.5291998001103
 31
0.0
  0
LINE
  5
2A0
330
6A
100
AcDbEntity
  8
0
  6
Continuous
 62
     7
100
AcDbLine
 10
53.67879688836175
 20
910.1291998001102
 30
0.0
 11
53.62381343383783
 21
910.1291998001102
 31
0.0
  0
LINE
  5
2A1
330
6A
100
AcDbEntity
  8
0
  6
Continuous
 62
     7
100
AcDbLine
 10
53.70429477707003
 20
908.6291998001102
 30
0.0
 11
53.67879688836175
 21
908.6291998001102
 31
0.0
  0
LINE
  5
2A2
330
6A
100
AcDbEntity
  8
0
  6
Continuous
 62
     7
100
AcDbLine
 10
54.07381343383804
 20
908.6291998001102
 30
0.0
 11
53.70429477707003
 21
908.6291998001102
 31
0.0
  0
LINE
  5
2A3
330
6A
100
AcDbEntity
  8
0
  6
Continuous
 62
     7
100
AcDbLine
 10
53.67879688836175
 20
908.6291998001102
 30
0.0
 11
51.61258894404205
 21
908.6291998001102
 31
0.0
  0
LINE
  5
2A4
330
6A
100
AcDbEntity
  8
0
  6
Continuous
 62
     7
100
AcDbLine
 10
51.61258894404205
 20
899.0291998001103
 30
0.0
 11
53.67879688836175
 21
899.0291998001103
 31
0.0
  0
LINE
  5
2A5
330
6A
100
AcDbEntity
  8
0
  6
Continuous
 62
     7
100
AcDbLine
 10
50.47381343383785
 20
897.5291998001103
 30
0.0
 11
51.61258894404205
 21
897.5291998001103
 31
0.0
  0
LINE
  5
2A6
330
6A
100
AcDbEntity
  8
0
  6
Continuous
 62
     7
100
AcDbLine
 10
55.14955274264784
 20
891.3291998001102
 30
0.0
 11
55.14955274264784
 21
899.0291998001103
 31
0.0
  0
LINE
  5
2A7
330
6A
100
AcDbEntity
  8
0
  6
Continuous
 62
     7
100
AcDbLine
 10
53.70429477707003
 20
891.3291998001102
 30
0.0
 11
53.70429477707003
 21
899.0291998001103
 31
0.0
  0
LINE
  5
2A8
330
6A
100
AcDbEntity
  8
0
  6
Continuous
 62
     7
100
AcDbLine
 10
54.22381343383785
 20
891.3291998001102
 30
0.0
 11
53.70429477707003
 21
891.3291998001102
 31
0.0
  0
LINE
  5
2A9
330
6A
100
AcDbEntity
  8
0
  6
Continuous
 62
     7
100
AcDbLine
 10
53.66644981038652
 20
891.3291998001102
 30
0.0
 11
53.70429477707003
 21
891.3291998001102
 31
0.0
  0
LINE
  5
2AA
330
6A
100
AcDbEntity
  8
0
  6
Continuous
 62
     7
100
AcDbLine
 10
55.09718754786783
 20
891.3291998001102
 30
0.0
 11
54.22381343383785
 21
891.3291998001102
 31
0.0
  0
LINE
  5
2AB
330
6A
100
AcDbEntity
  8
0
  6
Continuous
 62
     7
100
AcDbLine
 10
55.14955274264784
 20
891.3291998001102
 30
0.0
 11
55.09718754786783
 21
891.3291998001102
 31
0.0
  0
LINE
  5
2AC
330
6A
100
AcDbEntity
  8
0
  6
Continuous
 62
     7
100
AcDbLine
 10
60.12381343383783
 20
895.8291998001102
 30
0.0
 11
60.07609461130915
 21
895.9444032286365
 31
0.0
  0
LINE
  5
2AD
330
6A
100
AcDbEntity
  8
0
  6
Continuous
 62
     7
100
AcDbLine
 10
55.62381343383783
 20
891.3291998001102
 30
0.0
 11
55.46089118278604
 21
891.3291998001121
 31
0.0
  0
LINE
  5
2AE
330
6A
100
AcDbEntity
  8
0
  6
Continuous
 62
     7
100
AcDbLine
 10
55.09718754786323
 20
888.8291998001102
 30
0.0
 11
55.09718754786783
 21
891.3291998001102
 31
0.0
  0
LINE
  5
2AF
330
6A
100
AcDbEntity
  8
0
  6
Continuous
 62
     7
100
AcDbLine
 10
54.22381343383785
 20
888.8291998001102
 30
0.0
 11
53.66644981038652
 21
888.8291998001102
 31
0.0
  0
LINE
  5
2B0
330
6A
100
AcDbEntity
  8
0
  6
Continuous
 62
     7
100
AcDbLine
 10
53.62381343383783
 20
888.8291998001102
 30
0.0
 11
53.66644981038652
 21
888.8291998001102
 31
0.0
  0
LINE
  5
2B1
330
6A
100
AcDbEntity
  8
0
  6
Continuous
 62
     7
100
AcDbLine
 10
55.14955274264784
 20
888.8291998001102
 30
0.0
 11
55.14955274264784
 21
891.3291998001102
 31
0.0
  0
LINE
  5
2B2
330
6A
100
AcDbEntity
  8
0
  6
Continuous
 62
     7
100
AcDbLine
 10
54.22381343383785
 20
891.3291998001102
 30
0.0
 11
54.22381343383785
 21
888.8291998001102
 31
0.0
  0
LINE
  5
2B3
330
6A
100
AcDbEntity
  8
0
  6
Continuous
 62
     7
100
AcDbLine
 10
53.66644981038652
 20
891.3291998001102
 30
0.0
 11
53.66644981038652
 21
888.8291998001102
 31
0.0
  0
LINE
  5
2B4
330
6A
100
AcDbEntity
  8
0
  6
Continuous
 62
     7
100
AcDbLine
 10
54.22381343383785
 20
888.8291998001102
 30
0.0
 11
55.09718754786323
 21
888.8291998001102
 31
0.0
  0
LINE
  5
2B5
330
6A
100
AcDbEntity
  8
0
  6
Continuous
 62
     7
100
AcDbLine
 10
55.14955274264784
 20
888.8291998001102
 30
0.0
 11
55.09718754786323
 21
888.8291998001102
 31
0.0
  0
LINE
  5
2B6
330
6A
100
AcDbEntity
  8
0
  6
Continuous
 62
     7
100
AcDbLine
 10
53.62381343383783
 20
888.8291998001102
 30
0.0
 11
53.62381343383783
 21
897.5291998001103
 31
0.0
  0
LINE
  5
2B7
330
6A
100
AcDbEntity
  8
0
  6
Continuous
 62
     7
100
AcDbLine
 10
97.47381343379683
 20
895.8291998001102
 30
0.0
 11
60.12381343383783
 21
895.8291998001102
 31
0.0
  0
LINE
  5
2B8
330
6A
100
AcDbEntity
  8
0
  6
Continuous
 62
     7
100
AcDbLine
 10
64.37381343383782
 20
906.0791998001102
 30
0.0
 11
69.17381343383784
 21
906.0791998001102
 31
0.0
  0
LINE
  5
2B9
330
6A
100
AcDbEntity
  8
0
  6
Continuous
 62
     7
100
AcDbLine
 10
-8.52618656616214
 20
895.8291998001102
 30
0.0
 11
-1.52618656616214
 21
888.8291998001102
 31
0.0
  0
LINE
  5
2BA
330
6A
100
AcDbEntity
  8
0
  6
Continuous
 62
     7
100
AcDbLine
 10
7.62381343383785
 20
891.8291998001102
 30
0.0
 11
16.12381343383791
 21
891.9164751247513
 31
0.0
  0
LINE
  5
2BB
330
6A
100
AcDbEntity
  8
0
  6
Continuous
 62
     7
100
AcDbLine
 10
7.62381343383785
 20
895.8291998001102
 30
0.0
 11
16.12381343383795
 21
895.7419244754692
 31
0.0
  0
LINE
  5
2BC
330
6A
100
AcDbEntity
  8
0
  6
Continuous
 62
     7
100
AcDbLine
 10
7.62381343383785
 20
895.8291998001102
 30
0.0
 11
18.17617862862254
 21
895.8291998001102
 31
0.0
  0
LINE
  5
2BD
330
6A
100
AcDbEntity
  8
0
  6
Continuous
 62
     7
100
AcDbLine
 10
7.62381343383785
 20
911.8291998001102
 30
0.0
 11
16.12381343383791
 21
911.9164751247513
 31
0.0
  0
LINE
  5
2BE
330
6A
100
AcDbEntity
  8
0
  6
Continuous
 62
     7
100
AcDbLine
 10
7.62381343383785
 20
915.8291998001102
 30
0.0
 11
16.12381343383791
 21
915.7419244754692
 31
0.0
  0
LINE
  5
2BF
330
6A
100
AcDbEntity
  8
0
  6
Continuous
 62
     7
100
AcDbLine
 10
16.12381343383785
 20
915.8291998001102
 30
0.0
 11
16.14475951175172
 21
915.8082537221964
 31
0.0
  0
LINE
  5
2C0
330
6A
100
AcDbEntity
  8
0
  6
Continuous
 62
     7
100
AcDbLine
 10
7.62381343383785
 20
915.8291998001102
 30
0.0
 11
16.12381343383785
 21
915.8291998001102
 31
0.0
  0
LINE
  5
2C1
330
6A
100
AcDbEntity
  8
0
  6
Continuous
 62
     7
100
AcDbLine
 10
16.12381343383791
 20
911.9164751247513
 30
0.0
 11
16.12381343383791
 21
915.7419244754692
 31
0.0
  0
LINE
  5
2C2
330
6A
100
AcDbEntity
  8
0
  6
Continuous
 62
     7
100
AcDbLine
 10
7.62381343383785
 20
915.8291998001102
 30
0.0
 11
7.62381343383785
 21
911.8291998001102
 31
0.0
  0
LINE
  5
2C3
330
6A
100
AcDbEntity
  8
0
  6
Continuous
 62
     7
100
AcDbLine
 10
16.11707374470785
 20
891.8291998001102
 30
0.0
 11
7.62381343383785
 21
891.8291998001102
 31
0.0
  0
LINE
  5
2C4
330
6A
100
AcDbEntity
  8
0
  6
Continuous
 62
     7
100
AcDbLine
 10
16.11707374470785
 20
891.8291998001102
 30
0.0
 11
16.13801982262172
 21
891.8501458780241
 31
0.0
  0
LINE
  5
2C5
330
6A
100
AcDbEntity
  8
0
  6
Continuous
 62
     7
100
AcDbLine
 10
7.62381343383785
 20
895.8291998001102
 30
0.0
 11
7.62381343383785
 21
891.8291998001102
 31
0.0
  0
LINE
  5
2C6
330
6A
100
AcDbEntity
  8
0
  6
Continuous
 62
     7
100
AcDbLine
 10
16.12381343383791
 20
891.9164751247513
 30
0.0
 11
16.12381343383795
 21
895.7419244754692
 31
0.0
  0
LINE
  5
2C7
330
6A
100
AcDbEntity
  8
0
  6
Continuous
 62
     7
100
AcDbLine
 10
16.11707374470787
 20
888.8291998001102
 30
0.0
 11
-1.52618656616214
 21
888.8291998001102
 31
0.0
  0
LINE
  5
2C8
330
6A
100
AcDbEntity
  8
0
  6
Continuous
 62
     7
100
AcDbLine
 10
21.62381343383784
 20
895.7419244754692
 30
0.0
 11
21.62381343383784
 21
891.9164751247513
 31
0.0
  0
LINE
  5
2C9
330
6A
100
AcDbEntity
  8
0
  6
Continuous
 62
     7
100
AcDbLine
 10
18.19712470653634
 20
888.8291998001102
 30
0.0
 11
18.19712470653634
 21
891.8501458780241
 31
0.0
  0
LINE
  5
2CA
330
6A
100
AcDbEntity
  8
0
  6
Continuous
 62
     7
100
AcDbLine
 10
21.62381343383784
 20
891.8745641693729
 30
0.0
 11
18.62381343383784
 21
891.8501458780241
 31
0.0
  0
LINE
  5
2CB
330
6A
100
AcDbEntity
  8
0
  6
Continuous
 62
     7
100
AcDbLine
 10
16.12381343383791
 20
891.9164751247513
 30
0.0
 11
21.62381343383784
 21
891.9164751247513
 31
0.0
  0
LINE
  5
2CC
330
6A
100
AcDbEntity
  8
0
  6
Continuous
 62
     7
100
AcDbLine
 10
16.12381343383795
 20
895.7419244754692
 30
0.0
 11
21.62381343383784
 21
895.7419244754692
 31
0.0
  0
LINE
  5
2CD
330
6A
100
AcDbEntity
  8
0
  6
Continuous
 62
     7
100
AcDbLine
 10
20.87381343383784
 20
903.0791998001102
 30
0.0
 11
20.87381343383784
 21
904.5791998001102
 31
0.0
  0
LINE
  5
2CE
330
6A
100
AcDbEntity
  8
0
  6
Continuous
 62
     7
100
AcDbLine
 10
21.62381343383784
 20
895.7838354308475
 30
0.0
 11
18.62381343383794
 21
895.8082537221964
 31
0.0
  0
LINE
  5
2CF
330
6A
100
AcDbEntity
  8
0
  6
Continuous
 62
     7
100
AcDbLine
 10
21.62381343383784
 20
911.8745641693729
 30
0.0
 11
18.62381343383794
 21
911.8501458780241
 31
0.0
  0
LINE
  5
2D0
330
6A
100
AcDbEntity
  8
0
  6
Continuous
 62
     7
100
AcDbLine
 10
18.62381343383794
 20
911.8501458780241
 30
0.0
 11
18.19712470653634
 21
911.8501458780241
 31
0.0
  0
LINE
  5
2D1
330
6A
100
AcDbEntity
  8
0
  6
Continuous
 62
     7
100
AcDbLine
 10
21.62381343383784
 20
915.7838354308475
 30
0.0
 11
18.62381343383784
 21
915.8082537221964
 31
0.0
  0
LINE
  5
2D2
330
6A
100
AcDbEntity
  8
0
  6
Continuous
 62
     7
100
AcDbLine
 10
18.62381343383784
 20
915.8082537221964
 30
0.0
 11
18.19712470653634
 21
915.8082537221964
 31
0.0
  0
LINE
  5
2D3
330
6A
100
AcDbEntity
  8
0
  6
Continuous
 62
     7
100
AcDbLine
 10
21.62381343383784
 20
895.7419244754692
 30
0.0
 11
21.62381343383784
 21
895.7838354308475
 31
0.0
  0
LINE
  5
2D4
330
6A
100
AcDbEntity
  8
0
  6
Continuous
 62
     7
100
AcDbLine
 10
18.62381343383794
 20
895.8082537221964
 30
0.0
 11
18.19712470653634
 21
895.8082537221964
 31
0.0
  0
LINE
  5
2D5
330
6A
100
AcDbEntity
  8
0
  6
Continuous
 62
     7
100
AcDbLine
 10
18.19712470653634
 20
895.8082537221964
 30
0.0
 11
18.17617862862254
 21
895.8291998001102
 31
0.0
  0
LINE
  5
2D6
330
6A
100
AcDbEntity
  8
0
  6
Continuous
 62
     7
100
AcDbLine
 10
18.62381343383784
 20
891.8501458780241
 30
0.0
 11
18.19712470653634
 21
891.8501458780241
 31
0.0
  0
LINE
  5
2D7
330
6A
100
AcDbEntity
  8
0
  6
Continuous
 62
     7
100
AcDbLine
 10
16.13801982262172
 20
891.8501458780241
 30
0.0
 11
18.19712470653634
 21
891.8501458780241
 31
0.0
  0
LINE
  5
2D8
330
6A
100
AcDbEntity
  8
0
  6
Continuous
 62
     7
100
AcDbLine
 10
21.62381343383784
 20
891.9164751247513
 30
0.0
 11
21.62381343383784
 21
891.8745641693729
 31
0.0
  0
LINE
  5
2D9
330
6A
100
AcDbEntity
  8
0
  6
Continuous
 62
     7
100
AcDbLine
 10
16.13801982262172
 20
888.8291998001102
 30
0.0
 11
18.19712470653634
 21
888.8291998001102
 31
0.0
  0
LINE
  5
2DA
330
6A
100
AcDbEntity
  8
0
  6
Continuous
 62
     7
100
AcDbLine
 10
16.13801982262172
 20
891.8501458780241
 30
0.0
 11
16.13801982262172
 21
888.8291998001102
 31
0.0
  0
LINE
  5
2DB
330
6A
100
AcDbEntity
  8
0
  6
Continuous
 62
     7
100
AcDbLine
 10
16.11707374470787
 20
888.8291998001102
 30
0.0
 11
16.13801982262172
 21
888.8291998001102
 31
0.0
  0
LINE
  5
2DC
330
6A
100
AcDbEntity
  8
0
  6
Continuous
 62
     7
100
AcDbLine
 10
16.11707374470787
 20
888.8291998001102
 30
0.0
 11
16.11707374470785
 21
891.8291998001102
 31
0.0
  0
LINE
  5
2DD
330
6A
100
AcDbEntity
  8
0
  6
Continuous
 62
     7
100
AcDbLine
 10
53.62381343383783
 20
888.8291998001102
 30
0.0
 11
18.19712470653634
 21
888.8291998001102
 31
0.0
  0
ARC
  5
2DE
330
6A
100
AcDbEntity
  8
0
  6
Continuous
 62
     7
100
AcDbCircle
 10
69.17381343383784
 20
903.8291998001102
 30
0.0
 40
2.25
100
AcDbArc
 50
270.0
 51
90.0
  0
CIRCLE
  5
2DF
330
6A
100
AcDbEntity
  8
0
  6
Continuous
 62
     7
100
AcDbCircle
 10
35.87381343383784
 20
912.8291998001102
 30
0.0
 40
1.649999999999999
  0
CIRCLE
  5
2E0
330
6A
100
AcDbEntity
  8
0
  6
Continuous
 62
     7
100
AcDbCircle
 10
14.62381343383785
 20
903.8291998001102
 30
0.0
 40
1.650000000000009
  0
CIRCLE
  5
2E1
330
6A
100
AcDbEntity
  8
0
  6
Continuous
 62
     7
100
AcDbCircle
 10
3.12381343383785
 20
915.3291998001102
 30
0.0
 40
1.650000000000006
  0
CIRCLE
  5
2E2
330
6A
100
AcDbEntity
  8
0
  6
Continuous
 62
     7
100
AcDbCircle
 10
82.62381343383782
 20
903.8291998001102
 30
0.0
 40
1.649999999999977
  0
CIRCLE
  5
2E3
330
6A
100
AcDbEntity
  8
0
  6
Continuous
 62
     7
100
AcDbCircle
 10
82.62381343383782
 20
903.8291998001102
 30
0.0
 40
3.5
  0
CIRCLE
  5
2E4
330
6A
100
AcDbEntity
  8
0
  6
Continuous
 62
     7
100
AcDbCircle
 10
88.62381343383782
 20
892.3291998001102
 30
0.0
 40
1.649999999999977
  0
CIRCLE
  5
2E5
330
6A
100
AcDbEntity
  8
0
  6
Continuous
 62
     7
100
AcDbCircle
 10
61.62381343383783
 20
915.3291998001102
 30
0.0
 40
1.649999999999984
  0
CIRCLE
  5
2E6
330
6A
100
AcDbEntity
  8
0
  6
Continuous
 62
     7
100
AcDbCircle
 10
61.62381343383783
 20
892.3291998001102
 30
0.0
 40
1.649999999999984
  0
CIRCLE
  5
2E7
330
6A
100
AcDbEntity
  8
0
  6
Continuous
 62
     7
100
AcDbCircle
 10
88.62381343383782
 20
915.3291998001102
 30
0.0
 40
1.650000000000006
  0
CIRCLE
  5
2E8
330
6A
100
AcDbEntity
  8
0
  6
Continuous
 62
     7
100
AcDbCircle
 10
3.12381343383785
 20
892.3291998001102
 30
0.0
 40
1.649999999999991
  0
CIRCLE
  5
2E9
330
6A
100
AcDbEntity
  8
0
  6
Continuous
 62
     7
100
AcDbCircle
 10
35.87381343383784
 20
894.8291998001102
 30
0.0
 40
1.649999999999999
  0
ENDBLK
  5
6C
330
6A
100
AcDbEntity
  8
0
100
AcDbBlockEnd
  0
BLOCK
  5
6F
330
6D
100
AcDbEntity
  8
0
100
AcDbBlockBegin
  2
Vordans1
 70
     0
 10
44.99999751586933
 20
903.8291998001102
 30
0.0
  3
Vordans1
  1

  0
INSERT
  5
6E
330
6D
100
AcDbEntity
  8
0
100
AcDbBlockReference
  2
2320089_UTA_107_30-select__6
 10
-8.52618656616214
 20
888.8291998001102
 30
0.0
  0
MTEXT
  5
2EA
330
6D
100
AcDbEntity
  8
1
 62
     6
100
AcDbMText
 10
44.99999751586904
 20
883.8146000000004
 30
0.0
 40
5.0
 41
0.0
 71
     2
 72
     1
  1
 
  7
CONVERTER_11
 73
     1
 44
1.32052821128451
  0
DIMENSION
  5
2F5
330
6D
100
AcDbEntity
  8
1
100
AcDbDimension
  2
*D17
 10
-18.52618656616214
 20
918.8291998001102
 30
0.0
 11
-21.77618656616214
 21
903.8291998001102
 31
0.0
 70
    32
  1
<>
 71
     5
 42
-1.0
 53
90.0
  3
ME10_DIM_11
100
AcDbAlignedDimension
 13
-1.52618656616214
 23
888.8291998001102
 33
0.0
 14
-1.52618656616212
 24
918.8291998001102
 34
0.0
 50
90.0
100
AcDbRotatedDimension
  0
DIMENSION
  5
300
330
6D
100
AcDbEntity
  8
1
100
AcDbDimension
  2
*D18
 10
-8.52618656616215
 20
878.8291998001102
 30
0.0
 11
44.9999960312302
 21
882.2541998001102
 31
0.0
 70
    32
  1
<>
 71
     5
 42
-1.0
 53
0.00013888888889
  3
ME10_DIM_12
100
AcDbAlignedDimension
 13
98.52617862862255
 23
896.8075094262751
 33
0.0
 14
-8.52618656616214
 24
895.8291998001102
 34
0.0
100
AcDbRotatedDimension
  0
ENDBLK
  5
70
330
6D
100
AcDbEntity
  8
0
100
AcDbBlockEnd
  0
BLOCK
  5
72
330
71
100
AcDbEntity
  8
0
100
AcDbBlockBegin
  2
_rahmen
 70
     0
 10
301.5407810342787
 20
714.3864633633442
 30
0.0
  3
_rahmen
  1

  0
LINE
  5
301
330
71
100
AcDbEntity
  8
1
  6
DOT_CENTER
 62
     2
100
AcDbLine
 10
175.9826313940913
 20
740.5114633633435
 30
0.0
 11
181.4826313940913
 21
740.5114633633435
 31
0.0
  0
LINE
  5
302
330
71
100
AcDbEntity
  8
1
  6
PHANTOM
 62
     2
100
AcDbLine
 10
184.7326313940913
 20
743.2614633633436
 30
0.0
 11
184.7326313940913
 21
737.7614633633436
 31
0.0
  0
LINE
  5
303
330
71
100
AcDbEntity
  8
1
  6
PHANTOM
 62
     2
100
AcDbLine
 10
187.4826313940913
 20
740.5114633633435
 30
0.0
 11
181.9826313940913
 21
740.5114633633435
 31
0.0
  0
LINE
  5
304
330
71
100
AcDbEntity
  8
1
  6
Continuous
 62
     6
100
AcDbLine
 10
171.9959765075288
 20
744.8864633633436
 30
0.0
 11
301.5407810342805
 21
744.8864633633436
 31
0.0
  0
LINE
  5
305
330
71
100
AcDbEntity
  8
1
  6
Continuous
 62
     7
100
AcDbLine
 10
190.1959765075287
 20
723.6364633633436
 30
0.0
 11
208.3959765075287
 21
723.6364633633436
 31
0.0
  0
LINE
  5
306
330
71
100
AcDbEntity
  8
1
  6
Continuous
 62
     6
100
AcDbLine
 10
190.1959765075287
 20
719.3864633633436
 30
0.0
 11
171.9959765075288
 21
719.3864633633436
 31
0.0
  0
LINE
  5
307
330
71
100
AcDbEntity
  8
1
  6
Continuous
 62
     7
100
AcDbLine
 10
190.1959765075287
 20
723.6364633633436
 30
0.0
 11
190.1959765075287
 21
719.3864633633436
 31
0.0
  0
LINE
  5
308
330
71
100
AcDbEntity
  8
1
  6
Continuous
 62
     7
100
AcDbLine
 10
208.3959765075287
 20
723.6364633633436
 30
0.0
 11
208.3959765075287
 21
719.3864633633436
 31
0.0
  0
LINE
  5
309
330
71
100
AcDbEntity
  8
1
  6
Continuous
 62
     7
100
AcDbLine
 10
171.9959765075288
 20
723.6364633633436
 30
0.0
 11
171.9959765075288
 21
719.3864633633436
 31
0.0
  0
LINE
  5
30A
330
71
100
AcDbEntity
  8
1
  6
Continuous
 62
     7
100
AcDbLine
 10
171.9959765075288
 20
723.6364633633436
 30
0.0
 11
190.1959765075287
 21
723.6364633633436
 31
0.0
  0
LINE
  5
30B
330
71
100
AcDbEntity
  8
1
  6
Continuous
 62
     2
100
AcDbLine
 10
181.2326313940913
 20
743.0114633633435
 30
0.0
 11
181.2326313940913
 21
738.0114633633435
 31
0.0
  0
LINE
  5
30C
330
71
100
AcDbEntity
  8
1
  6
Continuous
 62
     2
100
AcDbLine
 10
181.2326313940913
 20
738.0114633633435
 30
0.0
 11
176.2326313940913
 21
739.2614633633435
 31
0.0
  0
LINE
  5
30D
330
71
100
AcDbEntity
  8
1
  6
Continuous
 62
     2
100
AcDbLine
 10
176.2326313940913
 20
739.2614633633435
 30
0.0
 11
176.2326313940913
 21
741.7614633633435
 31
0.0
  0
LINE
  5
30E
330
71
100
AcDbEntity
  8
1
  6
Continuous
 62
     2
100
AcDbLine
 10
176.2326313940913
 20
741.7614633633435
 30
0.0
 11
181.2326313940913
 21
743.0114633633435
 31
0.0
  0
LINE
  5
30F
330
71
100
AcDbEntity
  8
1
  6
Continuous
 62
     6
100
AcDbLine
 10
301.5407810342805
 20
736.3864633633436
 30
0.0
 11
301.54078103428
 21
727.8864633633436
 31
0.0
  0
LINE
  5
310
330
71
100
AcDbEntity
  8
1
  6
Continuous
 62
     6
100
AcDbLine
 10
208.3959765075287
 20
719.3864633633436
 30
0.0
 11
208.0407810342787
 21
719.3864633633436
 31
0.0
  0
LINE
  5
311
330
71
100
AcDbEntity
  8
1
  6
Continuous
 62
     7
100
AcDbLine
 10
208.3959765075287
 20
736.3864633633436
 30
0.0
 11
208.3959765075287
 21
723.6364633633436
 31
0.0
  0
LINE
  5
312
330
71
100
AcDbEntity
  8
1
  6
Continuous
 62
     7
100
AcDbLine
 10
171.9959765075288
 20
736.3864633633436
 30
0.0
 11
171.9959765075288
 21
723.6364633633436
 31
0.0
  0
LINE
  5
313
330
71
100
AcDbEntity
  8
1
  6
Continuous
 62
     6
100
AcDbLine
 10
208.3959765075287
 20
719.3864633633436
 30
0.0
 11
258.0407810342787
 21
719.3864633633436
 31
0.0
  0
LINE
  5
314
330
71
100
AcDbEntity
  8
1
  6
Continuous
 62
     6
100
AcDbLine
 10
301.5407810342786
 20
719.3864633633436
 30
0.0
 11
301.54078103428
 21
727.8864633633436
 31
0.0
  0
LINE
  5
315
330
71
100
AcDbEntity
  8
1
  6
Continuous
 62
     6
100
AcDbLine
 10
171.9959765075288
 20
736.3864633633436
 30
0.0
 11
208.3959765075287
 21
736.3864633633436
 31
0.0
  0
LINE
  5
316
330
71
100
AcDbEntity
  8
1
  6
Continuous
 62
     6
100
AcDbLine
 10
208.0407810342787
 20
719.3864633633436
 30
0.0
 11
190.1959765075287
 21
719.3864633633436
 31
0.0
  0
LINE
  5
317
330
71
100
AcDbEntity
  8
1
  6
Continuous
 62
     6
100
AcDbLine
 10
258.0407810342787
 20
719.3864633633436
 30
0.0
 11
301.5407810342786
 21
719.3864633633436
 31
0.0
  0
LINE
  5
318
102
{ACAD_REACTORS
330
446
330
447
102
}
330
71
100
AcDbEntity
  8
0
  6
Continuous
 62
     2
100
AcDbLine
 10
179.5106024496756
 20
731.4589781195557
 30
0.0
 11
179.5106024496756
 21
732.0645134080626
 31
0.0
  0
LINE
  5
319
102
{ACAD_REACTORS
330
446
330
447
102
}
330
71
100
AcDbEntity
  8
0
  6
Continuous
 62
     2
100
AcDbLine
 10
179.5106024496756
 20
728.6588435129245
 30
0.0
 11
179.5106024496756
 21
729.2406949196196
 31
0.0
  0
LINE
  5
31A
102
{ACAD_REACTORS
330
448
330
449
102
}
330
71
100
AcDbEntity
  8
0
  6
Continuous
 62
     2
100
AcDbLine
 10
202.1400888851547
 20
728.9485075810474
 30
0.0
 11
202.1400888851547
 21
726.67996336336
 31
0.0
  0
LINE
  5
31B
102
{ACAD_REACTORS
330
448
330
449
102
}
330
71
100
AcDbEntity
  8
0
  6
Continuous
 62
     2
100
AcDbLine
 10
200.7590351061672
 20
729.7337728871705
 30
0.0
 11
204.1439806247957
 21
729.7337728871712
 31
0.0
  0
LINE
  5
31C
102
{ACAD_REACTORS
330
448
330
449
102
}
330
71
100
AcDbEntity
  8
0
  6
Continuous
 62
     2
100
AcDbLine
 10
204.1439806247957
 20
728.9485075810474
 30
0.0
 11
204.1439806247957
 21
729.7337728871712
 31
0.0
  0
LINE
  5
31D
102
{ACAD_REACTORS
330
448
330
449
102
}
330
71
100
AcDbEntity
  8
0
  6
Continuous
 62
     2
100
AcDbLine
 10
203.3328815873224
 20
728.9485075810474
 30
0.0
 11
204.1439806247957
 21
728.9485075810474
 31
0.0
  0
LINE
  5
31E
102
{ACAD_REACTORS
330
448
330
449
102
}
330
71
100
AcDbEntity
  8
0
  6
Continuous
 62
     2
100
AcDbLine
 10
203.3328815873224
 20
726.67996336336
 30
0.0
 11
203.3328815873224
 21
728.9485075810474
 31
0.0
  0
LINE
  5
31F
102
{ACAD_REACTORS
330
448
330
449
102
}
330
71
100
AcDbEntity
  8
0
  6
Continuous
 62
     2
100
AcDbLine
 10
202.1400888851547
 20
726.67996336336
 30
0.0
 11
203.3328815873224
 21
726.67996336336
 31
0.0
  0
LINE
  5
320
102
{ACAD_REACTORS
330
43E
330
43F
102
}
330
71
100
AcDbEntity
  8
0
  6
Continuous
 62
     2
100
AcDbLine
 10
201.4434979470902
 20
733.0929633633455
 30
0.0
 11
200.040773729341
 21
733.0929633633455
 31
0.0
  0
LINE
  5
321
102
{ACAD_REACTORS
330
43E
330
43F
102
}
330
71
100
AcDbEntity
  8
0
  6
Continuous
 62
     2
100
AcDbLine
 10
201.4434979470902
 20
733.0929633633455
 30
0.0
 11
202.0446654689821
 21
732.4131400417899
 31
0.0
  0
LINE
  5
322
102
{ACAD_REACTORS
330
43E
330
43F
102
}
330
71
100
AcDbEntity
  8
0
  6
Continuous
 62
     2
100
AcDbLine
 10
202.0446654689821
 20
732.4131400417899
 30
0.0
 11
202.6458329908749
 21
733.0929633633455
 31
0.0
  0
LINE
  5
323
102
{ACAD_REACTORS
330
43E
330
43F
102
}
330
71
100
AcDbEntity
  8
0
  6
Continuous
 62
     2
100
AcDbLine
 10
202.7460275778555
 20
731.6200128333091
 30
0.0
 11
204.0485572086221
 21
733.0929633633455
 31
0.0
  0
LINE
  5
324
102
{ACAD_REACTORS
330
43E
330
43F
102
}
330
71
100
AcDbEntity
  8
0
  6
Continuous
 62
     2
100
AcDbLine
 10
202.7460275778555
 20
731.6200128333091
 30
0.0
 11
204.1439806247957
 21
730.0391538395343
 31
0.0
  0
LINE
  5
325
102
{ACAD_REACTORS
330
43E
330
43F
102
}
330
71
100
AcDbEntity
  8
0
  6
Continuous
 62
     2
100
AcDbLine
 10
202.7412564070474
 20
730.0391538395343
 30
0.0
 11
204.1439806247957
 21
730.0391538395343
 31
0.0
  0
LINE
  5
326
102
{ACAD_REACTORS
330
43E
330
43F
102
}
330
71
100
AcDbEntity
  8
0
  6
Continuous
 62
     2
100
AcDbLine
 10
202.0446654689821
 20
730.826885624828
 30
0.0
 11
202.7412564070474
 21
730.0391538395343
 31
0.0
  0
LINE
  5
327
102
{ACAD_REACTORS
330
43C
330
43D
102
}
330
71
100
AcDbEntity
  8
0
  6
Continuous
 62
     2
100
AcDbLine
 10
198.5855666326984
 20
733.0929633633455
 30
0.0
 11
199.8260710429513
 21
733.0929633633455
 31
0.0
  0
LINE
  5
328
102
{ACAD_REACTORS
330
43C
330
43D
102
}
330
71
100
AcDbEntity
  8
0
  6
Continuous
 62
     2
100
AcDbLine
 10
199.8260710429513
 20
733.0929633633455
 30
0.0
 11
199.8260710429513
 21
730.0391538395343
 31
0.0
  0
LINE
  5
329
102
{ACAD_REACTORS
330
43C
330
43D
102
}
330
71
100
AcDbEntity
  8
0
  6
Continuous
 62
     2
100
AcDbLine
 10
198.5855666326984
 20
730.0391538395343
 30
0.0
 11
198.5855666326984
 21
733.0929633633455
 31
0.0
  0
LINE
  5
32A
102
{ACAD_REACTORS
330
43A
330
43B
102
}
330
71
100
AcDbEntity
  8
0
  6
Continuous
 62
     2
100
AcDbLine
 10
197.1172565501608
 20
727.9014871728843
 30
0.0
 11
197.4174217873531
 21
728.6693021388711
 31
0.0
  0
LINE
  5
32B
102
{ACAD_REACTORS
330
43A
330
43B
102
}
330
71
100
AcDbEntity
  8
0
  6
Continuous
 62
     2
100
AcDbLine
 10
196.6397209455399
 20
726.67996336336
 30
0.0
 11
196.8512009990157
 21
727.2209239075778
 31
0.0
  0
LINE
  5
32C
102
{ACAD_REACTORS
330
43A
330
43B
102
}
330
71
100
AcDbEntity
  8
0
  6
Continuous
 62
     2
100
AcDbLine
 10
196.7971695822262
 20
729.7337728871712
 30
0.0
 11
195.399216535287
 21
726.67996336336
 31
0.0
  0
LINE
  5
32D
102
{ACAD_REACTORS
330
43A
330
43B
102
}
330
71
100
AcDbEntity
  8
0
  6
Continuous
 62
     2
100
AcDbLine
 10
199.4356270394192
 20
726.67996336336
 30
0.0
 11
198.1951226291654
 21
726.67996336336
 31
0.0
  0
LINE
  5
32E
102
{ACAD_REACTORS
330
43A
330
43B
102
}
330
71
100
AcDbEntity
  8
0
  6
Continuous
 62
     2
100
AcDbLine
 10
196.8512009990157
 20
727.2209239075778
 30
0.0
 11
197.9836425756896
 21
727.2209239075778
 31
0.0
  0
LINE
  5
32F
102
{ACAD_REACTORS
330
438
330
439
102
}
330
71
100
AcDbEntity
  8
0
  6
Continuous
 62
     2
100
AcDbLine
 10
193.2417043961047
 20
728.9485075810474
 30
0.0
 11
194.0528034335794
 21
728.9485075810474
 31
0.0
  0
LINE
  5
330
102
{ACAD_REACTORS
330
438
330
439
102
}
330
71
100
AcDbEntity
  8
0
  6
Continuous
 62
     2
100
AcDbLine
 10
196.0566951732184
 20
729.7337728871712
 30
0.0
 11
193.2417043961047
 21
729.7337728871712
 31
0.0
  0
LINE
  5
331
102
{ACAD_REACTORS
330
438
330
439
102
}
330
71
100
AcDbEntity
  8
0
  6
Continuous
 62
     2
100
AcDbLine
 10
196.0566951732184
 20
728.9485075810474
 30
0.0
 11
196.0566951732184
 21
729.7337728871712
 31
0.0
  0
LINE
  5
332
102
{ACAD_REACTORS
330
438
330
439
102
}
330
71
100
AcDbEntity
  8
0
  6
Continuous
 62
     2
100
AcDbLine
 10
195.2455961357458
 20
728.9485075810474
 30
0.0
 11
196.0566951732184
 21
728.9485075810474
 31
0.0
  0
LINE
  5
333
102
{ACAD_REACTORS
330
438
330
439
102
}
330
71
100
AcDbEntity
  8
0
  6
Continuous
 62
     2
100
AcDbLine
 10
195.2455961357458
 20
726.67996336336
 30
0.0
 11
195.2455961357458
 21
728.9485075810474
 31
0.0
  0
LINE
  5
334
102
{ACAD_REACTORS
330
436
330
437
102
}
330
71
100
AcDbEntity
  8
0
  6
Continuous
 62
     2
100
AcDbLine
 10
195.9137109798438
 20
730.0391538395343
 30
0.0
 11
195.9137109798438
 21
731.347929349739
 31
0.0
  0
LINE
  5
335
102
{ACAD_REACTORS
330
436
330
437
102
}
330
71
100
AcDbEntity
  8
0
  6
Continuous
 62
     2
100
AcDbLine
 10
194.7209182776774
 20
733.0929633633455
 30
0.0
 11
194.7209182776774
 21
730.0391538395343
 31
0.0
  0
LINE
  5
336
102
{ACAD_REACTORS
330
436
330
437
102
}
330
71
100
AcDbEntity
  8
0
  6
Continuous
 62
     2
100
AcDbLine
 10
195.9137109798438
 20
733.0929633633455
 30
0.0
 11
194.7209182776774
 21
733.0929633633455
 31
0.0
  0
LINE
  5
337
102
{ACAD_REACTORS
330
436
330
437
102
}
330
71
100
AcDbEntity
  8
0
  6
Continuous
 62
     2
100
AcDbLine
 10
197.1542153900979
 20
733.0929633633455
 30
0.0
 11
197.1542153900979
 21
731.7841878531403
 31
0.0
  0
LINE
  5
338
102
{ACAD_REACTORS
330
434
330
435
102
}
330
71
100
AcDbEntity
  8
0
  6
Continuous
 62
     2
100
AcDbLine
 10
189.4724794572577
 20
729.7337728871712
 30
0.0
 11
189.4724794572577
 21
726.67996336336
 31
0.0
  0
LINE
  5
339
102
{ACAD_REACTORS
330
434
330
435
102
}
330
71
100
AcDbEntity
  8
0
  6
Continuous
 62
     2
100
AcDbLine
 10
190.6652721594252
 20
729.7337728871712
 30
0.0
 11
189.4724794572577
 21
729.7337728871712
 31
0.0
  0
LINE
  5
33A
102
{ACAD_REACTORS
330
434
330
435
102
}
330
71
100
AcDbEntity
  8
0
  6
Continuous
 62
     2
100
AcDbLine
 10
191.9057765696782
 20
726.67996336336
 30
0.0
 11
193.0985692718446
 21
726.67996336336
 31
0.0
  0
LINE
  5
33B
102
{ACAD_REACTORS
330
434
330
435
102
}
330
71
100
AcDbEntity
  8
0
  6
Continuous
 62
     2
100
AcDbLine
 10
189.4724794572577
 20
726.67996336336
 30
0.0
 11
190.6652721594252
 21
726.67996336336
 31
0.0
  0
LINE
  5
33C
102
{ACAD_REACTORS
330
444
330
445
102
}
330
71
100
AcDbEntity
  8
0
  6
Continuous
 62
     2
100
AcDbLine
 10
193.1464319108167
 20
731.9150654041608
 30
0.0
 11
193.1464319108167
 21
732.3949497579025
 31
0.0
  0
LINE
  5
33D
102
{ACAD_REACTORS
330
444
330
445
102
}
330
71
100
AcDbEntity
  8
0
  6
Continuous
 62
     2
100
AcDbLine
 10
194.4823597372444
 20
731.9150654041608
 30
0.0
 11
193.1464319108167
 21
731.9150654041608
 31
0.0
  0
LINE
  5
33E
102
{ACAD_REACTORS
330
444
330
445
102
}
330
71
100
AcDbEntity
  8
0
  6
Continuous
 62
     2
100
AcDbLine
 10
194.4823597372444
 20
731.2170517987184
 30
0.0
 11
194.4823597372444
 21
731.9150654041608
 31
0.0
  0
LINE
  5
33F
102
{ACAD_REACTORS
330
444
330
445
102
}
330
71
100
AcDbEntity
  8
0
  6
Continuous
 62
     2
100
AcDbLine
 10
193.1464319108167
 20
731.2170517987184
 30
0.0
 11
194.4823597372444
 21
731.2170517987184
 31
0.0
  0
LINE
  5
340
102
{ACAD_REACTORS
330
432
330
433
102
}
330
71
100
AcDbEntity
  8
0
  6
Continuous
 62
     2
100
AcDbLine
 10
189.6634772204899
 20
733.0929633633455
 30
0.0
 11
189.6634772204899
 21
730.0391538395343
 31
0.0
  0
LINE
  5
341
102
{ACAD_REACTORS
330
432
330
433
102
}
330
71
100
AcDbEntity
  8
0
  6
Continuous
 62
     2
100
AcDbLine
 10
189.6634772204899
 20
730.0391538395343
 30
0.0
 11
188.4706845183234
 21
730.0391538395343
 31
0.0
  0
LINE
  5
342
102
{ACAD_REACTORS
330
432
330
433
102
}
330
71
100
AcDbEntity
  8
0
  6
Continuous
 62
     2
100
AcDbLine
 10
188.4706845183234
 20
730.0391538395343
 30
0.0
 11
188.4706845183234
 21
731.173425948378
 31
0.0
  0
LINE
  5
343
102
{ACAD_REACTORS
330
432
330
433
102
}
330
71
100
AcDbEntity
  8
0
  6
Continuous
 62
     2
100
AcDbLine
 10
187.421026940416
 20
730.0391538395343
 30
0.0
 11
186.2282342382494
 21
730.0391538395343
 31
0.0
  0
LINE
  5
344
102
{ACAD_REACTORS
330
432
330
433
102
}
330
71
100
AcDbEntity
  8
0
  6
Continuous
 62
     2
100
AcDbLine
 10
186.2282342382494
 20
733.0929633633455
 30
0.0
 11
187.421026940416
 21
733.0929633633455
 31
0.0
  0
LINE
  5
345
102
{ACAD_REACTORS
330
432
330
433
102
}
330
71
100
AcDbEntity
  8
0
  6
Continuous
 62
     2
100
AcDbLine
 10
187.421026940416
 20
733.0929633633455
 30
0.0
 11
187.421026940416
 21
732.0241300300108
 31
0.0
  0
LINE
  5
346
102
{ACAD_REACTORS
330
432
330
433
102
}
330
71
100
AcDbEntity
  8
0
  6
Continuous
 62
     2
100
AcDbLine
 10
187.421026940416
 20
732.0241300300108
 30
0.0
 11
188.4706845183234
 21
732.0241300300108
 31
0.0
  0
LINE
  5
347
102
{ACAD_REACTORS
330
440
330
441
102
}
330
71
100
AcDbEntity
  8
0
  6
Continuous
 62
     2
100
AcDbLine
 10
184.2720542066957
 20
732.4298575179055
 30
0.0
 11
184.5893492682377
 21
732.4298575179055
 31
0.0
  0
LINE
  5
348
102
{ACAD_REACTORS
330
440
330
441
102
}
330
71
100
AcDbEntity
  8
0
  6
Continuous
 62
     2
100
AcDbLine
 10
184.2720542066957
 20
731.7241298685631
 30
0.0
 11
184.5893492682377
 21
731.7241298685631
 31
0.0
  0
LINE
  5
349
102
{ACAD_REACTORS
330
440
330
441
102
}
330
71
100
AcDbEntity
  8
0
  6
Continuous
 62
     2
100
AcDbLine
 10
183.0315497964417
 20
733.0929633633455
 30
0.0
 11
183.0315497964417
 21
730.0391538395343
 31
0.0
  0
LINE
  5
34A
102
{ACAD_REACTORS
330
440
330
441
102
}
330
71
100
AcDbEntity
  8
0
  6
Continuous
 62
     2
100
AcDbLine
 10
183.0315497964417
 20
733.0929633633455
 30
0.0
 11
185.0308217944761
 21
733.0929633633455
 31
0.0
  0
LINE
  5
34B
102
{ACAD_REACTORS
330
440
330
441
102
}
330
71
100
AcDbEntity
  8
0
  6
Continuous
 62
     2
100
AcDbLine
 10
184.2720542066957
 20
730.982232080678
 30
0.0
 11
185.0308217944761
 21
730.982232080678
 31
0.0
  0
LINE
  5
34C
102
{ACAD_REACTORS
330
446
330
447
102
}
330
71
100
AcDbEntity
  8
0
  6
Continuous
 62
     2
100
AcDbLine
 10
176.935053763145
 20
732.0646908847107
 30
0.0
 11
176.935053763145
 21
727.7082358419937
 31
0.0
  0
LINE
  5
34D
102
{ACAD_REACTORS
330
446
330
447
102
}
330
71
100
AcDbEntity
  8
0
  6
Continuous
 62
     2
100
AcDbLine
 10
177.2507706862206
 20
732.3804078077868
 30
0.0
 11
178.7266039472302
 21
732.3804078077868
 31
0.0
  0
LINE
  5
34E
102
{ACAD_REACTORS
330
446
330
447
102
}
330
71
100
AcDbEntity
  8
0
  6
Continuous
 62
     2
100
AcDbLine
 10
179.0423208703068
 20
731.4606662656502
 30
0.0
 11
179.0423208703068
 21
732.0646908847107
 31
0.0
  0
LINE
  5
34F
102
{ACAD_REACTORS
330
446
330
447
102
}
330
71
100
AcDbEntity
  8
0
  6
Continuous
 62
     2
100
AcDbLine
 10
179.0423208703068
 20
727.7082358419937
 30
0.0
 11
179.0423208703068
 21
729.2390067735253
 31
0.0
  0
LINE
  5
350
102
{ACAD_REACTORS
330
446
330
447
102
}
330
71
100
AcDbEntity
  8
0
  6
Continuous
 62
     2
100
AcDbLine
 10
182.130188100191
 20
726.67996336336
 30
0.0
 11
176.6568760094741
 21
726.67996336336
 31
0.0
  0
LINE
  5
351
102
{ACAD_REACTORS
330
446
330
447
102
}
330
71
100
AcDbEntity
  8
0
  6
Continuous
 62
     2
100
AcDbLine
 10
182.5544327155749
 20
732.6687187479434
 30
0.0
 11
182.5544327155749
 21
727.1042079787433
 31
0.0
  0
LINE
  5
352
102
{ACAD_REACTORS
330
446
330
447
102
}
330
71
100
AcDbEntity
  8
0
  6
Continuous
 62
     2
100
AcDbLine
 10
176.6568760094741
 20
733.0929633633273
 30
0.0
 11
182.130188100191
 21
733.0929633633273
 31
0.0
  0
LINE
  5
353
102
{ACAD_REACTORS
330
446
330
447
102
}
330
71
100
AcDbEntity
  8
0
  6
Continuous
 62
     2
100
AcDbLine
 10
176.2326313940913
 20
732.6687187479434
 30
0.0
 11
176.2326313940913
 21
727.1042079787433
 31
0.0
  0
LINE
  5
354
102
{ACAD_REACTORS
330
446
330
447
102
}
330
71
100
AcDbEntity
  8
0
  6
Continuous
 62
     2
100
AcDbLine
 10
178.7266039472302
 20
727.392518918917
 30
0.0
 11
177.2507706862206
 21
727.392518918917
 31
0.0
  0
LINE
  5
355
102
{ACAD_REACTORS
330
440
330
441
102
}
330
71
100
AcDbEntity
  8
0
  6
Continuous
 62
     2
100
AcDbLine
 10
184.2720542066957
 20
730.0391538395343
 30
0.0
 11
184.2720542066957
 21
730.982232080678
 31
0.0
  0
LINE
  5
356
102
{ACAD_REACTORS
330
440
330
441
102
}
330
71
100
AcDbEntity
  8
0
  6
Continuous
 62
     2
100
AcDbLine
 10
183.0315497964417
 20
730.0391538395343
 30
0.0
 11
184.2720542066957
 21
730.0391538395343
 31
0.0
  0
LINE
  5
357
102
{ACAD_REACTORS
330
440
330
441
102
}
330
71
100
AcDbEntity
  8
0
  6
Continuous
 62
     2
100
AcDbLine
 10
184.2720542066957
 20
731.7241298685631
 30
0.0
 11
184.2720542066957
 21
732.4298575179055
 31
0.0
  0
LINE
  5
358
102
{ACAD_REACTORS
330
432
330
433
102
}
330
71
100
AcDbEntity
  8
0
  6
Continuous
 62
     2
100
AcDbLine
 10
186.2282342382494
 20
733.0929633633455
 30
0.0
 11
186.2282342382494
 21
730.0391538395343
 31
0.0
  0
LINE
  5
359
102
{ACAD_REACTORS
330
432
330
433
102
}
330
71
100
AcDbEntity
  8
0
  6
Continuous
 62
     2
100
AcDbLine
 10
187.421026940416
 20
731.173425948378
 30
0.0
 11
187.421026940416
 21
730.0391538395343
 31
0.0
  0
LINE
  5
35A
102
{ACAD_REACTORS
330
432
330
433
102
}
330
71
100
AcDbEntity
  8
0
  6
Continuous
 62
     2
100
AcDbLine
 10
188.4706845183234
 20
731.173425948378
 30
0.0
 11
187.421026940416
 21
731.173425948378
 31
0.0
  0
LINE
  5
35B
102
{ACAD_REACTORS
330
432
330
433
102
}
330
71
100
AcDbEntity
  8
0
  6
Continuous
 62
     2
100
AcDbLine
 10
188.4706845183234
 20
733.0929633633455
 30
0.0
 11
189.6634772204899
 21
733.0929633633455
 31
0.0
  0
LINE
  5
35C
102
{ACAD_REACTORS
330
432
330
433
102
}
330
71
100
AcDbEntity
  8
0
  6
Continuous
 62
     2
100
AcDbLine
 10
188.4706845183234
 20
732.0241300300108
 30
0.0
 11
188.4706845183234
 21
733.0929633633455
 31
0.0
  0
LINE
  5
35D
102
{ACAD_REACTORS
330
444
330
445
102
}
330
71
100
AcDbEntity
  8
0
  6
Continuous
 62
     2
100
AcDbLine
 10
194.4823597372444
 20
732.3949497579025
 30
0.0
 11
194.4823597372444
 21
733.0929633633455
 31
0.0
  0
LINE
  5
35E
102
{ACAD_REACTORS
330
444
330
445
102
}
330
71
100
AcDbEntity
  8
0
  6
Continuous
 62
     2
100
AcDbLine
 10
191.3320400134635
 20
733.0929633633455
 30
0.0
 11
194.4823597372444
 21
733.0929633633455
 31
0.0
  0
LINE
  5
35F
102
{ACAD_REACTORS
330
444
330
445
102
}
330
71
100
AcDbEntity
  8
0
  6
Continuous
 62
     2
100
AcDbLine
 10
191.3320400134635
 20
730.0391538395343
 30
0.0
 11
194.4823597372444
 21
730.0391538395343
 31
0.0
  0
LINE
  5
360
102
{ACAD_REACTORS
330
444
330
445
102
}
330
71
100
AcDbEntity
  8
0
  6
Continuous
 62
     2
100
AcDbLine
 10
194.4823597372444
 20
730.0391538395343
 30
0.0
 11
194.4823597372444
 21
730.7371674449766
 31
0.0
  0
LINE
  5
361
102
{ACAD_REACTORS
330
444
330
445
102
}
330
71
100
AcDbEntity
  8
0
  6
Continuous
 62
     2
100
AcDbLine
 10
194.4823597372444
 20
730.7371674449766
 30
0.0
 11
193.1464319108167
 21
730.7371674449766
 31
0.0
  0
LINE
  5
362
102
{ACAD_REACTORS
330
444
330
445
102
}
330
71
100
AcDbEntity
  8
0
  6
Continuous
 62
     2
100
AcDbLine
 10
193.1464319108167
 20
730.7371674449766
 30
0.0
 11
193.1464319108167
 21
731.2170517987184
 31
0.0
  0
LINE
  5
363
102
{ACAD_REACTORS
330
444
330
445
102
}
330
71
100
AcDbEntity
  8
0
  6
Continuous
 62
     2
100
AcDbLine
 10
193.1464319108167
 20
732.3949497579025
 30
0.0
 11
194.4823597372444
 21
732.3949497579025
 31
0.0
  0
LINE
  5
364
102
{ACAD_REACTORS
330
434
330
435
102
}
330
71
100
AcDbEntity
  8
0
  6
Continuous
 62
     2
100
AcDbLine
 10
190.6652721594252
 20
726.67996336336
 30
0.0
 11
190.6652721594252
 21
727.9887388735644
 31
0.0
  0
LINE
  5
365
102
{ACAD_REACTORS
330
434
330
435
102
}
330
71
100
AcDbEntity
  8
0
  6
Continuous
 62
     2
100
AcDbLine
 10
190.6652721594252
 20
727.9887388735644
 30
0.0
 11
191.9057765696782
 21
726.67996336336
 31
0.0
  0
LINE
  5
366
102
{ACAD_REACTORS
330
434
330
435
102
}
330
71
100
AcDbEntity
  8
0
  6
Continuous
 62
     2
100
AcDbLine
 10
193.0985692718446
 20
726.67996336336
 30
0.0
 11
193.0985692718446
 21
729.7337728871712
 31
0.0
  0
LINE
  5
367
102
{ACAD_REACTORS
330
434
330
435
102
}
330
71
100
AcDbEntity
  8
0
  6
Continuous
 62
     2
100
AcDbLine
 10
193.0985692718446
 20
729.7337728871712
 30
0.0
 11
191.9057765696782
 21
729.7337728871712
 31
0.0
  0
LINE
  5
368
102
{ACAD_REACTORS
330
434
330
435
102
}
330
71
100
AcDbEntity
  8
0
  6
Continuous
 62
     2
100
AcDbLine
 10
191.9057765696782
 20
729.7337728871712
 30
0.0
 11
191.9057765696782
 21
728.4249973769658
 31
0.0
  0
LINE
  5
369
102
{ACAD_REACTORS
330
434
330
435
102
}
330
71
100
AcDbEntity
  8
0
  6
Continuous
 62
     2
100
AcDbLine
 10
191.9057765696782
 20
728.4249973769658
 30
0.0
 11
190.6652721594252
 21
729.7337728871712
 31
0.0
  0
LINE
  5
36A
102
{ACAD_REACTORS
330
436
330
437
102
}
330
71
100
AcDbEntity
  8
0
  6
Continuous
 62
     2
100
AcDbLine
 10
195.9137109798438
 20
731.347929349739
 30
0.0
 11
197.1542153900979
 21
730.0391538395343
 31
0.0
  0
LINE
  5
36B
102
{ACAD_REACTORS
330
436
330
437
102
}
330
71
100
AcDbEntity
  8
0
  6
Continuous
 62
     2
100
AcDbLine
 10
197.1542153900979
 20
730.0391538395343
 30
0.0
 11
198.3470080922645
 21
730.0391538395343
 31
0.0
  0
LINE
  5
36C
102
{ACAD_REACTORS
330
436
330
437
102
}
330
71
100
AcDbEntity
  8
0
  6
Continuous
 62
     2
100
AcDbLine
 10
198.3470080922645
 20
730.0391538395343
 30
0.0
 11
198.3470080922645
 21
733.0929633633455
 31
0.0
  0
LINE
  5
36D
102
{ACAD_REACTORS
330
436
330
437
102
}
330
71
100
AcDbEntity
  8
0
  6
Continuous
 62
     2
100
AcDbLine
 10
198.3470080922645
 20
733.0929633633455
 30
0.0
 11
197.1542153900979
 21
733.0929633633455
 31
0.0
  0
LINE
  5
36E
102
{ACAD_REACTORS
330
436
330
437
102
}
330
71
100
AcDbEntity
  8
0
  6
Continuous
 62
     2
100
AcDbLine
 10
197.1542153900979
 20
731.7841878531403
 30
0.0
 11
195.9137109798438
 21
733.0929633633455
 31
0.0
  0
LINE
  5
36F
102
{ACAD_REACTORS
330
436
330
437
102
}
330
71
100
AcDbEntity
  8
0
  6
Continuous
 62
     2
100
AcDbLine
 10
194.7209182776774
 20
730.0391538395343
 30
0.0
 11
195.9137109798438
 21
730.0391538395343
 31
0.0
  0
LINE
  5
370
102
{ACAD_REACTORS
330
438
330
439
102
}
330
71
100
AcDbEntity
  8
0
  6
Continuous
 62
     2
100
AcDbLine
 10
193.2417043961047
 20
729.7337728871712
 30
0.0
 11
193.2417043961047
 21
728.9485075810474
 31
0.0
  0
LINE
  5
371
102
{ACAD_REACTORS
330
438
330
439
102
}
330
71
100
AcDbEntity
  8
0
  6
Continuous
 62
     2
100
AcDbLine
 10
194.0528034335794
 20
728.9485075810474
 30
0.0
 11
194.0528034335794
 21
726.67996336336
 31
0.0
  0
LINE
  5
372
102
{ACAD_REACTORS
330
438
330
439
102
}
330
71
100
AcDbEntity
  8
0
  6
Continuous
 62
     2
100
AcDbLine
 10
194.0528034335794
 20
726.67996336336
 30
0.0
 11
195.2455961357458
 21
726.67996336336
 31
0.0
  0
LINE
  5
373
102
{ACAD_REACTORS
330
43A
330
43B
102
}
330
71
100
AcDbEntity
  8
0
  6
Continuous
 62
     2
100
AcDbLine
 10
198.1951226291654
 20
726.67996336336
 30
0.0
 11
197.9836425756896
 21
727.2209239075778
 31
0.0
  0
LINE
  5
374
102
{ACAD_REACTORS
330
43A
330
43B
102
}
330
71
100
AcDbEntity
  8
0
  6
Continuous
 62
     2
100
AcDbLine
 10
198.037673992479
 20
729.7337728871712
 30
0.0
 11
199.4356270394192
 21
726.67996336336
 31
0.0
  0
LINE
  5
375
102
{ACAD_REACTORS
330
43A
330
43B
102
}
330
71
100
AcDbEntity
  8
0
  6
Continuous
 62
     2
100
AcDbLine
 10
196.7971695822262
 20
729.7337728871712
 30
0.0
 11
198.037673992479
 21
729.7337728871712
 31
0.0
  0
LINE
  5
376
102
{ACAD_REACTORS
330
43A
330
43B
102
}
330
71
100
AcDbEntity
  8
0
  6
Continuous
 62
     2
100
AcDbLine
 10
195.399216535287
 20
726.67996336336
 30
0.0
 11
196.6397209455399
 21
726.67996336336
 31
0.0
  0
LINE
  5
377
102
{ACAD_REACTORS
330
43A
330
43B
102
}
330
71
100
AcDbEntity
  8
0
  6
Continuous
 62
     2
100
AcDbLine
 10
197.1172565501608
 20
727.9014871728843
 30
0.0
 11
197.7175870245433
 21
727.9014871728843
 31
0.0
  0
LINE
  5
378
102
{ACAD_REACTORS
330
43A
330
43B
102
}
330
71
100
AcDbEntity
  8
0
  6
Continuous
 62
     2
100
AcDbLine
 10
197.7175870245433
 20
727.9014871728843
 30
0.0
 11
197.4174217873531
 21
728.6693021388711
 31
0.0
  0
LINE
  5
379
102
{ACAD_REACTORS
330
43C
330
43D
102
}
330
71
100
AcDbEntity
  8
0
  6
Continuous
 62
     2
100
AcDbLine
 10
199.8260710429513
 20
730.0391538395343
 30
0.0
 11
198.5855666326984
 21
730.0391538395343
 31
0.0
  0
LINE
  5
37A
102
{ACAD_REACTORS
330
43E
330
43F
102
}
330
71
100
AcDbEntity
  8
0
  6
Continuous
 62
     2
100
AcDbLine
 10
201.3480745309163
 20
730.0391538395343
 30
0.0
 11
199.9453503131682
 21
730.0391538395343
 31
0.0
  0
LINE
  5
37B
102
{ACAD_REACTORS
330
43E
330
43F
102
}
330
71
100
AcDbEntity
  8
0
  6
Continuous
 62
     2
100
AcDbLine
 10
201.3480745309163
 20
730.0391538395343
 30
0.0
 11
202.0446654689821
 21
730.826885624828
 31
0.0
  0
LINE
  5
37C
102
{ACAD_REACTORS
330
43E
330
43F
102
}
330
71
100
AcDbEntity
  8
0
  6
Continuous
 62
     2
100
AcDbLine
 10
202.6458329908749
 20
733.0929633633455
 30
0.0
 11
204.0485572086221
 21
733.0929633633455
 31
0.0
  0
LINE
  5
37D
102
{ACAD_REACTORS
330
43E
330
43F
102
}
330
71
100
AcDbEntity
  8
0
  6
Continuous
 62
     2
100
AcDbLine
 10
200.040773729341
 20
733.0929633633455
 30
0.0
 11
201.3433033601085
 21
731.6200128333091
 31
0.0
  0
LINE
  5
37E
102
{ACAD_REACTORS
330
43E
330
43F
102
}
330
71
100
AcDbEntity
  8
0
  6
Continuous
 62
     2
100
AcDbLine
 10
199.9453503131682
 20
730.0391538395343
 30
0.0
 11
201.3433033601085
 21
731.6200128333091
 31
0.0
  0
LINE
  5
37F
102
{ACAD_REACTORS
330
448
330
449
102
}
330
71
100
AcDbEntity
  8
0
  6
Continuous
 62
     2
100
AcDbLine
 10
201.806106928548
 20
727.7269837715237
 30
0.0
 11
201.806106928548
 21
726.8544667647203
 31
0.0
  0
LINE
  5
380
102
{ACAD_REACTORS
330
448
330
449
102
}
330
71
100
AcDbEntity
  8
0
  6
Continuous
 62
     2
100
AcDbLine
 10
201.0364495855866
 20
728.9485075810474
 30
0.0
 11
202.1400888851547
 21
728.9485075810474
 31
0.0
  0
LINE
  5
381
102
{ACAD_REACTORS
330
44A
330
44B
102
}
330
71
100
AcDbEntity
  8
0
  6
Continuous
 62
     2
100
AcDbLine
 10
185.7034054492962
 20
727.7269837715241
 30
0.0
 11
185.7034054492962
 21
726.8544667647209
 31
0.0
  0
LINE
  5
382
102
{ACAD_REACTORS
330
44A
330
44B
102
}
330
71
100
AcDbEntity
  8
0
  6
Continuous
 62
     2
100
AcDbLine
 10
185.7034054492962
 20
728.6867524790069
 30
0.0
 11
185.7034054492962
 21
729.5592694858102
 31
0.0
  0
LINE
  5
383
330
71
100
AcDbEntity
  8
1
  6
Continuous
 62
     7
100
AcDbLine
 10
301.54078103428
 20
727.8864633633436
 30
0.0
 11
208.3959765075287
 21
727.8864633633436
 31
0.0
  0
LINE
  5
384
330
71
100
AcDbEntity
  8
1
  6
Continuous
 62
     7
100
AcDbLine
 10
292.6223727526013
 20
744.8864633633436
 30
0.0
 11
292.6223727526013
 21
736.3864633633436
 31
0.0
  0
LINE
  5
385
330
71
100
AcDbEntity
  8
1
  6
Continuous
 62
     7
100
AcDbLine
 10
266.1223727526016
 20
744.8864633633436
 30
0.0
 11
266.1223727526016
 21
736.3864633633436
 31
0.0
  0
LINE
  5
386
330
71
100
AcDbEntity
  8
1
  6
Continuous
 62
     7
100
AcDbLine
 10
208.3959765075287
 20
736.3864633633436
 30
0.0
 11
208.3959765075287
 21
744.8864633633436
 31
0.0
  0
LINE
  5
387
330
71
100
AcDbEntity
  8
1
  6
Continuous
 62
     7
100
AcDbLine
 10
171.9959765075288
 20
736.3864633633436
 30
0.0
 11
171.9959765075288
 21
744.8864633633436
 31
0.0
  0
LINE
  5
388
330
71
100
AcDbEntity
  8
1
  6
Continuous
 62
     6
100
AcDbLine
 10
208.3959765075287
 20
736.3864633633436
 30
0.0
 11
301.5407810342805
 21
736.3864633633436
 31
0.0
  0
LINE
  5
389
330
71
100
AcDbEntity
  8
1
  6
Continuous
 62
     7
100
AcDbLine
 10
236.2959765075287
 20
727.8864633633436
 30
0.0
 11
236.2959765075287
 21
736.3864633633436
 31
0.0
  0
LINE
  5
38A
330
71
100
AcDbEntity
  8
1
  6
Continuous
 62
     6
100
AcDbLine
 10
301.5407810342805
 20
736.3864633633436
 30
0.0
 11
301.5407810342805
 21
744.8864633633436
 31
0.0
  0
LINE
  5
38B
330
71
100
AcDbEntity
  8
1
  6
Continuous
 62
     2
100
AcDbLine
 10
164.8741143676121
 20
719.3864633633414
 30
0.0
 11
164.8741143676121
 21
719.3864633633442
 31
0.0
  0
LINE
  5
38C
330
71
100
AcDbEntity
  8
1
  6
Continuous
 62
     6
100
AcDbLine
 10
28.20744770094558
 20
719.3864633633442
 30
0.0
 11
171.9959765075288
 21
719.3864633633411
 31
0.0
  0
LINE
  5
38D
330
71
100
AcDbEntity
  8
1
  6
Continuous
 62
     6
100
AcDbLine
 10
301.5407810342786
 20
719.3864633633436
 30
0.0
 11
301.5407810342782
 21
727.8864633633436
 31
0.0
  0
LINE
  5
38E
330
71
100
AcDbEntity
  8
1
  6
Continuous
 62
     6
100
AcDbLine
 10
-93.45921896572105
 20
719.3864633633442
 30
0.0
 11
-93.45921896572202
 21
1006.386463363344
 31
0.0
  0
LINE
  5
38F
330
71
100
AcDbEntity
  8
1
  6
Continuous
 62
     2
100
AcDbLine
 10
-113.4592189657221
 20
862.8864633633442
 30
0.0
 11
-113.4592189657221
 21
714.3864633633442
 31
0.0
  0
LINE
  5
390
330
71
100
AcDbEntity
  8
1
  6
Continuous
 62
     2
100
AcDbLine
 10
-113.4592189657221
 20
862.8864633633442
 30
0.0
 11
-103.459218965722
 21
862.8864633633442
 31
0.0
  0
LINE
  5
391
330
71
100
AcDbEntity
  8
1
  6
Continuous
 62
     2
100
AcDbLine
 10
-113.4592189657221
 20
1011.386463363344
 30
0.0
 11
-113.4592189657221
 21
862.8864633633442
 31
0.0
  0
LINE
  5
392
330
71
100
AcDbEntity
  8
1
  6
Continuous
 62
     2
100
AcDbLine
 10
116.5407810342759
 20
1011.386463363344
 30
0.0
 11
96.54078103427867
 21
1011.386463363344
 31
0.0
  0
LINE
  5
393
330
71
100
AcDbEntity
  8
1
  6
Continuous
 62
     2
100
AcDbLine
 10
116.5407810342759
 20
1011.386463363344
 30
0.0
 11
116.5407810342759
 21
1007.386463363344
 31
0.0
  0
LINE
  5
394
330
71
100
AcDbEntity
  8
1
  6
Continuous
 62
     2
100
AcDbLine
 10
-93.45921896572202
 20
1011.386463363344
 30
0.0
 11
-113.4592189657221
 21
1011.386463363344
 31
0.0
  0
LINE
  5
395
330
71
100
AcDbEntity
  8
1
  6
Continuous
 62
     2
100
AcDbLine
 10
-93.45921896572202
 20
1011.386463363344
 30
0.0
 11
-93.45921896572202
 21
1007.386463363344
 31
0.0
  0
LINE
  5
396
330
71
100
AcDbEntity
  8
1
  6
Continuous
 62
     2
100
AcDbLine
 10
-40.12588563238796
 20
1011.386463363344
 30
0.0
 11
-93.45921896572202
 21
1011.386463363344
 31
0.0
  0
LINE
  5
397
330
71
100
AcDbEntity
  8
1
  6
Continuous
 62
     6
100
AcDbLine
 10
-40.12588563238796
 20
1006.386463363344
 30
0.0
 11
28.20744770094558
 21
1006.386463363344
 31
0.0
  0
LINE
  5
398
330
71
100
AcDbEntity
  8
1
  6
Continuous
 62
     2
100
AcDbLine
 10
-40.12588563238796
 20
1006.386463363344
 30
0.0
 11
-40.12588563238796
 21
1011.386463363344
 31
0.0
  0
LINE
  5
399
330
71
100
AcDbEntity
  8
1
  6
Continuous
 62
     2
100
AcDbLine
 10
28.20744770094558
 20
1011.386463363344
 30
0.0
 11
-40.12588563238796
 21
1011.386463363344
 31
0.0
  0
LINE
  5
39A
330
71
100
AcDbEntity
  8
1
  6
Continuous
 62
     6
100
AcDbLine
 10
28.20744770094558
 20
1006.386463363344
 30
0.0
 11
96.54078103427867
 21
1006.386463363344
 31
0.0
  0
LINE
  5
39B
330
71
100
AcDbEntity
  8
1
  6
Continuous
 62
     2
100
AcDbLine
 10
28.20744770094558
 20
1006.386463363344
 30
0.0
 11
28.20744770094558
 21
1011.386463363344
 31
0.0
  0
LINE
  5
39C
330
71
100
AcDbEntity
  8
1
  6
Continuous
 62
     2
100
AcDbLine
 10
96.54078103427867
 20
1011.386463363344
 30
0.0
 11
28.20744770094558
 21
1011.386463363344
 31
0.0
  0
LINE
  5
39D
330
71
100
AcDbEntity
  8
1
  6
Continuous
 62
     6
100
AcDbLine
 10
96.54078103427867
 20
1006.386463363344
 30
0.0
 11
164.8741143676121
 21
1006.386463363344
 31
0.0
  0
LINE
  5
39E
330
71
100
AcDbEntity
  8
1
  6
Continuous
 62
     2
100
AcDbLine
 10
96.54078103427867
 20
1006.386463363344
 30
0.0
 11
96.54078103427867
 21
1011.386463363344
 31
0.0
  0
LINE
  5
39F
330
71
100
AcDbEntity
  8
1
  6
Continuous
 62
     2
100
AcDbLine
 10
164.8741143676121
 20
1011.386463363344
 30
0.0
 11
116.5407810342759
 21
1011.386463363344
 31
0.0
  0
LINE
  5
3A0
330
71
100
AcDbEntity
  8
1
  6
Continuous
 62
     6
100
AcDbLine
 10
164.8741143676121
 20
1006.386463363344
 30
0.0
 11
233.2074477009452
 21
1006.386463363344
 31
0.0
  0
LINE
  5
3A1
330
71
100
AcDbEntity
  8
1
  6
Continuous
 62
     2
100
AcDbLine
 10
164.8741143676121
 20
1006.386463363344
 30
0.0
 11
164.8741143676121
 21
1011.386463363344
 31
0.0
  0
LINE
  5
3A2
330
71
100
AcDbEntity
  8
1
  6
Continuous
 62
     2
100
AcDbLine
 10
233.2074477009452
 20
1011.386463363344
 30
0.0
 11
164.8741143676121
 21
1011.386463363344
 31
0.0
  0
LINE
  5
3A3
330
71
100
AcDbEntity
  8
1
  6
Continuous
 62
     6
100
AcDbLine
 10
233.2074477009452
 20
1006.386463363344
 30
0.0
 11
301.5407810342762
 21
1006.386463363344
 31
0.0
  0
LINE
  5
3A4
330
71
100
AcDbEntity
  8
1
  6
Continuous
 62
     2
100
AcDbLine
 10
233.2074477009452
 20
1006.386463363344
 30
0.0
 11
233.2074477009452
 21
1011.386463363344
 31
0.0
  0
LINE
  5
3A5
330
71
100
AcDbEntity
  8
1
  6
Continuous
 62
     2
100
AcDbLine
 10
301.5407810342762
 20
1011.386463363344
 30
0.0
 11
233.2074477009452
 21
1011.386463363344
 31
0.0
  0
LINE
  5
3A6
330
71
100
AcDbEntity
  8
1
  6
Continuous
 62
     6
100
AcDbLine
 10
-93.45921896572202
 20
1006.386463363344
 30
0.0
 11
-40.12588563238796
 21
1006.386463363344
 31
0.0
  0
LINE
  5
3A7
330
71
100
AcDbEntity
  8
1
  6
Continuous
 62
     6
100
AcDbLine
 10
301.5407810342787
 20
834.1864633633444
 30
0.0
 11
301.5407810342786
 21
776.7864633633443
 31
0.0
  0
LINE
  5
3A8
330
71
100
AcDbEntity
  8
1
  6
Continuous
 62
     2
100
AcDbLine
 10
301.5407810342787
 20
834.1864633633444
 30
0.0
 11
306.5407810342762
 21
834.1864633633444
 31
0.0
  0
LINE
  5
3A9
330
71
100
AcDbEntity
  8
1
  6
Continuous
 62
     2
100
AcDbLine
 10
306.5407810342762
 20
891.5864633633443
 30
0.0
 11
306.5407810342762
 21
834.1864633633444
 31
0.0
  0
LINE
  5
3AA
330
71
100
AcDbEntity
  8
1
  6
Continuous
 62
     6
100
AcDbLine
 10
301.5407810342787
 20
891.5864633633443
 30
0.0
 11
301.5407810342787
 21
834.1864633633444
 31
0.0
  0
LINE
  5
3AB
330
71
100
AcDbEntity
  8
1
  6
Continuous
 62
     2
100
AcDbLine
 10
301.5407810342787
 20
891.5864633633443
 30
0.0
 11
306.5407810342762
 21
891.5864633633443
 31
0.0
  0
LINE
  5
3AC
330
71
100
AcDbEntity
  8
1
  6
Continuous
 62
     2
100
AcDbLine
 10
306.5407810342762
 20
948.9864633633441
 30
0.0
 11
306.5407810342762
 21
891.5864633633443
 31
0.0
  0
LINE
  5
3AD
330
71
100
AcDbEntity
  8
1
  6
Continuous
 62
     6
100
AcDbLine
 10
301.5407810342767
 20
948.9864633633441
 30
0.0
 11
301.5407810342787
 21
891.5864633633443
 31
0.0
  0
LINE
  5
3AE
330
71
100
AcDbEntity
  8
1
  6
Continuous
 62
     2
100
AcDbLine
 10
301.5407810342767
 20
948.9864633633441
 30
0.0
 11
306.5407810342762
 21
948.9864633633441
 31
0.0
  0
LINE
  5
3AF
330
71
100
AcDbEntity
  8
1
  6
Continuous
 62
     2
100
AcDbLine
 10
306.5407810342762
 20
1006.386463363344
 30
0.0
 11
306.5407810342762
 21
948.9864633633441
 31
0.0
  0
LINE
  5
3B0
330
71
100
AcDbEntity
  8
1
  6
Continuous
 62
     2
100
AcDbLine
 10
301.5407810342762
 20
1006.386463363344
 30
0.0
 11
306.5407810342762
 21
1006.386463363344
 31
0.0
  0
LINE
  5
3B1
330
71
100
AcDbEntity
  8
1
  6
Continuous
 62
     2
100
AcDbLine
 10
301.5407810342762
 20
1006.386463363344
 30
0.0
 11
301.5407810342762
 21
1011.386463363344
 31
0.0
  0
LINE
  5
3B2
330
71
100
AcDbEntity
  8
1
  6
Continuous
 62
     2
100
AcDbLine
 10
306.5407810342762
 20
1011.386463363344
 30
0.0
 11
306.5407810342762
 21
1006.386463363344
 31
0.0
  0
LINE
  5
3B3
330
71
100
AcDbEntity
  8
1
  6
Continuous
 62
     6
100
AcDbLine
 10
301.5407810342762
 20
1006.386463363344
 30
0.0
 11
301.5407810342767
 21
948.9864633633441
 31
0.0
  0
LINE
  5
3B4
330
71
100
AcDbEntity
  8
1
  6
Continuous
 62
     2
100
AcDbLine
 10
306.5407810342762
 20
1011.386463363344
 30
0.0
 11
301.5407810342762
 21
1011.386463363344
 31
0.0
  0
LINE
  5
3B5
330
71
100
AcDbEntity
  8
1
  6
Continuous
 62
     2
100
AcDbLine
 10
306.5407810342762
 20
719.3864633633442
 30
0.0
 11
306.5407810342762
 21
776.7864633633443
 31
0.0
  0
LINE
  5
3B6
330
71
100
AcDbEntity
  8
1
  6
Continuous
 62
     2
100
AcDbLine
 10
306.5407810342762
 20
719.3864633633442
 30
0.0
 11
306.5407810342762
 21
714.3864633633442
 31
0.0
  0
LINE
  5
3B7
330
71
100
AcDbEntity
  8
1
  6
Continuous
 62
     2
100
AcDbLine
 10
306.5407810342762
 20
714.3864633633442
 30
0.0
 11
301.5407810342787
 21
714.3864633633442
 31
0.0
  0
LINE
  5
3B8
330
71
100
AcDbEntity
  8
1
  6
Continuous
 62
     2
100
AcDbLine
 10
164.8741143676121
 20
714.3864633633442
 30
0.0
 11
233.2074477009452
 21
714.3864633633442
 31
0.0
  0
LINE
  5
3B9
330
71
100
AcDbEntity
  8
1
  6
Continuous
 62
     2
100
AcDbLine
 10
116.5407810342759
 20
714.3864633633442
 30
0.0
 11
164.8741143676121
 21
714.3864633633442
 31
0.0
  0
LINE
  5
3BA
330
71
100
AcDbEntity
  8
1
  6
Continuous
 62
     2
100
AcDbLine
 10
116.5407810342759
 20
714.3864633633442
 30
0.0
 11
116.5407810342759
 21
718.3864633633442
 31
0.0
  0
LINE
  5
3BB
330
71
100
AcDbEntity
  8
1
  6
Continuous
 62
     2
100
AcDbLine
 10
116.5407810342759
 20
714.3864633633442
 30
0.0
 11
96.54078103427867
 21
714.3864633633442
 31
0.0
  0
LINE
  5
3BC
330
71
100
AcDbEntity
  8
1
  6
Continuous
 62
     2
100
AcDbLine
 10
-93.45921896572202
 20
714.3864633633442
 30
0.0
 11
-40.12588563238796
 21
714.3864633633442
 31
0.0
  0
LINE
  5
3BD
330
71
100
AcDbEntity
  8
1
  6
Continuous
 62
     2
100
AcDbLine
 10
-93.45921896572202
 20
714.3864633633442
 30
0.0
 11
-93.45921896572202
 21
718.3864633633442
 31
0.0
  0
LINE
  5
3BE
330
71
100
AcDbEntity
  8
1
  6
Continuous
 62
     2
100
AcDbLine
 10
28.20744770094558
 20
714.3864633633442
 30
0.0
 11
28.20744770094558
 21
719.3864633633442
 31
0.0
  0
LINE
  5
3BF
330
71
100
AcDbEntity
  8
1
  6
Continuous
 62
     6
100
AcDbLine
 10
-40.12588563238796
 20
719.3864633633442
 30
0.0
 11
-93.45921896572105
 21
719.3864633633442
 31
0.0
  0
LINE
  5
3C0
330
71
100
AcDbEntity
  8
1
  6
Continuous
 62
     6
100
AcDbLine
 10
-40.12588563238796
 20
719.3864633633442
 30
0.0
 11
28.20744770094558
 21
719.3864633633442
 31
0.0
  0
LINE
  5
3C1
330
71
100
AcDbEntity
  8
1
  6
Continuous
 62
     2
100
AcDbLine
 10
-40.12588563238796
 20
714.3864633633442
 30
0.0
 11
28.20744770094558
 21
714.3864633633442
 31
0.0
  0
LINE
  5
3C2
330
71
100
AcDbEntity
  8
1
  6
Continuous
 62
     2
100
AcDbLine
 10
-40.12588563238796
 20
714.3864633633442
 30
0.0
 11
-40.12588563238796
 21
719.3864633633442
 31
0.0
  0
LINE
  5
3C3
330
71
100
AcDbEntity
  8
1
  6
Continuous
 62
     2
100
AcDbLine
 10
-93.45921896572202
 20
714.3864633633442
 30
0.0
 11
-113.4592189657221
 21
714.3864633633442
 31
0.0
  0
LINE
  5
3C4
330
71
100
AcDbEntity
  8
1
  6
Continuous
 62
     2
100
AcDbLine
 10
306.5407810342762
 20
776.7864633633443
 30
0.0
 11
301.5407810342786
 21
776.7864633633443
 31
0.0
  0
LINE
  5
3C5
330
71
100
AcDbEntity
  8
1
  6
Continuous
 62
     2
100
AcDbLine
 10
306.5407810342762
 20
776.7864633633443
 30
0.0
 11
306.5407810342762
 21
834.1864633633444
 31
0.0
  0
LINE
  5
3C6
330
71
100
AcDbEntity
  8
1
  6
Continuous
 62
     2
100
AcDbLine
 10
96.54078103427867
 20
714.3864633633442
 30
0.0
 11
96.54078103427867
 21
719.3864633633442
 31
0.0
  0
LINE
  5
3C7
330
71
100
AcDbEntity
  8
1
  6
Continuous
 62
     2
100
AcDbLine
 10
164.8741143676121
 20
714.3864633633442
 30
0.0
 11
164.8741143676121
 21
719.3864633633414
 31
0.0
  0
LINE
  5
3C8
330
71
100
AcDbEntity
  8
1
  6
Continuous
 62
     2
100
AcDbLine
 10
233.2074477009452
 20
714.3864633633442
 30
0.0
 11
233.2074477009452
 21
719.3864633633442
 31
0.0
  0
LINE
  5
3C9
330
71
100
AcDbEntity
  8
1
  6
Continuous
 62
     2
100
AcDbLine
 10
233.2074477009452
 20
714.3864633633442
 30
0.0
 11
301.5407810342787
 21
714.3864633633442
 31
0.0
  0
LINE
  5
3CA
330
71
100
AcDbEntity
  8
1
  6
Continuous
 62
     2
100
AcDbLine
 10
96.54078103427867
 20
714.3864633633442
 30
0.0
 11
28.20744770094558
 21
714.3864633633442
 31
0.0
  0
LINE
  5
3CB
330
71
100
AcDbEntity
  8
1
  6
Continuous
 62
     6
100
AcDbLine
 10
301.5407810342777
 20
740.6364633633436
 30
0.0
 11
301.5407810342786
 21
776.7864633633443
 31
0.0
  0
LINE
  5
3CC
330
71
100
AcDbEntity
  8
1
  6
Continuous
 62
     6
100
AcDbLine
 10
301.5407810342787
 20
736.3864633633436
 30
0.0
 11
301.5407810342777
 21
740.6364633633436
 31
0.0
  0
LINE
  5
3CD
330
71
100
AcDbEntity
  8
1
  6
Continuous
 62
     6
100
AcDbLine
 10
301.5407810342782
 20
727.8864633633436
 30
0.0
 11
301.5407810342787
 21
736.3864633633436
 31
0.0
  0
LINE
  5
3CE
330
71
100
AcDbEntity
  8
1
  6
Continuous
 62
     6
100
AcDbLine
 10
233.2074477009452
 20
719.3864633633442
 30
0.0
 11
301.5407810342786
 21
719.3864633633436
 31
0.0
  0
ARC
  5
3CF
102
{ACAD_REACTORS
330
44A
330
44B
102
}
330
71
100
AcDbEntity
  8
0
  6
Continuous
 62
     2
100
AcDbCircle
 10
184.3674775321784
 20
724.8941871800093
 30
0.0
 40
4.85259686349804
100
AcDbArc
 50
74.02000874164729
 51
84.84185523037642
  0
ARC
  5
3D0
102
{ACAD_REACTORS
330
44A
330
44B
102
}
330
71
100
AcDbEntity
  8
0
  6
Continuous
 62
     2
100
AcDbCircle
 10
184.9435181409321
 20
728.0499475358937
 30
0.0
 40
0.9059297849853498
100
AcDbArc
 50
71.55192388185974
 51
113.3722778881275
  0
ARC
  5
3D1
102
{ACAD_REACTORS
330
44A
330
44B
102
}
330
71
100
AcDbEntity
  8
0
  6
Continuous
 62
     2
100
AcDbCircle
 10
184.78707810823
 20
728.0017966959267
 30
0.0
 40
0.5115800601947491
100
AcDbArc
 50
208.5214732576844
 51
246.6277221118336
  0
ARC
  5
3D2
102
{ACAD_REACTORS
330
44A
330
44B
102
}
330
71
100
AcDbEntity
  8
0
  6
Continuous
 62
     2
100
AcDbCircle
 10
184.9435181409321
 20
728.3637887146367
 30
0.0
 40
0.905929784984867
100
AcDbArc
 50
246.6277221118696
 51
288.4480761181539
  0
ARC
  5
3D3
102
{ACAD_REACTORS
330
44A
330
44B
102
}
330
71
100
AcDbEntity
  8
0
  6
Continuous
 62
     2
100
AcDbCircle
 10
184.5253504072712
 20
729.6173344906739
 30
0.0
 40
2.227384008972719
100
AcDbArc
 50
288.4480761181337
 51
301.9309089499643
  0
ARC
  5
3D4
102
{ACAD_REACTORS
330
446
330
447
102
}
330
71
100
AcDbEntity
  8
0
  6
Continuous
 62
     2
100
AcDbCircle
 10
179.3002766746645
 20
730.3498365195879
 30
0.0
 40
0.9118481501444333
100
AcDbArc
 50
295.3740086781772
 51
64.62599132181052
  0
ARC
  5
3D5
102
{ACAD_REACTORS
330
446
330
447
102
}
330
71
100
AcDbEntity
  8
0
  6
Continuous
 62
     2
100
AcDbCircle
 10
179.8263193727524
 20
732.0645134080626
 30
0.0
 40
0.3157169230761283
100
AcDbArc
 50
90.18896704256652
 51
180.0
  0
ARC
  5
3D6
102
{ACAD_REACTORS
330
448
330
449
102
}
330
71
100
AcDbEntity
  8
0
  6
Continuous
 62
     2
100
AcDbCircle
 10
201.0364495855866
 20
727.9939845742213
 30
0.0
 40
0.9545230068260935
100
AcDbArc
 50
90.0
 51
109.3371432194297
  0
ARC
  5
3D7
102
{ACAD_REACTORS
330
448
330
449
102
}
330
71
100
AcDbEntity
  8
0
  6
Continuous
 62
     2
100
AcDbCircle
 10
201.2671368455644
 20
728.2068681252651
 30
0.0
 40
0.9410597353350602
100
AcDbArc
 50
151.4785267423581
 51
208.5214732576662
  0
ARC
  5
3D8
102
{ACAD_REACTORS
330
448
330
449
102
}
330
71
100
AcDbEntity
  8
0
  6
Continuous
 62
     2
100
AcDbCircle
 10
201.0462196201861
 20
728.3637887146367
 30
0.0
 40
0.9059297849852617
100
AcDbArc
 50
246.6277221118119
 51
288.4480761180801
  0
ARC
  5
3D9
102
{ACAD_REACTORS
330
448
330
449
102
}
330
71
100
AcDbEntity
  8
0
  6
Continuous
 62
     2
100
AcDbCircle
 10
200.6280518865241
 20
729.6173344906734
 30
0.0
 40
2.227384008972719
100
AcDbArc
 50
288.4480761181337
 51
301.9309089499395
  0
ARC
  5
3DA
102
{ACAD_REACTORS
330
448
330
449
102
}
330
71
100
AcDbEntity
  8
0
  6
Continuous
 62
     2
100
AcDbCircle
 10
200.4701790114313
 20
731.5195490705217
 30
0.0
 40
4.852596863498833
100
AcDbArc
 50
275.1581447696374
 51
285.9799912583383
  0
ARC
  5
3DB
102
{ACAD_REACTORS
330
448
330
449
102
}
330
71
100
AcDbEntity
  8
0
  6
Continuous
 62
     2
100
AcDbCircle
 10
200.7590351061672
 20
728.3196584873001
 30
0.0
 40
1.639695123940531
100
AcDbArc
 50
195.0618917771004
 51
275.1581447696764
  0
ARC
  5
3DC
102
{ACAD_REACTORS
330
440
330
441
102
}
330
71
100
AcDbEntity
  8
0
  6
Continuous
 62
     2
100
AcDbCircle
 10
185.0308217944761
 20
732.0375977220117
 30
0.0
 40
1.055365641333651
100
AcDbArc
 50
270.0
 51
90.0
  0
ARC
  5
3DD
102
{ACAD_REACTORS
330
446
330
447
102
}
330
71
100
AcDbEntity
  8
0
  6
Continuous
 62
     2
100
AcDbCircle
 10
177.2507706862206
 20
727.7082358419937
 30
0.0
 40
0.3157169230755983
100
AcDbArc
 50
180.0
 51
270.0
  0
ARC
  5
3DE
102
{ACAD_REACTORS
330
446
330
447
102
}
330
71
100
AcDbEntity
  8
0
  6
Continuous
 62
     2
100
AcDbCircle
 10
178.7266039472302
 20
732.0646908847107
 30
0.0
 40
0.3157169230766215
100
AcDbArc
 50
0.0
 51
90.0
  0
ARC
  5
3DF
102
{ACAD_REACTORS
330
446
330
447
102
}
330
71
100
AcDbEntity
  8
0
  6
Continuous
 62
     2
100
AcDbCircle
 10
178.7266039472302
 20
731.4606662656502
 30
0.0
 40
0.3157169230761172
100
AcDbArc
 50
295.1944106485628
 51
0.0
  0
ARC
  5
3E0
102
{ACAD_REACTORS
330
446
330
447
102
}
330
71
100
AcDbEntity
  8
0
  6
Continuous
 62
     2
100
AcDbCircle
 10
178.7266039472302
 20
727.7082358419937
 30
0.0
 40
0.3157169230767067
100
AcDbArc
 50
270.0
 51
0.0
  0
ARC
  5
3E1
102
{ACAD_REACTORS
330
446
330
447
102
}
330
71
100
AcDbEntity
  8
0
  6
Continuous
 62
     2
100
AcDbCircle
 10
176.6568760094741
 20
732.6687187479434
 30
0.0
 40
0.4242446153838273
100
AcDbArc
 50
90.0
 51
180.0
  0
ARC
  5
3E2
102
{ACAD_REACTORS
330
446
330
447
102
}
330
71
100
AcDbEntity
  8
0
  6
Continuous
 62
     2
100
AcDbCircle
 10
182.130188100191
 20
732.6687187479434
 30
0.0
 40
0.4242446153839126
100
AcDbArc
 50
0.0
 51
90.0
  0
ARC
  5
3E3
102
{ACAD_REACTORS
330
446
330
447
102
}
330
71
100
AcDbEntity
  8
0
  6
Continuous
 62
     2
100
AcDbCircle
 10
182.130188100191
 20
727.1042079787433
 30
0.0
 40
0.4242446153832589
100
AcDbArc
 50
270.0
 51
0.0
  0
ARC
  5
3E4
102
{ACAD_REACTORS
330
444
330
445
102
}
330
71
100
AcDbEntity
  8
0
  6
Continuous
 62
     2
100
AcDbCircle
 10
191.3485719872825
 20
731.5660586014396
 30
0.0
 40
0.7717997786795702
100
AcDbArc
 50
321.8795802028399
 51
38.12041979715352
  0
ARC
  5
3E5
102
{ACAD_REACTORS
330
444
330
445
102
}
330
71
100
AcDbEntity
  8
0
  6
Continuous
 62
     2
100
AcDbCircle
 10
191.5483120236287
 20
731.4093274233192
 30
0.0
 40
0.5179085730134915
100
AcDbArc
 50
218.1204197971384
 51
321.8795802028538
  0
ARC
  5
3E6
102
{ACAD_REACTORS
330
442
330
443
102
}
330
71
100
AcDbEntity
  8
0
  6
Continuous
 62
     2
100
AcDbCircle
 10
187.8683044346684
 20
728.2068681252651
 30
0.0
 40
1.458034083651929
100
AcDbArc
 50
297.5481481757076
 51
62.45185182429861
  0
ARC
  5
3E7
102
{ACAD_REACTORS
330
442
330
443
102
}
330
71
100
AcDbEntity
  8
0
  6
Continuous
 62
     2
100
AcDbCircle
 10
187.3064246510018
 20
728.2068681252651
 30
0.0
 40
1.45803408365168
100
AcDbArc
 50
117.5481481756598
 51
242.451851824334
  0
ARC
  5
3E8
102
{ACAD_REACTORS
330
442
330
443
102
}
330
71
100
AcDbEntity
  8
0
  6
Continuous
 62
     2
100
AcDbCircle
 10
187.5873645428352
 20
727.6682931149624
 30
0.0
 40
2.065479772208757
100
AcDbArc
 50
62.45185182430823
 51
117.5481481756666
  0
ARC
  5
3E9
102
{ACAD_REACTORS
330
442
330
443
102
}
330
71
100
AcDbEntity
  8
0
  6
Continuous
 62
     2
100
AcDbCircle
 10
187.5873645428352
 20
728.7454431355686
 30
0.0
 40
2.065479772208586
100
AcDbArc
 50
242.4518518243377
 51
297.5481481756874
  0
ARC
  5
3EA
102
{ACAD_REACTORS
330
444
330
445
102
}
330
71
100
AcDbEntity
  8
0
  6
Continuous
 62
     2
100
AcDbCircle
 10
191.7480520599749
 20
731.5660586014396
 30
0.0
 40
0.7717997786795672
100
AcDbArc
 50
141.8795802028504
 51
218.1204197971562
  0
ARC
  5
3EB
102
{ACAD_REACTORS
330
444
330
445
102
}
330
71
100
AcDbEntity
  8
0
  6
Continuous
 62
     2
100
AcDbCircle
 10
191.5483120236287
 20
731.7227897795601
 30
0.0
 40
0.5179085730133318
100
AcDbArc
 50
38.12041979713626
 51
141.8795802028715
  0
ARC
  5
3EC
102
{ACAD_REACTORS
330
446
330
447
102
}
330
71
100
AcDbEntity
  8
0
  6
Continuous
 62
     2
100
AcDbCircle
 10
176.6568760094741
 20
727.1042079787433
 30
0.0
 40
0.4242446153828041
100
AcDbArc
 50
180.0
 51
270.0
  0
ARC
  5
3ED
102
{ACAD_REACTORS
330
446
330
447
102
}
330
71
100
AcDbEntity
  8
0
  6
Continuous
 62
     2
100
AcDbCircle
 10
178.7266039472302
 20
729.2390067735253
 30
0.0
 40
0.3157169230766215
100
AcDbArc
 50
0.0
 51
64.8055893514372
  0
ARC
  5
3EE
102
{ACAD_REACTORS
330
446
330
447
102
}
330
71
100
AcDbEntity
  8
0
  6
Continuous
 62
     2
100
AcDbCircle
 10
179.2491883948052
 20
730.3498365195879
 30
0.0
 40
0.9118975235576555
100
AcDbArc
 50
115.1944106485211
 51
244.8055893514911
  0
ARC
  5
3EF
102
{ACAD_REACTORS
330
446
330
447
102
}
330
71
100
AcDbEntity
  8
0
  6
Continuous
 62
     2
100
AcDbCircle
 10
177.2507706862206
 20
732.0646908847107
 30
0.0
 40
0.3157169230761383
100
AcDbArc
 50
90.0
 51
180.0
  0
ARC
  5
3F0
102
{ACAD_REACTORS
330
440
330
441
102
}
330
71
100
AcDbEntity
  8
0
  6
Continuous
 62
     2
100
AcDbCircle
 10
184.5893492682377
 20
732.0769936932343
 30
0.0
 40
0.3528638246712035
100
AcDbArc
 50
270.0
 51
90.0
  0
ARC
  5
3F1
102
{ACAD_REACTORS
330
444
330
445
102
}
330
71
100
AcDbEntity
  8
0
  6
Continuous
 62
     2
100
AcDbCircle
 10
191.3320400134635
 20
731.5660586014396
 30
0.0
 40
1.526904761905826
100
AcDbArc
 50
90.0
 51
270.0
  0
ARC
  5
3F2
102
{ACAD_REACTORS
330
448
330
449
102
}
330
71
100
AcDbEntity
  8
0
  6
Continuous
 62
     2
100
AcDbCircle
 10
200.7590351061672
 20
728.0940777632304
 30
0.0
 40
1.639695123940101
100
AcDbArc
 50
90.0
 51
164.9381082228996
  0
ARC
  5
3F3
102
{ACAD_REACTORS
330
448
330
449
102
}
330
71
100
AcDbEntity
  8
0
  6
Continuous
 62
     2
100
AcDbCircle
 10
200.3399072627055
 20
728.2068681252651
 30
0.0
 40
1.205656168393017
100
AcDbArc
 50
164.9381082229002
 51
195.0618917770894
  0
ARC
  5
3F4
102
{ACAD_REACTORS
330
448
330
449
102
}
330
71
100
AcDbEntity
  8
0
  6
Continuous
 62
     2
100
AcDbCircle
 10
200.8897795874829
 20
728.0017966959267
 30
0.0
 40
0.5115800601960487
100
AcDbArc
 50
208.5214732576922
 51
246.6277221118424
  0
ARC
  5
3F5
102
{ACAD_REACTORS
330
448
330
449
102
}
330
71
100
AcDbEntity
  8
0
  6
Continuous
 62
     2
100
AcDbCircle
 10
200.8897795874829
 20
728.4119395546043
 30
0.0
 40
0.5115800601944143
100
AcDbArc
 50
109.3371432194853
 51
151.4785267424197
  0
ARC
  5
3F6
102
{ACAD_REACTORS
330
446
330
447
102
}
330
71
100
AcDbEntity
  8
0
  6
Continuous
 62
     2
100
AcDbCircle
 10
179.8263193727524
 20
728.6588435129245
 30
0.0
 40
0.3157169230768204
100
AcDbArc
 50
180.0
 51
269.8110329574335
  0
ARC
  5
3F7
102
{ACAD_REACTORS
330
446
330
447
102
}
330
71
100
AcDbEntity
  8
0
  6
Continuous
 62
     2
100
AcDbCircle
 10
179.8319355080624
 20
730.3616784604935
 30
0.0
 40
2.018561131933266
100
AcDbArc
 50
269.8110329575834
 51
90.18896704241658
  0
ARC
  5
3F8
102
{ACAD_REACTORS
330
446
330
447
102
}
330
71
100
AcDbEntity
  8
0
  6
Continuous
 62
     2
100
AcDbCircle
 10
179.8263193727524
 20
731.4589781195557
 30
0.0
 40
0.3157169230768204
100
AcDbArc
 50
180.0
 51
244.6259913216303
  0
ARC
  5
3F9
102
{ACAD_REACTORS
330
446
330
447
102
}
330
71
100
AcDbEntity
  8
0
  6
Continuous
 62
     2
100
AcDbCircle
 10
179.8263193727524
 20
729.2406949196196
 30
0.0
 40
0.3157169230764936
100
AcDbArc
 50
115.3740086783609
 51
180.0
  0
ARC
  5
3FA
102
{ACAD_REACTORS
330
44A
330
44B
102
}
330
71
100
AcDbEntity
  8
0
  6
Continuous
 62
     2
100
AcDbCircle
 10
184.6563336269143
 20
728.0940777632304
 30
0.0
 40
1.639695123940442
100
AcDbArc
 50
84.84185523036514
 51
164.9381082228903
  0
ARC
  5
3FB
102
{ACAD_REACTORS
330
44A
330
44B
102
}
330
71
100
AcDbEntity
  8
0
  6
Continuous
 62
     2
100
AcDbCircle
 10
184.2372057834515
 20
728.2068681252651
 30
0.0
 40
1.205656168390959
100
AcDbArc
 50
164.9381082228738
 51
195.0618917770948
  0
ARC
  5
3FC
102
{ACAD_REACTORS
330
44A
330
44B
102
}
330
71
100
AcDbEntity
  8
0
  6
Continuous
 62
     2
100
AcDbCircle
 10
184.6563336269143
 20
728.3196584873001
 30
0.0
 40
1.639695123939424
100
AcDbArc
 50
195.0618917770944
 51
275.1581447696363
  0
ARC
  5
3FD
102
{ACAD_REACTORS
330
44A
330
44B
102
}
330
71
100
AcDbEntity
  8
0
  6
Continuous
 62
     2
100
AcDbCircle
 10
184.3674775321784
 20
731.5195490705217
 30
0.0
 40
4.852596863498269
100
AcDbArc
 50
275.1581447696234
 51
285.9799912583527
  0
ARC
  5
3FE
102
{ACAD_REACTORS
330
44A
330
44B
102
}
330
71
100
AcDbEntity
  8
0
  6
Continuous
 62
     2
100
AcDbCircle
 10
185.1644353663104
 20
728.2068681252651
 30
0.0
 40
0.9410597353333544
100
AcDbArc
 50
151.4785267422702
 51
208.5214732576933
  0
ARC
  5
3FF
102
{ACAD_REACTORS
330
44A
330
44B
102
}
330
71
100
AcDbEntity
  8
0
  6
Continuous
 62
     2
100
AcDbCircle
 10
184.78707810823
 20
728.4119395546043
 30
0.0
 40
0.5115800601949223
100
AcDbArc
 50
113.3722778881866
 51
151.4785267423156
  0
ARC
  5
400
102
{ACAD_REACTORS
330
44A
330
44B
102
}
330
71
100
AcDbEntity
  8
0
  6
Continuous
 62
     2
100
AcDbCircle
 10
184.5253504072712
 20
726.7964017598572
 30
0.0
 40
2.227384008973432
100
AcDbArc
 50
58.06909105003569
 51
71.5519238818663
  0
ARC
  5
401
102
{ACAD_REACTORS
330
442
330
443
102
}
330
71
100
AcDbEntity
  8
0
  6
Continuous
 62
     2
100
AcDbCircle
 10
187.5873645428352
 20
728.3635993033857
 30
0.0
 40
0.5179085730132679
100
AcDbArc
 50
38.12041979715781
 51
141.8795802028597
  0
ARC
  5
402
102
{ACAD_REACTORS
330
442
330
443
102
}
330
71
100
AcDbEntity
  8
0
  6
Continuous
 62
     2
100
AcDbCircle
 10
187.7871045791812
 20
728.2068681252651
 30
0.0
 40
0.771799778679551
100
AcDbArc
 50
141.879580202828
 51
218.1204197971587
  0
ARC
  5
403
102
{ACAD_REACTORS
330
442
330
443
102
}
330
71
100
AcDbEntity
  8
0
  6
Continuous
 62
     2
100
AcDbCircle
 10
187.5873645428352
 20
728.0501369471453
 30
0.0
 40
0.51790857301382
100
AcDbArc
 50
218.1204197971898
 51
321.8795802027927
  0
ARC
  5
404
102
{ACAD_REACTORS
330
442
330
443
102
}
330
71
100
AcDbEntity
  8
0
  6
Continuous
 62
     2
100
AcDbCircle
 10
187.3876245064888
 20
728.2068681252651
 30
0.0
 40
0.7717997786795
100
AcDbArc
 50
321.8795802028465
 51
38.1204197971668
  0
CIRCLE
  5
405
330
71
100
AcDbEntity
  8
1
  6
Continuous
 62
     2
100
AcDbCircle
 10
184.7326313940913
 20
740.5114633633435
 30
0.0
 40
2.5
  0
CIRCLE
  5
406
330
71
100
AcDbEntity
  8
1
  6
Continuous
 62
     2
100
AcDbCircle
 10
184.7326313940913
 20
740.5114633633435
 30
0.0
 40
1.25
  0
CIRCLE
  5
407
102
{ACAD_REACTORS
330
446
330
447
102
}
330
71
100
AcDbEntity
  8
0
  6
Continuous
 62
     2
100
AcDbCircle
 10
179.2764616599917
 20
730.3498365195879
 30
0.0
 40
0.4709789327785074
  0
MTEXT
  5
408
330
71
100
AcDbEntity
  8
1
 62
     3
100
AcDbMText
 10
-95.03654565436813
 20
719.4133774628449
 30
0.0
 40
1.8
 41
0.0
 71
     7
 72
     1
  3
Weitergabe sowie Vervielf\U+00e4ltigung dieses Dokuments, Verwertung und \PMitteilung seines Inhalts sind verboten, soweit nicht ausdr\U+00fccklich gestattet. \PZuwiderhandlungen verpflichten zu Schadenersatz. Alle Rechte f\U+00fcr den Fall\Pder Pat
  1
ent-, Gebrauchsmuster- oder Designeintragung vorbehalten.
  7
CONVERTER_11
 11
0.0
 21
1.0
 31
0.0
 73
     1
 44
0.99639855942377
  0
MTEXT
  5
409
330
71
100
AcDbEntity
  8
1
 62
     3
100
AcDbMText
 10
-95.19075196546203
 20
892.3727474769979
 30
0.0
 40
1.8
 41
0.0
 71
     7
 72
     1
  3
Transfer or duplication of this document as well as the utilisation or\Pcommunication of its content are not permitted unless express consent\Pis granted. Violations give rise to claims for damages. All rights reserved\Pin case of patent, utility mo
  1
del or design patent registrations.
  7
CONVERTER_11
 11
0.0
 21
1.0
 31
0.0
 73
     1
 44
0.99639855942377
  0
TEXT
  5
40A
330
71
100
AcDbEntity
  8
1
 62
     2
100
AcDbText
 10
191.1959765075286
 20
720.6274461483522
 30
0.0
 40
1.8
  1
of
 41
0.9
  7
CONVERTER_11
100
AcDbText
  0
TEXT
  5
40B
330
71
100
AcDbEntity
  8
1
 62
     2
100
AcDbText
 10
172.9959765075288
 20
720.627446148352
 30
0.0
 40
1.8
  1
page
 41
0.9
  7
CONVERTER_11
100
AcDbText
  0
TEXT
  5
40C
330
71
100
AcDbEntity
  8
1
 62
     2
100
AcDbText
 10
181.6422414778708
 20
720.5872147095417
 30
0.0
 40
1.8
  1
1
 41
0.9
  7
CONVERTER_11
100
AcDbText
  0
TEXT
  5
40D
330
71
100
AcDbEntity
  8
1
 62
     2
100
AcDbText
 10
196.4312853173423
 20
720.6364633633436
 30
0.0
 40
1.8
  1
1
 41
0.9
  7
CONVERTER_11
100
AcDbText
  0
MTEXT
  5
40F
330
71
100
AcDbEntity
  8
1
 62
     7
100
AcDbMText
 10
254.9683787709042
 20
722.6364633633439
 30
0.0
 40
3.0
 41
0.0
 71
     5
 72
     1
  1
UTA 107/30
  7
CONVERTER_12
 73
     1
 44
1.20048019207683
  0
MTEXT
  5
410
330
71
100
AcDbEntity
  8
1
 62
     2
100
AcDbMText
 10
209.3959765075287
 20
726.8864633633436
 30
0.0
 40
1.8
 41
0.0
 71
     1
 72
     1
  1
description
  7
CONVERTER_11
 73
     1
 44
1.20048019207683
  0
MTEXT
  5
411
330
71
100
AcDbEntity
  8
1
 62
     3
100
AcDbMText
 10
198.1959765075287
 20
740.5114633633436
 30
0.0
 40
2.5
 41
0.0
 71
     5
 72
     1
  1
DIN A3
  7
CONVERTER_11
 73
     1
 44
1.20048019207683
  0
MTEXT
  5
412
330
71
100
AcDbEntity
  8
1
 62
     2
100
AcDbMText
 10
137.5849532383191
 20
732.1364633633425
 30
0.0
 40
2.0
 41
0.0
 71
     5
 72
     1
  1
General Information\P- Simplified representation\P- Document excluded from change process\P- Linear dimensions [mm]
  7
CONVERTER_11
 73
     1
 44
1.20048019207683
  0
TEXT
  5
413
330
71
100
AcDbEntity
  8
1
 62
     7
100
AcDbText
 10
209.8959765075285
 20
729.1864633633436
 30
0.0
 40
2.5
  1
2320089
 41
0.81
  7
CONVERTER_12
100
AcDbText
  0
MTEXT
  5
414
330
71
100
AcDbEntity
  8
1
 62
     2
100
AcDbMText
 10
209.4959765075287
 20
735.3864633633436
 30
0.0
 40
1.8
 41
0.0
 71
     1
 72
     1
  1
ident.-No.
  7
CONVERTER_11
 73
     1
 44
1.20048019207683
  0
MTEXT
  5
415
330
71
100
AcDbEntity
  8
1
 62
     2
100
AcDbMText
 10
293.7223727526015
 20
743.8864633633436
 30
0.0
 40
1.8
 41
0.0
 71
     1
 72
     1
  1
scale
  7
CONVERTER_11
 73
     1
 44
1.20048019207683
  0
MTEXT
  5
417
330
71
100
AcDbEntity
  8
1
 62
     3
100
AcDbMText
 10
297.081576893441
 20
737.6864633633437
 30
0.0
 40
2.5
 41
0.0
 71
     8
 72
     1
  1
1:1
  7
CONVERTER_13
 73
     1
 44
1.32052821128451
  0
TEXT
  5
418
330
71
100
AcDbEntity
  8
1
 62
     7
100
AcDbText
 10
209.4959765075287
 20
737.6864633633436
 30
0.0
 40
2.5
  1
00597995
 41
0.81
  7
CONVERTER_12
100
AcDbText
  0
MTEXT
  5
41A
330
71
100
AcDbEntity
  8
1
 62
     2
100
AcDbMText
 10
209.4959765075287
 20
743.8864633633436
 30
0.0
 40
1.8
 41
0.0
 71
     1
 72
     1
  1
document-No. / RI
  7
CONVERTER_14
 73
     1
 44
1.32052821128451
  0
TEXT
  5
41B
330
71
100
AcDbEntity
  8
1
 62
     3
100
AcDbText
 10
237.2959765075287
 20
729.1864633633436
 30
0.0
 40
2.5
  1
Customer drawing select
 41
0.81
  7
CONVERTER_12
100
AcDbText
  0
MTEXT
  5
41C
330
71
100
AcDbEntity
  8
1
 62
     2
100
AcDbMText
 10
237.2959765075287
 20
735.3864633633436
 30
0.0
 40
1.8
 41
0.0
 71
     1
 72
     1
  1
document-type
  7
CONVERTER_11
 73
     1
 44
1.20048019207683
  0
MTEXT
  5
41D
330
71
100
AcDbEntity
  8
1
 62
     2
100
AcDbMText
 10
267.1223727526016
 20
743.8864633633436
 30
0.0
 40
1.8
 41
0.0
 71
     1
 72
     1
  1
date
  7
CONVERTER_11
 73
     1
 44
1.32052821128451
  0
TEXT
  5
41E
330
71
100
AcDbEntity
  8
1
 62
     3
100
AcDbText
 10
267.1223727526016
 20
737.6864633633436
 30
0.0
 40
2.5
  1
19.05.2016
 41
0.81
  7
CONVERTER_12
100
AcDbText
  0
TEXT
  5
41F
330
71
100
AcDbEntity
  8
1
 62
     7
100
AcDbText
 10
229.5258887265845
 20
737.6864633633436
 30
0.0
 40
2.5
  1
01
 41
0.81
  7
CONVERTER_12
100
AcDbText
  0
TEXT
  5
420
330
71
100
AcDbEntity
  8
1
 62
     7
100
AcDbText
 10
227.3695242295425
 20
737.6864633633436
 30
0.0
 40
2.5
  1
/
 41
0.9
  7
CONVERTER_11
100
AcDbText
  0
TEXT
  5
421
330
71
100
AcDbEntity
  8
1
 62
     7
100
AcDbText
 10
-75.45921896572105
 20
1007.386463363344
 30
0.0
 40
2.5
  1
1
 41
0.9
  7
CONVERTER_11
100
AcDbText
  0
TEXT
  5
422
330
71
100
AcDbEntity
  8
1
 62
     7
100
AcDbText
 10
-7.12588563238796
 20
1007.386463363344
 30
0.0
 40
2.5
  1
2
 41
0.9
  7
CONVERTER_11
100
AcDbText
  0
TEXT
  5
423
330
71
100
AcDbEntity
  8
1
 62
     7
100
AcDbText
 10
61.20744770094558
 20
1007.386463363344
 30
0.0
 40
2.5
  1
3
 41
0.9
  7
CONVERTER_11
100
AcDbText
  0
TEXT
  5
424
330
71
100
AcDbEntity
  8
1
 62
     7
100
AcDbText
 10
129.5407810342787
 20
1007.386463363344
 30
0.0
 40
2.5
  1
4
 41
0.9
  7
CONVERTER_11
100
AcDbText
  0
TEXT
  5
425
330
71
100
AcDbEntity
  8
1
 62
     7
100
AcDbText
 10
197.8741143676121
 20
1007.386463363344
 30
0.0
 40
2.5
  1
5
 41
0.9
  7
CONVERTER_11
100
AcDbText
  0
TEXT
  5
426
330
71
100
AcDbEntity
  8
1
 62
     7
100
AcDbText
 10
266.2074477009453
 20
1007.386463363344
 30
0.0
 40
2.5
  1
6
 41
0.9
  7
CONVERTER_11
100
AcDbText
  0
TEXT
  5
427
330
71
100
AcDbEntity
  8
1
 62
     7
100
AcDbText
 10
302.5407810342787
 20
976.4864633633441
 30
0.0
 40
2.5
  1
A
 41
0.9
  7
CONVERTER_11
100
AcDbText
  0
TEXT
  5
428
330
71
100
AcDbEntity
  8
1
 62
     7
100
AcDbText
 10
302.5407810342787
 20
919.0864633633443
 30
0.0
 40
2.5
  1
B
 41
0.9
  7
CONVERTER_11
100
AcDbText
  0
TEXT
  5
429
330
71
100
AcDbEntity
  8
1
 62
     7
100
AcDbText
 10
302.5407810342787
 20
861.6864633633444
 30
0.0
 40
2.5
  1
C
 41
0.9
  7
CONVERTER_11
100
AcDbText
  0
TEXT
  5
42A
330
71
100
AcDbEntity
  8
1
 62
     7
100
AcDbText
 10
302.5407810342787
 20
804.2864633633443
 30
0.0
 40
2.5
  1
D
 41
0.9
  7
CONVERTER_11
100
AcDbText
  0
TEXT
  5
42B
330
71
100
AcDbEntity
  8
1
 62
     7
100
AcDbText
 10
-7.12588563238796
 20
715.3864633633442
 30
0.0
 40
2.5
  1
2
 41
0.9
  7
CONVERTER_11
100
AcDbText
  0
TEXT
  5
42C
330
71
100
AcDbEntity
  8
1
 62
     7
100
AcDbText
 10
-75.45921896572105
 20
715.3864633633442
 30
0.0
 40
2.5
  1
1
 41
0.9
  7
CONVERTER_11
100
AcDbText
  0
TEXT
  5
42D
330
71
100
AcDbEntity
  8
1
 62
     7
100
AcDbText
 10
302.5407810342787
 20
746.8864633633442
 30
0.0
 40
2.5
  1
E
 41
0.9
  7
CONVERTER_11
100
AcDbText
  0
TEXT
  5
42E
330
71
100
AcDbEntity
  8
1
 62
     7
100
AcDbText
 10
61.20744770094558
 20
715.3864633633442
 30
0.0
 40
2.5
  1
3
 41
0.9
  7
CONVERTER_11
100
AcDbText
  0
TEXT
  5
42F
330
71
100
AcDbEntity
  8
1
 62
     7
100
AcDbText
 10
129.5407810342787
 20
715.3864633633442
 30
0.0
 40
2.5
  1
4
 41
0.9
  7
CONVERTER_11
100
AcDbText
  0
TEXT
  5
430
330
71
100
AcDbEntity
  8
1
 62
     7
100
AcDbText
 10
197.8741143676119
 20
715.3864633633442
 30
0.0
 40
2.5
  1
5
 41
0.9
  7
CONVERTER_11
100
AcDbText
  0
TEXT
  5
431
330
71
100
AcDbEntity
  8
1
 62
     7
100
AcDbText
 10
266.2074477009453
 20
715.3864633633442
 30
0.0
 40
2.5
  1
6
 41
0.9
  7
CONVERTER_11
100
AcDbText
  0
HATCH
  5
432
330
71
100
AcDbEntity
  8
1
  6
Continuous
 62
     2
100
AcDbHatch
 10
0.0
 20
0.0
 30
0.0
210
0.0
220
0.0
230
1.0
  2
CUSTOM0
 70
     0
 71
     1
 91
        1
 92
        1
 93
       12
 72
     1
 10
189.6634772204899
 20
730.0391538395343
 11
188.4706845183234
 21
730.0391538395343
 72
     1
 10
188.4706845183234
 20
730.0391538395343
 11
188.4706845183234
 21
731.173425948378
 72
     1
 10
188.4706845183234
 20
731.173425948378
 11
187.421026940416
 21
731.173425948378
 72
     1
 10
187.421026940416
 20
731.173425948378
 11
187.421026940416
 21
730.0391538395343
 72
     1
 10
187.421026940416
 20
730.0391538395343
 11
186.2282342382494
 21
730.0391538395343
 72
     1
 10
186.2282342382494
 20
730.0391538395343
 11
186.2282342382494
 21
733.0929633633455
 72
     1
 10
186.2282342382494
 20
733.0929633633455
 11
187.421026940416
 21
733.0929633633455
 72
     1
 10
187.421026940416
 20
733.0929633633455
 11
187.421026940416
 21
732.0241300300108
 72
     1
 10
187.421026940416
 20
732.0241300300108
 11
188.4706845183234
 21
732.0241300300108
 72
     1
 10
188.4706845183234
 20
732.0241300300108
 11
188.4706845183234
 21
733.0929633633455
 72
     1
 10
188.4706845183234
 20
733.0929633633455
 11
189.6634772204899
 21
733.0929633633455
 72
     1
 10
189.6634772204899
 20
733.0929633633455
 11
189.6634772204899
 21
730.0391538395343
 97
       12
330
35B
330
35C
330
346
330
345
330
344
330
358
330
343
330
359
330
35A
330
342
330
341
330
340
 75
     1
 76
     2
 52
45.0
 41
0.1
 77
     0
 78
     1
 53
45.0
 43
62.7811309658083
 44
-72.3161373035813
 45
-0.1414213562373095
 46
0.0
 79
     0
 98
        1
 10
0.0
 20
0.0
  0
HATCH
  5
433
330
71
100
AcDbEntity
  8
1
  6
Continuous
 62
     2
100
AcDbHatch
 10
0.0
 20
0.0
 30
0.0
210
0.0
220
0.0
230
1.0
  2
CUSTOM1
 70
     0
 71
     1
 91
        1
 92
        1
 93
       12
 72
     1
 10
189.6634772204899
 20
730.0391538395343
 11
188.4706845183234
 21
730.0391538395343
 72
     1
 10
188.4706845183234
 20
730.0391538395343
 11
188.4706845183234
 21
731.173425948378
 72
     1
 10
188.4706845183234
 20
731.173425948378
 11
187.421026940416
 21
731.173425948378
 72
     1
 10
187.421026940416
 20
731.173425948378
 11
187.421026940416
 21
730.0391538395343
 72
     1
 10
187.421026940416
 20
730.0391538395343
 11
186.2282342382494
 21
730.0391538395343
 72
     1
 10
186.2282342382494
 20
730.0391538395343
 11
186.2282342382494
 21
733.0929633633455
 72
     1
 10
186.2282342382494
 20
733.0929633633455
 11
187.421026940416
 21
733.0929633633455
 72
     1
 10
187.421026940416
 20
733.0929633633455
 11
187.421026940416
 21
732.0241300300108
 72
     1
 10
187.421026940416
 20
732.0241300300108
 11
188.4706845183234
 21
732.0241300300108
 72
     1
 10
188.4706845183234
 20
732.0241300300108
 11
188.4706845183234
 21
733.0929633633455
 72
     1
 10
188.4706845183234
 20
733.0929633633455
 11
189.6634772204899
 21
733.0929633633455
 72
     1
 10
189.6634772204899
 20
733.0929633633455
 11
189.6634772204899
 21
730.0391538395343
 97
       12
330
35B
330
35C
330
346
330
345
330
344
330
358
330
343
330
359
330
35A
330
342
330
341
330
340
 75
     1
 76
     2
 52
45.0
 41
0.1
 77
     0
 78
     1
 53
45.0
 43
62.7811309658083
 44
-72.3161373035813
 45
-0.1414213562373095
 46
0.0
 79
     0
 98
        1
 10
0.0
 20
0.0
  0
HATCH
  5
434
330
71
100
AcDbEntity
  8
1
  6
Continuous
 62
     2
100
AcDbHatch
 10
0.0
 20
0.0
 30
0.0
210
0.0
220
0.0
230
1.0
  2
CUSTOM2
 70
     0
 71
     1
 91
        1
 92
        1
 93
       10
 72
     1
 10
191.9057765696782
 20
728.4249973769658
 11
190.6652721594252
 21
729.7337728871712
 72
     1
 10
190.6652721594252
 20
729.7337728871712
 11
189.4724794572577
 21
729.7337728871712
 72
     1
 10
189.4724794572577
 20
729.7337728871712
 11
189.4724794572577
 21
726.67996336336
 72
     1
 10
189.4724794572577
 20
726.67996336336
 11
190.6652721594252
 21
726.67996336336
 72
     1
 10
190.6652721594252
 20
726.67996336336
 11
190.6652721594252
 21
727.9887388735644
 72
     1
 10
190.6652721594252
 20
727.9887388735644
 11
191.9057765696782
 21
726.67996336336
 72
     1
 10
191.9057765696782
 20
726.67996336336
 11
193.0985692718446
 21
726.67996336336
 72
     1
 10
193.0985692718446
 20
726.67996336336
 11
193.0985692718446
 21
729.7337728871712
 72
     1
 10
193.0985692718446
 20
729.7337728871712
 11
191.9057765696782
 21
729.7337728871712
 72
     1
 10
191.9057765696782
 20
729.7337728871712
 11
191.9057765696782
 21
728.4249973769658
 97
       10
330
369
330
339
330
338
330
33B
330
364
330
365
330
33A
330
366
330
367
330
368
 75
     1
 76
     2
 52
45.0
 41
0.1
 77
     0
 78
     1
 53
45.0
 43
62.7811309658083
 44
-72.3161373035813
 45
-0.1414213562373095
 46
0.0
 79
     0
 98
        1
 10
0.0
 20
0.0
  0
HATCH
  5
435
330
71
100
AcDbEntity
  8
1
  6
Continuous
 62
     2
100
AcDbHatch
 10
0.0
 20
0.0
 30
0.0
210
0.0
220
0.0
230
1.0
  2
CUSTOM3
 70
     0
 71
     1
 91
        1
 92
        1
 93
       10
 72
     1
 10
191.9057765696782
 20
728.4249973769658
 11
190.6652721594252
 21
729.7337728871712
 72
     1
 10
190.6652721594252
 20
729.7337728871712
 11
189.4724794572577
 21
729.7337728871712
 72
     1
 10
189.4724794572577
 20
729.7337728871712
 11
189.4724794572577
 21
726.67996336336
 72
     1
 10
189.4724794572577
 20
726.67996336336
 11
190.6652721594252
 21
726.67996336336
 72
     1
 10
190.6652721594252
 20
726.67996336336
 11
190.6652721594252
 21
727.9887388735644
 72
     1
 10
190.6652721594252
 20
727.9887388735644
 11
191.9057765696782
 21
726.67996336336
 72
     1
 10
191.9057765696782
 20
726.67996336336
 11
193.0985692718446
 21
726.67996336336
 72
     1
 10
193.0985692718446
 20
726.67996336336
 11
193.0985692718446
 21
729.7337728871712
 72
     1
 10
193.0985692718446
 20
729.7337728871712
 11
191.9057765696782
 21
729.7337728871712
 72
     1
 10
191.9057765696782
 20
729.7337728871712
 11
191.9057765696782
 21
728.4249973769658
 97
       10
330
369
330
339
330
338
330
33B
330
364
330
365
330
33A
330
366
330
367
330
368
 75
     1
 76
     2
 52
45.0
 41
0.1
 77
     0
 78
     1
 53
45.0
 43
62.7811309658083
 44
-72.3161373035813
 45
-0.1414213562373095
 46
0.0
 79
     0
 98
        1
 10
0.0
 20
0.0
  0
HATCH
  5
436
330
71
100
AcDbEntity
  8
1
  6
Continuous
 62
     2
100
AcDbHatch
 10
0.0
 20
0.0
 30
0.0
210
0.0
220
0.0
230
1.0
  2
CUSTOM4
 70
     0
 71
     1
 91
        1
 92
        1
 93
       10
 72
     1
 10
197.1542153900979
 20
731.7841878531403
 11
195.9137109798438
 21
733.0929633633455
 72
     1
 10
195.9137109798438
 20
733.0929633633455
 11
194.7209182776774
 21
733.0929633633455
 72
     1
 10
194.7209182776774
 20
733.0929633633455
 11
194.7209182776774
 21
730.0391538395343
 72
     1
 10
194.7209182776774
 20
730.0391538395343
 11
195.9137109798438
 21
730.0391538395343
 72
     1
 10
195.9137109798438
 20
730.0391538395343
 11
195.9137109798438
 21
731.347929349739
 72
     1
 10
195.9137109798438
 20
731.347929349739
 11
197.1542153900979
 21
730.0391538395343
 72
     1
 10
197.1542153900979
 20
730.0391538395343
 11
198.3470080922645
 21
730.0391538395343
 72
     1
 10
198.3470080922645
 20
730.0391538395343
 11
198.3470080922645
 21
733.0929633633455
 72
     1
 10
198.3470080922645
 20
733.0929633633455
 11
197.1542153900979
 21
733.0929633633455
 72
     1
 10
197.1542153900979
 20
733.0929633633455
 11
197.1542153900979
 21
731.7841878531403
 97
       10
330
36E
330
336
330
335
330
36F
330
334
330
36A
330
36B
330
36C
330
36D
330
337
 75
     1
 76
     2
 52
45.0
 41
0.1
 77
     0
 78
     1
 53
45.0
 43
62.7811309658083
 44
-72.3161373035813
 45
-0.1414213562373095
 46
0.0
 79
     0
 98
        1
 10
0.0
 20
0.0
  0
HATCH
  5
437
330
71
100
AcDbEntity
  8
1
  6
Continuous
 62
     2
100
AcDbHatch
 10
0.0
 20
0.0
 30
0.0
210
0.0
220
0.0
230
1.0
  2
CUSTOM5
 70
     0
 71
     1
 91
        1
 92
        1
 93
       10
 72
     1
 10
197.1542153900979
 20
731.7841878531403
 11
195.9137109798438
 21
733.0929633633455
 72
     1
 10
195.9137109798438
 20
733.0929633633455
 11
194.7209182776774
 21
733.0929633633455
 72
     1
 10
194.7209182776774
 20
733.0929633633455
 11
194.7209182776774
 21
730.0391538395343
 72
     1
 10
194.7209182776774
 20
730.0391538395343
 11
195.9137109798438
 21
730.0391538395343
 72
     1
 10
195.9137109798438
 20
730.0391538395343
 11
195.9137109798438
 21
731.347929349739
 72
     1
 10
195.9137109798438
 20
731.347929349739
 11
197.1542153900979
 21
730.0391538395343
 72
     1
 10
197.1542153900979
 20
730.0391538395343
 11
198.3470080922645
 21
730.0391538395343
 72
     1
 10
198.3470080922645
 20
730.0391538395343
 11
198.3470080922645
 21
733.0929633633455
 72
     1
 10
198.3470080922645
 20
733.0929633633455
 11
197.1542153900979
 21
733.0929633633455
 72
     1
 10
197.1542153900979
 20
733.0929633633455
 11
197.1542153900979
 21
731.7841878531403
 97
       10
330
36E
330
336
330
335
330
36F
330
334
330
36A
330
36B
330
36C
330
36D
330
337
 75
     1
 76
     2
 52
45.0
 41
0.1
 77
     0
 78
     1
 53
45.0
 43
62.7811309658083
 44
-72.3161373035813
 45
-0.1414213562373095
 46
0.0
 79
     0
 98
        1
 10
0.0
 20
0.0
  0
HATCH
  5
438
330
71
100
AcDbEntity
  8
1
  6
Continuous
 62
     2
100
AcDbHatch
 10
0.0
 20
0.0
 30
0.0
210
0.0
220
0.0
230
1.0
  2
CUSTOM6
 70
     0
 71
     1
 91
        1
 92
        1
 93
        8
 72
     1
 10
196.0566951732184
 20
729.7337728871712
 11
193.2417043961047
 21
729.7337728871712
 72
     1
 10
193.2417043961047
 20
729.7337728871712
 11
193.2417043961047
 21
728.9485075810474
 72
     1
 10
193.2417043961047
 20
728.9485075810474
 11
194.0528034335794
 21
728.9485075810474
 72
     1
 10
194.0528034335794
 20
728.9485075810474
 11
194.0528034335794
 21
726.67996336336
 72
     1
 10
194.0528034335794
 20
726.67996336336
 11
195.2455961357458
 21
726.67996336336
 72
     1
 10
195.2455961357458
 20
726.67996336336
 11
195.2455961357458
 21
728.9485075810474
 72
     1
 10
195.2455961357458
 20
728.9485075810474
 11
196.0566951732184
 21
728.9485075810474
 72
     1
 10
196.0566951732184
 20
728.9485075810474
 11
196.0566951732184
 21
729.7337728871712
 97
        8
330
330
330
370
330
32F
330
371
330
372
330
333
330
332
330
331
 75
     1
 76
     2
 52
45.0
 41
0.1
 77
     0
 78
     1
 53
45.0
 43
62.7811309658083
 44
-72.3161373035813
 45
-0.1414213562373095
 46
0.0
 79
     0
 98
        1
 10
0.0
 20
0.0
  0
HATCH
  5
439
330
71
100
AcDbEntity
  8
1
  6
Continuous
 62
     2
100
AcDbHatch
 10
0.0
 20
0.0
 30
0.0
210
0.0
220
0.0
230
1.0
  2
CUSTOM7
 70
     0
 71
     1
 91
        1
 92
        1
 93
        8
 72
     1
 10
196.0566951732184
 20
729.7337728871712
 11
193.2417043961047
 21
729.7337728871712
 72
     1
 10
193.2417043961047
 20
729.7337728871712
 11
193.2417043961047
 21
728.9485075810474
 72
     1
 10
193.2417043961047
 20
728.9485075810474
 11
194.0528034335794
 21
728.9485075810474
 72
     1
 10
194.0528034335794
 20
728.9485075810474
 11
194.0528034335794
 21
726.67996336336
 72
     1
 10
194.0528034335794
 20
726.67996336336
 11
195.2455961357458
 21
726.67996336336
 72
     1
 10
195.2455961357458
 20
726.67996336336
 11
195.2455961357458
 21
728.9485075810474
 72
     1
 10
195.2455961357458
 20
728.9485075810474
 11
196.0566951732184
 21
728.9485075810474
 72
     1
 10
196.0566951732184
 20
728.9485075810474
 11
196.0566951732184
 21
729.7337728871712
 97
        8
330
330
330
370
330
32F
330
371
330
372
330
333
330
332
330
331
 75
     1
 76
     2
 52
45.0
 41
0.1
 77
     0
 78
     1
 53
45.0
 43
62.7811309658083
 44
-72.3161373035813
 45
-0.1414213562373095
 46
0.0
 79
     0
 98
        1
 10
0.0
 20
0.0
  0
HATCH
  5
43A
330
71
100
AcDbEntity
  8
1
  6
Continuous
 62
     2
100
AcDbHatch
 10
0.0
 20
0.0
 30
0.0
210
0.0
220
0.0
230
1.0
  2
CUSTOM8
 70
     0
 71
     1
 91
        2
 92
        1
 93
        8
 72
     1
 10
198.1951226291654
 20
726.67996336336
 11
197.9836425756896
 21
727.2209239075778
 72
     1
 10
197.9836425756896
 20
727.2209239075778
 11
196.8512009990157
 21
727.2209239075778
 72
     1
 10
196.8512009990157
 20
727.2209239075778
 11
196.6397209455399
 21
726.67996336336
 72
     1
 10
196.6397209455399
 20
726.67996336336
 11
195.399216535287
 21
726.67996336336
 72
     1
 10
195.399216535287
 20
726.67996336336
 11
196.7971695822262
 21
729.7337728871712
 72
     1
 10
196.7971695822262
 20
729.7337728871712
 11
198.037673992479
 21
729.7337728871712
 72
     1
 10
198.037673992479
 20
729.7337728871712
 11
199.4356270394192
 21
726.67996336336
 72
     1
 10
199.4356270394192
 20
726.67996336336
 11
198.1951226291654
 21
726.67996336336
 97
        8
330
374
330
375
330
32C
330
376
330
32B
330
32E
330
373
330
32D
 92
       16
 93
        3
 72
     1
 10
197.1172565501608
 20
727.9014871728843
 11
197.4174217873531
 21
728.6693021388711
 72
     1
 10
197.4174217873531
 20
728.6693021388711
 11
197.7175870245433
 21
727.9014871728843
 72
     1
 10
197.7175870245433
 20
727.9014871728843
 11
197.1172565501608
 21
727.9014871728843
 97
        3
330
32A
330
378
330
377
 75
     1
 76
     2
 52
45.0
 41
0.1
 77
     0
 78
     1
 53
45.0
 43
62.7811309658083
 44
-72.3161373035813
 45
-0.1414213562373095
 46
0.0
 79
     0
 98
        1
 10
0.0
 20
0.0
  0
HATCH
  5
43B
330
71
100
AcDbEntity
  8
1
  6
Continuous
 62
     2
100
AcDbHatch
 10
0.0
 20
0.0
 30
0.0
210
0.0
220
0.0
230
1.0
  2
CUSTOM9
 70
     0
 71
     1
 91
        2
 92
        1
 93
        8
 72
     1
 10
198.1951226291654
 20
726.67996336336
 11
197.9836425756896
 21
727.2209239075778
 72
     1
 10
197.9836425756896
 20
727.2209239075778
 11
196.8512009990157
 21
727.2209239075778
 72
     1
 10
196.8512009990157
 20
727.2209239075778
 11
196.6397209455399
 21
726.67996336336
 72
     1
 10
196.6397209455399
 20
726.67996336336
 11
195.399216535287
 21
726.67996336336
 72
     1
 10
195.399216535287
 20
726.67996336336
 11
196.7971695822262
 21
729.7337728871712
 72
     1
 10
196.7971695822262
 20
729.7337728871712
 11
198.037673992479
 21
729.7337728871712
 72
     1
 10
198.037673992479
 20
729.7337728871712
 11
199.4356270394192
 21
726.67996336336
 72
     1
 10
199.4356270394192
 20
726.67996336336
 11
198.1951226291654
 21
726.67996336336
 97
        8
330
374
330
375
330
32C
330
376
330
32B
330
32E
330
373
330
32D
 92
       16
 93
        3
 72
     1
 10
197.1172565501608
 20
727.9014871728843
 11
197.4174217873531
 21
728.6693021388711
 72
     1
 10
197.4174217873531
 20
728.6693021388711
 11
197.7175870245433
 21
727.9014871728843
 72
     1
 10
197.7175870245433
 20
727.9014871728843
 11
197.1172565501608
 21
727.9014871728843
 97
        3
330
32A
330
378
330
377
 75
     1
 76
     2
 52
45.0
 41
0.1
 77
     0
 78
     1
 53
45.0
 43
62.7811309658083
 44
-72.3161373035813
 45
-0.1414213562373095
 46
0.0
 79
     0
 98
        1
 10
0.0
 20
0.0
  0
HATCH
  5
43C
330
71
100
AcDbEntity
  8
1
  6
Continuous
 62
     2
100
AcDbHatch
 10
0.0
 20
0.0
 30
0.0
210
0.0
220
0.0
230
1.0
  2
CUSTOM10
 70
     0
 71
     1
 91
        1
 92
        1
 93
        4
 72
     1
 10
199.8260710429513
 20
730.0391538395343
 11
198.5855666326984
 21
730.0391538395343
 72
     1
 10
198.5855666326984
 20
730.0391538395343
 11
198.5855666326984
 21
733.0929633633455
 72
     1
 10
198.5855666326984
 20
733.0929633633455
 11
199.8260710429513
 21
733.0929633633455
 72
     1
 10
199.8260710429513
 20
733.0929633633455
 11
199.8260710429513
 21
730.0391538395343
 97
        4
330
327
330
329
330
379
330
328
 75
     1
 76
     2
 52
45.0
 41
0.1
 77
     0
 78
     1
 53
45.0
 43
62.7811309658083
 44
-72.3161373035813
 45
-0.1414213562373095
 46
0.0
 79
     0
 98
        1
 10
0.0
 20
0.0
  0
HATCH
  5
43D
330
71
100
AcDbEntity
  8
1
  6
Continuous
 62
     2
100
AcDbHatch
 10
0.0
 20
0.0
 30
0.0
210
0.0
220
0.0
230
1.0
  2
CUSTOM11
 70
     0
 71
     1
 91
        1
 92
        1
 93
        4
 72
     1
 10
199.8260710429513
 20
730.0391538395343
 11
198.5855666326984
 21
730.0391538395343
 72
     1
 10
198.5855666326984
 20
730.0391538395343
 11
198.5855666326984
 21
733.0929633633455
 72
     1
 10
198.5855666326984
 20
733.0929633633455
 11
199.8260710429513
 21
733.0929633633455
 72
     1
 10
199.8260710429513
 20
733.0929633633455
 11
199.8260710429513
 21
730.0391538395343
 97
        4
330
327
330
329
330
379
330
328
 75
     1
 76
     2
 52
45.0
 41
0.1
 77
     0
 78
     1
 53
45.0
 43
62.7811309658083
 44
-72.3161373035813
 45
-0.1414213562373095
 46
0.0
 79
     0
 98
        1
 10
0.0
 20
0.0
  0
HATCH
  5
43E
330
71
100
AcDbEntity
  8
1
  6
Continuous
 62
     2
100
AcDbHatch
 10
0.0
 20
0.0
 30
0.0
210
0.0
220
0.0
230
1.0
  2
CUSTOM12
 70
     0
 71
     1
 91
        1
 92
        1
 93
       12
 72
     1
 10
204.0485572086221
 20
733.0929633633455
 11
202.7460275778555
 21
731.6200128333091
 72
     1
 10
202.7460275778555
 20
731.6200128333091
 11
204.1439806247957
 21
730.0391538395343
 72
     1
 10
204.1439806247957
 20
730.0391538395343
 11
202.7412564070474
 21
730.0391538395343
 72
     1
 10
202.7412564070474
 20
730.0391538395343
 11
202.0446654689821
 21
730.826885624828
 72
     1
 10
202.0446654689821
 20
730.826885624828
 11
201.3480745309163
 21
730.0391538395343
 72
     1
 10
201.3480745309163
 20
730.0391538395343
 11
199.9453503131682
 21
730.0391538395343
 72
     1
 10
199.9453503131682
 20
730.0391538395343
 11
201.3433033601085
 21
731.6200128333091
 72
     1
 10
201.3433033601085
 20
731.6200128333091
 11
200.040773729341
 21
733.0929633633455
 72
     1
 10
200.040773729341
 20
733.0929633633455
 11
201.4434979470902
 21
733.0929633633455
 72
     1
 10
201.4434979470902
 20
733.0929633633455
 11
202.0446654689821
 21
732.4131400417899
 72
     1
 10
202.0446654689821
 20
732.4131400417899
 11
202.6458329908749
 21
733.0929633633455
 72
     1
 10
202.6458329908749
 20
733.0929633633455
 11
204.0485572086221
 21
733.0929633633455
 97
       12
330
322
330
321
330
320
330
37D
330
37E
330
37A
330
37B
330
326
330
325
330
324
330
323
330
37C
 75
     1
 76
     2
 52
45.0
 41
0.1
 77
     0
 78
     1
 53
45.0
 43
62.7811309658083
 44
-72.3161373035813
 45
-0.1414213562373095
 46
0.0
 79
     0
 98
        1
 10
0.0
 20
0.0
  0
HATCH
  5
43F
330
71
100
AcDbEntity
  8
1
  6
Continuous
 62
     2
100
AcDbHatch
 10
0.0
 20
0.0
 30
0.0
210
0.0
220
0.0
230
1.0
  2
CUSTOM13
 70
     0
 71
     1
 91
        1
 92
        1
 93
       12
 72
     1
 10
204.0485572086221
 20
733.0929633633455
 11
202.7460275778555
 21
731.6200128333091
 72
     1
 10
202.7460275778555
 20
731.6200128333091
 11
204.1439806247957
 21
730.0391538395343
 72
     1
 10
204.1439806247957
 20
730.0391538395343
 11
202.7412564070474
 21
730.0391538395343
 72
     1
 10
202.7412564070474
 20
730.0391538395343
 11
202.0446654689821
 21
730.826885624828
 72
     1
 10
202.0446654689821
 20
730.826885624828
 11
201.3480745309163
 21
730.0391538395343
 72
     1
 10
201.3480745309163
 20
730.0391538395343
 11
199.9453503131682
 21
730.0391538395343
 72
     1
 10
199.9453503131682
 20
730.0391538395343
 11
201.3433033601085
 21
731.6200128333091
 72
     1
 10
201.3433033601085
 20
731.6200128333091
 11
200.040773729341
 21
733.0929633633455
 72
     1
 10
200.040773729341
 20
733.0929633633455
 11
201.4434979470902
 21
733.0929633633455
 72
     1
 10
201.4434979470902
 20
733.0929633633455
 11
202.0446654689821
 21
732.4131400417899
 72
     1
 10
202.0446654689821
 20
732.4131400417899
 11
202.6458329908749
 21
733.0929633633455
 72
     1
 10
202.6458329908749
 20
733.0929633633455
 11
204.0485572086221
 21
733.0929633633455
 97
       12
330
322
330
321
330
320
330
37D
330
37E
330
37A
330
37B
330
326
330
325
330
324
330
323
330
37C
 75
     1
 76
     2
 52
45.0
 41
0.1
 77
     0
 78
     1
 53
45.0
 43
62.7811309658083
 44
-72.3161373035813
 45
-0.1414213562373095
 46
0.0
 79
     0
 98
        1
 10
0.0
 20
0.0
  0
HATCH
  5
440
330
71
100
AcDbEntity
  8
1
  6
Continuous
 62
     2
100
AcDbHatch
 10
0.0
 20
0.0
 30
0.0
210
0.0
220
0.0
230
1.0
  2
CUSTOM14
 70
     0
 71
     1
 91
        2
 92
        1
 93
        6
 72
     1
 10
185.0308217944761
 20
730.982232080678
 11
184.2720542066957
 21
730.982232080678
 72
     1
 10
184.2720542066957
 20
730.982232080678
 11
184.2720542066957
 21
730.0391538395343
 72
     1
 10
184.2720542066957
 20
730.0391538395343
 11
183.0315497964417
 21
730.0391538395343
 72
     1
 10
183.0315497964417
 20
730.0391538395343
 11
183.0315497964417
 21
733.0929633633455
 72
     1
 10
183.0315497964417
 20
733.0929633633455
 11
185.0308217944761
 21
733.0929633633455
 72
     2
 10
185.0308217944761
 20
732.0375977220117
 40
1.055365641333651
 50
270.0
 51
450.0
 73
     0
 97
        6
330
34A
330
349
330
356
330
355
330
34B
330
3DC
 92
       16
 93
        4
 72
     2
 10
184.5893492682377
 20
732.0769936932343
 40
0.3528638246712035
 50
270.0
 51
450.0
 73
     1
 72
     1
 10
184.5893492682377
 20
732.4298575179055
 11
184.2720542066957
 21
732.4298575179055
 72
     1
 10
184.2720542066957
 20
732.4298575179055
 11
184.2720542066957
 21
731.7241298685631
 72
     1
 10
184.2720542066957
 20
731.7241298685631
 11
184.5893492682377
 21
731.7241298685631
 97
        4
330
3F0
330
347
330
357
330
348
 75
     1
 76
     2
 52
45.0
 41
0.1
 77
     0
 78
     1
 53
45.0
 43
62.7811309658083
 44
-72.3161373035813
 45
-0.1414213562373095
 46
0.0
 79
     0
 98
        1
 10
0.0
 20
0.0
  0
HATCH
  5
441
330
71
100
AcDbEntity
  8
1
  6
Continuous
 62
     2
100
AcDbHatch
 10
0.0
 20
0.0
 30
0.0
210
0.0
220
0.0
230
1.0
  2
CUSTOM15
 70
     0
 71
     1
 91
        2
 92
        1
 93
        6
 72
     1
 10
185.0308217944761
 20
730.982232080678
 11
184.2720542066957
 21
730.982232080678
 72
     1
 10
184.2720542066957
 20
730.982232080678
 11
184.2720542066957
 21
730.0391538395343
 72
     1
 10
184.2720542066957
 20
730.0391538395343
 11
183.0315497964417
 21
730.0391538395343
 72
     1
 10
183.0315497964417
 20
730.0391538395343
 11
183.0315497964417
 21
733.0929633633455
 72
     1
 10
183.0315497964417
 20
733.0929633633455
 11
185.0308217944761
 21
733.0929633633455
 72
     2
 10
185.0308217944761
 20
732.0375977220117
 40
1.055365641333651
 50
270.0
 51
450.0
 73
     0
 97
        6
330
34A
330
349
330
356
330
355
330
34B
330
3DC
 92
       16
 93
        4
 72
     2
 10
184.5893492682377
 20
732.0769936932343
 40
0.3528638246712035
 50
270.0
 51
450.0
 73
     1
 72
     1
 10
184.5893492682377
 20
732.4298575179055
 11
184.2720542066957
 21
732.4298575179055
 72
     1
 10
184.2720542066957
 20
732.4298575179055
 11
184.2720542066957
 21
731.7241298685631
 72
     1
 10
184.2720542066957
 20
731.7241298685631
 11
184.5893492682377
 21
731.7241298685631
 97
        4
330
3F0
330
347
330
357
330
348
 75
     1
 76
     2
 52
45.0
 41
0.1
 77
     0
 78
     1
 53
45.0
 43
62.7811309658083
 44
-72.3161373035813
 45
-0.1414213562373095
 46
0.0
 79
     0
 98
        1
 10
0.0
 20
0.0
  0
HATCH
  5
442
330
71
100
AcDbEntity
  8
1
  6
Continuous
 62
     2
100
AcDbHatch
 10
0.0
 20
0.0
 30
0.0
210
0.0
220
0.0
230
1.0
  2
CUSTOM16
 70
     0
 71
     1
 91
        2
 92
        1
 93
        4
 72
     2
 10
187.5873645428352
 20
727.6682931149624
 40
2.065479772208757
 50
62.45185182430823
 51
117.5481481756666
 73
     1
 72
     2
 10
187.3064246510018
 20
728.2068681252651
 40
1.45803408365168
 50
117.5481481756598
 51
242.451851824334
 73
     1
 72
     2
 10
187.5873645428352
 20
728.7454431355686
 40
2.065479772208586
 50
242.4518518243377
 51
297.5481481756874
 73
     1
 72
     2
 10
187.8683044346684
 20
728.2068681252651
 40
1.458034083651929
 50
297.5481481757076
 51
422.4518518242986
 73
     1
 97
        4
330
3E8
330
3E7
330
3E9
330
3E6
 92
       16
 93
        4
 72
     2
 10
187.3876245064888
 20
728.2068681252651
 40
0.7717997786795
 50
321.8795802028465
 51
398.1204197971668
 73
     1
 72
     2
 10
187.5873645428352
 20
728.3635993033857
 40
0.5179085730132679
 50
38.12041979715781
 51
141.8795802028597
 73
     1
 72
     2
 10
187.7871045791812
 20
728.2068681252651
 40
0.771799778679551
 50
141.879580202828
 51
218.1204197971587
 73
     1
 72
     2
 10
187.5873645428352
 20
728.0501369471453
 40
0.51790857301382
 50
218.1204197971898
 51
321.8795802027927
 73
     1
 97
        4
330
404
330
401
330
402
330
403
 75
     1
 76
     2
 52
45.0
 41
0.1
 77
     0
 78
     1
 53
45.0
 43
62.7811309658083
 44
-72.3161373035813
 45
-0.1414213562373095
 46
0.0
 79
     0
 98
        1
 10
0.0
 20
0.0
  0
HATCH
  5
443
330
71
100
AcDbEntity
  8
1
  6
Continuous
 62
     2
100
AcDbHatch
 10
0.0
 20
0.0
 30
0.0
210
0.0
220
0.0
230
1.0
  2
CUSTOM17
 70
     0
 71
     1
 91
        2
 92
        1
 93
        4
 72
     2
 10
187.5873645428352
 20
727.6682931149624
 40
2.065479772208757
 50
62.45185182430823
 51
117.5481481756666
 73
     1
 72
     2
 10
187.3064246510018
 20
728.2068681252651
 40
1.45803408365168
 50
117.5481481756598
 51
242.451851824334
 73
     1
 72
     2
 10
187.5873645428352
 20
728.7454431355686
 40
2.065479772208586
 50
242.4518518243377
 51
297.5481481756874
 73
     1
 72
     2
 10
187.8683044346684
 20
728.2068681252651
 40
1.458034083651929
 50
297.5481481757076
 51
422.4518518242986
 73
     1
 97
        4
330
3E8
330
3E7
330
3E9
330
3E6
 92
       16
 93
        4
 72
     2
 10
187.3876245064888
 20
728.2068681252651
 40
0.7717997786795
 50
321.8795802028465
 51
398.1204197971668
 73
     1
 72
     2
 10
187.5873645428352
 20
728.3635993033857
 40
0.5179085730132679
 50
38.12041979715781
 51
141.8795802028597
 73
     1
 72
     2
 10
187.7871045791812
 20
728.2068681252651
 40
0.771799778679551
 50
141.879580202828
 51
218.1204197971587
 73
     1
 72
     2
 10
187.5873645428352
 20
728.0501369471453
 40
0.51790857301382
 50
218.1204197971898
 51
321.8795802027927
 73
     1
 97
        4
330
404
330
401
330
402
330
403
 75
     1
 76
     2
 52
45.0
 41
0.1
 77
     0
 78
     1
 53
45.0
 43
62.7811309658083
 44
-72.3161373035813
 45
-0.1414213562373095
 46
0.0
 79
     0
 98
        1
 10
0.0
 20
0.0
  0
HATCH
  5
444
330
71
100
AcDbEntity
  8
1
  6
Continuous
 62
     2
100
AcDbHatch
 10
0.0
 20
0.0
 30
0.0
210
0.0
220
0.0
230
1.0
  2
CUSTOM18
 70
     0
 71
     1
 91
        2
 92
        1
 93
       12
 72
     1
 10
194.4823597372444
 20
732.3949497579025
 11
193.1464319108167
 21
732.3949497579025
 72
     1
 10
193.1464319108167
 20
732.3949497579025
 11
193.1464319108167
 21
731.9150654041608
 72
     1
 10
193.1464319108167
 20
731.9150654041608
 11
194.4823597372444
 21
731.9150654041608
 72
     1
 10
194.4823597372444
 20
731.9150654041608
 11
194.4823597372444
 21
731.2170517987184
 72
     1
 10
194.4823597372444
 20
731.2170517987184
 11
193.1464319108167
 21
731.2170517987184
 72
     1
 10
193.1464319108167
 20
731.2170517987184
 11
193.1464319108167
 21
730.7371674449766
 72
     1
 10
193.1464319108167
 20
730.7371674449766
 11
194.4823597372444
 21
730.7371674449766
 72
     1
 10
194.4823597372444
 20
730.7371674449766
 11
194.4823597372444
 21
730.0391538395343
 72
     1
 10
194.4823597372444
 20
730.0391538395343
 11
191.3320400134635
 21
730.0391538395343
 72
     2
 10
191.3320400134635
 20
731.5660586014396
 40
1.526904761905826
 50
90.0
 51
270.0
 73
     0
 72
     1
 10
191.3320400134635
 20
733.0929633633455
 11
194.4823597372444
 21
733.0929633633455
 72
     1
 10
194.4823597372444
 20
733.0929633633455
 11
194.4823597372444
 21
732.3949497579025
 97
       12
330
35E
330
3F1
330
35F
330
360
330
361
330
362
330
33F
330
33E
330
33D
330
33C
330
363
330
35D
 92
       16
 93
        4
 72
     2
 10
191.5483120236287
 20
731.7227897795601
 40
0.5179085730133318
 50
38.12041979713626
 51
141.8795802028715
 73
     1
 72
     2
 10
191.7480520599749
 20
731.5660586014396
 40
0.7717997786795672
 50
141.8795802028504
 51
218.1204197971562
 73
     1
 72
     2
 10
191.5483120236287
 20
731.4093274233192
 40
0.5179085730134915
 50
218.1204197971384
 51
321.8795802028538
 73
     1
 72
     2
 10
191.3485719872825
 20
731.5660586014396
 40
0.7717997786795702
 50
321.8795802028399
 51
398.1204197971535
 73
     1
 97
        4
330
3EB
330
3EA
330
3E5
330
3E4
 75
     1
 76
     2
 52
45.0
 41
0.1
 77
     0
 78
     1
 53
45.0
 43
62.7811309658083
 44
-72.3161373035813
 45
-0.1414213562373095
 46
0.0
 79
     0
 98
        1
 10
0.0
 20
0.0
  0
HATCH
  5
445
330
71
100
AcDbEntity
  8
1
  6
Continuous
 62
     2
100
AcDbHatch
 10
0.0
 20
0.0
 30
0.0
210
0.0
220
0.0
230
1.0
  2
CUSTOM19
 70
     0
 71
     1
 91
        2
 92
        1
 93
       12
 72
     1
 10
194.4823597372444
 20
732.3949497579025
 11
193.1464319108167
 21
732.3949497579025
 72
     1
 10
193.1464319108167
 20
732.3949497579025
 11
193.1464319108167
 21
731.9150654041608
 72
     1
 10
193.1464319108167
 20
731.9150654041608
 11
194.4823597372444
 21
731.9150654041608
 72
     1
 10
194.4823597372444
 20
731.9150654041608
 11
194.4823597372444
 21
731.2170517987184
 72
     1
 10
194.4823597372444
 20
731.2170517987184
 11
193.1464319108167
 21
731.2170517987184
 72
     1
 10
193.1464319108167
 20
731.2170517987184
 11
193.1464319108167
 21
730.7371674449766
 72
     1
 10
193.1464319108167
 20
730.7371674449766
 11
194.4823597372444
 21
730.7371674449766
 72
     1
 10
194.4823597372444
 20
730.7371674449766
 11
194.4823597372444
 21
730.0391538395343
 72
     1
 10
194.4823597372444
 20
730.0391538395343
 11
191.3320400134635
 21
730.0391538395343
 72
     2
 10
191.3320400134635
 20
731.5660586014396
 40
1.526904761905826
 50
90.0
 51
270.0
 73
     0
 72
     1
 10
191.3320400134635
 20
733.0929633633455
 11
194.4823597372444
 21
733.0929633633455
 72
     1
 10
194.4823597372444
 20
733.0929633633455
 11
194.4823597372444
 21
732.3949497579025
 97
       12
330
35E
330
3F1
330
35F
330
360
330
361
330
362
330
33F
330
33E
330
33D
330
33C
330
363
330
35D
 92
       16
 93
        4
 72
     2
 10
191.5483120236287
 20
731.7227897795601
 40
0.5179085730133318
 50
38.12041979713626
 51
141.8795802028715
 73
     1
 72
     2
 10
191.7480520599749
 20
731.5660586014396
 40
0.7717997786795672
 50
141.8795802028504
 51
218.1204197971562
 73
     1
 72
     2
 10
191.5483120236287
 20
731.4093274233192
 40
0.5179085730134915
 50
218.1204197971384
 51
321.8795802028538
 73
     1
 72
     2
 10
191.3485719872825
 20
731.5660586014396
 40
0.7717997786795702
 50
321.8795802028399
 51
398.1204197971535
 73
     1
 97
        4
330
3EB
330
3EA
330
3E5
330
3E4
 75
     1
 76
     2
 52
45.0
 41
0.1
 77
     0
 78
     1
 53
45.0
 43
62.7811309658083
 44
-72.3161373035813
 45
-0.1414213562373095
 46
0.0
 79
     0
 98
        1
 10
0.0
 20
0.0
  0
HATCH
  5
446
330
71
100
AcDbEntity
  8
1
  6
Continuous
 62
     2
100
AcDbHatch
 10
0.0
 20
0.0
 30
0.0
210
0.0
220
0.0
230
1.0
  2
CUSTOM20
 70
     0
 71
     1
 91
        4
 92
        1
 93
        8
 72
     1
 10
182.5544327155749
 20
732.6687187479434
 11
182.5544327155749
 21
727.1042079787433
 72
     2
 10
182.130188100191
 20
727.1042079787433
 40
0.4242446153832589
 50
0.0
 51
90.0
 73
     0
 72
     1
 10
182.130188100191
 20
726.67996336336
 11
176.6568760094741
 21
726.67996336336
 72
     2
 10
176.6568760094741
 20
727.1042079787433
 40
0.4242446153828041
 50
90.0
 51
180.0
 73
     0
 72
     1
 10
176.2326313940913
 20
727.1042079787433
 11
176.2326313940913
 21
732.6687187479434
 72
     2
 10
176.6568760094741
 20
732.6687187479434
 40
0.4242446153838273
 50
180.0
 51
270.0
 73
     0
 72
     1
 10
176.6568760094741
 20
733.0929633633273
 11
182.130188100191
 21
733.0929633633273
 72
     2
 10
182.130188100191
 20
732.6687187479434
 40
0.4242446153839126
 50
270.0
 51
360.0
 73
     0
 97
        8
330
352
330
3E1
330
353
330
3EC
330
350
330
3E3
330
351
330
3E2
 92
       16
 93
       12
 72
     2
 10
177.2507706862206
 20
727.7082358419937
 40
0.3157169230755983
 50
180.0
 51
270.0
 73
     1
 72
     1
 10
177.2507706862206
 20
727.392518918917
 11
178.7266039472302
 21
727.392518918917
 72
     2
 10
178.7266039472302
 20
727.7082358419937
 40
0.3157169230767067
 50
270.0
 51
360.0
 73
     1
 72
     1
 10
179.0423208703068
 20
727.7082358419937
 11
179.0423208703068
 21
729.2390067735253
 72
     2
 10
178.7266039472302
 20
729.2390067735253
 40
0.3157169230766215
 50
0.0
 51
64.8055893514372
 73
     1
 72
     2
 10
179.2491883948052
 20
730.3498365195879
 40
0.9118975235576555
 50
115.1944106485089
 51
244.8055893514789
 73
     0
 72
     2
 10
178.7266039472302
 20
731.4606662656502
 40
0.3157169230761172
 50
295.1944106485628
 51
360.0
 73
     1
 72
     1
 10
179.0423208703068
 20
731.4606662656502
 11
179.0423208703068
 21
732.0646908847107
 72
     2
 10
178.7266039472302
 20
732.0646908847107
 40
0.3157169230766215
 50
0.0
 51
90.0
 73
     1
 72
     1
 10
178.7266039472302
 20
732.3804078077868
 11
177.2507706862206
 21
732.3804078077868
 72
     2
 10
177.2507706862206
 20
732.0646908847107
 40
0.3157169230761383
 50
90.0
 51
180.0
 73
     1
 72
     1
 10
176.935053763145
 20
732.0646908847107
 11
176.935053763145
 21
727.7082358419937
 97
       12
330
3DD
330
354
330
3E0
330
34F
330
3ED
330
3EE
330
3DF
330
34E
330
3DE
330
34D
330
3EF
330
34C
 92
       16
 93
        8
 72
     2
 10
179.8263193727524
 20
729.2406949196196
 40
0.3157169230764936
 50
115.3740086783609
 51
180.0
 73
     1
 72
     1
 10
179.5106024496756
 20
729.2406949196196
 11
179.5106024496756
 21
728.6588435129245
 72
     2
 10
179.8263193727524
 20
728.6588435129245
 40
0.3157169230768204
 50
180.0
 51
269.8110329574335
 73
     1
 72
     2
 10
179.8319355080624
 20
730.3616784604935
 40
2.018561131933266
 50
269.8110329575834
 51
450.1889670424166
 73
     1
 72
     2
 10
179.8263193727524
 20
732.0645134080626
 40
0.3157169230761283
 50
90.18896704256652
 51
180.0
 73
     1
 72
     1
 10
179.5106024496756
 20
732.0645134080626
 11
179.5106024496756
 21
731.4589781195557
 72
     2
 10
179.8263193727524
 20
731.4589781195557
 40
0.3157169230768204
 50
180.0
 51
244.6259913216303
 73
     1
 72
     2
 10
179.3002766746645
 20
730.3498365195879
 40
0.9118481501444333
 50
295.3740086781895
 51
424.6259913218228
 73
     0
 97
        8
330
3F9
330
319
330
3F6
330
3F7
330
3D5
330
318
330
3F8
330
3D4
 92
       16
 93
        1
 72
     2
 10
179.2764616599917
 20
730.3498365195879
 40
0.4709789327785074
 50
0.0
 51
360.0
 73
     1
 97
        1
330
407
 75
     1
 76
     2
 52
45.0
 41
0.1
 77
     0
 78
     1
 53
45.0
 43
62.7811309658083
 44
-72.3161373035813
 45
-0.1414213562373095
 46
0.0
 79
     0
 98
        1
 10
0.0
 20
0.0
  0
HATCH
  5
447
330
71
100
AcDbEntity
  8
1
  6
Continuous
 62
     2
100
AcDbHatch
 10
0.0
 20
0.0
 30
0.0
210
0.0
220
0.0
230
1.0
  2
CUSTOM21
 70
     0
 71
     1
 91
        4
 92
        1
 93
        8
 72
     1
 10
182.5544327155749
 20
732.6687187479434
 11
182.5544327155749
 21
727.1042079787433
 72
     2
 10
182.130188100191
 20
727.1042079787433
 40
0.4242446153832589
 50
0.0
 51
90.0
 73
     0
 72
     1
 10
182.130188100191
 20
726.67996336336
 11
176.6568760094741
 21
726.67996336336
 72
     2
 10
176.6568760094741
 20
727.1042079787433
 40
0.4242446153828041
 50
90.0
 51
180.0
 73
     0
 72
     1
 10
176.2326313940913
 20
727.1042079787433
 11
176.2326313940913
 21
732.6687187479434
 72
     2
 10
176.6568760094741
 20
732.6687187479434
 40
0.4242446153838273
 50
180.0
 51
270.0
 73
     0
 72
     1
 10
176.6568760094741
 20
733.0929633633273
 11
182.130188100191
 21
733.0929633633273
 72
     2
 10
182.130188100191
 20
732.6687187479434
 40
0.4242446153839126
 50
270.0
 51
360.0
 73
     0
 97
        8
330
352
330
3E1
330
353
330
3EC
330
350
330
3E3
330
351
330
3E2
 92
       16
 93
       12
 72
     2
 10
177.2507706862206
 20
727.7082358419937
 40
0.3157169230755983
 50
180.0
 51
270.0
 73
     1
 72
     1
 10
177.2507706862206
 20
727.392518918917
 11
178.7266039472302
 21
727.392518918917
 72
     2
 10
178.7266039472302
 20
727.7082358419937
 40
0.3157169230767067
 50
270.0
 51
360.0
 73
     1
 72
     1
 10
179.0423208703068
 20
727.7082358419937
 11
179.0423208703068
 21
729.2390067735253
 72
     2
 10
178.7266039472302
 20
729.2390067735253
 40
0.3157169230766215
 50
0.0
 51
64.8055893514372
 73
     1
 72
     2
 10
179.2491883948052
 20
730.3498365195879
 40
0.9118975235576555
 50
115.1944106485089
 51
244.8055893514789
 73
     0
 72
     2
 10
178.7266039472302
 20
731.4606662656502
 40
0.3157169230761172
 50
295.1944106485628
 51
360.0
 73
     1
 72
     1
 10
179.0423208703068
 20
731.4606662656502
 11
179.0423208703068
 21
732.0646908847107
 72
     2
 10
178.7266039472302
 20
732.0646908847107
 40
0.3157169230766215
 50
0.0
 51
90.0
 73
     1
 72
     1
 10
178.7266039472302
 20
732.3804078077868
 11
177.2507706862206
 21
732.3804078077868
 72
     2
 10
177.2507706862206
 20
732.0646908847107
 40
0.3157169230761383
 50
90.0
 51
180.0
 73
     1
 72
     1
 10
176.935053763145
 20
732.0646908847107
 11
176.935053763145
 21
727.7082358419937
 97
       12
330
3DD
330
354
330
3E0
330
34F
330
3ED
330
3EE
330
3DF
330
34E
330
3DE
330
34D
330
3EF
330
34C
 92
       16
 93
        8
 72
     2
 10
179.8263193727524
 20
729.2406949196196
 40
0.3157169230764936
 50
115.3740086783609
 51
180.0
 73
     1
 72
     1
 10
179.5106024496756
 20
729.2406949196196
 11
179.5106024496756
 21
728.6588435129245
 72
     2
 10
179.8263193727524
 20
728.6588435129245
 40
0.3157169230768204
 50
180.0
 51
269.8110329574335
 73
     1
 72
     2
 10
179.8319355080624
 20
730.3616784604935
 40
2.018561131933266
 50
269.8110329575834
 51
450.1889670424166
 73
     1
 72
     2
 10
179.8263193727524
 20
732.0645134080626
 40
0.3157169230761283
 50
90.18896704256652
 51
180.0
 73
     1
 72
     1
 10
179.5106024496756
 20
732.0645134080626
 11
179.5106024496756
 21
731.4589781195557
 72
     2
 10
179.8263193727524
 20
731.4589781195557
 40
0.3157169230768204
 50
180.0
 51
244.6259913216303
 73
     1
 72
     2
 10
179.3002766746645
 20
730.3498365195879
 40
0.9118481501444333
 50
295.3740086781895
 51
424.6259913218228
 73
     0
 97
        8
330
3F9
330
319
330
3F6
330
3F7
330
3D5
330
318
330
3F8
330
3D4
 92
       16
 93
        1
 72
     2
 10
179.2764616599917
 20
730.3498365195879
 40
0.4709789327785074
 50
0.0
 51
360.0
 73
     1
 97
        1
330
407
 75
     1
 76
     2
 52
45.0
 41
0.1
 77
     0
 78
     1
 53
45.0
 43
62.7811309658083
 44
-72.3161373035813
 45
-0.1414213562373095
 46
0.0
 79
     0
 98
        1
 10
0.0
 20
0.0
  0
HATCH
  5
448
330
71
100
AcDbEntity
  8
1
  6
Continuous
 62
     2
100
AcDbHatch
 10
0.0
 20
0.0
 30
0.0
210
0.0
220
0.0
230
1.0
  2
CUSTOM22
 70
     0
 71
     1
 91
        1
 92
        1
 93
       18
 72
     1
 10
204.1439806247957
 20
728.9485075810474
 11
203.3328815873224
 21
728.9485075810474
 72
     1
 10
203.3328815873224
 20
728.9485075810474
 11
203.3328815873224
 21
726.67996336336
 72
     1
 10
203.3328815873224
 20
726.67996336336
 11
202.1400888851547
 21
726.67996336336
 72
     1
 10
202.1400888851547
 20
726.67996336336
 11
202.1400888851547
 21
728.9485075810474
 72
     1
 10
202.1400888851547
 20
728.9485075810474
 11
201.0364495855866
 21
728.9485075810474
 72
     2
 10
201.0364495855866
 20
727.9939845742213
 40
0.9545230068260935
 50
90.0
 51
109.3371432194297
 73
     1
 72
     2
 10
200.8897795874829
 20
728.4119395546043
 40
0.5115800601944143
 50
109.3371432194853
 51
151.4785267424197
 73
     1
 72
     2
 10
201.2671368455644
 20
728.2068681252651
 40
0.9410597353350602
 50
151.4785267423581
 51
208.5214732576662
 73
     1
 72
     2
 10
200.8897795874829
 20
728.0017966959267
 40
0.5115800601960487
 50
208.5214732576922
 51
246.6277221118424
 73
     1
 72
     2
 10
201.0462196201861
 20
728.3637887146367
 40
0.9059297849852617
 50
246.6277221118119
 51
288.4480761180801
 73
     1
 72
     2
 10
200.6280518865241
 20
729.6173344906734
 40
2.227384008972719
 50
288.4480761181337
 51
301.9309089499395
 73
     1
 72
     1
 10
201.806106928548
 20
727.7269837715237
 11
201.806106928548
 21
726.8544667647203
 72
     2
 10
200.4701790114313
 20
731.5195490705217
 40
4.852596863498833
 50
74.0200087416617
 51
84.84185523036264
 73
     0
 72
     2
 10
200.7590351061672
 20
728.3196584873001
 40
1.639695123940531
 50
84.8418552303236
 51
164.9381082228996
 73
     0
 72
     2
 10
200.3399072627055
 20
728.2068681252651
 40
1.205656168393017
 50
164.9381082229106
 51
195.0618917770998
 73
     0
 72
     2
 10
200.7590351061672
 20
728.0940777632304
 40
1.639695123940101
 50
195.0618917771004
 51
270.0
 73
     0
 72
     1
 10
200.7590351061672
 20
729.7337728871705
 11
204.1439806247957
 21
729.7337728871712
 72
     1
 10
204.1439806247957
 20
729.7337728871712
 11
204.1439806247957
 21
728.9485075810474
 97
       18
330
31B
330
3F2
330
3F3
330
3DB
330
3DA
330
37F
330
3D9
330
3D8
330
3F4
330
3D7
330
3F5
330
3D6
330
380
330
31A
330
31F
330
31E
330
31D
330
31C
 75
     1
 76
     2
 52
45.0
 41
0.1
 77
     0
 78
     1
 53
45.0
 43
62.7811309658083
 44
-72.3161373035813
 45
-0.1414213562373095
 46
0.0
 79
     0
 98
        1
 10
0.0
 20
0.0
  0
HATCH
  5
449
330
71
100
AcDbEntity
  8
1
  6
Continuous
 62
     2
100
AcDbHatch
 10
0.0
 20
0.0
 30
0.0
210
0.0
220
0.0
230
1.0
  2
CUSTOM23
 70
     0
 71
     1
 91
        1
 92
        1
 93
       18
 72
     1
 10
204.1439806247957
 20
728.9485075810474
 11
203.3328815873224
 21
728.9485075810474
 72
     1
 10
203.3328815873224
 20
728.9485075810474
 11
203.3328815873224
 21
726.67996336336
 72
     1
 10
203.3328815873224
 20
726.67996336336
 11
202.1400888851547
 21
726.67996336336
 72
     1
 10
202.1400888851547
 20
726.67996336336
 11
202.1400888851547
 21
728.9485075810474
 72
     1
 10
202.1400888851547
 20
728.9485075810474
 11
201.0364495855866
 21
728.9485075810474
 72
     2
 10
201.0364495855866
 20
727.9939845742213
 40
0.9545230068260935
 50
90.0
 51
109.3371432194297
 73
     1
 72
     2
 10
200.8897795874829
 20
728.4119395546043
 40
0.5115800601944143
 50
109.3371432194853
 51
151.4785267424197
 73
     1
 72
     2
 10
201.2671368455644
 20
728.2068681252651
 40
0.9410597353350602
 50
151.4785267423581
 51
208.5214732576662
 73
     1
 72
     2
 10
200.8897795874829
 20
728.0017966959267
 40
0.5115800601960487
 50
208.5214732576922
 51
246.6277221118424
 73
     1
 72
     2
 10
201.0462196201861
 20
728.3637887146367
 40
0.9059297849852617
 50
246.6277221118119
 51
288.4480761180801
 73
     1
 72
     2
 10
200.6280518865241
 20
729.6173344906734
 40
2.227384008972719
 50
288.4480761181337
 51
301.9309089499395
 73
     1
 72
     1
 10
201.806106928548
 20
727.7269837715237
 11
201.806106928548
 21
726.8544667647203
 72
     2
 10
200.4701790114313
 20
731.5195490705217
 40
4.852596863498833
 50
74.0200087416617
 51
84.84185523036264
 73
     0
 72
     2
 10
200.7590351061672
 20
728.3196584873001
 40
1.639695123940531
 50
84.8418552303236
 51
164.9381082228996
 73
     0
 72
     2
 10
200.3399072627055
 20
728.2068681252651
 40
1.205656168393017
 50
164.9381082229106
 51
195.0618917770998
 73
     0
 72
     2
 10
200.7590351061672
 20
728.0940777632304
 40
1.639695123940101
 50
195.0618917771004
 51
270.0
 73
     0
 72
     1
 10
200.7590351061672
 20
729.7337728871705
 11
204.1439806247957
 21
729.7337728871712
 72
     1
 10
204.1439806247957
 20
729.7337728871712
 11
204.1439806247957
 21
728.9485075810474
 97
       18
330
31B
330
3F2
330
3F3
330
3DB
330
3DA
330
37F
330
3D9
330
3D8
330
3F4
330
3D7
330
3F5
330
3D6
330
380
330
31A
330
31F
330
31E
330
31D
330
31C
 75
     1
 76
     2
 52
45.0
 41
0.1
 77
     0
 78
     1
 53
45.0
 43
62.7811309658083
 44
-72.3161373035813
 45
-0.1414213562373095
 46
0.0
 79
     0
 98
        1
 10
0.0
 20
0.0
  0
HATCH
  5
44A
330
71
100
AcDbEntity
  8
1
  6
Continuous
 62
     2
100
AcDbHatch
 10
0.0
 20
0.0
 30
0.0
210
0.0
220
0.0
230
1.0
  2
CUSTOM24
 70
     0
 71
     1
 91
        1
 92
        1
 93
       14
 72
     2
 10
184.6563336269143
 20
728.0940777632304
 40
1.639695123940442
 50
84.84185523036514
 51
164.9381082228903
 73
     1
 72
     2
 10
184.2372057834515
 20
728.2068681252651
 40
1.205656168390959
 50
164.9381082228738
 51
195.0618917770948
 73
     1
 72
     2
 10
184.6563336269143
 20
728.3196584873001
 40
1.639695123939424
 50
195.0618917770944
 51
275.1581447696363
 73
     1
 72
     2
 10
184.3674775321784
 20
731.5195490705217
 40
4.852596863498269
 50
275.1581447696234
 51
285.9799912583527
 73
     1
 72
     1
 10
185.7034054492962
 20
726.8544667647209
 11
185.7034054492962
 21
727.7269837715241
 72
     2
 10
184.5253504072712
 20
729.6173344906739
 40
2.227384008972719
 50
58.06909105003567
 51
71.55192388186632
 73
     0
 72
     2
 10
184.9435181409321
 20
728.3637887146367
 40
0.905929784984867
 50
71.55192388184605
 51
113.3722778881304
 73
     0
 72
     2
 10
184.78707810823
 20
728.0017966959267
 40
0.5115800601947491
 50
113.3722778881664
 51
151.4785267423156
 73
     0
 72
     2
 10
185.1644353663104
 20
728.2068681252651
 40
0.9410597353333544
 50
151.4785267423067
 51
208.5214732577298
 73
     0
 72
     2
 10
184.78707810823
 20
728.4119395546043
 40
0.5115800601949223
 50
208.5214732576844
 51
246.6277221118134
 73
     0
 72
     2
 10
184.9435181409321
 20
728.0499475358937
 40
0.9059297849853498
 50
246.6277221118725
 51
288.4480761181402
 73
     0
 72
     2
 10
184.5253504072712
 20
726.7964017598572
 40
2.227384008973432
 50
288.4480761181337
 51
301.9309089499643
 73
     0
 72
     1
 10
185.7034054492962
 20
728.6867524790069
 11
185.7034054492962
 21
729.5592694858102
 72
     2
 10
184.3674775321784
 20
724.8941871800093
 40
4.85259686349804
 50
74.02000874164729
 51
84.84185523037642
 73
     1
 97
       14
330
3FA
330
3FB
330
3FC
330
3FD
330
381
330
3D3
330
3D2
330
3D1
330
3FE
330
3FF
330
3D0
330
400
330
382
330
3CF
 75
     1
 76
     2
 52
45.0
 41
0.1
 77
     0
 78
     1
 53
45.0
 43
62.7811309658083
 44
-72.3161373035813
 45
-0.1414213562373095
 46
0.0
 79
     0
 98
        1
 10
0.0
 20
0.0
  0
HATCH
  5
44B
330
71
100
AcDbEntity
  8
1
  6
Continuous
 62
     2
100
AcDbHatch
 10
0.0
 20
0.0
 30
0.0
210
0.0
220
0.0
230
1.0
  2
CUSTOM25
 70
     0
 71
     1
 91
        1
 92
        1
 93
       14
 72
     2
 10
184.6563336269143
 20
728.0940777632304
 40
1.639695123940442
 50
84.84185523036514
 51
164.9381082228903
 73
     1
 72
     2
 10
184.2372057834515
 20
728.2068681252651
 40
1.205656168390959
 50
164.9381082228738
 51
195.0618917770948
 73
     1
 72
     2
 10
184.6563336269143
 20
728.3196584873001
 40
1.639695123939424
 50
195.0618917770944
 51
275.1581447696363
 73
     1
 72
     2
 10
184.3674775321784
 20
731.5195490705217
 40
4.852596863498269
 50
275.1581447696234
 51
285.9799912583527
 73
     1
 72
     1
 10
185.7034054492962
 20
726.8544667647209
 11
185.7034054492962
 21
727.7269837715241
 72
     2
 10
184.5253504072712
 20
729.6173344906739
 40
2.227384008972719
 50
58.06909105003567
 51
71.55192388186632
 73
     0
 72
     2
 10
184.9435181409321
 20
728.3637887146367
 40
0.905929784984867
 50
71.55192388184605
 51
113.3722778881304
 73
     0
 72
     2
 10
184.78707810823
 20
728.0017966959267
 40
0.5115800601947491
 50
113.3722778881664
 51
151.4785267423156
 73
     0
 72
     2
 10
185.1644353663104
 20
728.2068681252651
 40
0.9410597353333544
 50
151.4785267423067
 51
208.5214732577298
 73
     0
 72
     2
 10
184.78707810823
 20
728.4119395546043
 40
0.5115800601949223
 50
208.5214732576844
 51
246.6277221118134
 73
     0
 72
     2
 10
184.9435181409321
 20
728.0499475358937
 40
0.9059297849853498
 50
246.6277221118725
 51
288.4480761181402
 73
     0
 72
     2
 10
184.5253504072712
 20
726.7964017598572
 40
2.227384008973432
 50
288.4480761181337
 51
301.9309089499643
 73
     0
 72
     1
 10
185.7034054492962
 20
728.6867524790069
 11
185.7034054492962
 21
729.5592694858102
 72
     2
 10
184.3674775321784
 20
724.8941871800093
 40
4.85259686349804
 50
74.02000874164729
 51
84.84185523037642
 73
     1
 97
       14
330
3FA
330
3FB
330
3FC
330
3FD
330
381
330
3D3
330
3D2
330
3D1
330
3FE
330
3FF
330
3D0
330
400
330
382
330
3CF
 75
     1
 76
     2
 52
45.0
 41
0.1
 77
     0
 78
     1
 53
45.0
 43
62.7811309658083
 44
-72.3161373035813
 45
-0.1414213562373095
 46
0.0
 79
     0
 98
        1
 10
0.0
 20
0.0
  0
ENDBLK
  5
73
330
71
100
AcDbEntity
  8
0
100
AcDbBlockEnd
  0
BLOCK
  5
75
330
74
100
AcDbEntity
  8
0
100
AcDbBlockBegin
  2
_punkt
 70
     0
 10
301.5407810342786
 20
719.3864633633436
 30
0.0
  3
_punkt
  1

  0
LINE
  5
44C
330
74
100
AcDbEntity
  8
1
  6
Continuous
 62
     2
100
AcDbLine
 10
301.5407810342787
 20
719.3864633633436
 30
0.0
 11
306.5407810342763
 21
719.3864633633436
 31
0.0
  0
LINE
  5
44D
330
74
100
AcDbEntity
  8
1
  6
Continuous
 62
     2
100
AcDbLine
 10
301.5407810342787
 20
719.3864633633436
 30
0.0
 11
301.5407810342787
 21
714.3864633633442
 31
0.0
  0
ENDBLK
  5
76
330
74
100
AcDbEntity
  8
0
100
AcDbBlockEnd
  0
BLOCK
  5
7A
330
77
100
AcDbEntity
  8
0
100
AcDbBlockBegin
  2
A3I_CS
 70
     0
 10
301.5407810342787
 20
714.3864633633442
 30
0.0
  3
A3I_CS
  1

  0
INSERT
  5
78
330
77
100
AcDbEntity
  8
1
100
AcDbBlockReference
  2
_rahmen
 10
301.5407810342787
 20
714.3864633633442
 30
0.0
  0
INSERT
  5
79
330
77
100
AcDbEntity
  8
1
100
AcDbBlockReference
  2
_punkt
 10
301.5407810342786
 20
719.3864633633436
 30
0.0
  0
ENDBLK
  5
7B
330
77
100
AcDbEntity
  8
0
100
AcDbBlockEnd
  0
BLOCK
  5
175
330
16C
100
AcDbEntity
  8
0
100
AcDbBlockBegin
  2
*D16
 70
     1
 10
0.0
 20
0.0
 30
0.0
  3
*D16
  1

  0
LINE
  5
16D
330
16C
100
AcDbEntity
  8
1
  6
Continuous
 62
     2
100
AcDbLine
 10
-18.5261865661624
 20
849.1999999044922
 30
0.0
 11
-18.5261865661624
 21
842.1999999044922
 31
0.0
  0
LINE
  5
16E
330
16C
100
AcDbEntity
  8
1
  6
Continuous
 62
     2
100
AcDbLine
 10
-18.5261865661624
 20
858.7999999044922
 30
0.0
 11
-18.5261865661624
 21
849.1999999044922
 31
0.0
  0
LINE
  5
16F
330
16C
100
AcDbEntity
  8
1
  6
Continuous
 62
     2
100
AcDbLine
 10
-18.5261865661624
 20
865.7999999044922
 30
0.0
 11
-18.5261865661624
 21
858.7999999044922
 31
0.0
  0
LINE
  5
170
330
16C
100
AcDbEntity
  8
1
  6
Continuous
 62
     2
100
AcDbLine
 10
55.14955274264761
 20
849.1999999044922
 30
0.0
 11
-20.0261865661624
 21
849.1999999044922
 31
0.0
  0
LINE
  5
171
330
16C
100
AcDbEntity
  8
1
  6
Continuous
 62
     2
100
AcDbLine
 10
-8.5261865661624
 20
858.7999999044922
 30
0.0
 11
-20.0261865661624
 21
858.7999999044922
 31
0.0
  0
SOLID
  5
172
330
16C
100
AcDbEntity
  8
1
 62
     2
100
AcDbTrace
 10
-18.98697030771828
 20
862.2999999044922
 30
0.0
 11
-18.06540282460651
 21
862.2999999044922
 31
0.0
 12
-18.5261865661624
 22
858.7999999044922
 32
0.0
 13
-18.5261865661624
 23
858.7999999044922
 33
0.0
  0
SOLID
  5
173
330
16C
100
AcDbEntity
  8
1
 62
     2
100
AcDbTrace
 10
-18.06540282460652
 20
845.6999999044922
 30
0.0
 11
-18.98697030771828
 21
845.6999999044922
 31
0.0
 12
-18.5261865661624
 22
849.1999999044922
 32
0.0
 13
-18.5261865661624
 23
849.1999999044922
 33
0.0
  0
MTEXT
  5
174
330
16C
100
AcDbEntity
  8
1
 62
     3
100
AcDbMText
 10
-20.3761865661624
 20
850.7624999044922
 30
0.0
 40
3.5
 41
0.0
 71
     7
 72
     1
  1
9,6
  7
CONVERTER_11
 11
0.0
 21
1.0
 31
0.0
 73
     1
 44
0.60024009603842
  0
ENDBLK
  5
176
330
16C
100
AcDbEntity
  8
0
100
AcDbBlockEnd
  0
BLOCK
  5
2F2
330
2EB
100
AcDbEntity
  8
0
100
AcDbBlockBegin
  2
*D17
 70
     1
 10
0.0
 20
0.0
 30
0.0
  3
*D17
  1

  0
LINE
  5
2EC
330
2EB
100
AcDbEntity
  8
1
  6
Continuous
 62
     2
100
AcDbLine
 10
-18.52618656616214
 20
918.8291998001102
 30
0.0
 11
-18.52618656616214
 21
888.8291998001102
 31
0.0
  0
LINE
  5
2ED
330
2EB
100
AcDbEntity
  8
1
  6
Continuous
 62
     2
100
AcDbLine
 10
-1.52618656616214
 20
888.8291998001102
 30
0.0
 11
-20.02618656616214
 21
888.8291998001102
 31
0.0
  0
LINE
  5
2EE
330
2EB
100
AcDbEntity
  8
1
  6
Continuous
 62
     2
100
AcDbLine
 10
-1.52618656616213
 20
918.8291998001102
 30
0.0
 11
-20.02618656616214
 21
918.8291998001102
 31
0.0
  0
SOLID
  5
2EF
330
2EB
100
AcDbEntity
  8
1
 62
     2
100
AcDbTrace
 10
-18.06540282460626
 20
915.3291998001102
 30
0.0
 11
-18.98697030771802
 21
915.3291998001102
 31
0.0
 12
-18.52618656616214
 22
918.8291998001102
 32
0.0
 13
-18.52618656616214
 23
918.8291998001102
 33
0.0
  0
SOLID
  5
2F0
330
2EB
100
AcDbEntity
  8
1
 62
     2
100
AcDbTrace
 10
-18.98697030771802
 20
892.3291998001102
 30
0.0
 11
-18.06540282460625
 21
892.3291998001102
 31
0.0
 12
-18.52618656616214
 22
888.8291998001102
 32
0.0
 13
-18.52618656616214
 23
888.8291998001102
 33
0.0
  0
MTEXT
  5
2F1
330
2EB
100
AcDbEntity
  8
1
 62
     3
100
AcDbMText
 10
-20.02618656616214
 20
901.2041998001102
 30
0.0
 40
3.5
 41
0.0
 71
     7
 72
     1
  1
30
  7
CONVERTER_11
 11
0.0
 21
1.0
 31
0.0
 73
     1
 44
0.60024009603842
  0
ENDBLK
  5
2F3
330
2EB
100
AcDbEntity
  8
0
100
AcDbBlockEnd
  0
BLOCK
  5
2FD
330
2F6
100
AcDbEntity
  8
0
100
AcDbBlockBegin
  2
*D18
 70
     1
 10
0.0
 20
0.0
 30
0.0
  3
*D18
  1

  0
LINE
  5
2F7
330
2F6
100
AcDbEntity
  8
1
  6
Continuous
 62
     2
100
AcDbLine
 10
-8.52618656616215
 20
878.8291998001102
 30
0.0
 11
98.52617862862255
 21
878.8291998001102
 31
0.0
  0
LINE
  5
2F8
330
2F6
100
AcDbEntity
  8
1
  6
Continuous
 62
     2
100
AcDbLine
 10
98.52617862862255
 20
896.8075094262751
 30
0.0
 11
98.52617862862255
 21
877.3291998001102
 31
0.0
  0
LINE
  5
2F9
330
2F6
100
AcDbEntity
  8
1
  6
Continuous
 62
     2
100
AcDbLine
 10
-8.52618656616215
 20
895.8291998001102
 30
0.0
 11
-8.52618656616215
 21
877.3291998001102
 31
0.0
  0
SOLID
  5
2FA
330
2F6
100
AcDbEntity
  8
1
 62
     2
100
AcDbTrace
 10
-5.02618656616215
 20
879.2899835416662
 30
0.0
 11
-5.02618656616215
 21
878.3684160585543
 31
0.0
 12
-8.52618656616215
 22
878.8291998001102
 32
0.0
 13
-8.52618656616215
 23
878.8291998001102
 33
0.0
  0
SOLID
  5
2FB
330
2F6
100
AcDbEntity
  8
1
 62
     2
100
AcDbTrace
 10
95.02617862862255
 20
878.3684160585543
 30
0.0
 11
95.02617862862255
 21
879.2899835416662
 31
0.0
 12
98.52617862862255
 22
878.8291998001102
 32
0.0
 13
98.52617862862255
 23
878.8291998001102
 33
0.0
  0
MTEXT
  5
2FC
330
2F6
100
AcDbEntity
  8
1
 62
     3
100
AcDbMText
 10
39.6624960312302
 20
880.6791998001102
 30
0.0
 40
3.5
 41
0.0
 71
     7
 72
     1
  1
107,1
  7
CONVERTER_11
 11
0.9999999999970619
 21
2.424068405545306E-6
 31
0.0
 73
     1
 44
0.60024009603842
  0
ENDBLK
  5
2FE
330
2F6
100
AcDbEntity
  8
0
100
AcDbBlockEnd
  0
ENDSEC
  0
SECTION
  2
ENTITIES
  0
INSERT
  5
7C
330
1F
100
AcDbEntity
  8
0
100
AcDbBlockReference
  2
Allg1
 10
218.9999978486792
 20
796.00000066239
 30
0.0
  0
INSERT
  5
7D
330
1F
100
AcDbEntity
  8
0
100
AcDbBlockReference
  2
Drfsicht1
 10
44.99999751586904
 20
853.9999999522458
 30
0.0
  0
INSERT
  5
7E
330
1F
100
AcDbEntity
  8
0
100
AcDbBlockReference
  2
Rckans1
 10
201.7107616799314
 20
903.8291998001102
 30
0.0
  0
INSERT
  5
7F
330
1F
100
AcDbEntity
  8
0
100
AcDbBlockReference
  2
SA_Links1
 10
123.3553796456506
 20
903.8291998001102
 30
0.0
  0
INSERT
  5
80
330
1F
100
AcDbEntity
  8
0
100
AcDbBlockReference
  2
SA_Rechts1
 10
-43.35538364565448
 20
903.8291998001102
 30
0.0
  0
INSERT
  5
81
330
1F
100
AcDbEntity
  8
0
100
AcDbBlockReference
  2
Vordans1
 10
44.99999751586933
 20
903.8291998001102
 30
0.0
  0
INSERT
  5
82
330
1F
100
AcDbEntity
  8
0
100
AcDbBlockReference
  2
A3I_CS
 10
301.5407810342787
 20
714.3864633633442
 30
0.0
  0
ENDSEC
  0
SECTION
  2
OBJECTS
  0
DICTIONARY
  5
C
330
0
100
AcDbDictionary
281
     1
  3
ACAD_GROUP
350
D
  3
ACAD_LAYOUT
350
1A
  3
ACAD_MATERIAL
350
3B
  3
ACAD_MLEADERSTYLE
350
450
  3
ACAD_MLINESTYLE
350
17
  3
ACAD_PLOTSETTINGS
350
19
  3
ACAD_PLOTSTYLENAME
350
E
  3
ACAD_VISUALSTYLE
350
2A
  3
AcDbVariableDictionary
350
44E
  0
DICTIONARY
  5
D
102
{ACAD_REACTORS
330
C
102
}
330
C
100
AcDbDictionary
281
     1
  0
DICTIONARY
  5
1A
102
{ACAD_REACTORS
330
C
102
}
330
C
100
AcDbDictionary
281
     1
  3
Layout1
350
1E
  3
Layout2
350
26
  3
Model
350
22
  0
DICTIONARY
  5
3B
102
{ACAD_REACTORS
330
C
102
}
330
C
100
AcDbDictionary
281
     1
  3
ByBlock
350
3D
  3
ByLayer
350
3C
  3
Global
350
3E
  0
DICTIONARY
  5
450
102
{ACAD_REACTORS
330
C
102
}
330
C
100
AcDbDictionary
281
     1
  0
DICTIONARY
  5
17
102
{ACAD_REACTORS
330
C
102
}
330
C
100
AcDbDictionary
281
     1
  3
Standard
350
18
  0
DICTIONARY
  5
19
102
{ACAD_REACTORS
330
C
102
}
330
C
100
AcDbDictionary
281
     1
  0
ACDBDICTIONARYWDFLT
  5
E
102
{ACAD_REACTORS
330
C
102
}
330
C
100
AcDbDictionary
281
     1
  3
Normal
350
F
100
AcDbDictionaryWithDefault
340
F
  0
DICTIONARY
  5
2A
102
{ACAD_REACTORS
330
C
102
}
330
C
100
AcDbDictionary
281
     1
  3
2dWireframe
350
2F
  3
3D Hidden
350
31
  3
3dWireframe
350
30
  3
Basic
350
32
  3
Brighten
350
36
  3
ColorChange
350
3A
  3
Conceptual
350
34
  3
Dim
350
35
  3
Facepattern
350
39
  3
Flat
350
2B
  3
FlatWithEdges
350
2C
  3
Gouraud
350
2D
  3
GouraudWithEdges
350
2E
  3
Linepattern
350
38
  3
Realistic
350
33
  3
Thicken
350
37
  0
DICTIONARY
  5
44E
102
{ACAD_REACTORS
330
C
102
}
330
C
100
AcDbDictionary
281
     1
  3
DIMASSOC
350
451
  3
HIDETEXT
350
452
  0
LAYOUT
  5
1E
102
{ACAD_REACTORS
330
1A
102
}
330
1A
100
AcDbPlotSettings
  1

  2
none_device
  4

  6

 40
0.0
 41
0.0
 42
0.0
 43
0.0
 44
0.0
 45
0.0
 46
0.0
 47
0.0
 48
0.0
 49
0.0
140
0.0
141
0.0
142
1.0
143
1.0
 70
   688
 72
     0
 73
     0
 74
     5
  7

 75
    16
147
1.0
148
0.0
149
0.0
100
AcDbLayout
  1
Layout1
 70
     1
 71
     1
 10
0.0
 20
0.0
 11
12.0
 21
9.0
 12
0.0
 22
0.0
 32
0.0
 14
1.00000000000000E+20
 24
1.00000000000000E+20
 34
1.00000000000000E+20
 15
-1.00000000000000E+20
 25
-1.00000000000000E+20
 35
-1.00000000000000E+20
146
0.0
 13
0.0
 23
0.0
 33
0.0
 16
1.0
 26
0.0
 36
0.0
 17
0.0
 27
1.0
 37
0.0
 76
     0
330
1B
  0
LAYOUT
  5
26
102
{ACAD_REACTORS
330
1A
102
}
330
1A
100
AcDbPlotSettings
  1

  2
none_device
  4

  6

 40
0.0
 41
0.0
 42
0.0
 43
0.0
 44
0.0
 45
0.0
 46
0.0
 47
0.0
 48
0.0
 49
0.0
140
0.0
141
0.0
142
1.0
143
1.0
 70
   688
 72
     0
 73
     0
 74
     5
  7

 75
    16
147
1.0
148
0.0
149
0.0
100
AcDbLayout
  1
Layout2
 70
     1
 71
     2
 10
0.0
 20
0.0
 11
0.0
 21
0.0
 12
0.0
 22
0.0
 32
0.0
 14
0.0
 24
0.0
 34
0.0
 15
0.0
 25
0.0
 35
0.0
146
0.0
 13
0.0
 23
0.0
 33
0.0
 16
1.0
 26
0.0
 36
0.0
 17
0.0
 27
1.0
 37
0.0
 76
     0
330
23
  0
LAYOUT
  5
22
102
{ACAD_REACTORS
330
1A
102
}
330
1A
100
AcDbPlotSettings
  1

  2
none_device
  4

  6

 40
0.0
 41
0.0
 42
0.0
 43
0.0
 44
0.0
 45
0.0
 46
0.0
 47
0.0
 48
0.0
 49
0.0
140
0.0
141
0.0
142
1.0
143
1.0
 70
  1712
 72
     0
 73
     0
 74
     0
  7

 75
     0
147
1.0
148
0.0
149
0.0
100
AcDbLayout
  1
Model
 70
     1
 71
     0
 10
0.0
 20
0.0
 11
12.0
 21
9.0
 12
0.0
 22
0.0
 32
0.0
 14
-113.4592189657221
 24
714.3864633633442
 34
0.0
 15
306.5407810342763
 25
1011.386463363344
 35
0.0
146
0.0
 13
0.0
 23
0.0
 33
0.0
 16
1.0
 26
0.0
 36
0.0
 17
0.0
 27
1.0
 37
0.0
 76
     0
330
1F
331
29
  0
MATERIAL
  5
3D
102
{ACAD_REACTORS
330
3B
102
}
102
{ACAD_XDICTIONARY
360
475
102
}
330
3B
100
AcDbMaterial
  1
ByBlock
  0
MATERIAL
  5
3C
102
{ACAD_REACTORS
330
3B
102
}
102
{ACAD_XDICTIONARY
360
473
102
}
330
3B
100
AcDbMaterial
  1
ByLayer
  0
MATERIAL
  5
3E
102
{ACAD_REACTORS
330
3B
102
}
102
{ACAD_XDICTIONARY
360
477
102
}
330
3B
100
AcDbMaterial
  1
Global
  0
MLINESTYLE
  5
18
102
{ACAD_REACTORS
330
17
102
}
330
17
100
AcDbMlineStyle
  2
Standard
 70
     0
  3

 62
   256
 51
90.0
 52
90.0
 71
     2
 49
0.5
 62
   256
  6
BYLAYER
 49
-0.5
 62
   256
  6
BYLAYER
  0
ACDBPLACEHOLDER
  5
F
102
{ACAD_REACTORS
330
E
102
}
330
E
  0
VISUALSTYLE
  5
2F
102
{ACAD_REACTORS
330
2A
102
}
102
{ACAD_XDICTIONARY
360
45B
102
}
330
2A
100
AcDbVisualStyle
  2
2dWireframe
 70
     4
 71
     0
 72
     2
 73
     0
 90
        0
 40
-0.6
 41
-30.0
 62
     5
 63
     7
 74
     1
 91
        4
 64
     7
 65
   257
 75
     1
175
     1
 42
1.0
 92
        0
 66
   257
 43
1.0
 76
     1
 77
     6
 78
     2
 67
     7
 79
     5
170
     0
171
     0
290
     0
174
     0
 93
        1
 44
0.0
173
     0
291
     0
 45
0.0
1001
ACAD
1000
AcDbSavedByObjectVersion
1070
     0
  0
VISUALSTYLE
  5
31
102
{ACAD_REACTORS
330
2A
102
}
102
{ACAD_XDICTIONARY
360
45F
102
}
330
2A
100
AcDbVisualStyle
  2
3D Hidden
 70
     6
 71
     1
 72
     2
 73
     2
 90
        0
 40
-0.6
 41
-30.0
 62
     5
 63
     7
 74
     2
 91
        2
 64
     7
 65
   257
 75
     2
175
     1
 42
40.0
 92
        0
 66
   257
 43
1.0
 76
     1
 77
     6
 78
     2
 67
     7
 79
     3
170
     0
171
     0
290
     0
174
     0
 93
        1
 44
0.0
173
     0
291
     0
 45
0.0
1001
ACAD
1000
AcDbSavedByObjectVersion
1070
     0
  0
VISUALSTYLE
  5
30
102
{ACAD_REACTORS
330
2A
102
}
102
{ACAD_XDICTIONARY
360
45D
102
}
330
2A
100
AcDbVisualStyle
  2
3dWireframe
 70
     5
 71
     0
 72
     2
 73
     0
 90
        0
 40
-0.6
 41
-30.0
 62
     5
 63
     7
 74
     1
 91
        4
 64
     7
 65
   257
 75
     1
175
     1
 42
1.0
 92
        0
 66
   257
 43
1.0
 76
     1
 77
     6
 78
     2
 67
     7
 79
     5
170
     0
171
     0
290
     0
174
     0
 93
        1
 44
0.0
173
     0
291
     0
 45
0.0
1001
ACAD
1000
AcDbSavedByObjectVersion
1070
     0
  0
VISUALSTYLE
  5
32
102
{ACAD_REACTORS
330
2A
102
}
102
{ACAD_XDICTIONARY
360
461
102
}
330
2A
100
AcDbVisualStyle
  2
Basic
 70
     7
 71
     1
 72
     0
 73
     1
 90
        0
 40
-0.6
 41
-30.0
 62
     5
 63
     7
 74
     0
 91
        4
 64
     7
 65
   257
 75
     1
175
     1
 42
1.0
 92
        8
 66
     7
 43
1.0
 76
     1
 77
     6
 78
     2
 67
     7
 79
     5
170
     0
171
     0
290
     0
174
     0
 93
        1
 44
0.0
173
     0
291
     1
 45
0.0
1001
ACAD
1000
AcDbSavedByObjectVersion
1070
     0
  0
VISUALSTYLE
  5
36
102
{ACAD_REACTORS
330
2A
102
}
102
{ACAD_XDICTIONARY
360
469
102
}
330
2A
100
AcDbVisualStyle
  2
Brighten
 70
    12
 71
     2
 72
     2
 73
     0
 90
        0
 40
-0.6
 41
-30.0
 62
     5
 63
     7
 74
     1
 91
        4
 64
     7
 65
   257
 75
     1
175
     1
 42
1.0
 92
        8
 66
     7
 43
1.0
 76
     1
 77
     6
 78
     2
 67
     7
 79
     5
170
     0
171
     0
290
     0
174
     0
 93
        1
 44
50.0
173
     0
291
     1
 45
0.0
1001
ACAD
1000
AcDbSavedByObjectVersion
1070
     0
  0
VISUALSTYLE
  5
3A
102
{ACAD_REACTORS
330
2A
102
}
102
{ACAD_XDICTIONARY
360
471
102
}
330
2A
100
AcDbVisualStyle
  2
ColorChange
 70
    16
 71
     2
 72
     2
 73
     3
 90
        0
 40
-0.6
 41
-30.0
 62
     5
 63
     8
 74
     1
 91
        4
 64
     7
 65
   257
 75
     1
175
     1
 42
1.0
 92
        8
 66
     8
 43
1.0
 76
     1
 77
     6
 78
     2
 67
     7
 79
     5
170
     0
171
     0
290
     0
174
     0
 93
        1
 44
0.0
173
     0
291
     1
 45
0.0
1001
ACAD
1000
AcDbSavedByObjectVersion
1070
     0
  0
VISUALSTYLE
  5
34
102
{ACAD_REACTORS
330
2A
102
}
102
{ACAD_XDICTIONARY
360
465
102
}
330
2A
100
AcDbVisualStyle
  2
Conceptual
 70
     9
 71
     3
 72
     2
 73
     0
 90
        0
 40
-0.6
 41
-30.0
 62
     5
 63
     7
 74
     2
 91
        2
 64
     7
 65
   257
 75
     1
175
     1
 42
40.0
 92
        8
 66
     7
 43
1.0
 76
     1
 77
     6
 78
     2
 67
     7
 79
     3
170
     0
171
     0
290
     0
174
     0
 93
        1
 44
0.0
173
     0
291
     0
 45
0.0
1001
ACAD
1000
AcDbSavedByObjectVersion
1070
     0
  0
VISUALSTYLE
  5
35
102
{ACAD_REACTORS
330
2A
102
}
102
{ACAD_XDICTIONARY
360
467
102
}
330
2A
100
AcDbVisualStyle
  2
Dim
 70
    11
 71
     2
 72
     2
 73
     0
 90
        0
 40
-0.6
 41
-30.0
 62
     5
 63
     7
 74
     1
 91
        4
 64
     7
 65
   257
 75
     1
175
     1
 42
1.0
 92
        8
 66
     7
 43
1.0
 76
     1
 77
     6
 78
     2
 67
     7
 79
     5
170
     0
171
     0
290
     0
174
     0
 93
        1
 44
-50.0
173
     0
291
     1
 45
0.0
1001
ACAD
1000
AcDbSavedByObjectVersion
1070
     0
  0
VISUALSTYLE
  5
39
102
{ACAD_REACTORS
330
2A
102
}
102
{ACAD_XDICTIONARY
360
46F
102
}
330
2A
100
AcDbVisualStyle
  2
Facepattern
 70
    15
 71
     2
 72
     2
 73
     0
 90
        0
 40
-0.6
 41
-30.0
 62
     5
 63
     7
 74
     1
 91
        4
 64
     7
 65
   257
 75
     1
175
     1
 42
1.0
 92
        8
 66
     7
 43
1.0
 76
     1
 77
     6
 78
     2
 67
     7
 79
     5
170
     0
171
     0
290
     0
174
     0
 93
        1
 44
0.0
173
     0
291
     1
 45
0.0
1001
ACAD
1000
AcDbSavedByObjectVersion
1070
     0
  0
VISUALSTYLE
  5
2B
102
{ACAD_REACTORS
330
2A
102
}
102
{ACAD_XDICTIONARY
360
453
102
}
330
2A
100
AcDbVisualStyle
  2
Flat
 70
     0
 71
     2
 72
     1
 73
     1
 90
        2
 40
-0.6
 41
30.0
 62
     5
 63
     7
 74
     0
 91
        4
 64
     7
 65
   257
 75
     1
175
     1
 42
1.0
 92
        8
 66
     7
 43
1.0
 76
     1
 77
     6
 78
     2
 67
     7
 79
     5
170
     0
171
     0
290
     0
174
     0
 93
       13
 44
0.0
173
     0
291
     1
 45
0.0
1001
ACAD
1000
AcDbSavedByObjectVersion
1070
     0
  0
VISUALSTYLE
  5
2C
102
{ACAD_REACTORS
330
2A
102
}
102
{ACAD_XDICTIONARY
360
455
102
}
330
2A
100
AcDbVisualStyle
  2
FlatWithEdges
 70
     1
 71
     2
 72
     1
 73
     1
 90
        2
 40
-0.6
 41
30.0
 62
     5
 63
     7
 74
     1
 91
        4
 64
     7
 65
   257
 75
     1
175
     1
 42
1.0
 92
        0
 66
   257
 43
1.0
 76
     1
 77
     6
 78
     2
 67
     7
 79
     5
170
     0
171
     0
290
     0
174
     0
 93
       13
 44
0.0
173
     0
291
     1
 45
0.0
1001
ACAD
1000
AcDbSavedByObjectVersion
1070
     0
  0
VISUALSTYLE
  5
2D
102
{ACAD_REACTORS
330
2A
102
}
102
{ACAD_XDICTIONARY
360
457
102
}
330
2A
100
AcDbVisualStyle
  2
Gouraud
 70
     2
 71
     2
 72
     2
 73
     1
 90
        2
 40
-0.6
 41
30.0
 62
     5
 63
     7
 74
     0
 91
        4
 64
     7
 65
   257
 75
     1
175
     1
 42
1.0
 92
        0
 66
     7
 43
1.0
 76
     1
 77
     6
 78
     2
 67
     7
 79
     5
170
     0
171
     0
290
     0
174
     0
 93
       13
 44
0.0
173
     0
291
     1
 45
0.0
1001
ACAD
1000
AcDbSavedByObjectVersion
1070
     0
  0
VISUALSTYLE
  5
2E
102
{ACAD_REACTORS
330
2A
102
}
102
{ACAD_XDICTIONARY
360
459
102
}
330
2A
100
AcDbVisualStyle
  2
GouraudWithEdges
 70
     3
 71
     2
 72
     2
 73
     1
 90
        2
 40
-0.6
 41
30.0
 62
     5
 63
     7
 74
     1
 91
        4
 64
     7
 65
   257
 75
     1
175
     1
 42
1.0
 92
        0
 66
   257
 43
1.0
 76
     1
 77
     6
 78
     2
 67
     7
 79
     5
170
     0
171
     0
290
     0
174
     0
 93
       13
 44
0.0
173
     0
291
     1
 45
0.0
1001
ACAD
1000
AcDbSavedByObjectVersion
1070
     0
  0
VISUALSTYLE
  5
38
102
{ACAD_REACTORS
330
2A
102
}
102
{ACAD_XDICTIONARY
360
46D
102
}
330
2A
100
AcDbVisualStyle
  2
Linepattern
 70
    14
 71
     2
 72
     2
 73
     0
 90
        0
 40
-0.6
 41
-30.0
 62
     5
 63
     7
 74
     1
 91
        4
 64
     7
 65
   257
 75
     7
175
     7
 42
1.0
 92
        8
 66
     7
 43
1.0
 76
     1
 77
     6
 78
     2
 67
     7
 79
     5
170
     0
171
     0
290
     0
174
     0
 93
        1
 44
0.0
173
     0
291
     1
 45
0.0
1001
ACAD
1000
AcDbSavedByObjectVersion
1070
     0
  0
VISUALSTYLE
  5
33
102
{ACAD_REACTORS
330
2A
102
}
102
{ACAD_XDICTIONARY
360
463
102
}
330
2A
100
AcDbVisualStyle
  2
Realistic
 70
     8
 71
     2
 72
     2
 73
     0
 90
        0
 40
-0.6
 41
-30.0
 62
     5
 63
     7
 74
     1
 91
        0
 64
     7
 65
   257
 75
     1
175
     1
 42
1.0
 92
        8
 66
     8
 43
1.0
 76
     1
 77
     6
 78
     2
 67
     7
 79
     5
170
     0
171
     0
290
     0
174
     0
 93
       13
 44
0.0
173
     0
291
     0
 45
0.0
1001
ACAD
1000
AcDbSavedByObjectVersion
1070
     0
  0
VISUALSTYLE
  5
37
102
{ACAD_REACTORS
330
2A
102
}
102
{ACAD_XDICTIONARY
360
46B
102
}
330
2A
100
AcDbVisualStyle
  2
Thicken
 70
    13
 71
     2
 72
     2
 73
     0
 90
        0
 40
-0.6
 41
-30.0
 62
     5
 63
     7
 74
     1
 91
        4
 64
     7
 65
   257
 75
     1
175
     1
 42
1.0
 92
       12
 66
     7
 43
1.0
 76
     1
 77
     6
 78
     2
 67
     7
 79
     5
170
     0
171
     0
290
     0
174
     0
 93
        1
 44
0.0
173
     0
291
     1
 45
0.0
1001
ACAD
1000
AcDbSavedByObjectVersion
1070
     0
  0
DICTIONARYVAR
  5
451
102
{ACAD_REACTORS
330
44E
102
}
330
44E
100
DictionaryVariables
280
     0
  1
2
  0
DICTIONARYVAR
  5
452
102
{ACAD_REACTORS
330
44E
102
}
330
44E
100
DictionaryVariables
280
     0
  1
1
  0
DICTIONARY
  5
475
330
3D
100
AcDbDictionary
280
     1
281
     1
  3
ACAD_XREC_ROUNDTRIP
360
476
  0
DICTIONARY
  5
473
330
3C
100
AcDbDictionary
280
     1
281
     1
  3
ACAD_XREC_ROUNDTRIP
360
474
  0
DICTIONARY
  5
477
330
3E
100
AcDbDictionary
280
     1
281
     1
  3
ACAD_XREC_ROUNDTRIP
360
478
  0
DICTIONARY
  5
45B
330
2F
100
AcDbDictionary
280
     1
281
     1
  3
ACAD_XREC_ROUNDTRIP
360
45C
  0
DICTIONARY
  5
45F
330
31
100
AcDbDictionary
280
     1
281
     1
  3
ACAD_XREC_ROUNDTRIP
360
460
  0
DICTIONARY
  5
45D
330
30
100
AcDbDictionary
280
     1
281
     1
  3
ACAD_XREC_ROUNDTRIP
360
45E
  0
DICTIONARY
  5
461
330
32
100
AcDbDictionary
280
     1
281
     1
  3
ACAD_XREC_ROUNDTRIP
360
462
  0
DICTIONARY
  5
469
330
36
100
AcDbDictionary
280
     1
281
     1
  3
ACAD_XREC_ROUNDTRIP
360
46A
  0
DICTIONARY
  5
471
330
3A
100
AcDbDictionary
280
     1
281
     1
  3
ACAD_XREC_ROUNDTRIP
360
472
  0
DICTIONARY
  5
465
330
34
100
AcDbDictionary
280
     1
281
     1
  3
ACAD_XREC_ROUNDTRIP
360
466
  0
DICTIONARY
  5
467
330
35
100
AcDbDictionary
280
     1
281
     1
  3
ACAD_XREC_ROUNDTRIP
360
468
  0
DICTIONARY
  5
46F
330
39
100
AcDbDictionary
280
     1
281
     1
  3
ACAD_XREC_ROUNDTRIP
360
470
  0
DICTIONARY
  5
453
330
2B
100
AcDbDictionary
280
     1
281
     1
  3
ACAD_XREC_ROUNDTRIP
360
454
  0
DICTIONARY
  5
455
330
2C
100
AcDbDictionary
280
     1
281
     1
  3
ACAD_XREC_ROUNDTRIP
360
456
  0
DICTIONARY
  5
457
330
2D
100
AcDbDictionary
280
     1
281
     1
  3
ACAD_XREC_ROUNDTRIP
360
458
  0
DICTIONARY
  5
459
330
2E
100
AcDbDictionary
280
     1
281
     1
  3
ACAD_XREC_ROUNDTRIP
360
45A
  0
DICTIONARY
  5
46D
330
38
100
AcDbDictionary
280
     1
281
     1
  3
ACAD_XREC_ROUNDTRIP
360
46E
  0
DICTIONARY
  5
463
330
33
100
AcDbDictionary
280
     1
281
     1
  3
ACAD_XREC_ROUNDTRIP
360
464
  0
DICTIONARY
  5
46B
330
37
100
AcDbDictionary
280
     1
281
     1
  3
ACAD_XREC_ROUNDTRIP
360
46C
  0
XRECORD
  5
476
102
{ACAD_REACTORS
330
475
102
}
330
475
100
AcDbXrecord
280
     1
102
MATERIAL
148
0.0
149
0.0
149
0.0
 93
        0
 94
      127
282
     0
 72
     1
 77
     1
171
     1
175
     1
179
     1
273
     0
  0
XRECORD
  5
474
102
{ACAD_REACTORS
330
473
102
}
330
473
100
AcDbXrecord
280
     1
102
MATERIAL
148
0.0
149
0.0
149
0.0
 93
        0
 94
      127
282
     0
 72
     1
 77
     1
171
     1
175
     1
179
     1
273
     0
  0
XRECORD
  5
478
102
{ACAD_REACTORS
330
477
102
}
330
477
100
AcDbXrecord
280
     1
102
MATERIAL
148
0.0
149
0.0
149
0.0
 93
        0
 94
      127
282
     0
 72
     1
 77
     1
171
     1
175
     1
179
     1
273
     0
  0
XRECORD
  5
45C
102
{ACAD_REACTORS
330
45B
102
}
330
45B
100
AcDbXrecord
280
     1
102
RTVSPropertyOp0
 70
     1
102
RTVSPropertyOp1
 70
     1
102
RTVSPropertyOp2
 70
     1
102
RTVSPropertyOp3
 70
     1
102
RTVSPropertyOp4
 70
     1
102
RTVSPropertyOp5
 70
     1
102
RTVSPropertyOp6
 70
     1
102
RTVSPropertyOp7
 70
     1
102
RTVSPropertyOp8
 70
     1
102
RTVSPropertyOp9
 70
     1
102
RTVSPropertyOp10
 70
     1
102
RTVSPropertyOp11
 70
     1
102
RTVSPropertyOp12
 70
     1
102
RTVSPropertyOp13
 70
     1
102
RTVSPropertyOp14
 70
     1
102
RTVSPropertyOp15
 70
     1
102
RTVSPropertyOp16
 70
     1
102
RTVSPropertyOp17
 70
     1
102
RTVSPropertyOp18
 70
     1
102
RTVSPropertyOp19
 70
     1
102
RTVSPropertyOp20
 70
     1
102
RTVSPropertyOp21
 70
     1
102
RTVSPropertyOp22
 70
     1
102
RTVSPropertyOp23
 70
     1
102
RTVSPropertyOp24
 70
     1
102
RTVSPropertyOp25
 70
     1
102
RTVSPropertyOp26
 70
     1
102
RTVSPropertyOp27
 70
     1
102
RTVSPropertyOp28
 70
     1
102
RTVSPropertyOp29
 70
     1
102
RTVSPropertyOp30
 70
     1
102
RTVSPropertyOp31
 70
     1
102
RTVSPropertyOp32
 70
     1
  0
XRECORD
  5
460
102
{ACAD_REACTORS
330
45F
102
}
330
45F
100
AcDbXrecord
280
     1
102
RTVSPropertyOp0
 70
     1
102
RTVSPropertyOp1
 70
     1
102
RTVSPropertyOp2
 70
     1
102
RTVSPropertyOp3
 70
     1
102
RTVSPropertyOp4
 70
     1
102
RTVSPropertyOp5
 70
     1
102
RTVSPropertyOp6
 70
     1
102
RTVSPropertyOp7
 70
     1
102
RTVSPropertyOp8
 70
     1
102
RTVSPropertyOp9
 70
     1
102
RTVSPropertyOp10
 70
     1
102
RTVSPropertyOp11
 70
     1
102
RTVSPropertyOp12
 70
     1
102
RTVSPropertyOp13
 70
     1
102
RTVSPropertyOp14
 70
     1
102
RTVSPropertyOp15
 70
     1
102
RTVSPropertyOp16
 70
     1
102
RTVSPropertyOp17
 70
     1
102
RTVSPropertyOp18
 70
     1
102
RTVSPropertyOp19
 70
     1
102
RTVSPropertyOp20
 70
     1
102
RTVSPropertyOp21
 70
     1
102
RTVSPropertyOp22
 70
     1
102
RTVSPropertyOp23
 70
     1
102
RTVSPropertyOp24
 70
     1
102
RTVSPropertyOp25
 70
     1
102
RTVSPropertyOp26
 70
     1
102
RTVSPropertyOp27
 70
     1
102
RTVSPropertyOp28
 70
     1
102
RTVSPropertyOp29
 70
     1
102
RTVSPropertyOp30
 70
     1
102
RTVSPropertyOp31
 70
     1
102
RTVSPropertyOp32
 70
     1
  0
XRECORD
  5
45E
102
{ACAD_REACTORS
330
45D
102
}
330
45D
100
AcDbXrecord
280
     1
102
RTVSPropertyOp0
 70
     1
102
RTVSPropertyOp1
 70
     1
102
RTVSPropertyOp2
 70
     1
102
RTVSPropertyOp3
 70
     1
102
RTVSPropertyOp4
 70
     1
102
RTVSPropertyOp5
 70
     1
102
RTVSPropertyOp6
 70
     1
102
RTVSPropertyOp7
 70
     1
102
RTVSPropertyOp8
 70
     1
102
RTVSPropertyOp9
 70
     1
102
RTVSPropertyOp10
 70
     1
102
RTVSPropertyOp11
 70
     1
102
RTVSPropertyOp12
 70
     1
102
RTVSPropertyOp13
 70
     1
102
RTVSPropertyOp14
 70
     1
102
RTVSPropertyOp15
 70
     1
102
RTVSPropertyOp16
 70
     1
102
RTVSPropertyOp17
 70
     1
102
RTVSPropertyOp18
 70
     1
102
RTVSPropertyOp19
 70
     1
102
RTVSPropertyOp20
 70
     1
102
RTVSPropertyOp21
 70
     1
102
RTVSPropertyOp22
 70
     1
102
RTVSPropertyOp23
 70
     1
102
RTVSPropertyOp24
 70
     1
102
RTVSPropertyOp25
 70
     1
102
RTVSPropertyOp26
 70
     1
102
RTVSPropertyOp27
 70
     1
102
RTVSPropertyOp28
 70
     1
102
RTVSPropertyOp29
 70
     1
102
RTVSPropertyOp30
 70
     1
102
RTVSPropertyOp31
 70
     1
102
RTVSPropertyOp32
 70
     1
  0
XRECORD
  5
462
102
{ACAD_REACTORS
330
461
102
}
330
461
100
AcDbXrecord
280
     1
102
RTVSPropertyOp0
 70
     1
102
RTVSPropertyOp1
 70
     1
102
RTVSPropertyOp2
 70
     1
102
RTVSPropertyOp3
 70
     1
102
RTVSPropertyOp4
 70
     1
102
RTVSPropertyOp5
 70
     1
102
RTVSPropertyOp6
 70
     1
102
RTVSPropertyOp7
 70
     1
102
RTVSPropertyOp8
 70
     1
102
RTVSPropertyOp9
 70
     1
102
RTVSPropertyOp10
 70
     1
102
RTVSPropertyOp11
 70
     1
102
RTVSPropertyOp12
 70
     1
102
RTVSPropertyOp13
 70
     1
102
RTVSPropertyOp14
 70
     1
102
RTVSPropertyOp15
 70
     1
102
RTVSPropertyOp16
 70
     1
102
RTVSPropertyOp17
 70
     1
102
RTVSPropertyOp18
 70
     1
102
RTVSPropertyOp19
 70
     1
102
RTVSPropertyOp20
 70
     1
102
RTVSPropertyOp21
 70
     1
102
RTVSPropertyOp22
 70
     1
102
RTVSPropertyOp23
 70
     1
102
RTVSPropertyOp24
 70
     1
102
RTVSPropertyOp25
 70
     1
102
RTVSPropertyOp26
 70
     1
102
RTVSPropertyOp27
 70
     1
102
RTVSPropertyOp28
 70
     1
102
RTVSPropertyOp29
 70
     1
102
RTVSPropertyOp30
 70
     1
102
RTVSPropertyOp31
 70
     1
102
RTVSPropertyOp32
 70
     1
  0
XRECORD
  5
46A
102
{ACAD_REACTORS
330
469
102
}
330
469
100
AcDbXrecord
280
     1
102
RTVSPropertyOp0
 70
     1
102
RTVSPropertyOp1
 70
     1
102
RTVSPropertyOp2
 70
     1
102
RTVSPropertyOp3
 70
     1
102
RTVSPropertyOp4
 70
     1
102
RTVSPropertyOp5
 70
     1
102
RTVSPropertyOp6
 70
     1
102
RTVSPropertyOp7
 70
     1
102
RTVSPropertyOp8
 70
     1
102
RTVSPropertyOp9
 70
     1
102
RTVSPropertyOp10
 70
     1
102
RTVSPropertyOp11
 70
     1
102
RTVSPropertyOp12
 70
     1
102
RTVSPropertyOp13
 70
     1
102
RTVSPropertyOp14
 70
     1
102
RTVSPropertyOp15
 70
     1
102
RTVSPropertyOp16
 70
     1
102
RTVSPropertyOp17
 70
     1
102
RTVSPropertyOp18
 70
     1
102
RTVSPropertyOp19
 70
     1
102
RTVSPropertyOp20
 70
     1
102
RTVSPropertyOp21
 70
     1
102
RTVSPropertyOp22
 70
     1
102
RTVSPropertyOp23
 70
     1
102
RTVSPropertyOp24
 70
     1
102
RTVSPropertyOp25
 70
     1
102
RTVSPropertyOp26
 70
     1
102
RTVSPropertyOp27
 70
     1
102
RTVSPropertyOp28
 70
     1
102
RTVSPropertyOp29
 70
     1
102
RTVSPropertyOp30
 70
     1
102
RTVSPropertyOp31
 70
     1
102
RTVSPropertyOp32
 70
     1
  0
XRECORD
  5
472
102
{ACAD_REACTORS
330
471
102
}
330
471
100
AcDbXrecord
280
     1
102
RTVSPropertyOp0
 70
     1
102
RTVSPropertyOp1
 70
     1
102
RTVSPropertyOp2
 70
     1
102
RTVSPropertyOp3
 70
     1
102
RTVSPropertyOp4
 70
     1
102
RTVSPropertyOp5
 70
     1
102
RTVSPropertyOp6
 70
     1
102
RTVSPropertyOp7
 70
     1
102
RTVSPropertyOp8
 70
     1
102
RTVSPropertyOp9
 70
     1
102
RTVSPropertyOp10
 70
     1
102
RTVSPropertyOp11
 70
     1
102
RTVSPropertyOp12
 70
     1
102
RTVSPropertyOp13
 70
     1
102
RTVSPropertyOp14
 70
     1
102
RTVSPropertyOp15
 70
     1
102
RTVSPropertyOp16
 70
     1
102
RTVSPropertyOp17
 70
     1
102
RTVSPropertyOp18
 70
     1
102
RTVSPropertyOp19
 70
     1
102
RTVSPropertyOp20
 70
     1
102
RTVSPropertyOp21
 70
     1
102
RTVSPropertyOp22
 70
     1
102
RTVSPropertyOp23
 70
     1
102
RTVSPropertyOp24
 70
     1
102
RTVSPropertyOp25
 70
     1
102
RTVSPropertyOp26
 70
     1
102
RTVSPropertyOp27
 70
     1
102
RTVSPropertyOp28
 70
     1
102
RTVSPropertyOp29
 70
     1
102
RTVSPropertyOp30
 70
     1
102
RTVSPropertyOp31
 70
     1
102
RTVSPropertyOp32
 70
     1
  0
XRECORD
  5
466
102
{ACAD_REACTORS
330
465
102
}
330
465
100
AcDbXrecord
280
     1
102
RTVSPropertyOp0
 70
     1
102
RTVSPropertyOp1
 70
     1
102
RTVSPropertyOp2
 70
     1
102
RTVSPropertyOp3
 70
     1
102
RTVSPropertyOp4
 70
     1
102
RTVSPropertyOp5
 70
     1
102
RTVSPropertyOp6
 70
     1
102
RTVSPropertyOp7
 70
     1
102
RTVSPropertyOp8
 70
     1
102
RTVSPropertyOp9
 70
     1
102
RTVSPropertyOp10
 70
     1
102
RTVSPropertyOp11
 70
     1
102
RTVSPropertyOp12
 70
     1
102
RTVSPropertyOp13
 70
     1
102
RTVSPropertyOp14
 70
     1
102
RTVSPropertyOp15
 70
     1
102
RTVSPropertyOp16
 70
     1
102
RTVSPropertyOp17
 70
     1
102
RTVSPropertyOp18
 70
     1
102
RTVSPropertyOp19
 70
     1
102
RTVSPropertyOp20
 70
     1
102
RTVSPropertyOp21
 70
     1
102
RTVSPropertyOp22
 70
     1
102
RTVSPropertyOp23
 70
     1
102
RTVSPropertyOp24
 70
     1
102
RTVSPropertyOp25
 70
     1
102
RTVSPropertyOp26
 70
     1
102
RTVSPropertyOp27
 70
     1
102
RTVSPropertyOp28
 70
     1
102
RTVSPropertyOp29
 70
     1
102
RTVSPropertyOp30
 70
     1
102
RTVSPropertyOp31
 70
     1
102
RTVSPropertyOp32
 70
     1
  0
XRECORD
  5
468
102
{ACAD_REACTORS
330
467
102
}
330
467
100
AcDbXrecord
280
     1
102
RTVSPropertyOp0
 70
     1
102
RTVSPropertyOp1
 70
     1
102
RTVSPropertyOp2
 70
     1
102
RTVSPropertyOp3
 70
     1
102
RTVSPropertyOp4
 70
     1
102
RTVSPropertyOp5
 70
     1
102
RTVSPropertyOp6
 70
     1
102
RTVSPropertyOp7
 70
     1
102
RTVSPropertyOp8
 70
     1
102
RTVSPropertyOp9
 70
     1
102
RTVSPropertyOp10
 70
     1
102
RTVSPropertyOp11
 70
     1
102
RTVSPropertyOp12
 70
     1
102
RTVSPropertyOp13
 70
     1
102
RTVSPropertyOp14
 70
     1
102
RTVSPropertyOp15
 70
     1
102
RTVSPropertyOp16
 70
     1
102
RTVSPropertyOp17
 70
     1
102
RTVSPropertyOp18
 70
     1
102
RTVSPropertyOp19
 70
     1
102
RTVSPropertyOp20
 70
     1
102
RTVSPropertyOp21
 70
     1
102
RTVSPropertyOp22
 70
     1
102
RTVSPropertyOp23
 70
     1
102
RTVSPropertyOp24
 70
     1
102
RTVSPropertyOp25
 70
     1
102
RTVSPropertyOp26
 70
     1
102
RTVSPropertyOp27
 70
     1
102
RTVSPropertyOp28
 70
     1
102
RTVSPropertyOp29
 70
     1
102
RTVSPropertyOp30
 70
     1
102
RTVSPropertyOp31
 70
     1
102
RTVSPropertyOp32
 70
     1
  0
XRECORD
  5
470
102
{ACAD_REACTORS
330
46F
102
}
330
46F
100
AcDbXrecord
280
     1
102
RTVSPropertyOp0
 70
     1
102
RTVSPropertyOp1
 70
     1
102
RTVSPropertyOp2
 70
     1
102
RTVSPropertyOp3
 70
     1
102
RTVSPropertyOp4
 70
     1
102
RTVSPropertyOp5
 70
     1
102
RTVSPropertyOp6
 70
     1
102
RTVSPropertyOp7
 70
     1
102
RTVSPropertyOp8
 70
     1
102
RTVSPropertyOp9
 70
     1
102
RTVSPropertyOp10
 70
     1
102
RTVSPropertyOp11
 70
     1
102
RTVSPropertyOp12
 70
     1
102
RTVSPropertyOp13
 70
     1
102
RTVSPropertyOp14
 70
     1
102
RTVSPropertyOp15
 70
     1
102
RTVSPropertyOp16
 70
     1
102
RTVSPropertyOp17
 70
     1
102
RTVSPropertyOp18
 70
     1
102
RTVSPropertyOp19
 70
     1
102
RTVSPropertyOp20
 70
     1
102
RTVSPropertyOp21
 70
     1
102
RTVSPropertyOp22
 70
     1
102
RTVSPropertyOp23
 70
     1
102
RTVSPropertyOp24
 70
     1
102
RTVSPropertyOp25
 70
     1
102
RTVSPropertyOp26
 70
     1
102
RTVSPropertyOp27
 70
     1
102
RTVSPropertyOp28
 70
     1
102
RTVSPropertyOp29
 70
     1
102
RTVSPropertyOp30
 70
     1
102
RTVSPropertyOp31
 70
     1
102
RTVSPropertyOp32
 70
     1
  0
XRECORD
  5
454
102
{ACAD_REACTORS
330
453
102
}
330
453
100
AcDbXrecord
280
     1
102
RTVSPropertyOp0
 70
     1
102
RTVSPropertyOp1
 70
     1
102
RTVSPropertyOp2
 70
     1
102
RTVSPropertyOp3
 70
     1
102
RTVSPropertyOp4
 70
     1
102
RTVSPropertyOp5
 70
     1
102
RTVSPropertyOp6
 70
     1
102
RTVSPropertyOp7
 70
     1
102
RTVSPropertyOp8
 70
     1
102
RTVSPropertyOp9
 70
     1
102
RTVSPropertyOp10
 70
     1
102
RTVSPropertyOp11
 70
     1
102
RTVSPropertyOp12
 70
     1
102
RTVSPropertyOp13
 70
     1
102
RTVSPropertyOp14
 70
     1
102
RTVSPropertyOp15
 70
     1
102
RTVSPropertyOp16
 70
     1
102
RTVSPropertyOp17
 70
     1
102
RTVSPropertyOp18
 70
     1
102
RTVSPropertyOp19
 70
     1
102
RTVSPropertyOp20
 70
     1
102
RTVSPropertyOp21
 70
     1
102
RTVSPropertyOp22
 70
     1
102
RTVSPropertyOp23
 70
     1
102
RTVSPropertyOp24
 70
     1
102
RTVSPropertyOp25
 70
     1
102
RTVSPropertyOp26
 70
     1
102
RTVSPropertyOp27
 70
     1
102
RTVSPropertyOp28
 70
     1
102
RTVSPropertyOp29
 70
     1
102
RTVSPropertyOp30
 70
     1
102
RTVSPropertyOp31
 70
     1
102
RTVSPropertyOp32
 70
     1
  0
XRECORD
  5
456
102
{ACAD_REACTORS
330
455
102
}
330
455
100
AcDbXrecord
280
     1
102
RTVSPropertyOp0
 70
     1
102
RTVSPropertyOp1
 70
     1
102
RTVSPropertyOp2
 70
     1
102
RTVSPropertyOp3
 70
     1
102
RTVSPropertyOp4
 70
     1
102
RTVSPropertyOp5
 70
     1
102
RTVSPropertyOp6
 70
     1
102
RTVSPropertyOp7
 70
     1
102
RTVSPropertyOp8
 70
     1
102
RTVSPropertyOp9
 70
     1
102
RTVSPropertyOp10
 70
     1
102
RTVSPropertyOp11
 70
     1
102
RTVSPropertyOp12
 70
     1
102
RTVSPropertyOp13
 70
     1
102
RTVSPropertyOp14
 70
     1
102
RTVSPropertyOp15
 70
     1
102
RTVSPropertyOp16
 70
     1
102
RTVSPropertyOp17
 70
     1
102
RTVSPropertyOp18
 70
     1
102
RTVSPropertyOp19
 70
     1
102
RTVSPropertyOp20
 70
     1
102
RTVSPropertyOp21
 70
     1
102
RTVSPropertyOp22
 70
     1
102
RTVSPropertyOp23
 70
     1
102
RTVSPropertyOp24
 70
     1
102
RTVSPropertyOp25
 70
     1
102
RTVSPropertyOp26
 70
     1
102
RTVSPropertyOp27
 70
     1
102
RTVSPropertyOp28
 70
     1
102
RTVSPropertyOp29
 70
     1
102
RTVSPropertyOp30
 70
     1
102
RTVSPropertyOp31
 70
     1
102
RTVSPropertyOp32
 70
     1
  0
XRECORD
  5
458
102
{ACAD_REACTORS
330
457
102
}
330
457
100
AcDbXrecord
280
     1
102
RTVSPropertyOp0
 70
     1
102
RTVSPropertyOp1
 70
     1
102
RTVSPropertyOp2
 70
     1
102
RTVSPropertyOp3
 70
     1
102
RTVSPropertyOp4
 70
     1
102
RTVSPropertyOp5
 70
     1
102
RTVSPropertyOp6
 70
     1
102
RTVSPropertyOp7
 70
     1
102
RTVSPropertyOp8
 70
     1
102
RTVSPropertyOp9
 70
     1
102
RTVSPropertyOp10
 70
     1
102
RTVSPropertyOp11
 70
     1
102
RTVSPropertyOp12
 70
     1
102
RTVSPropertyOp13
 70
     1
102
RTVSPropertyOp14
 70
     1
102
RTVSPropertyOp15
 70
     1
102
RTVSPropertyOp16
 70
     1
102
RTVSPropertyOp17
 70
     1
102
RTVSPropertyOp18
 70
     1
102
RTVSPropertyOp19
 70
     1
102
RTVSPropertyOp20
 70
     1
102
RTVSPropertyOp21
 70
     1
102
RTVSPropertyOp22
 70
     1
102
RTVSPropertyOp23
 70
     1
102
RTVSPropertyOp24
 70
     1
102
RTVSPropertyOp25
 70
     1
102
RTVSPropertyOp26
 70
     1
102
RTVSPropertyOp27
 70
     1
102
RTVSPropertyOp28
 70
     1
102
RTVSPropertyOp29
 70
     1
102
RTVSPropertyOp30
 70
     1
102
RTVSPropertyOp31
 70
     1
102
RTVSPropertyOp32
 70
     1
  0
XRECORD
  5
45A
102
{ACAD_REACTORS
330
459
102
}
330
459
100
AcDbXrecord
280
     1
102
RTVSPropertyOp0
 70
     1
102
RTVSPropertyOp1
 70
     1
102
RTVSPropertyOp2
 70
     1
102
RTVSPropertyOp3
 70
     1
102
RTVSPropertyOp4
 70
     1
102
RTVSPropertyOp5
 70
     1
102
RTVSPropertyOp6
 70
     1
102
RTVSPropertyOp7
 70
     1
102
RTVSPropertyOp8
 70
     1
102
RTVSPropertyOp9
 70
     1
102
RTVSPropertyOp10
 70
     1
102
RTVSPropertyOp11
 70
     1
102
RTVSPropertyOp12
 70
     1
102
RTVSPropertyOp13
 70
     1
102
RTVSPropertyOp14
 70
     1
102
RTVSPropertyOp15
 70
     1
102
RTVSPropertyOp16
 70
     1
102
RTVSPropertyOp17
 70
     1
102
RTVSPropertyOp18
 70
     1
102
RTVSPropertyOp19
 70
     1
102
RTVSPropertyOp20
 70
     1
102
RTVSPropertyOp21
 70
     1
102
RTVSPropertyOp22
 70
     1
102
RTVSPropertyOp23
 70
     1
102
RTVSPropertyOp24
 70
     1
102
RTVSPropertyOp25
 70
     1
102
RTVSPropertyOp26
 70
     1
102
RTVSPropertyOp27
 70
     1
102
RTVSPropertyOp28
 70
     1
102
RTVSPropertyOp29
 70
     1
102
RTVSPropertyOp30
 70
     1
102
RTVSPropertyOp31
 70
     1
102
RTVSPropertyOp32
 70
     1
  0
XRECORD
  5
46E
102
{ACAD_REACTORS
330
46D
102
}
330
46D
100
AcDbXrecord
280
     1
102
RTVSPropertyOp0
 70
     1
102
RTVSPropertyOp1
 70
     1
102
RTVSPropertyOp2
 70
     1
102
RTVSPropertyOp3
 70
     1
102
RTVSPropertyOp4
 70
     1
102
RTVSPropertyOp5
 70
     1
102
RTVSPropertyOp6
 70
     1
102
RTVSPropertyOp7
 70
     1
102
RTVSPropertyOp8
 70
     1
102
RTVSPropertyOp9
 70
     1
102
RTVSPropertyOp10
 70
     1
102
RTVSPropertyOp11
 70
     1
102
RTVSPropertyOp12
 70
     1
102
RTVSPropertyOp13
 70
     1
102
RTVSPropertyOp14
 70
     1
102
RTVSPropertyOp15
 70
     1
102
RTVSPropertyOp16
 70
     1
102
RTVSPropertyOp17
 70
     1
102
RTVSPropertyOp18
 70
     1
102
RTVSPropertyOp19
 70
     1
102
RTVSPropertyOp20
 70
     1
102
RTVSPropertyOp21
 70
     1
102
RTVSPropertyOp22
 70
     1
102
RTVSPropertyOp23
 70
     1
102
RTVSPropertyOp24
 70
     1
102
RTVSPropertyOp25
 70
     1
102
RTVSPropertyOp26
 70
     1
102
RTVSPropertyOp27
 70
     1
102
RTVSPropertyOp28
 70
     1
102
RTVSPropertyOp29
 70
     1
102
RTVSPropertyOp30
 70
     1
102
RTVSPropertyOp31
 70
     1
102
RTVSPropertyOp32
 70
     1
  0
XRECORD
  5
464
102
{ACAD_REACTORS
330
463
102
}
330
463
100
AcDbXrecord
280
     1
102
RTVSPropertyOp0
 70
     1
102
RTVSPropertyOp1
 70
     1
102
RTVSPropertyOp2
 70
     1
102
RTVSPropertyOp3
 70
     1
102
RTVSPropertyOp4
 70
     1
102
RTVSPropertyOp5
 70
     1
102
RTVSPropertyOp6
 70
     1
102
RTVSPropertyOp7
 70
     1
102
RTVSPropertyOp8
 70
     1
102
RTVSPropertyOp9
 70
     1
102
RTVSPropertyOp10
 70
     1
102
RTVSPropertyOp11
 70
     1
102
RTVSPropertyOp12
 70
     1
102
RTVSPropertyOp13
 70
     1
102
RTVSPropertyOp14
 70
     1
102
RTVSPropertyOp15
 70
     1
102
RTVSPropertyOp16
 70
     1
102
RTVSPropertyOp17
 70
     1
102
RTVSPropertyOp18
 70
     1
102
RTVSPropertyOp19
 70
     1
102
RTVSPropertyOp20
 70
     1
102
RTVSPropertyOp21
 70
     1
102
RTVSPropertyOp22
 70
     1
102
RTVSPropertyOp23
 70
     1
102
RTVSPropertyOp24
 70
     1
102
RTVSPropertyOp25
 70
     1
102
RTVSPropertyOp26
 70
     1
102
RTVSPropertyOp27
 70
     1
102
RTVSPropertyOp28
 70
     1
102
RTVSPropertyOp29
 70
     1
102
RTVSPropertyOp30
 70
     1
102
RTVSPropertyOp31
 70
     1
102
RTVSPropertyOp32
 70
     1
  0
XRECORD
  5
46C
102
{ACAD_REACTORS
330
46B
102
}
330
46B
100
AcDbXrecord
280
     1
102
RTVSPropertyOp0
 70
     1
102
RTVSPropertyOp1
 70
     1
102
RTVSPropertyOp2
 70
     1
102
RTVSPropertyOp3
 70
     1
102
RTVSPropertyOp4
 70
     1
102
RTVSPropertyOp5
 70
     1
102
RTVSPropertyOp6
 70
     1
102
RTVSPropertyOp7
 70
     1
102
RTVSPropertyOp8
 70
     1
102
RTVSPropertyOp9
 70
     1
102
RTVSPropertyOp10
 70
     1
102
RTVSPropertyOp11
 70
     1
102
RTVSPropertyOp12
 70
     1
102
RTVSPropertyOp13
 70
     1
102
RTVSPropertyOp14
 70
     1
102
RTVSPropertyOp15
 70
     1
102
RTVSPropertyOp16
 70
     1
102
RTVSPropertyOp17
 70
     1
102
RTVSPropertyOp18
 70
     1
102
RTVSPropertyOp19
 70
     1
102
RTVSPropertyOp20
 70
     1
102
RTVSPropertyOp21
 70
     1
102
RTVSPropertyOp22
 70
     1
102
RTVSPropertyOp23
 70
     1
102
RTVSPropertyOp24
 70
     1
102
RTVSPropertyOp25
 70
     1
102
RTVSPropertyOp26
 70
     1
102
RTVSPropertyOp27
 70
     1
102
RTVSPropertyOp28
 70
     1
102
RTVSPropertyOp29
 70
     1
102
RTVSPropertyOp30
 70
     1
102
RTVSPropertyOp31
 70
     1
102
RTVSPropertyOp32
 70
     1
  0
ENDSEC
  0
EOF
