  0
SECTION
  2
HEADER
  9
$ACADVER
  1
AC1015
  9
$ACADMAINTVER
 70
     6
  9
$DWGCODEPAGE
  3
ANSI_1252
  9
$INSBASE
 10
0.0
 20
0.0
 30
0.0
  9
$EXTMIN
 10
-385.2500312712289
 20
-256.9738821562924
 30
0.0
  9
$EXTMAX
 10
-88.25003127123077
 20
-46.97388215629226
 30
0.0
  9
$LIMMIN
 10
0.0
 20
0.0
  9
$LIMMAX
 10
12.0
 20
9.0
  9
$ORTHOMODE
 70
     0
  9
$REGENMODE
 70
     1
  9
$FILLMODE
 70
     1
  9
$QTEXTMODE
 70
     0
  9
$MIRRTEXT
 70
     1
  9
$LTSCALE
 40
1.0
  9
$ATTMODE
 70
     1
  9
$TEXTSIZE
 40
0.2
  9
$TRACEWID
 40
0.05
  9
$TEXTSTYLE
  7
Standard
  9
$CLAYER
  8
0
  9
$CELTYPE
  6
ByLayer
  9
$CECOLOR
 62
   256
  9
$CELTSCALE
 40
1.0
  9
$DISPSILH
 70
     0
  9
$DIMSCALE
 40
1.0
  9
$DIMASZ
 40
0.18
  9
$DIMEXO
 40
0.0625
  9
$DIMDLI
 40
0.38
  9
$DIMRND
 40
0.0
  9
$DIMDLE
 40
0.0
  9
$DIMEXE
 40
0.18
  9
$DIMTP
 40
0.0
  9
$DIMTM
 40
0.0
  9
$DIMTXT
 40
0.18
  9
$DIMCEN
 40
0.09
  9
$DIMTSZ
 40
0.0
  9
$DIMTOL
 70
     0
  9
$DIMLIM
 70
     0
  9
$DIMTIH
 70
     1
  9
$DIMTOH
 70
     1
  9
$DIMSE1
 70
     0
  9
$DIMSE2
 70
     0
  9
$DIMTAD
 70
     0
  9
$DIMZIN
 70
     0
  9
$DIMBLK
  1

  9
$DIMASO
 70
     1
  9
$DIMSHO
 70
     1
  9
$DIMPOST
  1

  9
$DIMAPOST
  1

  9
$DIMALT
 70
     0
  9
$DIMALTD
 70
     2
  9
$DIMALTF
 40
25.4
  9
$DIMLFAC
 40
1.0
  9
$DIMTOFL
 70
     0
  9
$DIMTVP
 40
0.0
  9
$DIMTIX
 70
     0
  9
$DIMSOXD
 70
     0
  9
$DIMSAH
 70
     0
  9
$DIMBLK1
  1

  9
$DIMBLK2
  1

  9
$DIMSTYLE
  2
Standard
  9
$DIMCLRD
 70
     0
  9
$DIMCLRE
 70
     0
  9
$DIMCLRT
 70
     0
  9
$DIMTFAC
 40
1.0
  9
$DIMGAP
 40
0.09
  9
$DIMJUST
 70
     0
  9
$DIMSD1
 70
     0
  9
$DIMSD2
 70
     0
  9
$DIMTOLJ
 70
     1
  9
$DIMTZIN
 70
     0
  9
$DIMALTZ
 70
     0
  9
$DIMALTTZ
 70
     0
  9
$DIMUPT
 70
     0
  9
$DIMDEC
 70
     4
  9
$DIMTDEC
 70
     4
  9
$DIMALTU
 70
     2
  9
$DIMALTTD
 70
     2
  9
$DIMTXSTY
  7
Standard
  9
$DIMAUNIT
 70
     0
  9
$DIMADEC
 70
     0
  9
$DIMALTRND
 40
0.0
  9
$DIMAZIN
 70
     0
  9
$DIMDSEP
 70
    46
  9
$DIMATFIT
 70
     3
  9
$DIMFRAC
 70
     0
  9
$DIMLDRBLK
  1

  9
$DIMLUNIT
 70
     2
  9
$DIMLWD
 70
    -2
  9
$DIMLWE
 70
    -2
  9
$DIMTMOVE
 70
     0
  9
$LUNITS
 70
     2
  9
$LUPREC
 70
     4
  9
$SKETCHINC
 40
0.1
  9
$FILLETRAD
 40
0.5
  9
$AUNITS
 70
     0
  9
$AUPREC
 70
     0
  9
$MENU
  1
.
  9
$ELEVATION
 40
0.0
  9
$PELEVATION
 40
0.0
  9
$THICKNESS
 40
0.0
  9
$LIMCHECK
 70
     0
  9
$CHAMFERA
 40
0.5
  9
$CHAMFERB
 40
0.5
  9
$CHAMFERC
 40
1.0
  9
$CHAMFERD
 40
0.0
  9
$SKPOLY
 70
     0
  9
$TDCREATE
 40
2457220.655222338
  9
$TDUCREATE
 40
2457220.571889005
  9
$TDUPDATE
 40
2457220.65522316
  9
$TDUUPDATE
 40
2457220.571889827
  9
$TDINDWG
 40
0.0000000116
  9
$TDUSRTIMER
 40
0.0000000116
  9
$USRTIMER
 70
     1
  9
$ANGBASE
 50
0.0
  9
$ANGDIR
 70
     0
  9
$PDMODE
 70
     0
  9
$PDSIZE
 40
0.0
  9
$PLINEWID
 40
0.0
  9
$SPLFRAME
 70
     0
  9
$SPLINETYPE
 70
     6
  9
$SPLINESEGS
 70
     8
  9
$HANDSEED
  5
268
  9
$SURFTAB1
 70
     6
  9
$SURFTAB2
 70
     6
  9
$SURFTYPE
 70
     6
  9
$SURFU
 70
     6
  9
$SURFV
 70
     6
  9
$UCSBASE
  2

  9
$UCSNAME
  2

  9
$UCSORG
 10
0.0
 20
0.0
 30
0.0
  9
$UCSXDIR
 10
1.0
 20
0.0
 30
0.0
  9
$UCSYDIR
 10
0.0
 20
1.0
 30
0.0
  9
$UCSORTHOREF
  2

  9
$UCSORTHOVIEW
 70
     0
  9
$UCSORGTOP
 10
0.0
 20
0.0
 30
0.0
  9
$UCSORGBOTTOM
 10
0.0
 20
0.0
 30
0.0
  9
$UCSORGLEFT
 10
0.0
 20
0.0
 30
0.0
  9
$UCSORGRIGHT
 10
0.0
 20
0.0
 30
0.0
  9
$UCSORGFRONT
 10
0.0
 20
0.0
 30
0.0
  9
$UCSORGBACK
 10
0.0
 20
0.0
 30
0.0
  9
$PUCSBASE
  2

  9
$PUCSNAME
  2

  9
$PUCSORG
 10
0.0
 20
0.0
 30
0.0
  9
$PUCSXDIR
 10
1.0
 20
0.0
 30
0.0
  9
$PUCSYDIR
 10
0.0
 20
1.0
 30
0.0
  9
$PUCSORTHOREF
  2

  9
$PUCSORTHOVIEW
 70
     0
  9
$PUCSORGTOP
 10
0.0
 20
0.0
 30
0.0
  9
$PUCSORGBOTTOM
 10
0.0
 20
0.0
 30
0.0
  9
$PUCSORGLEFT
 10
0.0
 20
0.0
 30
0.0
  9
$PUCSORGRIGHT
 10
0.0
 20
0.0
 30
0.0
  9
$PUCSORGFRONT
 10
0.0
 20
0.0
 30
0.0
  9
$PUCSORGBACK
 10
0.0
 20
0.0
 30
0.0
  9
$USERI1
 70
     0
  9
$USERI2
 70
     0
  9
$USERI3
 70
     0
  9
$USERI4
 70
     0
  9
$USERI5
 70
     0
  9
$USERR1
 40
18.1
  9
$USERR2
 40
0.0
  9
$USERR3
 40
0.0
  9
$USERR4
 40
0.0
  9
$USERR5
 40
0.0
  9
$WORLDVIEW
 70
     1
  9
$SHADEDGE
 70
     3
  9
$SHADEDIF
 70
    70
  9
$TILEMODE
 70
     1
  9
$MAXACTVP
 70
    64
  9
$PINSBASE
 10
0.0
 20
0.0
 30
0.0
  9
$PLIMCHECK
 70
     0
  9
$PEXTMIN
 10
1.00000000000000E+20
 20
1.00000000000000E+20
 30
1.00000000000000E+20
  9
$PEXTMAX
 10
-1.00000000000000E+20
 20
-1.00000000000000E+20
 30
-1.00000000000000E+20
  9
$PLIMMIN
 10
0.0
 20
0.0
  9
$PLIMMAX
 10
12.0
 20
9.0
  9
$UNITMODE
 70
     0
  9
$VISRETAIN
 70
     1
  9
$PLINEGEN
 70
     0
  9
$PSLTSCALE
 70
     1
  9
$TREEDEPTH
 70
  3020
  9
$CMLSTYLE
  2
Standard
  9
$CMLJUST
 70
     0
  9
$CMLSCALE
 40
1.0
  9
$PROXYGRAPHICS
 70
     1
  9
$MEASUREMENT
 70
     1
  9
$CELWEIGHT
370
    -1
  9
$ENDCAPS
280
     0
  9
$JOINSTYLE
280
     0
  9
$LWDISPLAY
290
     0
  9
$INSUNITS
 70
     4
  9
$HYPERLINKBASE
  1

  9
$STYLESHEET
  1

  9
$XEDIT
290
     1
  9
$CEPSNTYPE
380
     0
  9
$PSTYLEMODE
290
     1
  9
$FINGERPRINTGUID
  2
{4B33D419-F276-41F1-9553-3632BDC3A623}
  9
$VERSIONGUID
  2
{FAEB1C32-E019-11D5-929B-00C0DF256EC4}
  9
$EXTNAMES
290
     1
  9
$PSVPSCALE
 40
0.0
  9
$OLESTARTUP
290
     0
  0
ENDSEC
  0
SECTION
  2
CLASSES
  0
CLASS
  1
ACDBDICTIONARYWDFLT
  2
AcDbDictionaryWithDefault
  3
ObjectDBX Classes
 90
        0
280
     0
281
     0
  0
CLASS
  1
VISUALSTYLE
  2
AcDbVisualStyle
  3
ObjectDBX Classes
 90
     4095
280
     0
281
     0
  0
CLASS
  1
MATERIAL
  2
AcDbMaterial
  3
ObjectDBX Classes
 90
     1153
280
     0
281
     0
  0
CLASS
  1
DICTIONARYVAR
  2
AcDbDictionaryVar
  3
ObjectDBX Classes
 90
        0
280
     0
281
     0
  0
CLASS
  1
ACDBPLACEHOLDER
  2
AcDbPlaceHolder
  3
ObjectDBX Classes
 90
        0
280
     0
281
     0
  0
CLASS
  1
LAYOUT
  2
AcDbLayout
  3
ObjectDBX Classes
 90
        0
280
     0
281
     0
  0
ENDSEC
  0
SECTION
  2
TABLES
  0
TABLE
  2
VPORT
  5
8
330
0
100
AcDbSymbolTable
 70
     1
  0
VPORT
  5
29
330
8
100
AcDbSymbolTableRecord
100
AcDbViewportTableRecord
  2
*Active
 70
     0
 10
0.0
 20
0.0
 11
1.0
 21
1.0
 12
-236.7500312712298
 22
-151.9738821562923
 13
0.0
 23
0.0
 14
0.5
 24
0.5
 15
0.5
 25
0.5
 16
0.0
 26
0.0
 36
1.0
 17
0.0
 27
0.0
 37
0.0
 40
231.0000000000002
 41
1.60267857142857
 42
50.0
 43
0.0
 44
0.0
 50
0.0
 51
0.0
 71
     0
 72
   100
 73
     1
 74
     3
 75
     0
 76
     0
 77
     0
 78
     0
281
     0
 65
     1
110
0.0
120
0.0
130
0.0
111
1.0
121
0.0
131
0.0
112
0.0
122
1.0
132
0.0
 79
     0
146
0.0
  0
ENDTAB
  0
TABLE
  2
LTYPE
  5
5
330
0
100
AcDbSymbolTable
 70
     8
  0
LTYPE
  5
14
330
5
100
AcDbSymbolTableRecord
100
AcDbLinetypeTableRecord
  2
ByBlock
 70
     0
  3

 72
    65
 73
     0
 40
0.0
  0
LTYPE
  5
15
330
5
100
AcDbSymbolTableRecord
100
AcDbLinetypeTableRecord
  2
ByLayer
 70
     0
  3

 72
    65
 73
     0
 40
0.0
  0
LTYPE
  5
16
330
5
100
AcDbSymbolTableRecord
100
AcDbLinetypeTableRecord
  2
Continuous
 70
     0
  3
Solid line
 72
    65
 73
     0
 40
0.0
  0
LTYPE
  5
3F
330
5
100
AcDbSymbolTableRecord
100
AcDbLinetypeTableRecord
  2
DASHED
 70
     0
  3
Dashed
 72
    65
 73
     2
 40
15.0
 49
7.0
 74
     0
 49
-8.0
 74
     0
  0
LTYPE
  5
40
330
5
100
AcDbSymbolTableRecord
100
AcDbLinetypeTableRecord
  2
DOTTED
 70
     0
  3
Dotted
 72
    65
 73
     2
 40
1.0
 49
0.0
 74
     0
 49
-1.0
 74
     0
  0
LTYPE
  5
41
330
5
100
AcDbSymbolTableRecord
100
AcDbLinetypeTableRecord
  2
DOT_CENTER
 70
     0
  3
Dot_Center
 72
    65
 73
     4
 40
14.0
 49
12.0
 74
     0
 49
-1.0
 74
     0
 49
0.0
 74
     0
 49
-1.0
 74
     0
  0
LTYPE
  5
42
330
5
100
AcDbSymbolTableRecord
100
AcDbLinetypeTableRecord
  2
LONG_DASHED
 70
     0
  3
Long_Dashed
 72
    65
 73
     2
 40
15.0
 49
10.0
 74
     0
 49
-5.0
 74
     0
  0
LTYPE
  5
43
330
5
100
AcDbSymbolTableRecord
100
AcDbLinetypeTableRecord
  2
DASH_CENTER
 70
     0
  3
Dash_Center
 72
    65
 73
     4
 40
14.0
 49
11.0
 74
     0
 49
-1.0
 74
     0
 49
1.0
 74
     0
 49
-1.0
 74
     0
  0
LTYPE
  5
44
330
5
100
AcDbSymbolTableRecord
100
AcDbLinetypeTableRecord
  2
PHANTOM
 70
     0
  3
Phantom
 72
    65
 73
     6
 40
13.0
 49
10.0
 74
     0
 49
-1.0
 74
     0
 49
0.0
 74
     0
 49
-1.0
 74
     0
 49
0.0
 74
     0
 49
-1.0
 74
     0
  0
LTYPE
  5
45
330
5
100
AcDbSymbolTableRecord
100
AcDbLinetypeTableRecord
  2
CENTER_DASH_DASH
 70
     0
  3
Center_Dash_Dash
 72
    65
 73
     6
 40
14.0
 49
9.0
 74
     0
 49
-1.0
 74
     0
 49
1.0
 74
     0
 49
-1.0
 74
     0
 49
1.0
 74
     0
 49
-1.0
 74
     0
  0
ENDTAB
  0
TABLE
  2
LAYER
  5
2
330
0
100
AcDbSymbolTable
 70
     2
  0
LAYER
  5
10
330
2
100
AcDbSymbolTableRecord
100
AcDbLayerTableRecord
  2
0
 70
     0
 62
     7
  6
Continuous
370
    -3
390
F
  0
LAYER
  5
46
330
2
100
AcDbSymbolTableRecord
100
AcDbLayerTableRecord
  2
1
 70
     0
 62
     7
  6
Continuous
370
    -3
390
F
  0
ENDTAB
  0
TABLE
  2
STYLE
  5
3
330
0
100
AcDbSymbolTable
 70
     5
  0
STYLE
  5
11
330
3
100
AcDbSymbolTableRecord
100
AcDbTextStyleTableRecord
  2
Standard
 70
     0
 40
0.0
 41
1.0
 50
0.0
 71
     0
 42
0.2
  3
txt
  4

  0
STYLE
  5
9C
330
3
100
AcDbSymbolTableRecord
100
AcDbTextStyleTableRecord
  2
CONVERTER_11
 70
     0
 40
0.0
 41
0.9
 50
0.0
 71
     0
 42
0.2
  3
txt.shx
  4

  0
STYLE
  5
1FD
330
3
100
AcDbSymbolTableRecord
100
AcDbTextStyleTableRecord
  2
CONVERTER_12
 70
     0
 40
0.0
 41
0.81
 50
0.0
 71
     0
 42
0.2
  3
txt.shx
  4

  0
STYLE
  5
203
330
3
100
AcDbSymbolTableRecord
100
AcDbTextStyleTableRecord
  2
CONVERTER_13
 70
     0
 40
0.0
 41
0.855
 50
0.0
 71
     0
 42
0.2
  3
txt.shx
  4

  0
STYLE
  5
206
330
3
100
AcDbSymbolTableRecord
100
AcDbTextStyleTableRecord
  2
CONVERTER_14
 70
     0
 40
0.0
 41
0.72
 50
0.0
 71
     0
 42
0.2
  3
txt.shx
  4

  0
ENDTAB
  0
TABLE
  2
VIEW
  5
6
330
0
100
AcDbSymbolTable
 70
     0
  0
ENDTAB
  0
TABLE
  2
UCS
  5
7
330
0
100
AcDbSymbolTable
 70
     0
  0
ENDTAB
  0
TABLE
  2
APPID
  5
9
330
0
100
AcDbSymbolTable
 70
     1
  0
APPID
  5
12
330
9
100
AcDbSymbolTableRecord
100
AcDbRegAppTableRecord
  2
ACAD
 70
     0
  0
ENDTAB
  0
TABLE
  2
DIMSTYLE
  5
A
330
0
100
AcDbSymbolTable
 70
     4
100
AcDbDimStyleTable
  0
DIMSTYLE
105
27
330
A
100
AcDbSymbolTableRecord
100
AcDbDimStyleTableRecord
  2
Standard
 70
     0
178
     0
340
11
  0
DIMSTYLE
105
B6
102
{ACAD_REACTORS
330
B7
102
}
330
A
100
AcDbSymbolTableRecord
100
AcDbDimStyleTableRecord
  2
ME10_DIM_10
 70
     0
 41
0.7
 42
0.0
 44
0.3
 73
     0
 74
     0
 77
     1
 78
     8
140
0.7
147
0.3
172
     1
173
     1
174
     1
175
     1
176
     2
177
     2
271
     1
178
     3
271
     1
340
9C
  0
DIMSTYLE
105
F7
102
{ACAD_REACTORS
330
F8
102
}
330
A
100
AcDbSymbolTableRecord
100
AcDbDimStyleTableRecord
  2
ME10_DIM_11
 70
     0
 41
0.7
 42
0.0
 44
0.3
 73
     0
 74
     0
 77
     1
 78
     8
140
0.7
147
0.3
172
     1
173
     1
174
     1
175
     1
176
     2
177
     2
271
     1
178
     3
271
     1
340
9C
  0
DIMSTYLE
105
102
102
{ACAD_REACTORS
330
103
102
}
330
A
100
AcDbSymbolTableRecord
100
AcDbDimStyleTableRecord
  2
ME10_DIM_12
 70
     0
 41
0.7
 42
0.0
 44
0.3
 73
     0
 74
     0
 77
     1
 78
     8
140
0.7
147
0.3
172
     1
173
     1
174
     1
175
     1
176
     2
177
     2
271
     1
178
     3
271
     1
340
9C
  0
ENDTAB
  0
TABLE
  2
BLOCK_RECORD
  5
1
330
0
100
AcDbSymbolTable
 70
    19
  0
BLOCK_RECORD
  5
1F
330
1
100
AcDbSymbolTableRecord
100
AcDbBlockTableRecord
  2
*Model_Space
340
22
  0
BLOCK_RECORD
  5
1B
330
1
100
AcDbSymbolTableRecord
100
AcDbBlockTableRecord
  2
*Paper_Space
340
1E
  0
BLOCK_RECORD
  5
23
330
1
100
AcDbSymbolTableRecord
100
AcDbBlockTableRecord
  2
*Paper_Space0
340
26
  0
BLOCK_RECORD
  5
47
330
1
100
AcDbSymbolTableRecord
100
AcDbBlockTableRecord
  2
1701967_CP_PC_RD-select__1
340
0
102
{BLKREFS
331
4B
102
}
  0
BLOCK_RECORD
  5
4A
330
1
100
AcDbSymbolTableRecord
100
AcDbBlockTableRecord
  2
Allg1
340
0
102
{BLKREFS
331
7C
102
}
  0
BLOCK_RECORD
  5
4E
330
1
100
AcDbSymbolTableRecord
100
AcDbBlockTableRecord
  2
1701967_CP_PC_RD-select__2
340
0
102
{BLKREFS
331
52
102
}
  0
BLOCK_RECORD
  5
51
330
1
100
AcDbSymbolTableRecord
100
AcDbBlockTableRecord
  2
Drfsicht1
340
0
102
{BLKREFS
331
7D
102
}
  0
BLOCK_RECORD
  5
55
330
1
100
AcDbSymbolTableRecord
100
AcDbBlockTableRecord
  2
1701967_CP_PC_RD-select__3
340
0
102
{BLKREFS
331
59
102
}
  0
BLOCK_RECORD
  5
58
330
1
100
AcDbSymbolTableRecord
100
AcDbBlockTableRecord
  2
Rckans1
340
0
102
{BLKREFS
331
7E
102
}
  0
BLOCK_RECORD
  5
5C
330
1
100
AcDbSymbolTableRecord
100
AcDbBlockTableRecord
  2
1701967_CP_PC_RD-select__4
340
0
102
{BLKREFS
331
60
102
}
  0
BLOCK_RECORD
  5
5F
330
1
100
AcDbSymbolTableRecord
100
AcDbBlockTableRecord
  2
SA_Links1
340
0
102
{BLKREFS
331
7F
102
}
  0
BLOCK_RECORD
  5
63
330
1
100
AcDbSymbolTableRecord
100
AcDbBlockTableRecord
  2
1701967_CP_PC_RD-select__5
340
0
102
{BLKREFS
331
67
102
}
  0
BLOCK_RECORD
  5
66
330
1
100
AcDbSymbolTableRecord
100
AcDbBlockTableRecord
  2
SA_Rechts1
340
0
102
{BLKREFS
331
80
102
}
  0
BLOCK_RECORD
  5
6A
330
1
100
AcDbSymbolTableRecord
100
AcDbBlockTableRecord
  2
1701967_CP_PC_RD-select__6
340
0
102
{BLKREFS
331
6E
102
}
  0
BLOCK_RECORD
  5
6D
330
1
100
AcDbSymbolTableRecord
100
AcDbBlockTableRecord
  2
Vordans1
340
0
102
{BLKREFS
331
81
102
}
  0
BLOCK_RECORD
  5
71
330
1
100
AcDbSymbolTableRecord
100
AcDbBlockTableRecord
  2
_punkt
340
0
102
{BLKREFS
331
78
102
}
  0
BLOCK_RECORD
  5
74
330
1
100
AcDbSymbolTableRecord
100
AcDbBlockTableRecord
  2
_rahmen
340
0
102
{BLKREFS
331
79
102
}
  0
BLOCK_RECORD
  5
77
330
1
100
AcDbSymbolTableRecord
100
AcDbBlockTableRecord
  2
A4I_CS
340
0
102
{BLKREFS
331
82
102
}
  0
BLOCK_RECORD
  5
AB
330
1
100
AcDbSymbolTableRecord
100
AcDbBlockTableRecord
  2
*D16
340
0
  0
BLOCK_RECORD
  5
EE
330
1
100
AcDbSymbolTableRecord
100
AcDbBlockTableRecord
  2
*D17
340
0
  0
BLOCK_RECORD
  5
F9
330
1
100
AcDbSymbolTableRecord
100
AcDbBlockTableRecord
  2
*D18
340
0
  0
ENDTAB
  0
ENDSEC
  0
SECTION
  2
BLOCKS
  0
BLOCK
  5
20
330
1F
100
AcDbEntity
  8
0
100
AcDbBlockBegin
  2
*Model_Space
 70
     0
 10
0.0
 20
0.0
 30
0.0
  3
*Model_Space
  1

  0
ENDBLK
  5
21
330
1F
100
AcDbEntity
  8
0
100
AcDbBlockEnd
  0
BLOCK
  5
1C
330
1B
100
AcDbEntity
 67
     1
  8
0
100
AcDbBlockBegin
  2
*Paper_Space
 70
     0
 10
0.0
 20
0.0
 30
0.0
  3
*Paper_Space
  1

  0
ENDBLK
  5
1D
330
1B
100
AcDbEntity
 67
     1
  8
0
100
AcDbBlockEnd
  0
BLOCK
  5
24
330
23
100
AcDbEntity
  8
0
100
AcDbBlockBegin
  2
*Paper_Space0
 70
     0
 10
0.0
 20
0.0
 30
0.0
  3
*Paper_Space0
  1

  0
ENDBLK
  5
25
330
23
100
AcDbEntity
  8
0
100
AcDbBlockEnd
  0
BLOCK
  5
48
330
47
100
AcDbEntity
  8
0
100
AcDbBlockBegin
  2
1701967_CP_PC_RD-select__1
 70
     0
 10
-36.61528677886773
 20
-39.98768547658349
 30
0.0
  3
1701967_CP_PC_RD-select__1
  1

  0
LINE
  5
83
330
47
100
AcDbEntity
  8
0
  6
Continuous
 62
     7
100
AcDbLine
 10
-36.61528677886768
 20
-35.97379527177159
 30
0.0
 11
-36.61528677886773
 21
-36.31268547658503
 31
0.0
  0
LINE
  5
84
330
47
100
AcDbEntity
  8
0
  6
Continuous
 62
     7
100
AcDbLine
 10
-23.88471334323465
 20
-39.98768547658349
 30
0.0
 11
-36.61528677886773
 21
-36.31268547658503
 31
0.0
  0
LINE
  5
85
330
47
100
AcDbEntity
  8
0
  6
Continuous
 62
     7
100
AcDbLine
 10
-29.91291657351115
 20
-34.51151970765582
 30
0.0
 11
-30.04348964165696
 21
-34.62459930172018
 31
0.0
  0
LINE
  5
86
330
47
100
AcDbEntity
  8
0
  6
Continuous
 62
     7
100
AcDbLine
 10
-23.43695061134375
 20
-37.27896349375573
 30
0.0
 11
-23.11528641138046
 21
-36.62459930171934
 31
0.0
  0
LINE
  5
87
330
47
100
AcDbEntity
  8
0
  6
Continuous
 62
     7
100
AcDbLine
 10
-30.36515384162024
 20
-35.27896349375656
 30
0.0
 11
-30.04348964165696
 21
-34.62459930172018
 31
0.0
  0
LINE
  5
88
330
47
100
AcDbEntity
  8
0
  6
Continuous
 62
     7
100
AcDbLine
 10
-23.11528641138046
 20
-36.62459930171934
 30
0.0
 11
-22.98471334323465
 21
-36.51151970765498
 31
0.0
  0
LINE
  5
89
330
47
100
AcDbEntity
  8
0
  6
Continuous
 62
     7
100
AcDbLine
 10
-23.11528641138046
 20
-36.62459930171934
 30
0.0
 11
-30.04348964165696
 21
-34.62459930172018
 31
0.0
  0
LINE
  5
8A
330
47
100
AcDbEntity
  8
0
  6
Continuous
 62
     7
100
AcDbLine
 10
-23.88471334323431
 20
-37.66673739444091
 30
0.0
 11
-23.43695061134375
 21
-37.27896349375573
 31
0.0
  0
LINE
  5
8B
330
47
100
AcDbEntity
  8
0
  6
Continuous
 62
     7
100
AcDbLine
 10
-30.36515384162024
 20
-35.27896349375656
 30
0.0
 11
-23.43695061134375
 21
-37.27896349375573
 31
0.0
  0
LINE
  5
8C
330
47
100
AcDbEntity
  8
0
  6
Continuous
 62
     7
100
AcDbLine
 10
-22.98471334323465
 20
-36.51151970765498
 30
0.0
 11
-29.91291657351115
 21
-34.51151970765582
 31
0.0
  0
LINE
  5
8D
330
47
100
AcDbEntity
  8
0
  6
Continuous
 62
     7
100
AcDbLine
 10
-23.11528641138091
 20
-39.69713703062232
 30
0.0
 11
-23.43695061134408
 21
-39.5999115758983
 31
0.0
  0
LINE
  5
8E
330
47
100
AcDbEntity
  8
0
  6
Continuous
 62
     7
100
AcDbLine
 10
-23.44073427503883
 20
-39.60318832477733
 30
0.0
 11
-23.11528641138091
 21
-39.69713703062232
 31
0.0
  0
LINE
  5
8F
330
47
100
AcDbEntity
  8
0
  6
Continuous
 62
     7
100
AcDbLine
 10
-36.6152867788674
 20
-33.99173739444245
 30
0.0
 11
-35.77528677886777
 21
-33.26427605526378
 31
0.0
  0
LINE
  5
90
330
47
100
AcDbEntity
  8
0
  6
Continuous
 62
     7
100
AcDbLine
 10
-30.17018191305497
 20
-34.88233045681941
 30
0.0
 11
-35.77528677886777
 21
-33.26427605526378
 31
0.0
  0
LINE
  5
91
330
47
100
AcDbEntity
  8
0
  6
Continuous
 62
     7
100
AcDbLine
 10
-22.9847133432351
 20
-39.58405743655796
 30
0.0
 11
-23.11528641138091
 21
-39.69713703062232
 31
0.0
  0
LINE
  5
92
330
47
100
AcDbEntity
  8
0
  6
Continuous
 62
     7
100
AcDbLine
 10
-36.6152867788674
 20
-33.99173739444245
 30
0.0
 11
-36.61528677886744
 21
-34.33062759925589
 31
0.0
  0
LINE
  5
93
330
47
100
AcDbEntity
  8
0
  6
Continuous
 62
     7
100
AcDbLine
 10
-23.88471334323465
 20
-39.98768547658349
 30
0.0
 11
-23.8847133432346
 21
-39.64879527177005
 31
0.0
  0
LINE
  5
94
330
47
100
AcDbEntity
  8
0
  6
Continuous
 62
     7
100
AcDbLine
 10
-23.43695061134408
 20
-39.5999115758983
 30
0.0
 11
-23.88471334323465
 21
-39.98768547658349
 31
0.0
  0
LINE
  5
95
330
47
100
AcDbEntity
  8
0
  6
Continuous
 62
     7
100
AcDbLine
 10
-23.88471334323436
 20
-38.00562759925435
 30
0.0
 11
-23.88471334323431
 21
-37.66673739444091
 31
0.0
  0
LINE
  5
96
330
47
100
AcDbEntity
  8
0
  6
Continuous
 62
     7
100
AcDbLine
 10
-36.61528677886768
 20
-35.97379527177159
 30
0.0
 11
-23.8847133432346
 21
-39.64879527177005
 31
0.0
  0
LINE
  5
97
330
47
100
AcDbEntity
  8
0
  6
Continuous
 62
     7
100
AcDbLine
 10
-22.98471334323465
 20
-36.51151970765498
 30
0.0
 11
-22.9847133432351
 21
-39.58405743655796
 31
0.0
  0
LINE
  5
98
330
47
100
AcDbEntity
  8
0
  6
Continuous
 62
     7
100
AcDbLine
 10
-36.61528677886744
 20
-34.33062759925589
 30
0.0
 11
-23.88471334323436
 21
-38.00562759925435
 31
0.0
  0
LINE
  5
99
330
47
100
AcDbEntity
  8
0
  6
Continuous
 62
     7
100
AcDbLine
 10
-36.6152867788674
 20
-33.99173739444245
 30
0.0
 11
-23.88471334323431
 21
-37.66673739444091
 31
0.0
  0
SPLINE
  5
9A
330
47
100
AcDbEntity
  8
0
  6
Continuous
 62
     7
100
AcDbSpline
210
0.0
220
0.0
230
1.0
 70
     8
 71
     3
 72
    15
 73
    11
 74
     9
 42
0.000000001
 43
0.0000000001
 44
0.00000001
 40
0.0
 40
0.0
 40
0.0
 40
0.0
 40
0.2705992996194017
 40
0.548781986136855
 40
0.821357695925051
 40
1.075664949519499
 40
1.300898015269612
 40
1.489809330457647
 40
1.641515542954823
 40
1.766557949746229
 40
1.766557949746229
 40
1.766557949746229
 40
1.766557949746229
 10
-36.61528677886768
 20
-35.97379527177159
 30
0.0
 10
-36.57859049796875
 20
-35.89130033633531
 30
0.0
 10
-36.50416954502528
 20
-35.72399859303339
 30
0.0
 10
-36.42777894858176
 20
-35.46028738874161
 30
0.0
 10
-36.3778539089577
 20
-35.196144065407
 30
0.0
 10
-36.35997896521772
 20
-34.94566573012469
 30
0.0
 10
-36.37382558829456
 20
-34.72167219382668
 30
0.0
 10
-36.42036100393528
 20
-34.53945287375837
 30
0.0
 10
-36.49506267915359
 20
-34.3953564693346
 30
0.0
 10
-36.5778715286796
 20
-34.35077203291406
 30
0.0
 10
-36.61528677886744
 20
-34.33062759925589
 30
0.0
 11
-36.61528677886768
 21
-35.97379527177159
 31
0.0
 11
-36.5108828420579
 21
-35.72414793346966
 31
0.0
 11
-36.43161203013331
 21
-35.45749882760131
 31
0.0
 11
-36.38211441724302
 21
-35.18945498058162
 31
0.0
 11
-36.36528677886768
 21
-34.9357050845677
 31
0.0
 11
-36.38211441724297
 21
-34.71110151319124
 31
0.0
 11
-36.43161203013319
 21
-34.52879004655086
 31
0.0
 11
-36.5108828420577
 21
-34.39944201449307
 31
0.0
 11
-36.61528677886744
 21
-34.33062759925589
 31
0.0
  0
SPLINE
  5
9B
330
47
100
AcDbEntity
  8
0
  6
Continuous
 62
     7
100
AcDbSpline
210
0.0
220
0.0
230
1.0
 70
     8
 71
     3
 72
    15
 73
    11
 74
     9
 42
0.000000001
 43
0.0000000001
 44
0.00000001
 40
0.0
 40
0.0
 40
0.0
 40
0.0
 40
0.2705992996193978
 40
0.5487819861368481
 40
0.8213576959250461
 40
1.075664949519495
 40
1.300898015269608
 40
1.489809330457637
 40
1.641515542954817
 40
1.766557949746227
 40
1.766557949746227
 40
1.766557949746227
 40
1.766557949746227
 10
-23.8847133432346
 20
-39.64879527177005
 30
0.0
 10
-23.84801706233567
 20
-39.56630033633376
 30
0.0
 10
-23.7735961093922
 20
-39.39899859303188
 30
0.0
 10
-23.6972055129487
 20
-39.13528738874006
 30
0.0
 10
-23.64728047332463
 20
-38.87114406540547
 30
0.0
 10
-23.62940552958463
 20
-38.62066573012316
 30
0.0
 10
-23.64325215266147
 20
-38.39667219382514
 30
0.0
 10
-23.68978756830219
 20
-38.21445287375684
 30
0.0
 10
-23.76448924352051
 20
-38.07035646933306
 30
0.0
 10
-23.84729809304652
 20
-38.02577203291253
 30
0.0
 10
-23.88471334323436
 20
-38.00562759925435
 30
0.0
 11
-23.8847133432346
 21
-39.64879527177005
 31
0.0
 11
-23.78030940642481
 21
-39.39914793346812
 31
0.0
 11
-23.70103859450024
 21
-39.13249882759978
 31
0.0
 11
-23.65154098160994
 21
-38.86445498058008
 31
0.0
 11
-23.63471334323459
 21
-38.61070508456616
 31
0.0
 11
-23.65154098160987
 21
-38.3861015131897
 31
0.0
 11
-23.7010385945001
 21
-38.20379004654933
 31
0.0
 11
-23.78030940642461
 21
-38.07444201449154
 31
0.0
 11
-23.88471334323436
 21
-38.00562759925435
 31
0.0
  0
ENDBLK
  5
49
330
47
100
AcDbEntity
  8
0
100
AcDbBlockEnd
  0
BLOCK
  5
4C
330
4A
100
AcDbEntity
  8
0
100
AcDbBlockBegin
  2
Allg1
 70
     0
 10
-29.79999996653005
 20
-36.60000001733002
 30
0.0
  3
Allg1
  1

  0
INSERT
  5
4B
330
4A
100
AcDbEntity
  8
0
100
AcDbBlockReference
  2
1701967_CP_PC_RD-select__1
 10
-36.61528677886773
 20
-39.98768547658349
 30
0.0
  0
MTEXT
  5
9D
330
4A
100
AcDbEntity
  8
1
 62
     6
100
AcDbMText
 10
-29.79999996652999
 20
-41.36348334739446
 30
0.0
 40
1.0
 41
0.0
 71
     2
 72
     1
  1
 
  7
CONVERTER_11
 73
     1
 44
1.32052821128451
  0
ENDBLK
  5
4D
330
4A
100
AcDbEntity
  8
0
100
AcDbBlockEnd
  0
BLOCK
  5
4F
330
4E
100
AcDbEntity
  8
0
100
AcDbBlockBegin
  2
1701967_CP_PC_RD-select__2
 70
     0
 10
-65.05000839988467
 20
-32.17393357743541
 30
0.0
  3
1701967_CP_PC_RD-select__2
  1

  0
LINE
  5
9E
330
4E
100
AcDbEntity
  8
0
  6
Continuous
 62
     7
100
AcDbLine
 10
-58.35000839988468
 20
-30.49393357743374
 30
0.0
 11
-58.35000839988464
 21
-30.63507971372536
 31
0.0
  0
LINE
  5
9F
330
4E
100
AcDbEntity
  8
0
  6
Continuous
 62
     7
100
AcDbLine
 10
-58.35000839988471
 20
-30.37393357743363
 30
0.0
 11
-58.35000839988468
 21
-30.49393357743374
 31
0.0
  0
LINE
  5
A0
330
4E
100
AcDbEntity
  8
0
  6
Continuous
 62
     7
100
AcDbLine
 10
-50.3500083998847
 20
-30.37393357743163
 30
0.0
 11
-58.35000839988471
 21
-30.37393357743363
 31
0.0
  0
LINE
  5
A1
330
4E
100
AcDbEntity
  8
0
  6
Continuous
 62
     7
100
AcDbLine
 10
-50.35000839988464
 20
-30.63507971372336
 30
0.0
 11
-50.3500083998847
 21
-30.37393357743163
 31
0.0
  0
LINE
  5
A2
330
4E
100
AcDbEntity
  8
0
  6
Continuous
 62
     7
100
AcDbLine
 10
-58.35000839988468
 20
-30.49393357743374
 30
0.0
 11
-65.05000839988467
 21
-30.49393357743541
 31
0.0
  0
LINE
  5
A3
330
4E
100
AcDbEntity
  8
0
  6
Continuous
 62
     7
100
AcDbLine
 10
-50.35000839988426
 20
-32.17393357743174
 30
0.0
 11
-50.35000839988448
 21
-31.27840811365022
 31
0.0
  0
LINE
  5
A4
330
4E
100
AcDbEntity
  8
0
  6
Continuous
 62
     7
100
AcDbLine
 10
-50.35000839988464
 20
-30.63507971372336
 30
0.0
 11
-58.35000839988464
 21
-30.63507971372536
 31
0.0
  0
LINE
  5
A5
330
4E
100
AcDbEntity
  8
0
  6
Continuous
 62
     7
100
AcDbLine
 10
-65.05000839988426
 20
-32.17393357743541
 30
0.0
 11
-65.05000839988467
 21
-30.49393357743541
 31
0.0
  0
LINE
  5
A6
330
4E
100
AcDbEntity
  8
0
  6
Continuous
 62
     7
100
AcDbLine
 10
-50.35000839988448
 20
-31.27840811365022
 30
0.0
 11
-50.35000839988464
 21
-30.63507971372336
 31
0.0
  0
LINE
  5
A7
330
4E
100
AcDbEntity
  8
0
  6
Continuous
 62
     7
100
AcDbLine
 10
-58.35000839988448
 20
-31.27840811365221
 30
0.0
 11
-50.35000839988448
 21
-31.27840811365022
 31
0.0
  0
LINE
  5
A8
330
4E
100
AcDbEntity
  8
0
  6
Continuous
 62
     7
100
AcDbLine
 10
-58.35000839988448
 20
-31.27840811365221
 30
0.0
 11
-58.35000839988464
 21
-30.63507971372536
 31
0.0
  0
LINE
  5
A9
330
4E
100
AcDbEntity
  8
0
  6
Continuous
 62
     7
100
AcDbLine
 10
-65.05000839988426
 20
-32.17393357743541
 30
0.0
 11
-50.35000839988426
 21
-32.17393357743174
 31
0.0
  0
ENDBLK
  5
50
330
4E
100
AcDbEntity
  8
0
100
AcDbBlockEnd
  0
BLOCK
  5
53
330
51
100
AcDbEntity
  8
0
100
AcDbBlockBegin
  2
Drfsicht1
 70
     0
 10
-57.70000830450704
 20
-31.27393355359016
 30
0.0
  3
Drfsicht1
  1

  0
INSERT
  5
52
330
51
100
AcDbEntity
  8
0
100
AcDbBlockReference
  2
1701967_CP_PC_RD-select__2
 10
-65.05000839988467
 20
-32.17393357743541
 30
0.0
  0
MTEXT
  5
AA
330
51
100
AcDbEntity
  8
1
 62
     6
100
AcDbMText
 10
-57.70000830450704
 20
-33.17393554302953
 30
0.0
 40
1.0
 41
0.0
 71
     2
 72
     1
  1
 
  7
CONVERTER_11
 73
     1
 44
1.32052821128451
  0
DIMENSION
  5
B7
330
51
100
AcDbEntity
  8
1
100
AcDbDimension
  2
*D16
 10
-48.35000839988426
 20
-32.17393357743174
 30
0.0
 11
-49.03500839988426
 21
-31.27393357743168
 31
0.0
 70
    32
  1
<>
 71
     5
 42
-1.0
 53
90.0
  3
ME10_DIM_10
100
AcDbAlignedDimension
 13
-50.3500083998847
 23
-30.37393357743163
 33
0.0
 14
-50.35000839988426
 24
-32.17393357743174
 34
0.0
 50
90.0
100
AcDbRotatedDimension
  0
ENDBLK
  5
54
330
51
100
AcDbEntity
  8
0
100
AcDbBlockEnd
  0
BLOCK
  5
56
330
55
100
AcDbEntity
  8
0
100
AcDbBlockBegin
  2
1701967_CP_PC_RD-select__3
 70
     0
 10
-38.54999999725374
 20
-24.37393048487724
 30
0.0
  3
1701967_CP_PC_RD-select__3
  1

  0
LINE
  5
B8
330
55
100
AcDbEntity
  8
0
  6
Continuous
 62
     7
100
AcDbLine
 10
-23.84999999725375
 20
-23.93999999999994
 30
0.0
 11
-30.54999999725375
 21
-23.93999999999997
 31
0.0
  0
LINE
  5
B9
330
55
100
AcDbEntity
  8
0
  6
Continuous
 62
     7
100
AcDbLine
 10
-30.54999999725376
 20
-21.25999999999997
 30
0.0
 11
-23.84999999725376
 21
-21.25999999999994
 31
0.0
  0
LINE
  5
BA
330
55
100
AcDbEntity
  8
0
  6
Continuous
 62
     7
100
AcDbLine
 10
-23.84999999725375
 20
-23.93999999999994
 30
0.0
 11
-23.84999999725376
 21
-21.25999999999994
 31
0.0
  0
LINE
  5
BB
330
55
100
AcDbEntity
  8
0
  6
Continuous
 62
     7
100
AcDbLine
 10
-38.54999999725374
 20
-20.82606951512283
 30
0.0
 11
-38.54999999725371
 21
-24.37393048487724
 31
0.0
  0
LINE
  5
BC
330
55
100
AcDbEntity
  8
0
  6
Continuous
 62
     7
100
AcDbLine
 10
-38.54999999725374
 20
-20.82606951512283
 30
0.0
 11
-30.54999999725373
 21
-20.8260695151228
 31
0.0
  0
LINE
  5
BD
330
55
100
AcDbEntity
  8
0
  6
Continuous
 62
     7
100
AcDbLine
 10
-30.54999999725375
 20
-23.93999999999997
 30
0.0
 11
-30.54999999725372
 21
-24.3739304848772
 31
0.0
  0
LINE
  5
BE
330
55
100
AcDbEntity
  8
0
  6
Continuous
 62
     7
100
AcDbLine
 10
-30.54999999725373
 20
-20.8260695151228
 30
0.0
 11
-30.54999999725376
 21
-21.25999999999997
 31
0.0
  0
LINE
  5
BF
330
55
100
AcDbEntity
  8
0
  6
Continuous
 62
     7
100
AcDbLine
 10
-30.54999999725376
 20
-21.25999999999997
 30
0.0
 11
-30.54999999725375
 21
-23.93999999999997
 31
0.0
  0
LINE
  5
C0
330
55
100
AcDbEntity
  8
0
  6
Continuous
 62
     7
100
AcDbLine
 10
-30.54999999725372
 20
-24.3739304848772
 30
0.0
 11
-38.54999999725371
 21
-24.37393048487724
 31
0.0
  0
ENDBLK
  5
57
330
55
100
AcDbEntity
  8
0
100
AcDbBlockEnd
  0
BLOCK
  5
5A
330
58
100
AcDbEntity
  8
0
100
AcDbBlockBegin
  2
Rckans1
 70
     0
 10
-31.2000000926314
 20
-22.6
 30
0.0
  3
Rckans1
  1

  0
INSERT
  5
59
330
58
100
AcDbEntity
  8
0
100
AcDbBlockReference
  2
1701967_CP_PC_RD-select__3
 10
-38.54999999725374
 20
-24.37393048487724
 30
0.0
  0
MTEXT
  5
C1
330
58
100
AcDbEntity
  8
1
 62
     6
100
AcDbMText
 10
-31.2000000926314
 20
-25.37393245697047
 30
0.0
 40
1.0
 41
0.0
 71
     2
 72
     1
  1
 
  7
CONVERTER_11
 73
     1
 44
1.32052821128451
  0
ENDBLK
  5
5B
330
58
100
AcDbEntity
  8
0
100
AcDbBlockEnd
  0
BLOCK
  5
5D
330
5C
100
AcDbEntity
  8
0
100
AcDbBlockBegin
  2
1701967_CP_PC_RD-select__4
 70
     0
 10
-44.35000379734125
 20
-24.37393048487707
 30
0.0
  3
1701967_CP_PC_RD-select__4
  1

  0
LINE
  5
C2
330
5C
100
AcDbEntity
  8
0
  6
Continuous
 62
     7
100
AcDbLine
 10
-44.08885766104864
 20
-24.373930484877
 30
0.0
 11
-44.35000379734037
 21
-24.37393048487707
 31
0.0
  0
LINE
  5
C3
330
5C
100
AcDbEntity
  8
0
  6
Continuous
 62
     7
100
AcDbLine
 10
-44.08885766104864
 20
-24.373930484877
 30
0.0
 11
-43.44552926112201
 21
-23.93999999999965
 31
0.0
  0
LINE
  5
C4
330
5C
100
AcDbEntity
  8
0
  6
Continuous
 62
     7
100
AcDbLine
 10
-44.35000379734125
 20
-20.82606951512267
 30
0.0
 11
-44.35000379734037
 21
-24.37393048487707
 31
0.0
  0
LINE
  5
C5
330
5C
100
AcDbEntity
  8
0
  6
Continuous
 62
     7
100
AcDbLine
 10
-44.35000379734125
 20
-20.82606951512267
 30
0.0
 11
-44.08885766104951
 21
-20.82606951512261
 31
0.0
  0
LINE
  5
C6
330
5C
100
AcDbEntity
  8
0
  6
Continuous
 62
     7
100
AcDbLine
 10
-43.44552926112266
 20
-21.25999999999965
 30
0.0
 11
-44.08885766104951
 21
-20.82606951512261
 31
0.0
  0
LINE
  5
C7
330
5C
100
AcDbEntity
  8
0
  6
Continuous
 62
     7
100
AcDbLine
 10
-43.44552926112266
 20
-21.25999999999965
 30
0.0
 11
-44.23000379733946
 21
-21.25999999999984
 31
0.0
  0
LINE
  5
C8
330
5C
100
AcDbEntity
  8
0
  6
Continuous
 62
     7
100
AcDbLine
 10
-42.55000379733946
 20
-21.25999999999943
 30
0.0
 11
-43.44552926112266
 21
-21.25999999999965
 31
0.0
  0
LINE
  5
C9
330
5C
100
AcDbEntity
  8
0
  6
Continuous
 62
     7
100
AcDbLine
 10
-42.55000379733946
 20
-21.25999999999943
 30
0.0
 11
-42.55000379733937
 21
-21.65131670194891
 31
0.0
  0
LINE
  5
CA
330
5C
100
AcDbEntity
  8
0
  6
Continuous
 62
     7
100
AcDbLine
 10
-44.2300037973388
 20
-23.93999999999984
 30
0.0
 11
-44.23000379733946
 21
-21.25999999999984
 31
0.0
  0
LINE
  5
CB
330
5C
100
AcDbEntity
  8
0
  6
Continuous
 62
     7
100
AcDbLine
 10
-42.5500037973389
 20
-23.54868329804994
 30
0.0
 11
-42.55000379733881
 21
-23.93999999999943
 31
0.0
  0
LINE
  5
CC
330
5C
100
AcDbEntity
  8
0
  6
Continuous
 62
     7
100
AcDbLine
 10
-44.2300037973388
 20
-23.93999999999984
 30
0.0
 11
-43.44552926112201
 21
-23.93999999999965
 31
0.0
  0
LINE
  5
CD
330
5C
100
AcDbEntity
  8
0
  6
Continuous
 62
     7
100
AcDbLine
 10
-43.44552926112201
 20
-23.93999999999965
 30
0.0
 11
-42.55000379733881
 21
-23.93999999999943
 31
0.0
  0
ARC
  5
CE
330
5C
100
AcDbEntity
  8
0
  6
Continuous
 62
     7
100
AcDbCircle
 10
-41.90000379733913
 20
-22.59999999999927
 30
0.0
 40
1.150000000000008
100
AcDbArc
 50
124.4173887104558
 51
235.5826112895722
  0
ENDBLK
  5
5E
330
5C
100
AcDbEntity
  8
0
100
AcDbBlockEnd
  0
BLOCK
  5
61
330
5F
100
AcDbEntity
  8
0
100
AcDbBlockBegin
  2
SA_Links1
 70
     0
 10
-43.45000382118472
 20
-22.5999999999998
 30
0.0
  3
SA_Links1
  1

  0
INSERT
  5
60
330
5F
100
AcDbEntity
  8
0
100
AcDbBlockReference
  2
1701967_CP_PC_RD-select__4
 10
-44.35000379734125
 20
-24.37393048487707
 30
0.0
  0
MTEXT
  5
CF
330
5F
100
AcDbEntity
  8
1
 62
     6
100
AcDbMText
 10
-43.45000382118471
 20
-25.37393245697027
 30
0.0
 40
1.0
 41
0.0
 71
     2
 72
     1
  1
 
  7
CONVERTER_11
 73
     1
 44
1.32052821128451
  0
ENDBLK
  5
62
330
5F
100
AcDbEntity
  8
0
100
AcDbBlockEnd
  0
BLOCK
  5
64
330
63
100
AcDbEntity
  8
0
100
AcDbBlockBegin
  2
1701967_CP_PC_RD-select__5
 70
     0
 10
-70.85001251123818
 20
-24.37393048487693
 30
0.0
  3
1701967_CP_PC_RD-select__5
  1

  0
LINE
  5
D0
330
63
100
AcDbEntity
  8
0
  6
Continuous
 62
     7
100
AcDbLine
 10
-69.0500125112383
 20
-24.37393048487693
 30
0.0
 11
-69.31115864753002
 21
-24.37393048487687
 31
0.0
  0
LINE
  5
D1
330
63
100
AcDbEntity
  8
0
  6
Continuous
 62
     7
100
AcDbLine
 10
-69.31115864753002
 20
-24.37393048487687
 30
0.0
 11
-69.95448704745667
 21
-23.93999999999951
 31
0.0
  0
LINE
  5
D2
330
63
100
AcDbEntity
  8
0
  6
Continuous
 62
     7
100
AcDbLine
 10
-70.85001251123818
 20
-23.93999999999929
 30
0.0
 11
-70.85001251123809
 21
-23.5486832980498
 31
0.0
  0
LINE
  5
D3
330
63
100
AcDbEntity
  8
0
  6
Continuous
 62
     7
100
AcDbLine
 10
-69.31115864752915
 20
-20.82606951512247
 30
0.0
 11
-69.05001251123743
 21
-20.82606951512253
 31
0.0
  0
LINE
  5
D4
330
63
100
AcDbEntity
  8
0
  6
Continuous
 62
     7
100
AcDbLine
 10
-69.954487047456
 20
-21.25999999999951
 30
0.0
 11
-69.31115864752915
 21
-20.82606951512247
 31
0.0
  0
LINE
  5
D5
330
63
100
AcDbEntity
  8
0
  6
Continuous
 62
     7
100
AcDbLine
 10
-70.85001251123752
 20
-21.25999999999929
 30
0.0
 11
-69.954487047456
 21
-21.25999999999951
 31
0.0
  0
LINE
  5
D6
330
63
100
AcDbEntity
  8
0
  6
Continuous
 62
     7
100
AcDbLine
 10
-69.05001251123743
 20
-20.82606951512253
 30
0.0
 11
-69.0500125112383
 21
-24.37393048487693
 31
0.0
  0
LINE
  5
D7
330
63
100
AcDbEntity
  8
0
  6
Continuous
 62
     7
100
AcDbLine
 10
-70.85001251123762
 20
-21.65131670194877
 30
0.0
 11
-70.85001251123752
 21
-21.25999999999929
 31
0.0
  0
LINE
  5
D8
330
63
100
AcDbEntity
  8
0
  6
Continuous
 62
     7
100
AcDbLine
 10
-69.95448704745667
 20
-23.93999999999951
 30
0.0
 11
-70.85001251123818
 21
-23.93999999999929
 31
0.0
  0
ARC
  5
D9
330
63
100
AcDbEntity
  8
0
  6
Continuous
 62
     7
100
AcDbCircle
 10
-71.50001251123786
 20
-22.59999999999913
 30
0.0
 40
1.149999999999993
100
AcDbArc
 50
304.4173887104275
 51
55.58261128954458
  0
ENDBLK
  5
65
330
63
100
AcDbEntity
  8
0
100
AcDbBlockEnd
  0
BLOCK
  5
68
330
66
100
AcDbEntity
  8
0
100
AcDbBlockBegin
  2
SA_Rechts1
 70
     0
 10
-69.95001248739594
 20
-22.5999999999998
 30
0.0
  3
SA_Rechts1
  1

  0
INSERT
  5
67
330
66
100
AcDbEntity
  8
0
100
AcDbBlockReference
  2
1701967_CP_PC_RD-select__5
 10
-70.85001251123818
 20
-24.37393048487693
 30
0.0
  0
MTEXT
  5
DA
330
66
100
AcDbEntity
  8
1
 62
     6
100
AcDbMText
 10
-69.95001248739587
 20
-25.37393245697027
 30
0.0
 40
1.0
 41
0.0
 71
     2
 72
     1
  1
 
  7
CONVERTER_11
 73
     1
 44
1.32052821128451
  0
ENDBLK
  5
69
330
66
100
AcDbEntity
  8
0
100
AcDbBlockEnd
  0
BLOCK
  5
6B
330
6A
100
AcDbEntity
  8
0
100
AcDbBlockBegin
  2
1701967_CP_PC_RD-select__6
 70
     0
 10
-65.05000809537728
 20
-24.37393048487717
 30
0.0
  3
1701967_CP_PC_RD-select__6
  1

  0
LINE
  5
DB
330
6A
100
AcDbEntity
  8
0
  6
Continuous
 62
     7
100
AcDbLine
 10
-65.05000809537728
 20
-23.54868329805004
 30
0.0
 11
-65.05000809537727
 21
-21.65131670194901
 31
0.0
  0
LINE
  5
DC
330
6A
100
AcDbEntity
  8
0
  6
Continuous
 62
     7
100
AcDbLine
 10
-65.05000809537727
 20
-21.25999999999953
 30
0.0
 11
-65.05000809537727
 21
-21.65131670194901
 31
0.0
  0
LINE
  5
DD
330
6A
100
AcDbEntity
  8
0
  6
Continuous
 62
     7
100
AcDbLine
 10
-65.05000809537728
 20
-23.54868329805004
 30
0.0
 11
-65.05000809537728
 21
-23.93999999999953
 31
0.0
  0
LINE
  5
DE
330
6A
100
AcDbEntity
  8
0
  6
Continuous
 62
     7
100
AcDbLine
 10
-58.35000809537767
 20
-24.37393048487714
 30
0.0
 11
-50.35000809537767
 21
-24.37393048487717
 31
0.0
  0
LINE
  5
DF
330
6A
100
AcDbEntity
  8
0
  6
Continuous
 62
     7
100
AcDbLine
 10
-58.3500080953775
 20
-23.93999999999978
 30
0.0
 11
-65.05000809537728
 21
-23.93999999999953
 31
0.0
  0
LINE
  5
E0
330
6A
100
AcDbEntity
  8
0
  6
Continuous
 62
     7
100
AcDbLine
 10
-50.35000809537728
 20
-23.93999999999959
 30
0.0
 11
-58.3500080953775
 21
-23.93999999999978
 31
0.0
  0
LINE
  5
E1
330
6A
100
AcDbEntity
  8
0
  6
Continuous
 62
     7
100
AcDbLine
 10
-65.05000809537727
 20
-21.65131670194901
 30
0.0
 11
-50.35000809537726
 21
-21.65131670194908
 31
0.0
  0
LINE
  5
E2
330
6A
100
AcDbEntity
  8
0
  6
Continuous
 62
     7
100
AcDbLine
 10
-65.05000809537727
 20
-21.25999999999953
 30
0.0
 11
-58.3500080953775
 21
-21.25999999999978
 31
0.0
  0
LINE
  5
E3
330
6A
100
AcDbEntity
  8
0
  6
Continuous
 62
     7
100
AcDbLine
 10
-50.35000809537765
 20
-20.82606951512277
 30
0.0
 11
-58.35000809537765
 21
-20.82606951512273
 31
0.0
  0
LINE
  5
E4
330
6A
100
AcDbEntity
  8
0
  6
Continuous
 62
     7
100
AcDbLine
 10
-58.3500080953775
 20
-21.25999999999978
 30
0.0
 11
-50.35000809537749
 21
-21.25999999999981
 31
0.0
  0
LINE
  5
E5
330
6A
100
AcDbEntity
  8
0
  6
Continuous
 62
     7
100
AcDbLine
 10
-50.35000809537728
 20
-23.54868329805011
 30
0.0
 11
-50.35000809537726
 21
-21.65131670194908
 31
0.0
  0
LINE
  5
E6
330
6A
100
AcDbEntity
  8
0
  6
Continuous
 62
     7
100
AcDbLine
 10
-50.35000809537749
 20
-21.25999999999981
 30
0.0
 11
-50.35000809537765
 21
-20.82606951512277
 31
0.0
  0
LINE
  5
E7
330
6A
100
AcDbEntity
  8
0
  6
Continuous
 62
     7
100
AcDbLine
 10
-50.35000809537726
 20
-21.65131670194908
 30
0.0
 11
-50.35000809537749
 21
-21.25999999999981
 31
0.0
  0
LINE
  5
E8
330
6A
100
AcDbEntity
  8
0
  6
Continuous
 62
     7
100
AcDbLine
 10
-58.3500080953775
 20
-21.25999999999978
 30
0.0
 11
-58.35000809537765
 21
-20.82606951512273
 31
0.0
  0
LINE
  5
E9
330
6A
100
AcDbEntity
  8
0
  6
Continuous
 62
     7
100
AcDbLine
 10
-58.35000809537767
 20
-24.37393048487714
 30
0.0
 11
-58.3500080953775
 21
-23.93999999999978
 31
0.0
  0
LINE
  5
EA
330
6A
100
AcDbEntity
  8
0
  6
Continuous
 62
     7
100
AcDbLine
 10
-50.35000809537728
 20
-23.93999999999959
 30
0.0
 11
-50.35000809537728
 21
-23.54868329805011
 31
0.0
  0
LINE
  5
EB
330
6A
100
AcDbEntity
  8
0
  6
Continuous
 62
     7
100
AcDbLine
 10
-50.35000809537767
 20
-24.37393048487717
 30
0.0
 11
-50.35000809537728
 21
-23.93999999999959
 31
0.0
  0
LINE
  5
EC
330
6A
100
AcDbEntity
  8
0
  6
Continuous
 62
     7
100
AcDbLine
 10
-65.05000809537728
 20
-23.54868329805004
 30
0.0
 11
-50.35000809537728
 21
-23.54868329805011
 31
0.0
  0
ENDBLK
  5
6C
330
6A
100
AcDbEntity
  8
0
100
AcDbBlockEnd
  0
BLOCK
  5
6F
330
6D
100
AcDbEntity
  8
0
100
AcDbBlockBegin
  2
Vordans1
 70
     0
 10
-57.70000800000005
 20
-22.6
 30
0.0
  3
Vordans1
  1

  0
INSERT
  5
6E
330
6D
100
AcDbEntity
  8
0
100
AcDbBlockReference
  2
1701967_CP_PC_RD-select__6
 10
-65.05000809537728
 20
-24.37393048487717
 30
0.0
  0
MTEXT
  5
ED
330
6D
100
AcDbEntity
  8
1
 62
     6
100
AcDbMText
 10
-57.700008
 20
-25.37393245697049
 30
0.0
 40
1.0
 41
0.0
 71
     2
 72
     1
  1
 
  7
CONVERTER_11
 73
     1
 44
1.32052821128451
  0
DIMENSION
  5
F8
330
6D
100
AcDbEntity
  8
1
100
AcDbDimension
  2
*D17
 10
-48.35000809537765
 20
-24.37393048487717
 30
0.0
 11
-49.03500809537765
 21
-22.5999999999996
 31
0.0
 70
    32
  1
<>
 71
     5
 42
-1.0
 53
90.0
  3
ME10_DIM_11
100
AcDbAlignedDimension
 13
-50.35000809537766
 23
-20.82606951512277
 33
0.0
 14
-50.35000809537767
 24
-24.37393048487717
 34
0.0
 50
90.0
100
AcDbRotatedDimension
  0
DIMENSION
  5
103
330
6D
100
AcDbEntity
  8
1
100
AcDbDimension
  2
*D18
 10
-50.35000809537767
 20
-26.37393048487717
 30
0.0
 11
-57.70000809537747
 21
-25.68893048487717
 31
0.0
 70
    32
  1
<>
 71
     5
 42
-1.0
 53
360.0
  3
ME10_DIM_12
100
AcDbAlignedDimension
 13
-65.05000809537728
 23
-23.93999999999953
 33
0.0
 14
-50.35000809537767
 24
-24.37393048487717
 34
0.0
 50
360.0
100
AcDbRotatedDimension
  0
ENDBLK
  5
70
330
6D
100
AcDbEntity
  8
0
100
AcDbBlockEnd
  0
BLOCK
  5
72
330
71
100
AcDbEntity
  8
0
100
AcDbBlockBegin
  2
_punkt
 70
     0
 10
-93.25003127122976
 20
-251.9738821562923
 30
0.0
  3
_punkt
  1

  0
LINE
  5
104
330
71
100
AcDbEntity
  8
1
  6
Continuous
 62
     2
100
AcDbLine
 10
-93.25003127122976
 20
-251.9738821562923
 30
0.0
 11
-93.25003127122976
 21
-256.9738821562924
 31
0.0
  0
LINE
  5
105
330
71
100
AcDbEntity
  8
1
  6
Continuous
 62
     2
100
AcDbLine
 10
-93.25003127122976
 20
-251.9738821562923
 30
0.0
 11
-88.25003127123077
 21
-251.9738821562923
 31
0.0
  0
ENDBLK
  5
73
330
71
100
AcDbEntity
  8
0
100
AcDbBlockEnd
  0
BLOCK
  5
75
330
74
100
AcDbEntity
  8
0
100
AcDbBlockBegin
  2
_rahmen
 70
     0
 10
-93.25003127122976
 20
-256.9738821562924
 30
0.0
  3
_rahmen
  1

  0
LINE
  5
106
330
74
100
AcDbEntity
  8
1
  6
DOT_CENTER
 62
     2
100
AcDbLine
 10
-218.8081809114172
 20
-230.8488821562924
 30
0.0
 11
-213.3081809114172
 21
-230.8488821562924
 31
0.0
  0
LINE
  5
107
330
74
100
AcDbEntity
  8
1
  6
PHANTOM
 62
     2
100
AcDbLine
 10
-210.0581809114172
 20
-228.0988821562924
 30
0.0
 11
-210.0581809114172
 21
-233.5988821562924
 31
0.0
  0
LINE
  5
108
330
74
100
AcDbEntity
  8
1
  6
PHANTOM
 62
     2
100
AcDbLine
 10
-207.3081809114172
 20
-230.8488821562924
 30
0.0
 11
-212.8081809114172
 21
-230.8488821562924
 31
0.0
  0
LINE
  5
109
330
74
100
AcDbEntity
  8
1
  6
Continuous
 62
     7
100
AcDbLine
 10
-158.4948357979798
 20
-243.4738821562924
 30
0.0
 11
-158.4948357979798
 21
-234.9738821562923
 31
0.0
  0
LINE
  5
10A
330
74
100
AcDbEntity
  8
1
  6
Continuous
 62
     6
100
AcDbLine
 10
-186.3948357979799
 20
-234.9738821562923
 30
0.0
 11
-93.25003127122807
 21
-234.9738821562923
 31
0.0
  0
LINE
  5
10B
330
74
100
AcDbEntity
  8
1
  6
Continuous
 62
     7
100
AcDbLine
 10
-222.7948357979798
 20
-234.9738821562923
 30
0.0
 11
-222.7948357979798
 21
-226.4738821562923
 31
0.0
  0
LINE
  5
10C
330
74
100
AcDbEntity
  8
1
  6
Continuous
 62
     7
100
AcDbLine
 10
-186.3948357979799
 20
-234.9738821562923
 30
0.0
 11
-186.3948357979799
 21
-226.4738821562923
 31
0.0
  0
LINE
  5
10D
330
74
100
AcDbEntity
  8
1
  6
Continuous
 62
     7
100
AcDbLine
 10
-128.6684395529069
 20
-226.4738821562923
 30
0.0
 11
-128.6684395529069
 21
-234.9738821562923
 31
0.0
  0
LINE
  5
10E
330
74
100
AcDbEntity
  8
1
  6
Continuous
 62
     7
100
AcDbLine
 10
-102.1684395529073
 20
-226.4738821562923
 30
0.0
 11
-102.1684395529073
 21
-234.9738821562923
 31
0.0
  0
LINE
  5
10F
330
74
100
AcDbEntity
  8
1
  6
Continuous
 62
     6
100
AcDbLine
 10
-291.7948357979798
 20
-251.9738821562923
 30
0.0
 11
-336.7500312712298
 21
-251.9738821562923
 31
0.0
  0
LINE
  5
110
330
74
100
AcDbEntity
  8
1
  6
Continuous
 62
     7
100
AcDbLine
 10
-93.25003127122847
 20
-243.4738821562923
 30
0.0
 11
-186.3948357979799
 21
-243.4738821562923
 31
0.0
  0
LINE
  5
111
102
{ACAD_REACTORS
330
223
330
224
102
}
330
74
100
AcDbEntity
  8
0
  6
Continuous
 62
     2
100
AcDbLine
 10
-209.0874068562124
 20
-242.673593040629
 30
0.0
 11
-209.0874068562124
 21
-241.8010760338257
 31
0.0
  0
LINE
  5
112
102
{ACAD_REACTORS
330
223
330
224
102
}
330
74
100
AcDbEntity
  8
0
  6
Continuous
 62
     2
100
AcDbLine
 10
-209.0874068562124
 20
-243.6333617481119
 30
0.0
 11
-209.0874068562124
 21
-244.5058787549151
 31
0.0
  0
LINE
  5
113
102
{ACAD_REACTORS
330
225
330
226
102
}
330
74
100
AcDbEntity
  8
0
  6
Continuous
 62
     2
100
AcDbLine
 10
-193.7543627199219
 20
-242.4118379385885
 30
0.0
 11
-192.6507234203538
 21
-242.4118379385885
 31
0.0
  0
LINE
  5
114
102
{ACAD_REACTORS
330
225
330
226
102
}
330
74
100
AcDbEntity
  8
0
  6
Continuous
 62
     2
100
AcDbLine
 10
-192.9847053769605
 20
-243.6333617481124
 30
0.0
 11
-192.9847053769605
 21
-244.5058787549157
 31
0.0
  0
LINE
  5
115
102
{ACAD_REACTORS
330
22F
330
230
102
}
330
74
100
AcDbEntity
  8
0
  6
Continuous
 62
     2
100
AcDbLine
 10
-194.8454619923404
 20
-241.3211916801017
 30
0.0
 11
-193.4475089454001
 21
-239.7403326863267
 31
0.0
  0
LINE
  5
116
102
{ACAD_REACTORS
330
22F
330
230
102
}
330
74
100
AcDbEntity
  8
0
  6
Continuous
 62
     2
100
AcDbLine
 10
-194.7500385761676
 20
-238.2673821562905
 30
0.0
 11
-193.4475089454001
 21
-239.7403326863267
 31
0.0
  0
LINE
  5
117
102
{ACAD_REACTORS
330
22F
330
230
102
}
330
74
100
AcDbEntity
  8
0
  6
Continuous
 62
     2
100
AcDbLine
 10
-192.1449793146337
 20
-238.2673821562905
 30
0.0
 11
-190.7422550968865
 21
-238.2673821562905
 31
0.0
  0
LINE
  5
118
102
{ACAD_REACTORS
330
22F
330
230
102
}
330
74
100
AcDbEntity
  8
0
  6
Continuous
 62
     2
100
AcDbLine
 10
-193.4427377745922
 20
-241.3211916801017
 30
0.0
 11
-192.7461468365265
 21
-240.533459894808
 31
0.0
  0
LINE
  5
119
102
{ACAD_REACTORS
330
22F
330
230
102
}
330
74
100
AcDbEntity
  8
0
  6
Continuous
 62
     2
100
AcDbLine
 10
-193.4427377745922
 20
-241.3211916801017
 30
0.0
 11
-194.8454619923404
 21
-241.3211916801017
 31
0.0
  0
LINE
  5
11A
102
{ACAD_REACTORS
330
231
330
232
102
}
330
74
100
AcDbEntity
  8
0
  6
Continuous
 62
     2
100
AcDbLine
 10
-194.9647412625573
 20
-241.3211916801017
 30
0.0
 11
-196.2052456728102
 21
-241.3211916801017
 31
0.0
  0
LINE
  5
11B
102
{ACAD_REACTORS
330
233
330
234
102
}
330
74
100
AcDbEntity
  8
0
  6
Continuous
 62
     2
100
AcDbLine
 10
-197.0732252809653
 20
-243.4588583467515
 30
0.0
 11
-197.3733905181554
 21
-242.6910433807648
 31
0.0
  0
LINE
  5
11C
102
{ACAD_REACTORS
330
233
330
234
102
}
330
74
100
AcDbEntity
  8
0
  6
Continuous
 62
     2
100
AcDbLine
 10
-197.6735557553478
 20
-243.4588583467515
 30
0.0
 11
-197.0732252809653
 21
-243.4588583467515
 31
0.0
  0
LINE
  5
11D
102
{ACAD_REACTORS
330
233
330
234
102
}
330
74
100
AcDbEntity
  8
0
  6
Continuous
 62
     2
100
AcDbLine
 10
-199.3915957702216
 20
-244.680382156276
 30
0.0
 11
-198.1510913599686
 21
-244.680382156276
 31
0.0
  0
LINE
  5
11E
102
{ACAD_REACTORS
330
233
330
234
102
}
330
74
100
AcDbEntity
  8
0
  6
Continuous
 62
     2
100
AcDbLine
 10
-197.9936427232823
 20
-241.6265726324649
 30
0.0
 11
-196.7531383130296
 21
-241.6265726324649
 31
0.0
  0
LINE
  5
11F
102
{ACAD_REACTORS
330
233
330
234
102
}
330
74
100
AcDbEntity
  8
0
  6
Continuous
 62
     2
100
AcDbLine
 10
-196.7531383130296
 20
-241.6265726324649
 30
0.0
 11
-195.3551852660893
 21
-244.680382156276
 31
0.0
  0
LINE
  5
120
102
{ACAD_REACTORS
330
233
330
234
102
}
330
74
100
AcDbEntity
  8
0
  6
Continuous
 62
     2
100
AcDbLine
 10
-196.5956896763432
 20
-244.680382156276
 30
0.0
 11
-196.807169729819
 21
-244.1394216120581
 31
0.0
  0
LINE
  5
121
102
{ACAD_REACTORS
330
235
330
236
102
}
330
74
100
AcDbEntity
  8
0
  6
Continuous
 62
     2
100
AcDbLine
 10
-200.7380088719292
 20
-244.680382156276
 30
0.0
 11
-199.5452161697627
 21
-244.680382156276
 31
0.0
  0
LINE
  5
122
102
{ACAD_REACTORS
330
235
330
236
102
}
330
74
100
AcDbEntity
  8
0
  6
Continuous
 62
     2
100
AcDbLine
 10
-200.7380088719292
 20
-242.4118379385885
 30
0.0
 11
-200.7380088719292
 21
-244.680382156276
 31
0.0
  0
LINE
  5
123
102
{ACAD_REACTORS
330
235
330
236
102
}
330
74
100
AcDbEntity
  8
0
  6
Continuous
 62
     2
100
AcDbLine
 10
-201.5491079094038
 20
-241.6265726324649
 30
0.0
 11
-201.5491079094038
 21
-242.4118379385885
 31
0.0
  0
LINE
  5
124
102
{ACAD_REACTORS
330
237
330
238
102
}
330
74
100
AcDbEntity
  8
0
  6
Continuous
 62
     2
100
AcDbLine
 10
-200.0698940278312
 20
-241.3211916801017
 30
0.0
 11
-198.8771013256647
 21
-241.3211916801017
 31
0.0
  0
LINE
  5
125
102
{ACAD_REACTORS
330
237
330
238
102
}
330
74
100
AcDbEntity
  8
0
  6
Continuous
 62
     2
100
AcDbLine
 10
-197.6365969154107
 20
-239.5761576664957
 30
0.0
 11
-198.8771013256647
 21
-238.2673821562905
 31
0.0
  0
LINE
  5
126
102
{ACAD_REACTORS
330
237
330
238
102
}
330
74
100
AcDbEntity
  8
0
  6
Continuous
 62
     2
100
AcDbLine
 10
-196.4438042132441
 20
-238.2673821562905
 30
0.0
 11
-197.6365969154107
 21
-238.2673821562905
 31
0.0
  0
LINE
  5
127
102
{ACAD_REACTORS
330
237
330
238
102
}
330
74
100
AcDbEntity
  8
0
  6
Continuous
 62
     2
100
AcDbLine
 10
-196.4438042132441
 20
-241.3211916801017
 30
0.0
 11
-196.4438042132441
 21
-238.2673821562905
 31
0.0
  0
LINE
  5
128
102
{ACAD_REACTORS
330
237
330
238
102
}
330
74
100
AcDbEntity
  8
0
  6
Continuous
 62
     2
100
AcDbLine
 10
-197.6365969154107
 20
-241.3211916801017
 30
0.0
 11
-196.4438042132441
 21
-241.3211916801017
 31
0.0
  0
LINE
  5
129
102
{ACAD_REACTORS
330
237
330
238
102
}
330
74
100
AcDbEntity
  8
0
  6
Continuous
 62
     2
100
AcDbLine
 10
-198.8771013256647
 20
-240.012416169897
 30
0.0
 11
-197.6365969154107
 21
-241.3211916801017
 31
0.0
  0
LINE
  5
12A
102
{ACAD_REACTORS
330
239
330
23A
102
}
330
74
100
AcDbEntity
  8
0
  6
Continuous
 62
     2
100
AcDbLine
 10
-202.8850357358304
 20
-242.93534814267
 30
0.0
 11
-204.1255401460833
 21
-241.6265726324649
 31
0.0
  0
LINE
  5
12B
102
{ACAD_REACTORS
330
239
330
23A
102
}
330
74
100
AcDbEntity
  8
0
  6
Continuous
 62
     2
100
AcDbLine
 10
-202.8850357358304
 20
-241.6265726324649
 30
0.0
 11
-202.8850357358304
 21
-242.93534814267
 31
0.0
  0
LINE
  5
12C
102
{ACAD_REACTORS
330
239
330
23A
102
}
330
74
100
AcDbEntity
  8
0
  6
Continuous
 62
     2
100
AcDbLine
 10
-201.692243033664
 20
-241.6265726324649
 30
0.0
 11
-202.8850357358304
 21
-241.6265726324649
 31
0.0
  0
LINE
  5
12D
102
{ACAD_REACTORS
330
239
330
23A
102
}
330
74
100
AcDbEntity
  8
0
  6
Continuous
 62
     2
100
AcDbLine
 10
-201.692243033664
 20
-244.680382156276
 30
0.0
 11
-201.692243033664
 21
-241.6265726324649
 31
0.0
  0
LINE
  5
12E
102
{ACAD_REACTORS
330
239
330
23A
102
}
330
74
100
AcDbEntity
  8
0
  6
Continuous
 62
     2
100
AcDbLine
 10
-204.1255401460833
 20
-243.3716066460714
 30
0.0
 11
-202.8850357358304
 21
-244.680382156276
 31
0.0
  0
LINE
  5
12F
102
{ACAD_REACTORS
330
239
330
23A
102
}
330
74
100
AcDbEntity
  8
0
  6
Continuous
 62
     2
100
AcDbLine
 10
-204.1255401460833
 20
-244.680382156276
 30
0.0
 11
-204.1255401460833
 21
-243.3716066460714
 31
0.0
  0
LINE
  5
130
102
{ACAD_REACTORS
330
229
330
22A
102
}
330
74
100
AcDbEntity
  8
0
  6
Continuous
 62
     2
100
AcDbLine
 10
-201.6443803946918
 20
-238.9653957617335
 30
0.0
 11
-200.3084525682641
 21
-238.9653957617335
 31
0.0
  0
LINE
  5
131
102
{ACAD_REACTORS
330
229
330
22A
102
}
330
74
100
AcDbEntity
  8
0
  6
Continuous
 62
     2
100
AcDbLine
 10
-201.6443803946918
 20
-240.6231780746592
 30
0.0
 11
-201.6443803946918
 21
-240.1432937209175
 31
0.0
  0
LINE
  5
132
102
{ACAD_REACTORS
330
229
330
22A
102
}
330
74
100
AcDbEntity
  8
0
  6
Continuous
 62
     2
100
AcDbLine
 10
-200.3084525682641
 20
-240.6231780746592
 30
0.0
 11
-201.6443803946918
 21
-240.6231780746592
 31
0.0
  0
LINE
  5
133
102
{ACAD_REACTORS
330
229
330
22A
102
}
330
74
100
AcDbEntity
  8
0
  6
Continuous
 62
     2
100
AcDbLine
 10
-200.3084525682641
 20
-241.3211916801017
 30
0.0
 11
-200.3084525682641
 21
-240.6231780746592
 31
0.0
  0
LINE
  5
134
102
{ACAD_REACTORS
330
229
330
22A
102
}
330
74
100
AcDbEntity
  8
0
  6
Continuous
 62
     2
100
AcDbLine
 10
-203.4587722920451
 20
-241.3211916801017
 30
0.0
 11
-200.3084525682641
 21
-241.3211916801017
 31
0.0
  0
LINE
  5
135
102
{ACAD_REACTORS
330
229
330
22A
102
}
330
74
100
AcDbEntity
  8
0
  6
Continuous
 62
     2
100
AcDbLine
 10
-203.4587722920451
 20
-238.2673821562905
 30
0.0
 11
-200.3084525682641
 21
-238.2673821562905
 31
0.0
  0
LINE
  5
136
102
{ACAD_REACTORS
330
229
330
22A
102
}
330
74
100
AcDbEntity
  8
0
  6
Continuous
 62
     2
100
AcDbLine
 10
-200.3084525682641
 20
-238.9653957617335
 30
0.0
 11
-200.3084525682641
 21
-238.2673821562905
 31
0.0
  0
LINE
  5
137
102
{ACAD_REACTORS
330
23B
330
23C
102
}
330
74
100
AcDbEntity
  8
0
  6
Continuous
 62
     2
100
AcDbLine
 10
-206.3201277871851
 20
-239.3362154896251
 30
0.0
 11
-206.3201277871851
 21
-238.2673821562905
 31
0.0
  0
LINE
  5
138
102
{ACAD_REACTORS
330
23B
330
23C
102
}
330
74
100
AcDbEntity
  8
0
  6
Continuous
 62
     2
100
AcDbLine
 10
-206.3201277871851
 20
-238.2673821562905
 30
0.0
 11
-205.1273350850187
 21
-238.2673821562905
 31
0.0
  0
LINE
  5
139
102
{ACAD_REACTORS
330
23B
330
23C
102
}
330
74
100
AcDbEntity
  8
0
  6
Continuous
 62
     2
100
AcDbLine
 10
-206.3201277871851
 20
-240.1869195712579
 30
0.0
 11
-207.3697853650926
 21
-240.1869195712579
 31
0.0
  0
LINE
  5
13A
102
{ACAD_REACTORS
330
23B
330
23C
102
}
330
74
100
AcDbEntity
  8
0
  6
Continuous
 62
     2
100
AcDbLine
 10
-207.3697853650926
 20
-240.1869195712579
 30
0.0
 11
-207.3697853650926
 21
-241.3211916801017
 31
0.0
  0
LINE
  5
13B
102
{ACAD_REACTORS
330
23B
330
23C
102
}
330
74
100
AcDbEntity
  8
0
  6
Continuous
 62
     2
100
AcDbLine
 10
-208.5625780672592
 20
-238.2673821562905
 30
0.0
 11
-208.5625780672592
 21
-241.3211916801017
 31
0.0
  0
LINE
  5
13C
102
{ACAD_REACTORS
330
22D
330
22E
102
}
330
74
100
AcDbEntity
  8
0
  6
Continuous
 62
     2
100
AcDbLine
 10
-210.5187580988128
 20
-239.6362156510728
 30
0.0
 11
-210.5187580988128
 21
-238.9304880017306
 31
0.0
  0
LINE
  5
13D
102
{ACAD_REACTORS
330
22D
330
22E
102
}
330
74
100
AcDbEntity
  8
0
  6
Continuous
 62
     2
100
AcDbLine
 10
-211.7592625090669
 20
-241.3211916801017
 30
0.0
 11
-210.5187580988128
 21
-241.3211916801017
 31
0.0
  0
LINE
  5
13E
102
{ACAD_REACTORS
330
22D
330
22E
102
}
330
74
100
AcDbEntity
  8
0
  6
Continuous
 62
     2
100
AcDbLine
 10
-210.5187580988128
 20
-241.3211916801017
 30
0.0
 11
-210.5187580988128
 21
-240.3781134389579
 31
0.0
  0
LINE
  5
13F
102
{ACAD_REACTORS
330
227
330
228
102
}
330
74
100
AcDbEntity
  8
0
  6
Continuous
 62
     2
100
AcDbLine
 10
-216.0642083582783
 20
-243.9678266007191
 30
0.0
 11
-217.5400416192879
 21
-243.9678266007191
 31
0.0
  0
LINE
  5
140
102
{ACAD_REACTORS
330
227
330
228
102
}
330
74
100
AcDbEntity
  8
0
  6
Continuous
 62
     2
100
AcDbLine
 10
-218.5581809114172
 20
-238.6916267716925
 30
0.0
 11
-218.5581809114172
 21
-244.2561375408927
 31
0.0
  0
LINE
  5
141
102
{ACAD_REACTORS
330
227
330
228
102
}
330
74
100
AcDbEntity
  8
0
  6
Continuous
 62
     2
100
AcDbLine
 10
-218.1339362960344
 20
-238.2673821563087
 30
0.0
 11
-212.6606242053176
 21
-238.2673821563087
 31
0.0
  0
LINE
  5
142
102
{ACAD_REACTORS
330
227
330
228
102
}
330
74
100
AcDbEntity
  8
0
  6
Continuous
 62
     2
100
AcDbLine
 10
-212.2363795899337
 20
-238.6916267716925
 30
0.0
 11
-212.2363795899337
 21
-244.2561375408927
 31
0.0
  0
LINE
  5
143
102
{ACAD_REACTORS
330
227
330
228
102
}
330
74
100
AcDbEntity
  8
0
  6
Continuous
 62
     2
100
AcDbLine
 10
-212.6606242053176
 20
-244.680382156276
 30
0.0
 11
-218.1339362960344
 21
-244.680382156276
 31
0.0
  0
LINE
  5
144
102
{ACAD_REACTORS
330
227
330
228
102
}
330
74
100
AcDbEntity
  8
0
  6
Continuous
 62
     2
100
AcDbLine
 10
-215.7484914352017
 20
-243.6521096776424
 30
0.0
 11
-215.7484914352017
 21
-242.1213387461108
 31
0.0
  0
LINE
  5
145
102
{ACAD_REACTORS
330
227
330
228
102
}
330
74
100
AcDbEntity
  8
0
  6
Continuous
 62
     2
100
AcDbLine
 10
-215.7484914352017
 20
-239.8996792539858
 30
0.0
 11
-215.7484914352017
 21
-239.2956546349253
 31
0.0
  0
LINE
  5
146
102
{ACAD_REACTORS
330
227
330
228
102
}
330
74
100
AcDbEntity
  8
0
  6
Continuous
 62
     2
100
AcDbLine
 10
-217.5400416192879
 20
-238.9799377118491
 30
0.0
 11
-216.0642083582783
 21
-238.9799377118491
 31
0.0
  0
LINE
  5
147
102
{ACAD_REACTORS
330
227
330
228
102
}
330
74
100
AcDbEntity
  8
0
  6
Continuous
 62
     2
100
AcDbLine
 10
-217.8557585423636
 20
-239.2956546349253
 30
0.0
 11
-217.8557585423636
 21
-243.6521096776424
 31
0.0
  0
LINE
  5
148
102
{ACAD_REACTORS
330
22D
330
22E
102
}
330
74
100
AcDbEntity
  8
0
  6
Continuous
 62
     2
100
AcDbLine
 10
-210.5187580988128
 20
-240.3781134389579
 30
0.0
 11
-209.7599905110325
 21
-240.3781134389579
 31
0.0
  0
LINE
  5
149
102
{ACAD_REACTORS
330
22D
330
22E
102
}
330
74
100
AcDbEntity
  8
0
  6
Continuous
 62
     2
100
AcDbLine
 10
-211.7592625090669
 20
-238.2673821562905
 30
0.0
 11
-209.7599905110325
 21
-238.2673821562905
 31
0.0
  0
LINE
  5
14A
102
{ACAD_REACTORS
330
22D
330
22E
102
}
330
74
100
AcDbEntity
  8
0
  6
Continuous
 62
     2
100
AcDbLine
 10
-211.7592625090669
 20
-238.2673821562905
 30
0.0
 11
-211.7592625090669
 21
-241.3211916801017
 31
0.0
  0
LINE
  5
14B
102
{ACAD_REACTORS
330
22D
330
22E
102
}
330
74
100
AcDbEntity
  8
0
  6
Continuous
 62
     2
100
AcDbLine
 10
-210.5187580988128
 20
-239.6362156510728
 30
0.0
 11
-210.2014630372709
 21
-239.6362156510728
 31
0.0
  0
LINE
  5
14C
102
{ACAD_REACTORS
330
22D
330
22E
102
}
330
74
100
AcDbEntity
  8
0
  6
Continuous
 62
     2
100
AcDbLine
 10
-210.5187580988128
 20
-238.9304880017306
 30
0.0
 11
-210.2014630372709
 21
-238.9304880017306
 31
0.0
  0
LINE
  5
14D
102
{ACAD_REACTORS
330
23B
330
23C
102
}
330
74
100
AcDbEntity
  8
0
  6
Continuous
 62
     2
100
AcDbLine
 10
-207.3697853650926
 20
-239.3362154896251
 30
0.0
 11
-206.3201277871851
 21
-239.3362154896251
 31
0.0
  0
LINE
  5
14E
102
{ACAD_REACTORS
330
23B
330
23C
102
}
330
74
100
AcDbEntity
  8
0
  6
Continuous
 62
     2
100
AcDbLine
 10
-207.3697853650926
 20
-238.2673821562905
 30
0.0
 11
-207.3697853650926
 21
-239.3362154896251
 31
0.0
  0
LINE
  5
14F
102
{ACAD_REACTORS
330
23B
330
23C
102
}
330
74
100
AcDbEntity
  8
0
  6
Continuous
 62
     2
100
AcDbLine
 10
-208.5625780672592
 20
-238.2673821562905
 30
0.0
 11
-207.3697853650926
 21
-238.2673821562905
 31
0.0
  0
LINE
  5
150
102
{ACAD_REACTORS
330
23B
330
23C
102
}
330
74
100
AcDbEntity
  8
0
  6
Continuous
 62
     2
100
AcDbLine
 10
-207.3697853650926
 20
-241.3211916801017
 30
0.0
 11
-208.5625780672592
 21
-241.3211916801017
 31
0.0
  0
LINE
  5
151
102
{ACAD_REACTORS
330
23B
330
23C
102
}
330
74
100
AcDbEntity
  8
0
  6
Continuous
 62
     2
100
AcDbLine
 10
-206.3201277871851
 20
-241.3211916801017
 30
0.0
 11
-206.3201277871851
 21
-240.1869195712579
 31
0.0
  0
LINE
  5
152
102
{ACAD_REACTORS
330
23B
330
23C
102
}
330
74
100
AcDbEntity
  8
0
  6
Continuous
 62
     2
100
AcDbLine
 10
-205.1273350850187
 20
-241.3211916801017
 30
0.0
 11
-206.3201277871851
 21
-241.3211916801017
 31
0.0
  0
LINE
  5
153
102
{ACAD_REACTORS
330
23B
330
23C
102
}
330
74
100
AcDbEntity
  8
0
  6
Continuous
 62
     2
100
AcDbLine
 10
-205.1273350850187
 20
-238.2673821562905
 30
0.0
 11
-205.1273350850187
 21
-241.3211916801017
 31
0.0
  0
LINE
  5
154
102
{ACAD_REACTORS
330
229
330
22A
102
}
330
74
100
AcDbEntity
  8
0
  6
Continuous
 62
     2
100
AcDbLine
 10
-201.6443803946918
 20
-240.1432937209175
 30
0.0
 11
-200.3084525682641
 21
-240.1432937209175
 31
0.0
  0
LINE
  5
155
102
{ACAD_REACTORS
330
229
330
22A
102
}
330
74
100
AcDbEntity
  8
0
  6
Continuous
 62
     2
100
AcDbLine
 10
-200.3084525682641
 20
-240.1432937209175
 30
0.0
 11
-200.3084525682641
 21
-239.4452801154752
 31
0.0
  0
LINE
  5
156
102
{ACAD_REACTORS
330
229
330
22A
102
}
330
74
100
AcDbEntity
  8
0
  6
Continuous
 62
     2
100
AcDbLine
 10
-200.3084525682641
 20
-239.4452801154752
 30
0.0
 11
-201.6443803946918
 21
-239.4452801154752
 31
0.0
  0
LINE
  5
157
102
{ACAD_REACTORS
330
229
330
22A
102
}
330
74
100
AcDbEntity
  8
0
  6
Continuous
 62
     2
100
AcDbLine
 10
-201.6443803946918
 20
-239.4452801154752
 30
0.0
 11
-201.6443803946918
 21
-238.9653957617335
 31
0.0
  0
LINE
  5
158
102
{ACAD_REACTORS
330
239
330
23A
102
}
330
74
100
AcDbEntity
  8
0
  6
Continuous
 62
     2
100
AcDbLine
 10
-205.3183328482509
 20
-244.680382156276
 30
0.0
 11
-204.1255401460833
 21
-244.680382156276
 31
0.0
  0
LINE
  5
159
102
{ACAD_REACTORS
330
239
330
23A
102
}
330
74
100
AcDbEntity
  8
0
  6
Continuous
 62
     2
100
AcDbLine
 10
-202.8850357358304
 20
-244.680382156276
 30
0.0
 11
-201.692243033664
 21
-244.680382156276
 31
0.0
  0
LINE
  5
15A
102
{ACAD_REACTORS
330
239
330
23A
102
}
330
74
100
AcDbEntity
  8
0
  6
Continuous
 62
     2
100
AcDbLine
 10
-204.1255401460833
 20
-241.6265726324649
 30
0.0
 11
-205.3183328482509
 21
-241.6265726324649
 31
0.0
  0
LINE
  5
15B
102
{ACAD_REACTORS
330
239
330
23A
102
}
330
74
100
AcDbEntity
  8
0
  6
Continuous
 62
     2
100
AcDbLine
 10
-205.3183328482509
 20
-241.6265726324649
 30
0.0
 11
-205.3183328482509
 21
-244.680382156276
 31
0.0
  0
LINE
  5
15C
102
{ACAD_REACTORS
330
237
330
238
102
}
330
74
100
AcDbEntity
  8
0
  6
Continuous
 62
     2
100
AcDbLine
 10
-197.6365969154107
 20
-238.2673821562905
 30
0.0
 11
-197.6365969154107
 21
-239.5761576664957
 31
0.0
  0
LINE
  5
15D
102
{ACAD_REACTORS
330
237
330
238
102
}
330
74
100
AcDbEntity
  8
0
  6
Continuous
 62
     2
100
AcDbLine
 10
-198.8771013256647
 20
-238.2673821562905
 30
0.0
 11
-200.0698940278312
 21
-238.2673821562905
 31
0.0
  0
LINE
  5
15E
102
{ACAD_REACTORS
330
237
330
238
102
}
330
74
100
AcDbEntity
  8
0
  6
Continuous
 62
     2
100
AcDbLine
 10
-200.0698940278312
 20
-238.2673821562905
 30
0.0
 11
-200.0698940278312
 21
-241.3211916801017
 31
0.0
  0
LINE
  5
15F
102
{ACAD_REACTORS
330
237
330
238
102
}
330
74
100
AcDbEntity
  8
0
  6
Continuous
 62
     2
100
AcDbLine
 10
-198.8771013256647
 20
-241.3211916801017
 30
0.0
 11
-198.8771013256647
 21
-240.012416169897
 31
0.0
  0
LINE
  5
160
102
{ACAD_REACTORS
330
235
330
236
102
}
330
74
100
AcDbEntity
  8
0
  6
Continuous
 62
     2
100
AcDbLine
 10
-199.5452161697627
 20
-244.680382156276
 30
0.0
 11
-199.5452161697627
 21
-242.4118379385885
 31
0.0
  0
LINE
  5
161
102
{ACAD_REACTORS
330
235
330
236
102
}
330
74
100
AcDbEntity
  8
0
  6
Continuous
 62
     2
100
AcDbLine
 10
-199.5452161697627
 20
-242.4118379385885
 30
0.0
 11
-198.7341171322902
 21
-242.4118379385885
 31
0.0
  0
LINE
  5
162
102
{ACAD_REACTORS
330
235
330
236
102
}
330
74
100
AcDbEntity
  8
0
  6
Continuous
 62
     2
100
AcDbLine
 10
-198.7341171322902
 20
-242.4118379385885
 30
0.0
 11
-198.7341171322902
 21
-241.6265726324649
 31
0.0
  0
LINE
  5
163
102
{ACAD_REACTORS
330
235
330
236
102
}
330
74
100
AcDbEntity
  8
0
  6
Continuous
 62
     2
100
AcDbLine
 10
-198.7341171322902
 20
-241.6265726324649
 30
0.0
 11
-201.5491079094038
 21
-241.6265726324649
 31
0.0
  0
LINE
  5
164
102
{ACAD_REACTORS
330
235
330
236
102
}
330
74
100
AcDbEntity
  8
0
  6
Continuous
 62
     2
100
AcDbLine
 10
-201.5491079094038
 20
-242.4118379385885
 30
0.0
 11
-200.7380088719292
 21
-242.4118379385885
 31
0.0
  0
LINE
  5
165
102
{ACAD_REACTORS
330
233
330
234
102
}
330
74
100
AcDbEntity
  8
0
  6
Continuous
 62
     2
100
AcDbLine
 10
-197.9396113064928
 20
-244.1394216120581
 30
0.0
 11
-196.807169729819
 21
-244.1394216120581
 31
0.0
  0
LINE
  5
166
102
{ACAD_REACTORS
330
233
330
234
102
}
330
74
100
AcDbEntity
  8
0
  6
Continuous
 62
     2
100
AcDbLine
 10
-195.3551852660893
 20
-244.680382156276
 30
0.0
 11
-196.5956896763432
 21
-244.680382156276
 31
0.0
  0
LINE
  5
167
102
{ACAD_REACTORS
330
233
330
234
102
}
330
74
100
AcDbEntity
  8
0
  6
Continuous
 62
     2
100
AcDbLine
 10
-197.9936427232823
 20
-241.6265726324649
 30
0.0
 11
-199.3915957702216
 21
-244.680382156276
 31
0.0
  0
LINE
  5
168
102
{ACAD_REACTORS
330
233
330
234
102
}
330
74
100
AcDbEntity
  8
0
  6
Continuous
 62
     2
100
AcDbLine
 10
-198.1510913599686
 20
-244.680382156276
 30
0.0
 11
-197.9396113064928
 21
-244.1394216120581
 31
0.0
  0
LINE
  5
169
102
{ACAD_REACTORS
330
233
330
234
102
}
330
74
100
AcDbEntity
  8
0
  6
Continuous
 62
     2
100
AcDbLine
 10
-197.6735557553478
 20
-243.4588583467515
 30
0.0
 11
-197.3733905181554
 21
-242.6910433807648
 31
0.0
  0
LINE
  5
16A
102
{ACAD_REACTORS
330
231
330
232
102
}
330
74
100
AcDbEntity
  8
0
  6
Continuous
 62
     2
100
AcDbLine
 10
-196.2052456728102
 20
-241.3211916801017
 30
0.0
 11
-196.2052456728102
 21
-238.2673821562905
 31
0.0
  0
LINE
  5
16B
102
{ACAD_REACTORS
330
231
330
232
102
}
330
74
100
AcDbEntity
  8
0
  6
Continuous
 62
     2
100
AcDbLine
 10
-194.9647412625573
 20
-238.2673821562905
 30
0.0
 11
-194.9647412625573
 21
-241.3211916801017
 31
0.0
  0
LINE
  5
16C
102
{ACAD_REACTORS
330
231
330
232
102
}
330
74
100
AcDbEntity
  8
0
  6
Continuous
 62
     2
100
AcDbLine
 10
-196.2052456728102
 20
-238.2673821562905
 30
0.0
 11
-194.9647412625573
 21
-238.2673821562905
 31
0.0
  0
LINE
  5
16D
102
{ACAD_REACTORS
330
22F
330
230
102
}
330
74
100
AcDbEntity
  8
0
  6
Continuous
 62
     2
100
AcDbLine
 10
-192.7461468365265
 20
-240.533459894808
 30
0.0
 11
-192.049555898461
 21
-241.3211916801017
 31
0.0
  0
LINE
  5
16E
102
{ACAD_REACTORS
330
22F
330
230
102
}
330
74
100
AcDbEntity
  8
0
  6
Continuous
 62
     2
100
AcDbLine
 10
-192.049555898461
 20
-241.3211916801017
 30
0.0
 11
-190.6468316807127
 21
-241.3211916801017
 31
0.0
  0
LINE
  5
16F
102
{ACAD_REACTORS
330
22F
330
230
102
}
330
74
100
AcDbEntity
  8
0
  6
Continuous
 62
     2
100
AcDbLine
 10
-192.044784727653
 20
-239.7403326863267
 30
0.0
 11
-190.6468316807127
 21
-241.3211916801017
 31
0.0
  0
LINE
  5
170
102
{ACAD_REACTORS
330
22F
330
230
102
}
330
74
100
AcDbEntity
  8
0
  6
Continuous
 62
     2
100
AcDbLine
 10
-192.044784727653
 20
-239.7403326863267
 30
0.0
 11
-190.7422550968865
 21
-238.2673821562905
 31
0.0
  0
LINE
  5
171
102
{ACAD_REACTORS
330
22F
330
230
102
}
330
74
100
AcDbEntity
  8
0
  6
Continuous
 62
     2
100
AcDbLine
 10
-192.7461468365265
 20
-238.947205477846
 30
0.0
 11
-192.1449793146337
 21
-238.2673821562905
 31
0.0
  0
LINE
  5
172
102
{ACAD_REACTORS
330
22F
330
230
102
}
330
74
100
AcDbEntity
  8
0
  6
Continuous
 62
     2
100
AcDbLine
 10
-193.3473143584183
 20
-238.2673821562905
 30
0.0
 11
-192.7461468365265
 21
-238.947205477846
 31
0.0
  0
LINE
  5
173
102
{ACAD_REACTORS
330
22F
330
230
102
}
330
74
100
AcDbEntity
  8
0
  6
Continuous
 62
     2
100
AcDbLine
 10
-193.3473143584183
 20
-238.2673821562905
 30
0.0
 11
-194.7500385761676
 21
-238.2673821562905
 31
0.0
  0
LINE
  5
174
102
{ACAD_REACTORS
330
225
330
226
102
}
330
74
100
AcDbEntity
  8
0
  6
Continuous
 62
     2
100
AcDbLine
 10
-192.6507234203538
 20
-244.680382156276
 30
0.0
 11
-191.4579307181861
 21
-244.680382156276
 31
0.0
  0
LINE
  5
175
102
{ACAD_REACTORS
330
225
330
226
102
}
330
74
100
AcDbEntity
  8
0
  6
Continuous
 62
     2
100
AcDbLine
 10
-191.4579307181861
 20
-244.680382156276
 30
0.0
 11
-191.4579307181861
 21
-242.4118379385885
 31
0.0
  0
LINE
  5
176
102
{ACAD_REACTORS
330
225
330
226
102
}
330
74
100
AcDbEntity
  8
0
  6
Continuous
 62
     2
100
AcDbLine
 10
-191.4579307181861
 20
-242.4118379385885
 30
0.0
 11
-190.6468316807127
 21
-242.4118379385885
 31
0.0
  0
LINE
  5
177
102
{ACAD_REACTORS
330
225
330
226
102
}
330
74
100
AcDbEntity
  8
0
  6
Continuous
 62
     2
100
AcDbLine
 10
-190.6468316807127
 20
-242.4118379385885
 30
0.0
 11
-190.6468316807127
 21
-241.6265726324649
 31
0.0
  0
LINE
  5
178
102
{ACAD_REACTORS
330
225
330
226
102
}
330
74
100
AcDbEntity
  8
0
  6
Continuous
 62
     2
100
AcDbLine
 10
-194.0317771993414
 20
-241.6265726324654
 30
0.0
 11
-190.6468316807127
 21
-241.6265726324649
 31
0.0
  0
LINE
  5
179
102
{ACAD_REACTORS
330
225
330
226
102
}
330
74
100
AcDbEntity
  8
0
  6
Continuous
 62
     2
100
AcDbLine
 10
-192.6507234203538
 20
-242.4118379385885
 30
0.0
 11
-192.6507234203538
 21
-244.680382156276
 31
0.0
  0
LINE
  5
17A
102
{ACAD_REACTORS
330
227
330
228
102
}
330
74
100
AcDbEntity
  8
0
  6
Continuous
 62
     2
100
AcDbLine
 10
-215.280209855833
 20
-242.7015020067115
 30
0.0
 11
-215.280209855833
 21
-242.1196506000164
 31
0.0
  0
LINE
  5
17B
102
{ACAD_REACTORS
330
227
330
228
102
}
330
74
100
AcDbEntity
  8
0
  6
Continuous
 62
     2
100
AcDbLine
 10
-215.280209855833
 20
-239.9013674000802
 30
0.0
 11
-215.280209855833
 21
-239.2958321115734
 31
0.0
  0
LINE
  5
17C
330
74
100
AcDbEntity
  8
1
  6
Continuous
 62
     6
100
AcDbLine
 10
-236.7500312712297
 20
-251.9738821562923
 30
0.0
 11
-222.7948357979798
 21
-251.9738821562924
 31
0.0
  0
LINE
  5
17D
330
74
100
AcDbEntity
  8
1
  6
Continuous
 62
     6
100
AcDbLine
 10
-286.75003127123
 20
-251.9738821562923
 30
0.0
 11
-291.7948357979798
 21
-251.9738821562923
 31
0.0
  0
LINE
  5
17E
330
74
100
AcDbEntity
  8
1
  6
Continuous
 62
     6
100
AcDbLine
 10
-136.7500312712298
 20
-251.9738821562923
 30
0.0
 11
-93.25003127122976
 21
-251.9738821562923
 31
0.0
  0
LINE
  5
17F
330
74
100
AcDbEntity
  8
1
  6
Continuous
 62
     6
100
AcDbLine
 10
-186.7500312712298
 20
-251.9738821562923
 30
0.0
 11
-204.5948357979798
 21
-251.9738821562923
 31
0.0
  0
LINE
  5
180
330
74
100
AcDbEntity
  8
1
  6
Continuous
 62
     2
100
AcDbLine
 10
-93.25003127122976
 20
-251.9738821562923
 30
0.0
 11
-88.25003127123077
 21
-251.9738821562923
 31
0.0
  0
LINE
  5
181
330
74
100
AcDbEntity
  8
1
  6
Continuous
 62
     2
100
AcDbLine
 10
-93.25003127122976
 20
-251.9738821562923
 30
0.0
 11
-93.25003127122976
 21
-256.9738821562924
 31
0.0
  0
LINE
  5
182
330
74
100
AcDbEntity
  8
1
  6
Continuous
 62
     6
100
AcDbLine
 10
-222.7948357979798
 20
-234.9738821562923
 30
0.0
 11
-186.3948357979799
 21
-234.9738821562923
 31
0.0
  0
LINE
  5
183
330
74
100
AcDbEntity
  8
1
  6
Continuous
 62
     2
100
AcDbLine
 10
-88.25003127123077
 20
-256.9738821562924
 30
0.0
 11
-88.25003127123077
 21
-251.9738821562923
 31
0.0
  0
LINE
  5
184
330
74
100
AcDbEntity
  8
1
  6
Continuous
 62
     2
100
AcDbLine
 10
-88.25003127123077
 20
-256.9738821562924
 30
0.0
 11
-93.25003127122976
 21
-256.9738821562924
 31
0.0
  0
LINE
  5
185
330
74
100
AcDbEntity
  8
1
  6
Continuous
 62
     2
100
AcDbLine
 10
-93.25003127122976
 20
-256.9738821562924
 30
0.0
 11
-136.7500312712298
 21
-256.9738821562924
 31
0.0
  0
LINE
  5
186
330
74
100
AcDbEntity
  8
1
  6
Continuous
 62
     6
100
AcDbLine
 10
-93.25003127122807
 20
-234.9738821562923
 30
0.0
 11
-93.25003127122886
 21
-201.9738821562922
 31
0.0
  0
LINE
  5
187
330
74
100
AcDbEntity
  8
1
  6
Continuous
 62
     2
100
AcDbLine
 10
-88.25003127123077
 20
-46.97388215629226
 30
0.0
 11
-236.7500312712297
 21
-46.97388215629226
 31
0.0
  0
LINE
  5
188
330
74
100
AcDbEntity
  8
1
  6
Continuous
 62
     6
100
AcDbLine
 10
-93.25003127123077
 20
-66.97388215629226
 30
0.0
 11
-380.2500312712289
 21
-66.97388215629226
 31
0.0
  0
LINE
  5
189
330
74
100
AcDbEntity
  8
1
  6
Continuous
 62
     2
100
AcDbLine
 10
-93.25003127122886
 20
-201.9738821562922
 30
0.0
 11
-88.25003127123077
 21
-201.9738821562922
 31
0.0
  0
LINE
  5
18A
330
74
100
AcDbEntity
  8
1
  6
Continuous
 62
     6
100
AcDbLine
 10
-93.25003127122886
 20
-201.9738821562922
 30
0.0
 11
-93.25003127122936
 21
-151.9738821562924
 31
0.0
  0
LINE
  5
18B
330
74
100
AcDbEntity
  8
1
  6
Continuous
 62
     2
100
AcDbLine
 10
-88.25003127123077
 20
-201.9738821562922
 30
0.0
 11
-88.25003127123077
 21
-151.9738821562924
 31
0.0
  0
LINE
  5
18C
330
74
100
AcDbEntity
  8
1
  6
Continuous
 62
     2
100
AcDbLine
 10
-93.25003127122936
 20
-151.9738821562924
 30
0.0
 11
-88.25003127123077
 21
-151.9738821562924
 31
0.0
  0
LINE
  5
18D
330
74
100
AcDbEntity
  8
1
  6
Continuous
 62
     6
100
AcDbLine
 10
-93.25003127122936
 20
-151.9738821562924
 30
0.0
 11
-93.25003127123057
 21
-101.9738821562923
 31
0.0
  0
LINE
  5
18E
330
74
100
AcDbEntity
  8
1
  6
Continuous
 62
     2
100
AcDbLine
 10
-88.25003127123077
 20
-151.9738821562924
 30
0.0
 11
-88.25003127123077
 21
-101.9738821562923
 31
0.0
  0
LINE
  5
18F
330
74
100
AcDbEntity
  8
1
  6
Continuous
 62
     2
100
AcDbLine
 10
-93.25003127123057
 20
-101.9738821562923
 30
0.0
 11
-88.25003127123077
 21
-101.9738821562923
 31
0.0
  0
LINE
  5
190
330
74
100
AcDbEntity
  8
1
  6
Continuous
 62
     6
100
AcDbLine
 10
-93.25003127123057
 20
-101.9738821562923
 30
0.0
 11
-93.25003127123077
 21
-66.97388215629226
 31
0.0
  0
LINE
  5
191
330
74
100
AcDbEntity
  8
1
  6
Continuous
 62
     2
100
AcDbLine
 10
-88.25003127123077
 20
-101.9738821562923
 30
0.0
 11
-88.25003127123077
 21
-46.97388215629226
 31
0.0
  0
LINE
  5
192
330
74
100
AcDbEntity
  8
1
  6
Continuous
 62
     2
100
AcDbLine
 10
-88.25003127123077
 20
-251.9738821562923
 30
0.0
 11
-88.25003127123077
 21
-201.9738821562922
 31
0.0
  0
LINE
  5
193
330
74
100
AcDbEntity
  8
1
  6
Continuous
 62
     2
100
AcDbLine
 10
-236.7500312712297
 20
-46.97388215629226
 30
0.0
 11
-385.2500312712289
 21
-46.97388215629226
 31
0.0
  0
LINE
  5
194
330
74
100
AcDbEntity
  8
1
  6
Continuous
 62
     2
100
AcDbLine
 10
-236.7500312712297
 20
-46.97388215629226
 30
0.0
 11
-236.7500312712297
 21
-56.18257400099358
 31
0.0
  0
LINE
  5
195
330
74
100
AcDbEntity
  8
1
  6
Continuous
 62
     2
100
AcDbLine
 10
-385.2500312712289
 20
-256.9738821562924
 30
0.0
 11
-380.2500312712278
 21
-256.9738821562924
 31
0.0
  0
LINE
  5
196
330
74
100
AcDbEntity
  8
1
  6
Continuous
 62
     2
100
AcDbLine
 10
-385.2500312712289
 20
-46.97388215629226
 30
0.0
 11
-385.2500312712289
 21
-101.9738821562923
 31
0.0
  0
LINE
  5
197
330
74
100
AcDbEntity
  8
1
  6
Continuous
 62
     6
100
AcDbLine
 10
-380.2500312712289
 20
-66.97388215629226
 30
0.0
 11
-380.2500312712288
 21
-101.9738821562923
 31
0.0
  0
LINE
  5
198
330
74
100
AcDbEntity
  8
1
  6
Continuous
 62
     2
100
AcDbLine
 10
-385.2500312712289
 20
-101.9738821562923
 30
0.0
 11
-380.2500312712288
 21
-101.9738821562923
 31
0.0
  0
LINE
  5
199
330
74
100
AcDbEntity
  8
1
  6
Continuous
 62
     2
100
AcDbLine
 10
-385.2500312712289
 20
-101.9738821562923
 30
0.0
 11
-385.2500312712289
 21
-151.9738821562924
 31
0.0
  0
LINE
  5
19A
330
74
100
AcDbEntity
  8
1
  6
Continuous
 62
     6
100
AcDbLine
 10
-380.2500312712288
 20
-101.9738821562923
 30
0.0
 11
-380.2500312712283
 21
-151.9738821562924
 31
0.0
  0
LINE
  5
19B
330
74
100
AcDbEntity
  8
1
  6
Continuous
 62
     2
100
AcDbLine
 10
-385.2500312712289
 20
-151.9738821562924
 30
0.0
 11
-380.2500312712283
 21
-151.9738821562924
 31
0.0
  0
LINE
  5
19C
330
74
100
AcDbEntity
  8
1
  6
Continuous
 62
     2
100
AcDbLine
 10
-385.2500312712289
 20
-151.9738821562924
 30
0.0
 11
-385.2500312712289
 21
-201.9738821562922
 31
0.0
  0
LINE
  5
19D
330
74
100
AcDbEntity
  8
1
  6
Continuous
 62
     6
100
AcDbLine
 10
-380.2500312712283
 20
-151.9738821562924
 30
0.0
 11
-380.2500312712281
 21
-201.9738821562922
 31
0.0
  0
LINE
  5
19E
330
74
100
AcDbEntity
  8
1
  6
Continuous
 62
     2
100
AcDbLine
 10
-385.2500312712289
 20
-201.9738821562922
 30
0.0
 11
-380.2500312712281
 21
-201.9738821562922
 31
0.0
  0
LINE
  5
19F
330
74
100
AcDbEntity
  8
1
  6
Continuous
 62
     2
100
AcDbLine
 10
-385.2500312712289
 20
-201.9738821562922
 30
0.0
 11
-385.2500312712289
 21
-251.9738821562923
 31
0.0
  0
LINE
  5
1A0
330
74
100
AcDbEntity
  8
1
  6
Continuous
 62
     6
100
AcDbLine
 10
-380.2500312712281
 20
-201.9738821562922
 30
0.0
 11
-380.2500312712278
 21
-251.9738821562923
 31
0.0
  0
LINE
  5
1A1
330
74
100
AcDbEntity
  8
1
  6
Continuous
 62
     2
100
AcDbLine
 10
-336.7500312712298
 20
-256.9738821562924
 30
0.0
 11
-336.7500312712298
 21
-251.9738821562923
 31
0.0
  0
LINE
  5
1A2
330
74
100
AcDbEntity
  8
1
  6
Continuous
 62
     2
100
AcDbLine
 10
-336.7500312712298
 20
-256.9738821562924
 30
0.0
 11
-286.75003127123
 21
-256.9738821562924
 31
0.0
  0
LINE
  5
1A3
330
74
100
AcDbEntity
  8
1
  6
Continuous
 62
     2
100
AcDbLine
 10
-286.75003127123
 20
-256.9738821562924
 30
0.0
 11
-286.75003127123
 21
-251.9738821562923
 31
0.0
  0
LINE
  5
1A4
330
74
100
AcDbEntity
  8
1
  6
Continuous
 62
     2
100
AcDbLine
 10
-286.75003127123
 20
-256.9738821562924
 30
0.0
 11
-236.7500312712297
 21
-256.9738821562924
 31
0.0
  0
LINE
  5
1A5
330
74
100
AcDbEntity
  8
1
  6
Continuous
 62
     2
100
AcDbLine
 10
-236.7500312712297
 20
-256.9738821562924
 30
0.0
 11
-236.7500312712297
 21
-251.9738821562923
 31
0.0
  0
LINE
  5
1A6
330
74
100
AcDbEntity
  8
1
  6
Continuous
 62
     2
100
AcDbLine
 10
-236.7500312712297
 20
-256.9738821562924
 30
0.0
 11
-186.7500312712298
 21
-256.9738821562924
 31
0.0
  0
LINE
  5
1A7
330
74
100
AcDbEntity
  8
1
  6
Continuous
 62
     2
100
AcDbLine
 10
-186.7500312712298
 20
-256.9738821562924
 30
0.0
 11
-186.7500312712298
 21
-251.9738821562923
 31
0.0
  0
LINE
  5
1A8
330
74
100
AcDbEntity
  8
1
  6
Continuous
 62
     2
100
AcDbLine
 10
-136.7500312712298
 20
-256.9738821562924
 30
0.0
 11
-136.7500312712298
 21
-251.9738821562923
 31
0.0
  0
LINE
  5
1A9
330
74
100
AcDbEntity
  8
1
  6
Continuous
 62
     2
100
AcDbLine
 10
-136.7500312712298
 20
-256.9738821562924
 30
0.0
 11
-186.7500312712298
 21
-256.9738821562924
 31
0.0
  0
LINE
  5
1AA
330
74
100
AcDbEntity
  8
1
  6
Continuous
 62
     2
100
AcDbLine
 10
-380.2500312712278
 20
-251.9738821562923
 30
0.0
 11
-380.2500312712278
 21
-256.9738821562924
 31
0.0
  0
LINE
  5
1AB
330
74
100
AcDbEntity
  8
1
  6
Continuous
 62
     2
100
AcDbLine
 10
-380.2500312712278
 20
-256.9738821562924
 30
0.0
 11
-336.7500312712298
 21
-256.9738821562924
 31
0.0
  0
LINE
  5
1AC
330
74
100
AcDbEntity
  8
1
  6
Continuous
 62
     2
100
AcDbLine
 10
-380.2500312712278
 20
-251.9738821562923
 30
0.0
 11
-385.2500312712289
 21
-251.9738821562923
 31
0.0
  0
LINE
  5
1AD
330
74
100
AcDbEntity
  8
1
  6
Continuous
 62
     2
100
AcDbLine
 10
-385.2500312712289
 20
-251.9738821562923
 30
0.0
 11
-385.2500312712289
 21
-256.9738821562924
 31
0.0
  0
LINE
  5
1AE
330
74
100
AcDbEntity
  8
1
  6
Continuous
 62
     6
100
AcDbLine
 10
-93.25003127122976
 20
-251.9738821562923
 30
0.0
 11
-93.25003127122847
 21
-243.4738821562923
 31
0.0
  0
LINE
  5
1AF
330
74
100
AcDbEntity
  8
1
  6
Continuous
 62
     6
100
AcDbLine
 10
-186.3948357979799
 20
-251.9738821562924
 30
0.0
 11
-136.7500312712298
 21
-251.9738821562923
 31
0.0
  0
LINE
  5
1B0
330
74
100
AcDbEntity
  8
1
  6
Continuous
 62
     6
100
AcDbLine
 10
-339.05003127123
 20
-251.9738821562924
 30
0.0
 11
-336.7500312712298
 21
-251.9738821562923
 31
0.0
  0
LINE
  5
1B1
330
74
100
AcDbEntity
  8
1
  6
Continuous
 62
     6
100
AcDbLine
 10
-236.7500312712297
 20
-251.9738821562923
 30
0.0
 11
-286.75003127123
 21
-251.9738821562923
 31
0.0
  0
LINE
  5
1B2
330
74
100
AcDbEntity
  8
1
  6
Continuous
 62
     7
100
AcDbLine
 10
-222.7948357979798
 20
-234.9738821562923
 30
0.0
 11
-222.7948357979798
 21
-247.7238821562924
 31
0.0
  0
LINE
  5
1B3
330
74
100
AcDbEntity
  8
1
  6
Continuous
 62
     7
100
AcDbLine
 10
-186.3948357979799
 20
-234.9738821562923
 30
0.0
 11
-186.3948357979799
 21
-247.7238821562923
 31
0.0
  0
LINE
  5
1B4
330
74
100
AcDbEntity
  8
1
  6
Continuous
 62
     6
100
AcDbLine
 10
-339.05003127123
 20
-251.9738821562924
 30
0.0
 11
-345.250031271228
 21
-251.9738821562923
 31
0.0
  0
LINE
  5
1B5
330
74
100
AcDbEntity
  8
1
  6
Continuous
 62
     6
100
AcDbLine
 10
-186.3948357979799
 20
-251.9738821562924
 30
0.0
 11
-186.7500312712298
 21
-251.9738821562923
 31
0.0
  0
LINE
  5
1B6
330
74
100
AcDbEntity
  8
1
  6
Continuous
 62
     6
100
AcDbLine
 10
-93.25003127122807
 20
-234.9738821562923
 30
0.0
 11
-93.25003127122847
 21
-243.4738821562923
 31
0.0
  0
LINE
  5
1B7
330
74
100
AcDbEntity
  8
1
  6
Continuous
 62
     6
100
AcDbLine
 10
-345.250031271228
 20
-251.9738821562923
 30
0.0
 11
-380.2500312712278
 21
-251.9738821562923
 31
0.0
  0
LINE
  5
1B8
330
74
100
AcDbEntity
  8
1
  6
Continuous
 62
     2
100
AcDbLine
 10
-218.5581809114172
 20
-229.5988821562924
 30
0.0
 11
-213.5581809114172
 21
-228.3488821562924
 31
0.0
  0
LINE
  5
1B9
330
74
100
AcDbEntity
  8
1
  6
Continuous
 62
     2
100
AcDbLine
 10
-218.5581809114172
 20
-232.0988821562924
 30
0.0
 11
-218.5581809114172
 21
-229.5988821562924
 31
0.0
  0
LINE
  5
1BA
330
74
100
AcDbEntity
  8
1
  6
Continuous
 62
     2
100
AcDbLine
 10
-213.5581809114172
 20
-233.3488821562924
 30
0.0
 11
-218.5581809114172
 21
-232.0988821562924
 31
0.0
  0
LINE
  5
1BB
330
74
100
AcDbEntity
  8
1
  6
Continuous
 62
     2
100
AcDbLine
 10
-213.5581809114172
 20
-228.3488821562924
 30
0.0
 11
-213.5581809114172
 21
-233.3488821562924
 31
0.0
  0
LINE
  5
1BC
330
74
100
AcDbEntity
  8
1
  6
Continuous
 62
     7
100
AcDbLine
 10
-222.7948357979798
 20
-247.7238821562924
 30
0.0
 11
-204.5948357979798
 21
-247.7238821562923
 31
0.0
  0
LINE
  5
1BD
330
74
100
AcDbEntity
  8
1
  6
Continuous
 62
     7
100
AcDbLine
 10
-222.7948357979798
 20
-247.7238821562924
 30
0.0
 11
-222.7948357979798
 21
-251.9738821562924
 31
0.0
  0
LINE
  5
1BE
330
74
100
AcDbEntity
  8
1
  6
Continuous
 62
     7
100
AcDbLine
 10
-186.3948357979799
 20
-247.7238821562923
 30
0.0
 11
-186.3948357979799
 21
-251.9738821562924
 31
0.0
  0
LINE
  5
1BF
330
74
100
AcDbEntity
  8
1
  6
Continuous
 62
     7
100
AcDbLine
 10
-204.5948357979798
 20
-247.7238821562923
 30
0.0
 11
-204.5948357979798
 21
-251.9738821562923
 31
0.0
  0
LINE
  5
1C0
330
74
100
AcDbEntity
  8
1
  6
Continuous
 62
     6
100
AcDbLine
 10
-204.5948357979798
 20
-251.9738821562923
 30
0.0
 11
-222.7948357979798
 21
-251.9738821562924
 31
0.0
  0
LINE
  5
1C1
330
74
100
AcDbEntity
  8
1
  6
Continuous
 62
     7
100
AcDbLine
 10
-204.5948357979798
 20
-247.7238821562923
 30
0.0
 11
-186.3948357979799
 21
-247.7238821562923
 31
0.0
  0
LINE
  5
1C2
330
74
100
AcDbEntity
  8
1
  6
Continuous
 62
     6
100
AcDbLine
 10
-222.7948357979798
 20
-226.4738821562923
 30
0.0
 11
-93.25003127122807
 21
-226.4738821562923
 31
0.0
  0
ARC
  5
1C3
102
{ACAD_REACTORS
330
22B
330
22C
102
}
330
74
100
AcDbEntity
  8
0
  6
Continuous
 62
     2
100
AcDbCircle
 10
-207.4031877990198
 20
-243.1534773943707
 30
0.0
 40
0.77179977867969
100
AcDbArc
 50
321.8795802028388
 51
38.12041979715458
  0
ARC
  5
1C4
102
{ACAD_REACTORS
330
22B
330
22C
102
}
330
74
100
AcDbEntity
  8
0
  6
Continuous
 62
     2
100
AcDbCircle
 10
-207.2034477626734
 20
-243.3102085724907
 30
0.0
 40
0.5179085730137754
100
AcDbArc
 50
218.1204197971937
 51
321.8795802027966
  0
ARC
  5
1C5
102
{ACAD_REACTORS
330
22B
330
22C
102
}
330
74
100
AcDbEntity
  8
0
  6
Continuous
 62
     2
100
AcDbCircle
 10
-207.0037077263273
 20
-243.1534773943707
 30
0.0
 40
0.7717997786794856
100
AcDbArc
 50
141.8795802028376
 51
218.120419797169
  0
ARC
  5
1C6
102
{ACAD_REACTORS
330
22B
330
22C
102
}
330
74
100
AcDbEntity
  8
0
  6
Continuous
 62
     2
100
AcDbCircle
 10
-207.2034477626734
 20
-242.9967462162502
 30
0.0
 40
0.5179085730132775
100
AcDbArc
 50
38.12041979714898
 51
141.8795802028608
  0
ARC
  5
1C7
102
{ACAD_REACTORS
330
223
330
224
102
}
330
74
100
AcDbEntity
  8
0
  6
Continuous
 62
     2
100
AcDbCircle
 10
-210.2654618982373
 20
-244.5639437597789
 30
0.0
 40
2.227384008973517
100
AcDbArc
 50
58.06909105004049
 51
71.55192388186676
  0
ARC
  5
1C8
102
{ACAD_REACTORS
330
223
330
224
102
}
330
74
100
AcDbEntity
  8
0
  6
Continuous
 62
     2
100
AcDbCircle
 10
-210.0037341972785
 20
-242.9484059650317
 30
0.0
 40
0.5115800601948891
100
AcDbArc
 50
113.3722778882021
 51
151.4785267423044
  0
ARC
  5
1C9
102
{ACAD_REACTORS
330
223
330
224
102
}
330
74
100
AcDbEntity
  8
0
  6
Continuous
 62
     2
100
AcDbCircle
 10
-209.6263769391982
 20
-243.1534773943707
 30
0.0
 40
0.9410597353332545
100
AcDbArc
 50
151.4785267422669
 51
208.5214732577073
  0
ARC
  5
1CA
102
{ACAD_REACTORS
330
223
330
224
102
}
330
74
100
AcDbEntity
  8
0
  6
Continuous
 62
     2
100
AcDbCircle
 10
-210.4233347733302
 20
-239.8407964491143
 30
0.0
 40
4.852596863498138
100
AcDbArc
 50
275.1581447696249
 51
285.9799912583529
  0
ARC
  5
1CB
102
{ACAD_REACTORS
330
223
330
224
102
}
330
74
100
AcDbEntity
  8
0
  6
Continuous
 62
     2
100
AcDbCircle
 10
-210.1344786785943
 20
-243.0406870323359
 30
0.0
 40
1.639695123939408
100
AcDbArc
 50
195.0618917770884
 51
275.1581447696396
  0
ARC
  5
1CC
102
{ACAD_REACTORS
330
223
330
224
102
}
330
74
100
AcDbEntity
  8
0
  6
Continuous
 62
     2
100
AcDbCircle
 10
-210.5536065220571
 20
-243.1534773943707
 30
0.0
 40
1.205656168390964
100
AcDbArc
 50
164.9381082228781
 51
195.0618917770945
  0
ARC
  5
1CD
102
{ACAD_REACTORS
330
223
330
224
102
}
330
74
100
AcDbEntity
  8
0
  6
Continuous
 62
     2
100
AcDbCircle
 10
-210.1344786785943
 20
-243.2662677564056
 30
0.0
 40
1.639695123940507
100
AcDbArc
 50
84.84185523036236
 51
164.9381082228877
  0
ARC
  5
1CE
102
{ACAD_REACTORS
330
227
330
228
102
}
330
74
100
AcDbEntity
  8
0
  6
Continuous
 62
     2
100
AcDbCircle
 10
-214.9644929327562
 20
-242.1196506000164
 30
0.0
 40
0.3157169230765071
100
AcDbArc
 50
115.3740086783541
 51
180.0
  0
ARC
  5
1CF
102
{ACAD_REACTORS
330
227
330
228
102
}
330
74
100
AcDbEntity
  8
0
  6
Continuous
 62
     2
100
AcDbCircle
 10
-214.9644929327562
 20
-239.9013674000802
 30
0.0
 40
0.315716923076792
100
AcDbArc
 50
180.0
 51
244.6259913216459
  0
ARC
  5
1D0
102
{ACAD_REACTORS
330
227
330
228
102
}
330
74
100
AcDbEntity
  8
0
  6
Continuous
 62
     2
100
AcDbCircle
 10
-214.9588767974462
 20
-240.9986670591425
 30
0.0
 40
2.018561131933266
100
AcDbArc
 50
269.8110329575866
 51
90.18896704241334
  0
ARC
  5
1D1
102
{ACAD_REACTORS
330
227
330
228
102
}
330
74
100
AcDbEntity
  8
0
  6
Continuous
 62
     2
100
AcDbCircle
 10
-214.9644929327562
 20
-242.7015020067115
 30
0.0
 40
0.315716923076792
100
AcDbArc
 50
180.0
 51
269.8110329574541
  0
ARC
  5
1D2
102
{ACAD_REACTORS
330
225
330
226
102
}
330
74
100
AcDbEntity
  8
0
  6
Continuous
 62
     2
100
AcDbCircle
 10
-193.9010327180256
 20
-242.9484059650317
 30
0.0
 40
0.5115800601944143
100
AcDbArc
 50
109.3371432194853
 51
151.4785267424225
  0
ARC
  5
1D3
102
{ACAD_REACTORS
330
225
330
226
102
}
330
74
100
AcDbEntity
  8
0
  6
Continuous
 62
     2
100
AcDbCircle
 10
-193.9010327180256
 20
-243.3585488237092
 30
0.0
 40
0.511580060196008
100
AcDbArc
 50
208.5214732576838
 51
246.6277221118436
  0
ARC
  5
1D4
102
{ACAD_REACTORS
330
225
330
226
102
}
330
74
100
AcDbEntity
  8
0
  6
Continuous
 62
     2
100
AcDbCircle
 10
-194.450905042803
 20
-243.1534773943707
 30
0.0
 40
1.205656168392995
100
AcDbArc
 50
164.9381082229041
 51
195.0618917770959
  0
ARC
  5
1D5
102
{ACAD_REACTORS
330
225
330
226
102
}
330
74
100
AcDbEntity
  8
0
  6
Continuous
 62
     2
100
AcDbCircle
 10
-194.0317771993414
 20
-243.2662677564056
 30
0.0
 40
1.639695123940186
100
AcDbArc
 50
90.0
 51
164.9381082228957
  0
ARC
  5
1D6
102
{ACAD_REACTORS
330
229
330
22A
102
}
330
74
100
AcDbEntity
  8
0
  6
Continuous
 62
     2
100
AcDbCircle
 10
-203.4587722920451
 20
-239.7942869181964
 30
0.0
 40
1.526904761905911
100
AcDbArc
 50
90.0
 51
270.0
  0
ARC
  5
1D7
102
{ACAD_REACTORS
330
22D
330
22E
102
}
330
74
100
AcDbEntity
  8
0
  6
Continuous
 62
     2
100
AcDbCircle
 10
-210.2014630372709
 20
-239.2833518264017
 30
0.0
 40
0.3528638246710898
100
AcDbArc
 50
270.0
 51
90.0
  0
ARC
  5
1D8
102
{ACAD_REACTORS
330
227
330
228
102
}
330
74
100
AcDbEntity
  8
0
  6
Continuous
 62
     2
100
AcDbCircle
 10
-217.5400416192879
 20
-239.2956546349253
 30
0.0
 40
0.3157169230762236
100
AcDbArc
 50
90.0
 51
180.0
  0
ARC
  5
1D9
102
{ACAD_REACTORS
330
227
330
228
102
}
330
74
100
AcDbEntity
  8
0
  6
Continuous
 62
     2
100
AcDbCircle
 10
-215.5416239107033
 20
-241.010509000048
 30
0.0
 40
0.911897523557601
100
AcDbArc
 50
115.1944106485306
 51
244.8055893514861
  0
ARC
  5
1DA
102
{ACAD_REACTORS
330
227
330
228
102
}
330
74
100
AcDbEntity
  8
0
  6
Continuous
 62
     2
100
AcDbCircle
 10
-216.0642083582783
 20
-242.1213387461108
 30
0.0
 40
0.3157169230766215
100
AcDbArc
 50
0.0
 51
64.80558935146249
  0
ARC
  5
1DB
102
{ACAD_REACTORS
330
227
330
228
102
}
330
74
100
AcDbEntity
  8
0
  6
Continuous
 62
     2
100
AcDbCircle
 10
-218.1339362960344
 20
-244.2561375408927
 30
0.0
 40
0.4242446153828041
100
AcDbArc
 50
180.0
 51
270.0
  0
ARC
  5
1DC
102
{ACAD_REACTORS
330
229
330
22A
102
}
330
74
100
AcDbEntity
  8
0
  6
Continuous
 62
     2
100
AcDbCircle
 10
-203.2425002818799
 20
-239.6375557400759
 30
0.0
 40
0.5179085730135266
100
AcDbArc
 50
38.12041979714334
 51
141.8795802028489
  0
ARC
  5
1DD
102
{ACAD_REACTORS
330
229
330
22A
102
}
330
74
100
AcDbEntity
  8
0
  6
Continuous
 62
     2
100
AcDbCircle
 10
-203.0427602455336
 20
-239.7942869181964
 30
0.0
 40
0.77179977867969
100
AcDbArc
 50
141.8795802028388
 51
218.1204197971546
  0
ARC
  5
1DE
102
{ACAD_REACTORS
330
22B
330
22C
102
}
330
74
100
AcDbEntity
  8
0
  6
Continuous
 62
     2
100
AcDbCircle
 10
-207.2034477626734
 20
-242.6149023840674
 30
0.0
 40
2.065479772208522
100
AcDbArc
 50
242.4518518243395
 51
297.5481481756871
  0
ARC
  5
1DF
102
{ACAD_REACTORS
330
22B
330
22C
102
}
330
74
100
AcDbEntity
  8
0
  6
Continuous
 62
     2
100
AcDbCircle
 10
-207.2034477626734
 20
-243.6920524046735
 30
0.0
 40
2.065479772208568
100
AcDbArc
 50
62.45185182430637
 51
117.5481481756671
  0
ARC
  5
1E0
102
{ACAD_REACTORS
330
22B
330
22C
102
}
330
74
100
AcDbEntity
  8
0
  6
Continuous
 62
     2
100
AcDbCircle
 10
-207.4843876545067
 20
-243.1534773943707
 30
0.0
 40
1.458034083651503
100
AcDbArc
 50
117.5481481756634
 51
242.4518518243366
  0
ARC
  5
1E1
102
{ACAD_REACTORS
330
22B
330
22C
102
}
330
74
100
AcDbEntity
  8
0
  6
Continuous
 62
     2
100
AcDbCircle
 10
-206.9225078708401
 20
-243.1534773943707
 30
0.0
 40
1.458034083652003
100
AcDbArc
 50
297.548148175701
 51
62.45185182429896
  0
ARC
  5
1E2
102
{ACAD_REACTORS
330
229
330
22A
102
}
330
74
100
AcDbEntity
  8
0
  6
Continuous
 62
     2
100
AcDbCircle
 10
-203.2425002818799
 20
-239.9510180963168
 30
0.0
 40
0.5179085730134372
100
AcDbArc
 50
218.1204197971511
 51
321.8795802028566
  0
ARC
  5
1E3
102
{ACAD_REACTORS
330
229
330
22A
102
}
330
74
100
AcDbEntity
  8
0
  6
Continuous
 62
     2
100
AcDbCircle
 10
-203.4422403182261
 20
-239.7942869181964
 30
0.0
 40
0.7717997786796421
100
AcDbArc
 50
321.8795802028467
 51
38.12041979715993
  0
ARC
  5
1E4
102
{ACAD_REACTORS
330
227
330
228
102
}
330
74
100
AcDbEntity
  8
0
  6
Continuous
 62
     2
100
AcDbCircle
 10
-212.6606242053176
 20
-244.2561375408927
 30
0.0
 40
0.4242446153833157
100
AcDbArc
 50
270.0
 51
0.0
  0
ARC
  5
1E5
102
{ACAD_REACTORS
330
227
330
228
102
}
330
74
100
AcDbEntity
  8
0
  6
Continuous
 62
     2
100
AcDbCircle
 10
-212.6606242053176
 20
-238.6916267716925
 30
0.0
 40
0.4242446153838841
100
AcDbArc
 50
0.0
 51
90.0
  0
ARC
  5
1E6
102
{ACAD_REACTORS
330
227
330
228
102
}
330
74
100
AcDbEntity
  8
0
  6
Continuous
 62
     2
100
AcDbCircle
 10
-218.1339362960344
 20
-238.6916267716925
 30
0.0
 40
0.4242446153837989
100
AcDbArc
 50
90.0
 51
180.0
  0
ARC
  5
1E7
102
{ACAD_REACTORS
330
227
330
228
102
}
330
74
100
AcDbEntity
  8
0
  6
Continuous
 62
     2
100
AcDbCircle
 10
-216.0642083582783
 20
-243.6521096776424
 30
0.0
 40
0.3157169230767067
100
AcDbArc
 50
270.0
 51
0.0
  0
ARC
  5
1E8
102
{ACAD_REACTORS
330
227
330
228
102
}
330
74
100
AcDbEntity
  8
0
  6
Continuous
 62
     2
100
AcDbCircle
 10
-216.0642083582783
 20
-239.8996792539858
 30
0.0
 40
0.315716923076146
100
AcDbArc
 50
295.1944106485375
 51
0.0
  0
ARC
  5
1E9
102
{ACAD_REACTORS
330
227
330
228
102
}
330
74
100
AcDbEntity
  8
0
  6
Continuous
 62
     2
100
AcDbCircle
 10
-216.0642083582783
 20
-239.2956546349253
 30
0.0
 40
0.3157169230766215
100
AcDbArc
 50
0.0
 51
90.0
  0
ARC
  5
1EA
102
{ACAD_REACTORS
330
227
330
228
102
}
330
74
100
AcDbEntity
  8
0
  6
Continuous
 62
     2
100
AcDbCircle
 10
-217.5400416192879
 20
-243.6521096776424
 30
0.0
 40
0.3157169230756836
100
AcDbArc
 50
180.0
 51
270.0
  0
ARC
  5
1EB
102
{ACAD_REACTORS
330
22D
330
22E
102
}
330
74
100
AcDbEntity
  8
0
  6
Continuous
 62
     2
100
AcDbCircle
 10
-209.7599905110325
 20
-239.3227477976242
 30
0.0
 40
1.055365641333708
100
AcDbArc
 50
270.0
 51
90.0
  0
ARC
  5
1EC
102
{ACAD_REACTORS
330
225
330
226
102
}
330
74
100
AcDbEntity
  8
0
  6
Continuous
 62
     2
100
AcDbCircle
 10
-194.0317771993414
 20
-243.0406870323359
 30
0.0
 40
1.639695123940413
100
AcDbArc
 50
195.0618917771005
 51
275.1581447696762
  0
ARC
  5
1ED
102
{ACAD_REACTORS
330
225
330
226
102
}
330
74
100
AcDbEntity
  8
0
  6
Continuous
 62
     2
100
AcDbCircle
 10
-194.3206332940772
 20
-239.8407964491143
 30
0.0
 40
4.85259686349885
100
AcDbArc
 50
275.158144769636
 51
285.9799912583383
  0
ARC
  5
1EE
102
{ACAD_REACTORS
330
225
330
226
102
}
330
74
100
AcDbEntity
  8
0
  6
Continuous
 62
     2
100
AcDbCircle
 10
-194.1627604189844
 20
-241.7430110289626
 30
0.0
 40
2.227384008972773
100
AcDbArc
 50
288.4480761181333
 51
301.9309089499387
  0
ARC
  5
1EF
102
{ACAD_REACTORS
330
225
330
226
102
}
330
74
100
AcDbEntity
  8
0
  6
Continuous
 62
     2
100
AcDbCircle
 10
-193.7445926853225
 20
-242.9965568049992
 30
0.0
 40
0.9059297849852801
100
AcDbArc
 50
246.6277221118183
 51
288.4480761180811
  0
ARC
  5
1F0
102
{ACAD_REACTORS
330
225
330
226
102
}
330
74
100
AcDbEntity
  8
0
  6
Continuous
 62
     2
100
AcDbCircle
 10
-193.5236754599442
 20
-243.1534773943707
 30
0.0
 40
0.9410597353348924
100
AcDbArc
 50
151.4785267423624
 51
208.5214732576695
  0
ARC
  5
1F1
102
{ACAD_REACTORS
330
225
330
226
102
}
330
74
100
AcDbEntity
  8
0
  6
Continuous
 62
     2
100
AcDbCircle
 10
-193.7543627199219
 20
-243.3663609454146
 30
0.0
 40
0.9545230068261219
100
AcDbArc
 50
90.0
 51
109.3371432194314
  0
ARC
  5
1F2
102
{ACAD_REACTORS
330
227
330
228
102
}
330
74
100
AcDbEntity
  8
0
  6
Continuous
 62
     2
100
AcDbCircle
 10
-214.9644929327562
 20
-239.2958321115734
 30
0.0
 40
0.3157169230760427
100
AcDbArc
 50
90.18896704254595
 51
180.0
  0
ARC
  5
1F3
102
{ACAD_REACTORS
330
227
330
228
102
}
330
74
100
AcDbEntity
  8
0
  6
Continuous
 62
     2
100
AcDbCircle
 10
-215.4905356308441
 20
-241.010509000048
 30
0.0
 40
0.9118481501444968
100
AcDbArc
 50
295.3740086781773
 51
64.62599132180586
  0
ARC
  5
1F4
102
{ACAD_REACTORS
330
223
330
224
102
}
330
74
100
AcDbEntity
  8
0
  6
Continuous
 62
     2
100
AcDbCircle
 10
-210.2654618982373
 20
-241.743011028962
 30
0.0
 40
2.227384008972773
100
AcDbArc
 50
288.4480761181333
 51
301.9309089499599
  0
ARC
  5
1F5
102
{ACAD_REACTORS
330
223
330
224
102
}
330
74
100
AcDbEntity
  8
0
  6
Continuous
 62
     2
100
AcDbCircle
 10
-209.8472941645765
 20
-242.9965568049992
 30
0.0
 40
0.9059297849849192
100
AcDbArc
 50
246.627722111871
 51
288.4480761181596
  0
ARC
  5
1F6
102
{ACAD_REACTORS
330
223
330
224
102
}
330
74
100
AcDbEntity
  8
0
  6
Continuous
 62
     2
100
AcDbCircle
 10
-210.0037341972785
 20
-243.3585488237092
 30
0.0
 40
0.5115800601948034
100
AcDbArc
 50
208.5214732576956
 51
246.6277221118232
  0
ARC
  5
1F7
102
{ACAD_REACTORS
330
223
330
224
102
}
330
74
100
AcDbEntity
  8
0
  6
Continuous
 62
     2
100
AcDbCircle
 10
-209.8472941645765
 20
-243.3103979837423
 30
0.0
 40
0.9059297849853318
100
AcDbArc
 50
71.55192388185178
 51
113.372277888129
  0
ARC
  5
1F8
102
{ACAD_REACTORS
330
223
330
224
102
}
330
74
100
AcDbEntity
  8
0
  6
Continuous
 62
     2
100
AcDbCircle
 10
-210.4233347733302
 20
-246.4661583396266
 30
0.0
 40
4.852596863498068
100
AcDbArc
 50
74.02000874164739
 51
84.84185523037506
  0
CIRCLE
  5
1F9
102
{ACAD_REACTORS
330
227
330
228
102
}
330
74
100
AcDbEntity
  8
0
  6
Continuous
 62
     2
100
AcDbCircle
 10
-215.5143506455169
 20
-241.010509000048
 30
0.0
 40
0.4709789327785074
  0
CIRCLE
  5
1FA
330
74
100
AcDbEntity
  8
1
  6
Continuous
 62
     2
100
AcDbCircle
 10
-210.0581809114172
 20
-230.8488821562924
 30
0.0
 40
1.249999999999886
  0
CIRCLE
  5
1FB
330
74
100
AcDbEntity
  8
1
  6
Continuous
 62
     2
100
AcDbCircle
 10
-210.0581809114172
 20
-230.8488821562924
 30
0.0
 40
2.5
  0
TEXT
  5
1FC
330
74
100
AcDbEntity
  8
1
 62
     7
100
AcDbText
 10
-167.421288075966
 20
-233.6738821562924
 30
0.0
 40
2.5
  1
/
 41
0.9
  7
CONVERTER_11
100
AcDbText
  0
TEXT
  5
1FE
330
74
100
AcDbEntity
  8
1
 62
     7
100
AcDbText
 10
-165.264923578924
 20
-233.6738821562924
 30
0.0
 40
2.5
  1
00
 41
0.81
  7
CONVERTER_12
100
AcDbText
  0
TEXT
  5
1FF
330
74
100
AcDbEntity
  8
1
 62
     3
100
AcDbText
 10
-127.6684395529069
 20
-233.6738821562924
 30
0.0
 40
2.5
  1
16.07.2015
 41
0.81
  7
CONVERTER_12
100
AcDbText
  0
MTEXT
  5
200
330
74
100
AcDbEntity
  8
1
 62
     2
100
AcDbMText
 10
-127.6684395529069
 20
-227.4738821562924
 30
0.0
 40
1.8
 41
0.0
 71
     1
 72
     1
  1
date
  7
CONVERTER_11
 73
     1
 44
1.32052821128451
  0
MTEXT
  5
201
330
74
100
AcDbEntity
  8
1
 62
     2
100
AcDbMText
 10
-157.4948357979798
 20
-235.9738821562924
 30
0.0
 40
1.8
 41
0.0
 71
     1
 72
     1
  1
document-type
  7
CONVERTER_11
 73
     1
 44
1.20048019207683
  0
TEXT
  5
202
330
74
100
AcDbEntity
  8
1
 62
     3
100
AcDbText
 10
-157.4948357979798
 20
-242.1738821562924
 30
0.0
 40
2.5
  1
Customer drawing select
 41
0.81
  7
CONVERTER_12
100
AcDbText
  0
MTEXT
  5
204
330
74
100
AcDbEntity
  8
1
 62
     2
100
AcDbMText
 10
-185.2948357979798
 20
-227.4738821562923
 30
0.0
 40
1.8
 41
0.0
 71
     1
 72
     1
  1
document-No. / RI
  7
CONVERTER_13
 73
     1
 44
1.32052821128451
  0
TEXT
  5
205
330
74
100
AcDbEntity
  8
1
 62
     7
100
AcDbText
 10
-185.2948357979798
 20
-233.6738821562924
 30
0.0
 40
2.5
  1
00883886
 41
0.81
  7
CONVERTER_12
100
AcDbText
  0
MTEXT
  5
207
330
74
100
AcDbEntity
  8
1
 62
     3
100
AcDbMText
 10
-97.70923541206746
 20
-233.6738821562922
 30
0.0
 40
2.5
 41
0.0
 71
     8
 72
     1
  1
5:1
  7
CONVERTER_14
 73
     1
 44
1.32052821128451
  0
MTEXT
  5
208
330
74
100
AcDbEntity
  8
1
 62
     2
100
AcDbMText
 10
-101.0684395529071
 20
-227.4738821562923
 30
0.0
 40
1.8
 41
0.0
 71
     1
 72
     1
  1
scale
  7
CONVERTER_11
 73
     1
 44
1.20048019207683
  0
MTEXT
  5
209
330
74
100
AcDbEntity
  8
1
 62
     2
100
AcDbMText
 10
-185.2948357979798
 20
-235.9738821562923
 30
0.0
 40
1.8
 41
0.0
 71
     1
 72
     1
  1
ident.-No.
  7
CONVERTER_11
 73
     1
 44
1.20048019207683
  0
TEXT
  5
20A
330
74
100
AcDbEntity
  8
1
 62
     7
100
AcDbText
 10
-184.8948357979801
 20
-242.1738821562924
 30
0.0
 40
2.5
  1
1701967
 41
0.81
  7
CONVERTER_12
100
AcDbText
  0
MTEXT
  5
20B
330
74
100
AcDbEntity
  8
1
 62
     2
100
AcDbMText
 10
-257.2328505230273
 20
-239.2238821562924
 30
0.0
 40
2.0
 41
0.0
 71
     5
 72
     1
  1
General Information\P- Simplified representation\P- Document excluded from change process\P- Linear dimensions [mm]
  7
CONVERTER_11
 73
     1
 44
1.20048019207683
  0
MTEXT
  5
20C
330
74
100
AcDbEntity
  8
1
 62
     7
100
AcDbMText
 10
-90.75003127123077
 20
-176.9738821562904
 30
0.0
 40
3.5
 41
0.0
 71
     5
 72
     1
  1
C
  7
CONVERTER_11
 73
     1
 44
1.20048019207683
  0
MTEXT
  5
20D
330
74
100
AcDbEntity
  8
1
 62
     7
100
AcDbMText
 10
-90.75003127123077
 20
-74.47388215629226
 30
0.0
 40
3.5
 41
0.0
 71
     5
 72
     1
  1
A
  7
CONVERTER_11
 73
     1
 44
1.20048019207683
  0
MTEXT
  5
20E
330
74
100
AcDbEntity
  8
1
 62
     7
100
AcDbMText
 10
-90.75003127123077
 20
-126.9738821562904
 30
0.0
 40
3.5
 41
0.0
 71
     5
 72
     1
  1
B
  7
CONVERTER_11
 73
     1
 44
1.20048019207683
  0
MTEXT
  5
20F
330
74
100
AcDbEntity
  8
1
 62
     7
100
AcDbMText
 10
-90.75003127123077
 20
-229.4738821562923
 30
0.0
 40
3.5
 41
0.0
 71
     5
 72
     1
  1
D
  7
CONVERTER_11
 73
     1
 44
1.20048019207683
  0
MTEXT
  5
210
330
74
100
AcDbEntity
  8
1
 62
     7
100
AcDbMText
 10
-361.0000312712293
 20
-254.4738821562924
 30
0.0
 40
3.5
 41
0.0
 71
     5
 72
     1
  1
1
  7
CONVERTER_11
 73
     1
 44
1.20048019207683
  0
MTEXT
  5
211
330
74
100
AcDbEntity
  8
1
 62
     7
100
AcDbMText
 10
-311.7500312712298
 20
-254.4738821562924
 30
0.0
 40
3.5
 41
0.0
 71
     5
 72
     1
  1
2
  7
CONVERTER_11
 73
     1
 44
1.20048019207683
  0
MTEXT
  5
212
330
74
100
AcDbEntity
  8
1
 62
     7
100
AcDbMText
 10
-261.7500312712298
 20
-254.4738821562924
 30
0.0
 40
3.5
 41
0.0
 71
     5
 72
     1
  1
3
  7
CONVERTER_11
 73
     1
 44
1.20048019207683
  0
MTEXT
  5
213
330
74
100
AcDbEntity
  8
1
 62
     7
100
AcDbMText
 10
-211.7500312712299
 20
-254.4738821562924
 30
0.0
 40
3.5
 41
0.0
 71
     5
 72
     1
  1
4
  7
CONVERTER_11
 73
     1
 44
1.20048019207683
  0
MTEXT
  5
214
330
74
100
AcDbEntity
  8
1
 62
     7
100
AcDbMText
 10
-161.7500312712298
 20
-254.4738821562924
 30
0.0
 40
3.5
 41
0.0
 71
     5
 72
     1
  1
5
  7
CONVERTER_11
 73
     1
 44
1.20048019207683
  0
MTEXT
  5
215
330
74
100
AcDbEntity
  8
1
 62
     7
100
AcDbMText
 10
-112.5000312712306
 20
-254.4738821562924
 30
0.0
 40
3.5
 41
0.0
 71
     5
 72
     1
  1
6
  7
CONVERTER_11
 73
     1
 44
1.20048019207683
  0
MTEXT
  5
216
330
74
100
AcDbEntity
  8
1
 62
     7
100
AcDbMText
 10
-382.7500312712289
 20
-74.47388215629226
 30
0.0
 40
3.5
 41
0.0
 71
     5
 72
     1
  1
A
  7
CONVERTER_11
 73
     1
 44
1.20048019207683
  0
MTEXT
  5
217
330
74
100
AcDbEntity
  8
1
 62
     7
100
AcDbMText
 10
-382.7500312712289
 20
-126.9738821562923
 30
0.0
 40
3.5
 41
0.0
 71
     5
 72
     1
  1
B
  7
CONVERTER_11
 73
     1
 44
1.20048019207683
  0
MTEXT
  5
218
330
74
100
AcDbEntity
  8
1
 62
     7
100
AcDbMText
 10
-382.7500312712289
 20
-176.9738821562923
 30
0.0
 40
3.5
 41
0.0
 71
     5
 72
     1
  1
C
  7
CONVERTER_11
 73
     1
 44
1.20048019207683
  0
MTEXT
  5
219
330
74
100
AcDbEntity
  8
1
 62
     7
100
AcDbMText
 10
-382.7500312712289
 20
-229.4738821562923
 30
0.0
 40
3.5
 41
0.0
 71
     5
 72
     1
  1
D
  7
CONVERTER_11
 73
     1
 44
1.20048019207683
  0
MTEXT
  5
21A
330
74
100
AcDbEntity
  8
1
 62
     3
100
AcDbMText
 10
-196.5948357979799
 20
-230.8488821562923
 30
0.0
 40
2.5
 41
0.0
 71
     5
 72
     1
  1
DIN A4
  7
CONVERTER_11
 73
     1
 44
1.20048019207683
  0
MTEXT
  5
21B
330
74
100
AcDbEntity
  8
1
 62
     2
100
AcDbMText
 10
-185.3948357979799
 20
-244.4738821562923
 30
0.0
 40
1.8
 41
0.0
 71
     1
 72
     1
  1
description
  7
CONVERTER_11
 73
     1
 44
1.20048019207683
  0
MTEXT
  5
21C
330
74
100
AcDbEntity
  8
1
 62
     7
100
AcDbMText
 10
-139.8224335346043
 20
-248.723882156292
 30
0.0
 40
3.0
 41
0.0
 71
     5
 72
     1
  1
CP-PC RD
  7
CONVERTER_12
 73
     1
 44
1.20048019207683
  0
TEXT
  5
21D
330
74
100
AcDbEntity
  8
1
 62
     2
100
AcDbText
 10
-198.3595269881663
 20
-250.7238821562924
 30
0.0
 40
1.8
  1
1
 41
0.9
  7
CONVERTER_11
100
AcDbText
  0
TEXT
  5
21E
330
74
100
AcDbEntity
  8
1
 62
     2
100
AcDbText
 10
-213.1485708276378
 20
-250.7731308100943
 30
0.0
 40
1.8
  1
1
 41
0.9
  7
CONVERTER_11
100
AcDbText
  0
TEXT
  5
21F
330
74
100
AcDbEntity
  8
1
 62
     2
100
AcDbText
 10
-221.7948357979798
 20
-250.7328993712839
 30
0.0
 40
1.8
  1
page
 41
0.9
  7
CONVERTER_11
100
AcDbText
  0
TEXT
  5
220
330
74
100
AcDbEntity
  8
1
 62
     2
100
AcDbText
 10
-203.59483579798
 20
-250.7328993712839
 30
0.0
 40
1.8
  1
of
 41
0.9
  7
CONVERTER_11
100
AcDbText
  0
MTEXT
  5
221
330
74
100
AcDbEntity
  8
1
 62
     3
100
AcDbMText
 10
-197.3918536463699
 20
-65.18257400099347
 30
0.0
 40
1.8
 41
0.0
 71
     7
 72
     1
  3
Transfer or duplication of this document as well as the utilisation or\Pcommunication of its content are not permitted unless express consen\Pis granted. Violations give rise to claims for damages. All rights reserved\Pin case of patent, utility mod
  1
el or design patent registrations.
  7
CONVERTER_11
 73
     1
 44
0.99639855942377
  0
MTEXT
  5
222
330
74
100
AcDbEntity
  8
1
 62
     3
100
AcDbMText
 10
-380.244963485158
 20
-65.18257400099347
 30
0.0
 40
1.8
 41
0.0
 71
     7
 72
     1
  3
Weitergabe sowie Vervielf\U+00e4ltigung dieses Dokuments, Verwertung und \PMitteilung seines Inhalts sind verboten, soweit nicht ausdr\U+00fccklich gestattet. \PZuwiderhandlungen verpflichten zu Schadenersatz. Alle Rechte f\U+00fcr den Fall\Pder Pat
  1
ent-, Gebrauchsmuster- oder Designeintragung vorbehalten.
  7
CONVERTER_11
 73
     1
 44
0.99639855942377
  0
HATCH
  5
223
330
74
100
AcDbEntity
  8
1
  6
Continuous
 62
     2
100
AcDbHatch
 10
0.0
 20
0.0
 30
0.0
210
0.0
220
0.0
230
1.0
  2
_USER
 70
     0
 71
     1
 91
        1
 92
        1
 93
       14
 72
     2
 10
-210.5536065220571
 20
-243.1534773943707
 40
1.205656168390964
 50
164.9381082228781
 51
195.0618917770945
 73
     1
 72
     2
 10
-210.1344786785943
 20
-243.0406870323359
 40
1.639695123939408
 50
195.0618917770884
 51
275.1581447696396
 73
     1
 72
     2
 10
-210.4233347733302
 20
-239.8407964491143
 40
4.852596863498138
 50
275.1581447696249
 51
285.9799912583529
 73
     1
 72
     1
 10
-209.0874068562124
 20
-244.5058787549151
 11
-209.0874068562124
 21
-243.6333617481119
 72
     2
 10
-210.2654618982373
 20
-241.743011028962
 40
2.227384008972773
 50
58.06909105004009
 51
71.55192388186677
 73
     0
 72
     2
 10
-209.8472941645765
 20
-242.9965568049992
 40
0.9059297849849192
 50
71.55192388184041
 51
113.372277888129
 73
     0
 72
     2
 10
-210.0037341972785
 20
-243.3585488237092
 40
0.5115800601948034
 50
113.3722778881768
 51
151.4785267423044
 73
     0
 72
     2
 10
-209.6263769391982
 20
-243.1534773943707
 40
0.9410597353332545
 50
151.4785267422927
 51
208.5214732577331
 73
     0
 72
     2
 10
-210.0037341972785
 20
-242.9484059650317
 40
0.5115800601948891
 50
208.5214732576956
 51
246.627722111798
 73
     0
 72
     2
 10
-209.8472941645765
 20
-243.3103979837423
 40
0.9059297849853318
 50
246.627722111871
 51
288.4480761181483
 73
     0
 72
     2
 10
-210.2654618982373
 20
-244.5639437597789
 40
2.227384008973517
 50
288.4480761181333
 51
301.9309089499595
 73
     0
 72
     1
 10
-209.0874068562124
 20
-242.673593040629
 11
-209.0874068562124
 21
-241.8010760338257
 72
     2
 10
-210.4233347733302
 20
-246.4661583396266
 40
4.852596863498068
 50
74.02000874164739
 51
84.84185523037506
 73
     1
 72
     2
 10
-210.1344786785943
 20
-243.2662677564056
 40
1.639695123940507
 50
84.84185523036236
 51
164.9381082228877
 73
     1
 97
       14
330
1F8
330
111
330
1C7
330
1F7
330
1C8
330
1C9
330
1F6
330
1F5
330
1F4
330
112
330
1CA
330
1CB
330
1CC
330
1CD
 75
     1
 76
     0
 52
45.0
 41
0.1
 77
     0
 78
     1
 53
45.0
 43
0.0
 44
0.0
 45
-0.0707106781186548
 46
0.0707106781186548
 79
     0
 98
        1
 10
0.0
 20
0.0
  0
HATCH
  5
224
330
74
100
AcDbEntity
  8
1
  6
Continuous
 62
     2
100
AcDbHatch
 10
0.0
 20
0.0
 30
0.0
210
0.0
220
0.0
230
1.0
  2
_USER
 70
     0
 71
     1
 91
        1
 92
        1
 93
       14
 72
     2
 10
-210.5536065220571
 20
-243.1534773943707
 40
1.205656168390964
 50
164.9381082228781
 51
195.0618917770945
 73
     1
 72
     2
 10
-210.1344786785943
 20
-243.0406870323359
 40
1.639695123939408
 50
195.0618917770884
 51
275.1581447696396
 73
     1
 72
     2
 10
-210.4233347733302
 20
-239.8407964491143
 40
4.852596863498138
 50
275.1581447696249
 51
285.9799912583529
 73
     1
 72
     1
 10
-209.0874068562124
 20
-244.5058787549151
 11
-209.0874068562124
 21
-243.6333617481119
 72
     2
 10
-210.2654618982373
 20
-241.743011028962
 40
2.227384008972773
 50
58.06909105004009
 51
71.55192388186677
 73
     0
 72
     2
 10
-209.8472941645765
 20
-242.9965568049992
 40
0.9059297849849192
 50
71.55192388184041
 51
113.372277888129
 73
     0
 72
     2
 10
-210.0037341972785
 20
-243.3585488237092
 40
0.5115800601948034
 50
113.3722778881768
 51
151.4785267423044
 73
     0
 72
     2
 10
-209.6263769391982
 20
-243.1534773943707
 40
0.9410597353332545
 50
151.4785267422927
 51
208.5214732577331
 73
     0
 72
     2
 10
-210.0037341972785
 20
-242.9484059650317
 40
0.5115800601948891
 50
208.5214732576956
 51
246.627722111798
 73
     0
 72
     2
 10
-209.8472941645765
 20
-243.3103979837423
 40
0.9059297849853318
 50
246.627722111871
 51
288.4480761181483
 73
     0
 72
     2
 10
-210.2654618982373
 20
-244.5639437597789
 40
2.227384008973517
 50
288.4480761181333
 51
301.9309089499595
 73
     0
 72
     1
 10
-209.0874068562124
 20
-242.673593040629
 11
-209.0874068562124
 21
-241.8010760338257
 72
     2
 10
-210.4233347733302
 20
-246.4661583396266
 40
4.852596863498068
 50
74.02000874164739
 51
84.84185523037506
 73
     1
 72
     2
 10
-210.1344786785943
 20
-243.2662677564056
 40
1.639695123940507
 50
84.84185523036236
 51
164.9381082228877
 73
     1
 97
       14
330
1F8
330
111
330
1C7
330
1F7
330
1C8
330
1C9
330
1F6
330
1F5
330
1F4
330
112
330
1CA
330
1CB
330
1CC
330
1CD
 75
     1
 76
     0
 52
45.0
 41
0.1
 77
     0
 78
     1
 53
45.0
 43
0.0
 44
0.0
 45
-0.0707106781186548
 46
0.0707106781186548
 79
     0
 98
        1
 10
0.0
 20
0.0
  0
HATCH
  5
225
330
74
100
AcDbEntity
  8
1
  6
Continuous
 62
     2
100
AcDbHatch
 10
0.0
 20
0.0
 30
0.0
210
0.0
220
0.0
230
1.0
  2
_USER
 70
     0
 71
     1
 91
        1
 92
        1
 93
       18
 72
     2
 10
-194.0317771993414
 20
-243.2662677564056
 40
1.639695123940186
 50
90.0
 51
164.9381082228957
 73
     1
 72
     2
 10
-194.450905042803
 20
-243.1534773943707
 40
1.205656168392995
 50
164.9381082229041
 51
195.0618917770959
 73
     1
 72
     2
 10
-194.0317771993414
 20
-243.0406870323359
 40
1.639695123940413
 50
195.0618917771005
 51
275.1581447696762
 73
     1
 72
     2
 10
-194.3206332940772
 20
-239.8407964491143
 40
4.85259686349885
 50
275.158144769636
 51
285.9799912583383
 73
     1
 72
     1
 10
-192.9847053769605
 20
-244.5058787549157
 11
-192.9847053769605
 21
-243.6333617481124
 72
     2
 10
-194.1627604189844
 20
-241.7430110289626
 40
2.227384008972773
 50
58.06909105006127
 51
71.55192388186677
 73
     0
 72
     2
 10
-193.7445926853225
 20
-242.9965568049992
 40
0.9059297849852801
 50
71.55192388191882
 51
113.3722778881817
 73
     0
 72
     2
 10
-193.9010327180256
 20
-243.3585488237092
 40
0.511580060196008
 50
113.3722778881563
 51
151.4785267423162
 73
     0
 72
     2
 10
-193.5236754599442
 20
-243.1534773943707
 40
0.9410597353348924
 50
151.4785267423305
 51
208.5214732576376
 73
     0
 72
     2
 10
-193.9010327180256
 20
-242.9484059650317
 40
0.5115800601944143
 50
208.5214732575775
 51
250.6628567805147
 73
     0
 72
     2
 10
-193.7543627199219
 20
-243.3663609454146
 40
0.9545230068261219
 50
250.6628567805685
 51
270.0
 73
     0
 72
     1
 10
-193.7543627199219
 20
-242.4118379385885
 11
-192.6507234203538
 21
-242.4118379385885
 72
     1
 10
-192.6507234203538
 20
-242.4118379385885
 11
-192.6507234203538
 21
-244.680382156276
 72
     1
 10
-192.6507234203538
 20
-244.680382156276
 11
-191.4579307181861
 21
-244.680382156276
 72
     1
 10
-191.4579307181861
 20
-244.680382156276
 11
-191.4579307181861
 21
-242.4118379385885
 72
     1
 10
-191.4579307181861
 20
-242.4118379385885
 11
-190.6468316807127
 21
-242.4118379385885
 72
     1
 10
-190.6468316807127
 20
-242.4118379385885
 11
-190.6468316807127
 21
-241.6265726324649
 72
     1
 10
-190.6468316807127
 20
-241.6265726324649
 11
-194.0317771993414
 21
-241.6265726324654
 97
       18
330
177
330
176
330
175
330
174
330
179
330
113
330
1F1
330
1D2
330
1F0
330
1D3
330
1EF
330
1EE
330
114
330
1ED
330
1EC
330
1D4
330
1D5
330
178
 75
     1
 76
     0
 52
45.0
 41
0.1
 77
     0
 78
     1
 53
45.0
 43
0.0
 44
0.0
 45
-0.0707106781186548
 46
0.0707106781186548
 79
     0
 98
        1
 10
0.0
 20
0.0
  0
HATCH
  5
226
330
74
100
AcDbEntity
  8
1
  6
Continuous
 62
     2
100
AcDbHatch
 10
0.0
 20
0.0
 30
0.0
210
0.0
220
0.0
230
1.0
  2
_USER
 70
     0
 71
     1
 91
        1
 92
        1
 93
       18
 72
     2
 10
-194.0317771993414
 20
-243.2662677564056
 40
1.639695123940186
 50
90.0
 51
164.9381082228957
 73
     1
 72
     2
 10
-194.450905042803
 20
-243.1534773943707
 40
1.205656168392995
 50
164.9381082229041
 51
195.0618917770959
 73
     1
 72
     2
 10
-194.0317771993414
 20
-243.0406870323359
 40
1.639695123940413
 50
195.0618917771005
 51
275.1581447696762
 73
     1
 72
     2
 10
-194.3206332940772
 20
-239.8407964491143
 40
4.85259686349885
 50
275.158144769636
 51
285.9799912583383
 73
     1
 72
     1
 10
-192.9847053769605
 20
-244.5058787549157
 11
-192.9847053769605
 21
-243.6333617481124
 72
     2
 10
-194.1627604189844
 20
-241.7430110289626
 40
2.227384008972773
 50
58.06909105006127
 51
71.55192388186677
 73
     0
 72
     2
 10
-193.7445926853225
 20
-242.9965568049992
 40
0.9059297849852801
 50
71.55192388191882
 51
113.3722778881817
 73
     0
 72
     2
 10
-193.9010327180256
 20
-243.3585488237092
 40
0.511580060196008
 50
113.3722778881563
 51
151.4785267423162
 73
     0
 72
     2
 10
-193.5236754599442
 20
-243.1534773943707
 40
0.9410597353348924
 50
151.4785267423305
 51
208.5214732576376
 73
     0
 72
     2
 10
-193.9010327180256
 20
-242.9484059650317
 40
0.5115800601944143
 50
208.5214732575775
 51
250.6628567805147
 73
     0
 72
     2
 10
-193.7543627199219
 20
-243.3663609454146
 40
0.9545230068261219
 50
250.6628567805685
 51
270.0
 73
     0
 72
     1
 10
-193.7543627199219
 20
-242.4118379385885
 11
-192.6507234203538
 21
-242.4118379385885
 72
     1
 10
-192.6507234203538
 20
-242.4118379385885
 11
-192.6507234203538
 21
-244.680382156276
 72
     1
 10
-192.6507234203538
 20
-244.680382156276
 11
-191.4579307181861
 21
-244.680382156276
 72
     1
 10
-191.4579307181861
 20
-244.680382156276
 11
-191.4579307181861
 21
-242.4118379385885
 72
     1
 10
-191.4579307181861
 20
-242.4118379385885
 11
-190.6468316807127
 21
-242.4118379385885
 72
     1
 10
-190.6468316807127
 20
-242.4118379385885
 11
-190.6468316807127
 21
-241.6265726324649
 72
     1
 10
-190.6468316807127
 20
-241.6265726324649
 11
-194.0317771993414
 21
-241.6265726324654
 97
       18
330
177
330
176
330
175
330
174
330
179
330
113
330
1F1
330
1D2
330
1F0
330
1D3
330
1EF
330
1EE
330
114
330
1ED
330
1EC
330
1D4
330
1D5
330
178
 75
     1
 76
     0
 52
45.0
 41
0.1
 77
     0
 78
     1
 53
45.0
 43
0.0
 44
0.0
 45
-0.0707106781186548
 46
0.0707106781186548
 79
     0
 98
        1
 10
0.0
 20
0.0
  0
HATCH
  5
227
330
74
100
AcDbEntity
  8
1
  6
Continuous
 62
     2
100
AcDbHatch
 10
0.0
 20
0.0
 30
0.0
210
0.0
220
0.0
230
1.0
  2
_USER
 70
     0
 71
     1
 91
        4
 92
        1
 93
        8
 72
     2
 10
-218.1339362960344
 20
-238.6916267716925
 40
0.4242446153837989
 50
90.0
 51
180.0
 73
     1
 72
     1
 10
-218.5581809114172
 20
-238.6916267716925
 11
-218.5581809114172
 21
-244.2561375408927
 72
     2
 10
-218.1339362960344
 20
-244.2561375408927
 40
0.4242446153828041
 50
180.0
 51
270.0
 73
     1
 72
     1
 10
-218.1339362960344
 20
-244.680382156276
 11
-212.6606242053176
 21
-244.680382156276
 72
     2
 10
-212.6606242053176
 20
-244.2561375408927
 40
0.4242446153833157
 50
270.0
 51
360.0
 73
     1
 72
     1
 10
-212.2363795899337
 20
-244.2561375408927
 11
-212.2363795899337
 21
-238.6916267716925
 72
     2
 10
-212.6606242053176
 20
-238.6916267716925
 40
0.4242446153838841
 50
0.0
 51
90.0
 73
     1
 72
     1
 10
-212.6606242053176
 20
-238.2673821563087
 11
-218.1339362960344
 21
-238.2673821563087
 97
        8
330
1E5
330
142
330
1E4
330
143
330
1DB
330
140
330
1E6
330
141
 92
       16
 93
        1
 72
     2
 10
-215.5143506455169
 20
-241.010509000048
 40
0.4709789327785074
 50
0.0
 51
360.0
 73
     1
 97
        1
330
1F9
 92
       16
 93
        8
 72
     2
 10
-215.4905356308441
 20
-241.010509000048
 40
0.9118481501444968
 50
295.3740086781773
 51
424.6259913218059
 73
     1
 72
     2
 10
-214.9644929327562
 20
-239.9013674000802
 40
0.315716923076792
 50
115.3740086783541
 51
180.0
 73
     0
 72
     1
 10
-215.280209855833
 20
-239.9013674000802
 11
-215.280209855833
 21
-239.2958321115734
 72
     2
 10
-214.9644929327562
 20
-239.2958321115734
 40
0.3157169230760427
 50
180.0
 51
269.8110329574541
 73
     0
 72
     2
 10
-214.9588767974462
 20
-240.9986670591425
 40
2.018561131933266
 50
269.8110329575866
 51
450.1889670424133
 73
     0
 72
     2
 10
-214.9644929327562
 20
-242.7015020067115
 40
0.315716923076792
 50
90.1889670425459
 51
180.0
 73
     0
 72
     1
 10
-215.280209855833
 20
-242.7015020067115
 11
-215.280209855833
 21
-242.1196506000164
 72
     2
 10
-214.9644929327562
 20
-242.1196506000164
 40
0.3157169230765071
 50
180.0
 51
244.6259913216459
 73
     0
 97
        8
330
1F3
330
1CF
330
17B
330
1F2
330
1D0
330
1D1
330
17A
330
1CE
 92
       16
 93
       12
 72
     1
 10
-217.5400416192879
 20
-243.9678266007191
 11
-216.0642083582783
 21
-243.9678266007191
 72
     2
 10
-216.0642083582783
 20
-243.6521096776424
 40
0.3157169230767067
 50
270.0
 51
360.0
 73
     1
 72
     1
 10
-215.7484914352017
 20
-243.6521096776424
 11
-215.7484914352017
 21
-242.1213387461108
 72
     2
 10
-216.0642083582783
 20
-242.1213387461108
 40
0.3157169230766215
 50
0.0
 51
64.80558935146249
 73
     1
 72
     2
 10
-215.5416239107033
 20
-241.010509000048
 40
0.911897523557601
 50
115.1944106485139
 51
244.8055893514694
 73
     0
 72
     2
 10
-216.0642083582783
 20
-239.8996792539858
 40
0.315716923076146
 50
295.1944106485375
 51
360.0
 73
     1
 72
     1
 10
-215.7484914352017
 20
-239.8996792539858
 11
-215.7484914352017
 21
-239.2956546349253
 72
     2
 10
-216.0642083582783
 20
-239.2956546349253
 40
0.3157169230766215
 50
0.0
 51
90.0
 73
     1
 72
     1
 10
-216.0642083582783
 20
-238.9799377118491
 11
-217.5400416192879
 21
-238.9799377118491
 72
     2
 10
-217.5400416192879
 20
-239.2956546349253
 40
0.3157169230762236
 50
90.0
 51
180.0
 73
     1
 72
     1
 10
-217.8557585423636
 20
-239.2956546349253
 11
-217.8557585423636
 21
-243.6521096776424
 72
     2
 10
-217.5400416192879
 20
-243.6521096776424
 40
0.3157169230756836
 50
180.0
 51
270.0
 73
     1
 97
       12
330
147
330
1D8
330
146
330
1E9
330
145
330
1E8
330
1D9
330
1DA
330
144
330
1E7
330
13F
330
1EA
 75
     1
 76
     0
 52
45.0
 41
0.1
 77
     0
 78
     1
 53
45.0
 43
0.0
 44
0.0
 45
-0.0707106781186548
 46
0.0707106781186548
 79
     0
 98
        1
 10
0.0
 20
0.0
  0
HATCH
  5
228
330
74
100
AcDbEntity
  8
1
  6
Continuous
 62
     2
100
AcDbHatch
 10
0.0
 20
0.0
 30
0.0
210
0.0
220
0.0
230
1.0
  2
_USER
 70
     0
 71
     1
 91
        4
 92
        1
 93
        8
 72
     2
 10
-218.1339362960344
 20
-238.6916267716925
 40
0.4242446153837989
 50
90.0
 51
180.0
 73
     1
 72
     1
 10
-218.5581809114172
 20
-238.6916267716925
 11
-218.5581809114172
 21
-244.2561375408927
 72
     2
 10
-218.1339362960344
 20
-244.2561375408927
 40
0.4242446153828041
 50
180.0
 51
270.0
 73
     1
 72
     1
 10
-218.1339362960344
 20
-244.680382156276
 11
-212.6606242053176
 21
-244.680382156276
 72
     2
 10
-212.6606242053176
 20
-244.2561375408927
 40
0.4242446153833157
 50
270.0
 51
360.0
 73
     1
 72
     1
 10
-212.2363795899337
 20
-244.2561375408927
 11
-212.2363795899337
 21
-238.6916267716925
 72
     2
 10
-212.6606242053176
 20
-238.6916267716925
 40
0.4242446153838841
 50
0.0
 51
90.0
 73
     1
 72
     1
 10
-212.6606242053176
 20
-238.2673821563087
 11
-218.1339362960344
 21
-238.2673821563087
 97
        8
330
1E5
330
142
330
1E4
330
143
330
1DB
330
140
330
1E6
330
141
 92
       16
 93
        1
 72
     2
 10
-215.5143506455169
 20
-241.010509000048
 40
0.4709789327785074
 50
0.0
 51
360.0
 73
     1
 97
        1
330
1F9
 92
       16
 93
        8
 72
     2
 10
-215.4905356308441
 20
-241.010509000048
 40
0.9118481501444968
 50
295.3740086781773
 51
424.6259913218059
 73
     1
 72
     2
 10
-214.9644929327562
 20
-239.9013674000802
 40
0.315716923076792
 50
115.3740086783541
 51
180.0
 73
     0
 72
     1
 10
-215.280209855833
 20
-239.9013674000802
 11
-215.280209855833
 21
-239.2958321115734
 72
     2
 10
-214.9644929327562
 20
-239.2958321115734
 40
0.3157169230760427
 50
180.0
 51
269.8110329574541
 73
     0
 72
     2
 10
-214.9588767974462
 20
-240.9986670591425
 40
2.018561131933266
 50
269.8110329575866
 51
450.1889670424133
 73
     0
 72
     2
 10
-214.9644929327562
 20
-242.7015020067115
 40
0.315716923076792
 50
90.1889670425459
 51
180.0
 73
     0
 72
     1
 10
-215.280209855833
 20
-242.7015020067115
 11
-215.280209855833
 21
-242.1196506000164
 72
     2
 10
-214.9644929327562
 20
-242.1196506000164
 40
0.3157169230765071
 50
180.0
 51
244.6259913216459
 73
     0
 97
        8
330
1F3
330
1CF
330
17B
330
1F2
330
1D0
330
1D1
330
17A
330
1CE
 92
       16
 93
       12
 72
     1
 10
-217.5400416192879
 20
-243.9678266007191
 11
-216.0642083582783
 21
-243.9678266007191
 72
     2
 10
-216.0642083582783
 20
-243.6521096776424
 40
0.3157169230767067
 50
270.0
 51
360.0
 73
     1
 72
     1
 10
-215.7484914352017
 20
-243.6521096776424
 11
-215.7484914352017
 21
-242.1213387461108
 72
     2
 10
-216.0642083582783
 20
-242.1213387461108
 40
0.3157169230766215
 50
0.0
 51
64.80558935146249
 73
     1
 72
     2
 10
-215.5416239107033
 20
-241.010509000048
 40
0.911897523557601
 50
115.1944106485139
 51
244.8055893514694
 73
     0
 72
     2
 10
-216.0642083582783
 20
-239.8996792539858
 40
0.315716923076146
 50
295.1944106485375
 51
360.0
 73
     1
 72
     1
 10
-215.7484914352017
 20
-239.8996792539858
 11
-215.7484914352017
 21
-239.2956546349253
 72
     2
 10
-216.0642083582783
 20
-239.2956546349253
 40
0.3157169230766215
 50
0.0
 51
90.0
 73
     1
 72
     1
 10
-216.0642083582783
 20
-238.9799377118491
 11
-217.5400416192879
 21
-238.9799377118491
 72
     2
 10
-217.5400416192879
 20
-239.2956546349253
 40
0.3157169230762236
 50
90.0
 51
180.0
 73
     1
 72
     1
 10
-217.8557585423636
 20
-239.2956546349253
 11
-217.8557585423636
 21
-243.6521096776424
 72
     2
 10
-217.5400416192879
 20
-243.6521096776424
 40
0.3157169230756836
 50
180.0
 51
270.0
 73
     1
 97
       12
330
147
330
1D8
330
146
330
1E9
330
145
330
1E8
330
1D9
330
1DA
330
144
330
1E7
330
13F
330
1EA
 75
     1
 76
     0
 52
45.0
 41
0.1
 77
     0
 78
     1
 53
45.0
 43
0.0
 44
0.0
 45
-0.0707106781186548
 46
0.0707106781186548
 79
     0
 98
        1
 10
0.0
 20
0.0
  0
HATCH
  5
229
330
74
100
AcDbEntity
  8
1
  6
Continuous
 62
     2
100
AcDbHatch
 10
0.0
 20
0.0
 30
0.0
210
0.0
220
0.0
230
1.0
  2
_USER
 70
     0
 71
     1
 91
        2
 92
        1
 93
       12
 72
     2
 10
-203.4587722920451
 20
-239.7942869181964
 40
1.526904761905911
 50
90.0
 51
270.0
 73
     1
 72
     1
 10
-203.4587722920451
 20
-241.3211916801017
 11
-200.3084525682641
 21
-241.3211916801017
 72
     1
 10
-200.3084525682641
 20
-241.3211916801017
 11
-200.3084525682641
 21
-240.6231780746592
 72
     1
 10
-200.3084525682641
 20
-240.6231780746592
 11
-201.6443803946918
 21
-240.6231780746592
 72
     1
 10
-201.6443803946918
 20
-240.6231780746592
 11
-201.6443803946918
 21
-240.1432937209175
 72
     1
 10
-201.6443803946918
 20
-240.1432937209175
 11
-200.3084525682641
 21
-240.1432937209175
 72
     1
 10
-200.3084525682641
 20
-240.1432937209175
 11
-200.3084525682641
 21
-239.4452801154752
 72
     1
 10
-200.3084525682641
 20
-239.4452801154752
 11
-201.6443803946918
 21
-239.4452801154752
 72
     1
 10
-201.6443803946918
 20
-239.4452801154752
 11
-201.6443803946918
 21
-238.9653957617335
 72
     1
 10
-201.6443803946918
 20
-238.9653957617335
 11
-200.3084525682641
 21
-238.9653957617335
 72
     1
 10
-200.3084525682641
 20
-238.9653957617335
 11
-200.3084525682641
 21
-238.2673821562905
 72
     1
 10
-200.3084525682641
 20
-238.2673821562905
 11
-203.4587722920451
 21
-238.2673821562905
 97
       12
330
136
330
130
330
157
330
156
330
155
330
154
330
131
330
132
330
133
330
134
330
1D6
330
135
 92
       16
 93
        4
 72
     2
 10
-203.0427602455336
 20
-239.7942869181964
 40
0.77179977867969
 50
141.8795802028388
 51
218.1204197971546
 73
     1
 72
     2
 10
-203.2425002818799
 20
-239.9510180963168
 40
0.5179085730134372
 50
218.1204197971511
 51
321.8795802028566
 73
     1
 72
     2
 10
-203.4422403182261
 20
-239.7942869181964
 40
0.7717997786796421
 50
321.8795802028467
 51
398.1204197971599
 73
     1
 72
     2
 10
-203.2425002818799
 20
-239.6375557400759
 40
0.5179085730135266
 50
38.12041979714334
 51
141.8795802028489
 73
     1
 97
        4
330
1E3
330
1E2
330
1DD
330
1DC
 75
     1
 76
     0
 52
45.0
 41
0.1
 77
     0
 78
     1
 53
45.0
 43
0.0
 44
0.0
 45
-0.0707106781186548
 46
0.0707106781186548
 79
     0
 98
        1
 10
0.0
 20
0.0
  0
HATCH
  5
22A
330
74
100
AcDbEntity
  8
1
  6
Continuous
 62
     2
100
AcDbHatch
 10
0.0
 20
0.0
 30
0.0
210
0.0
220
0.0
230
1.0
  2
_USER
 70
     0
 71
     1
 91
        2
 92
        1
 93
       12
 72
     2
 10
-203.4587722920451
 20
-239.7942869181964
 40
1.526904761905911
 50
90.0
 51
270.0
 73
     1
 72
     1
 10
-203.4587722920451
 20
-241.3211916801017
 11
-200.3084525682641
 21
-241.3211916801017
 72
     1
 10
-200.3084525682641
 20
-241.3211916801017
 11
-200.3084525682641
 21
-240.6231780746592
 72
     1
 10
-200.3084525682641
 20
-240.6231780746592
 11
-201.6443803946918
 21
-240.6231780746592
 72
     1
 10
-201.6443803946918
 20
-240.6231780746592
 11
-201.6443803946918
 21
-240.1432937209175
 72
     1
 10
-201.6443803946918
 20
-240.1432937209175
 11
-200.3084525682641
 21
-240.1432937209175
 72
     1
 10
-200.3084525682641
 20
-240.1432937209175
 11
-200.3084525682641
 21
-239.4452801154752
 72
     1
 10
-200.3084525682641
 20
-239.4452801154752
 11
-201.6443803946918
 21
-239.4452801154752
 72
     1
 10
-201.6443803946918
 20
-239.4452801154752
 11
-201.6443803946918
 21
-238.9653957617335
 72
     1
 10
-201.6443803946918
 20
-238.9653957617335
 11
-200.3084525682641
 21
-238.9653957617335
 72
     1
 10
-200.3084525682641
 20
-238.9653957617335
 11
-200.3084525682641
 21
-238.2673821562905
 72
     1
 10
-200.3084525682641
 20
-238.2673821562905
 11
-203.4587722920451
 21
-238.2673821562905
 97
       12
330
136
330
130
330
157
330
156
330
155
330
154
330
131
330
132
330
133
330
134
330
1D6
330
135
 92
       16
 93
        4
 72
     2
 10
-203.0427602455336
 20
-239.7942869181964
 40
0.77179977867969
 50
141.8795802028388
 51
218.1204197971546
 73
     1
 72
     2
 10
-203.2425002818799
 20
-239.9510180963168
 40
0.5179085730134372
 50
218.1204197971511
 51
321.8795802028566
 73
     1
 72
     2
 10
-203.4422403182261
 20
-239.7942869181964
 40
0.7717997786796421
 50
321.8795802028467
 51
398.1204197971599
 73
     1
 72
     2
 10
-203.2425002818799
 20
-239.6375557400759
 40
0.5179085730135266
 50
38.12041979714334
 51
141.8795802028489
 73
     1
 97
        4
330
1E3
330
1E2
330
1DD
330
1DC
 75
     1
 76
     0
 52
45.0
 41
0.1
 77
     0
 78
     1
 53
45.0
 43
0.0
 44
0.0
 45
-0.0707106781186548
 46
0.0707106781186548
 79
     0
 98
        1
 10
0.0
 20
0.0
  0
HATCH
  5
22B
330
74
100
AcDbEntity
  8
1
  6
Continuous
 62
     2
100
AcDbHatch
 10
0.0
 20
0.0
 30
0.0
210
0.0
220
0.0
230
1.0
  2
_USER
 70
     0
 71
     1
 91
        2
 92
        1
 93
        4
 72
     2
 10
-207.4843876545067
 20
-243.1534773943707
 40
1.458034083651503
 50
117.5481481756634
 51
242.4518518243366
 73
     1
 72
     2
 10
-207.2034477626734
 20
-242.6149023840674
 40
2.065479772208522
 50
242.4518518243395
 51
297.5481481756871
 73
     1
 72
     2
 10
-206.9225078708401
 20
-243.1534773943707
 40
1.458034083652003
 50
297.548148175701
 51
422.451851824299
 73
     1
 72
     2
 10
-207.2034477626734
 20
-243.6920524046735
 40
2.065479772208568
 50
62.45185182430637
 51
117.5481481756671
 73
     1
 97
        4
330
1E1
330
1DE
330
1E0
330
1DF
 92
       16
 93
        4
 72
     2
 10
-207.2034477626734
 20
-242.9967462162502
 40
0.5179085730132775
 50
38.12041979714898
 51
141.8795802028608
 73
     1
 72
     2
 10
-207.0037077263273
 20
-243.1534773943707
 40
0.7717997786794856
 50
141.8795802028376
 51
218.120419797169
 73
     1
 72
     2
 10
-207.2034477626734
 20
-243.3102085724907
 40
0.5179085730137754
 50
218.1204197971937
 51
321.8795802027966
 73
     1
 72
     2
 10
-207.4031877990198
 20
-243.1534773943707
 40
0.77179977867969
 50
321.8795802028388
 51
398.1204197971546
 73
     1
 97
        4
330
1C4
330
1C5
330
1C6
330
1C3
 75
     1
 76
     0
 52
45.0
 41
0.1
 77
     0
 78
     1
 53
45.0
 43
0.0
 44
0.0
 45
-0.0707106781186548
 46
0.0707106781186548
 79
     0
 98
        1
 10
0.0
 20
0.0
  0
HATCH
  5
22C
330
74
100
AcDbEntity
  8
1
  6
Continuous
 62
     2
100
AcDbHatch
 10
0.0
 20
0.0
 30
0.0
210
0.0
220
0.0
230
1.0
  2
_USER
 70
     0
 71
     1
 91
        2
 92
        1
 93
        4
 72
     2
 10
-207.4843876545067
 20
-243.1534773943707
 40
1.458034083651503
 50
117.5481481756634
 51
242.4518518243366
 73
     1
 72
     2
 10
-207.2034477626734
 20
-242.6149023840674
 40
2.065479772208522
 50
242.4518518243395
 51
297.5481481756871
 73
     1
 72
     2
 10
-206.9225078708401
 20
-243.1534773943707
 40
1.458034083652003
 50
297.548148175701
 51
422.451851824299
 73
     1
 72
     2
 10
-207.2034477626734
 20
-243.6920524046735
 40
2.065479772208568
 50
62.45185182430637
 51
117.5481481756671
 73
     1
 97
        4
330
1E1
330
1DE
330
1E0
330
1DF
 92
       16
 93
        4
 72
     2
 10
-207.2034477626734
 20
-242.9967462162502
 40
0.5179085730132775
 50
38.12041979714898
 51
141.8795802028608
 73
     1
 72
     2
 10
-207.0037077263273
 20
-243.1534773943707
 40
0.7717997786794856
 50
141.8795802028376
 51
218.120419797169
 73
     1
 72
     2
 10
-207.2034477626734
 20
-243.3102085724907
 40
0.5179085730137754
 50
218.1204197971937
 51
321.8795802027966
 73
     1
 72
     2
 10
-207.4031877990198
 20
-243.1534773943707
 40
0.77179977867969
 50
321.8795802028388
 51
398.1204197971546
 73
     1
 97
        4
330
1C4
330
1C5
330
1C6
330
1C3
 75
     1
 76
     0
 52
45.0
 41
0.1
 77
     0
 78
     1
 53
45.0
 43
0.0
 44
0.0
 45
-0.0707106781186548
 46
0.0707106781186548
 79
     0
 98
        1
 10
0.0
 20
0.0
  0
HATCH
  5
22D
330
74
100
AcDbEntity
  8
1
  6
Continuous
 62
     2
100
AcDbHatch
 10
0.0
 20
0.0
 30
0.0
210
0.0
220
0.0
230
1.0
  2
_USER
 70
     0
 71
     1
 91
        2
 92
        1
 93
        6
 72
     1
 10
-211.7592625090669
 20
-238.2673821562905
 11
-211.7592625090669
 21
-241.3211916801017
 72
     1
 10
-211.7592625090669
 20
-241.3211916801017
 11
-210.5187580988128
 21
-241.3211916801017
 72
     1
 10
-210.5187580988128
 20
-241.3211916801017
 11
-210.5187580988128
 21
-240.3781134389579
 72
     1
 10
-210.5187580988128
 20
-240.3781134389579
 11
-209.7599905110325
 21
-240.3781134389579
 72
     2
 10
-209.7599905110325
 20
-239.3227477976242
 40
1.055365641333708
 50
270.0
 51
450.0
 73
     1
 72
     1
 10
-209.7599905110325
 20
-238.2673821562905
 11
-211.7592625090669
 21
-238.2673821562905
 97
        6
330
1EB
330
148
330
13E
330
13D
330
14A
330
149
 92
       16
 93
        4
 72
     1
 10
-210.2014630372709
 20
-238.9304880017306
 11
-210.5187580988128
 21
-238.9304880017306
 72
     1
 10
-210.5187580988128
 20
-238.9304880017306
 11
-210.5187580988128
 21
-239.6362156510728
 72
     1
 10
-210.5187580988128
 20
-239.6362156510728
 11
-210.2014630372709
 21
-239.6362156510728
 72
     2
 10
-210.2014630372709
 20
-239.2833518264017
 40
0.3528638246710898
 50
270.0
 51
450.0
 73
     1
 97
        4
330
14B
330
13C
330
14C
330
1D7
 75
     1
 76
     0
 52
45.0
 41
0.1
 77
     0
 78
     1
 53
45.0
 43
0.0
 44
0.0
 45
-0.0707106781186548
 46
0.0707106781186548
 79
     0
 98
        1
 10
0.0
 20
0.0
  0
HATCH
  5
22E
330
74
100
AcDbEntity
  8
1
  6
Continuous
 62
     2
100
AcDbHatch
 10
0.0
 20
0.0
 30
0.0
210
0.0
220
0.0
230
1.0
  2
_USER
 70
     0
 71
     1
 91
        2
 92
        1
 93
        6
 72
     1
 10
-211.7592625090669
 20
-238.2673821562905
 11
-211.7592625090669
 21
-241.3211916801017
 72
     1
 10
-211.7592625090669
 20
-241.3211916801017
 11
-210.5187580988128
 21
-241.3211916801017
 72
     1
 10
-210.5187580988128
 20
-241.3211916801017
 11
-210.5187580988128
 21
-240.3781134389579
 72
     1
 10
-210.5187580988128
 20
-240.3781134389579
 11
-209.7599905110325
 21
-240.3781134389579
 72
     2
 10
-209.7599905110325
 20
-239.3227477976242
 40
1.055365641333708
 50
270.0
 51
450.0
 73
     1
 72
     1
 10
-209.7599905110325
 20
-238.2673821562905
 11
-211.7592625090669
 21
-238.2673821562905
 97
        6
330
1EB
330
148
330
13E
330
13D
330
14A
330
149
 92
       16
 93
        4
 72
     1
 10
-210.2014630372709
 20
-238.9304880017306
 11
-210.5187580988128
 21
-238.9304880017306
 72
     1
 10
-210.5187580988128
 20
-238.9304880017306
 11
-210.5187580988128
 21
-239.6362156510728
 72
     1
 10
-210.5187580988128
 20
-239.6362156510728
 11
-210.2014630372709
 21
-239.6362156510728
 72
     2
 10
-210.2014630372709
 20
-239.2833518264017
 40
0.3528638246710898
 50
270.0
 51
450.0
 73
     1
 97
        4
330
14B
330
13C
330
14C
330
1D7
 75
     1
 76
     0
 52
45.0
 41
0.1
 77
     0
 78
     1
 53
45.0
 43
0.0
 44
0.0
 45
-0.0707106781186548
 46
0.0707106781186548
 79
     0
 98
        1
 10
0.0
 20
0.0
  0
HATCH
  5
22F
330
74
100
AcDbEntity
  8
1
  6
Continuous
 62
     2
100
AcDbHatch
 10
0.0
 20
0.0
 30
0.0
210
0.0
220
0.0
230
1.0
  2
_USER
 70
     0
 71
     1
 91
        1
 92
        1
 93
       12
 72
     1
 10
-192.1449793146337
 20
-238.2673821562905
 11
-190.7422550968865
 21
-238.2673821562905
 72
     1
 10
-190.7422550968865
 20
-238.2673821562905
 11
-192.044784727653
 21
-239.7403326863267
 72
     1
 10
-192.044784727653
 20
-239.7403326863267
 11
-190.6468316807127
 21
-241.3211916801017
 72
     1
 10
-190.6468316807127
 20
-241.3211916801017
 11
-192.049555898461
 21
-241.3211916801017
 72
     1
 10
-192.049555898461
 20
-241.3211916801017
 11
-192.7461468365265
 21
-240.533459894808
 72
     1
 10
-192.7461468365265
 20
-240.533459894808
 11
-193.4427377745922
 21
-241.3211916801017
 72
     1
 10
-193.4427377745922
 20
-241.3211916801017
 11
-194.8454619923404
 21
-241.3211916801017
 72
     1
 10
-194.8454619923404
 20
-241.3211916801017
 11
-193.4475089454001
 21
-239.7403326863267
 72
     1
 10
-193.4475089454001
 20
-239.7403326863267
 11
-194.7500385761676
 21
-238.2673821562905
 72
     1
 10
-194.7500385761676
 20
-238.2673821562905
 11
-193.3473143584183
 21
-238.2673821562905
 72
     1
 10
-193.3473143584183
 20
-238.2673821562905
 11
-192.7461468365265
 21
-238.947205477846
 72
     1
 10
-192.7461468365265
 20
-238.947205477846
 11
-192.1449793146337
 21
-238.2673821562905
 97
       12
330
117
330
170
330
16F
330
16E
330
16D
330
118
330
119
330
115
330
116
330
173
330
172
330
171
 75
     1
 76
     0
 52
45.0
 41
0.1
 77
     0
 78
     1
 53
45.0
 43
0.0
 44
0.0
 45
-0.0707106781186548
 46
0.0707106781186548
 79
     0
 98
        1
 10
0.0
 20
0.0
  0
HATCH
  5
230
330
74
100
AcDbEntity
  8
1
  6
Continuous
 62
     2
100
AcDbHatch
 10
0.0
 20
0.0
 30
0.0
210
0.0
220
0.0
230
1.0
  2
_USER
 70
     0
 71
     1
 91
        1
 92
        1
 93
       12
 72
     1
 10
-192.1449793146337
 20
-238.2673821562905
 11
-190.7422550968865
 21
-238.2673821562905
 72
     1
 10
-190.7422550968865
 20
-238.2673821562905
 11
-192.044784727653
 21
-239.7403326863267
 72
     1
 10
-192.044784727653
 20
-239.7403326863267
 11
-190.6468316807127
 21
-241.3211916801017
 72
     1
 10
-190.6468316807127
 20
-241.3211916801017
 11
-192.049555898461
 21
-241.3211916801017
 72
     1
 10
-192.049555898461
 20
-241.3211916801017
 11
-192.7461468365265
 21
-240.533459894808
 72
     1
 10
-192.7461468365265
 20
-240.533459894808
 11
-193.4427377745922
 21
-241.3211916801017
 72
     1
 10
-193.4427377745922
 20
-241.3211916801017
 11
-194.8454619923404
 21
-241.3211916801017
 72
     1
 10
-194.8454619923404
 20
-241.3211916801017
 11
-193.4475089454001
 21
-239.7403326863267
 72
     1
 10
-193.4475089454001
 20
-239.7403326863267
 11
-194.7500385761676
 21
-238.2673821562905
 72
     1
 10
-194.7500385761676
 20
-238.2673821562905
 11
-193.3473143584183
 21
-238.2673821562905
 72
     1
 10
-193.3473143584183
 20
-238.2673821562905
 11
-192.7461468365265
 21
-238.947205477846
 72
     1
 10
-192.7461468365265
 20
-238.947205477846
 11
-192.1449793146337
 21
-238.2673821562905
 97
       12
330
117
330
170
330
16F
330
16E
330
16D
330
118
330
119
330
115
330
116
330
173
330
172
330
171
 75
     1
 76
     0
 52
45.0
 41
0.1
 77
     0
 78
     1
 53
45.0
 43
0.0
 44
0.0
 45
-0.0707106781186548
 46
0.0707106781186548
 79
     0
 98
        1
 10
0.0
 20
0.0
  0
HATCH
  5
231
330
74
100
AcDbEntity
  8
1
  6
Continuous
 62
     2
100
AcDbHatch
 10
0.0
 20
0.0
 30
0.0
210
0.0
220
0.0
230
1.0
  2
_USER
 70
     0
 71
     1
 91
        1
 92
        1
 93
        4
 72
     1
 10
-194.9647412625573
 20
-238.2673821562905
 11
-194.9647412625573
 21
-241.3211916801017
 72
     1
 10
-194.9647412625573
 20
-241.3211916801017
 11
-196.2052456728102
 21
-241.3211916801017
 72
     1
 10
-196.2052456728102
 20
-241.3211916801017
 11
-196.2052456728102
 21
-238.2673821562905
 72
     1
 10
-196.2052456728102
 20
-238.2673821562905
 11
-194.9647412625573
 21
-238.2673821562905
 97
        4
330
16B
330
11A
330
16A
330
16C
 75
     1
 76
     0
 52
45.0
 41
0.1
 77
     0
 78
     1
 53
45.0
 43
0.0
 44
0.0
 45
-0.0707106781186548
 46
0.0707106781186548
 79
     0
 98
        1
 10
0.0
 20
0.0
  0
HATCH
  5
232
330
74
100
AcDbEntity
  8
1
  6
Continuous
 62
     2
100
AcDbHatch
 10
0.0
 20
0.0
 30
0.0
210
0.0
220
0.0
230
1.0
  2
_USER
 70
     0
 71
     1
 91
        1
 92
        1
 93
        4
 72
     1
 10
-194.9647412625573
 20
-238.2673821562905
 11
-194.9647412625573
 21
-241.3211916801017
 72
     1
 10
-194.9647412625573
 20
-241.3211916801017
 11
-196.2052456728102
 21
-241.3211916801017
 72
     1
 10
-196.2052456728102
 20
-241.3211916801017
 11
-196.2052456728102
 21
-238.2673821562905
 72
     1
 10
-196.2052456728102
 20
-238.2673821562905
 11
-194.9647412625573
 21
-238.2673821562905
 97
        4
330
16B
330
11A
330
16A
330
16C
 75
     1
 76
     0
 52
45.0
 41
0.1
 77
     0
 78
     1
 53
45.0
 43
0.0
 44
0.0
 45
-0.0707106781186548
 46
0.0707106781186548
 79
     0
 98
        1
 10
0.0
 20
0.0
  0
HATCH
  5
233
330
74
100
AcDbEntity
  8
1
  6
Continuous
 62
     2
100
AcDbHatch
 10
0.0
 20
0.0
 30
0.0
210
0.0
220
0.0
230
1.0
  2
_USER
 70
     0
 71
     1
 91
        2
 92
        1
 93
        8
 72
     1
 10
-195.3551852660893
 20
-244.680382156276
 11
-196.5956896763432
 21
-244.680382156276
 72
     1
 10
-196.5956896763432
 20
-244.680382156276
 11
-196.807169729819
 21
-244.1394216120581
 72
     1
 10
-196.807169729819
 20
-244.1394216120581
 11
-197.9396113064928
 21
-244.1394216120581
 72
     1
 10
-197.9396113064928
 20
-244.1394216120581
 11
-198.1510913599686
 21
-244.680382156276
 72
     1
 10
-198.1510913599686
 20
-244.680382156276
 11
-199.3915957702216
 21
-244.680382156276
 72
     1
 10
-199.3915957702216
 20
-244.680382156276
 11
-197.9936427232823
 21
-241.6265726324649
 72
     1
 10
-197.9936427232823
 20
-241.6265726324649
 11
-196.7531383130296
 21
-241.6265726324649
 72
     1
 10
-196.7531383130296
 20
-241.6265726324649
 11
-195.3551852660893
 21
-244.680382156276
 97
        8
330
166
330
120
330
165
330
168
330
11D
330
167
330
11E
330
11F
 92
       16
 93
        3
 72
     1
 10
-197.6735557553478
 20
-243.4588583467515
 11
-197.0732252809653
 21
-243.4588583467515
 72
     1
 10
-197.0732252809653
 20
-243.4588583467515
 11
-197.3733905181554
 21
-242.6910433807648
 72
     1
 10
-197.3733905181554
 20
-242.6910433807648
 11
-197.6735557553478
 21
-243.4588583467515
 97
        3
330
11C
330
11B
330
169
 75
     1
 76
     0
 52
45.0
 41
0.1
 77
     0
 78
     1
 53
45.0
 43
0.0
 44
0.0
 45
-0.0707106781186548
 46
0.0707106781186548
 79
     0
 98
        1
 10
0.0
 20
0.0
  0
HATCH
  5
234
330
74
100
AcDbEntity
  8
1
  6
Continuous
 62
     2
100
AcDbHatch
 10
0.0
 20
0.0
 30
0.0
210
0.0
220
0.0
230
1.0
  2
_USER
 70
     0
 71
     1
 91
        2
 92
        1
 93
        8
 72
     1
 10
-195.3551852660893
 20
-244.680382156276
 11
-196.5956896763432
 21
-244.680382156276
 72
     1
 10
-196.5956896763432
 20
-244.680382156276
 11
-196.807169729819
 21
-244.1394216120581
 72
     1
 10
-196.807169729819
 20
-244.1394216120581
 11
-197.9396113064928
 21
-244.1394216120581
 72
     1
 10
-197.9396113064928
 20
-244.1394216120581
 11
-198.1510913599686
 21
-244.680382156276
 72
     1
 10
-198.1510913599686
 20
-244.680382156276
 11
-199.3915957702216
 21
-244.680382156276
 72
     1
 10
-199.3915957702216
 20
-244.680382156276
 11
-197.9936427232823
 21
-241.6265726324649
 72
     1
 10
-197.9936427232823
 20
-241.6265726324649
 11
-196.7531383130296
 21
-241.6265726324649
 72
     1
 10
-196.7531383130296
 20
-241.6265726324649
 11
-195.3551852660893
 21
-244.680382156276
 97
        8
330
166
330
120
330
165
330
168
330
11D
330
167
330
11E
330
11F
 92
       16
 93
        3
 72
     1
 10
-197.6735557553478
 20
-243.4588583467515
 11
-197.0732252809653
 21
-243.4588583467515
 72
     1
 10
-197.0732252809653
 20
-243.4588583467515
 11
-197.3733905181554
 21
-242.6910433807648
 72
     1
 10
-197.3733905181554
 20
-242.6910433807648
 11
-197.6735557553478
 21
-243.4588583467515
 97
        3
330
11C
330
11B
330
169
 75
     1
 76
     0
 52
45.0
 41
0.1
 77
     0
 78
     1
 53
45.0
 43
0.0
 44
0.0
 45
-0.0707106781186548
 46
0.0707106781186548
 79
     0
 98
        1
 10
0.0
 20
0.0
  0
HATCH
  5
235
330
74
100
AcDbEntity
  8
1
  6
Continuous
 62
     2
100
AcDbHatch
 10
0.0
 20
0.0
 30
0.0
210
0.0
220
0.0
230
1.0
  2
_USER
 70
     0
 71
     1
 91
        1
 92
        1
 93
        8
 72
     1
 10
-201.5491079094038
 20
-241.6265726324649
 11
-201.5491079094038
 21
-242.4118379385885
 72
     1
 10
-201.5491079094038
 20
-242.4118379385885
 11
-200.7380088719292
 21
-242.4118379385885
 72
     1
 10
-200.7380088719292
 20
-242.4118379385885
 11
-200.7380088719292
 21
-244.680382156276
 72
     1
 10
-200.7380088719292
 20
-244.680382156276
 11
-199.5452161697627
 21
-244.680382156276
 72
     1
 10
-199.5452161697627
 20
-244.680382156276
 11
-199.5452161697627
 21
-242.4118379385885
 72
     1
 10
-199.5452161697627
 20
-242.4118379385885
 11
-198.7341171322902
 21
-242.4118379385885
 72
     1
 10
-198.7341171322902
 20
-242.4118379385885
 11
-198.7341171322902
 21
-241.6265726324649
 72
     1
 10
-198.7341171322902
 20
-241.6265726324649
 11
-201.5491079094038
 21
-241.6265726324649
 97
        8
330
162
330
161
330
160
330
121
330
122
330
164
330
123
330
163
 75
     1
 76
     0
 52
45.0
 41
0.1
 77
     0
 78
     1
 53
45.0
 43
0.0
 44
0.0
 45
-0.0707106781186548
 46
0.0707106781186548
 79
     0
 98
        1
 10
0.0
 20
0.0
  0
HATCH
  5
236
330
74
100
AcDbEntity
  8
1
  6
Continuous
 62
     2
100
AcDbHatch
 10
0.0
 20
0.0
 30
0.0
210
0.0
220
0.0
230
1.0
  2
_USER
 70
     0
 71
     1
 91
        1
 92
        1
 93
        8
 72
     1
 10
-201.5491079094038
 20
-241.6265726324649
 11
-201.5491079094038
 21
-242.4118379385885
 72
     1
 10
-201.5491079094038
 20
-242.4118379385885
 11
-200.7380088719292
 21
-242.4118379385885
 72
     1
 10
-200.7380088719292
 20
-242.4118379385885
 11
-200.7380088719292
 21
-244.680382156276
 72
     1
 10
-200.7380088719292
 20
-244.680382156276
 11
-199.5452161697627
 21
-244.680382156276
 72
     1
 10
-199.5452161697627
 20
-244.680382156276
 11
-199.5452161697627
 21
-242.4118379385885
 72
     1
 10
-199.5452161697627
 20
-242.4118379385885
 11
-198.7341171322902
 21
-242.4118379385885
 72
     1
 10
-198.7341171322902
 20
-242.4118379385885
 11
-198.7341171322902
 21
-241.6265726324649
 72
     1
 10
-198.7341171322902
 20
-241.6265726324649
 11
-201.5491079094038
 21
-241.6265726324649
 97
        8
330
162
330
161
330
160
330
121
330
122
330
164
330
123
330
163
 75
     1
 76
     0
 52
45.0
 41
0.1
 77
     0
 78
     1
 53
45.0
 43
0.0
 44
0.0
 45
-0.0707106781186548
 46
0.0707106781186548
 79
     0
 98
        1
 10
0.0
 20
0.0
  0
HATCH
  5
237
330
74
100
AcDbEntity
  8
1
  6
Continuous
 62
     2
100
AcDbHatch
 10
0.0
 20
0.0
 30
0.0
210
0.0
220
0.0
230
1.0
  2
_USER
 70
     0
 71
     1
 91
        1
 92
        1
 93
       10
 72
     1
 10
-198.8771013256647
 20
-238.2673821562905
 11
-200.0698940278312
 21
-238.2673821562905
 72
     1
 10
-200.0698940278312
 20
-238.2673821562905
 11
-200.0698940278312
 21
-241.3211916801017
 72
     1
 10
-200.0698940278312
 20
-241.3211916801017
 11
-198.8771013256647
 21
-241.3211916801017
 72
     1
 10
-198.8771013256647
 20
-241.3211916801017
 11
-198.8771013256647
 21
-240.012416169897
 72
     1
 10
-198.8771013256647
 20
-240.012416169897
 11
-197.6365969154107
 21
-241.3211916801017
 72
     1
 10
-197.6365969154107
 20
-241.3211916801017
 11
-196.4438042132441
 21
-241.3211916801017
 72
     1
 10
-196.4438042132441
 20
-241.3211916801017
 11
-196.4438042132441
 21
-238.2673821562905
 72
     1
 10
-196.4438042132441
 20
-238.2673821562905
 11
-197.6365969154107
 21
-238.2673821562905
 72
     1
 10
-197.6365969154107
 20
-238.2673821562905
 11
-197.6365969154107
 21
-239.5761576664957
 72
     1
 10
-197.6365969154107
 20
-239.5761576664957
 11
-198.8771013256647
 21
-238.2673821562905
 97
       10
330
15C
330
126
330
127
330
128
330
129
330
15F
330
124
330
15E
330
15D
330
125
 75
     1
 76
     0
 52
45.0
 41
0.1
 77
     0
 78
     1
 53
45.0
 43
0.0
 44
0.0
 45
-0.0707106781186548
 46
0.0707106781186548
 79
     0
 98
        1
 10
0.0
 20
0.0
  0
HATCH
  5
238
330
74
100
AcDbEntity
  8
1
  6
Continuous
 62
     2
100
AcDbHatch
 10
0.0
 20
0.0
 30
0.0
210
0.0
220
0.0
230
1.0
  2
_USER
 70
     0
 71
     1
 91
        1
 92
        1
 93
       10
 72
     1
 10
-198.8771013256647
 20
-238.2673821562905
 11
-200.0698940278312
 21
-238.2673821562905
 72
     1
 10
-200.0698940278312
 20
-238.2673821562905
 11
-200.0698940278312
 21
-241.3211916801017
 72
     1
 10
-200.0698940278312
 20
-241.3211916801017
 11
-198.8771013256647
 21
-241.3211916801017
 72
     1
 10
-198.8771013256647
 20
-241.3211916801017
 11
-198.8771013256647
 21
-240.012416169897
 72
     1
 10
-198.8771013256647
 20
-240.012416169897
 11
-197.6365969154107
 21
-241.3211916801017
 72
     1
 10
-197.6365969154107
 20
-241.3211916801017
 11
-196.4438042132441
 21
-241.3211916801017
 72
     1
 10
-196.4438042132441
 20
-241.3211916801017
 11
-196.4438042132441
 21
-238.2673821562905
 72
     1
 10
-196.4438042132441
 20
-238.2673821562905
 11
-197.6365969154107
 21
-238.2673821562905
 72
     1
 10
-197.6365969154107
 20
-238.2673821562905
 11
-197.6365969154107
 21
-239.5761576664957
 72
     1
 10
-197.6365969154107
 20
-239.5761576664957
 11
-198.8771013256647
 21
-238.2673821562905
 97
       10
330
15C
330
126
330
127
330
128
330
129
330
15F
330
124
330
15E
330
15D
330
125
 75
     1
 76
     0
 52
45.0
 41
0.1
 77
     0
 78
     1
 53
45.0
 43
0.0
 44
0.0
 45
-0.0707106781186548
 46
0.0707106781186548
 79
     0
 98
        1
 10
0.0
 20
0.0
  0
HATCH
  5
239
330
74
100
AcDbEntity
  8
1
  6
Continuous
 62
     2
100
AcDbHatch
 10
0.0
 20
0.0
 30
0.0
210
0.0
220
0.0
230
1.0
  2
_USER
 70
     0
 71
     1
 91
        1
 92
        1
 93
       10
 72
     1
 10
-204.1255401460833
 20
-241.6265726324649
 11
-205.3183328482509
 21
-241.6265726324649
 72
     1
 10
-205.3183328482509
 20
-241.6265726324649
 11
-205.3183328482509
 21
-244.680382156276
 72
     1
 10
-205.3183328482509
 20
-244.680382156276
 11
-204.1255401460833
 21
-244.680382156276
 72
     1
 10
-204.1255401460833
 20
-244.680382156276
 11
-204.1255401460833
 21
-243.3716066460714
 72
     1
 10
-204.1255401460833
 20
-243.3716066460714
 11
-202.8850357358304
 21
-244.680382156276
 72
     1
 10
-202.8850357358304
 20
-244.680382156276
 11
-201.692243033664
 21
-244.680382156276
 72
     1
 10
-201.692243033664
 20
-244.680382156276
 11
-201.692243033664
 21
-241.6265726324649
 72
     1
 10
-201.692243033664
 20
-241.6265726324649
 11
-202.8850357358304
 21
-241.6265726324649
 72
     1
 10
-202.8850357358304
 20
-241.6265726324649
 11
-202.8850357358304
 21
-242.93534814267
 72
     1
 10
-202.8850357358304
 20
-242.93534814267
 11
-204.1255401460833
 21
-241.6265726324649
 97
       10
330
12B
330
12C
330
12D
330
159
330
12E
330
12F
330
158
330
15B
330
15A
330
12A
 75
     1
 76
     0
 52
45.0
 41
0.1
 77
     0
 78
     1
 53
45.0
 43
0.0
 44
0.0
 45
-0.0707106781186548
 46
0.0707106781186548
 79
     0
 98
        1
 10
0.0
 20
0.0
  0
HATCH
  5
23A
330
74
100
AcDbEntity
  8
1
  6
Continuous
 62
     2
100
AcDbHatch
 10
0.0
 20
0.0
 30
0.0
210
0.0
220
0.0
230
1.0
  2
_USER
 70
     0
 71
     1
 91
        1
 92
        1
 93
       10
 72
     1
 10
-204.1255401460833
 20
-241.6265726324649
 11
-205.3183328482509
 21
-241.6265726324649
 72
     1
 10
-205.3183328482509
 20
-241.6265726324649
 11
-205.3183328482509
 21
-244.680382156276
 72
     1
 10
-205.3183328482509
 20
-244.680382156276
 11
-204.1255401460833
 21
-244.680382156276
 72
     1
 10
-204.1255401460833
 20
-244.680382156276
 11
-204.1255401460833
 21
-243.3716066460714
 72
     1
 10
-204.1255401460833
 20
-243.3716066460714
 11
-202.8850357358304
 21
-244.680382156276
 72
     1
 10
-202.8850357358304
 20
-244.680382156276
 11
-201.692243033664
 21
-244.680382156276
 72
     1
 10
-201.692243033664
 20
-244.680382156276
 11
-201.692243033664
 21
-241.6265726324649
 72
     1
 10
-201.692243033664
 20
-241.6265726324649
 11
-202.8850357358304
 21
-241.6265726324649
 72
     1
 10
-202.8850357358304
 20
-241.6265726324649
 11
-202.8850357358304
 21
-242.93534814267
 72
     1
 10
-202.8850357358304
 20
-242.93534814267
 11
-204.1255401460833
 21
-241.6265726324649
 97
       10
330
12B
330
12C
330
12D
330
159
330
12E
330
12F
330
158
330
15B
330
15A
330
12A
 75
     1
 76
     0
 52
45.0
 41
0.1
 77
     0
 78
     1
 53
45.0
 43
0.0
 44
0.0
 45
-0.0707106781186548
 46
0.0707106781186548
 79
     0
 98
        1
 10
0.0
 20
0.0
  0
HATCH
  5
23B
330
74
100
AcDbEntity
  8
1
  6
Continuous
 62
     2
100
AcDbHatch
 10
0.0
 20
0.0
 30
0.0
210
0.0
220
0.0
230
1.0
  2
_USER
 70
     0
 71
     1
 91
        1
 92
        1
 93
       12
 72
     1
 10
-205.1273350850187
 20
-238.2673821562905
 11
-205.1273350850187
 21
-241.3211916801017
 72
     1
 10
-205.1273350850187
 20
-241.3211916801017
 11
-206.3201277871851
 21
-241.3211916801017
 72
     1
 10
-206.3201277871851
 20
-241.3211916801017
 11
-206.3201277871851
 21
-240.1869195712579
 72
     1
 10
-206.3201277871851
 20
-240.1869195712579
 11
-207.3697853650926
 21
-240.1869195712579
 72
     1
 10
-207.3697853650926
 20
-240.1869195712579
 11
-207.3697853650926
 21
-241.3211916801017
 72
     1
 10
-207.3697853650926
 20
-241.3211916801017
 11
-208.5625780672592
 21
-241.3211916801017
 72
     1
 10
-208.5625780672592
 20
-241.3211916801017
 11
-208.5625780672592
 21
-238.2673821562905
 72
     1
 10
-208.5625780672592
 20
-238.2673821562905
 11
-207.3697853650926
 21
-238.2673821562905
 72
     1
 10
-207.3697853650926
 20
-238.2673821562905
 11
-207.3697853650926
 21
-239.3362154896251
 72
     1
 10
-207.3697853650926
 20
-239.3362154896251
 11
-206.3201277871851
 21
-239.3362154896251
 72
     1
 10
-206.3201277871851
 20
-239.3362154896251
 11
-206.3201277871851
 21
-238.2673821562905
 72
     1
 10
-206.3201277871851
 20
-238.2673821562905
 11
-205.1273350850187
 21
-238.2673821562905
 97
       12
330
153
330
152
330
151
330
139
330
13A
330
150
330
13B
330
14F
330
14E
330
14D
330
137
330
138
 75
     1
 76
     0
 52
45.0
 41
0.1
 77
     0
 78
     1
 53
45.0
 43
0.0
 44
0.0
 45
-0.0707106781186548
 46
0.0707106781186548
 79
     0
 98
        1
 10
0.0
 20
0.0
  0
HATCH
  5
23C
330
74
100
AcDbEntity
  8
1
  6
Continuous
 62
     2
100
AcDbHatch
 10
0.0
 20
0.0
 30
0.0
210
0.0
220
0.0
230
1.0
  2
_USER
 70
     0
 71
     1
 91
        1
 92
        1
 93
       12
 72
     1
 10
-205.1273350850187
 20
-238.2673821562905
 11
-205.1273350850187
 21
-241.3211916801017
 72
     1
 10
-205.1273350850187
 20
-241.3211916801017
 11
-206.3201277871851
 21
-241.3211916801017
 72
     1
 10
-206.3201277871851
 20
-241.3211916801017
 11
-206.3201277871851
 21
-240.1869195712579
 72
     1
 10
-206.3201277871851
 20
-240.1869195712579
 11
-207.3697853650926
 21
-240.1869195712579
 72
     1
 10
-207.3697853650926
 20
-240.1869195712579
 11
-207.3697853650926
 21
-241.3211916801017
 72
     1
 10
-207.3697853650926
 20
-241.3211916801017
 11
-208.5625780672592
 21
-241.3211916801017
 72
     1
 10
-208.5625780672592
 20
-241.3211916801017
 11
-208.5625780672592
 21
-238.2673821562905
 72
     1
 10
-208.5625780672592
 20
-238.2673821562905
 11
-207.3697853650926
 21
-238.2673821562905
 72
     1
 10
-207.3697853650926
 20
-238.2673821562905
 11
-207.3697853650926
 21
-239.3362154896251
 72
     1
 10
-207.3697853650926
 20
-239.3362154896251
 11
-206.3201277871851
 21
-239.3362154896251
 72
     1
 10
-206.3201277871851
 20
-239.3362154896251
 11
-206.3201277871851
 21
-238.2673821562905
 72
     1
 10
-206.3201277871851
 20
-238.2673821562905
 11
-205.1273350850187
 21
-238.2673821562905
 97
       12
330
153
330
152
330
151
330
139
330
13A
330
150
330
13B
330
14F
330
14E
330
14D
330
137
330
138
 75
     1
 76
     0
 52
45.0
 41
0.1
 77
     0
 78
     1
 53
45.0
 43
0.0
 44
0.0
 45
-0.0707106781186548
 46
0.0707106781186548
 79
     0
 98
        1
 10
0.0
 20
0.0
  0
ENDBLK
  5
76
330
74
100
AcDbEntity
  8
0
100
AcDbBlockEnd
  0
BLOCK
  5
7A
330
77
100
AcDbEntity
  8
0
100
AcDbBlockBegin
  2
A4I_CS
 70
     0
 10
-93.25003127122976
 20
-256.9738821562924
 30
0.0
  3
A4I_CS
  1

  0
INSERT
  5
78
330
77
100
AcDbEntity
  8
1
100
AcDbBlockReference
  2
_punkt
 10
-93.25003127122976
 20
-251.9738821562923
 30
0.0
  0
INSERT
  5
79
330
77
100
AcDbEntity
  8
1
100
AcDbBlockReference
  2
_rahmen
 10
-93.25003127122976
 20
-256.9738821562924
 30
0.0
  0
ENDBLK
  5
7B
330
77
100
AcDbEntity
  8
0
100
AcDbBlockEnd
  0
BLOCK
  5
B4
330
AB
100
AcDbEntity
  8
0
100
AcDbBlockBegin
  2
*D16
 70
     1
 10
0.0
 20
0.0
 30
0.0
  3
*D16
  1

  0
LINE
  5
AC
330
AB
100
AcDbEntity
  8
1
  6
Continuous
 62
     2
100
AcDbLine
 10
-48.35000839988426
 20
-33.57393357743173
 30
0.0
 11
-48.35000839988426
 21
-32.17393357743174
 31
0.0
  0
LINE
  5
AD
330
AB
100
AcDbEntity
  8
1
  6
Continuous
 62
     2
100
AcDbLine
 10
-48.35000839988426
 20
-32.17393357743174
 30
0.0
 11
-48.35000839988426
 21
-30.37393357743163
 31
0.0
  0
LINE
  5
AE
330
AB
100
AcDbEntity
  8
1
  6
Continuous
 62
     2
100
AcDbLine
 10
-48.35000839988426
 20
-30.37393357743163
 30
0.0
 11
-48.35000839988426
 21
-28.97393357743163
 31
0.0
  0
LINE
  5
AF
330
AB
100
AcDbEntity
  8
1
  6
Continuous
 62
     2
100
AcDbLine
 10
-50.3500083998847
 20
-30.37393357743163
 30
0.0
 11
-48.05000839988426
 21
-30.37393357743163
 31
0.0
  0
LINE
  5
B0
330
AB
100
AcDbEntity
  8
1
  6
Continuous
 62
     2
100
AcDbLine
 10
-50.35000839988426
 20
-32.17393357743174
 30
0.0
 11
-48.05000839988426
 21
-32.17393357743174
 31
0.0
  0
SOLID
  5
B1
330
AB
100
AcDbEntity
  8
1
 62
     2
100
AcDbTrace
 10
-48.25785165157308
 20
-32.87393357743174
 30
0.0
 11
-48.44216514819544
 21
-32.87393357743174
 31
0.0
 12
-48.35000839988426
 22
-32.17393357743174
 32
0.0
 13
-48.35000839988426
 23
-32.17393357743174
 33
0.0
  0
SOLID
  5
B2
330
AB
100
AcDbEntity
  8
1
 62
     2
100
AcDbTrace
 10
-48.44216514819544
 20
-29.67393357743163
 30
0.0
 11
-48.25785165157308
 21
-29.67393357743163
 31
0.0
 12
-48.35000839988426
 22
-30.37393357743163
 32
0.0
 13
-48.35000839988426
 23
-30.37393357743163
 33
0.0
  0
MTEXT
  5
B3
330
AB
100
AcDbEntity
  8
1
 62
     3
100
AcDbMText
 10
-48.72000839988426
 20
-31.81643357743168
 30
0.0
 40
0.7
 41
0.0
 71
     7
 72
     1
  1
1,8
  7
CONVERTER_11
 11
0.0
 21
1.0
 31
0.0
 73
     1
 44
0.60024009603842
  0
ENDBLK
  5
B5
330
AB
100
AcDbEntity
  8
0
100
AcDbBlockEnd
  0
BLOCK
  5
F5
330
EE
100
AcDbEntity
  8
0
100
AcDbBlockBegin
  2
*D17
 70
     1
 10
0.0
 20
0.0
 30
0.0
  3
*D17
  1

  0
LINE
  5
EF
330
EE
100
AcDbEntity
  8
1
  6
Continuous
 62
     2
100
AcDbLine
 10
-48.35000809537765
 20
-24.37393048487717
 30
0.0
 11
-48.35000809537765
 21
-20.82606951512277
 31
0.0
  0
LINE
  5
F0
330
EE
100
AcDbEntity
  8
1
  6
Continuous
 62
     2
100
AcDbLine
 10
-50.35000809537767
 20
-24.37393048487717
 30
0.0
 11
-48.05000809537765
 21
-24.37393048487717
 31
0.0
  0
LINE
  5
F1
330
EE
100
AcDbEntity
  8
1
  6
Continuous
 62
     2
100
AcDbLine
 10
-50.35000809537765
 20
-20.82606951512277
 30
0.0
 11
-48.05000809537765
 21
-20.82606951512277
 31
0.0
  0
SOLID
  5
F2
330
EE
100
AcDbEntity
  8
1
 62
     2
100
AcDbTrace
 10
-48.44216484368882
 20
-23.67393048487717
 30
0.0
 11
-48.25785134706647
 21
-23.67393048487717
 31
0.0
 12
-48.35000809537765
 22
-24.37393048487717
 32
0.0
 13
-48.35000809537765
 23
-24.37393048487717
 33
0.0
  0
SOLID
  5
F3
330
EE
100
AcDbEntity
  8
1
 62
     2
100
AcDbTrace
 10
-48.25785134706647
 20
-21.52606951512277
 30
0.0
 11
-48.44216484368882
 21
-21.52606951512277
 31
0.0
 12
-48.35000809537765
 22
-20.82606951512277
 32
0.0
 13
-48.35000809537765
 23
-20.82606951512277
 33
0.0
  0
MTEXT
  5
F4
330
EE
100
AcDbEntity
  8
1
 62
     3
100
AcDbMText
 10
-48.72000809537765
 20
-23.2474999999996
 30
0.0
 40
0.7
 41
0.0
 71
     7
 72
     1
  1
3,5
  7
CONVERTER_11
 11
0.0
 21
1.0
 31
0.0
 73
     1
 44
0.60024009603842
  0
ENDBLK
  5
F6
330
EE
100
AcDbEntity
  8
0
100
AcDbBlockEnd
  0
BLOCK
  5
100
330
F9
100
AcDbEntity
  8
0
100
AcDbBlockBegin
  2
*D18
 70
     1
 10
0.0
 20
0.0
 30
0.0
  3
*D18
  1

  0
LINE
  5
FA
330
F9
100
AcDbEntity
  8
1
  6
Continuous
 62
     2
100
AcDbLine
 10
-50.35000809537767
 20
-26.37393048487717
 30
0.0
 11
-65.05000809537728
 21
-26.37393048487717
 31
0.0
  0
LINE
  5
FB
330
F9
100
AcDbEntity
  8
1
  6
Continuous
 62
     2
100
AcDbLine
 10
-50.35000809537767
 20
-24.37393048487717
 30
0.0
 11
-50.35000809537767
 21
-26.67393048487717
 31
0.0
  0
LINE
  5
FC
330
F9
100
AcDbEntity
  8
1
  6
Continuous
 62
     2
100
AcDbLine
 10
-65.05000809537728
 20
-23.93999999999953
 30
0.0
 11
-65.05000809537728
 21
-26.67393048487717
 31
0.0
  0
SOLID
  5
FD
330
F9
100
AcDbEntity
  8
1
 62
     2
100
AcDbTrace
 10
-51.05000809537767
 20
-26.46608723318834
 30
0.0
 11
-51.05000809537767
 21
-26.28177373656599
 31
0.0
 12
-50.35000809537767
 22
-26.37393048487717
 32
0.0
 13
-50.35000809537767
 23
-26.37393048487717
 33
0.0
  0
SOLID
  5
FE
330
F9
100
AcDbEntity
  8
1
 62
     2
100
AcDbTrace
 10
-64.35000809537728
 20
-26.28177373656599
 30
0.0
 11
-64.35000809537728
 21
-26.46608723318834
 31
0.0
 12
-65.05000809537728
 22
-26.37393048487717
 32
0.0
 13
-65.05000809537728
 23
-26.37393048487717
 33
0.0
  0
MTEXT
  5
FF
330
F9
100
AcDbEntity
  8
1
 62
     3
100
AcDbMText
 10
-58.55750809537747
 20
-26.00393048487717
 30
0.0
 40
0.7
 41
0.0
 71
     7
 72
     1
  1
14,7
  7
CONVERTER_11
 11
0.9999999999970619
 21
2.424068405545306E-6
 31
0.0
 73
     1
 44
0.60024009603842
  0
ENDBLK
  5
101
330
F9
100
AcDbEntity
  8
0
100
AcDbBlockEnd
  0
ENDSEC
  0
SECTION
  2
ENTITIES
  0
INSERT
  5
7C
330
1F
100
AcDbEntity
  8
0
100
AcDbBlockReference
  2
Allg1
 10
-148.9999998326502
 20
-183.0000000866501
 30
0.0
 41
5.0
 42
5.0
 43
5.0
  0
INSERT
  5
7D
330
1F
100
AcDbEntity
  8
0
100
AcDbBlockReference
  2
Drfsicht1
 10
-288.5000415225352
 20
-156.3696677679508
 30
0.0
 41
5.0
 42
5.0
 43
5.0
  0
INSERT
  5
7E
330
1F
100
AcDbEntity
  8
0
100
AcDbBlockReference
  2
Rckans1
 10
-156.000000463157
 20
-113.0
 30
0.0
 41
5.0
 42
5.0
 43
5.0
  0
INSERT
  5
7F
330
1F
100
AcDbEntity
  8
0
100
AcDbBlockReference
  2
SA_Links1
 10
-217.2500191059236
 20
-112.999999999999
 30
0.0
 41
5.0
 42
5.0
 43
5.0
  0
INSERT
  5
80
330
1F
100
AcDbEntity
  8
0
100
AcDbBlockReference
  2
SA_Rechts1
 10
-349.7500624369797
 20
-112.999999999999
 30
0.0
 41
5.0
 42
5.0
 43
5.0
  0
INSERT
  5
81
330
1F
100
AcDbEntity
  8
0
100
AcDbBlockReference
  2
Vordans1
 10
-288.5000400000002
 20
-113.0
 30
0.0
 41
5.0
 42
5.0
 43
5.0
  0
INSERT
  5
82
330
1F
100
AcDbEntity
  8
0
100
AcDbBlockReference
  2
A4I_CS
 10
-93.25003127122976
 20
-256.9738821562924
 30
0.0
  0
ENDSEC
  0
SECTION
  2
OBJECTS
  0
DICTIONARY
  5
C
330
0
100
AcDbDictionary
281
     1
  3
ACAD_GROUP
350
D
  3
ACAD_LAYOUT
350
1A
  3
ACAD_MATERIAL
350
3B
  3
ACAD_MLEADERSTYLE
350
23F
  3
ACAD_MLINESTYLE
350
17
  3
ACAD_PLOTSETTINGS
350
19
  3
ACAD_PLOTSTYLENAME
350
E
  3
ACAD_VISUALSTYLE
350
2A
  3
AcDbVariableDictionary
350
23D
  0
DICTIONARY
  5
D
102
{ACAD_REACTORS
330
C
102
}
330
C
100
AcDbDictionary
281
     1
  0
DICTIONARY
  5
1A
102
{ACAD_REACTORS
330
C
102
}
330
C
100
AcDbDictionary
281
     1
  3
Layout1
350
1E
  3
Layout2
350
26
  3
Model
350
22
  0
DICTIONARY
  5
3B
102
{ACAD_REACTORS
330
C
102
}
330
C
100
AcDbDictionary
281
     1
  3
ByBlock
350
3D
  3
ByLayer
350
3C
  3
Global
350
3E
  0
DICTIONARY
  5
23F
102
{ACAD_REACTORS
330
C
102
}
330
C
100
AcDbDictionary
281
     1
  0
DICTIONARY
  5
17
102
{ACAD_REACTORS
330
C
102
}
330
C
100
AcDbDictionary
281
     1
  3
Standard
350
18
  0
DICTIONARY
  5
19
102
{ACAD_REACTORS
330
C
102
}
330
C
100
AcDbDictionary
281
     1
  0
ACDBDICTIONARYWDFLT
  5
E
102
{ACAD_REACTORS
330
C
102
}
330
C
100
AcDbDictionary
281
     1
  3
Normal
350
F
100
AcDbDictionaryWithDefault
340
F
  0
DICTIONARY
  5
2A
102
{ACAD_REACTORS
330
C
102
}
330
C
100
AcDbDictionary
281
     1
  3
2dWireframe
350
2F
  3
3D Hidden
350
31
  3
3dWireframe
350
30
  3
Basic
350
32
  3
Brighten
350
36
  3
ColorChange
350
3A
  3
Conceptual
350
34
  3
Dim
350
35
  3
Facepattern
350
39
  3
Flat
350
2B
  3
FlatWithEdges
350
2C
  3
Gouraud
350
2D
  3
GouraudWithEdges
350
2E
  3
Linepattern
350
38
  3
Realistic
350
33
  3
Thicken
350
37
  0
DICTIONARY
  5
23D
102
{ACAD_REACTORS
330
C
102
}
330
C
100
AcDbDictionary
281
     1
  3
DIMASSOC
350
240
  3
HIDETEXT
350
241
  0
LAYOUT
  5
1E
102
{ACAD_REACTORS
330
1A
102
}
330
1A
100
AcDbPlotSettings
  1

  2
none_device
  4

  6

 40
0.0
 41
0.0
 42
0.0
 43
0.0
 44
0.0
 45
0.0
 46
0.0
 47
0.0
 48
0.0
 49
0.0
140
0.0
141
0.0
142
1.0
143
1.0
 70
   688
 72
     0
 73
     0
 74
     5
  7

 75
    16
147
1.0
148
0.0
149
0.0
100
AcDbLayout
  1
Layout1
 70
     1
 71
     1
 10
0.0
 20
0.0
 11
12.0
 21
9.0
 12
0.0
 22
0.0
 32
0.0
 14
1.00000000000000E+20
 24
1.00000000000000E+20
 34
1.00000000000000E+20
 15
-1.00000000000000E+20
 25
-1.00000000000000E+20
 35
-1.00000000000000E+20
146
0.0
 13
0.0
 23
0.0
 33
0.0
 16
1.0
 26
0.0
 36
0.0
 17
0.0
 27
1.0
 37
0.0
 76
     0
330
1B
  0
LAYOUT
  5
26
102
{ACAD_REACTORS
330
1A
102
}
330
1A
100
AcDbPlotSettings
  1

  2
none_device
  4

  6

 40
0.0
 41
0.0
 42
0.0
 43
0.0
 44
0.0
 45
0.0
 46
0.0
 47
0.0
 48
0.0
 49
0.0
140
0.0
141
0.0
142
1.0
143
1.0
 70
   688
 72
     0
 73
     0
 74
     5
  7

 75
    16
147
1.0
148
0.0
149
0.0
100
AcDbLayout
  1
Layout2
 70
     1
 71
     2
 10
0.0
 20
0.0
 11
0.0
 21
0.0
 12
0.0
 22
0.0
 32
0.0
 14
0.0
 24
0.0
 34
0.0
 15
0.0
 25
0.0
 35
0.0
146
0.0
 13
0.0
 23
0.0
 33
0.0
 16
1.0
 26
0.0
 36
0.0
 17
0.0
 27
1.0
 37
0.0
 76
     0
330
23
  0
LAYOUT
  5
22
102
{ACAD_REACTORS
330
1A
102
}
330
1A
100
AcDbPlotSettings
  1

  2
none_device
  4

  6

 40
0.0
 41
0.0
 42
0.0
 43
0.0
 44
0.0
 45
0.0
 46
0.0
 47
0.0
 48
0.0
 49
0.0
140
0.0
141
0.0
142
1.0
143
1.0
 70
  1712
 72
     0
 73
     0
 74
     0
  7

 75
     0
147
1.0
148
0.0
149
0.0
100
AcDbLayout
  1
Model
 70
     1
 71
     0
 10
0.0
 20
0.0
 11
12.0
 21
9.0
 12
0.0
 22
0.0
 32
0.0
 14
-385.2500312712289
 24
-256.9738821562924
 34
0.0
 15
-88.25003127123077
 25
-46.97388215629226
 35
0.0
146
0.0
 13
0.0
 23
0.0
 33
0.0
 16
1.0
 26
0.0
 36
0.0
 17
0.0
 27
1.0
 37
0.0
 76
     0
330
1F
331
29
  0
MATERIAL
  5
3D
102
{ACAD_REACTORS
330
3B
102
}
102
{ACAD_XDICTIONARY
360
264
102
}
330
3B
100
AcDbMaterial
  1
ByBlock
  0
MATERIAL
  5
3C
102
{ACAD_REACTORS
330
3B
102
}
102
{ACAD_XDICTIONARY
360
262
102
}
330
3B
100
AcDbMaterial
  1
ByLayer
  0
MATERIAL
  5
3E
102
{ACAD_REACTORS
330
3B
102
}
102
{ACAD_XDICTIONARY
360
266
102
}
330
3B
100
AcDbMaterial
  1
Global
  0
MLINESTYLE
  5
18
102
{ACAD_REACTORS
330
17
102
}
330
17
100
AcDbMlineStyle
  2
Standard
 70
     0
  3

 62
   256
 51
90.0
 52
90.0
 71
     2
 49
0.5
 62
   256
  6
BYLAYER
 49
-0.5
 62
   256
  6
BYLAYER
  0
ACDBPLACEHOLDER
  5
F
102
{ACAD_REACTORS
330
E
102
}
330
E
  0
VISUALSTYLE
  5
2F
102
{ACAD_REACTORS
330
2A
102
}
102
{ACAD_XDICTIONARY
360
24A
102
}
330
2A
100
AcDbVisualStyle
  2
2dWireframe
 70
     4
 71
     0
 72
     2
 73
     0
 90
        0
 40
-0.6
 41
-30.0
 62
     5
 63
     7
 74
     1
 91
        4
 64
     7
 65
   257
 75
     1
175
     1
 42
1.0
 92
        0
 66
   257
 43
1.0
 76
     1
 77
     6
 78
     2
 67
     7
 79
     5
170
     0
171
     0
290
     0
174
     0
 93
        1
 44
0.0
173
     0
291
     0
 45
0.0
1001
ACAD
1000
AcDbSavedByObjectVersion
1070
     0
  0
VISUALSTYLE
  5
31
102
{ACAD_REACTORS
330
2A
102
}
102
{ACAD_XDICTIONARY
360
24E
102
}
330
2A
100
AcDbVisualStyle
  2
3D Hidden
 70
     6
 71
     1
 72
     2
 73
     2
 90
        0
 40
-0.6
 41
-30.0
 62
     5
 63
     7
 74
     2
 91
        2
 64
     7
 65
   257
 75
     2
175
     1
 42
40.0
 92
        0
 66
   257
 43
1.0
 76
     1
 77
     6
 78
     2
 67
     7
 79
     3
170
     0
171
     0
290
     0
174
     0
 93
        1
 44
0.0
173
     0
291
     0
 45
0.0
1001
ACAD
1000
AcDbSavedByObjectVersion
1070
     0
  0
VISUALSTYLE
  5
30
102
{ACAD_REACTORS
330
2A
102
}
102
{ACAD_XDICTIONARY
360
24C
102
}
330
2A
100
AcDbVisualStyle
  2
3dWireframe
 70
     5
 71
     0
 72
     2
 73
     0
 90
        0
 40
-0.6
 41
-30.0
 62
     5
 63
     7
 74
     1
 91
        4
 64
     7
 65
   257
 75
     1
175
     1
 42
1.0
 92
        0
 66
   257
 43
1.0
 76
     1
 77
     6
 78
     2
 67
     7
 79
     5
170
     0
171
     0
290
     0
174
     0
 93
        1
 44
0.0
173
     0
291
     0
 45
0.0
1001
ACAD
1000
AcDbSavedByObjectVersion
1070
     0
  0
VISUALSTYLE
  5
32
102
{ACAD_REACTORS
330
2A
102
}
102
{ACAD_XDICTIONARY
360
250
102
}
330
2A
100
AcDbVisualStyle
  2
Basic
 70
     7
 71
     1
 72
     0
 73
     1
 90
        0
 40
-0.6
 41
-30.0
 62
     5
 63
     7
 74
     0
 91
        4
 64
     7
 65
   257
 75
     1
175
     1
 42
1.0
 92
        8
 66
     7
 43
1.0
 76
     1
 77
     6
 78
     2
 67
     7
 79
     5
170
     0
171
     0
290
     0
174
     0
 93
        1
 44
0.0
173
     0
291
     1
 45
0.0
1001
ACAD
1000
AcDbSavedByObjectVersion
1070
     0
  0
VISUALSTYLE
  5
36
102
{ACAD_REACTORS
330
2A
102
}
102
{ACAD_XDICTIONARY
360
258
102
}
330
2A
100
AcDbVisualStyle
  2
Brighten
 70
    12
 71
     2
 72
     2
 73
     0
 90
        0
 40
-0.6
 41
-30.0
 62
     5
 63
     7
 74
     1
 91
        4
 64
     7
 65
   257
 75
     1
175
     1
 42
1.0
 92
        8
 66
     7
 43
1.0
 76
     1
 77
     6
 78
     2
 67
     7
 79
     5
170
     0
171
     0
290
     0
174
     0
 93
        1
 44
50.0
173
     0
291
     1
 45
0.0
1001
ACAD
1000
AcDbSavedByObjectVersion
1070
     0
  0
VISUALSTYLE
  5
3A
102
{ACAD_REACTORS
330
2A
102
}
102
{ACAD_XDICTIONARY
360
260
102
}
330
2A
100
AcDbVisualStyle
  2
ColorChange
 70
    16
 71
     2
 72
     2
 73
     3
 90
        0
 40
-0.6
 41
-30.0
 62
     5
 63
     8
 74
     1
 91
        4
 64
     7
 65
   257
 75
     1
175
     1
 42
1.0
 92
        8
 66
     8
 43
1.0
 76
     1
 77
     6
 78
     2
 67
     7
 79
     5
170
     0
171
     0
290
     0
174
     0
 93
        1
 44
0.0
173
     0
291
     1
 45
0.0
1001
ACAD
1000
AcDbSavedByObjectVersion
1070
     0
  0
VISUALSTYLE
  5
34
102
{ACAD_REACTORS
330
2A
102
}
102
{ACAD_XDICTIONARY
360
254
102
}
330
2A
100
AcDbVisualStyle
  2
Conceptual
 70
     9
 71
     3
 72
     2
 73
     0
 90
        0
 40
-0.6
 41
-30.0
 62
     5
 63
     7
 74
     2
 91
        2
 64
     7
 65
   257
 75
     1
175
     1
 42
40.0
 92
        8
 66
     7
 43
1.0
 76
     1
 77
     6
 78
     2
 67
     7
 79
     3
170
     0
171
     0
290
     0
174
     0
 93
        1
 44
0.0
173
     0
291
     0
 45
0.0
1001
ACAD
1000
AcDbSavedByObjectVersion
1070
     0
  0
VISUALSTYLE
  5
35
102
{ACAD_REACTORS
330
2A
102
}
102
{ACAD_XDICTIONARY
360
256
102
}
330
2A
100
AcDbVisualStyle
  2
Dim
 70
    11
 71
     2
 72
     2
 73
     0
 90
        0
 40
-0.6
 41
-30.0
 62
     5
 63
     7
 74
     1
 91
        4
 64
     7
 65
   257
 75
     1
175
     1
 42
1.0
 92
        8
 66
     7
 43
1.0
 76
     1
 77
     6
 78
     2
 67
     7
 79
     5
170
     0
171
     0
290
     0
174
     0
 93
        1
 44
-50.0
173
     0
291
     1
 45
0.0
1001
ACAD
1000
AcDbSavedByObjectVersion
1070
     0
  0
VISUALSTYLE
  5
39
102
{ACAD_REACTORS
330
2A
102
}
102
{ACAD_XDICTIONARY
360
25E
102
}
330
2A
100
AcDbVisualStyle
  2
Facepattern
 70
    15
 71
     2
 72
     2
 73
     0
 90
        0
 40
-0.6
 41
-30.0
 62
     5
 63
     7
 74
     1
 91
        4
 64
     7
 65
   257
 75
     1
175
     1
 42
1.0
 92
        8
 66
     7
 43
1.0
 76
     1
 77
     6
 78
     2
 67
     7
 79
     5
170
     0
171
     0
290
     0
174
     0
 93
        1
 44
0.0
173
     0
291
     1
 45
0.0
1001
ACAD
1000
AcDbSavedByObjectVersion
1070
     0
  0
VISUALSTYLE
  5
2B
102
{ACAD_REACTORS
330
2A
102
}
102
{ACAD_XDICTIONARY
360
242
102
}
330
2A
100
AcDbVisualStyle
  2
Flat
 70
     0
 71
     2
 72
     1
 73
     1
 90
        2
 40
-0.6
 41
30.0
 62
     5
 63
     7
 74
     0
 91
        4
 64
     7
 65
   257
 75
     1
175
     1
 42
1.0
 92
        8
 66
     7
 43
1.0
 76
     1
 77
     6
 78
     2
 67
     7
 79
     5
170
     0
171
     0
290
     0
174
     0
 93
       13
 44
0.0
173
     0
291
     1
 45
0.0
1001
ACAD
1000
AcDbSavedByObjectVersion
1070
     0
  0
VISUALSTYLE
  5
2C
102
{ACAD_REACTORS
330
2A
102
}
102
{ACAD_XDICTIONARY
360
244
102
}
330
2A
100
AcDbVisualStyle
  2
FlatWithEdges
 70
     1
 71
     2
 72
     1
 73
     1
 90
        2
 40
-0.6
 41
30.0
 62
     5
 63
     7
 74
     1
 91
        4
 64
     7
 65
   257
 75
     1
175
     1
 42
1.0
 92
        0
 66
   257
 43
1.0
 76
     1
 77
     6
 78
     2
 67
     7
 79
     5
170
     0
171
     0
290
     0
174
     0
 93
       13
 44
0.0
173
     0
291
     1
 45
0.0
1001
ACAD
1000
AcDbSavedByObjectVersion
1070
     0
  0
VISUALSTYLE
  5
2D
102
{ACAD_REACTORS
330
2A
102
}
102
{ACAD_XDICTIONARY
360
246
102
}
330
2A
100
AcDbVisualStyle
  2
Gouraud
 70
     2
 71
     2
 72
     2
 73
     1
 90
        2
 40
-0.6
 41
30.0
 62
     5
 63
     7
 74
     0
 91
        4
 64
     7
 65
   257
 75
     1
175
     1
 42
1.0
 92
        0
 66
     7
 43
1.0
 76
     1
 77
     6
 78
     2
 67
     7
 79
     5
170
     0
171
     0
290
     0
174
     0
 93
       13
 44
0.0
173
     0
291
     1
 45
0.0
1001
ACAD
1000
AcDbSavedByObjectVersion
1070
     0
  0
VISUALSTYLE
  5
2E
102
{ACAD_REACTORS
330
2A
102
}
102
{ACAD_XDICTIONARY
360
248
102
}
330
2A
100
AcDbVisualStyle
  2
GouraudWithEdges
 70
     3
 71
     2
 72
     2
 73
     1
 90
        2
 40
-0.6
 41
30.0
 62
     5
 63
     7
 74
     1
 91
        4
 64
     7
 65
   257
 75
     1
175
     1
 42
1.0
 92
        0
 66
   257
 43
1.0
 76
     1
 77
     6
 78
     2
 67
     7
 79
     5
170
     0
171
     0
290
     0
174
     0
 93
       13
 44
0.0
173
     0
291
     1
 45
0.0
1001
ACAD
1000
AcDbSavedByObjectVersion
1070
     0
  0
VISUALSTYLE
  5
38
102
{ACAD_REACTORS
330
2A
102
}
102
{ACAD_XDICTIONARY
360
25C
102
}
330
2A
100
AcDbVisualStyle
  2
Linepattern
 70
    14
 71
     2
 72
     2
 73
     0
 90
        0
 40
-0.6
 41
-30.0
 62
     5
 63
     7
 74
     1
 91
        4
 64
     7
 65
   257
 75
     7
175
     7
 42
1.0
 92
        8
 66
     7
 43
1.0
 76
     1
 77
     6
 78
     2
 67
     7
 79
     5
170
     0
171
     0
290
     0
174
     0
 93
        1
 44
0.0
173
     0
291
     1
 45
0.0
1001
ACAD
1000
AcDbSavedByObjectVersion
1070
     0
  0
VISUALSTYLE
  5
33
102
{ACAD_REACTORS
330
2A
102
}
102
{ACAD_XDICTIONARY
360
252
102
}
330
2A
100
AcDbVisualStyle
  2
Realistic
 70
     8
 71
     2
 72
     2
 73
     0
 90
        0
 40
-0.6
 41
-30.0
 62
     5
 63
     7
 74
     1
 91
        0
 64
     7
 65
   257
 75
     1
175
     1
 42
1.0
 92
        8
 66
     8
 43
1.0
 76
     1
 77
     6
 78
     2
 67
     7
 79
     5
170
     0
171
     0
290
     0
174
     0
 93
       13
 44
0.0
173
     0
291
     0
 45
0.0
1001
ACAD
1000
AcDbSavedByObjectVersion
1070
     0
  0
VISUALSTYLE
  5
37
102
{ACAD_REACTORS
330
2A
102
}
102
{ACAD_XDICTIONARY
360
25A
102
}
330
2A
100
AcDbVisualStyle
  2
Thicken
 70
    13
 71
     2
 72
     2
 73
     0
 90
        0
 40
-0.6
 41
-30.0
 62
     5
 63
     7
 74
     1
 91
        4
 64
     7
 65
   257
 75
     1
175
     1
 42
1.0
 92
       12
 66
     7
 43
1.0
 76
     1
 77
     6
 78
     2
 67
     7
 79
     5
170
     0
171
     0
290
     0
174
     0
 93
        1
 44
0.0
173
     0
291
     1
 45
0.0
1001
ACAD
1000
AcDbSavedByObjectVersion
1070
     0
  0
DICTIONARYVAR
  5
240
102
{ACAD_REACTORS
330
23D
102
}
330
23D
100
DictionaryVariables
280
     0
  1
2
  0
DICTIONARYVAR
  5
241
102
{ACAD_REACTORS
330
23D
102
}
330
23D
100
DictionaryVariables
280
     0
  1
1
  0
DICTIONARY
  5
264
330
3D
100
AcDbDictionary
280
     1
281
     1
  3
ACAD_XREC_ROUNDTRIP
360
265
  0
DICTIONARY
  5
262
330
3C
100
AcDbDictionary
280
     1
281
     1
  3
ACAD_XREC_ROUNDTRIP
360
263
  0
DICTIONARY
  5
266
330
3E
100
AcDbDictionary
280
     1
281
     1
  3
ACAD_XREC_ROUNDTRIP
360
267
  0
DICTIONARY
  5
24A
330
2F
100
AcDbDictionary
280
     1
281
     1
  3
ACAD_XREC_ROUNDTRIP
360
24B
  0
DICTIONARY
  5
24E
330
31
100
AcDbDictionary
280
     1
281
     1
  3
ACAD_XREC_ROUNDTRIP
360
24F
  0
DICTIONARY
  5
24C
330
30
100
AcDbDictionary
280
     1
281
     1
  3
ACAD_XREC_ROUNDTRIP
360
24D
  0
DICTIONARY
  5
250
330
32
100
AcDbDictionary
280
     1
281
     1
  3
ACAD_XREC_ROUNDTRIP
360
251
  0
DICTIONARY
  5
258
330
36
100
AcDbDictionary
280
     1
281
     1
  3
ACAD_XREC_ROUNDTRIP
360
259
  0
DICTIONARY
  5
260
330
3A
100
AcDbDictionary
280
     1
281
     1
  3
ACAD_XREC_ROUNDTRIP
360
261
  0
DICTIONARY
  5
254
330
34
100
AcDbDictionary
280
     1
281
     1
  3
ACAD_XREC_ROUNDTRIP
360
255
  0
DICTIONARY
  5
256
330
35
100
AcDbDictionary
280
     1
281
     1
  3
ACAD_XREC_ROUNDTRIP
360
257
  0
DICTIONARY
  5
25E
330
39
100
AcDbDictionary
280
     1
281
     1
  3
ACAD_XREC_ROUNDTRIP
360
25F
  0
DICTIONARY
  5
242
330
2B
100
AcDbDictionary
280
     1
281
     1
  3
ACAD_XREC_ROUNDTRIP
360
243
  0
DICTIONARY
  5
244
330
2C
100
AcDbDictionary
280
     1
281
     1
  3
ACAD_XREC_ROUNDTRIP
360
245
  0
DICTIONARY
  5
246
330
2D
100
AcDbDictionary
280
     1
281
     1
  3
ACAD_XREC_ROUNDTRIP
360
247
  0
DICTIONARY
  5
248
330
2E
100
AcDbDictionary
280
     1
281
     1
  3
ACAD_XREC_ROUNDTRIP
360
249
  0
DICTIONARY
  5
25C
330
38
100
AcDbDictionary
280
     1
281
     1
  3
ACAD_XREC_ROUNDTRIP
360
25D
  0
DICTIONARY
  5
252
330
33
100
AcDbDictionary
280
     1
281
     1
  3
ACAD_XREC_ROUNDTRIP
360
253
  0
DICTIONARY
  5
25A
330
37
100
AcDbDictionary
280
     1
281
     1
  3
ACAD_XREC_ROUNDTRIP
360
25B
  0
XRECORD
  5
265
102
{ACAD_REACTORS
330
264
102
}
330
264
100
AcDbXrecord
280
     1
102
MATERIAL
148
0.0
149
0.0
149
0.0
 93
        0
 94
      127
282
     0
 72
     1
 77
     1
171
     1
175
     1
179
     1
273
     0
  0
XRECORD
  5
263
102
{ACAD_REACTORS
330
262
102
}
330
262
100
AcDbXrecord
280
     1
102
MATERIAL
148
0.0
149
0.0
149
0.0
 93
        0
 94
      127
282
     0
 72
     1
 77
     1
171
     1
175
     1
179
     1
273
     0
  0
XRECORD
  5
267
102
{ACAD_REACTORS
330
266
102
}
330
266
100
AcDbXrecord
280
     1
102
MATERIAL
148
0.0
149
0.0
149
0.0
 93
        0
 94
      127
282
     0
 72
     1
 77
     1
171
     1
175
     1
179
     1
273
     0
  0
XRECORD
  5
24B
102
{ACAD_REACTORS
330
24A
102
}
330
24A
100
AcDbXrecord
280
     1
102
RTVSPropertyOp0
 70
     1
102
RTVSPropertyOp1
 70
     1
102
RTVSPropertyOp2
 70
     1
102
RTVSPropertyOp3
 70
     1
102
RTVSPropertyOp4
 70
     1
102
RTVSPropertyOp5
 70
     1
102
RTVSPropertyOp6
 70
     1
102
RTVSPropertyOp7
 70
     1
102
RTVSPropertyOp8
 70
     1
102
RTVSPropertyOp9
 70
     1
102
RTVSPropertyOp10
 70
     1
102
RTVSPropertyOp11
 70
     1
102
RTVSPropertyOp12
 70
     1
102
RTVSPropertyOp13
 70
     1
102
RTVSPropertyOp14
 70
     1
102
RTVSPropertyOp15
 70
     1
102
RTVSPropertyOp16
 70
     1
102
RTVSPropertyOp17
 70
     1
102
RTVSPropertyOp18
 70
     1
102
RTVSPropertyOp19
 70
     1
102
RTVSPropertyOp20
 70
     1
102
RTVSPropertyOp21
 70
     1
102
RTVSPropertyOp22
 70
     1
102
RTVSPropertyOp23
 70
     1
102
RTVSPropertyOp24
 70
     1
102
RTVSPropertyOp25
 70
     1
102
RTVSPropertyOp26
 70
     1
102
RTVSPropertyOp27
 70
     1
102
RTVSPropertyOp28
 70
     1
102
RTVSPropertyOp29
 70
     1
102
RTVSPropertyOp30
 70
     1
102
RTVSPropertyOp31
 70
     1
102
RTVSPropertyOp32
 70
     1
  0
XRECORD
  5
24F
102
{ACAD_REACTORS
330
24E
102
}
330
24E
100
AcDbXrecord
280
     1
102
RTVSPropertyOp0
 70
     1
102
RTVSPropertyOp1
 70
     1
102
RTVSPropertyOp2
 70
     1
102
RTVSPropertyOp3
 70
     1
102
RTVSPropertyOp4
 70
     1
102
RTVSPropertyOp5
 70
     1
102
RTVSPropertyOp6
 70
     1
102
RTVSPropertyOp7
 70
     1
102
RTVSPropertyOp8
 70
     1
102
RTVSPropertyOp9
 70
     1
102
RTVSPropertyOp10
 70
     1
102
RTVSPropertyOp11
 70
     1
102
RTVSPropertyOp12
 70
     1
102
RTVSPropertyOp13
 70
     1
102
RTVSPropertyOp14
 70
     1
102
RTVSPropertyOp15
 70
     1
102
RTVSPropertyOp16
 70
     1
102
RTVSPropertyOp17
 70
     1
102
RTVSPropertyOp18
 70
     1
102
RTVSPropertyOp19
 70
     1
102
RTVSPropertyOp20
 70
     1
102
RTVSPropertyOp21
 70
     1
102
RTVSPropertyOp22
 70
     1
102
RTVSPropertyOp23
 70
     1
102
RTVSPropertyOp24
 70
     1
102
RTVSPropertyOp25
 70
     1
102
RTVSPropertyOp26
 70
     1
102
RTVSPropertyOp27
 70
     1
102
RTVSPropertyOp28
 70
     1
102
RTVSPropertyOp29
 70
     1
102
RTVSPropertyOp30
 70
     1
102
RTVSPropertyOp31
 70
     1
102
RTVSPropertyOp32
 70
     1
  0
XRECORD
  5
24D
102
{ACAD_REACTORS
330
24C
102
}
330
24C
100
AcDbXrecord
280
     1
102
RTVSPropertyOp0
 70
     1
102
RTVSPropertyOp1
 70
     1
102
RTVSPropertyOp2
 70
     1
102
RTVSPropertyOp3
 70
     1
102
RTVSPropertyOp4
 70
     1
102
RTVSPropertyOp5
 70
     1
102
RTVSPropertyOp6
 70
     1
102
RTVSPropertyOp7
 70
     1
102
RTVSPropertyOp8
 70
     1
102
RTVSPropertyOp9
 70
     1
102
RTVSPropertyOp10
 70
     1
102
RTVSPropertyOp11
 70
     1
102
RTVSPropertyOp12
 70
     1
102
RTVSPropertyOp13
 70
     1
102
RTVSPropertyOp14
 70
     1
102
RTVSPropertyOp15
 70
     1
102
RTVSPropertyOp16
 70
     1
102
RTVSPropertyOp17
 70
     1
102
RTVSPropertyOp18
 70
     1
102
RTVSPropertyOp19
 70
     1
102
RTVSPropertyOp20
 70
     1
102
RTVSPropertyOp21
 70
     1
102
RTVSPropertyOp22
 70
     1
102
RTVSPropertyOp23
 70
     1
102
RTVSPropertyOp24
 70
     1
102
RTVSPropertyOp25
 70
     1
102
RTVSPropertyOp26
 70
     1
102
RTVSPropertyOp27
 70
     1
102
RTVSPropertyOp28
 70
     1
102
RTVSPropertyOp29
 70
     1
102
RTVSPropertyOp30
 70
     1
102
RTVSPropertyOp31
 70
     1
102
RTVSPropertyOp32
 70
     1
  0
XRECORD
  5
251
102
{ACAD_REACTORS
330
250
102
}
330
250
100
AcDbXrecord
280
     1
102
RTVSPropertyOp0
 70
     1
102
RTVSPropertyOp1
 70
     1
102
RTVSPropertyOp2
 70
     1
102
RTVSPropertyOp3
 70
     1
102
RTVSPropertyOp4
 70
     1
102
RTVSPropertyOp5
 70
     1
102
RTVSPropertyOp6
 70
     1
102
RTVSPropertyOp7
 70
     1
102
RTVSPropertyOp8
 70
     1
102
RTVSPropertyOp9
 70
     1
102
RTVSPropertyOp10
 70
     1
102
RTVSPropertyOp11
 70
     1
102
RTVSPropertyOp12
 70
     1
102
RTVSPropertyOp13
 70
     1
102
RTVSPropertyOp14
 70
     1
102
RTVSPropertyOp15
 70
     1
102
RTVSPropertyOp16
 70
     1
102
RTVSPropertyOp17
 70
     1
102
RTVSPropertyOp18
 70
     1
102
RTVSPropertyOp19
 70
     1
102
RTVSPropertyOp20
 70
     1
102
RTVSPropertyOp21
 70
     1
102
RTVSPropertyOp22
 70
     1
102
RTVSPropertyOp23
 70
     1
102
RTVSPropertyOp24
 70
     1
102
RTVSPropertyOp25
 70
     1
102
RTVSPropertyOp26
 70
     1
102
RTVSPropertyOp27
 70
     1
102
RTVSPropertyOp28
 70
     1
102
RTVSPropertyOp29
 70
     1
102
RTVSPropertyOp30
 70
     1
102
RTVSPropertyOp31
 70
     1
102
RTVSPropertyOp32
 70
     1
  0
XRECORD
  5
259
102
{ACAD_REACTORS
330
258
102
}
330
258
100
AcDbXrecord
280
     1
102
RTVSPropertyOp0
 70
     1
102
RTVSPropertyOp1
 70
     1
102
RTVSPropertyOp2
 70
     1
102
RTVSPropertyOp3
 70
     1
102
RTVSPropertyOp4
 70
     1
102
RTVSPropertyOp5
 70
     1
102
RTVSPropertyOp6
 70
     1
102
RTVSPropertyOp7
 70
     1
102
RTVSPropertyOp8
 70
     1
102
RTVSPropertyOp9
 70
     1
102
RTVSPropertyOp10
 70
     1
102
RTVSPropertyOp11
 70
     1
102
RTVSPropertyOp12
 70
     1
102
RTVSPropertyOp13
 70
     1
102
RTVSPropertyOp14
 70
     1
102
RTVSPropertyOp15
 70
     1
102
RTVSPropertyOp16
 70
     1
102
RTVSPropertyOp17
 70
     1
102
RTVSPropertyOp18
 70
     1
102
RTVSPropertyOp19
 70
     1
102
RTVSPropertyOp20
 70
     1
102
RTVSPropertyOp21
 70
     1
102
RTVSPropertyOp22
 70
     1
102
RTVSPropertyOp23
 70
     1
102
RTVSPropertyOp24
 70
     1
102
RTVSPropertyOp25
 70
     1
102
RTVSPropertyOp26
 70
     1
102
RTVSPropertyOp27
 70
     1
102
RTVSPropertyOp28
 70
     1
102
RTVSPropertyOp29
 70
     1
102
RTVSPropertyOp30
 70
     1
102
RTVSPropertyOp31
 70
     1
102
RTVSPropertyOp32
 70
     1
  0
XRECORD
  5
261
102
{ACAD_REACTORS
330
260
102
}
330
260
100
AcDbXrecord
280
     1
102
RTVSPropertyOp0
 70
     1
102
RTVSPropertyOp1
 70
     1
102
RTVSPropertyOp2
 70
     1
102
RTVSPropertyOp3
 70
     1
102
RTVSPropertyOp4
 70
     1
102
RTVSPropertyOp5
 70
     1
102
RTVSPropertyOp6
 70
     1
102
RTVSPropertyOp7
 70
     1
102
RTVSPropertyOp8
 70
     1
102
RTVSPropertyOp9
 70
     1
102
RTVSPropertyOp10
 70
     1
102
RTVSPropertyOp11
 70
     1
102
RTVSPropertyOp12
 70
     1
102
RTVSPropertyOp13
 70
     1
102
RTVSPropertyOp14
 70
     1
102
RTVSPropertyOp15
 70
     1
102
RTVSPropertyOp16
 70
     1
102
RTVSPropertyOp17
 70
     1
102
RTVSPropertyOp18
 70
     1
102
RTVSPropertyOp19
 70
     1
102
RTVSPropertyOp20
 70
     1
102
RTVSPropertyOp21
 70
     1
102
RTVSPropertyOp22
 70
     1
102
RTVSPropertyOp23
 70
     1
102
RTVSPropertyOp24
 70
     1
102
RTVSPropertyOp25
 70
     1
102
RTVSPropertyOp26
 70
     1
102
RTVSPropertyOp27
 70
     1
102
RTVSPropertyOp28
 70
     1
102
RTVSPropertyOp29
 70
     1
102
RTVSPropertyOp30
 70
     1
102
RTVSPropertyOp31
 70
     1
102
RTVSPropertyOp32
 70
     1
  0
XRECORD
  5
255
102
{ACAD_REACTORS
330
254
102
}
330
254
100
AcDbXrecord
280
     1
102
RTVSPropertyOp0
 70
     1
102
RTVSPropertyOp1
 70
     1
102
RTVSPropertyOp2
 70
     1
102
RTVSPropertyOp3
 70
     1
102
RTVSPropertyOp4
 70
     1
102
RTVSPropertyOp5
 70
     1
102
RTVSPropertyOp6
 70
     1
102
RTVSPropertyOp7
 70
     1
102
RTVSPropertyOp8
 70
     1
102
RTVSPropertyOp9
 70
     1
102
RTVSPropertyOp10
 70
     1
102
RTVSPropertyOp11
 70
     1
102
RTVSPropertyOp12
 70
     1
102
RTVSPropertyOp13
 70
     1
102
RTVSPropertyOp14
 70
     1
102
RTVSPropertyOp15
 70
     1
102
RTVSPropertyOp16
 70
     1
102
RTVSPropertyOp17
 70
     1
102
RTVSPropertyOp18
 70
     1
102
RTVSPropertyOp19
 70
     1
102
RTVSPropertyOp20
 70
     1
102
RTVSPropertyOp21
 70
     1
102
RTVSPropertyOp22
 70
     1
102
RTVSPropertyOp23
 70
     1
102
RTVSPropertyOp24
 70
     1
102
RTVSPropertyOp25
 70
     1
102
RTVSPropertyOp26
 70
     1
102
RTVSPropertyOp27
 70
     1
102
RTVSPropertyOp28
 70
     1
102
RTVSPropertyOp29
 70
     1
102
RTVSPropertyOp30
 70
     1
102
RTVSPropertyOp31
 70
     1
102
RTVSPropertyOp32
 70
     1
  0
XRECORD
  5
257
102
{ACAD_REACTORS
330
256
102
}
330
256
100
AcDbXrecord
280
     1
102
RTVSPropertyOp0
 70
     1
102
RTVSPropertyOp1
 70
     1
102
RTVSPropertyOp2
 70
     1
102
RTVSPropertyOp3
 70
     1
102
RTVSPropertyOp4
 70
     1
102
RTVSPropertyOp5
 70
     1
102
RTVSPropertyOp6
 70
     1
102
RTVSPropertyOp7
 70
     1
102
RTVSPropertyOp8
 70
     1
102
RTVSPropertyOp9
 70
     1
102
RTVSPropertyOp10
 70
     1
102
RTVSPropertyOp11
 70
     1
102
RTVSPropertyOp12
 70
     1
102
RTVSPropertyOp13
 70
     1
102
RTVSPropertyOp14
 70
     1
102
RTVSPropertyOp15
 70
     1
102
RTVSPropertyOp16
 70
     1
102
RTVSPropertyOp17
 70
     1
102
RTVSPropertyOp18
 70
     1
102
RTVSPropertyOp19
 70
     1
102
RTVSPropertyOp20
 70
     1
102
RTVSPropertyOp21
 70
     1
102
RTVSPropertyOp22
 70
     1
102
RTVSPropertyOp23
 70
     1
102
RTVSPropertyOp24
 70
     1
102
RTVSPropertyOp25
 70
     1
102
RTVSPropertyOp26
 70
     1
102
RTVSPropertyOp27
 70
     1
102
RTVSPropertyOp28
 70
     1
102
RTVSPropertyOp29
 70
     1
102
RTVSPropertyOp30
 70
     1
102
RTVSPropertyOp31
 70
     1
102
RTVSPropertyOp32
 70
     1
  0
XRECORD
  5
25F
102
{ACAD_REACTORS
330
25E
102
}
330
25E
100
AcDbXrecord
280
     1
102
RTVSPropertyOp0
 70
     1
102
RTVSPropertyOp1
 70
     1
102
RTVSPropertyOp2
 70
     1
102
RTVSPropertyOp3
 70
     1
102
RTVSPropertyOp4
 70
     1
102
RTVSPropertyOp5
 70
     1
102
RTVSPropertyOp6
 70
     1
102
RTVSPropertyOp7
 70
     1
102
RTVSPropertyOp8
 70
     1
102
RTVSPropertyOp9
 70
     1
102
RTVSPropertyOp10
 70
     1
102
RTVSPropertyOp11
 70
     1
102
RTVSPropertyOp12
 70
     1
102
RTVSPropertyOp13
 70
     1
102
RTVSPropertyOp14
 70
     1
102
RTVSPropertyOp15
 70
     1
102
RTVSPropertyOp16
 70
     1
102
RTVSPropertyOp17
 70
     1
102
RTVSPropertyOp18
 70
     1
102
RTVSPropertyOp19
 70
     1
102
RTVSPropertyOp20
 70
     1
102
RTVSPropertyOp21
 70
     1
102
RTVSPropertyOp22
 70
     1
102
RTVSPropertyOp23
 70
     1
102
RTVSPropertyOp24
 70
     1
102
RTVSPropertyOp25
 70
     1
102
RTVSPropertyOp26
 70
     1
102
RTVSPropertyOp27
 70
     1
102
RTVSPropertyOp28
 70
     1
102
RTVSPropertyOp29
 70
     1
102
RTVSPropertyOp30
 70
     1
102
RTVSPropertyOp31
 70
     1
102
RTVSPropertyOp32
 70
     1
  0
XRECORD
  5
243
102
{ACAD_REACTORS
330
242
102
}
330
242
100
AcDbXrecord
280
     1
102
RTVSPropertyOp0
 70
     1
102
RTVSPropertyOp1
 70
     1
102
RTVSPropertyOp2
 70
     1
102
RTVSPropertyOp3
 70
     1
102
RTVSPropertyOp4
 70
     1
102
RTVSPropertyOp5
 70
     1
102
RTVSPropertyOp6
 70
     1
102
RTVSPropertyOp7
 70
     1
102
RTVSPropertyOp8
 70
     1
102
RTVSPropertyOp9
 70
     1
102
RTVSPropertyOp10
 70
     1
102
RTVSPropertyOp11
 70
     1
102
RTVSPropertyOp12
 70
     1
102
RTVSPropertyOp13
 70
     1
102
RTVSPropertyOp14
 70
     1
102
RTVSPropertyOp15
 70
     1
102
RTVSPropertyOp16
 70
     1
102
RTVSPropertyOp17
 70
     1
102
RTVSPropertyOp18
 70
     1
102
RTVSPropertyOp19
 70
     1
102
RTVSPropertyOp20
 70
     1
102
RTVSPropertyOp21
 70
     1
102
RTVSPropertyOp22
 70
     1
102
RTVSPropertyOp23
 70
     1
102
RTVSPropertyOp24
 70
     1
102
RTVSPropertyOp25
 70
     1
102
RTVSPropertyOp26
 70
     1
102
RTVSPropertyOp27
 70
     1
102
RTVSPropertyOp28
 70
     1
102
RTVSPropertyOp29
 70
     1
102
RTVSPropertyOp30
 70
     1
102
RTVSPropertyOp31
 70
     1
102
RTVSPropertyOp32
 70
     1
  0
XRECORD
  5
245
102
{ACAD_REACTORS
330
244
102
}
330
244
100
AcDbXrecord
280
     1
102
RTVSPropertyOp0
 70
     1
102
RTVSPropertyOp1
 70
     1
102
RTVSPropertyOp2
 70
     1
102
RTVSPropertyOp3
 70
     1
102
RTVSPropertyOp4
 70
     1
102
RTVSPropertyOp5
 70
     1
102
RTVSPropertyOp6
 70
     1
102
RTVSPropertyOp7
 70
     1
102
RTVSPropertyOp8
 70
     1
102
RTVSPropertyOp9
 70
     1
102
RTVSPropertyOp10
 70
     1
102
RTVSPropertyOp11
 70
     1
102
RTVSPropertyOp12
 70
     1
102
RTVSPropertyOp13
 70
     1
102
RTVSPropertyOp14
 70
     1
102
RTVSPropertyOp15
 70
     1
102
RTVSPropertyOp16
 70
     1
102
RTVSPropertyOp17
 70
     1
102
RTVSPropertyOp18
 70
     1
102
RTVSPropertyOp19
 70
     1
102
RTVSPropertyOp20
 70
     1
102
RTVSPropertyOp21
 70
     1
102
RTVSPropertyOp22
 70
     1
102
RTVSPropertyOp23
 70
     1
102
RTVSPropertyOp24
 70
     1
102
RTVSPropertyOp25
 70
     1
102
RTVSPropertyOp26
 70
     1
102
RTVSPropertyOp27
 70
     1
102
RTVSPropertyOp28
 70
     1
102
RTVSPropertyOp29
 70
     1
102
RTVSPropertyOp30
 70
     1
102
RTVSPropertyOp31
 70
     1
102
RTVSPropertyOp32
 70
     1
  0
XRECORD
  5
247
102
{ACAD_REACTORS
330
246
102
}
330
246
100
AcDbXrecord
280
     1
102
RTVSPropertyOp0
 70
     1
102
RTVSPropertyOp1
 70
     1
102
RTVSPropertyOp2
 70
     1
102
RTVSPropertyOp3
 70
     1
102
RTVSPropertyOp4
 70
     1
102
RTVSPropertyOp5
 70
     1
102
RTVSPropertyOp6
 70
     1
102
RTVSPropertyOp7
 70
     1
102
RTVSPropertyOp8
 70
     1
102
RTVSPropertyOp9
 70
     1
102
RTVSPropertyOp10
 70
     1
102
RTVSPropertyOp11
 70
     1
102
RTVSPropertyOp12
 70
     1
102
RTVSPropertyOp13
 70
     1
102
RTVSPropertyOp14
 70
     1
102
RTVSPropertyOp15
 70
     1
102
RTVSPropertyOp16
 70
     1
102
RTVSPropertyOp17
 70
     1
102
RTVSPropertyOp18
 70
     1
102
RTVSPropertyOp19
 70
     1
102
RTVSPropertyOp20
 70
     1
102
RTVSPropertyOp21
 70
     1
102
RTVSPropertyOp22
 70
     1
102
RTVSPropertyOp23
 70
     1
102
RTVSPropertyOp24
 70
     1
102
RTVSPropertyOp25
 70
     1
102
RTVSPropertyOp26
 70
     1
102
RTVSPropertyOp27
 70
     1
102
RTVSPropertyOp28
 70
     1
102
RTVSPropertyOp29
 70
     1
102
RTVSPropertyOp30
 70
     1
102
RTVSPropertyOp31
 70
     1
102
RTVSPropertyOp32
 70
     1
  0
XRECORD
  5
249
102
{ACAD_REACTORS
330
248
102
}
330
248
100
AcDbXrecord
280
     1
102
RTVSPropertyOp0
 70
     1
102
RTVSPropertyOp1
 70
     1
102
RTVSPropertyOp2
 70
     1
102
RTVSPropertyOp3
 70
     1
102
RTVSPropertyOp4
 70
     1
102
RTVSPropertyOp5
 70
     1
102
RTVSPropertyOp6
 70
     1
102
RTVSPropertyOp7
 70
     1
102
RTVSPropertyOp8
 70
     1
102
RTVSPropertyOp9
 70
     1
102
RTVSPropertyOp10
 70
     1
102
RTVSPropertyOp11
 70
     1
102
RTVSPropertyOp12
 70
     1
102
RTVSPropertyOp13
 70
     1
102
RTVSPropertyOp14
 70
     1
102
RTVSPropertyOp15
 70
     1
102
RTVSPropertyOp16
 70
     1
102
RTVSPropertyOp17
 70
     1
102
RTVSPropertyOp18
 70
     1
102
RTVSPropertyOp19
 70
     1
102
RTVSPropertyOp20
 70
     1
102
RTVSPropertyOp21
 70
     1
102
RTVSPropertyOp22
 70
     1
102
RTVSPropertyOp23
 70
     1
102
RTVSPropertyOp24
 70
     1
102
RTVSPropertyOp25
 70
     1
102
RTVSPropertyOp26
 70
     1
102
RTVSPropertyOp27
 70
     1
102
RTVSPropertyOp28
 70
     1
102
RTVSPropertyOp29
 70
     1
102
RTVSPropertyOp30
 70
     1
102
RTVSPropertyOp31
 70
     1
102
RTVSPropertyOp32
 70
     1
  0
XRECORD
  5
25D
102
{ACAD_REACTORS
330
25C
102
}
330
25C
100
AcDbXrecord
280
     1
102
RTVSPropertyOp0
 70
     1
102
RTVSPropertyOp1
 70
     1
102
RTVSPropertyOp2
 70
     1
102
RTVSPropertyOp3
 70
     1
102
RTVSPropertyOp4
 70
     1
102
RTVSPropertyOp5
 70
     1
102
RTVSPropertyOp6
 70
     1
102
RTVSPropertyOp7
 70
     1
102
RTVSPropertyOp8
 70
     1
102
RTVSPropertyOp9
 70
     1
102
RTVSPropertyOp10
 70
     1
102
RTVSPropertyOp11
 70
     1
102
RTVSPropertyOp12
 70
     1
102
RTVSPropertyOp13
 70
     1
102
RTVSPropertyOp14
 70
     1
102
RTVSPropertyOp15
 70
     1
102
RTVSPropertyOp16
 70
     1
102
RTVSPropertyOp17
 70
     1
102
RTVSPropertyOp18
 70
     1
102
RTVSPropertyOp19
 70
     1
102
RTVSPropertyOp20
 70
     1
102
RTVSPropertyOp21
 70
     1
102
RTVSPropertyOp22
 70
     1
102
RTVSPropertyOp23
 70
     1
102
RTVSPropertyOp24
 70
     1
102
RTVSPropertyOp25
 70
     1
102
RTVSPropertyOp26
 70
     1
102
RTVSPropertyOp27
 70
     1
102
RTVSPropertyOp28
 70
     1
102
RTVSPropertyOp29
 70
     1
102
RTVSPropertyOp30
 70
     1
102
RTVSPropertyOp31
 70
     1
102
RTVSPropertyOp32
 70
     1
  0
XRECORD
  5
253
102
{ACAD_REACTORS
330
252
102
}
330
252
100
AcDbXrecord
280
     1
102
RTVSPropertyOp0
 70
     1
102
RTVSPropertyOp1
 70
     1
102
RTVSPropertyOp2
 70
     1
102
RTVSPropertyOp3
 70
     1
102
RTVSPropertyOp4
 70
     1
102
RTVSPropertyOp5
 70
     1
102
RTVSPropertyOp6
 70
     1
102
RTVSPropertyOp7
 70
     1
102
RTVSPropertyOp8
 70
     1
102
RTVSPropertyOp9
 70
     1
102
RTVSPropertyOp10
 70
     1
102
RTVSPropertyOp11
 70
     1
102
RTVSPropertyOp12
 70
     1
102
RTVSPropertyOp13
 70
     1
102
RTVSPropertyOp14
 70
     1
102
RTVSPropertyOp15
 70
     1
102
RTVSPropertyOp16
 70
     1
102
RTVSPropertyOp17
 70
     1
102
RTVSPropertyOp18
 70
     1
102
RTVSPropertyOp19
 70
     1
102
RTVSPropertyOp20
 70
     1
102
RTVSPropertyOp21
 70
     1
102
RTVSPropertyOp22
 70
     1
102
RTVSPropertyOp23
 70
     1
102
RTVSPropertyOp24
 70
     1
102
RTVSPropertyOp25
 70
     1
102
RTVSPropertyOp26
 70
     1
102
RTVSPropertyOp27
 70
     1
102
RTVSPropertyOp28
 70
     1
102
RTVSPropertyOp29
 70
     1
102
RTVSPropertyOp30
 70
     1
102
RTVSPropertyOp31
 70
     1
102
RTVSPropertyOp32
 70
     1
  0
XRECORD
  5
25B
102
{ACAD_REACTORS
330
25A
102
}
330
25A
100
AcDbXrecord
280
     1
102
RTVSPropertyOp0
 70
     1
102
RTVSPropertyOp1
 70
     1
102
RTVSPropertyOp2
 70
     1
102
RTVSPropertyOp3
 70
     1
102
RTVSPropertyOp4
 70
     1
102
RTVSPropertyOp5
 70
     1
102
RTVSPropertyOp6
 70
     1
102
RTVSPropertyOp7
 70
     1
102
RTVSPropertyOp8
 70
     1
102
RTVSPropertyOp9
 70
     1
102
RTVSPropertyOp10
 70
     1
102
RTVSPropertyOp11
 70
     1
102
RTVSPropertyOp12
 70
     1
102
RTVSPropertyOp13
 70
     1
102
RTVSPropertyOp14
 70
     1
102
RTVSPropertyOp15
 70
     1
102
RTVSPropertyOp16
 70
     1
102
RTVSPropertyOp17
 70
     1
102
RTVSPropertyOp18
 70
     1
102
RTVSPropertyOp19
 70
     1
102
RTVSPropertyOp20
 70
     1
102
RTVSPropertyOp21
 70
     1
102
RTVSPropertyOp22
 70
     1
102
RTVSPropertyOp23
 70
     1
102
RTVSPropertyOp24
 70
     1
102
RTVSPropertyOp25
 70
     1
102
RTVSPropertyOp26
 70
     1
102
RTVSPropertyOp27
 70
     1
102
RTVSPropertyOp28
 70
     1
102
RTVSPropertyOp29
 70
     1
102
RTVSPropertyOp30
 70
     1
102
RTVSPropertyOp31
 70
     1
102
RTVSPropertyOp32
 70
     1
  0
ENDSEC
  0
EOF
