  0
SECTION
  2
HEADER
  9
$ACADVER
  1
AC1015
  9
$ACADMAINTVER
 70
     6
  9
$DWGCODEPAGE
  3
ANSI_1252
  9
$INSBASE
 10
0.0
 20
0.0
 30
0.0
  9
$EXTMIN
 10
-244.037669747061
 20
2.28207210725108
 30
0.0
  9
$EXTMAX
 10
52.96233025293711
 20
212.2820721072511
 30
0.0
  9
$LIMMIN
 10
0.0
 20
0.0
  9
$LIMMAX
 10
12.0
 20
9.0
  9
$ORTHOMODE
 70
     0
  9
$REGENMODE
 70
     1
  9
$FILLMODE
 70
     1
  9
$QTEXTMODE
 70
     0
  9
$MIRRTEXT
 70
     1
  9
$LTSCALE
 40
1.0
  9
$ATTMODE
 70
     1
  9
$TEXTSIZE
 40
0.2
  9
$TRACEWID
 40
0.05
  9
$TEXTSTYLE
  7
Standard
  9
$CLAYER
  8
0
  9
$CELTYPE
  6
ByLayer
  9
$CECOLOR
 62
   256
  9
$CELTSCALE
 40
1.0
  9
$DISPSILH
 70
     0
  9
$DIMSCALE
 40
1.0
  9
$DIMASZ
 40
0.18
  9
$DIMEXO
 40
0.0625
  9
$DIMDLI
 40
0.38
  9
$DIMRND
 40
0.0
  9
$DIMDLE
 40
0.0
  9
$DIMEXE
 40
0.18
  9
$DIMTP
 40
0.0
  9
$DIMTM
 40
0.0
  9
$DIMTXT
 40
0.18
  9
$DIMCEN
 40
0.09
  9
$DIMTSZ
 40
0.0
  9
$DIMTOL
 70
     0
  9
$DIMLIM
 70
     0
  9
$DIMTIH
 70
     1
  9
$DIMTOH
 70
     1
  9
$DIMSE1
 70
     0
  9
$DIMSE2
 70
     0
  9
$DIMTAD
 70
     0
  9
$DIMZIN
 70
     0
  9
$DIMBLK
  1

  9
$DIMASO
 70
     1
  9
$DIMSHO
 70
     1
  9
$DIMPOST
  1

  9
$DIMAPOST
  1

  9
$DIMALT
 70
     0
  9
$DIMALTD
 70
     2
  9
$DIMALTF
 40
25.4
  9
$DIMLFAC
 40
1.0
  9
$DIMTOFL
 70
     0
  9
$DIMTVP
 40
0.0
  9
$DIMTIX
 70
     0
  9
$DIMSOXD
 70
     0
  9
$DIMSAH
 70
     0
  9
$DIMBLK1
  1

  9
$DIMBLK2
  1

  9
$DIMSTYLE
  2
Standard
  9
$DIMCLRD
 70
     0
  9
$DIMCLRE
 70
     0
  9
$DIMCLRT
 70
     0
  9
$DIMTFAC
 40
1.0
  9
$DIMGAP
 40
0.09
  9
$DIMJUST
 70
     0
  9
$DIMSD1
 70
     0
  9
$DIMSD2
 70
     0
  9
$DIMTOLJ
 70
     1
  9
$DIMTZIN
 70
     0
  9
$DIMALTZ
 70
     0
  9
$DIMALTTZ
 70
     0
  9
$DIMUPT
 70
     0
  9
$DIMDEC
 70
     4
  9
$DIMTDEC
 70
     4
  9
$DIMALTU
 70
     2
  9
$DIMALTTD
 70
     2
  9
$DIMTXSTY
  7
Standard
  9
$DIMAUNIT
 70
     0
  9
$DIMADEC
 70
     0
  9
$DIMALTRND
 40
0.0
  9
$DIMAZIN
 70
     0
  9
$DIMDSEP
 70
    46
  9
$DIMATFIT
 70
     3
  9
$DIMFRAC
 70
     0
  9
$DIMLDRBLK
  1

  9
$DIMLUNIT
 70
     2
  9
$DIMLWD
 70
    -2
  9
$DIMLWE
 70
    -2
  9
$DIMTMOVE
 70
     0
  9
$LUNITS
 70
     2
  9
$LUPREC
 70
     4
  9
$SKETCHINC
 40
0.1
  9
$FILLETRAD
 40
0.5
  9
$AUNITS
 70
     0
  9
$AUPREC
 70
     0
  9
$MENU
  1
.
  9
$ELEVATION
 40
0.0
  9
$PELEVATION
 40
0.0
  9
$THICKNESS
 40
0.0
  9
$LIMCHECK
 70
     0
  9
$CHAMFERA
 40
0.5
  9
$CHAMFERB
 40
0.5
  9
$CHAMFERC
 40
1.0
  9
$CHAMFERD
 40
0.0
  9
$SKPOLY
 70
     0
  9
$TDCREATE
 40
2456541.472348692
  9
$TDUCREATE
 40
2456541.389015359
  9
$TDUPDATE
 40
2456541.47235044
  9
$TDUUPDATE
 40
2456541.389017106
  9
$TDINDWG
 40
0.0000000116
  9
$TDUSRTIMER
 40
0.0000000116
  9
$USRTIMER
 70
     1
  9
$ANGBASE
 50
0.0
  9
$ANGDIR
 70
     0
  9
$PDMODE
 70
     0
  9
$PDSIZE
 40
0.0
  9
$PLINEWID
 40
0.0
  9
$SPLFRAME
 70
     0
  9
$SPLINETYPE
 70
     6
  9
$SPLINESEGS
 70
     8
  9
$HANDSEED
  5
33C
  9
$SURFTAB1
 70
     6
  9
$SURFTAB2
 70
     6
  9
$SURFTYPE
 70
     6
  9
$SURFU
 70
     6
  9
$SURFV
 70
     6
  9
$UCSBASE
  2

  9
$UCSNAME
  2

  9
$UCSORG
 10
0.0
 20
0.0
 30
0.0
  9
$UCSXDIR
 10
1.0
 20
0.0
 30
0.0
  9
$UCSYDIR
 10
0.0
 20
1.0
 30
0.0
  9
$UCSORTHOREF
  2

  9
$UCSORTHOVIEW
 70
     0
  9
$UCSORGTOP
 10
0.0
 20
0.0
 30
0.0
  9
$UCSORGBOTTOM
 10
0.0
 20
0.0
 30
0.0
  9
$UCSORGLEFT
 10
0.0
 20
0.0
 30
0.0
  9
$UCSORGRIGHT
 10
0.0
 20
0.0
 30
0.0
  9
$UCSORGFRONT
 10
0.0
 20
0.0
 30
0.0
  9
$UCSORGBACK
 10
0.0
 20
0.0
 30
0.0
  9
$PUCSBASE
  2

  9
$PUCSNAME
  2

  9
$PUCSORG
 10
0.0
 20
0.0
 30
0.0
  9
$PUCSXDIR
 10
1.0
 20
0.0
 30
0.0
  9
$PUCSYDIR
 10
0.0
 20
1.0
 30
0.0
  9
$PUCSORTHOREF
  2

  9
$PUCSORTHOVIEW
 70
     0
  9
$PUCSORGTOP
 10
0.0
 20
0.0
 30
0.0
  9
$PUCSORGBOTTOM
 10
0.0
 20
0.0
 30
0.0
  9
$PUCSORGLEFT
 10
0.0
 20
0.0
 30
0.0
  9
$PUCSORGRIGHT
 10
0.0
 20
0.0
 30
0.0
  9
$PUCSORGFRONT
 10
0.0
 20
0.0
 30
0.0
  9
$PUCSORGBACK
 10
0.0
 20
0.0
 30
0.0
  9
$USERI1
 70
     0
  9
$USERI2
 70
     0
  9
$USERI3
 70
     0
  9
$USERI4
 70
     0
  9
$USERI5
 70
     0
  9
$USERR1
 40
18.1
  9
$USERR2
 40
0.0
  9
$USERR3
 40
0.0
  9
$USERR4
 40
0.0
  9
$USERR5
 40
0.0
  9
$WORLDVIEW
 70
     1
  9
$SHADEDGE
 70
     3
  9
$SHADEDIF
 70
    70
  9
$TILEMODE
 70
     1
  9
$MAXACTVP
 70
    64
  9
$PINSBASE
 10
0.0
 20
0.0
 30
0.0
  9
$PLIMCHECK
 70
     0
  9
$PEXTMIN
 10
1.00000000000000E+20
 20
1.00000000000000E+20
 30
1.00000000000000E+20
  9
$PEXTMAX
 10
-1.00000000000000E+20
 20
-1.00000000000000E+20
 30
-1.00000000000000E+20
  9
$PLIMMIN
 10
0.0
 20
0.0
  9
$PLIMMAX
 10
12.0
 20
9.0
  9
$UNITMODE
 70
     0
  9
$VISRETAIN
 70
     1
  9
$PLINEGEN
 70
     0
  9
$PSLTSCALE
 70
     1
  9
$TREEDEPTH
 70
  3020
  9
$CMLSTYLE
  2
Standard
  9
$CMLJUST
 70
     0
  9
$CMLSCALE
 40
1.0
  9
$PROXYGRAPHICS
 70
     1
  9
$MEASUREMENT
 70
     1
  9
$CELWEIGHT
370
    -1
  9
$ENDCAPS
280
     0
  9
$JOINSTYLE
280
     0
  9
$LWDISPLAY
290
     0
  9
$INSUNITS
 70
     4
  9
$HYPERLINKBASE
  1

  9
$STYLESHEET
  1

  9
$XEDIT
290
     1
  9
$CEPSNTYPE
380
     0
  9
$PSTYLEMODE
290
     1
  9
$FINGERPRINTGUID
  2
{D78EB3BC-5783-481D-8158-020AE6984326}
  9
$VERSIONGUID
  2
{FAEB1C32-E019-11D5-929B-00C0DF256EC4}
  9
$EXTNAMES
290
     1
  9
$PSVPSCALE
 40
0.0
  9
$OLESTARTUP
290
     0
  0
ENDSEC
  0
SECTION
  2
CLASSES
  0
CLASS
  1
ACDBDICTIONARYWDFLT
  2
AcDbDictionaryWithDefault
  3
ObjectDBX Classes
 90
        0
280
     0
281
     0
  0
CLASS
  1
VISUALSTYLE
  2
AcDbVisualStyle
  3
ObjectDBX Classes
 90
     4095
280
     0
281
     0
  0
CLASS
  1
MATERIAL
  2
AcDbMaterial
  3
ObjectDBX Classes
 90
     1153
280
     0
281
     0
  0
CLASS
  1
DICTIONARYVAR
  2
AcDbDictionaryVar
  3
ObjectDBX Classes
 90
        0
280
     0
281
     0
  0
CLASS
  1
ACDBPLACEHOLDER
  2
AcDbPlaceHolder
  3
ObjectDBX Classes
 90
        0
280
     0
281
     0
  0
CLASS
  1
LAYOUT
  2
AcDbLayout
  3
ObjectDBX Classes
 90
        0
280
     0
281
     0
  0
ENDSEC
  0
SECTION
  2
TABLES
  0
TABLE
  2
VPORT
  5
8
330
0
100
AcDbSymbolTable
 70
     1
  0
VPORT
  5
29
330
8
100
AcDbSymbolTableRecord
100
AcDbViewportTableRecord
  2
*Active
 70
     0
 10
0.0
 20
0.0
 11
1.0
 21
1.0
 12
-95.53766974706194
 22
107.2820721072511
 13
0.0
 23
0.0
 14
0.5
 24
0.5
 15
0.5
 25
0.5
 16
0.0
 26
0.0
 36
1.0
 17
0.0
 27
0.0
 37
0.0
 40
231.0000000000001
 41
1.60267857142857
 42
50.0
 43
0.0
 44
0.0
 50
0.0
 51
0.0
 71
     0
 72
   100
 73
     1
 74
     3
 75
     0
 76
     0
 77
     0
 78
     0
281
     0
 65
     1
110
0.0
120
0.0
130
0.0
111
1.0
121
0.0
131
0.0
112
0.0
122
1.0
132
0.0
 79
     0
146
0.0
  0
ENDTAB
  0
TABLE
  2
LTYPE
  5
5
330
0
100
AcDbSymbolTable
 70
     8
  0
LTYPE
  5
14
330
5
100
AcDbSymbolTableRecord
100
AcDbLinetypeTableRecord
  2
ByBlock
 70
     0
  3

 72
    65
 73
     0
 40
0.0
  0
LTYPE
  5
15
330
5
100
AcDbSymbolTableRecord
100
AcDbLinetypeTableRecord
  2
ByLayer
 70
     0
  3

 72
    65
 73
     0
 40
0.0
  0
LTYPE
  5
16
330
5
100
AcDbSymbolTableRecord
100
AcDbLinetypeTableRecord
  2
Continuous
 70
     0
  3
Solid line
 72
    65
 73
     0
 40
0.0
  0
LTYPE
  5
3F
330
5
100
AcDbSymbolTableRecord
100
AcDbLinetypeTableRecord
  2
DASHED
 70
     0
  3
Dashed
 72
    65
 73
     2
 40
15.0
 49
7.0
 74
     0
 49
-8.0
 74
     0
  0
LTYPE
  5
40
330
5
100
AcDbSymbolTableRecord
100
AcDbLinetypeTableRecord
  2
DOTTED
 70
     0
  3
Dotted
 72
    65
 73
     2
 40
1.0
 49
0.0
 74
     0
 49
-1.0
 74
     0
  0
LTYPE
  5
41
330
5
100
AcDbSymbolTableRecord
100
AcDbLinetypeTableRecord
  2
DOT_CENTER
 70
     0
  3
Dot_Center
 72
    65
 73
     4
 40
14.0
 49
12.0
 74
     0
 49
-1.0
 74
     0
 49
0.0
 74
     0
 49
-1.0
 74
     0
  0
LTYPE
  5
42
330
5
100
AcDbSymbolTableRecord
100
AcDbLinetypeTableRecord
  2
LONG_DASHED
 70
     0
  3
Long_Dashed
 72
    65
 73
     2
 40
15.0
 49
10.0
 74
     0
 49
-5.0
 74
     0
  0
LTYPE
  5
43
330
5
100
AcDbSymbolTableRecord
100
AcDbLinetypeTableRecord
  2
DASH_CENTER
 70
     0
  3
Dash_Center
 72
    65
 73
     4
 40
14.0
 49
11.0
 74
     0
 49
-1.0
 74
     0
 49
1.0
 74
     0
 49
-1.0
 74
     0
  0
LTYPE
  5
44
330
5
100
AcDbSymbolTableRecord
100
AcDbLinetypeTableRecord
  2
PHANTOM
 70
     0
  3
Phantom
 72
    65
 73
     6
 40
13.0
 49
10.0
 74
     0
 49
-1.0
 74
     0
 49
0.0
 74
     0
 49
-1.0
 74
     0
 49
0.0
 74
     0
 49
-1.0
 74
     0
  0
LTYPE
  5
45
330
5
100
AcDbSymbolTableRecord
100
AcDbLinetypeTableRecord
  2
CENTER_DASH_DASH
 70
     0
  3
Center_Dash_Dash
 72
    65
 73
     6
 40
14.0
 49
9.0
 74
     0
 49
-1.0
 74
     0
 49
1.0
 74
     0
 49
-1.0
 74
     0
 49
1.0
 74
     0
 49
-1.0
 74
     0
  0
ENDTAB
  0
TABLE
  2
LAYER
  5
2
330
0
100
AcDbSymbolTable
 70
     2
  0
LAYER
  5
10
330
2
100
AcDbSymbolTableRecord
100
AcDbLayerTableRecord
  2
0
 70
     0
 62
     7
  6
Continuous
370
    -3
390
F
  0
LAYER
  5
46
330
2
100
AcDbSymbolTableRecord
100
AcDbLayerTableRecord
  2
1
 70
     0
 62
     7
  6
Continuous
370
    -3
390
F
  0
ENDTAB
  0
TABLE
  2
STYLE
  5
3
330
0
100
AcDbSymbolTable
 70
     9
  0
STYLE
  5
11
330
3
100
AcDbSymbolTableRecord
100
AcDbTextStyleTableRecord
  2
Standard
 70
     0
 40
0.0
 41
1.0
 50
0.0
 71
     0
 42
0.2
  3
txt
  4

  0
STYLE
  5
9B
330
3
100
AcDbSymbolTableRecord
100
AcDbTextStyleTableRecord
  2
CONVERTER_11
 70
     0
 40
0.0
 41
0.9
 50
0.0
 71
     0
 42
0.2
  3
txt.shx
  4

  0
STYLE
  5
28F
330
3
100
AcDbSymbolTableRecord
100
AcDbTextStyleTableRecord
  2
CONVERTER_12
 70
     0
 40
0.0
 41
0.63
 50
0.0
 71
     0
 42
0.2
  3
txt.shx
  4

  0
STYLE
  5
292
330
3
100
AcDbSymbolTableRecord
100
AcDbTextStyleTableRecord
  2
CONVERTER_13
 70
     0
 40
0.0
 41
0.72
 50
0.0
 71
     0
 42
0.2
  3
txt.shx
  4

  0
STYLE
  5
296
330
3
100
AcDbSymbolTableRecord
100
AcDbTextStyleTableRecord
  2
CONVERTER_14
 70
     0
 40
0.0
 41
0.765
 50
0.0
 71
     0
 42
0.2
  3
txt.shx
  4

  0
STYLE
  5
2CE
330
3
100
AcDbSymbolTableRecord
100
AcDbTextStyleTableRecord
  2
CONVERTER_15
 70
     0
 40
0.0
 41
0.855
 50
0.0
 71
     0
 42
0.2
  3
txt.shx
  4

  0
STYLE
  5
2EA
330
3
100
AcDbSymbolTableRecord
100
AcDbTextStyleTableRecord
  2
CONVERTER_16
 70
     0
 40
0.0
 41
0.54
 50
0.0
 71
     0
 42
0.2
  3
txt.shx
  4

  0
STYLE
  5
2EC
330
3
100
AcDbSymbolTableRecord
100
AcDbTextStyleTableRecord
  2
CONVERTER_17
 70
     0
 40
0.0
 41
0.81
 50
0.0
 71
     0
 42
0.2
  3
txt.shx
  4

  0
STYLE
  5
2F3
330
3
100
AcDbSymbolTableRecord
100
AcDbTextStyleTableRecord
  2
CONVERTER_18
 70
     0
 40
0.0
 41
0.45
 50
0.0
 71
     0
 42
0.2
  3
txt.shx
  4

  0
ENDTAB
  0
TABLE
  2
VIEW
  5
6
330
0
100
AcDbSymbolTable
 70
     0
  0
ENDTAB
  0
TABLE
  2
UCS
  5
7
330
0
100
AcDbSymbolTable
 70
     0
  0
ENDTAB
  0
TABLE
  2
APPID
  5
9
330
0
100
AcDbSymbolTable
 70
     1
  0
APPID
  5
12
330
9
100
AcDbSymbolTableRecord
100
AcDbRegAppTableRecord
  2
ACAD
 70
     0
  0
ENDTAB
  0
TABLE
  2
DIMSTYLE
  5
A
330
0
100
AcDbSymbolTable
 70
     2
100
AcDbDimStyleTable
  0
DIMSTYLE
105
27
330
A
100
AcDbSymbolTableRecord
100
AcDbDimStyleTableRecord
  2
Standard
 70
     0
178
     0
340
11
  0
DIMSTYLE
105
110
102
{ACAD_REACTORS
330
111
102
}
330
A
100
AcDbSymbolTableRecord
100
AcDbDimStyleTableRecord
  2
ME10_DIM_10
 70
     0
 41
1.75
 42
0.0
 44
1.0
 73
     0
 74
     0
 77
     1
 78
     8
140
1.75
147
1.0
172
     1
173
     1
174
     1
175
     1
176
     2
177
     2
271
     1
178
     3
271
     1
340
9B
  0
ENDTAB
  0
TABLE
  2
BLOCK_RECORD
  5
1
330
0
100
AcDbSymbolTable
 70
    18
  0
BLOCK_RECORD
  5
1F
330
1
100
AcDbSymbolTableRecord
100
AcDbBlockTableRecord
  2
*Model_Space
340
22
  0
BLOCK_RECORD
  5
1B
330
1
100
AcDbSymbolTableRecord
100
AcDbBlockTableRecord
  2
*Paper_Space
340
1E
  0
BLOCK_RECORD
  5
23
330
1
100
AcDbSymbolTableRecord
100
AcDbBlockTableRecord
  2
*Paper_Space0
340
26
  0
BLOCK_RECORD
  5
47
330
1
100
AcDbSymbolTableRecord
100
AcDbBlockTableRecord
  2
1695744_PROT_M12_VPE100-select__1
340
0
102
{BLKREFS
331
4B
102
}
  0
BLOCK_RECORD
  5
4A
330
1
100
AcDbSymbolTableRecord
100
AcDbBlockTableRecord
  2
Allg1
340
0
102
{BLKREFS
331
7C
102
}
  0
BLOCK_RECORD
  5
4E
330
1
100
AcDbSymbolTableRecord
100
AcDbBlockTableRecord
  2
1695744_PROT_M12_VPE100-select__2
340
0
102
{BLKREFS
331
52
102
}
  0
BLOCK_RECORD
  5
51
330
1
100
AcDbSymbolTableRecord
100
AcDbBlockTableRecord
  2
Drfsicht1
340
0
102
{BLKREFS
331
7D
102
}
  0
BLOCK_RECORD
  5
55
330
1
100
AcDbSymbolTableRecord
100
AcDbBlockTableRecord
  2
1695744_PROT_M12_VPE100-select__3
340
0
102
{BLKREFS
331
59
102
}
  0
BLOCK_RECORD
  5
58
330
1
100
AcDbSymbolTableRecord
100
AcDbBlockTableRecord
  2
Rckans1
340
0
102
{BLKREFS
331
7E
102
}
  0
BLOCK_RECORD
  5
5C
330
1
100
AcDbSymbolTableRecord
100
AcDbBlockTableRecord
  2
1695744_PROT_M12_VPE100-select__4
340
0
102
{BLKREFS
331
60
102
}
  0
BLOCK_RECORD
  5
5F
330
1
100
AcDbSymbolTableRecord
100
AcDbBlockTableRecord
  2
SA_Links1
340
0
102
{BLKREFS
331
7F
102
}
  0
BLOCK_RECORD
  5
63
330
1
100
AcDbSymbolTableRecord
100
AcDbBlockTableRecord
  2
1695744_PROT_M12_VPE100-select__5
340
0
102
{BLKREFS
331
67
102
}
  0
BLOCK_RECORD
  5
66
330
1
100
AcDbSymbolTableRecord
100
AcDbBlockTableRecord
  2
SA_Rechts1
340
0
102
{BLKREFS
331
80
102
}
  0
BLOCK_RECORD
  5
6A
330
1
100
AcDbSymbolTableRecord
100
AcDbBlockTableRecord
  2
1695744_PROT_M12_VPE100-select__6
340
0
102
{BLKREFS
331
6E
102
}
  0
BLOCK_RECORD
  5
6D
330
1
100
AcDbSymbolTableRecord
100
AcDbBlockTableRecord
  2
Vordans1
340
0
102
{BLKREFS
331
81
102
}
  0
BLOCK_RECORD
  5
71
330
1
100
AcDbSymbolTableRecord
100
AcDbBlockTableRecord
  2
_punkt
340
0
102
{BLKREFS
331
78
102
}
  0
BLOCK_RECORD
  5
74
330
1
100
AcDbSymbolTableRecord
100
AcDbBlockTableRecord
  2
_rahmen
340
0
102
{BLKREFS
331
79
102
}
  0
BLOCK_RECORD
  5
77
330
1
100
AcDbSymbolTableRecord
100
AcDbBlockTableRecord
  2
A4I
340
0
102
{BLKREFS
331
82
102
}
  0
BLOCK_RECORD
  5
DB
330
1
100
AcDbSymbolTableRecord
100
AcDbBlockTableRecord
  2
*D16
340
0
102
{BLKREFS
331
E4
102
}
  0
BLOCK_RECORD
  5
107
330
1
100
AcDbSymbolTableRecord
100
AcDbBlockTableRecord
  2
*D17
340
0
  0
ENDTAB
  0
ENDSEC
  0
SECTION
  2
BLOCKS
  0
BLOCK
  5
20
330
1F
100
AcDbEntity
  8
0
100
AcDbBlockBegin
  2
*Model_Space
 70
     0
 10
0.0
 20
0.0
 30
0.0
  3
*Model_Space
  1

  0
ENDBLK
  5
21
330
1F
100
AcDbEntity
  8
0
100
AcDbBlockEnd
  0
BLOCK
  5
1C
330
1B
100
AcDbEntity
 67
     1
  8
0
100
AcDbBlockBegin
  2
*Paper_Space
 70
     0
 10
0.0
 20
0.0
 30
0.0
  3
*Paper_Space
  1

  0
ENDBLK
  5
1D
330
1B
100
AcDbEntity
 67
     1
  8
0
100
AcDbBlockEnd
  0
BLOCK
  5
24
330
23
100
AcDbEntity
  8
0
100
AcDbBlockBegin
  2
*Paper_Space0
 70
     0
 10
0.0
 20
0.0
 30
0.0
  3
*Paper_Space0
  1

  0
ENDBLK
  5
25
330
23
100
AcDbEntity
  8
0
100
AcDbBlockEnd
  0
BLOCK
  5
48
330
47
100
AcDbEntity
  8
0
100
AcDbBlockBegin
  2
1695744_PROT_M12_VPE100-select__1
 70
     0
 10
-8.83157011815176
 20
29.17241509223855
 30
0.0
  3
1695744_PROT_M12_VPE100-select__1
  1

  0
LINE
  5
83
330
47
100
AcDbEntity
  8
0
  6
Continuous
 62
     7
100
AcDbLine
 10
-5.24468348097271
 20
32.76478643890803
 30
0.0
 11
-7.6079464734791
 21
33.44700170135276
 31
0.0
  0
LINE
  5
84
330
47
100
AcDbEntity
  8
0
  6
Continuous
 62
     7
100
AcDbLine
 10
-2.25762292429985
 20
43.11226773779276
 30
0.0
 11
-4.62088591680624
 21
43.79448300023748
 31
0.0
  0
LINE
  5
85
330
47
100
AcDbEntity
  8
0
  6
Continuous
 62
     7
100
AcDbLine
 10
-1.79039011054702
 20
31.12750554043459
 30
0.0
 11
-4.3144151686806
 21
31.85612881381199
 31
0.0
  0
LINE
  5
86
330
47
100
AcDbEntity
  8
0
  6
Continuous
 62
     7
100
AcDbLine
 10
1.53781106680436
 20
42.65673261440087
 30
0.0
 11
-0.98621399132923
 21
43.38535588777826
 31
0.0
  0
LINE
  5
87
330
47
100
AcDbEntity
  8
0
  6
Continuous
 62
     7
100
AcDbLine
 10
-0.71191596561353
 20
30.03555212168909
 30
0.0
 11
1.88220105872182
 21
29.28669504053439
 31
0.0
  0
LINE
  5
88
330
47
100
AcDbEntity
  8
0
  6
Continuous
 62
     7
100
AcDbLine
 10
4.48960075647267
 20
30.85422163614644
 30
0.0
 11
3.94007712762334
 21
31.01285544366755
 31
0.0
  0
LINE
  5
89
330
47
100
AcDbEntity
  8
0
  6
Continuous
 62
     7
100
AcDbLine
 10
3.91186324648616
 20
39.36015169931874
 30
0.0
 11
3.91186324648616
 21
40.88456033835754
 31
0.0
  0
LINE
  5
8A
330
47
100
AcDbEntity
  8
0
  6
Continuous
 62
     7
100
AcDbLine
 10
3.03231035890676
 20
43.00593257990115
 30
0.0
 11
5.62642738324212
 21
42.25707549874645
 31
0.0
  0
ARC
  5
8B
330
47
100
AcDbEntity
  8
0
  6
Continuous
 62
     7
100
AcDbCircle
 10
-7.84646700271155
 20
39.12074235079512
 30
0.0
 40
15.0
100
AcDbArc
 50
336.0887678639182
 51
351.7070046321099
  0
SPLINE
  5
8C
330
47
100
AcDbEntity
  8
0
  6
Continuous
 62
     7
100
AcDbSpline
210
0.0
220
0.0
230
1.0
 70
     8
 71
     3
 72
    21
 73
    17
 74
    15
 42
0.000000001
 43
0.0000000001
 44
0.00000001
 40
0.0
 40
0.0
 40
0.0
 40
0.0
 40
0.5361464894045141
 40
1.169802120088289
 40
1.948943751599307
 40
2.878118942197215
 40
3.936265196370027
 40
5.087444604474792
 40
6.287145133236049
 40
7.486845661997298
 40
8.638025070102058
 40
9.696171324274863
 40
10.62534651487279
 40
11.4044881463838
 40
12.03814377706759
 40
12.5742902664721
 40
12.5742902664721
 40
12.5742902664721
 40
12.5742902664721
 10
-7.6079464734791
 20
33.44700170135276
 30
0.0
 10
-7.7719221533648
 20
33.52591540712261
 30
0.0
 10
-8.129695814480288
 20
33.69809489326529
 30
0.0
 10
-8.480998644318444
 20
34.27749268089207
 30
0.0
 10
-8.716035573022339
 20
35.02088474773964
 30
0.0
 10
-8.821841296928465
 20
35.9434743267016
 30
0.0
 10
-8.799137676120221
 20
36.99106187832547
 30
0.0
 10
-8.647075615071516
 20
38.11955844786189
 30
0.0
 10
-8.37308589668927
 20
39.27276413089432
 30
0.0
 10
-7.990335401600625
 20
40.39457328207236
 30
0.0
 10
-7.517583793378966
 20
41.4304947534155
 30
0.0
 10
-6.978494591050804
 20
42.32901462779127
 30
0.0
 10
-6.397282970731567
 20
43.05327938244
 30
0.0
 10
-5.802223160374827
 20
43.55704316141255
 30
0.0
 10
-5.196183410215608
 20
43.86007995090526
 30
0.0
 10
-4.801690737573185
 20
43.8150988518992
 30
0.0
 10
-4.620885916806238
 20
43.79448300023748
 30
0.0
 11
-7.6079464734791
 21
33.44700170135276
 31
0.0
 11
-8.069012973219246
 21
33.72062689938298
 31
0.0
 11
-8.43206823166827
 21
34.23996333732187
 31
0.0
 11
-8.678906261660316
 21
34.9789712304252
 31
0.0
 11
-8.797150579886654
 21
35.90059198363815
 31
0.0
 11
-8.7808708410209
 21
36.95861299524844
 31
0.0
 11
-8.630884481628435
 21
38.09997977062484
 31
0.0
 11
-8.354711375845135
 21
39.26745986361652
 31
0.0
 11
-7.966200976773523
 21
40.40251097334817
 31
0.0
 11
-7.484833974713926
 21
41.44821639710051
 31
0.0
 11
-6.93474878526666
 21
42.35214104841674
 31
0.0
 11
-6.343528525267529
 21
43.06895701902022
 31
0.0
 11
-5.740819663566754
 21
43.56272184881951
 31
0.0
 11
-5.156844568961573
 21
43.80867417212512
 31
0.0
 11
-4.620885916806238
 21
43.79448300023748
 31
0.0
  0
SPLINE
  5
8D
330
47
100
AcDbEntity
  8
0
  6
Continuous
 62
     7
100
AcDbSpline
210
0.0
220
0.0
230
1.0
 70
     8
 71
     3
 72
    19
 73
    15
 74
    13
 42
0.000000001
 43
0.0000000001
 44
0.00000001
 40
0.0
 40
0.0
 40
0.0
 40
0.0
 40
1.034067618883996
 40
2.226476054579846
 40
3.544977830093067
 40
4.945917135106192
 40
6.379233057423074
 40
7.792514519166226
 40
9.134794371990324
 40
10.36050072529158
 40
11.43413659670633
 40
12.33697579231686
 40
13.07849774019549
 40
13.71429103729471
 40
13.71429103729471
 40
13.71429103729471
 40
13.71429103729471
 10
1.160197196646621
 20
42.36641382634009
 30
0.0
 10
0.9142389482330749
 20
42.12383754050676
 30
0.0
 10
0.3846602877077062
 20
41.60154065457155
 30
0.0
 10
-0.2733649905859897
 20
40.6118178086972
 30
0.0
 10
-0.8838858048865315
 20
39.45867952292903
 30
0.0
 10
-1.40193178251361
 20
38.17211852896378
 30
0.0
 10
-1.810012645009759
 20
36.8145051145071
 30
0.0
 10
-2.088447732353063
 20
35.44421452436067
 30
0.0
 10
-2.225772149923928
 20
34.12159530981013
 30
0.0
 10
-2.215852361526432
 20
32.90573152015077
 30
0.0
 10
-2.06099960181153
 20
31.84230111614715
 30
0.0
 10
-1.761229625709106
 20
30.98763317122685
 30
0.0
 10
-1.329748275322828
 20
30.32522390273585
 30
0.0
 10
-0.9070438653463949
 20
30.12703818602248
 30
0.0
 10
-0.7119159656135281
 20
30.03555212168909
 30
0.0
 11
1.160197196646621
 21
42.36641382634009
 31
0.0
 11
0.4474082026139961
 21
41.6172625255124
 31
0.0
 11
-0.2332249470114718
 21
40.63819337925201
 31
0.0
 11
-0.8509966263936989
 21
39.47337361428548
 31
0.0
 11
-1.37803789861794
 21
38.17535264630465
 31
0.0
 11
-1.790571739883441
 21
36.80268722378526
 31
0.0
 11
-2.069988392753938
 21
35.41730250348887
 31
0.0
 11
-2.203681643543887
 21
34.08169727854666
 31
0.0
 11
-2.185621197945065
 21
32.85612399082832
 31
0.0
 11
-2.016620806108025
 21
31.79587267609304
 31
0.0
 11
-1.704305539516131
 21
30.94877304492158
 31
0.0
 11
-1.262763925883255
 21
30.35304173333046
 31
0.0
 11
-0.7119159656135281
 21
30.03555212168909
 31
0.0
  0
SPLINE
  5
8E
330
47
100
AcDbEntity
  8
0
  6
Continuous
 62
     7
100
AcDbSpline
210
0.0
220
0.0
230
1.0
 70
     8
 71
     3
 72
    17
 73
    13
 74
    11
 42
0.000000001
 43
0.0000000001
 44
0.00000001
 40
0.0
 40
0.0
 40
0.0
 40
0.0
 40
0.6708799296094805
 40
1.497245433445168
 40
2.477515698977117
 40
3.585098150296376
 40
4.778980967569164
 40
6.010124699925722
 40
7.226321658232146
 40
8.376617276240511
 40
9.415891338272349
 40
10.31039050267082
 40
10.31039050267082
 40
10.31039050267082
 40
10.31039050267082
 10
-2.071616764141808
 20
32.03726976440319
 30
0.0
 10
-2.200311812438339
 20
32.22216750227158
 30
0.0
 10
-2.487528724516805
 20
32.63481555950554
 30
0.0
 10
-2.681924434221384
 20
33.45296694087998
 30
0.0
 10
-2.768620804622575
 20
34.41983717754624
 30
0.0
 10
-2.71142416658289
 20
35.51650356049592
 30
0.0
 10
-2.523589989074015
 20
36.68059206728438
 30
0.0
 10
-2.210492743378787
 20
37.8552386137267
 30
0.0
 10
-1.790534412342269
 20
38.98124715860966
 30
0.0
 10
-1.279843524022496
 20
39.99598663054127
 30
0.0
 10
-0.7216966462031766
 20
40.86718382620559
 30
0.0
 10
-0.2639682857353791
 20
41.32330340880331
 30
0.0
 10
-0.0522383686516008
 20
41.53428915017432
 30
0.0
 11
-2.071616764141808
 21
32.03726976440319
 31
0.0
 11
-2.423623411232268
 21
32.60838376974991
 31
0.0
 11
-2.651435123391472
 21
33.4027273802098
 31
0.0
 11
-2.743119652852926
 21
34.37870060629557
 31
0.0
 11
-2.693876488161678
 21
35.48518783864633
 31
0.0
 11
-2.506283368138984
 21
36.66424042483919
 31
0.0
 11
-2.190166219518205
 21
37.85410799586025
 31
0.0
 11
-1.762079827084384
 21
38.99247396563453
 31
0.0
 11
-1.244445071622298
 21
40.01971992954094
 31
0.0
 11
-0.6643711262940264
 21
40.88204515576508
 31
0.0
 11
-0.0522383686516008
 21
41.53428915017432
 31
0.0
  0
SPLINE
  5
8F
330
47
100
AcDbEntity
  8
0
  6
Continuous
 62
     7
100
AcDbSpline
210
0.0
220
0.0
230
1.0
 70
     8
 71
     3
 72
     9
 73
     5
 74
     3
 42
0.000000001
 43
0.0000000001
 44
0.00000001
 40
0.0
 40
0.0
 40
0.0
 40
0.0
 40
0.5425381330035205
 40
1.008335117925759
 40
1.008335117925759
 40
1.008335117925759
 40
1.008335117925759
 10
-0.0522383686516008
 20
41.53428915017432
 30
0.0
 10
0.0890046926048889
 20
41.64957444091168
 30
0.0
 10
0.3515122214325654
 20
41.86383808623611
 30
0.0
 10
0.6685479141672271
 20
41.98215335751343
 30
0.0
 10
0.8150014802788945
 20
42.03680868718705
 30
0.0
 11
-0.0522383686516008
 21
41.53428915017432
 31
0.0
 11
0.3872768044125463
 21
41.85236781905504
 31
0.0
 11
0.8150014802788945
 21
42.03680868718705
 31
0.0
  0
SPLINE
  5
90
330
47
100
AcDbEntity
  8
0
  6
Continuous
 62
     7
100
AcDbSpline
210
0.0
220
0.0
230
1.0
 70
     8
 71
     3
 72
    13
 73
     9
 74
     7
 42
0.000000001
 43
0.0000000001
 44
0.00000001
 40
0.0
 40
0.0
 40
0.0
 40
0.0
 40
1.981638773117097
 40
3.900627018627538
 40
5.749354945021832
 40
7.525116457114855
 40
9.230899655255447
 40
10.87584816437774
 40
10.87584816437774
 40
10.87584816437774
 40
10.87584816437774
 10
3.489600756472669
 20
40.55370615853215
 30
0.0
 10
3.712804800952374
 20
39.93118175764665
 30
0.0
 10
4.152156165683426
 20
38.7058143800384
 30
0.0
 10
4.522826852079261
 20
36.81853948923388
 30
0.0
 10
4.658833949089596
 20
34.97036286713571
 30
0.0
 10
4.531794723934615
 20
33.19347254311354
 30
0.0
 10
4.17299679084373
 20
31.51106662667789
 30
0.0
 10
3.714625430099227
 20
30.48963813159005
 30
0.0
 10
3.489600756472669
 20
29.988196232362
 30
0.0
 11
3.489600756472669
 21
40.55370615853215
 31
0.0
 11
4.110724178876262
 21
38.67192564043524
 31
0.0
 11
4.488322687030522
 21
36.7904540739913
 31
0.0
 11
4.615014313581126
 21
34.94607228537397
 31
0.0
 11
4.488322687030522
 21
33.1748359414497
 31
0.0
 11
4.110724178876262
 21
31.51137097533422
 31
0.0
 11
3.489600756472669
 21
29.988196232362
 31
0.0
  0
SPLINE
  5
91
330
47
100
AcDbEntity
  8
0
  6
Continuous
 62
     7
100
AcDbSpline
210
0.0
220
0.0
230
1.0
 70
     8
 71
     3
 72
    11
 73
     7
 74
     5
 42
0.000000001
 43
0.0000000001
 44
0.00000001
 40
0.0
 40
0.0
 40
0.0
 40
0.0
 40
0.4342586207297108
 40
0.9059300936247183
 40
1.441982648542163
 40
2.056513244297836
 40
2.056513244297836
 40
2.056513244297836
 40
2.056513244297836
 10
3.032310358906763
 20
43.00593257990115
 30
0.0
 10
2.888509129058699
 20
43.03178365898243
 30
0.0
 10
2.588517704493027
 20
43.08571296053133
 30
0.0
 10
2.11028938657975
 20
42.97232759185703
 30
0.0
 10
1.620607831311121
 20
42.73593571141403
 30
0.0
 10
1.320490785236097
 20
42.49506418197694
 30
0.0
 10
1.160197196646621
 20
42.36641382634009
 30
0.0
 11
3.032310358906763
 21
43.00593257990115
 31
0.0
 11
2.600801656505298
 21
43.05472593735679
 31
0.0
 11
2.138218698470066
 21
42.96257937554022
 31
0.0
 11
1.654539500931235
 21
42.73148030964903
 31
0.0
 11
1.160197196646621
 21
42.36641382634009
 31
0.0
  0
SPLINE
  5
92
330
47
100
AcDbEntity
  8
0
  6
Continuous
 62
     7
100
AcDbSpline
210
0.0
220
0.0
230
1.0
 70
     8
 71
     3
 72
     9
 73
     5
 74
     3
 42
0.000000001
 43
0.0000000001
 44
0.00000001
 40
0.0
 40
0.0
 40
0.0
 40
0.0
 40
0.6440917280264115
 40
1.324029184339219
 40
1.324029184339219
 40
1.324029184339219
 40
1.324029184339219
 10
4.489600756472669
 20
41.41973156231659
 30
0.0
 10
4.336339181481803
 20
41.2690564968667
 30
0.0
 10
4.021286529902056
 20
40.95932083998078
 30
0.0
 10
3.66999950848386
 20
40.69132950949903
 30
0.0
 10
3.489600756472669
 20
40.55370615853215
 30
0.0
 11
4.489600756472669
 21
41.41973156231659
 31
0.0
 11
4.021241283416013
 21
40.97758502705035
 31
0.0
 11
3.489600756472669
 21
40.55370615853215
 31
0.0
  0
SPLINE
  5
93
330
47
100
AcDbEntity
  8
0
  6
Continuous
 62
     7
100
AcDbSpline
210
0.0
220
0.0
230
1.0
 70
     8
 71
     3
 72
    19
 73
    15
 74
    13
 42
0.000000001
 43
0.0000000001
 44
0.00000001
 40
0.0
 40
0.0
 40
0.0
 40
0.0
 40
0.6357932970992122
 40
1.377315244977845
 40
2.280154440588369
 40
3.353790312003125
 40
4.57949666530437
 40
5.921776518128468
 40
7.335057979871628
 40
8.768373902188511
 40
10.16931320720163
 40
11.48781498271486
 40
12.6802234184107
 40
13.7142910372947
 40
13.7142910372947
 40
13.7142910372947
 40
13.7142910372947
 10
1.882201058721819
 20
29.28669504053439
 30
0.0
 10
1.687073158988954
 20
29.37818110486779
 30
0.0
 10
1.264368749012526
 20
29.57636682158115
 30
0.0
 10
0.8328873986262371
 20
30.23877609007214
 30
0.0
 10
0.5331174225238228
 20
31.09344403499246
 30
0.0
 10
0.3782646628089191
 20
32.15687443899608
 30
0.0
 10
0.3683448744114188
 20
33.37273822865542
 30
0.0
 10
0.5056692919822835
 20
34.69535744320596
 30
0.0
 10
0.7841043793255944
 20
36.0656480333524
 30
0.0
 10
1.192185241821744
 20
37.42326144780907
 30
0.0
 10
1.710231219448819
 20
38.70982244177434
 30
0.0
 10
2.320752033749366
 20
39.86296072754249
 30
0.0
 10
2.978777312043053
 20
40.85268357341688
 30
0.0
 10
3.508355972568426
 20
41.37498045935205
 30
0.0
 10
3.754314220981975
 20
41.61755674518538
 30
0.0
 11
1.882201058721819
 21
29.28669504053439
 31
0.0
 11
1.331353098452098
 21
29.60418465217576
 31
0.0
 11
0.8898114848192159
 21
30.19991596376688
 31
0.0
 11
0.5774962182273247
 21
31.04701559493834
 31
0.0
 11
0.4084958263902863
 21
32.10726690967361
 31
0.0
 11
0.3904353807914611
 21
33.33284019739195
 31
0.0
 11
0.5241286315814087
 21
34.66844542233416
 31
0.0
 11
0.803545284451912
 21
36.05383014263055
 31
0.0
 11
1.216079125717414
 21
37.42649556514995
 31
0.0
 11
1.743120397941652
 21
38.72451653313077
 31
0.0
 11
2.360892077323882
 21
39.88933629809731
 31
0.0
 11
3.041525226949345
 21
40.8684054443577
 31
0.0
 11
3.754314220981975
 21
41.61755674518538
 31
0.0
  0
SPLINE
  5
94
330
47
100
AcDbEntity
  8
0
  6
Continuous
 62
     7
100
AcDbSpline
210
0.0
220
0.0
230
1.0
 70
     8
 71
     3
 72
    21
 73
    17
 74
    15
 42
0.000000001
 43
0.0000000001
 44
0.00000001
 40
0.0
 40
0.0
 40
0.0
 40
0.0
 40
0.5942828118538344
 40
1.302155347969594
 40
2.168129026679634
 40
3.193914239813014
 40
4.356004738895222
 40
5.61605938787029
 40
6.927117878751849
 40
8.2381763696334
 40
9.498231018608468
 40
10.66032151769069
 40
11.68610673082406
 40
12.5520804095341
 40
13.25995294564987
 40
13.8542357575037
 40
13.8542357575037
 40
13.8542357575037
 40
13.8542357575037
 10
-1.791873638393881
 20
31.13085293170169
 30
0.0
 10
-1.967065782580715
 20
31.22998456802432
 30
0.0
 10
-2.350935844725744
 20
31.4471956270625
 30
0.0
 10
-2.717766155481186
 20
32.10188447889686
 30
0.0
 10
-2.964042706915678
 20
32.93155267137512
 30
0.0
 10
-3.070302084961081
 20
33.95061821727106
 30
0.0
 10
-3.038908792455878
 20
35.10124120666099
 30
0.0
 10
-2.868778316749385
 20
36.33644163028429
 30
0.0
 10
-2.568093505195096
 20
37.59700717095786
 30
0.0
 10
-2.150714941828062
 20
38.82388612712053
 30
0.0
 10
-1.63638537781166
 20
39.95972483259855
 30
0.0
 10
-1.049737401322167
 20
40.95005960135491
 30
0.0
 10
-0.4167261424423135
 20
41.75571609663447
 30
0.0
 10
0.2338240050164763
 20
42.32649272110148
 30
0.0
 10
0.8931279155098523
 20
42.6849621385045
 30
0.0
 10
1.333701226623331
 20
42.66417689580148
 30
0.0
 10
1.534771819627032
 20
42.65469083582261
 30
0.0
 11
-1.791873638393881
 21
31.13085293170169
 31
0.0
 11
-2.283383662514315
 21
31.464903770742
 31
0.0
 11
-2.667310976219611
 21
32.05961659719682
 31
0.0
 11
-2.925142181636108
 21
32.88631695327552
 31
0.0
 11
-3.044445977021073
 21
33.90514073802163
 31
0.0
 11
-3.019468602730059
 21
35.06696277873336
 31
0.0
 11
-2.851415530103314
 21
36.3157605515445
 31
0.0
 11
-2.548389017179553
 21
37.59131897522786
 31
0.0
 11
-2.12500160570211
 21
38.83213220032128
 31
0.0
 11
-1.601667685343893
 21
39.97836922659457
 31
0.0
 11
-1.003622447015953
 21
40.97476082452349
 31
0.0
 11
-0.3597024481087168
 21
41.77326087772634
 31
0.0
 11
0.2990430393555776
 21
42.3353683336212
 31
0.0
 11
0.9408500990547243
 21
42.63397715177498
 31
0.0
 11
1.534771819627032
 21
42.65469083582261
 31
0.0
  0
SPLINE
  5
95
330
47
100
AcDbEntity
  8
0
  6
Continuous
 62
     7
100
AcDbSpline
210
0.0
220
0.0
230
1.0
 70
     8
 71
     3
 72
     9
 73
     5
 74
     3
 42
0.000000001
 43
0.0000000001
 44
0.00000001
 40
0.0
 40
0.0
 40
0.0
 40
0.0
 40
0.6799374563128034
 40
1.324029184339219
 40
1.324029184339219
 40
1.324029184339219
 40
1.324029184339219
 10
3.489600756472669
 20
29.988196232362
 30
0.0
 10
3.669999508483857
 20
30.12581958332887
 30
0.0
 10
4.021286529902052
 20
30.39381091381065
 30
0.0
 10
4.336339181481801
 20
30.70354657069654
 30
0.0
 10
4.489600756472669
 20
30.85422163614644
 30
0.0
 11
3.489600756472669
 21
29.988196232362
 31
0.0
 11
4.021241283416008
 21
30.4120751008802
 31
0.0
 11
4.489600756472669
 21
30.85422163614644
 31
0.0
  0
SPLINE
  5
96
330
47
100
AcDbEntity
  8
0
  6
Continuous
 62
     7
100
AcDbSpline
210
0.0
220
0.0
230
1.0
 70
     8
 71
     3
 72
    13
 73
     9
 74
     7
 42
0.000000001
 43
0.0000000001
 44
0.00000001
 40
0.0
 40
0.0
 40
0.0
 40
0.0
 40
1.323724209181285
 40
2.531163455872041
 40
3.588428559649133
 40
4.478059536156454
 40
5.210110237896449
 40
5.839300062611741
 40
5.839300062611741
 40
5.839300062611741
 40
5.839300062611741
 10
5.866150716576662
 20
33.04093024147274
 30
0.0
 10
5.676296993942662
 20
32.64208843976367
 30
0.0
 10
5.313267593698154
 20
31.87944182096987
 30
0.0
 10
4.655130046627854
 20
30.87698158628095
 30
0.0
 10
3.964437578156966
 20
30.07535595126398
 30
0.0
 10
3.261853533164413
 20
29.52417135821861
 30
0.0
 10
2.551420495269584
 20
29.20227396610117
 30
0.0
 10
2.093746295745132
 20
29.26000890667097
 30
0.0
 10
1.882201058721819
 20
29.28669504053439
 30
0.0
 11
5.866150716576662
 21
33.04093024147274
 31
0.0
 11
5.268911549345434
 21
31.85959577035768
 31
0.0
 11
4.604695063948643
 21
30.85126745318347
 31
0.0
 11
3.902873472642043
 21
30.06053617580619
 31
0.0
 11
3.194482412290078
 21
29.52236763457586
 31
0.0
 11
2.510847947329067
 21
29.26056206000402
 31
0.0
 11
1.882201058721819
 21
29.28669504053439
 31
0.0
  0
SPLINE
  5
97
330
47
100
AcDbEntity
  8
0
  6
Continuous
 62
     7
100
AcDbSpline
210
0.0
220
0.0
230
1.0
 70
     8
 71
     3
 72
    11
 73
     7
 74
     5
 42
0.000000001
 43
0.0000000001
 44
0.00000001
 40
0.0
 40
0.0
 40
0.0
 40
0.0
 40
0.6145305957556744
 40
1.150583150673122
 40
1.622254623568127
 40
2.056513244297848
 40
2.056513244297848
 40
2.056513244297848
 40
2.056513244297848
 10
3.754314220981975
 20
41.61755674518538
 30
0.0
 10
3.91460780957145
 20
41.74620710082223
 30
0.0
 10
4.214724855646472
 20
41.98707863025932
 30
0.0
 10
4.704406410915098
 20
42.22347051070233
 30
0.0
 10
5.182634728828379
 20
42.33685587937661
 30
0.0
 10
5.482626153394056
 20
42.28292657782772
 30
0.0
 10
5.626427383242124
 20
42.25707549874645
 30
0.0
 11
3.754314220981975
 21
41.61755674518538
 31
0.0
 11
4.248656525266586
 21
41.98262322849433
 31
0.0
 11
4.732335722805416
 21
42.21372229438552
 31
0.0
 11
5.194918680840647
 21
42.30586885620208
 31
0.0
 11
5.626427383242124
 21
42.25707549874645
 31
0.0
  0
SPLINE
  5
98
330
47
100
AcDbEntity
  8
0
  6
Continuous
 62
     7
100
AcDbSpline
210
0.0
220
0.0
230
1.0
 70
     8
 71
     3
 72
    13
 73
     9
 74
     7
 42
0.000000001
 43
0.0000000001
 44
0.00000001
 40
0.0
 40
0.0
 40
0.0
 40
0.0
 40
1.981638773117097
 40
3.900627018627538
 40
5.749354945021832
 40
7.525116457114862
 40
9.230899655255454
 40
10.87584816437774
 40
10.87584816437774
 40
10.87584816437774
 40
10.87584816437774
 10
4.489600756472669
 20
41.41973156231659
 30
0.0
 10
4.712804800952374
 20
40.79720716143108
 30
0.0
 10
5.152156165683427
 20
39.57183978382285
 30
0.0
 10
5.52282685207926
 20
37.68456489301831
 30
0.0
 10
5.658833949089596
 20
35.83638827092015
 30
0.0
 10
5.531794723934615
 20
34.05949794689798
 30
0.0
 10
5.172996790843731
 20
32.37709203046232
 30
0.0
 10
4.714625430099225
 20
31.35566353537449
 30
0.0
 10
4.489600756472669
 20
30.85422163614644
 30
0.0
 11
4.489600756472669
 21
41.41973156231659
 31
0.0
 11
5.110724178876262
 21
39.53795104421968
 31
0.0
 11
5.488322687030522
 21
37.65647947777574
 31
0.0
 11
5.615014313581126
 21
35.81209768915841
 31
0.0
 11
5.488322687030522
 21
34.04086134523413
 31
0.0
 11
5.110724178876262
 21
32.37739637911866
 31
0.0
 11
4.489600756472669
 21
30.85422163614644
 31
0.0
  0
SPLINE
  5
99
330
47
100
AcDbEntity
  8
0
  6
Continuous
 62
     7
100
AcDbSpline
210
0.0
220
0.0
230
1.0
 70
     8
 71
     3
 72
    13
 73
     9
 74
     7
 42
0.000000001
 43
0.0000000001
 44
0.00000001
 40
0.0
 40
0.0
 40
0.0
 40
0.0
 40
0.6291898247152893
 40
1.361240526455279
 40
2.250871502962595
 40
3.30813660673969
 40
4.515575853430439
 40
5.839300062611716
 40
5.839300062611716
 40
5.839300062611716
 40
5.839300062611716
 10
5.626427383242124
 20
42.25707549874645
 30
0.0
 10
5.819649272941548
 20
42.16691542782362
 30
0.0
 10
6.237681241904951
 20
41.97185577233966
 30
0.0
 10
6.667265308440183
 20
41.32086378916053
 30
0.0
 10
6.968011894355798
 20
40.48004259119462
 30
0.0
 10
7.125226651216068
 20
39.43364722378128
 30
0.0
 10
7.147862403645221
 20
38.23466466523082
 30
0.0
 10
7.048597221707039
 20
37.39587587521616
 30
0.0
 10
6.996684444015052
 20
36.95721395265979
 30
0.0
 11
5.626427383242124
 21
42.25707549874645
 31
0.0
 11
6.172286642842652
 21
41.9441577588605
 31
0.0
 11
6.611220249544068
 21
41.35829469510968
 31
0.0
 11
6.923817221704605
 21
40.52539229617411
 31
0.0
 11
7.096254953563638
 21
39.48228409101122
 31
0.0
 11
7.120907094728264
 21
38.27509653034625
 31
0.0
 11
6.996684444015052
 21
36.95721395265979
 31
0.0
  0
SPLINE
  5
9A
330
47
100
AcDbEntity
  8
0
  6
Continuous
 62
     7
100
AcDbSpline
210
0.0
220
0.0
230
1.0
 70
     8
 71
     3
 72
    21
 73
    17
 74
    15
 42
0.000000001
 43
0.0000000001
 44
0.00000001
 40
0.0
 40
0.0
 40
0.0
 40
0.0
 40
0.597377704932343
 40
1.303400691600936
 40
2.171525071906883
 40
3.20681776317949
 40
4.385810803807784
 40
5.668461954616324
 40
7.00517563536273
 40
8.341889316109132
 40
9.624540466917683
 40
10.80353350754597
 40
11.83882619881857
 40
12.70695057912452
 40
13.41297356579312
 40
14.01035127072546
 40
14.01035127072546
 40
14.01035127072546
 40
14.01035127072546
 10
-4.314415168680597
 20
31.85612881381199
 30
0.0
 10
-4.497117876337298
 20
31.94405494850112
 30
0.0
 10
-4.895751483434863
 20
32.13589838576907
 30
0.0
 10
-5.287175246003217
 20
32.78146695413017
 30
0.0
 10
-5.549054833310045
 20
33.60975894955142
 30
0.0
 10
-5.66694421875467
 20
34.63771391229552
 30
0.0
 10
-5.641647705360462
 20
35.80494238172652
 30
0.0
 10
-5.472219225002362
 20
37.06232017482236
 30
0.0
 10
-5.166938201788751
 20
38.34722901353805
 30
0.0
 10
-4.740475254738747
 20
39.59715564407982
 30
0.0
 10
-4.21373251597998
 20
40.75138569553921
 30
0.0
 10
-3.613076023284209
 20
41.75252204550484
 30
0.0
 10
-2.965486474564798
 20
42.55950227389965
 30
0.0
 10
-2.302467186975257
 20
43.12079896212359
 30
0.0
 10
-1.627213984749441
 20
43.45844441410358
 30
0.0
 10
-1.187667830914049
 20
43.40832619606954
 30
0.0
 10
-0.9862139913292296
 20
43.38535588777826
 30
0.0
 11
-4.314415168680597
 21
31.85612881381199
 31
0.0
 11
-4.828138288168233
 21
32.16100368626905
 31
0.0
 11
-5.232656681983304
 21
32.7396515279837
 31
0.0
 11
-5.507685127656892
 21
33.5630586512186
 31
0.0
 11
-5.639433671641672
 21
34.58993414226368
 31
0.0
 11
-5.621294686833028
 21
35.76878763709409
 31
0.0
 11
-5.454178966061477
 21
37.04050549266668
 31
0.0
 11
-5.146465199172003
 21
38.3413189667521
 31
0.0
 11
-4.713584531682741
 21
39.60599986896007
 31
0.0
 11
-4.177242468106596
 21
40.77113126032759
 31
0.0
 11
-3.564334179028866
 21
41.77828964619526
 31
0.0
 11
-2.905592942261031
 21
42.57697039338574
 31
0.0
 11
-2.234051035073534
 21
43.12712619260502
 31
0.0
 11
-1.583382405986981
 21
43.40116777846085
 31
0.0
 11
-0.9862139913292296
 21
43.38535588777826
 31
0.0
  0
ENDBLK
  5
49
330
47
100
AcDbEntity
  8
0
100
AcDbBlockEnd
  0
BLOCK
  5
4C
330
4A
100
AcDbEntity
  8
0
100
AcDbBlockBegin
  2
Allg1
 70
     0
 10
-0.49999999997793
 20
36.99999999998897
 30
0.0
  3
Allg1
  1

  0
INSERT
  5
4B
330
4A
100
AcDbEntity
  8
0
100
AcDbBlockReference
  2
1695744_PROT_M12_VPE100-select__1
 10
-8.83157011815176
 20
29.17241509223855
 30
0.0
  0
MTEXT
  5
9C
330
4A
100
AcDbEntity
  8
1
 62
     6
100
AcDbMText
 10
-0.49999999997794
 20
24.12073337038873
 30
0.0
 40
2.5
 41
0.0
 71
     2
 72
     1
  1
 
  7
CONVERTER_11
 73
     1
 44
1.32052821128451
  0
ENDBLK
  5
4D
330
4A
100
AcDbEntity
  8
0
100
AcDbBlockEnd
  0
BLOCK
  5
4F
330
4E
100
AcDbEntity
  8
0
100
AcDbBlockBegin
  2
1695744_PROT_M12_VPE100-select__2
 70
     0
 10
-63.90349073333897
 20
38.77305610036456
 30
0.0
  3
1695744_PROT_M12_VPE100-select__2
  1

  0
LINE
  5
9D
330
4E
100
AcDbEntity
  8
0
  6
Continuous
 62
     7
100
AcDbLine
 10
-50.93686118624321
 20
50.90805610036455
 30
0.0
 11
-50.93686118624321
 21
40.13805610036456
 31
0.0
  0
LINE
  5
9E
330
4E
100
AcDbEntity
  8
0
  6
Continuous
 62
     7
100
AcDbLine
 10
-54.93686118624321
 20
50.90805610036455
 30
0.0
 11
-54.93686118624321
 21
40.13805610036456
 31
0.0
  0
LINE
  5
9F
330
4E
100
AcDbEntity
  8
0
  6
Continuous
 62
     7
100
AcDbLine
 10
-59.33686118624321
 20
40.13805610036456
 30
0.0
 11
-57.93686118624321
 21
40.13805610036456
 31
0.0
  0
LINE
  5
A0
330
4E
100
AcDbEntity
  8
0
  6
Continuous
 62
     7
100
AcDbLine
 10
-57.93686118624321
 20
40.13805610036456
 30
0.0
 11
-57.93686118624321
 21
39.52305610036456
 31
0.0
  0
LINE
  5
A1
330
4E
100
AcDbEntity
  8
0
  6
Continuous
 62
     7
100
AcDbLine
 10
-57.93686118624321
 20
50.90805610036455
 30
0.0
 11
-57.93686118624321
 21
40.13805610036456
 31
0.0
  0
LINE
  5
A2
330
4E
100
AcDbEntity
  8
0
  6
Continuous
 62
     7
100
AcDbLine
 10
-54.93686118624321
 20
51.52305610036456
 30
0.0
 11
-54.93686118624321
 21
50.90805610036455
 31
0.0
  0
LINE
  5
A3
330
4E
100
AcDbEntity
  8
0
  6
Continuous
 62
     7
100
AcDbLine
 10
-57.93686118624321
 20
51.52305610036456
 30
0.0
 11
-57.93686118624321
 21
50.90805610036455
 31
0.0
  0
LINE
  5
A4
330
4E
100
AcDbEntity
  8
0
  6
Continuous
 62
     7
100
AcDbLine
 10
-59.33686118624321
 20
50.90805610036455
 30
0.0
 11
-57.93686118624321
 21
50.90805610036455
 31
0.0
  0
LINE
  5
A5
330
4E
100
AcDbEntity
  8
0
  6
Continuous
 62
     7
100
AcDbLine
 10
-54.93686118624321
 20
50.90805610036455
 30
0.0
 11
-50.93686118624321
 21
50.90805610036455
 31
0.0
  0
LINE
  5
A6
330
4E
100
AcDbEntity
  8
0
  6
Continuous
 62
     7
100
AcDbLine
 10
-57.93686118624321
 20
51.52305610036456
 30
0.0
 11
-54.93686118624321
 21
51.52305610036456
 31
0.0
  0
LINE
  5
A7
330
4E
100
AcDbEntity
  8
0
  6
Continuous
 62
     7
100
AcDbLine
 10
-54.93686118624321
 20
40.13805610036456
 30
0.0
 11
-54.93686118624321
 21
39.52305610036456
 31
0.0
  0
LINE
  5
A8
330
4E
100
AcDbEntity
  8
0
  6
Continuous
 62
     7
100
AcDbLine
 10
-54.93686118624321
 20
40.13805610036456
 30
0.0
 11
-50.93686118624321
 21
40.13805610036456
 31
0.0
  0
LINE
  5
A9
330
4E
100
AcDbEntity
  8
0
  6
Continuous
 62
     7
100
AcDbLine
 10
-57.93686118624321
 20
39.52305610036456
 30
0.0
 11
-54.93686118624321
 21
39.52305610036456
 31
0.0
  0
LINE
  5
AA
330
4E
100
AcDbEntity
  8
0
  6
Continuous
 62
     7
100
AcDbLine
 10
-62.60397500006652
 20
46.52305610036456
 30
0.0
 11
-63.90349073333897
 21
46.52305610036456
 31
0.0
  0
LINE
  5
AB
330
4E
100
AcDbEntity
  8
0
  6
Continuous
 62
     7
100
AcDbLine
 10
-62.60397500006652
 20
44.52305610036456
 30
0.0
 11
-63.90349073333897
 21
44.52305610036456
 31
0.0
  0
LINE
  5
AC
330
4E
100
AcDbEntity
  8
0
  6
Continuous
 62
     7
100
AcDbLine
 10
-62.33228951086202
 20
52.27305610036456
 30
0.0
 11
-62.33228951086202
 21
45.52305610036456
 31
0.0
  0
LINE
  5
AD
330
4E
100
AcDbEntity
  8
0
  6
Continuous
 62
     7
100
AcDbLine
 10
-59.33686118624321
 20
52.27305610036456
 30
0.0
 11
-62.33228951086202
 21
52.27305610036456
 31
0.0
  0
LINE
  5
AE
330
4E
100
AcDbEntity
  8
0
  6
Continuous
 62
     7
100
AcDbLine
 10
-59.33686118624321
 20
50.90805610036455
 30
0.0
 11
-59.33686118624321
 21
52.27305610036456
 31
0.0
  0
LINE
  5
AF
330
4E
100
AcDbEntity
  8
0
  6
Continuous
 62
     7
100
AcDbLine
 10
-59.33686118624321
 20
45.52305610036456
 30
0.0
 11
-59.33686118624321
 21
50.90805610036455
 31
0.0
  0
LINE
  5
B0
330
4E
100
AcDbEntity
  8
0
  6
Continuous
 62
     7
100
AcDbLine
 10
-59.33686118624321
 20
38.77305610036456
 30
0.0
 11
-59.33686118624321
 21
40.13805610036456
 31
0.0
  0
LINE
  5
B1
330
4E
100
AcDbEntity
  8
0
  6
Continuous
 62
     7
100
AcDbLine
 10
-59.33686118624321
 20
40.13805610036456
 30
0.0
 11
-59.33686118624321
 21
45.52305610036456
 31
0.0
  0
LINE
  5
B2
330
4E
100
AcDbEntity
  8
0
  6
Continuous
 62
     7
100
AcDbLine
 10
-59.33686118624321
 20
38.77305610036456
 30
0.0
 11
-62.33228951086202
 21
38.77305610036456
 31
0.0
  0
LINE
  5
B3
330
4E
100
AcDbEntity
  8
0
  6
Continuous
 62
     7
100
AcDbLine
 10
-62.33228951086202
 20
45.52305610036456
 30
0.0
 11
-62.33228951086202
 21
38.77305610036456
 31
0.0
  0
LINE
  5
B4
330
4E
100
AcDbEntity
  8
1
  6
DOT_CENTER
 62
     2
100
AcDbLine
 10
-62.33228951086202
 20
45.52305610036456
 30
0.0
 11
-50.93686118624319
 21
45.52305610036456
 31
0.0
  0
ARC
  5
B5
330
4E
100
AcDbEntity
  8
0
  6
Continuous
 62
     7
100
AcDbCircle
 10
-48.93686118624321
 20
45.52305610036456
 30
0.0
 40
13.70364914904055
100
AcDbArc
 50
175.8152203064203
 51
184.1847796935797
  0
ARC
  5
B6
330
4E
100
AcDbEntity
  8
0
  6
Continuous
 62
     7
100
AcDbCircle
 10
-48.93686118624321
 20
45.52305610036456
 30
0.0
 40
14.99999999999999
100
AcDbArc
 50
153.256316049597
 51
176.1774462707257
  0
ARC
  5
B7
330
4E
100
AcDbEntity
  8
0
  6
Continuous
 62
     7
100
AcDbCircle
 10
-48.93686118624321
 20
45.52305610036456
 30
0.0
 40
14.99999999999999
100
AcDbArc
 50
183.8225537292743
 51
206.743683950403
  0
ENDBLK
  5
50
330
4E
100
AcDbEntity
  8
0
100
AcDbBlockEnd
  0
BLOCK
  5
53
330
51
100
AcDbEntity
  8
0
100
AcDbBlockBegin
  2
Drfsicht1
 70
     0
 10
-57.41983058948512
 20
45.52305610036456
 30
0.0
  3
Drfsicht1
  1

  0
INSERT
  5
52
330
51
100
AcDbEntity
  8
0
100
AcDbBlockReference
  2
1695744_PROT_M12_VPE100-select__2
 10
-63.90349073333897
 20
38.77305610036456
 30
0.0
  0
MTEXT
  5
B8
330
51
100
AcDbEntity
  8
1
 62
     6
100
AcDbMText
 10
-57.41983058948512
 20
36.29611070012652
 30
0.0
 40
2.5
 41
0.0
 71
     2
 72
     1
  1
 
  7
CONVERTER_11
 73
     1
 44
1.32052821128451
  0
ENDBLK
  5
54
330
51
100
AcDbEntity
  8
0
100
AcDbBlockEnd
  0
BLOCK
  5
56
330
55
100
AcDbEntity
  8
0
100
AcDbBlockBegin
  2
1695744_PROT_M12_VPE100-select__3
 70
     0
 10
-17.48296940317939
 20
67.24999999998252
 30
0.0
  3
1695744_PROT_M12_VPE100-select__3
  1

  0
LINE
  5
B9
330
55
100
AcDbEntity
  8
0
  6
Continuous
 62
     7
100
AcDbLine
 10
-13.48296940317939
 20
68.61499999998253
 30
0.0
 11
-17.48296940317939
 21
68.61499999998253
 31
0.0
  0
LINE
  5
BA
330
55
100
AcDbEntity
  8
0
  6
Continuous
 62
     7
100
AcDbLine
 10
-13.48296940317939
 20
79.38499999998253
 30
0.0
 11
-13.48296940317939
 21
79.99999999998252
 31
0.0
  0
LINE
  5
BB
330
55
100
AcDbEntity
  8
0
  6
Continuous
 62
     7
100
AcDbLine
 10
-13.48296940317939
 20
68.61499999998253
 30
0.0
 11
-13.48296940317939
 21
79.38499999998253
 31
0.0
  0
LINE
  5
BC
330
55
100
AcDbEntity
  8
0
  6
Continuous
 62
     7
100
AcDbLine
 10
-17.48296940317939
 20
68.61499999998253
 30
0.0
 11
-17.48296940317939
 21
79.38499999998253
 31
0.0
  0
LINE
  5
BD
330
55
100
AcDbEntity
  8
0
  6
Continuous
 62
     7
100
AcDbLine
 10
-9.08296940317939
 20
79.38499999998253
 30
0.0
 11
-10.48296940317939
 21
79.38499999998253
 31
0.0
  0
LINE
  5
BE
330
55
100
AcDbEntity
  8
0
  6
Continuous
 62
     7
100
AcDbLine
 10
-10.48296940317939
 20
79.38499999998253
 30
0.0
 11
-10.48296940317939
 21
79.99999999998252
 31
0.0
  0
LINE
  5
BF
330
55
100
AcDbEntity
  8
0
  6
Continuous
 62
     7
100
AcDbLine
 10
-10.48296940317939
 20
68.61499999998253
 30
0.0
 11
-10.48296940317939
 21
79.38499999998253
 31
0.0
  0
LINE
  5
C0
330
55
100
AcDbEntity
  8
0
  6
Continuous
 62
     7
100
AcDbLine
 10
-13.48296940317939
 20
67.99999999998252
 30
0.0
 11
-13.48296940317939
 21
68.61499999998253
 31
0.0
  0
LINE
  5
C1
330
55
100
AcDbEntity
  8
0
  6
Continuous
 62
     7
100
AcDbLine
 10
-10.48296940317939
 20
67.99999999998252
 30
0.0
 11
-10.48296940317939
 21
68.61499999998253
 31
0.0
  0
LINE
  5
C2
330
55
100
AcDbEntity
  8
0
  6
Continuous
 62
     7
100
AcDbLine
 10
-9.08296940317939
 20
68.61499999998253
 30
0.0
 11
-10.48296940317939
 21
68.61499999998253
 31
0.0
  0
LINE
  5
C3
330
55
100
AcDbEntity
  8
0
  6
Continuous
 62
     7
100
AcDbLine
 10
-10.48296940317939
 20
67.99999999998252
 30
0.0
 11
-13.48296940317939
 21
67.99999999998252
 31
0.0
  0
LINE
  5
C4
330
55
100
AcDbEntity
  8
0
  6
Continuous
 62
     7
100
AcDbLine
 10
-10.48296940317939
 20
79.99999999998252
 30
0.0
 11
-13.48296940317939
 21
79.99999999998252
 31
0.0
  0
LINE
  5
C5
330
55
100
AcDbEntity
  8
0
  6
Continuous
 62
     7
100
AcDbLine
 10
-13.48296940317939
 20
79.38499999998253
 30
0.0
 11
-17.48296940317939
 21
79.38499999998253
 31
0.0
  0
LINE
  5
C6
330
55
100
AcDbEntity
  8
0
  6
Continuous
 62
     7
100
AcDbLine
 10
-5.77932025413883
 20
80.09999999998251
 30
0.0
 11
-5.81585558935607
 21
80.09999999998251
 31
0.0
  0
LINE
  5
C7
330
55
100
AcDbEntity
  8
0
  6
Continuous
 62
     7
100
AcDbLine
 10
-5.81585558935608
 20
67.89999999998253
 30
0.0
 11
-5.77932025413883
 21
67.89999999998253
 31
0.0
  0
LINE
  5
C8
330
55
100
AcDbEntity
  8
0
  6
Continuous
 62
     7
100
AcDbLine
 10
-6.08754107856057
 20
67.24999999998252
 30
0.0
 11
-6.08754107856057
 21
80.74999999998252
 31
0.0
  0
LINE
  5
C9
330
55
100
AcDbEntity
  8
0
  6
Continuous
 62
     7
100
AcDbLine
 10
-9.08296940317939
 20
67.24999999998252
 30
0.0
 11
-6.08754107856057
 21
67.24999999998252
 31
0.0
  0
LINE
  5
CA
330
55
100
AcDbEntity
  8
0
  6
Continuous
 62
     7
100
AcDbLine
 10
-9.08296940317939
 20
80.74999999998252
 30
0.0
 11
-9.08296940317939
 21
79.38499999998253
 31
0.0
  0
LINE
  5
CB
330
55
100
AcDbEntity
  8
0
  6
Continuous
 62
     7
100
AcDbLine
 10
-9.08296940317939
 20
68.61499999998253
 30
0.0
 11
-9.08296940317939
 21
67.24999999998252
 31
0.0
  0
LINE
  5
CC
330
55
100
AcDbEntity
  8
0
  6
Continuous
 62
     7
100
AcDbLine
 10
-9.08296940317939
 20
79.38499999998253
 30
0.0
 11
-9.08296940317939
 21
68.61499999998253
 31
0.0
  0
LINE
  5
CD
330
55
100
AcDbEntity
  8
0
  6
Continuous
 62
     7
100
AcDbLine
 10
-9.08296940317939
 20
80.74999999998252
 30
0.0
 11
-6.08754107856057
 21
80.74999999998252
 31
0.0
  0
LINE
  5
CE
330
55
100
AcDbEntity
  8
1
  6
DOT_CENTER
 62
     2
100
AcDbLine
 10
-6.08754107856057
 20
73.99999999998249
 30
0.0
 11
-17.48296940317938
 21
73.99999999998249
 31
0.0
  0
ARC
  5
CF
330
55
100
AcDbEntity
  8
0
  6
Continuous
 62
     7
100
AcDbCircle
 10
-19.48296940317939
 20
73.99999999998252
 30
0.0
 40
15.0
100
AcDbArc
 50
23.9956112916832
 51
26.743683950403
  0
ARC
  5
D0
330
55
100
AcDbEntity
  8
0
  6
Continuous
 62
     7
100
AcDbCircle
 10
-19.48296940317939
 20
73.99999999998252
 30
0.0
 40
15.0
100
AcDbArc
 50
333.256316049597
 51
336.0043887083168
  0
ARC
  5
D1
330
55
100
AcDbEntity
  8
0
  6
Continuous
 62
     7
100
AcDbCircle
 10
-19.48296940317939
 20
73.99999999998252
 30
0.0
 40
14.96662954709576
100
AcDbArc
 50
335.9475099159584
 51
24.05249008404159
  0
ENDBLK
  5
57
330
55
100
AcDbEntity
  8
0
100
AcDbBlockEnd
  0
BLOCK
  5
5A
330
58
100
AcDbEntity
  8
0
100
AcDbBlockBegin
  2
Rckans1
 70
     0
 10
-10.99999999993747
 20
73.99999999998752
 30
0.0
  3
Rckans1
  1

  0
INSERT
  5
59
330
58
100
AcDbEntity
  8
0
100
AcDbBlockReference
  2
1695744_PROT_M12_VPE100-select__3
 10
-17.48296940317939
 20
67.24999999998252
 30
0.0
  0
MTEXT
  5
D2
330
58
100
AcDbEntity
  8
1
 62
     6
100
AcDbMText
 10
-10.99999999993747
 20
64.7499999999875
 30
0.0
 40
2.5
 41
0.0
 71
     2
 72
     1
  1
 
  7
CONVERTER_11
 73
     1
 44
1.32052821128451
  0
ENDBLK
  5
5B
330
58
100
AcDbEntity
  8
0
100
AcDbBlockEnd
  0
BLOCK
  5
5D
330
5C
100
AcDbEntity
  8
0
100
AcDbBlockBegin
  2
1695744_PROT_M12_VPE100-select__4
 70
     0
 10
-40.95991579474247
 20
67.24999999999
 30
0.0
  3
1695744_PROT_M12_VPE100-select__4
  1

  0
LINE
  5
D3
330
5C
100
AcDbEntity
  8
0
  6
Continuous
 62
     7
100
AcDbLine
 10
-33.20991579474247
 20
80.09999999998999
 30
0.0
 11
-33.20991579474247
 21
67.89999999999
 31
0.0
  0
LINE
  5
D4
330
5C
100
AcDbEntity
  8
0
  6
Continuous
 62
     7
100
AcDbLine
 10
-33.20991579474247
 20
80.09999999998999
 30
0.0
 11
-35.20991579474247
 21
80.09999999998999
 31
0.0
  0
LINE
  5
D5
330
5C
100
AcDbEntity
  8
0
  6
Continuous
 62
     7
100
AcDbLine
 10
-35.20991579474247
 20
67.89999999999
 30
0.0
 11
-33.20991579474247
 21
67.89999999999
 31
0.0
  0
LINE
  5
D6
330
5C
100
AcDbEntity
  8
0
  6
Continuous
 62
     7
100
AcDbLine
 10
-35.20991579474247
 20
80.09999999998999
 30
0.0
 11
-35.20991579474247
 21
67.89999999999
 31
0.0
  0
LINE
  5
D7
330
5C
100
AcDbEntity
  8
1
  6
DOT_CENTER
 62
     2
100
AcDbLine
 10
-26.78491579474247
 20
73.99999999999
 30
0.0
 11
-41.63491579474247
 21
73.99999999999
 31
0.0
  0
LINE
  5
D8
330
5C
100
AcDbEntity
  8
1
  6
DOT_CENTER
 62
     2
100
AcDbLine
 10
-34.20991579474247
 20
81.42499999998999
 30
0.0
 11
-34.20991579474247
 21
66.57499999999
 31
0.0
  0
CIRCLE
  5
D9
330
5C
100
AcDbEntity
  8
0
  6
Continuous
 62
     7
100
AcDbCircle
 10
-34.20991579474247
 20
73.99999999999
 30
0.0
 40
6.75
  0
ENDBLK
  5
5E
330
5C
100
AcDbEntity
  8
0
100
AcDbBlockEnd
  0
BLOCK
  5
61
330
5F
100
AcDbEntity
  8
0
100
AcDbBlockBegin
  2
SA_Links1
 70
     0
 10
-34.20991579474247
 20
73.999999999995
 30
0.0
  3
SA_Links1
  1

  0
INSERT
  5
60
330
5F
100
AcDbEntity
  8
0
100
AcDbBlockReference
  2
1695744_PROT_M12_VPE100-select__4
 10
-40.95991579474247
 20
67.24999999999
 30
0.0
  0
MTEXT
  5
DA
330
5F
100
AcDbEntity
  8
1
 62
     6
100
AcDbMText
 10
-34.20991579474253
 20
64.749999999995
 30
0.0
 40
2.5
 41
0.0
 71
     2
 72
     1
  1
 
  7
CONVERTER_11
 73
     1
 44
1.32052821128451
  0
INSERT
  5
E4
330
5F
100
AcDbEntity
  8
1
100
AcDbBlockReference
  2
*D16
 10
0.0
 20
0.0
 30
0.0
  0
ENDBLK
  5
62
330
5F
100
AcDbEntity
  8
0
100
AcDbBlockEnd
  0
BLOCK
  5
64
330
63
100
AcDbEntity
  8
0
100
AcDbBlockBegin
  2
1695744_PROT_M12_VPE100-select__5
 70
     0
 10
-87.37974628595515
 20
67.24999999999002
 30
0.0
  3
1695744_PROT_M12_VPE100-select__5
  1

  0
LINE
  5
E5
330
63
100
AcDbEntity
  8
1
  6
DOT_CENTER
 62
     2
100
AcDbLine
 10
-73.20474628595517
 20
73.99999999999002
 30
0.0
 11
-88.05474628595516
 21
73.99999999999002
 31
0.0
  0
LINE
  5
E6
330
63
100
AcDbEntity
  8
1
  6
DOT_CENTER
 62
     2
100
AcDbLine
 10
-80.62974628595516
 20
81.42499999999002
 30
0.0
 11
-80.62974628595516
 21
66.57499999999003
 31
0.0
  0
CIRCLE
  5
E7
330
63
100
AcDbEntity
  8
0
  6
Continuous
 62
     7
100
AcDbCircle
 10
-80.62974628595516
 20
73.99999999999002
 30
0.0
 40
5.384999999999991
  0
CIRCLE
  5
E8
330
63
100
AcDbEntity
  8
0
  6
Continuous
 62
     7
100
AcDbCircle
 10
-80.62974628595516
 20
73.99999999999002
 30
0.0
 40
4.200000000000003
  0
CIRCLE
  5
E9
330
63
100
AcDbEntity
  8
0
  6
Continuous
 62
     7
100
AcDbCircle
 10
-80.62974628595516
 20
73.99999999999002
 30
0.0
 40
6.0
  0
CIRCLE
  5
EA
330
63
100
AcDbEntity
  8
0
  6
Continuous
 62
     7
100
AcDbCircle
 10
-80.62974628595516
 20
73.99999999999002
 30
0.0
 40
6.75
  0
ENDBLK
  5
65
330
63
100
AcDbEntity
  8
0
100
AcDbBlockEnd
  0
BLOCK
  5
68
330
66
100
AcDbEntity
  8
0
100
AcDbBlockBegin
  2
SA_Rechts1
 70
     0
 10
-80.62974628595516
 20
73.99999999999503
 30
0.0
  3
SA_Rechts1
  1

  0
INSERT
  5
67
330
66
100
AcDbEntity
  8
0
100
AcDbBlockReference
  2
1695744_PROT_M12_VPE100-select__5
 10
-87.37974628595515
 20
67.24999999999002
 30
0.0
  0
MTEXT
  5
EB
330
66
100
AcDbEntity
  8
1
 62
     6
100
AcDbMText
 10
-80.62974628595532
 20
64.749999999995
 30
0.0
 40
2.5
 41
0.0
 71
     2
 72
     1
  1
 
  7
CONVERTER_11
 73
     1
 44
1.32052821128451
  0
ENDBLK
  5
69
330
66
100
AcDbEntity
  8
0
100
AcDbBlockEnd
  0
BLOCK
  5
6B
330
6A
100
AcDbEntity
  8
0
100
AcDbBlockBegin
  2
1695744_PROT_M12_VPE100-select__6
 70
     0
 10
-63.90349014385381
 20
67.24999999999002
 30
0.0
  3
1695744_PROT_M12_VPE100-select__6
  1

  0
LINE
  5
EC
330
6A
100
AcDbEntity
  8
0
  6
Continuous
 62
     7
100
AcDbLine
 10
-57.93686059675805
 20
67.99999999999002
 30
0.0
 11
-54.93686059675805
 21
67.99999999999002
 31
0.0
  0
LINE
  5
ED
330
6A
100
AcDbEntity
  8
0
  6
Continuous
 62
     7
100
AcDbLine
 10
-59.33686059675804
 20
67.24999999999002
 30
0.0
 11
-62.33228892137686
 21
67.24999999999002
 31
0.0
  0
LINE
  5
EE
330
6A
100
AcDbEntity
  8
0
  6
Continuous
 62
     7
100
AcDbLine
 10
-62.64050974579861
 20
67.89999999999003
 30
0.0
 11
-62.60397441058136
 21
67.89999999999003
 31
0.0
  0
LINE
  5
EF
330
6A
100
AcDbEntity
  8
0
  6
Continuous
 62
     7
100
AcDbLine
 10
-62.60397441058136
 20
80.09999999999002
 30
0.0
 11
-62.64050974579861
 21
80.09999999999003
 31
0.0
  0
LINE
  5
F0
330
6A
100
AcDbEntity
  8
0
  6
Continuous
 62
     7
100
AcDbLine
 10
-62.33228892137686
 20
80.74999999999002
 30
0.0
 11
-62.33228892137686
 21
67.24999999999002
 31
0.0
  0
LINE
  5
F1
330
6A
100
AcDbEntity
  8
0
  6
Continuous
 62
     7
100
AcDbLine
 10
-54.93686059675805
 20
79.38499999999003
 30
0.0
 11
-50.93686059675805
 21
79.38499999999003
 31
0.0
  0
LINE
  5
F2
330
6A
100
AcDbEntity
  8
0
  6
Continuous
 62
     7
100
AcDbLine
 10
-59.33686059675804
 20
79.38499999999003
 30
0.0
 11
-57.93686059675805
 21
79.38499999999003
 31
0.0
  0
LINE
  5
F3
330
6A
100
AcDbEntity
  8
0
  6
Continuous
 62
     7
100
AcDbLine
 10
-54.93686059675805
 20
68.61499999999003
 30
0.0
 11
-50.93686059675805
 21
68.61499999999003
 31
0.0
  0
LINE
  5
F4
330
6A
100
AcDbEntity
  8
0
  6
Continuous
 62
     7
100
AcDbLine
 10
-59.33686059675804
 20
79.38499999999003
 30
0.0
 11
-59.33686059675804
 21
80.74999999999002
 31
0.0
  0
LINE
  5
F5
330
6A
100
AcDbEntity
  8
0
  6
Continuous
 62
     7
100
AcDbLine
 10
-59.33686059675804
 20
80.74999999999002
 30
0.0
 11
-62.33228892137686
 21
80.74999999999002
 31
0.0
  0
LINE
  5
F6
330
6A
100
AcDbEntity
  8
0
  6
Continuous
 62
     7
100
AcDbLine
 10
-50.93686059675805
 20
79.38499999999003
 30
0.0
 11
-50.93686059675805
 21
68.61499999999003
 31
0.0
  0
LINE
  5
F7
330
6A
100
AcDbEntity
  8
0
  6
Continuous
 62
     7
100
AcDbLine
 10
-54.93686059675805
 20
68.61499999999003
 30
0.0
 11
-54.93686059675805
 21
67.99999999999002
 31
0.0
  0
LINE
  5
F8
330
6A
100
AcDbEntity
  8
0
  6
Continuous
 62
     7
100
AcDbLine
 10
-54.93686059675805
 20
79.99999999999002
 30
0.0
 11
-54.93686059675805
 21
79.38499999999003
 31
0.0
  0
LINE
  5
F9
330
6A
100
AcDbEntity
  8
0
  6
Continuous
 62
     7
100
AcDbLine
 10
-54.93686059675805
 20
79.38499999999003
 30
0.0
 11
-54.93686059675805
 21
68.61499999999003
 31
0.0
  0
LINE
  5
FA
330
6A
100
AcDbEntity
  8
0
  6
Continuous
 62
     7
100
AcDbLine
 10
-57.93686059675805
 20
79.99999999999002
 30
0.0
 11
-54.93686059675805
 21
79.99999999999002
 31
0.0
  0
LINE
  5
FB
330
6A
100
AcDbEntity
  8
0
  6
Continuous
 62
     7
100
AcDbLine
 10
-59.33686059675804
 20
68.61499999999003
 30
0.0
 11
-57.93686059675805
 21
68.61499999999003
 31
0.0
  0
LINE
  5
FC
330
6A
100
AcDbEntity
  8
0
  6
Continuous
 62
     7
100
AcDbLine
 10
-59.33686059675804
 20
67.24999999999002
 30
0.0
 11
-59.33686059675804
 21
68.61499999999003
 31
0.0
  0
LINE
  5
FD
330
6A
100
AcDbEntity
  8
0
  6
Continuous
 62
     7
100
AcDbLine
 10
-57.93686059675805
 20
79.99999999999002
 30
0.0
 11
-57.93686059675805
 21
79.38499999999003
 31
0.0
  0
LINE
  5
FE
330
6A
100
AcDbEntity
  8
0
  6
Continuous
 62
     7
100
AcDbLine
 10
-57.93686059675805
 20
68.61499999999003
 30
0.0
 11
-57.93686059675805
 21
67.99999999999002
 31
0.0
  0
LINE
  5
FF
330
6A
100
AcDbEntity
  8
0
  6
Continuous
 62
     7
100
AcDbLine
 10
-57.93686059675805
 20
79.38499999999003
 30
0.0
 11
-57.93686059675805
 21
68.61499999999003
 31
0.0
  0
LINE
  5
100
330
6A
100
AcDbEntity
  8
0
  6
Continuous
 62
     7
100
AcDbLine
 10
-59.33686059675804
 20
68.61499999999003
 30
0.0
 11
-59.33686059675804
 21
79.38499999999003
 31
0.0
  0
LINE
  5
101
330
6A
100
AcDbEntity
  8
1
  6
DOT_CENTER
 62
     2
100
AcDbLine
 10
-62.33228892137689
 20
73.99999999999
 30
0.0
 11
-50.93686059675807
 21
73.99999999999
 31
0.0
  0
ARC
  5
102
330
6A
100
AcDbEntity
  8
0
  6
Continuous
 62
     7
100
AcDbCircle
 10
-48.93686059675805
 20
73.99999999999002
 30
0.0
 40
15.0
100
AcDbArc
 50
203.9956112916832
 51
206.743683950403
  0
ARC
  5
103
330
6A
100
AcDbEntity
  8
0
  6
Continuous
 62
     7
100
AcDbCircle
 10
-48.93686059675805
 20
73.99999999999002
 30
0.0
 40
14.99999999999999
100
AcDbArc
 50
153.256316049597
 51
156.0043887083168
  0
ARC
  5
104
330
6A
100
AcDbEntity
  8
0
  6
Continuous
 62
     7
100
AcDbCircle
 10
-48.93686059675805
 20
73.99999999999002
 30
0.0
 40
14.96662954709576
100
AcDbArc
 50
180.0
 51
204.0524900840416
  0
ARC
  5
105
330
6A
100
AcDbEntity
  8
0
  6
Continuous
 62
     7
100
AcDbCircle
 10
-48.93686059675805
 20
73.99999999999002
 30
0.0
 40
14.96662954709576
100
AcDbArc
 50
155.9475099159584
 51
180.0
  0
ENDBLK
  5
6C
330
6A
100
AcDbEntity
  8
0
100
AcDbBlockEnd
  0
BLOCK
  5
6F
330
6D
100
AcDbEntity
  8
0
100
AcDbBlockBegin
  2
Vordans1
 70
     0
 10
-57.41982999999996
 20
73.99999999999503
 30
0.0
  3
Vordans1
  1

  0
INSERT
  5
6E
330
6D
100
AcDbEntity
  8
0
100
AcDbBlockReference
  2
1695744_PROT_M12_VPE100-select__6
 10
-63.90349014385381
 20
67.24999999999002
 30
0.0
  0
MTEXT
  5
106
330
6D
100
AcDbEntity
  8
1
 62
     6
100
AcDbMText
 10
-57.41982999999999
 20
64.749999999995
 30
0.0
 40
2.5
 41
0.0
 71
     2
 72
     1
  1
 
  7
CONVERTER_11
 73
     1
 44
1.32052821128451
  0
DIMENSION
  5
111
330
6D
100
AcDbEntity
  8
1
100
AcDbDimension
  2
*D17
 10
-63.90349014385381
 20
62.24999999999002
 30
0.0
 11
-57.42017537030593
 21
64.12499999999002
 31
0.0
 70
    32
  1
<>
 71
     5
 42
-1.0
 53
0.00013888888889
  3
ME10_DIM_10
100
AcDbAlignedDimension
 13
-50.93686059675805
 23
68.61499999999003
 33
0.0
 14
-63.90349014385381
 24
73.99999999999002
 34
0.0
100
AcDbRotatedDimension
  0
ENDBLK
  5
70
330
6D
100
AcDbEntity
  8
0
100
AcDbBlockEnd
  0
BLOCK
  5
72
330
71
100
AcDbEntity
  8
0
100
AcDbBlockBegin
  2
_punkt
 70
     0
 10
47.9623302529381
 20
7.28207210725119
 30
0.0
  3
_punkt
  1

  0
LINE
  5
112
330
71
100
AcDbEntity
  8
1
  6
Continuous
 62
     2
100
AcDbLine
 10
47.9623302529381
 20
7.28207210725119
 30
0.0
 11
47.9623302529381
 21
2.28207210725108
 31
0.0
  0
LINE
  5
113
330
71
100
AcDbEntity
  8
1
  6
Continuous
 62
     2
100
AcDbLine
 10
47.9623302529381
 20
7.28207210725119
 30
0.0
 11
52.96233025293711
 21
7.28207210725119
 31
0.0
  0
ENDBLK
  5
73
330
71
100
AcDbEntity
  8
0
100
AcDbBlockEnd
  0
BLOCK
  5
75
330
74
100
AcDbEntity
  8
0
100
AcDbBlockBegin
  2
_rahmen
 70
     0
 10
47.9623302529381
 20
2.28207210725108
 30
0.0
  3
_rahmen
  1

  0
POINT
  5
114
330
74
100
AcDbEntity
  8
1
 62
     3
 60
     1
100
AcDbPoint
 10
-15.53766974705952
 20
28.53207210725106
 30
0.0
  0
LINE
  5
115
102
{ACAD_REACTORS
330
2F7
330
2F8
102
}
330
74
100
AcDbEntity
  8
0
  6
Continuous
 62
     2
100
AcDbLine
 10
-67.09534291697923
 20
14.79057550861818
 30
0.0
 11
-67.09534291697923
 21
15.51166394399277
 31
0.0
  0
LINE
  5
116
102
{ACAD_REACTORS
330
2F7
330
2F8
102
}
330
74
100
AcDbEntity
  8
0
  6
Continuous
 62
     2
100
AcDbLine
 10
-67.09534291697923
 20
13.99737822970672
 30
0.0
 11
-67.09534291697923
 21
13.27628979433213
 31
0.0
  0
LINE
  5
117
102
{ACAD_REACTORS
330
2F9
330
2FA
102
}
330
74
100
AcDbEntity
  8
0
  6
Continuous
 62
     2
100
AcDbLine
 10
-54.42340561425988
 20
15.00690203923015
 30
0.0
 11
-53.5113070195755
 21
15.00690203923015
 31
0.0
  0
LINE
  5
118
102
{ACAD_REACTORS
330
2F9
330
2FA
102
}
330
74
100
AcDbEntity
  8
0
  6
Continuous
 62
     2
100
AcDbLine
 10
-53.78732516553146
 20
13.99737822970626
 30
0.0
 11
-53.78732516553146
 21
13.27628979433169
 31
0.0
  0
LINE
  5
119
102
{ACAD_REACTORS
330
303
330
304
102
}
330
74
100
AcDbEntity
  8
0
  6
Continuous
 62
     2
100
AcDbLine
 10
-55.32514055014292
 20
15.90826258343419
 30
0.0
 11
-54.16980745349804
 21
17.2147576196118
 31
0.0
  0
LINE
  5
11A
102
{ACAD_REACTORS
330
303
330
304
102
}
330
74
100
AcDbEntity
  8
0
  6
Continuous
 62
     2
100
AcDbLine
 10
-55.24627822272737
 20
18.43207210724502
 30
0.0
 11
-54.16980745349804
 21
17.2147576196118
 31
0.0
  0
LINE
  5
11B
102
{ACAD_REACTORS
330
303
330
304
102
}
330
74
100
AcDbEntity
  8
0
  6
Continuous
 62
     2
100
AcDbLine
 10
-53.09333668426962
 20
18.43207210724502
 30
0.0
 11
-51.93406047125541
 21
18.43207210724502
 31
0.0
  0
LINE
  5
11C
102
{ACAD_REACTORS
330
303
330
304
102
}
330
74
100
AcDbEntity
  8
0
  6
Continuous
 62
     2
100
AcDbLine
 10
-54.16586433712791
 20
15.90826258343419
 30
0.0
 11
-53.59016934699093
 21
16.55928058780913
 31
0.0
  0
LINE
  5
11D
102
{ACAD_REACTORS
330
303
330
304
102
}
330
74
100
AcDbEntity
  8
0
  6
Continuous
 62
     2
100
AcDbLine
 10
-54.16586433712791
 20
15.90826258343419
 30
0.0
 11
-55.32514055014292
 21
15.90826258343419
 31
0.0
  0
LINE
  5
11E
102
{ACAD_REACTORS
330
305
330
306
102
}
330
74
100
AcDbEntity
  8
0
  6
Continuous
 62
     2
100
AcDbLine
 10
-55.42371845941307
 20
15.90826258343419
 30
0.0
 11
-56.44892871582044
 21
15.90826258343419
 31
0.0
  0
LINE
  5
11F
102
{ACAD_REACTORS
330
307
330
308
102
}
330
74
100
AcDbEntity
  8
0
  6
Continuous
 62
     2
100
AcDbLine
 10
-57.16626723495688
 20
14.14159591678136
 30
0.0
 11
-57.41433767891567
 21
14.7761537399109
 31
0.0
  0
LINE
  5
120
102
{ACAD_REACTORS
330
307
330
308
102
}
330
74
100
AcDbEntity
  8
0
  6
Continuous
 62
     2
100
AcDbLine
 10
-57.66240812287629
 20
14.14159591678136
 30
0.0
 11
-57.16626723495688
 21
14.14159591678136
 31
0.0
  0
LINE
  5
121
102
{ACAD_REACTORS
330
307
330
308
102
}
330
74
100
AcDbEntity
  8
0
  6
Continuous
 62
     2
100
AcDbLine
 10
-59.08227590376373
 20
13.13207210725704
 30
0.0
 11
-58.05706564735635
 21
13.13207210725704
 31
0.0
  0
LINE
  5
122
102
{ACAD_REACTORS
330
307
330
308
102
}
330
74
100
AcDbEntity
  8
0
  6
Continuous
 62
     2
100
AcDbLine
 10
-57.92694280711976
 20
15.65588163106787
 30
0.0
 11
-56.9017325507125
 21
15.65588163106787
 31
0.0
  0
LINE
  5
123
102
{ACAD_REACTORS
330
307
330
308
102
}
330
74
100
AcDbEntity
  8
0
  6
Continuous
 62
     2
100
AcDbLine
 10
-56.9017325507125
 20
15.65588163106787
 30
0.0
 11
-55.74639945406761
 21
13.13207210725704
 31
0.0
  0
LINE
  5
124
102
{ACAD_REACTORS
330
307
330
308
102
}
330
74
100
AcDbEntity
  8
0
  6
Continuous
 62
     2
100
AcDbLine
 10
-56.77160971047579
 20
13.13207210725704
 30
0.0
 11
-56.9463866141748
 21
13.57914693718916
 31
0.0
  0
LINE
  5
125
102
{ACAD_REACTORS
330
309
330
30A
102
}
330
74
100
AcDbEntity
  8
0
  6
Continuous
 62
     2
100
AcDbLine
 10
-60.19501400434854
 20
13.13207210725704
 30
0.0
 11
-59.20923491164899
 21
13.13207210725704
 31
0.0
  0
LINE
  5
126
102
{ACAD_REACTORS
330
309
330
30A
102
}
330
74
100
AcDbEntity
  8
0
  6
Continuous
 62
     2
100
AcDbLine
 10
-60.19501400434854
 20
15.00690203923015
 30
0.0
 11
-60.19501400434854
 21
13.13207210725704
 31
0.0
  0
LINE
  5
127
102
{ACAD_REACTORS
330
309
330
30A
102
}
330
74
100
AcDbEntity
  8
0
  6
Continuous
 62
     2
100
AcDbLine
 10
-60.86534378738543
 20
15.65588163106787
 30
0.0
 11
-60.86534378738543
 21
15.00690203923015
 31
0.0
  0
LINE
  5
128
102
{ACAD_REACTORS
330
30B
330
30C
102
}
330
74
100
AcDbEntity
  8
0
  6
Continuous
 62
     2
100
AcDbLine
 10
-59.64285297616834
 20
15.90826258343419
 30
0.0
 11
-58.6570738834688
 21
15.90826258343419
 31
0.0
  0
LINE
  5
129
102
{ACAD_REACTORS
330
30B
330
30C
102
}
330
74
100
AcDbEntity
  8
0
  6
Continuous
 62
     2
100
AcDbLine
 10
-57.63186362706051
 20
17.35043945418291
 30
0.0
 11
-58.6570738834688
 21
18.43207210724502
 31
0.0
  0
LINE
  5
12A
102
{ACAD_REACTORS
330
30B
330
30C
102
}
330
74
100
AcDbEntity
  8
0
  6
Continuous
 62
     2
100
AcDbLine
 10
-56.64608453436085
 20
18.43207210724502
 30
0.0
 11
-57.63186362706051
 21
18.43207210724502
 31
0.0
  0
LINE
  5
12B
102
{ACAD_REACTORS
330
30B
330
30C
102
}
330
74
100
AcDbEntity
  8
0
  6
Continuous
 62
     2
100
AcDbLine
 10
-56.64608453436085
 20
15.90826258343419
 30
0.0
 11
-56.64608453436085
 21
18.43207210724502
 31
0.0
  0
LINE
  5
12C
102
{ACAD_REACTORS
330
30B
330
30C
102
}
330
74
100
AcDbEntity
  8
0
  6
Continuous
 62
     2
100
AcDbLine
 10
-57.63186362706051
 20
15.90826258343419
 30
0.0
 11
-56.64608453436085
 21
15.90826258343419
 31
0.0
  0
LINE
  5
12D
102
{ACAD_REACTORS
330
30B
330
30C
102
}
330
74
100
AcDbEntity
  8
0
  6
Continuous
 62
     2
100
AcDbLine
 10
-58.6570738834688
 20
16.98989523649585
 30
0.0
 11
-57.63186362706051
 21
15.90826258343419
 31
0.0
  0
LINE
  5
12E
102
{ACAD_REACTORS
330
30D
330
30E
102
}
330
74
100
AcDbEntity
  8
0
  6
Continuous
 62
     2
100
AcDbLine
 10
-61.96941637120904
 20
14.57424897800576
 30
0.0
 11
-62.99462662761641
 21
15.65588163106787
 31
0.0
  0
LINE
  5
12F
102
{ACAD_REACTORS
330
30D
330
30E
102
}
330
74
100
AcDbEntity
  8
0
  6
Continuous
 62
     2
100
AcDbLine
 10
-61.96941637120904
 20
15.65588163106787
 30
0.0
 11
-61.96941637120904
 21
14.57424897800576
 31
0.0
  0
LINE
  5
130
102
{ACAD_REACTORS
330
30D
330
30E
102
}
330
74
100
AcDbEntity
  8
0
  6
Continuous
 62
     2
100
AcDbLine
 10
-60.98363727850949
 20
15.65588163106787
 30
0.0
 11
-61.96941637120904
 21
15.65588163106787
 31
0.0
  0
LINE
  5
131
102
{ACAD_REACTORS
330
30D
330
30E
102
}
330
74
100
AcDbEntity
  8
0
  6
Continuous
 62
     2
100
AcDbLine
 10
-60.98363727850949
 20
13.13207210725704
 30
0.0
 11
-60.98363727850949
 21
15.65588163106787
 31
0.0
  0
LINE
  5
132
102
{ACAD_REACTORS
330
30D
330
30E
102
}
330
74
100
AcDbEntity
  8
0
  6
Continuous
 62
     2
100
AcDbLine
 10
-62.99462662761641
 20
14.21370476031869
 30
0.0
 11
-61.96941637120904
 21
13.13207210725704
 31
0.0
  0
LINE
  5
133
102
{ACAD_REACTORS
330
30D
330
30E
102
}
330
74
100
AcDbEntity
  8
0
  6
Continuous
 62
     2
100
AcDbLine
 10
-62.99462662761641
 20
13.13207210725704
 30
0.0
 11
-62.99462662761641
 21
14.21370476031869
 31
0.0
  0
LINE
  5
134
102
{ACAD_REACTORS
330
2FD
330
2FE
102
}
330
74
100
AcDbEntity
  8
0
  6
Continuous
 62
     2
100
AcDbLine
 10
-60.94408137853247
 20
17.85520135894508
 30
0.0
 11
-59.84000879470796
 21
17.85520135894508
 31
0.0
  0
LINE
  5
135
102
{ACAD_REACTORS
330
2FD
330
2FE
102
}
330
74
100
AcDbEntity
  8
0
  6
Continuous
 62
     2
100
AcDbLine
 10
-60.94408137853247
 20
16.48513333173368
 30
0.0
 11
-60.94408137853247
 21
16.88173197118964
 31
0.0
  0
LINE
  5
136
102
{ACAD_REACTORS
330
2FD
330
2FE
102
}
330
74
100
AcDbEntity
  8
0
  6
Continuous
 62
     2
100
AcDbLine
 10
-59.84000879470796
 20
16.48513333173368
 30
0.0
 11
-60.94408137853247
 21
16.48513333173368
 31
0.0
  0
LINE
  5
137
102
{ACAD_REACTORS
330
2FD
330
2FE
102
}
330
74
100
AcDbEntity
  8
0
  6
Continuous
 62
     2
100
AcDbLine
 10
-59.84000879470796
 20
15.90826258343419
 30
0.0
 11
-59.84000879470796
 21
16.48513333173368
 31
0.0
  0
LINE
  5
138
102
{ACAD_REACTORS
330
2FD
330
2FE
102
}
330
74
100
AcDbEntity
  8
0
  6
Continuous
 62
     2
100
AcDbLine
 10
-62.44357881436167
 20
15.90826258343419
 30
0.0
 11
-59.84000879470796
 21
15.90826258343419
 31
0.0
  0
LINE
  5
139
102
{ACAD_REACTORS
330
2FD
330
2FE
102
}
330
74
100
AcDbEntity
  8
0
  6
Continuous
 62
     2
100
AcDbLine
 10
-62.44357881436167
 20
18.43207210724502
 30
0.0
 11
-59.84000879470796
 21
18.43207210724502
 31
0.0
  0
LINE
  5
13A
102
{ACAD_REACTORS
330
2FD
330
2FE
102
}
330
74
100
AcDbEntity
  8
0
  6
Continuous
 62
     2
100
AcDbLine
 10
-59.84000879470796
 20
17.85520135894508
 30
0.0
 11
-59.84000879470796
 21
18.43207210724502
 31
0.0
  0
LINE
  5
13B
102
{ACAD_REACTORS
330
30F
330
310
102
}
330
74
100
AcDbEntity
  8
0
  6
Continuous
 62
     2
100
AcDbLine
 10
-64.80833542191544
 20
17.54873877391066
 30
0.0
 11
-64.80833542191544
 21
18.43207210724502
 31
0.0
  0
LINE
  5
13C
102
{ACAD_REACTORS
330
30F
330
310
102
}
330
74
100
AcDbEntity
  8
0
  6
Continuous
 62
     2
100
AcDbLine
 10
-64.80833542191544
 20
18.43207210724502
 30
0.0
 11
-63.8225563292159
 21
18.43207210724502
 31
0.0
  0
LINE
  5
13D
102
{ACAD_REACTORS
330
30F
330
310
102
}
330
74
100
AcDbEntity
  8
0
  6
Continuous
 62
     2
100
AcDbLine
 10
-64.80833542191544
 20
16.84567754942075
 30
0.0
 11
-65.67582102349184
 21
16.84567754942075
 31
0.0
  0
LINE
  5
13E
102
{ACAD_REACTORS
330
30F
330
310
102
}
330
74
100
AcDbEntity
  8
0
  6
Continuous
 62
     2
100
AcDbLine
 10
-65.67582102349184
 20
16.84567754942075
 30
0.0
 11
-65.67582102349184
 21
15.90826258343419
 31
0.0
  0
LINE
  5
13F
102
{ACAD_REACTORS
330
30F
330
310
102
}
330
74
100
AcDbEntity
  8
0
  6
Continuous
 62
     2
100
AcDbLine
 10
-66.6616001161915
 20
18.43207210724502
 30
0.0
 11
-66.6616001161915
 21
15.90826258343419
 31
0.0
  0
LINE
  5
140
102
{ACAD_REACTORS
330
301
330
302
102
}
330
74
100
AcDbEntity
  8
0
  6
Continuous
 62
     2
100
AcDbLine
 10
-68.2782778282193
 20
17.30080475618525
 30
0.0
 11
-68.2782778282193
 21
17.88405074737721
 31
0.0
  0
LINE
  5
141
102
{ACAD_REACTORS
330
301
330
302
102
}
330
74
100
AcDbEntity
  8
0
  6
Continuous
 62
     2
100
AcDbLine
 10
-69.30348808462759
 20
15.90826258343419
 30
0.0
 11
-68.2782778282193
 21
15.90826258343419
 31
0.0
  0
LINE
  5
142
102
{ACAD_REACTORS
330
301
330
302
102
}
330
74
100
AcDbEntity
  8
0
  6
Continuous
 62
     2
100
AcDbLine
 10
-68.2782778282193
 20
15.90826258343419
 30
0.0
 11
-68.2782778282193
 21
16.68766608851166
 31
0.0
  0
LINE
  5
143
102
{ACAD_REACTORS
330
2FB
330
2FC
102
}
330
74
100
AcDbEntity
  8
0
  6
Continuous
 62
     2
100
AcDbLine
 10
-72.86129457157926
 20
13.72096099614706
 30
0.0
 11
-74.0809914815045
 21
13.72096099614706
 31
0.0
  0
LINE
  5
144
102
{ACAD_REACTORS
330
2FB
330
2FC
102
}
330
74
100
AcDbEntity
  8
0
  6
Continuous
 62
     2
100
AcDbLine
 10
-74.92242891301635
 20
18.08145672261529
 30
0.0
 11
-74.92242891301635
 21
13.48268749187132
 31
0.0
  0
LINE
  5
145
102
{ACAD_REACTORS
330
2FB
330
2FC
102
}
330
74
100
AcDbEntity
  8
0
  6
Continuous
 62
     2
100
AcDbLine
 10
-74.57181352840246
 20
18.43207210723003
 30
0.0
 11
-70.04841510632241
 21
18.43207210723003
 31
0.0
  0
LINE
  5
146
102
{ACAD_REACTORS
330
2FB
330
2FC
102
}
330
74
100
AcDbEntity
  8
0
  6
Continuous
 62
     2
100
AcDbLine
 10
-69.69779972170761
 20
18.08145672261529
 30
0.0
 11
-69.69779972170761
 21
13.48268749187132
 31
0.0
  0
LINE
  5
147
102
{ACAD_REACTORS
330
2FB
330
2FC
102
}
330
74
100
AcDbEntity
  8
0
  6
Continuous
 62
     2
100
AcDbLine
 10
-70.04841510632241
 20
13.13207210725704
 30
0.0
 11
-74.57181352840246
 21
13.13207210725704
 31
0.0
  0
LINE
  5
148
102
{ACAD_REACTORS
330
2FB
330
2FC
102
}
330
74
100
AcDbEntity
  8
0
  6
Continuous
 62
     2
100
AcDbLine
 10
-72.60037149465643
 20
13.98188407306995
 30
0.0
 11
-72.60037149465643
 21
15.24698401648451
 31
0.0
  0
LINE
  5
149
102
{ACAD_REACTORS
330
2FB
330
2FC
102
}
330
74
100
AcDbEntity
  8
0
  6
Continuous
 62
     2
100
AcDbLine
 10
-72.60037149465643
 20
17.08306624138113
 30
0.0
 11
-72.60037149465643
 21
17.58226014143119
 31
0.0
  0
LINE
  5
14A
102
{ACAD_REACTORS
330
2FB
330
2FC
102
}
330
74
100
AcDbEntity
  8
0
  6
Continuous
 62
     2
100
AcDbLine
 10
-74.0809914815045
 20
17.84318321835364
 30
0.0
 11
-72.86129457157926
 21
17.84318321835364
 31
0.0
  0
LINE
  5
14B
102
{ACAD_REACTORS
330
2FB
330
2FC
102
}
330
74
100
AcDbEntity
  8
0
  6
Continuous
 62
     2
100
AcDbLine
 10
-74.34191455842654
 20
17.58226014143119
 30
0.0
 11
-74.34191455842654
 21
13.98188407306995
 31
0.0
  0
LINE
  5
14C
102
{ACAD_REACTORS
330
301
330
302
102
}
330
74
100
AcDbEntity
  8
0
  6
Continuous
 62
     2
100
AcDbLine
 10
-68.2782778282193
 20
16.68766608851166
 30
0.0
 11
-67.65119717716118
 21
16.68766608851166
 31
0.0
  0
LINE
  5
14D
102
{ACAD_REACTORS
330
301
330
302
102
}
330
74
100
AcDbEntity
  8
0
  6
Continuous
 62
     2
100
AcDbLine
 10
-69.30348808462759
 20
18.43207210724502
 30
0.0
 11
-67.65119717716118
 21
18.43207210724502
 31
0.0
  0
LINE
  5
14E
102
{ACAD_REACTORS
330
301
330
302
102
}
330
74
100
AcDbEntity
  8
0
  6
Continuous
 62
     2
100
AcDbLine
 10
-69.30348808462759
 20
18.43207210724502
 30
0.0
 11
-69.30348808462759
 21
15.90826258343419
 31
0.0
  0
LINE
  5
14F
102
{ACAD_REACTORS
330
301
330
302
102
}
330
74
100
AcDbEntity
  8
0
  6
Continuous
 62
     2
100
AcDbLine
 10
-68.2782778282193
 20
17.30080475618525
 30
0.0
 11
-68.01605050463093
 21
17.30080475618525
 31
0.0
  0
LINE
  5
150
102
{ACAD_REACTORS
330
301
330
302
102
}
330
74
100
AcDbEntity
  8
0
  6
Continuous
 62
     2
100
AcDbLine
 10
-68.2782778282193
 20
17.88405074737721
 30
0.0
 11
-68.01605050463093
 21
17.88405074737721
 31
0.0
  0
LINE
  5
151
102
{ACAD_REACTORS
330
30F
330
310
102
}
330
74
100
AcDbEntity
  8
0
  6
Continuous
 62
     2
100
AcDbLine
 10
-65.67582102349184
 20
17.54873877391066
 30
0.0
 11
-64.80833542191544
 21
17.54873877391066
 31
0.0
  0
LINE
  5
152
102
{ACAD_REACTORS
330
30F
330
310
102
}
330
74
100
AcDbEntity
  8
0
  6
Continuous
 62
     2
100
AcDbLine
 10
-65.67582102349184
 20
18.43207210724502
 30
0.0
 11
-65.67582102349184
 21
17.54873877391066
 31
0.0
  0
LINE
  5
153
102
{ACAD_REACTORS
330
30F
330
310
102
}
330
74
100
AcDbEntity
  8
0
  6
Continuous
 62
     2
100
AcDbLine
 10
-66.6616001161915
 20
18.43207210724502
 30
0.0
 11
-65.67582102349184
 21
18.43207210724502
 31
0.0
  0
LINE
  5
154
102
{ACAD_REACTORS
330
30F
330
310
102
}
330
74
100
AcDbEntity
  8
0
  6
Continuous
 62
     2
100
AcDbLine
 10
-65.67582102349184
 20
15.90826258343419
 30
0.0
 11
-66.6616001161915
 21
15.90826258343419
 31
0.0
  0
LINE
  5
155
102
{ACAD_REACTORS
330
30F
330
310
102
}
330
74
100
AcDbEntity
  8
0
  6
Continuous
 62
     2
100
AcDbLine
 10
-64.80833542191544
 20
15.90826258343419
 30
0.0
 11
-64.80833542191544
 21
16.84567754942075
 31
0.0
  0
LINE
  5
156
102
{ACAD_REACTORS
330
30F
330
310
102
}
330
74
100
AcDbEntity
  8
0
  6
Continuous
 62
     2
100
AcDbLine
 10
-63.8225563292159
 20
15.90826258343419
 30
0.0
 11
-64.80833542191544
 21
15.90826258343419
 31
0.0
  0
LINE
  5
157
102
{ACAD_REACTORS
330
30F
330
310
102
}
330
74
100
AcDbEntity
  8
0
  6
Continuous
 62
     2
100
AcDbLine
 10
-63.8225563292159
 20
18.43207210724502
 30
0.0
 11
-63.8225563292159
 21
15.90826258343419
 31
0.0
  0
LINE
  5
158
102
{ACAD_REACTORS
330
2FD
330
2FE
102
}
330
74
100
AcDbEntity
  8
0
  6
Continuous
 62
     2
100
AcDbLine
 10
-60.94408137853247
 20
16.88173197118964
 30
0.0
 11
-59.84000879470796
 21
16.88173197118964
 31
0.0
  0
LINE
  5
159
102
{ACAD_REACTORS
330
2FD
330
2FE
102
}
330
74
100
AcDbEntity
  8
0
  6
Continuous
 62
     2
100
AcDbLine
 10
-59.84000879470796
 20
16.88173197118964
 30
0.0
 11
-59.84000879470796
 21
17.45860271948912
 31
0.0
  0
LINE
  5
15A
102
{ACAD_REACTORS
330
2FD
330
2FE
102
}
330
74
100
AcDbEntity
  8
0
  6
Continuous
 62
     2
100
AcDbLine
 10
-59.84000879470796
 20
17.45860271948912
 30
0.0
 11
-60.94408137853247
 21
17.45860271948912
 31
0.0
  0
LINE
  5
15B
102
{ACAD_REACTORS
330
2FD
330
2FE
102
}
330
74
100
AcDbEntity
  8
0
  6
Continuous
 62
     2
100
AcDbLine
 10
-60.94408137853247
 20
17.45860271948912
 30
0.0
 11
-60.94408137853247
 21
17.85520135894508
 31
0.0
  0
LINE
  5
15C
102
{ACAD_REACTORS
330
30D
330
30E
102
}
330
74
100
AcDbEntity
  8
0
  6
Continuous
 62
     2
100
AcDbLine
 10
-63.98040572031687
 20
13.13207210725704
 30
0.0
 11
-62.99462662761641
 21
13.13207210725704
 31
0.0
  0
LINE
  5
15D
102
{ACAD_REACTORS
330
30D
330
30E
102
}
330
74
100
AcDbEntity
  8
0
  6
Continuous
 62
     2
100
AcDbLine
 10
-61.96941637120904
 20
13.13207210725704
 30
0.0
 11
-60.98363727850949
 21
13.13207210725704
 31
0.0
  0
LINE
  5
15E
102
{ACAD_REACTORS
330
30D
330
30E
102
}
330
74
100
AcDbEntity
  8
0
  6
Continuous
 62
     2
100
AcDbLine
 10
-62.99462662761641
 20
15.65588163106787
 30
0.0
 11
-63.98040572031687
 21
15.65588163106787
 31
0.0
  0
LINE
  5
15F
102
{ACAD_REACTORS
330
30D
330
30E
102
}
330
74
100
AcDbEntity
  8
0
  6
Continuous
 62
     2
100
AcDbLine
 10
-63.98040572031687
 20
15.65588163106787
 30
0.0
 11
-63.98040572031687
 21
13.13207210725704
 31
0.0
  0
LINE
  5
160
102
{ACAD_REACTORS
330
30B
330
30C
102
}
330
74
100
AcDbEntity
  8
0
  6
Continuous
 62
     2
100
AcDbLine
 10
-57.63186362706051
 20
18.43207210724502
 30
0.0
 11
-57.63186362706051
 21
17.35043945418291
 31
0.0
  0
LINE
  5
161
102
{ACAD_REACTORS
330
30B
330
30C
102
}
330
74
100
AcDbEntity
  8
0
  6
Continuous
 62
     2
100
AcDbLine
 10
-58.6570738834688
 20
18.43207210724502
 30
0.0
 11
-59.64285297616834
 21
18.43207210724502
 31
0.0
  0
LINE
  5
162
102
{ACAD_REACTORS
330
30B
330
30C
102
}
330
74
100
AcDbEntity
  8
0
  6
Continuous
 62
     2
100
AcDbLine
 10
-59.64285297616834
 20
18.43207210724502
 30
0.0
 11
-59.64285297616834
 21
15.90826258343419
 31
0.0
  0
LINE
  5
163
102
{ACAD_REACTORS
330
30B
330
30C
102
}
330
74
100
AcDbEntity
  8
0
  6
Continuous
 62
     2
100
AcDbLine
 10
-58.6570738834688
 20
15.90826258343419
 30
0.0
 11
-58.6570738834688
 21
16.98989523649585
 31
0.0
  0
LINE
  5
164
102
{ACAD_REACTORS
330
309
330
30A
102
}
330
74
100
AcDbEntity
  8
0
  6
Continuous
 62
     2
100
AcDbLine
 10
-59.20923491164899
 20
13.13207210725704
 30
0.0
 11
-59.20923491164899
 21
15.00690203923015
 31
0.0
  0
LINE
  5
165
102
{ACAD_REACTORS
330
309
330
30A
102
}
330
74
100
AcDbEntity
  8
0
  6
Continuous
 62
     2
100
AcDbLine
 10
-59.20923491164899
 20
15.00690203923015
 30
0.0
 11
-58.53890512861381
 21
15.00690203923015
 31
0.0
  0
LINE
  5
166
102
{ACAD_REACTORS
330
309
330
30A
102
}
330
74
100
AcDbEntity
  8
0
  6
Continuous
 62
     2
100
AcDbLine
 10
-58.53890512861381
 20
15.00690203923015
 30
0.0
 11
-58.53890512861381
 21
15.65588163106787
 31
0.0
  0
LINE
  5
167
102
{ACAD_REACTORS
330
309
330
30A
102
}
330
74
100
AcDbEntity
  8
0
  6
Continuous
 62
     2
100
AcDbLine
 10
-58.53890512861381
 20
15.65588163106787
 30
0.0
 11
-60.86534378738543
 21
15.65588163106787
 31
0.0
  0
LINE
  5
168
102
{ACAD_REACTORS
330
309
330
30A
102
}
330
74
100
AcDbEntity
  8
0
  6
Continuous
 62
     2
100
AcDbLine
 10
-60.86534378738543
 20
15.00690203923015
 30
0.0
 11
-60.19501400434854
 21
15.00690203923015
 31
0.0
  0
LINE
  5
169
102
{ACAD_REACTORS
330
307
330
308
102
}
330
74
100
AcDbEntity
  8
0
  6
Continuous
 62
     2
100
AcDbLine
 10
-57.88228874365734
 20
13.57914693718916
 30
0.0
 11
-56.9463866141748
 21
13.57914693718916
 31
0.0
  0
LINE
  5
16A
102
{ACAD_REACTORS
330
307
330
308
102
}
330
74
100
AcDbEntity
  8
0
  6
Continuous
 62
     2
100
AcDbLine
 10
-55.74639945406761
 20
13.13207210725704
 30
0.0
 11
-56.77160971047579
 21
13.13207210725704
 31
0.0
  0
LINE
  5
16B
102
{ACAD_REACTORS
330
307
330
308
102
}
330
74
100
AcDbEntity
  8
0
  6
Continuous
 62
     2
100
AcDbLine
 10
-57.92694280711976
 20
15.65588163106787
 30
0.0
 11
-59.08227590376373
 21
13.13207210725704
 31
0.0
  0
LINE
  5
16C
102
{ACAD_REACTORS
330
307
330
308
102
}
330
74
100
AcDbEntity
  8
0
  6
Continuous
 62
     2
100
AcDbLine
 10
-58.05706564735635
 20
13.13207210725704
 30
0.0
 11
-57.88228874365734
 21
13.57914693718916
 31
0.0
  0
LINE
  5
16D
102
{ACAD_REACTORS
330
307
330
308
102
}
330
74
100
AcDbEntity
  8
0
  6
Continuous
 62
     2
100
AcDbLine
 10
-57.66240812287629
 20
14.14159591678136
 30
0.0
 11
-57.41433767891567
 21
14.7761537399109
 31
0.0
  0
LINE
  5
16E
102
{ACAD_REACTORS
330
305
330
306
102
}
330
74
100
AcDbEntity
  8
0
  6
Continuous
 62
     2
100
AcDbLine
 10
-56.44892871582044
 20
15.90826258343419
 30
0.0
 11
-56.44892871582044
 21
18.43207210724502
 31
0.0
  0
LINE
  5
16F
102
{ACAD_REACTORS
330
305
330
306
102
}
330
74
100
AcDbEntity
  8
0
  6
Continuous
 62
     2
100
AcDbLine
 10
-55.42371845941307
 20
18.43207210724502
 30
0.0
 11
-55.42371845941307
 21
15.90826258343419
 31
0.0
  0
LINE
  5
170
102
{ACAD_REACTORS
330
305
330
306
102
}
330
74
100
AcDbEntity
  8
0
  6
Continuous
 62
     2
100
AcDbLine
 10
-56.44892871582044
 20
18.43207210724502
 30
0.0
 11
-55.42371845941307
 21
18.43207210724502
 31
0.0
  0
LINE
  5
171
102
{ACAD_REACTORS
330
303
330
304
102
}
330
74
100
AcDbEntity
  8
0
  6
Continuous
 62
     2
100
AcDbLine
 10
-53.59016934699093
 20
16.55928058780913
 30
0.0
 11
-53.01447435685418
 21
15.90826258343419
 31
0.0
  0
LINE
  5
172
102
{ACAD_REACTORS
330
303
330
304
102
}
330
74
100
AcDbEntity
  8
0
  6
Continuous
 62
     2
100
AcDbLine
 10
-53.01447435685418
 20
15.90826258343419
 30
0.0
 11
-51.85519814383906
 21
15.90826258343419
 31
0.0
  0
LINE
  5
173
102
{ACAD_REACTORS
330
303
330
304
102
}
330
74
100
AcDbEntity
  8
0
  6
Continuous
 62
     2
100
AcDbLine
 10
-53.01053124048394
 20
17.2147576196118
 30
0.0
 11
-51.85519814383906
 21
15.90826258343419
 31
0.0
  0
LINE
  5
174
102
{ACAD_REACTORS
330
303
330
304
102
}
330
74
100
AcDbEntity
  8
0
  6
Continuous
 62
     2
100
AcDbLine
 10
-53.01053124048394
 20
17.2147576196118
 30
0.0
 11
-51.93406047125541
 21
18.43207210724502
 31
0.0
  0
LINE
  5
175
102
{ACAD_REACTORS
330
303
330
304
102
}
330
74
100
AcDbEntity
  8
0
  6
Continuous
 62
     2
100
AcDbLine
 10
-53.59016934699093
 20
17.87023465141403
 30
0.0
 11
-53.09333668426962
 21
18.43207210724502
 31
0.0
  0
LINE
  5
176
102
{ACAD_REACTORS
330
303
330
304
102
}
330
74
100
AcDbEntity
  8
0
  6
Continuous
 62
     2
100
AcDbLine
 10
-54.08700200971146
 20
18.43207210724502
 30
0.0
 11
-53.59016934699093
 21
17.87023465141403
 31
0.0
  0
LINE
  5
177
102
{ACAD_REACTORS
330
303
330
304
102
}
330
74
100
AcDbEntity
  8
0
  6
Continuous
 62
     2
100
AcDbLine
 10
-54.08700200971146
 20
18.43207210724502
 30
0.0
 11
-55.24627822272737
 21
18.43207210724502
 31
0.0
  0
LINE
  5
178
102
{ACAD_REACTORS
330
2F9
330
2FA
102
}
330
74
100
AcDbEntity
  8
0
  6
Continuous
 62
     2
100
AcDbLine
 10
-53.5113070195755
 20
13.13207210725704
 30
0.0
 11
-52.52552792687493
 21
13.13207210725704
 31
0.0
  0
LINE
  5
179
102
{ACAD_REACTORS
330
2F9
330
2FA
102
}
330
74
100
AcDbEntity
  8
0
  6
Continuous
 62
     2
100
AcDbLine
 10
-52.52552792687493
 20
13.13207210725704
 30
0.0
 11
-52.52552792687493
 21
15.00690203923015
 31
0.0
  0
LINE
  5
17A
102
{ACAD_REACTORS
330
2F9
330
2FA
102
}
330
74
100
AcDbEntity
  8
0
  6
Continuous
 62
     2
100
AcDbLine
 10
-52.52552792687493
 20
15.00690203923015
 30
0.0
 11
-51.85519814383906
 21
15.00690203923015
 31
0.0
  0
LINE
  5
17B
102
{ACAD_REACTORS
330
2F9
330
2FA
102
}
330
74
100
AcDbEntity
  8
0
  6
Continuous
 62
     2
100
AcDbLine
 10
-51.85519814383906
 20
15.00690203923015
 30
0.0
 11
-51.85519814383906
 21
15.65588163106787
 31
0.0
  0
LINE
  5
17C
102
{ACAD_REACTORS
330
2F9
330
2FA
102
}
330
74
100
AcDbEntity
  8
0
  6
Continuous
 62
     2
100
AcDbLine
 10
-54.65267377906935
 20
15.65588163106741
 30
0.0
 11
-51.85519814383906
 21
15.65588163106787
 31
0.0
  0
LINE
  5
17D
102
{ACAD_REACTORS
330
2F9
330
2FA
102
}
330
74
100
AcDbEntity
  8
0
  6
Continuous
 62
     2
100
AcDbLine
 10
-53.5113070195755
 20
15.00690203923015
 30
0.0
 11
-53.5113070195755
 21
13.13207210725704
 31
0.0
  0
LINE
  5
17E
102
{ACAD_REACTORS
330
2FB
330
2FC
102
}
330
74
100
AcDbEntity
  8
0
  6
Continuous
 62
     2
100
AcDbLine
 10
-72.21336192493015
 20
14.76751024739299
 30
0.0
 11
-72.21336192493015
 21
15.24837917854596
 31
0.0
  0
LINE
  5
17F
102
{ACAD_REACTORS
330
2FB
330
2FC
102
}
330
74
100
AcDbEntity
  8
0
  6
Continuous
 62
     2
100
AcDbLine
 10
-72.21336192493015
 20
17.08167107931967
 30
0.0
 11
-72.21336192493015
 21
17.58211346651534
 31
0.0
  0
LINE
  5
180
330
74
100
AcDbEntity
  8
1
  6
Continuous
 62
     7
100
AcDbLine
 10
-15.53766974705952
 20
24.28207210725108
 30
0.0
 11
-15.53766974705952
 21
28.53207210725106
 31
0.0
  0
LINE
  5
181
330
74
100
AcDbEntity
  8
1
  6
Continuous
 62
     6
100
AcDbLine
 10
-95.53766974706191
 20
7.28207210725119
 30
0.0
 11
-95.08247427381191
 21
7.28207210725108
 31
0.0
  0
LINE
  5
182
330
74
100
AcDbEntity
  8
1
  6
Continuous
 62
     6
100
AcDbLine
 10
-145.537669747062
 20
7.28207210725119
 30
0.0
 11
-184.337669747062
 21
7.28207210725119
 31
0.0
  0
LINE
  5
183
330
74
100
AcDbEntity
  8
1
  6
Continuous
 62
     6
100
AcDbLine
 10
-195.5376697470619
 20
7.28207210725119
 30
0.0
 11
-184.337669747062
 21
7.28207210725119
 31
0.0
  0
LINE
  5
184
330
74
100
AcDbEntity
  8
1
  6
Continuous
 62
     6
100
AcDbLine
 10
4.46233025293811
 20
7.28207210725119
 30
0.0
 11
47.9623302529381
 21
7.28207210725119
 31
0.0
  0
LINE
  5
185
330
74
100
AcDbEntity
  8
1
  6
Continuous
 62
     6
100
AcDbLine
 10
-45.5376697470619
 20
7.28207210725119
 30
0.0
 11
-63.38247427381194
 21
7.28207210725119
 31
0.0
  0
LINE
  5
186
330
74
100
AcDbEntity
  8
1
  6
PHANTOM
 62
     2
100
AcDbLine
 10
-73.46321105901154
 20
22.15707210725108
 30
0.0
 11
-69.14761608982253
 21
22.15707210725108
 31
0.0
  0
LINE
  5
187
330
74
100
AcDbEntity
  8
1
  6
PHANTOM
 62
     2
100
AcDbLine
 10
-76.49021444870854
 20
23.80707210725111
 30
0.0
 11
-76.49021444870854
 21
20.5070721072511
 31
0.0
  0
LINE
  5
188
330
74
100
AcDbEntity
  8
1
  6
PHANTOM
 62
     2
100
AcDbLine
 10
-74.84021444870854
 20
22.15707210725108
 30
0.0
 11
-78.14021444870853
 21
22.15707210725108
 31
0.0
  0
LINE
  5
189
330
74
100
AcDbEntity
  8
1
  6
Continuous
 62
     2
100
AcDbLine
 10
47.9623302529381
 20
7.28207210725119
 30
0.0
 11
52.96233025293711
 21
7.28207210725119
 31
0.0
  0
LINE
  5
18A
330
74
100
AcDbEntity
  8
1
  6
Continuous
 62
     2
100
AcDbLine
 10
47.9623302529381
 20
7.28207210725119
 30
0.0
 11
47.9623302529381
 21
2.28207210725108
 31
0.0
  0
LINE
  5
18B
330
74
100
AcDbEntity
  8
1
  6
Continuous
 62
     7
100
AcDbLine
 10
-45.18247427381191
 20
20.03207210725108
 30
0.0
 11
-45.18247427381191
 21
24.28207210725108
 31
0.0
  0
LINE
  5
18C
330
74
100
AcDbEntity
  8
1
  6
Continuous
 62
     7
100
AcDbLine
 10
-81.58247427381181
 20
20.03207210725108
 30
0.0
 11
-45.18247427381191
 21
20.03207210725108
 31
0.0
  0
LINE
  5
18D
330
74
100
AcDbEntity
  8
1
  6
Continuous
 62
     2
100
AcDbLine
 10
52.96233025293711
 20
2.28207210725108
 30
0.0
 11
52.96233025293711
 21
7.28207210725119
 31
0.0
  0
LINE
  5
18E
330
74
100
AcDbEntity
  8
1
  6
Continuous
 62
     2
100
AcDbLine
 10
52.96233025293711
 20
2.28207210725108
 30
0.0
 11
47.9623302529381
 21
2.28207210725108
 31
0.0
  0
LINE
  5
18F
330
74
100
AcDbEntity
  8
1
  6
Continuous
 62
     2
100
AcDbLine
 10
47.9623302529381
 20
2.28207210725108
 30
0.0
 11
4.46233025293811
 21
2.28207210725108
 31
0.0
  0
LINE
  5
190
330
74
100
AcDbEntity
  8
1
  6
Continuous
 62
     6
100
AcDbLine
 10
47.96233025293981
 20
37.03207210725108
 30
0.0
 11
47.96233025293901
 21
57.28207210725119
 31
0.0
  0
LINE
  5
191
330
74
100
AcDbEntity
  8
1
  6
Continuous
 62
     2
100
AcDbLine
 10
52.96233025293711
 20
212.2820721072511
 30
0.0
 11
-95.53766974706191
 21
212.2820721072511
 31
0.0
  0
LINE
  5
192
330
74
100
AcDbEntity
  8
1
  6
Continuous
 62
     6
100
AcDbLine
 10
47.96233025293711
 20
192.2820721072511
 30
0.0
 11
-239.037669747061
 21
192.2820721072511
 31
0.0
  0
LINE
  5
193
330
74
100
AcDbEntity
  8
1
  6
Continuous
 62
     2
100
AcDbLine
 10
47.96233025293901
 20
57.28207210725119
 30
0.0
 11
52.96233025293711
 21
57.28207210725119
 31
0.0
  0
LINE
  5
194
330
74
100
AcDbEntity
  8
1
  6
Continuous
 62
     6
100
AcDbLine
 10
47.96233025293901
 20
57.28207210725119
 30
0.0
 11
47.9623302529385
 21
107.282072107251
 31
0.0
  0
LINE
  5
195
330
74
100
AcDbEntity
  8
1
  6
Continuous
 62
     2
100
AcDbLine
 10
52.96233025293711
 20
57.28207210725119
 30
0.0
 11
52.96233025293711
 21
107.282072107251
 31
0.0
  0
LINE
  5
196
330
74
100
AcDbEntity
  8
1
  6
Continuous
 62
     2
100
AcDbLine
 10
47.9623302529385
 20
107.282072107251
 30
0.0
 11
52.96233025293711
 21
107.282072107251
 31
0.0
  0
LINE
  5
197
330
74
100
AcDbEntity
  8
1
  6
Continuous
 62
     6
100
AcDbLine
 10
47.9623302529385
 20
107.282072107251
 30
0.0
 11
47.96233025293739
 21
157.2820721072511
 31
0.0
  0
LINE
  5
198
330
74
100
AcDbEntity
  8
1
  6
Continuous
 62
     2
100
AcDbLine
 10
52.96233025293711
 20
107.282072107251
 30
0.0
 11
52.96233025293711
 21
157.2820721072511
 31
0.0
  0
LINE
  5
199
330
74
100
AcDbEntity
  8
1
  6
Continuous
 62
     2
100
AcDbLine
 10
47.96233025293739
 20
157.2820721072511
 30
0.0
 11
52.96233025293711
 21
157.2820721072511
 31
0.0
  0
LINE
  5
19A
330
74
100
AcDbEntity
  8
1
  6
Continuous
 62
     6
100
AcDbLine
 10
47.96233025293739
 20
157.2820721072511
 30
0.0
 11
47.96233025293711
 21
192.2820721072511
 31
0.0
  0
LINE
  5
19B
330
74
100
AcDbEntity
  8
1
  6
Continuous
 62
     2
100
AcDbLine
 10
52.96233025293711
 20
157.2820721072511
 30
0.0
 11
52.96233025293711
 21
212.2820721072511
 31
0.0
  0
LINE
  5
19C
330
74
100
AcDbEntity
  8
1
  6
Continuous
 62
     2
100
AcDbLine
 10
52.96233025293711
 20
7.28207210725119
 30
0.0
 11
52.96233025293711
 21
57.28207210725119
 31
0.0
  0
LINE
  5
19D
330
74
100
AcDbEntity
  8
1
  6
Continuous
 62
     2
100
AcDbLine
 10
-95.53766974706191
 20
212.2820721072511
 30
0.0
 11
-244.037669747061
 21
212.2820721072511
 31
0.0
  0
LINE
  5
19E
330
74
100
AcDbEntity
  8
1
  6
Continuous
 62
     2
100
AcDbLine
 10
-95.53766974706191
 20
212.2820721072511
 30
0.0
 11
-95.53766974706191
 21
203.0733802625498
 31
0.0
  0
LINE
  5
19F
330
74
100
AcDbEntity
  8
1
  6
Continuous
 62
     2
100
AcDbLine
 10
-244.037669747061
 20
2.28207210725108
 30
0.0
 11
-239.0376697470599
 21
2.28207210725108
 31
0.0
  0
LINE
  5
1A0
330
74
100
AcDbEntity
  8
1
  6
Continuous
 62
     2
100
AcDbLine
 10
-244.037669747061
 20
212.2820721072511
 30
0.0
 11
-244.037669747061
 21
157.2820721072511
 31
0.0
  0
LINE
  5
1A1
330
74
100
AcDbEntity
  8
1
  6
Continuous
 62
     6
100
AcDbLine
 10
-239.037669747061
 20
192.2820721072511
 30
0.0
 11
-239.0376697470608
 21
157.2820721072511
 31
0.0
  0
LINE
  5
1A2
330
74
100
AcDbEntity
  8
1
  6
Continuous
 62
     2
100
AcDbLine
 10
-244.037669747061
 20
157.2820721072511
 30
0.0
 11
-239.0376697470608
 21
157.2820721072511
 31
0.0
  0
LINE
  5
1A3
330
74
100
AcDbEntity
  8
1
  6
Continuous
 62
     2
100
AcDbLine
 10
-244.037669747061
 20
157.2820721072511
 30
0.0
 11
-244.037669747061
 21
107.282072107251
 31
0.0
  0
LINE
  5
1A4
330
74
100
AcDbEntity
  8
1
  6
Continuous
 62
     6
100
AcDbLine
 10
-239.0376697470608
 20
157.2820721072511
 30
0.0
 11
-239.0376697470604
 21
107.282072107251
 31
0.0
  0
LINE
  5
1A5
330
74
100
AcDbEntity
  8
1
  6
Continuous
 62
     2
100
AcDbLine
 10
-244.037669747061
 20
107.282072107251
 30
0.0
 11
-239.0376697470604
 21
107.282072107251
 31
0.0
  0
LINE
  5
1A6
330
74
100
AcDbEntity
  8
1
  6
Continuous
 62
     2
100
AcDbLine
 10
-244.037669747061
 20
107.282072107251
 30
0.0
 11
-244.037669747061
 21
57.28207210725119
 31
0.0
  0
LINE
  5
1A7
330
74
100
AcDbEntity
  8
1
  6
Continuous
 62
     6
100
AcDbLine
 10
-239.0376697470604
 20
107.282072107251
 30
0.0
 11
-239.0376697470601
 21
57.28207210725119
 31
0.0
  0
LINE
  5
1A8
330
74
100
AcDbEntity
  8
1
  6
Continuous
 62
     2
100
AcDbLine
 10
-244.037669747061
 20
57.28207210725119
 30
0.0
 11
-239.0376697470601
 21
57.28207210725119
 31
0.0
  0
LINE
  5
1A9
330
74
100
AcDbEntity
  8
1
  6
Continuous
 62
     2
100
AcDbLine
 10
-244.037669747061
 20
57.28207210725119
 30
0.0
 11
-244.037669747061
 21
7.28207210725119
 31
0.0
  0
LINE
  5
1AA
330
74
100
AcDbEntity
  8
1
  6
Continuous
 62
     6
100
AcDbLine
 10
-239.0376697470601
 20
57.28207210725119
 30
0.0
 11
-239.0376697470599
 21
7.28207210725119
 31
0.0
  0
LINE
  5
1AB
330
74
100
AcDbEntity
  8
1
  6
Continuous
 62
     2
100
AcDbLine
 10
-195.5376697470619
 20
2.28207210725108
 30
0.0
 11
-195.5376697470619
 21
7.28207210725119
 31
0.0
  0
LINE
  5
1AC
330
74
100
AcDbEntity
  8
1
  6
Continuous
 62
     2
100
AcDbLine
 10
-195.5376697470619
 20
2.28207210725108
 30
0.0
 11
-145.537669747062
 21
2.28207210725108
 31
0.0
  0
LINE
  5
1AD
330
74
100
AcDbEntity
  8
1
  6
Continuous
 62
     2
100
AcDbLine
 10
-145.537669747062
 20
2.28207210725108
 30
0.0
 11
-145.537669747062
 21
7.28207210725119
 31
0.0
  0
LINE
  5
1AE
330
74
100
AcDbEntity
  8
1
  6
Continuous
 62
     2
100
AcDbLine
 10
-145.537669747062
 20
2.28207210725108
 30
0.0
 11
-95.53766974706191
 21
2.28207210725108
 31
0.0
  0
LINE
  5
1AF
330
74
100
AcDbEntity
  8
1
  6
Continuous
 62
     2
100
AcDbLine
 10
-95.53766974706191
 20
2.28207210725108
 30
0.0
 11
-95.53766974706191
 21
7.28207210725119
 31
0.0
  0
LINE
  5
1B0
330
74
100
AcDbEntity
  8
1
  6
Continuous
 62
     2
100
AcDbLine
 10
-95.53766974706191
 20
2.28207210725108
 30
0.0
 11
-45.5376697470619
 21
2.28207210725108
 31
0.0
  0
LINE
  5
1B1
330
74
100
AcDbEntity
  8
1
  6
Continuous
 62
     2
100
AcDbLine
 10
-45.5376697470619
 20
2.28207210725108
 30
0.0
 11
-45.5376697470619
 21
7.28207210725119
 31
0.0
  0
LINE
  5
1B2
330
74
100
AcDbEntity
  8
1
  6
Continuous
 62
     2
100
AcDbLine
 10
4.46233025293811
 20
2.28207210725108
 30
0.0
 11
4.46233025293811
 21
7.28207210725119
 31
0.0
  0
LINE
  5
1B3
330
74
100
AcDbEntity
  8
1
  6
Continuous
 62
     2
100
AcDbLine
 10
4.46233025293811
 20
2.28207210725108
 30
0.0
 11
-45.5376697470619
 21
2.28207210725108
 31
0.0
  0
LINE
  5
1B4
330
74
100
AcDbEntity
  8
1
  6
Continuous
 62
     2
100
AcDbLine
 10
-239.0376697470599
 20
7.28207210725119
 30
0.0
 11
-239.0376697470599
 21
2.28207210725108
 31
0.0
  0
LINE
  5
1B5
330
74
100
AcDbEntity
  8
1
  6
Continuous
 62
     2
100
AcDbLine
 10
-239.0376697470599
 20
2.28207210725108
 30
0.0
 11
-195.5376697470619
 21
2.28207210725108
 31
0.0
  0
LINE
  5
1B6
330
74
100
AcDbEntity
  8
1
  6
Continuous
 62
     2
100
AcDbLine
 10
-239.0376697470599
 20
7.28207210725119
 30
0.0
 11
-244.037669747061
 21
7.28207210725119
 31
0.0
  0
LINE
  5
1B7
330
74
100
AcDbEntity
  8
1
  6
Continuous
 62
     2
100
AcDbLine
 10
-244.037669747061
 20
7.28207210725119
 30
0.0
 11
-244.037669747061
 21
2.28207210725108
 31
0.0
  0
LINE
  5
1B8
330
74
100
AcDbEntity
  8
1
  6
Continuous
 62
     7
100
AcDbLine
 10
-184.337669747062
 20
11.53207210725119
 30
0.0
 11
-122.0824742738118
 21
11.53207210725119
 31
0.0
  0
LINE
  5
1B9
330
74
100
AcDbEntity
  8
1
  6
Continuous
 62
     2
100
AcDbLine
 10
-184.337669747062
 20
11.53207210725119
 30
0.0
 11
-184.337669747062
 21
7.28207210725119
 31
0.0
  0
LINE
  5
1BA
330
74
100
AcDbEntity
  8
1
  6
Continuous
 62
     2
100
AcDbLine
 10
-184.337669747062
 20
15.78207210725108
 30
0.0
 11
-197.837669747062
 21
15.78207210725108
 31
0.0
  0
LINE
  5
1BB
330
74
100
AcDbEntity
  8
1
  6
Continuous
 62
     2
100
AcDbLine
 10
-184.337669747062
 20
15.78207210725108
 30
0.0
 11
-184.337669747062
 21
11.53207210725119
 31
0.0
  0
LINE
  5
1BC
330
74
100
AcDbEntity
  8
1
  6
Continuous
 62
     2
100
AcDbLine
 10
-184.337669747062
 20
24.28207210725108
 30
0.0
 11
-197.837669747062
 21
24.28207210725108
 31
0.0
  0
LINE
  5
1BD
330
74
100
AcDbEntity
  8
1
  6
Continuous
 62
     2
100
AcDbLine
 10
-184.337669747062
 20
24.28207210725108
 30
0.0
 11
-184.337669747062
 21
20.03207210725108
 31
0.0
  0
LINE
  5
1BE
330
74
100
AcDbEntity
  8
1
  6
Continuous
 62
     2
100
AcDbLine
 10
-184.337669747062
 20
20.03207210725108
 30
0.0
 11
-197.837669747062
 21
20.03207210725108
 31
0.0
  0
LINE
  5
1BF
330
74
100
AcDbEntity
  8
1
  6
Continuous
 62
     2
100
AcDbLine
 10
-184.337669747062
 20
20.03207210725108
 30
0.0
 11
-184.337669747062
 21
15.78207210725108
 31
0.0
  0
LINE
  5
1C0
330
74
100
AcDbEntity
  8
1
  6
Continuous
 62
     2
100
AcDbLine
 10
-184.337669747062
 20
32.78207210725108
 30
0.0
 11
-197.837669747062
 21
32.78207210725108
 31
0.0
  0
LINE
  5
1C1
330
74
100
AcDbEntity
  8
1
  6
Continuous
 62
     2
100
AcDbLine
 10
-184.337669747062
 20
28.53207210725108
 30
0.0
 11
-197.837669747062
 21
28.53207210725108
 31
0.0
  0
LINE
  5
1C2
330
74
100
AcDbEntity
  8
1
  6
Continuous
 62
     2
100
AcDbLine
 10
-184.337669747062
 20
28.53207210725108
 30
0.0
 11
-184.337669747062
 21
24.28207210725108
 31
0.0
  0
LINE
  5
1C3
330
74
100
AcDbEntity
  8
1
  6
Continuous
 62
     2
100
AcDbLine
 10
-184.337669747062
 20
32.78207210725108
 30
0.0
 11
-184.337669747062
 21
28.53207210725108
 31
0.0
  0
LINE
  5
1C4
330
74
100
AcDbEntity
  8
1
  6
Continuous
 62
     6
100
AcDbLine
 10
-184.337669747062
 20
37.03207210725108
 30
0.0
 11
-197.837669747062
 21
37.03207210725108
 31
0.0
  0
LINE
  5
1C5
330
74
100
AcDbEntity
  8
1
  6
Continuous
 62
     2
100
AcDbLine
 10
-184.337669747062
 20
37.03207210725108
 30
0.0
 11
-184.337669747062
 21
32.78207210725108
 31
0.0
  0
LINE
  5
1C6
330
74
100
AcDbEntity
  8
1
  6
Continuous
 62
     6
100
AcDbLine
 10
47.9623302529381
 20
7.28207210725119
 30
0.0
 11
47.96233025293941
 21
15.78207210725108
 31
0.0
  0
LINE
  5
1C7
330
74
100
AcDbEntity
  8
1
  6
Continuous
 62
     6
100
AcDbLine
 10
47.9623302529389
 20
28.53207210725108
 30
0.0
 11
47.96233025293989
 21
24.28207210725108
 31
0.0
  0
LINE
  5
1C8
330
74
100
AcDbEntity
  8
1
  6
Continuous
 62
     6
100
AcDbLine
 10
-45.18247427381191
 20
7.28207210725108
 30
0.0
 11
4.46233025293811
 21
7.28207210725119
 31
0.0
  0
LINE
  5
1C9
330
74
100
AcDbEntity
  8
1
  6
Continuous
 62
     6
100
AcDbLine
 10
-81.58247427381181
 20
7.28207210725108
 30
0.0
 11
-63.38247427381194
 21
7.28207210725119
 31
0.0
  0
LINE
  5
1CA
330
74
100
AcDbEntity
  8
1
  6
Continuous
 62
     6
100
AcDbLine
 10
-197.837669747062
 20
7.28207210725108
 30
0.0
 11
-195.5376697470619
 21
7.28207210725119
 31
0.0
  0
LINE
  5
1CB
330
74
100
AcDbEntity
  8
1
  6
Continuous
 62
     6
100
AcDbLine
 10
-122.0824742738118
 20
7.28207210725108
 30
0.0
 11
-145.537669747062
 21
7.28207210725119
 31
0.0
  0
LINE
  5
1CC
330
74
100
AcDbEntity
  8
1
  6
Continuous
 62
     6
100
AcDbLine
 10
47.96233025293981
 20
37.03207210725108
 30
0.0
 11
30.080738534619
 21
37.03207210725108
 31
0.0
  0
LINE
  5
1CD
330
74
100
AcDbEntity
  8
1
  6
Continuous
 62
     7
100
AcDbLine
 10
47.96233025293941
 20
15.78207210725108
 30
0.0
 11
2.9623302529401
 21
15.78207210725108
 31
0.0
  0
LINE
  5
1CE
330
74
100
AcDbEntity
  8
1
  6
Continuous
 62
     7
100
AcDbLine
 10
47.9623302529389
 20
28.53207210725108
 30
0.0
 11
30.080738534619
 21
28.53207210725108
 31
0.0
  0
LINE
  5
1CF
330
74
100
AcDbEntity
  8
1
  6
Continuous
 62
     7
100
AcDbLine
 10
2.9623302529401
 20
24.28207210725108
 30
0.0
 11
47.96233025293989
 21
24.28207210725108
 31
0.0
  0
LINE
  5
1D0
330
74
100
AcDbEntity
  8
1
  6
Continuous
 62
     7
100
AcDbLine
 10
-45.18247427381191
 20
32.78207210725108
 30
0.0
 11
-45.18247427381191
 21
28.53207210725108
 31
0.0
  0
LINE
  5
1D1
330
74
100
AcDbEntity
  8
1
  6
Continuous
 62
     7
100
AcDbLine
 10
-58.68247427381193
 20
32.78207210725108
 30
0.0
 11
-45.18247427381191
 21
32.78207210725108
 31
0.0
  0
LINE
  5
1D2
330
74
100
AcDbEntity
  8
1
  6
Continuous
 62
     7
100
AcDbLine
 10
-58.68247427381193
 20
32.78207210725108
 30
0.0
 11
-72.18247427381183
 21
32.78207210725108
 31
0.0
  0
LINE
  5
1D3
330
74
100
AcDbEntity
  8
1
  6
Continuous
 62
     7
100
AcDbLine
 10
30.080738534619
 20
28.53207210725108
 30
0.0
 11
30.080738534619
 21
37.03207210725108
 31
0.0
  0
LINE
  5
1D4
330
74
100
AcDbEntity
  8
1
  6
Continuous
 62
     6
100
AcDbLine
 10
21.1623302529398
 20
37.03207210725108
 30
0.0
 11
30.080738534619
 21
37.03207210725108
 31
0.0
  0
LINE
  5
1D5
330
74
100
AcDbEntity
  8
1
  6
Continuous
 62
     7
100
AcDbLine
 10
21.1623302529398
 20
37.03207210725108
 30
0.0
 11
21.16233025294011
 21
28.53207210725119
 31
0.0
  0
LINE
  5
1D6
330
74
100
AcDbEntity
  8
1
  6
Continuous
 62
     7
100
AcDbLine
 10
2.9623302529401
 20
15.78207210725108
 30
0.0
 11
-15.53766974705952
 21
15.78207210725108
 31
0.0
  0
LINE
  5
1D7
330
74
100
AcDbEntity
  8
1
  6
Continuous
 62
     7
100
AcDbLine
 10
2.9623302529401
 20
24.28207210725108
 30
0.0
 11
2.9623302529401
 21
15.78207210725108
 31
0.0
  0
LINE
  5
1D8
330
74
100
AcDbEntity
  8
1
  6
Continuous
 62
     2
100
AcDbLine
 10
-95.08247427381191
 20
37.03207210725108
 30
0.0
 11
-95.08247427381191
 21
32.78207210725108
 31
0.0
  0
LINE
  5
1D9
330
74
100
AcDbEntity
  8
1
  6
Continuous
 62
     2
100
AcDbLine
 10
-108.5824742738118
 20
37.03207210725108
 30
0.0
 11
-108.5824742738118
 21
32.78207210725108
 31
0.0
  0
LINE
  5
1DA
330
74
100
AcDbEntity
  8
1
  6
Continuous
 62
     6
100
AcDbLine
 10
-95.08247427381191
 20
37.03207210725108
 30
0.0
 11
-108.5824742738118
 21
37.03207210725108
 31
0.0
  0
LINE
  5
1DB
330
74
100
AcDbEntity
  8
1
  6
Continuous
 62
     6
100
AcDbLine
 10
-108.5824742738118
 20
37.03207210725108
 30
0.0
 11
-122.0824742738118
 21
37.03207210725108
 31
0.0
  0
LINE
  5
1DC
330
74
100
AcDbEntity
  8
1
  6
Continuous
 62
     2
100
AcDbLine
 10
-122.0824742738118
 20
37.03207210725108
 30
0.0
 11
-122.0824742738118
 21
32.78207210725108
 31
0.0
  0
LINE
  5
1DD
330
74
100
AcDbEntity
  8
1
  6
Continuous
 62
     7
100
AcDbLine
 10
-63.38247427381194
 20
11.53207210725119
 30
0.0
 11
-63.38247427381194
 21
7.28207210725119
 31
0.0
  0
LINE
  5
1DE
330
74
100
AcDbEntity
  8
1
  6
Continuous
 62
     7
100
AcDbLine
 10
-63.38247427381194
 20
11.53207210725119
 30
0.0
 11
-81.58247427381181
 21
11.53207210725119
 31
0.0
  0
LINE
  5
1DF
330
74
100
AcDbEntity
  8
1
  6
Continuous
 62
     7
100
AcDbLine
 10
-58.68247427381193
 20
24.28207210725108
 30
0.0
 11
-72.18247427381183
 21
24.28207210725119
 31
0.0
  0
LINE
  5
1E0
330
74
100
AcDbEntity
  8
1
  6
Continuous
 62
     7
100
AcDbLine
 10
-45.18247427381191
 20
11.53207210725119
 30
0.0
 11
-63.38247427381194
 21
11.53207210725119
 31
0.0
  0
LINE
  5
1E1
330
74
100
AcDbEntity
  8
1
  6
Continuous
 62
     6
100
AcDbLine
 10
-45.18247427381191
 20
37.03207210725108
 30
0.0
 11
-22.28247427381189
 21
37.03207210725108
 31
0.0
  0
LINE
  5
1E2
330
74
100
AcDbEntity
  8
1
  6
Continuous
 62
     6
100
AcDbLine
 10
21.1623302529398
 20
37.03207210725108
 30
0.0
 11
-22.28247427381189
 21
37.03207210725108
 31
0.0
  0
LINE
  5
1E3
330
74
100
AcDbEntity
  8
1
  6
Continuous
 62
     7
100
AcDbLine
 10
-22.28247427381189
 20
37.03207210725108
 30
0.0
 11
-22.28247427381189
 21
28.53207210725102
 31
0.0
  0
LINE
  5
1E4
330
74
100
AcDbEntity
  8
1
  6
Continuous
 62
     6
100
AcDbLine
 10
-197.837669747062
 20
37.03207210725108
 30
0.0
 11
-204.03766974706
 21
37.03207210725108
 31
0.0
  0
LINE
  5
1E5
330
74
100
AcDbEntity
  8
1
  6
Continuous
 62
     6
100
AcDbLine
 10
-204.03766974706
 20
7.28207210725119
 30
0.0
 11
-204.03766974706
 21
11.53207210725119
 31
0.0
  0
LINE
  5
1E6
330
74
100
AcDbEntity
  8
1
  6
Continuous
 62
     6
100
AcDbLine
 10
-204.03766974706
 20
11.53207210725119
 30
0.0
 11
-204.03766974706
 21
15.78207210725108
 31
0.0
  0
LINE
  5
1E7
330
74
100
AcDbEntity
  8
1
  6
Continuous
 62
     7
100
AcDbLine
 10
-58.68247427381193
 20
28.53207210725108
 30
0.0
 11
-58.68247427381193
 21
24.28207210725108
 31
0.0
  0
LINE
  5
1E8
330
74
100
AcDbEntity
  8
1
  6
Continuous
 62
     7
100
AcDbLine
 10
-72.18247427381183
 20
28.53207210725108
 30
0.0
 11
-72.18247427381183
 21
24.28207210725119
 31
0.0
  0
LINE
  5
1E9
330
74
100
AcDbEntity
  8
1
  6
Continuous
 62
     7
100
AcDbLine
 10
-58.68247427381193
 20
28.53207210725108
 30
0.0
 11
-72.18247427381183
 21
28.53207210725108
 31
0.0
  0
LINE
  5
1EA
330
74
100
AcDbEntity
  8
1
  6
Continuous
 62
     2
100
AcDbLine
 10
-81.58247427381181
 20
24.28207210725108
 30
0.0
 11
-95.08247427381191
 21
24.28207210725108
 31
0.0
  0
LINE
  5
1EB
330
74
100
AcDbEntity
  8
1
  6
Continuous
 62
     2
100
AcDbLine
 10
-197.837669747062
 20
24.28207210725108
 30
0.0
 11
-197.837669747062
 21
28.53207210725108
 31
0.0
  0
LINE
  5
1EC
330
74
100
AcDbEntity
  8
1
  6
Continuous
 62
     2
100
AcDbLine
 10
-197.837669747062
 20
24.28207210725108
 30
0.0
 11
-204.03766974706
 21
24.28207210725108
 31
0.0
  0
LINE
  5
1ED
330
74
100
AcDbEntity
  8
1
  6
Continuous
 62
     2
100
AcDbLine
 10
-81.58247427381181
 20
28.53207210725108
 30
0.0
 11
-95.08247427381191
 21
28.53207210725108
 31
0.0
  0
LINE
  5
1EE
330
74
100
AcDbEntity
  8
1
  6
Continuous
 62
     2
100
AcDbLine
 10
-197.837669747062
 20
28.53207210725108
 30
0.0
 11
-197.837669747062
 21
32.78207210725108
 31
0.0
  0
LINE
  5
1EF
330
74
100
AcDbEntity
  8
1
  6
Continuous
 62
     2
100
AcDbLine
 10
-81.58247427381181
 20
32.78207210725108
 30
0.0
 11
-95.08247427381191
 21
32.78207210725108
 31
0.0
  0
LINE
  5
1F0
330
74
100
AcDbEntity
  8
1
  6
Continuous
 62
     2
100
AcDbLine
 10
-197.837669747062
 20
32.78207210725108
 30
0.0
 11
-197.837669747062
 21
37.03207210725108
 31
0.0
  0
LINE
  5
1F1
330
74
100
AcDbEntity
  8
1
  6
Continuous
 62
     2
100
AcDbLine
 10
-197.837669747062
 20
32.78207210725108
 30
0.0
 11
-204.03766974706
 21
32.78207210725108
 31
0.0
  0
LINE
  5
1F2
330
74
100
AcDbEntity
  8
1
  6
Continuous
 62
     6
100
AcDbLine
 10
-81.58247427381181
 20
37.03207210725108
 30
0.0
 11
-95.08247427381191
 21
37.03207210725108
 31
0.0
  0
LINE
  5
1F3
330
74
100
AcDbEntity
  8
1
  6
Continuous
 62
     2
100
AcDbLine
 10
-81.58247427381181
 20
15.78207210725108
 30
0.0
 11
-95.08247427381191
 21
15.78207210725108
 31
0.0
  0
LINE
  5
1F4
330
74
100
AcDbEntity
  8
1
  6
Continuous
 62
     2
100
AcDbLine
 10
-81.58247427381181
 20
20.03207210725108
 30
0.0
 11
-95.08247427381191
 21
20.03207210725108
 31
0.0
  0
LINE
  5
1F5
330
74
100
AcDbEntity
  8
1
  6
Continuous
 62
     2
100
AcDbLine
 10
-197.837669747062
 20
15.78207210725108
 30
0.0
 11
-197.837669747062
 21
20.03207210725108
 31
0.0
  0
LINE
  5
1F6
330
74
100
AcDbEntity
  8
1
  6
Continuous
 62
     2
100
AcDbLine
 10
-197.837669747062
 20
20.03207210725108
 30
0.0
 11
-197.837669747062
 21
24.28207210725108
 31
0.0
  0
LINE
  5
1F7
330
74
100
AcDbEntity
  8
1
  6
Continuous
 62
     7
100
AcDbLine
 10
-197.837669747062
 20
11.53207210725119
 30
0.0
 11
-184.337669747062
 21
11.53207210725119
 31
0.0
  0
LINE
  5
1F8
330
74
100
AcDbEntity
  8
1
  6
Continuous
 62
     2
100
AcDbLine
 10
-197.837669747062
 20
11.53207210725119
 30
0.0
 11
-197.837669747062
 21
15.78207210725108
 31
0.0
  0
LINE
  5
1F9
330
74
100
AcDbEntity
  8
1
  6
Continuous
 62
     7
100
AcDbLine
 10
-45.18247427381191
 20
15.78207210725108
 30
0.0
 11
-45.18247427381191
 21
20.03207210725108
 31
0.0
  0
LINE
  5
1FA
330
74
100
AcDbEntity
  8
1
  6
Continuous
 62
     6
100
AcDbLine
 10
-58.68247427381193
 20
37.03207210725108
 30
0.0
 11
-45.18247427381191
 21
37.03207210725108
 31
0.0
  0
LINE
  5
1FB
330
74
100
AcDbEntity
  8
1
  6
Continuous
 62
     7
100
AcDbLine
 10
-45.18247427381191
 20
37.03207210725108
 30
0.0
 11
-45.18247427381191
 21
32.78207210725108
 31
0.0
  0
LINE
  5
1FC
330
74
100
AcDbEntity
  8
1
  6
Continuous
 62
     6
100
AcDbLine
 10
-72.18247427381183
 20
37.03207210725108
 30
0.0
 11
-58.68247427381193
 21
37.03207210725108
 31
0.0
  0
LINE
  5
1FD
330
74
100
AcDbEntity
  8
1
  6
Continuous
 62
     7
100
AcDbLine
 10
-81.58247427381181
 20
24.28207210725108
 30
0.0
 11
-81.58247427381181
 21
20.03207210725108
 31
0.0
  0
LINE
  5
1FE
330
74
100
AcDbEntity
  8
1
  6
Continuous
 62
     7
100
AcDbLine
 10
-81.58247427381181
 20
28.53207210725108
 30
0.0
 11
-81.58247427381181
 21
24.28207210725108
 31
0.0
  0
LINE
  5
1FF
330
74
100
AcDbEntity
  8
1
  6
Continuous
 62
     2
100
AcDbLine
 10
-204.03766974706
 20
28.53207210725108
 30
0.0
 11
-197.837669747062
 21
28.53207210725108
 31
0.0
  0
LINE
  5
200
330
74
100
AcDbEntity
  8
1
  6
Continuous
 62
     7
100
AcDbLine
 10
-81.58247427381181
 20
32.78207210725108
 30
0.0
 11
-81.58247427381181
 21
28.53207210725108
 31
0.0
  0
LINE
  5
201
330
74
100
AcDbEntity
  8
1
  6
Continuous
 62
     7
100
AcDbLine
 10
-45.18247427381191
 20
28.53207210725108
 30
0.0
 11
-45.18247427381191
 21
24.28207210725108
 31
0.0
  0
LINE
  5
202
330
74
100
AcDbEntity
  8
1
  6
Continuous
 62
     7
100
AcDbLine
 10
-58.68247427381193
 20
37.03207210725108
 30
0.0
 11
-58.68247427381193
 21
32.78207210725108
 31
0.0
  0
LINE
  5
203
330
74
100
AcDbEntity
  8
1
  6
Continuous
 62
     7
100
AcDbLine
 10
-72.18247427381183
 20
37.03207210725108
 30
0.0
 11
-72.18247427381183
 21
32.78207210725108
 31
0.0
  0
LINE
  5
204
330
74
100
AcDbEntity
  8
1
  6
Continuous
 62
     2
100
AcDbLine
 10
-197.837669747062
 20
7.28207210725108
 30
0.0
 11
-197.837669747062
 21
11.53207210725119
 31
0.0
  0
LINE
  5
205
330
74
100
AcDbEntity
  8
1
  6
Continuous
 62
     2
100
AcDbLine
 10
-204.03766974706
 20
15.78207210725108
 30
0.0
 11
-197.837669747062
 21
15.78207210725108
 31
0.0
  0
LINE
  5
206
330
74
100
AcDbEntity
  8
1
  6
Continuous
 62
     2
100
AcDbLine
 10
-204.03766974706
 20
20.03207210725108
 30
0.0
 11
-197.837669747062
 21
20.03207210725108
 31
0.0
  0
LINE
  5
207
330
74
100
AcDbEntity
  8
1
  6
Continuous
 62
     7
100
AcDbLine
 10
-204.03766974706
 20
11.53207210725119
 30
0.0
 11
-197.837669747062
 21
11.53207210725119
 31
0.0
  0
LINE
  5
208
330
74
100
AcDbEntity
  8
1
  6
Continuous
 62
     7
100
AcDbLine
 10
-45.18247427381191
 20
15.78207210725108
 30
0.0
 11
-45.18247427381191
 21
11.53207210725119
 31
0.0
  0
LINE
  5
209
330
74
100
AcDbEntity
  8
1
  6
Continuous
 62
     7
100
AcDbLine
 10
-81.58247427381181
 20
20.03207210725108
 30
0.0
 11
-81.58247427381181
 21
15.78207210725108
 31
0.0
  0
LINE
  5
20A
330
74
100
AcDbEntity
  8
1
  6
Continuous
 62
     7
100
AcDbLine
 10
-81.58247427381181
 20
15.78207210725108
 30
0.0
 11
-81.58247427381181
 21
11.53207210725119
 31
0.0
  0
LINE
  5
20B
330
74
100
AcDbEntity
  8
1
  6
Continuous
 62
     7
100
AcDbLine
 10
-58.68247427381193
 20
32.78207210725108
 30
0.0
 11
-58.68247427381193
 21
28.53207210725108
 31
0.0
  0
LINE
  5
20C
330
74
100
AcDbEntity
  8
1
  6
Continuous
 62
     7
100
AcDbLine
 10
-72.18247427381183
 20
32.78207210725108
 30
0.0
 11
-72.18247427381183
 21
28.53207210725108
 31
0.0
  0
LINE
  5
20D
330
74
100
AcDbEntity
  8
1
  6
Continuous
 62
     7
100
AcDbLine
 10
-81.58247427381181
 20
28.53207210725108
 30
0.0
 11
-72.18247427381183
 21
28.53207210725108
 31
0.0
  0
LINE
  5
20E
330
74
100
AcDbEntity
  8
1
  6
Continuous
 62
     7
100
AcDbLine
 10
-45.18247427381191
 20
24.28207210725108
 30
0.0
 11
-58.68247427381193
 21
24.28207210725108
 31
0.0
  0
LINE
  5
20F
330
74
100
AcDbEntity
  8
1
  6
Continuous
 62
     7
100
AcDbLine
 10
-45.18247427381191
 20
11.53207210725119
 30
0.0
 11
-45.18247427381191
 21
7.28207210725108
 31
0.0
  0
LINE
  5
210
330
74
100
AcDbEntity
  8
1
  6
Continuous
 62
     7
100
AcDbLine
 10
-81.58247427381181
 20
11.53207210725119
 30
0.0
 11
-81.58247427381181
 21
7.28207210725108
 31
0.0
  0
LINE
  5
211
330
74
100
AcDbEntity
  8
1
  6
Continuous
 62
     7
100
AcDbLine
 10
-81.58247427381181
 20
37.03207210725108
 30
0.0
 11
-81.58247427381181
 21
32.78207210725108
 31
0.0
  0
LINE
  5
212
330
74
100
AcDbEntity
  8
1
  6
Continuous
 62
     7
100
AcDbLine
 10
-45.18247427381191
 20
15.78207210725108
 30
0.0
 11
-15.53766974705952
 21
15.78207210725108
 31
0.0
  0
LINE
  5
213
330
74
100
AcDbEntity
  8
1
  6
Continuous
 62
     7
100
AcDbLine
 10
-45.18247427381191
 20
24.28207210725108
 30
0.0
 11
-15.53766974705952
 21
24.28207210725108
 31
0.0
  0
LINE
  5
214
330
74
100
AcDbEntity
  8
1
  6
Continuous
 62
     7
100
AcDbLine
 10
21.16233025294011
 20
28.53207210725119
 30
0.0
 11
30.080738534619
 21
28.53207210725108
 31
0.0
  0
LINE
  5
215
330
74
100
AcDbEntity
  8
1
  6
Continuous
 62
     7
100
AcDbLine
 10
21.16233025294011
 20
28.53207210725119
 30
0.0
 11
-15.53766974705952
 21
28.53207210725106
 31
0.0
  0
LINE
  5
216
330
74
100
AcDbEntity
  8
1
  6
Continuous
 62
     7
100
AcDbLine
 10
-15.53766974705952
 20
24.28207210725108
 30
0.0
 11
2.9623302529401
 21
24.28207210725108
 31
0.0
  0
LINE
  5
217
330
74
100
AcDbEntity
  8
1
  6
Continuous
 62
     7
100
AcDbLine
 10
-15.53766974705952
 20
24.28207210725108
 30
0.0
 11
-15.53766974705952
 21
15.78207210725108
 31
0.0
  0
LINE
  5
218
330
74
100
AcDbEntity
  8
1
  6
Continuous
 62
     6
100
AcDbLine
 10
-197.837669747062
 20
7.28207210725108
 30
0.0
 11
-204.03766974706
 21
7.28207210725119
 31
0.0
  0
LINE
  5
219
330
74
100
AcDbEntity
  8
1
  6
Continuous
 62
     6
100
AcDbLine
 10
-204.03766974706
 20
32.78207210725108
 30
0.0
 11
-204.03766974706
 21
37.03207210725108
 31
0.0
  0
LINE
  5
21A
330
74
100
AcDbEntity
  8
1
  6
Continuous
 62
     6
100
AcDbLine
 10
-204.03766974706
 20
28.53207210725108
 30
0.0
 11
-204.03766974706
 21
32.78207210725108
 31
0.0
  0
LINE
  5
21B
330
74
100
AcDbEntity
  8
1
  6
Continuous
 62
     6
100
AcDbLine
 10
-204.03766974706
 20
24.28207210725108
 30
0.0
 11
-204.03766974706
 21
28.53207210725108
 31
0.0
  0
LINE
  5
21C
330
74
100
AcDbEntity
  8
1
  6
Continuous
 62
     6
100
AcDbLine
 10
-204.03766974706
 20
15.78207210725108
 30
0.0
 11
-204.03766974706
 21
20.03207210725108
 31
0.0
  0
LINE
  5
21D
330
74
100
AcDbEntity
  8
1
  6
Continuous
 62
     6
100
AcDbLine
 10
-122.0824742738118
 20
37.03207210725108
 30
0.0
 11
-184.337669747062
 21
37.03207210725108
 31
0.0
  0
LINE
  5
21E
330
74
100
AcDbEntity
  8
1
  6
Continuous
 62
     2
100
AcDbLine
 10
-184.337669747062
 20
32.78207210725108
 30
0.0
 11
-122.0824742738118
 21
32.78207210725108
 31
0.0
  0
LINE
  5
21F
330
74
100
AcDbEntity
  8
1
  6
Continuous
 62
     2
100
AcDbLine
 10
-184.337669747062
 20
28.53207210725108
 30
0.0
 11
-122.0824742738118
 21
28.53207210725108
 31
0.0
  0
LINE
  5
220
330
74
100
AcDbEntity
  8
1
  6
Continuous
 62
     6
100
AcDbLine
 10
-45.18247427381191
 20
7.28207210725108
 30
0.0
 11
-45.5376697470619
 21
7.28207210725119
 31
0.0
  0
LINE
  5
221
330
74
100
AcDbEntity
  8
1
  6
Continuous
 62
     7
100
AcDbLine
 10
-58.68247427381193
 20
28.53207210725108
 30
0.0
 11
-45.18247427381191
 21
28.53207210725108
 31
0.0
  0
LINE
  5
222
330
74
100
AcDbEntity
  8
1
  6
Continuous
 62
     7
100
AcDbLine
 10
-22.28247427381189
 20
28.53207210725102
 30
0.0
 11
-45.18247427381191
 21
28.53207210725108
 31
0.0
  0
LINE
  5
223
330
74
100
AcDbEntity
  8
1
  6
Continuous
 62
     6
100
AcDbLine
 10
47.96233025293989
 20
24.28207210725108
 30
0.0
 11
47.96233025293941
 21
15.78207210725108
 31
0.0
  0
LINE
  5
224
330
74
100
AcDbEntity
  8
1
  6
Continuous
 62
     6
100
AcDbLine
 10
-95.08247427381191
 20
7.28207210725108
 30
0.0
 11
-81.58247427381181
 21
7.28207210725108
 31
0.0
  0
LINE
  5
225
330
74
100
AcDbEntity
  8
1
  6
Continuous
 62
     2
100
AcDbLine
 10
-95.08247427381191
 20
15.78207210725108
 30
0.0
 11
-95.08247427381191
 21
11.53207210725119
 31
0.0
  0
LINE
  5
226
330
74
100
AcDbEntity
  8
1
  6
Continuous
 62
     2
100
AcDbLine
 10
-95.08247427381191
 20
15.78207210725108
 30
0.0
 11
-108.5824742738118
 21
15.78207210725108
 31
0.0
  0
LINE
  5
227
330
74
100
AcDbEntity
  8
1
  6
Continuous
 62
     2
100
AcDbLine
 10
-95.08247427381191
 20
11.53207210725119
 30
0.0
 11
-95.08247427381191
 21
7.28207210725108
 31
0.0
  0
LINE
  5
228
330
74
100
AcDbEntity
  8
1
  6
Continuous
 62
     7
100
AcDbLine
 10
-95.08247427381191
 20
11.53207210725119
 30
0.0
 11
-81.58247427381181
 21
11.53207210725119
 31
0.0
  0
LINE
  5
229
330
74
100
AcDbEntity
  8
1
  6
Continuous
 62
     2
100
AcDbLine
 10
-95.08247427381191
 20
24.28207210725108
 30
0.0
 11
-95.08247427381191
 21
20.03207210725108
 31
0.0
  0
LINE
  5
22A
330
74
100
AcDbEntity
  8
1
  6
Continuous
 62
     2
100
AcDbLine
 10
-95.08247427381191
 20
24.28207210725108
 30
0.0
 11
-108.5824742738118
 21
24.28207210725108
 31
0.0
  0
LINE
  5
22B
330
74
100
AcDbEntity
  8
1
  6
Continuous
 62
     2
100
AcDbLine
 10
-95.08247427381191
 20
28.53207210725108
 30
0.0
 11
-95.08247427381191
 21
24.28207210725108
 31
0.0
  0
LINE
  5
22C
330
74
100
AcDbEntity
  8
1
  6
Continuous
 62
     2
100
AcDbLine
 10
-95.08247427381191
 20
28.53207210725108
 30
0.0
 11
-108.5824742738118
 21
28.53207210725108
 31
0.0
  0
LINE
  5
22D
330
74
100
AcDbEntity
  8
1
  6
Continuous
 62
     2
100
AcDbLine
 10
-95.08247427381191
 20
32.78207210725108
 30
0.0
 11
-95.08247427381191
 21
28.53207210725108
 31
0.0
  0
LINE
  5
22E
330
74
100
AcDbEntity
  8
1
  6
Continuous
 62
     2
100
AcDbLine
 10
-95.08247427381191
 20
32.78207210725108
 30
0.0
 11
-108.5824742738118
 21
32.78207210725108
 31
0.0
  0
LINE
  5
22F
330
74
100
AcDbEntity
  8
1
  6
Continuous
 62
     2
100
AcDbLine
 10
-95.08247427381191
 20
20.03207210725108
 30
0.0
 11
-95.08247427381191
 21
15.78207210725108
 31
0.0
  0
LINE
  5
230
330
74
100
AcDbEntity
  8
1
  6
Continuous
 62
     2
100
AcDbLine
 10
-95.08247427381191
 20
20.03207210725108
 30
0.0
 11
-108.5824742738118
 21
20.03207210725108
 31
0.0
  0
LINE
  5
231
330
74
100
AcDbEntity
  8
1
  6
Continuous
 62
     6
100
AcDbLine
 10
-108.5824742738118
 20
7.28207210725108
 30
0.0
 11
-95.53766974706191
 21
7.28207210725119
 31
0.0
  0
LINE
  5
232
330
74
100
AcDbEntity
  8
1
  6
Continuous
 62
     2
100
AcDbLine
 10
-108.5824742738118
 20
15.78207210725108
 30
0.0
 11
-108.5824742738118
 21
11.53207210725119
 31
0.0
  0
LINE
  5
233
330
74
100
AcDbEntity
  8
1
  6
Continuous
 62
     2
100
AcDbLine
 10
-108.5824742738118
 20
15.78207210725108
 30
0.0
 11
-122.0824742738118
 21
15.78207210725108
 31
0.0
  0
LINE
  5
234
330
74
100
AcDbEntity
  8
1
  6
Continuous
 62
     2
100
AcDbLine
 10
-108.5824742738118
 20
11.53207210725119
 30
0.0
 11
-108.5824742738118
 21
7.28207210725108
 31
0.0
  0
LINE
  5
235
330
74
100
AcDbEntity
  8
1
  6
Continuous
 62
     7
100
AcDbLine
 10
-108.5824742738118
 20
11.53207210725119
 30
0.0
 11
-95.08247427381191
 21
11.53207210725119
 31
0.0
  0
LINE
  5
236
330
74
100
AcDbEntity
  8
1
  6
Continuous
 62
     2
100
AcDbLine
 10
-108.5824742738118
 20
24.28207210725108
 30
0.0
 11
-108.5824742738118
 21
20.03207210725108
 31
0.0
  0
LINE
  5
237
330
74
100
AcDbEntity
  8
1
  6
Continuous
 62
     2
100
AcDbLine
 10
-108.5824742738118
 20
24.28207210725108
 30
0.0
 11
-122.0824742738118
 21
24.28207210725108
 31
0.0
  0
LINE
  5
238
330
74
100
AcDbEntity
  8
1
  6
Continuous
 62
     2
100
AcDbLine
 10
-108.5824742738118
 20
28.53207210725108
 30
0.0
 11
-108.5824742738118
 21
24.28207210725108
 31
0.0
  0
LINE
  5
239
330
74
100
AcDbEntity
  8
1
  6
Continuous
 62
     2
100
AcDbLine
 10
-108.5824742738118
 20
28.53207210725108
 30
0.0
 11
-122.0824742738118
 21
28.53207210725108
 31
0.0
  0
LINE
  5
23A
330
74
100
AcDbEntity
  8
1
  6
Continuous
 62
     2
100
AcDbLine
 10
-108.5824742738118
 20
32.78207210725108
 30
0.0
 11
-108.5824742738118
 21
28.53207210725108
 31
0.0
  0
LINE
  5
23B
330
74
100
AcDbEntity
  8
1
  6
Continuous
 62
     2
100
AcDbLine
 10
-108.5824742738118
 20
32.78207210725108
 30
0.0
 11
-122.0824742738118
 21
32.78207210725108
 31
0.0
  0
LINE
  5
23C
330
74
100
AcDbEntity
  8
1
  6
Continuous
 62
     2
100
AcDbLine
 10
-108.5824742738118
 20
20.03207210725108
 30
0.0
 11
-108.5824742738118
 21
15.78207210725108
 31
0.0
  0
LINE
  5
23D
330
74
100
AcDbEntity
  8
1
  6
Continuous
 62
     2
100
AcDbLine
 10
-108.5824742738118
 20
20.03207210725108
 30
0.0
 11
-122.0824742738118
 21
20.03207210725108
 31
0.0
  0
LINE
  5
23E
330
74
100
AcDbEntity
  8
1
  6
Continuous
 62
     6
100
AcDbLine
 10
-122.0824742738118
 20
7.28207210725108
 30
0.0
 11
-108.5824742738118
 21
7.28207210725108
 31
0.0
  0
LINE
  5
23F
330
74
100
AcDbEntity
  8
1
  6
Continuous
 62
     2
100
AcDbLine
 10
-122.0824742738118
 20
15.78207210725108
 30
0.0
 11
-122.0824742738118
 21
11.53207210725119
 31
0.0
  0
LINE
  5
240
330
74
100
AcDbEntity
  8
1
  6
Continuous
 62
     2
100
AcDbLine
 10
-122.0824742738118
 20
15.78207210725108
 30
0.0
 11
-184.337669747062
 21
15.78207210725108
 31
0.0
  0
LINE
  5
241
330
74
100
AcDbEntity
  8
1
  6
Continuous
 62
     2
100
AcDbLine
 10
-122.0824742738118
 20
11.53207210725119
 30
0.0
 11
-122.0824742738118
 21
7.28207210725108
 31
0.0
  0
LINE
  5
242
330
74
100
AcDbEntity
  8
1
  6
Continuous
 62
     7
100
AcDbLine
 10
-122.0824742738118
 20
11.53207210725119
 30
0.0
 11
-108.5824742738118
 21
11.53207210725119
 31
0.0
  0
LINE
  5
243
330
74
100
AcDbEntity
  8
1
  6
Continuous
 62
     2
100
AcDbLine
 10
-122.0824742738118
 20
24.28207210725108
 30
0.0
 11
-122.0824742738118
 21
20.03207210725108
 31
0.0
  0
LINE
  5
244
330
74
100
AcDbEntity
  8
1
  6
Continuous
 62
     2
100
AcDbLine
 10
-122.0824742738118
 20
24.28207210725108
 30
0.0
 11
-184.337669747062
 21
24.28207210725108
 31
0.0
  0
LINE
  5
245
330
74
100
AcDbEntity
  8
1
  6
Continuous
 62
     2
100
AcDbLine
 10
-122.0824742738118
 20
28.53207210725108
 30
0.0
 11
-122.0824742738118
 21
24.28207210725108
 31
0.0
  0
LINE
  5
246
330
74
100
AcDbEntity
  8
1
  6
Continuous
 62
     2
100
AcDbLine
 10
-122.0824742738118
 20
32.78207210725108
 30
0.0
 11
-122.0824742738118
 21
28.53207210725108
 31
0.0
  0
LINE
  5
247
330
74
100
AcDbEntity
  8
1
  6
Continuous
 62
     2
100
AcDbLine
 10
-122.0824742738118
 20
20.03207210725108
 30
0.0
 11
-122.0824742738118
 21
15.78207210725108
 31
0.0
  0
LINE
  5
248
330
74
100
AcDbEntity
  8
1
  6
Continuous
 62
     2
100
AcDbLine
 10
-122.0824742738118
 20
20.03207210725108
 30
0.0
 11
-184.337669747062
 21
20.03207210725108
 31
0.0
  0
LINE
  5
249
330
74
100
AcDbEntity
  8
1
  6
Continuous
 62
     7
100
AcDbLine
 10
-72.18247427381183
 20
24.28207210725119
 30
0.0
 11
-81.58247427381181
 21
24.28207210725108
 31
0.0
  0
LINE
  5
24A
330
74
100
AcDbEntity
  8
1
  6
Continuous
 62
     6
100
AcDbLine
 10
-72.18247427381183
 20
37.03207210725108
 30
0.0
 11
-81.58247427381181
 21
37.03207210725108
 31
0.0
  0
LINE
  5
24B
330
74
100
AcDbEntity
  8
1
  6
Continuous
 62
     7
100
AcDbLine
 10
-81.58247427381181
 20
32.78207210725108
 30
0.0
 11
-72.18247427381183
 21
32.78207210725108
 31
0.0
  0
LINE
  5
24C
330
74
100
AcDbEntity
  8
1
  6
Continuous
 62
     6
100
AcDbLine
 10
-204.03766974706
 20
20.03207210725108
 30
0.0
 11
-204.03766974706
 21
24.28207210725108
 31
0.0
  0
LINE
  5
24D
330
74
100
AcDbEntity
  8
1
  6
Continuous
 62
     6
100
AcDbLine
 10
47.96233025293981
 20
37.03207210725108
 30
0.0
 11
47.9623302529389
 21
28.53207210725108
 31
0.0
  0
LINE
  5
24E
330
74
100
AcDbEntity
  8
1
  6
Continuous
 62
     6
100
AcDbLine
 10
-204.03766974706
 20
7.28207210725119
 30
0.0
 11
-239.0376697470599
 21
7.28207210725119
 31
0.0
  0
LINE
  5
24F
330
74
100
AcDbEntity
  8
1
  6
Continuous
 62
     2
100
AcDbLine
 10
-73.30220513929655
 20
23.65707210725108
 30
0.0
 11
-69.30220513929655
 21
23.15707210725108
 31
0.0
  0
LINE
  5
250
330
74
100
AcDbEntity
  8
1
  6
Continuous
 62
     2
100
AcDbLine
 10
-69.30220513929655
 20
23.15707210725108
 30
0.0
 11
-69.30220513929655
 21
21.15707210725108
 31
0.0
  0
LINE
  5
251
330
74
100
AcDbEntity
  8
1
  6
Continuous
 62
     2
100
AcDbLine
 10
-69.30220513929655
 20
21.15707210725108
 30
0.0
 11
-73.30220513929655
 21
20.65707210725108
 31
0.0
  0
LINE
  5
252
330
74
100
AcDbEntity
  8
1
  6
Continuous
 62
     2
100
AcDbLine
 10
-73.30220513929655
 20
20.65707210725108
 30
0.0
 11
-73.30220513929655
 21
23.65707210725108
 31
0.0
  0
LINE
  5
253
330
74
100
AcDbEntity
  8
1
  6
Continuous
 62
     7
100
AcDbLine
 10
-15.53766974705952
 20
28.53207210725106
 30
0.0
 11
-22.28247427381189
 21
28.53207210725102
 31
0.0
  0
LINE
  5
254
330
74
100
AcDbEntity
  8
1
  6
Continuous
 62
     7
100
AcDbLine
 10
-15.53766974705952
 20
24.28207210725108
 30
0.0
 11
-13.53766974705952
 21
24.28207210725108
 31
0.0
  0
LINE
  5
255
330
74
100
AcDbEntity
  8
1
  6
Continuous
 62
     2
100
AcDbLine
 10
19.39706693772709
 20
22.73185282821832
 30
0.0
 11
19.39706693772709
 21
20.67445686336482
 31
0.0
  0
ARC
  5
256
102
{ACAD_REACTORS
330
2FF
330
300
102
}
330
74
100
AcDbEntity
  8
0
  6
Continuous
 62
     2
100
AcDbCircle
 10
-65.70342634078702
 20
14.39397686916223
 30
0.0
 40
0.6378510567600066
100
AcDbArc
 50
321.8795802028405
 51
38.12041979715862
  0
ARC
  5
257
102
{ACAD_REACTORS
330
2FF
330
300
102
}
330
74
100
AcDbEntity
  8
0
  6
Continuous
 62
     2
100
AcDbCircle
 10
-65.53835193058342
 20
14.26444696988955
 30
0.0
 40
0.4280236140609635
100
AcDbArc
 50
218.1204197971923
 51
321.8795802027983
  0
ARC
  5
258
102
{ACAD_REACTORS
330
2FF
330
300
102
}
330
74
100
AcDbEntity
  8
0
  6
Continuous
 62
     2
100
AcDbCircle
 10
-65.37327752038004
 20
14.39397686916223
 30
0.0
 40
0.6378510567599095
100
AcDbArc
 50
141.8795802028351
 51
218.1204197971658
  0
ARC
  5
259
102
{ACAD_REACTORS
330
2FF
330
300
102
}
330
74
100
AcDbEntity
  8
0
  6
Continuous
 62
     2
100
AcDbCircle
 10
-65.53835193058342
 20
14.52350676843535
 30
0.0
 40
0.4280236140605955
100
AcDbArc
 50
38.12041979715423
 51
141.8795802028552
  0
ARC
  5
25A
102
{ACAD_REACTORS
330
2F7
330
2F8
102
}
330
74
100
AcDbEntity
  8
0
  6
Continuous
 62
     2
100
AcDbCircle
 10
-68.06894212526436
 20
13.22830218700673
 30
0.0
 40
1.840813230556617
100
AcDbArc
 50
58.06909105003761
 51
71.55192388186693
  0
ARC
  5
25B
102
{ACAD_REACTORS
330
2F7
330
2F8
102
}
330
74
100
AcDbEntity
  8
0
  6
Continuous
 62
     2
100
AcDbCircle
 10
-67.85263824017443
 20
14.56345738927714
 30
0.0
 40
0.4227934381775693
100
AcDbArc
 50
113.3722778881983
 51
151.4785267423096
  0
ARC
  5
25C
102
{ACAD_REACTORS
330
2F7
330
2F8
102
}
330
74
100
AcDbEntity
  8
0
  6
Continuous
 62
     2
100
AcDbCircle
 10
-67.54077273762869
 20
14.39397686916223
 30
0.0
 40
0.7777353184572794
100
AcDbArc
 50
151.4785267422687
 51
208.5214732577029
  0
ARC
  5
25D
102
{ACAD_REACTORS
330
2F7
330
2F8
102
}
330
74
100
AcDbEntity
  8
0
  6
Continuous
 62
     2
100
AcDbCircle
 10
-68.1994155757543
 20
17.13172971648158
 30
0.0
 40
4.010410630990213
100
AcDbArc
 50
275.1581447696246
 51
285.9799912583532
  0
ARC
  5
25E
102
{ACAD_REACTORS
330
2F7
330
2F8
102
}
330
74
100
AcDbEntity
  8
0
  6
Continuous
 62
     2
100
AcDbCircle
 10
-67.96069153051803
 20
14.48719204439762
 30
0.0
 40
1.355119937140023
100
AcDbArc
 50
195.0618917770909
 51
275.1581447696391
  0
ARC
  5
25F
102
{ACAD_REACTORS
330
2F7
330
2F8
102
}
330
74
100
AcDbEntity
  8
0
  6
Continuous
 62
     2
100
AcDbCircle
 10
-68.30707817800794
 20
14.39397686916223
 30
0.0
 40
0.9964100565214622
100
AcDbArc
 50
164.9381082228799
 51
195.0618917770962
  0
ARC
  5
260
102
{ACAD_REACTORS
330
2F7
330
2F8
102
}
330
74
100
AcDbEntity
  8
0
  6
Continuous
 62
     2
100
AcDbCircle
 10
-67.96069153051803
 20
14.30076169392682
 30
0.0
 40
1.355119937140908
100
AcDbArc
 50
84.84185523036265
 51
164.9381082228906
  0
ARC
  5
261
102
{ACAD_REACTORS
330
2FB
330
2FC
102
}
330
74
100
AcDbEntity
  8
0
  6
Continuous
 62
     2
100
AcDbCircle
 10
-71.9524388480072
 20
15.24837917854596
 30
0.0
 40
0.2609230769227325
100
AcDbArc
 50
115.3740086783589
 51
180.0
  0
ARC
  5
262
102
{ACAD_REACTORS
330
2FB
330
2FC
102
}
330
74
100
AcDbEntity
  8
0
  6
Continuous
 62
     2
100
AcDbCircle
 10
-71.9524388480072
 20
17.08167107931967
 30
0.0
 40
0.2609230769229498
100
AcDbArc
 50
180.0
 51
244.6259913216399
  0
ARC
  5
263
102
{ACAD_REACTORS
330
2FB
330
2FC
102
}
330
74
100
AcDbEntity
  8
0
  6
Continuous
 62
     2
100
AcDbCircle
 10
-71.94779741386674
 20
16.17481185695416
 30
0.0
 40
1.668232340440702
100
AcDbArc
 50
269.8110329575862
 51
90.18896704241376
  0
ARC
  5
264
102
{ACAD_REACTORS
330
2FB
330
2FC
102
}
330
74
100
AcDbEntity
  8
0
  6
Continuous
 62
     2
100
AcDbCircle
 10
-71.9524388480072
 20
14.76751024739299
 30
0.0
 40
0.2609230769229498
100
AcDbArc
 50
180.0
 51
269.8110329574465
  0
ARC
  5
265
102
{ACAD_REACTORS
330
2F9
330
2FA
102
}
330
74
100
AcDbEntity
  8
0
  6
Continuous
 62
     2
100
AcDbCircle
 10
-54.54462048872574
 20
14.56345738927714
 30
0.0
 40
0.4227934381772261
100
AcDbArc
 50
109.337143219486
 51
151.478526742422
  0
ARC
  5
266
102
{ACAD_REACTORS
330
2F9
330
2FA
102
}
330
74
100
AcDbEntity
  8
0
  6
Continuous
 62
     2
100
AcDbCircle
 10
-54.54462048872574
 20
14.22449634904777
 30
0.0
 40
0.4227934381785468
100
AcDbArc
 50
208.5214732576875
 51
246.6277221118393
  0
ARC
  5
267
102
{ACAD_REACTORS
330
2F9
330
2FA
102
}
330
74
100
AcDbEntity
  8
0
  6
Continuous
 62
     2
100
AcDbCircle
 10
-54.99906042655834
 20
14.39397686916223
 30
0.0
 40
0.996410056523109
100
AcDbArc
 50
164.9381082229054
 51
195.0618917770958
  0
ARC
  5
268
102
{ACAD_REACTORS
330
2F9
330
2FA
102
}
330
74
100
AcDbEntity
  8
0
  6
Continuous
 62
     2
100
AcDbCircle
 10
-54.65267377906935
 20
14.30076169392682
 30
0.0
 40
1.355119937140591
100
AcDbArc
 50
90.0
 51
164.9381082228992
  0
ARC
  5
269
102
{ACAD_REACTORS
330
2FD
330
2FE
102
}
330
74
100
AcDbEntity
  8
0
  6
Continuous
 62
     2
100
AcDbCircle
 10
-62.44357881436167
 20
17.17016734533938
 30
0.0
 40
1.26190476190564
100
AcDbArc
 50
90.0
 51
270.0
  0
ARC
  5
26A
102
{ACAD_REACTORS
330
301
330
302
102
}
330
74
100
AcDbEntity
  8
0
  6
Continuous
 62
     2
100
AcDbCircle
 10
-68.01605050463093
 20
17.59242775178124
 30
0.0
 40
0.2916229955959899
100
AcDbArc
 50
270.0
 51
90.0
  0
ARC
  5
26B
102
{ACAD_REACTORS
330
2FB
330
2FC
102
}
330
74
100
AcDbEntity
  8
0
  6
Continuous
 62
     2
100
AcDbCircle
 10
-74.0809914815045
 20
17.58226014143119
 30
0.0
 40
0.2609230769224524
100
AcDbArc
 50
90.0
 51
180.0
  0
ARC
  5
26C
102
{ACAD_REACTORS
330
2FB
330
2FC
102
}
330
74
100
AcDbEntity
  8
0
  6
Continuous
 62
     2
100
AcDbCircle
 10
-72.42940659837677
 20
16.16502512893305
 30
0.0
 40
0.7536343169897688
100
AcDbArc
 50
115.1944106485234
 51
244.8055893514914
  0
ARC
  5
26D
102
{ACAD_REACTORS
330
2FB
330
2FC
102
}
330
74
100
AcDbEntity
  8
0
  6
Continuous
 62
     2
100
AcDbCircle
 10
-72.86129457157926
 20
15.24698401648451
 30
0.0
 40
0.2609230769228361
100
AcDbArc
 50
0.0
 51
64.8055893514401
  0
ARC
  5
26E
102
{ACAD_REACTORS
330
2FB
330
2FC
102
}
330
74
100
AcDbEntity
  8
0
  6
Continuous
 62
     2
100
AcDbCircle
 10
-74.57181352840246
 20
13.48268749187132
 30
0.0
 40
0.3506153846138886
100
AcDbArc
 50
180.0
 51
270.0
  0
ARC
  5
26F
102
{ACAD_REACTORS
330
2FD
330
2FE
102
}
330
74
100
AcDbEntity
  8
0
  6
Continuous
 62
     2
100
AcDbCircle
 10
-62.26484161587803
 20
17.2996972446125
 30
0.0
 40
0.4280236140606861
100
AcDbArc
 50
38.12041979714503
 51
141.8795802028555
  0
ARC
  5
270
102
{ACAD_REACTORS
330
2FD
330
2FE
102
}
330
74
100
AcDbEntity
  8
0
  6
Continuous
 62
     2
100
AcDbCircle
 10
-62.09976720567454
 20
17.17016734533938
 30
0.0
 40
0.6378510567600056
100
AcDbArc
 50
141.8795802028417
 51
218.1204197971583
  0
ARC
  5
271
102
{ACAD_REACTORS
330
2FF
330
300
102
}
330
74
100
AcDbEntity
  8
0
  6
Continuous
 62
     2
100
AcDbCircle
 10
-65.53835193058342
 20
14.8390801834625
 30
0.0
 40
1.70700807620544
100
AcDbArc
 50
242.4518518243401
 51
297.548148175687
  0
ARC
  5
272
102
{ACAD_REACTORS
330
2FF
330
300
102
}
330
74
100
AcDbEntity
  8
0
  6
Continuous
 62
     2
100
AcDbCircle
 10
-65.53835193058342
 20
13.94887355486241
 30
0.0
 40
1.707008076205444
100
AcDbArc
 50
62.45185182430569
 51
117.5481481756673
  0
ARC
  5
273
102
{ACAD_REACTORS
330
2FF
330
300
102
}
330
74
100
AcDbEntity
  8
0
  6
Continuous
 62
     2
100
AcDbCircle
 10
-65.77053365937127
 20
14.39397686916223
 30
0.0
 40
1.204986845992994
100
AcDbArc
 50
117.5481481756635
 51
242.451851824337
  0
ARC
  5
274
102
{ACAD_REACTORS
330
2FF
330
300
102
}
330
74
100
AcDbEntity
  8
0
  6
Continuous
 62
     2
100
AcDbCircle
 10
-65.30617020179557
 20
14.39397686916223
 30
0.0
 40
1.204986845993433
100
AcDbArc
 50
297.5481481757013
 51
62.45185182429817
  0
ARC
  5
275
102
{ACAD_REACTORS
330
2FD
330
2FE
102
}
330
74
100
AcDbEntity
  8
0
  6
Continuous
 62
     2
100
AcDbCircle
 10
-62.26484161587803
 20
17.04063744606625
 30
0.0
 40
0.4280236140606851
100
AcDbArc
 50
218.1204197971433
 51
321.8795802028561
  0
ARC
  5
276
102
{ACAD_REACTORS
330
2FD
330
2FE
102
}
330
74
100
AcDbEntity
  8
0
  6
Continuous
 62
     2
100
AcDbCircle
 10
-62.42991602608151
 20
17.17016734533938
 30
0.0
 40
0.6378510567599944
100
AcDbArc
 50
321.8795802028409
 51
38.12041979715914
  0
ARC
  5
277
102
{ACAD_REACTORS
330
2FB
330
2FC
102
}
330
74
100
AcDbEntity
  8
0
  6
Continuous
 62
     2
100
AcDbCircle
 10
-70.04841510632241
 20
13.48268749187132
 30
0.0
 40
0.3506153846142812
100
AcDbArc
 50
270.0
 51
0.0
  0
ARC
  5
278
102
{ACAD_REACTORS
330
2FB
330
2FC
102
}
330
74
100
AcDbEntity
  8
0
  6
Continuous
 62
     2
100
AcDbCircle
 10
-70.04841510632241
 20
18.08145672261529
 30
0.0
 40
0.3506153846147981
100
AcDbArc
 50
0.0
 51
90.0
  0
ARC
  5
279
102
{ACAD_REACTORS
330
2FB
330
2FC
102
}
330
74
100
AcDbEntity
  8
0
  6
Continuous
 62
     2
100
AcDbCircle
 10
-74.57181352840246
 20
18.08145672261529
 30
0.0
 40
0.3506153846147413
100
AcDbArc
 50
90.0
 51
180.0
  0
ARC
  5
27A
102
{ACAD_REACTORS
330
2FB
330
2FC
102
}
330
74
100
AcDbEntity
  8
0
  6
Continuous
 62
     2
100
AcDbCircle
 10
-72.86129457157926
 20
13.98188407306995
 30
0.0
 40
0.2609230769228894
100
AcDbArc
 50
270.0
 51
0.0
  0
ARC
  5
27B
102
{ACAD_REACTORS
330
2FB
330
2FC
102
}
330
74
100
AcDbEntity
  8
0
  6
Continuous
 62
     2
100
AcDbCircle
 10
-72.86129457157926
 20
17.08306624138113
 30
0.0
 40
0.2609230769224065
100
AcDbArc
 50
295.1944106485601
 51
0.0
  0
ARC
  5
27C
102
{ACAD_REACTORS
330
2FB
330
2FC
102
}
330
74
100
AcDbEntity
  8
0
  6
Continuous
 62
     2
100
AcDbCircle
 10
-72.86129457157926
 20
17.58226014143119
 30
0.0
 40
0.2609230769228361
100
AcDbArc
 50
0.0
 51
90.0
  0
ARC
  5
27D
102
{ACAD_REACTORS
330
2FB
330
2FC
102
}
330
74
100
AcDbEntity
  8
0
  6
Continuous
 62
     2
100
AcDbCircle
 10
-74.0809914815045
 20
13.98188407306995
 30
0.0
 40
0.2609230769220403
100
AcDbArc
 50
180.0
 51
270.0
  0
ARC
  5
27E
102
{ACAD_REACTORS
330
301
330
302
102
}
330
74
100
AcDbEntity
  8
0
  6
Continuous
 62
     2
100
AcDbCircle
 10
-67.65119717716118
 20
17.55986909787833
 30
0.0
 40
0.8722030093666717
100
AcDbArc
 50
270.0
 51
90.0
  0
ARC
  5
27F
102
{ACAD_REACTORS
330
2F9
330
2FA
102
}
330
74
100
AcDbEntity
  8
0
  6
Continuous
 62
     2
100
AcDbCircle
 10
-54.65267377906935
 20
14.48719204439762
 30
0.0
 40
1.355119937140895
100
AcDbArc
 50
195.0618917771008
 51
275.158144769676
  0
ARC
  5
280
102
{ACAD_REACTORS
330
2F9
330
2FA
102
}
330
74
100
AcDbEntity
  8
0
  6
Continuous
 62
     2
100
AcDbCircle
 10
-54.89139782430561
 20
17.13172971648158
 30
0.0
 40
4.010410630990744
100
AcDbArc
 50
275.1581447696369
 51
285.9799912583388
  0
ARC
  5
281
102
{ACAD_REACTORS
330
2F9
330
2FA
102
}
330
74
100
AcDbEntity
  8
0
  6
Continuous
 62
     2
100
AcDbCircle
 10
-54.76092437381567
 20
15.55965155131771
 30
0.0
 40
1.840813230556003
100
AcDbArc
 50
288.4480761181333
 51
301.9309089499382
  0
ARC
  5
282
102
{ACAD_REACTORS
330
2F9
330
2FA
102
}
330
74
100
AcDbEntity
  8
0
  6
Continuous
 62
     2
100
AcDbCircle
 10
-54.41533120550002
 20
14.52366330665935
 30
0.0
 40
0.7487023016407038
100
AcDbArc
 50
246.627722111814
 51
288.4480761180797
  0
ARC
  5
283
102
{ACAD_REACTORS
330
2F9
330
2FA
102
}
330
74
100
AcDbEntity
  8
0
  6
Continuous
 62
     2
100
AcDbCircle
 10
-54.23275498617909
 20
14.39397686916223
 30
0.0
 40
0.777735318458663
100
AcDbArc
 50
151.4785267423618
 51
208.5214732576687
  0
ARC
  5
284
102
{ACAD_REACTORS
330
2F9
330
2FA
102
}
330
74
100
AcDbEntity
  8
0
  6
Continuous
 62
     2
100
AcDbCircle
 10
-54.42340561425988
 20
14.21804005011771
 30
0.0
 40
0.7888619891124407
100
AcDbArc
 50
90.0
 51
109.3371432194314
  0
ARC
  5
285
102
{ACAD_REACTORS
330
2FB
330
2FC
102
}
330
74
100
AcDbEntity
  8
0
  6
Continuous
 62
     2
100
AcDbCircle
 10
-71.9524388480072
 20
17.58211346651534
 30
0.0
 40
0.2609230769224181
100
AcDbArc
 50
90.18896704255353
 51
180.0
  0
ARC
  5
286
102
{ACAD_REACTORS
330
2FB
330
2FC
102
}
330
74
100
AcDbEntity
  8
0
  6
Continuous
 62
     2
100
AcDbCircle
 10
-72.38718487948483
 20
16.16502512893305
 30
0.0
 40
0.7535935125160986
100
AcDbArc
 50
295.374008678178
 51
64.62599132180713
  0
ARC
  5
287
102
{ACAD_REACTORS
330
2F7
330
2F8
102
}
330
74
100
AcDbEntity
  8
0
  6
Continuous
 62
     2
100
AcDbCircle
 10
-68.06894212526436
 20
15.55965155131817
 30
0.0
 40
1.840813230556011
100
AcDbArc
 50
288.4480761181332
 51
301.9309089499624
  0
ARC
  5
288
102
{ACAD_REACTORS
330
2F7
330
2F8
102
}
330
74
100
AcDbEntity
  8
0
  6
Continuous
 62
     2
100
AcDbCircle
 10
-67.72334895694962
 20
14.52366330665935
 30
0.0
 40
0.7487023016403824
100
AcDbArc
 50
246.6277221118709
 51
288.4480761181571
  0
ARC
  5
289
102
{ACAD_REACTORS
330
2F7
330
2F8
102
}
330
74
100
AcDbEntity
  8
0
  6
Continuous
 62
     2
100
AcDbCircle
 10
-67.85263824017443
 20
14.22449634904777
 30
0.0
 40
0.422793438177528
100
AcDbArc
 50
208.5214732576916
 51
246.627722111826
  0
ARC
  5
28A
102
{ACAD_REACTORS
330
2F7
330
2F8
102
}
330
74
100
AcDbEntity
  8
0
  6
Continuous
 62
     2
100
AcDbCircle
 10
-67.72334895694962
 20
14.26429043166509
 30
0.0
 40
0.7487023016407717
100
AcDbArc
 50
71.55192388185432
 51
113.3722778881285
  0
ARC
  5
28B
102
{ACAD_REACTORS
330
2F7
330
2F8
102
}
330
74
100
AcDbEntity
  8
0
  6
Continuous
 62
     2
100
AcDbCircle
 10
-68.1994155757543
 20
11.65622402184333
 30
0.0
 40
4.010410630990089
100
AcDbArc
 50
74.02000874164679
 51
84.84185523037543
  0
CIRCLE
  5
28C
102
{ACAD_REACTORS
330
2FB
330
2FC
102
}
330
74
100
AcDbEntity
  8
0
  6
Continuous
 62
     2
100
AcDbCircle
 10
-72.4068667097929
 20
16.16502512893305
 30
0.0
 40
0.3892387874202541
  0
CIRCLE
  5
28D
330
74
100
AcDbEntity
  8
1
  6
Continuous
 62
     2
100
AcDbCircle
 10
-76.49021444870854
 20
22.15707210725108
 30
0.0
 40
1.0
  0
CIRCLE
  5
28E
330
74
100
AcDbEntity
  8
1
  6
Continuous
 62
     2
100
AcDbCircle
 10
-76.49021444870854
 20
22.15707210725108
 30
0.0
 40
1.5
  0
MTEXT
  5
290
330
74
100
AcDbEntity
  8
1
 62
     2
100
AcDbMText
 10
-44.0824742738119
 20
26.60707210725107
 30
0.0
 40
1.4
 41
0.0
 71
     4
 72
     1
  1
SAP\Pchange-No.
  7
CONVERTER_12
 73
     1
 44
0.66026410564226
  0
MTEXT
  5
291
330
74
100
AcDbEntity
  8
1
 62
     3
100
AcDbMText
 10
-34.85023745569701
 20
26.40707210725107
 30
0.0
 40
2.5
 41
0.0
 71
     4
 72
     1
  1
MIGRATION_1
  7
CONVERTER_12
 73
     1
 44
1.20048019207683
  0
TEXT
  5
293
330
74
100
AcDbEntity
  8
1
 62
     3
100
AcDbText
 10
-44.08247427381198
 20
39.32684368085533
 30
0.0
 40
2.5
  1
 
 41
0.72
  7
CONVERTER_13
100
AcDbText
  0
TEXT
  5
294
330
74
100
AcDbEntity
  8
1
 62
     3
100
AcDbText
 10
-44.08247427381198
 20
42.82684368085533
 30
0.0
 40
2.5
  1
 
 41
0.72
  7
CONVERTER_13
100
AcDbText
  0
TEXT
  5
295
330
74
100
AcDbEntity
  8
1
 62
     3
100
AcDbText
 10
-44.08247427381198
 20
46.32684368085533
 30
0.0
 40
2.5
  1
 
 41
0.72
  7
CONVERTER_13
100
AcDbText
  0
MTEXT
  5
297
330
74
100
AcDbEntity
  8
1
 62
     2
100
AcDbMText
 10
-183.337669747062
 20
13.65707210725119
 30
0.0
 40
2.0
 41
0.0
 71
     4
 72
     1
  1
 
  7
CONVERTER_14
 73
     1
 44
1.20048019207683
  0
MTEXT
  5
298
330
74
100
AcDbEntity
  8
1
 62
     2
100
AcDbMText
 10
-183.337669747062
 20
17.90707210725108
 30
0.0
 40
2.0
 41
0.0
 71
     4
 72
     1
  1
 
  7
CONVERTER_14
 73
     1
 44
1.20048019207683
  0
MTEXT
  5
299
330
74
100
AcDbEntity
  8
1
 62
     2
100
AcDbMText
 10
-183.337669747062
 20
22.15707210725108
 30
0.0
 40
2.0
 41
0.0
 71
     4
 72
     1
  1
 
  7
CONVERTER_14
 73
     1
 44
1.20048019207683
  0
MTEXT
  5
29A
330
74
100
AcDbEntity
  8
1
 62
     2
100
AcDbMText
 10
-183.337669747062
 20
26.40707210725108
 30
0.0
 40
2.0
 41
0.0
 71
     4
 72
     1
  1
 
  7
CONVERTER_14
 73
     1
 44
1.20048019207683
  0
MTEXT
  5
29B
330
74
100
AcDbEntity
  8
1
 62
     2
100
AcDbMText
 10
-183.337669747062
 20
30.65707210725108
 30
0.0
 40
2.0
 41
0.0
 71
     4
 72
     1
  1
 
  7
CONVERTER_14
 73
     1
 44
1.20048019207683
  0
MTEXT
  5
29C
330
74
100
AcDbEntity
  8
1
 62
     2
100
AcDbMText
 10
-183.337669747062
 20
34.90707210725108
 30
0.0
 40
2.0
 41
0.0
 71
     4
 72
     1
  1
 
  7
CONVERTER_14
 73
     1
 44
1.20048019207683
  0
MTEXT
  5
29D
330
74
100
AcDbEntity
  8
1
 62
     2
100
AcDbMText
 10
-88.33247427381188
 20
13.65707210725119
 30
0.0
 40
2.0
 41
0.0
 71
     5
 72
     1
  1
 
  7
CONVERTER_11
 73
     1
 44
1.20048019207683
  0
MTEXT
  5
29E
330
74
100
AcDbEntity
  8
1
 62
     2
100
AcDbMText
 10
-88.33247427381188
 20
17.90707210725108
 30
0.0
 40
2.0
 41
0.0
 71
     5
 72
     1
  1
 
  7
CONVERTER_11
 73
     1
 44
1.20048019207683
  0
MTEXT
  5
29F
330
74
100
AcDbEntity
  8
1
 62
     2
100
AcDbMText
 10
-88.33247427381188
 20
22.15707210725108
 30
0.0
 40
2.0
 41
0.0
 71
     5
 72
     1
  1
 
  7
CONVERTER_11
 73
     1
 44
1.20048019207683
  0
MTEXT
  5
2A0
330
74
100
AcDbEntity
  8
1
 62
     2
100
AcDbMText
 10
-88.33247427381188
 20
26.40707210725108
 30
0.0
 40
2.0
 41
0.0
 71
     5
 72
     1
  1
 
  7
CONVERTER_11
 73
     1
 44
1.20048019207683
  0
MTEXT
  5
2A1
330
74
100
AcDbEntity
  8
1
 62
     2
100
AcDbMText
 10
-88.33247427381188
 20
30.65707210725108
 30
0.0
 40
2.0
 41
0.0
 71
     5
 72
     1
  1
 
  7
CONVERTER_11
 73
     1
 44
1.20048019207683
  0
MTEXT
  5
2A2
330
74
100
AcDbEntity
  8
1
 62
     2
100
AcDbMText
 10
-88.33247427381188
 20
34.90707210725108
 30
0.0
 40
2.0
 41
0.0
 71
     5
 72
     1
  1
 
  7
CONVERTER_11
 73
     1
 44
1.20048019207683
  0
MTEXT
  5
2A3
330
74
100
AcDbEntity
  8
1
 62
     2
100
AcDbMText
 10
-101.8324742738119
 20
13.65707210725119
 30
0.0
 40
2.0
 41
0.0
 71
     5
 72
     1
  1
 
  7
CONVERTER_11
 73
     1
 44
1.20048019207683
  0
MTEXT
  5
2A4
330
74
100
AcDbEntity
  8
1
 62
     2
100
AcDbMText
 10
-101.8324742738119
 20
17.90707210725108
 30
0.0
 40
2.0
 41
0.0
 71
     5
 72
     1
  1
 
  7
CONVERTER_11
 73
     1
 44
1.20048019207683
  0
MTEXT
  5
2A5
330
74
100
AcDbEntity
  8
1
 62
     2
100
AcDbMText
 10
-101.8324742738119
 20
22.15707210725108
 30
0.0
 40
2.0
 41
0.0
 71
     5
 72
     1
  1
 
  7
CONVERTER_11
 73
     1
 44
1.20048019207683
  0
MTEXT
  5
2A6
330
74
100
AcDbEntity
  8
1
 62
     2
100
AcDbMText
 10
-101.8324742738119
 20
26.40707210725108
 30
0.0
 40
2.0
 41
0.0
 71
     5
 72
     1
  1
 
  7
CONVERTER_11
 73
     1
 44
1.20048019207683
  0
MTEXT
  5
2A7
330
74
100
AcDbEntity
  8
1
 62
     2
100
AcDbMText
 10
-101.8324742738119
 20
30.65707210725108
 30
0.0
 40
2.0
 41
0.0
 71
     5
 72
     1
  1
 
  7
CONVERTER_11
 73
     1
 44
1.20048019207683
  0
MTEXT
  5
2A8
330
74
100
AcDbEntity
  8
1
 62
     2
100
AcDbMText
 10
-101.8324742738119
 20
34.90707210725108
 30
0.0
 40
2.0
 41
0.0
 71
     5
 72
     1
  1
 
  7
CONVERTER_11
 73
     1
 44
1.20048019207683
  0
MTEXT
  5
2A9
330
74
100
AcDbEntity
  8
1
 62
     2
100
AcDbMText
 10
-115.3324742738118
 20
34.90707210725108
 30
0.0
 40
2.0
 41
0.0
 71
     5
 72
     1
  1
 
  7
CONVERTER_11
 73
     1
 44
1.20048019207683
  0
MTEXT
  5
2AA
330
74
100
AcDbEntity
  8
1
 62
     2
100
AcDbMText
 10
-115.3324742738118
 20
30.65707210725108
 30
0.0
 40
2.0
 41
0.0
 71
     5
 72
     1
  1
 
  7
CONVERTER_11
 73
     1
 44
1.20048019207683
  0
MTEXT
  5
2AB
330
74
100
AcDbEntity
  8
1
 62
     2
100
AcDbMText
 10
-115.3324742738118
 20
26.40707210725108
 30
0.0
 40
2.0
 41
0.0
 71
     5
 72
     1
  1
 
  7
CONVERTER_11
 73
     1
 44
1.20048019207683
  0
MTEXT
  5
2AC
330
74
100
AcDbEntity
  8
1
 62
     2
100
AcDbMText
 10
-115.3324742738118
 20
22.15707210725108
 30
0.0
 40
2.0
 41
0.0
 71
     5
 72
     1
  1
 
  7
CONVERTER_11
 73
     1
 44
1.20048019207683
  0
MTEXT
  5
2AD
330
74
100
AcDbEntity
  8
1
 62
     2
100
AcDbMText
 10
-115.3324742738118
 20
17.90707210725108
 30
0.0
 40
2.0
 41
0.0
 71
     5
 72
     1
  1
 
  7
CONVERTER_11
 73
     1
 44
1.20048019207683
  0
MTEXT
  5
2AE
330
74
100
AcDbEntity
  8
1
 62
     2
100
AcDbMText
 10
-115.3324742738118
 20
13.65707210725119
 30
0.0
 40
2.0
 41
0.0
 71
     5
 72
     1
  1
 
  7
CONVERTER_11
 73
     1
 44
1.20048019207683
  0
MTEXT
  5
2AF
330
74
100
AcDbEntity
  8
1
 62
     2
100
AcDbMText
 10
-191.087669747062
 20
34.90707210725108
 30
0.0
 40
2.0
 41
0.0
 71
     5
 72
     1
  1
 
  7
CONVERTER_11
 73
     1
 44
1.20048019207683
  0
MTEXT
  5
2B0
330
74
100
AcDbEntity
  8
1
 62
     2
100
AcDbMText
 10
-191.087669747062
 20
30.65707210725108
 30
0.0
 40
2.0
 41
0.0
 71
     5
 72
     1
  1
 
  7
CONVERTER_11
 73
     1
 44
1.20048019207683
  0
MTEXT
  5
2B1
330
74
100
AcDbEntity
  8
1
 62
     2
100
AcDbMText
 10
-191.087669747062
 20
26.40707210725108
 30
0.0
 40
2.0
 41
0.0
 71
     5
 72
     1
  1
 
  7
CONVERTER_11
 73
     1
 44
1.20048019207683
  0
MTEXT
  5
2B2
330
74
100
AcDbEntity
  8
1
 62
     2
100
AcDbMText
 10
-191.087669747062
 20
22.15707210725108
 30
0.0
 40
2.0
 41
0.0
 71
     5
 72
     1
  1
 
  7
CONVERTER_11
 73
     1
 44
1.20048019207683
  0
MTEXT
  5
2B3
330
74
100
AcDbEntity
  8
1
 62
     2
100
AcDbMText
 10
-191.087669747062
 20
17.90707210725108
 30
0.0
 40
2.0
 41
0.0
 71
     5
 72
     1
  1
 
  7
CONVERTER_11
 73
     1
 44
1.20048019207683
  0
MTEXT
  5
2B4
330
74
100
AcDbEntity
  8
1
 62
     2
100
AcDbMText
 10
-191.087669747062
 20
13.65707210725119
 30
0.0
 40
2.0
 41
0.0
 71
     5
 72
     1
  1
 
  7
CONVERTER_11
 73
     1
 44
1.20048019207683
  0
MTEXT
  5
2B5
330
74
100
AcDbEntity
  8
1
 62
     2
100
AcDbMText
 10
-200.937669747061
 20
13.65707210725119
 30
0.0
 40
2.0
 41
0.0
 71
     5
 72
     1
  1
 
  7
CONVERTER_11
 73
     1
 44
1.20048019207683
  0
MTEXT
  5
2B6
330
74
100
AcDbEntity
  8
1
 62
     2
100
AcDbMText
 10
-200.937669747061
 20
17.90707210725108
 30
0.0
 40
2.0
 41
0.0
 71
     5
 72
     1
  1
 
  7
CONVERTER_11
 73
     1
 44
1.20048019207683
  0
MTEXT
  5
2B7
330
74
100
AcDbEntity
  8
1
 62
     2
100
AcDbMText
 10
-200.937669747061
 20
22.15707210725108
 30
0.0
 40
2.0
 41
0.0
 71
     5
 72
     1
  1
 
  7
CONVERTER_11
 73
     1
 44
1.20048019207683
  0
MTEXT
  5
2B8
330
74
100
AcDbEntity
  8
1
 62
     2
100
AcDbMText
 10
-200.937669747061
 20
26.40707210725108
 30
0.0
 40
2.0
 41
0.0
 71
     5
 72
     1
  1
 
  7
CONVERTER_11
 73
     1
 44
1.20048019207683
  0
MTEXT
  5
2B9
330
74
100
AcDbEntity
  8
1
 62
     2
100
AcDbMText
 10
-200.937669747061
 20
30.65707210725108
 30
0.0
 40
2.0
 41
0.0
 71
     5
 72
     1
  1
 
  7
CONVERTER_11
 73
     1
 44
1.20048019207683
  0
MTEXT
  5
2BA
330
74
100
AcDbEntity
  8
1
 62
     2
100
AcDbMText
 10
-200.937669747061
 20
34.90707210725108
 30
0.0
 40
2.0
 41
0.0
 71
     5
 72
     1
  1
 
  7
CONVERTER_11
 73
     1
 44
1.20048019207683
  0
MTEXT
  5
2BB
330
74
100
AcDbEntity
  8
1
 62
     2
100
AcDbMText
 10
-14.53766974705952
 20
27.53207210725108
 30
0.0
 40
1.8
 41
0.0
 71
     1
 72
     1
  1
part-rev.
  7
CONVERTER_13
 73
     1
 44
1.20048019207683
  0
MTEXT
  5
2BC
330
74
100
AcDbEntity
  8
1
 62
     2
100
AcDbMText
 10
3.9623302529401
 20
23.28207210725108
 30
0.0
 40
1.8
 41
0.0
 71
     1
 72
     1
  1
surface in um
  7
CONVERTER_11
 73
     1
 44
1.32052821128451
  0
MTEXT
  5
2BD
330
74
100
AcDbEntity
  8
1
 62
     7
100
AcDbMText
 10
50.46233025293719
 20
82.28207210725301
 30
0.0
 40
3.5
 41
0.0
 71
     5
 72
     1
  1
C
  7
CONVERTER_11
 73
     1
 44
1.20048019207683
  0
MTEXT
  5
2BE
330
74
100
AcDbEntity
  8
1
 62
     7
100
AcDbMText
 10
50.46233025293719
 20
184.7820721072511
 30
0.0
 40
3.5
 41
0.0
 71
     5
 72
     1
  1
A
  7
CONVERTER_11
 73
     1
 44
1.20048019207683
  0
MTEXT
  5
2BF
330
74
100
AcDbEntity
  8
1
 62
     7
100
AcDbMText
 10
50.46233025293719
 20
132.282072107253
 30
0.0
 40
3.5
 41
0.0
 71
     5
 72
     1
  1
B
  7
CONVERTER_11
 73
     1
 44
1.20048019207683
  0
MTEXT
  5
2C0
330
74
100
AcDbEntity
  8
1
 62
     7
100
AcDbMText
 10
50.46233025293719
 20
29.78207210725108
 30
0.0
 40
3.5
 41
0.0
 71
     5
 72
     1
  1
D
  7
CONVERTER_11
 73
     1
 44
1.20048019207683
  0
MTEXT
  5
2C1
330
74
100
AcDbEntity
  8
1
 62
     3
100
AcDbMText
 10
-239.03260196099
 20
194.0733802625499
 30
0.0
 40
1.8
 41
0.0
 71
     7
 72
     1
  3
Weitergabe sowie Vervielf\U+00e4ltigung dieses Dokuments, Verwertung und\PMitteilung seines Inhalts gem\U+00e4\U+00df \U+00a718 UWG verboten, soweit nicht aus-\Pdr\U+00fccklich gestattet. Zuwiderhandlungen verpflichten zu Schadenersatz\P(\U+00a719 U
  1
WG). Alle Rechte vorbehalten, insbesondere das Recht, Patent-,\PGebrauchsmuster- oder Geschmacksmusteranmeldungen durchzuf\U+00fchren.\PPhoenix Contact GmbH & Co. KG
  7
CONVERTER_11
 73
     1
 44
0.99639855942377
  0
MTEXT
  5
2C2
330
74
100
AcDbEntity
  8
1
 62
     3
100
AcDbMText
 10
-66.17949212220194
 20
194.0733802625499
 30
0.0
 40
1.8
 41
0.0
 71
     7
 72
     1
  3
The copying, distribution and utilistion of this document as well as the communication\Pof the contents to others without expressed authorization is prohibited according to\P\U+00a718 UWG German Law. Offenders will be held liable for the payment of 
  1
damages\Paccording to (\U+00a719 UWG German Law). All rights reserved, in particular the right to\Pcarry out patent, utility model or ornamental design registrations.\PFlachsmarktstra\U+00dfe 8  D-32825 Blomberg
  7
CONVERTER_11
 73
     1
 44
0.99639855942377
  0
MTEXT
  5
2C3
330
74
100
AcDbEntity
  8
1
 62
     7
100
AcDbMText
 10
-219.7876697470615
 20
4.78207210725108
 30
0.0
 40
3.5
 41
0.0
 71
     5
 72
     1
  1
1
  7
CONVERTER_11
 73
     1
 44
1.20048019207683
  0
MTEXT
  5
2C4
330
74
100
AcDbEntity
  8
1
 62
     7
100
AcDbMText
 10
-170.5376697470619
 20
4.78207210725108
 30
0.0
 40
3.5
 41
0.0
 71
     5
 72
     1
  1
2
  7
CONVERTER_11
 73
     1
 44
1.20048019207683
  0
MTEXT
  5
2C5
330
74
100
AcDbEntity
  8
1
 62
     7
100
AcDbMText
 10
-120.5376697470619
 20
4.78207210725108
 30
0.0
 40
3.5
 41
0.0
 71
     5
 72
     1
  1
3
  7
CONVERTER_11
 73
     1
 44
1.20048019207683
  0
MTEXT
  5
2C6
330
74
100
AcDbEntity
  8
1
 62
     7
100
AcDbMText
 10
-70.53766974706194
 20
4.78207210725108
 30
0.0
 40
3.5
 41
0.0
 71
     5
 72
     1
  1
4
  7
CONVERTER_11
 73
     1
 44
1.20048019207683
  0
MTEXT
  5
2C7
330
74
100
AcDbEntity
  8
1
 62
     7
100
AcDbMText
 10
-20.53766974706189
 20
4.78207210725108
 30
0.0
 40
3.5
 41
0.0
 71
     5
 72
     1
  1
5
  7
CONVERTER_11
 73
     1
 44
1.20048019207683
  0
MTEXT
  5
2C8
330
74
100
AcDbEntity
  8
1
 62
     7
100
AcDbMText
 10
28.71233025293739
 20
4.78207210725108
 30
0.0
 40
3.5
 41
0.0
 71
     5
 72
     1
  1
6
  7
CONVERTER_11
 73
     1
 44
1.20048019207683
  0
MTEXT
  5
2C9
330
74
100
AcDbEntity
  8
1
 62
     7
100
AcDbMText
 10
-241.5376697470609
 20
184.7820721072511
 30
0.0
 40
3.5
 41
0.0
 71
     5
 72
     1
  1
A
  7
CONVERTER_11
 73
     1
 44
1.20048019207683
  0
MTEXT
  5
2CA
330
74
100
AcDbEntity
  8
1
 62
     7
100
AcDbMText
 10
-241.5376697470609
 20
132.2820721072511
 30
0.0
 40
3.5
 41
0.0
 71
     5
 72
     1
  1
B
  7
CONVERTER_11
 73
     1
 44
1.20048019207683
  0
MTEXT
  5
2CB
330
74
100
AcDbEntity
  8
1
 62
     7
100
AcDbMText
 10
-241.5376697470609
 20
82.28207210725108
 30
0.0
 40
3.5
 41
0.0
 71
     5
 72
     1
  1
C
  7
CONVERTER_11
 73
     1
 44
1.20048019207683
  0
MTEXT
  5
2CC
330
74
100
AcDbEntity
  8
1
 62
     7
100
AcDbMText
 10
-241.5376697470609
 20
29.78207210725108
 30
0.0
 40
3.5
 41
0.0
 71
     5
 72
     1
  1
D
  7
CONVERTER_11
 73
     1
 44
1.20048019207683
  0
MTEXT
  5
2CD
330
74
100
AcDbEntity
  8
1
 62
     2
100
AcDbMText
 10
31.3807385346189
 20
36.03207210725108
 30
0.0
 40
1.8
 41
0.0
 71
     1
 72
     1
  1
dim.var.
  7
CONVERTER_11
 73
     1
 44
1.20048019207683
  0
MTEXT
  5
2CF
330
74
100
AcDbEntity
  8
1
 62
     2
100
AcDbMText
 10
-14.53766974705952
 20
23.28207210725108
 30
0.0
 40
1.8
 41
0.0
 71
     1
 72
     1
  1
document-No.
  7
CONVERTER_15
 73
     1
 44
1.32052821128451
  0
TEXT
  5
2D0
330
74
100
AcDbEntity
  8
1
 62
     2
100
AcDbText
 10
-62.38247427381194
 20
8.52305489225952
 30
0.0
 40
1.8
  1
of
 41
0.9
  7
CONVERTER_11
100
AcDbText
  0
TEXT
  5
2D1
330
74
100
AcDbEntity
  8
1
 62
     2
100
AcDbText
 10
-80.58247427381181
 20
8.52305489225941
 30
0.0
 40
1.8
  1
page
 41
0.9
  7
CONVERTER_11
100
AcDbText
  0
MTEXT
  5
2D2
330
74
100
AcDbEntity
  8
1
 62
     2
100
AcDbMText
 10
-88.33247427381191
 20
8.53207210725108
 30
0.0
 40
1.8
 41
0.0
 71
     8
 72
     1
  1
name
  7
CONVERTER_11
 73
     1
 44
1.32052821128451
  0
MTEXT
  5
2D3
330
74
100
AcDbEntity
  8
1
 62
     2
100
AcDbMText
 10
-101.8324742738118
 20
8.53207210725108
 30
0.0
 40
1.8
 41
0.0
 71
     8
 72
     1
  1
check.on
  7
CONVERTER_11
 73
     1
 44
1.32052821128451
  0
MTEXT
  5
2D4
330
74
100
AcDbEntity
  8
1
 62
     2
100
AcDbMText
 10
-115.3324742738118
 20
8.53207210725108
 30
0.0
 40
1.8
 41
0.0
 71
     8
 72
     1
  1
name
  7
CONVERTER_11
 73
     1
 44
1.32052821128451
  0
MTEXT
  5
2D5
330
74
100
AcDbEntity
  8
1
 62
     2
100
AcDbMText
 10
-191.087669747062
 20
8.53207210725108
 30
0.0
 40
1.8
 41
0.0
 71
     8
 72
     1
  1
date
  7
CONVERTER_11
 73
     1
 44
1.32052821128451
  0
MTEXT
  5
2D6
330
74
100
AcDbEntity
  8
1
 62
     2
100
AcDbMText
 10
-21.05728511622041
 20
36.03207210725091
 30
0.0
 40
1.8
 41
0.0
 71
     1
 72
     1
  1
material
  7
CONVERTER_11
 73
     1
 44
1.20048019207683
  0
MTEXT
  5
2D7
330
74
100
AcDbEntity
  8
1
 62
     2
100
AcDbMText
 10
-200.937669747061
 20
8.53207210725108
 30
0.0
 40
1.8
 41
0.0
 71
     8
 72
     1
  1
RI
  7
CONVERTER_11
 73
     1
 44
1.32052821128451
  0
MTEXT
  5
2D8
330
74
100
AcDbEntity
  8
1
 62
     2
100
AcDbMText
 10
-65.43247427381193
 20
33.98207210725113
 30
0.0
 40
1.8
 41
0.0
 71
     8
 72
     1
  1
date
  7
CONVERTER_11
 73
     1
 44
1.32052821128451
  0
MTEXT
  5
2D9
330
74
100
AcDbEntity
  8
1
 62
     2
100
AcDbMText
 10
-51.93247427381195
 20
33.98207210725113
 30
0.0
 40
1.8
 41
0.0
 71
     8
 72
     1
  1
name
  7
CONVERTER_11
 73
     1
 44
1.32052821128451
  0
MTEXT
  5
2DA
330
74
100
AcDbEntity
  8
1
 62
     2
100
AcDbMText
 10
-153.2100720104369
 20
8.53207210725108
 30
0.0
 40
1.8
 41
0.0
 71
     8
 72
     1
  1
revision
  7
CONVERTER_11
 73
     1
 44
1.32052821128451
  0
MTEXT
  5
2DB
330
74
100
AcDbEntity
  8
1
 62
     2
100
AcDbMText
 10
22.26233025293999
 20
36.03207210725108
 30
0.0
 40
1.8
 41
0.0
 71
     1
 72
     1
  1
scale
  7
CONVERTER_11
 73
     1
 44
1.20048019207683
  0
MTEXT
  5
2DC
330
74
100
AcDbEntity
  8
1
 62
     2
100
AcDbMText
 10
-76.88247427381184
 20
30.65707210725108
 30
0.0
 40
1.8
 41
0.0
 71
     5
 72
     1
  1
creat.
  7
CONVERTER_11
 73
     1
 44
1.20048019207683
  0
MTEXT
  5
2DD
330
74
100
AcDbEntity
  8
1
 62
     2
100
AcDbMText
 10
-76.88247427381184
 20
26.40707210725108
 30
0.0
 40
1.8
 41
0.0
 71
     5
 72
     1
  1
check.
  7
CONVERTER_11
 73
     1
 44
1.20048019207683
  0
MTEXT
  5
2DE
330
74
100
AcDbEntity
  8
1
 62
     3
100
AcDbMText
 10
-55.38247427381194
 20
22.15707210725119
 30
0.0
 40
2.5
 41
0.0
 71
     5
 72
     1
  1
DIN A4
  7
CONVERTER_11
 73
     1
 44
1.20048019207683
  0
MTEXT
  5
2DF
330
74
100
AcDbEntity
  8
1
 62
     2
100
AcDbMText
 10
-44.0824742738119
 20
36.03207210725108
 30
0.0
 40
1.8
 41
0.0
 71
     1
 72
     1
  1
ident.-No. / RI
  7
CONVERTER_11
 73
     1
 44
1.20048019207683
  0
TEXT
  5
2E0
330
74
100
AcDbEntity
  8
1
 62
     2
100
AcDbText
 10
-71.93620930346974
 20
8.48282345344913
 30
0.0
 40
1.8
  1
 
 41
0.9
  7
CONVERTER_11
100
AcDbText
  0
TEXT
  5
2E1
330
74
100
AcDbEntity
  8
1
 62
     2
100
AcDbText
 10
-57.14716546399824
 20
8.53207210725108
 30
0.0
 40
1.8
  1
1
 41
0.9
  7
CONVERTER_11
100
AcDbText
  0
MTEXT
  5
2E2
330
74
100
AcDbEntity
  8
1
 62
     2
100
AcDbMText
 10
-44.18247427381191
 20
14.78207210725108
 30
0.0
 40
1.8
 41
0.0
 71
     1
 72
     1
  1
description
  7
CONVERTER_11
 73
     1
 44
1.20048019207683
  0
MTEXT
  5
2E3
330
74
100
AcDbEntity
  8
1
 62
     2
100
AcDbMText
 10
-76.88247427381184
 20
33.98207210725113
 30
0.0
 40
1.8
 41
0.0
 71
     8
 72
     1
  1
00
  7
CONVERTER_11
 73
     1
 44
1.20048019207683
  0
MTEXT
  5
2E4
330
74
100
AcDbEntity
  8
1
 62
     2
100
AcDbMText
 10
-44.18247427381191
 20
23.28207210725102
 30
0.0
 40
1.8
 41
0.0
 71
     1
 72
     1
  1
document-type
  7
CONVERTER_11
 73
     1
 44
1.20048019207683
  0
MTEXT
  5
2E5
330
74
100
AcDbEntity
  8
1
 62
     2
100
AcDbMText
 10
-51.93247427381195
 20
26.40707210725108
 30
0.0
 40
1.8
 41
0.0
 71
     5
 72
     1
  1
Angenent
  7
CONVERTER_11
 73
     1
 44
1.32052821128451
  0
MTEXT
  5
2E6
330
74
100
AcDbEntity
  8
1
 62
     2
100
AcDbMText
 10
-51.93247427381195
 20
30.65707210725108
 30
0.0
 40
1.8
 41
0.0
 71
     5
 72
     1
  1
Schr\U+00f6der
  7
CONVERTER_11
 73
     1
 44
1.32052821128451
  0
MTEXT
  5
2E7
330
74
100
AcDbEntity
  8
1
 62
     2
100
AcDbMText
 10
-65.43247427381189
 20
26.40707210725108
 30
0.0
 40
1.8
 41
0.0
 71
     5
 72
     1
  1
05.09.13
  7
CONVERTER_11
 73
     1
 44
1.32052821128451
  0
MTEXT
  5
2E8
330
74
100
AcDbEntity
  8
1
 62
     2
100
AcDbMText
 10
-65.43247427381189
 20
30.65707210725108
 30
0.0
 40
1.8
 41
0.0
 71
     5
 72
     1
  1
04.09.13
  7
CONVERTER_11
 73
     1
 44
1.32052821128451
  0
TEXT
  5
2E9
330
74
100
AcDbEntity
  8
1
 62
     7
100
AcDbText
 10
-29.2089265517981
 20
29.83207210725108
 30
0.0
 40
2.5
  1
/
 41
0.9
  7
CONVERTER_11
100
AcDbText
  0
TEXT
  5
2EB
330
74
100
AcDbEntity
  8
1
 62
     3
100
AcDbText
 10
3.9623302529401
 20
17.08207210725108
 30
0.0
 40
2.5
  1
 
 41
0.54
  7
CONVERTER_16
100
AcDbText
  0
MTEXT
  5
2ED
330
74
100
AcDbEntity
  8
1
 62
     7
100
AcDbMText
 10
1.3899279895636
 20
10.53207210725131
 30
0.0
 40
3.0
 41
0.0
 71
     5
 72
     1
  1
PROT-M12 VPE100
  7
CONVERTER_17
 73
     1
 44
1.20048019207683
  0
MTEXT
  5
2EE
330
74
100
AcDbEntity
  8
1
 62
     3
100
AcDbMText
 10
25.62153439377951
 20
29.83207210725119
 30
0.0
 40
2.5
 41
0.0
 71
     8
 72
     1
  1
2:1
  7
CONVERTER_13
 73
     1
 44
1.32052821128451
  0
TEXT
  5
2EF
330
74
100
AcDbEntity
  8
1
 62
     3
100
AcDbText
 10
-21.28247427381189
 20
29.83207210725108
 30
0.0
 40
2.5
  1
-
 41
0.54
  7
CONVERTER_16
100
AcDbText
  0
TEXT
  5
2F0
330
74
100
AcDbEntity
  8
1
 62
     7
100
AcDbText
 10
-43.6824742738121
 20
29.83207210725108
 30
0.0
 40
2.5
  1
1695744
 41
0.81
  7
CONVERTER_17
100
AcDbText
  0
TEXT
  5
2F1
330
74
100
AcDbEntity
  8
1
 62
     7
100
AcDbText
 10
-14.53766974705952
 20
17.08207210725108
 30
0.0
 40
2.5
  1
00745753
 41
0.81
  7
CONVERTER_17
100
AcDbText
  0
TEXT
  5
2F2
330
74
100
AcDbEntity
  8
1
 62
     3
100
AcDbText
 10
31.080738534619
 20
29.83207210725108
 30
0.0
 40
2.5
  1
 
 41
0.54
  7
CONVERTER_16
100
AcDbText
  0
TEXT
  5
2F4
330
74
100
AcDbEntity
  8
1
 62
     3
100
AcDbText
 10
-44.18247427381191
 20
17.08207210725108
 30
0.0
 40
2.5
  1
KUNDENZCHNG-SELECT
 41
0.45
  7
CONVERTER_18
100
AcDbText
  0
TEXT
  5
2F5
330
74
100
AcDbEntity
  8
1
 62
     7
100
AcDbText
 10
-27.05256205475609
 20
29.83207210725108
 30
0.0
 40
2.5
  1
00
 41
0.81
  7
CONVERTER_17
100
AcDbText
  0
MTEXT
  5
2F6
330
74
100
AcDbEntity
  8
1
 62
     3
100
AcDbMText
 10
-4.3306498604515
 20
27.63207210725108
 30
0.0
 40
2.0
 41
0.0
 71
     1
 72
     1
  1
 
  7
CONVERTER_13
 73
     1
 44
1.20048019207683
  0
HATCH
  5
2F7
330
74
100
AcDbEntity
  8
1
  6
Continuous
 62
     2
100
AcDbHatch
 10
0.0
 20
0.0
 30
0.0
210
0.0
220
0.0
230
1.0
  2
_USER
 70
     0
 71
     1
 91
        1
 92
        1
 93
       14
 72
     2
 10
-68.30707817800794
 20
14.39397686916223
 40
0.9964100565214622
 50
164.9381082228799
 51
195.0618917770962
 73
     1
 72
     2
 10
-67.96069153051803
 20
14.48719204439762
 40
1.355119937140023
 50
195.0618917770909
 51
275.1581447696391
 73
     1
 72
     2
 10
-68.1994155757543
 20
17.13172971648158
 40
4.010410630990213
 50
275.1581447696246
 51
285.9799912583532
 73
     1
 72
     1
 10
-67.09534291697923
 20
13.27628979433213
 11
-67.09534291697923
 21
13.99737822970672
 72
     2
 10
-68.06894212526436
 20
15.55965155131817
 40
1.840813230556011
 50
58.0690910500376
 51
71.55192388186683
 73
     0
 72
     2
 10
-67.72334895694962
 20
14.52366330665935
 40
0.7487023016403824
 50
71.55192388184291
 51
113.3722778881291
 73
     0
 72
     2
 10
-67.85263824017443
 20
14.22449634904777
 40
0.422793438177528
 50
113.372277888174
 51
151.4785267423084
 73
     0
 72
     2
 10
-67.54077273762869
 20
14.39397686916223
 40
0.7777353184572794
 50
151.4785267422971
 51
208.5214732577313
 73
     0
 72
     2
 10
-67.85263824017443
 20
14.56345738927714
 40
0.4227934381775693
 50
208.5214732576904
 51
246.6277221118017
 73
     0
 72
     2
 10
-67.72334895694962
 20
14.26429043166509
 40
0.7487023016407717
 50
246.6277221118715
 51
288.4480761181457
 73
     0
 72
     2
 10
-68.06894212526436
 20
13.22830218700673
 40
1.840813230556617
 50
288.4480761181331
 51
301.9309089499624
 73
     0
 72
     1
 10
-67.09534291697923
 20
14.79057550861818
 11
-67.09534291697923
 21
15.51166394399277
 72
     2
 10
-68.1994155757543
 20
11.65622402184333
 40
4.010410630990089
 50
74.02000874164679
 51
84.84185523037543
 73
     1
 72
     2
 10
-67.96069153051803
 20
14.30076169392682
 40
1.355119937140908
 50
84.84185523036265
 51
164.9381082228906
 73
     1
 97
       14
330
28B
330
115
330
25A
330
28A
330
25B
330
25C
330
289
330
288
330
287
330
116
330
25D
330
25E
330
25F
330
260
 75
     1
 76
     0
 52
45.0
 41
0.1
 77
     0
 78
     1
 53
45.0
 43
0.0
 44
0.0
 45
-0.0707106781186548
 46
0.0707106781186548
 79
     0
 98
        1
 10
0.0
 20
0.0
  0
HATCH
  5
2F8
330
74
100
AcDbEntity
  8
1
  6
Continuous
 62
     2
100
AcDbHatch
 10
0.0
 20
0.0
 30
0.0
210
0.0
220
0.0
230
1.0
  2
_USER
 70
     0
 71
     1
 91
        1
 92
        1
 93
       14
 72
     2
 10
-68.30707817800794
 20
14.39397686916223
 40
0.9964100565214622
 50
164.9381082228799
 51
195.0618917770962
 73
     1
 72
     2
 10
-67.96069153051803
 20
14.48719204439762
 40
1.355119937140023
 50
195.0618917770909
 51
275.1581447696391
 73
     1
 72
     2
 10
-68.1994155757543
 20
17.13172971648158
 40
4.010410630990213
 50
275.1581447696246
 51
285.9799912583532
 73
     1
 72
     1
 10
-67.09534291697923
 20
13.27628979433213
 11
-67.09534291697923
 21
13.99737822970672
 72
     2
 10
-68.06894212526436
 20
15.55965155131817
 40
1.840813230556011
 50
58.0690910500376
 51
71.55192388186683
 73
     0
 72
     2
 10
-67.72334895694962
 20
14.52366330665935
 40
0.7487023016403824
 50
71.55192388184291
 51
113.3722778881291
 73
     0
 72
     2
 10
-67.85263824017443
 20
14.22449634904777
 40
0.422793438177528
 50
113.372277888174
 51
151.4785267423084
 73
     0
 72
     2
 10
-67.54077273762869
 20
14.39397686916223
 40
0.7777353184572794
 50
151.4785267422971
 51
208.5214732577313
 73
     0
 72
     2
 10
-67.85263824017443
 20
14.56345738927714
 40
0.4227934381775693
 50
208.5214732576904
 51
246.6277221118017
 73
     0
 72
     2
 10
-67.72334895694962
 20
14.26429043166509
 40
0.7487023016407717
 50
246.6277221118715
 51
288.4480761181457
 73
     0
 72
     2
 10
-68.06894212526436
 20
13.22830218700673
 40
1.840813230556617
 50
288.4480761181331
 51
301.9309089499624
 73
     0
 72
     1
 10
-67.09534291697923
 20
14.79057550861818
 11
-67.09534291697923
 21
15.51166394399277
 72
     2
 10
-68.1994155757543
 20
11.65622402184333
 40
4.010410630990089
 50
74.02000874164679
 51
84.84185523037543
 73
     1
 72
     2
 10
-67.96069153051803
 20
14.30076169392682
 40
1.355119937140908
 50
84.84185523036265
 51
164.9381082228906
 73
     1
 97
       14
330
28B
330
115
330
25A
330
28A
330
25B
330
25C
330
289
330
288
330
287
330
116
330
25D
330
25E
330
25F
330
260
 75
     1
 76
     0
 52
45.0
 41
0.1
 77
     0
 78
     1
 53
45.0
 43
0.0
 44
0.0
 45
-0.0707106781186548
 46
0.0707106781186548
 79
     0
 98
        1
 10
0.0
 20
0.0
  0
HATCH
  5
2F9
330
74
100
AcDbEntity
  8
1
  6
Continuous
 62
     2
100
AcDbHatch
 10
0.0
 20
0.0
 30
0.0
210
0.0
220
0.0
230
1.0
  2
_USER
 70
     0
 71
     1
 91
        1
 92
        1
 93
       18
 72
     2
 10
-54.65267377906935
 20
14.30076169392682
 40
1.355119937140591
 50
90.0
 51
164.9381082228992
 73
     1
 72
     2
 10
-54.99906042655834
 20
14.39397686916223
 40
0.996410056523109
 50
164.9381082229054
 51
195.0618917770958
 73
     1
 72
     2
 10
-54.65267377906935
 20
14.48719204439762
 40
1.355119937140895
 50
195.0618917771008
 51
275.158144769676
 73
     1
 72
     2
 10
-54.89139782430561
 20
17.13172971648158
 40
4.010410630990744
 50
275.1581447696369
 51
285.9799912583388
 73
     1
 72
     1
 10
-53.78732516553146
 20
13.27628979433169
 11
-53.78732516553146
 21
13.99737822970626
 72
     2
 10
-54.76092437381567
 20
15.55965155131771
 40
1.840813230556003
 50
58.06909105006183
 51
71.55192388186671
 73
     0
 72
     2
 10
-54.41533120550002
 20
14.52366330665935
 40
0.7487023016407038
 50
71.55192388192036
 51
113.372277888186
 73
     0
 72
     2
 10
-54.54462048872574
 20
14.22449634904777
 40
0.4227934381785468
 50
113.3722778881607
 51
151.4785267423125
 73
     0
 72
     2
 10
-54.23275498617909
 20
14.39397686916223
 40
0.777735318458663
 50
151.4785267423313
 51
208.5214732576382
 73
     0
 72
     2
 10
-54.54462048872574
 20
14.56345738927714
 40
0.4227934381772261
 50
208.521473257578
 51
250.662856780514
 73
     0
 72
     2
 10
-54.42340561425988
 20
14.21804005011771
 40
0.7888619891124407
 50
250.6628567805685
 51
270.0
 73
     0
 72
     1
 10
-54.42340561425988
 20
15.00690203923015
 11
-53.5113070195755
 21
15.00690203923015
 72
     1
 10
-53.5113070195755
 20
15.00690203923015
 11
-53.5113070195755
 21
13.13207210725704
 72
     1
 10
-53.5113070195755
 20
13.13207210725704
 11
-52.52552792687493
 21
13.13207210725704
 72
     1
 10
-52.52552792687493
 20
13.13207210725704
 11
-52.52552792687493
 21
15.00690203923015
 72
     1
 10
-52.52552792687493
 20
15.00690203923015
 11
-51.85519814383906
 21
15.00690203923015
 72
     1
 10
-51.85519814383906
 20
15.00690203923015
 11
-51.85519814383906
 21
15.65588163106787
 72
     1
 10
-51.85519814383906
 20
15.65588163106787
 11
-54.65267377906935
 21
15.65588163106741
 97
       18
330
17B
330
17A
330
179
330
178
330
17D
330
117
330
284
330
265
330
283
330
266
330
282
330
281
330
118
330
280
330
27F
330
267
330
268
330
17C
 75
     1
 76
     0
 52
45.0
 41
0.1
 77
     0
 78
     1
 53
45.0
 43
0.0
 44
0.0
 45
-0.0707106781186548
 46
0.0707106781186548
 79
     0
 98
        1
 10
0.0
 20
0.0
  0
HATCH
  5
2FA
330
74
100
AcDbEntity
  8
1
  6
Continuous
 62
     2
100
AcDbHatch
 10
0.0
 20
0.0
 30
0.0
210
0.0
220
0.0
230
1.0
  2
_USER
 70
     0
 71
     1
 91
        1
 92
        1
 93
       18
 72
     2
 10
-54.65267377906935
 20
14.30076169392682
 40
1.355119937140591
 50
90.0
 51
164.9381082228992
 73
     1
 72
     2
 10
-54.99906042655834
 20
14.39397686916223
 40
0.996410056523109
 50
164.9381082229054
 51
195.0618917770958
 73
     1
 72
     2
 10
-54.65267377906935
 20
14.48719204439762
 40
1.355119937140895
 50
195.0618917771008
 51
275.158144769676
 73
     1
 72
     2
 10
-54.89139782430561
 20
17.13172971648158
 40
4.010410630990744
 50
275.1581447696369
 51
285.9799912583388
 73
     1
 72
     1
 10
-53.78732516553146
 20
13.27628979433169
 11
-53.78732516553146
 21
13.99737822970626
 72
     2
 10
-54.76092437381567
 20
15.55965155131771
 40
1.840813230556003
 50
58.06909105006183
 51
71.55192388186671
 73
     0
 72
     2
 10
-54.41533120550002
 20
14.52366330665935
 40
0.7487023016407038
 50
71.55192388192036
 51
113.372277888186
 73
     0
 72
     2
 10
-54.54462048872574
 20
14.22449634904777
 40
0.4227934381785468
 50
113.3722778881607
 51
151.4785267423125
 73
     0
 72
     2
 10
-54.23275498617909
 20
14.39397686916223
 40
0.777735318458663
 50
151.4785267423313
 51
208.5214732576382
 73
     0
 72
     2
 10
-54.54462048872574
 20
14.56345738927714
 40
0.4227934381772261
 50
208.521473257578
 51
250.662856780514
 73
     0
 72
     2
 10
-54.42340561425988
 20
14.21804005011771
 40
0.7888619891124407
 50
250.6628567805685
 51
270.0
 73
     0
 72
     1
 10
-54.42340561425988
 20
15.00690203923015
 11
-53.5113070195755
 21
15.00690203923015
 72
     1
 10
-53.5113070195755
 20
15.00690203923015
 11
-53.5113070195755
 21
13.13207210725704
 72
     1
 10
-53.5113070195755
 20
13.13207210725704
 11
-52.52552792687493
 21
13.13207210725704
 72
     1
 10
-52.52552792687493
 20
13.13207210725704
 11
-52.52552792687493
 21
15.00690203923015
 72
     1
 10
-52.52552792687493
 20
15.00690203923015
 11
-51.85519814383906
 21
15.00690203923015
 72
     1
 10
-51.85519814383906
 20
15.00690203923015
 11
-51.85519814383906
 21
15.65588163106787
 72
     1
 10
-51.85519814383906
 20
15.65588163106787
 11
-54.65267377906935
 21
15.65588163106741
 97
       18
330
17B
330
17A
330
179
330
178
330
17D
330
117
330
284
330
265
330
283
330
266
330
282
330
281
330
118
330
280
330
27F
330
267
330
268
330
17C
 75
     1
 76
     0
 52
45.0
 41
0.1
 77
     0
 78
     1
 53
45.0
 43
0.0
 44
0.0
 45
-0.0707106781186548
 46
0.0707106781186548
 79
     0
 98
        1
 10
0.0
 20
0.0
  0
HATCH
  5
2FB
330
74
100
AcDbEntity
  8
1
  6
Continuous
 62
     2
100
AcDbHatch
 10
0.0
 20
0.0
 30
0.0
210
0.0
220
0.0
230
1.0
  2
_USER
 70
     0
 71
     1
 91
        4
 92
        1
 93
        8
 72
     2
 10
-74.57181352840246
 20
18.08145672261529
 40
0.3506153846147413
 50
90.0
 51
180.0
 73
     1
 72
     1
 10
-74.92242891301635
 20
18.08145672261529
 11
-74.92242891301635
 21
13.48268749187132
 72
     2
 10
-74.57181352840246
 20
13.48268749187132
 40
0.3506153846138886
 50
180.0
 51
270.0
 73
     1
 72
     1
 10
-74.57181352840246
 20
13.13207210725704
 11
-70.04841510632241
 21
13.13207210725704
 72
     2
 10
-70.04841510632241
 20
13.48268749187132
 40
0.3506153846142812
 50
270.0
 51
360.0
 73
     1
 72
     1
 10
-69.69779972170761
 20
13.48268749187132
 11
-69.69779972170761
 21
18.08145672261529
 72
     2
 10
-70.04841510632241
 20
18.08145672261529
 40
0.3506153846147981
 50
0.0
 51
90.0
 73
     1
 72
     1
 10
-70.04841510632241
 20
18.43207210723003
 11
-74.57181352840246
 21
18.43207210723003
 97
        8
330
278
330
146
330
277
330
147
330
26E
330
144
330
279
330
145
 92
       16
 93
        1
 72
     2
 10
-72.4068667097929
 20
16.16502512893305
 40
0.3892387874202541
 50
0.0
 51
360.0
 73
     1
 97
        1
330
28C
 92
       16
 93
        8
 72
     2
 10
-72.38718487948483
 20
16.16502512893305
 40
0.7535935125160986
 50
295.374008678178
 51
424.6259913218071
 73
     1
 72
     2
 10
-71.9524388480072
 20
17.08167107931967
 40
0.2609230769229498
 50
115.3740086783601
 51
180.0
 73
     0
 72
     1
 10
-72.21336192493015
 20
17.08167107931967
 11
-72.21336192493015
 21
17.58211346651534
 72
     2
 10
-71.9524388480072
 20
17.58211346651534
 40
0.2609230769224181
 50
180.0
 51
269.8110329574465
 73
     0
 72
     2
 10
-71.94779741386674
 20
16.17481185695416
 40
1.668232340440702
 50
269.8110329575862
 51
450.1889670424138
 73
     0
 72
     2
 10
-71.9524388480072
 20
14.76751024739299
 40
0.2609230769229498
 50
90.18896704255353
 51
180.0
 73
     0
 72
     1
 10
-72.21336192493015
 20
14.76751024739299
 11
-72.21336192493015
 21
15.24837917854596
 72
     2
 10
-71.9524388480072
 20
15.24837917854596
 40
0.2609230769227325
 50
180.0
 51
244.625991321641
 73
     0
 97
        8
330
286
330
262
330
17F
330
285
330
263
330
264
330
17E
330
261
 92
       16
 93
       12
 72
     1
 10
-74.0809914815045
 20
13.72096099614706
 11
-72.86129457157926
 21
13.72096099614706
 72
     2
 10
-72.86129457157926
 20
13.98188407306995
 40
0.2609230769228894
 50
270.0
 51
360.0
 73
     1
 72
     1
 10
-72.60037149465643
 20
13.98188407306995
 11
-72.60037149465643
 21
15.24698401648451
 72
     2
 10
-72.86129457157926
 20
15.24698401648451
 40
0.2609230769228361
 50
0.0
 51
64.8055893514401
 73
     1
 72
     2
 10
-72.42940659837677
 20
16.16502512893305
 40
0.7536343169897688
 50
115.1944106485086
 51
244.8055893514766
 73
     0
 72
     2
 10
-72.86129457157926
 20
17.08306624138113
 40
0.2609230769224065
 50
295.1944106485601
 51
360.0
 73
     1
 72
     1
 10
-72.60037149465643
 20
17.08306624138113
 11
-72.60037149465643
 21
17.58226014143119
 72
     2
 10
-72.86129457157926
 20
17.58226014143119
 40
0.2609230769228361
 50
0.0
 51
90.0
 73
     1
 72
     1
 10
-72.86129457157926
 20
17.84318321835364
 11
-74.0809914815045
 21
17.84318321835364
 72
     2
 10
-74.0809914815045
 20
17.58226014143119
 40
0.2609230769224524
 50
90.0
 51
180.0
 73
     1
 72
     1
 10
-74.34191455842654
 20
17.58226014143119
 11
-74.34191455842654
 21
13.98188407306995
 72
     2
 10
-74.0809914815045
 20
13.98188407306995
 40
0.2609230769220403
 50
180.0
 51
270.0
 73
     1
 97
       12
330
14B
330
26B
330
14A
330
27C
330
149
330
27B
330
26C
330
26D
330
148
330
27A
330
143
330
27D
 75
     1
 76
     0
 52
45.0
 41
0.1
 77
     0
 78
     1
 53
45.0
 43
0.0
 44
0.0
 45
-0.0707106781186548
 46
0.0707106781186548
 79
     0
 98
        1
 10
0.0
 20
0.0
  0
HATCH
  5
2FC
330
74
100
AcDbEntity
  8
1
  6
Continuous
 62
     2
100
AcDbHatch
 10
0.0
 20
0.0
 30
0.0
210
0.0
220
0.0
230
1.0
  2
_USER
 70
     0
 71
     1
 91
        4
 92
        1
 93
        8
 72
     2
 10
-74.57181352840246
 20
18.08145672261529
 40
0.3506153846147413
 50
90.0
 51
180.0
 73
     1
 72
     1
 10
-74.92242891301635
 20
18.08145672261529
 11
-74.92242891301635
 21
13.48268749187132
 72
     2
 10
-74.57181352840246
 20
13.48268749187132
 40
0.3506153846138886
 50
180.0
 51
270.0
 73
     1
 72
     1
 10
-74.57181352840246
 20
13.13207210725704
 11
-70.04841510632241
 21
13.13207210725704
 72
     2
 10
-70.04841510632241
 20
13.48268749187132
 40
0.3506153846142812
 50
270.0
 51
360.0
 73
     1
 72
     1
 10
-69.69779972170761
 20
13.48268749187132
 11
-69.69779972170761
 21
18.08145672261529
 72
     2
 10
-70.04841510632241
 20
18.08145672261529
 40
0.3506153846147981
 50
0.0
 51
90.0
 73
     1
 72
     1
 10
-70.04841510632241
 20
18.43207210723003
 11
-74.57181352840246
 21
18.43207210723003
 97
        8
330
278
330
146
330
277
330
147
330
26E
330
144
330
279
330
145
 92
       16
 93
        1
 72
     2
 10
-72.4068667097929
 20
16.16502512893305
 40
0.3892387874202541
 50
0.0
 51
360.0
 73
     1
 97
        1
330
28C
 92
       16
 93
        8
 72
     2
 10
-72.38718487948483
 20
16.16502512893305
 40
0.7535935125160986
 50
295.374008678178
 51
424.6259913218071
 73
     1
 72
     2
 10
-71.9524388480072
 20
17.08167107931967
 40
0.2609230769229498
 50
115.3740086783601
 51
180.0
 73
     0
 72
     1
 10
-72.21336192493015
 20
17.08167107931967
 11
-72.21336192493015
 21
17.58211346651534
 72
     2
 10
-71.9524388480072
 20
17.58211346651534
 40
0.2609230769224181
 50
180.0
 51
269.8110329574465
 73
     0
 72
     2
 10
-71.94779741386674
 20
16.17481185695416
 40
1.668232340440702
 50
269.8110329575862
 51
450.1889670424138
 73
     0
 72
     2
 10
-71.9524388480072
 20
14.76751024739299
 40
0.2609230769229498
 50
90.18896704255353
 51
180.0
 73
     0
 72
     1
 10
-72.21336192493015
 20
14.76751024739299
 11
-72.21336192493015
 21
15.24837917854596
 72
     2
 10
-71.9524388480072
 20
15.24837917854596
 40
0.2609230769227325
 50
180.0
 51
244.625991321641
 73
     0
 97
        8
330
286
330
262
330
17F
330
285
330
263
330
264
330
17E
330
261
 92
       16
 93
       12
 72
     1
 10
-74.0809914815045
 20
13.72096099614706
 11
-72.86129457157926
 21
13.72096099614706
 72
     2
 10
-72.86129457157926
 20
13.98188407306995
 40
0.2609230769228894
 50
270.0
 51
360.0
 73
     1
 72
     1
 10
-72.60037149465643
 20
13.98188407306995
 11
-72.60037149465643
 21
15.24698401648451
 72
     2
 10
-72.86129457157926
 20
15.24698401648451
 40
0.2609230769228361
 50
0.0
 51
64.8055893514401
 73
     1
 72
     2
 10
-72.42940659837677
 20
16.16502512893305
 40
0.7536343169897688
 50
115.1944106485086
 51
244.8055893514766
 73
     0
 72
     2
 10
-72.86129457157926
 20
17.08306624138113
 40
0.2609230769224065
 50
295.1944106485601
 51
360.0
 73
     1
 72
     1
 10
-72.60037149465643
 20
17.08306624138113
 11
-72.60037149465643
 21
17.58226014143119
 72
     2
 10
-72.86129457157926
 20
17.58226014143119
 40
0.2609230769228361
 50
0.0
 51
90.0
 73
     1
 72
     1
 10
-72.86129457157926
 20
17.84318321835364
 11
-74.0809914815045
 21
17.84318321835364
 72
     2
 10
-74.0809914815045
 20
17.58226014143119
 40
0.2609230769224524
 50
90.0
 51
180.0
 73
     1
 72
     1
 10
-74.34191455842654
 20
17.58226014143119
 11
-74.34191455842654
 21
13.98188407306995
 72
     2
 10
-74.0809914815045
 20
13.98188407306995
 40
0.2609230769220403
 50
180.0
 51
270.0
 73
     1
 97
       12
330
14B
330
26B
330
14A
330
27C
330
149
330
27B
330
26C
330
26D
330
148
330
27A
330
143
330
27D
 75
     1
 76
     0
 52
45.0
 41
0.1
 77
     0
 78
     1
 53
45.0
 43
0.0
 44
0.0
 45
-0.0707106781186548
 46
0.0707106781186548
 79
     0
 98
        1
 10
0.0
 20
0.0
  0
HATCH
  5
2FD
330
74
100
AcDbEntity
  8
1
  6
Continuous
 62
     2
100
AcDbHatch
 10
0.0
 20
0.0
 30
0.0
210
0.0
220
0.0
230
1.0
  2
_USER
 70
     0
 71
     1
 91
        2
 92
        1
 93
       12
 72
     2
 10
-62.44357881436167
 20
17.17016734533938
 40
1.26190476190564
 50
90.0
 51
270.0
 73
     1
 72
     1
 10
-62.44357881436167
 20
15.90826258343419
 11
-59.84000879470796
 21
15.90826258343419
 72
     1
 10
-59.84000879470796
 20
15.90826258343419
 11
-59.84000879470796
 21
16.48513333173368
 72
     1
 10
-59.84000879470796
 20
16.48513333173368
 11
-60.94408137853247
 21
16.48513333173368
 72
     1
 10
-60.94408137853247
 20
16.48513333173368
 11
-60.94408137853247
 21
16.88173197118964
 72
     1
 10
-60.94408137853247
 20
16.88173197118964
 11
-59.84000879470796
 21
16.88173197118964
 72
     1
 10
-59.84000879470796
 20
16.88173197118964
 11
-59.84000879470796
 21
17.45860271948912
 72
     1
 10
-59.84000879470796
 20
17.45860271948912
 11
-60.94408137853247
 21
17.45860271948912
 72
     1
 10
-60.94408137853247
 20
17.45860271948912
 11
-60.94408137853247
 21
17.85520135894508
 72
     1
 10
-60.94408137853247
 20
17.85520135894508
 11
-59.84000879470796
 21
17.85520135894508
 72
     1
 10
-59.84000879470796
 20
17.85520135894508
 11
-59.84000879470796
 21
18.43207210724502
 72
     1
 10
-59.84000879470796
 20
18.43207210724502
 11
-62.44357881436167
 21
18.43207210724502
 97
       12
330
13A
330
134
330
15B
330
15A
330
159
330
158
330
135
330
136
330
137
330
138
330
269
330
139
 92
       16
 93
        4
 72
     2
 10
-62.09976720567454
 20
17.17016734533938
 40
0.6378510567600056
 50
141.8795802028417
 51
218.1204197971583
 73
     1
 72
     2
 10
-62.26484161587803
 20
17.04063744606625
 40
0.4280236140606851
 50
218.1204197971433
 51
321.8795802028561
 73
     1
 72
     2
 10
-62.42991602608151
 20
17.17016734533938
 40
0.6378510567599944
 50
321.8795802028409
 51
398.1204197971591
 73
     1
 72
     2
 10
-62.26484161587803
 20
17.2996972446125
 40
0.4280236140606861
 50
38.12041979714503
 51
141.8795802028555
 73
     1
 97
        4
330
276
330
275
330
270
330
26F
 75
     1
 76
     0
 52
45.0
 41
0.1
 77
     0
 78
     1
 53
45.0
 43
0.0
 44
0.0
 45
-0.0707106781186548
 46
0.0707106781186548
 79
     0
 98
        1
 10
0.0
 20
0.0
  0
HATCH
  5
2FE
330
74
100
AcDbEntity
  8
1
  6
Continuous
 62
     2
100
AcDbHatch
 10
0.0
 20
0.0
 30
0.0
210
0.0
220
0.0
230
1.0
  2
_USER
 70
     0
 71
     1
 91
        2
 92
        1
 93
       12
 72
     2
 10
-62.44357881436167
 20
17.17016734533938
 40
1.26190476190564
 50
90.0
 51
270.0
 73
     1
 72
     1
 10
-62.44357881436167
 20
15.90826258343419
 11
-59.84000879470796
 21
15.90826258343419
 72
     1
 10
-59.84000879470796
 20
15.90826258343419
 11
-59.84000879470796
 21
16.48513333173368
 72
     1
 10
-59.84000879470796
 20
16.48513333173368
 11
-60.94408137853247
 21
16.48513333173368
 72
     1
 10
-60.94408137853247
 20
16.48513333173368
 11
-60.94408137853247
 21
16.88173197118964
 72
     1
 10
-60.94408137853247
 20
16.88173197118964
 11
-59.84000879470796
 21
16.88173197118964
 72
     1
 10
-59.84000879470796
 20
16.88173197118964
 11
-59.84000879470796
 21
17.45860271948912
 72
     1
 10
-59.84000879470796
 20
17.45860271948912
 11
-60.94408137853247
 21
17.45860271948912
 72
     1
 10
-60.94408137853247
 20
17.45860271948912
 11
-60.94408137853247
 21
17.85520135894508
 72
     1
 10
-60.94408137853247
 20
17.85520135894508
 11
-59.84000879470796
 21
17.85520135894508
 72
     1
 10
-59.84000879470796
 20
17.85520135894508
 11
-59.84000879470796
 21
18.43207210724502
 72
     1
 10
-59.84000879470796
 20
18.43207210724502
 11
-62.44357881436167
 21
18.43207210724502
 97
       12
330
13A
330
134
330
15B
330
15A
330
159
330
158
330
135
330
136
330
137
330
138
330
269
330
139
 92
       16
 93
        4
 72
     2
 10
-62.09976720567454
 20
17.17016734533938
 40
0.6378510567600056
 50
141.8795802028417
 51
218.1204197971583
 73
     1
 72
     2
 10
-62.26484161587803
 20
17.04063744606625
 40
0.4280236140606851
 50
218.1204197971433
 51
321.8795802028561
 73
     1
 72
     2
 10
-62.42991602608151
 20
17.17016734533938
 40
0.6378510567599944
 50
321.8795802028409
 51
398.1204197971591
 73
     1
 72
     2
 10
-62.26484161587803
 20
17.2996972446125
 40
0.4280236140606861
 50
38.12041979714503
 51
141.8795802028555
 73
     1
 97
        4
330
276
330
275
330
270
330
26F
 75
     1
 76
     0
 52
45.0
 41
0.1
 77
     0
 78
     1
 53
45.0
 43
0.0
 44
0.0
 45
-0.0707106781186548
 46
0.0707106781186548
 79
     0
 98
        1
 10
0.0
 20
0.0
  0
HATCH
  5
2FF
330
74
100
AcDbEntity
  8
1
  6
Continuous
 62
     2
100
AcDbHatch
 10
0.0
 20
0.0
 30
0.0
210
0.0
220
0.0
230
1.0
  2
_USER
 70
     0
 71
     1
 91
        2
 92
        1
 93
        4
 72
     2
 10
-65.77053365937127
 20
14.39397686916223
 40
1.204986845992994
 50
117.5481481756635
 51
242.451851824337
 73
     1
 72
     2
 10
-65.53835193058342
 20
14.8390801834625
 40
1.70700807620544
 50
242.4518518243401
 51
297.548148175687
 73
     1
 72
     2
 10
-65.30617020179557
 20
14.39397686916223
 40
1.204986845993433
 50
297.5481481757013
 51
422.4518518242982
 73
     1
 72
     2
 10
-65.53835193058342
 20
13.94887355486241
 40
1.707008076205444
 50
62.45185182430569
 51
117.5481481756673
 73
     1
 97
        4
330
274
330
271
330
273
330
272
 92
       16
 93
        4
 72
     2
 10
-65.53835193058342
 20
14.52350676843535
 40
0.4280236140605955
 50
38.12041979715423
 51
141.8795802028552
 73
     1
 72
     2
 10
-65.37327752038004
 20
14.39397686916223
 40
0.6378510567599095
 50
141.8795802028351
 51
218.1204197971658
 73
     1
 72
     2
 10
-65.53835193058342
 20
14.26444696988955
 40
0.4280236140609635
 50
218.1204197971923
 51
321.8795802027983
 73
     1
 72
     2
 10
-65.70342634078702
 20
14.39397686916223
 40
0.6378510567600066
 50
321.8795802028405
 51
398.1204197971587
 73
     1
 97
        4
330
257
330
258
330
259
330
256
 75
     1
 76
     0
 52
45.0
 41
0.1
 77
     0
 78
     1
 53
45.0
 43
0.0
 44
0.0
 45
-0.0707106781186548
 46
0.0707106781186548
 79
     0
 98
        1
 10
0.0
 20
0.0
  0
HATCH
  5
300
330
74
100
AcDbEntity
  8
1
  6
Continuous
 62
     2
100
AcDbHatch
 10
0.0
 20
0.0
 30
0.0
210
0.0
220
0.0
230
1.0
  2
_USER
 70
     0
 71
     1
 91
        2
 92
        1
 93
        4
 72
     2
 10
-65.77053365937127
 20
14.39397686916223
 40
1.204986845992994
 50
117.5481481756635
 51
242.451851824337
 73
     1
 72
     2
 10
-65.53835193058342
 20
14.8390801834625
 40
1.70700807620544
 50
242.4518518243401
 51
297.548148175687
 73
     1
 72
     2
 10
-65.30617020179557
 20
14.39397686916223
 40
1.204986845993433
 50
297.5481481757013
 51
422.4518518242982
 73
     1
 72
     2
 10
-65.53835193058342
 20
13.94887355486241
 40
1.707008076205444
 50
62.45185182430569
 51
117.5481481756673
 73
     1
 97
        4
330
274
330
271
330
273
330
272
 92
       16
 93
        4
 72
     2
 10
-65.53835193058342
 20
14.52350676843535
 40
0.4280236140605955
 50
38.12041979715423
 51
141.8795802028552
 73
     1
 72
     2
 10
-65.37327752038004
 20
14.39397686916223
 40
0.6378510567599095
 50
141.8795802028351
 51
218.1204197971658
 73
     1
 72
     2
 10
-65.53835193058342
 20
14.26444696988955
 40
0.4280236140609635
 50
218.1204197971923
 51
321.8795802027983
 73
     1
 72
     2
 10
-65.70342634078702
 20
14.39397686916223
 40
0.6378510567600066
 50
321.8795802028405
 51
398.1204197971587
 73
     1
 97
        4
330
257
330
258
330
259
330
256
 75
     1
 76
     0
 52
45.0
 41
0.1
 77
     0
 78
     1
 53
45.0
 43
0.0
 44
0.0
 45
-0.0707106781186548
 46
0.0707106781186548
 79
     0
 98
        1
 10
0.0
 20
0.0
  0
HATCH
  5
301
330
74
100
AcDbEntity
  8
1
  6
Continuous
 62
     2
100
AcDbHatch
 10
0.0
 20
0.0
 30
0.0
210
0.0
220
0.0
230
1.0
  2
_USER
 70
     0
 71
     1
 91
        2
 92
        1
 93
        6
 72
     1
 10
-69.30348808462759
 20
18.43207210724502
 11
-69.30348808462759
 21
15.90826258343419
 72
     1
 10
-69.30348808462759
 20
15.90826258343419
 11
-68.2782778282193
 21
15.90826258343419
 72
     1
 10
-68.2782778282193
 20
15.90826258343419
 11
-68.2782778282193
 21
16.68766608851166
 72
     1
 10
-68.2782778282193
 20
16.68766608851166
 11
-67.65119717716118
 21
16.68766608851166
 72
     2
 10
-67.65119717716118
 20
17.55986909787833
 40
0.8722030093666717
 50
270.0
 51
450.0
 73
     1
 72
     1
 10
-67.65119717716118
 20
18.43207210724502
 11
-69.30348808462759
 21
18.43207210724502
 97
        6
330
27E
330
14C
330
142
330
141
330
14E
330
14D
 92
       16
 93
        4
 72
     1
 10
-68.01605050463093
 20
17.88405074737721
 11
-68.2782778282193
 21
17.88405074737721
 72
     1
 10
-68.2782778282193
 20
17.88405074737721
 11
-68.2782778282193
 21
17.30080475618525
 72
     1
 10
-68.2782778282193
 20
17.30080475618525
 11
-68.01605050463093
 21
17.30080475618525
 72
     2
 10
-68.01605050463093
 20
17.59242775178124
 40
0.2916229955959899
 50
270.0
 51
450.0
 73
     1
 97
        4
330
14F
330
140
330
150
330
26A
 75
     1
 76
     0
 52
45.0
 41
0.1
 77
     0
 78
     1
 53
45.0
 43
0.0
 44
0.0
 45
-0.0707106781186548
 46
0.0707106781186548
 79
     0
 98
        1
 10
0.0
 20
0.0
  0
HATCH
  5
302
330
74
100
AcDbEntity
  8
1
  6
Continuous
 62
     2
100
AcDbHatch
 10
0.0
 20
0.0
 30
0.0
210
0.0
220
0.0
230
1.0
  2
_USER
 70
     0
 71
     1
 91
        2
 92
        1
 93
        6
 72
     1
 10
-69.30348808462759
 20
18.43207210724502
 11
-69.30348808462759
 21
15.90826258343419
 72
     1
 10
-69.30348808462759
 20
15.90826258343419
 11
-68.2782778282193
 21
15.90826258343419
 72
     1
 10
-68.2782778282193
 20
15.90826258343419
 11
-68.2782778282193
 21
16.68766608851166
 72
     1
 10
-68.2782778282193
 20
16.68766608851166
 11
-67.65119717716118
 21
16.68766608851166
 72
     2
 10
-67.65119717716118
 20
17.55986909787833
 40
0.8722030093666717
 50
270.0
 51
450.0
 73
     1
 72
     1
 10
-67.65119717716118
 20
18.43207210724502
 11
-69.30348808462759
 21
18.43207210724502
 97
        6
330
27E
330
14C
330
142
330
141
330
14E
330
14D
 92
       16
 93
        4
 72
     1
 10
-68.01605050463093
 20
17.88405074737721
 11
-68.2782778282193
 21
17.88405074737721
 72
     1
 10
-68.2782778282193
 20
17.88405074737721
 11
-68.2782778282193
 21
17.30080475618525
 72
     1
 10
-68.2782778282193
 20
17.30080475618525
 11
-68.01605050463093
 21
17.30080475618525
 72
     2
 10
-68.01605050463093
 20
17.59242775178124
 40
0.2916229955959899
 50
270.0
 51
450.0
 73
     1
 97
        4
330
14F
330
140
330
150
330
26A
 75
     1
 76
     0
 52
45.0
 41
0.1
 77
     0
 78
     1
 53
45.0
 43
0.0
 44
0.0
 45
-0.0707106781186548
 46
0.0707106781186548
 79
     0
 98
        1
 10
0.0
 20
0.0
  0
HATCH
  5
303
330
74
100
AcDbEntity
  8
1
  6
Continuous
 62
     2
100
AcDbHatch
 10
0.0
 20
0.0
 30
0.0
210
0.0
220
0.0
230
1.0
  2
_USER
 70
     0
 71
     1
 91
        1
 92
        1
 93
       12
 72
     1
 10
-53.09333668426962
 20
18.43207210724502
 11
-51.93406047125541
 21
18.43207210724502
 72
     1
 10
-51.93406047125541
 20
18.43207210724502
 11
-53.01053124048394
 21
17.2147576196118
 72
     1
 10
-53.01053124048394
 20
17.2147576196118
 11
-51.85519814383906
 21
15.90826258343419
 72
     1
 10
-51.85519814383906
 20
15.90826258343419
 11
-53.01447435685418
 21
15.90826258343419
 72
     1
 10
-53.01447435685418
 20
15.90826258343419
 11
-53.59016934699093
 21
16.55928058780913
 72
     1
 10
-53.59016934699093
 20
16.55928058780913
 11
-54.16586433712791
 21
15.90826258343419
 72
     1
 10
-54.16586433712791
 20
15.90826258343419
 11
-55.32514055014292
 21
15.90826258343419
 72
     1
 10
-55.32514055014292
 20
15.90826258343419
 11
-54.16980745349804
 21
17.2147576196118
 72
     1
 10
-54.16980745349804
 20
17.2147576196118
 11
-55.24627822272737
 21
18.43207210724502
 72
     1
 10
-55.24627822272737
 20
18.43207210724502
 11
-54.08700200971146
 21
18.43207210724502
 72
     1
 10
-54.08700200971146
 20
18.43207210724502
 11
-53.59016934699093
 21
17.87023465141403
 72
     1
 10
-53.59016934699093
 20
17.87023465141403
 11
-53.09333668426962
 21
18.43207210724502
 97
       12
330
11B
330
174
330
173
330
172
330
171
330
11C
330
11D
330
119
330
11A
330
177
330
176
330
175
 75
     1
 76
     0
 52
45.0
 41
0.1
 77
     0
 78
     1
 53
45.0
 43
0.0
 44
0.0
 45
-0.0707106781186548
 46
0.0707106781186548
 79
     0
 98
        1
 10
0.0
 20
0.0
  0
HATCH
  5
304
330
74
100
AcDbEntity
  8
1
  6
Continuous
 62
     2
100
AcDbHatch
 10
0.0
 20
0.0
 30
0.0
210
0.0
220
0.0
230
1.0
  2
_USER
 70
     0
 71
     1
 91
        1
 92
        1
 93
       12
 72
     1
 10
-53.09333668426962
 20
18.43207210724502
 11
-51.93406047125541
 21
18.43207210724502
 72
     1
 10
-51.93406047125541
 20
18.43207210724502
 11
-53.01053124048394
 21
17.2147576196118
 72
     1
 10
-53.01053124048394
 20
17.2147576196118
 11
-51.85519814383906
 21
15.90826258343419
 72
     1
 10
-51.85519814383906
 20
15.90826258343419
 11
-53.01447435685418
 21
15.90826258343419
 72
     1
 10
-53.01447435685418
 20
15.90826258343419
 11
-53.59016934699093
 21
16.55928058780913
 72
     1
 10
-53.59016934699093
 20
16.55928058780913
 11
-54.16586433712791
 21
15.90826258343419
 72
     1
 10
-54.16586433712791
 20
15.90826258343419
 11
-55.32514055014292
 21
15.90826258343419
 72
     1
 10
-55.32514055014292
 20
15.90826258343419
 11
-54.16980745349804
 21
17.2147576196118
 72
     1
 10
-54.16980745349804
 20
17.2147576196118
 11
-55.24627822272737
 21
18.43207210724502
 72
     1
 10
-55.24627822272737
 20
18.43207210724502
 11
-54.08700200971146
 21
18.43207210724502
 72
     1
 10
-54.08700200971146
 20
18.43207210724502
 11
-53.59016934699093
 21
17.87023465141403
 72
     1
 10
-53.59016934699093
 20
17.87023465141403
 11
-53.09333668426962
 21
18.43207210724502
 97
       12
330
11B
330
174
330
173
330
172
330
171
330
11C
330
11D
330
119
330
11A
330
177
330
176
330
175
 75
     1
 76
     0
 52
45.0
 41
0.1
 77
     0
 78
     1
 53
45.0
 43
0.0
 44
0.0
 45
-0.0707106781186548
 46
0.0707106781186548
 79
     0
 98
        1
 10
0.0
 20
0.0
  0
HATCH
  5
305
330
74
100
AcDbEntity
  8
1
  6
Continuous
 62
     2
100
AcDbHatch
 10
0.0
 20
0.0
 30
0.0
210
0.0
220
0.0
230
1.0
  2
_USER
 70
     0
 71
     1
 91
        1
 92
        1
 93
        4
 72
     1
 10
-55.42371845941307
 20
18.43207210724502
 11
-55.42371845941307
 21
15.90826258343419
 72
     1
 10
-55.42371845941307
 20
15.90826258343419
 11
-56.44892871582044
 21
15.90826258343419
 72
     1
 10
-56.44892871582044
 20
15.90826258343419
 11
-56.44892871582044
 21
18.43207210724502
 72
     1
 10
-56.44892871582044
 20
18.43207210724502
 11
-55.42371845941307
 21
18.43207210724502
 97
        4
330
16F
330
11E
330
16E
330
170
 75
     1
 76
     0
 52
45.0
 41
0.1
 77
     0
 78
     1
 53
45.0
 43
0.0
 44
0.0
 45
-0.0707106781186548
 46
0.0707106781186548
 79
     0
 98
        1
 10
0.0
 20
0.0
  0
HATCH
  5
306
330
74
100
AcDbEntity
  8
1
  6
Continuous
 62
     2
100
AcDbHatch
 10
0.0
 20
0.0
 30
0.0
210
0.0
220
0.0
230
1.0
  2
_USER
 70
     0
 71
     1
 91
        1
 92
        1
 93
        4
 72
     1
 10
-55.42371845941307
 20
18.43207210724502
 11
-55.42371845941307
 21
15.90826258343419
 72
     1
 10
-55.42371845941307
 20
15.90826258343419
 11
-56.44892871582044
 21
15.90826258343419
 72
     1
 10
-56.44892871582044
 20
15.90826258343419
 11
-56.44892871582044
 21
18.43207210724502
 72
     1
 10
-56.44892871582044
 20
18.43207210724502
 11
-55.42371845941307
 21
18.43207210724502
 97
        4
330
16F
330
11E
330
16E
330
170
 75
     1
 76
     0
 52
45.0
 41
0.1
 77
     0
 78
     1
 53
45.0
 43
0.0
 44
0.0
 45
-0.0707106781186548
 46
0.0707106781186548
 79
     0
 98
        1
 10
0.0
 20
0.0
  0
HATCH
  5
307
330
74
100
AcDbEntity
  8
1
  6
Continuous
 62
     2
100
AcDbHatch
 10
0.0
 20
0.0
 30
0.0
210
0.0
220
0.0
230
1.0
  2
_USER
 70
     0
 71
     1
 91
        2
 92
        1
 93
        8
 72
     1
 10
-55.74639945406761
 20
13.13207210725704
 11
-56.77160971047579
 21
13.13207210725704
 72
     1
 10
-56.77160971047579
 20
13.13207210725704
 11
-56.9463866141748
 21
13.57914693718916
 72
     1
 10
-56.9463866141748
 20
13.57914693718916
 11
-57.88228874365734
 21
13.57914693718916
 72
     1
 10
-57.88228874365734
 20
13.57914693718916
 11
-58.05706564735635
 21
13.13207210725704
 72
     1
 10
-58.05706564735635
 20
13.13207210725704
 11
-59.08227590376373
 21
13.13207210725704
 72
     1
 10
-59.08227590376373
 20
13.13207210725704
 11
-57.92694280711976
 21
15.65588163106787
 72
     1
 10
-57.92694280711976
 20
15.65588163106787
 11
-56.9017325507125
 21
15.65588163106787
 72
     1
 10
-56.9017325507125
 20
15.65588163106787
 11
-55.74639945406761
 21
13.13207210725704
 97
        8
330
16A
330
124
330
169
330
16C
330
121
330
16B
330
122
330
123
 92
       16
 93
        3
 72
     1
 10
-57.66240812287629
 20
14.14159591678136
 11
-57.16626723495688
 21
14.14159591678136
 72
     1
 10
-57.16626723495688
 20
14.14159591678136
 11
-57.41433767891567
 21
14.7761537399109
 72
     1
 10
-57.41433767891567
 20
14.7761537399109
 11
-57.66240812287629
 21
14.14159591678136
 97
        3
330
120
330
11F
330
16D
 75
     1
 76
     0
 52
45.0
 41
0.1
 77
     0
 78
     1
 53
45.0
 43
0.0
 44
0.0
 45
-0.0707106781186548
 46
0.0707106781186548
 79
     0
 98
        1
 10
0.0
 20
0.0
  0
HATCH
  5
308
330
74
100
AcDbEntity
  8
1
  6
Continuous
 62
     2
100
AcDbHatch
 10
0.0
 20
0.0
 30
0.0
210
0.0
220
0.0
230
1.0
  2
_USER
 70
     0
 71
     1
 91
        2
 92
        1
 93
        8
 72
     1
 10
-55.74639945406761
 20
13.13207210725704
 11
-56.77160971047579
 21
13.13207210725704
 72
     1
 10
-56.77160971047579
 20
13.13207210725704
 11
-56.9463866141748
 21
13.57914693718916
 72
     1
 10
-56.9463866141748
 20
13.57914693718916
 11
-57.88228874365734
 21
13.57914693718916
 72
     1
 10
-57.88228874365734
 20
13.57914693718916
 11
-58.05706564735635
 21
13.13207210725704
 72
     1
 10
-58.05706564735635
 20
13.13207210725704
 11
-59.08227590376373
 21
13.13207210725704
 72
     1
 10
-59.08227590376373
 20
13.13207210725704
 11
-57.92694280711976
 21
15.65588163106787
 72
     1
 10
-57.92694280711976
 20
15.65588163106787
 11
-56.9017325507125
 21
15.65588163106787
 72
     1
 10
-56.9017325507125
 20
15.65588163106787
 11
-55.74639945406761
 21
13.13207210725704
 97
        8
330
16A
330
124
330
169
330
16C
330
121
330
16B
330
122
330
123
 92
       16
 93
        3
 72
     1
 10
-57.66240812287629
 20
14.14159591678136
 11
-57.16626723495688
 21
14.14159591678136
 72
     1
 10
-57.16626723495688
 20
14.14159591678136
 11
-57.41433767891567
 21
14.7761537399109
 72
     1
 10
-57.41433767891567
 20
14.7761537399109
 11
-57.66240812287629
 21
14.14159591678136
 97
        3
330
120
330
11F
330
16D
 75
     1
 76
     0
 52
45.0
 41
0.1
 77
     0
 78
     1
 53
45.0
 43
0.0
 44
0.0
 45
-0.0707106781186548
 46
0.0707106781186548
 79
     0
 98
        1
 10
0.0
 20
0.0
  0
HATCH
  5
309
330
74
100
AcDbEntity
  8
1
  6
Continuous
 62
     2
100
AcDbHatch
 10
0.0
 20
0.0
 30
0.0
210
0.0
220
0.0
230
1.0
  2
_USER
 70
     0
 71
     1
 91
        1
 92
        1
 93
        8
 72
     1
 10
-60.86534378738543
 20
15.65588163106787
 11
-60.86534378738543
 21
15.00690203923015
 72
     1
 10
-60.86534378738543
 20
15.00690203923015
 11
-60.19501400434854
 21
15.00690203923015
 72
     1
 10
-60.19501400434854
 20
15.00690203923015
 11
-60.19501400434854
 21
13.13207210725704
 72
     1
 10
-60.19501400434854
 20
13.13207210725704
 11
-59.20923491164899
 21
13.13207210725704
 72
     1
 10
-59.20923491164899
 20
13.13207210725704
 11
-59.20923491164899
 21
15.00690203923015
 72
     1
 10
-59.20923491164899
 20
15.00690203923015
 11
-58.53890512861381
 21
15.00690203923015
 72
     1
 10
-58.53890512861381
 20
15.00690203923015
 11
-58.53890512861381
 21
15.65588163106787
 72
     1
 10
-58.53890512861381
 20
15.65588163106787
 11
-60.86534378738543
 21
15.65588163106787
 97
        8
330
166
330
165
330
164
330
125
330
126
330
168
330
127
330
167
 75
     1
 76
     0
 52
45.0
 41
0.1
 77
     0
 78
     1
 53
45.0
 43
0.0
 44
0.0
 45
-0.0707106781186548
 46
0.0707106781186548
 79
     0
 98
        1
 10
0.0
 20
0.0
  0
HATCH
  5
30A
330
74
100
AcDbEntity
  8
1
  6
Continuous
 62
     2
100
AcDbHatch
 10
0.0
 20
0.0
 30
0.0
210
0.0
220
0.0
230
1.0
  2
_USER
 70
     0
 71
     1
 91
        1
 92
        1
 93
        8
 72
     1
 10
-60.86534378738543
 20
15.65588163106787
 11
-60.86534378738543
 21
15.00690203923015
 72
     1
 10
-60.86534378738543
 20
15.00690203923015
 11
-60.19501400434854
 21
15.00690203923015
 72
     1
 10
-60.19501400434854
 20
15.00690203923015
 11
-60.19501400434854
 21
13.13207210725704
 72
     1
 10
-60.19501400434854
 20
13.13207210725704
 11
-59.20923491164899
 21
13.13207210725704
 72
     1
 10
-59.20923491164899
 20
13.13207210725704
 11
-59.20923491164899
 21
15.00690203923015
 72
     1
 10
-59.20923491164899
 20
15.00690203923015
 11
-58.53890512861381
 21
15.00690203923015
 72
     1
 10
-58.53890512861381
 20
15.00690203923015
 11
-58.53890512861381
 21
15.65588163106787
 72
     1
 10
-58.53890512861381
 20
15.65588163106787
 11
-60.86534378738543
 21
15.65588163106787
 97
        8
330
166
330
165
330
164
330
125
330
126
330
168
330
127
330
167
 75
     1
 76
     0
 52
45.0
 41
0.1
 77
     0
 78
     1
 53
45.0
 43
0.0
 44
0.0
 45
-0.0707106781186548
 46
0.0707106781186548
 79
     0
 98
        1
 10
0.0
 20
0.0
  0
HATCH
  5
30B
330
74
100
AcDbEntity
  8
1
  6
Continuous
 62
     2
100
AcDbHatch
 10
0.0
 20
0.0
 30
0.0
210
0.0
220
0.0
230
1.0
  2
_USER
 70
     0
 71
     1
 91
        1
 92
        1
 93
       10
 72
     1
 10
-58.6570738834688
 20
18.43207210724502
 11
-59.64285297616834
 21
18.43207210724502
 72
     1
 10
-59.64285297616834
 20
18.43207210724502
 11
-59.64285297616834
 21
15.90826258343419
 72
     1
 10
-59.64285297616834
 20
15.90826258343419
 11
-58.6570738834688
 21
15.90826258343419
 72
     1
 10
-58.6570738834688
 20
15.90826258343419
 11
-58.6570738834688
 21
16.98989523649585
 72
     1
 10
-58.6570738834688
 20
16.98989523649585
 11
-57.63186362706051
 21
15.90826258343419
 72
     1
 10
-57.63186362706051
 20
15.90826258343419
 11
-56.64608453436085
 21
15.90826258343419
 72
     1
 10
-56.64608453436085
 20
15.90826258343419
 11
-56.64608453436085
 21
18.43207210724502
 72
     1
 10
-56.64608453436085
 20
18.43207210724502
 11
-57.63186362706051
 21
18.43207210724502
 72
     1
 10
-57.63186362706051
 20
18.43207210724502
 11
-57.63186362706051
 21
17.35043945418291
 72
     1
 10
-57.63186362706051
 20
17.35043945418291
 11
-58.6570738834688
 21
18.43207210724502
 97
       10
330
160
330
12A
330
12B
330
12C
330
12D
330
163
330
128
330
162
330
161
330
129
 75
     1
 76
     0
 52
45.0
 41
0.1
 77
     0
 78
     1
 53
45.0
 43
0.0
 44
0.0
 45
-0.0707106781186548
 46
0.0707106781186548
 79
     0
 98
        1
 10
0.0
 20
0.0
  0
HATCH
  5
30C
330
74
100
AcDbEntity
  8
1
  6
Continuous
 62
     2
100
AcDbHatch
 10
0.0
 20
0.0
 30
0.0
210
0.0
220
0.0
230
1.0
  2
_USER
 70
     0
 71
     1
 91
        1
 92
        1
 93
       10
 72
     1
 10
-58.6570738834688
 20
18.43207210724502
 11
-59.64285297616834
 21
18.43207210724502
 72
     1
 10
-59.64285297616834
 20
18.43207210724502
 11
-59.64285297616834
 21
15.90826258343419
 72
     1
 10
-59.64285297616834
 20
15.90826258343419
 11
-58.6570738834688
 21
15.90826258343419
 72
     1
 10
-58.6570738834688
 20
15.90826258343419
 11
-58.6570738834688
 21
16.98989523649585
 72
     1
 10
-58.6570738834688
 20
16.98989523649585
 11
-57.63186362706051
 21
15.90826258343419
 72
     1
 10
-57.63186362706051
 20
15.90826258343419
 11
-56.64608453436085
 21
15.90826258343419
 72
     1
 10
-56.64608453436085
 20
15.90826258343419
 11
-56.64608453436085
 21
18.43207210724502
 72
     1
 10
-56.64608453436085
 20
18.43207210724502
 11
-57.63186362706051
 21
18.43207210724502
 72
     1
 10
-57.63186362706051
 20
18.43207210724502
 11
-57.63186362706051
 21
17.35043945418291
 72
     1
 10
-57.63186362706051
 20
17.35043945418291
 11
-58.6570738834688
 21
18.43207210724502
 97
       10
330
160
330
12A
330
12B
330
12C
330
12D
330
163
330
128
330
162
330
161
330
129
 75
     1
 76
     0
 52
45.0
 41
0.1
 77
     0
 78
     1
 53
45.0
 43
0.0
 44
0.0
 45
-0.0707106781186548
 46
0.0707106781186548
 79
     0
 98
        1
 10
0.0
 20
0.0
  0
HATCH
  5
30D
330
74
100
AcDbEntity
  8
1
  6
Continuous
 62
     2
100
AcDbHatch
 10
0.0
 20
0.0
 30
0.0
210
0.0
220
0.0
230
1.0
  2
_USER
 70
     0
 71
     1
 91
        1
 92
        1
 93
       10
 72
     1
 10
-62.99462662761641
 20
15.65588163106787
 11
-63.98040572031687
 21
15.65588163106787
 72
     1
 10
-63.98040572031687
 20
15.65588163106787
 11
-63.98040572031687
 21
13.13207210725704
 72
     1
 10
-63.98040572031687
 20
13.13207210725704
 11
-62.99462662761641
 21
13.13207210725704
 72
     1
 10
-62.99462662761641
 20
13.13207210725704
 11
-62.99462662761641
 21
14.21370476031869
 72
     1
 10
-62.99462662761641
 20
14.21370476031869
 11
-61.96941637120904
 21
13.13207210725704
 72
     1
 10
-61.96941637120904
 20
13.13207210725704
 11
-60.98363727850949
 21
13.13207210725704
 72
     1
 10
-60.98363727850949
 20
13.13207210725704
 11
-60.98363727850949
 21
15.65588163106787
 72
     1
 10
-60.98363727850949
 20
15.65588163106787
 11
-61.96941637120904
 21
15.65588163106787
 72
     1
 10
-61.96941637120904
 20
15.65588163106787
 11
-61.96941637120904
 21
14.57424897800576
 72
     1
 10
-61.96941637120904
 20
14.57424897800576
 11
-62.99462662761641
 21
15.65588163106787
 97
       10
330
12F
330
130
330
131
330
15D
330
132
330
133
330
15C
330
15F
330
15E
330
12E
 75
     1
 76
     0
 52
45.0
 41
0.1
 77
     0
 78
     1
 53
45.0
 43
0.0
 44
0.0
 45
-0.0707106781186548
 46
0.0707106781186548
 79
     0
 98
        1
 10
0.0
 20
0.0
  0
HATCH
  5
30E
330
74
100
AcDbEntity
  8
1
  6
Continuous
 62
     2
100
AcDbHatch
 10
0.0
 20
0.0
 30
0.0
210
0.0
220
0.0
230
1.0
  2
_USER
 70
     0
 71
     1
 91
        1
 92
        1
 93
       10
 72
     1
 10
-62.99462662761641
 20
15.65588163106787
 11
-63.98040572031687
 21
15.65588163106787
 72
     1
 10
-63.98040572031687
 20
15.65588163106787
 11
-63.98040572031687
 21
13.13207210725704
 72
     1
 10
-63.98040572031687
 20
13.13207210725704
 11
-62.99462662761641
 21
13.13207210725704
 72
     1
 10
-62.99462662761641
 20
13.13207210725704
 11
-62.99462662761641
 21
14.21370476031869
 72
     1
 10
-62.99462662761641
 20
14.21370476031869
 11
-61.96941637120904
 21
13.13207210725704
 72
     1
 10
-61.96941637120904
 20
13.13207210725704
 11
-60.98363727850949
 21
13.13207210725704
 72
     1
 10
-60.98363727850949
 20
13.13207210725704
 11
-60.98363727850949
 21
15.65588163106787
 72
     1
 10
-60.98363727850949
 20
15.65588163106787
 11
-61.96941637120904
 21
15.65588163106787
 72
     1
 10
-61.96941637120904
 20
15.65588163106787
 11
-61.96941637120904
 21
14.57424897800576
 72
     1
 10
-61.96941637120904
 20
14.57424897800576
 11
-62.99462662761641
 21
15.65588163106787
 97
       10
330
12F
330
130
330
131
330
15D
330
132
330
133
330
15C
330
15F
330
15E
330
12E
 75
     1
 76
     0
 52
45.0
 41
0.1
 77
     0
 78
     1
 53
45.0
 43
0.0
 44
0.0
 45
-0.0707106781186548
 46
0.0707106781186548
 79
     0
 98
        1
 10
0.0
 20
0.0
  0
HATCH
  5
30F
330
74
100
AcDbEntity
  8
1
  6
Continuous
 62
     2
100
AcDbHatch
 10
0.0
 20
0.0
 30
0.0
210
0.0
220
0.0
230
1.0
  2
_USER
 70
     0
 71
     1
 91
        1
 92
        1
 93
       12
 72
     1
 10
-63.8225563292159
 20
18.43207210724502
 11
-63.8225563292159
 21
15.90826258343419
 72
     1
 10
-63.8225563292159
 20
15.90826258343419
 11
-64.80833542191544
 21
15.90826258343419
 72
     1
 10
-64.80833542191544
 20
15.90826258343419
 11
-64.80833542191544
 21
16.84567754942075
 72
     1
 10
-64.80833542191544
 20
16.84567754942075
 11
-65.67582102349184
 21
16.84567754942075
 72
     1
 10
-65.67582102349184
 20
16.84567754942075
 11
-65.67582102349184
 21
15.90826258343419
 72
     1
 10
-65.67582102349184
 20
15.90826258343419
 11
-66.6616001161915
 21
15.90826258343419
 72
     1
 10
-66.6616001161915
 20
15.90826258343419
 11
-66.6616001161915
 21
18.43207210724502
 72
     1
 10
-66.6616001161915
 20
18.43207210724502
 11
-65.67582102349184
 21
18.43207210724502
 72
     1
 10
-65.67582102349184
 20
18.43207210724502
 11
-65.67582102349184
 21
17.54873877391066
 72
     1
 10
-65.67582102349184
 20
17.54873877391066
 11
-64.80833542191544
 21
17.54873877391066
 72
     1
 10
-64.80833542191544
 20
17.54873877391066
 11
-64.80833542191544
 21
18.43207210724502
 72
     1
 10
-64.80833542191544
 20
18.43207210724502
 11
-63.8225563292159
 21
18.43207210724502
 97
       12
330
157
330
156
330
155
330
13D
330
13E
330
154
330
13F
330
153
330
152
330
151
330
13B
330
13C
 75
     1
 76
     0
 52
45.0
 41
0.1
 77
     0
 78
     1
 53
45.0
 43
0.0
 44
0.0
 45
-0.0707106781186548
 46
0.0707106781186548
 79
     0
 98
        1
 10
0.0
 20
0.0
  0
HATCH
  5
310
330
74
100
AcDbEntity
  8
1
  6
Continuous
 62
     2
100
AcDbHatch
 10
0.0
 20
0.0
 30
0.0
210
0.0
220
0.0
230
1.0
  2
_USER
 70
     0
 71
     1
 91
        1
 92
        1
 93
       12
 72
     1
 10
-63.8225563292159
 20
18.43207210724502
 11
-63.8225563292159
 21
15.90826258343419
 72
     1
 10
-63.8225563292159
 20
15.90826258343419
 11
-64.80833542191544
 21
15.90826258343419
 72
     1
 10
-64.80833542191544
 20
15.90826258343419
 11
-64.80833542191544
 21
16.84567754942075
 72
     1
 10
-64.80833542191544
 20
16.84567754942075
 11
-65.67582102349184
 21
16.84567754942075
 72
     1
 10
-65.67582102349184
 20
16.84567754942075
 11
-65.67582102349184
 21
15.90826258343419
 72
     1
 10
-65.67582102349184
 20
15.90826258343419
 11
-66.6616001161915
 21
15.90826258343419
 72
     1
 10
-66.6616001161915
 20
15.90826258343419
 11
-66.6616001161915
 21
18.43207210724502
 72
     1
 10
-66.6616001161915
 20
18.43207210724502
 11
-65.67582102349184
 21
18.43207210724502
 72
     1
 10
-65.67582102349184
 20
18.43207210724502
 11
-65.67582102349184
 21
17.54873877391066
 72
     1
 10
-65.67582102349184
 20
17.54873877391066
 11
-64.80833542191544
 21
17.54873877391066
 72
     1
 10
-64.80833542191544
 20
17.54873877391066
 11
-64.80833542191544
 21
18.43207210724502
 72
     1
 10
-64.80833542191544
 20
18.43207210724502
 11
-63.8225563292159
 21
18.43207210724502
 97
       12
330
157
330
156
330
155
330
13D
330
13E
330
154
330
13F
330
153
330
152
330
151
330
13B
330
13C
 75
     1
 76
     0
 52
45.0
 41
0.1
 77
     0
 78
     1
 53
45.0
 43
0.0
 44
0.0
 45
-0.0707106781186548
 46
0.0707106781186548
 79
     0
 98
        1
 10
0.0
 20
0.0
  0
ENDBLK
  5
76
330
74
100
AcDbEntity
  8
0
100
AcDbBlockEnd
  0
BLOCK
  5
7A
330
77
100
AcDbEntity
  8
0
100
AcDbBlockBegin
  2
A4I
 70
     0
 10
47.9623302529381
 20
2.28207210725108
 30
0.0
  3
A4I
  1

  0
INSERT
  5
78
330
77
100
AcDbEntity
  8
1
100
AcDbBlockReference
  2
_punkt
 10
47.9623302529381
 20
7.28207210725119
 30
0.0
  0
INSERT
  5
79
330
77
100
AcDbEntity
  8
1
100
AcDbBlockReference
  2
_rahmen
 10
47.9623302529381
 20
2.28207210725108
 30
0.0
  0
ENDBLK
  5
7B
330
77
100
AcDbEntity
  8
0
100
AcDbBlockEnd
  0
BLOCK
  5
E2
330
DB
100
AcDbEntity
  8
0
100
AcDbBlockBegin
  2
*D16
 70
     1
 10
0.0
 20
0.0
 30
0.0
  3
*D16
  1

  0
LINE
  5
DC
330
DB
100
AcDbEntity
  8
1
  6
Continuous
 62
     2
100
AcDbLine
 10
-40.95991579474247
 20
62.24999999999
 30
0.0
 11
-27.45991579474247
 21
62.24999999999
 31
0.0
  0
LINE
  5
DD
330
DB
100
AcDbEntity
  8
1
  6
Continuous
 62
     2
100
AcDbLine
 10
-40.95991579474247
 20
73.99999999999
 30
0.0
 11
-40.95991579474247
 21
61.24999999999
 31
0.0
  0
LINE
  5
DE
330
DB
100
AcDbEntity
  8
1
  6
Continuous
 62
     2
100
AcDbLine
 10
-27.45991579474247
 20
73.99999999999
 30
0.0
 11
-27.45991579474247
 21
61.24999999999
 31
0.0
  0
SOLID
  5
DF
330
DB
100
AcDbEntity
  8
1
 62
     2
100
AcDbTrace
 10
-39.20991579474247
 20
62.48039187076795
 30
0.0
 11
-39.20991579474247
 21
62.01960812921206
 31
0.0
 12
-40.95991579474247
 22
62.24999999999
 32
0.0
 13
-40.95991579474247
 23
62.24999999999
 33
0.0
  0
SOLID
  5
E0
330
DB
100
AcDbEntity
  8
1
 62
     2
100
AcDbTrace
 10
-29.20991579474247
 20
62.01960812921206
 30
0.0
 11
-29.20991579474247
 21
62.48039187076795
 31
0.0
 12
-27.45991579474247
 22
62.24999999999
 32
0.0
 13
-27.45991579474247
 23
62.24999999999
 33
0.0
  0
MTEXT
  5
E1
330
DB
100
AcDbEntity
  8
1
 62
     3
100
AcDbMText
 10
-36.82616579473827
 20
63.42499652145184
 30
0.0
 40
1.75
 41
0.0
 71
     7
 72
     1
  1
\C3;\U+00f8\C3;13,5
  7
CONVERTER_11
 11
0.9999999999970619
 21
2.424068405545306E-6
 31
0.0
 73
     1
 44
0.60024009603842
  0
ENDBLK
  5
E3
330
DB
100
AcDbEntity
  8
0
100
AcDbBlockEnd
  0
BLOCK
  5
10E
330
107
100
AcDbEntity
  8
0
100
AcDbBlockBegin
  2
*D17
 70
     1
 10
0.0
 20
0.0
 30
0.0
  3
*D17
  1

  0
LINE
  5
108
330
107
100
AcDbEntity
  8
1
  6
Continuous
 62
     2
100
AcDbLine
 10
-63.90349014385381
 20
62.24999999999002
 30
0.0
 11
-50.93686059675805
 21
62.24999999999002
 31
0.0
  0
LINE
  5
109
330
107
100
AcDbEntity
  8
1
  6
Continuous
 62
     2
100
AcDbLine
 10
-63.90349014385381
 20
73.99999999999002
 30
0.0
 11
-63.90349014385381
 21
61.24999999999002
 31
0.0
  0
LINE
  5
10A
330
107
100
AcDbEntity
  8
1
  6
Continuous
 62
     2
100
AcDbLine
 10
-50.93686059675805
 20
68.61499999999003
 30
0.0
 11
-50.93686059675805
 21
61.24999999999002
 31
0.0
  0
SOLID
  5
10B
330
107
100
AcDbEntity
  8
1
 62
     2
100
AcDbTrace
 10
-62.15349014385381
 20
62.48039187076797
 30
0.0
 11
-62.15349014385381
 21
62.01960812921208
 31
0.0
 12
-63.90349014385381
 22
62.24999999999002
 32
0.0
 13
-63.90349014385381
 23
62.24999999999002
 33
0.0
  0
SOLID
  5
10C
330
107
100
AcDbEntity
  8
1
 62
     2
100
AcDbTrace
 10
-52.68686059675805
 20
62.01960812921208
 30
0.0
 11
-52.68686059675805
 21
62.48039187076797
 31
0.0
 12
-50.93686059675805
 22
62.24999999999002
 32
0.0
 13
-50.93686059675805
 23
62.24999999999002
 33
0.0
  0
MTEXT
  5
10D
330
107
100
AcDbEntity
  8
1
 62
     3
100
AcDbMText
 10
-58.47017537030592
 20
63.24999999999002
 30
0.0
 40
1.75
 41
0.0
 71
     7
 72
     1
  1
13
  7
CONVERTER_11
 11
0.9999999999970619
 21
2.424068405545306E-6
 31
0.0
 73
     1
 44
0.60024009603842
  0
ENDBLK
  5
10F
330
107
100
AcDbEntity
  8
0
100
AcDbBlockEnd
  0
ENDSEC
  0
SECTION
  2
ENTITIES
  0
INSERT
  5
7C
330
1F
100
AcDbEntity
  8
0
100
AcDbBlockReference
  2
Allg1
 10
-0.99999999995586
 20
73.99999999997794
 30
0.0
 41
2.0
 42
2.0
 43
2.0
  0
INSERT
  5
7D
330
1F
100
AcDbEntity
  8
0
100
AcDbBlockReference
  2
Drfsicht1
 10
-114.8396611789702
 20
91.04611220072913
 30
0.0
 41
2.0
 42
2.0
 43
2.0
  0
INSERT
  5
7E
330
1F
100
AcDbEntity
  8
0
100
AcDbBlockReference
  2
Rckans1
 10
-21.99999999987494
 20
147.999999999975
 30
0.0
 41
2.0
 42
2.0
 43
2.0
  0
INSERT
  5
7F
330
1F
100
AcDbEntity
  8
0
100
AcDbBlockReference
  2
SA_Links1
 10
-68.41983158948494
 20
147.99999999999
 30
0.0
 41
2.0
 42
2.0
 43
2.0
  0
INSERT
  5
80
330
1F
100
AcDbEntity
  8
0
100
AcDbBlockReference
  2
SA_Rechts1
 10
-161.2594925719103
 20
147.9999999999901
 30
0.0
 41
2.0
 42
2.0
 43
2.0
  0
INSERT
  5
81
330
1F
100
AcDbEntity
  8
0
100
AcDbBlockReference
  2
Vordans1
 10
-114.8396599999999
 20
147.9999999999901
 30
0.0
 41
2.0
 42
2.0
 43
2.0
  0
INSERT
  5
82
330
1F
100
AcDbEntity
  8
0
100
AcDbBlockReference
  2
A4I
 10
47.9623302529381
 20
2.28207210725108
 30
0.0
  0
ENDSEC
  0
SECTION
  2
OBJECTS
  0
DICTIONARY
  5
C
330
0
100
AcDbDictionary
281
     1
  3
ACAD_GROUP
350
D
  3
ACAD_LAYOUT
350
1A
  3
ACAD_MATERIAL
350
3B
  3
ACAD_MLEADERSTYLE
350
313
  3
ACAD_MLINESTYLE
350
17
  3
ACAD_PLOTSETTINGS
350
19
  3
ACAD_PLOTSTYLENAME
350
E
  3
ACAD_VISUALSTYLE
350
2A
  3
AcDbVariableDictionary
350
311
  0
DICTIONARY
  5
D
102
{ACAD_REACTORS
330
C
102
}
330
C
100
AcDbDictionary
281
     1
  0
DICTIONARY
  5
1A
102
{ACAD_REACTORS
330
C
102
}
330
C
100
AcDbDictionary
281
     1
  3
Layout1
350
1E
  3
Layout2
350
26
  3
Model
350
22
  0
DICTIONARY
  5
3B
102
{ACAD_REACTORS
330
C
102
}
330
C
100
AcDbDictionary
281
     1
  3
ByBlock
350
3D
  3
ByLayer
350
3C
  3
Global
350
3E
  0
DICTIONARY
  5
313
102
{ACAD_REACTORS
330
C
102
}
330
C
100
AcDbDictionary
281
     1
  0
DICTIONARY
  5
17
102
{ACAD_REACTORS
330
C
102
}
330
C
100
AcDbDictionary
281
     1
  3
Standard
350
18
  0
DICTIONARY
  5
19
102
{ACAD_REACTORS
330
C
102
}
330
C
100
AcDbDictionary
281
     1
  0
ACDBDICTIONARYWDFLT
  5
E
102
{ACAD_REACTORS
330
C
102
}
330
C
100
AcDbDictionary
281
     1
  3
Normal
350
F
100
AcDbDictionaryWithDefault
340
F
  0
DICTIONARY
  5
2A
102
{ACAD_REACTORS
330
C
102
}
330
C
100
AcDbDictionary
281
     1
  3
2dWireframe
350
2F
  3
3D Hidden
350
31
  3
3dWireframe
350
30
  3
Basic
350
32
  3
Brighten
350
36
  3
ColorChange
350
3A
  3
Conceptual
350
34
  3
Dim
350
35
  3
Facepattern
350
39
  3
Flat
350
2B
  3
FlatWithEdges
350
2C
  3
Gouraud
350
2D
  3
GouraudWithEdges
350
2E
  3
Linepattern
350
38
  3
Realistic
350
33
  3
Thicken
350
37
  0
DICTIONARY
  5
311
102
{ACAD_REACTORS
330
C
102
}
330
C
100
AcDbDictionary
281
     1
  3
DIMASSOC
350
314
  3
HIDETEXT
350
315
  0
LAYOUT
  5
1E
102
{ACAD_REACTORS
330
1A
102
}
330
1A
100
AcDbPlotSettings
  1

  2
none_device
  4

  6

 40
0.0
 41
0.0
 42
0.0
 43
0.0
 44
0.0
 45
0.0
 46
0.0
 47
0.0
 48
0.0
 49
0.0
140
0.0
141
0.0
142
1.0
143
1.0
 70
   688
 72
     0
 73
     0
 74
     5
  7

 75
    16
147
1.0
148
0.0
149
0.0
100
AcDbLayout
  1
Layout1
 70
     1
 71
     1
 10
0.0
 20
0.0
 11
12.0
 21
9.0
 12
0.0
 22
0.0
 32
0.0
 14
1.00000000000000E+20
 24
1.00000000000000E+20
 34
1.00000000000000E+20
 15
-1.00000000000000E+20
 25
-1.00000000000000E+20
 35
-1.00000000000000E+20
146
0.0
 13
0.0
 23
0.0
 33
0.0
 16
1.0
 26
0.0
 36
0.0
 17
0.0
 27
1.0
 37
0.0
 76
     0
330
1B
  0
LAYOUT
  5
26
102
{ACAD_REACTORS
330
1A
102
}
330
1A
100
AcDbPlotSettings
  1

  2
none_device
  4

  6

 40
0.0
 41
0.0
 42
0.0
 43
0.0
 44
0.0
 45
0.0
 46
0.0
 47
0.0
 48
0.0
 49
0.0
140
0.0
141
0.0
142
1.0
143
1.0
 70
   688
 72
     0
 73
     0
 74
     5
  7

 75
    16
147
1.0
148
0.0
149
0.0
100
AcDbLayout
  1
Layout2
 70
     1
 71
     2
 10
0.0
 20
0.0
 11
0.0
 21
0.0
 12
0.0
 22
0.0
 32
0.0
 14
0.0
 24
0.0
 34
0.0
 15
0.0
 25
0.0
 35
0.0
146
0.0
 13
0.0
 23
0.0
 33
0.0
 16
1.0
 26
0.0
 36
0.0
 17
0.0
 27
1.0
 37
0.0
 76
     0
330
23
  0
LAYOUT
  5
22
102
{ACAD_REACTORS
330
1A
102
}
330
1A
100
AcDbPlotSettings
  1

  2
none_device
  4

  6

 40
0.0
 41
0.0
 42
0.0
 43
0.0
 44
0.0
 45
0.0
 46
0.0
 47
0.0
 48
0.0
 49
0.0
140
0.0
141
0.0
142
1.0
143
1.0
 70
  1712
 72
     0
 73
     0
 74
     0
  7

 75
     0
147
1.0
148
0.0
149
0.0
100
AcDbLayout
  1
Model
 70
     1
 71
     0
 10
0.0
 20
0.0
 11
12.0
 21
9.0
 12
0.0
 22
0.0
 32
0.0
 14
-244.037669747061
 24
2.28207210725108
 34
0.0
 15
52.96233025293711
 25
212.2820721072511
 35
0.0
146
0.0
 13
0.0
 23
0.0
 33
0.0
 16
1.0
 26
0.0
 36
0.0
 17
0.0
 27
1.0
 37
0.0
 76
     0
330
1F
331
29
  0
MATERIAL
  5
3D
102
{ACAD_REACTORS
330
3B
102
}
102
{ACAD_XDICTIONARY
360
338
102
}
330
3B
100
AcDbMaterial
  1
ByBlock
  0
MATERIAL
  5
3C
102
{ACAD_REACTORS
330
3B
102
}
102
{ACAD_XDICTIONARY
360
336
102
}
330
3B
100
AcDbMaterial
  1
ByLayer
  0
MATERIAL
  5
3E
102
{ACAD_REACTORS
330
3B
102
}
102
{ACAD_XDICTIONARY
360
33A
102
}
330
3B
100
AcDbMaterial
  1
Global
  0
MLINESTYLE
  5
18
102
{ACAD_REACTORS
330
17
102
}
330
17
100
AcDbMlineStyle
  2
Standard
 70
     0
  3

 62
   256
 51
90.0
 52
90.0
 71
     2
 49
0.5
 62
   256
  6
BYLAYER
 49
-0.5
 62
   256
  6
BYLAYER
  0
ACDBPLACEHOLDER
  5
F
102
{ACAD_REACTORS
330
E
102
}
330
E
  0
VISUALSTYLE
  5
2F
102
{ACAD_REACTORS
330
2A
102
}
102
{ACAD_XDICTIONARY
360
31E
102
}
330
2A
100
AcDbVisualStyle
  2
2dWireframe
 70
     4
 71
     0
 72
     2
 73
     0
 90
        0
 40
-0.6
 41
-30.0
 62
     5
 63
     7
 74
     1
 91
        4
 64
     7
 65
   257
 75
     1
175
     1
 42
1.0
 92
        0
 66
   257
 43
1.0
 76
     1
 77
     6
 78
     2
 67
     7
 79
     5
170
     0
171
     0
290
     0
174
     0
 93
        1
 44
0.0
173
     0
291
     0
 45
0.0
1001
ACAD
1000
AcDbSavedByObjectVersion
1070
     0
  0
VISUALSTYLE
  5
31
102
{ACAD_REACTORS
330
2A
102
}
102
{ACAD_XDICTIONARY
360
322
102
}
330
2A
100
AcDbVisualStyle
  2
3D Hidden
 70
     6
 71
     1
 72
     2
 73
     2
 90
        0
 40
-0.6
 41
-30.0
 62
     5
 63
     7
 74
     2
 91
        2
 64
     7
 65
   257
 75
     2
175
     1
 42
40.0
 92
        0
 66
   257
 43
1.0
 76
     1
 77
     6
 78
     2
 67
     7
 79
     3
170
     0
171
     0
290
     0
174
     0
 93
        1
 44
0.0
173
     0
291
     0
 45
0.0
1001
ACAD
1000
AcDbSavedByObjectVersion
1070
     0
  0
VISUALSTYLE
  5
30
102
{ACAD_REACTORS
330
2A
102
}
102
{ACAD_XDICTIONARY
360
320
102
}
330
2A
100
AcDbVisualStyle
  2
3dWireframe
 70
     5
 71
     0
 72
     2
 73
     0
 90
        0
 40
-0.6
 41
-30.0
 62
     5
 63
     7
 74
     1
 91
        4
 64
     7
 65
   257
 75
     1
175
     1
 42
1.0
 92
        0
 66
   257
 43
1.0
 76
     1
 77
     6
 78
     2
 67
     7
 79
     5
170
     0
171
     0
290
     0
174
     0
 93
        1
 44
0.0
173
     0
291
     0
 45
0.0
1001
ACAD
1000
AcDbSavedByObjectVersion
1070
     0
  0
VISUALSTYLE
  5
32
102
{ACAD_REACTORS
330
2A
102
}
102
{ACAD_XDICTIONARY
360
324
102
}
330
2A
100
AcDbVisualStyle
  2
Basic
 70
     7
 71
     1
 72
     0
 73
     1
 90
        0
 40
-0.6
 41
-30.0
 62
     5
 63
     7
 74
     0
 91
        4
 64
     7
 65
   257
 75
     1
175
     1
 42
1.0
 92
        8
 66
     7
 43
1.0
 76
     1
 77
     6
 78
     2
 67
     7
 79
     5
170
     0
171
     0
290
     0
174
     0
 93
        1
 44
0.0
173
     0
291
     1
 45
0.0
1001
ACAD
1000
AcDbSavedByObjectVersion
1070
     0
  0
VISUALSTYLE
  5
36
102
{ACAD_REACTORS
330
2A
102
}
102
{ACAD_XDICTIONARY
360
32C
102
}
330
2A
100
AcDbVisualStyle
  2
Brighten
 70
    12
 71
     2
 72
     2
 73
     0
 90
        0
 40
-0.6
 41
-30.0
 62
     5
 63
     7
 74
     1
 91
        4
 64
     7
 65
   257
 75
     1
175
     1
 42
1.0
 92
        8
 66
     7
 43
1.0
 76
     1
 77
     6
 78
     2
 67
     7
 79
     5
170
     0
171
     0
290
     0
174
     0
 93
        1
 44
50.0
173
     0
291
     1
 45
0.0
1001
ACAD
1000
AcDbSavedByObjectVersion
1070
     0
  0
VISUALSTYLE
  5
3A
102
{ACAD_REACTORS
330
2A
102
}
102
{ACAD_XDICTIONARY
360
334
102
}
330
2A
100
AcDbVisualStyle
  2
ColorChange
 70
    16
 71
     2
 72
     2
 73
     3
 90
        0
 40
-0.6
 41
-30.0
 62
     5
 63
     8
 74
     1
 91
        4
 64
     7
 65
   257
 75
     1
175
     1
 42
1.0
 92
        8
 66
     8
 43
1.0
 76
     1
 77
     6
 78
     2
 67
     7
 79
     5
170
     0
171
     0
290
     0
174
     0
 93
        1
 44
0.0
173
     0
291
     1
 45
0.0
1001
ACAD
1000
AcDbSavedByObjectVersion
1070
     0
  0
VISUALSTYLE
  5
34
102
{ACAD_REACTORS
330
2A
102
}
102
{ACAD_XDICTIONARY
360
328
102
}
330
2A
100
AcDbVisualStyle
  2
Conceptual
 70
     9
 71
     3
 72
     2
 73
     0
 90
        0
 40
-0.6
 41
-30.0
 62
     5
 63
     7
 74
     2
 91
        2
 64
     7
 65
   257
 75
     1
175
     1
 42
40.0
 92
        8
 66
     7
 43
1.0
 76
     1
 77
     6
 78
     2
 67
     7
 79
     3
170
     0
171
     0
290
     0
174
     0
 93
        1
 44
0.0
173
     0
291
     0
 45
0.0
1001
ACAD
1000
AcDbSavedByObjectVersion
1070
     0
  0
VISUALSTYLE
  5
35
102
{ACAD_REACTORS
330
2A
102
}
102
{ACAD_XDICTIONARY
360
32A
102
}
330
2A
100
AcDbVisualStyle
  2
Dim
 70
    11
 71
     2
 72
     2
 73
     0
 90
        0
 40
-0.6
 41
-30.0
 62
     5
 63
     7
 74
     1
 91
        4
 64
     7
 65
   257
 75
     1
175
     1
 42
1.0
 92
        8
 66
     7
 43
1.0
 76
     1
 77
     6
 78
     2
 67
     7
 79
     5
170
     0
171
     0
290
     0
174
     0
 93
        1
 44
-50.0
173
     0
291
     1
 45
0.0
1001
ACAD
1000
AcDbSavedByObjectVersion
1070
     0
  0
VISUALSTYLE
  5
39
102
{ACAD_REACTORS
330
2A
102
}
102
{ACAD_XDICTIONARY
360
332
102
}
330
2A
100
AcDbVisualStyle
  2
Facepattern
 70
    15
 71
     2
 72
     2
 73
     0
 90
        0
 40
-0.6
 41
-30.0
 62
     5
 63
     7
 74
     1
 91
        4
 64
     7
 65
   257
 75
     1
175
     1
 42
1.0
 92
        8
 66
     7
 43
1.0
 76
     1
 77
     6
 78
     2
 67
     7
 79
     5
170
     0
171
     0
290
     0
174
     0
 93
        1
 44
0.0
173
     0
291
     1
 45
0.0
1001
ACAD
1000
AcDbSavedByObjectVersion
1070
     0
  0
VISUALSTYLE
  5
2B
102
{ACAD_REACTORS
330
2A
102
}
102
{ACAD_XDICTIONARY
360
316
102
}
330
2A
100
AcDbVisualStyle
  2
Flat
 70
     0
 71
     2
 72
     1
 73
     1
 90
        2
 40
-0.6
 41
30.0
 62
     5
 63
     7
 74
     0
 91
        4
 64
     7
 65
   257
 75
     1
175
     1
 42
1.0
 92
        8
 66
     7
 43
1.0
 76
     1
 77
     6
 78
     2
 67
     7
 79
     5
170
     0
171
     0
290
     0
174
     0
 93
       13
 44
0.0
173
     0
291
     1
 45
0.0
1001
ACAD
1000
AcDbSavedByObjectVersion
1070
     0
  0
VISUALSTYLE
  5
2C
102
{ACAD_REACTORS
330
2A
102
}
102
{ACAD_XDICTIONARY
360
318
102
}
330
2A
100
AcDbVisualStyle
  2
FlatWithEdges
 70
     1
 71
     2
 72
     1
 73
     1
 90
        2
 40
-0.6
 41
30.0
 62
     5
 63
     7
 74
     1
 91
        4
 64
     7
 65
   257
 75
     1
175
     1
 42
1.0
 92
        0
 66
   257
 43
1.0
 76
     1
 77
     6
 78
     2
 67
     7
 79
     5
170
     0
171
     0
290
     0
174
     0
 93
       13
 44
0.0
173
     0
291
     1
 45
0.0
1001
ACAD
1000
AcDbSavedByObjectVersion
1070
     0
  0
VISUALSTYLE
  5
2D
102
{ACAD_REACTORS
330
2A
102
}
102
{ACAD_XDICTIONARY
360
31A
102
}
330
2A
100
AcDbVisualStyle
  2
Gouraud
 70
     2
 71
     2
 72
     2
 73
     1
 90
        2
 40
-0.6
 41
30.0
 62
     5
 63
     7
 74
     0
 91
        4
 64
     7
 65
   257
 75
     1
175
     1
 42
1.0
 92
        0
 66
     7
 43
1.0
 76
     1
 77
     6
 78
     2
 67
     7
 79
     5
170
     0
171
     0
290
     0
174
     0
 93
       13
 44
0.0
173
     0
291
     1
 45
0.0
1001
ACAD
1000
AcDbSavedByObjectVersion
1070
     0
  0
VISUALSTYLE
  5
2E
102
{ACAD_REACTORS
330
2A
102
}
102
{ACAD_XDICTIONARY
360
31C
102
}
330
2A
100
AcDbVisualStyle
  2
GouraudWithEdges
 70
     3
 71
     2
 72
     2
 73
     1
 90
        2
 40
-0.6
 41
30.0
 62
     5
 63
     7
 74
     1
 91
        4
 64
     7
 65
   257
 75
     1
175
     1
 42
1.0
 92
        0
 66
   257
 43
1.0
 76
     1
 77
     6
 78
     2
 67
     7
 79
     5
170
     0
171
     0
290
     0
174
     0
 93
       13
 44
0.0
173
     0
291
     1
 45
0.0
1001
ACAD
1000
AcDbSavedByObjectVersion
1070
     0
  0
VISUALSTYLE
  5
38
102
{ACAD_REACTORS
330
2A
102
}
102
{ACAD_XDICTIONARY
360
330
102
}
330
2A
100
AcDbVisualStyle
  2
Linepattern
 70
    14
 71
     2
 72
     2
 73
     0
 90
        0
 40
-0.6
 41
-30.0
 62
     5
 63
     7
 74
     1
 91
        4
 64
     7
 65
   257
 75
     7
175
     7
 42
1.0
 92
        8
 66
     7
 43
1.0
 76
     1
 77
     6
 78
     2
 67
     7
 79
     5
170
     0
171
     0
290
     0
174
     0
 93
        1
 44
0.0
173
     0
291
     1
 45
0.0
1001
ACAD
1000
AcDbSavedByObjectVersion
1070
     0
  0
VISUALSTYLE
  5
33
102
{ACAD_REACTORS
330
2A
102
}
102
{ACAD_XDICTIONARY
360
326
102
}
330
2A
100
AcDbVisualStyle
  2
Realistic
 70
     8
 71
     2
 72
     2
 73
     0
 90
        0
 40
-0.6
 41
-30.0
 62
     5
 63
     7
 74
     1
 91
        0
 64
     7
 65
   257
 75
     1
175
     1
 42
1.0
 92
        8
 66
     8
 43
1.0
 76
     1
 77
     6
 78
     2
 67
     7
 79
     5
170
     0
171
     0
290
     0
174
     0
 93
       13
 44
0.0
173
     0
291
     0
 45
0.0
1001
ACAD
1000
AcDbSavedByObjectVersion
1070
     0
  0
VISUALSTYLE
  5
37
102
{ACAD_REACTORS
330
2A
102
}
102
{ACAD_XDICTIONARY
360
32E
102
}
330
2A
100
AcDbVisualStyle
  2
Thicken
 70
    13
 71
     2
 72
     2
 73
     0
 90
        0
 40
-0.6
 41
-30.0
 62
     5
 63
     7
 74
     1
 91
        4
 64
     7
 65
   257
 75
     1
175
     1
 42
1.0
 92
       12
 66
     7
 43
1.0
 76
     1
 77
     6
 78
     2
 67
     7
 79
     5
170
     0
171
     0
290
     0
174
     0
 93
        1
 44
0.0
173
     0
291
     1
 45
0.0
1001
ACAD
1000
AcDbSavedByObjectVersion
1070
     0
  0
DICTIONARYVAR
  5
314
102
{ACAD_REACTORS
330
311
102
}
330
311
100
DictionaryVariables
280
     0
  1
2
  0
DICTIONARYVAR
  5
315
102
{ACAD_REACTORS
330
311
102
}
330
311
100
DictionaryVariables
280
     0
  1
1
  0
DICTIONARY
  5
338
330
3D
100
AcDbDictionary
280
     1
281
     1
  3
ACAD_XREC_ROUNDTRIP
360
339
  0
DICTIONARY
  5
336
330
3C
100
AcDbDictionary
280
     1
281
     1
  3
ACAD_XREC_ROUNDTRIP
360
337
  0
DICTIONARY
  5
33A
330
3E
100
AcDbDictionary
280
     1
281
     1
  3
ACAD_XREC_ROUNDTRIP
360
33B
  0
DICTIONARY
  5
31E
330
2F
100
AcDbDictionary
280
     1
281
     1
  3
ACAD_XREC_ROUNDTRIP
360
31F
  0
DICTIONARY
  5
322
330
31
100
AcDbDictionary
280
     1
281
     1
  3
ACAD_XREC_ROUNDTRIP
360
323
  0
DICTIONARY
  5
320
330
30
100
AcDbDictionary
280
     1
281
     1
  3
ACAD_XREC_ROUNDTRIP
360
321
  0
DICTIONARY
  5
324
330
32
100
AcDbDictionary
280
     1
281
     1
  3
ACAD_XREC_ROUNDTRIP
360
325
  0
DICTIONARY
  5
32C
330
36
100
AcDbDictionary
280
     1
281
     1
  3
ACAD_XREC_ROUNDTRIP
360
32D
  0
DICTIONARY
  5
334
330
3A
100
AcDbDictionary
280
     1
281
     1
  3
ACAD_XREC_ROUNDTRIP
360
335
  0
DICTIONARY
  5
328
330
34
100
AcDbDictionary
280
     1
281
     1
  3
ACAD_XREC_ROUNDTRIP
360
329
  0
DICTIONARY
  5
32A
330
35
100
AcDbDictionary
280
     1
281
     1
  3
ACAD_XREC_ROUNDTRIP
360
32B
  0
DICTIONARY
  5
332
330
39
100
AcDbDictionary
280
     1
281
     1
  3
ACAD_XREC_ROUNDTRIP
360
333
  0
DICTIONARY
  5
316
330
2B
100
AcDbDictionary
280
     1
281
     1
  3
ACAD_XREC_ROUNDTRIP
360
317
  0
DICTIONARY
  5
318
330
2C
100
AcDbDictionary
280
     1
281
     1
  3
ACAD_XREC_ROUNDTRIP
360
319
  0
DICTIONARY
  5
31A
330
2D
100
AcDbDictionary
280
     1
281
     1
  3
ACAD_XREC_ROUNDTRIP
360
31B
  0
DICTIONARY
  5
31C
330
2E
100
AcDbDictionary
280
     1
281
     1
  3
ACAD_XREC_ROUNDTRIP
360
31D
  0
DICTIONARY
  5
330
330
38
100
AcDbDictionary
280
     1
281
     1
  3
ACAD_XREC_ROUNDTRIP
360
331
  0
DICTIONARY
  5
326
330
33
100
AcDbDictionary
280
     1
281
     1
  3
ACAD_XREC_ROUNDTRIP
360
327
  0
DICTIONARY
  5
32E
330
37
100
AcDbDictionary
280
     1
281
     1
  3
ACAD_XREC_ROUNDTRIP
360
32F
  0
XRECORD
  5
339
102
{ACAD_REACTORS
330
338
102
}
330
338
100
AcDbXrecord
280
     1
102
MATERIAL
148
0.0
149
0.0
149
0.0
 93
        0
 94
      127
282
     0
 72
     1
 77
     1
171
     1
175
     1
179
     1
273
     0
  0
XRECORD
  5
337
102
{ACAD_REACTORS
330
336
102
}
330
336
100
AcDbXrecord
280
     1
102
MATERIAL
148
0.0
149
0.0
149
0.0
 93
        0
 94
      127
282
     0
 72
     1
 77
     1
171
     1
175
     1
179
     1
273
     0
  0
XRECORD
  5
33B
102
{ACAD_REACTORS
330
33A
102
}
330
33A
100
AcDbXrecord
280
     1
102
MATERIAL
148
0.0
149
0.0
149
0.0
 93
        0
 94
      127
282
     0
 72
     1
 77
     1
171
     1
175
     1
179
     1
273
     0
  0
XRECORD
  5
31F
102
{ACAD_REACTORS
330
31E
102
}
330
31E
100
AcDbXrecord
280
     1
102
RTVSPropertyOp0
 70
     1
102
RTVSPropertyOp1
 70
     1
102
RTVSPropertyOp2
 70
     1
102
RTVSPropertyOp3
 70
     1
102
RTVSPropertyOp4
 70
     1
102
RTVSPropertyOp5
 70
     1
102
RTVSPropertyOp6
 70
     1
102
RTVSPropertyOp7
 70
     1
102
RTVSPropertyOp8
 70
     1
102
RTVSPropertyOp9
 70
     1
102
RTVSPropertyOp10
 70
     1
102
RTVSPropertyOp11
 70
     1
102
RTVSPropertyOp12
 70
     1
102
RTVSPropertyOp13
 70
     1
102
RTVSPropertyOp14
 70
     1
102
RTVSPropertyOp15
 70
     1
102
RTVSPropertyOp16
 70
     1
102
RTVSPropertyOp17
 70
     1
102
RTVSPropertyOp18
 70
     1
102
RTVSPropertyOp19
 70
     1
102
RTVSPropertyOp20
 70
     1
102
RTVSPropertyOp21
 70
     1
102
RTVSPropertyOp22
 70
     1
102
RTVSPropertyOp23
 70
     1
102
RTVSPropertyOp24
 70
     1
102
RTVSPropertyOp25
 70
     1
102
RTVSPropertyOp26
 70
     1
102
RTVSPropertyOp27
 70
     1
102
RTVSPropertyOp28
 70
     1
102
RTVSPropertyOp29
 70
     1
102
RTVSPropertyOp30
 70
     1
102
RTVSPropertyOp31
 70
     1
102
RTVSPropertyOp32
 70
     1
  0
XRECORD
  5
323
102
{ACAD_REACTORS
330
322
102
}
330
322
100
AcDbXrecord
280
     1
102
RTVSPropertyOp0
 70
     1
102
RTVSPropertyOp1
 70
     1
102
RTVSPropertyOp2
 70
     1
102
RTVSPropertyOp3
 70
     1
102
RTVSPropertyOp4
 70
     1
102
RTVSPropertyOp5
 70
     1
102
RTVSPropertyOp6
 70
     1
102
RTVSPropertyOp7
 70
     1
102
RTVSPropertyOp8
 70
     1
102
RTVSPropertyOp9
 70
     1
102
RTVSPropertyOp10
 70
     1
102
RTVSPropertyOp11
 70
     1
102
RTVSPropertyOp12
 70
     1
102
RTVSPropertyOp13
 70
     1
102
RTVSPropertyOp14
 70
     1
102
RTVSPropertyOp15
 70
     1
102
RTVSPropertyOp16
 70
     1
102
RTVSPropertyOp17
 70
     1
102
RTVSPropertyOp18
 70
     1
102
RTVSPropertyOp19
 70
     1
102
RTVSPropertyOp20
 70
     1
102
RTVSPropertyOp21
 70
     1
102
RTVSPropertyOp22
 70
     1
102
RTVSPropertyOp23
 70
     1
102
RTVSPropertyOp24
 70
     1
102
RTVSPropertyOp25
 70
     1
102
RTVSPropertyOp26
 70
     1
102
RTVSPropertyOp27
 70
     1
102
RTVSPropertyOp28
 70
     1
102
RTVSPropertyOp29
 70
     1
102
RTVSPropertyOp30
 70
     1
102
RTVSPropertyOp31
 70
     1
102
RTVSPropertyOp32
 70
     1
  0
XRECORD
  5
321
102
{ACAD_REACTORS
330
320
102
}
330
320
100
AcDbXrecord
280
     1
102
RTVSPropertyOp0
 70
     1
102
RTVSPropertyOp1
 70
     1
102
RTVSPropertyOp2
 70
     1
102
RTVSPropertyOp3
 70
     1
102
RTVSPropertyOp4
 70
     1
102
RTVSPropertyOp5
 70
     1
102
RTVSPropertyOp6
 70
     1
102
RTVSPropertyOp7
 70
     1
102
RTVSPropertyOp8
 70
     1
102
RTVSPropertyOp9
 70
     1
102
RTVSPropertyOp10
 70
     1
102
RTVSPropertyOp11
 70
     1
102
RTVSPropertyOp12
 70
     1
102
RTVSPropertyOp13
 70
     1
102
RTVSPropertyOp14
 70
     1
102
RTVSPropertyOp15
 70
     1
102
RTVSPropertyOp16
 70
     1
102
RTVSPropertyOp17
 70
     1
102
RTVSPropertyOp18
 70
     1
102
RTVSPropertyOp19
 70
     1
102
RTVSPropertyOp20
 70
     1
102
RTVSPropertyOp21
 70
     1
102
RTVSPropertyOp22
 70
     1
102
RTVSPropertyOp23
 70
     1
102
RTVSPropertyOp24
 70
     1
102
RTVSPropertyOp25
 70
     1
102
RTVSPropertyOp26
 70
     1
102
RTVSPropertyOp27
 70
     1
102
RTVSPropertyOp28
 70
     1
102
RTVSPropertyOp29
 70
     1
102
RTVSPropertyOp30
 70
     1
102
RTVSPropertyOp31
 70
     1
102
RTVSPropertyOp32
 70
     1
  0
XRECORD
  5
325
102
{ACAD_REACTORS
330
324
102
}
330
324
100
AcDbXrecord
280
     1
102
RTVSPropertyOp0
 70
     1
102
RTVSPropertyOp1
 70
     1
102
RTVSPropertyOp2
 70
     1
102
RTVSPropertyOp3
 70
     1
102
RTVSPropertyOp4
 70
     1
102
RTVSPropertyOp5
 70
     1
102
RTVSPropertyOp6
 70
     1
102
RTVSPropertyOp7
 70
     1
102
RTVSPropertyOp8
 70
     1
102
RTVSPropertyOp9
 70
     1
102
RTVSPropertyOp10
 70
     1
102
RTVSPropertyOp11
 70
     1
102
RTVSPropertyOp12
 70
     1
102
RTVSPropertyOp13
 70
     1
102
RTVSPropertyOp14
 70
     1
102
RTVSPropertyOp15
 70
     1
102
RTVSPropertyOp16
 70
     1
102
RTVSPropertyOp17
 70
     1
102
RTVSPropertyOp18
 70
     1
102
RTVSPropertyOp19
 70
     1
102
RTVSPropertyOp20
 70
     1
102
RTVSPropertyOp21
 70
     1
102
RTVSPropertyOp22
 70
     1
102
RTVSPropertyOp23
 70
     1
102
RTVSPropertyOp24
 70
     1
102
RTVSPropertyOp25
 70
     1
102
RTVSPropertyOp26
 70
     1
102
RTVSPropertyOp27
 70
     1
102
RTVSPropertyOp28
 70
     1
102
RTVSPropertyOp29
 70
     1
102
RTVSPropertyOp30
 70
     1
102
RTVSPropertyOp31
 70
     1
102
RTVSPropertyOp32
 70
     1
  0
XRECORD
  5
32D
102
{ACAD_REACTORS
330
32C
102
}
330
32C
100
AcDbXrecord
280
     1
102
RTVSPropertyOp0
 70
     1
102
RTVSPropertyOp1
 70
     1
102
RTVSPropertyOp2
 70
     1
102
RTVSPropertyOp3
 70
     1
102
RTVSPropertyOp4
 70
     1
102
RTVSPropertyOp5
 70
     1
102
RTVSPropertyOp6
 70
     1
102
RTVSPropertyOp7
 70
     1
102
RTVSPropertyOp8
 70
     1
102
RTVSPropertyOp9
 70
     1
102
RTVSPropertyOp10
 70
     1
102
RTVSPropertyOp11
 70
     1
102
RTVSPropertyOp12
 70
     1
102
RTVSPropertyOp13
 70
     1
102
RTVSPropertyOp14
 70
     1
102
RTVSPropertyOp15
 70
     1
102
RTVSPropertyOp16
 70
     1
102
RTVSPropertyOp17
 70
     1
102
RTVSPropertyOp18
 70
     1
102
RTVSPropertyOp19
 70
     1
102
RTVSPropertyOp20
 70
     1
102
RTVSPropertyOp21
 70
     1
102
RTVSPropertyOp22
 70
     1
102
RTVSPropertyOp23
 70
     1
102
RTVSPropertyOp24
 70
     1
102
RTVSPropertyOp25
 70
     1
102
RTVSPropertyOp26
 70
     1
102
RTVSPropertyOp27
 70
     1
102
RTVSPropertyOp28
 70
     1
102
RTVSPropertyOp29
 70
     1
102
RTVSPropertyOp30
 70
     1
102
RTVSPropertyOp31
 70
     1
102
RTVSPropertyOp32
 70
     1
  0
XRECORD
  5
335
102
{ACAD_REACTORS
330
334
102
}
330
334
100
AcDbXrecord
280
     1
102
RTVSPropertyOp0
 70
     1
102
RTVSPropertyOp1
 70
     1
102
RTVSPropertyOp2
 70
     1
102
RTVSPropertyOp3
 70
     1
102
RTVSPropertyOp4
 70
     1
102
RTVSPropertyOp5
 70
     1
102
RTVSPropertyOp6
 70
     1
102
RTVSPropertyOp7
 70
     1
102
RTVSPropertyOp8
 70
     1
102
RTVSPropertyOp9
 70
     1
102
RTVSPropertyOp10
 70
     1
102
RTVSPropertyOp11
 70
     1
102
RTVSPropertyOp12
 70
     1
102
RTVSPropertyOp13
 70
     1
102
RTVSPropertyOp14
 70
     1
102
RTVSPropertyOp15
 70
     1
102
RTVSPropertyOp16
 70
     1
102
RTVSPropertyOp17
 70
     1
102
RTVSPropertyOp18
 70
     1
102
RTVSPropertyOp19
 70
     1
102
RTVSPropertyOp20
 70
     1
102
RTVSPropertyOp21
 70
     1
102
RTVSPropertyOp22
 70
     1
102
RTVSPropertyOp23
 70
     1
102
RTVSPropertyOp24
 70
     1
102
RTVSPropertyOp25
 70
     1
102
RTVSPropertyOp26
 70
     1
102
RTVSPropertyOp27
 70
     1
102
RTVSPropertyOp28
 70
     1
102
RTVSPropertyOp29
 70
     1
102
RTVSPropertyOp30
 70
     1
102
RTVSPropertyOp31
 70
     1
102
RTVSPropertyOp32
 70
     1
  0
XRECORD
  5
329
102
{ACAD_REACTORS
330
328
102
}
330
328
100
AcDbXrecord
280
     1
102
RTVSPropertyOp0
 70
     1
102
RTVSPropertyOp1
 70
     1
102
RTVSPropertyOp2
 70
     1
102
RTVSPropertyOp3
 70
     1
102
RTVSPropertyOp4
 70
     1
102
RTVSPropertyOp5
 70
     1
102
RTVSPropertyOp6
 70
     1
102
RTVSPropertyOp7
 70
     1
102
RTVSPropertyOp8
 70
     1
102
RTVSPropertyOp9
 70
     1
102
RTVSPropertyOp10
 70
     1
102
RTVSPropertyOp11
 70
     1
102
RTVSPropertyOp12
 70
     1
102
RTVSPropertyOp13
 70
     1
102
RTVSPropertyOp14
 70
     1
102
RTVSPropertyOp15
 70
     1
102
RTVSPropertyOp16
 70
     1
102
RTVSPropertyOp17
 70
     1
102
RTVSPropertyOp18
 70
     1
102
RTVSPropertyOp19
 70
     1
102
RTVSPropertyOp20
 70
     1
102
RTVSPropertyOp21
 70
     1
102
RTVSPropertyOp22
 70
     1
102
RTVSPropertyOp23
 70
     1
102
RTVSPropertyOp24
 70
     1
102
RTVSPropertyOp25
 70
     1
102
RTVSPropertyOp26
 70
     1
102
RTVSPropertyOp27
 70
     1
102
RTVSPropertyOp28
 70
     1
102
RTVSPropertyOp29
 70
     1
102
RTVSPropertyOp30
 70
     1
102
RTVSPropertyOp31
 70
     1
102
RTVSPropertyOp32
 70
     1
  0
XRECORD
  5
32B
102
{ACAD_REACTORS
330
32A
102
}
330
32A
100
AcDbXrecord
280
     1
102
RTVSPropertyOp0
 70
     1
102
RTVSPropertyOp1
 70
     1
102
RTVSPropertyOp2
 70
     1
102
RTVSPropertyOp3
 70
     1
102
RTVSPropertyOp4
 70
     1
102
RTVSPropertyOp5
 70
     1
102
RTVSPropertyOp6
 70
     1
102
RTVSPropertyOp7
 70
     1
102
RTVSPropertyOp8
 70
     1
102
RTVSPropertyOp9
 70
     1
102
RTVSPropertyOp10
 70
     1
102
RTVSPropertyOp11
 70
     1
102
RTVSPropertyOp12
 70
     1
102
RTVSPropertyOp13
 70
     1
102
RTVSPropertyOp14
 70
     1
102
RTVSPropertyOp15
 70
     1
102
RTVSPropertyOp16
 70
     1
102
RTVSPropertyOp17
 70
     1
102
RTVSPropertyOp18
 70
     1
102
RTVSPropertyOp19
 70
     1
102
RTVSPropertyOp20
 70
     1
102
RTVSPropertyOp21
 70
     1
102
RTVSPropertyOp22
 70
     1
102
RTVSPropertyOp23
 70
     1
102
RTVSPropertyOp24
 70
     1
102
RTVSPropertyOp25
 70
     1
102
RTVSPropertyOp26
 70
     1
102
RTVSPropertyOp27
 70
     1
102
RTVSPropertyOp28
 70
     1
102
RTVSPropertyOp29
 70
     1
102
RTVSPropertyOp30
 70
     1
102
RTVSPropertyOp31
 70
     1
102
RTVSPropertyOp32
 70
     1
  0
XRECORD
  5
333
102
{ACAD_REACTORS
330
332
102
}
330
332
100
AcDbXrecord
280
     1
102
RTVSPropertyOp0
 70
     1
102
RTVSPropertyOp1
 70
     1
102
RTVSPropertyOp2
 70
     1
102
RTVSPropertyOp3
 70
     1
102
RTVSPropertyOp4
 70
     1
102
RTVSPropertyOp5
 70
     1
102
RTVSPropertyOp6
 70
     1
102
RTVSPropertyOp7
 70
     1
102
RTVSPropertyOp8
 70
     1
102
RTVSPropertyOp9
 70
     1
102
RTVSPropertyOp10
 70
     1
102
RTVSPropertyOp11
 70
     1
102
RTVSPropertyOp12
 70
     1
102
RTVSPropertyOp13
 70
     1
102
RTVSPropertyOp14
 70
     1
102
RTVSPropertyOp15
 70
     1
102
RTVSPropertyOp16
 70
     1
102
RTVSPropertyOp17
 70
     1
102
RTVSPropertyOp18
 70
     1
102
RTVSPropertyOp19
 70
     1
102
RTVSPropertyOp20
 70
     1
102
RTVSPropertyOp21
 70
     1
102
RTVSPropertyOp22
 70
     1
102
RTVSPropertyOp23
 70
     1
102
RTVSPropertyOp24
 70
     1
102
RTVSPropertyOp25
 70
     1
102
RTVSPropertyOp26
 70
     1
102
RTVSPropertyOp27
 70
     1
102
RTVSPropertyOp28
 70
     1
102
RTVSPropertyOp29
 70
     1
102
RTVSPropertyOp30
 70
     1
102
RTVSPropertyOp31
 70
     1
102
RTVSPropertyOp32
 70
     1
  0
XRECORD
  5
317
102
{ACAD_REACTORS
330
316
102
}
330
316
100
AcDbXrecord
280
     1
102
RTVSPropertyOp0
 70
     1
102
RTVSPropertyOp1
 70
     1
102
RTVSPropertyOp2
 70
     1
102
RTVSPropertyOp3
 70
     1
102
RTVSPropertyOp4
 70
     1
102
RTVSPropertyOp5
 70
     1
102
RTVSPropertyOp6
 70
     1
102
RTVSPropertyOp7
 70
     1
102
RTVSPropertyOp8
 70
     1
102
RTVSPropertyOp9
 70
     1
102
RTVSPropertyOp10
 70
     1
102
RTVSPropertyOp11
 70
     1
102
RTVSPropertyOp12
 70
     1
102
RTVSPropertyOp13
 70
     1
102
RTVSPropertyOp14
 70
     1
102
RTVSPropertyOp15
 70
     1
102
RTVSPropertyOp16
 70
     1
102
RTVSPropertyOp17
 70
     1
102
RTVSPropertyOp18
 70
     1
102
RTVSPropertyOp19
 70
     1
102
RTVSPropertyOp20
 70
     1
102
RTVSPropertyOp21
 70
     1
102
RTVSPropertyOp22
 70
     1
102
RTVSPropertyOp23
 70
     1
102
RTVSPropertyOp24
 70
     1
102
RTVSPropertyOp25
 70
     1
102
RTVSPropertyOp26
 70
     1
102
RTVSPropertyOp27
 70
     1
102
RTVSPropertyOp28
 70
     1
102
RTVSPropertyOp29
 70
     1
102
RTVSPropertyOp30
 70
     1
102
RTVSPropertyOp31
 70
     1
102
RTVSPropertyOp32
 70
     1
  0
XRECORD
  5
319
102
{ACAD_REACTORS
330
318
102
}
330
318
100
AcDbXrecord
280
     1
102
RTVSPropertyOp0
 70
     1
102
RTVSPropertyOp1
 70
     1
102
RTVSPropertyOp2
 70
     1
102
RTVSPropertyOp3
 70
     1
102
RTVSPropertyOp4
 70
     1
102
RTVSPropertyOp5
 70
     1
102
RTVSPropertyOp6
 70
     1
102
RTVSPropertyOp7
 70
     1
102
RTVSPropertyOp8
 70
     1
102
RTVSPropertyOp9
 70
     1
102
RTVSPropertyOp10
 70
     1
102
RTVSPropertyOp11
 70
     1
102
RTVSPropertyOp12
 70
     1
102
RTVSPropertyOp13
 70
     1
102
RTVSPropertyOp14
 70
     1
102
RTVSPropertyOp15
 70
     1
102
RTVSPropertyOp16
 70
     1
102
RTVSPropertyOp17
 70
     1
102
RTVSPropertyOp18
 70
     1
102
RTVSPropertyOp19
 70
     1
102
RTVSPropertyOp20
 70
     1
102
RTVSPropertyOp21
 70
     1
102
RTVSPropertyOp22
 70
     1
102
RTVSPropertyOp23
 70
     1
102
RTVSPropertyOp24
 70
     1
102
RTVSPropertyOp25
 70
     1
102
RTVSPropertyOp26
 70
     1
102
RTVSPropertyOp27
 70
     1
102
RTVSPropertyOp28
 70
     1
102
RTVSPropertyOp29
 70
     1
102
RTVSPropertyOp30
 70
     1
102
RTVSPropertyOp31
 70
     1
102
RTVSPropertyOp32
 70
     1
  0
XRECORD
  5
31B
102
{ACAD_REACTORS
330
31A
102
}
330
31A
100
AcDbXrecord
280
     1
102
RTVSPropertyOp0
 70
     1
102
RTVSPropertyOp1
 70
     1
102
RTVSPropertyOp2
 70
     1
102
RTVSPropertyOp3
 70
     1
102
RTVSPropertyOp4
 70
     1
102
RTVSPropertyOp5
 70
     1
102
RTVSPropertyOp6
 70
     1
102
RTVSPropertyOp7
 70
     1
102
RTVSPropertyOp8
 70
     1
102
RTVSPropertyOp9
 70
     1
102
RTVSPropertyOp10
 70
     1
102
RTVSPropertyOp11
 70
     1
102
RTVSPropertyOp12
 70
     1
102
RTVSPropertyOp13
 70
     1
102
RTVSPropertyOp14
 70
     1
102
RTVSPropertyOp15
 70
     1
102
RTVSPropertyOp16
 70
     1
102
RTVSPropertyOp17
 70
     1
102
RTVSPropertyOp18
 70
     1
102
RTVSPropertyOp19
 70
     1
102
RTVSPropertyOp20
 70
     1
102
RTVSPropertyOp21
 70
     1
102
RTVSPropertyOp22
 70
     1
102
RTVSPropertyOp23
 70
     1
102
RTVSPropertyOp24
 70
     1
102
RTVSPropertyOp25
 70
     1
102
RTVSPropertyOp26
 70
     1
102
RTVSPropertyOp27
 70
     1
102
RTVSPropertyOp28
 70
     1
102
RTVSPropertyOp29
 70
     1
102
RTVSPropertyOp30
 70
     1
102
RTVSPropertyOp31
 70
     1
102
RTVSPropertyOp32
 70
     1
  0
XRECORD
  5
31D
102
{ACAD_REACTORS
330
31C
102
}
330
31C
100
AcDbXrecord
280
     1
102
RTVSPropertyOp0
 70
     1
102
RTVSPropertyOp1
 70
     1
102
RTVSPropertyOp2
 70
     1
102
RTVSPropertyOp3
 70
     1
102
RTVSPropertyOp4
 70
     1
102
RTVSPropertyOp5
 70
     1
102
RTVSPropertyOp6
 70
     1
102
RTVSPropertyOp7
 70
     1
102
RTVSPropertyOp8
 70
     1
102
RTVSPropertyOp9
 70
     1
102
RTVSPropertyOp10
 70
     1
102
RTVSPropertyOp11
 70
     1
102
RTVSPropertyOp12
 70
     1
102
RTVSPropertyOp13
 70
     1
102
RTVSPropertyOp14
 70
     1
102
RTVSPropertyOp15
 70
     1
102
RTVSPropertyOp16
 70
     1
102
RTVSPropertyOp17
 70
     1
102
RTVSPropertyOp18
 70
     1
102
RTVSPropertyOp19
 70
     1
102
RTVSPropertyOp20
 70
     1
102
RTVSPropertyOp21
 70
     1
102
RTVSPropertyOp22
 70
     1
102
RTVSPropertyOp23
 70
     1
102
RTVSPropertyOp24
 70
     1
102
RTVSPropertyOp25
 70
     1
102
RTVSPropertyOp26
 70
     1
102
RTVSPropertyOp27
 70
     1
102
RTVSPropertyOp28
 70
     1
102
RTVSPropertyOp29
 70
     1
102
RTVSPropertyOp30
 70
     1
102
RTVSPropertyOp31
 70
     1
102
RTVSPropertyOp32
 70
     1
  0
XRECORD
  5
331
102
{ACAD_REACTORS
330
330
102
}
330
330
100
AcDbXrecord
280
     1
102
RTVSPropertyOp0
 70
     1
102
RTVSPropertyOp1
 70
     1
102
RTVSPropertyOp2
 70
     1
102
RTVSPropertyOp3
 70
     1
102
RTVSPropertyOp4
 70
     1
102
RTVSPropertyOp5
 70
     1
102
RTVSPropertyOp6
 70
     1
102
RTVSPropertyOp7
 70
     1
102
RTVSPropertyOp8
 70
     1
102
RTVSPropertyOp9
 70
     1
102
RTVSPropertyOp10
 70
     1
102
RTVSPropertyOp11
 70
     1
102
RTVSPropertyOp12
 70
     1
102
RTVSPropertyOp13
 70
     1
102
RTVSPropertyOp14
 70
     1
102
RTVSPropertyOp15
 70
     1
102
RTVSPropertyOp16
 70
     1
102
RTVSPropertyOp17
 70
     1
102
RTVSPropertyOp18
 70
     1
102
RTVSPropertyOp19
 70
     1
102
RTVSPropertyOp20
 70
     1
102
RTVSPropertyOp21
 70
     1
102
RTVSPropertyOp22
 70
     1
102
RTVSPropertyOp23
 70
     1
102
RTVSPropertyOp24
 70
     1
102
RTVSPropertyOp25
 70
     1
102
RTVSPropertyOp26
 70
     1
102
RTVSPropertyOp27
 70
     1
102
RTVSPropertyOp28
 70
     1
102
RTVSPropertyOp29
 70
     1
102
RTVSPropertyOp30
 70
     1
102
RTVSPropertyOp31
 70
     1
102
RTVSPropertyOp32
 70
     1
  0
XRECORD
  5
327
102
{ACAD_REACTORS
330
326
102
}
330
326
100
AcDbXrecord
280
     1
102
RTVSPropertyOp0
 70
     1
102
RTVSPropertyOp1
 70
     1
102
RTVSPropertyOp2
 70
     1
102
RTVSPropertyOp3
 70
     1
102
RTVSPropertyOp4
 70
     1
102
RTVSPropertyOp5
 70
     1
102
RTVSPropertyOp6
 70
     1
102
RTVSPropertyOp7
 70
     1
102
RTVSPropertyOp8
 70
     1
102
RTVSPropertyOp9
 70
     1
102
RTVSPropertyOp10
 70
     1
102
RTVSPropertyOp11
 70
     1
102
RTVSPropertyOp12
 70
     1
102
RTVSPropertyOp13
 70
     1
102
RTVSPropertyOp14
 70
     1
102
RTVSPropertyOp15
 70
     1
102
RTVSPropertyOp16
 70
     1
102
RTVSPropertyOp17
 70
     1
102
RTVSPropertyOp18
 70
     1
102
RTVSPropertyOp19
 70
     1
102
RTVSPropertyOp20
 70
     1
102
RTVSPropertyOp21
 70
     1
102
RTVSPropertyOp22
 70
     1
102
RTVSPropertyOp23
 70
     1
102
RTVSPropertyOp24
 70
     1
102
RTVSPropertyOp25
 70
     1
102
RTVSPropertyOp26
 70
     1
102
RTVSPropertyOp27
 70
     1
102
RTVSPropertyOp28
 70
     1
102
RTVSPropertyOp29
 70
     1
102
RTVSPropertyOp30
 70
     1
102
RTVSPropertyOp31
 70
     1
102
RTVSPropertyOp32
 70
     1
  0
XRECORD
  5
32F
102
{ACAD_REACTORS
330
32E
102
}
330
32E
100
AcDbXrecord
280
     1
102
RTVSPropertyOp0
 70
     1
102
RTVSPropertyOp1
 70
     1
102
RTVSPropertyOp2
 70
     1
102
RTVSPropertyOp3
 70
     1
102
RTVSPropertyOp4
 70
     1
102
RTVSPropertyOp5
 70
     1
102
RTVSPropertyOp6
 70
     1
102
RTVSPropertyOp7
 70
     1
102
RTVSPropertyOp8
 70
     1
102
RTVSPropertyOp9
 70
     1
102
RTVSPropertyOp10
 70
     1
102
RTVSPropertyOp11
 70
     1
102
RTVSPropertyOp12
 70
     1
102
RTVSPropertyOp13
 70
     1
102
RTVSPropertyOp14
 70
     1
102
RTVSPropertyOp15
 70
     1
102
RTVSPropertyOp16
 70
     1
102
RTVSPropertyOp17
 70
     1
102
RTVSPropertyOp18
 70
     1
102
RTVSPropertyOp19
 70
     1
102
RTVSPropertyOp20
 70
     1
102
RTVSPropertyOp21
 70
     1
102
RTVSPropertyOp22
 70
     1
102
RTVSPropertyOp23
 70
     1
102
RTVSPropertyOp24
 70
     1
102
RTVSPropertyOp25
 70
     1
102
RTVSPropertyOp26
 70
     1
102
RTVSPropertyOp27
 70
     1
102
RTVSPropertyOp28
 70
     1
102
RTVSPropertyOp29
 70
     1
102
RTVSPropertyOp30
 70
     1
102
RTVSPropertyOp31
 70
     1
102
RTVSPropertyOp32
 70
     1
  0
ENDSEC
  0
EOF
