  0
SECTION
  2
HEADER
  9
$ACADVER
  1
AC1015
  9
$ACADMAINTVER
 70
     6
  9
$DWGCODEPAGE
  3
ANSI_1252
  9
$INSBASE
 10
0.0
 20
0.0
 30
0.0
  9
$EXTMIN
 10
-445.0273208197662
 20
-308.718809404368
 30
0.0
  9
$EXTMAX
 10
-25.0273208197678
 20
-11.718809404368
 30
0.0
  9
$LIMMIN
 10
0.0
 20
0.0
  9
$LIMMAX
 10
12.0
 20
9.0
  9
$ORTHOMODE
 70
     0
  9
$REGENMODE
 70
     1
  9
$FILLMODE
 70
     1
  9
$QTEXTMODE
 70
     0
  9
$MIRRTEXT
 70
     1
  9
$LTSCALE
 40
1.0
  9
$ATTMODE
 70
     1
  9
$TEXTSIZE
 40
0.2
  9
$TRACEWID
 40
0.05
  9
$TEXTSTYLE
  7
Standard
  9
$CLAYER
  8
0
  9
$CELTYPE
  6
ByLayer
  9
$CECOLOR
 62
   256
  9
$CELTSCALE
 40
1.0
  9
$DISPSILH
 70
     0
  9
$DIMSCALE
 40
1.0
  9
$DIMASZ
 40
0.18
  9
$DIMEXO
 40
0.0625
  9
$DIMDLI
 40
0.38
  9
$DIMRND
 40
0.0
  9
$DIMDLE
 40
0.0
  9
$DIMEXE
 40
0.18
  9
$DIMTP
 40
0.0
  9
$DIMTM
 40
0.0
  9
$DIMTXT
 40
0.18
  9
$DIMCEN
 40
0.09
  9
$DIMTSZ
 40
0.0
  9
$DIMTOL
 70
     0
  9
$DIMLIM
 70
     0
  9
$DIMTIH
 70
     1
  9
$DIMTOH
 70
     1
  9
$DIMSE1
 70
     0
  9
$DIMSE2
 70
     0
  9
$DIMTAD
 70
     0
  9
$DIMZIN
 70
     0
  9
$DIMBLK
  1

  9
$DIMASO
 70
     1
  9
$DIMSHO
 70
     1
  9
$DIMPOST
  1

  9
$DIMAPOST
  1

  9
$DIMALT
 70
     0
  9
$DIMALTD
 70
     2
  9
$DIMALTF
 40
25.4
  9
$DIMLFAC
 40
1.0
  9
$DIMTOFL
 70
     0
  9
$DIMTVP
 40
0.0
  9
$DIMTIX
 70
     0
  9
$DIMSOXD
 70
     0
  9
$DIMSAH
 70
     0
  9
$DIMBLK1
  1

  9
$DIMBLK2
  1

  9
$DIMSTYLE
  2
Standard
  9
$DIMCLRD
 70
     0
  9
$DIMCLRE
 70
     0
  9
$DIMCLRT
 70
     0
  9
$DIMTFAC
 40
1.0
  9
$DIMGAP
 40
0.09
  9
$DIMJUST
 70
     0
  9
$DIMSD1
 70
     0
  9
$DIMSD2
 70
     0
  9
$DIMTOLJ
 70
     1
  9
$DIMTZIN
 70
     0
  9
$DIMALTZ
 70
     0
  9
$DIMALTTZ
 70
     0
  9
$DIMUPT
 70
     0
  9
$DIMDEC
 70
     4
  9
$DIMTDEC
 70
     4
  9
$DIMALTU
 70
     2
  9
$DIMALTTD
 70
     2
  9
$DIMTXSTY
  7
Standard
  9
$DIMAUNIT
 70
     0
  9
$DIMADEC
 70
     0
  9
$DIMALTRND
 40
0.0
  9
$DIMAZIN
 70
     0
  9
$DIMDSEP
 70
    46
  9
$DIMATFIT
 70
     3
  9
$DIMFRAC
 70
     0
  9
$DIMLDRBLK
  1

  9
$DIMLUNIT
 70
     2
  9
$DIMLWD
 70
    -2
  9
$DIMLWE
 70
    -2
  9
$DIMTMOVE
 70
     0
  9
$LUNITS
 70
     2
  9
$LUPREC
 70
     4
  9
$SKETCHINC
 40
0.1
  9
$FILLETRAD
 40
0.5
  9
$AUNITS
 70
     0
  9
$AUPREC
 70
     0
  9
$MENU
  1
.
  9
$ELEVATION
 40
0.0
  9
$PELEVATION
 40
0.0
  9
$THICKNESS
 40
0.0
  9
$LIMCHECK
 70
     0
  9
$CHAMFERA
 40
0.5
  9
$CHAMFERB
 40
0.5
  9
$CHAMFERC
 40
1.0
  9
$CHAMFERD
 40
0.0
  9
$SKPOLY
 70
     0
  9
$TDCREATE
 40
2457277.57638206
  9
$TDUCREATE
 40
2457277.493048727
  9
$TDUPDATE
 40
2457277.576383148
  9
$TDUUPDATE
 40
2457277.493049815
  9
$TDINDWG
 40
0.0000000116
  9
$TDUSRTIMER
 40
0.0000000116
  9
$USRTIMER
 70
     1
  9
$ANGBASE
 50
0.0
  9
$ANGDIR
 70
     0
  9
$PDMODE
 70
     0
  9
$PDSIZE
 40
0.0
  9
$PLINEWID
 40
0.0
  9
$SPLFRAME
 70
     0
  9
$SPLINETYPE
 70
     6
  9
$SPLINESEGS
 70
     8
  9
$HANDSEED
  5
26D
  9
$SURFTAB1
 70
     6
  9
$SURFTAB2
 70
     6
  9
$SURFTYPE
 70
     6
  9
$SURFU
 70
     6
  9
$SURFV
 70
     6
  9
$UCSBASE
  2

  9
$UCSNAME
  2

  9
$UCSORG
 10
0.0
 20
0.0
 30
0.0
  9
$UCSXDIR
 10
1.0
 20
0.0
 30
0.0
  9
$UCSYDIR
 10
0.0
 20
1.0
 30
0.0
  9
$UCSORTHOREF
  2

  9
$UCSORTHOVIEW
 70
     0
  9
$UCSORGTOP
 10
0.0
 20
0.0
 30
0.0
  9
$UCSORGBOTTOM
 10
0.0
 20
0.0
 30
0.0
  9
$UCSORGLEFT
 10
0.0
 20
0.0
 30
0.0
  9
$UCSORGRIGHT
 10
0.0
 20
0.0
 30
0.0
  9
$UCSORGFRONT
 10
0.0
 20
0.0
 30
0.0
  9
$UCSORGBACK
 10
0.0
 20
0.0
 30
0.0
  9
$PUCSBASE
  2

  9
$PUCSNAME
  2

  9
$PUCSORG
 10
0.0
 20
0.0
 30
0.0
  9
$PUCSXDIR
 10
1.0
 20
0.0
 30
0.0
  9
$PUCSYDIR
 10
0.0
 20
1.0
 30
0.0
  9
$PUCSORTHOREF
  2

  9
$PUCSORTHOVIEW
 70
     0
  9
$PUCSORGTOP
 10
0.0
 20
0.0
 30
0.0
  9
$PUCSORGBOTTOM
 10
0.0
 20
0.0
 30
0.0
  9
$PUCSORGLEFT
 10
0.0
 20
0.0
 30
0.0
  9
$PUCSORGRIGHT
 10
0.0
 20
0.0
 30
0.0
  9
$PUCSORGFRONT
 10
0.0
 20
0.0
 30
0.0
  9
$PUCSORGBACK
 10
0.0
 20
0.0
 30
0.0
  9
$USERI1
 70
     0
  9
$USERI2
 70
     0
  9
$USERI3
 70
     0
  9
$USERI4
 70
     0
  9
$USERI5
 70
     0
  9
$USERR1
 40
18.1
  9
$USERR2
 40
0.0
  9
$USERR3
 40
0.0
  9
$USERR4
 40
0.0
  9
$USERR5
 40
0.0
  9
$WORLDVIEW
 70
     1
  9
$SHADEDGE
 70
     3
  9
$SHADEDIF
 70
    70
  9
$TILEMODE
 70
     1
  9
$MAXACTVP
 70
    64
  9
$PINSBASE
 10
0.0
 20
0.0
 30
0.0
  9
$PLIMCHECK
 70
     0
  9
$PEXTMIN
 10
1.00000000000000E+20
 20
1.00000000000000E+20
 30
1.00000000000000E+20
  9
$PEXTMAX
 10
-1.00000000000000E+20
 20
-1.00000000000000E+20
 30
-1.00000000000000E+20
  9
$PLIMMIN
 10
0.0
 20
0.0
  9
$PLIMMAX
 10
12.0
 20
9.0
  9
$UNITMODE
 70
     0
  9
$VISRETAIN
 70
     1
  9
$PLINEGEN
 70
     0
  9
$PSLTSCALE
 70
     1
  9
$TREEDEPTH
 70
  3020
  9
$CMLSTYLE
  2
Standard
  9
$CMLJUST
 70
     0
  9
$CMLSCALE
 40
1.0
  9
$PROXYGRAPHICS
 70
     1
  9
$MEASUREMENT
 70
     1
  9
$CELWEIGHT
370
    -1
  9
$ENDCAPS
280
     0
  9
$JOINSTYLE
280
     0
  9
$LWDISPLAY
290
     0
  9
$INSUNITS
 70
     4
  9
$HYPERLINKBASE
  1

  9
$STYLESHEET
  1

  9
$XEDIT
290
     1
  9
$CEPSNTYPE
380
     0
  9
$PSTYLEMODE
290
     1
  9
$FINGERPRINTGUID
  2
{D31DC492-CD35-43DC-8401-A601B0A102C2}
  9
$VERSIONGUID
  2
{FAEB1C32-E019-11D5-929B-00C0DF256EC4}
  9
$EXTNAMES
290
     1
  9
$PSVPSCALE
 40
0.0
  9
$OLESTARTUP
290
     0
  0
ENDSEC
  0
SECTION
  2
CLASSES
  0
CLASS
  1
ACDBDICTIONARYWDFLT
  2
AcDbDictionaryWithDefault
  3
ObjectDBX Classes
 90
        0
280
     0
281
     0
  0
CLASS
  1
VISUALSTYLE
  2
AcDbVisualStyle
  3
ObjectDBX Classes
 90
     4095
280
     0
281
     0
  0
CLASS
  1
MATERIAL
  2
AcDbMaterial
  3
ObjectDBX Classes
 90
     1153
280
     0
281
     0
  0
CLASS
  1
DICTIONARYVAR
  2
AcDbDictionaryVar
  3
ObjectDBX Classes
 90
        0
280
     0
281
     0
  0
CLASS
  1
ACDBPLACEHOLDER
  2
AcDbPlaceHolder
  3
ObjectDBX Classes
 90
        0
280
     0
281
     0
  0
CLASS
  1
LAYOUT
  2
AcDbLayout
  3
ObjectDBX Classes
 90
        0
280
     0
281
     0
  0
ENDSEC
  0
SECTION
  2
TABLES
  0
TABLE
  2
VPORT
  5
8
330
0
100
AcDbSymbolTable
 70
     1
  0
VPORT
  5
29
330
8
100
AcDbSymbolTableRecord
100
AcDbViewportTableRecord
  2
*Active
 70
     0
 10
0.0
 20
0.0
 11
1.0
 21
1.0
 12
-235.027320819767
 22
-160.218809404368
 13
0.0
 23
0.0
 14
0.5
 24
0.5
 15
0.5
 25
0.5
 16
0.0
 26
0.0
 36
1.0
 17
0.0
 27
0.0
 37
0.0
 40
326.7
 41
1.60267857142857
 42
50.0
 43
0.0
 44
0.0
 50
0.0
 51
0.0
 71
     0
 72
   100
 73
     1
 74
     3
 75
     0
 76
     0
 77
     0
 78
     0
281
     0
 65
     1
110
0.0
120
0.0
130
0.0
111
1.0
121
0.0
131
0.0
112
0.0
122
1.0
132
0.0
 79
     0
146
0.0
  0
ENDTAB
  0
TABLE
  2
LTYPE
  5
5
330
0
100
AcDbSymbolTable
 70
     8
  0
LTYPE
  5
14
330
5
100
AcDbSymbolTableRecord
100
AcDbLinetypeTableRecord
  2
ByBlock
 70
     0
  3

 72
    65
 73
     0
 40
0.0
  0
LTYPE
  5
15
330
5
100
AcDbSymbolTableRecord
100
AcDbLinetypeTableRecord
  2
ByLayer
 70
     0
  3

 72
    65
 73
     0
 40
0.0
  0
LTYPE
  5
16
330
5
100
AcDbSymbolTableRecord
100
AcDbLinetypeTableRecord
  2
Continuous
 70
     0
  3
Solid line
 72
    65
 73
     0
 40
0.0
  0
LTYPE
  5
3F
330
5
100
AcDbSymbolTableRecord
100
AcDbLinetypeTableRecord
  2
DASHED
 70
     0
  3
Dashed
 72
    65
 73
     2
 40
15.0
 49
7.0
 74
     0
 49
-8.0
 74
     0
  0
LTYPE
  5
40
330
5
100
AcDbSymbolTableRecord
100
AcDbLinetypeTableRecord
  2
DOTTED
 70
     0
  3
Dotted
 72
    65
 73
     2
 40
1.0
 49
0.0
 74
     0
 49
-1.0
 74
     0
  0
LTYPE
  5
41
330
5
100
AcDbSymbolTableRecord
100
AcDbLinetypeTableRecord
  2
DOT_CENTER
 70
     0
  3
Dot_Center
 72
    65
 73
     4
 40
14.0
 49
12.0
 74
     0
 49
-1.0
 74
     0
 49
0.0
 74
     0
 49
-1.0
 74
     0
  0
LTYPE
  5
42
330
5
100
AcDbSymbolTableRecord
100
AcDbLinetypeTableRecord
  2
LONG_DASHED
 70
     0
  3
Long_Dashed
 72
    65
 73
     2
 40
15.0
 49
10.0
 74
     0
 49
-5.0
 74
     0
  0
LTYPE
  5
43
330
5
100
AcDbSymbolTableRecord
100
AcDbLinetypeTableRecord
  2
DASH_CENTER
 70
     0
  3
Dash_Center
 72
    65
 73
     4
 40
14.0
 49
11.0
 74
     0
 49
-1.0
 74
     0
 49
1.0
 74
     0
 49
-1.0
 74
     0
  0
LTYPE
  5
44
330
5
100
AcDbSymbolTableRecord
100
AcDbLinetypeTableRecord
  2
PHANTOM
 70
     0
  3
Phantom
 72
    65
 73
     6
 40
13.0
 49
10.0
 74
     0
 49
-1.0
 74
     0
 49
0.0
 74
     0
 49
-1.0
 74
     0
 49
0.0
 74
     0
 49
-1.0
 74
     0
  0
LTYPE
  5
45
330
5
100
AcDbSymbolTableRecord
100
AcDbLinetypeTableRecord
  2
CENTER_DASH_DASH
 70
     0
  3
Center_Dash_Dash
 72
    65
 73
     6
 40
14.0
 49
9.0
 74
     0
 49
-1.0
 74
     0
 49
1.0
 74
     0
 49
-1.0
 74
     0
 49
1.0
 74
     0
 49
-1.0
 74
     0
  0
ENDTAB
  0
TABLE
  2
LAYER
  5
2
330
0
100
AcDbSymbolTable
 70
     2
  0
LAYER
  5
10
330
2
100
AcDbSymbolTableRecord
100
AcDbLayerTableRecord
  2
0
 70
     0
 62
     7
  6
Continuous
370
    -3
390
F
  0
LAYER
  5
46
330
2
100
AcDbSymbolTableRecord
100
AcDbLayerTableRecord
  2
1
 70
     0
 62
     7
  6
Continuous
370
    -3
390
F
  0
ENDTAB
  0
TABLE
  2
STYLE
  5
3
330
0
100
AcDbSymbolTable
 70
     5
  0
STYLE
  5
11
330
3
100
AcDbSymbolTableRecord
100
AcDbTextStyleTableRecord
  2
Standard
 70
     0
 40
0.0
 41
1.0
 50
0.0
 71
     0
 42
0.2
  3
txt
  4

  0
STYLE
  5
97
330
3
100
AcDbSymbolTableRecord
100
AcDbTextStyleTableRecord
  2
CONVERTER_11
 70
     0
 40
0.0
 41
0.9
 50
0.0
 71
     0
 42
0.2
  3
txt.shx
  4

  0
STYLE
  5
204
330
3
100
AcDbSymbolTableRecord
100
AcDbTextStyleTableRecord
  2
CONVERTER_12
 70
     0
 40
0.0
 41
0.81
 50
0.0
 71
     0
 42
0.2
  3
txt.shx
  4

  0
STYLE
  5
20C
330
3
100
AcDbSymbolTableRecord
100
AcDbTextStyleTableRecord
  2
CONVERTER_13
 70
     0
 40
0.0
 41
0.72
 50
0.0
 71
     0
 42
0.2
  3
txt.shx
  4

  0
STYLE
  5
20F
330
3
100
AcDbSymbolTableRecord
100
AcDbTextStyleTableRecord
  2
CONVERTER_14
 70
     0
 40
0.0
 41
0.855
 50
0.0
 71
     0
 42
0.2
  3
txt.shx
  4

  0
ENDTAB
  0
TABLE
  2
VIEW
  5
6
330
0
100
AcDbSymbolTable
 70
     0
  0
ENDTAB
  0
TABLE
  2
UCS
  5
7
330
0
100
AcDbSymbolTable
 70
     0
  0
ENDTAB
  0
TABLE
  2
APPID
  5
9
330
0
100
AcDbSymbolTable
 70
     1
  0
APPID
  5
12
330
9
100
AcDbSymbolTableRecord
100
AcDbRegAppTableRecord
  2
ACAD
 70
     0
  0
ENDTAB
  0
TABLE
  2
DIMSTYLE
  5
A
330
0
100
AcDbSymbolTable
 70
     3
100
AcDbDimStyleTable
  0
DIMSTYLE
105
27
330
A
100
AcDbSymbolTableRecord
100
AcDbDimStyleTableRecord
  2
Standard
 70
     0
178
     0
340
11
  0
DIMSTYLE
105
E8
102
{ACAD_REACTORS
330
E9
102
}
330
A
100
AcDbSymbolTableRecord
100
AcDbDimStyleTableRecord
  2
ME10_DIM_10
 70
     0
  3
 {\Fgdt;n}<>
 41
1.75
 42
0.0
 44
0.75
 73
     0
 74
     0
 77
     1
 78
     8
140
1.75
147
0.75
172
     1
173
     1
174
     1
175
     1
176
     2
177
     2
271
     1
178
     3
271
     1
340
97
  0
DIMSTYLE
105
F3
102
{ACAD_REACTORS
330
F4
102
}
330
A
100
AcDbSymbolTableRecord
100
AcDbDimStyleTableRecord
  2
ME10_DIM_11
 70
     0
 41
1.75
 42
0.0
 44
0.75
 73
     0
 74
     0
 77
     1
 78
     8
140
1.75
147
0.75
172
     1
173
     1
174
     1
175
     1
176
     2
177
     2
271
     1
178
     3
271
     1
340
97
  0
ENDTAB
  0
TABLE
  2
BLOCK_RECORD
  5
1
330
0
100
AcDbSymbolTable
 70
    18
  0
BLOCK_RECORD
  5
1F
330
1
100
AcDbSymbolTableRecord
100
AcDbBlockTableRecord
  2
*Model_Space
340
22
  0
BLOCK_RECORD
  5
1B
330
1
100
AcDbSymbolTableRecord
100
AcDbBlockTableRecord
  2
*Paper_Space
340
1E
  0
BLOCK_RECORD
  5
23
330
1
100
AcDbSymbolTableRecord
100
AcDbBlockTableRecord
  2
*Paper_Space0
340
26
  0
BLOCK_RECORD
  5
47
330
1
100
AcDbSymbolTableRecord
100
AcDbBlockTableRecord
  2
1686850_HC_NPT_3_4_M25-select__1
340
0
102
{BLKREFS
331
4B
102
}
  0
BLOCK_RECORD
  5
4A
330
1
100
AcDbSymbolTableRecord
100
AcDbBlockTableRecord
  2
Allg1
340
0
102
{BLKREFS
331
7C
102
}
  0
BLOCK_RECORD
  5
4E
330
1
100
AcDbSymbolTableRecord
100
AcDbBlockTableRecord
  2
1686850_HC_NPT_3_4_M25-select__2
340
0
102
{BLKREFS
331
52
102
}
  0
BLOCK_RECORD
  5
51
330
1
100
AcDbSymbolTableRecord
100
AcDbBlockTableRecord
  2
Drfsicht1
340
0
102
{BLKREFS
331
7D
102
}
  0
BLOCK_RECORD
  5
55
330
1
100
AcDbSymbolTableRecord
100
AcDbBlockTableRecord
  2
1686850_HC_NPT_3_4_M25-select__3
340
0
102
{BLKREFS
331
59
102
}
  0
BLOCK_RECORD
  5
58
330
1
100
AcDbSymbolTableRecord
100
AcDbBlockTableRecord
  2
Rckans1
340
0
102
{BLKREFS
331
7E
102
}
  0
BLOCK_RECORD
  5
5C
330
1
100
AcDbSymbolTableRecord
100
AcDbBlockTableRecord
  2
1686850_HC_NPT_3_4_M25-select__4
340
0
102
{BLKREFS
331
60
102
}
  0
BLOCK_RECORD
  5
5F
330
1
100
AcDbSymbolTableRecord
100
AcDbBlockTableRecord
  2
SA_Links1
340
0
102
{BLKREFS
331
7F
102
}
  0
BLOCK_RECORD
  5
63
330
1
100
AcDbSymbolTableRecord
100
AcDbBlockTableRecord
  2
1686850_HC_NPT_3_4_M25-select__5
340
0
102
{BLKREFS
331
67
102
}
  0
BLOCK_RECORD
  5
66
330
1
100
AcDbSymbolTableRecord
100
AcDbBlockTableRecord
  2
SA_Rechts1
340
0
102
{BLKREFS
331
80
102
}
  0
BLOCK_RECORD
  5
6A
330
1
100
AcDbSymbolTableRecord
100
AcDbBlockTableRecord
  2
1686850_HC_NPT_3_4_M25-select__6
340
0
102
{BLKREFS
331
6E
102
}
  0
BLOCK_RECORD
  5
6D
330
1
100
AcDbSymbolTableRecord
100
AcDbBlockTableRecord
  2
Vordans1
340
0
102
{BLKREFS
331
81
102
}
  0
BLOCK_RECORD
  5
71
330
1
100
AcDbSymbolTableRecord
100
AcDbBlockTableRecord
  2
_punkt
340
0
102
{BLKREFS
331
78
102
}
  0
BLOCK_RECORD
  5
74
330
1
100
AcDbSymbolTableRecord
100
AcDbBlockTableRecord
  2
_rahmen
340
0
102
{BLKREFS
331
79
102
}
  0
BLOCK_RECORD
  5
77
330
1
100
AcDbSymbolTableRecord
100
AcDbBlockTableRecord
  2
A3I_CS
340
0
102
{BLKREFS
331
82
102
}
  0
BLOCK_RECORD
  5
DF
330
1
100
AcDbSymbolTableRecord
100
AcDbBlockTableRecord
  2
*D16
340
0
  0
BLOCK_RECORD
  5
EA
330
1
100
AcDbSymbolTableRecord
100
AcDbBlockTableRecord
  2
*D17
340
0
  0
ENDTAB
  0
ENDSEC
  0
SECTION
  2
BLOCKS
  0
BLOCK
  5
20
330
1F
100
AcDbEntity
  8
0
100
AcDbBlockBegin
  2
*Model_Space
 70
     0
 10
0.0
 20
0.0
 30
0.0
  3
*Model_Space
  1

  0
ENDBLK
  5
21
330
1F
100
AcDbEntity
  8
0
100
AcDbBlockEnd
  0
BLOCK
  5
1C
330
1B
100
AcDbEntity
 67
     1
  8
0
100
AcDbBlockBegin
  2
*Paper_Space
 70
     0
 10
0.0
 20
0.0
 30
0.0
  3
*Paper_Space
  1

  0
ENDBLK
  5
1D
330
1B
100
AcDbEntity
 67
     1
  8
0
100
AcDbBlockEnd
  0
BLOCK
  5
24
330
23
100
AcDbEntity
  8
0
100
AcDbBlockBegin
  2
*Paper_Space0
 70
     0
 10
0.0
 20
0.0
 30
0.0
  3
*Paper_Space0
  1

  0
ENDBLK
  5
25
330
23
100
AcDbEntity
  8
0
100
AcDbBlockEnd
  0
BLOCK
  5
48
330
47
100
AcDbEntity
  8
0
100
AcDbBlockBegin
  2
1686850_HC_NPT_3_4_M25-select__1
 70
     0
 10
-61.80873129052935
 20
-127.7365470753293
 30
0.0
  3
1686850_HC_NPT_3_4_M25-select__1
  1

  0
LINE
  5
83
330
47
100
AcDbEntity
  8
0
  6
Continuous
 62
     7
100
AcDbLine
 10
-26.5379497448578
 20
-102.8892405927567
 30
0.0
 11
-30.8724177705837
 21
-101.6379874520334
 31
0.0
  0
LINE
  5
84
330
47
100
AcDbEntity
  8
0
  6
Continuous
 62
     7
100
AcDbLine
 10
-31.90675232606731
 20
-98.7373182856804
 30
0.0
 11
-50.0932858055405
 21
-93.4873182856804
 31
0.0
  0
LINE
  5
85
330
47
100
AcDbEntity
  8
0
  6
Continuous
 62
     7
100
AcDbLine
 10
-40.22725526944571
 20
-127.5603859705961
 30
0.0
 11
-58.41378874891896
 21
-122.3103859705961
 31
0.0
  0
LINE
  5
86
330
47
100
AcDbEntity
  8
0
  6
Continuous
 62
     7
100
AcDbLine
 10
-33.4717021976731
 20
-126.9084636635198
 30
0.0
 11
-37.80617022339911
 21
-125.6572105227964
 31
0.0
  0
SPLINE
  5
87
330
47
100
AcDbEntity
  8
0
  6
Continuous
 62
     7
100
AcDbSpline
210
0.0
220
0.0
230
1.0
 70
     8
 71
     3
 72
    11
 73
     7
 74
     5
 42
0.000000001
 43
0.0000000001
 44
0.00000001
 40
0.0
 40
0.0
 40
0.0
 40
0.0
 40
1.365623544056455
 40
2.556851447012706
 40
3.605010280301818
 40
4.570029440718363
 40
4.570029440718363
 40
4.570029440718363
 40
4.570029440718363
 10
-54.25353727722975
 20
-94.90847107137166
 30
0.0
 10
-53.89732930312569
 20
-94.62258139261145
 30
0.0
 10
-53.23040254359336
 20
-94.08731131297287
 30
0.0
 10
-52.14222130508928
 20
-93.56199602898685
 30
0.0
 10
-51.07949170610763
 20
-93.31002853231496
 30
0.0
 10
-50.41284409516448
 20
-93.42987144308475
 30
0.0
 10
-50.0932858055405
 20
-93.4873182856804
 30
0.0
 11
-54.25353727722975
 21
-94.90847107137166
 31
0.0
 11
-53.15499882326393
 21
-94.09721221957402
 31
0.0
 11
-52.08015616206652
 21
-93.5836587398158
 31
0.0
 11
-51.05219403309935
 21
-93.37888860244567
 31
0.0
 11
-50.0932858055405
 21
-93.4873182856804
 31
0.0
  0
SPLINE
  5
88
330
47
100
AcDbEntity
  8
0
  6
Continuous
 62
     7
100
AcDbSpline
210
0.0
220
0.0
230
1.0
 70
     8
 71
     3
 72
    11
 73
     7
 74
     5
 42
0.000000001
 43
0.0000000001
 44
0.00000001
 40
0.0
 40
0.0
 40
0.0
 40
0.0
 40
1.365623544056461
 40
2.556851447012692
 40
3.605010280301818
 40
4.570029440718324
 40
4.570029440718324
 40
4.570029440718324
 40
4.570029440718324
 10
-36.0670037977565
 20
-100.1584710713717
 30
0.0
 10
-35.71079582365245
 20
-99.87258139261148
 30
0.0
 10
-35.04386906412014
 20
-99.33731131297293
 30
0.0
 10
-33.95568782561603
 20
-98.81199602898683
 30
0.0
 10
-32.89295822663446
 20
-98.56002853231502
 30
0.0
 10
-32.22631061569126
 20
-98.67987144308475
 30
0.0
 10
-31.90675232606731
 20
-98.7373182856804
 30
0.0
 11
-36.0670037977565
 21
-100.1584710713717
 31
0.0
 11
-34.96846534379069
 21
-99.34721221957402
 31
0.0
 11
-33.8936226825933
 21
-98.8336587398158
 31
0.0
 11
-32.86566055362611
 21
-98.62888860244567
 31
0.0
 11
-31.90675232606731
 21
-98.7373182856804
 31
0.0
  0
SPLINE
  5
89
330
47
100
AcDbEntity
  8
0
  6
Continuous
 62
     7
100
AcDbSpline
210
0.0
220
0.0
230
1.0
 70
     8
 71
     3
 72
    11
 73
     7
 74
     5
 42
0.000000001
 43
0.0000000001
 44
0.00000001
 40
0.0
 40
0.0
 40
0.0
 40
0.0
 40
1.357754536884059
 40
2.542697196322413
 40
3.586039225511457
 40
4.547176308882227
 40
4.547176308882227
 40
4.547176308882227
 40
4.547176308882227
 10
-36.08438173288501
 20
-126.1542480470394
 30
0.0
 10
-36.43919098683829
 20
-126.4376681013152
 30
0.0
 10
-37.10365019622692
 20
-126.9684351451542
 30
0.0
 10
-38.18728082524323
 20
-127.4885880759273
 30
0.0
 10
-39.24535833690059
 20
-127.7373569395043
 30
0.0
 10
-39.90902880650042
 20
-127.6177411250704
 30
0.0
 10
-40.22725526944571
 20
-127.5603859705961
 30
0.0
 11
-36.08438173288501
 21
-126.1542480470394
 31
0.0
 11
-37.17843348170163
 21
-126.9583302249449
 31
0.0
 11
-38.24869960152775
 21
-127.4668767272164
 31
0.0
 11
-39.27227533152898
 21
-127.6690037236625
 31
0.0
 11
-40.22725526944571
 21
-127.5603859705961
 31
0.0
  0
SPLINE
  5
8A
330
47
100
AcDbEntity
  8
0
  6
Continuous
 62
     7
100
AcDbSpline
210
0.0
220
0.0
230
1.0
 70
     8
 71
     3
 72
    11
 73
     7
 74
     5
 42
0.000000001
 43
0.0000000001
 44
0.00000001
 40
0.0
 40
0.0
 40
0.0
 40
0.0
 40
0.9611370833708077
 40
2.004479112559844
 40
3.189421771998201
 40
4.547176308882261
 40
4.547176308882261
 40
4.547176308882261
 40
4.547176308882261
 10
-31.90675232606731
 20
-98.7373182856804
 30
0.0
 10
-31.60691699845961
 20
-98.8583822017819
 30
0.0
 10
-30.98160178018641
 20
-99.1108645042855
 30
0.0
 10
-30.21888398141683
 20
-99.88525169916964
 30
0.0
 10
-29.57917538880459
 20
-100.9028898116989
 30
0.0
 10
-29.29980697683327
 20
-101.7061164211682
 30
0.0
 10
-29.15062928006961
 20
-102.1350249762763
 30
0.0
 11
-31.90675232606731
 21
-98.7373182856804
 31
0.0
 11
-31.04080577339468
 21
-99.15435673237218
 31
0.0
 11
-30.28242453337085
 21
-99.87089039698242
 31
0.0
 11
-29.64783885657825
 21
-100.8715852211071
 31
0.0
 11
-29.15062928006961
 21
-102.1350249762763
 31
0.0
  0
SPLINE
  5
8B
330
47
100
AcDbEntity
  8
0
  6
Continuous
 62
     7
100
AcDbSpline
210
0.0
220
0.0
230
1.0
 70
     8
 71
     3
 72
    21
 73
    17
 74
    15
 42
0.000000001
 43
0.0000000001
 44
0.00000001
 40
0.0
 40
0.0
 40
0.0
 40
0.0
 40
1.204150045865777
 40
2.561527970107752
 40
4.166462954033058
 40
6.051531313510266
 40
8.207177677766834
 40
10.59713645032479
 40
13.16785417432541
 40
15.85464658387427
 40
18.58638275677731
 40
21.28955212294035
 40
23.89214928885501
 40
26.32767312401664
 40
28.53961609970532
 40
30.4871832436029
 40
30.4871832436029
 40
30.4871832436029
 40
30.4871832436029
 10
-58.41378874891896
 20
-122.3103859705961
 30
0.0
 10
-58.7863381822348
 20
-122.147258091672
 30
0.0
 10
-59.57884389794388
 20
-121.8002443430084
 30
0.0
 10
-60.46511646151853
 20
-120.6731155345803
 30
0.0
 10
-61.13689257094337
 20
-119.200253247834
 30
0.0
 10
-61.57590021580971
 20
-117.3581877781999
 30
0.0
 10
-61.78017948615184
 20
-115.2202847108788
 30
0.0
 10
-61.74179733541066
 20
-112.8440218186914
 30
0.0
 10
-61.46216195476585
 20
-110.3070730799801
 30
0.0
 10
-60.94961262550124
 20
-107.690819735339
 30
0.0
 10
-60.22084411867689
 20
-105.0805670959475
 30
0.0
 10
-59.29891874253674
 20
-102.5623046259266
 30
0.0
 10
-58.21662263722632
 20
-100.215346926088
 30
0.0
 10
-57.0007551185037
 20
-98.12506094166208
 30
0.0
 10
-55.71898544420709
 20
-96.32659167964147
 30
0.0
 10
-54.72087354780176
 20
-95.36071442333154
 30
0.0
 10
-54.25353727722975
 20
-94.90847107137166
 30
0.0
 11
-58.41378874891896
 21
-122.3103859705961
 31
0.0
 11
-59.47671490970493
 21
-121.7445544302821
 31
0.0
 11
-60.36635011461605
 21
-120.7193598057454
 31
0.0
 11
-61.05317793251226
 21
-119.2688137543831
 31
0.0
 11
-61.51441200045956
 21
-117.441043021589
 31
0.0
 11
-61.73474894473667
 21
-115.2966869698951
 31
0.0
 11
-61.70687944990975
 21
-112.9068906974511
 31
0.0
 11
-61.43172725712027
 21
-110.3509406029728
 31
0.0
 11
-60.918422068091
 21
-107.7136368219853
 31
0.0
 11
-60.1839931664359
 21
-105.0824780078528
 31
0.0
 11
-59.25280772266657
 21
-102.5447588960905
 31
0.0
 11
-58.15575936063173
 21
-100.1846748088434
 31
0.0
 11
-56.92924578748396
 21
-98.08052633311695
 31
0.0
 11
-55.61395909698189
 21
-96.30212462116688
 31
0.0
 11
-54.25353727722975
 21
-94.90847107137166
 31
0.0
  0
SPLINE
  5
8C
330
47
100
AcDbEntity
  8
0
  6
Continuous
 62
     7
100
AcDbSpline
210
0.0
220
0.0
230
1.0
 70
     8
 71
     3
 72
    19
 73
    15
 74
    13
 42
0.000000001
 43
0.0000000001
 44
0.00000001
 40
0.0
 40
0.0
 40
0.0
 40
0.0
 40
1.378756822135867
 40
2.968634736398325
 40
4.726637103834203
 40
6.594556177139228
 40
8.505644073469016
 40
10.39001935567825
 40
12.17972582597409
 40
13.81400096353787
 40
15.24551545851702
 40
16.44930105224841
 40
17.43799698117854
 40
18.28572138050816
 40
18.28572138050816
 40
18.28572138050816
 40
18.28572138050816
 10
-30.0048259712655
 20
-107.1046234940783
 30
0.0
 10
-30.33277030175983
 20
-107.4280585411423
 30
0.0
 10
-31.03887518367677
 20
-108.1244543866105
 30
0.0
 10
-31.91624221762779
 20
-109.4440848493918
 30
0.0
 10
-32.7302699707561
 20
-110.9816025631495
 30
0.0
 10
-33.42099794077941
 20
-112.6970172218995
 30
0.0
 10
-33.9651057576174
 20
-114.5071684410037
 30
0.0
 10
-34.33635254084075
 20
-116.3342225610609
 30
0.0
 10
-34.5194517644654
 20
-118.0977148469942
 30
0.0
 10
-34.50622537999071
 20
-119.7188665662669
 30
0.0
 10
-34.29975503439074
 20
-121.1367737716357
 30
0.0
 10
-33.90006173229499
 20
-122.2763310301246
 30
0.0
 10
-33.32475326896893
 20
-123.1595433910821
 30
0.0
 10
-32.76114738823745
 20
-123.4237910140417
 30
0.0
 10
-32.500976854279
 20
-123.5457724336129
 30
0.0
 11
-30.0048259712655
 21
-107.1046234940783
 31
0.0
 11
-30.95521129664232
 21
-108.1034918951819
 31
0.0
 11
-31.8627221628096
 21
-109.408917423529
 31
0.0
 11
-32.68641773531922
 21
-110.9620104434844
 31
0.0
 11
-33.3891394316182
 21
-112.6927050674588
 31
0.0
 11
-33.93918455330554
 21
-114.5229256308181
 31
0.0
 11
-34.3117400904662
 21
-116.3701052578799
 31
0.0
 11
-34.48999775818615
 21
-118.1509122244695
 31
0.0
 11
-34.4659171640544
 21
-119.7850099414273
 31
0.0
 11
-34.24058330827168
 21
-121.1986783610743
 31
0.0
 11
-33.82416295281581
 21
-122.3281445359696
 31
0.0
 11
-33.23544080130529
 21
-123.1224529514245
 31
0.0
 11
-32.500976854279
 21
-123.5457724336129
 31
0.0
  0
SPLINE
  5
8D
330
47
100
AcDbEntity
  8
0
  6
Continuous
 62
     7
100
AcDbSpline
210
0.0
220
0.0
230
1.0
 70
     8
 71
     3
 72
    11
 73
     7
 74
     5
 42
0.000000001
 43
0.0000000001
 44
0.00000001
 40
0.0
 40
0.0
 40
0.0
 40
0.0
 40
0.5790114951897443
 40
1.207906793646788
 40
1.922643534393022
 40
2.74201766150349
 40
2.74201766150349
 40
2.74201766150349
 40
2.74201766150349
 10
-27.50867508825191
 20
-106.2519318226636
 30
0.0
 10
-27.70041006167521
 20
-106.2174637171693
 30
0.0
 10
-28.1003986279802
 20
-106.1455579767419
 30
0.0
 10
-28.73803638618484
 20
-106.2967384712338
 30
0.0
 10
-29.39094512779048
 20
-106.6119276435521
 30
0.0
 10
-29.79110118662659
 20
-106.9330896866805
 30
0.0
 10
-30.0048259712655
 20
-107.1046234940783
 30
0.0
 11
-27.50867508825191
 21
-106.2519318226636
 31
0.0
 11
-28.08402002478719
 21
-106.1868740127227
 31
0.0
 11
-28.7007973021675
 21
-106.3097360951448
 31
0.0
 11
-29.34570289888599
 21
-106.6178681829997
 31
0.0
 11
-30.0048259712655
 21
-107.1046234940783
 31
0.0
  0
SPLINE
  5
8E
330
47
100
AcDbEntity
  8
0
  6
Continuous
 62
     7
100
AcDbSpline
210
0.0
220
0.0
230
1.0
 70
     8
 71
     3
 72
    21
 73
    17
 74
    15
 42
0.000000001
 43
0.0000000001
 44
0.00000001
 40
0.0
 40
0.0
 40
0.0
 40
0.0
 40
1.003458370008887
 40
2.134606641022369
 40
3.472052461171362
 40
5.042942760859777
 40
6.83931473116188
 40
8.8309470416965
 40
10.97321181175634
 40
13.21220548643358
 40
15.48865229723408
 40
17.74129343574243
 40
19.91012440735419
 40
21.93972760327509
 40
23.78301341636484
 40
25.40598603779737
 40
25.40598603779737
 40
25.40598603779737
 40
25.40598603779737
 10
-33.4717021976731
 20
-126.9084636635198
 30
0.0
 10
-33.78216005829137
 20
-126.7725237646259
 30
0.0
 10
-34.44258148785413
 20
-126.4833456412817
 30
0.0
 10
-35.1811419589695
 20
-125.5440716355408
 30
0.0
 10
-35.74095538337866
 20
-124.3166863959825
 30
0.0
 10
-36.10679508772645
 20
-122.7816318379484
 30
0.0
 10
-36.27702781306736
 20
-121.000045948393
 30
0.0
 10
-36.24504268754518
 20
-119.0198268715068
 30
0.0
 10
-36.01201320373747
 20
-116.9057029225089
 30
0.0
 10
-35.58488876274743
 20
-114.7254918019072
 30
0.0
 10
-34.97758167377259
 20
-112.5502812690242
 30
0.0
 10
-34.20931052706844
 20
-110.4517292105922
 30
0.0
 10
-33.30739710590132
 20
-108.4959311274668
 30
0.0
 10
-32.2941741739665
 20
-106.7540261401508
 30
0.0
 10
-31.22603277684331
 20
-105.2553017559925
 30
0.0
 10
-30.39427286377307
 20
-104.4504040411519
 30
0.0
 10
-30.0048259712655
 20
-104.0735345808328
 30
0.0
 11
-33.4717021976731
 21
-126.9084636635198
 31
0.0
 11
-34.35747399832811
 21
-126.4369373799248
 31
0.0
 11
-35.0988366690874
 21
-125.5826085261442
 31
0.0
 11
-35.67119318400091
 21
-124.373820150009
 31
0.0
 11
-36.05555490729031
 21
-122.8506778726806
 31
0.0
 11
-36.23916902752119
 21
-121.063714496269
 31
0.0
 11
-36.21594444849875
 21
-119.0722176025656
 31
0.0
 11
-35.98665095450755
 21
-116.9422591905004
 31
0.0
 11
-35.55889663031651
 21
-114.7445060396775
 31
0.0
 11
-34.9468725456039
 21
-112.5518736945671
 31
0.0
 11
-34.17088467579615
 21
-110.4371077680985
 31
0.0
 11
-33.25667770743381
 21
-108.4703710287259
 31
0.0
 11
-32.234583063144
 21
-106.7169139656206
 31
0.0
 11
-31.13851082105891
 21
-105.2349125389955
 31
0.0
 11
-30.0048259712655
 21
-104.0735345808328
 31
0.0
  0
SPLINE
  5
8F
330
47
100
AcDbEntity
  8
0
  6
Continuous
 62
     7
100
AcDbSpline
210
0.0
220
0.0
230
1.0
 70
     8
 71
     3
 72
    11
 73
     7
 74
     5
 42
0.000000001
 43
0.0000000001
 44
0.00000001
 40
0.0
 40
0.0
 40
0.0
 40
0.0
 40
1.138019620328978
 40
2.130709539031031
 40
3.004175232806818
 40
3.808357866045476
 40
3.808357866045476
 40
3.808357866045476
 40
3.808357866045476
 10
-30.0048259712655
 20
-104.0735345808328
 30
0.0
 10
-29.70798599277191
 20
-103.8352931818069
 30
0.0
 10
-29.15221369186303
 20
-103.3892347840475
 30
0.0
 10
-28.24539599373326
 20
-102.9514720465898
 30
0.0
 10
-27.35978799507543
 20
-102.7414991341596
 30
0.0
 10
-26.80424831939814
 20
-102.8413682239533
 30
0.0
 10
-26.5379497448578
 20
-102.8892405927567
 30
0.0
 11
-30.0048259712655
 21
-104.0735345808328
 31
0.0
 11
-29.0893772596273
 21
-103.3974855376681
 31
0.0
 11
-28.1936750419628
 21
-102.9695243045363
 31
0.0
 11
-27.33703993449011
 21
-102.7988825233945
 31
0.0
 11
-26.5379497448578
 21
-102.8892405927567
 31
0.0
  0
SPLINE
  5
90
330
47
100
AcDbEntity
  8
0
  6
Continuous
 62
     7
100
AcDbSpline
210
0.0
220
0.0
230
1.0
 70
     8
 71
     3
 72
    93
 73
    89
 74
    87
 42
0.000000001
 43
0.0000000001
 44
0.00000001
 40
0.0
 40
0.0
 40
0.0
 40
0.0
 40
0.2936773721481357
 40
0.5771551059544624
 40
0.8501004225564622
 40
1.112175107062784
 40
1.411428076994929
 40
1.700461063248303
 40
1.979014590209229
 40
2.246823734945865
 40
2.503618354969585
 40
2.749123308977415
 40
3.27311998510547
 40
3.79290160146781
 40
4.307999260777677
 40
4.57764508875307
 40
4.857794951020546
 40
5.147742064771467
 40
5.446789832057516
 40
5.75425281132933
 40
5.99462665775174
 40
6.226384342210275
 40
6.449496403707784
 40
6.663929541415979
 40
6.869646659808475
 40
7.066606916960922
 40
7.317008703253912
 40
7.557330883301528
 40
7.787596757400002
 40
8.007823657025908
 40
8.218022961271402
 40
8.418200121671388
 40
8.697079814533332
 40
8.984783540436643
 40
9.280206551933308
 40
9.58227789763266
 40
9.828407583459853
 40
10.06382714349444
 40
10.28872708351716
 40
10.50328740335467
 40
10.70767730250782
 40
10.90205490441881
 40
11.08656700290684
 40
11.26134883472118
 40
11.4265238827568
 40
11.6549606918875
 40
11.87225549501821
 40
12.07872590468782
 40
12.2746691835063
 40
12.4603613048152
 40
12.6360560786665
 40
12.83712006245467
 40
13.0337513801587
 40
13.22614606493034
 40
13.41450747746929
 40
13.59904637397898
 40
13.77398210393561
 40
13.94180703728771
 40
14.10279553321503
 40
14.25719507528898
 40
14.40522515944883
 40
14.57151160866098
 40
14.74599020378379
 40
14.92816525627354
 40
15.11768279010228
 40
15.32083670238501
 40
15.5216915859589
 40
15.72073059390596
 40
15.91843424583515
 40
16.1152777005538
 40
16.31172806606736
 40
16.50824184316813
 40
16.63727198258948
 40
16.77292766015239
 40
16.91523136536599
 40
17.06426042355089
 40
17.22014808032816
 40
17.36231865822347
 40
17.51109020239908
 40
17.66663606372475
 40
17.82917145277983
 40
17.99895267834873
 40
18.15708314941853
 40
18.32024128772862
 40
18.48866864443456
 40
18.66261972997614
 40
18.66719926801354
 40
18.67178107321851
 40
18.67178107321851
 40
18.67178107321851
 40
18.67178107321851
 10
-41.3204591416972
 20
-111.6323101996383
 30
0.0
 10
-41.29304026617032
 20
-111.5383352231943
 30
0.0
 10
-41.23915478475746
 20
-111.3536490952374
 30
0.0
 10
-41.15641859480071
 20
-111.0826228080084
 30
0.0
 10
-41.07448922974284
 20
-110.822379049236
 30
0.0
 10
-40.9885291515976
 20
-110.5579029077295
 30
0.0
 10
-40.89835277775371
 20
-110.2891708211067
 30
0.0
 10
-40.80367218365105
 20
-110.0161719145119
 30
0.0
 10
-40.70985947068202
 20
-109.7539802708572
 30
0.0
 10
-40.61728126396606
 20
-109.5027735025124
 30
0.0
 10
-40.52630558460808
 20
-109.2627282913027
 30
0.0
 10
-40.40223429531805
 20
-108.9439177816947
 30
0.0
 10
-40.24088516285785
 20
-108.5455646209681
 30
0.0
 10
-40.03666782753002
 20
-108.0677181441234
 30
0.0
 10
-39.85804586242455
 20
-107.6712233302492
 30
0.0
 10
-39.70734679126546
 20
-107.3498303217049
 30
0.0
 10
-39.58576967468129
 20
-107.0976907319247
 30
0.0
 10
-39.45695079323604
 20
-106.8381829329529
 30
0.0
 10
-39.32084864267644
 20
-106.5721495942175
 30
0.0
 10
-39.18906595906546
 20
-106.3224927905411
 30
0.0
 10
-39.0650328592673
 20
-106.0941335979137
 30
0.0
 10
-38.95229141981419
 20
-105.8916529733712
 30
0.0
 10
-38.84174779400328
 20
-105.6978595555918
 30
0.0
 10
-38.7336150152183
 20
-105.5126971230372
 30
0.0
 10
-38.62810610815903
 20
-105.3361094324803
 30
0.0
 10
-38.51461806968918
 20
-105.1503350290323
 30
0.0
 10
-38.39293787174486
 20
-104.9560610331684
 30
0.0
 10
-38.26280077382654
 20
-104.7540070092741
 30
0.0
 10
-38.13569880232595
 20
-104.5619839156975
 30
0.0
 10
-38.01187960105489
 20
-104.3798499482263
 30
0.0
 10
-37.89159058933934
 20
-104.2074629804388
 30
0.0
 10
-37.75786578115323
 20
-104.02063164214
 30
0.0
 10
-37.60611771362203
 20
-103.8149526799681
 30
0.0
 10
-37.43142152208209
 20
-103.5868029009472
 30
0.0
 10
-37.2475420184772
 20
-103.356013386459
 30
0.0
 10
-37.06775668397137
 20
-103.1397542498847
 30
0.0
 10
-36.89673878464739
 20
-102.9422965883856
 30
0.0
 10
-36.73927301721272
 20
-102.7671872087901
 30
0.0
 10
-36.58574462064296
 20
-102.6027430059648
 30
0.0
 10
-36.43636587504186
 20
-102.4486271239531
 30
0.0
 10
-36.29134919838238
 20
-102.3045028754578
 30
0.0
 10
-36.15090693363156
 20
-102.1700335017671
 30
0.0
 10
-36.01525154498692
 20
-102.0448823490616
 30
0.0
 10
-35.88459504520409
 20
-101.9287124461453
 30
0.0
 10
-35.74073633324601
 20
-101.8054038875949
 30
0.0
 10
-35.58324285755564
 20
-101.6762791315269
 30
0.0
 10
-35.41153840166768
 20
-101.5428944917189
 30
0.0
 10
-35.24509067842249
 20
-101.4205173187393
 30
0.0
 10
-35.08410106791356
 20
-101.308619144271
 30
0.0
 10
-34.92877003559143
 20
-101.2066707200959
 30
0.0
 10
-34.76934033076138
 20
-101.1079786165336
 30
0.0
 10
-34.60394719114277
 20
-101.0121221082172
 30
0.0
 10
-34.43062613521607
 20
-100.9190450757176
 30
0.0
 10
-34.25807516009526
 20
-100.8337084428083
 30
0.0
 10
-34.08634307540619
 20
-100.7560604070623
 30
0.0
 10
-33.91732864175664
 20
-100.6868071820333
 30
0.0
 10
-33.75234168541389
 20
-100.6260899028414
 30
0.0
 10
-33.59272617540258
 20
-100.5738291936093
 30
0.0
 10
-33.43790013701984
 20
-100.5292857789926
 30
0.0
 10
-33.28796677372763
 20
-100.4919724805047
 30
0.0
 10
-33.13505977502218
 20
-100.459720940612
 30
0.0
 10
-32.97440625500352
 20
-100.4322843612474
 30
0.0
 10
-32.80140818826567
 20
-100.4104317735172
 30
0.0
 10
-32.61983992572653
 20
-100.396140055021
 30
0.0
 10
-32.42821178193249
 20
-100.3907985495628
 30
0.0
 10
-32.23033158940891
 20
-100.3961934986253
 30
0.0
 10
-32.02993529534906
 20
-100.4133604227111
 30
0.0
 10
-31.83268972383919
 20
-100.4420056810614
 30
0.0
 10
-31.63879082228537
 20
-100.4819845339496
 30
0.0
 10
-31.44843280167023
 20
-100.5331518907658
 30
0.0
 10
-31.26181313319725
 20
-100.595360179313
 30
0.0
 10
-31.10017053687443
 20
-100.6600430843387
 30
0.0
 10
-30.96033371607297
 20
-100.7239946317719
 30
0.0
 10
-30.83921340967778
 20
-100.7851849218754
 30
0.0
 10
-30.71483012788914
 20
-100.8544507576978
 30
0.0
 10
-30.5876778523534
 20
-100.9323500195914
 30
0.0
 10
-30.46399592729565
 20
-101.0155757371377
 30
0.0
 10
-30.34388058085779
 20
-101.1037062497223
 30
0.0
 10
-30.22735748185118
 20
-101.1963556748016
 30
0.0
 10
-30.10943151920716
 20
-101.2979579285612
 30
0.0
 10
-29.99053284336636
 20
-101.4089658440331
 30
0.0
 10
-29.87558932008042
 20
-101.5252810843193
 30
0.0
 10
-29.76503412166414
 20
-101.6460424564674
 30
0.0
 10
-29.65918541709598
 20
-101.7703585389648
 30
0.0
 10
-29.55455572352365
 20
-101.9024960199094
 30
0.0
 10
-29.4859803172875
 20
-101.9956589815918
 30
0.0
 10
-29.45065961227174
 20
-102.0454386474726
 30
0.0
 10
-29.44889525588647
 20
-102.0479311623602
 30
0.0
 10
-29.4480128626661
 20
-102.049177730544
 30
0.0
 11
-41.3204591416972
 21
-111.6323101996383
 31
0.0
 11
-41.23761057113089
 21
-111.3505611825708
 31
0.0
 11
-41.15499318896354
 21
-111.0793896622325
 31
0.0
 11
-41.07299191972204
 21
-110.8190534611037
 31
0.0
 11
-40.99199168793321
 21
-110.5698104016643
 31
0.0
 11
-40.89678489941643
 21
-110.2861063174193
 31
0.0
 11
-40.8020753780525
 21
-110.013030918121
 31
0.0
 11
-40.70823105512379
 21
-109.7507613803571
 31
0.0
 11
-40.61561986191275
 21
-109.4994748807154
 31
0.0
 11
-40.5246097297017
 21
-109.2593485957833
 31
0.0
 11
-40.4355685897731
 21
-109.0305597021486
 31
0.0
 11
-40.23881706524713
 21
-108.5449041099502
 31
0.0
 11
-40.03450819518859
 21
-108.066959746688
 31
0.0
 11
-39.82288524830901
 21
-107.5973414686835
 31
0.0
 11
-39.70840171620913
 21
-107.3532054544644
 31
0.0
 11
-39.58671531394137
 21
-107.1008636924629
 31
0.0
 11
-39.45778454869328
 21
-106.8411596559796
 31
0.0
 11
-39.3215679276524
 21
-106.5749368183154
 31
0.0
 11
-39.17802395800631
 21
-106.303038652771
 31
0.0
 11
-39.06328736569178
 21
-106.0918157836394
 31
0.0
 11
-38.95053505027915
 21
-105.8893348223362
 31
0.0
 11
-38.83998008806418
 21
-105.6955395893445
 31
0.0
 11
-38.73183555534263
 21
-105.5103739051475
 31
0.0
 11
-38.62631452841023
 21
-105.3337815902285
 31
0.0
 11
-38.52363008356281
 21
-105.1657064650708
 31
0.0
 11
-38.39070003333097
 21
-104.9535021853175
 31
0.0
 11
-38.2605572403636
 21
-104.7514685156432
 31
0.0
 11
-38.13344923959324
 21
-104.5594634924429
 31
0.0
 11
-38.0096235659524
 21
-104.377345152112
 31
0.0
 11
-37.88932775437361
 21
-104.2049715310458
 31
0.0
 11
-37.7728093397894
 21
-104.0422006656396
 31
0.0
 11
-37.60721145984378
 21
-103.8178098786592
 31
0.0
 11
-37.43226702068942
 21
-103.5894069952604
 31
0.0
 11
-37.24813666906862
 21
-103.3583858503945
 31
0.0
 11
-37.0549810517237
 21
-103.1261402790129
 31
0.0
 11
-36.89381557099352
 21
-102.9401147159893
 31
0.0
 11
-36.73637529719865
 21
-102.7650863483893
 31
0.0
 11
-36.58287240108969
 21
-102.6007183346599
 31
0.0
 11
-36.4335190534172
 21
-102.4466738332479
 31
0.0
 11
-36.28852742493174
 21
-102.3026160026004
 31
0.0
 11
-36.14810968638388
 21
-102.1682080011641
 31
0.0
 11
-36.01247800852419
 21
-102.0431129873862
 31
0.0
 11
-35.88184456210325
 21
-101.9269941197134
 31
0.0
 11
-35.7564215178716
 21
-101.8195145565928
 31
0.0
 11
-35.57973050548247
 21
-101.6747262216169
 31
0.0
 11
-35.40809574655201
 21
-101.5414650456106
 31
0.0
 11
-35.24171739534684
 21
-101.4192019099026
 31
0.0
 11
-35.08079560613361
 21
-101.3074076958219
 31
0.0
 11
-34.92553053317891
 21
-101.205553284697
 31
0.0
 11
-34.7761223307494
 21
-101.1131095578569
 31
0.0
 11
-34.60213271171821
 21
-101.0123408222198
 31
0.0
 11
-34.42887209694467
 21
-100.9193642955837
 31
0.0
 11
-34.2563891831856
 21
-100.8341272190049
 31
0.0
 11
-34.0847326671978
 21
-100.7565768335397
 31
0.0
 11
-33.9139512457381
 21
-100.6866603802443
 31
0.0
 11
-33.74976281164604
 21
-100.6262892964795
 31
0.0
 11
-33.59025556670254
 21
-100.5741103055738
 31
0.0
 11
-33.4355318997729
 21
-100.529636911985
 31
0.0
 11
-33.28569419972241
 21
-100.4923826201709
 31
0.0
 11
-33.1408448554164
 21
-100.4618609345894
 31
0.0
 11
-32.97692469241081
 21
-100.4339080567978
 31
0.0
 11
-32.80381602696131
 21
-100.4120867339902
 31
0.0
 11
-32.62219898542951
 21
-100.39783892704
 31
0.0
 11
-32.432753694177
 21
-100.3926065968208
 31
0.0
 11
-32.22967662905839
 21
-100.398193879647
 31
0.0
 11
-32.02955801840648
 21
-100.4153760201933
 31
0.0
 11
-31.83258923351398
 21
-100.4440085975619
 31
0.0
 11
-31.6389616456735
 21
-100.4839471908546
 31
0.0
 11
-31.44886662617778
 21
-100.5350473791737
 31
0.0
 11
-31.26249554631941
 21
-100.597164741621
 31
0.0
 11
-31.08003977739111
 21
-100.6701548572986
 31
0.0
 11
-30.96269496053326
 21
-100.7238108992652
 31
0.0
 11
-30.84160876655699
 21
-100.7849713152763
 31
0.0
 11
-30.71727490629988
 21
-100.8541915125715
 31
0.0
 11
-30.59018709059947
 21
-100.9320268983901
 31
0.0
 11
-30.4608390302933
 21
-101.0190328799715
 31
0.0
 11
-30.34619968840582
 21
-101.103117923291
 31
0.0
 11
-30.22973485390441
 21
-101.1956863557034
 31
0.0
 11
-30.1118728358188
 21
-101.297190344125
 31
0.0
 11
-29.99304194317869
 21
-101.4080820554721
 31
0.0
 11
-29.8736704850138
 21
-101.5288136566612
 31
0.0
 11
-29.76686555250805
 21
-101.645423914647
 31
0.0
 11
-29.66106095906706
 21
-101.7696252274286
 31
0.0
 11
-29.5564711734727
 21
-101.9016432232749
 31
0.0
 11
-29.4533106645068
 21
-102.0417035304547
 31
0.0
 11
-29.45066074572091
 21
-102.0454385149532
 31
0.0
 11
-29.4480128626661
 21
-102.049177730544
 31
0.0
  0
SPLINE
  5
91
330
47
100
AcDbEntity
  8
0
  6
Continuous
 62
     7
100
AcDbSpline
210
0.0
220
0.0
230
1.0
 70
     8
 71
     3
 72
    11
 73
     7
 74
     5
 42
0.000000001
 43
0.0000000001
 44
0.00000001
 40
0.0
 40
0.0
 40
0.0
 40
0.0
 40
2.10134697837573
 40
4.25347347624661
 40
6.405599974117521
 40
8.506946952493289
 40
8.506946952493289
 40
8.506946952493289
 40
8.506946952493289
 10
-42.1966699470962
 20
-115.791018636708
 30
0.0
 10
-42.09073102899742
 20
-115.0982316220001
 30
0.0
 10
-41.87629314028864
 20
-113.6959162421029
 30
0.0
 10
-41.34677715334314
 20
-111.6247128440841
 30
0.0
 10
-40.69100467516533
 20
-109.5899565556654
 30
0.0
 10
-40.12510396985209
 20
-108.2890997516564
 30
0.0
 10
-39.8455315749209
 20
-107.6464364042433
 30
0.0
 11
-42.1966699470962
 21
-115.791018636708
 31
0.0
 11
-41.8453737273631
 21
-113.7192440131196
 31
0.0
 11
-41.3255676008952
 21
-111.6308355144917
 31
0.0
 11
-40.65240982280429
 21
-109.5866958245365
 31
0.0
 11
-39.8455315749209
 21
-107.6464364042433
 31
0.0
  0
SPLINE
  5
92
330
47
100
AcDbEntity
  8
0
  6
Continuous
 62
     7
100
AcDbSpline
210
0.0
220
0.0
230
1.0
 70
     8
 71
     3
 72
    85
 73
    81
 74
    79
 42
0.000000001
 43
0.0000000001
 44
0.00000001
 40
0.0
 40
0.0
 40
0.0
 40
0.0
 40
0.0045803868096339
 40
0.0091613438692433
 40
0.2232357467920682
 40
0.4446806945389755
 40
0.6728006268609306
 40
0.8742401176279666
 40
1.070556166654584
 40
1.26216973215681
 40
1.449489580991383
 40
1.632910026891454
 40
1.812808720480333
 40
1.989544558357861
 40
2.163455776485621
 40
2.336093631238812
 40
2.508144013389296
 40
2.679918287148778
 40
2.851726512816549
 40
3.004380042342237
 40
3.151077948804224
 40
3.291721749294341
 40
3.426139006893301
 40
3.554088544048759
 40
3.684601400073289
 40
3.820973905324806
 40
3.963320175650521
 40
4.111790432232564
 40
4.266570753336804
 40
4.459152225784506
 40
4.657424357794506
 40
4.861804991725869
 40
5.072724957562551
 40
5.216885971001479
 40
5.367325750381361
 40
5.524225666692653
 40
5.687782656714212
 40
5.85820857562284
 40
6.035729499492508
 40
6.185719730986905
 40
6.343029370904507
 40
6.507815206338794
 40
6.680246116531142
 40
6.860502680853667
 40
7.048776757921284
 40
7.245271041742613
 40
7.598200615540791
 40
7.959159001422607
 40
8.328096414002893
 40
8.704911496080623
 40
9.089457869699615
 40
9.391529215412197
 40
9.686952226913995
 40
9.97465595281323
 40
10.25353564566064
 40
10.69574480136024
 40
11.14636854042716
 40
11.60510322697362
 40
11.8020634841084
 40
12.00778060249048
 40
12.22221374019534
 40
12.44532580169647
 40
12.67708348616536
 40
12.91745733260471
 40
13.39381651423148
 40
13.87602205203993
 40
14.36369602210642
 40
14.87879368143268
 40
15.39857529779415
 40
15.92257197390342
 40
16.16807692791947
 40
16.42487154794718
 40
16.69268069268373
 40
16.97123421964028
 40
17.26026720588489
 40
17.55952017580285
 40
17.85254262302911
 40
18.13583212604084
 40
18.40901081145935
 40
18.67169528125119
 40
18.67169528125119
 40
18.67169528125119
 40
18.67169528125119
 10
-36.3817653147115
 20
-126.0684008015294
 30
0.0
 10
-36.38317586286495
 20
-126.0689851474875
 30
0.0
 10
-36.38599713786224
 20
-126.0701539047141
 30
0.0
 10
-36.45477522141114
 20
-126.0985563103544
 30
0.0
 10
-36.59158319365741
 20
-126.1516604289518
 30
0.0
 10
-36.80128982162194
 20
-126.2223232683907
 30
0.0
 10
-37.01019989349618
 20
-126.2813959011512
 30
0.0
 10
-37.21361645322328
 20
-126.3280753383466
 30
0.0
 10
-37.40707887290932
 20
-126.3626929886152
 30
0.0
 10
-37.59734536168804
 20
-126.3871250004153
 30
0.0
 10
-37.78431069936026
 20
-126.4016733601084
 30
0.0
 10
-37.96786884826516
 20
-126.4066402079465
 30
0.0
 10
-38.1479139914918
 20
-126.4023281910512
 30
0.0
 10
-38.32434043418604
 20
-126.3890403946909
 30
0.0
 10
-38.49745124745239
 20
-126.3670282271639
 30
0.0
 10
-38.66766514787749
 20
-126.3364267105612
 30
0.0
 10
-38.83538109399306
 20
-126.2972498121095
 30
0.0
 10
-39.00058228790786
 20
-126.2495352635512
 30
0.0
 10
-39.15698692604374
 20
-126.1954662328345
 30
0.0
 10
-39.30280443925372
 20
-126.1369878904024
 30
0.0
 10
-39.43641243798213
 20
-126.0763818145585
 30
0.0
 10
-39.5619131692335
 20
-126.0129376306569
 30
0.0
 10
-39.67931988988449
 20
-125.9475841430364
 30
0.0
 10
-39.79130583734855
 20
-125.8796350997441
 30
0.0
 10
-39.90129915752146
 20
-125.8073115671646
 30
0.0
 10
-40.01247445588871
 20
-125.7282138018653
 30
0.0
 10
-40.12535146641023
 20
-125.6413509311289
 30
0.0
 10
-40.2395535873077
 20
-125.5463211815152
 30
0.0
 10
-40.36245305376314
 20
-125.4357517645378
 30
0.0
 10
-40.49238338059057
 20
-125.3083849176668
 30
0.0
 10
-40.62756868488252
 20
-125.1630602909127
 30
0.0
 10
-40.75999830571934
 20
-125.0071108777772
 30
0.0
 10
-40.8743344954204
 20
-124.8597061997029
 30
0.0
 10
-40.97279122889977
 20
-124.722930021412
 30
0.0
 10
-41.05720367098182
 20
-124.5983057248443
 30
0.0
 10
-41.14149085175131
 20
-124.4658651522302
 30
0.0
 10
-41.22538179831337
 20
-124.3253533381521
 30
0.0
 10
-41.30860461764391
 20
-124.1765167001172
 30
0.0
 10
-41.38550388522476
 20
-124.0294010963647
 30
0.0
 10
-41.45673455845824
 20
-123.8843244288884
 30
0.0
 10
-41.52286865267022
 20
-123.7415190229307
 30
0.0
 10
-41.58872021775272
 20
-123.5903860068985
 30
0.0
 10
-41.65400491844254
 20
-123.4307105512819
 30
0.0
 10
-41.718438161219
 20
-123.2622783853262
 30
0.0
 10
-41.7817358037404
 20
-123.0848743765731
 30
0.0
 10
-41.85914193772079
 20
-122.851456676318
 30
0.0
 10
-41.94584108645978
 20
-122.5605632041772
 30
0.0
 10
-42.03631403728942
 20
-122.2110695103819
 30
0.0
 10
-42.11653816439144
 20
-121.8509248690642
 30
0.0
 10
-42.18661983944772
 20
-121.4806724747015
 30
0.0
 10
-42.24198059547267
 20
-121.1304910117413
 30
0.0
 10
-42.28490358073277
 20
-120.8059462506288
 30
0.0
 10
-42.31749726504879
 20
-120.5126658184567
 30
0.0
 10
-42.34372737653665
 20
-120.2265132948336
 30
0.0
 10
-42.36844532554784
 20
-119.8911437834628
 30
0.0
 10
-42.38869735154757
 20
-119.5010516230007
 30
0.0
 10
-42.40074165777161
 20
-119.0506468942489
 30
0.0
 10
-42.4017312517189
 20
-118.6818376773856
 30
0.0
 10
-42.39780341014906
 20
-118.394724007754
 30
0.0
 10
-42.39296972537315
 20
-118.1890736689867
 30
0.0
 10
-42.38578647526002
 20
-117.9747696717221
 30
0.0
 10
-42.37604336887363
 20
-117.7518776636193
 30
0.0
 10
-42.36353022341187
 20
-117.5204635061992
 30
0.0
 10
-42.34315087759611
 20
-117.2049524486253
 30
0.0
 10
-42.31119150219634
 20
-116.8065562341647
 30
0.0
 10
-42.26306910970962
 20
-116.3268540999257
 30
0.0
 10
-42.20410427018803
 20
-115.8353557570411
 30
0.0
 10
-42.13388339032343
 20
-115.3326861664859
 30
0.0
 10
-42.05201964220308
 20
-114.8195184394285
 30
0.0
 10
-41.97624804734623
 20
-114.3964613685694
 30
0.0
 10
-41.91132497962313
 20
-114.0605762136892
 30
0.0
 10
-41.86037501703883
 20
-113.8089765787668
 30
0.0
 10
-41.80483260850175
 20
-113.5470784930927
 30
0.0
 10
-41.74448053159361
 20
-113.275227603671
 30
0.0
 10
-41.67910315010259
 20
-112.9937695587767
 30
0.0
 10
-41.60975340766855
 20
-112.7082979134297
 30
0.0
 10
-41.53801398339687
 20
-112.4253919182213
 30
0.0
 10
-41.4656848518954
 20
-112.1516182187247
 30
0.0
 10
-41.3936288434214
 20
-111.8882403914306
 30
0.0
 10
-41.34452852223217
 20
-111.7164991496278
 30
0.0
 10
-41.3204591416972
 20
-111.6323101996383
 30
0.0
 11
-36.3817653147115
 21
-126.0684008015294
 31
0.0
 11
-36.38599729327106
 21
-126.0701530514341
 31
0.0
 11
-36.39023136143921
 21
-126.0719017207806
 31
0.0
 11
-36.58983273104764
 21
-126.1492783539347
 31
0.0
 11
-36.79971607541554
 21
-126.2198959624007
 31
0.0
 11
-37.0192593080521
 21
-126.2818594396587
 31
0.0
 11
-37.21561239679958
 21
-126.3268409133128
 31
0.0
 11
-37.40887099114546
 21
-126.3613533286337
 31
0.0
 11
-37.59893165649636
 21
-126.3856987998219
 31
0.0
 11
-37.78569095825897
 21
-126.4001794410776
 31
0.0
 11
-37.96904546183995
 21
-126.4050973666013
 31
0.0
 11
-38.14889173264594
 21
-126.4007546905934
 31
0.0
 11
-38.32512633608366
 21
-126.3874535272543
 31
0.0
 11
-38.4976458375597
 21
-126.3654959907844
 31
0.0
 11
-38.66755719580507
 21
-126.3349352440381
 31
0.0
 11
-38.83509586721178
 21
-126.295792842577
 31
0.0
 11
-39.00012456342932
 21
-126.2481280698079
 31
0.0
 11
-39.1625059961072
 21
-126.1920002091375
 31
0.0
 11
-39.30419390567815
 21
-126.1351879184667
 31
0.0
 11
-39.43779451005099
 21
-126.0745978674276
 31
0.0
 11
-39.56331717331779
 21
-126.0111570317141
 31
0.0
 11
-39.68077125957063
 21
-125.9457923870207
 31
0.0
 11
-39.7901661329016
 21
-125.8794309090414
 31
0.0
 11
-39.89922562352702
 21
-125.8077396745304
 31
0.0
 11
-40.01035538988545
 21
-125.7286976905406
 31
0.0
 11
-40.12317998513883
 21
-125.6419044223748
 31
0.0
 11
-40.23732396244907
 21
-125.546959335336
 31
0.0
 11
-40.3524118749781
 21
-125.4434618947273
 31
0.0
 11
-40.48998313494666
 21
-125.3086962759844
 31
0.0
 11
-40.62508016560469
 21
-125.1635734635937
 31
0.0
 11
-40.75743370571845
 21
-125.0078365572895
 31
0.0
 11
-40.88677449405421
 21
-124.841228656806
 31
0.0
 11
-40.97101788921278
 21
-124.7242438364763
 31
0.0
 11
-41.05540922982404
 21
-124.5997037671374
 31
0.0
 11
-41.1396774435018
 21
-124.4673540337605
 31
0.0
 11
-41.22355145785991
 21
-124.3269402213171
 31
0.0
 11
-41.30676020051224
 21
-124.1782079147786
 31
0.0
 11
-41.38903259907261
 21
-124.0209026991165
 31
0.0
 11
-41.45515898762029
 21
-123.8862759176024
 31
0.0
 11
-41.52128903055418
 21
-123.7435414079227
 31
0.0
 11
-41.58713849635548
 21
-123.592484400684
 31
0.0
 11
-41.65242315350538
 21
-123.4328901264931
 31
0.0
 11
-41.71685877048509
 21
-123.2645438159567
 31
0.0
 11
-41.78016111577581
 21
-123.0872306996815
 31
0.0
 11
-41.8420459578587
 21
-122.9007360082741
 31
0.0
 11
-41.94303835510289
 21
-122.5625647205407
 31
0.0
 11
-42.03367240154326
 21
-122.213170350166
 31
0.0
 11
-42.11405322106572
 21
-121.8530957213214
 31
0.0
 11
-42.18428593755611
 21
-121.4828836581782
 31
0.0
 11
-42.2444756749003
 21
-121.1030769849078
 31
0.0
 11
-42.28414238820431
 21
-120.8036213958768
 31
0.0
 11
-42.3168248824897
 21
-120.5100117735319
 31
0.0
 11
-42.34313005449901
 21
-120.223513131547
 31
0.0
 11
-42.3636648009748
 21
-119.9453904835961
 31
0.0
 11
-42.38671810797202
 21
-119.50378264569
 31
0.0
 11
-42.39887919772819
 21
-119.0533230335349
 31
0.0
 11
-42.4002149296406
 21
-118.5945902915874
 31
0.0
 11
-42.39752802720055
 21
-118.3976483624338
 31
0.0
 11
-42.39270216947739
 21
-118.1919878560007
 31
0.0
 11
-42.38552712090454
 21
-117.9776747923805
 31
0.0
 11
-42.37579264591542
 21
-117.7547751916653
 31
0.0
 11
-42.36328850894344
 21
-117.5233550739473
 31
0.0
 11
-42.34780447442201
 21
-117.2834804593186
 31
0.0
 11
-42.30978074162841
 21
-116.808641259457
 31
0.0
 11
-42.26170870456739
 21
-116.3288379038999
 31
0.0
 11
-42.2036722623582
 21
-115.84462960935
 31
0.0
 11
-42.13246007351009
 21
-115.3344782368545
 31
0.0
 11
-42.05062175729427
 21
-114.8211796699778
 31
0.0
 11
-41.9582791516906
 21
-114.3053838190745
 31
0.0
 11
-41.91169119686451
 21
-114.0643397465069
 31
0.0
 11
-41.86072717773884
 21
-113.8126531444845
 31
0.0
 11
-41.805170192106
 21
-113.5506700164812
 31
0.0
 11
-41.7448033377584
 21
-113.2787363659709
 31
0.0
 11
-41.67940971248841
 21
-112.9971981964274
 31
0.0
 11
-41.60877241408851
 21
-112.7064015113248
 31
0.0
 11
-41.53673840684823
 21
-112.4223711320608
 31
0.0
 11
-41.4644172880932
 21
-112.1484685979135
 31
0.0
 11
-41.39219541423801
 21
-111.8850096925502
 31
0.0
 11
-41.3204591416972
 21
-111.6323101996383
 31
0.0
  0
SPLINE
  5
93
330
47
100
AcDbEntity
  8
0
  6
Continuous
 62
     7
100
AcDbSpline
210
0.0
220
0.0
230
1.0
 70
     8
 71
     3
 72
    21
 73
    17
 74
    15
 42
0.000000001
 43
0.0000000001
 44
0.00000001
 40
0.0
 40
0.0
 40
0.0
 40
0.0
 40
1.204150045865796
 40
2.561527970107752
 40
4.16646295403307
 40
6.051531313510282
 40
8.207177677766849
 40
10.5971364503248
 40
13.16785417432542
 40
15.85464658387428
 40
18.58638275677732
 40
21.28955212294036
 40
23.89214928885501
 40
26.32767312401665
 40
28.53961609970534
 40
30.48718324360292
 40
30.48718324360292
 40
30.48718324360292
 40
30.48718324360292
 10
-40.22725526944571
 20
-127.5603859705961
 30
0.0
 10
-40.59980470276157
 20
-127.397258091672
 30
0.0
 10
-41.39231041847065
 20
-127.0502443430084
 30
0.0
 10
-42.27858298204529
 20
-125.9231155345802
 30
0.0
 10
-42.95035909147014
 20
-124.4502532478341
 30
0.0
 10
-43.38936673633653
 20
-122.6081877781999
 30
0.0
 10
-43.59364600667862
 20
-120.4702847108788
 30
0.0
 10
-43.5552638559374
 20
-118.0940218186914
 30
0.0
 10
-43.27562847529263
 20
-115.5570730799801
 30
0.0
 10
-42.76307914602803
 20
-112.940819735339
 30
0.0
 10
-42.03431063920366
 20
-110.3305670959475
 30
0.0
 10
-41.11238526306354
 20
-107.8123046259266
 30
0.0
 10
-40.03008915775312
 20
-105.465346926088
 30
0.0
 10
-38.81422163903047
 20
-103.375060941662
 30
0.0
 10
-37.53245196473389
 20
-101.5765916796414
 30
0.0
 10
-36.53434006832851
 20
-100.6107144233315
 30
0.0
 10
-36.0670037977565
 20
-100.1584710713717
 30
0.0
 11
-40.22725526944571
 21
-127.5603859705961
 31
0.0
 11
-41.2901814302317
 21
-126.9945544302821
 31
0.0
 11
-42.1798166351428
 21
-125.9693598057454
 31
0.0
 11
-42.86664445303904
 21
-124.5188137543831
 31
0.0
 11
-43.32787852098635
 21
-122.691043021589
 31
0.0
 11
-43.54821546526344
 21
-120.5466869698951
 31
0.0
 11
-43.5203459704365
 21
-118.1568906974511
 31
0.0
 11
-43.24519377764704
 21
-115.6009406029728
 31
0.0
 11
-42.7318885886178
 21
-112.9636368219853
 31
0.0
 11
-41.99745968696267
 21
-110.3324780078528
 31
0.0
 11
-41.06627424319335
 21
-107.7947588960905
 31
0.0
 11
-39.96922588115852
 21
-105.4346748088434
 31
0.0
 11
-38.74271230801075
 21
-103.3305263331169
 31
0.0
 11
-37.42742561750867
 21
-101.5521246211669
 31
0.0
 11
-36.0670037977565
 21
-100.1584710713717
 31
0.0
  0
SPLINE
  5
94
330
47
100
AcDbEntity
  8
0
  6
Continuous
 62
     7
100
AcDbSpline
210
0.0
220
0.0
230
1.0
 70
     8
 71
     3
 72
    23
 73
    19
 74
    17
 42
0.000000001
 43
0.0000000001
 44
0.00000001
 40
0.0
 40
0.0
 40
0.0
 40
0.0
 40
0.779708609867673
 40
1.672325548625628
 40
2.742680420137082
 40
4.008188243258191
 40
5.455572596244494
 40
7.052686232144458
 40
8.755526954142972
 40
10.51293583798819
 40
12.27034472183346
 40
13.97318544383197
 40
15.5702990797319
 40
17.01768343271826
 40
18.28319125583934
 40
19.35354612735077
 40
20.24616306610874
 40
21.02587167597638
 40
21.02587167597638
 40
21.02587167597638
 40
21.02587167597638
 10
-32.500976854279
 20
-123.5457724336129
 30
0.0
 10
-32.23969277343092
 20
-123.5819826620509
 30
0.0
 10
-31.67928849270463
 20
-123.6596466533056
 30
0.0
 10
-30.80114734751236
 20
-123.3048265608263
 30
0.0
 10
-29.92702457865702
 20
-122.6753732129807
 30
0.0
 10
-29.05894234060228
 20
-121.7493738813251
 30
0.0
 10
-28.22790337580371
 20
-120.5743028080272
 30
0.0
 10
-27.4617632253644
 20
-119.1862046570055
 30
0.0
 10
-26.78967285965266
 20
-117.6378134344648
 30
0.0
 10
-26.23696092196993
 20
-115.9865410783787
 30
0.0
 10
-25.82461329450917
 20
-114.2947490361471
 30
0.0
 10
-25.5681075216701
 20
-112.6263888753232
 30
0.0
 10
-25.47660871866896
 20
-111.0435385425266
 30
0.0
 10
-25.55355467305026
 20
-109.6063548004744
 30
0.0
 10
-25.79458490826514
 20
-108.3601822763169
 30
0.0
 10
-26.19876719592345
 20
-107.3617140442291
 30
0.0
 10
-26.75271234101823
 20
-106.5934862491497
 30
0.0
 10
-27.26829072587021
 20
-106.3605407995969
 30
0.0
 10
-27.50867508825191
 20
-106.2519318226636
 30
0.0
 11
-32.500976854279
 21
-123.5457724336129
 31
0.0
 11
-31.7225516141659
 21
-123.590490180673
 31
0.0
 11
-30.87811530072251
 21
-123.3011939603584
 31
0.0
 11
-30.00011888684477
 21
-122.6889996737774
 31
0.0
 11
-29.12230336314361
 21
-121.7774351105666
 31
0.0
 11
-28.27840277045685
 21
-120.6015298209216
 31
0.0
 11
-27.50084749256396
 21
-119.2064743562103
 31
0.0
 11
-26.8195189363268
 21
-117.6458789842415
 31
0.0
 11
-26.2605996467452
 21
-115.9797171663226
 31
0.0
 11
-25.84556922338597
 21
-114.2720182105802
 31
0.0
 11
-25.59037631733845
 21
-112.5884080724373
 31
0.0
 11
-25.50482864655346
 21
-110.9935872186035
 31
0.0
 11
-25.5922129306563
 21
-109.5488431418051
 31
0.0
 11
-25.84917186983103
 21
-108.3096974077889
 31
0.0
 11
-26.26582987897015
 21
-107.3237685813897
 31
0.0
 11
-26.82617575895375
 21
-106.6289466723112
 31
0.0
 11
-27.50867508825191
 21
-106.2519318226636
 31
0.0
  0
SPLINE
  5
95
330
47
100
AcDbEntity
  8
0
  6
Continuous
 62
     7
100
AcDbSpline
210
0.0
220
0.0
230
1.0
 70
     8
 71
     3
 72
    23
 73
    19
 74
    17
 42
0.000000001
 43
0.0000000001
 44
0.00000001
 40
0.0
 40
0.0
 40
0.0
 40
0.0
 40
1.082928628568273
 40
2.322674374924676
 40
3.809278362469417
 40
5.566928116216031
 40
7.577184161396622
 40
9.795397543838922
 40
12.16045410126332
 40
14.60129977224598
 40
17.0421454432286
 40
19.40720200065296
 40
21.62541538309528
 40
23.63567142827593
 40
25.39332118202254
 40
26.87992516956727
 40
28.11967091592368
 40
29.20259954449189
 40
29.20259954449189
 40
29.20259954449189
 40
29.20259954449189
 10
-26.5379497448578
 20
-102.8892405927567
 30
0.0
 10
-26.20408257372645
 20
-103.0400863945756
 30
0.0
 10
-25.48800148061006
 20
-103.3636217385843
 30
0.0
 10
-24.71863323185857
 20
-104.4306047948106
 30
0.0
 10
-24.15726894138428
 20
-105.8173662250336
 30
0.0
 10
-23.82250472718735
 20
-107.5481613977211
 30
0.0
 10
-23.7156353461416
 20
-109.5442499274411
 30
0.0
 10
-23.84271701733378
 20
-111.7426531667349
 30
0.0
 10
-24.19897503524154
 20
-114.0598200558184
 30
0.0
 10
-24.77168007325013
 20
-116.4095312246021
 30
0.0
 10
-25.53933554184147
 20
-118.702965051598
 30
0.0
 10
-26.47279438253768
 20
-120.8535084154748
 30
0.0
 10
-27.53687792413837
 20
-122.781422513713
 30
0.0
 10
-28.69109870806339
 20
-124.4134656703238
 30
0.0
 10
-29.89676848210379
 20
-125.6995758541224
 30
0.0
 10
-31.11082788331221
 20
-126.5738166111861
 30
0.0
 10
-32.33046835970164
 20
-127.0666223059721
 30
0.0
 10
-33.10880763968235
 20
-126.9587556476357
 30
0.0
 10
-33.4717021976731
 20
-126.9084636635198
 30
0.0
 11
-26.5379497448578
 21
-102.8892405927567
 31
0.0
 11
-25.59003400972145
 21
-103.4128723283784
 31
0.0
 11
-24.8117758430775
 21
-104.3779027576542
 31
0.0
 11
-24.23308416371763
 21
-105.7472483498752
 31
0.0
 11
-23.87619674819721
 21
-107.4682840915644
 31
0.0
 11
-23.75482968694323
 21
-109.4748730871177
 31
0.0
 11
-23.8736458963668
 21
-111.6899020507759
 31
0.0
 11
-24.22808048809945
 21
-114.0282494648632
 31
0.0
 11
-24.80451163165395
 21
-116.4000535700609
 31
0.0
 11
-25.58078842273954
 21
-118.7141672060595
 31
0.0
 11
-26.52707808418005
 21
-120.8816607782382
 31
0.0
 11
-27.6070159701424
 21
-122.8192378125595
 31
0.0
 11
-28.77910012665181
 21
-124.4524396037333
 31
0.0
 11
-29.99828835401451
 21
-125.7185014970815
 31
0.0
 11
-31.21772781773355
 21
-126.5687713395551
 31
0.0
 11
-32.39055603084941
 21
-126.9705716455477
 31
0.0
 11
-33.4717021976731
 21
-126.9084636635198
 31
0.0
  0
SPLINE
  5
96
330
47
100
AcDbEntity
  8
0
  6
Continuous
 62
     7
100
AcDbSpline
210
0.0
220
0.0
230
1.0
 70
     8
 71
     3
 72
    23
 73
    19
 74
    17
 42
0.000000001
 43
0.0000000001
 44
0.00000001
 40
0.0
 40
0.0
 40
0.0
 40
0.0
 40
1.082928628568254
 40
2.322674374924653
 40
3.809278362469424
 40
5.566928116215989
 40
7.577184161396586
 40
9.79539754383893
 40
12.16045410126335
 40
14.60129977224599
 40
17.0421454432286
 40
19.40720200065297
 40
21.62541538309528
 40
23.63567142827595
 40
25.39332118202252
 40
26.87992516956723
 40
28.11967091592359
 40
29.20259954449185
 40
29.20259954449185
 40
29.20259954449185
 40
29.20259954449185
 10
-30.8724177705837
 20
-101.6379874520334
 30
0.0
 10
-31.23531232857447
 20
-101.5876954679175
 30
0.0
 10
-32.01365160855518
 20
-101.4798288095811
 30
0.0
 10
-33.23329208494466
 20
-101.9726345043671
 30
0.0
 10
-34.44735148615311
 20
-102.8468752614307
 30
0.0
 10
-35.65302126019344
 20
-104.1329854452294
 30
0.0
 10
-36.80724204411847
 20
-105.7650286018402
 30
0.0
 10
-37.87132558571917
 20
-107.6929427000783
 30
0.0
 10
-38.80478442641544
 20
-109.8434860639551
 30
0.0
 10
-39.57243989500671
 20
-112.1369198909511
 30
0.0
 10
-40.14514493301526
 20
-114.4866310597347
 30
0.0
 10
-40.50140295092309
 20
-116.8037979488182
 30
0.0
 10
-40.62848462211527
 20
-119.0022011881121
 30
0.0
 10
-40.52161524106945
 20
-120.9982897178321
 30
0.0
 10
-40.18685102687251
 20
-122.7290848905195
 30
0.0
 10
-39.62548673639832
 20
-124.1158463207425
 30
0.0
 10
-38.85611848764682
 20
-125.1828293769688
 30
0.0
 10
-38.14003739453046
 20
-125.5063647209775
 30
0.0
 10
-37.80617022339911
 20
-125.6572105227964
 30
0.0
 11
-30.8724177705837
 21
-101.6379874520334
 31
0.0
 11
-31.95356393740744
 21
-101.5758794700055
 31
0.0
 11
-33.1263921505233
 21
-101.9776797759981
 31
0.0
 11
-34.34583161424239
 21
-102.8279496184716
 31
0.0
 11
-35.56501984160505
 21
-104.0940115118198
 31
0.0
 11
-36.73710399811442
 21
-105.7272133029936
 31
0.0
 11
-37.8170418840768
 21
-107.6647903373149
 31
0.0
 11
-38.76333154551735
 21
-109.8322839094937
 31
0.0
 11
-39.5396083366029
 21
-112.1463975454922
 31
0.0
 11
-40.11603948015737
 21
-114.51820165069
 31
0.0
 11
-40.47047407189005
 21
-116.8565490647773
 31
0.0
 11
-40.58929028131362
 21
-119.0715780284354
 31
0.0
 11
-40.4679232200596
 21
-121.0781670239888
 31
0.0
 11
-40.11103580453918
 21
-122.7992027656779
 31
0.0
 11
-39.53234412517936
 21
-124.1685483578989
 31
0.0
 11
-38.75408595853546
 21
-125.1335787871747
 31
0.0
 11
-37.80617022339911
 21
-125.6572105227964
 31
0.0
  0
ENDBLK
  5
49
330
47
100
AcDbEntity
  8
0
100
AcDbBlockEnd
  0
BLOCK
  5
4C
330
4A
100
AcDbEntity
  8
0
100
AcDbBlockBegin
  2
Allg1
 70
     0
 10
-42.1291819999996
 20
-111.37839
 30
0.0
  3
Allg1
  1

  0
INSERT
  5
4B
330
4A
100
AcDbEntity
  8
0
100
AcDbBlockReference
  2
1686850_HC_NPT_3_4_M25-select__1
 10
-61.80873129052935
 20
-127.7365470753293
 30
0.0
  0
MTEXT
  5
98
330
4A
100
AcDbEntity
  8
1
 62
     6
100
AcDbMText
 10
-41.99999999999602
 20
-147.14834139562
 30
0.0
 40
2.5
 41
0.0
 71
     2
 72
     1
  1
 
  7
CONVERTER_11
 73
     1
 44
1.32052821128451
  0
ENDBLK
  5
4D
330
4A
100
AcDbEntity
  8
0
100
AcDbBlockEnd
  0
BLOCK
  5
4F
330
4E
100
AcDbEntity
  8
0
100
AcDbBlockBegin
  2
1686850_HC_NPT_3_4_M25-select__2
 70
     0
 10
-148.5000064802578
 20
-112.5236314961547
 30
0.0
  3
1686850_HC_NPT_3_4_M25-select__2
  1

  0
LINE
  5
99
330
4E
100
AcDbEntity
  8
0
  6
Continuous
 62
     7
100
AcDbLine
 10
-120.5000064802578
 20
-85.02363149615468
 30
0.0
 11
-125.5050190431512
 21
-85.02363149615468
 31
0.0
  0
LINE
  5
9A
330
4E
100
AcDbEntity
  8
0
  6
Continuous
 62
     7
100
AcDbLine
 10
-120.5000064802578
 20
-97.52363149615468
 30
0.0
 11
-120.5000064802578
 21
-85.02363149615468
 31
0.0
  0
LINE
  5
9B
330
4E
100
AcDbEntity
  8
0
  6
Continuous
 62
     7
100
AcDbLine
 10
-127.4707758364857
 20
-84.88361721114445
 30
0.0
 11
-127.4707758364857
 21
-110.1636457811649
 31
0.0
  0
LINE
  5
9C
330
4E
100
AcDbEntity
  8
0
  6
Continuous
 62
     7
100
AcDbLine
 10
-120.5000064802578
 20
-110.0236314961547
 30
0.0
 11
-125.5050190431512
 21
-110.0236314961547
 31
0.0
  0
LINE
  5
9D
330
4E
100
AcDbEntity
  8
0
  6
Continuous
 62
     7
100
AcDbLine
 10
-127.4707758364857
 20
-110.1636457811649
 30
0.0
 11
-127.5000064802578
 21
-110.1636457811649
 31
0.0
  0
LINE
  5
9E
330
4E
100
AcDbEntity
  8
0
  6
Continuous
 62
     7
100
AcDbLine
 10
-120.5000064802578
 20
-110.0236314961547
 30
0.0
 11
-120.5000064802578
 21
-97.52363149615468
 31
0.0
  0
LINE
  5
9F
330
4E
100
AcDbEntity
  8
0
  6
Continuous
 62
     7
100
AcDbLine
 10
-125.5050190431512
 20
-85.02363149615468
 30
0.0
 11
-125.5050190431512
 21
-110.0236314961547
 31
0.0
  0
LINE
  5
A0
330
4E
100
AcDbEntity
  8
0
  6
Continuous
 62
     7
100
AcDbLine
 10
-127.5000064802578
 20
-112.5236314961547
 30
0.0
 11
-148.5000064802578
 21
-112.5236314961547
 31
0.0
  0
LINE
  5
A1
330
4E
100
AcDbEntity
  8
0
  6
Continuous
 62
     7
100
AcDbLine
 10
-148.5000064802578
 20
-97.52363149615468
 30
0.0
 11
-148.5000064802578
 21
-82.52363149615468
 31
0.0
  0
LINE
  5
A2
330
4E
100
AcDbEntity
  8
0
  6
Continuous
 62
     7
100
AcDbLine
 10
-127.5000064802578
 20
-82.52363149615468
 30
0.0
 11
-148.5000064802578
 21
-82.52363149615468
 31
0.0
  0
LINE
  5
A3
330
4E
100
AcDbEntity
  8
0
  6
Continuous
 62
     7
100
AcDbLine
 10
-127.4707758364857
 20
-84.88361721114445
 30
0.0
 11
-127.5000064802578
 21
-84.88361721114445
 31
0.0
  0
LINE
  5
A4
330
4E
100
AcDbEntity
  8
0
  6
Continuous
 62
     7
100
AcDbLine
 10
-127.5000064802578
 20
-84.88361721114445
 30
0.0
 11
-127.5000064802578
 21
-82.52363149615468
 31
0.0
  0
LINE
  5
A5
330
4E
100
AcDbEntity
  8
0
  6
Continuous
 62
     7
100
AcDbLine
 10
-127.5000064802578
 20
-97.52363149615468
 30
0.0
 11
-127.5000064802578
 21
-84.88361721114445
 31
0.0
  0
LINE
  5
A6
330
4E
100
AcDbEntity
  8
0
  6
Continuous
 62
     7
100
AcDbLine
 10
-127.5000064802578
 20
-112.5236314961547
 30
0.0
 11
-127.5000064802578
 21
-110.1636457811649
 31
0.0
  0
LINE
  5
A7
330
4E
100
AcDbEntity
  8
0
  6
Continuous
 62
     7
100
AcDbLine
 10
-127.5000064802578
 20
-110.1636457811649
 30
0.0
 11
-127.5000064802578
 21
-97.52363149615468
 31
0.0
  0
LINE
  5
A8
330
4E
100
AcDbEntity
  8
0
  6
Continuous
 62
     7
100
AcDbLine
 10
-148.5000064802578
 20
-112.5236314961547
 30
0.0
 11
-148.5000064802578
 21
-97.52363149615468
 31
0.0
  0
LINE
  5
A9
330
4E
100
AcDbEntity
  8
1
  6
DOT_CENTER
 62
     2
100
AcDbLine
 10
-120.5000064802578
 20
-97.52363149615468
 30
0.0
 11
-125.5050190431512
 21
-97.52363149615468
 31
0.0
  0
LINE
  5
AA
330
4E
100
AcDbEntity
  8
1
  6
DOT_CENTER
 62
     2
100
AcDbLine
 10
-127.4707758364857
 20
-97.52363149615468
 30
0.0
 11
-148.5000064802443
 21
-97.52363149615121
 31
0.0
  0
ARC
  5
AB
330
4E
100
AcDbEntity
  8
0
  6
Continuous
 62
     7
100
AcDbCircle
 10
-126.5000064802578
 20
-85.12363149615467
 30
0.0
 40
0.9999999999999812
100
AcDbArc
 50
5.73917047726657
 51
166.1126165232976
  0
ARC
  5
AC
330
4E
100
AcDbEntity
  8
0
  6
Continuous
 62
     7
100
AcDbCircle
 10
-126.5000064802578
 20
-109.9236314961547
 30
0.0
 40
1.00000000000005
100
AcDbArc
 50
193.8873834767016
 51
354.2608295227326
  0
ENDBLK
  5
50
330
4E
100
AcDbEntity
  8
0
100
AcDbBlockEnd
  0
BLOCK
  5
53
330
51
100
AcDbEntity
  8
0
100
AcDbBlockBegin
  2
Drfsicht1
 70
     0
 10
-134.5000069141389
 20
-97.52363149615468
 30
0.0
  3
Drfsicht1
  1

  0
INSERT
  5
52
330
51
100
AcDbEntity
  8
0
100
AcDbBlockReference
  2
1686850_HC_NPT_3_4_M25-select__2
 10
-148.5000064802578
 20
-112.5236314961547
 30
0.0
  0
MTEXT
  5
AD
330
51
100
AcDbEntity
  8
1
 62
     6
100
AcDbMText
 10
-134.5000069141389
 20
-123.0236334035033
 30
0.0
 40
2.5
 41
0.0
 71
     2
 72
     1
  1
 
  7
CONVERTER_11
 73
     1
 44
1.32052821128451
  0
ENDBLK
  5
54
330
51
100
AcDbEntity
  8
0
100
AcDbBlockEnd
  0
BLOCK
  5
56
330
55
100
AcDbEntity
  8
0
100
AcDbBlockBegin
  2
1686850_HC_NPT_3_4_M25-select__3
 70
     0
 10
-56.50000043388104
 20
-60.52362750512686
 30
0.0
  3
1686850_HC_NPT_3_4_M25-select__3
  1

  0
LINE
  5
AE
330
55
100
AcDbEntity
  8
0
  6
Continuous
 62
     7
100
AcDbLine
 10
-49.50000043388104
 20
-30.52362750512686
 30
0.0
 11
-49.50000043388104
 21
-32.88361322011664
 31
0.0
  0
LINE
  5
AF
330
55
100
AcDbEntity
  8
0
  6
Continuous
 62
     7
100
AcDbLine
 10
-49.50000043388104
 20
-58.16364179013709
 30
0.0
 11
-49.50000043388104
 21
-60.52362750512686
 31
0.0
  0
LINE
  5
B0
330
55
100
AcDbEntity
  8
0
  6
Continuous
 62
     7
100
AcDbLine
 10
-49.50000043388104
 20
-32.88361322011664
 30
0.0
 11
-49.50000043388104
 21
-58.16364179013709
 31
0.0
  0
LINE
  5
B1
330
55
100
AcDbEntity
  8
0
  6
Continuous
 62
     7
100
AcDbLine
 10
-49.50000043388104
 20
-60.52362750512686
 30
0.0
 11
-28.50000043388104
 21
-60.52362750512686
 31
0.0
  0
LINE
  5
B2
330
55
100
AcDbEntity
  8
0
  6
Continuous
 62
     7
100
AcDbLine
 10
-49.50000043388104
 20
-30.52362750512686
 30
0.0
 11
-28.50000043388104
 21
-30.52362750512686
 31
0.0
  0
LINE
  5
B3
330
55
100
AcDbEntity
  8
0
  6
Continuous
 62
     7
100
AcDbLine
 10
-28.50000043388104
 20
-30.52362750512686
 30
0.0
 11
-28.50000043388104
 21
-60.52362750512686
 31
0.0
  0
LINE
  5
B4
330
55
100
AcDbEntity
  8
0
  6
Continuous
 62
     7
100
AcDbLine
 10
-49.52923107765319
 20
-58.16364179013709
 30
0.0
 11
-49.50000043388104
 21
-58.16364179013709
 31
0.0
  0
LINE
  5
B5
330
55
100
AcDbEntity
  8
0
  6
Continuous
 62
     7
100
AcDbLine
 10
-51.49498787098766
 20
-58.02362750512686
 30
0.0
 11
-51.49498787098766
 21
-33.02362750512686
 31
0.0
  0
LINE
  5
B6
330
55
100
AcDbEntity
  8
0
  6
Continuous
 62
     7
100
AcDbLine
 10
-56.50000043388104
 20
-58.02362750512686
 30
0.0
 11
-51.49498787098766
 21
-58.02362750512686
 31
0.0
  0
LINE
  5
B7
330
55
100
AcDbEntity
  8
0
  6
Continuous
 62
     7
100
AcDbLine
 10
-56.50000043388104
 20
-33.02362750512686
 30
0.0
 11
-56.50000043388104
 21
-58.02362750512686
 31
0.0
  0
LINE
  5
B8
330
55
100
AcDbEntity
  8
0
  6
Continuous
 62
     7
100
AcDbLine
 10
-56.50000043388104
 20
-33.02362750512686
 30
0.0
 11
-51.49498787098766
 21
-33.02362750512686
 31
0.0
  0
LINE
  5
B9
330
55
100
AcDbEntity
  8
0
  6
Continuous
 62
     7
100
AcDbLine
 10
-49.52923107765319
 20
-58.16364179013709
 30
0.0
 11
-49.52923107765319
 21
-32.88361322011664
 31
0.0
  0
LINE
  5
BA
330
55
100
AcDbEntity
  8
0
  6
Continuous
 62
     7
100
AcDbLine
 10
-49.52923107765319
 20
-32.88361322011664
 30
0.0
 11
-49.50000043388104
 21
-32.88361322011664
 31
0.0
  0
LINE
  5
BB
330
55
100
AcDbEntity
  8
1
  6
DOT_CENTER
 62
     2
100
AcDbLine
 10
-56.50000043388104
 20
-45.52362750512686
 30
0.0
 11
-51.49498787098766
 21
-45.52362750512686
 31
0.0
  0
LINE
  5
BC
330
55
100
AcDbEntity
  8
1
  6
DOT_CENTER
 62
     2
100
AcDbLine
 10
-49.52923107765319
 20
-45.52362750512686
 30
0.0
 11
-28.50000043388718
 21
-45.52362750512839
 31
0.0
  0
ARC
  5
BD
330
55
100
AcDbEntity
  8
0
  6
Continuous
 62
     7
100
AcDbCircle
 10
-50.50000043388104
 20
-57.92362750512687
 30
0.0
 40
0.9999999999999947
100
AcDbArc
 50
185.739170477266
 51
346.1126165232968
  0
ARC
  5
BE
330
55
100
AcDbEntity
  8
0
  6
Continuous
 62
     7
100
AcDbCircle
 10
-50.50000043388104
 20
-33.12362750512686
 30
0.0
 40
1.0
100
AcDbArc
 50
13.88738347670355
 51
174.2608295227331
  0
ENDBLK
  5
57
330
55
100
AcDbEntity
  8
0
100
AcDbBlockEnd
  0
BLOCK
  5
5A
330
58
100
AcDbEntity
  8
0
100
AcDbBlockBegin
  2
Rckans1
 70
     0
 10
-42.5
 20
-45.49999999999991
 30
0.0
  3
Rckans1
  1

  0
INSERT
  5
59
330
58
100
AcDbEntity
  8
0
100
AcDbBlockReference
  2
1686850_HC_NPT_3_4_M25-select__3
 10
-56.50000043388104
 20
-60.52362750512686
 30
0.0
  0
MTEXT
  5
BF
330
58
100
AcDbEntity
  8
1
 62
     6
100
AcDbMText
 10
-42.500000000005
 20
-71.02362950512702
 30
0.0
 40
2.5
 41
0.0
 71
     2
 72
     1
  1
 
  7
CONVERTER_11
 73
     1
 44
1.32052821128451
  0
ENDBLK
  5
5B
330
58
100
AcDbEntity
  8
0
100
AcDbBlockEnd
  0
BLOCK
  5
5D
330
5C
100
AcDbEntity
  8
0
100
AcDbBlockBegin
  2
1686850_HC_NPT_3_4_M25-select__4
 70
     0
 10
-103.5000030000001
 20
-60.52362750512693
 30
0.0
  3
1686850_HC_NPT_3_4_M25-select__4
  1

  0
LINE
  5
C0
330
5C
100
AcDbEntity
  8
1
  6
DOT_CENTER
 62
     2
100
AcDbLine
 10
-72.00000300000005
 20
-45.52362750512693
 30
0.0
 11
-105.0000030000001
 21
-45.52362750512693
 31
0.0
  0
LINE
  5
C1
330
5C
100
AcDbEntity
  8
1
  6
DOT_CENTER
 62
     2
100
AcDbLine
 10
-88.50000300000005
 20
-29.02362750512693
 30
0.0
 11
-88.50000300000005
 21
-62.02362750512694
 31
0.0
  0
CIRCLE
  5
C2
330
5C
100
AcDbEntity
  8
0
  6
Continuous
 62
     7
100
AcDbCircle
 10
-88.50000300000005
 20
-45.52362750512693
 30
0.0
 40
9.0
  0
CIRCLE
  5
C3
330
5C
100
AcDbEntity
  8
0
  6
Continuous
 62
     7
100
AcDbCircle
 10
-88.50000300000005
 20
-45.52362750512693
 30
0.0
 40
13.284
  0
CIRCLE
  5
C4
330
5C
100
AcDbEntity
  8
0
  6
Continuous
 62
     7
100
AcDbCircle
 10
-88.50000300000005
 20
-45.52362750512693
 30
0.0
 40
15.0
  0
ENDBLK
  5
5E
330
5C
100
AcDbEntity
  8
0
100
AcDbBlockEnd
  0
BLOCK
  5
61
330
5F
100
AcDbEntity
  8
0
100
AcDbBlockBegin
  2
SA_Links1
 70
     0
 10
-88.50000300000005
 20
-45.49999999999997
 30
0.0
  3
SA_Links1
  1

  0
INSERT
  5
60
330
5F
100
AcDbEntity
  8
0
100
AcDbBlockReference
  2
1686850_HC_NPT_3_4_M25-select__4
 10
-103.5000030000001
 20
-60.52362750512693
 30
0.0
  0
MTEXT
  5
C5
330
5F
100
AcDbEntity
  8
1
 62
     6
100
AcDbMText
 10
-88.5000034570744
 20
-71.02362950512702
 30
0.0
 40
2.5
 41
0.0
 71
     2
 72
     1
  1
 
  7
CONVERTER_11
 73
     1
 44
1.32052821128451
  0
ENDBLK
  5
62
330
5F
100
AcDbEntity
  8
0
100
AcDbBlockEnd
  0
BLOCK
  5
64
330
63
100
AcDbEntity
  8
0
100
AcDbBlockBegin
  2
1686850_HC_NPT_3_4_M25-select__5
 70
     0
 10
-200.5000100000001
 20
-60.52362750512686
 30
0.0
  3
1686850_HC_NPT_3_4_M25-select__5
  1

  0
LINE
  5
C6
330
63
100
AcDbEntity
  8
1
  6
DOT_CENTER
 62
     2
100
AcDbLine
 10
-169.0000100000001
 20
-45.52362750512686
 30
0.0
 11
-202.0000100000001
 21
-45.52362750512686
 31
0.0
  0
LINE
  5
C7
330
63
100
AcDbEntity
  8
1
  6
DOT_CENTER
 62
     2
100
AcDbLine
 10
-185.5000100000001
 20
-29.02362750512686
 30
0.0
 11
-185.5000100000001
 21
-62.02362750512686
 31
0.0
  0
CIRCLE
  5
C8
330
63
100
AcDbEntity
  8
0
  6
Continuous
 62
     7
100
AcDbCircle
 10
-185.5000100000001
 20
-45.52362750512686
 30
0.0
 40
12.5
  0
CIRCLE
  5
C9
330
63
100
AcDbEntity
  8
0
  6
Continuous
 62
     7
100
AcDbCircle
 10
-185.5000100000001
 20
-45.52362750512686
 30
0.0
 40
9.0
  0
CIRCLE
  5
CA
330
63
100
AcDbEntity
  8
0
  6
Continuous
 62
     7
100
AcDbCircle
 10
-185.5000100000001
 20
-45.52362750512686
 30
0.0
 40
13.40000000000001
  0
CIRCLE
  5
CB
330
63
100
AcDbEntity
  8
0
  6
Continuous
 62
     7
100
AcDbCircle
 10
-185.5000100000001
 20
-45.52362750512686
 30
0.0
 40
15.0
  0
ENDBLK
  5
65
330
63
100
AcDbEntity
  8
0
100
AcDbBlockEnd
  0
BLOCK
  5
68
330
66
100
AcDbEntity
  8
0
100
AcDbBlockBegin
  2
SA_Rechts1
 70
     0
 10
-185.5000100000001
 20
-45.49999999999991
 30
0.0
  3
SA_Rechts1
  1

  0
INSERT
  5
67
330
66
100
AcDbEntity
  8
0
100
AcDbBlockReference
  2
1686850_HC_NPT_3_4_M25-select__5
 10
-200.5000100000001
 20
-60.52362750512686
 30
0.0
  0
MTEXT
  5
CC
330
66
100
AcDbEntity
  8
1
 62
     6
100
AcDbMText
 10
-185.5000097285272
 20
-71.02362950512713
 30
0.0
 40
2.5
 41
0.0
 71
     2
 72
     1
  1
 
  7
CONVERTER_11
 73
     1
 44
1.32052821128451
  0
ENDBLK
  5
69
330
66
100
AcDbEntity
  8
0
100
AcDbBlockEnd
  0
BLOCK
  5
6B
330
6A
100
AcDbEntity
  8
0
100
AcDbBlockBegin
  2
1686850_HC_NPT_3_4_M25-select__6
 70
     0
 10
-148.5000065661178
 20
-60.52362750512687
 30
0.0
  3
1686850_HC_NPT_3_4_M25-select__6
  1

  0
LINE
  5
CD
330
6A
100
AcDbEntity
  8
0
  6
Continuous
 62
     7
100
AcDbLine
 10
-127.4707759223456
 20
-58.16364179013709
 30
0.0
 11
-127.5000065661178
 21
-58.16364179013709
 31
0.0
  0
LINE
  5
CE
330
6A
100
AcDbEntity
  8
0
  6
Continuous
 62
     7
100
AcDbLine
 10
-127.4707759223456
 20
-32.88361322011664
 30
0.0
 11
-127.4707759223456
 21
-58.16364179013709
 31
0.0
  0
LINE
  5
CF
330
6A
100
AcDbEntity
  8
0
  6
Continuous
 62
     7
100
AcDbLine
 10
-127.4707759223456
 20
-32.88361322011664
 30
0.0
 11
-127.5000065661178
 21
-32.88361322011664
 31
0.0
  0
LINE
  5
D0
330
6A
100
AcDbEntity
  8
0
  6
Continuous
 62
     7
100
AcDbLine
 10
-127.5000065661178
 20
-60.52362750512687
 30
0.0
 11
-127.5000065661178
 21
-58.16364179013709
 31
0.0
  0
LINE
  5
D1
330
6A
100
AcDbEntity
  8
0
  6
Continuous
 62
     7
100
AcDbLine
 10
-127.5000065661178
 20
-32.88361322011664
 30
0.0
 11
-127.5000065661178
 21
-30.52362750512687
 31
0.0
  0
LINE
  5
D2
330
6A
100
AcDbEntity
  8
0
  6
Continuous
 62
     7
100
AcDbLine
 10
-127.5000065661178
 20
-58.16364179013709
 30
0.0
 11
-127.5000065661178
 21
-32.88361322011664
 31
0.0
  0
LINE
  5
D3
330
6A
100
AcDbEntity
  8
0
  6
Continuous
 62
     7
100
AcDbLine
 10
-127.5000065661178
 20
-60.52362750512687
 30
0.0
 11
-148.5000065661178
 21
-60.52362750512687
 31
0.0
  0
LINE
  5
D4
330
6A
100
AcDbEntity
  8
0
  6
Continuous
 62
     7
100
AcDbLine
 10
-148.5000065661178
 20
-60.52362750512687
 30
0.0
 11
-148.5000065661178
 21
-30.52362750512687
 31
0.0
  0
LINE
  5
D5
330
6A
100
AcDbEntity
  8
0
  6
Continuous
 62
     7
100
AcDbLine
 10
-127.5000065661178
 20
-30.52362750512687
 30
0.0
 11
-148.5000065661178
 21
-30.52362750512687
 31
0.0
  0
LINE
  5
D6
330
6A
100
AcDbEntity
  8
0
  6
Continuous
 62
     7
100
AcDbLine
 10
-125.5050191290112
 20
-33.02362750512687
 30
0.0
 11
-125.5050191290112
 21
-58.02362750512687
 31
0.0
  0
LINE
  5
D7
330
6A
100
AcDbEntity
  8
0
  6
Continuous
 62
     7
100
AcDbLine
 10
-120.5000065661178
 20
-33.02362750512687
 30
0.0
 11
-125.5050191290112
 21
-33.02362750512687
 31
0.0
  0
LINE
  5
D8
330
6A
100
AcDbEntity
  8
0
  6
Continuous
 62
     7
100
AcDbLine
 10
-120.5000065661178
 20
-58.02362750512687
 30
0.0
 11
-120.5000065661178
 21
-33.02362750512687
 31
0.0
  0
LINE
  5
D9
330
6A
100
AcDbEntity
  8
0
  6
Continuous
 62
     7
100
AcDbLine
 10
-120.5000065661178
 20
-58.02362750512687
 30
0.0
 11
-125.5050191290112
 21
-58.02362750512687
 31
0.0
  0
LINE
  5
DA
330
6A
100
AcDbEntity
  8
1
  6
DOT_CENTER
 62
     2
100
AcDbLine
 10
-120.5000065661178
 20
-45.52362750512687
 30
0.0
 11
-125.5050191290112
 21
-45.52362750512687
 31
0.0
  0
LINE
  5
DB
330
6A
100
AcDbEntity
  8
1
  6
DOT_CENTER
 62
     2
100
AcDbLine
 10
-127.4707759223456
 20
-45.52362750512687
 30
0.0
 11
-148.5000065661152
 21
-45.52362750512839
 31
0.0
  0
ARC
  5
DC
330
6A
100
AcDbEntity
  8
0
  6
Continuous
 62
     7
100
AcDbCircle
 10
-126.5000065661178
 20
-57.92362750512687
 30
0.0
 40
0.999999999999943
100
AcDbArc
 50
193.8873834767039
 51
354.2608295227334
  0
ARC
  5
DD
330
6A
100
AcDbEntity
  8
0
  6
Continuous
 62
     7
100
AcDbCircle
 10
-126.5000065661178
 20
-33.12362750512687
 30
0.0
 40
0.9999999999999819
100
AcDbArc
 50
5.73917047726697
 51
166.1126165232953
  0
ENDBLK
  5
6C
330
6A
100
AcDbEntity
  8
0
100
AcDbBlockEnd
  0
BLOCK
  5
6F
330
6D
100
AcDbEntity
  8
0
100
AcDbBlockBegin
  2
Vordans1
 70
     0
 10
-134.5000069999989
 20
-45.49999999999992
 30
0.0
  3
Vordans1
  1

  0
INSERT
  5
6E
330
6D
100
AcDbEntity
  8
0
100
AcDbBlockReference
  2
1686850_HC_NPT_3_4_M25-select__6
 10
-148.5000065661178
 20
-60.52362750512687
 30
0.0
  0
MTEXT
  5
DE
330
6D
100
AcDbEntity
  8
1
 62
     6
100
AcDbMText
 10
-134.5000069141389
 20
-71.02362950512702
 30
0.0
 40
2.5
 41
0.0
 71
     2
 72
     1
  1
 
  7
CONVERTER_11
 73
     1
 44
1.32052821128451
  0
DIMENSION
  5
E9
330
6D
100
AcDbEntity
  8
1
100
AcDbDimension
  2
*D16
 10
-153.5000065661178
 20
-30.52362750512687
 30
0.0
 11
-155.1250065661178
 21
-45.52362750512839
 31
0.0
 70
    32
  1
<>
 71
     5
 42
-1.0
 53
90.0
  3
ME10_DIM_10
100
AcDbAlignedDimension
 13
-148.5000065661178
 23
-60.52362750512687
 33
0.0
 14
-148.5000065661178
 24
-30.52362750512687
 34
0.0
 50
90.0
100
AcDbRotatedDimension
  0
DIMENSION
  5
F4
330
6D
100
AcDbEntity
  8
1
100
AcDbDimension
  2
*D17
 10
-148.5000065661178
 20
-65.52362750512687
 30
0.0
 11
-134.5000065661178
 21
-63.89862750512687
 31
0.0
 70
    32
  1
<>
 71
     5
 42
-1.0
 53
0.00013888888889
  3
ME10_DIM_11
100
AcDbAlignedDimension
 13
-120.5000065661178
 23
-58.02362750512687
 33
0.0
 14
-148.5000065661178
 24
-60.52362750512687
 34
0.0
100
AcDbRotatedDimension
  0
ENDBLK
  5
70
330
6D
100
AcDbEntity
  8
0
100
AcDbBlockEnd
  0
BLOCK
  5
72
330
71
100
AcDbEntity
  8
0
100
AcDbBlockBegin
  2
_punkt
 70
     0
 10
-30.02732081976546
 20
-303.7188094043685
 30
0.0
  3
_punkt
  1

  0
LINE
  5
F5
330
71
100
AcDbEntity
  8
1
  6
Continuous
 62
     2
100
AcDbLine
 10
-30.02732081976541
 20
-303.7188094043685
 30
0.0
 11
-25.0273208197678
 21
-303.7188094043685
 31
0.0
  0
LINE
  5
F6
330
71
100
AcDbEntity
  8
1
  6
Continuous
 62
     2
100
AcDbLine
 10
-30.02732081976541
 20
-303.7188094043685
 30
0.0
 11
-30.02732081976541
 21
-308.718809404368
 31
0.0
  0
ENDBLK
  5
73
330
71
100
AcDbEntity
  8
0
100
AcDbBlockEnd
  0
BLOCK
  5
75
330
74
100
AcDbEntity
  8
0
100
AcDbBlockBegin
  2
_rahmen
 70
     0
 10
-30.02732081976541
 20
-308.718809404368
 30
0.0
  3
_rahmen
  1

  0
LINE
  5
F7
330
74
100
AcDbEntity
  8
1
  6
DOT_CENTER
 62
     2
100
AcDbLine
 10
-155.5854704599528
 20
-282.5938094043687
 30
0.0
 11
-150.0854704599528
 21
-282.5938094043687
 31
0.0
  0
LINE
  5
F8
330
74
100
AcDbEntity
  8
1
  6
PHANTOM
 62
     2
100
AcDbLine
 10
-146.8354704599528
 20
-279.8438094043686
 30
0.0
 11
-146.8354704599528
 21
-285.3438094043686
 31
0.0
  0
LINE
  5
F9
330
74
100
AcDbEntity
  8
1
  6
PHANTOM
 62
     2
100
AcDbLine
 10
-144.0854704599528
 20
-282.5938094043687
 30
0.0
 11
-149.5854704599528
 21
-282.5938094043687
 31
0.0
  0
LINE
  5
FA
330
74
100
AcDbEntity
  8
1
  6
Continuous
 62
     6
100
AcDbLine
 10
-159.5721253465153
 20
-278.2188094043686
 30
0.0
 11
-30.02732081976362
 21
-278.2188094043686
 31
0.0
  0
LINE
  5
FB
330
74
100
AcDbEntity
  8
1
  6
Continuous
 62
     7
100
AcDbLine
 10
-141.3721253465154
 20
-299.4688094043685
 30
0.0
 11
-123.1721253465154
 21
-299.4688094043685
 31
0.0
  0
LINE
  5
FC
330
74
100
AcDbEntity
  8
1
  6
Continuous
 62
     6
100
AcDbLine
 10
-141.3721253465154
 20
-303.7188094043685
 30
0.0
 11
-159.5721253465153
 21
-303.7188094043686
 31
0.0
  0
LINE
  5
FD
330
74
100
AcDbEntity
  8
1
  6
Continuous
 62
     7
100
AcDbLine
 10
-141.3721253465154
 20
-299.4688094043685
 30
0.0
 11
-141.3721253465154
 21
-303.7188094043685
 31
0.0
  0
LINE
  5
FE
330
74
100
AcDbEntity
  8
1
  6
Continuous
 62
     7
100
AcDbLine
 10
-123.1721253465154
 20
-299.4688094043685
 30
0.0
 11
-123.1721253465154
 21
-303.7188094043686
 31
0.0
  0
LINE
  5
FF
330
74
100
AcDbEntity
  8
1
  6
Continuous
 62
     7
100
AcDbLine
 10
-159.5721253465153
 20
-299.4688094043686
 30
0.0
 11
-159.5721253465153
 21
-303.7188094043686
 31
0.0
  0
LINE
  5
100
330
74
100
AcDbEntity
  8
1
  6
Continuous
 62
     7
100
AcDbLine
 10
-159.5721253465153
 20
-299.4688094043686
 30
0.0
 11
-141.3721253465154
 21
-299.4688094043685
 31
0.0
  0
LINE
  5
101
330
74
100
AcDbEntity
  8
1
  6
Continuous
 62
     2
100
AcDbLine
 10
-150.3354704599528
 20
-280.0938094043687
 30
0.0
 11
-150.3354704599528
 21
-285.0938094043687
 31
0.0
  0
LINE
  5
102
330
74
100
AcDbEntity
  8
1
  6
Continuous
 62
     2
100
AcDbLine
 10
-150.3354704599528
 20
-285.0938094043687
 30
0.0
 11
-155.3354704599528
 21
-283.8438094043687
 31
0.0
  0
LINE
  5
103
330
74
100
AcDbEntity
  8
1
  6
Continuous
 62
     2
100
AcDbLine
 10
-155.3354704599528
 20
-283.8438094043687
 30
0.0
 11
-155.3354704599528
 21
-281.3438094043687
 31
0.0
  0
LINE
  5
104
330
74
100
AcDbEntity
  8
1
  6
Continuous
 62
     2
100
AcDbLine
 10
-155.3354704599528
 20
-281.3438094043687
 30
0.0
 11
-150.3354704599528
 21
-280.0938094043687
 31
0.0
  0
LINE
  5
105
330
74
100
AcDbEntity
  8
1
  6
Continuous
 62
     6
100
AcDbLine
 10
-30.02732081976362
 20
-286.7188094043686
 30
0.0
 11
-30.02732081976411
 21
-295.2188094043686
 31
0.0
  0
LINE
  5
106
330
74
100
AcDbEntity
  8
1
  6
Continuous
 62
     6
100
AcDbLine
 10
-123.1721253465154
 20
-303.7188094043686
 30
0.0
 11
-123.5273208197654
 21
-303.7188094043685
 31
0.0
  0
LINE
  5
107
330
74
100
AcDbEntity
  8
1
  6
Continuous
 62
     7
100
AcDbLine
 10
-123.1721253465154
 20
-286.7188094043686
 30
0.0
 11
-123.1721253465154
 21
-299.4688094043685
 31
0.0
  0
LINE
  5
108
330
74
100
AcDbEntity
  8
1
  6
Continuous
 62
     7
100
AcDbLine
 10
-159.5721253465153
 20
-286.7188094043686
 30
0.0
 11
-159.5721253465153
 21
-299.4688094043686
 31
0.0
  0
LINE
  5
109
330
74
100
AcDbEntity
  8
1
  6
Continuous
 62
     6
100
AcDbLine
 10
-123.1721253465154
 20
-303.7188094043686
 30
0.0
 11
-73.52732081976541
 21
-303.7188094043685
 31
0.0
  0
LINE
  5
10A
330
74
100
AcDbEntity
  8
1
  6
Continuous
 62
     6
100
AcDbLine
 10
-30.02732081976546
 20
-303.7188094043685
 30
0.0
 11
-30.02732081976411
 21
-295.2188094043686
 31
0.0
  0
LINE
  5
10B
330
74
100
AcDbEntity
  8
1
  6
Continuous
 62
     6
100
AcDbLine
 10
-159.5721253465153
 20
-286.7188094043686
 30
0.0
 11
-123.1721253465154
 21
-286.7188094043686
 31
0.0
  0
LINE
  5
10C
330
74
100
AcDbEntity
  8
1
  6
Continuous
 62
     6
100
AcDbLine
 10
-123.5273208197654
 20
-303.7188094043685
 30
0.0
 11
-141.3721253465154
 21
-303.7188094043685
 31
0.0
  0
LINE
  5
10D
330
74
100
AcDbEntity
  8
1
  6
Continuous
 62
     6
100
AcDbLine
 10
-73.52732081976541
 20
-303.7188094043685
 30
0.0
 11
-30.02732081976546
 21
-303.7188094043685
 31
0.0
  0
LINE
  5
10E
102
{ACAD_REACTORS
330
23C
330
23D
102
}
330
74
100
AcDbEntity
  8
0
  6
Continuous
 62
     2
100
AcDbLine
 10
-152.0574994043685
 20
-291.6462946481565
 30
0.0
 11
-152.0574994043685
 21
-291.0407593596497
 31
0.0
  0
LINE
  5
10F
102
{ACAD_REACTORS
330
23C
330
23D
102
}
330
74
100
AcDbEntity
  8
0
  6
Continuous
 62
     2
100
AcDbLine
 10
-152.0574994043685
 20
-294.4464292547876
 30
0.0
 11
-152.0574994043685
 21
-293.8645778480926
 31
0.0
  0
LINE
  5
110
102
{ACAD_REACTORS
330
23E
330
23F
102
}
330
74
100
AcDbEntity
  8
0
  6
Continuous
 62
     2
100
AcDbLine
 10
-129.4280129688894
 20
-294.1567651866648
 30
0.0
 11
-129.4280129688894
 21
-296.4253094043522
 31
0.0
  0
LINE
  5
111
102
{ACAD_REACTORS
330
23E
330
23F
102
}
330
74
100
AcDbEntity
  8
0
  6
Continuous
 62
     2
100
AcDbLine
 10
-130.8090667478769
 20
-293.3714998805417
 30
0.0
 11
-127.4241212292483
 21
-293.371499880541
 31
0.0
  0
LINE
  5
112
102
{ACAD_REACTORS
330
23E
330
23F
102
}
330
74
100
AcDbEntity
  8
0
  6
Continuous
 62
     2
100
AcDbLine
 10
-127.4241212292483
 20
-294.1567651866648
 30
0.0
 11
-127.4241212292483
 21
-293.371499880541
 31
0.0
  0
LINE
  5
113
102
{ACAD_REACTORS
330
23E
330
23F
102
}
330
74
100
AcDbEntity
  8
0
  6
Continuous
 62
     2
100
AcDbLine
 10
-128.2352202667217
 20
-294.1567651866648
 30
0.0
 11
-127.4241212292483
 21
-294.1567651866648
 31
0.0
  0
LINE
  5
114
102
{ACAD_REACTORS
330
23E
330
23F
102
}
330
74
100
AcDbEntity
  8
0
  6
Continuous
 62
     2
100
AcDbLine
 10
-128.2352202667217
 20
-296.4253094043522
 30
0.0
 11
-128.2352202667217
 21
-294.1567651866648
 31
0.0
  0
LINE
  5
115
102
{ACAD_REACTORS
330
23E
330
23F
102
}
330
74
100
AcDbEntity
  8
0
  6
Continuous
 62
     2
100
AcDbLine
 10
-129.4280129688894
 20
-296.4253094043522
 30
0.0
 11
-128.2352202667217
 21
-296.4253094043522
 31
0.0
  0
LINE
  5
116
102
{ACAD_REACTORS
330
234
330
235
102
}
330
74
100
AcDbEntity
  8
0
  6
Continuous
 62
     2
100
AcDbLine
 10
-130.1246039069539
 20
-290.0123094043668
 30
0.0
 11
-131.5273281247031
 21
-290.0123094043668
 31
0.0
  0
LINE
  5
117
102
{ACAD_REACTORS
330
234
330
235
102
}
330
74
100
AcDbEntity
  8
0
  6
Continuous
 62
     2
100
AcDbLine
 10
-130.1246039069539
 20
-290.0123094043668
 30
0.0
 11
-129.523436385062
 21
-290.6921327259223
 31
0.0
  0
LINE
  5
118
102
{ACAD_REACTORS
330
234
330
235
102
}
330
74
100
AcDbEntity
  8
0
  6
Continuous
 62
     2
100
AcDbLine
 10
-129.523436385062
 20
-290.6921327259223
 30
0.0
 11
-128.9222688631692
 21
-290.0123094043668
 31
0.0
  0
LINE
  5
119
102
{ACAD_REACTORS
330
234
330
235
102
}
330
74
100
AcDbEntity
  8
0
  6
Continuous
 62
     2
100
AcDbLine
 10
-128.8220742761886
 20
-291.485259934403
 30
0.0
 11
-127.519544645422
 21
-290.0123094043668
 31
0.0
  0
LINE
  5
11A
102
{ACAD_REACTORS
330
234
330
235
102
}
330
74
100
AcDbEntity
  8
0
  6
Continuous
 62
     2
100
AcDbLine
 10
-128.8220742761886
 20
-291.485259934403
 30
0.0
 11
-127.4241212292483
 21
-293.0661189281778
 31
0.0
  0
LINE
  5
11B
102
{ACAD_REACTORS
330
234
330
235
102
}
330
74
100
AcDbEntity
  8
0
  6
Continuous
 62
     2
100
AcDbLine
 10
-128.8268454469966
 20
-293.0661189281778
 30
0.0
 11
-127.4241212292483
 21
-293.0661189281778
 31
0.0
  0
LINE
  5
11C
102
{ACAD_REACTORS
330
234
330
235
102
}
330
74
100
AcDbEntity
  8
0
  6
Continuous
 62
     2
100
AcDbLine
 10
-129.523436385062
 20
-292.2783871428842
 30
0.0
 11
-128.8268454469966
 21
-293.0661189281778
 31
0.0
  0
LINE
  5
11D
102
{ACAD_REACTORS
330
232
330
233
102
}
330
74
100
AcDbEntity
  8
0
  6
Continuous
 62
     2
100
AcDbLine
 10
-132.9825352213457
 20
-290.0123094043668
 30
0.0
 11
-131.7420308110928
 21
-290.0123094043668
 31
0.0
  0
LINE
  5
11E
102
{ACAD_REACTORS
330
232
330
233
102
}
330
74
100
AcDbEntity
  8
0
  6
Continuous
 62
     2
100
AcDbLine
 10
-131.7420308110928
 20
-290.0123094043668
 30
0.0
 11
-131.7420308110928
 21
-293.0661189281778
 31
0.0
  0
LINE
  5
11F
102
{ACAD_REACTORS
330
232
330
233
102
}
330
74
100
AcDbEntity
  8
0
  6
Continuous
 62
     2
100
AcDbLine
 10
-132.9825352213457
 20
-293.0661189281778
 30
0.0
 11
-132.9825352213457
 21
-290.0123094043668
 31
0.0
  0
LINE
  5
120
102
{ACAD_REACTORS
330
230
330
231
102
}
330
74
100
AcDbEntity
  8
0
  6
Continuous
 62
     2
100
AcDbLine
 10
-134.4508453038833
 20
-295.2037855948278
 30
0.0
 11
-134.150680066691
 21
-294.4359706288411
 31
0.0
  0
LINE
  5
121
102
{ACAD_REACTORS
330
230
330
231
102
}
330
74
100
AcDbEntity
  8
0
  6
Continuous
 62
     2
100
AcDbLine
 10
-134.9283809085042
 20
-296.4253094043522
 30
0.0
 11
-134.7169008550284
 21
-295.8843488601344
 31
0.0
  0
LINE
  5
122
102
{ACAD_REACTORS
330
230
330
231
102
}
330
74
100
AcDbEntity
  8
0
  6
Continuous
 62
     2
100
AcDbLine
 10
-134.7709322718179
 20
-293.371499880541
 30
0.0
 11
-136.1688853187571
 21
-296.4253094043522
 31
0.0
  0
LINE
  5
123
102
{ACAD_REACTORS
330
230
330
231
102
}
330
74
100
AcDbEntity
  8
0
  6
Continuous
 62
     2
100
AcDbLine
 10
-132.1324748146248
 20
-296.4253094043522
 30
0.0
 11
-133.3729792248787
 21
-296.4253094043522
 31
0.0
  0
LINE
  5
124
102
{ACAD_REACTORS
330
230
330
231
102
}
330
74
100
AcDbEntity
  8
0
  6
Continuous
 62
     2
100
AcDbLine
 10
-134.7169008550284
 20
-295.8843488601344
 30
0.0
 11
-133.5844592783545
 21
-295.8843488601344
 31
0.0
  0
LINE
  5
125
102
{ACAD_REACTORS
330
22E
330
22F
102
}
330
74
100
AcDbEntity
  8
0
  6
Continuous
 62
     2
100
AcDbLine
 10
-138.3263974579394
 20
-294.1567651866648
 30
0.0
 11
-137.5152984204647
 21
-294.1567651866648
 31
0.0
  0
LINE
  5
126
102
{ACAD_REACTORS
330
22E
330
22F
102
}
330
74
100
AcDbEntity
  8
0
  6
Continuous
 62
     2
100
AcDbLine
 10
-135.5114066808257
 20
-293.371499880541
 30
0.0
 11
-138.3263974579394
 21
-293.371499880541
 31
0.0
  0
LINE
  5
127
102
{ACAD_REACTORS
330
22E
330
22F
102
}
330
74
100
AcDbEntity
  8
0
  6
Continuous
 62
     2
100
AcDbLine
 10
-135.5114066808257
 20
-294.1567651866648
 30
0.0
 11
-135.5114066808257
 21
-293.371499880541
 31
0.0
  0
LINE
  5
128
102
{ACAD_REACTORS
330
22E
330
22F
102
}
330
74
100
AcDbEntity
  8
0
  6
Continuous
 62
     2
100
AcDbLine
 10
-136.3225057182983
 20
-294.1567651866648
 30
0.0
 11
-135.5114066808257
 21
-294.1567651866648
 31
0.0
  0
LINE
  5
129
102
{ACAD_REACTORS
330
22E
330
22F
102
}
330
74
100
AcDbEntity
  8
0
  6
Continuous
 62
     2
100
AcDbLine
 10
-136.3225057182983
 20
-296.4253094043522
 30
0.0
 11
-136.3225057182983
 21
-294.1567651866648
 31
0.0
  0
LINE
  5
12A
102
{ACAD_REACTORS
330
22C
330
22D
102
}
330
74
100
AcDbEntity
  8
0
  6
Continuous
 62
     2
100
AcDbLine
 10
-135.6543908742003
 20
-293.0661189281778
 30
0.0
 11
-135.6543908742003
 21
-291.7573434179732
 31
0.0
  0
LINE
  5
12B
102
{ACAD_REACTORS
330
22C
330
22D
102
}
330
74
100
AcDbEntity
  8
0
  6
Continuous
 62
     2
100
AcDbLine
 10
-136.8471835763667
 20
-290.0123094043668
 30
0.0
 11
-136.8471835763667
 21
-293.0661189281778
 31
0.0
  0
LINE
  5
12C
102
{ACAD_REACTORS
330
22C
330
22D
102
}
330
74
100
AcDbEntity
  8
0
  6
Continuous
 62
     2
100
AcDbLine
 10
-135.6543908742003
 20
-290.0123094043668
 30
0.0
 11
-136.8471835763667
 21
-290.0123094043668
 31
0.0
  0
LINE
  5
12D
102
{ACAD_REACTORS
330
22C
330
22D
102
}
330
74
100
AcDbEntity
  8
0
  6
Continuous
 62
     2
100
AcDbLine
 10
-134.4138864639462
 20
-290.0123094043668
 30
0.0
 11
-134.4138864639462
 21
-291.3210849145719
 31
0.0
  0
LINE
  5
12E
102
{ACAD_REACTORS
330
22A
330
22B
102
}
330
74
100
AcDbEntity
  8
0
  6
Continuous
 62
     2
100
AcDbLine
 10
-142.0956223967864
 20
-293.371499880541
 30
0.0
 11
-142.0956223967864
 21
-296.4253094043522
 31
0.0
  0
LINE
  5
12F
102
{ACAD_REACTORS
330
22A
330
22B
102
}
330
74
100
AcDbEntity
  8
0
  6
Continuous
 62
     2
100
AcDbLine
 10
-140.9028296946189
 20
-293.371499880541
 30
0.0
 11
-142.0956223967864
 21
-293.371499880541
 31
0.0
  0
LINE
  5
130
102
{ACAD_REACTORS
330
22A
330
22B
102
}
330
74
100
AcDbEntity
  8
0
  6
Continuous
 62
     2
100
AcDbLine
 10
-139.6623252843659
 20
-296.4253094043522
 30
0.0
 11
-138.4695325821995
 21
-296.4253094043522
 31
0.0
  0
LINE
  5
131
102
{ACAD_REACTORS
330
22A
330
22B
102
}
330
74
100
AcDbEntity
  8
0
  6
Continuous
 62
     2
100
AcDbLine
 10
-142.0956223967864
 20
-296.4253094043522
 30
0.0
 11
-140.9028296946189
 21
-296.4253094043522
 31
0.0
  0
LINE
  5
132
102
{ACAD_REACTORS
330
23A
330
23B
102
}
330
74
100
AcDbEntity
  8
0
  6
Continuous
 62
     2
100
AcDbLine
 10
-138.4216699432273
 20
-291.1902073635514
 30
0.0
 11
-138.4216699432273
 21
-290.7103230098097
 31
0.0
  0
LINE
  5
133
102
{ACAD_REACTORS
330
23A
330
23B
102
}
330
74
100
AcDbEntity
  8
0
  6
Continuous
 62
     2
100
AcDbLine
 10
-137.0857421167997
 20
-291.1902073635514
 30
0.0
 11
-138.4216699432273
 21
-291.1902073635514
 31
0.0
  0
LINE
  5
134
102
{ACAD_REACTORS
330
23A
330
23B
102
}
330
74
100
AcDbEntity
  8
0
  6
Continuous
 62
     2
100
AcDbLine
 10
-137.0857421167997
 20
-291.8882209689938
 30
0.0
 11
-137.0857421167997
 21
-291.1902073635514
 31
0.0
  0
LINE
  5
135
102
{ACAD_REACTORS
330
23A
330
23B
102
}
330
74
100
AcDbEntity
  8
0
  6
Continuous
 62
     2
100
AcDbLine
 10
-138.4216699432273
 20
-291.8882209689938
 30
0.0
 11
-137.0857421167997
 21
-291.8882209689938
 31
0.0
  0
LINE
  5
136
102
{ACAD_REACTORS
330
228
330
229
102
}
330
74
100
AcDbEntity
  8
0
  6
Continuous
 62
     2
100
AcDbLine
 10
-141.9046246335542
 20
-290.0123094043668
 30
0.0
 11
-141.9046246335542
 21
-293.0661189281778
 31
0.0
  0
LINE
  5
137
102
{ACAD_REACTORS
330
228
330
229
102
}
330
74
100
AcDbEntity
  8
0
  6
Continuous
 62
     2
100
AcDbLine
 10
-141.9046246335542
 20
-293.0661189281778
 30
0.0
 11
-143.0974173357207
 21
-293.0661189281778
 31
0.0
  0
LINE
  5
138
102
{ACAD_REACTORS
330
228
330
229
102
}
330
74
100
AcDbEntity
  8
0
  6
Continuous
 62
     2
100
AcDbLine
 10
-143.0974173357207
 20
-293.0661189281778
 30
0.0
 11
-143.0974173357207
 21
-291.9318468193342
 31
0.0
  0
LINE
  5
139
102
{ACAD_REACTORS
330
228
330
229
102
}
330
74
100
AcDbEntity
  8
0
  6
Continuous
 62
     2
100
AcDbLine
 10
-144.1470749136281
 20
-293.0661189281778
 30
0.0
 11
-145.3398676157947
 21
-293.0661189281778
 31
0.0
  0
LINE
  5
13A
102
{ACAD_REACTORS
330
228
330
229
102
}
330
74
100
AcDbEntity
  8
0
  6
Continuous
 62
     2
100
AcDbLine
 10
-145.3398676157947
 20
-290.0123094043668
 30
0.0
 11
-144.1470749136281
 21
-290.0123094043668
 31
0.0
  0
LINE
  5
13B
102
{ACAD_REACTORS
330
228
330
229
102
}
330
74
100
AcDbEntity
  8
0
  6
Continuous
 62
     2
100
AcDbLine
 10
-144.1470749136281
 20
-290.0123094043668
 30
0.0
 11
-144.1470749136281
 21
-291.0811427377014
 31
0.0
  0
LINE
  5
13C
102
{ACAD_REACTORS
330
228
330
229
102
}
330
74
100
AcDbEntity
  8
0
  6
Continuous
 62
     2
100
AcDbLine
 10
-144.1470749136281
 20
-291.0811427377014
 30
0.0
 11
-143.0974173357207
 21
-291.0811427377014
 31
0.0
  0
LINE
  5
13D
102
{ACAD_REACTORS
330
236
330
237
102
}
330
74
100
AcDbEntity
  8
0
  6
Continuous
 62
     2
100
AcDbLine
 10
-147.2960476473484
 20
-290.6754152498068
 30
0.0
 11
-146.9787525858064
 21
-290.6754152498068
 31
0.0
  0
LINE
  5
13E
102
{ACAD_REACTORS
330
236
330
237
102
}
330
74
100
AcDbEntity
  8
0
  6
Continuous
 62
     2
100
AcDbLine
 10
-147.2960476473484
 20
-291.381142899149
 30
0.0
 11
-146.9787525858064
 21
-291.381142899149
 31
0.0
  0
LINE
  5
13F
102
{ACAD_REACTORS
330
236
330
237
102
}
330
74
100
AcDbEntity
  8
0
  6
Continuous
 62
     2
100
AcDbLine
 10
-148.5365520576024
 20
-290.0123094043668
 30
0.0
 11
-148.5365520576024
 21
-293.0661189281778
 31
0.0
  0
LINE
  5
140
102
{ACAD_REACTORS
330
236
330
237
102
}
330
74
100
AcDbEntity
  8
0
  6
Continuous
 62
     2
100
AcDbLine
 10
-148.5365520576024
 20
-290.0123094043668
 30
0.0
 11
-146.537280059568
 21
-290.0123094043668
 31
0.0
  0
LINE
  5
141
102
{ACAD_REACTORS
330
236
330
237
102
}
330
74
100
AcDbEntity
  8
0
  6
Continuous
 62
     2
100
AcDbLine
 10
-147.2960476473484
 20
-292.1230406870342
 30
0.0
 11
-146.537280059568
 21
-292.1230406870342
 31
0.0
  0
LINE
  5
142
102
{ACAD_REACTORS
330
23C
330
23D
102
}
330
74
100
AcDbEntity
  8
0
  6
Continuous
 62
     2
100
AcDbLine
 10
-154.6330480908991
 20
-291.0405818830014
 30
0.0
 11
-154.6330480908991
 21
-295.3970369257186
 31
0.0
  0
LINE
  5
143
102
{ACAD_REACTORS
330
23C
330
23D
102
}
330
74
100
AcDbEntity
  8
0
  6
Continuous
 62
     2
100
AcDbLine
 10
-154.3173311678235
 20
-290.7248649599254
 30
0.0
 11
-152.8414979068139
 21
-290.7248649599254
 31
0.0
  0
LINE
  5
144
102
{ACAD_REACTORS
330
23C
330
23D
102
}
330
74
100
AcDbEntity
  8
0
  6
Continuous
 62
     2
100
AcDbLine
 10
-152.5257809837373
 20
-291.6446065020621
 30
0.0
 11
-152.5257809837373
 21
-291.0405818830014
 31
0.0
  0
LINE
  5
145
102
{ACAD_REACTORS
330
23C
330
23D
102
}
330
74
100
AcDbEntity
  8
0
  6
Continuous
 62
     2
100
AcDbLine
 10
-152.5257809837373
 20
-295.3970369257186
 30
0.0
 11
-152.5257809837373
 21
-293.866265994187
 31
0.0
  0
LINE
  5
146
102
{ACAD_REACTORS
330
23C
330
23D
102
}
330
74
100
AcDbEntity
  8
0
  6
Continuous
 62
     2
100
AcDbLine
 10
-149.4379137538531
 20
-296.4253094043522
 30
0.0
 11
-154.91122584457
 21
-296.4253094043522
 31
0.0
  0
LINE
  5
147
102
{ACAD_REACTORS
330
23C
330
23D
102
}
330
74
100
AcDbEntity
  8
0
  6
Continuous
 62
     2
100
AcDbLine
 10
-149.0136691384692
 20
-290.4365540197688
 30
0.0
 11
-149.0136691384692
 21
-296.001064788969
 31
0.0
  0
LINE
  5
148
102
{ACAD_REACTORS
330
23C
330
23D
102
}
330
74
100
AcDbEntity
  8
0
  6
Continuous
 62
     2
100
AcDbLine
 10
-154.91122584457
 20
-290.0123094043848
 30
0.0
 11
-149.4379137538531
 21
-290.0123094043848
 31
0.0
  0
LINE
  5
149
102
{ACAD_REACTORS
330
23C
330
23D
102
}
330
74
100
AcDbEntity
  8
0
  6
Continuous
 62
     2
100
AcDbLine
 10
-155.3354704599528
 20
-290.4365540197688
 30
0.0
 11
-155.3354704599528
 21
-296.001064788969
 31
0.0
  0
LINE
  5
14A
102
{ACAD_REACTORS
330
23C
330
23D
102
}
330
74
100
AcDbEntity
  8
0
  6
Continuous
 62
     2
100
AcDbLine
 10
-152.8414979068139
 20
-295.7127538487953
 30
0.0
 11
-154.3173311678235
 21
-295.7127538487953
 31
0.0
  0
LINE
  5
14B
102
{ACAD_REACTORS
330
236
330
237
102
}
330
74
100
AcDbEntity
  8
0
  6
Continuous
 62
     2
100
AcDbLine
 10
-147.2960476473484
 20
-293.0661189281778
 30
0.0
 11
-147.2960476473484
 21
-292.1230406870342
 31
0.0
  0
LINE
  5
14C
102
{ACAD_REACTORS
330
236
330
237
102
}
330
74
100
AcDbEntity
  8
0
  6
Continuous
 62
     2
100
AcDbLine
 10
-148.5365520576024
 20
-293.0661189281778
 30
0.0
 11
-147.2960476473484
 21
-293.0661189281778
 31
0.0
  0
LINE
  5
14D
102
{ACAD_REACTORS
330
236
330
237
102
}
330
74
100
AcDbEntity
  8
0
  6
Continuous
 62
     2
100
AcDbLine
 10
-147.2960476473484
 20
-291.381142899149
 30
0.0
 11
-147.2960476473484
 21
-290.6754152498068
 31
0.0
  0
LINE
  5
14E
102
{ACAD_REACTORS
330
228
330
229
102
}
330
74
100
AcDbEntity
  8
0
  6
Continuous
 62
     2
100
AcDbLine
 10
-145.3398676157947
 20
-290.0123094043668
 30
0.0
 11
-145.3398676157947
 21
-293.0661189281778
 31
0.0
  0
LINE
  5
14F
102
{ACAD_REACTORS
330
228
330
229
102
}
330
74
100
AcDbEntity
  8
0
  6
Continuous
 62
     2
100
AcDbLine
 10
-144.1470749136281
 20
-291.9318468193342
 30
0.0
 11
-144.1470749136281
 21
-293.0661189281778
 31
0.0
  0
LINE
  5
150
102
{ACAD_REACTORS
330
228
330
229
102
}
330
74
100
AcDbEntity
  8
0
  6
Continuous
 62
     2
100
AcDbLine
 10
-143.0974173357207
 20
-291.9318468193342
 30
0.0
 11
-144.1470749136281
 21
-291.9318468193342
 31
0.0
  0
LINE
  5
151
102
{ACAD_REACTORS
330
228
330
229
102
}
330
74
100
AcDbEntity
  8
0
  6
Continuous
 62
     2
100
AcDbLine
 10
-143.0974173357207
 20
-290.0123094043668
 30
0.0
 11
-141.9046246335542
 21
-290.0123094043668
 31
0.0
  0
LINE
  5
152
102
{ACAD_REACTORS
330
228
330
229
102
}
330
74
100
AcDbEntity
  8
0
  6
Continuous
 62
     2
100
AcDbLine
 10
-143.0974173357207
 20
-291.0811427377014
 30
0.0
 11
-143.0974173357207
 21
-290.0123094043668
 31
0.0
  0
LINE
  5
153
102
{ACAD_REACTORS
330
23A
330
23B
102
}
330
74
100
AcDbEntity
  8
0
  6
Continuous
 62
     2
100
AcDbLine
 10
-137.0857421167997
 20
-290.7103230098097
 30
0.0
 11
-137.0857421167997
 21
-290.0123094043668
 31
0.0
  0
LINE
  5
154
102
{ACAD_REACTORS
330
23A
330
23B
102
}
330
74
100
AcDbEntity
  8
0
  6
Continuous
 62
     2
100
AcDbLine
 10
-140.2360618405806
 20
-290.0123094043668
 30
0.0
 11
-137.0857421167997
 21
-290.0123094043668
 31
0.0
  0
LINE
  5
155
102
{ACAD_REACTORS
330
23A
330
23B
102
}
330
74
100
AcDbEntity
  8
0
  6
Continuous
 62
     2
100
AcDbLine
 10
-140.2360618405806
 20
-293.0661189281778
 30
0.0
 11
-137.0857421167997
 21
-293.0661189281778
 31
0.0
  0
LINE
  5
156
102
{ACAD_REACTORS
330
23A
330
23B
102
}
330
74
100
AcDbEntity
  8
0
  6
Continuous
 62
     2
100
AcDbLine
 10
-137.0857421167997
 20
-293.0661189281778
 30
0.0
 11
-137.0857421167997
 21
-292.3681053227355
 31
0.0
  0
LINE
  5
157
102
{ACAD_REACTORS
330
23A
330
23B
102
}
330
74
100
AcDbEntity
  8
0
  6
Continuous
 62
     2
100
AcDbLine
 10
-137.0857421167997
 20
-292.3681053227355
 30
0.0
 11
-138.4216699432273
 21
-292.3681053227355
 31
0.0
  0
LINE
  5
158
102
{ACAD_REACTORS
330
23A
330
23B
102
}
330
74
100
AcDbEntity
  8
0
  6
Continuous
 62
     2
100
AcDbLine
 10
-138.4216699432273
 20
-292.3681053227355
 30
0.0
 11
-138.4216699432273
 21
-291.8882209689938
 31
0.0
  0
LINE
  5
159
102
{ACAD_REACTORS
330
23A
330
23B
102
}
330
74
100
AcDbEntity
  8
0
  6
Continuous
 62
     2
100
AcDbLine
 10
-138.4216699432273
 20
-290.7103230098097
 30
0.0
 11
-137.0857421167997
 21
-290.7103230098097
 31
0.0
  0
LINE
  5
15A
102
{ACAD_REACTORS
330
22A
330
22B
102
}
330
74
100
AcDbEntity
  8
0
  6
Continuous
 62
     2
100
AcDbLine
 10
-140.9028296946189
 20
-296.4253094043522
 30
0.0
 11
-140.9028296946189
 21
-295.1165338941477
 31
0.0
  0
LINE
  5
15B
102
{ACAD_REACTORS
330
22A
330
22B
102
}
330
74
100
AcDbEntity
  8
0
  6
Continuous
 62
     2
100
AcDbLine
 10
-140.9028296946189
 20
-295.1165338941477
 30
0.0
 11
-139.6623252843659
 21
-296.4253094043522
 31
0.0
  0
LINE
  5
15C
102
{ACAD_REACTORS
330
22A
330
22B
102
}
330
74
100
AcDbEntity
  8
0
  6
Continuous
 62
     2
100
AcDbLine
 10
-138.4695325821995
 20
-296.4253094043522
 30
0.0
 11
-138.4695325821995
 21
-293.371499880541
 31
0.0
  0
LINE
  5
15D
102
{ACAD_REACTORS
330
22A
330
22B
102
}
330
74
100
AcDbEntity
  8
0
  6
Continuous
 62
     2
100
AcDbLine
 10
-138.4695325821995
 20
-293.371499880541
 30
0.0
 11
-139.6623252843659
 21
-293.371499880541
 31
0.0
  0
LINE
  5
15E
102
{ACAD_REACTORS
330
22A
330
22B
102
}
330
74
100
AcDbEntity
  8
0
  6
Continuous
 62
     2
100
AcDbLine
 10
-139.6623252843659
 20
-293.371499880541
 30
0.0
 11
-139.6623252843659
 21
-294.6802753907463
 31
0.0
  0
LINE
  5
15F
102
{ACAD_REACTORS
330
22A
330
22B
102
}
330
74
100
AcDbEntity
  8
0
  6
Continuous
 62
     2
100
AcDbLine
 10
-139.6623252843659
 20
-294.6802753907463
 30
0.0
 11
-140.9028296946189
 21
-293.371499880541
 31
0.0
  0
LINE
  5
160
102
{ACAD_REACTORS
330
22C
330
22D
102
}
330
74
100
AcDbEntity
  8
0
  6
Continuous
 62
     2
100
AcDbLine
 10
-135.6543908742003
 20
-291.7573434179732
 30
0.0
 11
-134.4138864639462
 21
-293.0661189281778
 31
0.0
  0
LINE
  5
161
102
{ACAD_REACTORS
330
22C
330
22D
102
}
330
74
100
AcDbEntity
  8
0
  6
Continuous
 62
     2
100
AcDbLine
 10
-134.4138864639462
 20
-293.0661189281778
 30
0.0
 11
-133.2210937617796
 21
-293.0661189281778
 31
0.0
  0
LINE
  5
162
102
{ACAD_REACTORS
330
22C
330
22D
102
}
330
74
100
AcDbEntity
  8
0
  6
Continuous
 62
     2
100
AcDbLine
 10
-133.2210937617796
 20
-293.0661189281778
 30
0.0
 11
-133.2210937617796
 21
-290.0123094043668
 31
0.0
  0
LINE
  5
163
102
{ACAD_REACTORS
330
22C
330
22D
102
}
330
74
100
AcDbEntity
  8
0
  6
Continuous
 62
     2
100
AcDbLine
 10
-133.2210937617796
 20
-290.0123094043668
 30
0.0
 11
-134.4138864639462
 21
-290.0123094043668
 31
0.0
  0
LINE
  5
164
102
{ACAD_REACTORS
330
22C
330
22D
102
}
330
74
100
AcDbEntity
  8
0
  6
Continuous
 62
     2
100
AcDbLine
 10
-134.4138864639462
 20
-291.3210849145719
 30
0.0
 11
-135.6543908742003
 21
-290.0123094043668
 31
0.0
  0
LINE
  5
165
102
{ACAD_REACTORS
330
22C
330
22D
102
}
330
74
100
AcDbEntity
  8
0
  6
Continuous
 62
     2
100
AcDbLine
 10
-136.8471835763667
 20
-293.0661189281778
 30
0.0
 11
-135.6543908742003
 21
-293.0661189281778
 31
0.0
  0
LINE
  5
166
102
{ACAD_REACTORS
330
22E
330
22F
102
}
330
74
100
AcDbEntity
  8
0
  6
Continuous
 62
     2
100
AcDbLine
 10
-138.3263974579394
 20
-293.371499880541
 30
0.0
 11
-138.3263974579394
 21
-294.1567651866648
 31
0.0
  0
LINE
  5
167
102
{ACAD_REACTORS
330
22E
330
22F
102
}
330
74
100
AcDbEntity
  8
0
  6
Continuous
 62
     2
100
AcDbLine
 10
-137.5152984204647
 20
-294.1567651866648
 30
0.0
 11
-137.5152984204647
 21
-296.4253094043522
 31
0.0
  0
LINE
  5
168
102
{ACAD_REACTORS
330
22E
330
22F
102
}
330
74
100
AcDbEntity
  8
0
  6
Continuous
 62
     2
100
AcDbLine
 10
-137.5152984204647
 20
-296.4253094043522
 30
0.0
 11
-136.3225057182983
 21
-296.4253094043522
 31
0.0
  0
LINE
  5
169
102
{ACAD_REACTORS
330
230
330
231
102
}
330
74
100
AcDbEntity
  8
0
  6
Continuous
 62
     2
100
AcDbLine
 10
-133.3729792248787
 20
-296.4253094043522
 30
0.0
 11
-133.5844592783545
 21
-295.8843488601344
 31
0.0
  0
LINE
  5
16A
102
{ACAD_REACTORS
330
230
330
231
102
}
330
74
100
AcDbEntity
  8
0
  6
Continuous
 62
     2
100
AcDbLine
 10
-133.5304278615651
 20
-293.371499880541
 30
0.0
 11
-132.1324748146248
 21
-296.4253094043522
 31
0.0
  0
LINE
  5
16B
102
{ACAD_REACTORS
330
230
330
231
102
}
330
74
100
AcDbEntity
  8
0
  6
Continuous
 62
     2
100
AcDbLine
 10
-134.7709322718179
 20
-293.371499880541
 30
0.0
 11
-133.5304278615651
 21
-293.371499880541
 31
0.0
  0
LINE
  5
16C
102
{ACAD_REACTORS
330
230
330
231
102
}
330
74
100
AcDbEntity
  8
0
  6
Continuous
 62
     2
100
AcDbLine
 10
-136.1688853187571
 20
-296.4253094043522
 30
0.0
 11
-134.9283809085042
 21
-296.4253094043522
 31
0.0
  0
LINE
  5
16D
102
{ACAD_REACTORS
330
230
330
231
102
}
330
74
100
AcDbEntity
  8
0
  6
Continuous
 62
     2
100
AcDbLine
 10
-134.4508453038833
 20
-295.2037855948278
 30
0.0
 11
-133.8505148295008
 21
-295.2037855948278
 31
0.0
  0
LINE
  5
16E
102
{ACAD_REACTORS
330
230
330
231
102
}
330
74
100
AcDbEntity
  8
0
  6
Continuous
 62
     2
100
AcDbLine
 10
-133.8505148295008
 20
-295.2037855948278
 30
0.0
 11
-134.150680066691
 21
-294.4359706288411
 31
0.0
  0
LINE
  5
16F
102
{ACAD_REACTORS
330
232
330
233
102
}
330
74
100
AcDbEntity
  8
0
  6
Continuous
 62
     2
100
AcDbLine
 10
-131.7420308110928
 20
-293.0661189281778
 30
0.0
 11
-132.9825352213457
 21
-293.0661189281778
 31
0.0
  0
LINE
  5
170
102
{ACAD_REACTORS
330
234
330
235
102
}
330
74
100
AcDbEntity
  8
0
  6
Continuous
 62
     2
100
AcDbLine
 10
-130.2200273231278
 20
-293.0661189281778
 30
0.0
 11
-131.6227515408759
 21
-293.0661189281778
 31
0.0
  0
LINE
  5
171
102
{ACAD_REACTORS
330
234
330
235
102
}
330
74
100
AcDbEntity
  8
0
  6
Continuous
 62
     2
100
AcDbLine
 10
-130.2200273231278
 20
-293.0661189281778
 30
0.0
 11
-129.523436385062
 21
-292.2783871428842
 31
0.0
  0
LINE
  5
172
102
{ACAD_REACTORS
330
234
330
235
102
}
330
74
100
AcDbEntity
  8
0
  6
Continuous
 62
     2
100
AcDbLine
 10
-128.9222688631692
 20
-290.0123094043668
 30
0.0
 11
-127.519544645422
 21
-290.0123094043668
 31
0.0
  0
LINE
  5
173
102
{ACAD_REACTORS
330
234
330
235
102
}
330
74
100
AcDbEntity
  8
0
  6
Continuous
 62
     2
100
AcDbLine
 10
-131.5273281247031
 20
-290.0123094043668
 30
0.0
 11
-130.2247984939356
 21
-291.485259934403
 31
0.0
  0
LINE
  5
174
102
{ACAD_REACTORS
330
234
330
235
102
}
330
74
100
AcDbEntity
  8
0
  6
Continuous
 62
     2
100
AcDbLine
 10
-131.6227515408759
 20
-293.0661189281778
 30
0.0
 11
-130.2247984939356
 21
-291.485259934403
 31
0.0
  0
LINE
  5
175
102
{ACAD_REACTORS
330
23E
330
23F
102
}
330
74
100
AcDbEntity
  8
0
  6
Continuous
 62
     2
100
AcDbLine
 10
-129.7619949254961
 20
-295.3782889961885
 30
0.0
 11
-129.7619949254961
 21
-296.2508060029919
 31
0.0
  0
LINE
  5
176
102
{ACAD_REACTORS
330
23E
330
23F
102
}
330
74
100
AcDbEntity
  8
0
  6
Continuous
 62
     2
100
AcDbLine
 10
-130.5316522684575
 20
-294.1567651866648
 30
0.0
 11
-129.4280129688894
 21
-294.1567651866648
 31
0.0
  0
LINE
  5
177
102
{ACAD_REACTORS
330
240
330
241
102
}
330
74
100
AcDbEntity
  8
0
  6
Continuous
 62
     2
100
AcDbLine
 10
-145.8646964047479
 20
-295.3782889961881
 30
0.0
 11
-145.8646964047479
 21
-296.2508060029913
 31
0.0
  0
LINE
  5
178
102
{ACAD_REACTORS
330
240
330
241
102
}
330
74
100
AcDbEntity
  8
0
  6
Continuous
 62
     2
100
AcDbLine
 10
-145.8646964047479
 20
-294.4185202887053
 30
0.0
 11
-145.8646964047479
 21
-293.546003281902
 31
0.0
  0
LINE
  5
179
330
74
100
AcDbEntity
  8
1
  6
Continuous
 62
     7
100
AcDbLine
 10
-30.02732081976411
 20
-295.2188094043686
 30
0.0
 11
-123.1721253465154
 21
-295.2188094043686
 31
0.0
  0
LINE
  5
17A
330
74
100
AcDbEntity
  8
1
  6
Continuous
 62
     7
100
AcDbLine
 10
-38.94572910144281
 20
-278.2188094043686
 30
0.0
 11
-38.94572910144281
 21
-286.7188094043686
 31
0.0
  0
LINE
  5
17B
330
74
100
AcDbEntity
  8
1
  6
Continuous
 62
     7
100
AcDbLine
 10
-65.44572910144244
 20
-278.2188094043686
 30
0.0
 11
-65.44572910144244
 21
-286.7188094043686
 31
0.0
  0
LINE
  5
17C
330
74
100
AcDbEntity
  8
1
  6
Continuous
 62
     7
100
AcDbLine
 10
-123.1721253465154
 20
-286.7188094043686
 30
0.0
 11
-123.1721253465154
 21
-278.2188094043686
 31
0.0
  0
LINE
  5
17D
330
74
100
AcDbEntity
  8
1
  6
Continuous
 62
     7
100
AcDbLine
 10
-159.5721253465153
 20
-286.7188094043686
 30
0.0
 11
-159.5721253465153
 21
-278.2188094043686
 31
0.0
  0
LINE
  5
17E
330
74
100
AcDbEntity
  8
1
  6
Continuous
 62
     6
100
AcDbLine
 10
-123.1721253465154
 20
-286.7188094043686
 30
0.0
 11
-30.02732081976362
 21
-286.7188094043686
 31
0.0
  0
LINE
  5
17F
330
74
100
AcDbEntity
  8
1
  6
Continuous
 62
     7
100
AcDbLine
 10
-95.27212534651541
 20
-295.2188094043686
 30
0.0
 11
-95.27212534651541
 21
-286.7188094043686
 31
0.0
  0
LINE
  5
180
330
74
100
AcDbEntity
  8
1
  6
Continuous
 62
     6
100
AcDbLine
 10
-30.02732081976362
 20
-286.7188094043686
 30
0.0
 11
-30.02732081976362
 21
-278.2188094043686
 31
0.0
  0
LINE
  5
181
330
74
100
AcDbEntity
  8
1
  6
Continuous
 62
     2
100
AcDbLine
 10
-166.693987486432
 20
-303.7188094043709
 30
0.0
 11
-166.693987486432
 21
-303.718809404368
 31
0.0
  0
LINE
  5
182
330
74
100
AcDbEntity
  8
1
  6
Continuous
 62
     6
100
AcDbLine
 10
-303.3606541530985
 20
-303.718809404368
 30
0.0
 11
-159.5721253465153
 21
-303.7188094043711
 31
0.0
  0
LINE
  5
183
330
74
100
AcDbEntity
  8
1
  6
Continuous
 62
     6
100
AcDbLine
 10
-30.02732081976546
 20
-303.7188094043685
 30
0.0
 11
-30.02732081976586
 21
-295.2188094043686
 31
0.0
  0
LINE
  5
184
330
74
100
AcDbEntity
  8
1
  6
Continuous
 62
     6
100
AcDbLine
 10
-425.0273208197651
 20
-303.718809404368
 30
0.0
 11
-425.0273208197661
 21
-16.71880940436776
 31
0.0
  0
LINE
  5
185
330
74
100
AcDbEntity
  8
1
  6
Continuous
 62
     2
100
AcDbLine
 10
-445.0273208197662
 20
-160.218809404368
 30
0.0
 11
-445.0273208197662
 21
-308.718809404368
 31
0.0
  0
LINE
  5
186
330
74
100
AcDbEntity
  8
1
  6
Continuous
 62
     2
100
AcDbLine
 10
-445.0273208197662
 20
-160.218809404368
 30
0.0
 11
-435.0273208197661
 21
-160.218809404368
 31
0.0
  0
LINE
  5
187
330
74
100
AcDbEntity
  8
1
  6
Continuous
 62
     2
100
AcDbLine
 10
-445.0273208197662
 20
-11.718809404368
 30
0.0
 11
-445.0273208197662
 21
-160.218809404368
 31
0.0
  0
LINE
  5
188
330
74
100
AcDbEntity
  8
1
  6
Continuous
 62
     2
100
AcDbLine
 10
-215.0273208197682
 20
-11.718809404368
 30
0.0
 11
-235.0273208197654
 21
-11.718809404368
 31
0.0
  0
LINE
  5
189
330
74
100
AcDbEntity
  8
1
  6
Continuous
 62
     2
100
AcDbLine
 10
-215.0273208197682
 20
-11.718809404368
 30
0.0
 11
-215.0273208197682
 21
-15.71880940436776
 31
0.0
  0
LINE
  5
18A
330
74
100
AcDbEntity
  8
1
  6
Continuous
 62
     2
100
AcDbLine
 10
-425.0273208197661
 20
-11.718809404368
 30
0.0
 11
-445.0273208197662
 21
-11.718809404368
 31
0.0
  0
LINE
  5
18B
330
74
100
AcDbEntity
  8
1
  6
Continuous
 62
     2
100
AcDbLine
 10
-425.0273208197661
 20
-11.718809404368
 30
0.0
 11
-425.0273208197661
 21
-15.71880940436776
 31
0.0
  0
LINE
  5
18C
330
74
100
AcDbEntity
  8
1
  6
Continuous
 62
     2
100
AcDbLine
 10
-371.693987486432
 20
-11.718809404368
 30
0.0
 11
-425.0273208197661
 21
-11.718809404368
 31
0.0
  0
LINE
  5
18D
330
74
100
AcDbEntity
  8
1
  6
Continuous
 62
     6
100
AcDbLine
 10
-371.693987486432
 20
-16.71880940436776
 30
0.0
 11
-303.3606541530985
 21
-16.718809404368
 31
0.0
  0
LINE
  5
18E
330
74
100
AcDbEntity
  8
1
  6
Continuous
 62
     2
100
AcDbLine
 10
-371.693987486432
 20
-16.71880940436776
 30
0.0
 11
-371.693987486432
 21
-11.718809404368
 31
0.0
  0
LINE
  5
18F
330
74
100
AcDbEntity
  8
1
  6
Continuous
 62
     2
100
AcDbLine
 10
-303.3606541530985
 20
-11.718809404368
 30
0.0
 11
-371.693987486432
 21
-11.718809404368
 31
0.0
  0
LINE
  5
190
330
74
100
AcDbEntity
  8
1
  6
Continuous
 62
     6
100
AcDbLine
 10
-303.3606541530985
 20
-16.718809404368
 30
0.0
 11
-235.0273208197654
 21
-16.718809404368
 31
0.0
  0
LINE
  5
191
330
74
100
AcDbEntity
  8
1
  6
Continuous
 62
     2
100
AcDbLine
 10
-303.3606541530985
 20
-16.718809404368
 30
0.0
 11
-303.3606541530985
 21
-11.718809404368
 31
0.0
  0
LINE
  5
192
330
74
100
AcDbEntity
  8
1
  6
Continuous
 62
     2
100
AcDbLine
 10
-235.0273208197654
 20
-11.718809404368
 30
0.0
 11
-303.3606541530985
 21
-11.718809404368
 31
0.0
  0
LINE
  5
193
330
74
100
AcDbEntity
  8
1
  6
Continuous
 62
     6
100
AcDbLine
 10
-235.0273208197654
 20
-16.718809404368
 30
0.0
 11
-166.693987486432
 21
-16.718809404368
 31
0.0
  0
LINE
  5
194
330
74
100
AcDbEntity
  8
1
  6
Continuous
 62
     2
100
AcDbLine
 10
-235.0273208197654
 20
-16.718809404368
 30
0.0
 11
-235.0273208197654
 21
-11.718809404368
 31
0.0
  0
LINE
  5
195
330
74
100
AcDbEntity
  8
1
  6
Continuous
 62
     2
100
AcDbLine
 10
-166.693987486432
 20
-11.718809404368
 30
0.0
 11
-215.0273208197682
 21
-11.718809404368
 31
0.0
  0
LINE
  5
196
330
74
100
AcDbEntity
  8
1
  6
Continuous
 62
     6
100
AcDbLine
 10
-166.693987486432
 20
-16.718809404368
 30
0.0
 11
-98.36065415309882
 21
-16.718809404368
 31
0.0
  0
LINE
  5
197
330
74
100
AcDbEntity
  8
1
  6
Continuous
 62
     2
100
AcDbLine
 10
-166.693987486432
 20
-16.718809404368
 30
0.0
 11
-166.693987486432
 21
-11.718809404368
 31
0.0
  0
LINE
  5
198
330
74
100
AcDbEntity
  8
1
  6
Continuous
 62
     2
100
AcDbLine
 10
-98.36065415309882
 20
-11.718809404368
 30
0.0
 11
-166.693987486432
 21
-11.718809404368
 31
0.0
  0
LINE
  5
199
330
74
100
AcDbEntity
  8
1
  6
Continuous
 62
     6
100
AcDbLine
 10
-98.36065415309882
 20
-16.718809404368
 30
0.0
 11
-30.02732081976791
 21
-16.718809404368
 31
0.0
  0
LINE
  5
19A
330
74
100
AcDbEntity
  8
1
  6
Continuous
 62
     2
100
AcDbLine
 10
-98.36065415309882
 20
-16.718809404368
 30
0.0
 11
-98.36065415309882
 21
-11.718809404368
 31
0.0
  0
LINE
  5
19B
330
74
100
AcDbEntity
  8
1
  6
Continuous
 62
     2
100
AcDbLine
 10
-30.02732081976791
 20
-11.718809404368
 30
0.0
 11
-98.36065415309882
 21
-11.718809404368
 31
0.0
  0
LINE
  5
19C
330
74
100
AcDbEntity
  8
1
  6
Continuous
 62
     6
100
AcDbLine
 10
-425.0273208197661
 20
-16.71880940436776
 30
0.0
 11
-371.693987486432
 21
-16.71880940436776
 31
0.0
  0
LINE
  5
19D
330
74
100
AcDbEntity
  8
1
  6
Continuous
 62
     6
100
AcDbLine
 10
-30.02732081976541
 20
-188.9188094043678
 30
0.0
 11
-30.02732081976546
 21
-246.3188094043679
 31
0.0
  0
LINE
  5
19E
330
74
100
AcDbEntity
  8
1
  6
Continuous
 62
     2
100
AcDbLine
 10
-30.02732081976541
 20
-188.9188094043678
 30
0.0
 11
-25.02732081976791
 21
-188.9188094043678
 31
0.0
  0
LINE
  5
19F
330
74
100
AcDbEntity
  8
1
  6
Continuous
 62
     2
100
AcDbLine
 10
-25.02732081976791
 20
-131.518809404368
 30
0.0
 11
-25.02732081976791
 21
-188.9188094043678
 31
0.0
  0
LINE
  5
1A0
330
74
100
AcDbEntity
  8
1
  6
Continuous
 62
     6
100
AcDbLine
 10
-30.02732081976541
 20
-131.518809404368
 30
0.0
 11
-30.02732081976541
 21
-188.9188094043678
 31
0.0
  0
LINE
  5
1A1
330
74
100
AcDbEntity
  8
1
  6
Continuous
 62
     2
100
AcDbLine
 10
-30.02732081976541
 20
-131.518809404368
 30
0.0
 11
-25.02732081976791
 21
-131.518809404368
 31
0.0
  0
LINE
  5
1A2
330
74
100
AcDbEntity
  8
1
  6
Continuous
 62
     2
100
AcDbLine
 10
-25.02732081976791
 20
-74.11880940436808
 30
0.0
 11
-25.02732081976791
 21
-131.518809404368
 31
0.0
  0
LINE
  5
1A3
330
74
100
AcDbEntity
  8
1
  6
Continuous
 62
     6
100
AcDbLine
 10
-30.0273208197674
 20
-74.11880940436808
 30
0.0
 11
-30.02732081976541
 21
-131.518809404368
 31
0.0
  0
LINE
  5
1A4
330
74
100
AcDbEntity
  8
1
  6
Continuous
 62
     2
100
AcDbLine
 10
-30.0273208197674
 20
-74.11880940436808
 30
0.0
 11
-25.02732081976791
 21
-74.11880940436808
 31
0.0
  0
LINE
  5
1A5
330
74
100
AcDbEntity
  8
1
  6
Continuous
 62
     2
100
AcDbLine
 10
-25.02732081976791
 20
-16.718809404368
 30
0.0
 11
-25.02732081976791
 21
-74.11880940436808
 31
0.0
  0
LINE
  5
1A6
330
74
100
AcDbEntity
  8
1
  6
Continuous
 62
     2
100
AcDbLine
 10
-30.02732081976791
 20
-16.718809404368
 30
0.0
 11
-25.02732081976791
 21
-16.718809404368
 31
0.0
  0
LINE
  5
1A7
330
74
100
AcDbEntity
  8
1
  6
Continuous
 62
     2
100
AcDbLine
 10
-30.02732081976791
 20
-16.718809404368
 30
0.0
 11
-30.02732081976791
 21
-11.718809404368
 31
0.0
  0
LINE
  5
1A8
330
74
100
AcDbEntity
  8
1
  6
Continuous
 62
     2
100
AcDbLine
 10
-25.02732081976791
 20
-11.718809404368
 30
0.0
 11
-25.02732081976791
 21
-16.718809404368
 31
0.0
  0
LINE
  5
1A9
330
74
100
AcDbEntity
  8
1
  6
Continuous
 62
     6
100
AcDbLine
 10
-30.02732081976791
 20
-16.718809404368
 30
0.0
 11
-30.0273208197674
 21
-74.11880940436808
 31
0.0
  0
LINE
  5
1AA
330
74
100
AcDbEntity
  8
1
  6
Continuous
 62
     2
100
AcDbLine
 10
-25.02732081976791
 20
-11.718809404368
 30
0.0
 11
-30.02732081976791
 21
-11.718809404368
 31
0.0
  0
LINE
  5
1AB
330
74
100
AcDbEntity
  8
1
  6
Continuous
 62
     2
100
AcDbLine
 10
-25.02732081976791
 20
-303.718809404368
 30
0.0
 11
-25.02732081976791
 21
-246.3188094043679
 31
0.0
  0
LINE
  5
1AC
330
74
100
AcDbEntity
  8
1
  6
Continuous
 62
     2
100
AcDbLine
 10
-25.02732081976791
 20
-303.718809404368
 30
0.0
 11
-25.02732081976791
 21
-308.718809404368
 31
0.0
  0
LINE
  5
1AD
330
74
100
AcDbEntity
  8
1
  6
Continuous
 62
     2
100
AcDbLine
 10
-25.02732081976791
 20
-308.718809404368
 30
0.0
 11
-30.02732081976541
 21
-308.718809404368
 31
0.0
  0
LINE
  5
1AE
330
74
100
AcDbEntity
  8
1
  6
Continuous
 62
     2
100
AcDbLine
 10
-166.693987486432
 20
-308.718809404368
 30
0.0
 11
-98.36065415309882
 21
-308.718809404368
 31
0.0
  0
LINE
  5
1AF
330
74
100
AcDbEntity
  8
1
  6
Continuous
 62
     2
100
AcDbLine
 10
-215.0273208197682
 20
-308.718809404368
 30
0.0
 11
-166.693987486432
 21
-308.718809404368
 31
0.0
  0
LINE
  5
1B0
330
74
100
AcDbEntity
  8
1
  6
Continuous
 62
     2
100
AcDbLine
 10
-215.0273208197682
 20
-308.718809404368
 30
0.0
 11
-215.0273208197682
 21
-304.718809404368
 31
0.0
  0
LINE
  5
1B1
330
74
100
AcDbEntity
  8
1
  6
Continuous
 62
     2
100
AcDbLine
 10
-215.0273208197682
 20
-308.718809404368
 30
0.0
 11
-235.0273208197654
 21
-308.718809404368
 31
0.0
  0
LINE
  5
1B2
330
74
100
AcDbEntity
  8
1
  6
Continuous
 62
     2
100
AcDbLine
 10
-425.0273208197661
 20
-308.718809404368
 30
0.0
 11
-371.693987486432
 21
-308.718809404368
 31
0.0
  0
LINE
  5
1B3
330
74
100
AcDbEntity
  8
1
  6
Continuous
 62
     2
100
AcDbLine
 10
-425.0273208197661
 20
-308.718809404368
 30
0.0
 11
-425.0273208197661
 21
-304.718809404368
 31
0.0
  0
LINE
  5
1B4
330
74
100
AcDbEntity
  8
1
  6
Continuous
 62
     2
100
AcDbLine
 10
-303.3606541530985
 20
-308.718809404368
 30
0.0
 11
-303.3606541530985
 21
-303.718809404368
 31
0.0
  0
LINE
  5
1B5
330
74
100
AcDbEntity
  8
1
  6
Continuous
 62
     6
100
AcDbLine
 10
-371.693987486432
 20
-303.718809404368
 30
0.0
 11
-425.0273208197651
 21
-303.718809404368
 31
0.0
  0
LINE
  5
1B6
330
74
100
AcDbEntity
  8
1
  6
Continuous
 62
     6
100
AcDbLine
 10
-371.693987486432
 20
-303.718809404368
 30
0.0
 11
-303.3606541530985
 21
-303.718809404368
 31
0.0
  0
LINE
  5
1B7
330
74
100
AcDbEntity
  8
1
  6
Continuous
 62
     2
100
AcDbLine
 10
-371.693987486432
 20
-308.718809404368
 30
0.0
 11
-303.3606541530985
 21
-308.718809404368
 31
0.0
  0
LINE
  5
1B8
330
74
100
AcDbEntity
  8
1
  6
Continuous
 62
     2
100
AcDbLine
 10
-371.693987486432
 20
-308.718809404368
 30
0.0
 11
-371.693987486432
 21
-303.718809404368
 31
0.0
  0
LINE
  5
1B9
330
74
100
AcDbEntity
  8
1
  6
Continuous
 62
     2
100
AcDbLine
 10
-425.0273208197661
 20
-308.718809404368
 30
0.0
 11
-445.0273208197662
 21
-308.718809404368
 31
0.0
  0
LINE
  5
1BA
330
74
100
AcDbEntity
  8
1
  6
Continuous
 62
     2
100
AcDbLine
 10
-25.02732081976791
 20
-246.3188094043679
 30
0.0
 11
-30.02732081976546
 21
-246.3188094043679
 31
0.0
  0
LINE
  5
1BB
330
74
100
AcDbEntity
  8
1
  6
Continuous
 62
     2
100
AcDbLine
 10
-25.02732081976791
 20
-246.3188094043679
 30
0.0
 11
-25.02732081976791
 21
-188.9188094043678
 31
0.0
  0
LINE
  5
1BC
330
74
100
AcDbEntity
  8
1
  6
Continuous
 62
     2
100
AcDbLine
 10
-235.0273208197654
 20
-308.718809404368
 30
0.0
 11
-235.0273208197654
 21
-303.718809404368
 31
0.0
  0
LINE
  5
1BD
330
74
100
AcDbEntity
  8
1
  6
Continuous
 62
     2
100
AcDbLine
 10
-166.693987486432
 20
-308.718809404368
 30
0.0
 11
-166.693987486432
 21
-303.7188094043709
 31
0.0
  0
LINE
  5
1BE
330
74
100
AcDbEntity
  8
1
  6
Continuous
 62
     2
100
AcDbLine
 10
-98.36065415309882
 20
-308.718809404368
 30
0.0
 11
-98.36065415309882
 21
-303.718809404368
 31
0.0
  0
LINE
  5
1BF
330
74
100
AcDbEntity
  8
1
  6
Continuous
 62
     2
100
AcDbLine
 10
-98.36065415309882
 20
-308.718809404368
 30
0.0
 11
-30.02732081976541
 21
-308.718809404368
 31
0.0
  0
LINE
  5
1C0
330
74
100
AcDbEntity
  8
1
  6
Continuous
 62
     2
100
AcDbLine
 10
-235.0273208197654
 20
-308.718809404368
 30
0.0
 11
-303.3606541530985
 21
-308.718809404368
 31
0.0
  0
LINE
  5
1C1
330
74
100
AcDbEntity
  8
1
  6
Continuous
 62
     6
100
AcDbLine
 10
-30.02732081976637
 20
-282.4688094043686
 30
0.0
 11
-30.02732081976546
 21
-246.3188094043679
 31
0.0
  0
LINE
  5
1C2
330
74
100
AcDbEntity
  8
1
  6
Continuous
 62
     6
100
AcDbLine
 10
-30.02732081976541
 20
-286.7188094043686
 30
0.0
 11
-30.02732081976637
 21
-282.4688094043686
 31
0.0
  0
LINE
  5
1C3
330
74
100
AcDbEntity
  8
1
  6
Continuous
 62
     6
100
AcDbLine
 10
-30.02732081976586
 20
-295.2188094043686
 30
0.0
 11
-30.02732081976541
 21
-286.7188094043686
 31
0.0
  0
LINE
  5
1C4
330
74
100
AcDbEntity
  8
1
  6
Continuous
 62
     6
100
AcDbLine
 10
-98.36065415309882
 20
-303.718809404368
 30
0.0
 11
-30.02732081976546
 21
-303.7188094043685
 31
0.0
  0
ARC
  5
1C5
102
{ACAD_REACTORS
330
240
330
241
102
}
330
74
100
AcDbEntity
  8
0
  6
Continuous
 62
     2
100
AcDbCircle
 10
-147.2006243218657
 20
-298.2110855877028
 30
0.0
 40
4.852596863497986
100
AcDbArc
 50
74.0200087416471
 51
84.84185523037642
  0
ARC
  5
1C6
102
{ACAD_REACTORS
330
240
330
241
102
}
330
74
100
AcDbEntity
  8
0
  6
Continuous
 62
     2
100
AcDbCircle
 10
-146.624583713112
 20
-295.0553252318185
 30
0.0
 40
0.9059297849852959
100
AcDbArc
 50
71.55192388185858
 51
113.3722778881304
  0
ARC
  5
1C7
102
{ACAD_REACTORS
330
240
330
241
102
}
330
74
100
AcDbEntity
  8
0
  6
Continuous
 62
     2
100
AcDbCircle
 10
-146.7810237458141
 20
-295.1034760717855
 30
0.0
 40
0.5115800601947491
100
AcDbArc
 50
208.5214732576844
 51
246.627722111826
  0
ARC
  5
1C8
102
{ACAD_REACTORS
330
240
330
241
102
}
330
74
100
AcDbEntity
  8
0
  6
Continuous
 62
     2
100
AcDbCircle
 10
-146.624583713112
 20
-294.7414840530755
 30
0.0
 40
0.9059297849847106
100
AcDbArc
 50
246.6277221118654
 51
288.4480761181539
  0
ARC
  5
1C9
102
{ACAD_REACTORS
330
240
330
241
102
}
330
74
100
AcDbEntity
  8
0
  6
Continuous
 62
     2
100
AcDbCircle
 10
-147.0427514467729
 20
-293.4879382770383
 30
0.0
 40
2.227384008972719
100
AcDbArc
 50
288.4480761181337
 51
301.9309089499643
  0
ARC
  5
1CA
102
{ACAD_REACTORS
330
23C
330
23D
102
}
330
74
100
AcDbEntity
  8
0
  6
Continuous
 62
     2
100
AcDbCircle
 10
-152.2678251793796
 20
-292.7554362481243
 30
0.0
 40
0.9118481501442791
100
AcDbArc
 50
295.3740086781818
 51
64.62599132181052
  0
ARC
  5
1CB
102
{ACAD_REACTORS
330
23C
330
23D
102
}
330
74
100
AcDbEntity
  8
0
  6
Continuous
 62
     2
100
AcDbCircle
 10
-151.7417824812917
 20
-291.0407593596497
 30
0.0
 40
0.3157169230761851
100
AcDbArc
 50
90.1889670425665
 51
180.0
  0
ARC
  5
1CC
102
{ACAD_REACTORS
330
23E
330
23F
102
}
330
74
100
AcDbEntity
  8
0
  6
Continuous
 62
     2
100
AcDbCircle
 10
-130.5316522684575
 20
-295.1112881934909
 30
0.0
 40
0.9545230068260935
100
AcDbArc
 50
90.0
 51
109.3371432194297
  0
ARC
  5
1CD
102
{ACAD_REACTORS
330
23E
330
23F
102
}
330
74
100
AcDbEntity
  8
0
  6
Continuous
 62
     2
100
AcDbCircle
 10
-130.3009650084797
 20
-294.898404642447
 30
0.0
 40
0.9410597353350872
100
AcDbArc
 50
151.4785267423551
 51
208.5214732576662
  0
ARC
  5
1CE
102
{ACAD_REACTORS
330
23E
330
23F
102
}
330
74
100
AcDbEntity
  8
0
  6
Continuous
 62
     2
100
AcDbCircle
 10
-130.521882233858
 20
-294.7414840530755
 30
0.0
 40
0.9059297849851051
100
AcDbArc
 50
246.6277221118076
 51
288.4480761180811
  0
ARC
  5
1CF
102
{ACAD_REACTORS
330
23E
330
23F
102
}
330
74
100
AcDbEntity
  8
0
  6
Continuous
 62
     2
100
AcDbCircle
 10
-130.94004996752
 20
-293.4879382770388
 30
0.0
 40
2.227384008972665
100
AcDbArc
 50
288.4480761181342
 51
301.9309089499403
  0
ARC
  5
1D0
102
{ACAD_REACTORS
330
23E
330
23F
102
}
330
74
100
AcDbEntity
  8
0
  6
Continuous
 62
     2
100
AcDbCircle
 10
-131.0979228426128
 20
-291.5857236971905
 30
0.0
 40
4.852596863498889
100
AcDbArc
 50
275.1581447696373
 51
285.9799912583383
  0
ARC
  5
1D1
102
{ACAD_REACTORS
330
23E
330
23F
102
}
330
74
100
AcDbEntity
  8
0
  6
Continuous
 62
     2
100
AcDbCircle
 10
-130.8090667478769
 20
-294.7856142804121
 30
0.0
 40
1.639695123940531
100
AcDbArc
 50
195.0618917771004
 51
275.1581447696762
  0
ARC
  5
1D2
102
{ACAD_REACTORS
330
236
330
237
102
}
330
74
100
AcDbEntity
  8
0
  6
Continuous
 62
     2
100
AcDbCircle
 10
-146.537280059568
 20
-291.0676750457005
 30
0.0
 40
1.055365641333651
100
AcDbArc
 50
270.0
 51
90.0
  0
ARC
  5
1D3
102
{ACAD_REACTORS
330
23C
330
23D
102
}
330
74
100
AcDbEntity
  8
0
  6
Continuous
 62
     2
100
AcDbCircle
 10
-154.3173311678235
 20
-295.3970369257186
 30
0.0
 40
0.3157169230755983
100
AcDbArc
 50
180.0
 51
270.0
  0
ARC
  5
1D4
102
{ACAD_REACTORS
330
23C
330
23D
102
}
330
74
100
AcDbEntity
  8
0
  6
Continuous
 62
     2
100
AcDbCircle
 10
-152.8414979068139
 20
-291.0405818830014
 30
0.0
 40
0.3157169230766215
100
AcDbArc
 50
0.0
 51
90.0
  0
ARC
  5
1D5
102
{ACAD_REACTORS
330
23C
330
23D
102
}
330
74
100
AcDbEntity
  8
0
  6
Continuous
 62
     2
100
AcDbCircle
 10
-152.8414979068139
 20
-291.6446065020621
 30
0.0
 40
0.3157169230760658
100
AcDbArc
 50
295.1944106485672
 51
0.0
  0
ARC
  5
1D6
102
{ACAD_REACTORS
330
23C
330
23D
102
}
330
74
100
AcDbEntity
  8
0
  6
Continuous
 62
     2
100
AcDbCircle
 10
-152.8414979068139
 20
-295.3970369257186
 30
0.0
 40
0.3157169230766499
100
AcDbArc
 50
270.0
 51
0.0
  0
ARC
  5
1D7
102
{ACAD_REACTORS
330
23C
330
23D
102
}
330
74
100
AcDbEntity
  8
0
  6
Continuous
 62
     2
100
AcDbCircle
 10
-154.91122584457
 20
-290.4365540197688
 30
0.0
 40
0.4242446153839978
100
AcDbArc
 50
90.0
 51
180.0
  0
ARC
  5
1D8
102
{ACAD_REACTORS
330
23C
330
23D
102
}
330
74
100
AcDbEntity
  8
0
  6
Continuous
 62
     2
100
AcDbCircle
 10
-149.4379137538531
 20
-290.4365540197688
 30
0.0
 40
0.4242446153839126
100
AcDbArc
 50
0.0
 51
90.0
  0
ARC
  5
1D9
102
{ACAD_REACTORS
330
23C
330
23D
102
}
330
74
100
AcDbEntity
  8
0
  6
Continuous
 62
     2
100
AcDbCircle
 10
-149.4379137538531
 20
-296.001064788969
 30
0.0
 40
0.424244615383202
100
AcDbArc
 50
270.0
 51
0.0
  0
ARC
  5
1DA
102
{ACAD_REACTORS
330
23A
330
23B
102
}
330
74
100
AcDbEntity
  8
0
  6
Continuous
 62
     2
100
AcDbCircle
 10
-140.2195298667616
 20
-291.5392141662726
 30
0.0
 40
0.7717997786795702
100
AcDbArc
 50
321.8795802028399
 51
38.12041979715683
  0
ARC
  5
1DB
102
{ACAD_REACTORS
330
23A
330
23B
102
}
330
74
100
AcDbEntity
  8
0
  6
Continuous
 62
     2
100
AcDbCircle
 10
-140.0197898304154
 20
-291.6959453443931
 30
0.0
 40
0.5179085730134564
100
AcDbArc
 50
218.1204197971334
 51
321.8795802028588
  0
ARC
  5
1DC
102
{ACAD_REACTORS
330
238
330
239
102
}
330
74
100
AcDbEntity
  8
0
  6
Continuous
 62
     2
100
AcDbCircle
 10
-143.6997974193757
 20
-294.898404642447
 30
0.0
 40
1.458034083651929
100
AcDbArc
 50
297.5481481757076
 51
62.45185182429758
  0
ARC
  5
1DD
102
{ACAD_REACTORS
330
238
330
239
102
}
330
74
100
AcDbEntity
  8
0
  6
Continuous
 62
     2
100
AcDbCircle
 10
-144.2616772030423
 20
-294.898404642447
 30
0.0
 40
1.458034083651629
100
AcDbArc
 50
117.5481481756608
 51
242.451851824334
  0
ARC
  5
1DE
102
{ACAD_REACTORS
330
238
330
239
102
}
330
74
100
AcDbEntity
  8
0
  6
Continuous
 62
     2
100
AcDbCircle
 10
-143.9807373112089
 20
-295.4369796527498
 30
0.0
 40
2.065479772208707
100
AcDbArc
 50
62.45185182430749
 51
117.5481481756674
  0
ARC
  5
1DF
102
{ACAD_REACTORS
330
238
330
239
102
}
330
74
100
AcDbEntity
  8
0
  6
Continuous
 62
     2
100
AcDbCircle
 10
-143.9807373112089
 20
-294.3598296321436
 30
0.0
 40
2.065479772208536
100
AcDbArc
 50
242.451851824337
 51
297.5481481756881
  0
ARC
  5
1E0
102
{ACAD_REACTORS
330
23A
330
23B
102
}
330
74
100
AcDbEntity
  8
0
  6
Continuous
 62
     2
100
AcDbCircle
 10
-139.8200497940692
 20
-291.5392141662726
 30
0.0
 40
0.7717997786796023
100
AcDbArc
 50
141.8795802028471
 51
218.1204197971562
  0
ARC
  5
1E1
102
{ACAD_REACTORS
330
23A
330
23B
102
}
330
74
100
AcDbEntity
  8
0
  6
Continuous
 62
     2
100
AcDbCircle
 10
-140.0197898304154
 20
-291.3824829881521
 30
0.0
 40
0.5179085730133669
100
AcDbArc
 50
38.12041979714121
 51
141.8795802028666
  0
ARC
  5
1E2
102
{ACAD_REACTORS
330
23C
330
23D
102
}
330
74
100
AcDbEntity
  8
0
  6
Continuous
 62
     2
100
AcDbCircle
 10
-154.91122584457
 20
-296.001064788969
 30
0.0
 40
0.4242446153828041
100
AcDbArc
 50
180.0
 51
270.0
  0
ARC
  5
1E3
102
{ACAD_REACTORS
330
23C
330
23D
102
}
330
74
100
AcDbEntity
  8
0
  6
Continuous
 62
     2
100
AcDbCircle
 10
-152.8414979068139
 20
-293.866265994187
 30
0.0
 40
0.3157169230766215
100
AcDbArc
 50
0.0
 51
64.8055893514504
  0
ARC
  5
1E4
102
{ACAD_REACTORS
330
23C
330
23D
102
}
330
74
100
AcDbEntity
  8
0
  6
Continuous
 62
     2
100
AcDbCircle
 10
-152.3189134592389
 20
-292.7554362481243
 30
0.0
 40
0.9118975235576555
100
AcDbArc
 50
115.1944106485211
 51
244.805589351488
  0
ARC
  5
1E5
102
{ACAD_REACTORS
330
23C
330
23D
102
}
330
74
100
AcDbEntity
  8
0
  6
Continuous
 62
     2
100
AcDbCircle
 10
-154.3173311678235
 20
-291.0405818830014
 30
0.0
 40
0.3157169230759678
100
AcDbArc
 50
90.0
 51
180.0
  0
ARC
  5
1E6
102
{ACAD_REACTORS
330
236
330
237
102
}
330
74
100
AcDbEntity
  8
0
  6
Continuous
 62
     2
100
AcDbCircle
 10
-146.9787525858064
 20
-291.028279074478
 30
0.0
 40
0.3528638246709761
100
AcDbArc
 50
270.0
 51
90.0
  0
ARC
  5
1E7
102
{ACAD_REACTORS
330
23A
330
23B
102
}
330
74
100
AcDbEntity
  8
0
  6
Continuous
 62
     2
100
AcDbCircle
 10
-140.2360618405806
 20
-291.5392141662726
 30
0.0
 40
1.526904761905769
100
AcDbArc
 50
90.0
 51
270.0
  0
ARC
  5
1E8
102
{ACAD_REACTORS
330
23E
330
23F
102
}
330
74
100
AcDbEntity
  8
0
  6
Continuous
 62
     2
100
AcDbCircle
 10
-130.8090667478769
 20
-295.0111950044818
 30
0.0
 40
1.639695123940101
100
AcDbArc
 50
90.0
 51
164.9381082228996
  0
ARC
  5
1E9
102
{ACAD_REACTORS
330
23E
330
23F
102
}
330
74
100
AcDbEntity
  8
0
  6
Continuous
 62
     2
100
AcDbCircle
 10
-131.2281945913386
 20
-294.898404642447
 30
0.0
 40
1.205656168393002
100
AcDbArc
 50
164.9381082229028
 51
195.061891777092
  0
ARC
  5
1EA
102
{ACAD_REACTORS
330
23E
330
23F
102
}
330
74
100
AcDbEntity
  8
0
  6
Continuous
 62
     2
100
AcDbCircle
 10
-130.6783222665612
 20
-295.1034760717855
 30
0.0
 40
0.5115800601960215
100
AcDbArc
 50
208.5214732576866
 51
246.6277221118348
  0
ARC
  5
1EB
102
{ACAD_REACTORS
330
23E
330
23F
102
}
330
74
100
AcDbEntity
  8
0
  6
Continuous
 62
     2
100
AcDbCircle
 10
-130.6783222665612
 20
-294.6933332131079
 30
0.0
 40
0.5115800601944143
100
AcDbArc
 50
109.3371432194853
 51
151.4785267424141
  0
ARC
  5
1EC
102
{ACAD_REACTORS
330
23C
330
23D
102
}
330
74
100
AcDbEntity
  8
0
  6
Continuous
 62
     2
100
AcDbCircle
 10
-151.7417824812917
 20
-294.4464292547876
 30
0.0
 40
0.3157169230768204
100
AcDbArc
 50
180.0
 51
269.8110329574336
  0
ARC
  5
1ED
102
{ACAD_REACTORS
330
23C
330
23D
102
}
330
74
100
AcDbEntity
  8
0
  6
Continuous
 62
     2
100
AcDbCircle
 10
-151.7361663459817
 20
-292.7435943072187
 30
0.0
 40
2.018561131933266
100
AcDbArc
 50
269.8110329575834
 51
90.18896704241658
  0
ARC
  5
1EE
102
{ACAD_REACTORS
330
23C
330
23D
102
}
330
74
100
AcDbEntity
  8
0
  6
Continuous
 62
     2
100
AcDbCircle
 10
-151.7417824812917
 20
-291.6462946481565
 30
0.0
 40
0.3157169230768204
100
AcDbArc
 50
180.0
 51
244.6259913216303
  0
ARC
  5
1EF
102
{ACAD_REACTORS
330
23C
330
23D
102
}
330
74
100
AcDbEntity
  8
0
  6
Continuous
 62
     2
100
AcDbCircle
 10
-151.7417824812917
 20
-293.8645778480926
 30
0.0
 40
0.3157169230766477
100
AcDbArc
 50
115.3740086783477
 51
180.0
  0
ARC
  5
1F0
102
{ACAD_REACTORS
330
240
330
241
102
}
330
74
100
AcDbEntity
  8
0
  6
Continuous
 62
     2
100
AcDbCircle
 10
-146.9117682271298
 20
-295.0111950044818
 30
0.0
 40
1.639695123940499
100
AcDbArc
 50
84.84185523036533
 51
164.9381082228903
  0
ARC
  5
1F1
102
{ACAD_REACTORS
330
240
330
241
102
}
330
74
100
AcDbEntity
  8
0
  6
Continuous
 62
     2
100
AcDbCircle
 10
-147.3308960705926
 20
-294.898404642447
 30
0.0
 40
1.205656168390971
100
AcDbArc
 50
164.9381082228768
 51
195.0618917770945
  0
ARC
  5
1F2
102
{ACAD_REACTORS
330
240
330
241
102
}
330
74
100
AcDbEntity
  8
0
  6
Continuous
 62
     2
100
AcDbCircle
 10
-146.9117682271298
 20
-294.7856142804121
 30
0.0
 40
1.63969512393941
100
AcDbArc
 50
195.0618917770925
 51
275.1581447696363
  0
ARC
  5
1F3
102
{ACAD_REACTORS
330
240
330
241
102
}
330
74
100
AcDbEntity
  8
0
  6
Continuous
 62
     2
100
AcDbCircle
 10
-147.2006243218657
 20
-291.5857236971905
 30
0.0
 40
4.852596863498269
100
AcDbArc
 50
275.1581447696234
 51
285.9799912583529
  0
ARC
  5
1F4
102
{ACAD_REACTORS
330
240
330
241
102
}
330
74
100
AcDbEntity
  8
0
  6
Continuous
 62
     2
100
AcDbCircle
 10
-146.4036664877337
 20
-294.898404642447
 30
0.0
 40
0.9410597353333544
100
AcDbArc
 50
151.4785267422702
 51
208.5214732576964
  0
ARC
  5
1F5
102
{ACAD_REACTORS
330
240
330
241
102
}
330
74
100
AcDbEntity
  8
0
  6
Continuous
 62
     2
100
AcDbCircle
 10
-146.7810237458141
 20
-294.6933332131079
 30
0.0
 40
0.5115800601948179
100
AcDbArc
 50
113.3722778881916
 51
151.4785267423156
  0
ARC
  5
1F6
102
{ACAD_REACTORS
330
240
330
241
102
}
330
74
100
AcDbEntity
  8
0
  6
Continuous
 62
     2
100
AcDbCircle
 10
-147.0427514467729
 20
-296.308871007855
 30
0.0
 40
2.227384008973384
100
AcDbArc
 50
58.06909105003492
 51
71.55192388186583
  0
ARC
  5
1F7
102
{ACAD_REACTORS
330
238
330
239
102
}
330
74
100
AcDbEntity
  8
0
  6
Continuous
 62
     2
100
AcDbCircle
 10
-143.9807373112089
 20
-294.7416734643265
 30
0.0
 40
0.517908573013338
100
AcDbArc
 50
38.1204197971677
 51
141.8795802028498
  0
ARC
  5
1F8
102
{ACAD_REACTORS
330
238
330
239
102
}
330
74
100
AcDbEntity
  8
0
  6
Continuous
 62
     2
100
AcDbCircle
 10
-143.7809972748629
 20
-294.898404642447
 30
0.0
 40
0.771799778679586
100
AcDbArc
 50
141.8795802028247
 51
218.120419797162
  0
ARC
  5
1F9
102
{ACAD_REACTORS
330
238
330
239
102
}
330
74
100
AcDbEntity
  8
0
  6
Continuous
 62
     2
100
AcDbCircle
 10
-143.9807373112089
 20
-295.0551358205669
 30
0.0
 40
0.51790857301382
100
AcDbArc
 50
218.1204197971898
 51
321.8795802027927
  0
ARC
  5
1FA
102
{ACAD_REACTORS
330
238
330
239
102
}
330
74
100
AcDbEntity
  8
0
  6
Continuous
 62
     2
100
AcDbCircle
 10
-144.1804773475553
 20
-294.898404642447
 30
0.0
 40
0.7717997786795351
100
AcDbArc
 50
321.8795802028432
 51
38.12041979717011
  0
CIRCLE
  5
1FB
330
74
100
AcDbEntity
  8
1
  6
Continuous
 62
     2
100
AcDbCircle
 10
-146.8354704599528
 20
-282.5938094043687
 30
0.0
 40
2.5
  0
CIRCLE
  5
1FC
330
74
100
AcDbEntity
  8
1
  6
Continuous
 62
     2
100
AcDbCircle
 10
-146.8354704599528
 20
-282.5938094043687
 30
0.0
 40
1.25
  0
CIRCLE
  5
1FD
102
{ACAD_REACTORS
330
23C
330
23D
102
}
330
74
100
AcDbEntity
  8
0
  6
Continuous
 62
     2
100
AcDbCircle
 10
-152.2916401940524
 20
-292.7554362481243
 30
0.0
 40
0.4709789327785074
  0
MTEXT
  5
1FE
330
74
100
AcDbEntity
  8
1
 62
     3
100
AcDbMText
 10
-426.6046475084122
 20
-303.6918953048673
 30
0.0
 40
1.8
 41
0.0
 71
     7
 72
     1
  3
Weitergabe sowie Vervielf\U+00e4ltigung dieses Dokuments, Verwertung und \PMitteilung seines Inhalts sind verboten, soweit nicht ausdr\U+00fccklich gestattet. \PZuwiderhandlungen verpflichten zu Schadenersatz. Alle Rechte f\U+00fcr den Fall\Pder Pat
  1
ent-, Gebrauchsmuster- oder Designeintragung vorbehalten.
  7
CONVERTER_11
 11
0.0
 21
1.0
 31
0.0
 73
     1
 44
0.99639855942377
  0
MTEXT
  5
1FF
330
74
100
AcDbEntity
  8
1
 62
     3
100
AcDbMText
 10
-426.7588538195061
 20
-130.7325252907143
 30
0.0
 40
1.8
 41
0.0
 71
     7
 72
     1
  3
Transfer or duplication of this document as well as the utilisation or\Pcommunication of its content are not permitted unless express consen\Pis granted. Violations give rise to claims for damages. All rights reserved\Pin case of patent, utility mod
  1
el or design patent registrations.
  7
CONVERTER_11
 11
0.0
 21
1.0
 31
0.0
 73
     1
 44
0.99639855942377
  0
TEXT
  5
200
330
74
100
AcDbEntity
  8
1
 62
     2
100
AcDbText
 10
-140.3721253465155
 20
-302.47782661936
 30
0.0
 40
1.8
  1
of
 41
0.9
  7
CONVERTER_11
100
AcDbText
  0
TEXT
  5
201
330
74
100
AcDbEntity
  8
1
 62
     2
100
AcDbText
 10
-158.5721253465153
 20
-302.4778266193603
 30
0.0
 40
1.8
  1
page
 41
0.9
  7
CONVERTER_11
100
AcDbText
  0
TEXT
  5
202
330
74
100
AcDbEntity
  8
1
 62
     2
100
AcDbText
 10
-149.9258603761733
 20
-302.5180580581705
 30
0.0
 40
1.8
  1
1
 41
0.9
  7
CONVERTER_11
100
AcDbText
  0
TEXT
  5
203
330
74
100
AcDbEntity
  8
1
 62
     2
100
AcDbText
 10
-135.1368165367018
 20
-302.4688094043686
 30
0.0
 40
1.8
  1
1
 41
0.9
  7
CONVERTER_11
100
AcDbText
  0
MTEXT
  5
205
330
74
100
AcDbEntity
  8
1
 62
     7
100
AcDbMText
 10
-76.5997230831399
 20
-300.4688094043684
 30
0.0
 40
3.0
 41
0.0
 71
     5
 72
     1
  1
HC-NPT-3/4-M25
  7
CONVERTER_12
 73
     1
 44
1.20048019207683
  0
MTEXT
  5
206
330
74
100
AcDbEntity
  8
1
 62
     2
100
AcDbMText
 10
-122.1721253465154
 20
-296.2188094043686
 30
0.0
 40
1.8
 41
0.0
 71
     1
 72
     1
  1
description
  7
CONVERTER_11
 73
     1
 44
1.20048019207683
  0
MTEXT
  5
207
330
74
100
AcDbEntity
  8
1
 62
     3
100
AcDbMText
 10
-133.3721253465154
 20
-282.5938094043686
 30
0.0
 40
2.5
 41
0.0
 71
     5
 72
     1
  1
DIN A3
  7
CONVERTER_11
 73
     1
 44
1.20048019207683
  0
MTEXT
  5
208
330
74
100
AcDbEntity
  8
1
 62
     2
100
AcDbMText
 10
-193.9831486157249
 20
-290.9688094043697
 30
0.0
 40
2.0
 41
0.0
 71
     5
 72
     1
  1
General Information\P- Simplified representation\P- Document excluded from change process\P- Linear dimensions [mm]
  7
CONVERTER_11
 73
     1
 44
1.20048019207683
  0
TEXT
  5
209
330
74
100
AcDbEntity
  8
1
 62
     7
100
AcDbText
 10
-121.6721253465156
 20
-293.9188094043685
 30
0.0
 40
2.5
  1
1686850
 41
0.81
  7
CONVERTER_12
100
AcDbText
  0
MTEXT
  5
20A
330
74
100
AcDbEntity
  8
1
 62
     2
100
AcDbMText
 10
-122.0721253465154
 20
-287.7188094043686
 30
0.0
 40
1.8
 41
0.0
 71
     1
 72
     1
  1
ident.-No.
  7
CONVERTER_11
 73
     1
 44
1.20048019207683
  0
MTEXT
  5
20B
330
74
100
AcDbEntity
  8
1
 62
     2
100
AcDbMText
 10
-37.84572910144262
 20
-279.2188094043686
 30
0.0
 40
1.8
 41
0.0
 71
     1
 72
     1
  1
scale
  7
CONVERTER_11
 73
     1
 44
1.20048019207683
  0
MTEXT
  5
20D
330
74
100
AcDbEntity
  8
1
 62
     3
100
AcDbMText
 10
-34.48652496060311
 20
-285.4188094043685
 30
0.0
 40
2.5
 41
0.0
 71
     8
 72
     1
  1
2:1
  7
CONVERTER_13
 73
     1
 44
1.32052821128451
  0
TEXT
  5
20E
330
74
100
AcDbEntity
  8
1
 62
     7
100
AcDbText
 10
-122.0721253465154
 20
-285.4188094043685
 30
0.0
 40
2.5
  1
00896152
 41
0.81
  7
CONVERTER_12
100
AcDbText
  0
MTEXT
  5
210
330
74
100
AcDbEntity
  8
1
 62
     2
100
AcDbMText
 10
-122.0721253465154
 20
-279.2188094043686
 30
0.0
 40
1.8
 41
0.0
 71
     1
 72
     1
  1
document-No. / RI
  7
CONVERTER_14
 73
     1
 44
1.32052821128451
  0
TEXT
  5
211
330
74
100
AcDbEntity
  8
1
 62
     3
100
AcDbText
 10
-94.27212534651541
 20
-293.9188094043685
 30
0.0
 40
2.5
  1
Customer drawing select
 41
0.81
  7
CONVERTER_12
100
AcDbText
  0
MTEXT
  5
212
330
74
100
AcDbEntity
  8
1
 62
     2
100
AcDbMText
 10
-94.27212534651541
 20
-287.7188094043686
 30
0.0
 40
1.8
 41
0.0
 71
     1
 72
     1
  1
document-type
  7
CONVERTER_11
 73
     1
 44
1.20048019207683
  0
MTEXT
  5
213
330
74
100
AcDbEntity
  8
1
 62
     2
100
AcDbMText
 10
-64.44572910144244
 20
-279.2188094043686
 30
0.0
 40
1.8
 41
0.0
 71
     1
 72
     1
  1
date
  7
CONVERTER_11
 73
     1
 44
1.32052821128451
  0
TEXT
  5
214
330
74
100
AcDbEntity
  8
1
 62
     3
100
AcDbText
 10
-64.44572910144244
 20
-285.4188094043685
 30
0.0
 40
2.5
  1
11.09.2015
 41
0.81
  7
CONVERTER_12
100
AcDbText
  0
TEXT
  5
215
330
74
100
AcDbEntity
  8
1
 62
     7
100
AcDbText
 10
-102.0422131274596
 20
-285.4188094043685
 30
0.0
 40
2.5
  1
00
 41
0.81
  7
CONVERTER_12
100
AcDbText
  0
TEXT
  5
216
330
74
100
AcDbEntity
  8
1
 62
     7
100
AcDbText
 10
-104.1985776245016
 20
-285.4188094043685
 30
0.0
 40
2.5
  1
/
 41
0.9
  7
CONVERTER_11
100
AcDbText
  0
TEXT
  5
217
330
74
100
AcDbEntity
  8
1
 62
     7
100
AcDbText
 10
-407.0273208197651
 20
-15.71880940436776
 30
0.0
 40
2.5
  1
1
 41
0.9
  7
CONVERTER_11
100
AcDbText
  0
TEXT
  5
218
330
74
100
AcDbEntity
  8
1
 62
     7
100
AcDbText
 10
-338.693987486432
 20
-15.71880940436776
 30
0.0
 40
2.5
  1
2
 41
0.9
  7
CONVERTER_11
100
AcDbText
  0
TEXT
  5
219
330
74
100
AcDbEntity
  8
1
 62
     7
100
AcDbText
 10
-270.3606541530985
 20
-15.71880940436776
 30
0.0
 40
2.5
  1
3
 41
0.9
  7
CONVERTER_11
100
AcDbText
  0
TEXT
  5
21A
330
74
100
AcDbEntity
  8
1
 62
     7
100
AcDbText
 10
-202.0273208197654
 20
-15.71880940436776
 30
0.0
 40
2.5
  1
4
 41
0.9
  7
CONVERTER_11
100
AcDbText
  0
TEXT
  5
21B
330
74
100
AcDbEntity
  8
1
 62
     7
100
AcDbText
 10
-133.693987486432
 20
-15.71880940436776
 30
0.0
 40
2.5
  1
5
 41
0.9
  7
CONVERTER_11
100
AcDbText
  0
TEXT
  5
21C
330
74
100
AcDbEntity
  8
1
 62
     7
100
AcDbText
 10
-65.36065415309878
 20
-15.71880940436776
 30
0.0
 40
2.5
  1
6
 41
0.9
  7
CONVERTER_11
100
AcDbText
  0
TEXT
  5
21D
330
74
100
AcDbEntity
  8
1
 62
     7
100
AcDbText
 10
-29.02732081976541
 20
-46.61880940436809
 30
0.0
 40
2.5
  1
A
 41
0.9
  7
CONVERTER_11
100
AcDbText
  0
TEXT
  5
21E
330
74
100
AcDbEntity
  8
1
 62
     7
100
AcDbText
 10
-29.02732081976541
 20
-104.018809404368
 30
0.0
 40
2.5
  1
B
 41
0.9
  7
CONVERTER_11
100
AcDbText
  0
TEXT
  5
21F
330
74
100
AcDbEntity
  8
1
 62
     7
100
AcDbText
 10
-29.02732081976541
 20
-161.4188094043678
 30
0.0
 40
2.5
  1
C
 41
0.9
  7
CONVERTER_11
100
AcDbText
  0
TEXT
  5
220
330
74
100
AcDbEntity
  8
1
 62
     7
100
AcDbText
 10
-29.02732081976541
 20
-218.8188094043679
 30
0.0
 40
2.5
  1
D
 41
0.9
  7
CONVERTER_11
100
AcDbText
  0
TEXT
  5
221
330
74
100
AcDbEntity
  8
1
 62
     7
100
AcDbText
 10
-338.693987486432
 20
-307.718809404368
 30
0.0
 40
2.5
  1
2
 41
0.9
  7
CONVERTER_11
100
AcDbText
  0
TEXT
  5
222
330
74
100
AcDbEntity
  8
1
 62
     7
100
AcDbText
 10
-407.0273208197651
 20
-307.718809404368
 30
0.0
 40
2.5
  1
1
 41
0.9
  7
CONVERTER_11
100
AcDbText
  0
TEXT
  5
223
330
74
100
AcDbEntity
  8
1
 62
     7
100
AcDbText
 10
-29.02732081976541
 20
-276.218809404368
 30
0.0
 40
2.5
  1
E
 41
0.9
  7
CONVERTER_11
100
AcDbText
  0
TEXT
  5
224
330
74
100
AcDbEntity
  8
1
 62
     7
100
AcDbText
 10
-270.3606541530985
 20
-307.718809404368
 30
0.0
 40
2.5
  1
3
 41
0.9
  7
CONVERTER_11
100
AcDbText
  0
TEXT
  5
225
330
74
100
AcDbEntity
  8
1
 62
     7
100
AcDbText
 10
-202.0273208197654
 20
-307.718809404368
 30
0.0
 40
2.5
  1
4
 41
0.9
  7
CONVERTER_11
100
AcDbText
  0
TEXT
  5
226
330
74
100
AcDbEntity
  8
1
 62
     7
100
AcDbText
 10
-133.6939874864322
 20
-307.718809404368
 30
0.0
 40
2.5
  1
5
 41
0.9
  7
CONVERTER_11
100
AcDbText
  0
TEXT
  5
227
330
74
100
AcDbEntity
  8
1
 62
     7
100
AcDbText
 10
-65.36065415309878
 20
-307.718809404368
 30
0.0
 40
2.5
  1
6
 41
0.9
  7
CONVERTER_11
100
AcDbText
  0
HATCH
  5
228
330
74
100
AcDbEntity
  8
1
  6
Continuous
 62
     2
100
AcDbHatch
 10
0.0
 20
0.0
 30
0.0
210
0.0
220
0.0
230
1.0
  2
CUSTOM0
 70
     0
 71
     1
 91
        1
 92
        1
 93
       12
 72
     1
 10
-141.9046246335542
 20
-293.0661189281778
 11
-143.0974173357207
 21
-293.0661189281778
 72
     1
 10
-143.0974173357207
 20
-293.0661189281778
 11
-143.0974173357207
 21
-291.9318468193342
 72
     1
 10
-143.0974173357207
 20
-291.9318468193342
 11
-144.1470749136281
 21
-291.9318468193342
 72
     1
 10
-144.1470749136281
 20
-291.9318468193342
 11
-144.1470749136281
 21
-293.0661189281778
 72
     1
 10
-144.1470749136281
 20
-293.0661189281778
 11
-145.3398676157947
 21
-293.0661189281778
 72
     1
 10
-145.3398676157947
 20
-293.0661189281778
 11
-145.3398676157947
 21
-290.0123094043668
 72
     1
 10
-145.3398676157947
 20
-290.0123094043668
 11
-144.1470749136281
 21
-290.0123094043668
 72
     1
 10
-144.1470749136281
 20
-290.0123094043668
 11
-144.1470749136281
 21
-291.0811427377014
 72
     1
 10
-144.1470749136281
 20
-291.0811427377014
 11
-143.0974173357207
 21
-291.0811427377014
 72
     1
 10
-143.0974173357207
 20
-291.0811427377014
 11
-143.0974173357207
 21
-290.0123094043668
 72
     1
 10
-143.0974173357207
 20
-290.0123094043668
 11
-141.9046246335542
 21
-290.0123094043668
 72
     1
 10
-141.9046246335542
 20
-290.0123094043668
 11
-141.9046246335542
 21
-293.0661189281778
 97
       12
330
151
330
152
330
13C
330
13B
330
13A
330
14E
330
139
330
14F
330
150
330
138
330
137
330
136
 75
     1
 76
     2
 52
45.0
 41
0.1
 77
     0
 78
     1
 53
45.0
 43
62.7811309658083
 44
-72.3161373035813
 45
-0.1414213562373095
 46
0.0
 79
     0
 98
        1
 10
0.0
 20
0.0
  0
HATCH
  5
229
330
74
100
AcDbEntity
  8
1
  6
Continuous
 62
     2
100
AcDbHatch
 10
0.0
 20
0.0
 30
0.0
210
0.0
220
0.0
230
1.0
  2
CUSTOM1
 70
     0
 71
     1
 91
        1
 92
        1
 93
       12
 72
     1
 10
-141.9046246335542
 20
-293.0661189281778
 11
-143.0974173357207
 21
-293.0661189281778
 72
     1
 10
-143.0974173357207
 20
-293.0661189281778
 11
-143.0974173357207
 21
-291.9318468193342
 72
     1
 10
-143.0974173357207
 20
-291.9318468193342
 11
-144.1470749136281
 21
-291.9318468193342
 72
     1
 10
-144.1470749136281
 20
-291.9318468193342
 11
-144.1470749136281
 21
-293.0661189281778
 72
     1
 10
-144.1470749136281
 20
-293.0661189281778
 11
-145.3398676157947
 21
-293.0661189281778
 72
     1
 10
-145.3398676157947
 20
-293.0661189281778
 11
-145.3398676157947
 21
-290.0123094043668
 72
     1
 10
-145.3398676157947
 20
-290.0123094043668
 11
-144.1470749136281
 21
-290.0123094043668
 72
     1
 10
-144.1470749136281
 20
-290.0123094043668
 11
-144.1470749136281
 21
-291.0811427377014
 72
     1
 10
-144.1470749136281
 20
-291.0811427377014
 11
-143.0974173357207
 21
-291.0811427377014
 72
     1
 10
-143.0974173357207
 20
-291.0811427377014
 11
-143.0974173357207
 21
-290.0123094043668
 72
     1
 10
-143.0974173357207
 20
-290.0123094043668
 11
-141.9046246335542
 21
-290.0123094043668
 72
     1
 10
-141.9046246335542
 20
-290.0123094043668
 11
-141.9046246335542
 21
-293.0661189281778
 97
       12
330
151
330
152
330
13C
330
13B
330
13A
330
14E
330
139
330
14F
330
150
330
138
330
137
330
136
 75
     1
 76
     2
 52
45.0
 41
0.1
 77
     0
 78
     1
 53
45.0
 43
62.7811309658083
 44
-72.3161373035813
 45
-0.1414213562373095
 46
0.0
 79
     0
 98
        1
 10
0.0
 20
0.0
  0
HATCH
  5
22A
330
74
100
AcDbEntity
  8
1
  6
Continuous
 62
     2
100
AcDbHatch
 10
0.0
 20
0.0
 30
0.0
210
0.0
220
0.0
230
1.0
  2
CUSTOM2
 70
     0
 71
     1
 91
        1
 92
        1
 93
       10
 72
     1
 10
-139.6623252843659
 20
-294.6802753907463
 11
-140.9028296946189
 21
-293.371499880541
 72
     1
 10
-140.9028296946189
 20
-293.371499880541
 11
-142.0956223967864
 21
-293.371499880541
 72
     1
 10
-142.0956223967864
 20
-293.371499880541
 11
-142.0956223967864
 21
-296.4253094043522
 72
     1
 10
-142.0956223967864
 20
-296.4253094043522
 11
-140.9028296946189
 21
-296.4253094043522
 72
     1
 10
-140.9028296946189
 20
-296.4253094043522
 11
-140.9028296946189
 21
-295.1165338941477
 72
     1
 10
-140.9028296946189
 20
-295.1165338941477
 11
-139.6623252843659
 21
-296.4253094043522
 72
     1
 10
-139.6623252843659
 20
-296.4253094043522
 11
-138.4695325821995
 21
-296.4253094043522
 72
     1
 10
-138.4695325821995
 20
-296.4253094043522
 11
-138.4695325821995
 21
-293.371499880541
 72
     1
 10
-138.4695325821995
 20
-293.371499880541
 11
-139.6623252843659
 21
-293.371499880541
 72
     1
 10
-139.6623252843659
 20
-293.371499880541
 11
-139.6623252843659
 21
-294.6802753907463
 97
       10
330
15F
330
12F
330
12E
330
131
330
15A
330
15B
330
130
330
15C
330
15D
330
15E
 75
     1
 76
     2
 52
45.0
 41
0.1
 77
     0
 78
     1
 53
45.0
 43
62.7811309658083
 44
-72.3161373035813
 45
-0.1414213562373095
 46
0.0
 79
     0
 98
        1
 10
0.0
 20
0.0
  0
HATCH
  5
22B
330
74
100
AcDbEntity
  8
1
  6
Continuous
 62
     2
100
AcDbHatch
 10
0.0
 20
0.0
 30
0.0
210
0.0
220
0.0
230
1.0
  2
CUSTOM3
 70
     0
 71
     1
 91
        1
 92
        1
 93
       10
 72
     1
 10
-139.6623252843659
 20
-294.6802753907463
 11
-140.9028296946189
 21
-293.371499880541
 72
     1
 10
-140.9028296946189
 20
-293.371499880541
 11
-142.0956223967864
 21
-293.371499880541
 72
     1
 10
-142.0956223967864
 20
-293.371499880541
 11
-142.0956223967864
 21
-296.4253094043522
 72
     1
 10
-142.0956223967864
 20
-296.4253094043522
 11
-140.9028296946189
 21
-296.4253094043522
 72
     1
 10
-140.9028296946189
 20
-296.4253094043522
 11
-140.9028296946189
 21
-295.1165338941477
 72
     1
 10
-140.9028296946189
 20
-295.1165338941477
 11
-139.6623252843659
 21
-296.4253094043522
 72
     1
 10
-139.6623252843659
 20
-296.4253094043522
 11
-138.4695325821995
 21
-296.4253094043522
 72
     1
 10
-138.4695325821995
 20
-296.4253094043522
 11
-138.4695325821995
 21
-293.371499880541
 72
     1
 10
-138.4695325821995
 20
-293.371499880541
 11
-139.6623252843659
 21
-293.371499880541
 72
     1
 10
-139.6623252843659
 20
-293.371499880541
 11
-139.6623252843659
 21
-294.6802753907463
 97
       10
330
15F
330
12F
330
12E
330
131
330
15A
330
15B
330
130
330
15C
330
15D
330
15E
 75
     1
 76
     2
 52
45.0
 41
0.1
 77
     0
 78
     1
 53
45.0
 43
62.7811309658083
 44
-72.3161373035813
 45
-0.1414213562373095
 46
0.0
 79
     0
 98
        1
 10
0.0
 20
0.0
  0
HATCH
  5
22C
330
74
100
AcDbEntity
  8
1
  6
Continuous
 62
     2
100
AcDbHatch
 10
0.0
 20
0.0
 30
0.0
210
0.0
220
0.0
230
1.0
  2
CUSTOM4
 70
     0
 71
     1
 91
        1
 92
        1
 93
       10
 72
     1
 10
-134.4138864639462
 20
-291.3210849145719
 11
-135.6543908742003
 21
-290.0123094043668
 72
     1
 10
-135.6543908742003
 20
-290.0123094043668
 11
-136.8471835763667
 21
-290.0123094043668
 72
     1
 10
-136.8471835763667
 20
-290.0123094043668
 11
-136.8471835763667
 21
-293.0661189281778
 72
     1
 10
-136.8471835763667
 20
-293.0661189281778
 11
-135.6543908742003
 21
-293.0661189281778
 72
     1
 10
-135.6543908742003
 20
-293.0661189281778
 11
-135.6543908742003
 21
-291.7573434179732
 72
     1
 10
-135.6543908742003
 20
-291.7573434179732
 11
-134.4138864639462
 21
-293.0661189281778
 72
     1
 10
-134.4138864639462
 20
-293.0661189281778
 11
-133.2210937617796
 21
-293.0661189281778
 72
     1
 10
-133.2210937617796
 20
-293.0661189281778
 11
-133.2210937617796
 21
-290.0123094043668
 72
     1
 10
-133.2210937617796
 20
-290.0123094043668
 11
-134.4138864639462
 21
-290.0123094043668
 72
     1
 10
-134.4138864639462
 20
-290.0123094043668
 11
-134.4138864639462
 21
-291.3210849145719
 97
       10
330
164
330
12C
330
12B
330
165
330
12A
330
160
330
161
330
162
330
163
330
12D
 75
     1
 76
     2
 52
45.0
 41
0.1
 77
     0
 78
     1
 53
45.0
 43
62.7811309658083
 44
-72.3161373035813
 45
-0.1414213562373095
 46
0.0
 79
     0
 98
        1
 10
0.0
 20
0.0
  0
HATCH
  5
22D
330
74
100
AcDbEntity
  8
1
  6
Continuous
 62
     2
100
AcDbHatch
 10
0.0
 20
0.0
 30
0.0
210
0.0
220
0.0
230
1.0
  2
CUSTOM5
 70
     0
 71
     1
 91
        1
 92
        1
 93
       10
 72
     1
 10
-134.4138864639462
 20
-291.3210849145719
 11
-135.6543908742003
 21
-290.0123094043668
 72
     1
 10
-135.6543908742003
 20
-290.0123094043668
 11
-136.8471835763667
 21
-290.0123094043668
 72
     1
 10
-136.8471835763667
 20
-290.0123094043668
 11
-136.8471835763667
 21
-293.0661189281778
 72
     1
 10
-136.8471835763667
 20
-293.0661189281778
 11
-135.6543908742003
 21
-293.0661189281778
 72
     1
 10
-135.6543908742003
 20
-293.0661189281778
 11
-135.6543908742003
 21
-291.7573434179732
 72
     1
 10
-135.6543908742003
 20
-291.7573434179732
 11
-134.4138864639462
 21
-293.0661189281778
 72
     1
 10
-134.4138864639462
 20
-293.0661189281778
 11
-133.2210937617796
 21
-293.0661189281778
 72
     1
 10
-133.2210937617796
 20
-293.0661189281778
 11
-133.2210937617796
 21
-290.0123094043668
 72
     1
 10
-133.2210937617796
 20
-290.0123094043668
 11
-134.4138864639462
 21
-290.0123094043668
 72
     1
 10
-134.4138864639462
 20
-290.0123094043668
 11
-134.4138864639462
 21
-291.3210849145719
 97
       10
330
164
330
12C
330
12B
330
165
330
12A
330
160
330
161
330
162
330
163
330
12D
 75
     1
 76
     2
 52
45.0
 41
0.1
 77
     0
 78
     1
 53
45.0
 43
62.7811309658083
 44
-72.3161373035813
 45
-0.1414213562373095
 46
0.0
 79
     0
 98
        1
 10
0.0
 20
0.0
  0
HATCH
  5
22E
330
74
100
AcDbEntity
  8
1
  6
Continuous
 62
     2
100
AcDbHatch
 10
0.0
 20
0.0
 30
0.0
210
0.0
220
0.0
230
1.0
  2
CUSTOM6
 70
     0
 71
     1
 91
        1
 92
        1
 93
        8
 72
     1
 10
-135.5114066808257
 20
-293.371499880541
 11
-138.3263974579394
 21
-293.371499880541
 72
     1
 10
-138.3263974579394
 20
-293.371499880541
 11
-138.3263974579394
 21
-294.1567651866648
 72
     1
 10
-138.3263974579394
 20
-294.1567651866648
 11
-137.5152984204647
 21
-294.1567651866648
 72
     1
 10
-137.5152984204647
 20
-294.1567651866648
 11
-137.5152984204647
 21
-296.4253094043522
 72
     1
 10
-137.5152984204647
 20
-296.4253094043522
 11
-136.3225057182983
 21
-296.4253094043522
 72
     1
 10
-136.3225057182983
 20
-296.4253094043522
 11
-136.3225057182983
 21
-294.1567651866648
 72
     1
 10
-136.3225057182983
 20
-294.1567651866648
 11
-135.5114066808257
 21
-294.1567651866648
 72
     1
 10
-135.5114066808257
 20
-294.1567651866648
 11
-135.5114066808257
 21
-293.371499880541
 97
        8
330
126
330
166
330
125
330
167
330
168
330
129
330
128
330
127
 75
     1
 76
     2
 52
45.0
 41
0.1
 77
     0
 78
     1
 53
45.0
 43
62.7811309658083
 44
-72.3161373035813
 45
-0.1414213562373095
 46
0.0
 79
     0
 98
        1
 10
0.0
 20
0.0
  0
HATCH
  5
22F
330
74
100
AcDbEntity
  8
1
  6
Continuous
 62
     2
100
AcDbHatch
 10
0.0
 20
0.0
 30
0.0
210
0.0
220
0.0
230
1.0
  2
CUSTOM7
 70
     0
 71
     1
 91
        1
 92
        1
 93
        8
 72
     1
 10
-135.5114066808257
 20
-293.371499880541
 11
-138.3263974579394
 21
-293.371499880541
 72
     1
 10
-138.3263974579394
 20
-293.371499880541
 11
-138.3263974579394
 21
-294.1567651866648
 72
     1
 10
-138.3263974579394
 20
-294.1567651866648
 11
-137.5152984204647
 21
-294.1567651866648
 72
     1
 10
-137.5152984204647
 20
-294.1567651866648
 11
-137.5152984204647
 21
-296.4253094043522
 72
     1
 10
-137.5152984204647
 20
-296.4253094043522
 11
-136.3225057182983
 21
-296.4253094043522
 72
     1
 10
-136.3225057182983
 20
-296.4253094043522
 11
-136.3225057182983
 21
-294.1567651866648
 72
     1
 10
-136.3225057182983
 20
-294.1567651866648
 11
-135.5114066808257
 21
-294.1567651866648
 72
     1
 10
-135.5114066808257
 20
-294.1567651866648
 11
-135.5114066808257
 21
-293.371499880541
 97
        8
330
126
330
166
330
125
330
167
330
168
330
129
330
128
330
127
 75
     1
 76
     2
 52
45.0
 41
0.1
 77
     0
 78
     1
 53
45.0
 43
62.7811309658083
 44
-72.3161373035813
 45
-0.1414213562373095
 46
0.0
 79
     0
 98
        1
 10
0.0
 20
0.0
  0
HATCH
  5
230
330
74
100
AcDbEntity
  8
1
  6
Continuous
 62
     2
100
AcDbHatch
 10
0.0
 20
0.0
 30
0.0
210
0.0
220
0.0
230
1.0
  2
CUSTOM8
 70
     0
 71
     1
 91
        2
 92
        1
 93
        8
 72
     1
 10
-133.3729792248787
 20
-296.4253094043522
 11
-133.5844592783545
 21
-295.8843488601344
 72
     1
 10
-133.5844592783545
 20
-295.8843488601344
 11
-134.7169008550284
 21
-295.8843488601344
 72
     1
 10
-134.7169008550284
 20
-295.8843488601344
 11
-134.9283809085042
 21
-296.4253094043522
 72
     1
 10
-134.9283809085042
 20
-296.4253094043522
 11
-136.1688853187571
 21
-296.4253094043522
 72
     1
 10
-136.1688853187571
 20
-296.4253094043522
 11
-134.7709322718179
 21
-293.371499880541
 72
     1
 10
-134.7709322718179
 20
-293.371499880541
 11
-133.5304278615651
 21
-293.371499880541
 72
     1
 10
-133.5304278615651
 20
-293.371499880541
 11
-132.1324748146248
 21
-296.4253094043522
 72
     1
 10
-132.1324748146248
 20
-296.4253094043522
 11
-133.3729792248787
 21
-296.4253094043522
 97
        8
330
16A
330
16B
330
122
330
16C
330
121
330
124
330
169
330
123
 92
       16
 93
        3
 72
     1
 10
-134.4508453038833
 20
-295.2037855948278
 11
-134.150680066691
 21
-294.4359706288411
 72
     1
 10
-134.150680066691
 20
-294.4359706288411
 11
-133.8505148295008
 21
-295.2037855948278
 72
     1
 10
-133.8505148295008
 20
-295.2037855948278
 11
-134.4508453038833
 21
-295.2037855948278
 97
        3
330
120
330
16E
330
16D
 75
     1
 76
     2
 52
45.0
 41
0.1
 77
     0
 78
     1
 53
45.0
 43
62.7811309658083
 44
-72.3161373035813
 45
-0.1414213562373095
 46
0.0
 79
     0
 98
        1
 10
0.0
 20
0.0
  0
HATCH
  5
231
330
74
100
AcDbEntity
  8
1
  6
Continuous
 62
     2
100
AcDbHatch
 10
0.0
 20
0.0
 30
0.0
210
0.0
220
0.0
230
1.0
  2
CUSTOM9
 70
     0
 71
     1
 91
        2
 92
        1
 93
        8
 72
     1
 10
-133.3729792248787
 20
-296.4253094043522
 11
-133.5844592783545
 21
-295.8843488601344
 72
     1
 10
-133.5844592783545
 20
-295.8843488601344
 11
-134.7169008550284
 21
-295.8843488601344
 72
     1
 10
-134.7169008550284
 20
-295.8843488601344
 11
-134.9283809085042
 21
-296.4253094043522
 72
     1
 10
-134.9283809085042
 20
-296.4253094043522
 11
-136.1688853187571
 21
-296.4253094043522
 72
     1
 10
-136.1688853187571
 20
-296.4253094043522
 11
-134.7709322718179
 21
-293.371499880541
 72
     1
 10
-134.7709322718179
 20
-293.371499880541
 11
-133.5304278615651
 21
-293.371499880541
 72
     1
 10
-133.5304278615651
 20
-293.371499880541
 11
-132.1324748146248
 21
-296.4253094043522
 72
     1
 10
-132.1324748146248
 20
-296.4253094043522
 11
-133.3729792248787
 21
-296.4253094043522
 97
        8
330
16A
330
16B
330
122
330
16C
330
121
330
124
330
169
330
123
 92
       16
 93
        3
 72
     1
 10
-134.4508453038833
 20
-295.2037855948278
 11
-134.150680066691
 21
-294.4359706288411
 72
     1
 10
-134.150680066691
 20
-294.4359706288411
 11
-133.8505148295008
 21
-295.2037855948278
 72
     1
 10
-133.8505148295008
 20
-295.2037855948278
 11
-134.4508453038833
 21
-295.2037855948278
 97
        3
330
120
330
16E
330
16D
 75
     1
 76
     2
 52
45.0
 41
0.1
 77
     0
 78
     1
 53
45.0
 43
62.7811309658083
 44
-72.3161373035813
 45
-0.1414213562373095
 46
0.0
 79
     0
 98
        1
 10
0.0
 20
0.0
  0
HATCH
  5
232
330
74
100
AcDbEntity
  8
1
  6
Continuous
 62
     2
100
AcDbHatch
 10
0.0
 20
0.0
 30
0.0
210
0.0
220
0.0
230
1.0
  2
CUSTOM10
 70
     0
 71
     1
 91
        1
 92
        1
 93
        4
 72
     1
 10
-131.7420308110928
 20
-293.0661189281778
 11
-132.9825352213457
 21
-293.0661189281778
 72
     1
 10
-132.9825352213457
 20
-293.0661189281778
 11
-132.9825352213457
 21
-290.0123094043668
 72
     1
 10
-132.9825352213457
 20
-290.0123094043668
 11
-131.7420308110928
 21
-290.0123094043668
 72
     1
 10
-131.7420308110928
 20
-290.0123094043668
 11
-131.7420308110928
 21
-293.0661189281778
 97
        4
330
11D
330
11F
330
16F
330
11E
 75
     1
 76
     2
 52
45.0
 41
0.1
 77
     0
 78
     1
 53
45.0
 43
62.7811309658083
 44
-72.3161373035813
 45
-0.1414213562373095
 46
0.0
 79
     0
 98
        1
 10
0.0
 20
0.0
  0
HATCH
  5
233
330
74
100
AcDbEntity
  8
1
  6
Continuous
 62
     2
100
AcDbHatch
 10
0.0
 20
0.0
 30
0.0
210
0.0
220
0.0
230
1.0
  2
CUSTOM11
 70
     0
 71
     1
 91
        1
 92
        1
 93
        4
 72
     1
 10
-131.7420308110928
 20
-293.0661189281778
 11
-132.9825352213457
 21
-293.0661189281778
 72
     1
 10
-132.9825352213457
 20
-293.0661189281778
 11
-132.9825352213457
 21
-290.0123094043668
 72
     1
 10
-132.9825352213457
 20
-290.0123094043668
 11
-131.7420308110928
 21
-290.0123094043668
 72
     1
 10
-131.7420308110928
 20
-290.0123094043668
 11
-131.7420308110928
 21
-293.0661189281778
 97
        4
330
11D
330
11F
330
16F
330
11E
 75
     1
 76
     2
 52
45.0
 41
0.1
 77
     0
 78
     1
 53
45.0
 43
62.7811309658083
 44
-72.3161373035813
 45
-0.1414213562373095
 46
0.0
 79
     0
 98
        1
 10
0.0
 20
0.0
  0
HATCH
  5
234
330
74
100
AcDbEntity
  8
1
  6
Continuous
 62
     2
100
AcDbHatch
 10
0.0
 20
0.0
 30
0.0
210
0.0
220
0.0
230
1.0
  2
CUSTOM12
 70
     0
 71
     1
 91
        1
 92
        1
 93
       12
 72
     1
 10
-127.519544645422
 20
-290.0123094043668
 11
-128.8220742761886
 21
-291.485259934403
 72
     1
 10
-128.8220742761886
 20
-291.485259934403
 11
-127.4241212292483
 21
-293.0661189281778
 72
     1
 10
-127.4241212292483
 20
-293.0661189281778
 11
-128.8268454469966
 21
-293.0661189281778
 72
     1
 10
-128.8268454469966
 20
-293.0661189281778
 11
-129.523436385062
 21
-292.2783871428842
 72
     1
 10
-129.523436385062
 20
-292.2783871428842
 11
-130.2200273231278
 21
-293.0661189281778
 72
     1
 10
-130.2200273231278
 20
-293.0661189281778
 11
-131.6227515408759
 21
-293.0661189281778
 72
     1
 10
-131.6227515408759
 20
-293.0661189281778
 11
-130.2247984939356
 21
-291.485259934403
 72
     1
 10
-130.2247984939356
 20
-291.485259934403
 11
-131.5273281247031
 21
-290.0123094043668
 72
     1
 10
-131.5273281247031
 20
-290.0123094043668
 11
-130.1246039069539
 21
-290.0123094043668
 72
     1
 10
-130.1246039069539
 20
-290.0123094043668
 11
-129.523436385062
 21
-290.6921327259223
 72
     1
 10
-129.523436385062
 20
-290.6921327259223
 11
-128.9222688631692
 21
-290.0123094043668
 72
     1
 10
-128.9222688631692
 20
-290.0123094043668
 11
-127.519544645422
 21
-290.0123094043668
 97
       12
330
118
330
117
330
116
330
173
330
174
330
170
330
171
330
11C
330
11B
330
11A
330
119
330
172
 75
     1
 76
     2
 52
45.0
 41
0.1
 77
     0
 78
     1
 53
45.0
 43
62.7811309658083
 44
-72.3161373035813
 45
-0.1414213562373095
 46
0.0
 79
     0
 98
        1
 10
0.0
 20
0.0
  0
HATCH
  5
235
330
74
100
AcDbEntity
  8
1
  6
Continuous
 62
     2
100
AcDbHatch
 10
0.0
 20
0.0
 30
0.0
210
0.0
220
0.0
230
1.0
  2
CUSTOM13
 70
     0
 71
     1
 91
        1
 92
        1
 93
       12
 72
     1
 10
-127.519544645422
 20
-290.0123094043668
 11
-128.8220742761886
 21
-291.485259934403
 72
     1
 10
-128.8220742761886
 20
-291.485259934403
 11
-127.4241212292483
 21
-293.0661189281778
 72
     1
 10
-127.4241212292483
 20
-293.0661189281778
 11
-128.8268454469966
 21
-293.0661189281778
 72
     1
 10
-128.8268454469966
 20
-293.0661189281778
 11
-129.523436385062
 21
-292.2783871428842
 72
     1
 10
-129.523436385062
 20
-292.2783871428842
 11
-130.2200273231278
 21
-293.0661189281778
 72
     1
 10
-130.2200273231278
 20
-293.0661189281778
 11
-131.6227515408759
 21
-293.0661189281778
 72
     1
 10
-131.6227515408759
 20
-293.0661189281778
 11
-130.2247984939356
 21
-291.485259934403
 72
     1
 10
-130.2247984939356
 20
-291.485259934403
 11
-131.5273281247031
 21
-290.0123094043668
 72
     1
 10
-131.5273281247031
 20
-290.0123094043668
 11
-130.1246039069539
 21
-290.0123094043668
 72
     1
 10
-130.1246039069539
 20
-290.0123094043668
 11
-129.523436385062
 21
-290.6921327259223
 72
     1
 10
-129.523436385062
 20
-290.6921327259223
 11
-128.9222688631692
 21
-290.0123094043668
 72
     1
 10
-128.9222688631692
 20
-290.0123094043668
 11
-127.519544645422
 21
-290.0123094043668
 97
       12
330
118
330
117
330
116
330
173
330
174
330
170
330
171
330
11C
330
11B
330
11A
330
119
330
172
 75
     1
 76
     2
 52
45.0
 41
0.1
 77
     0
 78
     1
 53
45.0
 43
62.7811309658083
 44
-72.3161373035813
 45
-0.1414213562373095
 46
0.0
 79
     0
 98
        1
 10
0.0
 20
0.0
  0
HATCH
  5
236
330
74
100
AcDbEntity
  8
1
  6
Continuous
 62
     2
100
AcDbHatch
 10
0.0
 20
0.0
 30
0.0
210
0.0
220
0.0
230
1.0
  2
CUSTOM14
 70
     0
 71
     1
 91
        2
 92
        1
 93
        6
 72
     1
 10
-146.537280059568
 20
-292.1230406870342
 11
-147.2960476473484
 21
-292.1230406870342
 72
     1
 10
-147.2960476473484
 20
-292.1230406870342
 11
-147.2960476473484
 21
-293.0661189281778
 72
     1
 10
-147.2960476473484
 20
-293.0661189281778
 11
-148.5365520576024
 21
-293.0661189281778
 72
     1
 10
-148.5365520576024
 20
-293.0661189281778
 11
-148.5365520576024
 21
-290.0123094043668
 72
     1
 10
-148.5365520576024
 20
-290.0123094043668
 11
-146.537280059568
 21
-290.0123094043668
 72
     2
 10
-146.537280059568
 20
-291.0676750457005
 40
1.055365641333651
 50
270.0
 51
450.0
 73
     0
 97
        6
330
140
330
13F
330
14C
330
14B
330
141
330
1D2
 92
       16
 93
        4
 72
     2
 10
-146.9787525858064
 20
-291.028279074478
 40
0.3528638246709761
 50
270.0
 51
450.0
 73
     1
 72
     1
 10
-146.9787525858064
 20
-290.6754152498068
 11
-147.2960476473484
 21
-290.6754152498068
 72
     1
 10
-147.2960476473484
 20
-290.6754152498068
 11
-147.2960476473484
 21
-291.381142899149
 72
     1
 10
-147.2960476473484
 20
-291.381142899149
 11
-146.9787525858064
 21
-291.381142899149
 97
        4
330
1E6
330
13D
330
14D
330
13E
 75
     1
 76
     2
 52
45.0
 41
0.1
 77
     0
 78
     1
 53
45.0
 43
62.7811309658083
 44
-72.3161373035813
 45
-0.1414213562373095
 46
0.0
 79
     0
 98
        1
 10
0.0
 20
0.0
  0
HATCH
  5
237
330
74
100
AcDbEntity
  8
1
  6
Continuous
 62
     2
100
AcDbHatch
 10
0.0
 20
0.0
 30
0.0
210
0.0
220
0.0
230
1.0
  2
CUSTOM15
 70
     0
 71
     1
 91
        2
 92
        1
 93
        6
 72
     1
 10
-146.537280059568
 20
-292.1230406870342
 11
-147.2960476473484
 21
-292.1230406870342
 72
     1
 10
-147.2960476473484
 20
-292.1230406870342
 11
-147.2960476473484
 21
-293.0661189281778
 72
     1
 10
-147.2960476473484
 20
-293.0661189281778
 11
-148.5365520576024
 21
-293.0661189281778
 72
     1
 10
-148.5365520576024
 20
-293.0661189281778
 11
-148.5365520576024
 21
-290.0123094043668
 72
     1
 10
-148.5365520576024
 20
-290.0123094043668
 11
-146.537280059568
 21
-290.0123094043668
 72
     2
 10
-146.537280059568
 20
-291.0676750457005
 40
1.055365641333651
 50
270.0
 51
450.0
 73
     0
 97
        6
330
140
330
13F
330
14C
330
14B
330
141
330
1D2
 92
       16
 93
        4
 72
     2
 10
-146.9787525858064
 20
-291.028279074478
 40
0.3528638246709761
 50
270.0
 51
450.0
 73
     1
 72
     1
 10
-146.9787525858064
 20
-290.6754152498068
 11
-147.2960476473484
 21
-290.6754152498068
 72
     1
 10
-147.2960476473484
 20
-290.6754152498068
 11
-147.2960476473484
 21
-291.381142899149
 72
     1
 10
-147.2960476473484
 20
-291.381142899149
 11
-146.9787525858064
 21
-291.381142899149
 97
        4
330
1E6
330
13D
330
14D
330
13E
 75
     1
 76
     2
 52
45.0
 41
0.1
 77
     0
 78
     1
 53
45.0
 43
62.7811309658083
 44
-72.3161373035813
 45
-0.1414213562373095
 46
0.0
 79
     0
 98
        1
 10
0.0
 20
0.0
  0
HATCH
  5
238
330
74
100
AcDbEntity
  8
1
  6
Continuous
 62
     2
100
AcDbHatch
 10
0.0
 20
0.0
 30
0.0
210
0.0
220
0.0
230
1.0
  2
CUSTOM16
 70
     0
 71
     1
 91
        2
 92
        1
 93
        4
 72
     2
 10
-143.9807373112089
 20
-295.4369796527498
 40
2.065479772208707
 50
62.45185182430749
 51
117.5481481756674
 73
     1
 72
     2
 10
-144.2616772030423
 20
-294.898404642447
 40
1.458034083651629
 50
117.5481481756608
 51
242.451851824334
 73
     1
 72
     2
 10
-143.9807373112089
 20
-294.3598296321436
 40
2.065479772208536
 50
242.451851824337
 51
297.5481481756881
 73
     1
 72
     2
 10
-143.6997974193757
 20
-294.898404642447
 40
1.458034083651929
 50
297.5481481757076
 51
422.4518518242976
 73
     1
 97
        4
330
1DE
330
1DD
330
1DF
330
1DC
 92
       16
 93
        4
 72
     2
 10
-144.1804773475553
 20
-294.898404642447
 40
0.7717997786795351
 50
321.8795802028432
 51
398.1204197971701
 73
     1
 72
     2
 10
-143.9807373112089
 20
-294.7416734643265
 40
0.517908573013338
 50
38.1204197971677
 51
141.8795802028498
 73
     1
 72
     2
 10
-143.7809972748629
 20
-294.898404642447
 40
0.771799778679586
 50
141.8795802028247
 51
218.120419797162
 73
     1
 72
     2
 10
-143.9807373112089
 20
-295.0551358205669
 40
0.51790857301382
 50
218.1204197971898
 51
321.8795802027927
 73
     1
 97
        4
330
1FA
330
1F7
330
1F8
330
1F9
 75
     1
 76
     2
 52
45.0
 41
0.1
 77
     0
 78
     1
 53
45.0
 43
62.7811309658083
 44
-72.3161373035813
 45
-0.1414213562373095
 46
0.0
 79
     0
 98
        1
 10
0.0
 20
0.0
  0
HATCH
  5
239
330
74
100
AcDbEntity
  8
1
  6
Continuous
 62
     2
100
AcDbHatch
 10
0.0
 20
0.0
 30
0.0
210
0.0
220
0.0
230
1.0
  2
CUSTOM17
 70
     0
 71
     1
 91
        2
 92
        1
 93
        4
 72
     2
 10
-143.9807373112089
 20
-295.4369796527498
 40
2.065479772208707
 50
62.45185182430749
 51
117.5481481756674
 73
     1
 72
     2
 10
-144.2616772030423
 20
-294.898404642447
 40
1.458034083651629
 50
117.5481481756608
 51
242.451851824334
 73
     1
 72
     2
 10
-143.9807373112089
 20
-294.3598296321436
 40
2.065479772208536
 50
242.451851824337
 51
297.5481481756881
 73
     1
 72
     2
 10
-143.6997974193757
 20
-294.898404642447
 40
1.458034083651929
 50
297.5481481757076
 51
422.4518518242976
 73
     1
 97
        4
330
1DE
330
1DD
330
1DF
330
1DC
 92
       16
 93
        4
 72
     2
 10
-144.1804773475553
 20
-294.898404642447
 40
0.7717997786795351
 50
321.8795802028432
 51
398.1204197971701
 73
     1
 72
     2
 10
-143.9807373112089
 20
-294.7416734643265
 40
0.517908573013338
 50
38.1204197971677
 51
141.8795802028498
 73
     1
 72
     2
 10
-143.7809972748629
 20
-294.898404642447
 40
0.771799778679586
 50
141.8795802028247
 51
218.120419797162
 73
     1
 72
     2
 10
-143.9807373112089
 20
-295.0551358205669
 40
0.51790857301382
 50
218.1204197971898
 51
321.8795802027927
 73
     1
 97
        4
330
1FA
330
1F7
330
1F8
330
1F9
 75
     1
 76
     2
 52
45.0
 41
0.1
 77
     0
 78
     1
 53
45.0
 43
62.7811309658083
 44
-72.3161373035813
 45
-0.1414213562373095
 46
0.0
 79
     0
 98
        1
 10
0.0
 20
0.0
  0
HATCH
  5
23A
330
74
100
AcDbEntity
  8
1
  6
Continuous
 62
     2
100
AcDbHatch
 10
0.0
 20
0.0
 30
0.0
210
0.0
220
0.0
230
1.0
  2
CUSTOM18
 70
     0
 71
     1
 91
        2
 92
        1
 93
       12
 72
     1
 10
-137.0857421167997
 20
-290.7103230098097
 11
-138.4216699432273
 21
-290.7103230098097
 72
     1
 10
-138.4216699432273
 20
-290.7103230098097
 11
-138.4216699432273
 21
-291.1902073635514
 72
     1
 10
-138.4216699432273
 20
-291.1902073635514
 11
-137.0857421167997
 21
-291.1902073635514
 72
     1
 10
-137.0857421167997
 20
-291.1902073635514
 11
-137.0857421167997
 21
-291.8882209689938
 72
     1
 10
-137.0857421167997
 20
-291.8882209689938
 11
-138.4216699432273
 21
-291.8882209689938
 72
     1
 10
-138.4216699432273
 20
-291.8882209689938
 11
-138.4216699432273
 21
-292.3681053227355
 72
     1
 10
-138.4216699432273
 20
-292.3681053227355
 11
-137.0857421167997
 21
-292.3681053227355
 72
     1
 10
-137.0857421167997
 20
-292.3681053227355
 11
-137.0857421167997
 21
-293.0661189281778
 72
     1
 10
-137.0857421167997
 20
-293.0661189281778
 11
-140.2360618405806
 21
-293.0661189281778
 72
     2
 10
-140.2360618405806
 20
-291.5392141662726
 40
1.526904761905769
 50
90.0
 51
270.0
 73
     0
 72
     1
 10
-140.2360618405806
 20
-290.0123094043668
 11
-137.0857421167997
 21
-290.0123094043668
 72
     1
 10
-137.0857421167997
 20
-290.0123094043668
 11
-137.0857421167997
 21
-290.7103230098097
 97
       12
330
154
330
1E7
330
155
330
156
330
157
330
158
330
135
330
134
330
133
330
132
330
159
330
153
 92
       16
 93
        4
 72
     2
 10
-140.0197898304154
 20
-291.3824829881521
 40
0.5179085730133669
 50
38.12041979714121
 51
141.8795802028666
 73
     1
 72
     2
 10
-139.8200497940692
 20
-291.5392141662726
 40
0.7717997786796023
 50
141.8795802028471
 51
218.1204197971562
 73
     1
 72
     2
 10
-140.0197898304154
 20
-291.6959453443931
 40
0.5179085730134564
 50
218.1204197971334
 51
321.8795802028588
 73
     1
 72
     2
 10
-140.2195298667616
 20
-291.5392141662726
 40
0.7717997786795702
 50
321.8795802028399
 51
398.1204197971568
 73
     1
 97
        4
330
1E1
330
1E0
330
1DB
330
1DA
 75
     1
 76
     2
 52
45.0
 41
0.1
 77
     0
 78
     1
 53
45.0
 43
62.7811309658083
 44
-72.3161373035813
 45
-0.1414213562373095
 46
0.0
 79
     0
 98
        1
 10
0.0
 20
0.0
  0
HATCH
  5
23B
330
74
100
AcDbEntity
  8
1
  6
Continuous
 62
     2
100
AcDbHatch
 10
0.0
 20
0.0
 30
0.0
210
0.0
220
0.0
230
1.0
  2
CUSTOM19
 70
     0
 71
     1
 91
        2
 92
        1
 93
       12
 72
     1
 10
-137.0857421167997
 20
-290.7103230098097
 11
-138.4216699432273
 21
-290.7103230098097
 72
     1
 10
-138.4216699432273
 20
-290.7103230098097
 11
-138.4216699432273
 21
-291.1902073635514
 72
     1
 10
-138.4216699432273
 20
-291.1902073635514
 11
-137.0857421167997
 21
-291.1902073635514
 72
     1
 10
-137.0857421167997
 20
-291.1902073635514
 11
-137.0857421167997
 21
-291.8882209689938
 72
     1
 10
-137.0857421167997
 20
-291.8882209689938
 11
-138.4216699432273
 21
-291.8882209689938
 72
     1
 10
-138.4216699432273
 20
-291.8882209689938
 11
-138.4216699432273
 21
-292.3681053227355
 72
     1
 10
-138.4216699432273
 20
-292.3681053227355
 11
-137.0857421167997
 21
-292.3681053227355
 72
     1
 10
-137.0857421167997
 20
-292.3681053227355
 11
-137.0857421167997
 21
-293.0661189281778
 72
     1
 10
-137.0857421167997
 20
-293.0661189281778
 11
-140.2360618405806
 21
-293.0661189281778
 72
     2
 10
-140.2360618405806
 20
-291.5392141662726
 40
1.526904761905769
 50
90.0
 51
270.0
 73
     0
 72
     1
 10
-140.2360618405806
 20
-290.0123094043668
 11
-137.0857421167997
 21
-290.0123094043668
 72
     1
 10
-137.0857421167997
 20
-290.0123094043668
 11
-137.0857421167997
 21
-290.7103230098097
 97
       12
330
154
330
1E7
330
155
330
156
330
157
330
158
330
135
330
134
330
133
330
132
330
159
330
153
 92
       16
 93
        4
 72
     2
 10
-140.0197898304154
 20
-291.3824829881521
 40
0.5179085730133669
 50
38.12041979714121
 51
141.8795802028666
 73
     1
 72
     2
 10
-139.8200497940692
 20
-291.5392141662726
 40
0.7717997786796023
 50
141.8795802028471
 51
218.1204197971562
 73
     1
 72
     2
 10
-140.0197898304154
 20
-291.6959453443931
 40
0.5179085730134564
 50
218.1204197971334
 51
321.8795802028588
 73
     1
 72
     2
 10
-140.2195298667616
 20
-291.5392141662726
 40
0.7717997786795702
 50
321.8795802028399
 51
398.1204197971568
 73
     1
 97
        4
330
1E1
330
1E0
330
1DB
330
1DA
 75
     1
 76
     2
 52
45.0
 41
0.1
 77
     0
 78
     1
 53
45.0
 43
62.7811309658083
 44
-72.3161373035813
 45
-0.1414213562373095
 46
0.0
 79
     0
 98
        1
 10
0.0
 20
0.0
  0
HATCH
  5
23C
330
74
100
AcDbEntity
  8
1
  6
Continuous
 62
     2
100
AcDbHatch
 10
0.0
 20
0.0
 30
0.0
210
0.0
220
0.0
230
1.0
  2
CUSTOM20
 70
     0
 71
     1
 91
        4
 92
        1
 93
        8
 72
     1
 10
-149.0136691384692
 20
-290.4365540197688
 11
-149.0136691384692
 21
-296.001064788969
 72
     2
 10
-149.4379137538531
 20
-296.001064788969
 40
0.424244615383202
 50
0.0
 51
90.0
 73
     0
 72
     1
 10
-149.4379137538531
 20
-296.4253094043522
 11
-154.91122584457
 21
-296.4253094043522
 72
     2
 10
-154.91122584457
 20
-296.001064788969
 40
0.4242446153828041
 50
90.0
 51
180.0
 73
     0
 72
     1
 10
-155.3354704599528
 20
-296.001064788969
 11
-155.3354704599528
 21
-290.4365540197688
 72
     2
 10
-154.91122584457
 20
-290.4365540197688
 40
0.4242446153839978
 50
180.0
 51
270.0
 73
     0
 72
     1
 10
-154.91122584457
 20
-290.0123094043848
 11
-149.4379137538531
 21
-290.0123094043848
 72
     2
 10
-149.4379137538531
 20
-290.4365540197688
 40
0.4242446153839126
 50
270.0
 51
360.0
 73
     0
 97
        8
330
148
330
1D7
330
149
330
1E2
330
146
330
1D9
330
147
330
1D8
 92
       16
 93
       12
 72
     2
 10
-154.3173311678235
 20
-295.3970369257186
 40
0.3157169230755983
 50
180.0
 51
270.0
 73
     1
 72
     1
 10
-154.3173311678235
 20
-295.7127538487953
 11
-152.8414979068139
 21
-295.7127538487953
 72
     2
 10
-152.8414979068139
 20
-295.3970369257186
 40
0.3157169230766499
 50
270.0
 51
360.0
 73
     1
 72
     1
 10
-152.5257809837373
 20
-295.3970369257186
 11
-152.5257809837373
 21
-293.866265994187
 72
     2
 10
-152.8414979068139
 20
-293.866265994187
 40
0.3157169230766215
 50
0.0
 51
64.8055893514504
 73
     1
 72
     2
 10
-152.3189134592389
 20
-292.7554362481243
 40
0.9118975235576555
 50
115.194410648512
 51
244.8055893514789
 73
     0
 72
     2
 10
-152.8414979068139
 20
-291.6446065020621
 40
0.3157169230760658
 50
295.1944106485672
 51
360.0
 73
     1
 72
     1
 10
-152.5257809837373
 20
-291.6446065020621
 11
-152.5257809837373
 21
-291.0405818830014
 72
     2
 10
-152.8414979068139
 20
-291.0405818830014
 40
0.3157169230766215
 50
0.0
 51
90.0
 73
     1
 72
     1
 10
-152.8414979068139
 20
-290.7248649599254
 11
-154.3173311678235
 21
-290.7248649599254
 72
     2
 10
-154.3173311678235
 20
-291.0405818830014
 40
0.3157169230759678
 50
90.0
 51
180.0
 73
     1
 72
     1
 10
-154.6330480908991
 20
-291.0405818830014
 11
-154.6330480908991
 21
-295.3970369257186
 97
       12
330
1D3
330
14A
330
1D6
330
145
330
1E3
330
1E4
330
1D5
330
144
330
1D4
330
143
330
1E5
330
142
 92
       16
 93
        8
 72
     2
 10
-151.7417824812917
 20
-293.8645778480926
 40
0.3157169230766477
 50
115.3740086783477
 51
180.0
 73
     1
 72
     1
 10
-152.0574994043685
 20
-293.8645778480926
 11
-152.0574994043685
 21
-294.4464292547876
 72
     2
 10
-151.7417824812917
 20
-294.4464292547876
 40
0.3157169230768204
 50
180.0
 51
269.8110329574336
 73
     1
 72
     2
 10
-151.7361663459817
 20
-292.7435943072187
 40
2.018561131933266
 50
269.8110329575834
 51
450.1889670424166
 73
     1
 72
     2
 10
-151.7417824812917
 20
-291.0407593596497
 40
0.3157169230761851
 50
90.1889670425665
 51
180.0
 73
     1
 72
     1
 10
-152.0574994043685
 20
-291.0407593596497
 11
-152.0574994043685
 21
-291.6462946481565
 72
     2
 10
-151.7417824812917
 20
-291.6462946481565
 40
0.3157169230768204
 50
180.0
 51
244.6259913216303
 73
     1
 72
     2
 10
-152.2678251793796
 20
-292.7554362481243
 40
0.9118481501442791
 50
295.3740086781895
 51
424.6259913218182
 73
     0
 97
        8
330
1EF
330
10F
330
1EC
330
1ED
330
1CB
330
10E
330
1EE
330
1CA
 92
       16
 93
        1
 72
     2
 10
-152.2916401940524
 20
-292.7554362481243
 40
0.4709789327785074
 50
0.0
 51
360.0
 73
     1
 97
        1
330
1FD
 75
     1
 76
     2
 52
45.0
 41
0.1
 77
     0
 78
     1
 53
45.0
 43
62.7811309658083
 44
-72.3161373035813
 45
-0.1414213562373095
 46
0.0
 79
     0
 98
        1
 10
0.0
 20
0.0
  0
HATCH
  5
23D
330
74
100
AcDbEntity
  8
1
  6
Continuous
 62
     2
100
AcDbHatch
 10
0.0
 20
0.0
 30
0.0
210
0.0
220
0.0
230
1.0
  2
CUSTOM21
 70
     0
 71
     1
 91
        4
 92
        1
 93
        8
 72
     1
 10
-149.0136691384692
 20
-290.4365540197688
 11
-149.0136691384692
 21
-296.001064788969
 72
     2
 10
-149.4379137538531
 20
-296.001064788969
 40
0.424244615383202
 50
0.0
 51
90.0
 73
     0
 72
     1
 10
-149.4379137538531
 20
-296.4253094043522
 11
-154.91122584457
 21
-296.4253094043522
 72
     2
 10
-154.91122584457
 20
-296.001064788969
 40
0.4242446153828041
 50
90.0
 51
180.0
 73
     0
 72
     1
 10
-155.3354704599528
 20
-296.001064788969
 11
-155.3354704599528
 21
-290.4365540197688
 72
     2
 10
-154.91122584457
 20
-290.4365540197688
 40
0.4242446153839978
 50
180.0
 51
270.0
 73
     0
 72
     1
 10
-154.91122584457
 20
-290.0123094043848
 11
-149.4379137538531
 21
-290.0123094043848
 72
     2
 10
-149.4379137538531
 20
-290.4365540197688
 40
0.4242446153839126
 50
270.0
 51
360.0
 73
     0
 97
        8
330
148
330
1D7
330
149
330
1E2
330
146
330
1D9
330
147
330
1D8
 92
       16
 93
       12
 72
     2
 10
-154.3173311678235
 20
-295.3970369257186
 40
0.3157169230755983
 50
180.0
 51
270.0
 73
     1
 72
     1
 10
-154.3173311678235
 20
-295.7127538487953
 11
-152.8414979068139
 21
-295.7127538487953
 72
     2
 10
-152.8414979068139
 20
-295.3970369257186
 40
0.3157169230766499
 50
270.0
 51
360.0
 73
     1
 72
     1
 10
-152.5257809837373
 20
-295.3970369257186
 11
-152.5257809837373
 21
-293.866265994187
 72
     2
 10
-152.8414979068139
 20
-293.866265994187
 40
0.3157169230766215
 50
0.0
 51
64.8055893514504
 73
     1
 72
     2
 10
-152.3189134592389
 20
-292.7554362481243
 40
0.9118975235576555
 50
115.194410648512
 51
244.8055893514789
 73
     0
 72
     2
 10
-152.8414979068139
 20
-291.6446065020621
 40
0.3157169230760658
 50
295.1944106485672
 51
360.0
 73
     1
 72
     1
 10
-152.5257809837373
 20
-291.6446065020621
 11
-152.5257809837373
 21
-291.0405818830014
 72
     2
 10
-152.8414979068139
 20
-291.0405818830014
 40
0.3157169230766215
 50
0.0
 51
90.0
 73
     1
 72
     1
 10
-152.8414979068139
 20
-290.7248649599254
 11
-154.3173311678235
 21
-290.7248649599254
 72
     2
 10
-154.3173311678235
 20
-291.0405818830014
 40
0.3157169230759678
 50
90.0
 51
180.0
 73
     1
 72
     1
 10
-154.6330480908991
 20
-291.0405818830014
 11
-154.6330480908991
 21
-295.3970369257186
 97
       12
330
1D3
330
14A
330
1D6
330
145
330
1E3
330
1E4
330
1D5
330
144
330
1D4
330
143
330
1E5
330
142
 92
       16
 93
        8
 72
     2
 10
-151.7417824812917
 20
-293.8645778480926
 40
0.3157169230766477
 50
115.3740086783477
 51
180.0
 73
     1
 72
     1
 10
-152.0574994043685
 20
-293.8645778480926
 11
-152.0574994043685
 21
-294.4464292547876
 72
     2
 10
-151.7417824812917
 20
-294.4464292547876
 40
0.3157169230768204
 50
180.0
 51
269.8110329574336
 73
     1
 72
     2
 10
-151.7361663459817
 20
-292.7435943072187
 40
2.018561131933266
 50
269.8110329575834
 51
450.1889670424166
 73
     1
 72
     2
 10
-151.7417824812917
 20
-291.0407593596497
 40
0.3157169230761851
 50
90.1889670425665
 51
180.0
 73
     1
 72
     1
 10
-152.0574994043685
 20
-291.0407593596497
 11
-152.0574994043685
 21
-291.6462946481565
 72
     2
 10
-151.7417824812917
 20
-291.6462946481565
 40
0.3157169230768204
 50
180.0
 51
244.6259913216303
 73
     1
 72
     2
 10
-152.2678251793796
 20
-292.7554362481243
 40
0.9118481501442791
 50
295.3740086781895
 51
424.6259913218182
 73
     0
 97
        8
330
1EF
330
10F
330
1EC
330
1ED
330
1CB
330
10E
330
1EE
330
1CA
 92
       16
 93
        1
 72
     2
 10
-152.2916401940524
 20
-292.7554362481243
 40
0.4709789327785074
 50
0.0
 51
360.0
 73
     1
 97
        1
330
1FD
 75
     1
 76
     2
 52
45.0
 41
0.1
 77
     0
 78
     1
 53
45.0
 43
62.7811309658083
 44
-72.3161373035813
 45
-0.1414213562373095
 46
0.0
 79
     0
 98
        1
 10
0.0
 20
0.0
  0
HATCH
  5
23E
330
74
100
AcDbEntity
  8
1
  6
Continuous
 62
     2
100
AcDbHatch
 10
0.0
 20
0.0
 30
0.0
210
0.0
220
0.0
230
1.0
  2
CUSTOM22
 70
     0
 71
     1
 91
        1
 92
        1
 93
       18
 72
     1
 10
-127.4241212292483
 20
-294.1567651866648
 11
-128.2352202667217
 21
-294.1567651866648
 72
     1
 10
-128.2352202667217
 20
-294.1567651866648
 11
-128.2352202667217
 21
-296.4253094043522
 72
     1
 10
-128.2352202667217
 20
-296.4253094043522
 11
-129.4280129688894
 21
-296.4253094043522
 72
     1
 10
-129.4280129688894
 20
-296.4253094043522
 11
-129.4280129688894
 21
-294.1567651866648
 72
     1
 10
-129.4280129688894
 20
-294.1567651866648
 11
-130.5316522684575
 21
-294.1567651866648
 72
     2
 10
-130.5316522684575
 20
-295.1112881934909
 40
0.9545230068260935
 50
90.0
 51
109.3371432194297
 73
     1
 72
     2
 10
-130.6783222665612
 20
-294.6933332131079
 40
0.5115800601944143
 50
109.3371432194853
 51
151.4785267424141
 73
     1
 72
     2
 10
-130.3009650084797
 20
-294.898404642447
 40
0.9410597353350872
 50
151.4785267423551
 51
208.5214732576662
 73
     1
 72
     2
 10
-130.6783222665612
 20
-295.1034760717855
 40
0.5115800601960215
 50
208.5214732576866
 51
246.6277221118348
 73
     1
 72
     2
 10
-130.521882233858
 20
-294.7414840530755
 40
0.9059297849851051
 50
246.6277221118076
 51
288.4480761180811
 73
     1
 72
     2
 10
-130.94004996752
 20
-293.4879382770388
 40
2.227384008972665
 50
288.4480761181342
 51
301.9309089499403
 73
     1
 72
     1
 10
-129.7619949254961
 20
-295.3782889961885
 11
-129.7619949254961
 21
-296.2508060029919
 72
     2
 10
-131.0979228426128
 20
-291.5857236971905
 40
4.852596863498889
 50
74.0200087416617
 51
84.84185523036268
 73
     0
 72
     2
 10
-130.8090667478769
 20
-294.7856142804121
 40
1.639695123940531
 50
84.8418552303238
 51
164.9381082228996
 73
     0
 72
     2
 10
-131.2281945913386
 20
-294.898404642447
 40
1.205656168393002
 50
164.938108222908
 51
195.0618917770972
 73
     0
 72
     2
 10
-130.8090667478769
 20
-295.0111950044818
 40
1.639695123940101
 50
195.0618917771004
 51
270.0
 73
     0
 72
     1
 10
-130.8090667478769
 20
-293.3714998805417
 11
-127.4241212292483
 21
-293.371499880541
 72
     1
 10
-127.4241212292483
 20
-293.371499880541
 11
-127.4241212292483
 21
-294.1567651866648
 97
       18
330
111
330
1E8
330
1E9
330
1D1
330
1D0
330
175
330
1CF
330
1CE
330
1EA
330
1CD
330
1EB
330
1CC
330
176
330
110
330
115
330
114
330
113
330
112
 75
     1
 76
     2
 52
45.0
 41
0.1
 77
     0
 78
     1
 53
45.0
 43
62.7811309658083
 44
-72.3161373035813
 45
-0.1414213562373095
 46
0.0
 79
     0
 98
        1
 10
0.0
 20
0.0
  0
HATCH
  5
23F
330
74
100
AcDbEntity
  8
1
  6
Continuous
 62
     2
100
AcDbHatch
 10
0.0
 20
0.0
 30
0.0
210
0.0
220
0.0
230
1.0
  2
CUSTOM23
 70
     0
 71
     1
 91
        1
 92
        1
 93
       18
 72
     1
 10
-127.4241212292483
 20
-294.1567651866648
 11
-128.2352202667217
 21
-294.1567651866648
 72
     1
 10
-128.2352202667217
 20
-294.1567651866648
 11
-128.2352202667217
 21
-296.4253094043522
 72
     1
 10
-128.2352202667217
 20
-296.4253094043522
 11
-129.4280129688894
 21
-296.4253094043522
 72
     1
 10
-129.4280129688894
 20
-296.4253094043522
 11
-129.4280129688894
 21
-294.1567651866648
 72
     1
 10
-129.4280129688894
 20
-294.1567651866648
 11
-130.5316522684575
 21
-294.1567651866648
 72
     2
 10
-130.5316522684575
 20
-295.1112881934909
 40
0.9545230068260935
 50
90.0
 51
109.3371432194297
 73
     1
 72
     2
 10
-130.6783222665612
 20
-294.6933332131079
 40
0.5115800601944143
 50
109.3371432194853
 51
151.4785267424141
 73
     1
 72
     2
 10
-130.3009650084797
 20
-294.898404642447
 40
0.9410597353350872
 50
151.4785267423551
 51
208.5214732576662
 73
     1
 72
     2
 10
-130.6783222665612
 20
-295.1034760717855
 40
0.5115800601960215
 50
208.5214732576866
 51
246.6277221118348
 73
     1
 72
     2
 10
-130.521882233858
 20
-294.7414840530755
 40
0.9059297849851051
 50
246.6277221118076
 51
288.4480761180811
 73
     1
 72
     2
 10
-130.94004996752
 20
-293.4879382770388
 40
2.227384008972665
 50
288.4480761181342
 51
301.9309089499403
 73
     1
 72
     1
 10
-129.7619949254961
 20
-295.3782889961885
 11
-129.7619949254961
 21
-296.2508060029919
 72
     2
 10
-131.0979228426128
 20
-291.5857236971905
 40
4.852596863498889
 50
74.0200087416617
 51
84.84185523036268
 73
     0
 72
     2
 10
-130.8090667478769
 20
-294.7856142804121
 40
1.639695123940531
 50
84.8418552303238
 51
164.9381082228996
 73
     0
 72
     2
 10
-131.2281945913386
 20
-294.898404642447
 40
1.205656168393002
 50
164.938108222908
 51
195.0618917770972
 73
     0
 72
     2
 10
-130.8090667478769
 20
-295.0111950044818
 40
1.639695123940101
 50
195.0618917771004
 51
270.0
 73
     0
 72
     1
 10
-130.8090667478769
 20
-293.3714998805417
 11
-127.4241212292483
 21
-293.371499880541
 72
     1
 10
-127.4241212292483
 20
-293.371499880541
 11
-127.4241212292483
 21
-294.1567651866648
 97
       18
330
111
330
1E8
330
1E9
330
1D1
330
1D0
330
175
330
1CF
330
1CE
330
1EA
330
1CD
330
1EB
330
1CC
330
176
330
110
330
115
330
114
330
113
330
112
 75
     1
 76
     2
 52
45.0
 41
0.1
 77
     0
 78
     1
 53
45.0
 43
62.7811309658083
 44
-72.3161373035813
 45
-0.1414213562373095
 46
0.0
 79
     0
 98
        1
 10
0.0
 20
0.0
  0
HATCH
  5
240
330
74
100
AcDbEntity
  8
1
  6
Continuous
 62
     2
100
AcDbHatch
 10
0.0
 20
0.0
 30
0.0
210
0.0
220
0.0
230
1.0
  2
CUSTOM24
 70
     0
 71
     1
 91
        1
 92
        1
 93
       14
 72
     2
 10
-146.9117682271298
 20
-295.0111950044818
 40
1.639695123940499
 50
84.84185523036533
 51
164.9381082228903
 73
     1
 72
     2
 10
-147.3308960705926
 20
-294.898404642447
 40
1.205656168390971
 50
164.9381082228768
 51
195.0618917770945
 73
     1
 72
     2
 10
-146.9117682271298
 20
-294.7856142804121
 40
1.63969512393941
 50
195.0618917770925
 51
275.1581447696363
 73
     1
 72
     2
 10
-147.2006243218657
 20
-291.5857236971905
 40
4.852596863498269
 50
275.1581447696234
 51
285.9799912583529
 73
     1
 72
     1
 10
-145.8646964047479
 20
-296.2508060029913
 11
-145.8646964047479
 21
-295.3782889961881
 72
     2
 10
-147.0427514467729
 20
-293.4879382770383
 40
2.227384008972719
 50
58.06909105003567
 51
71.55192388186632
 73
     0
 72
     2
 10
-146.624583713112
 20
-294.7414840530755
 40
0.9059297849847106
 50
71.55192388184605
 51
113.3722778881347
 73
     0
 72
     2
 10
-146.7810237458141
 20
-295.1034760717855
 40
0.5115800601947491
 50
113.372277888174
 51
151.4785267423156
 73
     0
 72
     2
 10
-146.4036664877337
 20
-294.898404642447
 40
0.9410597353333544
 50
151.4785267423036
 51
208.5214732577298
 73
     0
 72
     2
 10
-146.7810237458141
 20
-294.6933332131079
 40
0.5115800601948179
 50
208.5214732576844
 51
246.6277221118083
 73
     0
 72
     2
 10
-146.624583713112
 20
-295.0553252318185
 40
0.9059297849852959
 50
246.6277221118696
 51
288.4480761181414
 73
     0
 72
     2
 10
-147.0427514467729
 20
-296.308871007855
 40
2.227384008973384
 50
288.4480761181342
 51
301.9309089499651
 73
     0
 72
     1
 10
-145.8646964047479
 20
-294.4185202887053
 11
-145.8646964047479
 21
-293.546003281902
 72
     2
 10
-147.2006243218657
 20
-298.2110855877028
 40
4.852596863497986
 50
74.0200087416471
 51
84.84185523037642
 73
     1
 97
       14
330
1F0
330
1F1
330
1F2
330
1F3
330
177
330
1C9
330
1C8
330
1C7
330
1F4
330
1F5
330
1C6
330
1F6
330
178
330
1C5
 75
     1
 76
     2
 52
45.0
 41
0.1
 77
     0
 78
     1
 53
45.0
 43
62.7811309658083
 44
-72.3161373035813
 45
-0.1414213562373095
 46
0.0
 79
     0
 98
        1
 10
0.0
 20
0.0
  0
HATCH
  5
241
330
74
100
AcDbEntity
  8
1
  6
Continuous
 62
     2
100
AcDbHatch
 10
0.0
 20
0.0
 30
0.0
210
0.0
220
0.0
230
1.0
  2
CUSTOM25
 70
     0
 71
     1
 91
        1
 92
        1
 93
       14
 72
     2
 10
-146.9117682271298
 20
-295.0111950044818
 40
1.639695123940499
 50
84.84185523036533
 51
164.9381082228903
 73
     1
 72
     2
 10
-147.3308960705926
 20
-294.898404642447
 40
1.205656168390971
 50
164.9381082228768
 51
195.0618917770945
 73
     1
 72
     2
 10
-146.9117682271298
 20
-294.7856142804121
 40
1.63969512393941
 50
195.0618917770925
 51
275.1581447696363
 73
     1
 72
     2
 10
-147.2006243218657
 20
-291.5857236971905
 40
4.852596863498269
 50
275.1581447696234
 51
285.9799912583529
 73
     1
 72
     1
 10
-145.8646964047479
 20
-296.2508060029913
 11
-145.8646964047479
 21
-295.3782889961881
 72
     2
 10
-147.0427514467729
 20
-293.4879382770383
 40
2.227384008972719
 50
58.06909105003567
 51
71.55192388186632
 73
     0
 72
     2
 10
-146.624583713112
 20
-294.7414840530755
 40
0.9059297849847106
 50
71.55192388184605
 51
113.3722778881347
 73
     0
 72
     2
 10
-146.7810237458141
 20
-295.1034760717855
 40
0.5115800601947491
 50
113.372277888174
 51
151.4785267423156
 73
     0
 72
     2
 10
-146.4036664877337
 20
-294.898404642447
 40
0.9410597353333544
 50
151.4785267423036
 51
208.5214732577298
 73
     0
 72
     2
 10
-146.7810237458141
 20
-294.6933332131079
 40
0.5115800601948179
 50
208.5214732576844
 51
246.6277221118083
 73
     0
 72
     2
 10
-146.624583713112
 20
-295.0553252318185
 40
0.9059297849852959
 50
246.6277221118696
 51
288.4480761181414
 73
     0
 72
     2
 10
-147.0427514467729
 20
-296.308871007855
 40
2.227384008973384
 50
288.4480761181342
 51
301.9309089499651
 73
     0
 72
     1
 10
-145.8646964047479
 20
-294.4185202887053
 11
-145.8646964047479
 21
-293.546003281902
 72
     2
 10
-147.2006243218657
 20
-298.2110855877028
 40
4.852596863497986
 50
74.0200087416471
 51
84.84185523037642
 73
     1
 97
       14
330
1F0
330
1F1
330
1F2
330
1F3
330
177
330
1C9
330
1C8
330
1C7
330
1F4
330
1F5
330
1C6
330
1F6
330
178
330
1C5
 75
     1
 76
     2
 52
45.0
 41
0.1
 77
     0
 78
     1
 53
45.0
 43
62.7811309658083
 44
-72.3161373035813
 45
-0.1414213562373095
 46
0.0
 79
     0
 98
        1
 10
0.0
 20
0.0
  0
ENDBLK
  5
76
330
74
100
AcDbEntity
  8
0
100
AcDbBlockEnd
  0
BLOCK
  5
7A
330
77
100
AcDbEntity
  8
0
100
AcDbBlockBegin
  2
A3I_CS
 70
     0
 10
-30.02732081976541
 20
-308.718809404368
 30
0.0
  3
A3I_CS
  1

  0
INSERT
  5
78
330
77
100
AcDbEntity
  8
1
100
AcDbBlockReference
  2
_punkt
 10
-30.02732081976546
 20
-303.7188094043685
 30
0.0
  0
INSERT
  5
79
330
77
100
AcDbEntity
  8
1
100
AcDbBlockReference
  2
_rahmen
 10
-30.02732081976541
 20
-308.718809404368
 30
0.0
  0
ENDBLK
  5
7B
330
77
100
AcDbEntity
  8
0
100
AcDbBlockEnd
  0
BLOCK
  5
E6
330
DF
100
AcDbEntity
  8
0
100
AcDbBlockBegin
  2
*D16
 70
     1
 10
0.0
 20
0.0
 30
0.0
  3
*D16
  1

  0
LINE
  5
E0
330
DF
100
AcDbEntity
  8
1
  6
Continuous
 62
     2
100
AcDbLine
 10
-153.5000065661178
 20
-30.52362750512687
 30
0.0
 11
-153.5000065661178
 21
-60.52362750512687
 31
0.0
  0
LINE
  5
E1
330
DF
100
AcDbEntity
  8
1
  6
Continuous
 62
     2
100
AcDbLine
 10
-148.5000065661178
 20
-30.52362750512687
 30
0.0
 11
-154.2500065661178
 21
-30.52362750512687
 31
0.0
  0
LINE
  5
E2
330
DF
100
AcDbEntity
  8
1
  6
Continuous
 62
     2
100
AcDbLine
 10
-148.5000065661178
 20
-60.52362750512687
 30
0.0
 11
-154.2500065661178
 21
-60.52362750512687
 31
0.0
  0
SOLID
  5
E3
330
DF
100
AcDbEntity
  8
1
 62
     2
100
AcDbTrace
 10
-153.2696146953399
 20
-32.27362750512687
 30
0.0
 11
-153.7303984368957
 21
-32.27362750512687
 31
0.0
 12
-153.5000065661178
 22
-30.52362750512687
 32
0.0
 13
-153.5000065661178
 23
-30.52362750512687
 33
0.0
  0
SOLID
  5
E4
330
DF
100
AcDbEntity
  8
1
 62
     2
100
AcDbTrace
 10
-153.7303984368957
 20
-58.77362750512687
 30
0.0
 11
-153.2696146953399
 21
-58.77362750512687
 31
0.0
 12
-153.5000065661178
 22
-60.52362750512687
 32
0.0
 13
-153.5000065661178
 23
-60.52362750512687
 33
0.0
  0
MTEXT
  5
E5
330
DF
100
AcDbEntity
  8
1
 62
     3
100
AcDbMText
 10
-154.2500065661178
 20
-47.95612750512839
 30
0.0
 40
1.75
 41
0.0
 71
     7
 72
     1
  1
\C3; {\Fgdt;n}\C3;30
  7
CONVERTER_11
 11
0.0
 21
1.0
 31
0.0
 73
     1
 44
0.60024009603842
  0
ENDBLK
  5
E7
330
DF
100
AcDbEntity
  8
0
100
AcDbBlockEnd
  0
BLOCK
  5
F1
330
EA
100
AcDbEntity
  8
0
100
AcDbBlockBegin
  2
*D17
 70
     1
 10
0.0
 20
0.0
 30
0.0
  3
*D17
  1

  0
LINE
  5
EB
330
EA
100
AcDbEntity
  8
1
  6
Continuous
 62
     2
100
AcDbLine
 10
-148.5000065661178
 20
-65.52362750512687
 30
0.0
 11
-120.5000065661178
 21
-65.52362750512687
 31
0.0
  0
LINE
  5
EC
330
EA
100
AcDbEntity
  8
1
  6
Continuous
 62
     2
100
AcDbLine
 10
-148.5000065661178
 20
-60.52362750512687
 30
0.0
 11
-148.5000065661178
 21
-66.27362750512687
 31
0.0
  0
LINE
  5
ED
330
EA
100
AcDbEntity
  8
1
  6
Continuous
 62
     2
100
AcDbLine
 10
-120.5000065661178
 20
-58.02362750512687
 30
0.0
 11
-120.5000065661178
 21
-66.27362750512687
 31
0.0
  0
SOLID
  5
EE
330
EA
100
AcDbEntity
  8
1
 62
     2
100
AcDbTrace
 10
-146.7500065661178
 20
-65.29323563434893
 30
0.0
 11
-146.7500065661178
 21
-65.7540193759048
 31
0.0
 12
-148.5000065661178
 22
-65.52362750512687
 32
0.0
 13
-148.5000065661178
 23
-65.52362750512687
 33
0.0
  0
SOLID
  5
EF
330
EA
100
AcDbEntity
  8
1
 62
     2
100
AcDbTrace
 10
-122.2500065661178
 20
-65.7540193759048
 30
0.0
 11
-122.2500065661178
 21
-65.29323563434893
 31
0.0
 12
-120.5000065661178
 22
-65.52362750512687
 32
0.0
 13
-120.5000065661178
 23
-65.52362750512687
 33
0.0
  0
MTEXT
  5
F0
330
EA
100
AcDbEntity
  8
1
 62
     3
100
AcDbMText
 10
-135.8125065661178
 20
-64.77362750512687
 30
0.0
 40
1.75
 41
0.0
 71
     7
 72
     1
  1
28
  7
CONVERTER_11
 11
0.9999999999970619
 21
2.424068405545306E-6
 31
0.0
 73
     1
 44
0.60024009603842
  0
ENDBLK
  5
F2
330
EA
100
AcDbEntity
  8
0
100
AcDbBlockEnd
  0
ENDSEC
  0
SECTION
  2
ENTITIES
  0
INSERT
  5
7C
330
1F
100
AcDbEntity
  8
0
100
AcDbBlockReference
  2
Allg1
 10
-84.2583639999992
 20
-222.75678
 30
0.0
 41
2.0
 42
2.0
 43
2.0
  0
INSERT
  5
7D
330
1F
100
AcDbEntity
  8
0
100
AcDbBlockReference
  2
Drfsicht1
 10
-269.0000138282778
 20
-195.0472629923094
 30
0.0
 41
2.0
 42
2.0
 43
2.0
  0
INSERT
  5
7E
330
1F
100
AcDbEntity
  8
0
100
AcDbBlockReference
  2
Rckans1
 10
-85.0
 20
-90.99999999999982
 30
0.0
 41
2.0
 42
2.0
 43
2.0
  0
INSERT
  5
7F
330
1F
100
AcDbEntity
  8
0
100
AcDbBlockReference
  2
SA_Links1
 10
-177.0000060000001
 20
-90.99999999999994
 30
0.0
 41
2.0
 42
2.0
 43
2.0
  0
INSERT
  5
80
330
1F
100
AcDbEntity
  8
0
100
AcDbBlockReference
  2
SA_Rechts1
 10
-371.0000200000002
 20
-90.99999999999982
 30
0.0
 41
2.0
 42
2.0
 43
2.0
  0
INSERT
  5
81
330
1F
100
AcDbEntity
  8
0
100
AcDbBlockReference
  2
Vordans1
 10
-269.0000139999978
 20
-90.99999999999984
 30
0.0
 41
2.0
 42
2.0
 43
2.0
  0
INSERT
  5
82
330
1F
100
AcDbEntity
  8
0
100
AcDbBlockReference
  2
A3I_CS
 10
-30.02732081976541
 20
-308.718809404368
 30
0.0
  0
ENDSEC
  0
SECTION
  2
OBJECTS
  0
DICTIONARY
  5
C
330
0
100
AcDbDictionary
281
     1
  3
ACAD_GROUP
350
D
  3
ACAD_LAYOUT
350
1A
  3
ACAD_MATERIAL
350
3B
  3
ACAD_MLEADERSTYLE
350
244
  3
ACAD_MLINESTYLE
350
17
  3
ACAD_PLOTSETTINGS
350
19
  3
ACAD_PLOTSTYLENAME
350
E
  3
ACAD_VISUALSTYLE
350
2A
  3
AcDbVariableDictionary
350
242
  0
DICTIONARY
  5
D
102
{ACAD_REACTORS
330
C
102
}
330
C
100
AcDbDictionary
281
     1
  0
DICTIONARY
  5
1A
102
{ACAD_REACTORS
330
C
102
}
330
C
100
AcDbDictionary
281
     1
  3
Layout1
350
1E
  3
Layout2
350
26
  3
Model
350
22
  0
DICTIONARY
  5
3B
102
{ACAD_REACTORS
330
C
102
}
330
C
100
AcDbDictionary
281
     1
  3
ByBlock
350
3D
  3
ByLayer
350
3C
  3
Global
350
3E
  0
DICTIONARY
  5
244
102
{ACAD_REACTORS
330
C
102
}
330
C
100
AcDbDictionary
281
     1
  0
DICTIONARY
  5
17
102
{ACAD_REACTORS
330
C
102
}
330
C
100
AcDbDictionary
281
     1
  3
Standard
350
18
  0
DICTIONARY
  5
19
102
{ACAD_REACTORS
330
C
102
}
330
C
100
AcDbDictionary
281
     1
  0
ACDBDICTIONARYWDFLT
  5
E
102
{ACAD_REACTORS
330
C
102
}
330
C
100
AcDbDictionary
281
     1
  3
Normal
350
F
100
AcDbDictionaryWithDefault
340
F
  0
DICTIONARY
  5
2A
102
{ACAD_REACTORS
330
C
102
}
330
C
100
AcDbDictionary
281
     1
  3
2dWireframe
350
2F
  3
3D Hidden
350
31
  3
3dWireframe
350
30
  3
Basic
350
32
  3
Brighten
350
36
  3
ColorChange
350
3A
  3
Conceptual
350
34
  3
Dim
350
35
  3
Facepattern
350
39
  3
Flat
350
2B
  3
FlatWithEdges
350
2C
  3
Gouraud
350
2D
  3
GouraudWithEdges
350
2E
  3
Linepattern
350
38
  3
Realistic
350
33
  3
Thicken
350
37
  0
DICTIONARY
  5
242
102
{ACAD_REACTORS
330
C
102
}
330
C
100
AcDbDictionary
281
     1
  3
DIMASSOC
350
245
  3
HIDETEXT
350
246
  0
LAYOUT
  5
1E
102
{ACAD_REACTORS
330
1A
102
}
330
1A
100
AcDbPlotSettings
  1

  2
none_device
  4

  6

 40
0.0
 41
0.0
 42
0.0
 43
0.0
 44
0.0
 45
0.0
 46
0.0
 47
0.0
 48
0.0
 49
0.0
140
0.0
141
0.0
142
1.0
143
1.0
 70
   688
 72
     0
 73
     0
 74
     5
  7

 75
    16
147
1.0
148
0.0
149
0.0
100
AcDbLayout
  1
Layout1
 70
     1
 71
     1
 10
0.0
 20
0.0
 11
12.0
 21
9.0
 12
0.0
 22
0.0
 32
0.0
 14
1.00000000000000E+20
 24
1.00000000000000E+20
 34
1.00000000000000E+20
 15
-1.00000000000000E+20
 25
-1.00000000000000E+20
 35
-1.00000000000000E+20
146
0.0
 13
0.0
 23
0.0
 33
0.0
 16
1.0
 26
0.0
 36
0.0
 17
0.0
 27
1.0
 37
0.0
 76
     0
330
1B
  0
LAYOUT
  5
26
102
{ACAD_REACTORS
330
1A
102
}
330
1A
100
AcDbPlotSettings
  1

  2
none_device
  4

  6

 40
0.0
 41
0.0
 42
0.0
 43
0.0
 44
0.0
 45
0.0
 46
0.0
 47
0.0
 48
0.0
 49
0.0
140
0.0
141
0.0
142
1.0
143
1.0
 70
   688
 72
     0
 73
     0
 74
     5
  7

 75
    16
147
1.0
148
0.0
149
0.0
100
AcDbLayout
  1
Layout2
 70
     1
 71
     2
 10
0.0
 20
0.0
 11
0.0
 21
0.0
 12
0.0
 22
0.0
 32
0.0
 14
0.0
 24
0.0
 34
0.0
 15
0.0
 25
0.0
 35
0.0
146
0.0
 13
0.0
 23
0.0
 33
0.0
 16
1.0
 26
0.0
 36
0.0
 17
0.0
 27
1.0
 37
0.0
 76
     0
330
23
  0
LAYOUT
  5
22
102
{ACAD_REACTORS
330
1A
102
}
330
1A
100
AcDbPlotSettings
  1

  2
none_device
  4

  6

 40
0.0
 41
0.0
 42
0.0
 43
0.0
 44
0.0
 45
0.0
 46
0.0
 47
0.0
 48
0.0
 49
0.0
140
0.0
141
0.0
142
1.0
143
1.0
 70
  1712
 72
     0
 73
     0
 74
     0
  7

 75
     0
147
1.0
148
0.0
149
0.0
100
AcDbLayout
  1
Model
 70
     1
 71
     0
 10
0.0
 20
0.0
 11
12.0
 21
9.0
 12
0.0
 22
0.0
 32
0.0
 14
-445.0273208197662
 24
-308.718809404368
 34
0.0
 15
-25.0273208197678
 25
-11.718809404368
 35
0.0
146
0.0
 13
0.0
 23
0.0
 33
0.0
 16
1.0
 26
0.0
 36
0.0
 17
0.0
 27
1.0
 37
0.0
 76
     0
330
1F
331
29
  0
MATERIAL
  5
3D
102
{ACAD_REACTORS
330
3B
102
}
102
{ACAD_XDICTIONARY
360
269
102
}
330
3B
100
AcDbMaterial
  1
ByBlock
  0
MATERIAL
  5
3C
102
{ACAD_REACTORS
330
3B
102
}
102
{ACAD_XDICTIONARY
360
267
102
}
330
3B
100
AcDbMaterial
  1
ByLayer
  0
MATERIAL
  5
3E
102
{ACAD_REACTORS
330
3B
102
}
102
{ACAD_XDICTIONARY
360
26B
102
}
330
3B
100
AcDbMaterial
  1
Global
  0
MLINESTYLE
  5
18
102
{ACAD_REACTORS
330
17
102
}
330
17
100
AcDbMlineStyle
  2
Standard
 70
     0
  3

 62
   256
 51
90.0
 52
90.0
 71
     2
 49
0.5
 62
   256
  6
BYLAYER
 49
-0.5
 62
   256
  6
BYLAYER
  0
ACDBPLACEHOLDER
  5
F
102
{ACAD_REACTORS
330
E
102
}
330
E
  0
VISUALSTYLE
  5
2F
102
{ACAD_REACTORS
330
2A
102
}
102
{ACAD_XDICTIONARY
360
24F
102
}
330
2A
100
AcDbVisualStyle
  2
2dWireframe
 70
     4
 71
     0
 72
     2
 73
     0
 90
        0
 40
-0.6
 41
-30.0
 62
     5
 63
     7
 74
     1
 91
        4
 64
     7
 65
   257
 75
     1
175
     1
 42
1.0
 92
        0
 66
   257
 43
1.0
 76
     1
 77
     6
 78
     2
 67
     7
 79
     5
170
     0
171
     0
290
     0
174
     0
 93
        1
 44
0.0
173
     0
291
     0
 45
0.0
1001
ACAD
1000
AcDbSavedByObjectVersion
1070
     0
  0
VISUALSTYLE
  5
31
102
{ACAD_REACTORS
330
2A
102
}
102
{ACAD_XDICTIONARY
360
253
102
}
330
2A
100
AcDbVisualStyle
  2
3D Hidden
 70
     6
 71
     1
 72
     2
 73
     2
 90
        0
 40
-0.6
 41
-30.0
 62
     5
 63
     7
 74
     2
 91
        2
 64
     7
 65
   257
 75
     2
175
     1
 42
40.0
 92
        0
 66
   257
 43
1.0
 76
     1
 77
     6
 78
     2
 67
     7
 79
     3
170
     0
171
     0
290
     0
174
     0
 93
        1
 44
0.0
173
     0
291
     0
 45
0.0
1001
ACAD
1000
AcDbSavedByObjectVersion
1070
     0
  0
VISUALSTYLE
  5
30
102
{ACAD_REACTORS
330
2A
102
}
102
{ACAD_XDICTIONARY
360
251
102
}
330
2A
100
AcDbVisualStyle
  2
3dWireframe
 70
     5
 71
     0
 72
     2
 73
     0
 90
        0
 40
-0.6
 41
-30.0
 62
     5
 63
     7
 74
     1
 91
        4
 64
     7
 65
   257
 75
     1
175
     1
 42
1.0
 92
        0
 66
   257
 43
1.0
 76
     1
 77
     6
 78
     2
 67
     7
 79
     5
170
     0
171
     0
290
     0
174
     0
 93
        1
 44
0.0
173
     0
291
     0
 45
0.0
1001
ACAD
1000
AcDbSavedByObjectVersion
1070
     0
  0
VISUALSTYLE
  5
32
102
{ACAD_REACTORS
330
2A
102
}
102
{ACAD_XDICTIONARY
360
255
102
}
330
2A
100
AcDbVisualStyle
  2
Basic
 70
     7
 71
     1
 72
     0
 73
     1
 90
        0
 40
-0.6
 41
-30.0
 62
     5
 63
     7
 74
     0
 91
        4
 64
     7
 65
   257
 75
     1
175
     1
 42
1.0
 92
        8
 66
     7
 43
1.0
 76
     1
 77
     6
 78
     2
 67
     7
 79
     5
170
     0
171
     0
290
     0
174
     0
 93
        1
 44
0.0
173
     0
291
     1
 45
0.0
1001
ACAD
1000
AcDbSavedByObjectVersion
1070
     0
  0
VISUALSTYLE
  5
36
102
{ACAD_REACTORS
330
2A
102
}
102
{ACAD_XDICTIONARY
360
25D
102
}
330
2A
100
AcDbVisualStyle
  2
Brighten
 70
    12
 71
     2
 72
     2
 73
     0
 90
        0
 40
-0.6
 41
-30.0
 62
     5
 63
     7
 74
     1
 91
        4
 64
     7
 65
   257
 75
     1
175
     1
 42
1.0
 92
        8
 66
     7
 43
1.0
 76
     1
 77
     6
 78
     2
 67
     7
 79
     5
170
     0
171
     0
290
     0
174
     0
 93
        1
 44
50.0
173
     0
291
     1
 45
0.0
1001
ACAD
1000
AcDbSavedByObjectVersion
1070
     0
  0
VISUALSTYLE
  5
3A
102
{ACAD_REACTORS
330
2A
102
}
102
{ACAD_XDICTIONARY
360
265
102
}
330
2A
100
AcDbVisualStyle
  2
ColorChange
 70
    16
 71
     2
 72
     2
 73
     3
 90
        0
 40
-0.6
 41
-30.0
 62
     5
 63
     8
 74
     1
 91
        4
 64
     7
 65
   257
 75
     1
175
     1
 42
1.0
 92
        8
 66
     8
 43
1.0
 76
     1
 77
     6
 78
     2
 67
     7
 79
     5
170
     0
171
     0
290
     0
174
     0
 93
        1
 44
0.0
173
     0
291
     1
 45
0.0
1001
ACAD
1000
AcDbSavedByObjectVersion
1070
     0
  0
VISUALSTYLE
  5
34
102
{ACAD_REACTORS
330
2A
102
}
102
{ACAD_XDICTIONARY
360
259
102
}
330
2A
100
AcDbVisualStyle
  2
Conceptual
 70
     9
 71
     3
 72
     2
 73
     0
 90
        0
 40
-0.6
 41
-30.0
 62
     5
 63
     7
 74
     2
 91
        2
 64
     7
 65
   257
 75
     1
175
     1
 42
40.0
 92
        8
 66
     7
 43
1.0
 76
     1
 77
     6
 78
     2
 67
     7
 79
     3
170
     0
171
     0
290
     0
174
     0
 93
        1
 44
0.0
173
     0
291
     0
 45
0.0
1001
ACAD
1000
AcDbSavedByObjectVersion
1070
     0
  0
VISUALSTYLE
  5
35
102
{ACAD_REACTORS
330
2A
102
}
102
{ACAD_XDICTIONARY
360
25B
102
}
330
2A
100
AcDbVisualStyle
  2
Dim
 70
    11
 71
     2
 72
     2
 73
     0
 90
        0
 40
-0.6
 41
-30.0
 62
     5
 63
     7
 74
     1
 91
        4
 64
     7
 65
   257
 75
     1
175
     1
 42
1.0
 92
        8
 66
     7
 43
1.0
 76
     1
 77
     6
 78
     2
 67
     7
 79
     5
170
     0
171
     0
290
     0
174
     0
 93
        1
 44
-50.0
173
     0
291
     1
 45
0.0
1001
ACAD
1000
AcDbSavedByObjectVersion
1070
     0
  0
VISUALSTYLE
  5
39
102
{ACAD_REACTORS
330
2A
102
}
102
{ACAD_XDICTIONARY
360
263
102
}
330
2A
100
AcDbVisualStyle
  2
Facepattern
 70
    15
 71
     2
 72
     2
 73
     0
 90
        0
 40
-0.6
 41
-30.0
 62
     5
 63
     7
 74
     1
 91
        4
 64
     7
 65
   257
 75
     1
175
     1
 42
1.0
 92
        8
 66
     7
 43
1.0
 76
     1
 77
     6
 78
     2
 67
     7
 79
     5
170
     0
171
     0
290
     0
174
     0
 93
        1
 44
0.0
173
     0
291
     1
 45
0.0
1001
ACAD
1000
AcDbSavedByObjectVersion
1070
     0
  0
VISUALSTYLE
  5
2B
102
{ACAD_REACTORS
330
2A
102
}
102
{ACAD_XDICTIONARY
360
247
102
}
330
2A
100
AcDbVisualStyle
  2
Flat
 70
     0
 71
     2
 72
     1
 73
     1
 90
        2
 40
-0.6
 41
30.0
 62
     5
 63
     7
 74
     0
 91
        4
 64
     7
 65
   257
 75
     1
175
     1
 42
1.0
 92
        8
 66
     7
 43
1.0
 76
     1
 77
     6
 78
     2
 67
     7
 79
     5
170
     0
171
     0
290
     0
174
     0
 93
       13
 44
0.0
173
     0
291
     1
 45
0.0
1001
ACAD
1000
AcDbSavedByObjectVersion
1070
     0
  0
VISUALSTYLE
  5
2C
102
{ACAD_REACTORS
330
2A
102
}
102
{ACAD_XDICTIONARY
360
249
102
}
330
2A
100
AcDbVisualStyle
  2
FlatWithEdges
 70
     1
 71
     2
 72
     1
 73
     1
 90
        2
 40
-0.6
 41
30.0
 62
     5
 63
     7
 74
     1
 91
        4
 64
     7
 65
   257
 75
     1
175
     1
 42
1.0
 92
        0
 66
   257
 43
1.0
 76
     1
 77
     6
 78
     2
 67
     7
 79
     5
170
     0
171
     0
290
     0
174
     0
 93
       13
 44
0.0
173
     0
291
     1
 45
0.0
1001
ACAD
1000
AcDbSavedByObjectVersion
1070
     0
  0
VISUALSTYLE
  5
2D
102
{ACAD_REACTORS
330
2A
102
}
102
{ACAD_XDICTIONARY
360
24B
102
}
330
2A
100
AcDbVisualStyle
  2
Gouraud
 70
     2
 71
     2
 72
     2
 73
     1
 90
        2
 40
-0.6
 41
30.0
 62
     5
 63
     7
 74
     0
 91
        4
 64
     7
 65
   257
 75
     1
175
     1
 42
1.0
 92
        0
 66
     7
 43
1.0
 76
     1
 77
     6
 78
     2
 67
     7
 79
     5
170
     0
171
     0
290
     0
174
     0
 93
       13
 44
0.0
173
     0
291
     1
 45
0.0
1001
ACAD
1000
AcDbSavedByObjectVersion
1070
     0
  0
VISUALSTYLE
  5
2E
102
{ACAD_REACTORS
330
2A
102
}
102
{ACAD_XDICTIONARY
360
24D
102
}
330
2A
100
AcDbVisualStyle
  2
GouraudWithEdges
 70
     3
 71
     2
 72
     2
 73
     1
 90
        2
 40
-0.6
 41
30.0
 62
     5
 63
     7
 74
     1
 91
        4
 64
     7
 65
   257
 75
     1
175
     1
 42
1.0
 92
        0
 66
   257
 43
1.0
 76
     1
 77
     6
 78
     2
 67
     7
 79
     5
170
     0
171
     0
290
     0
174
     0
 93
       13
 44
0.0
173
     0
291
     1
 45
0.0
1001
ACAD
1000
AcDbSavedByObjectVersion
1070
     0
  0
VISUALSTYLE
  5
38
102
{ACAD_REACTORS
330
2A
102
}
102
{ACAD_XDICTIONARY
360
261
102
}
330
2A
100
AcDbVisualStyle
  2
Linepattern
 70
    14
 71
     2
 72
     2
 73
     0
 90
        0
 40
-0.6
 41
-30.0
 62
     5
 63
     7
 74
     1
 91
        4
 64
     7
 65
   257
 75
     7
175
     7
 42
1.0
 92
        8
 66
     7
 43
1.0
 76
     1
 77
     6
 78
     2
 67
     7
 79
     5
170
     0
171
     0
290
     0
174
     0
 93
        1
 44
0.0
173
     0
291
     1
 45
0.0
1001
ACAD
1000
AcDbSavedByObjectVersion
1070
     0
  0
VISUALSTYLE
  5
33
102
{ACAD_REACTORS
330
2A
102
}
102
{ACAD_XDICTIONARY
360
257
102
}
330
2A
100
AcDbVisualStyle
  2
Realistic
 70
     8
 71
     2
 72
     2
 73
     0
 90
        0
 40
-0.6
 41
-30.0
 62
     5
 63
     7
 74
     1
 91
        0
 64
     7
 65
   257
 75
     1
175
     1
 42
1.0
 92
        8
 66
     8
 43
1.0
 76
     1
 77
     6
 78
     2
 67
     7
 79
     5
170
     0
171
     0
290
     0
174
     0
 93
       13
 44
0.0
173
     0
291
     0
 45
0.0
1001
ACAD
1000
AcDbSavedByObjectVersion
1070
     0
  0
VISUALSTYLE
  5
37
102
{ACAD_REACTORS
330
2A
102
}
102
{ACAD_XDICTIONARY
360
25F
102
}
330
2A
100
AcDbVisualStyle
  2
Thicken
 70
    13
 71
     2
 72
     2
 73
     0
 90
        0
 40
-0.6
 41
-30.0
 62
     5
 63
     7
 74
     1
 91
        4
 64
     7
 65
   257
 75
     1
175
     1
 42
1.0
 92
       12
 66
     7
 43
1.0
 76
     1
 77
     6
 78
     2
 67
     7
 79
     5
170
     0
171
     0
290
     0
174
     0
 93
        1
 44
0.0
173
     0
291
     1
 45
0.0
1001
ACAD
1000
AcDbSavedByObjectVersion
1070
     0
  0
DICTIONARYVAR
  5
245
102
{ACAD_REACTORS
330
242
102
}
330
242
100
DictionaryVariables
280
     0
  1
2
  0
DICTIONARYVAR
  5
246
102
{ACAD_REACTORS
330
242
102
}
330
242
100
DictionaryVariables
280
     0
  1
1
  0
DICTIONARY
  5
269
330
3D
100
AcDbDictionary
280
     1
281
     1
  3
ACAD_XREC_ROUNDTRIP
360
26A
  0
DICTIONARY
  5
267
330
3C
100
AcDbDictionary
280
     1
281
     1
  3
ACAD_XREC_ROUNDTRIP
360
268
  0
DICTIONARY
  5
26B
330
3E
100
AcDbDictionary
280
     1
281
     1
  3
ACAD_XREC_ROUNDTRIP
360
26C
  0
DICTIONARY
  5
24F
330
2F
100
AcDbDictionary
280
     1
281
     1
  3
ACAD_XREC_ROUNDTRIP
360
250
  0
DICTIONARY
  5
253
330
31
100
AcDbDictionary
280
     1
281
     1
  3
ACAD_XREC_ROUNDTRIP
360
254
  0
DICTIONARY
  5
251
330
30
100
AcDbDictionary
280
     1
281
     1
  3
ACAD_XREC_ROUNDTRIP
360
252
  0
DICTIONARY
  5
255
330
32
100
AcDbDictionary
280
     1
281
     1
  3
ACAD_XREC_ROUNDTRIP
360
256
  0
DICTIONARY
  5
25D
330
36
100
AcDbDictionary
280
     1
281
     1
  3
ACAD_XREC_ROUNDTRIP
360
25E
  0
DICTIONARY
  5
265
330
3A
100
AcDbDictionary
280
     1
281
     1
  3
ACAD_XREC_ROUNDTRIP
360
266
  0
DICTIONARY
  5
259
330
34
100
AcDbDictionary
280
     1
281
     1
  3
ACAD_XREC_ROUNDTRIP
360
25A
  0
DICTIONARY
  5
25B
330
35
100
AcDbDictionary
280
     1
281
     1
  3
ACAD_XREC_ROUNDTRIP
360
25C
  0
DICTIONARY
  5
263
330
39
100
AcDbDictionary
280
     1
281
     1
  3
ACAD_XREC_ROUNDTRIP
360
264
  0
DICTIONARY
  5
247
330
2B
100
AcDbDictionary
280
     1
281
     1
  3
ACAD_XREC_ROUNDTRIP
360
248
  0
DICTIONARY
  5
249
330
2C
100
AcDbDictionary
280
     1
281
     1
  3
ACAD_XREC_ROUNDTRIP
360
24A
  0
DICTIONARY
  5
24B
330
2D
100
AcDbDictionary
280
     1
281
     1
  3
ACAD_XREC_ROUNDTRIP
360
24C
  0
DICTIONARY
  5
24D
330
2E
100
AcDbDictionary
280
     1
281
     1
  3
ACAD_XREC_ROUNDTRIP
360
24E
  0
DICTIONARY
  5
261
330
38
100
AcDbDictionary
280
     1
281
     1
  3
ACAD_XREC_ROUNDTRIP
360
262
  0
DICTIONARY
  5
257
330
33
100
AcDbDictionary
280
     1
281
     1
  3
ACAD_XREC_ROUNDTRIP
360
258
  0
DICTIONARY
  5
25F
330
37
100
AcDbDictionary
280
     1
281
     1
  3
ACAD_XREC_ROUNDTRIP
360
260
  0
XRECORD
  5
26A
102
{ACAD_REACTORS
330
269
102
}
330
269
100
AcDbXrecord
280
     1
102
MATERIAL
148
0.0
149
0.0
149
0.0
 93
        0
 94
      127
282
     0
 72
     1
 77
     1
171
     1
175
     1
179
     1
273
     0
  0
XRECORD
  5
268
102
{ACAD_REACTORS
330
267
102
}
330
267
100
AcDbXrecord
280
     1
102
MATERIAL
148
0.0
149
0.0
149
0.0
 93
        0
 94
      127
282
     0
 72
     1
 77
     1
171
     1
175
     1
179
     1
273
     0
  0
XRECORD
  5
26C
102
{ACAD_REACTORS
330
26B
102
}
330
26B
100
AcDbXrecord
280
     1
102
MATERIAL
148
0.0
149
0.0
149
0.0
 93
        0
 94
      127
282
     0
 72
     1
 77
     1
171
     1
175
     1
179
     1
273
     0
  0
XRECORD
  5
250
102
{ACAD_REACTORS
330
24F
102
}
330
24F
100
AcDbXrecord
280
     1
102
RTVSPropertyOp0
 70
     1
102
RTVSPropertyOp1
 70
     1
102
RTVSPropertyOp2
 70
     1
102
RTVSPropertyOp3
 70
     1
102
RTVSPropertyOp4
 70
     1
102
RTVSPropertyOp5
 70
     1
102
RTVSPropertyOp6
 70
     1
102
RTVSPropertyOp7
 70
     1
102
RTVSPropertyOp8
 70
     1
102
RTVSPropertyOp9
 70
     1
102
RTVSPropertyOp10
 70
     1
102
RTVSPropertyOp11
 70
     1
102
RTVSPropertyOp12
 70
     1
102
RTVSPropertyOp13
 70
     1
102
RTVSPropertyOp14
 70
     1
102
RTVSPropertyOp15
 70
     1
102
RTVSPropertyOp16
 70
     1
102
RTVSPropertyOp17
 70
     1
102
RTVSPropertyOp18
 70
     1
102
RTVSPropertyOp19
 70
     1
102
RTVSPropertyOp20
 70
     1
102
RTVSPropertyOp21
 70
     1
102
RTVSPropertyOp22
 70
     1
102
RTVSPropertyOp23
 70
     1
102
RTVSPropertyOp24
 70
     1
102
RTVSPropertyOp25
 70
     1
102
RTVSPropertyOp26
 70
     1
102
RTVSPropertyOp27
 70
     1
102
RTVSPropertyOp28
 70
     1
102
RTVSPropertyOp29
 70
     1
102
RTVSPropertyOp30
 70
     1
102
RTVSPropertyOp31
 70
     1
102
RTVSPropertyOp32
 70
     1
  0
XRECORD
  5
254
102
{ACAD_REACTORS
330
253
102
}
330
253
100
AcDbXrecord
280
     1
102
RTVSPropertyOp0
 70
     1
102
RTVSPropertyOp1
 70
     1
102
RTVSPropertyOp2
 70
     1
102
RTVSPropertyOp3
 70
     1
102
RTVSPropertyOp4
 70
     1
102
RTVSPropertyOp5
 70
     1
102
RTVSPropertyOp6
 70
     1
102
RTVSPropertyOp7
 70
     1
102
RTVSPropertyOp8
 70
     1
102
RTVSPropertyOp9
 70
     1
102
RTVSPropertyOp10
 70
     1
102
RTVSPropertyOp11
 70
     1
102
RTVSPropertyOp12
 70
     1
102
RTVSPropertyOp13
 70
     1
102
RTVSPropertyOp14
 70
     1
102
RTVSPropertyOp15
 70
     1
102
RTVSPropertyOp16
 70
     1
102
RTVSPropertyOp17
 70
     1
102
RTVSPropertyOp18
 70
     1
102
RTVSPropertyOp19
 70
     1
102
RTVSPropertyOp20
 70
     1
102
RTVSPropertyOp21
 70
     1
102
RTVSPropertyOp22
 70
     1
102
RTVSPropertyOp23
 70
     1
102
RTVSPropertyOp24
 70
     1
102
RTVSPropertyOp25
 70
     1
102
RTVSPropertyOp26
 70
     1
102
RTVSPropertyOp27
 70
     1
102
RTVSPropertyOp28
 70
     1
102
RTVSPropertyOp29
 70
     1
102
RTVSPropertyOp30
 70
     1
102
RTVSPropertyOp31
 70
     1
102
RTVSPropertyOp32
 70
     1
  0
XRECORD
  5
252
102
{ACAD_REACTORS
330
251
102
}
330
251
100
AcDbXrecord
280
     1
102
RTVSPropertyOp0
 70
     1
102
RTVSPropertyOp1
 70
     1
102
RTVSPropertyOp2
 70
     1
102
RTVSPropertyOp3
 70
     1
102
RTVSPropertyOp4
 70
     1
102
RTVSPropertyOp5
 70
     1
102
RTVSPropertyOp6
 70
     1
102
RTVSPropertyOp7
 70
     1
102
RTVSPropertyOp8
 70
     1
102
RTVSPropertyOp9
 70
     1
102
RTVSPropertyOp10
 70
     1
102
RTVSPropertyOp11
 70
     1
102
RTVSPropertyOp12
 70
     1
102
RTVSPropertyOp13
 70
     1
102
RTVSPropertyOp14
 70
     1
102
RTVSPropertyOp15
 70
     1
102
RTVSPropertyOp16
 70
     1
102
RTVSPropertyOp17
 70
     1
102
RTVSPropertyOp18
 70
     1
102
RTVSPropertyOp19
 70
     1
102
RTVSPropertyOp20
 70
     1
102
RTVSPropertyOp21
 70
     1
102
RTVSPropertyOp22
 70
     1
102
RTVSPropertyOp23
 70
     1
102
RTVSPropertyOp24
 70
     1
102
RTVSPropertyOp25
 70
     1
102
RTVSPropertyOp26
 70
     1
102
RTVSPropertyOp27
 70
     1
102
RTVSPropertyOp28
 70
     1
102
RTVSPropertyOp29
 70
     1
102
RTVSPropertyOp30
 70
     1
102
RTVSPropertyOp31
 70
     1
102
RTVSPropertyOp32
 70
     1
  0
XRECORD
  5
256
102
{ACAD_REACTORS
330
255
102
}
330
255
100
AcDbXrecord
280
     1
102
RTVSPropertyOp0
 70
     1
102
RTVSPropertyOp1
 70
     1
102
RTVSPropertyOp2
 70
     1
102
RTVSPropertyOp3
 70
     1
102
RTVSPropertyOp4
 70
     1
102
RTVSPropertyOp5
 70
     1
102
RTVSPropertyOp6
 70
     1
102
RTVSPropertyOp7
 70
     1
102
RTVSPropertyOp8
 70
     1
102
RTVSPropertyOp9
 70
     1
102
RTVSPropertyOp10
 70
     1
102
RTVSPropertyOp11
 70
     1
102
RTVSPropertyOp12
 70
     1
102
RTVSPropertyOp13
 70
     1
102
RTVSPropertyOp14
 70
     1
102
RTVSPropertyOp15
 70
     1
102
RTVSPropertyOp16
 70
     1
102
RTVSPropertyOp17
 70
     1
102
RTVSPropertyOp18
 70
     1
102
RTVSPropertyOp19
 70
     1
102
RTVSPropertyOp20
 70
     1
102
RTVSPropertyOp21
 70
     1
102
RTVSPropertyOp22
 70
     1
102
RTVSPropertyOp23
 70
     1
102
RTVSPropertyOp24
 70
     1
102
RTVSPropertyOp25
 70
     1
102
RTVSPropertyOp26
 70
     1
102
RTVSPropertyOp27
 70
     1
102
RTVSPropertyOp28
 70
     1
102
RTVSPropertyOp29
 70
     1
102
RTVSPropertyOp30
 70
     1
102
RTVSPropertyOp31
 70
     1
102
RTVSPropertyOp32
 70
     1
  0
XRECORD
  5
25E
102
{ACAD_REACTORS
330
25D
102
}
330
25D
100
AcDbXrecord
280
     1
102
RTVSPropertyOp0
 70
     1
102
RTVSPropertyOp1
 70
     1
102
RTVSPropertyOp2
 70
     1
102
RTVSPropertyOp3
 70
     1
102
RTVSPropertyOp4
 70
     1
102
RTVSPropertyOp5
 70
     1
102
RTVSPropertyOp6
 70
     1
102
RTVSPropertyOp7
 70
     1
102
RTVSPropertyOp8
 70
     1
102
RTVSPropertyOp9
 70
     1
102
RTVSPropertyOp10
 70
     1
102
RTVSPropertyOp11
 70
     1
102
RTVSPropertyOp12
 70
     1
102
RTVSPropertyOp13
 70
     1
102
RTVSPropertyOp14
 70
     1
102
RTVSPropertyOp15
 70
     1
102
RTVSPropertyOp16
 70
     1
102
RTVSPropertyOp17
 70
     1
102
RTVSPropertyOp18
 70
     1
102
RTVSPropertyOp19
 70
     1
102
RTVSPropertyOp20
 70
     1
102
RTVSPropertyOp21
 70
     1
102
RTVSPropertyOp22
 70
     1
102
RTVSPropertyOp23
 70
     1
102
RTVSPropertyOp24
 70
     1
102
RTVSPropertyOp25
 70
     1
102
RTVSPropertyOp26
 70
     1
102
RTVSPropertyOp27
 70
     1
102
RTVSPropertyOp28
 70
     1
102
RTVSPropertyOp29
 70
     1
102
RTVSPropertyOp30
 70
     1
102
RTVSPropertyOp31
 70
     1
102
RTVSPropertyOp32
 70
     1
  0
XRECORD
  5
266
102
{ACAD_REACTORS
330
265
102
}
330
265
100
AcDbXrecord
280
     1
102
RTVSPropertyOp0
 70
     1
102
RTVSPropertyOp1
 70
     1
102
RTVSPropertyOp2
 70
     1
102
RTVSPropertyOp3
 70
     1
102
RTVSPropertyOp4
 70
     1
102
RTVSPropertyOp5
 70
     1
102
RTVSPropertyOp6
 70
     1
102
RTVSPropertyOp7
 70
     1
102
RTVSPropertyOp8
 70
     1
102
RTVSPropertyOp9
 70
     1
102
RTVSPropertyOp10
 70
     1
102
RTVSPropertyOp11
 70
     1
102
RTVSPropertyOp12
 70
     1
102
RTVSPropertyOp13
 70
     1
102
RTVSPropertyOp14
 70
     1
102
RTVSPropertyOp15
 70
     1
102
RTVSPropertyOp16
 70
     1
102
RTVSPropertyOp17
 70
     1
102
RTVSPropertyOp18
 70
     1
102
RTVSPropertyOp19
 70
     1
102
RTVSPropertyOp20
 70
     1
102
RTVSPropertyOp21
 70
     1
102
RTVSPropertyOp22
 70
     1
102
RTVSPropertyOp23
 70
     1
102
RTVSPropertyOp24
 70
     1
102
RTVSPropertyOp25
 70
     1
102
RTVSPropertyOp26
 70
     1
102
RTVSPropertyOp27
 70
     1
102
RTVSPropertyOp28
 70
     1
102
RTVSPropertyOp29
 70
     1
102
RTVSPropertyOp30
 70
     1
102
RTVSPropertyOp31
 70
     1
102
RTVSPropertyOp32
 70
     1
  0
XRECORD
  5
25A
102
{ACAD_REACTORS
330
259
102
}
330
259
100
AcDbXrecord
280
     1
102
RTVSPropertyOp0
 70
     1
102
RTVSPropertyOp1
 70
     1
102
RTVSPropertyOp2
 70
     1
102
RTVSPropertyOp3
 70
     1
102
RTVSPropertyOp4
 70
     1
102
RTVSPropertyOp5
 70
     1
102
RTVSPropertyOp6
 70
     1
102
RTVSPropertyOp7
 70
     1
102
RTVSPropertyOp8
 70
     1
102
RTVSPropertyOp9
 70
     1
102
RTVSPropertyOp10
 70
     1
102
RTVSPropertyOp11
 70
     1
102
RTVSPropertyOp12
 70
     1
102
RTVSPropertyOp13
 70
     1
102
RTVSPropertyOp14
 70
     1
102
RTVSPropertyOp15
 70
     1
102
RTVSPropertyOp16
 70
     1
102
RTVSPropertyOp17
 70
     1
102
RTVSPropertyOp18
 70
     1
102
RTVSPropertyOp19
 70
     1
102
RTVSPropertyOp20
 70
     1
102
RTVSPropertyOp21
 70
     1
102
RTVSPropertyOp22
 70
     1
102
RTVSPropertyOp23
 70
     1
102
RTVSPropertyOp24
 70
     1
102
RTVSPropertyOp25
 70
     1
102
RTVSPropertyOp26
 70
     1
102
RTVSPropertyOp27
 70
     1
102
RTVSPropertyOp28
 70
     1
102
RTVSPropertyOp29
 70
     1
102
RTVSPropertyOp30
 70
     1
102
RTVSPropertyOp31
 70
     1
102
RTVSPropertyOp32
 70
     1
  0
XRECORD
  5
25C
102
{ACAD_REACTORS
330
25B
102
}
330
25B
100
AcDbXrecord
280
     1
102
RTVSPropertyOp0
 70
     1
102
RTVSPropertyOp1
 70
     1
102
RTVSPropertyOp2
 70
     1
102
RTVSPropertyOp3
 70
     1
102
RTVSPropertyOp4
 70
     1
102
RTVSPropertyOp5
 70
     1
102
RTVSPropertyOp6
 70
     1
102
RTVSPropertyOp7
 70
     1
102
RTVSPropertyOp8
 70
     1
102
RTVSPropertyOp9
 70
     1
102
RTVSPropertyOp10
 70
     1
102
RTVSPropertyOp11
 70
     1
102
RTVSPropertyOp12
 70
     1
102
RTVSPropertyOp13
 70
     1
102
RTVSPropertyOp14
 70
     1
102
RTVSPropertyOp15
 70
     1
102
RTVSPropertyOp16
 70
     1
102
RTVSPropertyOp17
 70
     1
102
RTVSPropertyOp18
 70
     1
102
RTVSPropertyOp19
 70
     1
102
RTVSPropertyOp20
 70
     1
102
RTVSPropertyOp21
 70
     1
102
RTVSPropertyOp22
 70
     1
102
RTVSPropertyOp23
 70
     1
102
RTVSPropertyOp24
 70
     1
102
RTVSPropertyOp25
 70
     1
102
RTVSPropertyOp26
 70
     1
102
RTVSPropertyOp27
 70
     1
102
RTVSPropertyOp28
 70
     1
102
RTVSPropertyOp29
 70
     1
102
RTVSPropertyOp30
 70
     1
102
RTVSPropertyOp31
 70
     1
102
RTVSPropertyOp32
 70
     1
  0
XRECORD
  5
264
102
{ACAD_REACTORS
330
263
102
}
330
263
100
AcDbXrecord
280
     1
102
RTVSPropertyOp0
 70
     1
102
RTVSPropertyOp1
 70
     1
102
RTVSPropertyOp2
 70
     1
102
RTVSPropertyOp3
 70
     1
102
RTVSPropertyOp4
 70
     1
102
RTVSPropertyOp5
 70
     1
102
RTVSPropertyOp6
 70
     1
102
RTVSPropertyOp7
 70
     1
102
RTVSPropertyOp8
 70
     1
102
RTVSPropertyOp9
 70
     1
102
RTVSPropertyOp10
 70
     1
102
RTVSPropertyOp11
 70
     1
102
RTVSPropertyOp12
 70
     1
102
RTVSPropertyOp13
 70
     1
102
RTVSPropertyOp14
 70
     1
102
RTVSPropertyOp15
 70
     1
102
RTVSPropertyOp16
 70
     1
102
RTVSPropertyOp17
 70
     1
102
RTVSPropertyOp18
 70
     1
102
RTVSPropertyOp19
 70
     1
102
RTVSPropertyOp20
 70
     1
102
RTVSPropertyOp21
 70
     1
102
RTVSPropertyOp22
 70
     1
102
RTVSPropertyOp23
 70
     1
102
RTVSPropertyOp24
 70
     1
102
RTVSPropertyOp25
 70
     1
102
RTVSPropertyOp26
 70
     1
102
RTVSPropertyOp27
 70
     1
102
RTVSPropertyOp28
 70
     1
102
RTVSPropertyOp29
 70
     1
102
RTVSPropertyOp30
 70
     1
102
RTVSPropertyOp31
 70
     1
102
RTVSPropertyOp32
 70
     1
  0
XRECORD
  5
248
102
{ACAD_REACTORS
330
247
102
}
330
247
100
AcDbXrecord
280
     1
102
RTVSPropertyOp0
 70
     1
102
RTVSPropertyOp1
 70
     1
102
RTVSPropertyOp2
 70
     1
102
RTVSPropertyOp3
 70
     1
102
RTVSPropertyOp4
 70
     1
102
RTVSPropertyOp5
 70
     1
102
RTVSPropertyOp6
 70
     1
102
RTVSPropertyOp7
 70
     1
102
RTVSPropertyOp8
 70
     1
102
RTVSPropertyOp9
 70
     1
102
RTVSPropertyOp10
 70
     1
102
RTVSPropertyOp11
 70
     1
102
RTVSPropertyOp12
 70
     1
102
RTVSPropertyOp13
 70
     1
102
RTVSPropertyOp14
 70
     1
102
RTVSPropertyOp15
 70
     1
102
RTVSPropertyOp16
 70
     1
102
RTVSPropertyOp17
 70
     1
102
RTVSPropertyOp18
 70
     1
102
RTVSPropertyOp19
 70
     1
102
RTVSPropertyOp20
 70
     1
102
RTVSPropertyOp21
 70
     1
102
RTVSPropertyOp22
 70
     1
102
RTVSPropertyOp23
 70
     1
102
RTVSPropertyOp24
 70
     1
102
RTVSPropertyOp25
 70
     1
102
RTVSPropertyOp26
 70
     1
102
RTVSPropertyOp27
 70
     1
102
RTVSPropertyOp28
 70
     1
102
RTVSPropertyOp29
 70
     1
102
RTVSPropertyOp30
 70
     1
102
RTVSPropertyOp31
 70
     1
102
RTVSPropertyOp32
 70
     1
  0
XRECORD
  5
24A
102
{ACAD_REACTORS
330
249
102
}
330
249
100
AcDbXrecord
280
     1
102
RTVSPropertyOp0
 70
     1
102
RTVSPropertyOp1
 70
     1
102
RTVSPropertyOp2
 70
     1
102
RTVSPropertyOp3
 70
     1
102
RTVSPropertyOp4
 70
     1
102
RTVSPropertyOp5
 70
     1
102
RTVSPropertyOp6
 70
     1
102
RTVSPropertyOp7
 70
     1
102
RTVSPropertyOp8
 70
     1
102
RTVSPropertyOp9
 70
     1
102
RTVSPropertyOp10
 70
     1
102
RTVSPropertyOp11
 70
     1
102
RTVSPropertyOp12
 70
     1
102
RTVSPropertyOp13
 70
     1
102
RTVSPropertyOp14
 70
     1
102
RTVSPropertyOp15
 70
     1
102
RTVSPropertyOp16
 70
     1
102
RTVSPropertyOp17
 70
     1
102
RTVSPropertyOp18
 70
     1
102
RTVSPropertyOp19
 70
     1
102
RTVSPropertyOp20
 70
     1
102
RTVSPropertyOp21
 70
     1
102
RTVSPropertyOp22
 70
     1
102
RTVSPropertyOp23
 70
     1
102
RTVSPropertyOp24
 70
     1
102
RTVSPropertyOp25
 70
     1
102
RTVSPropertyOp26
 70
     1
102
RTVSPropertyOp27
 70
     1
102
RTVSPropertyOp28
 70
     1
102
RTVSPropertyOp29
 70
     1
102
RTVSPropertyOp30
 70
     1
102
RTVSPropertyOp31
 70
     1
102
RTVSPropertyOp32
 70
     1
  0
XRECORD
  5
24C
102
{ACAD_REACTORS
330
24B
102
}
330
24B
100
AcDbXrecord
280
     1
102
RTVSPropertyOp0
 70
     1
102
RTVSPropertyOp1
 70
     1
102
RTVSPropertyOp2
 70
     1
102
RTVSPropertyOp3
 70
     1
102
RTVSPropertyOp4
 70
     1
102
RTVSPropertyOp5
 70
     1
102
RTVSPropertyOp6
 70
     1
102
RTVSPropertyOp7
 70
     1
102
RTVSPropertyOp8
 70
     1
102
RTVSPropertyOp9
 70
     1
102
RTVSPropertyOp10
 70
     1
102
RTVSPropertyOp11
 70
     1
102
RTVSPropertyOp12
 70
     1
102
RTVSPropertyOp13
 70
     1
102
RTVSPropertyOp14
 70
     1
102
RTVSPropertyOp15
 70
     1
102
RTVSPropertyOp16
 70
     1
102
RTVSPropertyOp17
 70
     1
102
RTVSPropertyOp18
 70
     1
102
RTVSPropertyOp19
 70
     1
102
RTVSPropertyOp20
 70
     1
102
RTVSPropertyOp21
 70
     1
102
RTVSPropertyOp22
 70
     1
102
RTVSPropertyOp23
 70
     1
102
RTVSPropertyOp24
 70
     1
102
RTVSPropertyOp25
 70
     1
102
RTVSPropertyOp26
 70
     1
102
RTVSPropertyOp27
 70
     1
102
RTVSPropertyOp28
 70
     1
102
RTVSPropertyOp29
 70
     1
102
RTVSPropertyOp30
 70
     1
102
RTVSPropertyOp31
 70
     1
102
RTVSPropertyOp32
 70
     1
  0
XRECORD
  5
24E
102
{ACAD_REACTORS
330
24D
102
}
330
24D
100
AcDbXrecord
280
     1
102
RTVSPropertyOp0
 70
     1
102
RTVSPropertyOp1
 70
     1
102
RTVSPropertyOp2
 70
     1
102
RTVSPropertyOp3
 70
     1
102
RTVSPropertyOp4
 70
     1
102
RTVSPropertyOp5
 70
     1
102
RTVSPropertyOp6
 70
     1
102
RTVSPropertyOp7
 70
     1
102
RTVSPropertyOp8
 70
     1
102
RTVSPropertyOp9
 70
     1
102
RTVSPropertyOp10
 70
     1
102
RTVSPropertyOp11
 70
     1
102
RTVSPropertyOp12
 70
     1
102
RTVSPropertyOp13
 70
     1
102
RTVSPropertyOp14
 70
     1
102
RTVSPropertyOp15
 70
     1
102
RTVSPropertyOp16
 70
     1
102
RTVSPropertyOp17
 70
     1
102
RTVSPropertyOp18
 70
     1
102
RTVSPropertyOp19
 70
     1
102
RTVSPropertyOp20
 70
     1
102
RTVSPropertyOp21
 70
     1
102
RTVSPropertyOp22
 70
     1
102
RTVSPropertyOp23
 70
     1
102
RTVSPropertyOp24
 70
     1
102
RTVSPropertyOp25
 70
     1
102
RTVSPropertyOp26
 70
     1
102
RTVSPropertyOp27
 70
     1
102
RTVSPropertyOp28
 70
     1
102
RTVSPropertyOp29
 70
     1
102
RTVSPropertyOp30
 70
     1
102
RTVSPropertyOp31
 70
     1
102
RTVSPropertyOp32
 70
     1
  0
XRECORD
  5
262
102
{ACAD_REACTORS
330
261
102
}
330
261
100
AcDbXrecord
280
     1
102
RTVSPropertyOp0
 70
     1
102
RTVSPropertyOp1
 70
     1
102
RTVSPropertyOp2
 70
     1
102
RTVSPropertyOp3
 70
     1
102
RTVSPropertyOp4
 70
     1
102
RTVSPropertyOp5
 70
     1
102
RTVSPropertyOp6
 70
     1
102
RTVSPropertyOp7
 70
     1
102
RTVSPropertyOp8
 70
     1
102
RTVSPropertyOp9
 70
     1
102
RTVSPropertyOp10
 70
     1
102
RTVSPropertyOp11
 70
     1
102
RTVSPropertyOp12
 70
     1
102
RTVSPropertyOp13
 70
     1
102
RTVSPropertyOp14
 70
     1
102
RTVSPropertyOp15
 70
     1
102
RTVSPropertyOp16
 70
     1
102
RTVSPropertyOp17
 70
     1
102
RTVSPropertyOp18
 70
     1
102
RTVSPropertyOp19
 70
     1
102
RTVSPropertyOp20
 70
     1
102
RTVSPropertyOp21
 70
     1
102
RTVSPropertyOp22
 70
     1
102
RTVSPropertyOp23
 70
     1
102
RTVSPropertyOp24
 70
     1
102
RTVSPropertyOp25
 70
     1
102
RTVSPropertyOp26
 70
     1
102
RTVSPropertyOp27
 70
     1
102
RTVSPropertyOp28
 70
     1
102
RTVSPropertyOp29
 70
     1
102
RTVSPropertyOp30
 70
     1
102
RTVSPropertyOp31
 70
     1
102
RTVSPropertyOp32
 70
     1
  0
XRECORD
  5
258
102
{ACAD_REACTORS
330
257
102
}
330
257
100
AcDbXrecord
280
     1
102
RTVSPropertyOp0
 70
     1
102
RTVSPropertyOp1
 70
     1
102
RTVSPropertyOp2
 70
     1
102
RTVSPropertyOp3
 70
     1
102
RTVSPropertyOp4
 70
     1
102
RTVSPropertyOp5
 70
     1
102
RTVSPropertyOp6
 70
     1
102
RTVSPropertyOp7
 70
     1
102
RTVSPropertyOp8
 70
     1
102
RTVSPropertyOp9
 70
     1
102
RTVSPropertyOp10
 70
     1
102
RTVSPropertyOp11
 70
     1
102
RTVSPropertyOp12
 70
     1
102
RTVSPropertyOp13
 70
     1
102
RTVSPropertyOp14
 70
     1
102
RTVSPropertyOp15
 70
     1
102
RTVSPropertyOp16
 70
     1
102
RTVSPropertyOp17
 70
     1
102
RTVSPropertyOp18
 70
     1
102
RTVSPropertyOp19
 70
     1
102
RTVSPropertyOp20
 70
     1
102
RTVSPropertyOp21
 70
     1
102
RTVSPropertyOp22
 70
     1
102
RTVSPropertyOp23
 70
     1
102
RTVSPropertyOp24
 70
     1
102
RTVSPropertyOp25
 70
     1
102
RTVSPropertyOp26
 70
     1
102
RTVSPropertyOp27
 70
     1
102
RTVSPropertyOp28
 70
     1
102
RTVSPropertyOp29
 70
     1
102
RTVSPropertyOp30
 70
     1
102
RTVSPropertyOp31
 70
     1
102
RTVSPropertyOp32
 70
     1
  0
XRECORD
  5
260
102
{ACAD_REACTORS
330
25F
102
}
330
25F
100
AcDbXrecord
280
     1
102
RTVSPropertyOp0
 70
     1
102
RTVSPropertyOp1
 70
     1
102
RTVSPropertyOp2
 70
     1
102
RTVSPropertyOp3
 70
     1
102
RTVSPropertyOp4
 70
     1
102
RTVSPropertyOp5
 70
     1
102
RTVSPropertyOp6
 70
     1
102
RTVSPropertyOp7
 70
     1
102
RTVSPropertyOp8
 70
     1
102
RTVSPropertyOp9
 70
     1
102
RTVSPropertyOp10
 70
     1
102
RTVSPropertyOp11
 70
     1
102
RTVSPropertyOp12
 70
     1
102
RTVSPropertyOp13
 70
     1
102
RTVSPropertyOp14
 70
     1
102
RTVSPropertyOp15
 70
     1
102
RTVSPropertyOp16
 70
     1
102
RTVSPropertyOp17
 70
     1
102
RTVSPropertyOp18
 70
     1
102
RTVSPropertyOp19
 70
     1
102
RTVSPropertyOp20
 70
     1
102
RTVSPropertyOp21
 70
     1
102
RTVSPropertyOp22
 70
     1
102
RTVSPropertyOp23
 70
     1
102
RTVSPropertyOp24
 70
     1
102
RTVSPropertyOp25
 70
     1
102
RTVSPropertyOp26
 70
     1
102
RTVSPropertyOp27
 70
     1
102
RTVSPropertyOp28
 70
     1
102
RTVSPropertyOp29
 70
     1
102
RTVSPropertyOp30
 70
     1
102
RTVSPropertyOp31
 70
     1
102
RTVSPropertyOp32
 70
     1
  0
ENDSEC
  0
EOF
