  0
SECTION
  2
HEADER
  9
$ACADVER
  1
AC1015
  9
$ACADMAINTVER
 70
     6
  9
$DWGCODEPAGE
  3
ANSI_1252
  9
$INSBASE
 10
0.0
 20
0.0
 30
0.0
  9
$EXTMIN
 10
-229.7384263395817
 20
-7.98234762147682
 30
0.0
  9
$EXTMAX
 10
67.26157366041645
 20
202.0176523785232
 30
0.0
  9
$LIMMIN
 10
0.0
 20
0.0
  9
$LIMMAX
 10
12.0
 20
9.0
  9
$ORTHOMODE
 70
     0
  9
$REGENMODE
 70
     1
  9
$FILLMODE
 70
     1
  9
$QTEXTMODE
 70
     0
  9
$MIRRTEXT
 70
     1
  9
$LTSCALE
 40
1.0
  9
$ATTMODE
 70
     1
  9
$TEXTSIZE
 40
0.2
  9
$TRACEWID
 40
0.05
  9
$TEXTSTYLE
  7
Standard
  9
$CLAYER
  8
0
  9
$CELTYPE
  6
ByLayer
  9
$CECOLOR
 62
   256
  9
$CELTSCALE
 40
1.0
  9
$DISPSILH
 70
     0
  9
$DIMSCALE
 40
1.0
  9
$DIMASZ
 40
0.18
  9
$DIMEXO
 40
0.0625
  9
$DIMDLI
 40
0.38
  9
$DIMRND
 40
0.0
  9
$DIMDLE
 40
0.0
  9
$DIMEXE
 40
0.18
  9
$DIMTP
 40
0.0
  9
$DIMTM
 40
0.0
  9
$DIMTXT
 40
0.18
  9
$DIMCEN
 40
0.09
  9
$DIMTSZ
 40
0.0
  9
$DIMTOL
 70
     0
  9
$DIMLIM
 70
     0
  9
$DIMTIH
 70
     1
  9
$DIMTOH
 70
     1
  9
$DIMSE1
 70
     0
  9
$DIMSE2
 70
     0
  9
$DIMTAD
 70
     0
  9
$DIMZIN
 70
     0
  9
$DIMBLK
  1

  9
$DIMASO
 70
     1
  9
$DIMSHO
 70
     1
  9
$DIMPOST
  1

  9
$DIMAPOST
  1

  9
$DIMALT
 70
     0
  9
$DIMALTD
 70
     2
  9
$DIMALTF
 40
25.4
  9
$DIMLFAC
 40
1.0
  9
$DIMTOFL
 70
     0
  9
$DIMTVP
 40
0.0
  9
$DIMTIX
 70
     0
  9
$DIMSOXD
 70
     0
  9
$DIMSAH
 70
     0
  9
$DIMBLK1
  1

  9
$DIMBLK2
  1

  9
$DIMSTYLE
  2
Standard
  9
$DIMCLRD
 70
     0
  9
$DIMCLRE
 70
     0
  9
$DIMCLRT
 70
     0
  9
$DIMTFAC
 40
1.0
  9
$DIMGAP
 40
0.09
  9
$DIMJUST
 70
     0
  9
$DIMSD1
 70
     0
  9
$DIMSD2
 70
     0
  9
$DIMTOLJ
 70
     1
  9
$DIMTZIN
 70
     0
  9
$DIMALTZ
 70
     0
  9
$DIMALTTZ
 70
     0
  9
$DIMUPT
 70
     0
  9
$DIMDEC
 70
     4
  9
$DIMTDEC
 70
     4
  9
$DIMALTU
 70
     2
  9
$DIMALTTD
 70
     2
  9
$DIMTXSTY
  7
Standard
  9
$DIMAUNIT
 70
     0
  9
$DIMADEC
 70
     0
  9
$DIMALTRND
 40
0.0
  9
$DIMAZIN
 70
     0
  9
$DIMDSEP
 70
    46
  9
$DIMATFIT
 70
     3
  9
$DIMFRAC
 70
     0
  9
$DIMLDRBLK
  1

  9
$DIMLUNIT
 70
     2
  9
$DIMLWD
 70
    -2
  9
$DIMLWE
 70
    -2
  9
$DIMTMOVE
 70
     0
  9
$LUNITS
 70
     2
  9
$LUPREC
 70
     4
  9
$SKETCHINC
 40
0.1
  9
$FILLETRAD
 40
0.5
  9
$AUNITS
 70
     0
  9
$AUPREC
 70
     0
  9
$MENU
  1
.
  9
$ELEVATION
 40
0.0
  9
$PELEVATION
 40
0.0
  9
$THICKNESS
 40
0.0
  9
$LIMCHECK
 70
     0
  9
$CHAMFERA
 40
0.5
  9
$CHAMFERB
 40
0.5
  9
$CHAMFERC
 40
1.0
  9
$CHAMFERD
 40
0.0
  9
$SKPOLY
 70
     0
  9
$TDCREATE
 40
2457261.45451941
  9
$TDUCREATE
 40
2457261.371186076
  9
$TDUPDATE
 40
2457261.454520405
  9
$TDUUPDATE
 40
2457261.371187072
  9
$TDINDWG
 40
0.0000000116
  9
$TDUSRTIMER
 40
0.0000000116
  9
$USRTIMER
 70
     1
  9
$ANGBASE
 50
0.0
  9
$ANGDIR
 70
     0
  9
$PDMODE
 70
     0
  9
$PDSIZE
 40
0.0
  9
$PLINEWID
 40
0.0
  9
$SPLFRAME
 70
     0
  9
$SPLINETYPE
 70
     6
  9
$SPLINESEGS
 70
     8
  9
$HANDSEED
  5
362
  9
$SURFTAB1
 70
     6
  9
$SURFTAB2
 70
     6
  9
$SURFTYPE
 70
     6
  9
$SURFU
 70
     6
  9
$SURFV
 70
     6
  9
$UCSBASE
  2

  9
$UCSNAME
  2

  9
$UCSORG
 10
0.0
 20
0.0
 30
0.0
  9
$UCSXDIR
 10
1.0
 20
0.0
 30
0.0
  9
$UCSYDIR
 10
0.0
 20
1.0
 30
0.0
  9
$UCSORTHOREF
  2

  9
$UCSORTHOVIEW
 70
     0
  9
$UCSORGTOP
 10
0.0
 20
0.0
 30
0.0
  9
$UCSORGBOTTOM
 10
0.0
 20
0.0
 30
0.0
  9
$UCSORGLEFT
 10
0.0
 20
0.0
 30
0.0
  9
$UCSORGRIGHT
 10
0.0
 20
0.0
 30
0.0
  9
$UCSORGFRONT
 10
0.0
 20
0.0
 30
0.0
  9
$UCSORGBACK
 10
0.0
 20
0.0
 30
0.0
  9
$PUCSBASE
  2

  9
$PUCSNAME
  2

  9
$PUCSORG
 10
0.0
 20
0.0
 30
0.0
  9
$PUCSXDIR
 10
1.0
 20
0.0
 30
0.0
  9
$PUCSYDIR
 10
0.0
 20
1.0
 30
0.0
  9
$PUCSORTHOREF
  2

  9
$PUCSORTHOVIEW
 70
     0
  9
$PUCSORGTOP
 10
0.0
 20
0.0
 30
0.0
  9
$PUCSORGBOTTOM
 10
0.0
 20
0.0
 30
0.0
  9
$PUCSORGLEFT
 10
0.0
 20
0.0
 30
0.0
  9
$PUCSORGRIGHT
 10
0.0
 20
0.0
 30
0.0
  9
$PUCSORGFRONT
 10
0.0
 20
0.0
 30
0.0
  9
$PUCSORGBACK
 10
0.0
 20
0.0
 30
0.0
  9
$USERI1
 70
     0
  9
$USERI2
 70
     0
  9
$USERI3
 70
     0
  9
$USERI4
 70
     0
  9
$USERI5
 70
     0
  9
$USERR1
 40
18.1
  9
$USERR2
 40
0.0
  9
$USERR3
 40
0.0
  9
$USERR4
 40
0.0
  9
$USERR5
 40
0.0
  9
$WORLDVIEW
 70
     1
  9
$SHADEDGE
 70
     3
  9
$SHADEDIF
 70
    70
  9
$TILEMODE
 70
     1
  9
$MAXACTVP
 70
    64
  9
$PINSBASE
 10
0.0
 20
0.0
 30
0.0
  9
$PLIMCHECK
 70
     0
  9
$PEXTMIN
 10
1.00000000000000E+20
 20
1.00000000000000E+20
 30
1.00000000000000E+20
  9
$PEXTMAX
 10
-1.00000000000000E+20
 20
-1.00000000000000E+20
 30
-1.00000000000000E+20
  9
$PLIMMIN
 10
0.0
 20
0.0
  9
$PLIMMAX
 10
12.0
 20
9.0
  9
$UNITMODE
 70
     0
  9
$VISRETAIN
 70
     1
  9
$PLINEGEN
 70
     0
  9
$PSLTSCALE
 70
     1
  9
$TREEDEPTH
 70
  3020
  9
$CMLSTYLE
  2
Standard
  9
$CMLJUST
 70
     0
  9
$CMLSCALE
 40
1.0
  9
$PROXYGRAPHICS
 70
     1
  9
$MEASUREMENT
 70
     1
  9
$CELWEIGHT
370
    -1
  9
$ENDCAPS
280
     0
  9
$JOINSTYLE
280
     0
  9
$LWDISPLAY
290
     0
  9
$INSUNITS
 70
     4
  9
$HYPERLINKBASE
  1

  9
$STYLESHEET
  1

  9
$XEDIT
290
     1
  9
$CEPSNTYPE
380
     0
  9
$PSTYLEMODE
290
     1
  9
$FINGERPRINTGUID
  2
{9774A169-F53C-4314-BA35-B02931816848}
  9
$VERSIONGUID
  2
{FAEB1C32-E019-11D5-929B-00C0DF256EC4}
  9
$EXTNAMES
290
     1
  9
$PSVPSCALE
 40
0.0
  9
$OLESTARTUP
290
     0
  0
ENDSEC
  0
SECTION
  2
CLASSES
  0
CLASS
  1
ACDBDICTIONARYWDFLT
  2
AcDbDictionaryWithDefault
  3
ObjectDBX Classes
 90
        0
280
     0
281
     0
  0
CLASS
  1
VISUALSTYLE
  2
AcDbVisualStyle
  3
ObjectDBX Classes
 90
     4095
280
     0
281
     0
  0
CLASS
  1
MATERIAL
  2
AcDbMaterial
  3
ObjectDBX Classes
 90
     1153
280
     0
281
     0
  0
CLASS
  1
DICTIONARYVAR
  2
AcDbDictionaryVar
  3
ObjectDBX Classes
 90
        0
280
     0
281
     0
  0
CLASS
  1
ACDBPLACEHOLDER
  2
AcDbPlaceHolder
  3
ObjectDBX Classes
 90
        0
280
     0
281
     0
  0
CLASS
  1
LAYOUT
  2
AcDbLayout
  3
ObjectDBX Classes
 90
        0
280
     0
281
     0
  0
ENDSEC
  0
SECTION
  2
TABLES
  0
TABLE
  2
VPORT
  5
8
330
0
100
AcDbSymbolTable
 70
     1
  0
VPORT
  5
29
330
8
100
AcDbSymbolTableRecord
100
AcDbViewportTableRecord
  2
*Active
 70
     0
 10
0.0
 20
0.0
 11
1.0
 21
1.0
 12
-81.23842633958263
 22
97.01765237852318
 13
0.0
 23
0.0
 14
0.5
 24
0.5
 15
0.5
 25
0.5
 16
0.0
 26
0.0
 36
1.0
 17
0.0
 27
0.0
 37
0.0
 40
231.0000000000001
 41
1.60267857142857
 42
50.0
 43
0.0
 44
0.0
 50
0.0
 51
0.0
 71
     0
 72
   100
 73
     1
 74
     3
 75
     0
 76
     0
 77
     0
 78
     0
281
     0
 65
     1
110
0.0
120
0.0
130
0.0
111
1.0
121
0.0
131
0.0
112
0.0
122
1.0
132
0.0
 79
     0
146
0.0
  0
ENDTAB
  0
TABLE
  2
LTYPE
  5
5
330
0
100
AcDbSymbolTable
 70
     8
  0
LTYPE
  5
14
330
5
100
AcDbSymbolTableRecord
100
AcDbLinetypeTableRecord
  2
ByBlock
 70
     0
  3

 72
    65
 73
     0
 40
0.0
  0
LTYPE
  5
15
330
5
100
AcDbSymbolTableRecord
100
AcDbLinetypeTableRecord
  2
ByLayer
 70
     0
  3

 72
    65
 73
     0
 40
0.0
  0
LTYPE
  5
16
330
5
100
AcDbSymbolTableRecord
100
AcDbLinetypeTableRecord
  2
Continuous
 70
     0
  3
Solid line
 72
    65
 73
     0
 40
0.0
  0
LTYPE
  5
3F
330
5
100
AcDbSymbolTableRecord
100
AcDbLinetypeTableRecord
  2
DASHED
 70
     0
  3
Dashed
 72
    65
 73
     2
 40
15.0
 49
7.0
 74
     0
 49
-8.0
 74
     0
  0
LTYPE
  5
40
330
5
100
AcDbSymbolTableRecord
100
AcDbLinetypeTableRecord
  2
DOTTED
 70
     0
  3
Dotted
 72
    65
 73
     2
 40
1.0
 49
0.0
 74
     0
 49
-1.0
 74
     0
  0
LTYPE
  5
41
330
5
100
AcDbSymbolTableRecord
100
AcDbLinetypeTableRecord
  2
DOT_CENTER
 70
     0
  3
Dot_Center
 72
    65
 73
     4
 40
14.0
 49
12.0
 74
     0
 49
-1.0
 74
     0
 49
0.0
 74
     0
 49
-1.0
 74
     0
  0
LTYPE
  5
42
330
5
100
AcDbSymbolTableRecord
100
AcDbLinetypeTableRecord
  2
LONG_DASHED
 70
     0
  3
Long_Dashed
 72
    65
 73
     2
 40
15.0
 49
10.0
 74
     0
 49
-5.0
 74
     0
  0
LTYPE
  5
43
330
5
100
AcDbSymbolTableRecord
100
AcDbLinetypeTableRecord
  2
DASH_CENTER
 70
     0
  3
Dash_Center
 72
    65
 73
     4
 40
14.0
 49
11.0
 74
     0
 49
-1.0
 74
     0
 49
1.0
 74
     0
 49
-1.0
 74
     0
  0
LTYPE
  5
44
330
5
100
AcDbSymbolTableRecord
100
AcDbLinetypeTableRecord
  2
PHANTOM
 70
     0
  3
Phantom
 72
    65
 73
     6
 40
13.0
 49
10.0
 74
     0
 49
-1.0
 74
     0
 49
0.0
 74
     0
 49
-1.0
 74
     0
 49
0.0
 74
     0
 49
-1.0
 74
     0
  0
LTYPE
  5
45
330
5
100
AcDbSymbolTableRecord
100
AcDbLinetypeTableRecord
  2
CENTER_DASH_DASH
 70
     0
  3
Center_Dash_Dash
 72
    65
 73
     6
 40
14.0
 49
9.0
 74
     0
 49
-1.0
 74
     0
 49
1.0
 74
     0
 49
-1.0
 74
     0
 49
1.0
 74
     0
 49
-1.0
 74
     0
  0
ENDTAB
  0
TABLE
  2
LAYER
  5
2
330
0
100
AcDbSymbolTable
 70
     2
  0
LAYER
  5
10
330
2
100
AcDbSymbolTableRecord
100
AcDbLayerTableRecord
  2
0
 70
     0
 62
     7
  6
Continuous
370
    -3
390
F
  0
LAYER
  5
46
330
2
100
AcDbSymbolTableRecord
100
AcDbLayerTableRecord
  2
1
 70
     0
 62
     7
  6
Continuous
370
    -3
390
F
  0
ENDTAB
  0
TABLE
  2
STYLE
  5
3
330
0
100
AcDbSymbolTable
 70
     9
  0
STYLE
  5
11
330
3
100
AcDbSymbolTableRecord
100
AcDbTextStyleTableRecord
  2
Standard
 70
     0
 40
0.0
 41
1.0
 50
0.0
 71
     0
 42
0.2
  3
txt
  4

  0
STYLE
  5
A7
330
3
100
AcDbSymbolTableRecord
100
AcDbTextStyleTableRecord
  2
CONVERTER_11
 70
     0
 40
0.0
 41
0.9
 50
0.0
 71
     0
 42
0.2
  3
txt.shx
  4

  0
STYLE
  5
2B5
330
3
100
AcDbSymbolTableRecord
100
AcDbTextStyleTableRecord
  2
CONVERTER_12
 70
     0
 40
0.0
 41
0.63
 50
0.0
 71
     0
 42
0.2
  3
txt.shx
  4

  0
STYLE
  5
2B8
330
3
100
AcDbSymbolTableRecord
100
AcDbTextStyleTableRecord
  2
CONVERTER_13
 70
     0
 40
0.0
 41
0.72
 50
0.0
 71
     0
 42
0.2
  3
txt.shx
  4

  0
STYLE
  5
2BC
330
3
100
AcDbSymbolTableRecord
100
AcDbTextStyleTableRecord
  2
CONVERTER_14
 70
     0
 40
0.0
 41
0.765
 50
0.0
 71
     0
 42
0.2
  3
txt.shx
  4

  0
STYLE
  5
2F4
330
3
100
AcDbSymbolTableRecord
100
AcDbTextStyleTableRecord
  2
CONVERTER_15
 70
     0
 40
0.0
 41
0.855
 50
0.0
 71
     0
 42
0.2
  3
txt.shx
  4

  0
STYLE
  5
310
330
3
100
AcDbSymbolTableRecord
100
AcDbTextStyleTableRecord
  2
CONVERTER_16
 70
     0
 40
0.0
 41
0.54
 50
0.0
 71
     0
 42
0.2
  3
txt.shx
  4

  0
STYLE
  5
312
330
3
100
AcDbSymbolTableRecord
100
AcDbTextStyleTableRecord
  2
CONVERTER_17
 70
     0
 40
0.0
 41
0.81
 50
0.0
 71
     0
 42
0.2
  3
txt.shx
  4

  0
STYLE
  5
319
330
3
100
AcDbSymbolTableRecord
100
AcDbTextStyleTableRecord
  2
CONVERTER_18
 70
     0
 40
0.0
 41
0.45
 50
0.0
 71
     0
 42
0.2
  3
txt.shx
  4

  0
ENDTAB
  0
TABLE
  2
VIEW
  5
6
330
0
100
AcDbSymbolTable
 70
     0
  0
ENDTAB
  0
TABLE
  2
UCS
  5
7
330
0
100
AcDbSymbolTable
 70
     0
  0
ENDTAB
  0
TABLE
  2
APPID
  5
9
330
0
100
AcDbSymbolTable
 70
     1
  0
APPID
  5
12
330
9
100
AcDbSymbolTableRecord
100
AcDbRegAppTableRecord
  2
ACAD
 70
     0
  0
ENDTAB
  0
TABLE
  2
DIMSTYLE
  5
A
330
0
100
AcDbSymbolTable
 70
     4
100
AcDbDimStyleTable
  0
DIMSTYLE
105
27
330
A
100
AcDbSymbolTableRecord
100
AcDbDimStyleTableRecord
  2
Standard
 70
     0
178
     0
340
11
  0
DIMSTYLE
105
D8
102
{ACAD_REACTORS
330
D9
102
}
330
A
100
AcDbSymbolTableRecord
100
AcDbDimStyleTableRecord
  2
ME10_DIM_10
 70
     0
  3
ø<>
 41
0.7
 42
0.0
 44
0.4
 73
     0
 74
     0
 77
     1
 78
     8
140
0.7
147
0.4
172
     1
173
     1
174
     1
175
     1
176
     2
177
     2
178
     3
340
A7
  0
DIMSTYLE
105
FB
102
{ACAD_REACTORS
330
FC
102
}
330
A
100
AcDbSymbolTableRecord
100
AcDbDimStyleTableRecord
  2
ME10_DIM_11
 70
     0
 41
0.7
 42
0.0
 44
0.4
 73
     0
 74
     0
 77
     1
 78
     8
140
0.7
147
0.4
172
     1
173
     1
174
     1
175
     1
176
     2
177
     2
178
     3
340
A7
  0
DIMSTYLE
105
106
102
{ACAD_REACTORS
330
107
102
}
330
A
100
AcDbSymbolTableRecord
100
AcDbDimStyleTableRecord
  2
ME10_DIM_12
 70
     0
  3
 {\Fgdt;n}<>
 41
0.7
 42
0.0
 44
0.4
 73
     0
 74
     0
 77
     1
 78
     8
140
0.7
147
0.4
172
     1
173
     1
174
     1
175
     1
176
     2
177
     2
178
     3
340
A7
  0
ENDTAB
  0
TABLE
  2
BLOCK_RECORD
  5
1
330
0
100
AcDbSymbolTable
 70
    19
  0
BLOCK_RECORD
  5
1F
330
1
100
AcDbSymbolTableRecord
100
AcDbBlockTableRecord
  2
*Model_Space
340
22
  0
BLOCK_RECORD
  5
1B
330
1
100
AcDbSymbolTableRecord
100
AcDbBlockTableRecord
  2
*Paper_Space
340
1E
  0
BLOCK_RECORD
  5
23
330
1
100
AcDbSymbolTableRecord
100
AcDbBlockTableRecord
  2
*Paper_Space0
340
26
  0
BLOCK_RECORD
  5
47
330
1
100
AcDbSymbolTableRecord
100
AcDbBlockTableRecord
  2
1686229_HC_D_7_DS_IP65-select__1
340
0
102
{BLKREFS
331
4B
102
}
  0
BLOCK_RECORD
  5
4A
330
1
100
AcDbSymbolTableRecord
100
AcDbBlockTableRecord
  2
Allg1
340
0
102
{BLKREFS
331
7C
102
}
  0
BLOCK_RECORD
  5
4E
330
1
100
AcDbSymbolTableRecord
100
AcDbBlockTableRecord
  2
1686229_HC_D_7_DS_IP65-select__2
340
0
102
{BLKREFS
331
52
102
}
  0
BLOCK_RECORD
  5
51
330
1
100
AcDbSymbolTableRecord
100
AcDbBlockTableRecord
  2
SA_Links1
340
0
102
{BLKREFS
331
7D
102
}
  0
BLOCK_RECORD
  5
55
330
1
100
AcDbSymbolTableRecord
100
AcDbBlockTableRecord
  2
1686229_HC_D_7_DS_IP65-select__3
340
0
102
{BLKREFS
331
59
102
}
  0
BLOCK_RECORD
  5
58
330
1
100
AcDbSymbolTableRecord
100
AcDbBlockTableRecord
  2
Drfsicht1
340
0
102
{BLKREFS
331
7E
102
}
  0
BLOCK_RECORD
  5
5C
330
1
100
AcDbSymbolTableRecord
100
AcDbBlockTableRecord
  2
1686229_HC_D_7_DS_IP65-select__4
340
0
102
{BLKREFS
331
60
102
}
  0
BLOCK_RECORD
  5
5F
330
1
100
AcDbSymbolTableRecord
100
AcDbBlockTableRecord
  2
Vordans1
340
0
102
{BLKREFS
331
7F
102
}
  0
BLOCK_RECORD
  5
63
330
1
100
AcDbSymbolTableRecord
100
AcDbBlockTableRecord
  2
1686229_HC_D_7_DS_IP65-select__5
340
0
102
{BLKREFS
331
67
102
}
  0
BLOCK_RECORD
  5
66
330
1
100
AcDbSymbolTableRecord
100
AcDbBlockTableRecord
  2
SA_Rechts1
340
0
102
{BLKREFS
331
80
102
}
  0
BLOCK_RECORD
  5
6A
330
1
100
AcDbSymbolTableRecord
100
AcDbBlockTableRecord
  2
1686229_HC_D_7_DS_IP65-select__6
340
0
102
{BLKREFS
331
6E
102
}
  0
BLOCK_RECORD
  5
6D
330
1
100
AcDbSymbolTableRecord
100
AcDbBlockTableRecord
  2
Rckans1
340
0
102
{BLKREFS
331
81
102
}
  0
BLOCK_RECORD
  5
71
330
1
100
AcDbSymbolTableRecord
100
AcDbBlockTableRecord
  2
_punkt
340
0
102
{BLKREFS
331
78
102
}
  0
BLOCK_RECORD
  5
74
330
1
100
AcDbSymbolTableRecord
100
AcDbBlockTableRecord
  2
_rahmen
340
0
102
{BLKREFS
331
79
102
}
  0
BLOCK_RECORD
  5
77
330
1
100
AcDbSymbolTableRecord
100
AcDbBlockTableRecord
  2
A4I
340
0
102
{BLKREFS
331
82
102
}
  0
BLOCK_RECORD
  5
CF
330
1
100
AcDbSymbolTableRecord
100
AcDbBlockTableRecord
  2
*D16
340
0
  0
BLOCK_RECORD
  5
F2
330
1
100
AcDbSymbolTableRecord
100
AcDbBlockTableRecord
  2
*D17
340
0
  0
BLOCK_RECORD
  5
FD
330
1
100
AcDbSymbolTableRecord
100
AcDbBlockTableRecord
  2
*D18
340
0
  0
ENDTAB
  0
ENDSEC
  0
SECTION
  2
BLOCKS
  0
BLOCK
  5
20
330
1F
100
AcDbEntity
  8
0
100
AcDbBlockBegin
  2
*Model_Space
 70
     0
 10
0.0
 20
0.0
 30
0.0
  3
*Model_Space
  1

  0
ENDBLK
  5
21
330
1F
100
AcDbEntity
  8
0
100
AcDbBlockEnd
  0
BLOCK
  5
1C
330
1B
100
AcDbEntity
 67
     1
  8
0
100
AcDbBlockBegin
  2
*Paper_Space
 70
     0
 10
0.0
 20
0.0
 30
0.0
  3
*Paper_Space
  1

  0
ENDBLK
  5
1D
330
1B
100
AcDbEntity
 67
     1
  8
0
100
AcDbBlockEnd
  0
BLOCK
  5
24
330
23
100
AcDbEntity
  8
0
100
AcDbBlockBegin
  2
*Paper_Space0
 70
     0
 10
0.0
 20
0.0
 30
0.0
  3
*Paper_Space0
  1

  0
ENDBLK
  5
25
330
23
100
AcDbEntity
  8
0
100
AcDbBlockEnd
  0
BLOCK
  5
48
330
47
100
AcDbEntity
  8
0
100
AcDbBlockBegin
  2
1686229_HC_D_7_DS_IP65-select__1
 70
     0
 10
-0.84495098989423
 20
10.4248234517656
 30
0.0
  3
1686229_HC_D_7_DS_IP65-select__1
  1

  0
LINE
  5
83
330
47
100
AcDbEntity
  8
0
  6
Continuous
 62
     7
100
AcDbLine
 10
0.77525512857416
 20
14.10310889134288
 30
0.0
 11
-0.24536559758556
 21
14.82479672782992
 31
0.0
  0
LINE
  5
84
330
47
100
AcDbEntity
  8
0
  6
Continuous
 62
     7
100
AcDbLine
 10
3.2247448713573
 20
14.10310889134295
 30
0.0
 11
4.24536559751697
 21
14.82479672783003
 31
0.0
  0
LINE
  5
85
330
47
100
AcDbEntity
  8
0
  6
Continuous
 62
     7
100
AcDbLine
 10
0.32618200906384
 20
15.02686932204633
 30
0.0
 11
-0.28619042663193
 21
15.45988202393856
 31
0.0
  0
LINE
  5
86
330
47
100
AcDbEntity
  8
0
  6
Continuous
 62
     7
100
AcDbLine
 10
-0.80000000003429
 20
16.26817240080406
 30
0.0
 11
-0.80000000003429
 21
16.39807621137167
 31
0.0
  0
LINE
  5
87
330
47
100
AcDbEntity
  8
0
  6
Continuous
 62
     7
100
AcDbLine
 10
3.03923048450701
 20
17.568172400804
 30
0.0
 11
3.03923048450701
 21
17.69807621137166
 31
0.0
  0
LINE
  5
88
330
47
100
AcDbEntity
  8
0
  6
Continuous
 62
     7
100
AcDbLine
 10
0.26794919239681
 20
15.29807621137167
 30
0.0
 11
0.26794919239681
 21
15.16817240080402
 31
0.0
  0
LINE
  5
89
330
47
100
AcDbEntity
  8
0
  6
Continuous
 62
     7
100
AcDbLine
 10
0.96076951542436
 20
14.96817240080401
 30
0.0
 11
0.96076951542436
 21
15.09807621137168
 31
0.0
  0
LINE
  5
8A
330
47
100
AcDbEntity
  8
0
  6
Continuous
 62
     7
100
AcDbLine
 10
0.96076951542436
 20
15.09807621137168
 30
0.0
 11
3.73205080753457
 21
17.49807621137167
 31
0.0
  0
LINE
  5
8B
330
47
100
AcDbEntity
  8
0
  6
Continuous
 62
     7
100
AcDbLine
 10
0.54651034485852
 20
14.93309946625167
 30
0.0
 11
2.76066834090748
 21
16.85061653583272
 31
0.0
  0
LINE
  5
8C
330
47
100
AcDbEntity
  8
0
  6
Continuous
 62
     7
100
AcDbLine
 10
3.6738179908675
 20
15.02686932204625
 30
0.0
 11
4.28619042656329
 21
15.45988202393845
 31
0.0
  0
LINE
  5
8D
330
47
100
AcDbEntity
  8
0
  6
Continuous
 62
     7
100
AcDbLine
 10
4.79999999996569
 20
16.26817240080396
 30
0.0
 11
4.79999999996569
 21
16.39807621137167
 31
0.0
  0
LINE
  5
8E
330
47
100
AcDbEntity
  8
0
  6
Continuous
 62
     7
100
AcDbLine
 10
3.03923048450701
 20
17.69807621137166
 30
0.0
 11
0.26794919239681
 21
15.29807621137167
 31
0.0
  0
LINE
  5
8F
330
47
100
AcDbEntity
  8
0
  6
Continuous
 62
     7
100
AcDbLine
 10
0.49999999996575
 20
11.20192378866503
 30
0.0
 11
0.49999999996575
 21
14.29774365933825
 31
0.0
  0
LINE
  5
90
330
47
100
AcDbEntity
  8
0
  6
Continuous
 62
     7
100
AcDbLine
 10
3.49999999996568
 20
11.20192378866503
 30
0.0
 11
3.49999999996568
 21
14.29774365933832
 31
0.0
  0
ARC
  5
91
330
47
100
AcDbEntity
  8
0
  6
Continuous
 62
     7
100
AcDbCircle
 10
3.2317726807153
 20
16.2632341453331
 30
0.0
 40
1.759679745028458
100
AcDbArc
 50
305.1703853463413
 51
310.7994054749196
  0
SPLINE
  5
92
330
47
100
AcDbEntity
  8
0
  6
Continuous
 62
     7
100
AcDbSpline
210
0.0
220
0.0
230
1.0
 70
     8
 71
     3
 72
     9
 73
     5
 74
     3
 42
0.000000001
 43
0.0000000001
 44
0.00000001
 40
0.0
 40
0.0
 40
0.0
 40
0.0
 40
0.4440010824201175
 40
0.985992038940236
 40
0.985992038940236
 40
0.985992038940236
 40
0.985992038940236
 10
-0.8000000000342862
 20
16.26817240080406
 30
0.0
 10
-0.7697819857919437
 20
16.11861272253432
 30
0.0
 10
-0.7026769030578237
 20
15.78648594480786
 30
0.0
 10
-0.4339223796189073
 20
15.57573171979552
 30
0.0
 10
-0.2861904266319257
 20
15.45988202393856
 30
0.0
 11
-0.8000000000342862
 21
16.26817240080406
 31
0.0
 11
-0.6684558413797785
 21
15.84410507403412
 31
0.0
 11
-0.2861904266319257
 21
15.45988202393856
 31
0.0
  0
SPLINE
  5
93
330
47
100
AcDbEntity
  8
0
  6
Continuous
 62
     7
100
AcDbSpline
210
0.0
220
0.0
230
1.0
 70
     8
 71
     3
 72
     9
 73
     5
 74
     3
 42
0.000000001
 43
0.0000000001
 44
0.00000001
 40
0.0
 40
0.0
 40
0.0
 40
0.0
 40
0.6729060823880889
 40
1.599115740868134
 40
1.599115740868134
 40
1.599115740868134
 40
1.599115740868134
 10
-0.8000000000342862
 20
16.39807621137167
 30
0.0
 10
-0.7266709453586436
 20
16.17630464299529
 30
0.0
 10
-0.5524093956175921
 20
15.64927953713449
 30
0.0
 10
-0.0329324522862471
 20
15.4268865023993
 30
0.0
 10
0.2679491923968147
 20
15.29807621137167
 30
0.0
 11
-0.8000000000342862
 21
16.39807621137167
 31
0.0
 11
-0.5188849593582838
 21
15.786703220886
 31
0.0
 11
0.2679491923968147
 21
15.29807621137167
 31
0.0
  0
SPLINE
  5
94
330
47
100
AcDbEntity
  8
0
  6
Continuous
 62
     7
100
AcDbSpline
210
0.0
220
0.0
230
1.0
 70
     8
 71
     3
 72
     9
 73
     5
 74
     3
 42
0.000000001
 43
0.0000000001
 44
0.00000001
 40
0.0
 40
0.0
 40
0.0
 40
0.0
 40
0.5553073116109665
 40
1.232339731202423
 40
1.232339731202423
 40
1.232339731202423
 40
1.232339731202423
 10
-0.6959178273730854
 20
15.89001318304368
 30
0.0
 10
-0.7212284759246462
 20
15.69462750591148
 30
0.0
 10
-0.7773979286907264
 20
15.26102699983463
 30
0.0
 10
-0.4340156451189459
 20
14.97947690922866
 30
0.0
 10
-0.2453655975855558
 20
14.82479672782992
 30
0.0
 11
-0.6959178273730854
 21
15.89001318304368
 31
0.0
 11
-0.6907202464353157
 21
15.33473019272813
 31
0.0
 11
-0.2453655975855558
 21
14.82479672782992
 31
0.0
  0
SPLINE
  5
95
330
47
100
AcDbEntity
  8
0
  6
Continuous
 62
     7
100
AcDbSpline
210
0.0
220
0.0
230
1.0
 70
     8
 71
     3
 72
     9
 73
     5
 74
     3
 42
0.000000001
 43
0.0000000001
 44
0.00000001
 40
0.0
 40
0.0
 40
0.0
 40
0.0
 40
0.2997162415175321
 40
0.627344954943396
 40
0.627344954943396
 40
0.627344954943396
 40
0.627344954943396
 10
-0.2861904266319257
 20
15.45988202393856
 30
0.0
 10
-0.2021884206670282
 20
15.4054140373769
 30
0.0
 10
-0.0263613204935386
 20
15.2914054964828
 30
0.0
 10
0.1669782643120436
 20
15.21045073376975
 30
0.0
 10
0.2679491923968147
 20
15.16817240080402
 30
0.0
 11
-0.2861904266319257
 21
15.45988202393856
 31
0.0
 11
-0.0301872073939335
 21
15.30402254387205
 31
0.0
 11
0.2679491923968147
 21
15.16817240080402
 31
0.0
  0
SPLINE
  5
96
330
47
100
AcDbEntity
  8
0
  6
Continuous
 62
     7
100
AcDbSpline
210
0.0
220
0.0
230
1.0
 70
     8
 71
     3
 72
    13
 73
     9
 74
     7
 42
0.000000001
 43
0.0000000001
 44
0.00000001
 40
0.0
 40
0.0
 40
0.0
 40
0.0
 40
0.0607976374520587
 40
0.1215785675029111
 40
0.182337489780416
 40
0.2430766272639714
 40
0.303797831574309
 40
0.3644940941551608
 40
0.3644940941551608
 40
0.3644940941551608
 40
0.3644940941551608
 10
0.2679491923968147
 20
15.16817240080402
 30
0.0
 10
0.2834054787226334
 20
15.15506480394585
 30
0.0
 10
0.3143138134168667
 20
15.128853223429
 30
0.0
 10
0.3607040535779826
 20
15.08958423178358
 30
0.0
 10
0.4071221076376462
 20
15.05037833330227
 30
0.0
 10
0.4535626798673738
 20
15.01123000907409
 30
0.0
 10
0.5000108383030343
 20
14.97212308245686
 30
0.0
 10
0.5310126290054595
 20
14.94610555305843
 30
0.0
 10
0.5465103448585236
 20
14.93309946625167
 30
0.0
 11
0.2679491923968147
 21
15.16817240080402
 31
0.0
 11
0.3143239664628318
 21
15.12885658909849
 31
0.0
 11
0.3607167663454744
 21
15.08958790465903
 31
0.0
 11
0.4071334303901068
 21
15.05038152844299
 31
0.0
 11
0.453571171725528
 21
15.0112308068257
 31
0.0
 11
0.5000275760877901
 21
14.97213007603007
 31
0.0
 11
0.5465103448585236
 21
14.93309946625167
 31
0.0
  0
SPLINE
  5
97
330
47
100
AcDbEntity
  8
0
  6
Continuous
 62
     7
100
AcDbSpline
210
0.0
220
0.0
230
1.0
 70
     8
 71
     3
 72
    13
 73
     9
 74
     7
 42
0.000000001
 43
0.0000000001
 44
0.00000001
 40
0.0
 40
0.0
 40
0.0
 40
0.0
 40
0.1282609706677548
 40
0.2565351945685572
 40
0.384818658007366
 40
0.5131121117069453
 40
0.6414165809172896
 40
0.7697294100708798
 40
0.7697294100708798
 40
0.7697294100708798
 40
0.7697294100708798
 10
2.760668340907484
 20
16.85061653583272
 30
0.0
 10
2.776164957515027
 20
16.89046286662096
 30
0.0
 10
2.807159778328701
 20
16.97015965084267
 30
0.0
 10
2.853612458837015
 20
17.08972587613448
 30
0.0
 10
2.90005197254377
 20
17.20930882991218
 30
0.0
 10
2.946469060098622
 20
17.32891130595196
 30
0.0
 10
2.992860703194008
 20
17.44853415257682
 30
0.0
 10
3.023773559606898
 20
17.52829211685698
 30
0.0
 10
3.039230484507014
 20
17.568172400804
 30
0.0
 11
2.760668340907484
 21
16.85061653583272
 31
0.0
 11
2.80715127610133
 21
16.97015821614911
 31
0.0
 11
2.853608505149929
 21
17.08972410755385
 31
0.0
 11
2.900046430904117
 21
17.20930740924806
 31
0.0
 11
2.946462910530002
 21
17.328909753212
 31
0.0
 11
2.992855673538821
 21
17.44853311364009
 31
0.0
 11
3.039230484507014
 21
17.568172400804
 31
0.0
  0
SPLINE
  5
98
330
47
100
AcDbEntity
  8
0
  6
Continuous
 62
     7
100
AcDbSpline
210
0.0
220
0.0
230
1.0
 70
     8
 71
     3
 72
    11
 73
     7
 74
     5
 42
0.000000001
 43
0.0000000001
 44
0.00000001
 40
0.0
 40
0.0
 40
0.0
 40
0.0
 40
0.9147890587641774
 40
1.840286072566785
 40
2.700971898366891
 40
3.435332643940654
 40
3.435332643940654
 40
3.435332643940654
 40
3.435332643940654
 10
0.9607695154243636
 20
14.96817240080401
 30
0.0
 10
1.263474042823595
 20
14.9243437838754
 30
0.0
 10
1.872426370990362
 20
14.83617353424244
 30
0.0
 10
2.774244382237268
 20
14.90272661376287
 30
0.0
 10
3.606147835728736
 20
15.07691524781688
 30
0.0
 10
4.07180259693498
 20
15.33914926267035
 30
0.0
 10
4.286190426563293
 20
15.45988202393845
 30
0.0
 11
0.9607695154243636
 21
14.96817240080401
 31
0.0
 11
1.870240738613058
 21
14.86967816297646
 31
0.0
 11
2.794043844949273
 21
14.92564731982376
 31
0.0
 11
3.630141530492717
 21
15.12990391431835
 31
0.0
 11
4.286190426563293
 21
15.45988202393845
 31
0.0
  0
SPLINE
  5
99
330
47
100
AcDbEntity
  8
0
  6
Continuous
 62
     7
100
AcDbSpline
210
0.0
220
0.0
230
1.0
 70
     8
 71
     3
 72
    11
 73
     7
 74
     5
 42
0.000000001
 43
0.0000000001
 44
0.00000001
 40
0.0
 40
0.0
 40
0.0
 40
0.0
 40
0.0039773071968157
 40
0.0079570646651456
 40
0.1252810807149851
 40
0.2434275216919539
 40
0.2434275216919539
 40
0.2434275216919539
 40
0.2434275216919539
 10
3.033259861052825
 20
16.89290549978392
 30
0.0
 10
3.031960455713356
 20
16.89316857924749
 30
0.0
 10
3.029360841681572
 20
16.89369488622028
 30
0.0
 10
2.988421949997714
 20
16.90193682179664
 30
0.0
 10
2.909988903029501
 20
16.91681207626334
 30
0.0
 10
2.832452679252144
 20
16.92903443275141
 30
0.0
 10
2.793549159182016
 20
16.93516693794214
 30
0.0
 11
3.033259861052825
 21
16.89290549978392
 31
0.0
 11
3.029361502550695
 21
16.89369402662127
 31
0.0
 11
3.025460070903564
 21
16.89447971182872
 31
0.0
 11
2.9101573114839
 21
16.91616377247852
 31
0.0
 11
2.793549159182016
 21
16.93516693794214
 31
0.0
  0
SPLINE
  5
9A
330
47
100
AcDbEntity
  8
0
  6
Continuous
 62
     7
100
AcDbSpline
210
0.0
220
0.0
230
1.0
 70
     8
 71
     3
 72
     9
 73
     5
 74
     3
 42
0.000000001
 43
0.0000000001
 44
0.00000001
 40
0.0
 40
0.0
 40
0.0
 40
0.0
 40
0.0917247028367666
 40
0.1847685908748522
 40
0.1847685908748522
 40
0.1847685908748522
 40
0.1847685908748522
 10
2.941675135404713
 20
16.81359080077402
 30
0.0
 10
2.911835019948621
 20
16.82026643220412
 30
0.0
 10
2.851725624194647
 20
16.83371368446654
 30
0.0
 10
2.791164897672964
 20
16.84495550436633
 30
0.0
 10
2.760668340907484
 20
16.85061653583272
 30
0.0
 11
2.941675135404713
 21
16.81359080077402
 31
0.0
 11
2.852043559671273
 21
16.83307417225805
 31
0.0
 11
2.760668340907484
 21
16.85061653583272
 31
0.0
  0
SPLINE
  5
9B
330
47
100
AcDbEntity
  8
0
  6
Continuous
 62
     7
100
AcDbSpline
210
0.0
220
0.0
230
1.0
 70
     8
 71
     3
 72
    13
 73
     9
 74
     7
 42
0.000000001
 43
0.0000000001
 44
0.00000001
 40
0.0
 40
0.0
 40
0.0
 40
0.0
 40
0.0606945533930109
 40
0.1214140220197335
 40
0.1821561024233726
 40
0.2429182982644856
 40
0.3036982341223917
 40
0.364494259928955
 40
0.364494259928955
 40
0.364494259928955
 40
0.364494259928955
 10
1.239330848285084
 20
14.7330994332848
 30
0.0
 10
1.223832881019412
 20
14.746104333007
 30
0.0
 10
1.192830593973797
 20
14.77211948222251
 30
0.0
 10
1.146375446054893
 20
14.81121784840085
 30
0.0
 10
1.099941341455531
 20
14.85037616959522
 30
0.0
 10
1.05353035058437
 20
14.88959311851577
 30
0.0
 10
1.007135825170748
 20
14.9288573871308
 30
0.0
 10
0.9762263124164491
 20
14.9550662363149
 30
0.0
 10
0.9607695154243636
 20
14.96817240080401
 30
0.0
 11
1.239330848285084
 21
14.7330994332848
 31
0.0
 11
1.192846483294635
 21
14.77212548387052
 31
0.0
 11
1.146387585150506
 21
14.81122055587786
 31
0.0
 11
1.099952878015295
 21
14.85037944128698
 31
0.0
 11
1.053539892105413
 21
14.88959524401352
 31
0.0
 11
1.007146047218629
 21
14.92886115493038
 31
0.0
 11
0.9607695154243636
 21
14.96817240080401
 31
0.0
  0
SPLINE
  5
9C
330
47
100
AcDbEntity
  8
0
  6
Continuous
 62
     7
100
AcDbSpline
210
0.0
220
0.0
230
1.0
 70
     8
 71
     3
 72
     9
 73
     5
 74
     3
 42
0.000000001
 43
0.0000000001
 44
0.00000001
 40
0.0
 40
0.0
 40
0.0
 40
0.0
 40
0.348210148042524
 40
0.7222072429412122
 40
0.7222072429412122
 40
0.7222072429412122
 40
0.7222072429412122
 10
0.5465103448585236
 20
14.93309946625167
 30
0.0
 10
0.6551454557231221
 20
14.89163060961001
 30
0.0
 10
0.8804607329593256
 20
14.80562191005523
 30
0.0
 10
1.116893472472732
 20
14.75784225491745
 30
0.0
 10
1.239330848285084
 20
14.7330994332848
 30
0.0
 11
0.5465103448585236
 21
14.93309946625167
 31
0.0
 11
0.8750001109345324
 21
14.81757985247532
 31
0.0
 11
1.239330848285084
 21
14.7330994332848
 31
0.0
  0
SPLINE
  5
9D
330
47
100
AcDbEntity
  8
0
  6
Continuous
 62
     7
100
AcDbSpline
210
0.0
220
0.0
230
1.0
 70
     8
 71
     3
 72
    11
 73
     7
 74
     5
 42
0.000000001
 43
0.0000000001
 44
0.00000001
 40
0.0
 40
0.0
 40
0.0
 40
0.0
 40
0.7977697019632517
 40
1.747105764861198
 40
2.696441827759144
 40
3.494211529722397
 40
3.494211529722397
 40
3.494211529722397
 40
3.494211529722397
 10
3.673817990867503
 20
15.02686932204625
 30
0.0
 10
3.434607354149052
 20
14.90539709159087
 30
0.0
 10
2.91073901696015
 20
14.63937442608481
 30
0.0
 10
1.999999999965663
 20
14.568809607992
 30
0.0
 10
1.08926098297118
 20
14.63937442608485
 30
0.0
 10
0.5653926457822894
 20
14.90539709159094
 30
0.0
 10
0.3261820090638441
 20
15.02686932204633
 30
0.0
 11
3.673817990867503
 21
15.02686932204625
 31
0.0
 11
2.942377439324938
 21
14.70838664117635
 31
0.0
 11
1.999999999965664
 21
14.59365334796566
 31
0.0
 11
1.057622560606396
 21
14.70838664117639
 31
0.0
 11
0.3261820090638441
 21
15.02686932204633
 31
0.0
  0
SPLINE
  5
9E
330
47
100
AcDbEntity
  8
0
  6
Continuous
 62
     7
100
AcDbSpline
210
0.0
220
0.0
230
1.0
 70
     8
 71
     3
 72
     9
 73
     5
 74
     3
 42
0.000000001
 43
0.0000000001
 44
0.00000001
 40
0.0
 40
0.0
 40
0.0
 40
0.0
 40
0.5729897327055032
 40
1.065676844830475
 40
1.065676844830475
 40
1.065676844830475
 40
1.065676844830475
 10
4.381569860372833
 20
14.9311533479657
 30
0.0
 10
4.524182558815239
 20
15.07715630392853
 30
0.0
 10
4.789421240050241
 20
15.34870039092447
 30
0.0
 10
4.725483729485977
 20
15.71888098393546
 30
0.0
 10
4.695923927552895
 20
15.89002405522899
 30
0.0
 11
4.381569860372833
 21
14.9311533479657
 31
0.0
 11
4.714244309247336
 21
15.39767767589221
 31
0.0
 11
4.695923927552895
 21
15.89002405522899
 31
0.0
  0
SPLINE
  5
9F
330
47
100
AcDbEntity
  8
0
  6
Continuous
 62
     7
100
AcDbSpline
210
0.0
220
0.0
230
1.0
 70
     8
 71
     3
 72
     9
 73
     5
 74
     3
 42
0.000000001
 43
0.0000000001
 44
0.00000001
 40
0.0
 40
0.0
 40
0.0
 40
0.0
 40
0.5419909565201382
 40
0.9859920389402697
 40
0.9859920389402697
 40
0.9859920389402697
 40
0.9859920389402697
 10
4.286190426563293
 20
15.45988202393845
 30
0.0
 10
4.433922379550284
 20
15.57573171979541
 30
0.0
 10
4.70267690298922
 20
15.78648594480774
 30
0.0
 10
4.769781985723347
 20
16.11861272253422
 30
0.0
 10
4.799999999965694
 20
16.26817240080396
 30
0.0
 11
4.286190426563293
 21
15.45988202393845
 31
0.0
 11
4.668455841311173
 21
15.84410507403401
 31
0.0
 11
4.799999999965694
 21
16.26817240080396
 31
0.0
  0
SPLINE
  5
A0
330
47
100
AcDbEntity
  8
0
  6
Continuous
 62
     7
100
AcDbSpline
210
0.0
220
0.0
230
1.0
 70
     8
 71
     3
 72
     9
 73
     5
 74
     3
 42
0.000000001
 43
0.0000000001
 44
0.00000001
 40
0.0
 40
0.0
 40
0.0
 40
0.0
 40
0.6729060823880986
 40
1.599115740868158
 40
1.599115740868158
 40
1.599115740868158
 40
1.599115740868158
 10
4.799999999965694
 20
16.39807621137167
 30
0.0
 10
4.726670945290049
 20
16.61984777974806
 30
0.0
 10
4.552409395548992
 20
17.14687288560886
 30
0.0
 10
4.032932452217634
 20
17.36926592034404
 30
0.0
 10
3.732050807534565
 20
17.49807621137167
 30
0.0
 11
4.799999999965694
 21
16.39807621137167
 31
0.0
 11
4.518884959289684
 21
17.00944920185734
 31
0.0
 11
3.732050807534565
 21
17.49807621137167
 31
0.0
  0
SPLINE
  5
A1
330
47
100
AcDbEntity
  8
0
  6
Continuous
 62
     7
100
AcDbSpline
210
0.0
220
0.0
230
1.0
 70
     8
 71
     3
 72
    11
 73
     7
 74
     5
 42
0.000000001
 43
0.0000000001
 44
0.00000001
 40
0.0
 40
0.0
 40
0.0
 40
0.0
 40
1.342825945199642
 40
2.633585793443864
 40
3.66761489104961
 40
4.400490851264001
 40
4.400490851264001
 40
4.400490851264001
 40
4.400490851264001
 10
0.9607695154243636
 20
15.09807621137168
 30
0.0
 10
1.409616156104387
 20
15.04365285572527
 30
0.0
 10
2.289906069439294
 20
14.9369163376455
 30
0.0
 10
3.479065945071719
 20
15.17056810233738
 30
0.0
 10
4.503526788920835
 20
15.5870490754706
 30
0.0
 10
4.713081154994959
 20
16.16030246511103
 30
0.0
 10
4.799999999965694
 20
16.39807621137167
 30
0.0
 11
0.9607695154243636
 21
15.09807621137168
 31
0.0
 11
2.300446959914953
 21
15.00617496217169
 31
0.0
 11
3.570056470810659
 21
15.2388822372718
 31
0.0
 11
4.473447448563156
 21
15.74197361938102
 31
0.0
 11
4.799999999965694
 21
16.39807621137167
 31
0.0
  0
SPLINE
  5
A2
330
47
100
AcDbEntity
  8
0
  6
Continuous
 62
     7
100
AcDbSpline
210
0.0
220
0.0
230
1.0
 70
     8
 71
     3
 72
    11
 73
     7
 74
     5
 42
0.000000001
 43
0.0000000001
 44
0.00000001
 40
0.0
 40
0.0
 40
0.0
 40
0.0
 40
1.342825945199636
 40
2.633585793443849
 40
3.667614891049585
 40
4.400490851263974
 40
4.400490851263974
 40
4.400490851263974
 40
4.400490851263974
 10
3.039230484507014
 20
17.69807621137166
 30
0.0
 10
2.590383843826991
 20
17.75249956701807
 30
0.0
 10
1.71009393049209
 20
17.85923608509784
 30
0.0
 10
0.5209340548596764
 20
17.62558432040596
 30
0.0
 10
-0.5035267889894375
 20
17.20910334727273
 30
0.0
 10
-0.7130811550635539
 20
16.63584995763232
 30
0.0
 10
-0.8000000000342862
 20
16.39807621137167
 30
0.0
 11
3.039230484507014
 21
17.69807621137166
 31
0.0
 11
1.69955304001643
 21
17.78997746057165
 31
0.0
 11
0.4299435291207337
 21
17.55727018547154
 31
0.0
 11
-0.4734474486317538
 21
17.05417880336232
 31
0.0
 11
-0.8000000000342862
 21
16.39807621137167
 31
0.0
  0
SPLINE
  5
A3
330
47
100
AcDbEntity
  8
0
  6
Continuous
 62
     7
100
AcDbSpline
210
0.0
220
0.0
230
1.0
 70
     8
 71
     3
 72
    13
 73
     9
 74
     7
 42
0.000000001
 43
0.0000000001
 44
0.00000001
 40
0.0
 40
0.0
 40
0.0
 40
0.0
 40
0.3467247284485838
 40
0.818512161903941
 40
1.413656109949229
 40
2.062509369788054
 40
2.675128226664524
 40
3.174860336354858
 40
3.174860336354858
 40
3.174860336354858
 40
3.174860336354858
 10
0.4999999999657536
 20
11.20192378866503
 30
0.0
 10
0.536247225639956
 20
11.08812800551641
 30
0.0
 10
0.6218159717001158
 20
10.8194906065118
 30
0.0
 10
1.075718629661096
 20
10.59062006168301
 30
0.0
 10
1.624226603402292
 20
10.45099746479615
 30
0.0
 10
2.248514561999031
 20
10.44412416243877
 30
0.0
 10
2.839526895589758
 20
10.53959938389125
 30
0.0
 10
3.156593521369262
 20
10.73785565129194
 30
0.0
 10
3.299038105642344
 20
10.82692378866504
 30
0.0
 11
0.4999999999657536
 21
11.20192378866503
 31
0.0
 11
0.6405461013376003
 21
10.88496190674555
 31
0.0
 11
1.035818585435934
 21
10.62739045632581
 31
0.0
 11
1.611773654637405
 21
10.47748356586401
 31
0.0
 11
2.26047226646611
 21
10.46331797390589
 31
0.0
 11
2.860359729531987
 21
10.58756327223441
 31
0.0
 11
3.299038105642344
 21
10.82692378866504
 31
0.0
  0
SPLINE
  5
A4
330
47
100
AcDbEntity
  8
0
  6
Continuous
 62
     7
100
AcDbSpline
210
0.0
220
0.0
230
1.0
 70
     8
 71
     3
 72
    11
 73
     7
 74
     5
 42
0.000000001
 43
0.0000000001
 44
0.00000001
 40
0.0
 40
0.0
 40
0.0
 40
0.0
 40
0.5837339280834404
 40
1.278370070753655
 40
1.973006213423866
 40
2.556740141507299
 40
2.556740141507299
 40
2.556740141507299
 40
2.556740141507299
 10
3.224744871357304
 20
14.10310889134295
 30
0.0
 10
3.049712698203365
 20
14.0142267715253
 30
0.0
 10
2.666394401413595
 20
13.81957604470928
 30
0.0
 10
1.99999999996574
 20
13.76794324885059
 30
0.0
 10
1.333605598517888
 20
13.81957604470925
 30
0.0
 10
0.9502873017281067
 20
14.01422677152524
 30
0.0
 10
0.7752551285741642
 20
14.10310889134288
 30
0.0
 11
3.224744871357304
 21
14.10310889134295
 31
0.0
 11
2.689544467789589
 21
13.87007278338934
 31
0.0
 11
1.999999999965739
 21
13.78612159323514
 31
0.0
 11
1.310455532141888
 21
13.8700727833893
 31
0.0
 11
0.7752551285741642
 21
14.10310889134288
 31
0.0
  0
SPLINE
  5
A5
330
47
100
AcDbEntity
  8
0
  6
Continuous
 62
     7
100
AcDbSpline
210
0.0
220
0.0
230
1.0
 70
     8
 71
     3
 72
     9
 73
     5
 74
     3
 42
0.000000001
 43
0.0000000001
 44
0.00000001
 40
0.0
 40
0.0
 40
0.0
 40
0.0
 40
0.2348930750231203
 40
0.4356235776193011
 40
0.4356235776193011
 40
0.4356235776193011
 40
0.4356235776193011
 10
3.299038105642344
 20
10.82692378866504
 30
0.0
 10
3.357079935253336
 20
10.88306127664269
 30
0.0
 10
3.464722042833993
 20
10.98717169274281
 30
0.0
 10
3.488871983924074
 20
11.13418273252131
 30
0.0
 10
3.499999999965683
 20
11.20192378866503
 30
0.0
 11
3.299038105642344
 21
10.82692378866504
 31
0.0
 11
3.448888353117189
 21
11.00780955659013
 31
0.0
 11
3.499999999965683
 21
11.20192378866503
 31
0.0
  0
SPLINE
  5
A6
330
47
100
AcDbEntity
  8
0
  6
Continuous
 62
     7
100
AcDbSpline
210
0.0
220
0.0
230
1.0
 70
     8
 71
     3
 72
    11
 73
     7
 74
     5
 42
0.000000001
 43
0.0000000001
 44
0.00000001
 40
0.0
 40
0.0
 40
0.0
 40
0.0
 40
1.07017886871938
 40
2.343678466452635
 40
3.617178064185895
 40
4.687356932905272
 40
4.687356932905272
 40
4.687356932905272
 40
4.687356932905272
 10
-0.2453655975855558
 20
14.82479672782992
 30
0.0
 10
0.0755267200331788
 20
14.66184617474467
 30
0.0
 10
0.7782769268209724
 20
14.30498649636039
 30
0.0
 10
1.999999999965725
 20
14.21032637724228
 30
0.0
 10
3.221723073110474
 20
14.30498649636045
 30
0.0
 10
3.924473279898249
 20
14.66184617474477
 30
0.0
 10
4.245365597516974
 20
14.82479672783003
 30
0.0
 11
-0.2453655975855558
 21
14.82479672782992
 31
0.0
 11
0.735835142288629
 21
14.39756386324835
 31
0.0
 11
1.999999999965723
 21
14.24365334796571
 31
0.0
 11
3.264164857642815
 21
14.39756386324841
 31
0.0
 11
4.245365597516974
 21
14.82479672783003
 31
0.0
  0
ENDBLK
  5
49
330
47
100
AcDbEntity
  8
0
100
AcDbBlockEnd
  0
BLOCK
  5
4C
330
4A
100
AcDbEntity
  8
0
100
AcDbBlockBegin
  2
Allg1
 70
     0
 10
1.999999999983
 20
13.80000000000903
 30
0.0
  3
Allg1
  1

  0
INSERT
  5
4B
330
4A
100
AcDbEntity
  8
0
100
AcDbBlockReference
  2
1686229_HC_D_7_DS_IP65-select__1
 10
-0.84495098989423
 20
10.4248234517656
 30
0.0
  0
MTEXT
  5
A8
330
4A
100
AcDbEntity
  8
1
 62
     6
100
AcDbMText
 10
1.99999999998297
 20
8.30192382211451
 30
0.0
 40
1.0
 41
0.0
 71
     2
 72
     1
  1
 
  7
CONVERTER_11
 73
     1
 44
1.32052821128451
  0
ENDBLK
  5
4D
330
4A
100
AcDbEntity
  8
0
100
AcDbBlockEnd
  0
BLOCK
  5
4F
330
4E
100
AcDbEntity
  8
0
100
AcDbBlockBegin
  2
1686229_HC_D_7_DS_IP65-select__2
 70
     0
 10
-11.77128129211021
 20
26.40000000001501
 30
0.0
  3
1686229_HC_D_7_DS_IP65-select__2
  1

  0
LINE
  5
A9
330
4E
100
AcDbEntity
  8
0
  6
Continuous
 62
     7
100
AcDbLine
 10
-6.94999999999999
 20
31.50000000001501
 30
0.0
 11
-6.74999999999999
 21
31.70000000001501
 31
0.0
  0
LINE
  5
AA
330
4E
100
AcDbEntity
  8
0
  6
Continuous
 62
     7
100
AcDbLine
 10
-7.50000000000003
 20
26.40000000001501
 30
0.0
 11
-7.50000000000003
 21
30.25000000001499
 31
0.0
  0
LINE
  5
AB
330
4E
100
AcDbEntity
  8
0
  6
Continuous
 62
     7
100
AcDbLine
 10
-11.24999999999998
 20
31.70000000001501
 30
0.0
 11
-11.21415898254839
 21
31.70000000001501
 31
0.0
  0
LINE
  5
AC
330
4E
100
AcDbEntity
  8
0
  6
Continuous
 62
     7
100
AcDbLine
 10
-11.04999999999999
 20
31.50000000001501
 30
0.0
 11
-11.24999999999998
 21
31.70000000001501
 31
0.0
  0
LINE
  5
AD
330
4E
100
AcDbEntity
  8
0
  6
Continuous
 62
     7
100
AcDbLine
 10
-7.50000000000003
 20
30.25000000001499
 30
0.0
 11
-10.49999999999995
 21
30.25000000001499
 31
0.0
  0
LINE
  5
AE
330
4E
100
AcDbEntity
  8
0
  6
Continuous
 62
     7
100
AcDbLine
 10
-10.49999999999995
 20
26.40000000001501
 30
0.0
 11
-7.50000000000003
 21
26.40000000001501
 31
0.0
  0
LINE
  5
AF
330
4E
100
AcDbEntity
  8
0
  6
Continuous
 62
     7
100
AcDbLine
 10
-11.74999999999999
 20
31.50000000001501
 30
0.0
 11
-11.04999999999999
 21
31.50000000001501
 31
0.0
  0
LINE
  5
B0
330
4E
100
AcDbEntity
  8
0
  6
Continuous
 62
     7
100
AcDbLine
 10
-6.94999999999999
 20
31.50000000001501
 30
0.0
 11
-6.24999999999999
 21
31.50000000001501
 31
0.0
  0
LINE
  5
B1
330
4E
100
AcDbEntity
  8
0
  6
Continuous
 62
     7
100
AcDbLine
 10
-11.04999999999999
 20
31.50000000001501
 30
0.0
 11
-6.94999999999999
 21
31.50000000001501
 31
0.0
  0
LINE
  5
B2
330
4E
100
AcDbEntity
  8
0
  6
Continuous
 62
     7
100
AcDbLine
 10
-7.50000000000003
 20
30.25000000001499
 30
0.0
 11
-6.24999999999999
 21
31.50000000001501
 31
0.0
  0
LINE
  5
B3
330
4E
100
AcDbEntity
  8
0
  6
Continuous
 62
     7
100
AcDbLine
 10
-10.49999999999995
 20
26.40000000001501
 30
0.0
 11
-10.49999999999995
 21
30.25000000001499
 31
0.0
  0
LINE
  5
B4
330
4E
100
AcDbEntity
  8
0
  6
Continuous
 62
     7
100
AcDbLine
 10
-6.78584497272611
 20
31.70000000001502
 30
0.0
 11
-6.74999999999999
 21
31.70000000001501
 31
0.0
  0
LINE
  5
B5
330
4E
100
AcDbEntity
  8
0
  6
Continuous
 62
     7
100
AcDbLine
 10
-6.22871870788979
 20
32.40000000001501
 30
0.0
 11
-6.2287187078898
 21
32.25000000001502
 31
0.0
  0
LINE
  5
B6
330
4E
100
AcDbEntity
  8
0
  6
Continuous
 62
     7
100
AcDbLine
 10
-11.77128129211021
 20
32.250000000015
 30
0.0
 11
-6.2287187078898
 21
32.25000000001502
 31
0.0
  0
LINE
  5
B7
330
4E
100
AcDbEntity
  8
0
  6
Continuous
 62
     7
100
AcDbLine
 10
-11.77128129211018
 20
32.40000000001501
 30
0.0
 11
-6.22871870788979
 21
32.40000000001501
 31
0.0
  0
LINE
  5
B8
330
4E
100
AcDbEntity
  8
0
  6
Continuous
 62
     7
100
AcDbLine
 10
-11.77128129211021
 20
32.250000000015
 30
0.0
 11
-11.77128129211018
 21
32.40000000001501
 31
0.0
  0
LINE
  5
B9
330
4E
100
AcDbEntity
  8
0
  6
Continuous
 62
     7
100
AcDbLine
 10
-10.49999999999995
 20
30.25000000001499
 30
0.0
 11
-11.74999999999999
 21
31.50000000001501
 31
0.0
  0
LINE
  5
BA
330
4E
100
AcDbEntity
  8
1
  6
DOT_CENTER
 62
     2
100
AcDbLine
 10
-8.99999999999999
 20
26.0501839738546
 30
0.0
 11
-8.99999999999999
 21
32.6395343434298
 31
0.0
  0
SPLINE
  5
BB
330
4E
100
AcDbEntity
  8
0
  6
Continuous
 62
     7
100
AcDbSpline
210
0.0
220
0.0
230
1.0
 70
     8
 71
     3
 72
    13
 73
     9
 74
     7
 42
0.000000001
 43
0.0000000001
 44
0.00000001
 40
0.0
 40
0.0
 40
0.0
 40
0.0
 40
0.1304788467396214
 40
0.2609576639406194
 40
0.39143649100075
 40
0.5219153197126951
 40
0.6523941351354656
 40
0.7828729678577526
 40
0.7828729678577526
 40
0.7828729678577526
 40
0.7828729678577526
 10
-6.785844972726112
 20
31.70000000001502
 30
0.0
 10
-6.754850498833786
 20
31.73051195357294
 30
0.0
 10
-6.692861568356443
 20
31.79153586423188
 30
0.0
 10
-6.599947408991353
 20
31.88314201589289
 30
0.0
 10
-6.507077912125362
 20
31.97479342724192
 30
0.0
 10
-6.414253581186333
 20
32.0664905816294
 30
0.0
 10
-6.32146459040307
 20
32.15822350003968
 30
0.0
 10
-6.259633999988718
 20
32.2194078285292
 30
0.0
 10
-6.228718707889795
 20
32.25000000001502
 30
0.0
 11
-6.785844972726112
 21
31.70000000001502
 31
0.0
 11
-6.692873093519696
 21
31.79154757849074
 31
0.0
 11
-6.599954847342072
 21
31.88314955045303
 31
0.0
 11
-6.507085433071651
 21
31.97480104365248
 31
0.0
 11
-6.414259461251886
 21
32.06649653808368
 31
0.0
 11
-6.321471771478319
 21
32.15823075144611
 31
0.0
 11
-6.228718707889795
 21
32.25000000001502
 31
0.0
  0
SPLINE
  5
BC
330
4E
100
AcDbEntity
  8
0
  6
Continuous
 62
     7
100
AcDbSpline
210
0.0
220
0.0
230
1.0
 70
     8
 71
     3
 72
    13
 73
     9
 74
     7
 42
0.000000001
 43
0.0000000001
 44
0.00000001
 40
0.0
 40
0.0
 40
0.0
 40
0.0
 40
0.1304787976170365
 40
0.2609576480911705
 40
0.3914366523452617
 40
0.5219153036996893
 40
0.6523931004321623
 40
0.7828701504048494
 40
0.7828701504048494
 40
0.7828701504048494
 40
0.7828701504048494
 10
-11.77128129211021
 20
32.250000000015
 30
0.0
 10
-11.74036602728722
 20
32.21940781760385
 30
0.0
 10
-11.67853547480201
 20
32.15822345081473
 30
0.0
 10
-11.58574645111675
 20
32.06649048240914
 30
0.0
 10
-11.49292172729742
 20
31.97479370910501
 30
0.0
 10
-11.40005253871402
 20
31.88314247021812
 30
0.0
 10
-11.30714067262339
 20
31.79153541355137
 30
0.0
 10
-11.24515282354124
 20
31.7305117428343
 30
0.0
 10
-11.21415898254839
 20
31.70000000001501
 30
0.0
 11
-11.77128129211021
 21
32.250000000015
 31
0.0
 11
-11.67852830232381
 21
32.15823072676606
 31
0.0
 11
-11.58574053880526
 21
32.06649653814017
 31
0.0
 11
-11.4929141981605
 21
31.9748011672928
 31
0.0
 11
-11.40004515271513
 21
31.88314955050947
 31
0.0
 11
-11.3071288024876
 21
31.7915471089342
 31
0.0
 11
-11.21415898254839
 21
31.70000000001501
 31
0.0
  0
ENDBLK
  5
50
330
4E
100
AcDbEntity
  8
0
100
AcDbBlockEnd
  0
BLOCK
  5
53
330
51
100
AcDbEntity
  8
0
100
AcDbBlockBegin
  2
SA_Links1
 70
     0
 10
-8.99999999999999
 20
29.40000000001001
 30
0.0
  3
SA_Links1
  1

  0
INSERT
  5
52
330
51
100
AcDbEntity
  8
0
100
AcDbBlockReference
  2
1686229_HC_D_7_DS_IP65-select__2
 10
-11.77128129211021
 20
26.40000000001501
 30
0.0
  0
MTEXT
  5
BD
330
51
100
AcDbEntity
  8
1
 62
     6
100
AcDbMText
 10
-8.99999999999999
 20
25.40000000001001
 30
0.0
 40
1.0
 41
0.0
 71
     2
 72
     1
  1
 
  7
CONVERTER_11
 73
     1
 44
1.32052821128451
  0
ENDBLK
  5
54
330
51
100
AcDbEntity
  8
0
100
AcDbBlockEnd
  0
BLOCK
  5
56
330
55
100
AcDbEntity
  8
0
100
AcDbBlockBegin
  2
1686229_HC_D_7_DS_IP65-select__3
 70
     0
 10
-25.5712806159594
 20
14.85743706551928
 30
0.0
  3
1686229_HC_D_7_DS_IP65-select__3
  1

  0
LINE
  5
BE
330
55
100
AcDbEntity
  8
0
  6
Continuous
 62
     7
100
AcDbLine
 10
-23.17128061595942
 20
15.4145593921708
 30
0.0
 11
-23.17128061595942
 21
14.85743706551928
 31
0.0
  0
LINE
  5
BF
330
55
100
AcDbEntity
  8
0
  6
Continuous
 62
     7
100
AcDbLine
 10
-23.17128061595942
 20
20.39999964973967
 30
0.0
 11
-23.17128096193924
 21
19.84287727767474
 31
0.0
  0
LINE
  5
C0
330
55
100
AcDbEntity
  8
0
  6
Continuous
 62
     7
100
AcDbLine
 10
-23.17128096193924
 20
19.84287727767474
 30
0.0
 11
-23.17128061595942
 21
15.4145593921708
 31
0.0
  0
LINE
  5
C1
330
55
100
AcDbEntity
  8
0
  6
Continuous
 62
     7
100
AcDbLine
 10
-22.37128061595942
 20
14.85743706551928
 30
0.0
 11
-22.37128042975222
 21
15.41455940872038
 31
0.0
  0
LINE
  5
C2
330
55
100
AcDbEntity
  8
0
  6
Continuous
 62
     7
100
AcDbLine
 10
-22.37128042975222
 20
19.84287730653858
 30
0.0
 11
-22.37128061595942
 21
20.39999964973968
 31
0.0
  0
LINE
  5
C3
330
55
100
AcDbEntity
  8
0
  6
Continuous
 62
     7
100
AcDbLine
 10
-22.37128042975222
 20
15.41455940872038
 30
0.0
 11
-22.37128042975222
 21
19.84287730653858
 31
0.0
  0
LINE
  5
C4
330
55
100
AcDbEntity
  8
1
  6
DOT_CENTER
 62
     2
100
AcDbLine
 10
-19.69128061595941
 20
17.62871835762948
 30
0.0
 11
-25.85128061595939
 21
17.62871835762948
 31
0.0
  0
LINE
  5
C5
330
55
100
AcDbEntity
  8
1
  6
DOT_CENTER
 62
     2
100
AcDbLine
 10
-22.7712806159594
 20
20.70871835762947
 30
0.0
 11
-22.7712806159594
 21
14.54871835762949
 31
0.0
  0
ARC
  5
C6
330
55
100
AcDbEntity
  8
0
  6
Continuous
 62
     7
100
AcDbCircle
 10
-22.77128056866008
 20
17.62871835762948
 30
0.0
 40
2.249999991591229
100
AcDbArc
 50
259.7596504161656
 51
280.2403519543875
  0
ARC
  5
C7
330
55
100
AcDbEntity
  8
0
  6
Continuous
 62
     7
100
AcDbCircle
 10
-22.7712806159594
 20
17.62871835762948
 30
0.0
 40
2.250000000000005
100
AcDbArc
 50
79.75964686033153
 51
100.2403572741047
  0
ARC
  5
C8
330
55
100
AcDbEntity
  8
0
  6
Continuous
 62
     7
100
AcDbCircle
 10
-22.7712806159594
 20
17.62871835762948
 30
0.0
 40
2.750000000000006
100
AcDbArc
 50
261.6363982109729
 51
278.3636017890263
  0
ARC
  5
C9
330
55
100
AcDbEntity
  8
0
  6
Continuous
 62
     7
100
AcDbCircle
 10
-22.7712806159594
 20
17.62871835762948
 30
0.0
 40
2.749999999999996
100
AcDbArc
 50
81.63639821097368
 51
98.36360178902711
  0
ARC
  5
CA
330
55
100
AcDbEntity
  8
0
  6
Continuous
 62
     7
100
AcDbCircle
 10
-22.7712806159594
 20
17.62871835762948
 30
0.0
 40
2.79999999999999
100
AcDbArc
 50
0.0
 51
81.78678929826219
  0
ARC
  5
CB
330
55
100
AcDbEntity
  8
0
  6
Continuous
 62
     7
100
AcDbCircle
 10
-22.7712806159594
 20
17.62871835762948
 30
0.0
 40
2.799999999999997
100
AcDbArc
 50
180.0
 51
261.7867892982614
  0
ARC
  5
CC
330
55
100
AcDbEntity
  8
0
  6
Continuous
 62
     7
100
AcDbCircle
 10
-22.7712806159594
 20
17.62871835762948
 30
0.0
 40
2.799999999999988
100
AcDbArc
 50
98.21321070173865
 51
180.0
  0
ARC
  5
CD
330
55
100
AcDbEntity
  8
0
  6
Continuous
 62
     7
100
AcDbCircle
 10
-22.7712806159594
 20
17.62871835762948
 30
0.0
 40
2.799999999999995
100
AcDbArc
 50
278.2132107017378
 51
0.0
  0
ENDBLK
  5
57
330
55
100
AcDbEntity
  8
0
100
AcDbBlockEnd
  0
BLOCK
  5
5A
330
58
100
AcDbEntity
  8
0
100
AcDbBlockBegin
  2
Drfsicht1
 70
     0
 10
-22.77128061593942
 20
17.62871835762948
 30
0.0
  3
Drfsicht1
  1

  0
INSERT
  5
59
330
58
100
AcDbEntity
  8
0
100
AcDbBlockReference
  2
1686229_HC_D_7_DS_IP65-select__3
 10
-25.5712806159594
 20
14.85743706551928
 30
0.0
  0
MTEXT
  5
CE
330
58
100
AcDbEntity
  8
1
 62
     6
100
AcDbMText
 10
-22.77128061593942
 20
13.85743711525888
 30
0.0
 40
1.0
 41
0.0
 71
     2
 72
     1
  1
 
  7
CONVERTER_11
 73
     1
 44
1.32052821128451
  0
DIMENSION
  5
D9
330
58
100
AcDbEntity
  8
1
100
AcDbDimension
  2
*D16
 10
-25.5712806159594
 20
12.29702489715533
 30
0.0
 11
-22.7712806159594
 21
13.08202489715533
 31
0.0
 70
    33
  1
<>
 71
     5
 42
-1.0
 53
0.00013888888889
  3
ME10_DIM_10
100
AcDbAlignedDimension
 13
-19.97128061595942
 23
17.62871835762948
 33
0.0
 14
-25.5712806159594
 24
17.62871835762948
 34
0.0
  0
ENDBLK
  5
5B
330
58
100
AcDbEntity
  8
0
100
AcDbBlockEnd
  0
BLOCK
  5
5D
330
5C
100
AcDbEntity
  8
0
100
AcDbBlockBegin
  2
1686229_HC_D_7_DS_IP65-select__4
 70
     0
 10
-25.57128081064629
 20
26.40000000001001
 30
0.0
  3
1686229_HC_D_7_DS_IP65-select__4
  1

  0
LINE
  5
DA
330
5C
100
AcDbEntity
  8
0
  6
Continuous
 62
     7
100
AcDbLine
 10
-24.27128081064624
 20
26.40000000001001
 30
0.0
 11
-24.27128081064623
 21
30.25000000000995
 31
0.0
  0
LINE
  5
DB
330
5C
100
AcDbEntity
  8
0
  6
Continuous
 62
     7
100
AcDbLine
 10
-24.27128081064624
 20
26.40000000001001
 30
0.0
 11
-21.27128081064631
 21
26.40000000001001
 31
0.0
  0
LINE
  5
DC
330
5C
100
AcDbEntity
  8
0
  6
Continuous
 62
     7
100
AcDbLine
 10
-23.17128081064631
 20
31.69999998319248
 30
0.0
 11
-22.37128062443911
 21
31.70000000001001
 31
0.0
  0
LINE
  5
DD
330
5C
100
AcDbEntity
  8
0
  6
Continuous
 62
     7
100
AcDbLine
 10
-21.27128081064631
 20
30.25000000001003
 30
0.0
 11
-24.27128081064623
 21
30.25000000000995
 31
0.0
  0
LINE
  5
DE
330
5C
100
AcDbEntity
  8
0
  6
Continuous
 62
     7
100
AcDbLine
 10
-21.27128081064631
 20
26.40000000001001
 30
0.0
 11
-21.27128081064631
 21
30.25000000001003
 31
0.0
  0
LINE
  5
DF
330
5C
100
AcDbEntity
  8
0
  6
Continuous
 62
     7
100
AcDbLine
 10
-20.72128081064631
 20
31.50000000000996
 30
0.0
 11
-20.02128081064638
 21
31.50000000001001
 31
0.0
  0
LINE
  5
E0
330
5C
100
AcDbEntity
  8
0
  6
Continuous
 62
     7
100
AcDbLine
 10
-19.9712808106463
 20
32.25000000000995
 30
0.0
 11
-19.9712808106463
 21
32.40000000001001
 31
0.0
  0
LINE
  5
E1
330
5C
100
AcDbEntity
  8
0
  6
Continuous
 62
     7
100
AcDbLine
 10
-20.72128081064631
 20
31.50000000000996
 30
0.0
 11
-19.9712808106463
 21
32.25000000000995
 31
0.0
  0
LINE
  5
E2
330
5C
100
AcDbEntity
  8
0
  6
Continuous
 62
     7
100
AcDbLine
 10
-21.27128081064631
 20
30.25000000001003
 30
0.0
 11
-20.02128081064638
 21
31.50000000001001
 31
0.0
  0
LINE
  5
E3
330
5C
100
AcDbEntity
  8
0
  6
Continuous
 62
     7
100
AcDbLine
 10
-22.37128081064631
 20
32.25000000001001
 30
0.0
 11
-22.37128081064631
 21
32.40000000001001
 31
0.0
  0
LINE
  5
E4
330
5C
100
AcDbEntity
  8
0
  6
Continuous
 62
     7
100
AcDbLine
 10
-22.37128062443911
 20
31.70000000001001
 30
0.0
 11
-22.37128081064631
 21
32.25000000001001
 31
0.0
  0
LINE
  5
E5
330
5C
100
AcDbEntity
  8
0
  6
Continuous
 62
     7
100
AcDbLine
 10
-22.37128081064631
 20
32.40000000001001
 30
0.0
 11
-19.9712808106463
 21
32.40000000001001
 31
0.0
  0
LINE
  5
E6
330
5C
100
AcDbEntity
  8
0
  6
Continuous
 62
     7
100
AcDbLine
 10
-23.17128081064631
 20
32.40000000001001
 30
0.0
 11
-23.17128081064631
 21
32.25000000001002
 31
0.0
  0
LINE
  5
E7
330
5C
100
AcDbEntity
  8
0
  6
Continuous
 62
     7
100
AcDbLine
 10
-23.17128081064631
 20
32.25000000001002
 30
0.0
 11
-23.17128081064631
 21
31.69999998319248
 31
0.0
  0
LINE
  5
E8
330
5C
100
AcDbEntity
  8
0
  6
Continuous
 62
     7
100
AcDbLine
 10
-25.57128081064629
 20
32.25000000001007
 30
0.0
 11
-23.17128081064631
 21
32.25000000001002
 31
0.0
  0
LINE
  5
E9
330
5C
100
AcDbEntity
  8
0
  6
Continuous
 62
     7
100
AcDbLine
 10
-22.37128081064631
 20
32.25000000001001
 30
0.0
 11
-19.9712808106463
 21
32.25000000000995
 31
0.0
  0
LINE
  5
EA
330
5C
100
AcDbEntity
  8
0
  6
Continuous
 62
     7
100
AcDbLine
 10
-25.57128081064629
 20
32.40000000001001
 30
0.0
 11
-23.17128081064631
 21
32.40000000001001
 31
0.0
  0
LINE
  5
EB
330
5C
100
AcDbEntity
  8
0
  6
Continuous
 62
     7
100
AcDbLine
 10
-25.5212808106463
 20
31.50000000000993
 30
0.0
 11
-24.82128081064627
 21
31.50000000001001
 31
0.0
  0
LINE
  5
EC
330
5C
100
AcDbEntity
  8
0
  6
Continuous
 62
     7
100
AcDbLine
 10
-24.82128081064627
 20
31.50000000001001
 30
0.0
 11
-20.72128081064631
 21
31.50000000000996
 31
0.0
  0
LINE
  5
ED
330
5C
100
AcDbEntity
  8
0
  6
Continuous
 62
     7
100
AcDbLine
 10
-25.57128081064629
 20
32.25000000001007
 30
0.0
 11
-25.57128081064629
 21
32.40000000001001
 31
0.0
  0
LINE
  5
EE
330
5C
100
AcDbEntity
  8
0
  6
Continuous
 62
     7
100
AcDbLine
 10
-24.82128081064627
 20
31.50000000001001
 30
0.0
 11
-25.57128081064629
 21
32.25000000001007
 31
0.0
  0
LINE
  5
EF
330
5C
100
AcDbEntity
  8
0
  6
Continuous
 62
     7
100
AcDbLine
 10
-24.27128081064623
 20
30.25000000000995
 30
0.0
 11
-25.5212808106463
 21
31.50000000000993
 31
0.0
  0
LINE
  5
F0
330
5C
100
AcDbEntity
  8
1
  6
DOT_CENTER
 62
     2
100
AcDbLine
 10
-22.77128081064628
 20
26.103004417699
 30
0.0
 11
-22.77128081064629
 21
32.25000000001002
 31
0.0
  0
ENDBLK
  5
5E
330
5C
100
AcDbEntity
  8
0
100
AcDbBlockEnd
  0
BLOCK
  5
61
330
5F
100
AcDbEntity
  8
0
100
AcDbBlockBegin
  2
Vordans1
 70
     0
 10
-22.77128081062631
 20
29.40000000000501
 30
0.0
  3
Vordans1
  1

  0
INSERT
  5
60
330
5F
100
AcDbEntity
  8
0
100
AcDbBlockReference
  2
1686229_HC_D_7_DS_IP65-select__4
 10
-25.57128081064629
 20
26.40000000001001
 30
0.0
  0
MTEXT
  5
F1
330
5F
100
AcDbEntity
  8
1
 62
     6
100
AcDbMText
 10
-22.77128081062631
 20
25.40000000000501
 30
0.0
 40
1.0
 41
0.0
 71
     2
 72
     1
  1
 
  7
CONVERTER_11
 73
     1
 44
1.32052821128451
  0
DIMENSION
  5
FC
330
5F
100
AcDbEntity
  8
1
100
AcDbDimension
  2
*D17
 10
-17.79021148409414
 20
26.40000000001001
 30
0.0
 11
-18.54021148409414
 21
29.4859947309264
 31
0.0
 70
    32
  1
<>
 71
     5
 42
-1.0
 53
90.0
  3
ME10_DIM_11
100
AcDbAlignedDimension
 13
-19.9712808106463
 23
32.40000000001001
 33
0.0
 14
-21.27128081064631
 24
26.40000000001001
 34
0.0
 50
90.0
100
AcDbRotatedDimension
  0
DIMENSION
  5
107
330
5F
100
AcDbEntity
  8
1
100
AcDbDimension
  2
*D18
 10
-21.27128081064631
 20
24.090423653
 30
0.0
 11
-23.0502207355448
 21
24.840423653
 31
0.0
 70
    32
  1
<>
 71
     5
 42
-1.0
 53
0.00013888888889
  3
ME10_DIM_12
100
AcDbAlignedDimension
 13
-24.27128081064624
 23
26.40000000001001
 33
0.0
 14
-21.27128081064631
 24
26.40000000001001
 34
0.0
100
AcDbRotatedDimension
  0
ENDBLK
  5
62
330
5F
100
AcDbEntity
  8
0
100
AcDbBlockEnd
  0
BLOCK
  5
64
330
63
100
AcDbEntity
  8
0
100
AcDbBlockBegin
  2
1686229_HC_D_7_DS_IP65-select__5
 70
     0
 10
-36.5138444761709
 20
26.40000000001501
 30
0.0
  3
1686229_HC_D_7_DS_IP65-select__5
  1

  0
LINE
  5
108
330
63
100
AcDbEntity
  8
0
  6
Continuous
 62
     7
100
AcDbLine
 10
-31.69256318406068
 20
31.50000000001501
 30
0.0
 11
-31.49256318406069
 21
31.70000000001501
 31
0.0
  0
LINE
  5
109
330
63
100
AcDbEntity
  8
0
  6
Continuous
 62
     7
100
AcDbLine
 10
-31.5284081567868
 20
31.70000000001502
 30
0.0
 11
-31.49256318406069
 21
31.70000000001501
 31
0.0
  0
LINE
  5
10A
330
63
100
AcDbEntity
  8
0
  6
Continuous
 62
     7
100
AcDbLine
 10
-31.69256318406068
 20
31.50000000001501
 30
0.0
 11
-30.99256318406069
 21
31.50000000001501
 31
0.0
  0
LINE
  5
10B
330
63
100
AcDbEntity
  8
0
  6
Continuous
 62
     7
100
AcDbLine
 10
-33.74256318406068
 20
31.50000000001501
 30
0.0
 11
-31.69256318406068
 21
31.50000000001501
 31
0.0
  0
LINE
  5
10C
330
63
100
AcDbEntity
  8
0
  6
Continuous
 62
     7
100
AcDbLine
 10
-32.24256318406072
 20
26.40000000001501
 30
0.0
 11
-32.24256318406072
 21
30.25000000001499
 31
0.0
  0
LINE
  5
10D
330
63
100
AcDbEntity
  8
0
  6
Continuous
 62
     7
100
AcDbLine
 10
-33.74256318406068
 20
26.40000000001501
 30
0.0
 11
-32.24256318406072
 21
26.40000000001501
 31
0.0
  0
LINE
  5
10E
330
63
100
AcDbEntity
  8
0
  6
Continuous
 62
     7
100
AcDbLine
 10
-35.24256318406064
 20
26.40000000001501
 30
0.0
 11
-33.74256318406068
 21
26.40000000001501
 31
0.0
  0
LINE
  5
10F
330
63
100
AcDbEntity
  8
0
  6
Continuous
 62
     7
100
AcDbLine
 10
-35.24256318406064
 20
26.40000000001501
 30
0.0
 11
-35.24256318406064
 21
30.25000000001499
 31
0.0
  0
LINE
  5
110
330
63
100
AcDbEntity
  8
0
  6
Continuous
 62
     7
100
AcDbLine
 10
-33.74256318406068
 20
30.25000000001503
 30
0.0
 11
-35.24256318406064
 21
30.25000000001499
 31
0.0
  0
LINE
  5
111
330
63
100
AcDbEntity
  8
0
  6
Continuous
 62
     7
100
AcDbLine
 10
-36.51384447617088
 20
32.40000000001501
 30
0.0
 11
-36.5138444761709
 21
32.25000000001501
 31
0.0
  0
LINE
  5
112
330
63
100
AcDbEntity
  8
0
  6
Continuous
 62
     7
100
AcDbLine
 10
-30.97128189195049
 20
32.25000000001501
 30
0.0
 11
-30.97128189195049
 21
32.40000000001501
 31
0.0
  0
LINE
  5
113
330
63
100
AcDbEntity
  8
0
  6
Continuous
 62
     7
100
AcDbLine
 10
-30.97128189195049
 20
32.40000000001501
 30
0.0
 11
-36.51384447617088
 21
32.40000000001501
 31
0.0
  0
LINE
  5
114
330
63
100
AcDbEntity
  8
0
  6
Continuous
 62
     7
100
AcDbLine
 10
-36.5138444761709
 20
32.25000000001501
 30
0.0
 11
-30.97128189195049
 21
32.25000000001501
 31
0.0
  0
LINE
  5
115
330
63
100
AcDbEntity
  8
0
  6
Continuous
 62
     7
100
AcDbLine
 10
-35.24256318406064
 20
30.25000000001499
 30
0.0
 11
-36.49256318406068
 21
31.50000000001501
 31
0.0
  0
LINE
  5
116
330
63
100
AcDbEntity
  8
0
  6
Continuous
 62
     7
100
AcDbLine
 10
-35.79256318406068
 20
31.50000000001501
 30
0.0
 11
-35.99256318406067
 21
31.70000000001501
 31
0.0
  0
LINE
  5
117
330
63
100
AcDbEntity
  8
0
  6
Continuous
 62
     7
100
AcDbLine
 10
-35.99256318406067
 20
31.70000000001501
 30
0.0
 11
-35.95672216660908
 21
31.70000000001501
 31
0.0
  0
LINE
  5
118
330
63
100
AcDbEntity
  8
0
  6
Continuous
 62
     7
100
AcDbLine
 10
-36.49256318406068
 20
31.50000000001501
 30
0.0
 11
-35.79256318406068
 21
31.50000000001501
 31
0.0
  0
LINE
  5
119
330
63
100
AcDbEntity
  8
0
  6
Continuous
 62
     7
100
AcDbLine
 10
-35.79256318406068
 20
31.50000000001501
 30
0.0
 11
-33.74256318406068
 21
31.50000000001501
 31
0.0
  0
LINE
  5
11A
330
63
100
AcDbEntity
  8
0
  6
Continuous
 62
     7
100
AcDbLine
 10
-32.24256318406072
 20
30.25000000001499
 30
0.0
 11
-33.74256318406068
 21
30.25000000001503
 31
0.0
  0
LINE
  5
11B
330
63
100
AcDbEntity
  8
0
  6
Continuous
 62
     7
100
AcDbLine
 10
-32.24256318406072
 20
30.25000000001499
 30
0.0
 11
-30.99256318406069
 21
31.50000000001501
 31
0.0
  0
LINE
  5
11C
330
63
100
AcDbEntity
  8
1
  6
DOT_CENTER
 62
     2
100
AcDbLine
 10
-33.74256318406068
 20
26.0327829452818
 30
0.0
 11
-33.7425631840607
 21
32.64592225216579
 31
0.0
  0
SPLINE
  5
11D
330
63
100
AcDbEntity
  8
0
  6
Continuous
 62
     7
100
AcDbSpline
210
0.0
220
0.0
230
1.0
 70
     8
 71
     3
 72
    13
 73
     9
 74
     7
 42
0.000000001
 43
0.0000000001
 44
0.00000001
 40
0.0
 40
0.0
 40
0.0
 40
0.0
 40
0.1304788356576912
 40
0.260957657455218
 40
0.3914364895257613
 40
0.5219153119331362
 40
0.6523941229714992
 40
0.7828729636704772
 40
0.7828729636704772
 40
0.7828729636704772
 40
0.7828729636704772
 10
-31.5284081567868
 20
31.70000000001502
 30
0.0
 10
-31.49741495378576
 20
31.73051323961764
 30
0.0
 10
-31.43542856136699
 20
31.79153972603171
 30
0.0
 10
-31.34252100140571
 20
31.88315256817027
 30
0.0
 10
-31.24964256766812
 20
31.97479492072901
 30
0.0
 10
-31.15680878133917
 20
32.06648250346876
 30
0.0
 10
-31.06402460272052
 20
32.158220290122
 30
0.0
 10
-31.00219612777772
 20
32.2194067575906
 30
0.0
 10
-30.97128189195049
 20
32.25000000001501
 30
0.0
 11
-31.5284081567868
 21
31.70000000001502
 31
0.0
 11
-31.43544055596649
 21
31.79155190744126
 31
0.0
 11
-31.34252585066464
 21
31.8831574775695
 31
0.0
 11
-31.24964999915627
 21
31.97480245466279
 31
0.0
 11
-31.1568170399045
 21
32.06649086600349
 31
0.0
 11
-31.06403151388687
 21
32.15822726168373
 31
0.0
 11
-30.97128189195049
 21
32.25000000001501
 31
0.0
  0
SPLINE
  5
11E
330
63
100
AcDbEntity
  8
0
  6
Continuous
 62
     7
100
AcDbSpline
210
0.0
220
0.0
230
1.0
 70
     8
 71
     3
 72
    13
 73
     9
 74
     7
 42
0.000000001
 43
0.0000000001
 44
0.00000001
 40
0.0
 40
0.0
 40
0.0
 40
0.0
 40
0.1304788055932695
 40
0.2609576516850372
 40
0.3914366496786337
 40
0.5219153060016992
 40
0.6523931073284597
 40
0.7828701463369057
 40
0.7828701463369057
 40
0.7828701463369057
 40
0.7828701463369057
 10
-36.5138444761709
 20
32.25000000001501
 30
0.0
 10
-36.48293026762218
 20
32.21940674666632
 30
0.0
 10
-36.42110183061366
 20
32.15822024089901
 30
0.0
 10
-36.3283176190604
 20
32.06648240423272
 30
0.0
 10
-36.23548343991899
 20
31.97479520259754
 30
0.0
 10
-36.14260531439328
 20
31.88315302245974
 30
0.0
 10
-36.04970004773776
 20
31.79153927540005
 30
0.0
 10
-35.98771473672385
 20
31.73051302890207
 30
0.0
 10
-35.95672216660908
 20
31.70000000001501
 30
0.0
 11
-36.5138444761709
 21
32.25000000001501
 31
0.0
 11
-36.42109492803884
 21
32.1582272370058
 31
0.0
 11
-36.32830932827355
 21
32.06649086605947
 31
0.0
 11
-36.23547600018429
 21
31.97480257829029
 31
0.0
 11
-36.14260051751346
 21
31.88315747762545
 31
0.0
 11
-36.04968770820914
 21
31.79155143793091
 31
0.0
 11
-35.95672216660908
 21
31.70000000001501
 31
0.0
  0
ENDBLK
  5
65
330
63
100
AcDbEntity
  8
0
100
AcDbBlockEnd
  0
BLOCK
  5
68
330
66
100
AcDbEntity
  8
0
100
AcDbBlockBegin
  2
SA_Rechts1
 70
     0
 10
-33.74256318406068
 20
29.40000000001001
 30
0.0
  3
SA_Rechts1
  1

  0
INSERT
  5
67
330
66
100
AcDbEntity
  8
0
100
AcDbBlockReference
  2
1686229_HC_D_7_DS_IP65-select__5
 10
-36.5138444761709
 20
26.40000000001501
 30
0.0
  0
MTEXT
  5
11F
330
66
100
AcDbEntity
  8
1
 62
     6
100
AcDbMText
 10
-33.74256318406068
 20
25.40000000001001
 30
0.0
 40
1.0
 41
0.0
 71
     2
 72
     1
  1
 
  7
CONVERTER_11
 73
     1
 44
1.32052821128451
  0
ENDBLK
  5
69
330
66
100
AcDbEntity
  8
0
100
AcDbBlockEnd
  0
BLOCK
  5
6B
330
6A
100
AcDbEntity
  8
0
100
AcDbBlockBegin
  2
1686229_HC_D_7_DS_IP65-select__6
 70
     0
 10
-1.82871900528515
 20
26.40000000001501
 30
0.0
  3
1686229_HC_D_7_DS_IP65-select__6
  1

  0
LINE
  5
120
330
6A
100
AcDbEntity
  8
0
  6
Continuous
 62
     7
100
AcDbLine
 10
1.37128099471486
 20
32.25000000001501
 30
0.0
 11
1.37128099471486
 21
32.40000000001501
 31
0.0
  0
LINE
  5
121
330
6A
100
AcDbEntity
  8
0
  6
Continuous
 62
     7
100
AcDbLine
 10
1.37128099471486
 20
32.25000000001501
 30
0.0
 11
3.77128099471483
 21
32.25000000001508
 31
0.0
  0
LINE
  5
122
330
6A
100
AcDbEntity
  8
0
  6
Continuous
 62
     7
100
AcDbLine
 10
1.37128099471486
 20
31.70000000001501
 30
0.0
 11
1.37128099471486
 21
32.25000000001501
 31
0.0
  0
LINE
  5
123
330
6A
100
AcDbEntity
  8
0
  6
Continuous
 62
     7
100
AcDbLine
 10
1.37128099471486
 20
32.40000000001501
 30
0.0
 11
3.77128099471483
 21
32.40000000001501
 31
0.0
  0
LINE
  5
124
330
6A
100
AcDbEntity
  8
0
  6
Continuous
 62
     7
100
AcDbLine
 10
-1.82871900528515
 20
32.25000000001495
 30
0.0
 11
0.57128099471486
 21
32.25000000001501
 31
0.0
  0
LINE
  5
125
330
6A
100
AcDbEntity
  8
0
  6
Continuous
 62
     7
100
AcDbLine
 10
0.57128099471486
 20
32.25000000001501
 30
0.0
 11
0.57128080850766
 21
31.70000000001501
 31
0.0
  0
LINE
  5
126
330
6A
100
AcDbEntity
  8
0
  6
Continuous
 62
     7
100
AcDbLine
 10
0.57128099471486
 20
32.40000000001501
 30
0.0
 11
0.57128099471486
 21
32.25000000001501
 31
0.0
  0
LINE
  5
127
330
6A
100
AcDbEntity
  8
0
  6
Continuous
 62
     7
100
AcDbLine
 10
-1.82871900528515
 20
32.40000000001501
 30
0.0
 11
0.57128099471486
 21
32.40000000001501
 31
0.0
  0
LINE
  5
128
330
6A
100
AcDbEntity
  8
0
  6
Continuous
 62
     7
100
AcDbLine
 10
-1.07871900528514
 20
31.50000000001497
 30
0.0
 11
-1.82871900528515
 21
32.25000000001495
 31
0.0
  0
LINE
  5
129
330
6A
100
AcDbEntity
  8
0
  6
Continuous
 62
     7
100
AcDbLine
 10
-1.82871900528515
 20
32.25000000001495
 30
0.0
 11
-1.82871900528515
 21
32.40000000001501
 31
0.0
  0
LINE
  5
12A
330
6A
100
AcDbEntity
  8
0
  6
Continuous
 62
     7
100
AcDbLine
 10
3.02128099471481
 20
31.50000000001501
 30
0.0
 11
3.72128099471485
 21
31.50000000001494
 31
0.0
  0
LINE
  5
12B
330
6A
100
AcDbEntity
  8
0
  6
Continuous
 62
     7
100
AcDbLine
 10
-1.77871900528507
 20
31.50000000001501
 30
0.0
 11
-1.07871900528514
 21
31.50000000001497
 31
0.0
  0
LINE
  5
12C
330
6A
100
AcDbEntity
  8
0
  6
Continuous
 62
     7
100
AcDbLine
 10
-1.07871900528514
 20
31.50000000001497
 30
0.0
 11
3.02128099471481
 21
31.50000000001501
 31
0.0
  0
LINE
  5
12D
330
6A
100
AcDbEntity
  8
0
  6
Continuous
 62
     7
100
AcDbLine
 10
0.57128080850766
 20
31.70000000001501
 30
0.0
 11
1.37128099471486
 21
31.70000000001501
 31
0.0
  0
LINE
  5
12E
330
6A
100
AcDbEntity
  8
0
  6
Continuous
 62
     7
100
AcDbLine
 10
2.47128099471478
 20
26.40000000001501
 30
0.0
 11
2.47128099471478
 21
30.25000000001495
 31
0.0
  0
LINE
  5
12F
330
6A
100
AcDbEntity
  8
0
  6
Continuous
 62
     7
100
AcDbLine
 10
-0.52871900528514
 20
26.40000000001501
 30
0.0
 11
2.47128099471478
 21
26.40000000001501
 31
0.0
  0
LINE
  5
130
330
6A
100
AcDbEntity
  8
0
  6
Continuous
 62
     7
100
AcDbLine
 10
-0.52871900528514
 20
26.40000000001501
 30
0.0
 11
-0.52871900528514
 21
30.25000000001504
 31
0.0
  0
LINE
  5
131
330
6A
100
AcDbEntity
  8
0
  6
Continuous
 62
     7
100
AcDbLine
 10
-0.52871900528514
 20
30.25000000001504
 30
0.0
 11
-1.77871900528507
 21
31.50000000001501
 31
0.0
  0
LINE
  5
132
330
6A
100
AcDbEntity
  8
0
  6
Continuous
 62
     7
100
AcDbLine
 10
3.02128099471481
 20
31.50000000001501
 30
0.0
 11
3.77128099471483
 21
32.25000000001508
 31
0.0
  0
LINE
  5
133
330
6A
100
AcDbEntity
  8
0
  6
Continuous
 62
     7
100
AcDbLine
 10
3.77128099471483
 20
32.25000000001508
 30
0.0
 11
3.77128099471483
 21
32.40000000001501
 31
0.0
  0
LINE
  5
134
330
6A
100
AcDbEntity
  8
0
  6
Continuous
 62
     7
100
AcDbLine
 10
2.47128099471478
 20
30.25000000001495
 30
0.0
 11
-0.52871900528514
 21
30.25000000001504
 31
0.0
  0
LINE
  5
135
330
6A
100
AcDbEntity
  8
0
  6
Continuous
 62
     7
100
AcDbLine
 10
2.47128099471478
 20
30.25000000001495
 30
0.0
 11
3.72128099471485
 21
31.50000000001494
 31
0.0
  0
LINE
  5
136
330
6A
100
AcDbEntity
  8
1
  6
DOT_CENTER
 62
     2
100
AcDbLine
 10
0.97128099471482
 20
26.0765941957768
 30
0.0
 11
0.97128099471484
 21
32.25000000001502
 31
0.0
  0
ENDBLK
  5
6C
330
6A
100
AcDbEntity
  8
0
100
AcDbBlockEnd
  0
BLOCK
  5
6F
330
6D
100
AcDbEntity
  8
0
100
AcDbBlockBegin
  2
Rckans1
 70
     0
 10
0.97128099469486
 20
29.40000000001001
 30
0.0
  3
Rckans1
  1

  0
INSERT
  5
6E
330
6D
100
AcDbEntity
  8
0
100
AcDbBlockReference
  2
1686229_HC_D_7_DS_IP65-select__6
 10
-1.82871900528515
 20
26.40000000001501
 30
0.0
  0
MTEXT
  5
137
330
6D
100
AcDbEntity
  8
1
 62
     6
100
AcDbMText
 10
0.97128099469484
 20
25.40000000001001
 30
0.0
 40
1.0
 41
0.0
 71
     2
 72
     1
  1
 
  7
CONVERTER_11
 73
     1
 44
1.32052821128451
  0
ENDBLK
  5
70
330
6D
100
AcDbEntity
  8
0
100
AcDbBlockEnd
  0
BLOCK
  5
72
330
71
100
AcDbEntity
  8
0
100
AcDbBlockBegin
  2
_punkt
 70
     0
 10
62.26157366041744
 20
-2.98234762147671
 30
0.0
  3
_punkt
  1

  0
LINE
  5
138
330
71
100
AcDbEntity
  8
1
  6
Continuous
 62
     2
100
AcDbLine
 10
62.26157366041744
 20
-2.98234762147671
 30
0.0
 11
62.26157366041744
 21
-7.98234762147682
 31
0.0
  0
LINE
  5
139
330
71
100
AcDbEntity
  8
1
  6
Continuous
 62
     2
100
AcDbLine
 10
62.26157366041744
 20
-2.98234762147671
 30
0.0
 11
67.26157366041645
 21
-2.98234762147671
 31
0.0
  0
ENDBLK
  5
73
330
71
100
AcDbEntity
  8
0
100
AcDbBlockEnd
  0
BLOCK
  5
75
330
74
100
AcDbEntity
  8
0
100
AcDbBlockBegin
  2
_rahmen
 70
     0
 10
62.26157366041744
 20
-7.98234762147682
 30
0.0
  3
_rahmen
  1

  0
POINT
  5
13A
330
74
100
AcDbEntity
  8
1
 62
     3
 60
     1
100
AcDbPoint
 10
-1.23842633958018
 20
18.26765237852316
 30
0.0
  0
LINE
  5
13B
102
{ACAD_REACTORS
330
31D
330
31E
102
}
330
74
100
AcDbEntity
  8
0
  6
Continuous
 62
     2
100
AcDbLine
 10
-52.7960995094999
 20
4.52615577989028
 30
0.0
 11
-52.7960995094999
 21
5.24724421526487
 31
0.0
  0
LINE
  5
13C
102
{ACAD_REACTORS
330
31D
330
31E
102
}
330
74
100
AcDbEntity
  8
0
  6
Continuous
 62
     2
100
AcDbLine
 10
-52.7960995094999
 20
3.73295850097882
 30
0.0
 11
-52.7960995094999
 21
3.01187006560423
 31
0.0
  0
LINE
  5
13D
102
{ACAD_REACTORS
330
31F
330
320
102
}
330
74
100
AcDbEntity
  8
0
  6
Continuous
 62
     2
100
AcDbLine
 10
-40.12416220678054
 20
4.74248231050225
 30
0.0
 11
-39.21206361209616
 21
4.74248231050225
 31
0.0
  0
LINE
  5
13E
102
{ACAD_REACTORS
330
31F
330
320
102
}
330
74
100
AcDbEntity
  8
0
  6
Continuous
 62
     2
100
AcDbLine
 10
-39.48808175805213
 20
3.73295850097836
 30
0.0
 11
-39.48808175805213
 21
3.01187006560379
 31
0.0
  0
LINE
  5
13F
102
{ACAD_REACTORS
330
329
330
32A
102
}
330
74
100
AcDbEntity
  8
0
  6
Continuous
 62
     2
100
AcDbLine
 10
-41.02589714266358
 20
5.64384285470629
 30
0.0
 11
-39.8705640460187
 21
6.9503378908839
 31
0.0
  0
LINE
  5
140
102
{ACAD_REACTORS
330
329
330
32A
102
}
330
74
100
AcDbEntity
  8
0
  6
Continuous
 62
     2
100
AcDbLine
 10
-40.94703481524803
 20
8.16765237851712
 30
0.0
 11
-39.8705640460187
 21
6.9503378908839
 31
0.0
  0
LINE
  5
141
102
{ACAD_REACTORS
330
329
330
32A
102
}
330
74
100
AcDbEntity
  8
0
  6
Continuous
 62
     2
100
AcDbLine
 10
-38.79409327679029
 20
8.16765237851712
 30
0.0
 11
-37.63481706377607
 21
8.16765237851712
 31
0.0
  0
LINE
  5
142
102
{ACAD_REACTORS
330
329
330
32A
102
}
330
74
100
AcDbEntity
  8
0
  6
Continuous
 62
     2
100
AcDbLine
 10
-39.86662092964857
 20
5.64384285470629
 30
0.0
 11
-39.2909259395116
 21
6.29486085908123
 31
0.0
  0
LINE
  5
143
102
{ACAD_REACTORS
330
329
330
32A
102
}
330
74
100
AcDbEntity
  8
0
  6
Continuous
 62
     2
100
AcDbLine
 10
-39.86662092964857
 20
5.64384285470629
 30
0.0
 11
-41.02589714266358
 21
5.64384285470629
 31
0.0
  0
LINE
  5
144
102
{ACAD_REACTORS
330
32B
330
32C
102
}
330
74
100
AcDbEntity
  8
0
  6
Continuous
 62
     2
100
AcDbLine
 10
-41.12447505193373
 20
5.64384285470629
 30
0.0
 11
-42.14968530834111
 21
5.64384285470629
 31
0.0
  0
LINE
  5
145
102
{ACAD_REACTORS
330
32D
330
32E
102
}
330
74
100
AcDbEntity
  8
0
  6
Continuous
 62
     2
100
AcDbLine
 10
-42.86702382747754
 20
3.87717618805346
 30
0.0
 11
-43.11509427143633
 21
4.511734011183
 31
0.0
  0
LINE
  5
146
102
{ACAD_REACTORS
330
32D
330
32E
102
}
330
74
100
AcDbEntity
  8
0
  6
Continuous
 62
     2
100
AcDbLine
 10
-43.36316471539696
 20
3.87717618805346
 30
0.0
 11
-42.86702382747754
 21
3.87717618805346
 31
0.0
  0
LINE
  5
147
102
{ACAD_REACTORS
330
32D
330
32E
102
}
330
74
100
AcDbEntity
  8
0
  6
Continuous
 62
     2
100
AcDbLine
 10
-44.78303249628439
 20
2.86765237852914
 30
0.0
 11
-43.75782223987702
 21
2.86765237852914
 31
0.0
  0
LINE
  5
148
102
{ACAD_REACTORS
330
32D
330
32E
102
}
330
74
100
AcDbEntity
  8
0
  6
Continuous
 62
     2
100
AcDbLine
 10
-43.62769939964042
 20
5.39146190233997
 30
0.0
 11
-42.60248914323316
 21
5.39146190233997
 31
0.0
  0
LINE
  5
149
102
{ACAD_REACTORS
330
32D
330
32E
102
}
330
74
100
AcDbEntity
  8
0
  6
Continuous
 62
     2
100
AcDbLine
 10
-42.60248914323316
 20
5.39146190233997
 30
0.0
 11
-41.44715604658827
 21
2.86765237852914
 31
0.0
  0
LINE
  5
14A
102
{ACAD_REACTORS
330
32D
330
32E
102
}
330
74
100
AcDbEntity
  8
0
  6
Continuous
 62
     2
100
AcDbLine
 10
-42.47236630299646
 20
2.86765237852914
 30
0.0
 11
-42.64714320669546
 21
3.31472720846126
 31
0.0
  0
LINE
  5
14B
102
{ACAD_REACTORS
330
32F
330
330
102
}
330
74
100
AcDbEntity
  8
0
  6
Continuous
 62
     2
100
AcDbLine
 10
-45.89577059686921
 20
2.86765237852914
 30
0.0
 11
-44.90999150416965
 21
2.86765237852914
 31
0.0
  0
LINE
  5
14C
102
{ACAD_REACTORS
330
32F
330
330
102
}
330
74
100
AcDbEntity
  8
0
  6
Continuous
 62
     2
100
AcDbLine
 10
-45.89577059686921
 20
4.74248231050225
 30
0.0
 11
-45.89577059686921
 21
2.86765237852914
 31
0.0
  0
LINE
  5
14D
102
{ACAD_REACTORS
330
32F
330
330
102
}
330
74
100
AcDbEntity
  8
0
  6
Continuous
 62
     2
100
AcDbLine
 10
-46.56610037990609
 20
5.39146190233997
 30
0.0
 11
-46.56610037990609
 21
4.74248231050225
 31
0.0
  0
LINE
  5
14E
102
{ACAD_REACTORS
330
331
330
332
102
}
330
74
100
AcDbEntity
  8
0
  6
Continuous
 62
     2
100
AcDbLine
 10
-45.343609568689
 20
5.64384285470629
 30
0.0
 11
-44.35783047598946
 21
5.64384285470629
 31
0.0
  0
LINE
  5
14F
102
{ACAD_REACTORS
330
331
330
332
102
}
330
74
100
AcDbEntity
  8
0
  6
Continuous
 62
     2
100
AcDbLine
 10
-43.33262021958117
 20
7.08601972545501
 30
0.0
 11
-44.35783047598946
 21
8.16765237851712
 31
0.0
  0
LINE
  5
150
102
{ACAD_REACTORS
330
331
330
332
102
}
330
74
100
AcDbEntity
  8
0
  6
Continuous
 62
     2
100
AcDbLine
 10
-42.34684112688152
 20
8.16765237851712
 30
0.0
 11
-43.33262021958117
 21
8.16765237851712
 31
0.0
  0
LINE
  5
151
102
{ACAD_REACTORS
330
331
330
332
102
}
330
74
100
AcDbEntity
  8
0
  6
Continuous
 62
     2
100
AcDbLine
 10
-42.34684112688152
 20
5.64384285470629
 30
0.0
 11
-42.34684112688152
 21
8.16765237851712
 31
0.0
  0
LINE
  5
152
102
{ACAD_REACTORS
330
331
330
332
102
}
330
74
100
AcDbEntity
  8
0
  6
Continuous
 62
     2
100
AcDbLine
 10
-43.33262021958117
 20
5.64384285470629
 30
0.0
 11
-42.34684112688152
 21
5.64384285470629
 31
0.0
  0
LINE
  5
153
102
{ACAD_REACTORS
330
331
330
332
102
}
330
74
100
AcDbEntity
  8
0
  6
Continuous
 62
     2
100
AcDbLine
 10
-44.35783047598946
 20
6.72547550776795
 30
0.0
 11
-43.33262021958117
 21
5.64384285470629
 31
0.0
  0
LINE
  5
154
102
{ACAD_REACTORS
330
333
330
334
102
}
330
74
100
AcDbEntity
  8
0
  6
Continuous
 62
     2
100
AcDbLine
 10
-47.67017296372971
 20
4.30982924927786
 30
0.0
 11
-48.69538322013707
 21
5.39146190233997
 31
0.0
  0
LINE
  5
155
102
{ACAD_REACTORS
330
333
330
334
102
}
330
74
100
AcDbEntity
  8
0
  6
Continuous
 62
     2
100
AcDbLine
 10
-47.67017296372971
 20
5.39146190233997
 30
0.0
 11
-47.67017296372971
 21
4.30982924927786
 31
0.0
  0
LINE
  5
156
102
{ACAD_REACTORS
330
333
330
334
102
}
330
74
100
AcDbEntity
  8
0
  6
Continuous
 62
     2
100
AcDbLine
 10
-46.68439387103015
 20
5.39146190233997
 30
0.0
 11
-47.67017296372971
 21
5.39146190233997
 31
0.0
  0
LINE
  5
157
102
{ACAD_REACTORS
330
333
330
334
102
}
330
74
100
AcDbEntity
  8
0
  6
Continuous
 62
     2
100
AcDbLine
 10
-46.68439387103015
 20
2.86765237852914
 30
0.0
 11
-46.68439387103015
 21
5.39146190233997
 31
0.0
  0
LINE
  5
158
102
{ACAD_REACTORS
330
333
330
334
102
}
330
74
100
AcDbEntity
  8
0
  6
Continuous
 62
     2
100
AcDbLine
 10
-48.69538322013707
 20
3.94928503159079
 30
0.0
 11
-47.67017296372971
 21
2.86765237852914
 31
0.0
  0
LINE
  5
159
102
{ACAD_REACTORS
330
333
330
334
102
}
330
74
100
AcDbEntity
  8
0
  6
Continuous
 62
     2
100
AcDbLine
 10
-48.69538322013707
 20
2.86765237852914
 30
0.0
 11
-48.69538322013707
 21
3.94928503159079
 31
0.0
  0
LINE
  5
15A
102
{ACAD_REACTORS
330
323
330
324
102
}
330
74
100
AcDbEntity
  8
0
  6
Continuous
 62
     2
100
AcDbLine
 10
-46.64483797105314
 20
7.59078163021718
 30
0.0
 11
-45.54076538722863
 21
7.59078163021718
 31
0.0
  0
LINE
  5
15B
102
{ACAD_REACTORS
330
323
330
324
102
}
330
74
100
AcDbEntity
  8
0
  6
Continuous
 62
     2
100
AcDbLine
 10
-46.64483797105314
 20
6.22071360300578
 30
0.0
 11
-46.64483797105314
 21
6.61731224246174
 31
0.0
  0
LINE
  5
15C
102
{ACAD_REACTORS
330
323
330
324
102
}
330
74
100
AcDbEntity
  8
0
  6
Continuous
 62
     2
100
AcDbLine
 10
-45.54076538722863
 20
6.22071360300578
 30
0.0
 11
-46.64483797105314
 21
6.22071360300578
 31
0.0
  0
LINE
  5
15D
102
{ACAD_REACTORS
330
323
330
324
102
}
330
74
100
AcDbEntity
  8
0
  6
Continuous
 62
     2
100
AcDbLine
 10
-45.54076538722863
 20
5.64384285470629
 30
0.0
 11
-45.54076538722863
 21
6.22071360300578
 31
0.0
  0
LINE
  5
15E
102
{ACAD_REACTORS
330
323
330
324
102
}
330
74
100
AcDbEntity
  8
0
  6
Continuous
 62
     2
100
AcDbLine
 10
-48.14433540688233
 20
5.64384285470629
 30
0.0
 11
-45.54076538722863
 21
5.64384285470629
 31
0.0
  0
LINE
  5
15F
102
{ACAD_REACTORS
330
323
330
324
102
}
330
74
100
AcDbEntity
  8
0
  6
Continuous
 62
     2
100
AcDbLine
 10
-48.14433540688233
 20
8.16765237851712
 30
0.0
 11
-45.54076538722863
 21
8.16765237851712
 31
0.0
  0
LINE
  5
160
102
{ACAD_REACTORS
330
323
330
324
102
}
330
74
100
AcDbEntity
  8
0
  6
Continuous
 62
     2
100
AcDbLine
 10
-45.54076538722863
 20
7.59078163021718
 30
0.0
 11
-45.54076538722863
 21
8.16765237851712
 31
0.0
  0
LINE
  5
161
102
{ACAD_REACTORS
330
335
330
336
102
}
330
74
100
AcDbEntity
  8
0
  6
Continuous
 62
     2
100
AcDbLine
 10
-50.50909201443611
 20
7.28431904518276
 30
0.0
 11
-50.50909201443611
 21
8.16765237851712
 31
0.0
  0
LINE
  5
162
102
{ACAD_REACTORS
330
335
330
336
102
}
330
74
100
AcDbEntity
  8
0
  6
Continuous
 62
     2
100
AcDbLine
 10
-50.50909201443611
 20
8.16765237851712
 30
0.0
 11
-49.52331292173656
 21
8.16765237851712
 31
0.0
  0
LINE
  5
163
102
{ACAD_REACTORS
330
335
330
336
102
}
330
74
100
AcDbEntity
  8
0
  6
Continuous
 62
     2
100
AcDbLine
 10
-50.50909201443611
 20
6.58125782069285
 30
0.0
 11
-51.3765776160125
 21
6.58125782069285
 31
0.0
  0
LINE
  5
164
102
{ACAD_REACTORS
330
335
330
336
102
}
330
74
100
AcDbEntity
  8
0
  6
Continuous
 62
     2
100
AcDbLine
 10
-51.3765776160125
 20
6.58125782069285
 30
0.0
 11
-51.3765776160125
 21
5.64384285470629
 31
0.0
  0
LINE
  5
165
102
{ACAD_REACTORS
330
335
330
336
102
}
330
74
100
AcDbEntity
  8
0
  6
Continuous
 62
     2
100
AcDbLine
 10
-52.36235670871216
 20
8.16765237851712
 30
0.0
 11
-52.36235670871216
 21
5.64384285470629
 31
0.0
  0
LINE
  5
166
102
{ACAD_REACTORS
330
327
330
328
102
}
330
74
100
AcDbEntity
  8
0
  6
Continuous
 62
     2
100
AcDbLine
 10
-53.97903442073996
 20
7.03638502745735
 30
0.0
 11
-53.97903442073996
 21
7.61963101864931
 31
0.0
  0
LINE
  5
167
102
{ACAD_REACTORS
330
327
330
328
102
}
330
74
100
AcDbEntity
  8
0
  6
Continuous
 62
     2
100
AcDbLine
 10
-55.00424467714825
 20
5.64384285470629
 30
0.0
 11
-53.97903442073996
 21
5.64384285470629
 31
0.0
  0
LINE
  5
168
102
{ACAD_REACTORS
330
327
330
328
102
}
330
74
100
AcDbEntity
  8
0
  6
Continuous
 62
     2
100
AcDbLine
 10
-53.97903442073996
 20
5.64384285470629
 30
0.0
 11
-53.97903442073996
 21
6.42324635978376
 31
0.0
  0
LINE
  5
169
102
{ACAD_REACTORS
330
321
330
322
102
}
330
74
100
AcDbEntity
  8
0
  6
Continuous
 62
     2
100
AcDbLine
 10
-58.56205116409993
 20
3.45654126741916
 30
0.0
 11
-59.78174807402516
 21
3.45654126741916
 31
0.0
  0
LINE
  5
16A
102
{ACAD_REACTORS
330
321
330
322
102
}
330
74
100
AcDbEntity
  8
0
  6
Continuous
 62
     2
100
AcDbLine
 10
-60.62318550553701
 20
7.81703699388739
 30
0.0
 11
-60.62318550553701
 21
3.21826776314342
 31
0.0
  0
LINE
  5
16B
102
{ACAD_REACTORS
330
321
330
322
102
}
330
74
100
AcDbEntity
  8
0
  6
Continuous
 62
     2
100
AcDbLine
 10
-60.27257012092312
 20
8.16765237850213
 30
0.0
 11
-55.74917169884307
 21
8.16765237850213
 31
0.0
  0
LINE
  5
16C
102
{ACAD_REACTORS
330
321
330
322
102
}
330
74
100
AcDbEntity
  8
0
  6
Continuous
 62
     2
100
AcDbLine
 10
-55.39855631422827
 20
7.81703699388739
 30
0.0
 11
-55.39855631422827
 21
3.21826776314342
 31
0.0
  0
LINE
  5
16D
102
{ACAD_REACTORS
330
321
330
322
102
}
330
74
100
AcDbEntity
  8
0
  6
Continuous
 62
     2
100
AcDbLine
 10
-55.74917169884307
 20
2.86765237852914
 30
0.0
 11
-60.27257012092312
 21
2.86765237852914
 31
0.0
  0
LINE
  5
16E
102
{ACAD_REACTORS
330
321
330
322
102
}
330
74
100
AcDbEntity
  8
0
  6
Continuous
 62
     2
100
AcDbLine
 10
-58.30112808717709
 20
3.71746434434205
 30
0.0
 11
-58.30112808717709
 21
4.98256428775661
 31
0.0
  0
LINE
  5
16F
102
{ACAD_REACTORS
330
321
330
322
102
}
330
74
100
AcDbEntity
  8
0
  6
Continuous
 62
     2
100
AcDbLine
 10
-58.30112808717709
 20
6.81864651265323
 30
0.0
 11
-58.30112808717709
 21
7.31784041270329
 31
0.0
  0
LINE
  5
170
102
{ACAD_REACTORS
330
321
330
322
102
}
330
74
100
AcDbEntity
  8
0
  6
Continuous
 62
     2
100
AcDbLine
 10
-59.78174807402516
 20
7.57876348962574
 30
0.0
 11
-58.56205116409993
 21
7.57876348962574
 31
0.0
  0
LINE
  5
171
102
{ACAD_REACTORS
330
321
330
322
102
}
330
74
100
AcDbEntity
  8
0
  6
Continuous
 62
     2
100
AcDbLine
 10
-60.0426711509472
 20
7.31784041270329
 30
0.0
 11
-60.0426711509472
 21
3.71746434434205
 31
0.0
  0
LINE
  5
172
102
{ACAD_REACTORS
330
327
330
328
102
}
330
74
100
AcDbEntity
  8
0
  6
Continuous
 62
     2
100
AcDbLine
 10
-53.97903442073996
 20
6.42324635978376
 30
0.0
 11
-53.35195376968184
 21
6.42324635978376
 31
0.0
  0
LINE
  5
173
102
{ACAD_REACTORS
330
327
330
328
102
}
330
74
100
AcDbEntity
  8
0
  6
Continuous
 62
     2
100
AcDbLine
 10
-55.00424467714825
 20
8.16765237851712
 30
0.0
 11
-53.35195376968184
 21
8.16765237851712
 31
0.0
  0
LINE
  5
174
102
{ACAD_REACTORS
330
327
330
328
102
}
330
74
100
AcDbEntity
  8
0
  6
Continuous
 62
     2
100
AcDbLine
 10
-55.00424467714825
 20
8.16765237851712
 30
0.0
 11
-55.00424467714825
 21
5.64384285470629
 31
0.0
  0
LINE
  5
175
102
{ACAD_REACTORS
330
327
330
328
102
}
330
74
100
AcDbEntity
  8
0
  6
Continuous
 62
     2
100
AcDbLine
 10
-53.97903442073996
 20
7.03638502745735
 30
0.0
 11
-53.71680709715159
 21
7.03638502745735
 31
0.0
  0
LINE
  5
176
102
{ACAD_REACTORS
330
327
330
328
102
}
330
74
100
AcDbEntity
  8
0
  6
Continuous
 62
     2
100
AcDbLine
 10
-53.97903442073996
 20
7.61963101864931
 30
0.0
 11
-53.71680709715159
 21
7.61963101864931
 31
0.0
  0
LINE
  5
177
102
{ACAD_REACTORS
330
335
330
336
102
}
330
74
100
AcDbEntity
  8
0
  6
Continuous
 62
     2
100
AcDbLine
 10
-51.3765776160125
 20
7.28431904518276
 30
0.0
 11
-50.50909201443611
 21
7.28431904518276
 31
0.0
  0
LINE
  5
178
102
{ACAD_REACTORS
330
335
330
336
102
}
330
74
100
AcDbEntity
  8
0
  6
Continuous
 62
     2
100
AcDbLine
 10
-51.3765776160125
 20
8.16765237851712
 30
0.0
 11
-51.3765776160125
 21
7.28431904518276
 31
0.0
  0
LINE
  5
179
102
{ACAD_REACTORS
330
335
330
336
102
}
330
74
100
AcDbEntity
  8
0
  6
Continuous
 62
     2
100
AcDbLine
 10
-52.36235670871216
 20
8.16765237851712
 30
0.0
 11
-51.3765776160125
 21
8.16765237851712
 31
0.0
  0
LINE
  5
17A
102
{ACAD_REACTORS
330
335
330
336
102
}
330
74
100
AcDbEntity
  8
0
  6
Continuous
 62
     2
100
AcDbLine
 10
-51.3765776160125
 20
5.64384285470629
 30
0.0
 11
-52.36235670871216
 21
5.64384285470629
 31
0.0
  0
LINE
  5
17B
102
{ACAD_REACTORS
330
335
330
336
102
}
330
74
100
AcDbEntity
  8
0
  6
Continuous
 62
     2
100
AcDbLine
 10
-50.50909201443611
 20
5.64384285470629
 30
0.0
 11
-50.50909201443611
 21
6.58125782069285
 31
0.0
  0
LINE
  5
17C
102
{ACAD_REACTORS
330
335
330
336
102
}
330
74
100
AcDbEntity
  8
0
  6
Continuous
 62
     2
100
AcDbLine
 10
-49.52331292173656
 20
5.64384285470629
 30
0.0
 11
-50.50909201443611
 21
5.64384285470629
 31
0.0
  0
LINE
  5
17D
102
{ACAD_REACTORS
330
335
330
336
102
}
330
74
100
AcDbEntity
  8
0
  6
Continuous
 62
     2
100
AcDbLine
 10
-49.52331292173656
 20
8.16765237851712
 30
0.0
 11
-49.52331292173656
 21
5.64384285470629
 31
0.0
  0
LINE
  5
17E
102
{ACAD_REACTORS
330
323
330
324
102
}
330
74
100
AcDbEntity
  8
0
  6
Continuous
 62
     2
100
AcDbLine
 10
-46.64483797105314
 20
6.61731224246174
 30
0.0
 11
-45.54076538722863
 21
6.61731224246174
 31
0.0
  0
LINE
  5
17F
102
{ACAD_REACTORS
330
323
330
324
102
}
330
74
100
AcDbEntity
  8
0
  6
Continuous
 62
     2
100
AcDbLine
 10
-45.54076538722863
 20
6.61731224246174
 30
0.0
 11
-45.54076538722863
 21
7.19418299076122
 31
0.0
  0
LINE
  5
180
102
{ACAD_REACTORS
330
323
330
324
102
}
330
74
100
AcDbEntity
  8
0
  6
Continuous
 62
     2
100
AcDbLine
 10
-45.54076538722863
 20
7.19418299076122
 30
0.0
 11
-46.64483797105314
 21
7.19418299076122
 31
0.0
  0
LINE
  5
181
102
{ACAD_REACTORS
330
323
330
324
102
}
330
74
100
AcDbEntity
  8
0
  6
Continuous
 62
     2
100
AcDbLine
 10
-46.64483797105314
 20
7.19418299076122
 30
0.0
 11
-46.64483797105314
 21
7.59078163021718
 31
0.0
  0
LINE
  5
182
102
{ACAD_REACTORS
330
333
330
334
102
}
330
74
100
AcDbEntity
  8
0
  6
Continuous
 62
     2
100
AcDbLine
 10
-49.68116231283753
 20
2.86765237852914
 30
0.0
 11
-48.69538322013707
 21
2.86765237852914
 31
0.0
  0
LINE
  5
183
102
{ACAD_REACTORS
330
333
330
334
102
}
330
74
100
AcDbEntity
  8
0
  6
Continuous
 62
     2
100
AcDbLine
 10
-47.67017296372971
 20
2.86765237852914
 30
0.0
 11
-46.68439387103015
 21
2.86765237852914
 31
0.0
  0
LINE
  5
184
102
{ACAD_REACTORS
330
333
330
334
102
}
330
74
100
AcDbEntity
  8
0
  6
Continuous
 62
     2
100
AcDbLine
 10
-48.69538322013707
 20
5.39146190233997
 30
0.0
 11
-49.68116231283753
 21
5.39146190233997
 31
0.0
  0
LINE
  5
185
102
{ACAD_REACTORS
330
333
330
334
102
}
330
74
100
AcDbEntity
  8
0
  6
Continuous
 62
     2
100
AcDbLine
 10
-49.68116231283753
 20
5.39146190233997
 30
0.0
 11
-49.68116231283753
 21
2.86765237852914
 31
0.0
  0
LINE
  5
186
102
{ACAD_REACTORS
330
331
330
332
102
}
330
74
100
AcDbEntity
  8
0
  6
Continuous
 62
     2
100
AcDbLine
 10
-43.33262021958117
 20
8.16765237851712
 30
0.0
 11
-43.33262021958117
 21
7.08601972545501
 31
0.0
  0
LINE
  5
187
102
{ACAD_REACTORS
330
331
330
332
102
}
330
74
100
AcDbEntity
  8
0
  6
Continuous
 62
     2
100
AcDbLine
 10
-44.35783047598946
 20
8.16765237851712
 30
0.0
 11
-45.343609568689
 21
8.16765237851712
 31
0.0
  0
LINE
  5
188
102
{ACAD_REACTORS
330
331
330
332
102
}
330
74
100
AcDbEntity
  8
0
  6
Continuous
 62
     2
100
AcDbLine
 10
-45.343609568689
 20
8.16765237851712
 30
0.0
 11
-45.343609568689
 21
5.64384285470629
 31
0.0
  0
LINE
  5
189
102
{ACAD_REACTORS
330
331
330
332
102
}
330
74
100
AcDbEntity
  8
0
  6
Continuous
 62
     2
100
AcDbLine
 10
-44.35783047598946
 20
5.64384285470629
 30
0.0
 11
-44.35783047598946
 21
6.72547550776795
 31
0.0
  0
LINE
  5
18A
102
{ACAD_REACTORS
330
32F
330
330
102
}
330
74
100
AcDbEntity
  8
0
  6
Continuous
 62
     2
100
AcDbLine
 10
-44.90999150416965
 20
2.86765237852914
 30
0.0
 11
-44.90999150416965
 21
4.74248231050225
 31
0.0
  0
LINE
  5
18B
102
{ACAD_REACTORS
330
32F
330
330
102
}
330
74
100
AcDbEntity
  8
0
  6
Continuous
 62
     2
100
AcDbLine
 10
-44.90999150416965
 20
4.74248231050225
 30
0.0
 11
-44.23966172113448
 21
4.74248231050225
 31
0.0
  0
LINE
  5
18C
102
{ACAD_REACTORS
330
32F
330
330
102
}
330
74
100
AcDbEntity
  8
0
  6
Continuous
 62
     2
100
AcDbLine
 10
-44.23966172113448
 20
4.74248231050225
 30
0.0
 11
-44.23966172113448
 21
5.39146190233997
 31
0.0
  0
LINE
  5
18D
102
{ACAD_REACTORS
330
32F
330
330
102
}
330
74
100
AcDbEntity
  8
0
  6
Continuous
 62
     2
100
AcDbLine
 10
-44.23966172113448
 20
5.39146190233997
 30
0.0
 11
-46.56610037990609
 21
5.39146190233997
 31
0.0
  0
LINE
  5
18E
102
{ACAD_REACTORS
330
32F
330
330
102
}
330
74
100
AcDbEntity
  8
0
  6
Continuous
 62
     2
100
AcDbLine
 10
-46.56610037990609
 20
4.74248231050225
 30
0.0
 11
-45.89577059686921
 21
4.74248231050225
 31
0.0
  0
LINE
  5
18F
102
{ACAD_REACTORS
330
32D
330
32E
102
}
330
74
100
AcDbEntity
  8
0
  6
Continuous
 62
     2
100
AcDbLine
 10
-43.583045336178
 20
3.31472720846126
 30
0.0
 11
-42.64714320669546
 21
3.31472720846126
 31
0.0
  0
LINE
  5
190
102
{ACAD_REACTORS
330
32D
330
32E
102
}
330
74
100
AcDbEntity
  8
0
  6
Continuous
 62
     2
100
AcDbLine
 10
-41.44715604658827
 20
2.86765237852914
 30
0.0
 11
-42.47236630299646
 21
2.86765237852914
 31
0.0
  0
LINE
  5
191
102
{ACAD_REACTORS
330
32D
330
32E
102
}
330
74
100
AcDbEntity
  8
0
  6
Continuous
 62
     2
100
AcDbLine
 10
-43.62769939964042
 20
5.39146190233997
 30
0.0
 11
-44.78303249628439
 21
2.86765237852914
 31
0.0
  0
LINE
  5
192
102
{ACAD_REACTORS
330
32D
330
32E
102
}
330
74
100
AcDbEntity
  8
0
  6
Continuous
 62
     2
100
AcDbLine
 10
-43.75782223987702
 20
2.86765237852914
 30
0.0
 11
-43.583045336178
 21
3.31472720846126
 31
0.0
  0
LINE
  5
193
102
{ACAD_REACTORS
330
32D
330
32E
102
}
330
74
100
AcDbEntity
  8
0
  6
Continuous
 62
     2
100
AcDbLine
 10
-43.36316471539696
 20
3.87717618805346
 30
0.0
 11
-43.11509427143633
 21
4.511734011183
 31
0.0
  0
LINE
  5
194
102
{ACAD_REACTORS
330
32B
330
32C
102
}
330
74
100
AcDbEntity
  8
0
  6
Continuous
 62
     2
100
AcDbLine
 10
-42.14968530834111
 20
5.64384285470629
 30
0.0
 11
-42.14968530834111
 21
8.16765237851712
 31
0.0
  0
LINE
  5
195
102
{ACAD_REACTORS
330
32B
330
32C
102
}
330
74
100
AcDbEntity
  8
0
  6
Continuous
 62
     2
100
AcDbLine
 10
-41.12447505193373
 20
8.16765237851712
 30
0.0
 11
-41.12447505193373
 21
5.64384285470629
 31
0.0
  0
LINE
  5
196
102
{ACAD_REACTORS
330
32B
330
32C
102
}
330
74
100
AcDbEntity
  8
0
  6
Continuous
 62
     2
100
AcDbLine
 10
-42.14968530834111
 20
8.16765237851712
 30
0.0
 11
-41.12447505193373
 21
8.16765237851712
 31
0.0
  0
LINE
  5
197
102
{ACAD_REACTORS
330
329
330
32A
102
}
330
74
100
AcDbEntity
  8
0
  6
Continuous
 62
     2
100
AcDbLine
 10
-39.2909259395116
 20
6.29486085908123
 30
0.0
 11
-38.71523094937484
 21
5.64384285470629
 31
0.0
  0
LINE
  5
198
102
{ACAD_REACTORS
330
329
330
32A
102
}
330
74
100
AcDbEntity
  8
0
  6
Continuous
 62
     2
100
AcDbLine
 10
-38.71523094937484
 20
5.64384285470629
 30
0.0
 11
-37.55595473635972
 21
5.64384285470629
 31
0.0
  0
LINE
  5
199
102
{ACAD_REACTORS
330
329
330
32A
102
}
330
74
100
AcDbEntity
  8
0
  6
Continuous
 62
     2
100
AcDbLine
 10
-38.7112878330046
 20
6.9503378908839
 30
0.0
 11
-37.55595473635972
 21
5.64384285470629
 31
0.0
  0
LINE
  5
19A
102
{ACAD_REACTORS
330
329
330
32A
102
}
330
74
100
AcDbEntity
  8
0
  6
Continuous
 62
     2
100
AcDbLine
 10
-38.7112878330046
 20
6.9503378908839
 30
0.0
 11
-37.63481706377607
 21
8.16765237851712
 31
0.0
  0
LINE
  5
19B
102
{ACAD_REACTORS
330
329
330
32A
102
}
330
74
100
AcDbEntity
  8
0
  6
Continuous
 62
     2
100
AcDbLine
 10
-39.2909259395116
 20
7.60581492268613
 30
0.0
 11
-38.79409327679029
 21
8.16765237851712
 31
0.0
  0
LINE
  5
19C
102
{ACAD_REACTORS
330
329
330
32A
102
}
330
74
100
AcDbEntity
  8
0
  6
Continuous
 62
     2
100
AcDbLine
 10
-39.78775860223212
 20
8.16765237851712
 30
0.0
 11
-39.2909259395116
 21
7.60581492268613
 31
0.0
  0
LINE
  5
19D
102
{ACAD_REACTORS
330
329
330
32A
102
}
330
74
100
AcDbEntity
  8
0
  6
Continuous
 62
     2
100
AcDbLine
 10
-39.78775860223212
 20
8.16765237851712
 30
0.0
 11
-40.94703481524803
 21
8.16765237851712
 31
0.0
  0
LINE
  5
19E
102
{ACAD_REACTORS
330
31F
330
320
102
}
330
74
100
AcDbEntity
  8
0
  6
Continuous
 62
     2
100
AcDbLine
 10
-39.21206361209616
 20
2.86765237852914
 30
0.0
 11
-38.22628451939559
 21
2.86765237852914
 31
0.0
  0
LINE
  5
19F
102
{ACAD_REACTORS
330
31F
330
320
102
}
330
74
100
AcDbEntity
  8
0
  6
Continuous
 62
     2
100
AcDbLine
 10
-38.22628451939559
 20
2.86765237852914
 30
0.0
 11
-38.22628451939559
 21
4.74248231050225
 31
0.0
  0
LINE
  5
1A0
102
{ACAD_REACTORS
330
31F
330
320
102
}
330
74
100
AcDbEntity
  8
0
  6
Continuous
 62
     2
100
AcDbLine
 10
-38.22628451939559
 20
4.74248231050225
 30
0.0
 11
-37.55595473635972
 21
4.74248231050225
 31
0.0
  0
LINE
  5
1A1
102
{ACAD_REACTORS
330
31F
330
320
102
}
330
74
100
AcDbEntity
  8
0
  6
Continuous
 62
     2
100
AcDbLine
 10
-37.55595473635972
 20
4.74248231050225
 30
0.0
 11
-37.55595473635972
 21
5.39146190233997
 31
0.0
  0
LINE
  5
1A2
102
{ACAD_REACTORS
330
31F
330
320
102
}
330
74
100
AcDbEntity
  8
0
  6
Continuous
 62
     2
100
AcDbLine
 10
-40.35343037159002
 20
5.39146190233951
 30
0.0
 11
-37.55595473635972
 21
5.39146190233997
 31
0.0
  0
LINE
  5
1A3
102
{ACAD_REACTORS
330
31F
330
320
102
}
330
74
100
AcDbEntity
  8
0
  6
Continuous
 62
     2
100
AcDbLine
 10
-39.21206361209616
 20
4.74248231050225
 30
0.0
 11
-39.21206361209616
 21
2.86765237852914
 31
0.0
  0
LINE
  5
1A4
102
{ACAD_REACTORS
330
321
330
322
102
}
330
74
100
AcDbEntity
  8
0
  6
Continuous
 62
     2
100
AcDbLine
 10
-57.91411851745082
 20
4.50309051866509
 30
0.0
 11
-57.91411851745082
 21
4.98395944981806
 31
0.0
  0
LINE
  5
1A5
102
{ACAD_REACTORS
330
321
330
322
102
}
330
74
100
AcDbEntity
  8
0
  6
Continuous
 62
     2
100
AcDbLine
 10
-57.91411851745082
 20
6.81725135059177
 30
0.0
 11
-57.91411851745082
 21
7.31769373778744
 31
0.0
  0
LINE
  5
1A6
330
74
100
AcDbEntity
  8
1
  6
Continuous
 62
     7
100
AcDbLine
 10
-1.23842633958018
 20
14.01765237852318
 30
0.0
 11
-1.23842633958018
 21
18.26765237852316
 31
0.0
  0
LINE
  5
1A7
330
74
100
AcDbEntity
  8
1
  6
Continuous
 62
     6
100
AcDbLine
 10
-81.23842633958257
 20
-2.98234762147671
 30
0.0
 11
-80.78323086633257
 21
-2.98234762147682
 31
0.0
  0
LINE
  5
1A8
330
74
100
AcDbEntity
  8
1
  6
Continuous
 62
     6
100
AcDbLine
 10
-131.2384263395827
 20
-2.98234762147671
 30
0.0
 11
-170.0384263395827
 21
-2.98234762147671
 31
0.0
  0
LINE
  5
1A9
330
74
100
AcDbEntity
  8
1
  6
Continuous
 62
     6
100
AcDbLine
 10
-181.2384263395826
 20
-2.98234762147671
 30
0.0
 11
-170.0384263395827
 21
-2.98234762147671
 31
0.0
  0
LINE
  5
1AA
330
74
100
AcDbEntity
  8
1
  6
Continuous
 62
     6
100
AcDbLine
 10
18.76157366041745
 20
-2.98234762147671
 30
0.0
 11
62.26157366041744
 21
-2.98234762147671
 31
0.0
  0
LINE
  5
1AB
330
74
100
AcDbEntity
  8
1
  6
Continuous
 62
     6
100
AcDbLine
 10
-31.23842633958256
 20
-2.98234762147671
 30
0.0
 11
-49.0832308663326
 21
-2.98234762147671
 31
0.0
  0
LINE
  5
1AC
330
74
100
AcDbEntity
  8
1
  6
PHANTOM
 62
     2
100
AcDbLine
 10
-59.1639676515322
 20
11.89265237852318
 30
0.0
 11
-54.8483726823432
 21
11.89265237852318
 31
0.0
  0
LINE
  5
1AD
330
74
100
AcDbEntity
  8
1
  6
PHANTOM
 62
     2
100
AcDbLine
 10
-62.1909710412292
 20
13.54265237852321
 30
0.0
 11
-62.1909710412292
 21
10.2426523785232
 31
0.0
  0
LINE
  5
1AE
330
74
100
AcDbEntity
  8
1
  6
PHANTOM
 62
     2
100
AcDbLine
 10
-60.5409710412292
 20
11.89265237852318
 30
0.0
 11
-63.8409710412292
 21
11.89265237852318
 31
0.0
  0
LINE
  5
1AF
330
74
100
AcDbEntity
  8
1
  6
Continuous
 62
     2
100
AcDbLine
 10
62.26157366041744
 20
-2.98234762147671
 30
0.0
 11
67.26157366041645
 21
-2.98234762147671
 31
0.0
  0
LINE
  5
1B0
330
74
100
AcDbEntity
  8
1
  6
Continuous
 62
     2
100
AcDbLine
 10
62.26157366041744
 20
-2.98234762147671
 30
0.0
 11
62.26157366041744
 21
-7.98234762147682
 31
0.0
  0
LINE
  5
1B1
330
74
100
AcDbEntity
  8
1
  6
Continuous
 62
     7
100
AcDbLine
 10
-30.88323086633258
 20
9.76765237852318
 30
0.0
 11
-30.88323086633258
 21
14.01765237852318
 31
0.0
  0
LINE
  5
1B2
330
74
100
AcDbEntity
  8
1
  6
Continuous
 62
     7
100
AcDbLine
 10
-67.28323086633247
 20
9.76765237852318
 30
0.0
 11
-30.88323086633258
 21
9.76765237852318
 31
0.0
  0
LINE
  5
1B3
330
74
100
AcDbEntity
  8
1
  6
Continuous
 62
     2
100
AcDbLine
 10
67.26157366041645
 20
-7.98234762147682
 30
0.0
 11
67.26157366041645
 21
-2.98234762147671
 31
0.0
  0
LINE
  5
1B4
330
74
100
AcDbEntity
  8
1
  6
Continuous
 62
     2
100
AcDbLine
 10
67.26157366041645
 20
-7.98234762147682
 30
0.0
 11
62.26157366041744
 21
-7.98234762147682
 31
0.0
  0
LINE
  5
1B5
330
74
100
AcDbEntity
  8
1
  6
Continuous
 62
     2
100
AcDbLine
 10
62.26157366041744
 20
-7.98234762147682
 30
0.0
 11
18.76157366041745
 21
-7.98234762147682
 31
0.0
  0
LINE
  5
1B6
330
74
100
AcDbEntity
  8
1
  6
Continuous
 62
     6
100
AcDbLine
 10
62.26157366041915
 20
26.76765237852318
 30
0.0
 11
62.26157366041835
 21
47.01765237852329
 31
0.0
  0
LINE
  5
1B7
330
74
100
AcDbEntity
  8
1
  6
Continuous
 62
     2
100
AcDbLine
 10
67.26157366041645
 20
202.0176523785232
 30
0.0
 11
-81.23842633958257
 21
202.0176523785232
 31
0.0
  0
LINE
  5
1B8
330
74
100
AcDbEntity
  8
1
  6
Continuous
 62
     6
100
AcDbLine
 10
62.26157366041645
 20
182.0176523785232
 30
0.0
 11
-224.7384263395817
 21
182.0176523785232
 31
0.0
  0
LINE
  5
1B9
330
74
100
AcDbEntity
  8
1
  6
Continuous
 62
     2
100
AcDbLine
 10
62.26157366041835
 20
47.01765237852329
 30
0.0
 11
67.26157366041645
 21
47.01765237852329
 31
0.0
  0
LINE
  5
1BA
330
74
100
AcDbEntity
  8
1
  6
Continuous
 62
     6
100
AcDbLine
 10
62.26157366041835
 20
47.01765237852329
 30
0.0
 11
62.26157366041784
 21
97.0176523785231
 31
0.0
  0
LINE
  5
1BB
330
74
100
AcDbEntity
  8
1
  6
Continuous
 62
     2
100
AcDbLine
 10
67.26157366041645
 20
47.01765237852329
 30
0.0
 11
67.26157366041645
 21
97.0176523785231
 31
0.0
  0
LINE
  5
1BC
330
74
100
AcDbEntity
  8
1
  6
Continuous
 62
     2
100
AcDbLine
 10
62.26157366041784
 20
97.0176523785231
 30
0.0
 11
67.26157366041645
 21
97.0176523785231
 31
0.0
  0
LINE
  5
1BD
330
74
100
AcDbEntity
  8
1
  6
Continuous
 62
     6
100
AcDbLine
 10
62.26157366041784
 20
97.0176523785231
 30
0.0
 11
62.26157366041673
 21
147.0176523785232
 31
0.0
  0
LINE
  5
1BE
330
74
100
AcDbEntity
  8
1
  6
Continuous
 62
     2
100
AcDbLine
 10
67.26157366041645
 20
97.0176523785231
 30
0.0
 11
67.26157366041645
 21
147.0176523785232
 31
0.0
  0
LINE
  5
1BF
330
74
100
AcDbEntity
  8
1
  6
Continuous
 62
     2
100
AcDbLine
 10
62.26157366041673
 20
147.0176523785232
 30
0.0
 11
67.26157366041645
 21
147.0176523785232
 31
0.0
  0
LINE
  5
1C0
330
74
100
AcDbEntity
  8
1
  6
Continuous
 62
     6
100
AcDbLine
 10
62.26157366041673
 20
147.0176523785232
 30
0.0
 11
62.26157366041645
 21
182.0176523785232
 31
0.0
  0
LINE
  5
1C1
330
74
100
AcDbEntity
  8
1
  6
Continuous
 62
     2
100
AcDbLine
 10
67.26157366041645
 20
147.0176523785232
 30
0.0
 11
67.26157366041645
 21
202.0176523785232
 31
0.0
  0
LINE
  5
1C2
330
74
100
AcDbEntity
  8
1
  6
Continuous
 62
     2
100
AcDbLine
 10
67.26157366041645
 20
-2.98234762147671
 30
0.0
 11
67.26157366041645
 21
47.01765237852329
 31
0.0
  0
LINE
  5
1C3
330
74
100
AcDbEntity
  8
1
  6
Continuous
 62
     2
100
AcDbLine
 10
-81.23842633958257
 20
202.0176523785232
 30
0.0
 11
-229.7384263395817
 21
202.0176523785232
 31
0.0
  0
LINE
  5
1C4
330
74
100
AcDbEntity
  8
1
  6
Continuous
 62
     2
100
AcDbLine
 10
-81.23842633958257
 20
202.0176523785232
 30
0.0
 11
-81.23842633958257
 21
192.8089605338219
 31
0.0
  0
LINE
  5
1C5
330
74
100
AcDbEntity
  8
1
  6
Continuous
 62
     2
100
AcDbLine
 10
-229.7384263395817
 20
-7.98234762147682
 30
0.0
 11
-224.7384263395806
 21
-7.98234762147682
 31
0.0
  0
LINE
  5
1C6
330
74
100
AcDbEntity
  8
1
  6
Continuous
 62
     2
100
AcDbLine
 10
-229.7384263395817
 20
202.0176523785232
 30
0.0
 11
-229.7384263395817
 21
147.0176523785232
 31
0.0
  0
LINE
  5
1C7
330
74
100
AcDbEntity
  8
1
  6
Continuous
 62
     6
100
AcDbLine
 10
-224.7384263395817
 20
182.0176523785232
 30
0.0
 11
-224.7384263395815
 21
147.0176523785232
 31
0.0
  0
LINE
  5
1C8
330
74
100
AcDbEntity
  8
1
  6
Continuous
 62
     2
100
AcDbLine
 10
-229.7384263395817
 20
147.0176523785232
 30
0.0
 11
-224.7384263395815
 21
147.0176523785232
 31
0.0
  0
LINE
  5
1C9
330
74
100
AcDbEntity
  8
1
  6
Continuous
 62
     2
100
AcDbLine
 10
-229.7384263395817
 20
147.0176523785232
 30
0.0
 11
-229.7384263395817
 21
97.0176523785231
 31
0.0
  0
LINE
  5
1CA
330
74
100
AcDbEntity
  8
1
  6
Continuous
 62
     6
100
AcDbLine
 10
-224.7384263395815
 20
147.0176523785232
 30
0.0
 11
-224.7384263395811
 21
97.0176523785231
 31
0.0
  0
LINE
  5
1CB
330
74
100
AcDbEntity
  8
1
  6
Continuous
 62
     2
100
AcDbLine
 10
-229.7384263395817
 20
97.0176523785231
 30
0.0
 11
-224.7384263395811
 21
97.0176523785231
 31
0.0
  0
LINE
  5
1CC
330
74
100
AcDbEntity
  8
1
  6
Continuous
 62
     2
100
AcDbLine
 10
-229.7384263395817
 20
97.0176523785231
 30
0.0
 11
-229.7384263395817
 21
47.01765237852329
 31
0.0
  0
LINE
  5
1CD
330
74
100
AcDbEntity
  8
1
  6
Continuous
 62
     6
100
AcDbLine
 10
-224.7384263395811
 20
97.0176523785231
 30
0.0
 11
-224.7384263395808
 21
47.01765237852329
 31
0.0
  0
LINE
  5
1CE
330
74
100
AcDbEntity
  8
1
  6
Continuous
 62
     2
100
AcDbLine
 10
-229.7384263395817
 20
47.01765237852329
 30
0.0
 11
-224.7384263395808
 21
47.01765237852329
 31
0.0
  0
LINE
  5
1CF
330
74
100
AcDbEntity
  8
1
  6
Continuous
 62
     2
100
AcDbLine
 10
-229.7384263395817
 20
47.01765237852329
 30
0.0
 11
-229.7384263395817
 21
-2.98234762147671
 31
0.0
  0
LINE
  5
1D0
330
74
100
AcDbEntity
  8
1
  6
Continuous
 62
     6
100
AcDbLine
 10
-224.7384263395808
 20
47.01765237852329
 30
0.0
 11
-224.7384263395806
 21
-2.98234762147671
 31
0.0
  0
LINE
  5
1D1
330
74
100
AcDbEntity
  8
1
  6
Continuous
 62
     2
100
AcDbLine
 10
-181.2384263395826
 20
-7.98234762147682
 30
0.0
 11
-181.2384263395826
 21
-2.98234762147671
 31
0.0
  0
LINE
  5
1D2
330
74
100
AcDbEntity
  8
1
  6
Continuous
 62
     2
100
AcDbLine
 10
-181.2384263395826
 20
-7.98234762147682
 30
0.0
 11
-131.2384263395827
 21
-7.98234762147682
 31
0.0
  0
LINE
  5
1D3
330
74
100
AcDbEntity
  8
1
  6
Continuous
 62
     2
100
AcDbLine
 10
-131.2384263395827
 20
-7.98234762147682
 30
0.0
 11
-131.2384263395827
 21
-2.98234762147671
 31
0.0
  0
LINE
  5
1D4
330
74
100
AcDbEntity
  8
1
  6
Continuous
 62
     2
100
AcDbLine
 10
-131.2384263395827
 20
-7.98234762147682
 30
0.0
 11
-81.23842633958257
 21
-7.98234762147682
 31
0.0
  0
LINE
  5
1D5
330
74
100
AcDbEntity
  8
1
  6
Continuous
 62
     2
100
AcDbLine
 10
-81.23842633958257
 20
-7.98234762147682
 30
0.0
 11
-81.23842633958257
 21
-2.98234762147671
 31
0.0
  0
LINE
  5
1D6
330
74
100
AcDbEntity
  8
1
  6
Continuous
 62
     2
100
AcDbLine
 10
-81.23842633958257
 20
-7.98234762147682
 30
0.0
 11
-31.23842633958256
 21
-7.98234762147682
 31
0.0
  0
LINE
  5
1D7
330
74
100
AcDbEntity
  8
1
  6
Continuous
 62
     2
100
AcDbLine
 10
-31.23842633958256
 20
-7.98234762147682
 30
0.0
 11
-31.23842633958256
 21
-2.98234762147671
 31
0.0
  0
LINE
  5
1D8
330
74
100
AcDbEntity
  8
1
  6
Continuous
 62
     2
100
AcDbLine
 10
18.76157366041745
 20
-7.98234762147682
 30
0.0
 11
18.76157366041745
 21
-2.98234762147671
 31
0.0
  0
LINE
  5
1D9
330
74
100
AcDbEntity
  8
1
  6
Continuous
 62
     2
100
AcDbLine
 10
18.76157366041745
 20
-7.98234762147682
 30
0.0
 11
-31.23842633958256
 21
-7.98234762147682
 31
0.0
  0
LINE
  5
1DA
330
74
100
AcDbEntity
  8
1
  6
Continuous
 62
     2
100
AcDbLine
 10
-224.7384263395806
 20
-2.98234762147671
 30
0.0
 11
-224.7384263395806
 21
-7.98234762147682
 31
0.0
  0
LINE
  5
1DB
330
74
100
AcDbEntity
  8
1
  6
Continuous
 62
     2
100
AcDbLine
 10
-224.7384263395806
 20
-7.98234762147682
 30
0.0
 11
-181.2384263395826
 21
-7.98234762147682
 31
0.0
  0
LINE
  5
1DC
330
74
100
AcDbEntity
  8
1
  6
Continuous
 62
     2
100
AcDbLine
 10
-224.7384263395806
 20
-2.98234762147671
 30
0.0
 11
-229.7384263395817
 21
-2.98234762147671
 31
0.0
  0
LINE
  5
1DD
330
74
100
AcDbEntity
  8
1
  6
Continuous
 62
     2
100
AcDbLine
 10
-229.7384263395817
 20
-2.98234762147671
 30
0.0
 11
-229.7384263395817
 21
-7.98234762147682
 31
0.0
  0
LINE
  5
1DE
330
74
100
AcDbEntity
  8
1
  6
Continuous
 62
     7
100
AcDbLine
 10
-170.0384263395827
 20
1.26765237852329
 30
0.0
 11
-107.7832308663325
 21
1.26765237852329
 31
0.0
  0
LINE
  5
1DF
330
74
100
AcDbEntity
  8
1
  6
Continuous
 62
     2
100
AcDbLine
 10
-170.0384263395827
 20
1.26765237852329
 30
0.0
 11
-170.0384263395827
 21
-2.98234762147671
 31
0.0
  0
LINE
  5
1E0
330
74
100
AcDbEntity
  8
1
  6
Continuous
 62
     2
100
AcDbLine
 10
-170.0384263395827
 20
5.51765237852318
 30
0.0
 11
-183.5384263395827
 21
5.51765237852318
 31
0.0
  0
LINE
  5
1E1
330
74
100
AcDbEntity
  8
1
  6
Continuous
 62
     2
100
AcDbLine
 10
-170.0384263395827
 20
5.51765237852318
 30
0.0
 11
-170.0384263395827
 21
1.26765237852329
 31
0.0
  0
LINE
  5
1E2
330
74
100
AcDbEntity
  8
1
  6
Continuous
 62
     2
100
AcDbLine
 10
-170.0384263395827
 20
14.01765237852318
 30
0.0
 11
-183.5384263395827
 21
14.01765237852318
 31
0.0
  0
LINE
  5
1E3
330
74
100
AcDbEntity
  8
1
  6
Continuous
 62
     2
100
AcDbLine
 10
-170.0384263395827
 20
14.01765237852318
 30
0.0
 11
-170.0384263395827
 21
9.76765237852318
 31
0.0
  0
LINE
  5
1E4
330
74
100
AcDbEntity
  8
1
  6
Continuous
 62
     2
100
AcDbLine
 10
-170.0384263395827
 20
9.76765237852318
 30
0.0
 11
-183.5384263395827
 21
9.76765237852318
 31
0.0
  0
LINE
  5
1E5
330
74
100
AcDbEntity
  8
1
  6
Continuous
 62
     2
100
AcDbLine
 10
-170.0384263395827
 20
9.76765237852318
 30
0.0
 11
-170.0384263395827
 21
5.51765237852318
 31
0.0
  0
LINE
  5
1E6
330
74
100
AcDbEntity
  8
1
  6
Continuous
 62
     2
100
AcDbLine
 10
-170.0384263395827
 20
22.51765237852318
 30
0.0
 11
-183.5384263395827
 21
22.51765237852318
 31
0.0
  0
LINE
  5
1E7
330
74
100
AcDbEntity
  8
1
  6
Continuous
 62
     2
100
AcDbLine
 10
-170.0384263395827
 20
18.26765237852318
 30
0.0
 11
-183.5384263395827
 21
18.26765237852318
 31
0.0
  0
LINE
  5
1E8
330
74
100
AcDbEntity
  8
1
  6
Continuous
 62
     2
100
AcDbLine
 10
-170.0384263395827
 20
18.26765237852318
 30
0.0
 11
-170.0384263395827
 21
14.01765237852318
 31
0.0
  0
LINE
  5
1E9
330
74
100
AcDbEntity
  8
1
  6
Continuous
 62
     2
100
AcDbLine
 10
-170.0384263395827
 20
22.51765237852318
 30
0.0
 11
-170.0384263395827
 21
18.26765237852318
 31
0.0
  0
LINE
  5
1EA
330
74
100
AcDbEntity
  8
1
  6
Continuous
 62
     6
100
AcDbLine
 10
-170.0384263395827
 20
26.76765237852318
 30
0.0
 11
-183.5384263395827
 21
26.76765237852318
 31
0.0
  0
LINE
  5
1EB
330
74
100
AcDbEntity
  8
1
  6
Continuous
 62
     2
100
AcDbLine
 10
-170.0384263395827
 20
26.76765237852318
 30
0.0
 11
-170.0384263395827
 21
22.51765237852318
 31
0.0
  0
LINE
  5
1EC
330
74
100
AcDbEntity
  8
1
  6
Continuous
 62
     6
100
AcDbLine
 10
62.26157366041744
 20
-2.98234762147671
 30
0.0
 11
62.26157366041875
 21
5.51765237852318
 31
0.0
  0
LINE
  5
1ED
330
74
100
AcDbEntity
  8
1
  6
Continuous
 62
     6
100
AcDbLine
 10
62.26157366041824
 20
18.26765237852318
 30
0.0
 11
62.26157366041923
 21
14.01765237852318
 31
0.0
  0
LINE
  5
1EE
330
74
100
AcDbEntity
  8
1
  6
Continuous
 62
     6
100
AcDbLine
 10
-30.88323086633258
 20
-2.98234762147682
 30
0.0
 11
18.76157366041745
 21
-2.98234762147671
 31
0.0
  0
LINE
  5
1EF
330
74
100
AcDbEntity
  8
1
  6
Continuous
 62
     6
100
AcDbLine
 10
-67.28323086633247
 20
-2.98234762147682
 30
0.0
 11
-49.0832308663326
 21
-2.98234762147671
 31
0.0
  0
LINE
  5
1F0
330
74
100
AcDbEntity
  8
1
  6
Continuous
 62
     6
100
AcDbLine
 10
-183.5384263395827
 20
-2.98234762147682
 30
0.0
 11
-181.2384263395826
 21
-2.98234762147671
 31
0.0
  0
LINE
  5
1F1
330
74
100
AcDbEntity
  8
1
  6
Continuous
 62
     6
100
AcDbLine
 10
-107.7832308663325
 20
-2.98234762147682
 30
0.0
 11
-131.2384263395827
 21
-2.98234762147671
 31
0.0
  0
LINE
  5
1F2
330
74
100
AcDbEntity
  8
1
  6
Continuous
 62
     6
100
AcDbLine
 10
62.26157366041915
 20
26.76765237852318
 30
0.0
 11
44.37998194209834
 21
26.76765237852318
 31
0.0
  0
LINE
  5
1F3
330
74
100
AcDbEntity
  8
1
  6
Continuous
 62
     7
100
AcDbLine
 10
62.26157366041875
 20
5.51765237852318
 30
0.0
 11
17.26157366041944
 21
5.51765237852318
 31
0.0
  0
LINE
  5
1F4
330
74
100
AcDbEntity
  8
1
  6
Continuous
 62
     7
100
AcDbLine
 10
62.26157366041824
 20
18.26765237852318
 30
0.0
 11
44.37998194209834
 21
18.26765237852318
 31
0.0
  0
LINE
  5
1F5
330
74
100
AcDbEntity
  8
1
  6
Continuous
 62
     7
100
AcDbLine
 10
17.26157366041944
 20
14.01765237852318
 30
0.0
 11
62.26157366041923
 21
14.01765237852318
 31
0.0
  0
LINE
  5
1F6
330
74
100
AcDbEntity
  8
1
  6
Continuous
 62
     7
100
AcDbLine
 10
-30.88323086633258
 20
22.51765237852318
 30
0.0
 11
-30.88323086633258
 21
18.26765237852318
 31
0.0
  0
LINE
  5
1F7
330
74
100
AcDbEntity
  8
1
  6
Continuous
 62
     7
100
AcDbLine
 10
-44.38323086633259
 20
22.51765237852318
 30
0.0
 11
-30.88323086633258
 21
22.51765237852318
 31
0.0
  0
LINE
  5
1F8
330
74
100
AcDbEntity
  8
1
  6
Continuous
 62
     7
100
AcDbLine
 10
-44.38323086633259
 20
22.51765237852318
 30
0.0
 11
-57.8832308663325
 21
22.51765237852318
 31
0.0
  0
LINE
  5
1F9
330
74
100
AcDbEntity
  8
1
  6
Continuous
 62
     7
100
AcDbLine
 10
44.37998194209834
 20
18.26765237852318
 30
0.0
 11
44.37998194209834
 21
26.76765237852318
 31
0.0
  0
LINE
  5
1FA
330
74
100
AcDbEntity
  8
1
  6
Continuous
 62
     6
100
AcDbLine
 10
35.46157366041913
 20
26.76765237852318
 30
0.0
 11
44.37998194209834
 21
26.76765237852318
 31
0.0
  0
LINE
  5
1FB
330
74
100
AcDbEntity
  8
1
  6
Continuous
 62
     7
100
AcDbLine
 10
35.46157366041913
 20
26.76765237852318
 30
0.0
 11
35.46157366041945
 21
18.26765237852329
 31
0.0
  0
LINE
  5
1FC
330
74
100
AcDbEntity
  8
1
  6
Continuous
 62
     7
100
AcDbLine
 10
17.26157366041944
 20
5.51765237852318
 30
0.0
 11
-1.23842633958018
 21
5.51765237852318
 31
0.0
  0
LINE
  5
1FD
330
74
100
AcDbEntity
  8
1
  6
Continuous
 62
     7
100
AcDbLine
 10
17.26157366041944
 20
14.01765237852318
 30
0.0
 11
17.26157366041944
 21
5.51765237852318
 31
0.0
  0
LINE
  5
1FE
330
74
100
AcDbEntity
  8
1
  6
Continuous
 62
     2
100
AcDbLine
 10
-80.78323086633257
 20
26.76765237852318
 30
0.0
 11
-80.78323086633257
 21
22.51765237852318
 31
0.0
  0
LINE
  5
1FF
330
74
100
AcDbEntity
  8
1
  6
Continuous
 62
     2
100
AcDbLine
 10
-94.28323086633246
 20
26.76765237852318
 30
0.0
 11
-94.28323086633246
 21
22.51765237852318
 31
0.0
  0
LINE
  5
200
330
74
100
AcDbEntity
  8
1
  6
Continuous
 62
     6
100
AcDbLine
 10
-80.78323086633257
 20
26.76765237852318
 30
0.0
 11
-94.28323086633246
 21
26.76765237852318
 31
0.0
  0
LINE
  5
201
330
74
100
AcDbEntity
  8
1
  6
Continuous
 62
     6
100
AcDbLine
 10
-94.28323086633246
 20
26.76765237852318
 30
0.0
 11
-107.7832308663325
 21
26.76765237852318
 31
0.0
  0
LINE
  5
202
330
74
100
AcDbEntity
  8
1
  6
Continuous
 62
     2
100
AcDbLine
 10
-107.7832308663325
 20
26.76765237852318
 30
0.0
 11
-107.7832308663325
 21
22.51765237852318
 31
0.0
  0
LINE
  5
203
330
74
100
AcDbEntity
  8
1
  6
Continuous
 62
     7
100
AcDbLine
 10
-49.0832308663326
 20
1.26765237852329
 30
0.0
 11
-49.0832308663326
 21
-2.98234762147671
 31
0.0
  0
LINE
  5
204
330
74
100
AcDbEntity
  8
1
  6
Continuous
 62
     7
100
AcDbLine
 10
-49.0832308663326
 20
1.26765237852329
 30
0.0
 11
-67.28323086633247
 21
1.26765237852329
 31
0.0
  0
LINE
  5
205
330
74
100
AcDbEntity
  8
1
  6
Continuous
 62
     7
100
AcDbLine
 10
-44.38323086633259
 20
14.01765237852318
 30
0.0
 11
-57.8832308663325
 21
14.01765237852329
 31
0.0
  0
LINE
  5
206
330
74
100
AcDbEntity
  8
1
  6
Continuous
 62
     7
100
AcDbLine
 10
-30.88323086633258
 20
1.26765237852329
 30
0.0
 11
-49.0832308663326
 21
1.26765237852329
 31
0.0
  0
LINE
  5
207
330
74
100
AcDbEntity
  8
1
  6
Continuous
 62
     6
100
AcDbLine
 10
-30.88323086633258
 20
26.76765237852318
 30
0.0
 11
-7.98323086633255
 21
26.76765237852318
 31
0.0
  0
LINE
  5
208
330
74
100
AcDbEntity
  8
1
  6
Continuous
 62
     6
100
AcDbLine
 10
35.46157366041913
 20
26.76765237852318
 30
0.0
 11
-7.98323086633255
 21
26.76765237852318
 31
0.0
  0
LINE
  5
209
330
74
100
AcDbEntity
  8
1
  6
Continuous
 62
     7
100
AcDbLine
 10
-7.98323086633255
 20
26.76765237852318
 30
0.0
 11
-7.98323086633255
 21
18.26765237852312
 31
0.0
  0
LINE
  5
20A
330
74
100
AcDbEntity
  8
1
  6
Continuous
 62
     6
100
AcDbLine
 10
-183.5384263395827
 20
26.76765237852318
 30
0.0
 11
-189.7384263395807
 21
26.76765237852318
 31
0.0
  0
LINE
  5
20B
330
74
100
AcDbEntity
  8
1
  6
Continuous
 62
     6
100
AcDbLine
 10
-189.7384263395807
 20
-2.98234762147671
 30
0.0
 11
-189.7384263395807
 21
1.26765237852329
 31
0.0
  0
LINE
  5
20C
330
74
100
AcDbEntity
  8
1
  6
Continuous
 62
     6
100
AcDbLine
 10
-189.7384263395807
 20
1.26765237852329
 30
0.0
 11
-189.7384263395807
 21
5.51765237852318
 31
0.0
  0
LINE
  5
20D
330
74
100
AcDbEntity
  8
1
  6
Continuous
 62
     7
100
AcDbLine
 10
-44.38323086633259
 20
18.26765237852318
 30
0.0
 11
-44.38323086633259
 21
14.01765237852318
 31
0.0
  0
LINE
  5
20E
330
74
100
AcDbEntity
  8
1
  6
Continuous
 62
     7
100
AcDbLine
 10
-57.8832308663325
 20
18.26765237852318
 30
0.0
 11
-57.8832308663325
 21
14.01765237852329
 31
0.0
  0
LINE
  5
20F
330
74
100
AcDbEntity
  8
1
  6
Continuous
 62
     7
100
AcDbLine
 10
-44.38323086633259
 20
18.26765237852318
 30
0.0
 11
-57.8832308663325
 21
18.26765237852318
 31
0.0
  0
LINE
  5
210
330
74
100
AcDbEntity
  8
1
  6
Continuous
 62
     2
100
AcDbLine
 10
-67.28323086633247
 20
14.01765237852318
 30
0.0
 11
-80.78323086633257
 21
14.01765237852318
 31
0.0
  0
LINE
  5
211
330
74
100
AcDbEntity
  8
1
  6
Continuous
 62
     2
100
AcDbLine
 10
-183.5384263395827
 20
14.01765237852318
 30
0.0
 11
-183.5384263395827
 21
18.26765237852318
 31
0.0
  0
LINE
  5
212
330
74
100
AcDbEntity
  8
1
  6
Continuous
 62
     2
100
AcDbLine
 10
-183.5384263395827
 20
14.01765237852318
 30
0.0
 11
-189.7384263395807
 21
14.01765237852318
 31
0.0
  0
LINE
  5
213
330
74
100
AcDbEntity
  8
1
  6
Continuous
 62
     2
100
AcDbLine
 10
-67.28323086633247
 20
18.26765237852318
 30
0.0
 11
-80.78323086633257
 21
18.26765237852318
 31
0.0
  0
LINE
  5
214
330
74
100
AcDbEntity
  8
1
  6
Continuous
 62
     2
100
AcDbLine
 10
-183.5384263395827
 20
18.26765237852318
 30
0.0
 11
-183.5384263395827
 21
22.51765237852318
 31
0.0
  0
LINE
  5
215
330
74
100
AcDbEntity
  8
1
  6
Continuous
 62
     2
100
AcDbLine
 10
-67.28323086633247
 20
22.51765237852318
 30
0.0
 11
-80.78323086633257
 21
22.51765237852318
 31
0.0
  0
LINE
  5
216
330
74
100
AcDbEntity
  8
1
  6
Continuous
 62
     2
100
AcDbLine
 10
-183.5384263395827
 20
22.51765237852318
 30
0.0
 11
-183.5384263395827
 21
26.76765237852318
 31
0.0
  0
LINE
  5
217
330
74
100
AcDbEntity
  8
1
  6
Continuous
 62
     2
100
AcDbLine
 10
-183.5384263395827
 20
22.51765237852318
 30
0.0
 11
-189.7384263395807
 21
22.51765237852318
 31
0.0
  0
LINE
  5
218
330
74
100
AcDbEntity
  8
1
  6
Continuous
 62
     6
100
AcDbLine
 10
-67.28323086633247
 20
26.76765237852318
 30
0.0
 11
-80.78323086633257
 21
26.76765237852318
 31
0.0
  0
LINE
  5
219
330
74
100
AcDbEntity
  8
1
  6
Continuous
 62
     2
100
AcDbLine
 10
-67.28323086633247
 20
5.51765237852318
 30
0.0
 11
-80.78323086633257
 21
5.51765237852318
 31
0.0
  0
LINE
  5
21A
330
74
100
AcDbEntity
  8
1
  6
Continuous
 62
     2
100
AcDbLine
 10
-67.28323086633247
 20
9.76765237852318
 30
0.0
 11
-80.78323086633257
 21
9.76765237852318
 31
0.0
  0
LINE
  5
21B
330
74
100
AcDbEntity
  8
1
  6
Continuous
 62
     2
100
AcDbLine
 10
-183.5384263395827
 20
5.51765237852318
 30
0.0
 11
-183.5384263395827
 21
9.76765237852318
 31
0.0
  0
LINE
  5
21C
330
74
100
AcDbEntity
  8
1
  6
Continuous
 62
     2
100
AcDbLine
 10
-183.5384263395827
 20
9.76765237852318
 30
0.0
 11
-183.5384263395827
 21
14.01765237852318
 31
0.0
  0
LINE
  5
21D
330
74
100
AcDbEntity
  8
1
  6
Continuous
 62
     7
100
AcDbLine
 10
-183.5384263395827
 20
1.26765237852329
 30
0.0
 11
-170.0384263395827
 21
1.26765237852329
 31
0.0
  0
LINE
  5
21E
330
74
100
AcDbEntity
  8
1
  6
Continuous
 62
     2
100
AcDbLine
 10
-183.5384263395827
 20
1.26765237852329
 30
0.0
 11
-183.5384263395827
 21
5.51765237852318
 31
0.0
  0
LINE
  5
21F
330
74
100
AcDbEntity
  8
1
  6
Continuous
 62
     7
100
AcDbLine
 10
-30.88323086633258
 20
5.51765237852318
 30
0.0
 11
-30.88323086633258
 21
9.76765237852318
 31
0.0
  0
LINE
  5
220
330
74
100
AcDbEntity
  8
1
  6
Continuous
 62
     6
100
AcDbLine
 10
-44.38323086633259
 20
26.76765237852318
 30
0.0
 11
-30.88323086633258
 21
26.76765237852318
 31
0.0
  0
LINE
  5
221
330
74
100
AcDbEntity
  8
1
  6
Continuous
 62
     7
100
AcDbLine
 10
-30.88323086633258
 20
26.76765237852318
 30
0.0
 11
-30.88323086633258
 21
22.51765237852318
 31
0.0
  0
LINE
  5
222
330
74
100
AcDbEntity
  8
1
  6
Continuous
 62
     6
100
AcDbLine
 10
-57.8832308663325
 20
26.76765237852318
 30
0.0
 11
-44.38323086633259
 21
26.76765237852318
 31
0.0
  0
LINE
  5
223
330
74
100
AcDbEntity
  8
1
  6
Continuous
 62
     7
100
AcDbLine
 10
-67.28323086633247
 20
14.01765237852318
 30
0.0
 11
-67.28323086633247
 21
9.76765237852318
 31
0.0
  0
LINE
  5
224
330
74
100
AcDbEntity
  8
1
  6
Continuous
 62
     7
100
AcDbLine
 10
-67.28323086633247
 20
18.26765237852318
 30
0.0
 11
-67.28323086633247
 21
14.01765237852318
 31
0.0
  0
LINE
  5
225
330
74
100
AcDbEntity
  8
1
  6
Continuous
 62
     2
100
AcDbLine
 10
-189.7384263395807
 20
18.26765237852318
 30
0.0
 11
-183.5384263395827
 21
18.26765237852318
 31
0.0
  0
LINE
  5
226
330
74
100
AcDbEntity
  8
1
  6
Continuous
 62
     7
100
AcDbLine
 10
-67.28323086633247
 20
22.51765237852318
 30
0.0
 11
-67.28323086633247
 21
18.26765237852318
 31
0.0
  0
LINE
  5
227
330
74
100
AcDbEntity
  8
1
  6
Continuous
 62
     7
100
AcDbLine
 10
-30.88323086633258
 20
18.26765237852318
 30
0.0
 11
-30.88323086633258
 21
14.01765237852318
 31
0.0
  0
LINE
  5
228
330
74
100
AcDbEntity
  8
1
  6
Continuous
 62
     7
100
AcDbLine
 10
-44.38323086633259
 20
26.76765237852318
 30
0.0
 11
-44.38323086633259
 21
22.51765237852318
 31
0.0
  0
LINE
  5
229
330
74
100
AcDbEntity
  8
1
  6
Continuous
 62
     7
100
AcDbLine
 10
-57.8832308663325
 20
26.76765237852318
 30
0.0
 11
-57.8832308663325
 21
22.51765237852318
 31
0.0
  0
LINE
  5
22A
330
74
100
AcDbEntity
  8
1
  6
Continuous
 62
     2
100
AcDbLine
 10
-183.5384263395827
 20
-2.98234762147682
 30
0.0
 11
-183.5384263395827
 21
1.26765237852329
 31
0.0
  0
LINE
  5
22B
330
74
100
AcDbEntity
  8
1
  6
Continuous
 62
     2
100
AcDbLine
 10
-189.7384263395807
 20
5.51765237852318
 30
0.0
 11
-183.5384263395827
 21
5.51765237852318
 31
0.0
  0
LINE
  5
22C
330
74
100
AcDbEntity
  8
1
  6
Continuous
 62
     2
100
AcDbLine
 10
-189.7384263395807
 20
9.76765237852318
 30
0.0
 11
-183.5384263395827
 21
9.76765237852318
 31
0.0
  0
LINE
  5
22D
330
74
100
AcDbEntity
  8
1
  6
Continuous
 62
     7
100
AcDbLine
 10
-189.7384263395807
 20
1.26765237852329
 30
0.0
 11
-183.5384263395827
 21
1.26765237852329
 31
0.0
  0
LINE
  5
22E
330
74
100
AcDbEntity
  8
1
  6
Continuous
 62
     7
100
AcDbLine
 10
-30.88323086633258
 20
5.51765237852318
 30
0.0
 11
-30.88323086633258
 21
1.26765237852329
 31
0.0
  0
LINE
  5
22F
330
74
100
AcDbEntity
  8
1
  6
Continuous
 62
     7
100
AcDbLine
 10
-67.28323086633247
 20
9.76765237852318
 30
0.0
 11
-67.28323086633247
 21
5.51765237852318
 31
0.0
  0
LINE
  5
230
330
74
100
AcDbEntity
  8
1
  6
Continuous
 62
     7
100
AcDbLine
 10
-67.28323086633247
 20
5.51765237852318
 30
0.0
 11
-67.28323086633247
 21
1.26765237852329
 31
0.0
  0
LINE
  5
231
330
74
100
AcDbEntity
  8
1
  6
Continuous
 62
     7
100
AcDbLine
 10
-44.38323086633259
 20
22.51765237852318
 30
0.0
 11
-44.38323086633259
 21
18.26765237852318
 31
0.0
  0
LINE
  5
232
330
74
100
AcDbEntity
  8
1
  6
Continuous
 62
     7
100
AcDbLine
 10
-57.8832308663325
 20
22.51765237852318
 30
0.0
 11
-57.8832308663325
 21
18.26765237852318
 31
0.0
  0
LINE
  5
233
330
74
100
AcDbEntity
  8
1
  6
Continuous
 62
     7
100
AcDbLine
 10
-67.28323086633247
 20
18.26765237852318
 30
0.0
 11
-57.8832308663325
 21
18.26765237852318
 31
0.0
  0
LINE
  5
234
330
74
100
AcDbEntity
  8
1
  6
Continuous
 62
     7
100
AcDbLine
 10
-30.88323086633258
 20
14.01765237852318
 30
0.0
 11
-44.38323086633259
 21
14.01765237852318
 31
0.0
  0
LINE
  5
235
330
74
100
AcDbEntity
  8
1
  6
Continuous
 62
     7
100
AcDbLine
 10
-30.88323086633258
 20
1.26765237852329
 30
0.0
 11
-30.88323086633258
 21
-2.98234762147682
 31
0.0
  0
LINE
  5
236
330
74
100
AcDbEntity
  8
1
  6
Continuous
 62
     7
100
AcDbLine
 10
-67.28323086633247
 20
1.26765237852329
 30
0.0
 11
-67.28323086633247
 21
-2.98234762147682
 31
0.0
  0
LINE
  5
237
330
74
100
AcDbEntity
  8
1
  6
Continuous
 62
     7
100
AcDbLine
 10
-67.28323086633247
 20
26.76765237852318
 30
0.0
 11
-67.28323086633247
 21
22.51765237852318
 31
0.0
  0
LINE
  5
238
330
74
100
AcDbEntity
  8
1
  6
Continuous
 62
     7
100
AcDbLine
 10
-30.88323086633258
 20
5.51765237852318
 30
0.0
 11
-1.23842633958018
 21
5.51765237852318
 31
0.0
  0
LINE
  5
239
330
74
100
AcDbEntity
  8
1
  6
Continuous
 62
     7
100
AcDbLine
 10
-30.88323086633258
 20
14.01765237852318
 30
0.0
 11
-1.23842633958018
 21
14.01765237852318
 31
0.0
  0
LINE
  5
23A
330
74
100
AcDbEntity
  8
1
  6
Continuous
 62
     7
100
AcDbLine
 10
35.46157366041945
 20
18.26765237852329
 30
0.0
 11
44.37998194209834
 21
18.26765237852318
 31
0.0
  0
LINE
  5
23B
330
74
100
AcDbEntity
  8
1
  6
Continuous
 62
     7
100
AcDbLine
 10
35.46157366041945
 20
18.26765237852329
 30
0.0
 11
-1.23842633958018
 21
18.26765237852316
 31
0.0
  0
LINE
  5
23C
330
74
100
AcDbEntity
  8
1
  6
Continuous
 62
     7
100
AcDbLine
 10
-1.23842633958018
 20
14.01765237852318
 30
0.0
 11
17.26157366041944
 21
14.01765237852318
 31
0.0
  0
LINE
  5
23D
330
74
100
AcDbEntity
  8
1
  6
Continuous
 62
     7
100
AcDbLine
 10
-1.23842633958018
 20
14.01765237852318
 30
0.0
 11
-1.23842633958018
 21
5.51765237852318
 31
0.0
  0
LINE
  5
23E
330
74
100
AcDbEntity
  8
1
  6
Continuous
 62
     6
100
AcDbLine
 10
-183.5384263395827
 20
-2.98234762147682
 30
0.0
 11
-189.7384263395807
 21
-2.98234762147671
 31
0.0
  0
LINE
  5
23F
330
74
100
AcDbEntity
  8
1
  6
Continuous
 62
     6
100
AcDbLine
 10
-189.7384263395807
 20
22.51765237852318
 30
0.0
 11
-189.7384263395807
 21
26.76765237852318
 31
0.0
  0
LINE
  5
240
330
74
100
AcDbEntity
  8
1
  6
Continuous
 62
     6
100
AcDbLine
 10
-189.7384263395807
 20
18.26765237852318
 30
0.0
 11
-189.7384263395807
 21
22.51765237852318
 31
0.0
  0
LINE
  5
241
330
74
100
AcDbEntity
  8
1
  6
Continuous
 62
     6
100
AcDbLine
 10
-189.7384263395807
 20
14.01765237852318
 30
0.0
 11
-189.7384263395807
 21
18.26765237852318
 31
0.0
  0
LINE
  5
242
330
74
100
AcDbEntity
  8
1
  6
Continuous
 62
     6
100
AcDbLine
 10
-189.7384263395807
 20
5.51765237852318
 30
0.0
 11
-189.7384263395807
 21
9.76765237852318
 31
0.0
  0
LINE
  5
243
330
74
100
AcDbEntity
  8
1
  6
Continuous
 62
     6
100
AcDbLine
 10
-107.7832308663325
 20
26.76765237852318
 30
0.0
 11
-170.0384263395827
 21
26.76765237852318
 31
0.0
  0
LINE
  5
244
330
74
100
AcDbEntity
  8
1
  6
Continuous
 62
     2
100
AcDbLine
 10
-170.0384263395827
 20
22.51765237852318
 30
0.0
 11
-107.7832308663325
 21
22.51765237852318
 31
0.0
  0
LINE
  5
245
330
74
100
AcDbEntity
  8
1
  6
Continuous
 62
     2
100
AcDbLine
 10
-170.0384263395827
 20
18.26765237852318
 30
0.0
 11
-107.7832308663325
 21
18.26765237852318
 31
0.0
  0
LINE
  5
246
330
74
100
AcDbEntity
  8
1
  6
Continuous
 62
     6
100
AcDbLine
 10
-30.88323086633258
 20
-2.98234762147682
 30
0.0
 11
-31.23842633958256
 21
-2.98234762147671
 31
0.0
  0
LINE
  5
247
330
74
100
AcDbEntity
  8
1
  6
Continuous
 62
     7
100
AcDbLine
 10
-44.38323086633259
 20
18.26765237852318
 30
0.0
 11
-30.88323086633258
 21
18.26765237852318
 31
0.0
  0
LINE
  5
248
330
74
100
AcDbEntity
  8
1
  6
Continuous
 62
     7
100
AcDbLine
 10
-7.98323086633255
 20
18.26765237852312
 30
0.0
 11
-30.88323086633258
 21
18.26765237852318
 31
0.0
  0
LINE
  5
249
330
74
100
AcDbEntity
  8
1
  6
Continuous
 62
     6
100
AcDbLine
 10
62.26157366041923
 20
14.01765237852318
 30
0.0
 11
62.26157366041875
 21
5.51765237852318
 31
0.0
  0
LINE
  5
24A
330
74
100
AcDbEntity
  8
1
  6
Continuous
 62
     6
100
AcDbLine
 10
-80.78323086633257
 20
-2.98234762147682
 30
0.0
 11
-67.28323086633247
 21
-2.98234762147682
 31
0.0
  0
LINE
  5
24B
330
74
100
AcDbEntity
  8
1
  6
Continuous
 62
     2
100
AcDbLine
 10
-80.78323086633257
 20
5.51765237852318
 30
0.0
 11
-80.78323086633257
 21
1.26765237852329
 31
0.0
  0
LINE
  5
24C
330
74
100
AcDbEntity
  8
1
  6
Continuous
 62
     2
100
AcDbLine
 10
-80.78323086633257
 20
5.51765237852318
 30
0.0
 11
-94.28323086633246
 21
5.51765237852318
 31
0.0
  0
LINE
  5
24D
330
74
100
AcDbEntity
  8
1
  6
Continuous
 62
     2
100
AcDbLine
 10
-80.78323086633257
 20
1.26765237852329
 30
0.0
 11
-80.78323086633257
 21
-2.98234762147682
 31
0.0
  0
LINE
  5
24E
330
74
100
AcDbEntity
  8
1
  6
Continuous
 62
     7
100
AcDbLine
 10
-80.78323086633257
 20
1.26765237852329
 30
0.0
 11
-67.28323086633247
 21
1.26765237852329
 31
0.0
  0
LINE
  5
24F
330
74
100
AcDbEntity
  8
1
  6
Continuous
 62
     2
100
AcDbLine
 10
-80.78323086633257
 20
14.01765237852318
 30
0.0
 11
-80.78323086633257
 21
9.76765237852318
 31
0.0
  0
LINE
  5
250
330
74
100
AcDbEntity
  8
1
  6
Continuous
 62
     2
100
AcDbLine
 10
-80.78323086633257
 20
14.01765237852318
 30
0.0
 11
-94.28323086633246
 21
14.01765237852318
 31
0.0
  0
LINE
  5
251
330
74
100
AcDbEntity
  8
1
  6
Continuous
 62
     2
100
AcDbLine
 10
-80.78323086633257
 20
18.26765237852318
 30
0.0
 11
-80.78323086633257
 21
14.01765237852318
 31
0.0
  0
LINE
  5
252
330
74
100
AcDbEntity
  8
1
  6
Continuous
 62
     2
100
AcDbLine
 10
-80.78323086633257
 20
18.26765237852318
 30
0.0
 11
-94.28323086633246
 21
18.26765237852318
 31
0.0
  0
LINE
  5
253
330
74
100
AcDbEntity
  8
1
  6
Continuous
 62
     2
100
AcDbLine
 10
-80.78323086633257
 20
22.51765237852318
 30
0.0
 11
-80.78323086633257
 21
18.26765237852318
 31
0.0
  0
LINE
  5
254
330
74
100
AcDbEntity
  8
1
  6
Continuous
 62
     2
100
AcDbLine
 10
-80.78323086633257
 20
22.51765237852318
 30
0.0
 11
-94.28323086633246
 21
22.51765237852318
 31
0.0
  0
LINE
  5
255
330
74
100
AcDbEntity
  8
1
  6
Continuous
 62
     2
100
AcDbLine
 10
-80.78323086633257
 20
9.76765237852318
 30
0.0
 11
-80.78323086633257
 21
5.51765237852318
 31
0.0
  0
LINE
  5
256
330
74
100
AcDbEntity
  8
1
  6
Continuous
 62
     2
100
AcDbLine
 10
-80.78323086633257
 20
9.76765237852318
 30
0.0
 11
-94.28323086633246
 21
9.76765237852318
 31
0.0
  0
LINE
  5
257
330
74
100
AcDbEntity
  8
1
  6
Continuous
 62
     6
100
AcDbLine
 10
-94.28323086633246
 20
-2.98234762147682
 30
0.0
 11
-81.23842633958257
 21
-2.98234762147671
 31
0.0
  0
LINE
  5
258
330
74
100
AcDbEntity
  8
1
  6
Continuous
 62
     2
100
AcDbLine
 10
-94.28323086633246
 20
5.51765237852318
 30
0.0
 11
-94.28323086633246
 21
1.26765237852329
 31
0.0
  0
LINE
  5
259
330
74
100
AcDbEntity
  8
1
  6
Continuous
 62
     2
100
AcDbLine
 10
-94.28323086633246
 20
5.51765237852318
 30
0.0
 11
-107.7832308663325
 21
5.51765237852318
 31
0.0
  0
LINE
  5
25A
330
74
100
AcDbEntity
  8
1
  6
Continuous
 62
     2
100
AcDbLine
 10
-94.28323086633246
 20
1.26765237852329
 30
0.0
 11
-94.28323086633246
 21
-2.98234762147682
 31
0.0
  0
LINE
  5
25B
330
74
100
AcDbEntity
  8
1
  6
Continuous
 62
     7
100
AcDbLine
 10
-94.28323086633246
 20
1.26765237852329
 30
0.0
 11
-80.78323086633257
 21
1.26765237852329
 31
0.0
  0
LINE
  5
25C
330
74
100
AcDbEntity
  8
1
  6
Continuous
 62
     2
100
AcDbLine
 10
-94.28323086633246
 20
14.01765237852318
 30
0.0
 11
-94.28323086633246
 21
9.76765237852318
 31
0.0
  0
LINE
  5
25D
330
74
100
AcDbEntity
  8
1
  6
Continuous
 62
     2
100
AcDbLine
 10
-94.28323086633246
 20
14.01765237852318
 30
0.0
 11
-107.7832308663325
 21
14.01765237852318
 31
0.0
  0
LINE
  5
25E
330
74
100
AcDbEntity
  8
1
  6
Continuous
 62
     2
100
AcDbLine
 10
-94.28323086633246
 20
18.26765237852318
 30
0.0
 11
-94.28323086633246
 21
14.01765237852318
 31
0.0
  0
LINE
  5
25F
330
74
100
AcDbEntity
  8
1
  6
Continuous
 62
     2
100
AcDbLine
 10
-94.28323086633246
 20
18.26765237852318
 30
0.0
 11
-107.7832308663325
 21
18.26765237852318
 31
0.0
  0
LINE
  5
260
330
74
100
AcDbEntity
  8
1
  6
Continuous
 62
     2
100
AcDbLine
 10
-94.28323086633246
 20
22.51765237852318
 30
0.0
 11
-94.28323086633246
 21
18.26765237852318
 31
0.0
  0
LINE
  5
261
330
74
100
AcDbEntity
  8
1
  6
Continuous
 62
     2
100
AcDbLine
 10
-94.28323086633246
 20
22.51765237852318
 30
0.0
 11
-107.7832308663325
 21
22.51765237852318
 31
0.0
  0
LINE
  5
262
330
74
100
AcDbEntity
  8
1
  6
Continuous
 62
     2
100
AcDbLine
 10
-94.28323086633246
 20
9.76765237852318
 30
0.0
 11
-94.28323086633246
 21
5.51765237852318
 31
0.0
  0
LINE
  5
263
330
74
100
AcDbEntity
  8
1
  6
Continuous
 62
     2
100
AcDbLine
 10
-94.28323086633246
 20
9.76765237852318
 30
0.0
 11
-107.7832308663325
 21
9.76765237852318
 31
0.0
  0
LINE
  5
264
330
74
100
AcDbEntity
  8
1
  6
Continuous
 62
     6
100
AcDbLine
 10
-107.7832308663325
 20
-2.98234762147682
 30
0.0
 11
-94.28323086633246
 21
-2.98234762147682
 31
0.0
  0
LINE
  5
265
330
74
100
AcDbEntity
  8
1
  6
Continuous
 62
     2
100
AcDbLine
 10
-107.7832308663325
 20
5.51765237852318
 30
0.0
 11
-107.7832308663325
 21
1.26765237852329
 31
0.0
  0
LINE
  5
266
330
74
100
AcDbEntity
  8
1
  6
Continuous
 62
     2
100
AcDbLine
 10
-107.7832308663325
 20
5.51765237852318
 30
0.0
 11
-170.0384263395827
 21
5.51765237852318
 31
0.0
  0
LINE
  5
267
330
74
100
AcDbEntity
  8
1
  6
Continuous
 62
     2
100
AcDbLine
 10
-107.7832308663325
 20
1.26765237852329
 30
0.0
 11
-107.7832308663325
 21
-2.98234762147682
 31
0.0
  0
LINE
  5
268
330
74
100
AcDbEntity
  8
1
  6
Continuous
 62
     7
100
AcDbLine
 10
-107.7832308663325
 20
1.26765237852329
 30
0.0
 11
-94.28323086633246
 21
1.26765237852329
 31
0.0
  0
LINE
  5
269
330
74
100
AcDbEntity
  8
1
  6
Continuous
 62
     2
100
AcDbLine
 10
-107.7832308663325
 20
14.01765237852318
 30
0.0
 11
-107.7832308663325
 21
9.76765237852318
 31
0.0
  0
LINE
  5
26A
330
74
100
AcDbEntity
  8
1
  6
Continuous
 62
     2
100
AcDbLine
 10
-107.7832308663325
 20
14.01765237852318
 30
0.0
 11
-170.0384263395827
 21
14.01765237852318
 31
0.0
  0
LINE
  5
26B
330
74
100
AcDbEntity
  8
1
  6
Continuous
 62
     2
100
AcDbLine
 10
-107.7832308663325
 20
18.26765237852318
 30
0.0
 11
-107.7832308663325
 21
14.01765237852318
 31
0.0
  0
LINE
  5
26C
330
74
100
AcDbEntity
  8
1
  6
Continuous
 62
     2
100
AcDbLine
 10
-107.7832308663325
 20
22.51765237852318
 30
0.0
 11
-107.7832308663325
 21
18.26765237852318
 31
0.0
  0
LINE
  5
26D
330
74
100
AcDbEntity
  8
1
  6
Continuous
 62
     2
100
AcDbLine
 10
-107.7832308663325
 20
9.76765237852318
 30
0.0
 11
-107.7832308663325
 21
5.51765237852318
 31
0.0
  0
LINE
  5
26E
330
74
100
AcDbEntity
  8
1
  6
Continuous
 62
     2
100
AcDbLine
 10
-107.7832308663325
 20
9.76765237852318
 30
0.0
 11
-170.0384263395827
 21
9.76765237852318
 31
0.0
  0
LINE
  5
26F
330
74
100
AcDbEntity
  8
1
  6
Continuous
 62
     7
100
AcDbLine
 10
-57.8832308663325
 20
14.01765237852329
 30
0.0
 11
-67.28323086633247
 21
14.01765237852318
 31
0.0
  0
LINE
  5
270
330
74
100
AcDbEntity
  8
1
  6
Continuous
 62
     6
100
AcDbLine
 10
-57.8832308663325
 20
26.76765237852318
 30
0.0
 11
-67.28323086633247
 21
26.76765237852318
 31
0.0
  0
LINE
  5
271
330
74
100
AcDbEntity
  8
1
  6
Continuous
 62
     7
100
AcDbLine
 10
-67.28323086633247
 20
22.51765237852318
 30
0.0
 11
-57.8832308663325
 21
22.51765237852318
 31
0.0
  0
LINE
  5
272
330
74
100
AcDbEntity
  8
1
  6
Continuous
 62
     6
100
AcDbLine
 10
-189.7384263395807
 20
9.76765237852318
 30
0.0
 11
-189.7384263395807
 21
14.01765237852318
 31
0.0
  0
LINE
  5
273
330
74
100
AcDbEntity
  8
1
  6
Continuous
 62
     6
100
AcDbLine
 10
62.26157366041915
 20
26.76765237852318
 30
0.0
 11
62.26157366041824
 21
18.26765237852318
 31
0.0
  0
LINE
  5
274
330
74
100
AcDbEntity
  8
1
  6
Continuous
 62
     6
100
AcDbLine
 10
-189.7384263395807
 20
-2.98234762147671
 30
0.0
 11
-224.7384263395806
 21
-2.98234762147671
 31
0.0
  0
LINE
  5
275
330
74
100
AcDbEntity
  8
1
  6
Continuous
 62
     2
100
AcDbLine
 10
-59.00296173181721
 20
13.39265237852318
 30
0.0
 11
-55.00296173181721
 21
12.89265237852318
 31
0.0
  0
LINE
  5
276
330
74
100
AcDbEntity
  8
1
  6
Continuous
 62
     2
100
AcDbLine
 10
-55.00296173181721
 20
12.89265237852318
 30
0.0
 11
-55.00296173181721
 21
10.89265237852318
 31
0.0
  0
LINE
  5
277
330
74
100
AcDbEntity
  8
1
  6
Continuous
 62
     2
100
AcDbLine
 10
-55.00296173181721
 20
10.89265237852318
 30
0.0
 11
-59.00296173181721
 21
10.39265237852318
 31
0.0
  0
LINE
  5
278
330
74
100
AcDbEntity
  8
1
  6
Continuous
 62
     2
100
AcDbLine
 10
-59.00296173181721
 20
10.39265237852318
 30
0.0
 11
-59.00296173181721
 21
13.39265237852318
 31
0.0
  0
LINE
  5
279
330
74
100
AcDbEntity
  8
1
  6
Continuous
 62
     7
100
AcDbLine
 10
-1.23842633958018
 20
18.26765237852316
 30
0.0
 11
-7.98323086633255
 21
18.26765237852312
 31
0.0
  0
LINE
  5
27A
330
74
100
AcDbEntity
  8
1
  6
Continuous
 62
     7
100
AcDbLine
 10
-1.23842633958018
 20
14.01765237852318
 30
0.0
 11
0.76157366041982
 21
14.01765237852318
 31
0.0
  0
LINE
  5
27B
330
74
100
AcDbEntity
  8
1
  6
Continuous
 62
     2
100
AcDbLine
 10
33.69631034520643
 20
12.46743309949042
 30
0.0
 11
33.69631034520643
 21
10.41003713463692
 31
0.0
  0
ARC
  5
27C
102
{ACAD_REACTORS
330
325
330
326
102
}
330
74
100
AcDbEntity
  8
0
  6
Continuous
 62
     2
100
AcDbCircle
 10
-51.40418293330768
 20
4.12955714043433
 30
0.0
 40
0.6378510567600122
100
AcDbArc
 50
321.8795802028409
 51
38.12041979715823
  0
ARC
  5
27D
102
{ACAD_REACTORS
330
325
330
326
102
}
330
74
100
AcDbEntity
  8
0
  6
Continuous
 62
     2
100
AcDbCircle
 10
-51.23910852310408
 20
4.00002724116165
 30
0.0
 40
0.4280236140609635
100
AcDbArc
 50
218.1204197971923
 51
321.8795802027988
  0
ARC
  5
27E
102
{ACAD_REACTORS
330
325
330
326
102
}
330
74
100
AcDbEntity
  8
0
  6
Continuous
 62
     2
100
AcDbCircle
 10
-51.07403411290071
 20
4.12955714043433
 30
0.0
 40
0.637851056759904
100
AcDbArc
 50
141.8795802028347
 51
218.1204197971662
  0
ARC
  5
27F
102
{ACAD_REACTORS
330
325
330
326
102
}
330
74
100
AcDbEntity
  8
0
  6
Continuous
 62
     2
100
AcDbCircle
 10
-51.23910852310408
 20
4.25908703970745
 30
0.0
 40
0.4280236140606011
100
AcDbArc
 50
38.12041979715364
 51
141.8795802028552
  0
ARC
  5
280
102
{ACAD_REACTORS
330
31D
330
31E
102
}
330
74
100
AcDbEntity
  8
0
  6
Continuous
 62
     2
100
AcDbCircle
 10
-53.76969871778502
 20
2.96388245827883
 30
0.0
 40
1.840813230556614
100
AcDbArc
 50
58.06909105003781
 51
71.55192388186714
  0
ARC
  5
281
102
{ACAD_REACTORS
330
31D
330
31E
102
}
330
74
100
AcDbEntity
  8
0
  6
Continuous
 62
     2
100
AcDbCircle
 10
-53.55339483269509
 20
4.29903766054924
 30
0.0
 40
0.42279343817757
100
AcDbArc
 50
113.3722778881982
 51
151.4785267423096
  0
ARC
  5
282
102
{ACAD_REACTORS
330
31D
330
31E
102
}
330
74
100
AcDbEntity
  8
0
  6
Continuous
 62
     2
100
AcDbCircle
 10
-53.24152933014935
 20
4.12955714043433
 30
0.0
 40
0.7777353184572798
100
AcDbArc
 50
151.4785267422687
 51
208.5214732577029
  0
ARC
  5
283
102
{ACAD_REACTORS
330
31D
330
31E
102
}
330
74
100
AcDbEntity
  8
0
  6
Continuous
 62
     2
100
AcDbCircle
 10
-53.90017216827496
 20
6.86730998775368
 30
0.0
 40
4.010410630990213
100
AcDbArc
 50
275.1581447696245
 51
285.979991258353
  0
ARC
  5
284
102
{ACAD_REACTORS
330
31D
330
31E
102
}
330
74
100
AcDbEntity
  8
0
  6
Continuous
 62
     2
100
AcDbCircle
 10
-53.6614481230387
 20
4.22277231566972
 30
0.0
 40
1.355119937140016
100
AcDbArc
 50
195.061891777091
 51
275.1581447696391
  0
ARC
  5
285
102
{ACAD_REACTORS
330
31D
330
31E
102
}
330
74
100
AcDbEntity
  8
0
  6
Continuous
 62
     2
100
AcDbCircle
 10
-54.0078347705286
 20
4.12955714043433
 30
0.0
 40
0.9964100565214622
100
AcDbArc
 50
164.9381082228799
 51
195.0618917770962
  0
ARC
  5
286
102
{ACAD_REACTORS
330
31D
330
31E
102
}
330
74
100
AcDbEntity
  8
0
  6
Continuous
 62
     2
100
AcDbCircle
 10
-53.6614481230387
 20
4.03634196519892
 30
0.0
 40
1.355119937140908
100
AcDbArc
 50
84.84185523036265
 51
164.9381082228905
  0
ARC
  5
287
102
{ACAD_REACTORS
330
321
330
322
102
}
330
74
100
AcDbEntity
  8
0
  6
Continuous
 62
     2
100
AcDbCircle
 10
-57.65319544052787
 20
4.98395944981806
 30
0.0
 40
0.2609230769227325
100
AcDbArc
 50
115.3740086783589
 51
180.0
  0
ARC
  5
288
102
{ACAD_REACTORS
330
321
330
322
102
}
330
74
100
AcDbEntity
  8
0
  6
Continuous
 62
     2
100
AcDbCircle
 10
-57.65319544052787
 20
6.81725135059177
 30
0.0
 40
0.2609230769229498
100
AcDbArc
 50
180.0
 51
244.6259913216399
  0
ARC
  5
289
102
{ACAD_REACTORS
330
321
330
322
102
}
330
74
100
AcDbEntity
  8
0
  6
Continuous
 62
     2
100
AcDbCircle
 10
-57.6485540063874
 20
5.91039212822626
 30
0.0
 40
1.668232340440702
100
AcDbArc
 50
269.811032957586
 51
90.18896704241399
  0
ARC
  5
28A
102
{ACAD_REACTORS
330
321
330
322
102
}
330
74
100
AcDbEntity
  8
0
  6
Continuous
 62
     2
100
AcDbCircle
 10
-57.65319544052787
 20
4.50309051866509
 30
0.0
 40
0.2609230769229498
100
AcDbArc
 50
180.0
 51
269.8110329574449
  0
ARC
  5
28B
102
{ACAD_REACTORS
330
31F
330
320
102
}
330
74
100
AcDbEntity
  8
0
  6
Continuous
 62
     2
100
AcDbCircle
 10
-40.2453770812464
 20
4.29903766054924
 30
0.0
 40
0.4227934381772261
100
AcDbArc
 50
109.337143219486
 51
151.4785267424225
  0
ARC
  5
28C
102
{ACAD_REACTORS
330
31F
330
320
102
}
330
74
100
AcDbEntity
  8
0
  6
Continuous
 62
     2
100
AcDbCircle
 10
-40.2453770812464
 20
3.96007662031987
 30
0.0
 40
0.4227934381785528
100
AcDbArc
 50
208.521473257687
 51
246.6277221118401
  0
ARC
  5
28D
102
{ACAD_REACTORS
330
31F
330
320
102
}
330
74
100
AcDbEntity
  8
0
  6
Continuous
 62
     2
100
AcDbCircle
 10
-40.699817019079
 20
4.12955714043433
 30
0.0
 40
0.996410056523109
100
AcDbArc
 50
164.9381082229054
 51
195.0618917770958
  0
ARC
  5
28E
102
{ACAD_REACTORS
330
31F
330
320
102
}
330
74
100
AcDbEntity
  8
0
  6
Continuous
 62
     2
100
AcDbCircle
 10
-40.35343037159002
 20
4.03634196519892
 30
0.0
 40
1.355119937140591
100
AcDbArc
 50
90.0
 51
164.9381082228992
  0
ARC
  5
28F
102
{ACAD_REACTORS
330
323
330
324
102
}
330
74
100
AcDbEntity
  8
0
  6
Continuous
 62
     2
100
AcDbCircle
 10
-48.14433540688233
 20
6.90574761661148
 30
0.0
 40
1.26190476190564
100
AcDbArc
 50
90.0
 51
270.0
  0
ARC
  5
290
102
{ACAD_REACTORS
330
327
330
328
102
}
330
74
100
AcDbEntity
  8
0
  6
Continuous
 62
     2
100
AcDbCircle
 10
-53.71680709715159
 20
7.32800802305334
 30
0.0
 40
0.2916229955959899
100
AcDbArc
 50
270.0
 51
90.0
  0
ARC
  5
291
102
{ACAD_REACTORS
330
321
330
322
102
}
330
74
100
AcDbEntity
  8
0
  6
Continuous
 62
     2
100
AcDbCircle
 10
-59.78174807402516
 20
7.31784041270329
 30
0.0
 40
0.2609230769224524
100
AcDbArc
 50
90.0
 51
180.0
  0
ARC
  5
292
102
{ACAD_REACTORS
330
321
330
322
102
}
330
74
100
AcDbEntity
  8
0
  6
Continuous
 62
     2
100
AcDbCircle
 10
-58.13016319089743
 20
5.90060540020515
 30
0.0
 40
0.7536343169897727
100
AcDbArc
 50
115.1944106485239
 51
244.8055893514909
  0
ARC
  5
293
102
{ACAD_REACTORS
330
321
330
322
102
}
330
74
100
AcDbEntity
  8
0
  6
Continuous
 62
     2
100
AcDbCircle
 10
-58.56205116409993
 20
4.98256428775661
 30
0.0
 40
0.2609230769228361
100
AcDbArc
 50
0.0
 51
64.8055893514401
  0
ARC
  5
294
102
{ACAD_REACTORS
330
321
330
322
102
}
330
74
100
AcDbEntity
  8
0
  6
Continuous
 62
     2
100
AcDbCircle
 10
-60.27257012092312
 20
3.21826776314342
 30
0.0
 40
0.3506153846138886
100
AcDbArc
 50
180.0
 51
270.0
  0
ARC
  5
295
102
{ACAD_REACTORS
330
323
330
324
102
}
330
74
100
AcDbEntity
  8
0
  6
Continuous
 62
     2
100
AcDbCircle
 10
-47.96559820839869
 20
7.0352775158846
 30
0.0
 40
0.4280236140606861
100
AcDbArc
 50
38.12041979714503
 51
141.879580202855
  0
ARC
  5
296
102
{ACAD_REACTORS
330
323
330
324
102
}
330
74
100
AcDbEntity
  8
0
  6
Continuous
 62
     2
100
AcDbCircle
 10
-47.8005237981952
 20
6.90574761661148
 30
0.0
 40
0.6378510567600001
100
AcDbArc
 50
141.8795802028413
 51
218.1204197971587
  0
ARC
  5
297
102
{ACAD_REACTORS
330
325
330
326
102
}
330
74
100
AcDbEntity
  8
0
  6
Continuous
 62
     2
100
AcDbCircle
 10
-51.23910852310408
 20
4.5746604547346
 30
0.0
 40
1.70700807620544
100
AcDbArc
 50
242.4518518243401
 51
297.548148175687
  0
ARC
  5
298
102
{ACAD_REACTORS
330
325
330
326
102
}
330
74
100
AcDbEntity
  8
0
  6
Continuous
 62
     2
100
AcDbCircle
 10
-51.23910852310408
 20
3.68445382613451
 30
0.0
 40
1.707008076205444
100
AcDbArc
 50
62.45185182430569
 51
117.5481481756673
  0
ARC
  5
299
102
{ACAD_REACTORS
330
325
330
326
102
}
330
74
100
AcDbEntity
  8
0
  6
Continuous
 62
     2
100
AcDbCircle
 10
-51.47129025189193
 20
4.12955714043433
 30
0.0
 40
1.204986845992994
100
AcDbArc
 50
117.5481481756635
 51
242.451851824337
  0
ARC
  5
29A
102
{ACAD_REACTORS
330
325
330
326
102
}
330
74
100
AcDbEntity
  8
0
  6
Continuous
 62
     2
100
AcDbCircle
 10
-51.00692679431623
 20
4.12955714043433
 30
0.0
 40
1.204986845993433
100
AcDbArc
 50
297.5481481757013
 51
62.45185182429817
  0
ARC
  5
29B
102
{ACAD_REACTORS
330
323
330
324
102
}
330
74
100
AcDbEntity
  8
0
  6
Continuous
 62
     2
100
AcDbCircle
 10
-47.96559820839869
 20
6.77621771733835
 30
0.0
 40
0.428023614060679
100
AcDbArc
 50
218.1204197971438
 51
321.8795802028562
  0
ARC
  5
29C
102
{ACAD_REACTORS
330
323
330
324
102
}
330
74
100
AcDbEntity
  8
0
  6
Continuous
 62
     2
100
AcDbCircle
 10
-48.13067261860217
 20
6.90574761661148
 30
0.0
 40
0.6378510567599939
100
AcDbArc
 50
321.8795802028409
 51
38.12041979715914
  0
ARC
  5
29D
102
{ACAD_REACTORS
330
321
330
322
102
}
330
74
100
AcDbEntity
  8
0
  6
Continuous
 62
     2
100
AcDbCircle
 10
-55.74917169884307
 20
3.21826776314342
 30
0.0
 40
0.3506153846142821
100
AcDbArc
 50
270.0
 51
0.0
  0
ARC
  5
29E
102
{ACAD_REACTORS
330
321
330
322
102
}
330
74
100
AcDbEntity
  8
0
  6
Continuous
 62
     2
100
AcDbCircle
 10
-55.74917169884307
 20
7.81703699388739
 30
0.0
 40
0.3506153846147981
100
AcDbArc
 50
0.0
 51
90.0
  0
ARC
  5
29F
102
{ACAD_REACTORS
330
321
330
322
102
}
330
74
100
AcDbEntity
  8
0
  6
Continuous
 62
     2
100
AcDbCircle
 10
-60.27257012092312
 20
7.81703699388739
 30
0.0
 40
0.3506153846147413
100
AcDbArc
 50
90.0
 51
180.0
  0
ARC
  5
2A0
102
{ACAD_REACTORS
330
321
330
322
102
}
330
74
100
AcDbEntity
  8
0
  6
Continuous
 62
     2
100
AcDbCircle
 10
-58.56205116409993
 20
3.71746434434205
 30
0.0
 40
0.260923076922889
100
AcDbArc
 50
270.0
 51
0.0
  0
ARC
  5
2A1
102
{ACAD_REACTORS
330
321
330
322
102
}
330
74
100
AcDbEntity
  8
0
  6
Continuous
 62
     2
100
AcDbCircle
 10
-58.56205116409993
 20
6.81864651265323
 30
0.0
 40
0.2609230769224057
100
AcDbArc
 50
295.1944106485602
 51
0.0
  0
ARC
  5
2A2
102
{ACAD_REACTORS
330
321
330
322
102
}
330
74
100
AcDbEntity
  8
0
  6
Continuous
 62
     2
100
AcDbCircle
 10
-58.56205116409993
 20
7.31784041270329
 30
0.0
 40
0.2609230769228361
100
AcDbArc
 50
0.0
 51
90.0
  0
ARC
  5
2A3
102
{ACAD_REACTORS
330
321
330
322
102
}
330
74
100
AcDbEntity
  8
0
  6
Continuous
 62
     2
100
AcDbCircle
 10
-59.78174807402516
 20
3.71746434434205
 30
0.0
 40
0.2609230769220403
100
AcDbArc
 50
180.0
 51
270.0
  0
ARC
  5
2A4
102
{ACAD_REACTORS
330
327
330
328
102
}
330
74
100
AcDbEntity
  8
0
  6
Continuous
 62
     2
100
AcDbCircle
 10
-53.35195376968184
 20
7.29544936915043
 30
0.0
 40
0.8722030093666717
100
AcDbArc
 50
270.0
 51
90.0
  0
ARC
  5
2A5
102
{ACAD_REACTORS
330
31F
330
320
102
}
330
74
100
AcDbEntity
  8
0
  6
Continuous
 62
     2
100
AcDbCircle
 10
-40.35343037159002
 20
4.22277231566972
 30
0.0
 40
1.355119937140888
100
AcDbArc
 50
195.0618917771009
 51
275.1581447696763
  0
ARC
  5
2A6
102
{ACAD_REACTORS
330
31F
330
320
102
}
330
74
100
AcDbEntity
  8
0
  6
Continuous
 62
     2
100
AcDbCircle
 10
-40.59215441682628
 20
6.86730998775368
 30
0.0
 40
4.010410630990746
100
AcDbArc
 50
275.158144769637
 51
285.9799912583388
  0
ARC
  5
2A7
102
{ACAD_REACTORS
330
31F
330
320
102
}
330
74
100
AcDbEntity
  8
0
  6
Continuous
 62
     2
100
AcDbCircle
 10
-40.46168096633633
 20
5.29523182258981
 30
0.0
 40
1.840813230556003
100
AcDbArc
 50
288.4480761181333
 51
301.930908949938
  0
ARC
  5
2A8
102
{ACAD_REACTORS
330
31F
330
320
102
}
330
74
100
AcDbEntity
  8
0
  6
Continuous
 62
     2
100
AcDbCircle
 10
-40.11608779802068
 20
4.25924357793145
 30
0.0
 40
0.748702301640701
100
AcDbArc
 50
246.6277221118145
 51
288.4480761180797
  0
ARC
  5
2A9
102
{ACAD_REACTORS
330
31F
330
320
102
}
330
74
100
AcDbEntity
  8
0
  6
Continuous
 62
     2
100
AcDbCircle
 10
-39.93351157869975
 20
4.12955714043433
 30
0.0
 40
0.7777353184586693
100
AcDbArc
 50
151.478526742362
 51
208.5214732576684
  0
ARC
  5
2AA
102
{ACAD_REACTORS
330
31F
330
320
102
}
330
74
100
AcDbEntity
  8
0
  6
Continuous
 62
     2
100
AcDbCircle
 10
-40.12416220678054
 20
3.95362032138981
 30
0.0
 40
0.7888619891124407
100
AcDbArc
 50
90.0
 51
109.3371432194314
  0
ARC
  5
2AB
102
{ACAD_REACTORS
330
321
330
322
102
}
330
74
100
AcDbEntity
  8
0
  6
Continuous
 62
     2
100
AcDbCircle
 10
-57.65319544052787
 20
7.31769373778744
 30
0.0
 40
0.2609230769224181
100
AcDbArc
 50
90.18896704255509
 51
180.0
  0
ARC
  5
2AC
102
{ACAD_REACTORS
330
321
330
322
102
}
330
74
100
AcDbEntity
  8
0
  6
Continuous
 62
     2
100
AcDbCircle
 10
-58.0879414720055
 20
5.90060540020515
 30
0.0
 40
0.7535935125160986
100
AcDbArc
 50
295.374008678178
 51
64.62599132180713
  0
ARC
  5
2AD
102
{ACAD_REACTORS
330
31D
330
31E
102
}
330
74
100
AcDbEntity
  8
0
  6
Continuous
 62
     2
100
AcDbCircle
 10
-53.76969871778502
 20
5.29523182259027
 30
0.0
 40
1.840813230556009
100
AcDbArc
 50
288.448076118133
 51
301.9309089499622
  0
ARC
  5
2AE
102
{ACAD_REACTORS
330
31D
330
31E
102
}
330
74
100
AcDbEntity
  8
0
  6
Continuous
 62
     2
100
AcDbCircle
 10
-53.42410554947028
 20
4.25924357793145
 30
0.0
 40
0.7487023016403824
100
AcDbArc
 50
246.6277221118709
 51
288.4480761181566
  0
ARC
  5
2AF
102
{ACAD_REACTORS
330
31D
330
31E
102
}
330
74
100
AcDbEntity
  8
0
  6
Continuous
 62
     2
100
AcDbCircle
 10
-53.55339483269509
 20
3.96007662031987
 30
0.0
 40
0.4227934381775277
100
AcDbArc
 50
208.5214732576916
 51
246.627722111826
  0
ARC
  5
2B0
102
{ACAD_REACTORS
330
31D
330
31E
102
}
330
74
100
AcDbEntity
  8
0
  6
Continuous
 62
     2
100
AcDbCircle
 10
-53.42410554947028
 20
3.99987070293719
 30
0.0
 40
0.7487023016407695
100
AcDbArc
 50
71.55192388185483
 51
113.3722778881285
  0
ARC
  5
2B1
102
{ACAD_REACTORS
330
31D
330
31E
102
}
330
74
100
AcDbEntity
  8
0
  6
Continuous
 62
     2
100
AcDbCircle
 10
-53.90017216827496
 20
1.39180429311543
 30
0.0
 40
4.010410630990087
100
AcDbArc
 50
74.0200087416469
 51
84.84185523037553
  0
CIRCLE
  5
2B2
102
{ACAD_REACTORS
330
321
330
322
102
}
330
74
100
AcDbEntity
  8
0
  6
Continuous
 62
     2
100
AcDbCircle
 10
-58.10762330231356
 20
5.90060540020515
 30
0.0
 40
0.3892387874202612
  0
CIRCLE
  5
2B3
330
74
100
AcDbEntity
  8
1
  6
Continuous
 62
     2
100
AcDbCircle
 10
-62.1909710412292
 20
11.89265237852318
 30
0.0
 40
1.0
  0
CIRCLE
  5
2B4
330
74
100
AcDbEntity
  8
1
  6
Continuous
 62
     2
100
AcDbCircle
 10
-62.1909710412292
 20
11.89265237852318
 30
0.0
 40
1.5
  0
MTEXT
  5
2B6
330
74
100
AcDbEntity
  8
1
 62
     2
100
AcDbMText
 10
-29.78323086633256
 20
16.34265237852317
 30
0.0
 40
1.4
 41
0.0
 71
     4
 72
     1
  1
SAP\Pchange-No.
  7
CONVERTER_12
 73
     1
 44
0.66026410564226
  0
MTEXT
  5
2B7
330
74
100
AcDbEntity
  8
1
 62
     3
100
AcDbMText
 10
-20.55099404821768
 20
16.14265237852317
 30
0.0
 40
2.5
 41
0.0
 71
     4
 72
     1
  1
A02-05056/06
  7
CONVERTER_12
 73
     1
 44
1.20048019207683
  0
TEXT
  5
2B9
330
74
100
AcDbEntity
  8
1
 62
     3
100
AcDbText
 10
-29.78323086633264
 20
29.06242395212743
 30
0.0
 40
2.5
  1
 
 41
0.72
  7
CONVERTER_13
100
AcDbText
  0
TEXT
  5
2BA
330
74
100
AcDbEntity
  8
1
 62
     3
100
AcDbText
 10
-29.78323086633264
 20
32.56242395212743
 30
0.0
 40
2.5
  1
 
 41
0.72
  7
CONVERTER_13
100
AcDbText
  0
TEXT
  5
2BB
330
74
100
AcDbEntity
  8
1
 62
     3
100
AcDbText
 10
-29.78323086633264
 20
36.06242395212743
 30
0.0
 40
2.5
  1
 
 41
0.72
  7
CONVERTER_13
100
AcDbText
  0
MTEXT
  5
2BD
330
74
100
AcDbEntity
  8
1
 62
     2
100
AcDbMText
 10
-169.0384263395827
 20
3.39265237852329
 30
0.0
 40
2.0
 41
0.0
 71
     4
 72
     1
  1
 
  7
CONVERTER_14
 73
     1
 44
1.20048019207683
  0
MTEXT
  5
2BE
330
74
100
AcDbEntity
  8
1
 62
     2
100
AcDbMText
 10
-169.0384263395827
 20
7.64265237852318
 30
0.0
 40
2.0
 41
0.0
 71
     4
 72
     1
  1
 
  7
CONVERTER_14
 73
     1
 44
1.20048019207683
  0
MTEXT
  5
2BF
330
74
100
AcDbEntity
  8
1
 62
     2
100
AcDbMText
 10
-169.0384263395827
 20
11.89265237852318
 30
0.0
 40
2.0
 41
0.0
 71
     4
 72
     1
  1
 
  7
CONVERTER_14
 73
     1
 44
1.20048019207683
  0
MTEXT
  5
2C0
330
74
100
AcDbEntity
  8
1
 62
     2
100
AcDbMText
 10
-169.0384263395827
 20
16.14265237852318
 30
0.0
 40
2.0
 41
0.0
 71
     4
 72
     1
  1
 
  7
CONVERTER_14
 73
     1
 44
1.20048019207683
  0
MTEXT
  5
2C1
330
74
100
AcDbEntity
  8
1
 62
     2
100
AcDbMText
 10
-169.0384263395827
 20
20.39265237852318
 30
0.0
 40
2.0
 41
0.0
 71
     4
 72
     1
  1
 
  7
CONVERTER_14
 73
     1
 44
1.20048019207683
  0
MTEXT
  5
2C2
330
74
100
AcDbEntity
  8
1
 62
     2
100
AcDbMText
 10
-169.0384263395827
 20
24.64265237852318
 30
0.0
 40
2.0
 41
0.0
 71
     4
 72
     1
  1
 
  7
CONVERTER_14
 73
     1
 44
1.20048019207683
  0
MTEXT
  5
2C3
330
74
100
AcDbEntity
  8
1
 62
     2
100
AcDbMText
 10
-74.03323086633254
 20
3.39265237852329
 30
0.0
 40
2.0
 41
0.0
 71
     5
 72
     1
  1
 
  7
CONVERTER_11
 73
     1
 44
1.20048019207683
  0
MTEXT
  5
2C4
330
74
100
AcDbEntity
  8
1
 62
     2
100
AcDbMText
 10
-74.03323086633254
 20
7.64265237852318
 30
0.0
 40
2.0
 41
0.0
 71
     5
 72
     1
  1
 
  7
CONVERTER_11
 73
     1
 44
1.20048019207683
  0
MTEXT
  5
2C5
330
74
100
AcDbEntity
  8
1
 62
     2
100
AcDbMText
 10
-74.03323086633254
 20
11.89265237852318
 30
0.0
 40
2.0
 41
0.0
 71
     5
 72
     1
  1
 
  7
CONVERTER_11
 73
     1
 44
1.20048019207683
  0
MTEXT
  5
2C6
330
74
100
AcDbEntity
  8
1
 62
     2
100
AcDbMText
 10
-74.03323086633254
 20
16.14265237852318
 30
0.0
 40
2.0
 41
0.0
 71
     5
 72
     1
  1
 
  7
CONVERTER_11
 73
     1
 44
1.20048019207683
  0
MTEXT
  5
2C7
330
74
100
AcDbEntity
  8
1
 62
     2
100
AcDbMText
 10
-74.03323086633254
 20
20.39265237852318
 30
0.0
 40
2.0
 41
0.0
 71
     5
 72
     1
  1
 
  7
CONVERTER_11
 73
     1
 44
1.20048019207683
  0
MTEXT
  5
2C8
330
74
100
AcDbEntity
  8
1
 62
     2
100
AcDbMText
 10
-74.03323086633254
 20
24.64265237852318
 30
0.0
 40
2.0
 41
0.0
 71
     5
 72
     1
  1
 
  7
CONVERTER_11
 73
     1
 44
1.20048019207683
  0
MTEXT
  5
2C9
330
74
100
AcDbEntity
  8
1
 62
     2
100
AcDbMText
 10
-87.53323086633256
 20
3.39265237852329
 30
0.0
 40
2.0
 41
0.0
 71
     5
 72
     1
  1
 
  7
CONVERTER_11
 73
     1
 44
1.20048019207683
  0
MTEXT
  5
2CA
330
74
100
AcDbEntity
  8
1
 62
     2
100
AcDbMText
 10
-87.53323086633256
 20
7.64265237852318
 30
0.0
 40
2.0
 41
0.0
 71
     5
 72
     1
  1
 
  7
CONVERTER_11
 73
     1
 44
1.20048019207683
  0
MTEXT
  5
2CB
330
74
100
AcDbEntity
  8
1
 62
     2
100
AcDbMText
 10
-87.53323086633256
 20
11.89265237852318
 30
0.0
 40
2.0
 41
0.0
 71
     5
 72
     1
  1
 
  7
CONVERTER_11
 73
     1
 44
1.20048019207683
  0
MTEXT
  5
2CC
330
74
100
AcDbEntity
  8
1
 62
     2
100
AcDbMText
 10
-87.53323086633256
 20
16.14265237852318
 30
0.0
 40
2.0
 41
0.0
 71
     5
 72
     1
  1
 
  7
CONVERTER_11
 73
     1
 44
1.20048019207683
  0
MTEXT
  5
2CD
330
74
100
AcDbEntity
  8
1
 62
     2
100
AcDbMText
 10
-87.53323086633256
 20
20.39265237852318
 30
0.0
 40
2.0
 41
0.0
 71
     5
 72
     1
  1
 
  7
CONVERTER_11
 73
     1
 44
1.20048019207683
  0
MTEXT
  5
2CE
330
74
100
AcDbEntity
  8
1
 62
     2
100
AcDbMText
 10
-87.53323086633256
 20
24.64265237852318
 30
0.0
 40
2.0
 41
0.0
 71
     5
 72
     1
  1
 
  7
CONVERTER_11
 73
     1
 44
1.20048019207683
  0
MTEXT
  5
2CF
330
74
100
AcDbEntity
  8
1
 62
     2
100
AcDbMText
 10
-101.0332308663325
 20
24.64265237852318
 30
0.0
 40
2.0
 41
0.0
 71
     5
 72
     1
  1
 
  7
CONVERTER_11
 73
     1
 44
1.20048019207683
  0
MTEXT
  5
2D0
330
74
100
AcDbEntity
  8
1
 62
     2
100
AcDbMText
 10
-101.0332308663325
 20
20.39265237852318
 30
0.0
 40
2.0
 41
0.0
 71
     5
 72
     1
  1
 
  7
CONVERTER_11
 73
     1
 44
1.20048019207683
  0
MTEXT
  5
2D1
330
74
100
AcDbEntity
  8
1
 62
     2
100
AcDbMText
 10
-101.0332308663325
 20
16.14265237852318
 30
0.0
 40
2.0
 41
0.0
 71
     5
 72
     1
  1
 
  7
CONVERTER_11
 73
     1
 44
1.20048019207683
  0
MTEXT
  5
2D2
330
74
100
AcDbEntity
  8
1
 62
     2
100
AcDbMText
 10
-101.0332308663325
 20
11.89265237852318
 30
0.0
 40
2.0
 41
0.0
 71
     5
 72
     1
  1
 
  7
CONVERTER_11
 73
     1
 44
1.20048019207683
  0
MTEXT
  5
2D3
330
74
100
AcDbEntity
  8
1
 62
     2
100
AcDbMText
 10
-101.0332308663325
 20
7.64265237852318
 30
0.0
 40
2.0
 41
0.0
 71
     5
 72
     1
  1
 
  7
CONVERTER_11
 73
     1
 44
1.20048019207683
  0
MTEXT
  5
2D4
330
74
100
AcDbEntity
  8
1
 62
     2
100
AcDbMText
 10
-101.0332308663325
 20
3.39265237852329
 30
0.0
 40
2.0
 41
0.0
 71
     5
 72
     1
  1
 
  7
CONVERTER_11
 73
     1
 44
1.20048019207683
  0
MTEXT
  5
2D5
330
74
100
AcDbEntity
  8
1
 62
     2
100
AcDbMText
 10
-176.7884263395827
 20
24.64265237852318
 30
0.0
 40
2.0
 41
0.0
 71
     5
 72
     1
  1
 
  7
CONVERTER_11
 73
     1
 44
1.20048019207683
  0
MTEXT
  5
2D6
330
74
100
AcDbEntity
  8
1
 62
     2
100
AcDbMText
 10
-176.7884263395827
 20
20.39265237852318
 30
0.0
 40
2.0
 41
0.0
 71
     5
 72
     1
  1
 
  7
CONVERTER_11
 73
     1
 44
1.20048019207683
  0
MTEXT
  5
2D7
330
74
100
AcDbEntity
  8
1
 62
     2
100
AcDbMText
 10
-176.7884263395827
 20
16.14265237852318
 30
0.0
 40
2.0
 41
0.0
 71
     5
 72
     1
  1
 
  7
CONVERTER_11
 73
     1
 44
1.20048019207683
  0
MTEXT
  5
2D8
330
74
100
AcDbEntity
  8
1
 62
     2
100
AcDbMText
 10
-176.7884263395827
 20
11.89265237852318
 30
0.0
 40
2.0
 41
0.0
 71
     5
 72
     1
  1
 
  7
CONVERTER_11
 73
     1
 44
1.20048019207683
  0
MTEXT
  5
2D9
330
74
100
AcDbEntity
  8
1
 62
     2
100
AcDbMText
 10
-176.7884263395827
 20
7.64265237852318
 30
0.0
 40
2.0
 41
0.0
 71
     5
 72
     1
  1
 
  7
CONVERTER_11
 73
     1
 44
1.20048019207683
  0
MTEXT
  5
2DA
330
74
100
AcDbEntity
  8
1
 62
     2
100
AcDbMText
 10
-176.7884263395827
 20
3.39265237852329
 30
0.0
 40
2.0
 41
0.0
 71
     5
 72
     1
  1
 
  7
CONVERTER_11
 73
     1
 44
1.20048019207683
  0
MTEXT
  5
2DB
330
74
100
AcDbEntity
  8
1
 62
     2
100
AcDbMText
 10
-186.6384263395817
 20
3.39265237852329
 30
0.0
 40
2.0
 41
0.0
 71
     5
 72
     1
  1
 
  7
CONVERTER_11
 73
     1
 44
1.20048019207683
  0
MTEXT
  5
2DC
330
74
100
AcDbEntity
  8
1
 62
     2
100
AcDbMText
 10
-186.6384263395817
 20
7.64265237852318
 30
0.0
 40
2.0
 41
0.0
 71
     5
 72
     1
  1
 
  7
CONVERTER_11
 73
     1
 44
1.20048019207683
  0
MTEXT
  5
2DD
330
74
100
AcDbEntity
  8
1
 62
     2
100
AcDbMText
 10
-186.6384263395817
 20
11.89265237852318
 30
0.0
 40
2.0
 41
0.0
 71
     5
 72
     1
  1
 
  7
CONVERTER_11
 73
     1
 44
1.20048019207683
  0
MTEXT
  5
2DE
330
74
100
AcDbEntity
  8
1
 62
     2
100
AcDbMText
 10
-186.6384263395817
 20
16.14265237852318
 30
0.0
 40
2.0
 41
0.0
 71
     5
 72
     1
  1
 
  7
CONVERTER_11
 73
     1
 44
1.20048019207683
  0
MTEXT
  5
2DF
330
74
100
AcDbEntity
  8
1
 62
     2
100
AcDbMText
 10
-186.6384263395817
 20
20.39265237852318
 30
0.0
 40
2.0
 41
0.0
 71
     5
 72
     1
  1
 
  7
CONVERTER_11
 73
     1
 44
1.20048019207683
  0
MTEXT
  5
2E0
330
74
100
AcDbEntity
  8
1
 62
     2
100
AcDbMText
 10
-186.6384263395817
 20
24.64265237852318
 30
0.0
 40
2.0
 41
0.0
 71
     5
 72
     1
  1
 
  7
CONVERTER_11
 73
     1
 44
1.20048019207683
  0
MTEXT
  5
2E1
330
74
100
AcDbEntity
  8
1
 62
     2
100
AcDbMText
 10
-0.23842633958018
 20
17.26765237852318
 30
0.0
 40
1.8
 41
0.0
 71
     1
 72
     1
  1
part-rev.
  7
CONVERTER_13
 73
     1
 44
1.20048019207683
  0
MTEXT
  5
2E2
330
74
100
AcDbEntity
  8
1
 62
     2
100
AcDbMText
 10
18.26157366041944
 20
13.01765237852318
 30
0.0
 40
1.8
 41
0.0
 71
     1
 72
     1
  1
surface in um
  7
CONVERTER_11
 73
     1
 44
1.32052821128451
  0
MTEXT
  5
2E3
330
74
100
AcDbEntity
  8
1
 62
     7
100
AcDbMText
 10
64.76157366041653
 20
72.01765237852511
 30
0.0
 40
3.5
 41
0.0
 71
     5
 72
     1
  1
C
  7
CONVERTER_11
 73
     1
 44
1.20048019207683
  0
MTEXT
  5
2E4
330
74
100
AcDbEntity
  8
1
 62
     7
100
AcDbMText
 10
64.76157366041653
 20
174.5176523785232
 30
0.0
 40
3.5
 41
0.0
 71
     5
 72
     1
  1
A
  7
CONVERTER_11
 73
     1
 44
1.20048019207683
  0
MTEXT
  5
2E5
330
74
100
AcDbEntity
  8
1
 62
     7
100
AcDbMText
 10
64.76157366041653
 20
122.0176523785251
 30
0.0
 40
3.5
 41
0.0
 71
     5
 72
     1
  1
B
  7
CONVERTER_11
 73
     1
 44
1.20048019207683
  0
MTEXT
  5
2E6
330
74
100
AcDbEntity
  8
1
 62
     7
100
AcDbMText
 10
64.76157366041653
 20
19.51765237852318
 30
0.0
 40
3.5
 41
0.0
 71
     5
 72
     1
  1
D
  7
CONVERTER_11
 73
     1
 44
1.20048019207683
  0
MTEXT
  5
2E7
330
74
100
AcDbEntity
  8
1
 62
     3
100
AcDbMText
 10
-224.7333585535107
 20
183.808960533822
 30
0.0
 40
1.8
 41
0.0
 71
     7
 72
     1
  3
Weitergabe sowie Vervielf\U+00e4ltigung dieses Dokuments, Verwertung und\PMitteilung seines Inhalts gem\U+00e4\U+00df \U+00a718 UWG verboten, soweit nicht aus-\Pdr\U+00fccklich gestattet. Zuwiderhandlungen verpflichten zu Schadenersatz\P(\U+00a719 U
  1
WG). Alle Rechte vorbehalten, insbesondere das Recht, Patent-,\PGebrauchsmuster- oder Geschmacksmusteranmeldungen durchzuf\U+00fchren.\PPhoenix Contact GmbH & Co. KG
  7
CONVERTER_11
 73
     1
 44
0.99639855942377
  0
MTEXT
  5
2E8
330
74
100
AcDbEntity
  8
1
 62
     3
100
AcDbMText
 10
-51.8802487147226
 20
183.808960533822
 30
0.0
 40
1.8
 41
0.0
 71
     7
 72
     1
  3
The copying, distribution and utilistion of this document as well as the communication\Pof the contents to others without expressed authorization is prohibited according to\P\U+00a718 UWG German Law. Offenders will be held liable for the payment of 
  1
damages\Paccording to (\U+00a719 UWG German Law). All rights reserved, in particular the right to\Pcarry out patent, utility model or ornamental design registrations.\PFlachsmarktstra\U+00dfe 8  D-32825 Blomberg
  7
CONVERTER_11
 73
     1
 44
0.99639855942377
  0
MTEXT
  5
2E9
330
74
100
AcDbEntity
  8
1
 62
     7
100
AcDbMText
 10
-205.4884263395822
 20
-5.48234762147682
 30
0.0
 40
3.5
 41
0.0
 71
     5
 72
     1
  1
1
  7
CONVERTER_11
 73
     1
 44
1.20048019207683
  0
MTEXT
  5
2EA
330
74
100
AcDbEntity
  8
1
 62
     7
100
AcDbMText
 10
-156.2384263395826
 20
-5.48234762147682
 30
0.0
 40
3.5
 41
0.0
 71
     5
 72
     1
  1
2
  7
CONVERTER_11
 73
     1
 44
1.20048019207683
  0
MTEXT
  5
2EB
330
74
100
AcDbEntity
  8
1
 62
     7
100
AcDbMText
 10
-106.2384263395826
 20
-5.48234762147682
 30
0.0
 40
3.5
 41
0.0
 71
     5
 72
     1
  1
3
  7
CONVERTER_11
 73
     1
 44
1.20048019207683
  0
MTEXT
  5
2EC
330
74
100
AcDbEntity
  8
1
 62
     7
100
AcDbMText
 10
-56.2384263395826
 20
-5.48234762147682
 30
0.0
 40
3.5
 41
0.0
 71
     5
 72
     1
  1
4
  7
CONVERTER_11
 73
     1
 44
1.20048019207683
  0
MTEXT
  5
2ED
330
74
100
AcDbEntity
  8
1
 62
     7
100
AcDbMText
 10
-6.23842633958255
 20
-5.48234762147682
 30
0.0
 40
3.5
 41
0.0
 71
     5
 72
     1
  1
5
  7
CONVERTER_11
 73
     1
 44
1.20048019207683
  0
MTEXT
  5
2EE
330
74
100
AcDbEntity
  8
1
 62
     7
100
AcDbMText
 10
43.01157366041673
 20
-5.48234762147682
 30
0.0
 40
3.5
 41
0.0
 71
     5
 72
     1
  1
6
  7
CONVERTER_11
 73
     1
 44
1.20048019207683
  0
MTEXT
  5
2EF
330
74
100
AcDbEntity
  8
1
 62
     7
100
AcDbMText
 10
-227.2384263395816
 20
174.5176523785232
 30
0.0
 40
3.5
 41
0.0
 71
     5
 72
     1
  1
A
  7
CONVERTER_11
 73
     1
 44
1.20048019207683
  0
MTEXT
  5
2F0
330
74
100
AcDbEntity
  8
1
 62
     7
100
AcDbMText
 10
-227.2384263395816
 20
122.0176523785232
 30
0.0
 40
3.5
 41
0.0
 71
     5
 72
     1
  1
B
  7
CONVERTER_11
 73
     1
 44
1.20048019207683
  0
MTEXT
  5
2F1
330
74
100
AcDbEntity
  8
1
 62
     7
100
AcDbMText
 10
-227.2384263395816
 20
72.01765237852318
 30
0.0
 40
3.5
 41
0.0
 71
     5
 72
     1
  1
C
  7
CONVERTER_11
 73
     1
 44
1.20048019207683
  0
MTEXT
  5
2F2
330
74
100
AcDbEntity
  8
1
 62
     7
100
AcDbMText
 10
-227.2384263395816
 20
19.51765237852318
 30
0.0
 40
3.5
 41
0.0
 71
     5
 72
     1
  1
D
  7
CONVERTER_11
 73
     1
 44
1.20048019207683
  0
MTEXT
  5
2F3
330
74
100
AcDbEntity
  8
1
 62
     2
100
AcDbMText
 10
45.67998194209824
 20
25.76765237852318
 30
0.0
 40
1.8
 41
0.0
 71
     1
 72
     1
  1
dim.var.
  7
CONVERTER_11
 73
     1
 44
1.20048019207683
  0
MTEXT
  5
2F5
330
74
100
AcDbEntity
  8
1
 62
     2
100
AcDbMText
 10
-0.23842633958018
 20
13.01765237852318
 30
0.0
 40
1.8
 41
0.0
 71
     1
 72
     1
  1
document-No.
  7
CONVERTER_15
 73
     1
 44
1.32052821128451
  0
TEXT
  5
2F6
330
74
100
AcDbEntity
  8
1
 62
     2
100
AcDbText
 10
-48.0832308663326
 20
-1.74136483646838
 30
0.0
 40
1.8
  1
of
 41
0.9
  7
CONVERTER_11
100
AcDbText
  0
TEXT
  5
2F7
330
74
100
AcDbEntity
  8
1
 62
     2
100
AcDbText
 10
-66.28323086633247
 20
-1.74136483646849
 30
0.0
 40
1.8
  1
page
 41
0.9
  7
CONVERTER_11
100
AcDbText
  0
MTEXT
  5
2F8
330
74
100
AcDbEntity
  8
1
 62
     2
100
AcDbMText
 10
-74.03323086633257
 20
-1.73234762147682
 30
0.0
 40
1.8
 41
0.0
 71
     8
 72
     1
  1
name
  7
CONVERTER_11
 73
     1
 44
1.32052821128451
  0
MTEXT
  5
2F9
330
74
100
AcDbEntity
  8
1
 62
     2
100
AcDbMText
 10
-87.53323086633246
 20
-1.73234762147682
 30
0.0
 40
1.8
 41
0.0
 71
     8
 72
     1
  1
check.on
  7
CONVERTER_11
 73
     1
 44
1.32052821128451
  0
MTEXT
  5
2FA
330
74
100
AcDbEntity
  8
1
 62
     2
100
AcDbMText
 10
-101.0332308663325
 20
-1.73234762147682
 30
0.0
 40
1.8
 41
0.0
 71
     8
 72
     1
  1
name
  7
CONVERTER_11
 73
     1
 44
1.32052821128451
  0
MTEXT
  5
2FB
330
74
100
AcDbEntity
  8
1
 62
     2
100
AcDbMText
 10
-176.7884263395827
 20
-1.73234762147682
 30
0.0
 40
1.8
 41
0.0
 71
     8
 72
     1
  1
date
  7
CONVERTER_11
 73
     1
 44
1.32052821128451
  0
MTEXT
  5
2FC
330
74
100
AcDbEntity
  8
1
 62
     2
100
AcDbMText
 10
-6.75804170874107
 20
25.76765237852301
 30
0.0
 40
1.8
 41
0.0
 71
     1
 72
     1
  1
material
  7
CONVERTER_11
 73
     1
 44
1.20048019207683
  0
MTEXT
  5
2FD
330
74
100
AcDbEntity
  8
1
 62
     2
100
AcDbMText
 10
-186.6384263395817
 20
-1.73234762147682
 30
0.0
 40
1.8
 41
0.0
 71
     8
 72
     1
  1
RI
  7
CONVERTER_11
 73
     1
 44
1.32052821128451
  0
MTEXT
  5
2FE
330
74
100
AcDbEntity
  8
1
 62
     2
100
AcDbMText
 10
-51.1332308663326
 20
23.71765237852323
 30
0.0
 40
1.8
 41
0.0
 71
     8
 72
     1
  1
date
  7
CONVERTER_11
 73
     1
 44
1.32052821128451
  0
MTEXT
  5
2FF
330
74
100
AcDbEntity
  8
1
 62
     2
100
AcDbMText
 10
-37.63323086633261
 20
23.71765237852323
 30
0.0
 40
1.8
 41
0.0
 71
     8
 72
     1
  1
name
  7
CONVERTER_11
 73
     1
 44
1.32052821128451
  0
MTEXT
  5
300
330
74
100
AcDbEntity
  8
1
 62
     2
100
AcDbMText
 10
-138.9108286029576
 20
-1.73234762147682
 30
0.0
 40
1.8
 41
0.0
 71
     8
 72
     1
  1
revision
  7
CONVERTER_11
 73
     1
 44
1.32052821128451
  0
MTEXT
  5
301
330
74
100
AcDbEntity
  8
1
 62
     2
100
AcDbMText
 10
36.56157366041933
 20
25.76765237852318
 30
0.0
 40
1.8
 41
0.0
 71
     1
 72
     1
  1
scale
  7
CONVERTER_11
 73
     1
 44
1.20048019207683
  0
MTEXT
  5
302
330
74
100
AcDbEntity
  8
1
 62
     2
100
AcDbMText
 10
-62.5832308663325
 20
20.39265237852318
 30
0.0
 40
1.8
 41
0.0
 71
     5
 72
     1
  1
creat.
  7
CONVERTER_11
 73
     1
 44
1.20048019207683
  0
MTEXT
  5
303
330
74
100
AcDbEntity
  8
1
 62
     2
100
AcDbMText
 10
-62.5832308663325
 20
16.14265237852318
 30
0.0
 40
1.8
 41
0.0
 71
     5
 72
     1
  1
check.
  7
CONVERTER_11
 73
     1
 44
1.20048019207683
  0
MTEXT
  5
304
330
74
100
AcDbEntity
  8
1
 62
     3
100
AcDbMText
 10
-41.0832308663326
 20
11.89265237852329
 30
0.0
 40
2.5
 41
0.0
 71
     5
 72
     1
  1
DIN A4
  7
CONVERTER_11
 73
     1
 44
1.20048019207683
  0
MTEXT
  5
305
330
74
100
AcDbEntity
  8
1
 62
     2
100
AcDbMText
 10
-29.78323086633256
 20
25.76765237852318
 30
0.0
 40
1.8
 41
0.0
 71
     1
 72
     1
  1
ident.-No. / RI
  7
CONVERTER_11
 73
     1
 44
1.20048019207683
  0
TEXT
  5
306
330
74
100
AcDbEntity
  8
1
 62
     2
100
AcDbText
 10
-57.6369658959904
 20
-1.78159627527877
 30
0.0
 40
1.8
  1
1
 41
0.9
  7
CONVERTER_11
100
AcDbText
  0
TEXT
  5
307
330
74
100
AcDbEntity
  8
1
 62
     2
100
AcDbText
 10
-42.8479220565189
 20
-1.73234762147682
 30
0.0
 40
1.8
  1
1
 41
0.9
  7
CONVERTER_11
100
AcDbText
  0
MTEXT
  5
308
330
74
100
AcDbEntity
  8
1
 62
     2
100
AcDbMText
 10
-29.88323086633258
 20
4.51765237852318
 30
0.0
 40
1.8
 41
0.0
 71
     1
 72
     1
  1
description
  7
CONVERTER_11
 73
     1
 44
1.20048019207683
  0
MTEXT
  5
309
330
74
100
AcDbEntity
  8
1
 62
     2
100
AcDbMText
 10
-62.5832308663325
 20
23.71765237852323
 30
0.0
 40
1.8
 41
0.0
 71
     8
 72
     1
  1
00
  7
CONVERTER_11
 73
     1
 44
1.20048019207683
  0
MTEXT
  5
30A
330
74
100
AcDbEntity
  8
1
 62
     2
100
AcDbMText
 10
-29.88323086633258
 20
13.01765237852312
 30
0.0
 40
1.8
 41
0.0
 71
     1
 72
     1
  1
document-type
  7
CONVERTER_11
 73
     1
 44
1.20048019207683
  0
MTEXT
  5
30B
330
74
100
AcDbEntity
  8
1
 62
     2
100
AcDbMText
 10
-37.63323086633261
 20
16.14265237852318
 30
0.0
 40
1.8
 41
0.0
 71
     5
 72
     1
  1
pbsc11
  7
CONVERTER_11
 73
     1
 44
1.32052821128451
  0
MTEXT
  5
30C
330
74
100
AcDbEntity
  8
1
 62
     2
100
AcDbMText
 10
-37.63323086633261
 20
20.39265237852318
 30
0.0
 40
1.8
 41
0.0
 71
     5
 72
     1
  1
pbfm09
  7
CONVERTER_11
 73
     1
 44
1.32052821128451
  0
MTEXT
  5
30D
330
74
100
AcDbEntity
  8
1
 62
     2
100
AcDbMText
 10
-51.13323086633255
 20
16.14265237852318
 30
0.0
 40
1.8
 41
0.0
 71
     5
 72
     1
  1
26.08.15
  7
CONVERTER_11
 73
     1
 44
1.32052821128451
  0
MTEXT
  5
30E
330
74
100
AcDbEntity
  8
1
 62
     2
100
AcDbMText
 10
-51.13323086633255
 20
20.39265237852318
 30
0.0
 40
1.8
 41
0.0
 71
     5
 72
     1
  1
12.06.13
  7
CONVERTER_11
 73
     1
 44
1.32052821128451
  0
TEXT
  5
30F
330
74
100
AcDbEntity
  8
1
 62
     7
100
AcDbText
 10
-14.90968314431876
 20
19.56765237852318
 30
0.0
 40
2.5
  1
/
 41
0.9
  7
CONVERTER_11
100
AcDbText
  0
TEXT
  5
311
330
74
100
AcDbEntity
  8
1
 62
     3
100
AcDbText
 10
18.26157366041944
 20
6.81765237852318
 30
0.0
 40
2.5
  1
 
 41
0.54
  7
CONVERTER_16
100
AcDbText
  0
MTEXT
  5
313
330
74
100
AcDbEntity
  8
1
 62
     7
100
AcDbMText
 10
15.68917139704294
 20
0.26765237852341
 30
0.0
 40
3.0
 41
0.0
 71
     5
 72
     1
  1
HC-D  7-DS-IP65
  7
CONVERTER_17
 73
     1
 44
1.20048019207683
  0
MTEXT
  5
314
330
74
100
AcDbEntity
  8
1
 62
     3
100
AcDbMText
 10
39.92077780125885
 20
19.56765237852329
 30
0.0
 40
2.5
 41
0.0
 71
     8
 72
     1
  1
5:1
  7
CONVERTER_13
 73
     1
 44
1.32052821128451
  0
TEXT
  5
315
330
74
100
AcDbEntity
  8
1
 62
     3
100
AcDbText
 10
-6.98323086633255
 20
19.56765237852318
 30
0.0
 40
2.5
  1
-
 41
0.54
  7
CONVERTER_16
100
AcDbText
  0
TEXT
  5
316
330
74
100
AcDbEntity
  8
1
 62
     7
100
AcDbText
 10
-29.38323086633276
 20
19.56765237852318
 30
0.0
 40
2.5
  1
1686229
 41
0.81
  7
CONVERTER_17
100
AcDbText
  0
TEXT
  5
317
330
74
100
AcDbEntity
  8
1
 62
     7
100
AcDbText
 10
-0.23842633958018
 20
6.81765237852318
 30
0.0
 40
2.5
  1
00731991
 41
0.81
  7
CONVERTER_17
100
AcDbText
  0
TEXT
  5
318
330
74
100
AcDbEntity
  8
1
 62
     3
100
AcDbText
 10
45.37998194209834
 20
19.56765237852318
 30
0.0
 40
2.5
  1
 
 41
0.54
  7
CONVERTER_16
100
AcDbText
  0
TEXT
  5
31A
330
74
100
AcDbEntity
  8
1
 62
     3
100
AcDbText
 10
-29.88323086633258
 20
6.81765237852318
 30
0.0
 40
2.5
  1
KUNDENZCHNG-SELECT
 41
0.45
  7
CONVERTER_18
100
AcDbText
  0
TEXT
  5
31B
330
74
100
AcDbEntity
  8
1
 62
     7
100
AcDbText
 10
-12.75331864727675
 20
19.56765237852318
 30
0.0
 40
2.5
  1
01
 41
0.81
  7
CONVERTER_17
100
AcDbText
  0
MTEXT
  5
31C
330
74
100
AcDbEntity
  8
1
 62
     3
100
AcDbMText
 10
9.96859354702784
 20
17.36765237852318
 30
0.0
 40
2.0
 41
0.0
 71
     1
 72
     1
  1
Versionscharge f\U+00fcr ROHS
  7
CONVERTER_13
 73
     1
 44
1.20048019207683
  0
HATCH
  5
31D
330
74
100
AcDbEntity
  8
1
  6
Continuous
 62
     2
100
AcDbHatch
 10
0.0
 20
0.0
 30
0.0
210
0.0
220
0.0
230
1.0
  2
_USER
 70
     0
 71
     1
 91
        1
 92
        1
 93
       14
 72
     2
 10
-54.0078347705286
 20
4.129557140434329
 40
0.9964100565214622
 50
164.9381082228799
 51
195.0618917770962
 73
     1
 72
     2
 10
-53.6614481230387
 20
4.222772315669719
 40
1.355119937140016
 50
195.061891777091
 51
275.1581447696391
 73
     1
 72
     2
 10
-53.90017216827496
 20
6.867309987753679
 40
4.010410630990213
 50
275.1581447696245
 51
285.979991258353
 73
     1
 72
     1
 10
-52.7960995094999
 20
3.011870065604228
 11
-52.7960995094999
 21
3.732958500978819
 72
     2
 10
-53.76969871778502
 20
5.295231822590269
 40
1.840813230556009
 50
58.06909105003781
 51
71.55192388186703
 73
     0
 72
     2
 10
-53.42410554947028
 20
4.259243577931448
 40
0.7487023016403824
 50
71.55192388184341
 51
113.3722778881291
 73
     0
 72
     2
 10
-53.55339483269509
 20
3.960076620319869
 40
0.4227934381775277
 50
113.372277888174
 51
151.4785267423084
 73
     0
 72
     2
 10
-53.24152933014935
 20
4.129557140434329
 40
0.7777353184572798
 50
151.4785267422972
 51
208.5214732577314
 73
     0
 72
     2
 10
-53.55339483269509
 20
4.299037660549239
 40
0.42279343817757
 50
208.5214732576905
 51
246.6277221118017
 73
     0
 72
     2
 10
-53.42410554947028
 20
3.999870702937189
 40
0.7487023016407695
 50
246.6277221118715
 51
288.4480761181452
 73
     0
 72
     2
 10
-53.76969871778502
 20
2.963882458278828
 40
1.840813230556614
 50
288.4480761181329
 51
301.9309089499622
 73
     0
 72
     1
 10
-52.7960995094999
 20
4.526155779890278
 11
-52.7960995094999
 21
5.247244215264869
 72
     2
 10
-53.90017216827496
 20
1.391804293115429
 40
4.010410630990087
 50
74.0200087416469
 51
84.84185523037553
 73
     1
 72
     2
 10
-53.6614481230387
 20
4.036341965198918
 40
1.355119937140908
 50
84.84185523036265
 51
164.9381082228905
 73
     1
 97
       14
330
2B1
330
13B
330
280
330
2B0
330
281
330
282
330
2AF
330
2AE
330
2AD
330
13C
330
283
330
284
330
285
330
286
 75
     1
 76
     0
 52
45.0
 41
0.1
 77
     0
 78
     1
 53
45.0
 43
0.0
 44
0.0
 45
-0.0707106781186548
 46
0.0707106781186548
 79
     0
 98
        1
 10
0.0
 20
0.0
  0
HATCH
  5
31E
330
74
100
AcDbEntity
  8
1
  6
Continuous
 62
     2
100
AcDbHatch
 10
0.0
 20
0.0
 30
0.0
210
0.0
220
0.0
230
1.0
  2
_USER
 70
     0
 71
     1
 91
        1
 92
        1
 93
       14
 72
     2
 10
-54.0078347705286
 20
4.129557140434329
 40
0.9964100565214622
 50
164.9381082228799
 51
195.0618917770962
 73
     1
 72
     2
 10
-53.6614481230387
 20
4.222772315669719
 40
1.355119937140016
 50
195.061891777091
 51
275.1581447696391
 73
     1
 72
     2
 10
-53.90017216827496
 20
6.867309987753679
 40
4.010410630990213
 50
275.1581447696245
 51
285.979991258353
 73
     1
 72
     1
 10
-52.7960995094999
 20
3.011870065604228
 11
-52.7960995094999
 21
3.732958500978819
 72
     2
 10
-53.76969871778502
 20
5.295231822590269
 40
1.840813230556009
 50
58.06909105003781
 51
71.55192388186703
 73
     0
 72
     2
 10
-53.42410554947028
 20
4.259243577931448
 40
0.7487023016403824
 50
71.55192388184341
 51
113.3722778881291
 73
     0
 72
     2
 10
-53.55339483269509
 20
3.960076620319869
 40
0.4227934381775277
 50
113.372277888174
 51
151.4785267423084
 73
     0
 72
     2
 10
-53.24152933014935
 20
4.129557140434329
 40
0.7777353184572798
 50
151.4785267422972
 51
208.5214732577314
 73
     0
 72
     2
 10
-53.55339483269509
 20
4.299037660549239
 40
0.42279343817757
 50
208.5214732576905
 51
246.6277221118017
 73
     0
 72
     2
 10
-53.42410554947028
 20
3.999870702937189
 40
0.7487023016407695
 50
246.6277221118715
 51
288.4480761181452
 73
     0
 72
     2
 10
-53.76969871778502
 20
2.963882458278828
 40
1.840813230556614
 50
288.4480761181329
 51
301.9309089499622
 73
     0
 72
     1
 10
-52.7960995094999
 20
4.526155779890278
 11
-52.7960995094999
 21
5.247244215264869
 72
     2
 10
-53.90017216827496
 20
1.391804293115429
 40
4.010410630990087
 50
74.0200087416469
 51
84.84185523037553
 73
     1
 72
     2
 10
-53.6614481230387
 20
4.036341965198918
 40
1.355119937140908
 50
84.84185523036265
 51
164.9381082228905
 73
     1
 97
       14
330
2B1
330
13B
330
280
330
2B0
330
281
330
282
330
2AF
330
2AE
330
2AD
330
13C
330
283
330
284
330
285
330
286
 75
     1
 76
     0
 52
45.0
 41
0.1
 77
     0
 78
     1
 53
45.0
 43
0.0
 44
0.0
 45
-0.0707106781186548
 46
0.0707106781186548
 79
     0
 98
        1
 10
0.0
 20
0.0
  0
HATCH
  5
31F
330
74
100
AcDbEntity
  8
1
  6
Continuous
 62
     2
100
AcDbHatch
 10
0.0
 20
0.0
 30
0.0
210
0.0
220
0.0
230
1.0
  2
_USER
 70
     0
 71
     1
 91
        1
 92
        1
 93
       18
 72
     2
 10
-40.35343037159002
 20
4.036341965198918
 40
1.355119937140591
 50
90.0
 51
164.9381082228992
 73
     1
 72
     2
 10
-40.699817019079
 20
4.129557140434329
 40
0.996410056523109
 50
164.9381082229054
 51
195.0618917770958
 73
     1
 72
     2
 10
-40.35343037159002
 20
4.222772315669719
 40
1.355119937140888
 50
195.0618917771009
 51
275.1581447696763
 73
     1
 72
     2
 10
-40.59215441682628
 20
6.867309987753679
 40
4.010410630990746
 50
275.158144769637
 51
285.9799912583388
 73
     1
 72
     1
 10
-39.48808175805213
 20
3.011870065603789
 11
-39.48808175805213
 21
3.732958500978359
 72
     2
 10
-40.46168096633633
 20
5.295231822589809
 40
1.840813230556003
 50
58.06909105006203
 51
71.55192388186671
 73
     0
 72
     2
 10
-40.11608779802068
 20
4.259243577931448
 40
0.748702301640701
 50
71.55192388192036
 51
113.3722778881855
 73
     0
 72
     2
 10
-40.2453770812464
 20
3.960076620319869
 40
0.4227934381785528
 50
113.3722778881599
 51
151.478526742313
 73
     0
 72
     2
 10
-39.93351157869975
 20
4.129557140434329
 40
0.7777353184586693
 50
151.4785267423316
 51
208.521473257638
 73
     0
 72
     2
 10
-40.2453770812464
 20
4.299037660549239
 40
0.4227934381772261
 50
208.5214732575775
 51
250.662856780514
 73
     0
 72
     2
 10
-40.12416220678054
 20
3.953620321389808
 40
0.7888619891124407
 50
250.6628567805685
 51
270.0
 73
     0
 72
     1
 10
-40.12416220678054
 20
4.742482310502249
 11
-39.21206361209616
 21
4.742482310502249
 72
     1
 10
-39.21206361209616
 20
4.742482310502249
 11
-39.21206361209616
 21
2.867652378529138
 72
     1
 10
-39.21206361209616
 20
2.867652378529138
 11
-38.22628451939559
 21
2.867652378529138
 72
     1
 10
-38.22628451939559
 20
2.867652378529138
 11
-38.22628451939559
 21
4.742482310502249
 72
     1
 10
-38.22628451939559
 20
4.742482310502249
 11
-37.55595473635972
 21
4.742482310502249
 72
     1
 10
-37.55595473635972
 20
4.742482310502249
 11
-37.55595473635972
 21
5.39146190233997
 72
     1
 10
-37.55595473635972
 20
5.39146190233997
 11
-40.35343037159002
 21
5.391461902339509
 97
       18
330
1A1
330
1A0
330
19F
330
19E
330
1A3
330
13D
330
2AA
330
28B
330
2A9
330
28C
330
2A8
330
2A7
330
13E
330
2A6
330
2A5
330
28D
330
28E
330
1A2
 75
     1
 76
     0
 52
45.0
 41
0.1
 77
     0
 78
     1
 53
45.0
 43
0.0
 44
0.0
 45
-0.0707106781186548
 46
0.0707106781186548
 79
     0
 98
        1
 10
0.0
 20
0.0
  0
HATCH
  5
320
330
74
100
AcDbEntity
  8
1
  6
Continuous
 62
     2
100
AcDbHatch
 10
0.0
 20
0.0
 30
0.0
210
0.0
220
0.0
230
1.0
  2
_USER
 70
     0
 71
     1
 91
        1
 92
        1
 93
       18
 72
     2
 10
-40.35343037159002
 20
4.036341965198918
 40
1.355119937140591
 50
90.0
 51
164.9381082228992
 73
     1
 72
     2
 10
-40.699817019079
 20
4.129557140434329
 40
0.996410056523109
 50
164.9381082229054
 51
195.0618917770958
 73
     1
 72
     2
 10
-40.35343037159002
 20
4.222772315669719
 40
1.355119937140888
 50
195.0618917771009
 51
275.1581447696763
 73
     1
 72
     2
 10
-40.59215441682628
 20
6.867309987753679
 40
4.010410630990746
 50
275.158144769637
 51
285.9799912583388
 73
     1
 72
     1
 10
-39.48808175805213
 20
3.011870065603789
 11
-39.48808175805213
 21
3.732958500978359
 72
     2
 10
-40.46168096633633
 20
5.295231822589809
 40
1.840813230556003
 50
58.06909105006203
 51
71.55192388186671
 73
     0
 72
     2
 10
-40.11608779802068
 20
4.259243577931448
 40
0.748702301640701
 50
71.55192388192036
 51
113.3722778881855
 73
     0
 72
     2
 10
-40.2453770812464
 20
3.960076620319869
 40
0.4227934381785528
 50
113.3722778881599
 51
151.478526742313
 73
     0
 72
     2
 10
-39.93351157869975
 20
4.129557140434329
 40
0.7777353184586693
 50
151.4785267423316
 51
208.521473257638
 73
     0
 72
     2
 10
-40.2453770812464
 20
4.299037660549239
 40
0.4227934381772261
 50
208.5214732575775
 51
250.662856780514
 73
     0
 72
     2
 10
-40.12416220678054
 20
3.953620321389808
 40
0.7888619891124407
 50
250.6628567805685
 51
270.0
 73
     0
 72
     1
 10
-40.12416220678054
 20
4.742482310502249
 11
-39.21206361209616
 21
4.742482310502249
 72
     1
 10
-39.21206361209616
 20
4.742482310502249
 11
-39.21206361209616
 21
2.867652378529138
 72
     1
 10
-39.21206361209616
 20
2.867652378529138
 11
-38.22628451939559
 21
2.867652378529138
 72
     1
 10
-38.22628451939559
 20
2.867652378529138
 11
-38.22628451939559
 21
4.742482310502249
 72
     1
 10
-38.22628451939559
 20
4.742482310502249
 11
-37.55595473635972
 21
4.742482310502249
 72
     1
 10
-37.55595473635972
 20
4.742482310502249
 11
-37.55595473635972
 21
5.39146190233997
 72
     1
 10
-37.55595473635972
 20
5.39146190233997
 11
-40.35343037159002
 21
5.391461902339509
 97
       18
330
1A1
330
1A0
330
19F
330
19E
330
1A3
330
13D
330
2AA
330
28B
330
2A9
330
28C
330
2A8
330
2A7
330
13E
330
2A6
330
2A5
330
28D
330
28E
330
1A2
 75
     1
 76
     0
 52
45.0
 41
0.1
 77
     0
 78
     1
 53
45.0
 43
0.0
 44
0.0
 45
-0.0707106781186548
 46
0.0707106781186548
 79
     0
 98
        1
 10
0.0
 20
0.0
  0
HATCH
  5
321
330
74
100
AcDbEntity
  8
1
  6
Continuous
 62
     2
100
AcDbHatch
 10
0.0
 20
0.0
 30
0.0
210
0.0
220
0.0
230
1.0
  2
_USER
 70
     0
 71
     1
 91
        4
 92
        1
 93
        8
 72
     2
 10
-60.27257012092312
 20
7.817036993887388
 40
0.3506153846147413
 50
90.0
 51
180.0
 73
     1
 72
     1
 10
-60.62318550553701
 20
7.817036993887388
 11
-60.62318550553701
 21
3.21826776314342
 72
     2
 10
-60.27257012092312
 20
3.21826776314342
 40
0.3506153846138886
 50
180.0
 51
270.0
 73
     1
 72
     1
 10
-60.27257012092312
 20
2.867652378529138
 11
-55.74917169884307
 21
2.867652378529138
 72
     2
 10
-55.74917169884307
 20
3.21826776314342
 40
0.3506153846142821
 50
270.0
 51
360.0
 73
     1
 72
     1
 10
-55.39855631422827
 20
3.21826776314342
 11
-55.39855631422827
 21
7.817036993887388
 72
     2
 10
-55.74917169884307
 20
7.817036993887388
 40
0.3506153846147981
 50
0.0
 51
90.0
 73
     1
 72
     1
 10
-55.74917169884307
 20
8.16765237850213
 11
-60.27257012092312
 21
8.16765237850213
 97
        8
330
29E
330
16C
330
29D
330
16D
330
294
330
16A
330
29F
330
16B
 92
       16
 93
        1
 72
     2
 10
-58.10762330231356
 20
5.900605400205148
 40
0.3892387874202612
 50
0.0
 51
360.0
 73
     1
 97
        1
330
2B2
 92
       16
 93
        8
 72
     2
 10
-58.0879414720055
 20
5.900605400205148
 40
0.7535935125160986
 50
295.374008678178
 51
424.6259913218071
 73
     1
 72
     2
 10
-57.65319544052787
 20
6.817251350591768
 40
0.2609230769229498
 50
115.3740086783601
 51
180.0
 73
     0
 72
     1
 10
-57.91411851745082
 20
6.817251350591768
 11
-57.91411851745082
 21
7.31769373778744
 72
     2
 10
-57.65319544052787
 20
7.31769373778744
 40
0.2609230769224181
 50
180.0
 51
269.8110329574449
 73
     0
 72
     2
 10
-57.6485540063874
 20
5.91039212822626
 40
1.668232340440702
 50
269.811032957586
 51
450.188967042414
 73
     0
 72
     2
 10
-57.65319544052787
 20
4.503090518665088
 40
0.2609230769229498
 50
90.18896704255506
 51
180.0
 73
     0
 72
     1
 10
-57.91411851745082
 20
4.503090518665088
 11
-57.91411851745082
 21
4.983959449818059
 72
     2
 10
-57.65319544052787
 20
4.983959449818059
 40
0.2609230769227325
 50
180.0
 51
244.625991321641
 73
     0
 97
        8
330
2AC
330
288
330
1A5
330
2AB
330
289
330
28A
330
1A4
330
287
 92
       16
 93
       12
 72
     1
 10
-59.78174807402516
 20
3.456541267419159
 11
-58.56205116409993
 21
3.456541267419159
 72
     2
 10
-58.56205116409993
 20
3.717464344342048
 40
0.260923076922889
 50
270.0
 51
360.0
 73
     1
 72
     1
 10
-58.30112808717709
 20
3.717464344342048
 11
-58.30112808717709
 21
4.982564287756608
 72
     2
 10
-58.56205116409993
 20
4.982564287756608
 40
0.2609230769228361
 50
0.0
 51
64.8055893514401
 73
     1
 72
     2
 10
-58.13016319089743
 20
5.900605400205148
 40
0.7536343169897727
 50
115.1944106485091
 51
244.8055893514762
 73
     0
 72
     2
 10
-58.56205116409993
 20
6.818646512653228
 40
0.2609230769224057
 50
295.1944106485602
 51
360.0
 73
     1
 72
     1
 10
-58.30112808717709
 20
6.818646512653228
 11
-58.30112808717709
 21
7.317840412703287
 72
     2
 10
-58.56205116409993
 20
7.317840412703287
 40
0.2609230769228361
 50
0.0
 51
90.0
 73
     1
 72
     1
 10
-58.56205116409993
 20
7.578763489625739
 11
-59.78174807402516
 21
7.578763489625739
 72
     2
 10
-59.78174807402516
 20
7.317840412703287
 40
0.2609230769224524
 50
90.0
 51
180.0
 73
     1
 72
     1
 10
-60.0426711509472
 20
7.317840412703287
 11
-60.0426711509472
 21
3.717464344342048
 72
     2
 10
-59.78174807402516
 20
3.717464344342048
 40
0.2609230769220403
 50
180.0
 51
270.0
 73
     1
 97
       12
330
171
330
291
330
170
330
2A2
330
16F
330
2A1
330
292
330
293
330
16E
330
2A0
330
169
330
2A3
 75
     1
 76
     0
 52
45.0
 41
0.1
 77
     0
 78
     1
 53
45.0
 43
0.0
 44
0.0
 45
-0.0707106781186548
 46
0.0707106781186548
 79
     0
 98
        1
 10
0.0
 20
0.0
  0
HATCH
  5
322
330
74
100
AcDbEntity
  8
1
  6
Continuous
 62
     2
100
AcDbHatch
 10
0.0
 20
0.0
 30
0.0
210
0.0
220
0.0
230
1.0
  2
_USER
 70
     0
 71
     1
 91
        4
 92
        1
 93
        8
 72
     2
 10
-60.27257012092312
 20
7.817036993887388
 40
0.3506153846147413
 50
90.0
 51
180.0
 73
     1
 72
     1
 10
-60.62318550553701
 20
7.817036993887388
 11
-60.62318550553701
 21
3.21826776314342
 72
     2
 10
-60.27257012092312
 20
3.21826776314342
 40
0.3506153846138886
 50
180.0
 51
270.0
 73
     1
 72
     1
 10
-60.27257012092312
 20
2.867652378529138
 11
-55.74917169884307
 21
2.867652378529138
 72
     2
 10
-55.74917169884307
 20
3.21826776314342
 40
0.3506153846142821
 50
270.0
 51
360.0
 73
     1
 72
     1
 10
-55.39855631422827
 20
3.21826776314342
 11
-55.39855631422827
 21
7.817036993887388
 72
     2
 10
-55.74917169884307
 20
7.817036993887388
 40
0.3506153846147981
 50
0.0
 51
90.0
 73
     1
 72
     1
 10
-55.74917169884307
 20
8.16765237850213
 11
-60.27257012092312
 21
8.16765237850213
 97
        8
330
29E
330
16C
330
29D
330
16D
330
294
330
16A
330
29F
330
16B
 92
       16
 93
        1
 72
     2
 10
-58.10762330231356
 20
5.900605400205148
 40
0.3892387874202612
 50
0.0
 51
360.0
 73
     1
 97
        1
330
2B2
 92
       16
 93
        8
 72
     2
 10
-58.0879414720055
 20
5.900605400205148
 40
0.7535935125160986
 50
295.374008678178
 51
424.6259913218071
 73
     1
 72
     2
 10
-57.65319544052787
 20
6.817251350591768
 40
0.2609230769229498
 50
115.3740086783601
 51
180.0
 73
     0
 72
     1
 10
-57.91411851745082
 20
6.817251350591768
 11
-57.91411851745082
 21
7.31769373778744
 72
     2
 10
-57.65319544052787
 20
7.31769373778744
 40
0.2609230769224181
 50
180.0
 51
269.8110329574449
 73
     0
 72
     2
 10
-57.6485540063874
 20
5.91039212822626
 40
1.668232340440702
 50
269.811032957586
 51
450.188967042414
 73
     0
 72
     2
 10
-57.65319544052787
 20
4.503090518665088
 40
0.2609230769229498
 50
90.18896704255506
 51
180.0
 73
     0
 72
     1
 10
-57.91411851745082
 20
4.503090518665088
 11
-57.91411851745082
 21
4.983959449818059
 72
     2
 10
-57.65319544052787
 20
4.983959449818059
 40
0.2609230769227325
 50
180.0
 51
244.625991321641
 73
     0
 97
        8
330
2AC
330
288
330
1A5
330
2AB
330
289
330
28A
330
1A4
330
287
 92
       16
 93
       12
 72
     1
 10
-59.78174807402516
 20
3.456541267419159
 11
-58.56205116409993
 21
3.456541267419159
 72
     2
 10
-58.56205116409993
 20
3.717464344342048
 40
0.260923076922889
 50
270.0
 51
360.0
 73
     1
 72
     1
 10
-58.30112808717709
 20
3.717464344342048
 11
-58.30112808717709
 21
4.982564287756608
 72
     2
 10
-58.56205116409993
 20
4.982564287756608
 40
0.2609230769228361
 50
0.0
 51
64.8055893514401
 73
     1
 72
     2
 10
-58.13016319089743
 20
5.900605400205148
 40
0.7536343169897727
 50
115.1944106485091
 51
244.8055893514762
 73
     0
 72
     2
 10
-58.56205116409993
 20
6.818646512653228
 40
0.2609230769224057
 50
295.1944106485602
 51
360.0
 73
     1
 72
     1
 10
-58.30112808717709
 20
6.818646512653228
 11
-58.30112808717709
 21
7.317840412703287
 72
     2
 10
-58.56205116409993
 20
7.317840412703287
 40
0.2609230769228361
 50
0.0
 51
90.0
 73
     1
 72
     1
 10
-58.56205116409993
 20
7.578763489625739
 11
-59.78174807402516
 21
7.578763489625739
 72
     2
 10
-59.78174807402516
 20
7.317840412703287
 40
0.2609230769224524
 50
90.0
 51
180.0
 73
     1
 72
     1
 10
-60.0426711509472
 20
7.317840412703287
 11
-60.0426711509472
 21
3.717464344342048
 72
     2
 10
-59.78174807402516
 20
3.717464344342048
 40
0.2609230769220403
 50
180.0
 51
270.0
 73
     1
 97
       12
330
171
330
291
330
170
330
2A2
330
16F
330
2A1
330
292
330
293
330
16E
330
2A0
330
169
330
2A3
 75
     1
 76
     0
 52
45.0
 41
0.1
 77
     0
 78
     1
 53
45.0
 43
0.0
 44
0.0
 45
-0.0707106781186548
 46
0.0707106781186548
 79
     0
 98
        1
 10
0.0
 20
0.0
  0
HATCH
  5
323
330
74
100
AcDbEntity
  8
1
  6
Continuous
 62
     2
100
AcDbHatch
 10
0.0
 20
0.0
 30
0.0
210
0.0
220
0.0
230
1.0
  2
_USER
 70
     0
 71
     1
 91
        2
 92
        1
 93
       12
 72
     2
 10
-48.14433540688233
 20
6.905747616611478
 40
1.26190476190564
 50
90.0
 51
270.0
 73
     1
 72
     1
 10
-48.14433540688233
 20
5.643842854706289
 11
-45.54076538722863
 21
5.643842854706289
 72
     1
 10
-45.54076538722863
 20
5.643842854706289
 11
-45.54076538722863
 21
6.22071360300578
 72
     1
 10
-45.54076538722863
 20
6.22071360300578
 11
-46.64483797105314
 21
6.22071360300578
 72
     1
 10
-46.64483797105314
 20
6.22071360300578
 11
-46.64483797105314
 21
6.61731224246174
 72
     1
 10
-46.64483797105314
 20
6.61731224246174
 11
-45.54076538722863
 21
6.61731224246174
 72
     1
 10
-45.54076538722863
 20
6.61731224246174
 11
-45.54076538722863
 21
7.19418299076122
 72
     1
 10
-45.54076538722863
 20
7.19418299076122
 11
-46.64483797105314
 21
7.19418299076122
 72
     1
 10
-46.64483797105314
 20
7.19418299076122
 11
-46.64483797105314
 21
7.59078163021718
 72
     1
 10
-46.64483797105314
 20
7.59078163021718
 11
-45.54076538722863
 21
7.59078163021718
 72
     1
 10
-45.54076538722863
 20
7.59078163021718
 11
-45.54076538722863
 21
8.167652378517118
 72
     1
 10
-45.54076538722863
 20
8.167652378517118
 11
-48.14433540688233
 21
8.167652378517118
 97
       12
330
160
330
15A
330
181
330
180
330
17F
330
17E
330
15B
330
15C
330
15D
330
15E
330
28F
330
15F
 92
       16
 93
        4
 72
     2
 10
-47.8005237981952
 20
6.905747616611478
 40
0.6378510567600001
 50
141.8795802028413
 51
218.1204197971587
 73
     1
 72
     2
 10
-47.96559820839869
 20
6.776217717338348
 40
0.428023614060679
 50
218.1204197971438
 51
321.8795802028562
 73
     1
 72
     2
 10
-48.13067261860217
 20
6.905747616611478
 40
0.6378510567599939
 50
321.8795802028409
 51
398.1204197971591
 73
     1
 72
     2
 10
-47.96559820839869
 20
7.035277515884598
 40
0.4280236140606861
 50
38.12041979714503
 51
141.879580202855
 73
     1
 97
        4
330
29C
330
29B
330
296
330
295
 75
     1
 76
     0
 52
45.0
 41
0.1
 77
     0
 78
     1
 53
45.0
 43
0.0
 44
0.0
 45
-0.0707106781186548
 46
0.0707106781186548
 79
     0
 98
        1
 10
0.0
 20
0.0
  0
HATCH
  5
324
330
74
100
AcDbEntity
  8
1
  6
Continuous
 62
     2
100
AcDbHatch
 10
0.0
 20
0.0
 30
0.0
210
0.0
220
0.0
230
1.0
  2
_USER
 70
     0
 71
     1
 91
        2
 92
        1
 93
       12
 72
     2
 10
-48.14433540688233
 20
6.905747616611478
 40
1.26190476190564
 50
90.0
 51
270.0
 73
     1
 72
     1
 10
-48.14433540688233
 20
5.643842854706289
 11
-45.54076538722863
 21
5.643842854706289
 72
     1
 10
-45.54076538722863
 20
5.643842854706289
 11
-45.54076538722863
 21
6.22071360300578
 72
     1
 10
-45.54076538722863
 20
6.22071360300578
 11
-46.64483797105314
 21
6.22071360300578
 72
     1
 10
-46.64483797105314
 20
6.22071360300578
 11
-46.64483797105314
 21
6.61731224246174
 72
     1
 10
-46.64483797105314
 20
6.61731224246174
 11
-45.54076538722863
 21
6.61731224246174
 72
     1
 10
-45.54076538722863
 20
6.61731224246174
 11
-45.54076538722863
 21
7.19418299076122
 72
     1
 10
-45.54076538722863
 20
7.19418299076122
 11
-46.64483797105314
 21
7.19418299076122
 72
     1
 10
-46.64483797105314
 20
7.19418299076122
 11
-46.64483797105314
 21
7.59078163021718
 72
     1
 10
-46.64483797105314
 20
7.59078163021718
 11
-45.54076538722863
 21
7.59078163021718
 72
     1
 10
-45.54076538722863
 20
7.59078163021718
 11
-45.54076538722863
 21
8.167652378517118
 72
     1
 10
-45.54076538722863
 20
8.167652378517118
 11
-48.14433540688233
 21
8.167652378517118
 97
       12
330
160
330
15A
330
181
330
180
330
17F
330
17E
330
15B
330
15C
330
15D
330
15E
330
28F
330
15F
 92
       16
 93
        4
 72
     2
 10
-47.8005237981952
 20
6.905747616611478
 40
0.6378510567600001
 50
141.8795802028413
 51
218.1204197971587
 73
     1
 72
     2
 10
-47.96559820839869
 20
6.776217717338348
 40
0.428023614060679
 50
218.1204197971438
 51
321.8795802028562
 73
     1
 72
     2
 10
-48.13067261860217
 20
6.905747616611478
 40
0.6378510567599939
 50
321.8795802028409
 51
398.1204197971591
 73
     1
 72
     2
 10
-47.96559820839869
 20
7.035277515884598
 40
0.4280236140606861
 50
38.12041979714503
 51
141.879580202855
 73
     1
 97
        4
330
29C
330
29B
330
296
330
295
 75
     1
 76
     0
 52
45.0
 41
0.1
 77
     0
 78
     1
 53
45.0
 43
0.0
 44
0.0
 45
-0.0707106781186548
 46
0.0707106781186548
 79
     0
 98
        1
 10
0.0
 20
0.0
  0
HATCH
  5
325
330
74
100
AcDbEntity
  8
1
  6
Continuous
 62
     2
100
AcDbHatch
 10
0.0
 20
0.0
 30
0.0
210
0.0
220
0.0
230
1.0
  2
_USER
 70
     0
 71
     1
 91
        2
 92
        1
 93
        4
 72
     2
 10
-51.47129025189193
 20
4.129557140434329
 40
1.204986845992994
 50
117.5481481756635
 51
242.451851824337
 73
     1
 72
     2
 10
-51.23910852310408
 20
4.574660454734598
 40
1.70700807620544
 50
242.4518518243401
 51
297.548148175687
 73
     1
 72
     2
 10
-51.00692679431623
 20
4.129557140434329
 40
1.204986845993433
 50
297.5481481757013
 51
422.4518518242982
 73
     1
 72
     2
 10
-51.23910852310408
 20
3.684453826134508
 40
1.707008076205444
 50
62.45185182430569
 51
117.5481481756673
 73
     1
 97
        4
330
29A
330
297
330
299
330
298
 92
       16
 93
        4
 72
     2
 10
-51.23910852310408
 20
4.259087039707449
 40
0.4280236140606011
 50
38.12041979715364
 51
141.8795802028552
 73
     1
 72
     2
 10
-51.07403411290071
 20
4.129557140434329
 40
0.637851056759904
 50
141.8795802028347
 51
218.1204197971662
 73
     1
 72
     2
 10
-51.23910852310408
 20
4.000027241161648
 40
0.4280236140609635
 50
218.1204197971923
 51
321.8795802027988
 73
     1
 72
     2
 10
-51.40418293330768
 20
4.129557140434329
 40
0.6378510567600122
 50
321.8795802028409
 51
398.1204197971583
 73
     1
 97
        4
330
27D
330
27E
330
27F
330
27C
 75
     1
 76
     0
 52
45.0
 41
0.1
 77
     0
 78
     1
 53
45.0
 43
0.0
 44
0.0
 45
-0.0707106781186548
 46
0.0707106781186548
 79
     0
 98
        1
 10
0.0
 20
0.0
  0
HATCH
  5
326
330
74
100
AcDbEntity
  8
1
  6
Continuous
 62
     2
100
AcDbHatch
 10
0.0
 20
0.0
 30
0.0
210
0.0
220
0.0
230
1.0
  2
_USER
 70
     0
 71
     1
 91
        2
 92
        1
 93
        4
 72
     2
 10
-51.47129025189193
 20
4.129557140434329
 40
1.204986845992994
 50
117.5481481756635
 51
242.451851824337
 73
     1
 72
     2
 10
-51.23910852310408
 20
4.574660454734598
 40
1.70700807620544
 50
242.4518518243401
 51
297.548148175687
 73
     1
 72
     2
 10
-51.00692679431623
 20
4.129557140434329
 40
1.204986845993433
 50
297.5481481757013
 51
422.4518518242982
 73
     1
 72
     2
 10
-51.23910852310408
 20
3.684453826134508
 40
1.707008076205444
 50
62.45185182430569
 51
117.5481481756673
 73
     1
 97
        4
330
29A
330
297
330
299
330
298
 92
       16
 93
        4
 72
     2
 10
-51.23910852310408
 20
4.259087039707449
 40
0.4280236140606011
 50
38.12041979715364
 51
141.8795802028552
 73
     1
 72
     2
 10
-51.07403411290071
 20
4.129557140434329
 40
0.637851056759904
 50
141.8795802028347
 51
218.1204197971662
 73
     1
 72
     2
 10
-51.23910852310408
 20
4.000027241161648
 40
0.4280236140609635
 50
218.1204197971923
 51
321.8795802027988
 73
     1
 72
     2
 10
-51.40418293330768
 20
4.129557140434329
 40
0.6378510567600122
 50
321.8795802028409
 51
398.1204197971583
 73
     1
 97
        4
330
27D
330
27E
330
27F
330
27C
 75
     1
 76
     0
 52
45.0
 41
0.1
 77
     0
 78
     1
 53
45.0
 43
0.0
 44
0.0
 45
-0.0707106781186548
 46
0.0707106781186548
 79
     0
 98
        1
 10
0.0
 20
0.0
  0
HATCH
  5
327
330
74
100
AcDbEntity
  8
1
  6
Continuous
 62
     2
100
AcDbHatch
 10
0.0
 20
0.0
 30
0.0
210
0.0
220
0.0
230
1.0
  2
_USER
 70
     0
 71
     1
 91
        2
 92
        1
 93
        6
 72
     1
 10
-55.00424467714825
 20
8.167652378517118
 11
-55.00424467714825
 21
5.643842854706289
 72
     1
 10
-55.00424467714825
 20
5.643842854706289
 11
-53.97903442073996
 21
5.643842854706289
 72
     1
 10
-53.97903442073996
 20
5.643842854706289
 11
-53.97903442073996
 21
6.423246359783757
 72
     1
 10
-53.97903442073996
 20
6.423246359783757
 11
-53.35195376968184
 21
6.423246359783757
 72
     2
 10
-53.35195376968184
 20
7.295449369150429
 40
0.8722030093666717
 50
270.0
 51
450.0
 73
     1
 72
     1
 10
-53.35195376968184
 20
8.167652378517118
 11
-55.00424467714825
 21
8.167652378517118
 97
        6
330
2A4
330
172
330
168
330
167
330
174
330
173
 92
       16
 93
        4
 72
     1
 10
-53.71680709715159
 20
7.619631018649308
 11
-53.97903442073996
 21
7.619631018649308
 72
     1
 10
-53.97903442073996
 20
7.619631018649308
 11
-53.97903442073996
 21
7.036385027457349
 72
     1
 10
-53.97903442073996
 20
7.036385027457349
 11
-53.71680709715159
 21
7.036385027457349
 72
     2
 10
-53.71680709715159
 20
7.328008023053339
 40
0.2916229955959899
 50
270.0
 51
450.0
 73
     1
 97
        4
330
175
330
166
330
176
330
290
 75
     1
 76
     0
 52
45.0
 41
0.1
 77
     0
 78
     1
 53
45.0
 43
0.0
 44
0.0
 45
-0.0707106781186548
 46
0.0707106781186548
 79
     0
 98
        1
 10
0.0
 20
0.0
  0
HATCH
  5
328
330
74
100
AcDbEntity
  8
1
  6
Continuous
 62
     2
100
AcDbHatch
 10
0.0
 20
0.0
 30
0.0
210
0.0
220
0.0
230
1.0
  2
_USER
 70
     0
 71
     1
 91
        2
 92
        1
 93
        6
 72
     1
 10
-55.00424467714825
 20
8.167652378517118
 11
-55.00424467714825
 21
5.643842854706289
 72
     1
 10
-55.00424467714825
 20
5.643842854706289
 11
-53.97903442073996
 21
5.643842854706289
 72
     1
 10
-53.97903442073996
 20
5.643842854706289
 11
-53.97903442073996
 21
6.423246359783757
 72
     1
 10
-53.97903442073996
 20
6.423246359783757
 11
-53.35195376968184
 21
6.423246359783757
 72
     2
 10
-53.35195376968184
 20
7.295449369150429
 40
0.8722030093666717
 50
270.0
 51
450.0
 73
     1
 72
     1
 10
-53.35195376968184
 20
8.167652378517118
 11
-55.00424467714825
 21
8.167652378517118
 97
        6
330
2A4
330
172
330
168
330
167
330
174
330
173
 92
       16
 93
        4
 72
     1
 10
-53.71680709715159
 20
7.619631018649308
 11
-53.97903442073996
 21
7.619631018649308
 72
     1
 10
-53.97903442073996
 20
7.619631018649308
 11
-53.97903442073996
 21
7.036385027457349
 72
     1
 10
-53.97903442073996
 20
7.036385027457349
 11
-53.71680709715159
 21
7.036385027457349
 72
     2
 10
-53.71680709715159
 20
7.328008023053339
 40
0.2916229955959899
 50
270.0
 51
450.0
 73
     1
 97
        4
330
175
330
166
330
176
330
290
 75
     1
 76
     0
 52
45.0
 41
0.1
 77
     0
 78
     1
 53
45.0
 43
0.0
 44
0.0
 45
-0.0707106781186548
 46
0.0707106781186548
 79
     0
 98
        1
 10
0.0
 20
0.0
  0
HATCH
  5
329
330
74
100
AcDbEntity
  8
1
  6
Continuous
 62
     2
100
AcDbHatch
 10
0.0
 20
0.0
 30
0.0
210
0.0
220
0.0
230
1.0
  2
_USER
 70
     0
 71
     1
 91
        1
 92
        1
 93
       12
 72
     1
 10
-38.79409327679029
 20
8.167652378517118
 11
-37.63481706377607
 21
8.167652378517118
 72
     1
 10
-37.63481706377607
 20
8.167652378517118
 11
-38.7112878330046
 21
6.950337890883898
 72
     1
 10
-38.7112878330046
 20
6.950337890883898
 11
-37.55595473635972
 21
5.643842854706289
 72
     1
 10
-37.55595473635972
 20
5.643842854706289
 11
-38.71523094937484
 21
5.643842854706289
 72
     1
 10
-38.71523094937484
 20
5.643842854706289
 11
-39.2909259395116
 21
6.294860859081229
 72
     1
 10
-39.2909259395116
 20
6.294860859081229
 11
-39.86662092964857
 21
5.643842854706289
 72
     1
 10
-39.86662092964857
 20
5.643842854706289
 11
-41.02589714266358
 21
5.643842854706289
 72
     1
 10
-41.02589714266358
 20
5.643842854706289
 11
-39.8705640460187
 21
6.950337890883898
 72
     1
 10
-39.8705640460187
 20
6.950337890883898
 11
-40.94703481524803
 21
8.167652378517118
 72
     1
 10
-40.94703481524803
 20
8.167652378517118
 11
-39.78775860223212
 21
8.167652378517118
 72
     1
 10
-39.78775860223212
 20
8.167652378517118
 11
-39.2909259395116
 21
7.605814922686129
 72
     1
 10
-39.2909259395116
 20
7.605814922686129
 11
-38.79409327679029
 21
8.167652378517118
 97
       12
330
141
330
19A
330
199
330
198
330
197
330
142
330
143
330
13F
330
140
330
19D
330
19C
330
19B
 75
     1
 76
     0
 52
45.0
 41
0.1
 77
     0
 78
     1
 53
45.0
 43
0.0
 44
0.0
 45
-0.0707106781186548
 46
0.0707106781186548
 79
     0
 98
        1
 10
0.0
 20
0.0
  0
HATCH
  5
32A
330
74
100
AcDbEntity
  8
1
  6
Continuous
 62
     2
100
AcDbHatch
 10
0.0
 20
0.0
 30
0.0
210
0.0
220
0.0
230
1.0
  2
_USER
 70
     0
 71
     1
 91
        1
 92
        1
 93
       12
 72
     1
 10
-38.79409327679029
 20
8.167652378517118
 11
-37.63481706377607
 21
8.167652378517118
 72
     1
 10
-37.63481706377607
 20
8.167652378517118
 11
-38.7112878330046
 21
6.950337890883898
 72
     1
 10
-38.7112878330046
 20
6.950337890883898
 11
-37.55595473635972
 21
5.643842854706289
 72
     1
 10
-37.55595473635972
 20
5.643842854706289
 11
-38.71523094937484
 21
5.643842854706289
 72
     1
 10
-38.71523094937484
 20
5.643842854706289
 11
-39.2909259395116
 21
6.294860859081229
 72
     1
 10
-39.2909259395116
 20
6.294860859081229
 11
-39.86662092964857
 21
5.643842854706289
 72
     1
 10
-39.86662092964857
 20
5.643842854706289
 11
-41.02589714266358
 21
5.643842854706289
 72
     1
 10
-41.02589714266358
 20
5.643842854706289
 11
-39.8705640460187
 21
6.950337890883898
 72
     1
 10
-39.8705640460187
 20
6.950337890883898
 11
-40.94703481524803
 21
8.167652378517118
 72
     1
 10
-40.94703481524803
 20
8.167652378517118
 11
-39.78775860223212
 21
8.167652378517118
 72
     1
 10
-39.78775860223212
 20
8.167652378517118
 11
-39.2909259395116
 21
7.605814922686129
 72
     1
 10
-39.2909259395116
 20
7.605814922686129
 11
-38.79409327679029
 21
8.167652378517118
 97
       12
330
141
330
19A
330
199
330
198
330
197
330
142
330
143
330
13F
330
140
330
19D
330
19C
330
19B
 75
     1
 76
     0
 52
45.0
 41
0.1
 77
     0
 78
     1
 53
45.0
 43
0.0
 44
0.0
 45
-0.0707106781186548
 46
0.0707106781186548
 79
     0
 98
        1
 10
0.0
 20
0.0
  0
HATCH
  5
32B
330
74
100
AcDbEntity
  8
1
  6
Continuous
 62
     2
100
AcDbHatch
 10
0.0
 20
0.0
 30
0.0
210
0.0
220
0.0
230
1.0
  2
_USER
 70
     0
 71
     1
 91
        1
 92
        1
 93
        4
 72
     1
 10
-41.12447505193373
 20
8.167652378517118
 11
-41.12447505193373
 21
5.643842854706289
 72
     1
 10
-41.12447505193373
 20
5.643842854706289
 11
-42.14968530834111
 21
5.643842854706289
 72
     1
 10
-42.14968530834111
 20
5.643842854706289
 11
-42.14968530834111
 21
8.167652378517118
 72
     1
 10
-42.14968530834111
 20
8.167652378517118
 11
-41.12447505193373
 21
8.167652378517118
 97
        4
330
195
330
144
330
194
330
196
 75
     1
 76
     0
 52
45.0
 41
0.1
 77
     0
 78
     1
 53
45.0
 43
0.0
 44
0.0
 45
-0.0707106781186548
 46
0.0707106781186548
 79
     0
 98
        1
 10
0.0
 20
0.0
  0
HATCH
  5
32C
330
74
100
AcDbEntity
  8
1
  6
Continuous
 62
     2
100
AcDbHatch
 10
0.0
 20
0.0
 30
0.0
210
0.0
220
0.0
230
1.0
  2
_USER
 70
     0
 71
     1
 91
        1
 92
        1
 93
        4
 72
     1
 10
-41.12447505193373
 20
8.167652378517118
 11
-41.12447505193373
 21
5.643842854706289
 72
     1
 10
-41.12447505193373
 20
5.643842854706289
 11
-42.14968530834111
 21
5.643842854706289
 72
     1
 10
-42.14968530834111
 20
5.643842854706289
 11
-42.14968530834111
 21
8.167652378517118
 72
     1
 10
-42.14968530834111
 20
8.167652378517118
 11
-41.12447505193373
 21
8.167652378517118
 97
        4
330
195
330
144
330
194
330
196
 75
     1
 76
     0
 52
45.0
 41
0.1
 77
     0
 78
     1
 53
45.0
 43
0.0
 44
0.0
 45
-0.0707106781186548
 46
0.0707106781186548
 79
     0
 98
        1
 10
0.0
 20
0.0
  0
HATCH
  5
32D
330
74
100
AcDbEntity
  8
1
  6
Continuous
 62
     2
100
AcDbHatch
 10
0.0
 20
0.0
 30
0.0
210
0.0
220
0.0
230
1.0
  2
_USER
 70
     0
 71
     1
 91
        2
 92
        1
 93
        8
 72
     1
 10
-41.44715604658827
 20
2.867652378529138
 11
-42.47236630299646
 21
2.867652378529138
 72
     1
 10
-42.47236630299646
 20
2.867652378529138
 11
-42.64714320669546
 21
3.314727208461259
 72
     1
 10
-42.64714320669546
 20
3.314727208461259
 11
-43.583045336178
 21
3.314727208461259
 72
     1
 10
-43.583045336178
 20
3.314727208461259
 11
-43.75782223987702
 21
2.867652378529138
 72
     1
 10
-43.75782223987702
 20
2.867652378529138
 11
-44.78303249628439
 21
2.867652378529138
 72
     1
 10
-44.78303249628439
 20
2.867652378529138
 11
-43.62769939964042
 21
5.39146190233997
 72
     1
 10
-43.62769939964042
 20
5.39146190233997
 11
-42.60248914323316
 21
5.39146190233997
 72
     1
 10
-42.60248914323316
 20
5.39146190233997
 11
-41.44715604658827
 21
2.867652378529138
 97
        8
330
190
330
14A
330
18F
330
192
330
147
330
191
330
148
330
149
 92
       16
 93
        3
 72
     1
 10
-43.36316471539696
 20
3.877176188053459
 11
-42.86702382747754
 21
3.877176188053459
 72
     1
 10
-42.86702382747754
 20
3.877176188053459
 11
-43.11509427143633
 21
4.511734011182998
 72
     1
 10
-43.11509427143633
 20
4.511734011182998
 11
-43.36316471539696
 21
3.877176188053459
 97
        3
330
146
330
145
330
193
 75
     1
 76
     0
 52
45.0
 41
0.1
 77
     0
 78
     1
 53
45.0
 43
0.0
 44
0.0
 45
-0.0707106781186548
 46
0.0707106781186548
 79
     0
 98
        1
 10
0.0
 20
0.0
  0
HATCH
  5
32E
330
74
100
AcDbEntity
  8
1
  6
Continuous
 62
     2
100
AcDbHatch
 10
0.0
 20
0.0
 30
0.0
210
0.0
220
0.0
230
1.0
  2
_USER
 70
     0
 71
     1
 91
        2
 92
        1
 93
        8
 72
     1
 10
-41.44715604658827
 20
2.867652378529138
 11
-42.47236630299646
 21
2.867652378529138
 72
     1
 10
-42.47236630299646
 20
2.867652378529138
 11
-42.64714320669546
 21
3.314727208461259
 72
     1
 10
-42.64714320669546
 20
3.314727208461259
 11
-43.583045336178
 21
3.314727208461259
 72
     1
 10
-43.583045336178
 20
3.314727208461259
 11
-43.75782223987702
 21
2.867652378529138
 72
     1
 10
-43.75782223987702
 20
2.867652378529138
 11
-44.78303249628439
 21
2.867652378529138
 72
     1
 10
-44.78303249628439
 20
2.867652378529138
 11
-43.62769939964042
 21
5.39146190233997
 72
     1
 10
-43.62769939964042
 20
5.39146190233997
 11
-42.60248914323316
 21
5.39146190233997
 72
     1
 10
-42.60248914323316
 20
5.39146190233997
 11
-41.44715604658827
 21
2.867652378529138
 97
        8
330
190
330
14A
330
18F
330
192
330
147
330
191
330
148
330
149
 92
       16
 93
        3
 72
     1
 10
-43.36316471539696
 20
3.877176188053459
 11
-42.86702382747754
 21
3.877176188053459
 72
     1
 10
-42.86702382747754
 20
3.877176188053459
 11
-43.11509427143633
 21
4.511734011182998
 72
     1
 10
-43.11509427143633
 20
4.511734011182998
 11
-43.36316471539696
 21
3.877176188053459
 97
        3
330
146
330
145
330
193
 75
     1
 76
     0
 52
45.0
 41
0.1
 77
     0
 78
     1
 53
45.0
 43
0.0
 44
0.0
 45
-0.0707106781186548
 46
0.0707106781186548
 79
     0
 98
        1
 10
0.0
 20
0.0
  0
HATCH
  5
32F
330
74
100
AcDbEntity
  8
1
  6
Continuous
 62
     2
100
AcDbHatch
 10
0.0
 20
0.0
 30
0.0
210
0.0
220
0.0
230
1.0
  2
_USER
 70
     0
 71
     1
 91
        1
 92
        1
 93
        8
 72
     1
 10
-46.56610037990609
 20
5.39146190233997
 11
-46.56610037990609
 21
4.742482310502249
 72
     1
 10
-46.56610037990609
 20
4.742482310502249
 11
-45.89577059686921
 21
4.742482310502249
 72
     1
 10
-45.89577059686921
 20
4.742482310502249
 11
-45.89577059686921
 21
2.867652378529138
 72
     1
 10
-45.89577059686921
 20
2.867652378529138
 11
-44.90999150416965
 21
2.867652378529138
 72
     1
 10
-44.90999150416965
 20
2.867652378529138
 11
-44.90999150416965
 21
4.742482310502249
 72
     1
 10
-44.90999150416965
 20
4.742482310502249
 11
-44.23966172113448
 21
4.742482310502249
 72
     1
 10
-44.23966172113448
 20
4.742482310502249
 11
-44.23966172113448
 21
5.39146190233997
 72
     1
 10
-44.23966172113448
 20
5.39146190233997
 11
-46.56610037990609
 21
5.39146190233997
 97
        8
330
18C
330
18B
330
18A
330
14B
330
14C
330
18E
330
14D
330
18D
 75
     1
 76
     0
 52
45.0
 41
0.1
 77
     0
 78
     1
 53
45.0
 43
0.0
 44
0.0
 45
-0.0707106781186548
 46
0.0707106781186548
 79
     0
 98
        1
 10
0.0
 20
0.0
  0
HATCH
  5
330
330
74
100
AcDbEntity
  8
1
  6
Continuous
 62
     2
100
AcDbHatch
 10
0.0
 20
0.0
 30
0.0
210
0.0
220
0.0
230
1.0
  2
_USER
 70
     0
 71
     1
 91
        1
 92
        1
 93
        8
 72
     1
 10
-46.56610037990609
 20
5.39146190233997
 11
-46.56610037990609
 21
4.742482310502249
 72
     1
 10
-46.56610037990609
 20
4.742482310502249
 11
-45.89577059686921
 21
4.742482310502249
 72
     1
 10
-45.89577059686921
 20
4.742482310502249
 11
-45.89577059686921
 21
2.867652378529138
 72
     1
 10
-45.89577059686921
 20
2.867652378529138
 11
-44.90999150416965
 21
2.867652378529138
 72
     1
 10
-44.90999150416965
 20
2.867652378529138
 11
-44.90999150416965
 21
4.742482310502249
 72
     1
 10
-44.90999150416965
 20
4.742482310502249
 11
-44.23966172113448
 21
4.742482310502249
 72
     1
 10
-44.23966172113448
 20
4.742482310502249
 11
-44.23966172113448
 21
5.39146190233997
 72
     1
 10
-44.23966172113448
 20
5.39146190233997
 11
-46.56610037990609
 21
5.39146190233997
 97
        8
330
18C
330
18B
330
18A
330
14B
330
14C
330
18E
330
14D
330
18D
 75
     1
 76
     0
 52
45.0
 41
0.1
 77
     0
 78
     1
 53
45.0
 43
0.0
 44
0.0
 45
-0.0707106781186548
 46
0.0707106781186548
 79
     0
 98
        1
 10
0.0
 20
0.0
  0
HATCH
  5
331
330
74
100
AcDbEntity
  8
1
  6
Continuous
 62
     2
100
AcDbHatch
 10
0.0
 20
0.0
 30
0.0
210
0.0
220
0.0
230
1.0
  2
_USER
 70
     0
 71
     1
 91
        1
 92
        1
 93
       10
 72
     1
 10
-44.35783047598946
 20
8.167652378517118
 11
-45.343609568689
 21
8.167652378517118
 72
     1
 10
-45.343609568689
 20
8.167652378517118
 11
-45.343609568689
 21
5.643842854706289
 72
     1
 10
-45.343609568689
 20
5.643842854706289
 11
-44.35783047598946
 21
5.643842854706289
 72
     1
 10
-44.35783047598946
 20
5.643842854706289
 11
-44.35783047598946
 21
6.72547550776795
 72
     1
 10
-44.35783047598946
 20
6.72547550776795
 11
-43.33262021958117
 21
5.643842854706289
 72
     1
 10
-43.33262021958117
 20
5.643842854706289
 11
-42.34684112688152
 21
5.643842854706289
 72
     1
 10
-42.34684112688152
 20
5.643842854706289
 11
-42.34684112688152
 21
8.167652378517118
 72
     1
 10
-42.34684112688152
 20
8.167652378517118
 11
-43.33262021958117
 21
8.167652378517118
 72
     1
 10
-43.33262021958117
 20
8.167652378517118
 11
-43.33262021958117
 21
7.08601972545501
 72
     1
 10
-43.33262021958117
 20
7.08601972545501
 11
-44.35783047598946
 21
8.167652378517118
 97
       10
330
186
330
150
330
151
330
152
330
153
330
189
330
14E
330
188
330
187
330
14F
 75
     1
 76
     0
 52
45.0
 41
0.1
 77
     0
 78
     1
 53
45.0
 43
0.0
 44
0.0
 45
-0.0707106781186548
 46
0.0707106781186548
 79
     0
 98
        1
 10
0.0
 20
0.0
  0
HATCH
  5
332
330
74
100
AcDbEntity
  8
1
  6
Continuous
 62
     2
100
AcDbHatch
 10
0.0
 20
0.0
 30
0.0
210
0.0
220
0.0
230
1.0
  2
_USER
 70
     0
 71
     1
 91
        1
 92
        1
 93
       10
 72
     1
 10
-44.35783047598946
 20
8.167652378517118
 11
-45.343609568689
 21
8.167652378517118
 72
     1
 10
-45.343609568689
 20
8.167652378517118
 11
-45.343609568689
 21
5.643842854706289
 72
     1
 10
-45.343609568689
 20
5.643842854706289
 11
-44.35783047598946
 21
5.643842854706289
 72
     1
 10
-44.35783047598946
 20
5.643842854706289
 11
-44.35783047598946
 21
6.72547550776795
 72
     1
 10
-44.35783047598946
 20
6.72547550776795
 11
-43.33262021958117
 21
5.643842854706289
 72
     1
 10
-43.33262021958117
 20
5.643842854706289
 11
-42.34684112688152
 21
5.643842854706289
 72
     1
 10
-42.34684112688152
 20
5.643842854706289
 11
-42.34684112688152
 21
8.167652378517118
 72
     1
 10
-42.34684112688152
 20
8.167652378517118
 11
-43.33262021958117
 21
8.167652378517118
 72
     1
 10
-43.33262021958117
 20
8.167652378517118
 11
-43.33262021958117
 21
7.08601972545501
 72
     1
 10
-43.33262021958117
 20
7.08601972545501
 11
-44.35783047598946
 21
8.167652378517118
 97
       10
330
186
330
150
330
151
330
152
330
153
330
189
330
14E
330
188
330
187
330
14F
 75
     1
 76
     0
 52
45.0
 41
0.1
 77
     0
 78
     1
 53
45.0
 43
0.0
 44
0.0
 45
-0.0707106781186548
 46
0.0707106781186548
 79
     0
 98
        1
 10
0.0
 20
0.0
  0
HATCH
  5
333
330
74
100
AcDbEntity
  8
1
  6
Continuous
 62
     2
100
AcDbHatch
 10
0.0
 20
0.0
 30
0.0
210
0.0
220
0.0
230
1.0
  2
_USER
 70
     0
 71
     1
 91
        1
 92
        1
 93
       10
 72
     1
 10
-48.69538322013707
 20
5.39146190233997
 11
-49.68116231283753
 21
5.39146190233997
 72
     1
 10
-49.68116231283753
 20
5.39146190233997
 11
-49.68116231283753
 21
2.867652378529138
 72
     1
 10
-49.68116231283753
 20
2.867652378529138
 11
-48.69538322013707
 21
2.867652378529138
 72
     1
 10
-48.69538322013707
 20
2.867652378529138
 11
-48.69538322013707
 21
3.949285031590788
 72
     1
 10
-48.69538322013707
 20
3.949285031590788
 11
-47.67017296372971
 21
2.867652378529138
 72
     1
 10
-47.67017296372971
 20
2.867652378529138
 11
-46.68439387103015
 21
2.867652378529138
 72
     1
 10
-46.68439387103015
 20
2.867652378529138
 11
-46.68439387103015
 21
5.39146190233997
 72
     1
 10
-46.68439387103015
 20
5.39146190233997
 11
-47.67017296372971
 21
5.39146190233997
 72
     1
 10
-47.67017296372971
 20
5.39146190233997
 11
-47.67017296372971
 21
4.309829249277859
 72
     1
 10
-47.67017296372971
 20
4.309829249277859
 11
-48.69538322013707
 21
5.39146190233997
 97
       10
330
155
330
156
330
157
330
183
330
158
330
159
330
182
330
185
330
184
330
154
 75
     1
 76
     0
 52
45.0
 41
0.1
 77
     0
 78
     1
 53
45.0
 43
0.0
 44
0.0
 45
-0.0707106781186548
 46
0.0707106781186548
 79
     0
 98
        1
 10
0.0
 20
0.0
  0
HATCH
  5
334
330
74
100
AcDbEntity
  8
1
  6
Continuous
 62
     2
100
AcDbHatch
 10
0.0
 20
0.0
 30
0.0
210
0.0
220
0.0
230
1.0
  2
_USER
 70
     0
 71
     1
 91
        1
 92
        1
 93
       10
 72
     1
 10
-48.69538322013707
 20
5.39146190233997
 11
-49.68116231283753
 21
5.39146190233997
 72
     1
 10
-49.68116231283753
 20
5.39146190233997
 11
-49.68116231283753
 21
2.867652378529138
 72
     1
 10
-49.68116231283753
 20
2.867652378529138
 11
-48.69538322013707
 21
2.867652378529138
 72
     1
 10
-48.69538322013707
 20
2.867652378529138
 11
-48.69538322013707
 21
3.949285031590788
 72
     1
 10
-48.69538322013707
 20
3.949285031590788
 11
-47.67017296372971
 21
2.867652378529138
 72
     1
 10
-47.67017296372971
 20
2.867652378529138
 11
-46.68439387103015
 21
2.867652378529138
 72
     1
 10
-46.68439387103015
 20
2.867652378529138
 11
-46.68439387103015
 21
5.39146190233997
 72
     1
 10
-46.68439387103015
 20
5.39146190233997
 11
-47.67017296372971
 21
5.39146190233997
 72
     1
 10
-47.67017296372971
 20
5.39146190233997
 11
-47.67017296372971
 21
4.309829249277859
 72
     1
 10
-47.67017296372971
 20
4.309829249277859
 11
-48.69538322013707
 21
5.39146190233997
 97
       10
330
155
330
156
330
157
330
183
330
158
330
159
330
182
330
185
330
184
330
154
 75
     1
 76
     0
 52
45.0
 41
0.1
 77
     0
 78
     1
 53
45.0
 43
0.0
 44
0.0
 45
-0.0707106781186548
 46
0.0707106781186548
 79
     0
 98
        1
 10
0.0
 20
0.0
  0
HATCH
  5
335
330
74
100
AcDbEntity
  8
1
  6
Continuous
 62
     2
100
AcDbHatch
 10
0.0
 20
0.0
 30
0.0
210
0.0
220
0.0
230
1.0
  2
_USER
 70
     0
 71
     1
 91
        1
 92
        1
 93
       12
 72
     1
 10
-49.52331292173656
 20
8.167652378517118
 11
-49.52331292173656
 21
5.643842854706289
 72
     1
 10
-49.52331292173656
 20
5.643842854706289
 11
-50.50909201443611
 21
5.643842854706289
 72
     1
 10
-50.50909201443611
 20
5.643842854706289
 11
-50.50909201443611
 21
6.581257820692848
 72
     1
 10
-50.50909201443611
 20
6.581257820692848
 11
-51.3765776160125
 21
6.581257820692848
 72
     1
 10
-51.3765776160125
 20
6.581257820692848
 11
-51.3765776160125
 21
5.643842854706289
 72
     1
 10
-51.3765776160125
 20
5.643842854706289
 11
-52.36235670871216
 21
5.643842854706289
 72
     1
 10
-52.36235670871216
 20
5.643842854706289
 11
-52.36235670871216
 21
8.167652378517118
 72
     1
 10
-52.36235670871216
 20
8.167652378517118
 11
-51.3765776160125
 21
8.167652378517118
 72
     1
 10
-51.3765776160125
 20
8.167652378517118
 11
-51.3765776160125
 21
7.284319045182759
 72
     1
 10
-51.3765776160125
 20
7.284319045182759
 11
-50.50909201443611
 21
7.284319045182759
 72
     1
 10
-50.50909201443611
 20
7.284319045182759
 11
-50.50909201443611
 21
8.167652378517118
 72
     1
 10
-50.50909201443611
 20
8.167652378517118
 11
-49.52331292173656
 21
8.167652378517118
 97
       12
330
17D
330
17C
330
17B
330
163
330
164
330
17A
330
165
330
179
330
178
330
177
330
161
330
162
 75
     1
 76
     0
 52
45.0
 41
0.1
 77
     0
 78
     1
 53
45.0
 43
0.0
 44
0.0
 45
-0.0707106781186548
 46
0.0707106781186548
 79
     0
 98
        1
 10
0.0
 20
0.0
  0
HATCH
  5
336
330
74
100
AcDbEntity
  8
1
  6
Continuous
 62
     2
100
AcDbHatch
 10
0.0
 20
0.0
 30
0.0
210
0.0
220
0.0
230
1.0
  2
_USER
 70
     0
 71
     1
 91
        1
 92
        1
 93
       12
 72
     1
 10
-49.52331292173656
 20
8.167652378517118
 11
-49.52331292173656
 21
5.643842854706289
 72
     1
 10
-49.52331292173656
 20
5.643842854706289
 11
-50.50909201443611
 21
5.643842854706289
 72
     1
 10
-50.50909201443611
 20
5.643842854706289
 11
-50.50909201443611
 21
6.581257820692848
 72
     1
 10
-50.50909201443611
 20
6.581257820692848
 11
-51.3765776160125
 21
6.581257820692848
 72
     1
 10
-51.3765776160125
 20
6.581257820692848
 11
-51.3765776160125
 21
5.643842854706289
 72
     1
 10
-51.3765776160125
 20
5.643842854706289
 11
-52.36235670871216
 21
5.643842854706289
 72
     1
 10
-52.36235670871216
 20
5.643842854706289
 11
-52.36235670871216
 21
8.167652378517118
 72
     1
 10
-52.36235670871216
 20
8.167652378517118
 11
-51.3765776160125
 21
8.167652378517118
 72
     1
 10
-51.3765776160125
 20
8.167652378517118
 11
-51.3765776160125
 21
7.284319045182759
 72
     1
 10
-51.3765776160125
 20
7.284319045182759
 11
-50.50909201443611
 21
7.284319045182759
 72
     1
 10
-50.50909201443611
 20
7.284319045182759
 11
-50.50909201443611
 21
8.167652378517118
 72
     1
 10
-50.50909201443611
 20
8.167652378517118
 11
-49.52331292173656
 21
8.167652378517118
 97
       12
330
17D
330
17C
330
17B
330
163
330
164
330
17A
330
165
330
179
330
178
330
177
330
161
330
162
 75
     1
 76
     0
 52
45.0
 41
0.1
 77
     0
 78
     1
 53
45.0
 43
0.0
 44
0.0
 45
-0.0707106781186548
 46
0.0707106781186548
 79
     0
 98
        1
 10
0.0
 20
0.0
  0
ENDBLK
  5
76
330
74
100
AcDbEntity
  8
0
100
AcDbBlockEnd
  0
BLOCK
  5
7A
330
77
100
AcDbEntity
  8
0
100
AcDbBlockBegin
  2
A4I
 70
     0
 10
62.26157366041744
 20
-7.98234762147682
 30
0.0
  3
A4I
  1

  0
INSERT
  5
78
330
77
100
AcDbEntity
  8
1
100
AcDbBlockReference
  2
_punkt
 10
62.26157366041744
 20
-2.98234762147671
 30
0.0
  0
INSERT
  5
79
330
77
100
AcDbEntity
  8
1
100
AcDbBlockReference
  2
_rahmen
 10
62.26157366041744
 20
-7.98234762147682
 30
0.0
  0
ENDBLK
  5
7B
330
77
100
AcDbEntity
  8
0
100
AcDbBlockEnd
  0
BLOCK
  5
D6
330
CF
100
AcDbEntity
  8
0
100
AcDbBlockBegin
  2
*D16
 70
     1
 10
0.0
 20
0.0
 30
0.0
  3
*D16
  1

  0
LINE
  5
D0
330
CF
100
AcDbEntity
  8
1
  6
Continuous
 62
     2
100
AcDbLine
 10
-25.5712806159594
 20
12.29702489715533
 30
0.0
 11
-19.97128061595941
 21
12.29702489715533
 31
0.0
  0
LINE
  5
D1
330
CF
100
AcDbEntity
  8
1
  6
Continuous
 62
     2
100
AcDbLine
 10
-25.5712806159594
 20
17.62871835762949
 30
0.0
 11
-25.5712806159594
 21
11.89702489715533
 31
0.0
  0
LINE
  5
D2
330
CF
100
AcDbEntity
  8
1
  6
Continuous
 62
     2
100
AcDbLine
 10
-19.97128061595941
 20
17.62871835762949
 30
0.0
 11
-19.97128061595941
 21
11.89702489715533
 31
0.0
  0
SOLID
  5
D3
330
CF
100
AcDbEntity
  8
1
 62
     2
100
AcDbTrace
 10
-24.8712806159594
 20
12.38918164546651
 30
0.0
 11
-24.8712806159594
 21
12.20486814884415
 31
0.0
 12
-25.5712806159594
 22
12.29702489715533
 32
0.0
 13
-25.5712806159594
 23
12.29702489715533
 33
0.0
  0
SOLID
  5
D4
330
CF
100
AcDbEntity
  8
1
 62
     2
100
AcDbTrace
 10
-20.67128061595941
 20
12.20486814884415
 30
0.0
 11
-20.67128061595941
 21
12.38918164546651
 31
0.0
 12
-19.97128061595941
 22
12.29702489715533
 32
0.0
 13
-19.97128061595941
 23
12.29702489715533
 33
0.0
  0
MTEXT
  5
D5
330
CF
100
AcDbEntity
  8
1
 62
     3
100
AcDbMText
 10
-23.60778061595772
 20
12.76702350574007
 30
0.0
 40
0.7
 41
0.0
 71
     7
 72
     1
  1
\C3;\U+00f8\C3;5,6
  7
CONVERTER_11
 11
0.9999999999970619
 21
2.424068405545306E-6
 31
0.0
 73
     1
 44
0.60024009603842
  0
ENDBLK
  5
D7
330
CF
100
AcDbEntity
  8
0
100
AcDbBlockEnd
  0
BLOCK
  5
F9
330
F2
100
AcDbEntity
  8
0
100
AcDbBlockBegin
  2
*D17
 70
     1
 10
0.0
 20
0.0
 30
0.0
  3
*D17
  1

  0
LINE
  5
F3
330
F2
100
AcDbEntity
  8
1
  6
Continuous
 62
     2
100
AcDbLine
 10
-17.79021148409414
 20
26.40000000001001
 30
0.0
 11
-17.79021148409414
 21
32.40000000001001
 31
0.0
  0
LINE
  5
F4
330
F2
100
AcDbEntity
  8
1
  6
Continuous
 62
     2
100
AcDbLine
 10
-21.27128081064631
 20
26.40000000001001
 30
0.0
 11
-17.39021148409414
 21
26.40000000001001
 31
0.0
  0
LINE
  5
F5
330
F2
100
AcDbEntity
  8
1
  6
Continuous
 62
     2
100
AcDbLine
 10
-19.9712808106463
 20
32.40000000001001
 30
0.0
 11
-17.39021148409414
 21
32.40000000001001
 31
0.0
  0
SOLID
  5
F6
330
F2
100
AcDbEntity
  8
1
 62
     2
100
AcDbTrace
 10
-17.88236823240532
 20
27.10000000001001
 30
0.0
 11
-17.69805473578296
 21
27.10000000001001
 31
0.0
 12
-17.79021148409414
 22
26.40000000001001
 32
0.0
 13
-17.79021148409414
 23
26.40000000001001
 33
0.0
  0
SOLID
  5
F7
330
F2
100
AcDbEntity
  8
1
 62
     2
100
AcDbTrace
 10
-17.69805473578296
 20
31.70000000001001
 30
0.0
 11
-17.88236823240532
 21
31.70000000001001
 31
0.0
 12
-17.79021148409414
 22
32.40000000001001
 32
0.0
 13
-17.79021148409414
 23
32.40000000001001
 33
0.0
  0
MTEXT
  5
F8
330
F2
100
AcDbEntity
  8
1
 62
     3
100
AcDbMText
 10
-18.19021148409414
 20
29.2759947309264
 30
0.0
 40
0.7
 41
0.0
 71
     7
 72
     1
  1
6
  7
CONVERTER_11
 11
0.0
 21
1.0
 31
0.0
 73
     1
 44
0.60024009603842
  0
ENDBLK
  5
FA
330
F2
100
AcDbEntity
  8
0
100
AcDbBlockEnd
  0
BLOCK
  5
104
330
FD
100
AcDbEntity
  8
0
100
AcDbBlockBegin
  2
*D18
 70
     1
 10
0.0
 20
0.0
 30
0.0
  3
*D18
  1

  0
LINE
  5
FE
330
FD
100
AcDbEntity
  8
1
  6
Continuous
 62
     2
100
AcDbLine
 10
-21.27128081064631
 20
24.090423653
 30
0.0
 11
-24.27128081064624
 21
24.090423653
 31
0.0
  0
LINE
  5
FF
330
FD
100
AcDbEntity
  8
1
  6
Continuous
 62
     2
100
AcDbLine
 10
-21.27128081064631
 20
26.40000000001
 30
0.0
 11
-21.27128081064631
 21
23.690423653
 31
0.0
  0
LINE
  5
100
330
FD
100
AcDbEntity
  8
1
  6
Continuous
 62
     2
100
AcDbLine
 10
-24.27128081064624
 20
26.40000000001
 30
0.0
 11
-24.27128081064624
 21
23.690423653
 31
0.0
  0
SOLID
  5
101
330
FD
100
AcDbEntity
  8
1
 62
     2
100
AcDbTrace
 10
-21.97128081064631
 20
23.99826690468882
 30
0.0
 11
-21.97128081064631
 21
24.18258040131117
 31
0.0
 12
-21.27128081064631
 22
24.090423653
 32
0.0
 13
-21.27128081064631
 23
24.090423653
 33
0.0
  0
SOLID
  5
102
330
FD
100
AcDbEntity
  8
1
 62
     2
100
AcDbTrace
 10
-23.57128081064624
 20
24.18258040131117
 30
0.0
 11
-23.57128081064624
 21
23.99826690468882
 31
0.0
 12
-24.27128081064624
 22
24.090423653
 32
0.0
 13
-24.27128081064624
 23
24.090423653
 33
0.0
  0
MTEXT
  5
103
330
FD
100
AcDbEntity
  8
1
 62
     3
100
AcDbMText
 10
-23.70822073554143
 20
24.49042087016947
 30
0.0
 40
0.7
 41
0.0
 71
     7
 72
     1
  1
\C3; {\Fgdt;n}\C3;3
  7
CONVERTER_11
 11
0.9999999999970619
 21
2.424068405545306E-6
 31
0.0
 73
     1
 44
0.60024009603842
  0
ENDBLK
  5
105
330
FD
100
AcDbEntity
  8
0
100
AcDbBlockEnd
  0
ENDSEC
  0
SECTION
  2
ENTITIES
  0
INSERT
  5
7C
330
1F
100
AcDbEntity
  8
0
100
AcDbBlockReference
  2
Allg1
 10
9.99999999991502
 20
69.00000000004515
 30
0.0
 41
5.0
 42
5.0
 43
5.0
  0
INSERT
  5
7D
330
1F
100
AcDbEntity
  8
0
100
AcDbBlockReference
  2
SA_Links1
 10
-44.99999999999994
 20
147.0000000000501
 30
0.0
 41
5.0
 42
5.0
 43
5.0
  0
INSERT
  5
7E
330
1F
100
AcDbEntity
  8
0
100
AcDbBlockReference
  2
Drfsicht1
 10
-113.8564030796971
 20
88.1435917881474
 30
0.0
 41
5.0
 42
5.0
 43
5.0
  0
INSERT
  5
7F
330
1F
100
AcDbEntity
  8
0
100
AcDbBlockReference
  2
Vordans1
 10
-113.8564040531315
 20
147.0000000000251
 30
0.0
 41
5.0
 42
5.0
 43
5.0
  0
INSERT
  5
80
330
1F
100
AcDbEntity
  8
0
100
AcDbBlockReference
  2
SA_Rechts1
 10
-168.7128159203034
 20
147.0000000000501
 30
0.0
 41
5.0
 42
5.0
 43
5.0
  0
INSERT
  5
81
330
1F
100
AcDbEntity
  8
0
100
AcDbBlockReference
  2
Rckans1
 10
4.8564049734743
 20
147.0000000000501
 30
0.0
 41
5.0
 42
5.0
 43
5.0
  0
INSERT
  5
82
330
1F
100
AcDbEntity
  8
0
100
AcDbBlockReference
  2
A4I
 10
62.26157366041744
 20
-7.98234762147682
 30
0.0
  0
ENDSEC
  0
SECTION
  2
OBJECTS
  0
DICTIONARY
  5
C
330
0
100
AcDbDictionary
281
     1
  3
ACAD_GROUP
350
D
  3
ACAD_LAYOUT
350
1A
  3
ACAD_MATERIAL
350
3B
  3
ACAD_MLEADERSTYLE
350
339
  3
ACAD_MLINESTYLE
350
17
  3
ACAD_PLOTSETTINGS
350
19
  3
ACAD_PLOTSTYLENAME
350
E
  3
ACAD_VISUALSTYLE
350
2A
  3
AcDbVariableDictionary
350
337
  0
DICTIONARY
  5
D
102
{ACAD_REACTORS
330
C
102
}
330
C
100
AcDbDictionary
281
     1
  0
DICTIONARY
  5
1A
102
{ACAD_REACTORS
330
C
102
}
330
C
100
AcDbDictionary
281
     1
  3
Layout1
350
1E
  3
Layout2
350
26
  3
Model
350
22
  0
DICTIONARY
  5
3B
102
{ACAD_REACTORS
330
C
102
}
330
C
100
AcDbDictionary
281
     1
  3
ByBlock
350
3D
  3
ByLayer
350
3C
  3
Global
350
3E
  0
DICTIONARY
  5
339
102
{ACAD_REACTORS
330
C
102
}
330
C
100
AcDbDictionary
281
     1
  0
DICTIONARY
  5
17
102
{ACAD_REACTORS
330
C
102
}
330
C
100
AcDbDictionary
281
     1
  3
Standard
350
18
  0
DICTIONARY
  5
19
102
{ACAD_REACTORS
330
C
102
}
330
C
100
AcDbDictionary
281
     1
  0
ACDBDICTIONARYWDFLT
  5
E
102
{ACAD_REACTORS
330
C
102
}
330
C
100
AcDbDictionary
281
     1
  3
Normal
350
F
100
AcDbDictionaryWithDefault
340
F
  0
DICTIONARY
  5
2A
102
{ACAD_REACTORS
330
C
102
}
330
C
100
AcDbDictionary
281
     1
  3
2dWireframe
350
2F
  3
3D Hidden
350
31
  3
3dWireframe
350
30
  3
Basic
350
32
  3
Brighten
350
36
  3
ColorChange
350
3A
  3
Conceptual
350
34
  3
Dim
350
35
  3
Facepattern
350
39
  3
Flat
350
2B
  3
FlatWithEdges
350
2C
  3
Gouraud
350
2D
  3
GouraudWithEdges
350
2E
  3
Linepattern
350
38
  3
Realistic
350
33
  3
Thicken
350
37
  0
DICTIONARY
  5
337
102
{ACAD_REACTORS
330
C
102
}
330
C
100
AcDbDictionary
281
     1
  3
DIMASSOC
350
33A
  3
HIDETEXT
350
33B
  0
LAYOUT
  5
1E
102
{ACAD_REACTORS
330
1A
102
}
330
1A
100
AcDbPlotSettings
  1

  2
none_device
  4

  6

 40
0.0
 41
0.0
 42
0.0
 43
0.0
 44
0.0
 45
0.0
 46
0.0
 47
0.0
 48
0.0
 49
0.0
140
0.0
141
0.0
142
1.0
143
1.0
 70
   688
 72
     0
 73
     0
 74
     5
  7

 75
    16
147
1.0
148
0.0
149
0.0
100
AcDbLayout
  1
Layout1
 70
     1
 71
     1
 10
0.0
 20
0.0
 11
12.0
 21
9.0
 12
0.0
 22
0.0
 32
0.0
 14
1.00000000000000E+20
 24
1.00000000000000E+20
 34
1.00000000000000E+20
 15
-1.00000000000000E+20
 25
-1.00000000000000E+20
 35
-1.00000000000000E+20
146
0.0
 13
0.0
 23
0.0
 33
0.0
 16
1.0
 26
0.0
 36
0.0
 17
0.0
 27
1.0
 37
0.0
 76
     0
330
1B
  0
LAYOUT
  5
26
102
{ACAD_REACTORS
330
1A
102
}
330
1A
100
AcDbPlotSettings
  1

  2
none_device
  4

  6

 40
0.0
 41
0.0
 42
0.0
 43
0.0
 44
0.0
 45
0.0
 46
0.0
 47
0.0
 48
0.0
 49
0.0
140
0.0
141
0.0
142
1.0
143
1.0
 70
   688
 72
     0
 73
     0
 74
     5
  7

 75
    16
147
1.0
148
0.0
149
0.0
100
AcDbLayout
  1
Layout2
 70
     1
 71
     2
 10
0.0
 20
0.0
 11
0.0
 21
0.0
 12
0.0
 22
0.0
 32
0.0
 14
0.0
 24
0.0
 34
0.0
 15
0.0
 25
0.0
 35
0.0
146
0.0
 13
0.0
 23
0.0
 33
0.0
 16
1.0
 26
0.0
 36
0.0
 17
0.0
 27
1.0
 37
0.0
 76
     0
330
23
  0
LAYOUT
  5
22
102
{ACAD_REACTORS
330
1A
102
}
330
1A
100
AcDbPlotSettings
  1

  2
none_device
  4

  6

 40
0.0
 41
0.0
 42
0.0
 43
0.0
 44
0.0
 45
0.0
 46
0.0
 47
0.0
 48
0.0
 49
0.0
140
0.0
141
0.0
142
1.0
143
1.0
 70
  1712
 72
     0
 73
     0
 74
     0
  7

 75
     0
147
1.0
148
0.0
149
0.0
100
AcDbLayout
  1
Model
 70
     1
 71
     0
 10
0.0
 20
0.0
 11
12.0
 21
9.0
 12
0.0
 22
0.0
 32
0.0
 14
-229.7384263395817
 24
-7.98234762147682
 34
0.0
 15
67.26157366041645
 25
202.0176523785232
 35
0.0
146
0.0
 13
0.0
 23
0.0
 33
0.0
 16
1.0
 26
0.0
 36
0.0
 17
0.0
 27
1.0
 37
0.0
 76
     0
330
1F
331
29
  0
MATERIAL
  5
3D
102
{ACAD_REACTORS
330
3B
102
}
102
{ACAD_XDICTIONARY
360
35E
102
}
330
3B
100
AcDbMaterial
  1
ByBlock
  0
MATERIAL
  5
3C
102
{ACAD_REACTORS
330
3B
102
}
102
{ACAD_XDICTIONARY
360
35C
102
}
330
3B
100
AcDbMaterial
  1
ByLayer
  0
MATERIAL
  5
3E
102
{ACAD_REACTORS
330
3B
102
}
102
{ACAD_XDICTIONARY
360
360
102
}
330
3B
100
AcDbMaterial
  1
Global
  0
MLINESTYLE
  5
18
102
{ACAD_REACTORS
330
17
102
}
330
17
100
AcDbMlineStyle
  2
Standard
 70
     0
  3

 62
   256
 51
90.0
 52
90.0
 71
     2
 49
0.5
 62
   256
  6
BYLAYER
 49
-0.5
 62
   256
  6
BYLAYER
  0
ACDBPLACEHOLDER
  5
F
102
{ACAD_REACTORS
330
E
102
}
330
E
  0
VISUALSTYLE
  5
2F
102
{ACAD_REACTORS
330
2A
102
}
102
{ACAD_XDICTIONARY
360
344
102
}
330
2A
100
AcDbVisualStyle
  2
2dWireframe
 70
     4
 71
     0
 72
     2
 73
     0
 90
        0
 40
-0.6
 41
-30.0
 62
     5
 63
     7
 74
     1
 91
        4
 64
     7
 65
   257
 75
     1
175
     1
 42
1.0
 92
        0
 66
   257
 43
1.0
 76
     1
 77
     6
 78
     2
 67
     7
 79
     5
170
     0
171
     0
290
     0
174
     0
 93
        1
 44
0.0
173
     0
291
     0
 45
0.0
1001
ACAD
1000
AcDbSavedByObjectVersion
1070
     0
  0
VISUALSTYLE
  5
31
102
{ACAD_REACTORS
330
2A
102
}
102
{ACAD_XDICTIONARY
360
348
102
}
330
2A
100
AcDbVisualStyle
  2
3D Hidden
 70
     6
 71
     1
 72
     2
 73
     2
 90
        0
 40
-0.6
 41
-30.0
 62
     5
 63
     7
 74
     2
 91
        2
 64
     7
 65
   257
 75
     2
175
     1
 42
40.0
 92
        0
 66
   257
 43
1.0
 76
     1
 77
     6
 78
     2
 67
     7
 79
     3
170
     0
171
     0
290
     0
174
     0
 93
        1
 44
0.0
173
     0
291
     0
 45
0.0
1001
ACAD
1000
AcDbSavedByObjectVersion
1070
     0
  0
VISUALSTYLE
  5
30
102
{ACAD_REACTORS
330
2A
102
}
102
{ACAD_XDICTIONARY
360
346
102
}
330
2A
100
AcDbVisualStyle
  2
3dWireframe
 70
     5
 71
     0
 72
     2
 73
     0
 90
        0
 40
-0.6
 41
-30.0
 62
     5
 63
     7
 74
     1
 91
        4
 64
     7
 65
   257
 75
     1
175
     1
 42
1.0
 92
        0
 66
   257
 43
1.0
 76
     1
 77
     6
 78
     2
 67
     7
 79
     5
170
     0
171
     0
290
     0
174
     0
 93
        1
 44
0.0
173
     0
291
     0
 45
0.0
1001
ACAD
1000
AcDbSavedByObjectVersion
1070
     0
  0
VISUALSTYLE
  5
32
102
{ACAD_REACTORS
330
2A
102
}
102
{ACAD_XDICTIONARY
360
34A
102
}
330
2A
100
AcDbVisualStyle
  2
Basic
 70
     7
 71
     1
 72
     0
 73
     1
 90
        0
 40
-0.6
 41
-30.0
 62
     5
 63
     7
 74
     0
 91
        4
 64
     7
 65
   257
 75
     1
175
     1
 42
1.0
 92
        8
 66
     7
 43
1.0
 76
     1
 77
     6
 78
     2
 67
     7
 79
     5
170
     0
171
     0
290
     0
174
     0
 93
        1
 44
0.0
173
     0
291
     1
 45
0.0
1001
ACAD
1000
AcDbSavedByObjectVersion
1070
     0
  0
VISUALSTYLE
  5
36
102
{ACAD_REACTORS
330
2A
102
}
102
{ACAD_XDICTIONARY
360
352
102
}
330
2A
100
AcDbVisualStyle
  2
Brighten
 70
    12
 71
     2
 72
     2
 73
     0
 90
        0
 40
-0.6
 41
-30.0
 62
     5
 63
     7
 74
     1
 91
        4
 64
     7
 65
   257
 75
     1
175
     1
 42
1.0
 92
        8
 66
     7
 43
1.0
 76
     1
 77
     6
 78
     2
 67
     7
 79
     5
170
     0
171
     0
290
     0
174
     0
 93
        1
 44
50.0
173
     0
291
     1
 45
0.0
1001
ACAD
1000
AcDbSavedByObjectVersion
1070
     0
  0
VISUALSTYLE
  5
3A
102
{ACAD_REACTORS
330
2A
102
}
102
{ACAD_XDICTIONARY
360
35A
102
}
330
2A
100
AcDbVisualStyle
  2
ColorChange
 70
    16
 71
     2
 72
     2
 73
     3
 90
        0
 40
-0.6
 41
-30.0
 62
     5
 63
     8
 74
     1
 91
        4
 64
     7
 65
   257
 75
     1
175
     1
 42
1.0
 92
        8
 66
     8
 43
1.0
 76
     1
 77
     6
 78
     2
 67
     7
 79
     5
170
     0
171
     0
290
     0
174
     0
 93
        1
 44
0.0
173
     0
291
     1
 45
0.0
1001
ACAD
1000
AcDbSavedByObjectVersion
1070
     0
  0
VISUALSTYLE
  5
34
102
{ACAD_REACTORS
330
2A
102
}
102
{ACAD_XDICTIONARY
360
34E
102
}
330
2A
100
AcDbVisualStyle
  2
Conceptual
 70
     9
 71
     3
 72
     2
 73
     0
 90
        0
 40
-0.6
 41
-30.0
 62
     5
 63
     7
 74
     2
 91
        2
 64
     7
 65
   257
 75
     1
175
     1
 42
40.0
 92
        8
 66
     7
 43
1.0
 76
     1
 77
     6
 78
     2
 67
     7
 79
     3
170
     0
171
     0
290
     0
174
     0
 93
        1
 44
0.0
173
     0
291
     0
 45
0.0
1001
ACAD
1000
AcDbSavedByObjectVersion
1070
     0
  0
VISUALSTYLE
  5
35
102
{ACAD_REACTORS
330
2A
102
}
102
{ACAD_XDICTIONARY
360
350
102
}
330
2A
100
AcDbVisualStyle
  2
Dim
 70
    11
 71
     2
 72
     2
 73
     0
 90
        0
 40
-0.6
 41
-30.0
 62
     5
 63
     7
 74
     1
 91
        4
 64
     7
 65
   257
 75
     1
175
     1
 42
1.0
 92
        8
 66
     7
 43
1.0
 76
     1
 77
     6
 78
     2
 67
     7
 79
     5
170
     0
171
     0
290
     0
174
     0
 93
        1
 44
-50.0
173
     0
291
     1
 45
0.0
1001
ACAD
1000
AcDbSavedByObjectVersion
1070
     0
  0
VISUALSTYLE
  5
39
102
{ACAD_REACTORS
330
2A
102
}
102
{ACAD_XDICTIONARY
360
358
102
}
330
2A
100
AcDbVisualStyle
  2
Facepattern
 70
    15
 71
     2
 72
     2
 73
     0
 90
        0
 40
-0.6
 41
-30.0
 62
     5
 63
     7
 74
     1
 91
        4
 64
     7
 65
   257
 75
     1
175
     1
 42
1.0
 92
        8
 66
     7
 43
1.0
 76
     1
 77
     6
 78
     2
 67
     7
 79
     5
170
     0
171
     0
290
     0
174
     0
 93
        1
 44
0.0
173
     0
291
     1
 45
0.0
1001
ACAD
1000
AcDbSavedByObjectVersion
1070
     0
  0
VISUALSTYLE
  5
2B
102
{ACAD_REACTORS
330
2A
102
}
102
{ACAD_XDICTIONARY
360
33C
102
}
330
2A
100
AcDbVisualStyle
  2
Flat
 70
     0
 71
     2
 72
     1
 73
     1
 90
        2
 40
-0.6
 41
30.0
 62
     5
 63
     7
 74
     0
 91
        4
 64
     7
 65
   257
 75
     1
175
     1
 42
1.0
 92
        8
 66
     7
 43
1.0
 76
     1
 77
     6
 78
     2
 67
     7
 79
     5
170
     0
171
     0
290
     0
174
     0
 93
       13
 44
0.0
173
     0
291
     1
 45
0.0
1001
ACAD
1000
AcDbSavedByObjectVersion
1070
     0
  0
VISUALSTYLE
  5
2C
102
{ACAD_REACTORS
330
2A
102
}
102
{ACAD_XDICTIONARY
360
33E
102
}
330
2A
100
AcDbVisualStyle
  2
FlatWithEdges
 70
     1
 71
     2
 72
     1
 73
     1
 90
        2
 40
-0.6
 41
30.0
 62
     5
 63
     7
 74
     1
 91
        4
 64
     7
 65
   257
 75
     1
175
     1
 42
1.0
 92
        0
 66
   257
 43
1.0
 76
     1
 77
     6
 78
     2
 67
     7
 79
     5
170
     0
171
     0
290
     0
174
     0
 93
       13
 44
0.0
173
     0
291
     1
 45
0.0
1001
ACAD
1000
AcDbSavedByObjectVersion
1070
     0
  0
VISUALSTYLE
  5
2D
102
{ACAD_REACTORS
330
2A
102
}
102
{ACAD_XDICTIONARY
360
340
102
}
330
2A
100
AcDbVisualStyle
  2
Gouraud
 70
     2
 71
     2
 72
     2
 73
     1
 90
        2
 40
-0.6
 41
30.0
 62
     5
 63
     7
 74
     0
 91
        4
 64
     7
 65
   257
 75
     1
175
     1
 42
1.0
 92
        0
 66
     7
 43
1.0
 76
     1
 77
     6
 78
     2
 67
     7
 79
     5
170
     0
171
     0
290
     0
174
     0
 93
       13
 44
0.0
173
     0
291
     1
 45
0.0
1001
ACAD
1000
AcDbSavedByObjectVersion
1070
     0
  0
VISUALSTYLE
  5
2E
102
{ACAD_REACTORS
330
2A
102
}
102
{ACAD_XDICTIONARY
360
342
102
}
330
2A
100
AcDbVisualStyle
  2
GouraudWithEdges
 70
     3
 71
     2
 72
     2
 73
     1
 90
        2
 40
-0.6
 41
30.0
 62
     5
 63
     7
 74
     1
 91
        4
 64
     7
 65
   257
 75
     1
175
     1
 42
1.0
 92
        0
 66
   257
 43
1.0
 76
     1
 77
     6
 78
     2
 67
     7
 79
     5
170
     0
171
     0
290
     0
174
     0
 93
       13
 44
0.0
173
     0
291
     1
 45
0.0
1001
ACAD
1000
AcDbSavedByObjectVersion
1070
     0
  0
VISUALSTYLE
  5
38
102
{ACAD_REACTORS
330
2A
102
}
102
{ACAD_XDICTIONARY
360
356
102
}
330
2A
100
AcDbVisualStyle
  2
Linepattern
 70
    14
 71
     2
 72
     2
 73
     0
 90
        0
 40
-0.6
 41
-30.0
 62
     5
 63
     7
 74
     1
 91
        4
 64
     7
 65
   257
 75
     7
175
     7
 42
1.0
 92
        8
 66
     7
 43
1.0
 76
     1
 77
     6
 78
     2
 67
     7
 79
     5
170
     0
171
     0
290
     0
174
     0
 93
        1
 44
0.0
173
     0
291
     1
 45
0.0
1001
ACAD
1000
AcDbSavedByObjectVersion
1070
     0
  0
VISUALSTYLE
  5
33
102
{ACAD_REACTORS
330
2A
102
}
102
{ACAD_XDICTIONARY
360
34C
102
}
330
2A
100
AcDbVisualStyle
  2
Realistic
 70
     8
 71
     2
 72
     2
 73
     0
 90
        0
 40
-0.6
 41
-30.0
 62
     5
 63
     7
 74
     1
 91
        0
 64
     7
 65
   257
 75
     1
175
     1
 42
1.0
 92
        8
 66
     8
 43
1.0
 76
     1
 77
     6
 78
     2
 67
     7
 79
     5
170
     0
171
     0
290
     0
174
     0
 93
       13
 44
0.0
173
     0
291
     0
 45
0.0
1001
ACAD
1000
AcDbSavedByObjectVersion
1070
     0
  0
VISUALSTYLE
  5
37
102
{ACAD_REACTORS
330
2A
102
}
102
{ACAD_XDICTIONARY
360
354
102
}
330
2A
100
AcDbVisualStyle
  2
Thicken
 70
    13
 71
     2
 72
     2
 73
     0
 90
        0
 40
-0.6
 41
-30.0
 62
     5
 63
     7
 74
     1
 91
        4
 64
     7
 65
   257
 75
     1
175
     1
 42
1.0
 92
       12
 66
     7
 43
1.0
 76
     1
 77
     6
 78
     2
 67
     7
 79
     5
170
     0
171
     0
290
     0
174
     0
 93
        1
 44
0.0
173
     0
291
     1
 45
0.0
1001
ACAD
1000
AcDbSavedByObjectVersion
1070
     0
  0
DICTIONARYVAR
  5
33A
102
{ACAD_REACTORS
330
337
102
}
330
337
100
DictionaryVariables
280
     0
  1
2
  0
DICTIONARYVAR
  5
33B
102
{ACAD_REACTORS
330
337
102
}
330
337
100
DictionaryVariables
280
     0
  1
1
  0
DICTIONARY
  5
35E
330
3D
100
AcDbDictionary
280
     1
281
     1
  3
ACAD_XREC_ROUNDTRIP
360
35F
  0
DICTIONARY
  5
35C
330
3C
100
AcDbDictionary
280
     1
281
     1
  3
ACAD_XREC_ROUNDTRIP
360
35D
  0
DICTIONARY
  5
360
330
3E
100
AcDbDictionary
280
     1
281
     1
  3
ACAD_XREC_ROUNDTRIP
360
361
  0
DICTIONARY
  5
344
330
2F
100
AcDbDictionary
280
     1
281
     1
  3
ACAD_XREC_ROUNDTRIP
360
345
  0
DICTIONARY
  5
348
330
31
100
AcDbDictionary
280
     1
281
     1
  3
ACAD_XREC_ROUNDTRIP
360
349
  0
DICTIONARY
  5
346
330
30
100
AcDbDictionary
280
     1
281
     1
  3
ACAD_XREC_ROUNDTRIP
360
347
  0
DICTIONARY
  5
34A
330
32
100
AcDbDictionary
280
     1
281
     1
  3
ACAD_XREC_ROUNDTRIP
360
34B
  0
DICTIONARY
  5
352
330
36
100
AcDbDictionary
280
     1
281
     1
  3
ACAD_XREC_ROUNDTRIP
360
353
  0
DICTIONARY
  5
35A
330
3A
100
AcDbDictionary
280
     1
281
     1
  3
ACAD_XREC_ROUNDTRIP
360
35B
  0
DICTIONARY
  5
34E
330
34
100
AcDbDictionary
280
     1
281
     1
  3
ACAD_XREC_ROUNDTRIP
360
34F
  0
DICTIONARY
  5
350
330
35
100
AcDbDictionary
280
     1
281
     1
  3
ACAD_XREC_ROUNDTRIP
360
351
  0
DICTIONARY
  5
358
330
39
100
AcDbDictionary
280
     1
281
     1
  3
ACAD_XREC_ROUNDTRIP
360
359
  0
DICTIONARY
  5
33C
330
2B
100
AcDbDictionary
280
     1
281
     1
  3
ACAD_XREC_ROUNDTRIP
360
33D
  0
DICTIONARY
  5
33E
330
2C
100
AcDbDictionary
280
     1
281
     1
  3
ACAD_XREC_ROUNDTRIP
360
33F
  0
DICTIONARY
  5
340
330
2D
100
AcDbDictionary
280
     1
281
     1
  3
ACAD_XREC_ROUNDTRIP
360
341
  0
DICTIONARY
  5
342
330
2E
100
AcDbDictionary
280
     1
281
     1
  3
ACAD_XREC_ROUNDTRIP
360
343
  0
DICTIONARY
  5
356
330
38
100
AcDbDictionary
280
     1
281
     1
  3
ACAD_XREC_ROUNDTRIP
360
357
  0
DICTIONARY
  5
34C
330
33
100
AcDbDictionary
280
     1
281
     1
  3
ACAD_XREC_ROUNDTRIP
360
34D
  0
DICTIONARY
  5
354
330
37
100
AcDbDictionary
280
     1
281
     1
  3
ACAD_XREC_ROUNDTRIP
360
355
  0
XRECORD
  5
35F
102
{ACAD_REACTORS
330
35E
102
}
330
35E
100
AcDbXrecord
280
     1
102
MATERIAL
148
0.0
149
0.0
149
0.0
 93
        0
 94
      127
282
     0
 72
     1
 77
     1
171
     1
175
     1
179
     1
273
     0
  0
XRECORD
  5
35D
102
{ACAD_REACTORS
330
35C
102
}
330
35C
100
AcDbXrecord
280
     1
102
MATERIAL
148
0.0
149
0.0
149
0.0
 93
        0
 94
      127
282
     0
 72
     1
 77
     1
171
     1
175
     1
179
     1
273
     0
  0
XRECORD
  5
361
102
{ACAD_REACTORS
330
360
102
}
330
360
100
AcDbXrecord
280
     1
102
MATERIAL
148
0.0
149
0.0
149
0.0
 93
        0
 94
      127
282
     0
 72
     1
 77
     1
171
     1
175
     1
179
     1
273
     0
  0
XRECORD
  5
345
102
{ACAD_REACTORS
330
344
102
}
330
344
100
AcDbXrecord
280
     1
102
RTVSPropertyOp0
 70
     1
102
RTVSPropertyOp1
 70
     1
102
RTVSPropertyOp2
 70
     1
102
RTVSPropertyOp3
 70
     1
102
RTVSPropertyOp4
 70
     1
102
RTVSPropertyOp5
 70
     1
102
RTVSPropertyOp6
 70
     1
102
RTVSPropertyOp7
 70
     1
102
RTVSPropertyOp8
 70
     1
102
RTVSPropertyOp9
 70
     1
102
RTVSPropertyOp10
 70
     1
102
RTVSPropertyOp11
 70
     1
102
RTVSPropertyOp12
 70
     1
102
RTVSPropertyOp13
 70
     1
102
RTVSPropertyOp14
 70
     1
102
RTVSPropertyOp15
 70
     1
102
RTVSPropertyOp16
 70
     1
102
RTVSPropertyOp17
 70
     1
102
RTVSPropertyOp18
 70
     1
102
RTVSPropertyOp19
 70
     1
102
RTVSPropertyOp20
 70
     1
102
RTVSPropertyOp21
 70
     1
102
RTVSPropertyOp22
 70
     1
102
RTVSPropertyOp23
 70
     1
102
RTVSPropertyOp24
 70
     1
102
RTVSPropertyOp25
 70
     1
102
RTVSPropertyOp26
 70
     1
102
RTVSPropertyOp27
 70
     1
102
RTVSPropertyOp28
 70
     1
102
RTVSPropertyOp29
 70
     1
102
RTVSPropertyOp30
 70
     1
102
RTVSPropertyOp31
 70
     1
102
RTVSPropertyOp32
 70
     1
  0
XRECORD
  5
349
102
{ACAD_REACTORS
330
348
102
}
330
348
100
AcDbXrecord
280
     1
102
RTVSPropertyOp0
 70
     1
102
RTVSPropertyOp1
 70
     1
102
RTVSPropertyOp2
 70
     1
102
RTVSPropertyOp3
 70
     1
102
RTVSPropertyOp4
 70
     1
102
RTVSPropertyOp5
 70
     1
102
RTVSPropertyOp6
 70
     1
102
RTVSPropertyOp7
 70
     1
102
RTVSPropertyOp8
 70
     1
102
RTVSPropertyOp9
 70
     1
102
RTVSPropertyOp10
 70
     1
102
RTVSPropertyOp11
 70
     1
102
RTVSPropertyOp12
 70
     1
102
RTVSPropertyOp13
 70
     1
102
RTVSPropertyOp14
 70
     1
102
RTVSPropertyOp15
 70
     1
102
RTVSPropertyOp16
 70
     1
102
RTVSPropertyOp17
 70
     1
102
RTVSPropertyOp18
 70
     1
102
RTVSPropertyOp19
 70
     1
102
RTVSPropertyOp20
 70
     1
102
RTVSPropertyOp21
 70
     1
102
RTVSPropertyOp22
 70
     1
102
RTVSPropertyOp23
 70
     1
102
RTVSPropertyOp24
 70
     1
102
RTVSPropertyOp25
 70
     1
102
RTVSPropertyOp26
 70
     1
102
RTVSPropertyOp27
 70
     1
102
RTVSPropertyOp28
 70
     1
102
RTVSPropertyOp29
 70
     1
102
RTVSPropertyOp30
 70
     1
102
RTVSPropertyOp31
 70
     1
102
RTVSPropertyOp32
 70
     1
  0
XRECORD
  5
347
102
{ACAD_REACTORS
330
346
102
}
330
346
100
AcDbXrecord
280
     1
102
RTVSPropertyOp0
 70
     1
102
RTVSPropertyOp1
 70
     1
102
RTVSPropertyOp2
 70
     1
102
RTVSPropertyOp3
 70
     1
102
RTVSPropertyOp4
 70
     1
102
RTVSPropertyOp5
 70
     1
102
RTVSPropertyOp6
 70
     1
102
RTVSPropertyOp7
 70
     1
102
RTVSPropertyOp8
 70
     1
102
RTVSPropertyOp9
 70
     1
102
RTVSPropertyOp10
 70
     1
102
RTVSPropertyOp11
 70
     1
102
RTVSPropertyOp12
 70
     1
102
RTVSPropertyOp13
 70
     1
102
RTVSPropertyOp14
 70
     1
102
RTVSPropertyOp15
 70
     1
102
RTVSPropertyOp16
 70
     1
102
RTVSPropertyOp17
 70
     1
102
RTVSPropertyOp18
 70
     1
102
RTVSPropertyOp19
 70
     1
102
RTVSPropertyOp20
 70
     1
102
RTVSPropertyOp21
 70
     1
102
RTVSPropertyOp22
 70
     1
102
RTVSPropertyOp23
 70
     1
102
RTVSPropertyOp24
 70
     1
102
RTVSPropertyOp25
 70
     1
102
RTVSPropertyOp26
 70
     1
102
RTVSPropertyOp27
 70
     1
102
RTVSPropertyOp28
 70
     1
102
RTVSPropertyOp29
 70
     1
102
RTVSPropertyOp30
 70
     1
102
RTVSPropertyOp31
 70
     1
102
RTVSPropertyOp32
 70
     1
  0
XRECORD
  5
34B
102
{ACAD_REACTORS
330
34A
102
}
330
34A
100
AcDbXrecord
280
     1
102
RTVSPropertyOp0
 70
     1
102
RTVSPropertyOp1
 70
     1
102
RTVSPropertyOp2
 70
     1
102
RTVSPropertyOp3
 70
     1
102
RTVSPropertyOp4
 70
     1
102
RTVSPropertyOp5
 70
     1
102
RTVSPropertyOp6
 70
     1
102
RTVSPropertyOp7
 70
     1
102
RTVSPropertyOp8
 70
     1
102
RTVSPropertyOp9
 70
     1
102
RTVSPropertyOp10
 70
     1
102
RTVSPropertyOp11
 70
     1
102
RTVSPropertyOp12
 70
     1
102
RTVSPropertyOp13
 70
     1
102
RTVSPropertyOp14
 70
     1
102
RTVSPropertyOp15
 70
     1
102
RTVSPropertyOp16
 70
     1
102
RTVSPropertyOp17
 70
     1
102
RTVSPropertyOp18
 70
     1
102
RTVSPropertyOp19
 70
     1
102
RTVSPropertyOp20
 70
     1
102
RTVSPropertyOp21
 70
     1
102
RTVSPropertyOp22
 70
     1
102
RTVSPropertyOp23
 70
     1
102
RTVSPropertyOp24
 70
     1
102
RTVSPropertyOp25
 70
     1
102
RTVSPropertyOp26
 70
     1
102
RTVSPropertyOp27
 70
     1
102
RTVSPropertyOp28
 70
     1
102
RTVSPropertyOp29
 70
     1
102
RTVSPropertyOp30
 70
     1
102
RTVSPropertyOp31
 70
     1
102
RTVSPropertyOp32
 70
     1
  0
XRECORD
  5
353
102
{ACAD_REACTORS
330
352
102
}
330
352
100
AcDbXrecord
280
     1
102
RTVSPropertyOp0
 70
     1
102
RTVSPropertyOp1
 70
     1
102
RTVSPropertyOp2
 70
     1
102
RTVSPropertyOp3
 70
     1
102
RTVSPropertyOp4
 70
     1
102
RTVSPropertyOp5
 70
     1
102
RTVSPropertyOp6
 70
     1
102
RTVSPropertyOp7
 70
     1
102
RTVSPropertyOp8
 70
     1
102
RTVSPropertyOp9
 70
     1
102
RTVSPropertyOp10
 70
     1
102
RTVSPropertyOp11
 70
     1
102
RTVSPropertyOp12
 70
     1
102
RTVSPropertyOp13
 70
     1
102
RTVSPropertyOp14
 70
     1
102
RTVSPropertyOp15
 70
     1
102
RTVSPropertyOp16
 70
     1
102
RTVSPropertyOp17
 70
     1
102
RTVSPropertyOp18
 70
     1
102
RTVSPropertyOp19
 70
     1
102
RTVSPropertyOp20
 70
     1
102
RTVSPropertyOp21
 70
     1
102
RTVSPropertyOp22
 70
     1
102
RTVSPropertyOp23
 70
     1
102
RTVSPropertyOp24
 70
     1
102
RTVSPropertyOp25
 70
     1
102
RTVSPropertyOp26
 70
     1
102
RTVSPropertyOp27
 70
     1
102
RTVSPropertyOp28
 70
     1
102
RTVSPropertyOp29
 70
     1
102
RTVSPropertyOp30
 70
     1
102
RTVSPropertyOp31
 70
     1
102
RTVSPropertyOp32
 70
     1
  0
XRECORD
  5
35B
102
{ACAD_REACTORS
330
35A
102
}
330
35A
100
AcDbXrecord
280
     1
102
RTVSPropertyOp0
 70
     1
102
RTVSPropertyOp1
 70
     1
102
RTVSPropertyOp2
 70
     1
102
RTVSPropertyOp3
 70
     1
102
RTVSPropertyOp4
 70
     1
102
RTVSPropertyOp5
 70
     1
102
RTVSPropertyOp6
 70
     1
102
RTVSPropertyOp7
 70
     1
102
RTVSPropertyOp8
 70
     1
102
RTVSPropertyOp9
 70
     1
102
RTVSPropertyOp10
 70
     1
102
RTVSPropertyOp11
 70
     1
102
RTVSPropertyOp12
 70
     1
102
RTVSPropertyOp13
 70
     1
102
RTVSPropertyOp14
 70
     1
102
RTVSPropertyOp15
 70
     1
102
RTVSPropertyOp16
 70
     1
102
RTVSPropertyOp17
 70
     1
102
RTVSPropertyOp18
 70
     1
102
RTVSPropertyOp19
 70
     1
102
RTVSPropertyOp20
 70
     1
102
RTVSPropertyOp21
 70
     1
102
RTVSPropertyOp22
 70
     1
102
RTVSPropertyOp23
 70
     1
102
RTVSPropertyOp24
 70
     1
102
RTVSPropertyOp25
 70
     1
102
RTVSPropertyOp26
 70
     1
102
RTVSPropertyOp27
 70
     1
102
RTVSPropertyOp28
 70
     1
102
RTVSPropertyOp29
 70
     1
102
RTVSPropertyOp30
 70
     1
102
RTVSPropertyOp31
 70
     1
102
RTVSPropertyOp32
 70
     1
  0
XRECORD
  5
34F
102
{ACAD_REACTORS
330
34E
102
}
330
34E
100
AcDbXrecord
280
     1
102
RTVSPropertyOp0
 70
     1
102
RTVSPropertyOp1
 70
     1
102
RTVSPropertyOp2
 70
     1
102
RTVSPropertyOp3
 70
     1
102
RTVSPropertyOp4
 70
     1
102
RTVSPropertyOp5
 70
     1
102
RTVSPropertyOp6
 70
     1
102
RTVSPropertyOp7
 70
     1
102
RTVSPropertyOp8
 70
     1
102
RTVSPropertyOp9
 70
     1
102
RTVSPropertyOp10
 70
     1
102
RTVSPropertyOp11
 70
     1
102
RTVSPropertyOp12
 70
     1
102
RTVSPropertyOp13
 70
     1
102
RTVSPropertyOp14
 70
     1
102
RTVSPropertyOp15
 70
     1
102
RTVSPropertyOp16
 70
     1
102
RTVSPropertyOp17
 70
     1
102
RTVSPropertyOp18
 70
     1
102
RTVSPropertyOp19
 70
     1
102
RTVSPropertyOp20
 70
     1
102
RTVSPropertyOp21
 70
     1
102
RTVSPropertyOp22
 70
     1
102
RTVSPropertyOp23
 70
     1
102
RTVSPropertyOp24
 70
     1
102
RTVSPropertyOp25
 70
     1
102
RTVSPropertyOp26
 70
     1
102
RTVSPropertyOp27
 70
     1
102
RTVSPropertyOp28
 70
     1
102
RTVSPropertyOp29
 70
     1
102
RTVSPropertyOp30
 70
     1
102
RTVSPropertyOp31
 70
     1
102
RTVSPropertyOp32
 70
     1
  0
XRECORD
  5
351
102
{ACAD_REACTORS
330
350
102
}
330
350
100
AcDbXrecord
280
     1
102
RTVSPropertyOp0
 70
     1
102
RTVSPropertyOp1
 70
     1
102
RTVSPropertyOp2
 70
     1
102
RTVSPropertyOp3
 70
     1
102
RTVSPropertyOp4
 70
     1
102
RTVSPropertyOp5
 70
     1
102
RTVSPropertyOp6
 70
     1
102
RTVSPropertyOp7
 70
     1
102
RTVSPropertyOp8
 70
     1
102
RTVSPropertyOp9
 70
     1
102
RTVSPropertyOp10
 70
     1
102
RTVSPropertyOp11
 70
     1
102
RTVSPropertyOp12
 70
     1
102
RTVSPropertyOp13
 70
     1
102
RTVSPropertyOp14
 70
     1
102
RTVSPropertyOp15
 70
     1
102
RTVSPropertyOp16
 70
     1
102
RTVSPropertyOp17
 70
     1
102
RTVSPropertyOp18
 70
     1
102
RTVSPropertyOp19
 70
     1
102
RTVSPropertyOp20
 70
     1
102
RTVSPropertyOp21
 70
     1
102
RTVSPropertyOp22
 70
     1
102
RTVSPropertyOp23
 70
     1
102
RTVSPropertyOp24
 70
     1
102
RTVSPropertyOp25
 70
     1
102
RTVSPropertyOp26
 70
     1
102
RTVSPropertyOp27
 70
     1
102
RTVSPropertyOp28
 70
     1
102
RTVSPropertyOp29
 70
     1
102
RTVSPropertyOp30
 70
     1
102
RTVSPropertyOp31
 70
     1
102
RTVSPropertyOp32
 70
     1
  0
XRECORD
  5
359
102
{ACAD_REACTORS
330
358
102
}
330
358
100
AcDbXrecord
280
     1
102
RTVSPropertyOp0
 70
     1
102
RTVSPropertyOp1
 70
     1
102
RTVSPropertyOp2
 70
     1
102
RTVSPropertyOp3
 70
     1
102
RTVSPropertyOp4
 70
     1
102
RTVSPropertyOp5
 70
     1
102
RTVSPropertyOp6
 70
     1
102
RTVSPropertyOp7
 70
     1
102
RTVSPropertyOp8
 70
     1
102
RTVSPropertyOp9
 70
     1
102
RTVSPropertyOp10
 70
     1
102
RTVSPropertyOp11
 70
     1
102
RTVSPropertyOp12
 70
     1
102
RTVSPropertyOp13
 70
     1
102
RTVSPropertyOp14
 70
     1
102
RTVSPropertyOp15
 70
     1
102
RTVSPropertyOp16
 70
     1
102
RTVSPropertyOp17
 70
     1
102
RTVSPropertyOp18
 70
     1
102
RTVSPropertyOp19
 70
     1
102
RTVSPropertyOp20
 70
     1
102
RTVSPropertyOp21
 70
     1
102
RTVSPropertyOp22
 70
     1
102
RTVSPropertyOp23
 70
     1
102
RTVSPropertyOp24
 70
     1
102
RTVSPropertyOp25
 70
     1
102
RTVSPropertyOp26
 70
     1
102
RTVSPropertyOp27
 70
     1
102
RTVSPropertyOp28
 70
     1
102
RTVSPropertyOp29
 70
     1
102
RTVSPropertyOp30
 70
     1
102
RTVSPropertyOp31
 70
     1
102
RTVSPropertyOp32
 70
     1
  0
XRECORD
  5
33D
102
{ACAD_REACTORS
330
33C
102
}
330
33C
100
AcDbXrecord
280
     1
102
RTVSPropertyOp0
 70
     1
102
RTVSPropertyOp1
 70
     1
102
RTVSPropertyOp2
 70
     1
102
RTVSPropertyOp3
 70
     1
102
RTVSPropertyOp4
 70
     1
102
RTVSPropertyOp5
 70
     1
102
RTVSPropertyOp6
 70
     1
102
RTVSPropertyOp7
 70
     1
102
RTVSPropertyOp8
 70
     1
102
RTVSPropertyOp9
 70
     1
102
RTVSPropertyOp10
 70
     1
102
RTVSPropertyOp11
 70
     1
102
RTVSPropertyOp12
 70
     1
102
RTVSPropertyOp13
 70
     1
102
RTVSPropertyOp14
 70
     1
102
RTVSPropertyOp15
 70
     1
102
RTVSPropertyOp16
 70
     1
102
RTVSPropertyOp17
 70
     1
102
RTVSPropertyOp18
 70
     1
102
RTVSPropertyOp19
 70
     1
102
RTVSPropertyOp20
 70
     1
102
RTVSPropertyOp21
 70
     1
102
RTVSPropertyOp22
 70
     1
102
RTVSPropertyOp23
 70
     1
102
RTVSPropertyOp24
 70
     1
102
RTVSPropertyOp25
 70
     1
102
RTVSPropertyOp26
 70
     1
102
RTVSPropertyOp27
 70
     1
102
RTVSPropertyOp28
 70
     1
102
RTVSPropertyOp29
 70
     1
102
RTVSPropertyOp30
 70
     1
102
RTVSPropertyOp31
 70
     1
102
RTVSPropertyOp32
 70
     1
  0
XRECORD
  5
33F
102
{ACAD_REACTORS
330
33E
102
}
330
33E
100
AcDbXrecord
280
     1
102
RTVSPropertyOp0
 70
     1
102
RTVSPropertyOp1
 70
     1
102
RTVSPropertyOp2
 70
     1
102
RTVSPropertyOp3
 70
     1
102
RTVSPropertyOp4
 70
     1
102
RTVSPropertyOp5
 70
     1
102
RTVSPropertyOp6
 70
     1
102
RTVSPropertyOp7
 70
     1
102
RTVSPropertyOp8
 70
     1
102
RTVSPropertyOp9
 70
     1
102
RTVSPropertyOp10
 70
     1
102
RTVSPropertyOp11
 70
     1
102
RTVSPropertyOp12
 70
     1
102
RTVSPropertyOp13
 70
     1
102
RTVSPropertyOp14
 70
     1
102
RTVSPropertyOp15
 70
     1
102
RTVSPropertyOp16
 70
     1
102
RTVSPropertyOp17
 70
     1
102
RTVSPropertyOp18
 70
     1
102
RTVSPropertyOp19
 70
     1
102
RTVSPropertyOp20
 70
     1
102
RTVSPropertyOp21
 70
     1
102
RTVSPropertyOp22
 70
     1
102
RTVSPropertyOp23
 70
     1
102
RTVSPropertyOp24
 70
     1
102
RTVSPropertyOp25
 70
     1
102
RTVSPropertyOp26
 70
     1
102
RTVSPropertyOp27
 70
     1
102
RTVSPropertyOp28
 70
     1
102
RTVSPropertyOp29
 70
     1
102
RTVSPropertyOp30
 70
     1
102
RTVSPropertyOp31
 70
     1
102
RTVSPropertyOp32
 70
     1
  0
XRECORD
  5
341
102
{ACAD_REACTORS
330
340
102
}
330
340
100
AcDbXrecord
280
     1
102
RTVSPropertyOp0
 70
     1
102
RTVSPropertyOp1
 70
     1
102
RTVSPropertyOp2
 70
     1
102
RTVSPropertyOp3
 70
     1
102
RTVSPropertyOp4
 70
     1
102
RTVSPropertyOp5
 70
     1
102
RTVSPropertyOp6
 70
     1
102
RTVSPropertyOp7
 70
     1
102
RTVSPropertyOp8
 70
     1
102
RTVSPropertyOp9
 70
     1
102
RTVSPropertyOp10
 70
     1
102
RTVSPropertyOp11
 70
     1
102
RTVSPropertyOp12
 70
     1
102
RTVSPropertyOp13
 70
     1
102
RTVSPropertyOp14
 70
     1
102
RTVSPropertyOp15
 70
     1
102
RTVSPropertyOp16
 70
     1
102
RTVSPropertyOp17
 70
     1
102
RTVSPropertyOp18
 70
     1
102
RTVSPropertyOp19
 70
     1
102
RTVSPropertyOp20
 70
     1
102
RTVSPropertyOp21
 70
     1
102
RTVSPropertyOp22
 70
     1
102
RTVSPropertyOp23
 70
     1
102
RTVSPropertyOp24
 70
     1
102
RTVSPropertyOp25
 70
     1
102
RTVSPropertyOp26
 70
     1
102
RTVSPropertyOp27
 70
     1
102
RTVSPropertyOp28
 70
     1
102
RTVSPropertyOp29
 70
     1
102
RTVSPropertyOp30
 70
     1
102
RTVSPropertyOp31
 70
     1
102
RTVSPropertyOp32
 70
     1
  0
XRECORD
  5
343
102
{ACAD_REACTORS
330
342
102
}
330
342
100
AcDbXrecord
280
     1
102
RTVSPropertyOp0
 70
     1
102
RTVSPropertyOp1
 70
     1
102
RTVSPropertyOp2
 70
     1
102
RTVSPropertyOp3
 70
     1
102
RTVSPropertyOp4
 70
     1
102
RTVSPropertyOp5
 70
     1
102
RTVSPropertyOp6
 70
     1
102
RTVSPropertyOp7
 70
     1
102
RTVSPropertyOp8
 70
     1
102
RTVSPropertyOp9
 70
     1
102
RTVSPropertyOp10
 70
     1
102
RTVSPropertyOp11
 70
     1
102
RTVSPropertyOp12
 70
     1
102
RTVSPropertyOp13
 70
     1
102
RTVSPropertyOp14
 70
     1
102
RTVSPropertyOp15
 70
     1
102
RTVSPropertyOp16
 70
     1
102
RTVSPropertyOp17
 70
     1
102
RTVSPropertyOp18
 70
     1
102
RTVSPropertyOp19
 70
     1
102
RTVSPropertyOp20
 70
     1
102
RTVSPropertyOp21
 70
     1
102
RTVSPropertyOp22
 70
     1
102
RTVSPropertyOp23
 70
     1
102
RTVSPropertyOp24
 70
     1
102
RTVSPropertyOp25
 70
     1
102
RTVSPropertyOp26
 70
     1
102
RTVSPropertyOp27
 70
     1
102
RTVSPropertyOp28
 70
     1
102
RTVSPropertyOp29
 70
     1
102
RTVSPropertyOp30
 70
     1
102
RTVSPropertyOp31
 70
     1
102
RTVSPropertyOp32
 70
     1
  0
XRECORD
  5
357
102
{ACAD_REACTORS
330
356
102
}
330
356
100
AcDbXrecord
280
     1
102
RTVSPropertyOp0
 70
     1
102
RTVSPropertyOp1
 70
     1
102
RTVSPropertyOp2
 70
     1
102
RTVSPropertyOp3
 70
     1
102
RTVSPropertyOp4
 70
     1
102
RTVSPropertyOp5
 70
     1
102
RTVSPropertyOp6
 70
     1
102
RTVSPropertyOp7
 70
     1
102
RTVSPropertyOp8
 70
     1
102
RTVSPropertyOp9
 70
     1
102
RTVSPropertyOp10
 70
     1
102
RTVSPropertyOp11
 70
     1
102
RTVSPropertyOp12
 70
     1
102
RTVSPropertyOp13
 70
     1
102
RTVSPropertyOp14
 70
     1
102
RTVSPropertyOp15
 70
     1
102
RTVSPropertyOp16
 70
     1
102
RTVSPropertyOp17
 70
     1
102
RTVSPropertyOp18
 70
     1
102
RTVSPropertyOp19
 70
     1
102
RTVSPropertyOp20
 70
     1
102
RTVSPropertyOp21
 70
     1
102
RTVSPropertyOp22
 70
     1
102
RTVSPropertyOp23
 70
     1
102
RTVSPropertyOp24
 70
     1
102
RTVSPropertyOp25
 70
     1
102
RTVSPropertyOp26
 70
     1
102
RTVSPropertyOp27
 70
     1
102
RTVSPropertyOp28
 70
     1
102
RTVSPropertyOp29
 70
     1
102
RTVSPropertyOp30
 70
     1
102
RTVSPropertyOp31
 70
     1
102
RTVSPropertyOp32
 70
     1
  0
XRECORD
  5
34D
102
{ACAD_REACTORS
330
34C
102
}
330
34C
100
AcDbXrecord
280
     1
102
RTVSPropertyOp0
 70
     1
102
RTVSPropertyOp1
 70
     1
102
RTVSPropertyOp2
 70
     1
102
RTVSPropertyOp3
 70
     1
102
RTVSPropertyOp4
 70
     1
102
RTVSPropertyOp5
 70
     1
102
RTVSPropertyOp6
 70
     1
102
RTVSPropertyOp7
 70
     1
102
RTVSPropertyOp8
 70
     1
102
RTVSPropertyOp9
 70
     1
102
RTVSPropertyOp10
 70
     1
102
RTVSPropertyOp11
 70
     1
102
RTVSPropertyOp12
 70
     1
102
RTVSPropertyOp13
 70
     1
102
RTVSPropertyOp14
 70
     1
102
RTVSPropertyOp15
 70
     1
102
RTVSPropertyOp16
 70
     1
102
RTVSPropertyOp17
 70
     1
102
RTVSPropertyOp18
 70
     1
102
RTVSPropertyOp19
 70
     1
102
RTVSPropertyOp20
 70
     1
102
RTVSPropertyOp21
 70
     1
102
RTVSPropertyOp22
 70
     1
102
RTVSPropertyOp23
 70
     1
102
RTVSPropertyOp24
 70
     1
102
RTVSPropertyOp25
 70
     1
102
RTVSPropertyOp26
 70
     1
102
RTVSPropertyOp27
 70
     1
102
RTVSPropertyOp28
 70
     1
102
RTVSPropertyOp29
 70
     1
102
RTVSPropertyOp30
 70
     1
102
RTVSPropertyOp31
 70
     1
102
RTVSPropertyOp32
 70
     1
  0
XRECORD
  5
355
102
{ACAD_REACTORS
330
354
102
}
330
354
100
AcDbXrecord
280
     1
102
RTVSPropertyOp0
 70
     1
102
RTVSPropertyOp1
 70
     1
102
RTVSPropertyOp2
 70
     1
102
RTVSPropertyOp3
 70
     1
102
RTVSPropertyOp4
 70
     1
102
RTVSPropertyOp5
 70
     1
102
RTVSPropertyOp6
 70
     1
102
RTVSPropertyOp7
 70
     1
102
RTVSPropertyOp8
 70
     1
102
RTVSPropertyOp9
 70
     1
102
RTVSPropertyOp10
 70
     1
102
RTVSPropertyOp11
 70
     1
102
RTVSPropertyOp12
 70
     1
102
RTVSPropertyOp13
 70
     1
102
RTVSPropertyOp14
 70
     1
102
RTVSPropertyOp15
 70
     1
102
RTVSPropertyOp16
 70
     1
102
RTVSPropertyOp17
 70
     1
102
RTVSPropertyOp18
 70
     1
102
RTVSPropertyOp19
 70
     1
102
RTVSPropertyOp20
 70
     1
102
RTVSPropertyOp21
 70
     1
102
RTVSPropertyOp22
 70
     1
102
RTVSPropertyOp23
 70
     1
102
RTVSPropertyOp24
 70
     1
102
RTVSPropertyOp25
 70
     1
102
RTVSPropertyOp26
 70
     1
102
RTVSPropertyOp27
 70
     1
102
RTVSPropertyOp28
 70
     1
102
RTVSPropertyOp29
 70
     1
102
RTVSPropertyOp30
 70
     1
102
RTVSPropertyOp31
 70
     1
102
RTVSPropertyOp32
 70
     1
  0
ENDSEC
  0
EOF
