  0
SECTION
  2
HEADER
  9
$ACADVER
  1
AC1015
  9
$ACADMAINTVER
 70
     6
  9
$DWGCODEPAGE
  3
ANSI_1252
  9
$INSBASE
 10
0.0
 20
0.0
 30
0.0
  9
$EXTMIN
 10
-74.90000000000055
 20
764.7000000000025
 30
0.0
  9
$EXTMAX
 10
222.0999999999976
 20
974.7000000000025
 30
0.0
  9
$LIMMIN
 10
0.0
 20
0.0
  9
$LIMMAX
 10
12.0
 20
9.0
  9
$ORTHOMODE
 70
     0
  9
$REGENMODE
 70
     1
  9
$FILLMODE
 70
     1
  9
$QTEXTMODE
 70
     0
  9
$MIRRTEXT
 70
     1
  9
$LTSCALE
 40
1.0
  9
$ATTMODE
 70
     1
  9
$TEXTSIZE
 40
0.2
  9
$TRACEWID
 40
0.05
  9
$TEXTSTYLE
  7
Standard
  9
$CLAYER
  8
0
  9
$CELTYPE
  6
ByLayer
  9
$CECOLOR
 62
   256
  9
$CELTSCALE
 40
1.0
  9
$DISPSILH
 70
     0
  9
$DIMSCALE
 40
1.0
  9
$DIMASZ
 40
0.18
  9
$DIMEXO
 40
0.0625
  9
$DIMDLI
 40
0.38
  9
$DIMRND
 40
0.0
  9
$DIMDLE
 40
0.0
  9
$DIMEXE
 40
0.18
  9
$DIMTP
 40
0.0
  9
$DIMTM
 40
0.0
  9
$DIMTXT
 40
0.18
  9
$DIMCEN
 40
0.09
  9
$DIMTSZ
 40
0.0
  9
$DIMTOL
 70
     0
  9
$DIMLIM
 70
     0
  9
$DIMTIH
 70
     1
  9
$DIMTOH
 70
     1
  9
$DIMSE1
 70
     0
  9
$DIMSE2
 70
     0
  9
$DIMTAD
 70
     0
  9
$DIMZIN
 70
     0
  9
$DIMBLK
  1

  9
$DIMASO
 70
     1
  9
$DIMSHO
 70
     1
  9
$DIMPOST
  1

  9
$DIMAPOST
  1

  9
$DIMALT
 70
     0
  9
$DIMALTD
 70
     2
  9
$DIMALTF
 40
25.4
  9
$DIMLFAC
 40
1.0
  9
$DIMTOFL
 70
     0
  9
$DIMTVP
 40
0.0
  9
$DIMTIX
 70
     0
  9
$DIMSOXD
 70
     0
  9
$DIMSAH
 70
     0
  9
$DIMBLK1
  1

  9
$DIMBLK2
  1

  9
$DIMSTYLE
  2
Standard
  9
$DIMCLRD
 70
     0
  9
$DIMCLRE
 70
     0
  9
$DIMCLRT
 70
     0
  9
$DIMTFAC
 40
1.0
  9
$DIMGAP
 40
0.09
  9
$DIMJUST
 70
     0
  9
$DIMSD1
 70
     0
  9
$DIMSD2
 70
     0
  9
$DIMTOLJ
 70
     1
  9
$DIMTZIN
 70
     0
  9
$DIMALTZ
 70
     0
  9
$DIMALTTZ
 70
     0
  9
$DIMUPT
 70
     0
  9
$DIMDEC
 70
     4
  9
$DIMTDEC
 70
     4
  9
$DIMALTU
 70
     2
  9
$DIMALTTD
 70
     2
  9
$DIMTXSTY
  7
Standard
  9
$DIMAUNIT
 70
     0
  9
$DIMADEC
 70
     0
  9
$DIMALTRND
 40
0.0
  9
$DIMAZIN
 70
     0
  9
$DIMDSEP
 70
    46
  9
$DIMATFIT
 70
     3
  9
$DIMFRAC
 70
     0
  9
$DIMLDRBLK
  1

  9
$DIMLUNIT
 70
     2
  9
$DIMLWD
 70
    -2
  9
$DIMLWE
 70
    -2
  9
$DIMTMOVE
 70
     0
  9
$LUNITS
 70
     2
  9
$LUPREC
 70
     4
  9
$SKETCHINC
 40
0.1
  9
$FILLETRAD
 40
0.5
  9
$AUNITS
 70
     0
  9
$AUPREC
 70
     0
  9
$MENU
  1
.
  9
$ELEVATION
 40
0.0
  9
$PELEVATION
 40
0.0
  9
$THICKNESS
 40
0.0
  9
$LIMCHECK
 70
     0
  9
$CHAMFERA
 40
0.5
  9
$CHAMFERB
 40
0.5
  9
$CHAMFERC
 40
1.0
  9
$CHAMFERD
 40
0.0
  9
$SKPOLY
 70
     0
  9
$TDCREATE
 40
2457052.602405799
  9
$TDUCREATE
 40
2457052.560739132
  9
$TDUPDATE
 40
2457052.602407431
  9
$TDUUPDATE
 40
2457052.560740764
  9
$TDINDWG
 40
0.0000000116
  9
$TDUSRTIMER
 40
0.0000000116
  9
$USRTIMER
 70
     1
  9
$ANGBASE
 50
0.0
  9
$ANGDIR
 70
     0
  9
$PDMODE
 70
     0
  9
$PDSIZE
 40
0.0
  9
$PLINEWID
 40
0.0
  9
$SPLFRAME
 70
     0
  9
$SPLINETYPE
 70
     6
  9
$SPLINESEGS
 70
     8
  9
$HANDSEED
  5
3AF
  9
$SURFTAB1
 70
     6
  9
$SURFTAB2
 70
     6
  9
$SURFTYPE
 70
     6
  9
$SURFU
 70
     6
  9
$SURFV
 70
     6
  9
$UCSBASE
  2

  9
$UCSNAME
  2

  9
$UCSORG
 10
0.0
 20
0.0
 30
0.0
  9
$UCSXDIR
 10
1.0
 20
0.0
 30
0.0
  9
$UCSYDIR
 10
0.0
 20
1.0
 30
0.0
  9
$UCSORTHOREF
  2

  9
$UCSORTHOVIEW
 70
     0
  9
$UCSORGTOP
 10
0.0
 20
0.0
 30
0.0
  9
$UCSORGBOTTOM
 10
0.0
 20
0.0
 30
0.0
  9
$UCSORGLEFT
 10
0.0
 20
0.0
 30
0.0
  9
$UCSORGRIGHT
 10
0.0
 20
0.0
 30
0.0
  9
$UCSORGFRONT
 10
0.0
 20
0.0
 30
0.0
  9
$UCSORGBACK
 10
0.0
 20
0.0
 30
0.0
  9
$PUCSBASE
  2

  9
$PUCSNAME
  2

  9
$PUCSORG
 10
0.0
 20
0.0
 30
0.0
  9
$PUCSXDIR
 10
1.0
 20
0.0
 30
0.0
  9
$PUCSYDIR
 10
0.0
 20
1.0
 30
0.0
  9
$PUCSORTHOREF
  2

  9
$PUCSORTHOVIEW
 70
     0
  9
$PUCSORGTOP
 10
0.0
 20
0.0
 30
0.0
  9
$PUCSORGBOTTOM
 10
0.0
 20
0.0
 30
0.0
  9
$PUCSORGLEFT
 10
0.0
 20
0.0
 30
0.0
  9
$PUCSORGRIGHT
 10
0.0
 20
0.0
 30
0.0
  9
$PUCSORGFRONT
 10
0.0
 20
0.0
 30
0.0
  9
$PUCSORGBACK
 10
0.0
 20
0.0
 30
0.0
  9
$USERI1
 70
     0
  9
$USERI2
 70
     0
  9
$USERI3
 70
     0
  9
$USERI4
 70
     0
  9
$USERI5
 70
     0
  9
$USERR1
 40
18.1
  9
$USERR2
 40
0.0
  9
$USERR3
 40
0.0
  9
$USERR4
 40
0.0
  9
$USERR5
 40
0.0
  9
$WORLDVIEW
 70
     1
  9
$SHADEDGE
 70
     3
  9
$SHADEDIF
 70
    70
  9
$TILEMODE
 70
     1
  9
$MAXACTVP
 70
    64
  9
$PINSBASE
 10
0.0
 20
0.0
 30
0.0
  9
$PLIMCHECK
 70
     0
  9
$PEXTMIN
 10
1.00000000000000E+20
 20
1.00000000000000E+20
 30
1.00000000000000E+20
  9
$PEXTMAX
 10
-1.00000000000000E+20
 20
-1.00000000000000E+20
 30
-1.00000000000000E+20
  9
$PLIMMIN
 10
0.0
 20
0.0
  9
$PLIMMAX
 10
12.0
 20
9.0
  9
$UNITMODE
 70
     0
  9
$VISRETAIN
 70
     1
  9
$PLINEGEN
 70
     0
  9
$PSLTSCALE
 70
     1
  9
$TREEDEPTH
 70
  3020
  9
$CMLSTYLE
  2
Standard
  9
$CMLJUST
 70
     0
  9
$CMLSCALE
 40
1.0
  9
$PROXYGRAPHICS
 70
     1
  9
$MEASUREMENT
 70
     1
  9
$CELWEIGHT
370
    -1
  9
$ENDCAPS
280
     0
  9
$JOINSTYLE
280
     0
  9
$LWDISPLAY
290
     0
  9
$INSUNITS
 70
     4
  9
$HYPERLINKBASE
  1

  9
$STYLESHEET
  1

  9
$XEDIT
290
     1
  9
$CEPSNTYPE
380
     0
  9
$PSTYLEMODE
290
     1
  9
$FINGERPRINTGUID
  2
{61AB7E0B-56FB-498B-90F4-CBA347857C58}
  9
$VERSIONGUID
  2
{FAEB1C32-E019-11D5-929B-00C0DF256EC4}
  9
$EXTNAMES
290
     1
  9
$PSVPSCALE
 40
0.0
  9
$OLESTARTUP
290
     0
  0
ENDSEC
  0
SECTION
  2
CLASSES
  0
CLASS
  1
ACDBDICTIONARYWDFLT
  2
AcDbDictionaryWithDefault
  3
ObjectDBX Classes
 90
        0
280
     0
281
     0
  0
CLASS
  1
VISUALSTYLE
  2
AcDbVisualStyle
  3
ObjectDBX Classes
 90
     4095
280
     0
281
     0
  0
CLASS
  1
MATERIAL
  2
AcDbMaterial
  3
ObjectDBX Classes
 90
     1153
280
     0
281
     0
  0
CLASS
  1
DICTIONARYVAR
  2
AcDbDictionaryVar
  3
ObjectDBX Classes
 90
        0
280
     0
281
     0
  0
CLASS
  1
ACDBPLACEHOLDER
  2
AcDbPlaceHolder
  3
ObjectDBX Classes
 90
        0
280
     0
281
     0
  0
CLASS
  1
LAYOUT
  2
AcDbLayout
  3
ObjectDBX Classes
 90
        0
280
     0
281
     0
  0
ENDSEC
  0
SECTION
  2
TABLES
  0
TABLE
  2
VPORT
  5
8
330
0
100
AcDbSymbolTable
 70
     1
  0
VPORT
  5
29
330
8
100
AcDbSymbolTableRecord
100
AcDbViewportTableRecord
  2
*Active
 70
     0
 10
0.0
 20
0.0
 11
1.0
 21
1.0
 12
73.59999999999853
 22
869.7000000000025
 13
0.0
 23
0.0
 14
0.5
 24
0.5
 15
0.5
 25
0.5
 16
0.0
 26
0.0
 36
1.0
 17
0.0
 27
0.0
 37
0.0
 40
231.0
 41
1.60267857142857
 42
50.0
 43
0.0
 44
0.0
 50
0.0
 51
0.0
 71
     0
 72
   100
 73
     1
 74
     3
 75
     0
 76
     0
 77
     0
 78
     0
281
     0
 65
     1
110
0.0
120
0.0
130
0.0
111
1.0
121
0.0
131
0.0
112
0.0
122
1.0
132
0.0
 79
     0
146
0.0
  0
ENDTAB
  0
TABLE
  2
LTYPE
  5
5
330
0
100
AcDbSymbolTable
 70
     8
  0
LTYPE
  5
14
330
5
100
AcDbSymbolTableRecord
100
AcDbLinetypeTableRecord
  2
ByBlock
 70
     0
  3

 72
    65
 73
     0
 40
0.0
  0
LTYPE
  5
15
330
5
100
AcDbSymbolTableRecord
100
AcDbLinetypeTableRecord
  2
ByLayer
 70
     0
  3

 72
    65
 73
     0
 40
0.0
  0
LTYPE
  5
16
330
5
100
AcDbSymbolTableRecord
100
AcDbLinetypeTableRecord
  2
Continuous
 70
     0
  3
Solid line
 72
    65
 73
     0
 40
0.0
  0
LTYPE
  5
3F
330
5
100
AcDbSymbolTableRecord
100
AcDbLinetypeTableRecord
  2
DASHED
 70
     0
  3
Dashed
 72
    65
 73
     2
 40
15.0
 49
7.0
 74
     0
 49
-8.0
 74
     0
  0
LTYPE
  5
40
330
5
100
AcDbSymbolTableRecord
100
AcDbLinetypeTableRecord
  2
DOTTED
 70
     0
  3
Dotted
 72
    65
 73
     2
 40
1.0
 49
0.0
 74
     0
 49
-1.0
 74
     0
  0
LTYPE
  5
41
330
5
100
AcDbSymbolTableRecord
100
AcDbLinetypeTableRecord
  2
DOT_CENTER
 70
     0
  3
Dot_Center
 72
    65
 73
     4
 40
14.0
 49
12.0
 74
     0
 49
-1.0
 74
     0
 49
0.0
 74
     0
 49
-1.0
 74
     0
  0
LTYPE
  5
42
330
5
100
AcDbSymbolTableRecord
100
AcDbLinetypeTableRecord
  2
LONG_DASHED
 70
     0
  3
Long_Dashed
 72
    65
 73
     2
 40
15.0
 49
10.0
 74
     0
 49
-5.0
 74
     0
  0
LTYPE
  5
43
330
5
100
AcDbSymbolTableRecord
100
AcDbLinetypeTableRecord
  2
DASH_CENTER
 70
     0
  3
Dash_Center
 72
    65
 73
     4
 40
14.0
 49
11.0
 74
     0
 49
-1.0
 74
     0
 49
1.0
 74
     0
 49
-1.0
 74
     0
  0
LTYPE
  5
44
330
5
100
AcDbSymbolTableRecord
100
AcDbLinetypeTableRecord
  2
PHANTOM
 70
     0
  3
Phantom
 72
    65
 73
     6
 40
13.0
 49
10.0
 74
     0
 49
-1.0
 74
     0
 49
0.0
 74
     0
 49
-1.0
 74
     0
 49
0.0
 74
     0
 49
-1.0
 74
     0
  0
LTYPE
  5
45
330
5
100
AcDbSymbolTableRecord
100
AcDbLinetypeTableRecord
  2
CENTER_DASH_DASH
 70
     0
  3
Center_Dash_Dash
 72
    65
 73
     6
 40
14.0
 49
9.0
 74
     0
 49
-1.0
 74
     0
 49
1.0
 74
     0
 49
-1.0
 74
     0
 49
1.0
 74
     0
 49
-1.0
 74
     0
  0
ENDTAB
  0
TABLE
  2
LAYER
  5
2
330
0
100
AcDbSymbolTable
 70
     2
  0
LAYER
  5
10
330
2
100
AcDbSymbolTableRecord
100
AcDbLayerTableRecord
  2
0
 70
     0
 62
     7
  6
Continuous
370
    -3
390
F
  0
LAYER
  5
46
330
2
100
AcDbSymbolTableRecord
100
AcDbLayerTableRecord
  2
1
 70
     0
 62
     7
  6
Continuous
370
    -3
390
F
  0
ENDTAB
  0
TABLE
  2
STYLE
  5
3
330
0
100
AcDbSymbolTable
 70
     9
  0
STYLE
  5
11
330
3
100
AcDbSymbolTableRecord
100
AcDbTextStyleTableRecord
  2
Standard
 70
     0
 40
0.0
 41
1.0
 50
0.0
 71
     0
 42
0.2
  3
txt
  4

  0
STYLE
  5
EE
330
3
100
AcDbSymbolTableRecord
100
AcDbTextStyleTableRecord
  2
CONVERTER_11
 70
     0
 40
0.0
 41
0.9
 50
0.0
 71
     0
 42
0.2
  3
txt.shx
  4

  0
STYLE
  5
305
330
3
100
AcDbSymbolTableRecord
100
AcDbTextStyleTableRecord
  2
CONVERTER_12
 70
     0
 40
0.0
 41
0.63
 50
0.0
 71
     0
 42
0.2
  3
txt.shx
  4

  0
STYLE
  5
308
330
3
100
AcDbSymbolTableRecord
100
AcDbTextStyleTableRecord
  2
CONVERTER_13
 70
     0
 40
0.0
 41
0.765
 50
0.0
 71
     0
 42
0.2
  3
txt.shx
  4

  0
STYLE
  5
32D
330
3
100
AcDbSymbolTableRecord
100
AcDbTextStyleTableRecord
  2
CONVERTER_14
 70
     0
 40
0.0
 41
0.72
 50
0.0
 71
     0
 42
0.2
  3
txt.shx
  4

  0
STYLE
  5
341
330
3
100
AcDbSymbolTableRecord
100
AcDbTextStyleTableRecord
  2
CONVERTER_15
 70
     0
 40
0.0
 41
0.855
 50
0.0
 71
     0
 42
0.2
  3
txt.shx
  4

  0
STYLE
  5
35D
330
3
100
AcDbSymbolTableRecord
100
AcDbTextStyleTableRecord
  2
CONVERTER_16
 70
     0
 40
0.0
 41
0.54
 50
0.0
 71
     0
 42
0.2
  3
txt.shx
  4

  0
STYLE
  5
35F
330
3
100
AcDbSymbolTableRecord
100
AcDbTextStyleTableRecord
  2
CONVERTER_17
 70
     0
 40
0.0
 41
0.81
 50
0.0
 71
     0
 42
0.2
  3
txt.shx
  4

  0
STYLE
  5
366
330
3
100
AcDbSymbolTableRecord
100
AcDbTextStyleTableRecord
  2
CONVERTER_18
 70
     0
 40
0.0
 41
0.45
 50
0.0
 71
     0
 42
0.2
  3
txt.shx
  4

  0
ENDTAB
  0
TABLE
  2
VIEW
  5
6
330
0
100
AcDbSymbolTable
 70
     0
  0
ENDTAB
  0
TABLE
  2
UCS
  5
7
330
0
100
AcDbSymbolTable
 70
     0
  0
ENDTAB
  0
TABLE
  2
APPID
  5
9
330
0
100
AcDbSymbolTable
 70
     1
  0
APPID
  5
12
330
9
100
AcDbSymbolTableRecord
100
AcDbRegAppTableRecord
  2
ACAD
 70
     0
  0
ENDTAB
  0
TABLE
  2
DIMSTYLE
  5
A
330
0
100
AcDbSymbolTable
 70
     4
100
AcDbDimStyleTable
  0
DIMSTYLE
105
27
330
A
100
AcDbSymbolTableRecord
100
AcDbDimStyleTableRecord
  2
Standard
 70
     0
178
     0
340
11
  0
DIMSTYLE
105
146
102
{ACAD_REACTORS
330
147
102
}
330
A
100
AcDbSymbolTableRecord
100
AcDbDimStyleTableRecord
  2
ME10_DIM_10
 70
     0
 41
17.5
 42
0.0
 44
10.0
 73
     0
 74
     0
 77
     1
 78
     8
140
17.5
147
10.0
172
     1
173
     1
174
     1
175
     1
176
     2
177
     2
271
     1
178
     3
271
     1
340
EE
  0
DIMSTYLE
105
151
102
{ACAD_REACTORS
330
152
102
}
330
A
100
AcDbSymbolTableRecord
100
AcDbDimStyleTableRecord
  2
ME10_DIM_11
 70
     0
 41
17.5
 42
0.0
 44
10.0
 73
     0
 74
     0
 77
     1
 78
     8
140
17.5
147
10.0
172
     1
173
     1
174
     1
175
     1
176
     2
177
     2
271
     1
178
     3
271
     1
340
EE
  0
DIMSTYLE
105
186
102
{ACAD_REACTORS
330
187
102
}
330
A
100
AcDbSymbolTableRecord
100
AcDbDimStyleTableRecord
  2
ME10_DIM_12
 70
     0
 41
17.5
 42
0.0
 44
10.0
 73
     0
 74
     0
 77
     1
 78
     8
140
17.5
147
10.0
172
     1
173
     1
174
     1
175
     1
176
     2
177
     2
271
     1
178
     3
271
     1
340
EE
  0
ENDTAB
  0
TABLE
  2
BLOCK_RECORD
  5
1
330
0
100
AcDbSymbolTable
 70
    19
  0
BLOCK_RECORD
  5
1F
330
1
100
AcDbSymbolTableRecord
100
AcDbBlockTableRecord
  2
*Model_Space
340
22
  0
BLOCK_RECORD
  5
1B
330
1
100
AcDbSymbolTableRecord
100
AcDbBlockTableRecord
  2
*Paper_Space
340
1E
  0
BLOCK_RECORD
  5
23
330
1
100
AcDbSymbolTableRecord
100
AcDbBlockTableRecord
  2
*Paper_Space0
340
26
  0
BLOCK_RECORD
  5
47
330
1
100
AcDbSymbolTableRecord
100
AcDbBlockTableRecord
  2
1415242_MD_INB24_3_SZP_S-select__1
340
0
102
{BLKREFS
331
4B
102
}
  0
BLOCK_RECORD
  5
4A
330
1
100
AcDbSymbolTableRecord
100
AcDbBlockTableRecord
  2
Allg1
340
0
102
{BLKREFS
331
7C
102
}
  0
BLOCK_RECORD
  5
4E
330
1
100
AcDbSymbolTableRecord
100
AcDbBlockTableRecord
  2
1415242_MD_INB24_3_SZP_S-select__2
340
0
102
{BLKREFS
331
52
102
}
  0
BLOCK_RECORD
  5
51
330
1
100
AcDbSymbolTableRecord
100
AcDbBlockTableRecord
  2
Drfsicht1
340
0
102
{BLKREFS
331
7D
102
}
  0
BLOCK_RECORD
  5
55
330
1
100
AcDbSymbolTableRecord
100
AcDbBlockTableRecord
  2
1415242_MD_INB24_3_SZP_S-select__3
340
0
102
{BLKREFS
331
59
102
}
  0
BLOCK_RECORD
  5
58
330
1
100
AcDbSymbolTableRecord
100
AcDbBlockTableRecord
  2
Rckans1
340
0
102
{BLKREFS
331
7E
102
}
  0
BLOCK_RECORD
  5
5C
330
1
100
AcDbSymbolTableRecord
100
AcDbBlockTableRecord
  2
1415242_MD_INB24_3_SZP_S-select__4
340
0
102
{BLKREFS
331
60
102
}
  0
BLOCK_RECORD
  5
5F
330
1
100
AcDbSymbolTableRecord
100
AcDbBlockTableRecord
  2
SA_Links1
340
0
102
{BLKREFS
331
7F
102
}
  0
BLOCK_RECORD
  5
63
330
1
100
AcDbSymbolTableRecord
100
AcDbBlockTableRecord
  2
1415242_MD_INB24_3_SZP_S-select__5
340
0
102
{BLKREFS
331
67
102
}
  0
BLOCK_RECORD
  5
66
330
1
100
AcDbSymbolTableRecord
100
AcDbBlockTableRecord
  2
SA_Rechts1
340
0
102
{BLKREFS
331
80
102
}
  0
BLOCK_RECORD
  5
6A
330
1
100
AcDbSymbolTableRecord
100
AcDbBlockTableRecord
  2
1415242_MD_INB24_3_SZP_S-select__6
340
0
102
{BLKREFS
331
6E
102
}
  0
BLOCK_RECORD
  5
6D
330
1
100
AcDbSymbolTableRecord
100
AcDbBlockTableRecord
  2
Vordans1
340
0
102
{BLKREFS
331
81
102
}
  0
BLOCK_RECORD
  5
71
330
1
100
AcDbSymbolTableRecord
100
AcDbBlockTableRecord
  2
_punkt
340
0
102
{BLKREFS
331
78
102
}
  0
BLOCK_RECORD
  5
74
330
1
100
AcDbSymbolTableRecord
100
AcDbBlockTableRecord
  2
_rahmen
340
0
102
{BLKREFS
331
79
102
}
  0
BLOCK_RECORD
  5
77
330
1
100
AcDbSymbolTableRecord
100
AcDbBlockTableRecord
  2
A4I
340
0
102
{BLKREFS
331
82
102
}
  0
BLOCK_RECORD
  5
13D
330
1
100
AcDbSymbolTableRecord
100
AcDbBlockTableRecord
  2
*D16
340
0
  0
BLOCK_RECORD
  5
148
330
1
100
AcDbSymbolTableRecord
100
AcDbBlockTableRecord
  2
*D17
340
0
  0
BLOCK_RECORD
  5
17B
330
1
100
AcDbSymbolTableRecord
100
AcDbBlockTableRecord
  2
*D18
340
0
  0
ENDTAB
  0
ENDSEC
  0
SECTION
  2
BLOCKS
  0
BLOCK
  5
20
330
1F
100
AcDbEntity
  8
0
100
AcDbBlockBegin
  2
*Model_Space
 70
     0
 10
0.0
 20
0.0
 30
0.0
  3
*Model_Space
  1

  0
ENDBLK
  5
21
330
1F
100
AcDbEntity
  8
0
100
AcDbBlockEnd
  0
BLOCK
  5
1C
330
1B
100
AcDbEntity
 67
     1
  8
0
100
AcDbBlockBegin
  2
*Paper_Space
 70
     0
 10
0.0
 20
0.0
 30
0.0
  3
*Paper_Space
  1

  0
ENDBLK
  5
1D
330
1B
100
AcDbEntity
 67
     1
  8
0
100
AcDbBlockEnd
  0
BLOCK
  5
24
330
23
100
AcDbEntity
  8
0
100
AcDbBlockBegin
  2
*Paper_Space0
 70
     0
 10
0.0
 20
0.0
 30
0.0
  3
*Paper_Space0
  1

  0
ENDBLK
  5
25
330
23
100
AcDbEntity
  8
0
100
AcDbBlockEnd
  0
BLOCK
  5
48
330
47
100
AcDbEntity
  8
0
100
AcDbBlockBegin
  2
1415242_MD_INB24_3_SZP_S-select__1
 70
     0
 10
611.6417067604345
 20
4107.314908842833
 30
0.0
  3
1415242_MD_INB24_3_SZP_S-select__1
  1

  0
LINE
  5
83
330
47
100
AcDbEntity
  8
0
  6
Continuous
 62
     7
100
AcDbLine
 10
812.8445554337771
 20
4218.823512856477
 30
0.0
 11
756.8445554337771
 21
4170.326090244547
 31
0.0
  0
LINE
  5
84
330
47
100
AcDbEntity
  8
0
  6
Continuous
 62
     7
100
AcDbLine
 10
787.1554445662325
 20
4161.576090244547
 30
0.0
 11
843.1554445662325
 21
4210.073512856477
 31
0.0
  0
LINE
  5
85
330
47
100
AcDbEntity
  8
0
  6
Continuous
 62
     7
100
AcDbLine
 10
812.8445554337771
 20
4217.091462048908
 30
0.0
 11
758.3445554337771
 21
4169.893077542655
 31
0.0
  0
LINE
  5
86
330
47
100
AcDbEntity
  8
0
  6
Continuous
 62
     7
100
AcDbLine
 10
726.2420150553332
 20
4242.091462048908
 30
0.0
 11
671.7420150553332
 21
4194.893077542655
 31
0.0
  0
LINE
  5
87
330
47
100
AcDbEntity
  8
0
  6
Continuous
 62
     7
100
AcDbLine
 10
611.6417067604345
 20
4196.076734591566
 30
0.0
 11
695.6417067604347
 21
4268.822868509458
 31
0.0
  0
LINE
  5
88
330
47
100
AcDbEntity
  8
0
  6
Continuous
 62
     7
100
AcDbLine
 10
726.2420150553332
 20
4243.823512856476
 30
0.0
 11
670.2420150553332
 21
4195.326090244547
 31
0.0
  0
LINE
  5
89
330
47
100
AcDbEntity
  8
0
  6
Continuous
 62
     7
100
AcDbLine
 10
988.358293239575
 20
4182.590817701889
 30
0.0
 11
988.358293239575
 21
4184.322868509458
 31
0.0
  0
LINE
  5
8A
330
47
100
AcDbEntity
  8
0
  6
Continuous
 62
     7
100
AcDbLine
 10
988.2216906991965
 20
4179.974440220347
 30
0.0
 11
988.2216906991965
 21
4182.472516431701
 31
0.0
  0
LINE
  5
8B
330
47
100
AcDbEntity
  8
0
  6
Continuous
 62
     7
100
AcDbLine
 10
904.3582932395749
 20
4109.844683783997
 30
0.0
 11
904.3582932395749
 21
4111.576734591566
 31
0.0
  0
LINE
  5
8C
330
47
100
AcDbEntity
  8
0
  6
Continuous
 62
     7
100
AcDbLine
 10
988.2216906991965
 20
4179.974440220347
 30
0.0
 11
904.3216906991966
 21
4107.314908842833
 31
0.0
  0
LINE
  5
8D
330
47
100
AcDbEntity
  8
0
  6
Continuous
 62
     7
100
AcDbLine
 10
988.358293239575
 20
4182.590817701889
 30
0.0
 11
904.3582932395749
 21
4109.844683783997
 31
0.0
  0
LINE
  5
8E
330
47
100
AcDbEntity
  8
0
  6
Continuous
 62
     7
100
AcDbLine
 10
988.358293239575
 20
4184.322868509458
 30
0.0
 11
904.3582932395749
 21
4111.576734591566
 31
0.0
  0
LINE
  5
8F
330
47
100
AcDbEntity
  8
0
  6
Continuous
 62
     7
100
AcDbLine
 10
873.7579849446763
 20
4136.576090244547
 30
0.0
 11
929.7579849446763
 21
4185.073512856477
 31
0.0
  0
LINE
  5
90
330
47
100
AcDbEntity
  8
0
  6
Continuous
 62
     7
100
AcDbLine
 10
812.8445554337771
 20
4217.091462048908
 30
0.0
 11
812.8445554337771
 21
4218.823512856477
 31
0.0
  0
LINE
  5
91
330
47
100
AcDbEntity
  8
0
  6
Continuous
 62
     7
100
AcDbLine
 10
843.1554445662325
 20
4210.073512856477
 30
0.0
 11
812.8445554337771
 21
4218.823512856477
 31
0.0
  0
LINE
  5
92
330
47
100
AcDbEntity
  8
0
  6
Continuous
 62
     7
100
AcDbLine
 10
841.6554445662325
 20
4208.7744747508
 30
0.0
 11
812.8445554337771
 21
4217.091462048908
 31
0.0
  0
LINE
  5
93
330
47
100
AcDbEntity
  8
0
  6
Continuous
 62
     7
100
AcDbLine
 10
756.5529041877886
 20
4235.073512856476
 30
0.0
 11
726.2420150553332
 21
4243.823512856476
 31
0.0
  0
LINE
  5
94
330
47
100
AcDbEntity
  8
0
  6
Continuous
 62
     7
100
AcDbLine
 10
929.7579849446763
 20
4185.073512856477
 30
0.0
 11
899.447095812221
 21
4193.823512856477
 31
0.0
  0
LINE
  5
95
330
47
100
AcDbEntity
  8
0
  6
Continuous
 62
     7
100
AcDbLine
 10
726.2420150553332
 20
4242.091462048908
 30
0.0
 11
726.2420150553332
 21
4243.823512856476
 31
0.0
  0
LINE
  5
96
330
47
100
AcDbEntity
  8
0
  6
Continuous
 62
     7
100
AcDbLine
 10
755.0529041877886
 20
4233.7744747508
 30
0.0
 11
726.2420150553332
 21
4242.091462048908
 31
0.0
  0
LINE
  5
97
330
47
100
AcDbEntity
  8
0
  6
Continuous
 62
     7
100
AcDbLine
 10
700.5529041877886
 20
4186.576090244547
 30
0.0
 11
756.5529041877886
 21
4235.073512856476
 31
0.0
  0
LINE
  5
98
330
47
100
AcDbEntity
  8
0
  6
Continuous
 62
     7
100
AcDbLine
 10
695.6417067604347
 20
4268.822868509458
 30
0.0
 11
988.358293239575
 21
4184.322868509458
 31
0.0
  0
LINE
  5
99
330
47
100
AcDbEntity
  8
0
  6
Continuous
 62
     7
100
AcDbLine
 10
670.2420150553332
 20
4195.326090244547
 30
0.0
 11
700.5529041877886
 21
4186.576090244547
 31
0.0
  0
LINE
  5
9A
330
47
100
AcDbEntity
  8
0
  6
Continuous
 62
     7
100
AcDbLine
 10
611.6417067604345
 20
4194.344683783997
 30
0.0
 11
611.6417067604345
 21
4196.076734591566
 31
0.0
  0
LINE
  5
9B
330
47
100
AcDbEntity
  8
0
  6
Continuous
 62
     7
100
AcDbLine
 10
904.3582932395749
 20
4111.576734591566
 30
0.0
 11
611.6417067604345
 21
4196.076734591566
 31
0.0
  0
LINE
  5
9C
330
47
100
AcDbEntity
  8
0
  6
Continuous
 62
     7
100
AcDbLine
 10
756.8445554337771
 20
4170.326090244547
 30
0.0
 11
787.1554445662325
 21
4161.576090244547
 31
0.0
  0
LINE
  5
9D
330
47
100
AcDbEntity
  8
0
  6
Continuous
 62
     7
100
AcDbLine
 10
843.4470958122209
 20
4145.326090244547
 30
0.0
 11
873.7579849446763
 21
4136.576090244547
 31
0.0
  0
LINE
  5
9E
330
47
100
AcDbEntity
  8
0
  6
Continuous
 62
     7
100
AcDbLine
 10
899.447095812221
 20
4193.823512856477
 30
0.0
 11
843.4470958122209
 21
4145.326090244547
 31
0.0
  0
LINE
  5
9F
330
47
100
AcDbEntity
  8
0
  6
Continuous
 62
     7
100
AcDbLine
 10
899.447095812221
 20
4192.091462048908
 30
0.0
 11
844.947095812221
 21
4144.893077542655
 31
0.0
  0
LINE
  5
A0
330
47
100
AcDbEntity
  8
0
  6
Continuous
 62
     7
100
AcDbLine
 10
904.3216906991966
 20
4107.314908842833
 30
0.0
 11
904.3216906991964
 21
4109.855250027267
 31
0.0
  0
LINE
  5
A1
330
47
100
AcDbEntity
  8
0
  6
Continuous
 62
     7
100
AcDbLine
 10
899.447095812221
 20
4192.091462048908
 30
0.0
 11
899.447095812221
 21
4193.823512856477
 31
0.0
  0
LINE
  5
A2
330
47
100
AcDbEntity
  8
0
  6
Continuous
 62
     7
100
AcDbLine
 10
611.7783093008131
 20
4191.764908842833
 30
0.0
 11
611.7783093008131
 21
4194.305250027267
 31
0.0
  0
LINE
  5
A3
330
47
100
AcDbEntity
  8
0
  6
Continuous
 62
     7
100
AcDbLine
 10
904.3216906991966
 20
4107.314908842833
 30
0.0
 11
611.7783093008131
 21
4191.764908842833
 31
0.0
  0
LINE
  5
A4
330
47
100
AcDbEntity
  8
0
  6
Continuous
 62
     7
100
AcDbLine
 10
928.2579849446764
 20
4183.7744747508
 30
0.0
 11
899.447095812221
 21
4192.091462048908
 31
0.0
  0
LINE
  5
A5
330
47
100
AcDbEntity
  8
0
  6
Continuous
 62
     7
100
AcDbLine
 10
904.3582932395749
 20
4109.844683783997
 30
0.0
 11
611.6417067604345
 21
4194.344683783997
 31
0.0
  0
SPLINE
  5
A6
330
47
100
AcDbEntity
  8
0
  6
Continuous
 62
     7
100
AcDbSpline
210
0.0
220
0.0
230
1.0
 70
     8
 71
     3
 72
    17
 73
    13
 74
    11
 42
0.000000001
 43
0.0000000001
 44
0.00000001
 40
0.0
 40
0.0
 40
0.0
 40
0.0
 40
0.407811844564993
 40
0.8847385387397046
 40
1.4142818232622
 40
1.971946936507876
 40
2.529612049976684
 40
3.059155335408272
 40
3.536082028975605
 40
3.943893867866677
 40
4.280573945057279
 40
4.568287659588912
 40
4.568287659588912
 40
4.568287659588912
 40
4.568287659588912
 10
844.4944518424193
 20
4214.883127173506
 30
0.0
 10
844.6054709969548
 20
4214.962570231379
 30
0.0
 10
844.8463245389571
 20
4215.134920131085
 30
0.0
 10
845.2961754407655
 20
4215.29238314083
 30
0.0
 10
845.8073061379023
 20
4215.397870656006
 30
0.0
 10
846.356486373704
 20
4215.432421940382
 30
0.0
 10
846.9051952412485
 20
4215.397394222922
 30
0.0
 10
847.4176254259808
 20
4215.29410340031
 30
0.0
 10
847.8634145524384
 20
4215.129519235385
 30
0.0
 10
848.207961666688
 20
4214.912745422145
 30
0.0
 10
848.4544707128683
 20
4214.651028663618
 30
0.0
 10
848.4900239358755
 20
4214.441962526526
 30
0.0
 10
848.5064064605558
 20
4214.345627173506
 30
0.0
 11
844.4944518424193
 21
4214.883127173506
 31
0.0
 11
844.8361272863201
 21
4215.105766760625
 31
0.0
 11
845.2814064605559
 21
4215.276604482575
 31
0.0
 11
845.7999456619411
 21
4215.383997159931
 31
0.0
 11
846.3564064605558
 21
4215.420627173506
 31
0.0
 11
846.9128672591706
 21
4215.383997159931
 31
0.0
 11
847.4314064605558
 21
4215.276604482575
 31
0.0
 11
847.8766856347916
 21
4215.105766760625
 31
0.0
 11
848.2183610786924
 21
4214.883127173506
 31
0.0
 11
848.4331464334064
 21
4214.623857572814
 31
0.0
 11
848.5064064605558
 21
4214.345627173506
 31
0.0
  0
SPLINE
  5
A7
330
47
100
AcDbEntity
  8
0
  6
Continuous
 62
     7
100
AcDbSpline
210
0.0
220
0.0
230
1.0
 70
     8
 71
     3
 72
    13
 73
     9
 74
     7
 42
0.000000001
 43
0.0000000001
 44
0.00000001
 40
0.0
 40
0.0
 40
0.0
 40
0.0
 40
0.4080730017970755
 40
0.8448202057366425
 40
1.296516598267814
 40
1.748212990798986
 40
2.184960194738441
 40
2.593033196535625
 40
2.593033196535625
 40
2.593033196535625
 40
2.593033196535625
 10
845.0826325402701
 20
4213.479601769722
 30
0.0
 10
845.2123669778487
 20
4213.521085338994
 30
0.0
 10
845.480951950318
 20
4213.606967403004
 30
0.0
 10
845.9097327896967
 20
4213.672284883199
 30
0.0
 10
846.3564064605557
 20
4213.696859034945
 30
0.0
 10
846.8030801314153
 20
4213.6722848832
 30
0.0
 10
847.2318609707935
 20
4213.606967403005
 30
0.0
 10
847.5004459432629
 20
4213.521085338993
 30
0.0
 10
847.6301803808416
 20
4213.479601769722
 30
0.0
 11
845.0826325402701
 21
4213.479601769722
 31
0.0
 11
845.4743584652043
 21
4213.593945002151
 31
0.0
 11
845.9053440740108
 21
4213.664652329349
 31
0.0
 11
846.3564064605558
 21
4213.688576286589
 31
0.0
 11
846.8074688471008
 21
4213.664652329349
 31
0.0
 11
847.2384544559072
 21
4213.593945002151
 31
0.0
 11
847.6301803808416
 21
4213.479601769722
 31
0.0
  0
SPLINE
  5
A8
330
47
100
AcDbEntity
  8
0
  6
Continuous
 62
     7
100
AcDbSpline
210
0.0
220
0.0
230
1.0
 70
     8
 71
     3
 72
     9
 73
     5
 74
     3
 42
0.000000001
 43
0.0000000001
 44
0.00000001
 40
0.0
 40
0.0
 40
0.0
 40
0.0
 40
0.2877137213223526
 40
0.6243937964556274
 40
0.6243937964556274
 40
0.6243937964556274
 40
0.6243937964556274
 10
844.2064064605559
 20
4214.345627173506
 30
0.0
 10
844.2223566169339
 20
4214.442722687627
 30
0.0
 10
844.2569715247137
 20
4214.653438514805
 30
0.0
 10
844.4112585530796
 20
4214.802663440515
 30
0.0
 10
844.4944518424193
 20
4214.883127173506
 30
0.0
 11
844.2064064605559
 21
4214.345627173506
 31
0.0
 11
844.2796664877053
 21
4214.623857572814
 31
0.0
 11
844.4944518424193
 21
4214.883127173506
 31
0.0
  0
SPLINE
  5
A9
330
47
100
AcDbEntity
  8
0
  6
Continuous
 62
     7
100
AcDbSpline
210
0.0
220
0.0
230
1.0
 70
     8
 71
     3
 72
    19
 73
    15
 74
    13
 42
0.000000001
 43
0.0000000001
 44
0.00000001
 40
0.0
 40
0.0
 40
0.0
 40
0.0
 40
0.4349160893029584
 40
0.9438510862189241
 40
1.560310842960448
 40
2.281246543733721
 40
3.081718954084542
 40
3.924701105357204
 40
4.767683256629979
 40
5.5681556669808
 40
6.289091367753969
 40
6.905551124495587
 40
7.414486121411698
 40
7.849402210714628
 40
7.849402210714628
 40
7.849402210714628
 40
7.849402210714628
 10
879.0512701892268
 20
4211.474792298105
 30
0.0
 10
879.0760344523053
 20
4211.620415475939
 30
0.0
 10
879.1297776573085
 20
4211.936445613052
 30
0.0
 10
879.5024079900345
 20
4212.332064624936
 30
0.0
 10
880.0232331505792
 20
4212.65974267857
 30
0.0
 10
880.6971091903808
 20
4212.908548087276
 30
0.0
 10
881.471675087507
 20
4213.064618789076
 30
0.0
 10
882.3012701892264
 20
4213.117833968296
 30
0.0
 10
883.1308652909465
 20
4213.064618789074
 30
0.0
 10
883.9054311880725
 20
4212.908548087279
 30
0.0
 10
884.5793072278747
 20
4212.659742678568
 30
0.0
 10
885.1001323884191
 20
4212.332064624935
 30
0.0
 10
885.4727627211452
 20
4211.936445613052
 30
0.0
 10
885.5265059261485
 20
4211.620415475939
 30
0.0
 10
885.5512701892268
 20
4211.474792298105
 30
0.0
 11
879.0512701892268
 21
4211.474792298105
 31
0.0
 11
879.1620120907319
 21
4211.895373134267
 31
0.0
 11
879.4866876269273
 21
4212.287292298104
 31
0.0
 11
880.0031737630563
 21
4212.62384051119
 31
0.0
 11
880.6762701892268
 21
4212.882083579254
 31
0.0
 11
881.4601085169022
 21
4213.044421347352
 31
0.0
 11
882.3012701892267
 21
4213.099792298105
 31
0.0
 11
883.1424318615512
 21
4213.044421347352
 31
0.0
 11
883.9262701892267
 21
4212.882083579254
 31
0.0
 11
884.599366615397
 21
4212.62384051119
 31
0.0
 11
885.1158527515262
 21
4212.287292298104
 31
0.0
 11
885.4405282877218
 21
4211.895373134267
 31
0.0
 11
885.5512701892268
 21
4211.474792298105
 31
0.0
  0
SPLINE
  5
AA
330
47
100
AcDbEntity
  8
0
  6
Continuous
 62
     7
100
AcDbSpline
210
0.0
220
0.0
230
1.0
 70
     8
 71
     3
 72
    19
 73
    15
 74
    13
 42
0.000000001
 43
0.0000000001
 44
0.00000001
 40
0.0
 40
0.0
 40
0.0
 40
0.0
 40
0.2877137191521862
 40
0.624393792804691
 40
1.032205632740635
 40
1.509132327925726
 40
2.038675615798213
 40
2.596340732498057
 40
3.154005849197899
 40
3.683549137070386
 40
4.160475832255371
 40
4.568287672191411
 40
4.904967745843843
 40
5.192681464996058
 40
5.192681464996058
 40
5.192681464996058
 40
5.192681464996058
 10
848.5064064605558
 20
4214.345627173506
 30
0.0
 10
848.490023948141
 20
4214.249291840966
 30
0.0
 10
848.454470744959
 20
4214.040225753688
 30
0.0
 10
848.2079614593645
 20
4213.778508553855
 30
0.0
 10
847.863415580327
 20
4213.561736920507
 30
0.0
 10
847.4176206622158
 20
4213.397142571632
 30
0.0
 10
846.9052155289378
 20
4213.293895799396
 30
0.0
 10
846.3564064605556
 20
4213.258691911262
 30
0.0
 10
845.8075973921741
 20
4213.293895799397
 30
0.0
 10
845.2951922588956
 20
4213.397142571632
 30
0.0
 10
844.8493973407851
 20
4213.561736920507
 30
0.0
 10
844.5048514617469
 20
4213.778508553855
 30
0.0
 10
844.2583421761528
 20
4214.040225753688
 30
0.0
 10
844.2227889729705
 20
4214.249291840967
 30
0.0
 10
844.2064064605559
 20
4214.345627173506
 30
0.0
 11
848.5064064605558
 21
4214.345627173506
 31
0.0
 11
848.4331464334064
 21
4214.067396774199
 31
0.0
 11
848.2183610786924
 21
4213.808127173506
 31
0.0
 11
847.8766856347917
 21
4213.585487586389
 31
0.0
 11
847.4314064605558
 21
4213.414649864438
 31
0.0
 11
846.9128672591705
 21
4213.307257187081
 31
0.0
 11
846.3564064605558
 21
4213.270627173506
 31
0.0
 11
845.7999456619411
 21
4213.307257187081
 31
0.0
 11
845.2814064605559
 21
4213.414649864438
 31
0.0
 11
844.8361272863201
 21
4213.585487586389
 31
0.0
 11
844.4944518424193
 21
4213.808127173506
 31
0.0
 11
844.2796664877054
 21
4214.067396774199
 31
0.0
 11
844.2064064605559
 21
4214.345627173506
 31
0.0
  0
SPLINE
  5
AB
330
47
100
AcDbEntity
  8
0
  6
Continuous
 62
     7
100
AcDbSpline
210
0.0
220
0.0
230
1.0
 70
     8
 71
     3
 72
    17
 73
    13
 74
    11
 42
0.000000001
 43
0.0000000001
 44
0.00000001
 40
0.0
 40
0.0
 40
0.0
 40
0.0
 40
0.4078118445648977
 40
0.8847385387395033
 40
1.41428182326211
 40
1.971946936507786
 40
2.529612049976594
 40
3.059155335408294
 40
3.536082028975627
 40
3.943893867866603
 40
4.280573945057133
 40
4.568287659588824
 40
4.568287659588824
 40
4.568287659588824
 40
4.568287659588824
 10
757.8919114639755
 20
4239.883127173506
 30
0.0
 10
758.0029306185112
 20
4239.962570231379
 30
0.0
 10
758.2437841605132
 20
4240.134920131086
 30
0.0
 10
758.6936350623213
 20
4240.292383140829
 30
0.0
 10
759.2047657594583
 20
4240.397870656006
 30
0.0
 10
759.7539459952602
 20
4240.432421940382
 30
0.0
 10
760.3026548628047
 20
4240.397394222921
 30
0.0
 10
760.8150850475366
 20
4240.29410340031
 30
0.0
 10
761.2608741739946
 20
4240.129519235386
 30
0.0
 10
761.6054212882444
 20
4239.912745422144
 30
0.0
 10
761.8519303344239
 20
4239.651028663617
 30
0.0
 10
761.8874835574316
 20
4239.441962526525
 30
0.0
 10
761.903866082112
 20
4239.345627173506
 30
0.0
 11
757.8919114639755
 21
4239.883127173506
 31
0.0
 11
758.2335869078762
 21
4240.105766760625
 31
0.0
 11
758.6788660821119
 21
4240.276604482575
 31
0.0
 11
759.1974052834972
 21
4240.383997159931
 31
0.0
 11
759.7538660821119
 21
4240.420627173506
 31
0.0
 11
760.3103268807267
 21
4240.383997159931
 31
0.0
 11
760.828866082112
 21
4240.276604482575
 31
0.0
 11
761.2741452563478
 21
4240.105766760625
 31
0.0
 11
761.6158207002485
 21
4239.883127173506
 31
0.0
 11
761.8306060549623
 21
4239.623857572814
 31
0.0
 11
761.903866082112
 21
4239.345627173506
 31
0.0
  0
SPLINE
  5
AC
330
47
100
AcDbEntity
  8
0
  6
Continuous
 62
     7
100
AcDbSpline
210
0.0
220
0.0
230
1.0
 70
     8
 71
     3
 72
    13
 73
     9
 74
     7
 42
0.000000001
 43
0.0000000001
 44
0.00000001
 40
0.0
 40
0.0
 40
0.0
 40
0.0
 40
0.4080730017971846
 40
0.8448202057365273
 40
1.296516598267699
 40
1.748212990798984
 40
2.184960194738327
 40
2.593033196535512
 40
2.593033196535512
 40
2.593033196535512
 40
2.593033196535512
 10
758.4800921618263
 20
4238.479601769722
 30
0.0
 10
758.6098265994052
 20
4238.521085338994
 30
0.0
 10
758.878411571874
 20
4238.606967403003
 30
0.0
 10
759.3071924112529
 20
4238.6722848832
 30
0.0
 10
759.7538660821122
 20
4238.696859034945
 30
0.0
 10
760.2005397529708
 20
4238.672284883199
 30
0.0
 10
760.6293205923498
 20
4238.606967403004
 30
0.0
 10
760.897905564819
 20
4238.521085338995
 30
0.0
 10
761.0276400023977
 20
4238.479601769722
 30
0.0
 11
758.4800921618263
 21
4238.479601769722
 31
0.0
 11
758.8718180867606
 21
4238.593945002151
 31
0.0
 11
759.3028036955669
 21
4238.664652329349
 31
0.0
 11
759.7538660821119
 21
4238.688576286589
 31
0.0
 11
760.204928468657
 21
4238.664652329349
 31
0.0
 11
760.6359140774633
 21
4238.593945002151
 31
0.0
 11
761.0276400023977
 21
4238.479601769722
 31
0.0
  0
SPLINE
  5
AD
330
47
100
AcDbEntity
  8
0
  6
Continuous
 62
     7
100
AcDbSpline
210
0.0
220
0.0
230
1.0
 70
     8
 71
     3
 72
     9
 73
     5
 74
     3
 42
0.000000001
 43
0.0000000001
 44
0.00000001
 40
0.0
 40
0.0
 40
0.0
 40
0.0
 40
0.2877137213223815
 40
0.6243937964556565
 40
0.6243937964556565
 40
0.6243937964556565
 40
0.6243937964556565
 10
757.603866082112
 20
4239.345627173506
 30
0.0
 10
757.6198162384899
 20
4239.442722687628
 30
0.0
 10
757.6544311462701
 20
4239.653438514805
 30
0.0
 10
757.8087181746357
 20
4239.802663440514
 30
0.0
 10
757.8919114639755
 20
4239.883127173506
 30
0.0
 11
757.603866082112
 21
4239.345627173506
 31
0.0
 11
757.6771261092615
 21
4239.623857572814
 31
0.0
 11
757.8919114639755
 21
4239.883127173506
 31
0.0
  0
SPLINE
  5
AE
330
47
100
AcDbEntity
  8
0
  6
Continuous
 62
     7
100
AcDbSpline
210
0.0
220
0.0
230
1.0
 70
     8
 71
     3
 72
    19
 73
    15
 74
    13
 42
0.000000001
 43
0.0000000001
 44
0.00000001
 40
0.0
 40
0.0
 40
0.0
 40
0.0
 40
0.4349160893029584
 40
0.9438510862189966
 40
1.56031084296052
 40
2.281246543733688
 40
3.081718954084397
 40
3.924701105357285
 40
4.767683256630174
 40
5.568155666980884
 40
6.289091367754052
 40
6.905551124495576
 40
7.414486121411686
 40
7.849402210714616
 40
7.849402210714616
 40
7.849402210714616
 40
7.849402210714616
 10
792.4487298107829
 20
4236.474792298105
 30
0.0
 10
792.4734940738614
 20
4236.62041547594
 30
0.0
 10
792.5272372788646
 20
4236.936445613052
 30
0.0
 10
792.8998676115905
 20
4237.332064624934
 30
0.0
 10
793.4206927721352
 20
4237.659742678569
 30
0.0
 10
794.0945688119374
 20
4237.908548087278
 30
0.0
 10
794.8691347090628
 20
4238.064618789075
 30
0.0
 10
795.6987298107829
 20
4238.117833968296
 30
0.0
 10
796.5283249125027
 20
4238.064618789075
 30
0.0
 10
797.3028908096285
 20
4237.908548087278
 30
0.0
 10
797.9767668494308
 20
4237.659742678567
 30
0.0
 10
798.497592009975
 20
4237.332064624935
 30
0.0
 10
798.8702223427013
 20
4236.936445613052
 30
0.0
 10
798.9239655477044
 20
4236.620415475939
 30
0.0
 10
798.9487298107829
 20
4236.474792298105
 30
0.0
 11
792.4487298107829
 21
4236.474792298105
 31
0.0
 11
792.559471712288
 21
4236.895373134267
 31
0.0
 11
792.8841472484835
 21
4237.287292298104
 31
0.0
 11
793.4006333846125
 21
4237.62384051119
 31
0.0
 11
794.0737298107829
 21
4237.882083579254
 31
0.0
 11
794.8575681384582
 21
4238.044421347352
 31
0.0
 11
795.6987298107829
 21
4238.099792298105
 31
0.0
 11
796.5398914831076
 21
4238.044421347352
 31
0.0
 11
797.3237298107829
 21
4237.882083579254
 31
0.0
 11
797.9968262369532
 21
4237.62384051119
 31
0.0
 11
798.5133123730823
 21
4237.287292298104
 31
0.0
 11
798.8379879092779
 21
4236.895373134267
 31
0.0
 11
798.9487298107829
 21
4236.474792298105
 31
0.0
  0
SPLINE
  5
AF
330
47
100
AcDbEntity
  8
0
  6
Continuous
 62
     7
100
AcDbSpline
210
0.0
220
0.0
230
1.0
 70
     8
 71
     3
 72
     9
 73
     5
 74
     3
 42
0.000000001
 43
0.0000000001
 44
0.00000001
 40
0.0
 40
0.0
 40
0.0
 40
0.0
 40
0.4349160914731248
 40
0.9438510898699333
 40
0.9438510898699333
 40
0.9438510898699333
 40
0.9438510898699333
 10
798.9487298107829
 20
4236.474792298105
 30
0.0
 10
798.9246191092202
 20
4236.328020008945
 30
0.0
 10
798.8722942578099
 20
4236.009496080013
 30
0.0
 10
798.6390696711941
 20
4235.783923522657
 30
0.0
 10
798.5133123730823
 20
4235.662292298105
 30
0.0
 11
798.9487298107829
 21
4236.474792298105
 31
0.0
 11
798.8379879092778
 21
4236.054211461942
 31
0.0
 11
798.5133123730823
 21
4235.662292298105
 31
0.0
  0
SPLINE
  5
B0
330
47
100
AcDbEntity
  8
0
  6
Continuous
 62
     7
100
AcDbSpline
210
0.0
220
0.0
230
1.0
 70
     8
 71
     3
 72
    17
 73
    13
 74
    11
 42
0.000000001
 43
0.0000000001
 44
0.00000001
 40
0.0
 40
0.0
 40
0.0
 40
0.0
 40
0.6164597613694837
 40
1.337395461132704
 40
2.137867868133717
 40
2.980850015952326
 40
3.823832163993893
 40
4.624304571904295
 40
5.345240271060137
 40
5.961700026755202
 40
6.470635027209966
 40
6.9055511118924
 40
6.9055511118924
 40
6.9055511118924
 40
6.9055511118924
 10
798.5133123730823
 20
4235.662292298105
 30
0.0
 10
798.3454927218762
 20
4235.542203955523
 30
0.0
 10
797.9814117908495
 20
4235.28167503267
 30
0.0
 10
797.3014046114967
 20
4235.043649560934
 30
0.0
 10
796.5287651867659
 20
4234.884191687569
 30
0.0
 10
795.698609016203
 20
4234.831963002173
 30
0.0
 10
794.8691653793654
 20
4234.884911876819
 30
0.0
 10
794.0945616123742
 20
4235.041049166693
 30
0.0
 10
793.4206943272059
 20
4235.289839181859
 30
0.0
 10
792.8998672978599
 20
4235.617520529371
 30
0.0
 10
792.5272373312771
 20
4236.013138877137
 30
0.0
 10
792.4734940925373
 20
4236.329169088519
 30
0.0
 10
792.4487298107829
 20
4236.474792298105
 30
0.0
 11
798.5133123730823
 21
4235.662292298105
 31
0.0
 11
797.9968262369532
 21
4235.32574408502
 31
0.0
 11
797.3237298107829
 21
4235.067501016956
 31
0.0
 11
796.5398914831075
 21
4234.905163248858
 31
0.0
 11
795.6987298107829
 21
4234.849792298105
 31
0.0
 11
794.8575681384583
 21
4234.905163248857
 31
0.0
 11
794.0737298107829
 21
4235.067501016956
 31
0.0
 11
793.4006333846125
 21
4235.32574408502
 31
0.0
 11
792.8841472484835
 21
4235.662292298104
 31
0.0
 11
792.5594717122881
 21
4236.054211461942
 31
0.0
 11
792.4487298107829
 21
4236.474792298105
 31
0.0
  0
SPLINE
  5
B1
330
47
100
AcDbEntity
  8
0
  6
Continuous
 62
     7
100
AcDbSpline
210
0.0
220
0.0
230
1.0
 70
     8
 71
     3
 72
    19
 73
    15
 74
    13
 42
0.000000001
 43
0.0000000001
 44
0.00000001
 40
0.0
 40
0.0
 40
0.0
 40
0.0
 40
0.2877137191522152
 40
0.62439379280472
 40
1.032205632740664
 40
1.509132327925649
 40
2.038675615798248
 40
2.59634073249809
 40
3.154005849197933
 40
3.683549137070531
 40
4.16047583225541
 40
4.568287672191355
 40
4.90496774584386
 40
5.192681464996075
 40
5.192681464996075
 40
5.192681464996075
 40
5.192681464996075
 10
761.903866082112
 20
4239.345627173506
 30
0.0
 10
761.8874835696972
 20
4239.249291840968
 30
0.0
 10
761.851930366515
 20
4239.040225753687
 30
0.0
 10
761.6054210809207
 20
4238.778508553858
 30
0.0
 10
761.260875201883
 20
4238.561736920507
 30
0.0
 10
760.8150802837719
 20
4238.397142571631
 30
0.0
 10
760.302675150494
 20
4238.293895799397
 30
0.0
 10
759.7538660821119
 20
4238.258691911263
 30
0.0
 10
759.2050570137296
 20
4238.293895799396
 30
0.0
 10
758.6926518804521
 20
4238.397142571633
 30
0.0
 10
758.2468569623409
 20
4238.561736920507
 30
0.0
 10
757.9023110833034
 20
4238.778508553857
 30
0.0
 10
757.6558017977088
 20
4239.040225753686
 30
0.0
 10
757.6202485945266
 20
4239.249291840967
 30
0.0
 10
757.603866082112
 20
4239.345627173506
 30
0.0
 11
761.903866082112
 21
4239.345627173506
 31
0.0
 11
761.8306060549625
 21
4239.067396774199
 31
0.0
 11
761.6158207002485
 21
4238.808127173506
 31
0.0
 11
761.2741452563478
 21
4238.585487586389
 31
0.0
 11
760.828866082112
 21
4238.414649864438
 31
0.0
 11
760.3103268807266
 21
4238.307257187081
 31
0.0
 11
759.7538660821119
 21
4238.270627173506
 31
0.0
 11
759.1974052834972
 21
4238.307257187081
 31
0.0
 11
758.6788660821119
 21
4238.414649864438
 31
0.0
 11
758.2335869078762
 21
4238.585487586389
 31
0.0
 11
757.8919114639755
 21
4238.808127173506
 31
0.0
 11
757.6771261092615
 21
4239.067396774199
 31
0.0
 11
757.603866082112
 21
4239.345627173506
 31
0.0
  0
SPLINE
  5
B2
330
47
100
AcDbEntity
  8
0
  6
Continuous
 62
     7
100
AcDbSpline
210
0.0
220
0.0
230
1.0
 70
     8
 71
     3
 72
    19
 73
    15
 74
    13
 42
0.000000001
 43
0.0000000001
 44
0.00000001
 40
0.0
 40
0.0
 40
0.0
 40
0.0
 40
0.4349160893029584
 40
0.9438510862189241
 40
1.560310842960352
 40
2.281246543733733
 40
3.081718954084442
 40
3.924701105357331
 40
4.767683256629992
 40
5.568155666980924
 40
6.289091367754198
 40
6.905551124495626
 40
7.414486121411665
 40
7.849402210714623
 40
7.849402210714623
 40
7.849402210714623
 40
7.849402210714623
 10
705.8461894323391
 20
4261.474792298105
 30
0.0
 10
705.8709536954175
 20
4261.620415475937
 30
0.0
 10
705.9246969004209
 20
4261.936445613052
 30
0.0
 10
706.2973272331462
 20
4262.332064624933
 30
0.0
 10
706.8181523936915
 20
4262.65974267857
 30
0.0
 10
707.4920284334931
 20
4262.908548087277
 30
0.0
 10
708.2665943306191
 20
4263.064618789074
 30
0.0
 10
709.0961894323393
 20
4263.117833968297
 30
0.0
 10
709.9257845340587
 20
4263.064618789074
 30
0.0
 10
710.7003504311847
 20
4262.908548087277
 30
0.0
 10
711.374226470987
 20
4262.659742678568
 30
0.0
 10
711.8950516315313
 20
4262.332064624934
 30
0.0
 10
712.2676819642578
 20
4261.936445613054
 30
0.0
 10
712.3214251692605
 20
4261.620415475938
 30
0.0
 10
712.3461894323391
 20
4261.474792298105
 30
0.0
 11
705.8461894323391
 21
4261.474792298105
 31
0.0
 11
705.9569313338442
 21
4261.895373134267
 31
0.0
 11
706.2816068700396
 21
4262.287292298104
 31
0.0
 11
706.7980930061685
 21
4262.62384051119
 31
0.0
 11
707.4711894323391
 21
4262.882083579254
 31
0.0
 11
708.2550277600144
 21
4263.044421347352
 31
0.0
 11
709.0961894323391
 21
4263.099792298105
 31
0.0
 11
709.9373511046635
 21
4263.044421347352
 31
0.0
 11
710.7211894323391
 21
4262.882083579254
 31
0.0
 11
711.3942858585095
 21
4262.62384051119
 31
0.0
 11
711.9107719946385
 21
4262.287292298104
 31
0.0
 11
712.235447530834
 21
4261.895373134267
 31
0.0
 11
712.3461894323391
 21
4261.474792298105
 31
0.0
  0
SPLINE
  5
B3
330
47
100
AcDbEntity
  8
0
  6
Continuous
 62
     7
100
AcDbSpline
210
0.0
220
0.0
230
1.0
 70
     8
 71
     3
 72
    13
 73
     9
 74
     7
 42
0.000000001
 43
0.0000000001
 44
0.00000001
 40
0.0
 40
0.0
 40
0.0
 40
0.0
 40
0.4080730017970755
 40
0.8448202057365304
 40
1.296516598267816
 40
1.748212990798987
 40
2.18496019473833
 40
2.593033196535515
 40
2.593033196535515
 40
2.593033196535515
 40
2.593033196535515
 10
931.685172918714
 20
4188.479601769722
 30
0.0
 10
931.8149073562928
 20
4188.521085338994
 30
0.0
 10
932.0834923287623
 20
4188.606967403006
 30
0.0
 10
932.5122731681402
 20
4188.672284883197
 30
0.0
 10
932.9589468390001
 20
4188.696859034947
 30
0.0
 10
933.4056205098584
 20
4188.672284883198
 30
0.0
 10
933.8344013492375
 20
4188.606967403006
 30
0.0
 10
934.1029863217067
 20
4188.521085338994
 30
0.0
 10
934.2327207592854
 20
4188.479601769722
 30
0.0
 11
931.685172918714
 21
4188.479601769722
 31
0.0
 11
932.0768988436482
 21
4188.593945002151
 31
0.0
 11
932.5078844524546
 21
4188.664652329349
 31
0.0
 11
932.9589468389997
 21
4188.688576286589
 31
0.0
 11
933.4100092255447
 21
4188.664652329349
 31
0.0
 11
933.840994834351
 21
4188.593945002151
 31
0.0
 11
934.2327207592854
 21
4188.479601769722
 31
0.0
  0
SPLINE
  5
B4
330
47
100
AcDbEntity
  8
0
  6
Continuous
 62
     7
100
AcDbSpline
210
0.0
220
0.0
230
1.0
 70
     8
 71
     3
 72
    19
 73
    15
 74
    13
 42
0.000000001
 43
0.0000000001
 44
0.00000001
 40
0.0
 40
0.0
 40
0.0
 40
0.0
 40
0.2877137191522152
 40
0.6243937928046475
 40
1.032205632740687
 40
1.509132327925566
 40
2.038675615798053
 40
2.596340732498009
 40
3.154005849197966
 40
3.683549137070453
 40
4.160475832255438
 40
4.568287672191382
 40
4.904967745843887
 40
5.192681464996102
 40
5.192681464996102
 40
5.192681464996102
 40
5.192681464996102
 10
935.1089468389997
 20
4189.345627173506
 30
0.0
 10
935.0925643265851
 20
4189.249291840968
 30
0.0
 10
935.0570111234025
 20
4189.040225753687
 30
0.0
 10
934.8105018378087
 20
4188.778508553857
 30
0.0
 10
934.4659559587709
 20
4188.561736920507
 30
0.0
 10
934.0201610406598
 20
4188.397142571632
 30
0.0
 10
933.5077559073818
 20
4188.293895799396
 30
0.0
 10
932.9589468389999
 20
4188.258691911265
 30
0.0
 10
932.4101377706174
 20
4188.293895799395
 30
0.0
 10
931.8977326373397
 20
4188.397142571634
 30
0.0
 10
931.4519377192287
 20
4188.561736920507
 30
0.0
 10
931.107391840191
 20
4188.778508553857
 30
0.0
 10
930.8608825545965
 20
4189.040225753687
 30
0.0
 10
930.8253293514143
 20
4189.249291840967
 30
0.0
 10
930.8089468389996
 20
4189.345627173506
 30
0.0
 11
935.1089468389997
 21
4189.345627173506
 31
0.0
 11
935.0356868118502
 21
4189.067396774199
 31
0.0
 11
934.8209014571363
 21
4188.808127173506
 31
0.0
 11
934.4792260132355
 21
4188.585487586389
 31
0.0
 11
934.0339468389998
 21
4188.414649864438
 31
0.0
 11
933.5154076376145
 21
4188.307257187081
 31
0.0
 11
932.9589468389997
 21
4188.270627173506
 31
0.0
 11
932.4024860403849
 21
4188.307257187081
 31
0.0
 11
931.8839468389997
 21
4188.414649864438
 31
0.0
 11
931.4386676647639
 21
4188.585487586389
 31
0.0
 11
931.0969922208632
 21
4188.808127173506
 31
0.0
 11
930.8822068661492
 21
4189.067396774199
 31
0.0
 11
930.8089468389996
 21
4189.345627173506
 31
0.0
  0
SPLINE
  5
B5
330
47
100
AcDbEntity
  8
0
  6
Continuous
 62
     7
100
AcDbSpline
210
0.0
220
0.0
230
1.0
 70
     8
 71
     3
 72
    17
 73
    13
 74
    11
 42
0.000000001
 43
0.0000000001
 44
0.00000001
 40
0.0
 40
0.0
 40
0.0
 40
0.0
 40
0.4078118445648977
 40
0.8847385387396094
 40
1.414281823262105
 40
1.971946936507895
 40
2.529612049976589
 40
3.0591553354084
 40
3.536082028975627
 40
3.943893867866604
 40
4.280573945057278
 40
4.568287659588911
 40
4.568287659588911
 40
4.568287659588911
 40
4.568287659588911
 10
931.0969922208632
 20
4189.883127173506
 30
0.0
 10
931.2080113753987
 20
4189.962570231379
 30
0.0
 10
931.448864917401
 20
4190.134920131085
 30
0.0
 10
931.898715819209
 20
4190.29238314083
 30
0.0
 10
932.4098465163461
 20
4190.397870656006
 30
0.0
 10
932.9590267521478
 20
4190.432421940382
 30
0.0
 10
933.5077356196925
 20
4190.397394222922
 30
0.0
 10
934.0201658044248
 20
4190.294103400311
 30
0.0
 10
934.4659549308822
 20
4190.129519235385
 30
0.0
 10
934.8105020451321
 20
4189.912745422145
 30
0.0
 10
935.057011091312
 20
4189.651028663618
 30
0.0
 10
935.0925643143194
 20
4189.441962526525
 30
0.0
 10
935.1089468389997
 20
4189.345627173506
 30
0.0
 11
931.0969922208632
 21
4189.883127173506
 31
0.0
 11
931.4386676647639
 21
4190.105766760625
 31
0.0
 11
931.8839468389997
 21
4190.276604482575
 31
0.0
 11
932.4024860403849
 21
4190.383997159931
 31
0.0
 11
932.9589468389997
 21
4190.420627173506
 31
0.0
 11
933.5154076376144
 21
4190.383997159931
 31
0.0
 11
934.0339468389998
 21
4190.276604482575
 31
0.0
 11
934.4792260132355
 21
4190.105766760625
 31
0.0
 11
934.8209014571362
 21
4189.883127173506
 31
0.0
 11
935.0356868118503
 21
4189.623857572814
 31
0.0
 11
935.1089468389997
 21
4189.345627173506
 31
0.0
  0
SPLINE
  5
B6
330
47
100
AcDbEntity
  8
0
  6
Continuous
 62
     7
100
AcDbSpline
210
0.0
220
0.0
230
1.0
 70
     8
 71
     3
 72
     9
 73
     5
 74
     3
 42
0.000000001
 43
0.0000000001
 44
0.00000001
 40
0.0
 40
0.0
 40
0.0
 40
0.0
 40
0.2877137213223815
 40
0.6243937964556565
 40
0.6243937964556565
 40
0.6243937964556565
 40
0.6243937964556565
 10
930.8089468389996
 20
4189.345627173506
 30
0.0
 10
930.8248969953776
 20
4189.442722687626
 30
0.0
 10
930.859511903158
 20
4189.653438514806
 30
0.0
 10
931.0137989315232
 20
4189.802663440513
 30
0.0
 10
931.0969922208632
 20
4189.883127173506
 30
0.0
 11
930.8089468389996
 21
4189.345627173506
 31
0.0
 11
930.8822068661492
 21
4189.623857572814
 31
0.0
 11
931.0969922208632
 21
4189.883127173506
 31
0.0
  0
SPLINE
  5
B7
330
47
100
AcDbEntity
  8
0
  6
Continuous
 62
     7
100
AcDbSpline
210
0.0
220
0.0
230
1.0
 70
     8
 71
     3
 72
    19
 73
    15
 74
    13
 42
0.000000001
 43
0.0000000001
 44
0.00000001
 40
0.0
 40
0.0
 40
0.0
 40
0.0
 40
0.4349160893029295
 40
0.9438510862189677
 40
1.560310842960587
 40
2.281246543733754
 40
3.081718954084575
 40
3.92470110535735
 40
4.767683256630011
 40
5.568155666980943
 40
6.289091367754112
 40
6.905551124495635
 40
7.414486121411674
 40
7.849402210714632
 40
7.849402210714632
 40
7.849402210714632
 40
7.849402210714632
 10
965.6538105676707
 20
4186.474792298105
 30
0.0
 10
965.678574830749
 20
4186.620415475938
 30
0.0
 10
965.7323180357523
 20
4186.936445613052
 30
0.0
 10
966.1049483684785
 20
4187.332064624936
 30
0.0
 10
966.6257735290225
 20
4187.659742678567
 30
0.0
 10
967.2996495688253
 20
4187.908548087279
 30
0.0
 10
968.0742154659509
 20
4188.064618789075
 30
0.0
 10
968.9038105676705
 20
4188.117833968296
 30
0.0
 10
969.7334056693903
 20
4188.064618789075
 30
0.0
 10
970.5079715665163
 20
4187.908548087278
 30
0.0
 10
971.1818476063188
 20
4187.659742678568
 30
0.0
 10
971.7026727668626
 20
4187.332064624934
 30
0.0
 10
972.0753030995891
 20
4186.936445613053
 30
0.0
 10
972.1290463045921
 20
4186.620415475938
 30
0.0
 10
972.1538105676707
 20
4186.474792298105
 30
0.0
 11
965.6538105676707
 21
4186.474792298105
 31
0.0
 11
965.7645524691757
 21
4186.895373134267
 31
0.0
 11
966.0892280053712
 21
4187.287292298104
 31
0.0
 11
966.6057141415004
 21
4187.62384051119
 31
0.0
 11
967.2788105676707
 21
4187.882083579254
 31
0.0
 11
968.0626488953461
 21
4188.044421347352
 31
0.0
 11
968.9038105676707
 21
4188.099792298105
 31
0.0
 11
969.7449722399951
 21
4188.044421347352
 31
0.0
 11
970.5288105676707
 21
4187.882083579254
 31
0.0
 11
971.201906993841
 21
4187.62384051119
 31
0.0
 11
971.7183931299701
 21
4187.287292298104
 31
0.0
 11
972.0430686661656
 21
4186.895373134267
 31
0.0
 11
972.1538105676707
 21
4186.474792298105
 31
0.0
  0
SPLINE
  5
B8
330
47
100
AcDbEntity
  8
0
  6
Continuous
 62
     7
100
AcDbSpline
210
0.0
220
0.0
230
1.0
 70
     8
 71
     3
 72
     9
 73
     5
 74
     3
 42
0.000000001
 43
0.0000000001
 44
0.00000001
 40
0.0
 40
0.0
 40
0.0
 40
0.0
 40
0.4349160914722163
 40
0.9438510898697977
 40
0.9438510898697977
 40
0.9438510898697977
 40
0.9438510898697977
 10
885.5512701892268
 20
4211.474792298105
 30
0.0
 10
885.5271594876638
 20
4211.328020008944
 30
0.0
 10
885.4748346362544
 20
4211.009496080016
 30
0.0
 10
885.2416100496375
 20
4210.783923522657
 30
0.0
 10
885.1158527515262
 20
4210.662292298105
 30
0.0
 11
885.5512701892268
 21
4211.474792298105
 31
0.0
 11
885.4405282877218
 21
4211.054211461943
 31
0.0
 11
885.1158527515262
 21
4210.662292298105
 31
0.0
  0
SPLINE
  5
B9
330
47
100
AcDbEntity
  8
0
  6
Continuous
 62
     7
100
AcDbSpline
210
0.0
220
0.0
230
1.0
 70
     8
 71
     3
 72
    17
 73
    13
 74
    11
 42
0.000000001
 43
0.0000000001
 44
0.00000001
 40
0.0
 40
0.0
 40
0.0
 40
0.0
 40
0.6164597613694837
 40
1.33739546113281
 40
2.137867868133823
 40
2.980850015952432
 40
3.823832163993885
 40
4.624304571904399
 40
5.34524027106024
 40
5.961700026755306
 40
6.47063502721077
 40
6.905551111892296
 40
6.905551111892296
 40
6.905551111892296
 40
6.905551111892296
 10
885.1158527515262
 20
4210.662292298105
 30
0.0
 10
884.94803310032
 20
4210.542203955524
 30
0.0
 10
884.5839521692934
 20
4210.281675032671
 30
0.0
 10
883.9039449899403
 20
4210.043649560933
 30
0.0
 10
883.1313055652097
 20
4209.88419168757
 30
0.0
 10
882.3011493946468
 20
4209.831963002173
 30
0.0
 10
881.4717057578093
 20
4209.884911876821
 30
0.0
 10
880.6971019908178
 20
4210.041049166692
 30
0.0
 10
880.0232347056499
 20
4210.28983918186
 30
0.0
 10
879.5024076763032
 20
4210.617520529369
 30
0.0
 10
879.1297777097218
 20
4211.013138877138
 30
0.0
 10
879.0760344709812
 20
4211.32916908852
 30
0.0
 10
879.0512701892268
 20
4211.474792298105
 30
0.0
 11
885.1158527515262
 21
4210.662292298105
 31
0.0
 11
884.5993666153971
 21
4210.32574408502
 31
0.0
 11
883.9262701892267
 21
4210.067501016956
 31
0.0
 11
883.1424318615512
 21
4209.905163248858
 31
0.0
 11
882.3012701892267
 21
4209.849792298105
 31
0.0
 11
881.4601085169022
 21
4209.905163248857
 31
0.0
 11
880.6762701892267
 21
4210.067501016956
 31
0.0
 11
880.0031737630563
 21
4210.32574408502
 31
0.0
 11
879.4866876269273
 21
4210.662292298104
 31
0.0
 11
879.1620120907319
 21
4211.054211461943
 31
0.0
 11
879.0512701892268
 21
4211.474792298105
 31
0.0
  0
SPLINE
  5
BA
330
47
100
AcDbEntity
  8
0
  6
Continuous
 62
     7
100
AcDbSpline
210
0.0
220
0.0
230
1.0
 70
     8
 71
     3
 72
     9
 73
     5
 74
     3
 42
0.000000001
 43
0.0000000001
 44
0.00000001
 40
0.0
 40
0.0
 40
0.0
 40
0.0
 40
0.3366800751332749
 40
0.624393796454777
 40
0.624393796454777
 40
0.624393796454777
 40
0.624393796454777
 10
907.1080885360342
 20
4196.808127173506
 30
0.0
 10
907.1912818253741
 20
4196.888590906498
 30
0.0
 10
907.3455688537396
 20
4197.037815832207
 30
0.0
 10
907.3801837615196
 20
4197.248531659384
 30
0.0
 10
907.3961339178977
 20
4197.345627173506
 30
0.0
 11
907.1080885360342
 21
4196.808127173506
 31
0.0
 11
907.3228738907482
 21
4197.067396774199
 31
0.0
 11
907.3961339178977
 21
4197.345627173506
 31
0.0
  0
SPLINE
  5
BB
330
47
100
AcDbEntity
  8
0
  6
Continuous
 62
     7
100
AcDbSpline
210
0.0
220
0.0
230
1.0
 70
     8
 71
     3
 72
    13
 73
     9
 74
     7
 42
0.000000001
 43
0.0000000001
 44
0.00000001
 40
0.0
 40
0.0
 40
0.0
 40
0.0
 40
0.4080730017970755
 40
0.8448202057365304
 40
1.296516598267767
 40
1.748212990798939
 40
2.184960194738134
 40
2.593033196535319
 40
2.593033196535319
 40
2.593033196535319
 40
2.593033196535319
 10
906.5199078381834
 20
4196.479601769722
 30
0.0
 10
906.3901734006043
 20
4196.521085338994
 30
0.0
 10
906.1215884281356
 20
4196.606967403006
 30
0.0
 10
905.6928075887568
 20
4196.672284883198
 30
0.0
 10
905.2461339178977
 20
4196.696859034945
 30
0.0
 10
904.7994602470387
 20
4196.672284883198
 30
0.0
 10
904.3706794076595
 20
4196.606967403004
 30
0.0
 10
904.1020944351908
 20
4196.521085338994
 30
0.0
 10
903.972359997612
 20
4196.479601769722
 30
0.0
 11
906.5199078381834
 21
4196.479601769722
 31
0.0
 11
906.1281819132491
 21
4196.593945002151
 31
0.0
 11
905.6971963044427
 21
4196.664652329349
 31
0.0
 11
905.2461339178976
 21
4196.688576286588
 31
0.0
 11
904.7950715313526
 21
4196.664652329348
 31
0.0
 11
904.3640859225463
 21
4196.593945002151
 31
0.0
 11
903.972359997612
 21
4196.479601769722
 31
0.0
  0
SPLINE
  5
BC
330
47
100
AcDbEntity
  8
0
  6
Continuous
 62
     7
100
AcDbSpline
210
0.0
220
0.0
230
1.0
 70
     8
 71
     3
 72
    17
 73
    13
 74
    11
 42
0.000000001
 43
0.0000000001
 44
0.00000001
 40
0.0
 40
0.0
 40
0.0
 40
0.0
 40
0.2877137145307536
 40
0.624393791721356
 40
1.032205630611836
 40
1.509132324179495
 40
2.03867560961149
 40
2.596340723080185
 40
3.154005836325861
 40
3.683549120848652
 40
4.160475815023689
 40
4.568287659588091
 40
4.568287659588091
 40
4.568287659588091
 40
4.568287659588091
 10
903.0961339178976
 20
4197.345627173506
 30
0.0
 10
903.1125164425779
 20
4197.249291820485
 30
0.0
 10
903.1480696655858
 20
4197.040225683396
 30
0.0
 10
903.3945787117648
 20
4196.778508924867
 30
0.0
 10
903.7391258260154
 20
4196.561735111628
 30
0.0
 10
904.1849149524727
 20
4196.397150946705
 30
0.0
 10
904.6973451372045
 20
4196.293860124088
 30
0.0
 10
905.2460540047497
 20
4196.258832406631
 30
0.0
 10
905.7952342405509
 20
4196.293383691003
 30
0.0
 10
906.3063649376886
 20
4196.398871206185
 30
0.0
 10
906.7562158394959
 20
4196.556334215928
 30
0.0
 10
906.9970693814985
 20
4196.728684115634
 30
0.0
 10
907.1080885360342
 20
4196.808127173506
 30
0.0
 11
903.0961339178976
 21
4197.345627173506
 31
0.0
 11
903.1693939450471
 21
4197.067396774199
 31
0.0
 11
903.3841792997611
 21
4196.808127173506
 31
0.0
 11
903.7258547436618
 21
4196.585487586389
 31
0.0
 11
904.1711339178976
 21
4196.414649864438
 31
0.0
 11
904.6896731192829
 21
4196.307257187081
 31
0.0
 11
905.2461339178976
 21
4196.270627173506
 31
0.0
 11
905.8025947165123
 21
4196.307257187081
 31
0.0
 11
906.3211339178977
 21
4196.414649864438
 31
0.0
 11
906.7664130921335
 21
4196.585487586389
 31
0.0
 11
907.1080885360342
 21
4196.808127173506
 31
0.0
  0
SPLINE
  5
BD
330
47
100
AcDbEntity
  8
0
  6
Continuous
 62
     7
100
AcDbSpline
210
0.0
220
0.0
230
1.0
 70
     8
 71
     3
 72
    19
 73
    15
 74
    13
 42
0.000000001
 43
0.0000000001
 44
0.00000001
 40
0.0
 40
0.0
 40
0.0
 40
0.0
 40
0.2877137191530658
 40
0.6243937928056431
 40
1.032205632742084
 40
1.509132327926743
 40
2.038675615799157
 40
2.596340732499
 40
3.154005849198843
 40
3.683549137071145
 40
4.160475832255804
 40
4.568287672192245
 40
4.90496774584475
 40
5.192681464997844
 40
5.192681464997844
 40
5.192681464997844
 40
5.192681464997844
 10
907.3961339178977
 20
4197.345627173506
 30
0.0
 10
907.3797514054834
 20
4197.441962506045
 30
0.0
 10
907.344198202301
 20
4197.651028593325
 30
0.0
 10
907.0976889167061
 20
4197.912745793155
 30
0.0
 10
906.7531430376691
 20
4198.129517426507
 30
0.0
 10
906.3073481195574
 20
4198.294111775381
 30
0.0
 10
905.7949429862797
 20
4198.397358547615
 30
0.0
 10
905.2461339178976
 20
4198.432562435748
 30
0.0
 10
904.6973248495158
 20
4198.397358547616
 30
0.0
 10
904.1849197162376
 20
4198.29411177538
 30
0.0
 10
903.7391247981265
 20
4198.129517426507
 30
0.0
 10
903.3945789190893
 20
4197.912745793157
 30
0.0
 10
903.1480696334942
 20
4197.651028593324
 30
0.0
 10
903.1125164303126
 20
4197.441962506045
 30
0.0
 10
903.0961339178976
 20
4197.345627173506
 30
0.0
 11
907.3961339178977
 21
4197.345627173506
 31
0.0
 11
907.3228738907483
 21
4197.623857572814
 31
0.0
 11
907.1080885360342
 21
4197.883127173506
 31
0.0
 11
906.7664130921335
 21
4198.105766760625
 31
0.0
 11
906.3211339178977
 21
4198.276604482575
 31
0.0
 11
905.8025947165123
 21
4198.383997159931
 31
0.0
 11
905.2461339178976
 21
4198.420627173506
 31
0.0
 11
904.6896731192829
 21
4198.383997159931
 31
0.0
 11
904.1711339178977
 21
4198.276604482575
 31
0.0
 11
903.7258547436619
 21
4198.105766760625
 31
0.0
 11
903.3841792997612
 21
4197.883127173506
 31
0.0
 11
903.1693939450472
 21
4197.623857572814
 31
0.0
 11
903.0961339178976
 21
4197.345627173506
 31
0.0
  0
SPLINE
  5
BE
330
47
100
AcDbEntity
  8
0
  6
Continuous
 62
     7
100
AcDbSpline
210
0.0
220
0.0
230
1.0
 70
     8
 71
     3
 72
     9
 73
     5
 74
     3
 42
0.000000001
 43
0.0000000001
 44
0.00000001
 40
0.0
 40
0.0
 40
0.0
 40
0.0
 40
0.4349160914722742
 40
0.9438510898697106
 40
0.9438510898697106
 40
0.9438510898697106
 40
0.9438510898697106
 10
972.1538105676707
 20
4186.474792298105
 30
0.0
 10
972.1296998661077
 20
4186.328020008946
 30
0.0
 10
972.0773750146975
 20
4186.009496080014
 30
0.0
 10
971.8441504280819
 20
4185.783923522657
 30
0.0
 10
971.7183931299701
 20
4185.662292298105
 30
0.0
 11
972.1538105676707
 21
4186.474792298105
 31
0.0
 11
972.0430686661655
 21
4186.054211461943
 31
0.0
 11
971.7183931299701
 21
4185.662292298105
 31
0.0
  0
SPLINE
  5
BF
330
47
100
AcDbEntity
  8
0
  6
Continuous
 62
     7
100
AcDbSpline
210
0.0
220
0.0
230
1.0
 70
     8
 71
     3
 72
    17
 73
    13
 74
    11
 42
0.000000001
 43
0.0000000001
 44
0.00000001
 40
0.0
 40
0.0
 40
0.0
 40
0.0
 40
0.6164597613694837
 40
1.337395461132704
 40
2.137867868133717
 40
2.980850015952326
 40
3.823832163993893
 40
4.624304571904295
 40
5.345240271060243
 40
5.961700026755309
 40
6.470635027210846
 40
6.905551111892342
 40
6.905551111892342
 40
6.905551111892342
 40
6.905551111892342
 10
971.7183931299701
 20
4185.662292298105
 30
0.0
 10
971.5505734787638
 20
4185.542203955523
 30
0.0
 10
971.1864925477373
 20
4185.28167503267
 30
0.0
 10
970.5064853683843
 20
4185.043649560934
 30
0.0
 10
969.7338459436536
 20
4184.88419168757
 30
0.0
 10
968.903689773091
 20
4184.831963002173
 30
0.0
 10
968.0742461362534
 20
4184.884911876819
 30
0.0
 10
967.2996423692618
 20
4185.041049166693
 30
0.0
 10
966.6257750840934
 20
4185.28983918186
 30
0.0
 10
966.1049480547472
 20
4185.617520529369
 30
0.0
 10
965.7323180881655
 20
4186.013138877138
 30
0.0
 10
965.678574849425
 20
4186.329169088519
 30
0.0
 10
965.6538105676707
 20
4186.474792298105
 30
0.0
 11
971.7183931299701
 21
4185.662292298105
 31
0.0
 11
971.201906993841
 21
4185.32574408502
 31
0.0
 11
970.5288105676707
 21
4185.067501016956
 31
0.0
 11
969.7449722399953
 21
4184.905163248858
 31
0.0
 11
968.9038105676707
 21
4184.849792298105
 31
0.0
 11
968.0626488953461
 21
4184.905163248857
 31
0.0
 11
967.2788105676707
 21
4185.067501016956
 31
0.0
 11
966.6057141415002
 21
4185.32574408502
 31
0.0
 11
966.0892280053712
 21
4185.662292298104
 31
0.0
 11
965.7645524691757
 21
4186.054211461943
 31
0.0
 11
965.6538105676707
 21
4186.474792298105
 31
0.0
  0
SPLINE
  5
C0
330
47
100
AcDbEntity
  8
0
  6
Continuous
 62
     7
100
AcDbSpline
210
0.0
220
0.0
230
1.0
 70
     8
 71
     3
 72
     9
 73
     5
 74
     3
 42
0.000000001
 43
0.0000000001
 44
0.00000001
 40
0.0
 40
0.0
 40
0.0
 40
0.0
 40
0.3366800751332749
 40
0.624393796454777
 40
0.624393796454777
 40
0.624393796454777
 40
0.624393796454777
 10
820.5055481575903
 20
4221.808127173506
 30
0.0
 10
820.5887414469302
 20
4221.888590906498
 30
0.0
 10
820.7430284752957
 20
4222.037815832207
 30
0.0
 10
820.7776433830754
 20
4222.248531659384
 30
0.0
 10
820.7935935394538
 20
4222.345627173506
 30
0.0
 11
820.5055481575903
 21
4221.808127173506
 31
0.0
 11
820.7203335123043
 21
4222.067396774199
 31
0.0
 11
820.7935935394538
 21
4222.345627173506
 31
0.0
  0
SPLINE
  5
C1
330
47
100
AcDbEntity
  8
0
  6
Continuous
 62
     7
100
AcDbSpline
210
0.0
220
0.0
230
1.0
 70
     8
 71
     3
 72
    13
 73
     9
 74
     7
 42
0.000000001
 43
0.0000000001
 44
0.00000001
 40
0.0
 40
0.0
 40
0.0
 40
0.0
 40
0.4080730017971846
 40
0.8448202057365273
 40
1.296516598267699
 40
1.748212990798984
 40
2.184960194738327
 40
2.593033196535512
 40
2.593033196535512
 40
2.593033196535512
 40
2.593033196535512
 10
819.9173674597395
 20
4221.479601769722
 30
0.0
 10
819.7876330221605
 20
4221.521085338994
 30
0.0
 10
819.5190480496913
 20
4221.606967403004
 30
0.0
 10
819.0902672103127
 20
4221.672284883199
 30
0.0
 10
818.643593539454
 20
4221.696859034946
 30
0.0
 10
818.1969198685947
 20
4221.672284883198
 30
0.0
 10
817.7681390292161
 20
4221.606967403005
 30
0.0
 10
817.4995540567471
 20
4221.521085338994
 30
0.0
 10
817.3698196191681
 20
4221.479601769722
 30
0.0
 11
819.9173674597395
 21
4221.479601769722
 31
0.0
 11
819.5256415348051
 21
4221.593945002151
 31
0.0
 11
819.0946559259988
 21
4221.664652329349
 31
0.0
 11
818.6435935394538
 21
4221.688576286589
 31
0.0
 11
818.1925311529087
 21
4221.664652329349
 31
0.0
 11
817.7615455441024
 21
4221.593945002151
 31
0.0
 11
817.3698196191681
 21
4221.479601769722
 31
0.0
  0
SPLINE
  5
C2
330
47
100
AcDbEntity
  8
0
  6
Continuous
 62
     7
100
AcDbSpline
210
0.0
220
0.0
230
1.0
 70
     8
 71
     3
 72
    17
 73
    13
 74
    11
 42
0.000000001
 43
0.0000000001
 44
0.00000001
 40
0.0
 40
0.0
 40
0.0
 40
0.0
 40
0.2877137145307825
 40
0.624393791721385
 40
1.032205630611865
 40
1.509132324179524
 40
2.038675609611408
 40
2.596340723080216
 40
3.154005836325892
 40
3.683549120848572
 40
4.160475815023609
 40
4.568287659588011
 40
4.568287659588011
 40
4.568287659588011
 40
4.568287659588011
 10
816.4935935394537
 20
4222.345627173506
 30
0.0
 10
816.5099760641344
 20
4222.249291820486
 30
0.0
 10
816.5455292871417
 20
4222.040225683395
 30
0.0
 10
816.7920383333213
 20
4221.778508924869
 30
0.0
 10
817.1365854475717
 20
4221.561735111628
 30
0.0
 10
817.5823745740287
 20
4221.397150946702
 30
0.0
 10
818.0948047587609
 20
4221.293860124089
 30
0.0
 10
818.6435136263058
 20
4221.258832406629
 30
0.0
 10
819.1926938621076
 20
4221.293383691005
 30
0.0
 10
819.7038245592446
 20
4221.398871206183
 30
0.0
 10
820.1536754610522
 20
4221.556334215929
 30
0.0
 10
820.3945290030546
 20
4221.728684115634
 30
0.0
 10
820.5055481575903
 20
4221.808127173506
 30
0.0
 11
816.4935935394537
 21
4222.345627173506
 31
0.0
 11
816.5668535666033
 21
4222.067396774199
 31
0.0
 11
816.7816389213173
 21
4221.808127173506
 31
0.0
 11
817.123314365218
 21
4221.585487586389
 31
0.0
 11
817.5685935394538
 21
4221.414649864438
 31
0.0
 11
818.087132740839
 21
4221.307257187081
 31
0.0
 11
818.6435935394538
 21
4221.270627173506
 31
0.0
 11
819.2000543380685
 21
4221.307257187081
 31
0.0
 11
819.7185935394538
 21
4221.414649864438
 31
0.0
 11
820.1638727136896
 21
4221.585487586389
 31
0.0
 11
820.5055481575903
 21
4221.808127173506
 31
0.0
  0
SPLINE
  5
C3
330
47
100
AcDbEntity
  8
0
  6
Continuous
 62
     7
100
AcDbSpline
210
0.0
220
0.0
230
1.0
 70
     8
 71
     3
 72
    19
 73
    15
 74
    13
 42
0.000000001
 43
0.0000000001
 44
0.00000001
 40
0.0
 40
0.0
 40
0.0
 40
0.0
 40
0.2877137191530658
 40
0.6243937928056431
 40
1.032205632742084
 40
1.509132327926637
 40
2.038675615798939
 40
2.596340732498896
 40
3.154005849198739
 40
3.683549137071152
 40
4.160475832255812
 40
4.568287672192253
 40
4.904967745844685
 40
5.192681464997809
 40
5.192681464997809
 40
5.192681464997809
 40
5.192681464997809
 10
820.7935935394538
 20
4222.345627173506
 30
0.0
 10
820.777211027039
 20
4222.441962506045
 30
0.0
 10
820.7416578238573
 20
4222.651028593325
 30
0.0
 10
820.4951485382622
 20
4222.912745793155
 30
0.0
 10
820.1506026592252
 20
4223.129517426507
 30
0.0
 10
819.7048077411137
 20
4223.29411177538
 30
0.0
 10
819.1924026078359
 20
4223.397358547614
 30
0.0
 10
818.6435935394538
 20
4223.43256243575
 30
0.0
 10
818.0947844710718
 20
4223.397358547613
 30
0.0
 10
817.5823793377938
 20
4223.294111775381
 30
0.0
 10
817.1365844196825
 20
4223.129517426507
 30
0.0
 10
816.7920385406453
 20
4222.912745793156
 30
0.0
 10
816.5455292550505
 20
4222.651028593324
 30
0.0
 10
816.5099760518686
 20
4222.441962506045
 30
0.0
 10
816.4935935394537
 20
4222.345627173506
 30
0.0
 11
820.7935935394538
 21
4222.345627173506
 31
0.0
 11
820.7203335123044
 21
4222.623857572814
 31
0.0
 11
820.5055481575903
 21
4222.883127173506
 31
0.0
 11
820.1638727136896
 21
4223.105766760625
 31
0.0
 11
819.7185935394539
 21
4223.276604482575
 31
0.0
 11
819.2000543380686
 21
4223.383997159931
 31
0.0
 11
818.6435935394538
 21
4223.420627173506
 31
0.0
 11
818.0871327408391
 21
4223.383997159931
 31
0.0
 11
817.5685935394538
 21
4223.276604482575
 31
0.0
 11
817.123314365218
 21
4223.105766760625
 31
0.0
 11
816.7816389213173
 21
4222.883127173506
 31
0.0
 11
816.5668535666034
 21
4222.623857572814
 31
0.0
 11
816.4935935394537
 21
4222.345627173506
 31
0.0
  0
SPLINE
  5
C4
330
47
100
AcDbEntity
  8
0
  6
Continuous
 62
     7
100
AcDbSpline
210
0.0
220
0.0
230
1.0
 70
     8
 71
     3
 72
     9
 73
     5
 74
     3
 42
0.000000001
 43
0.0000000001
 44
0.00000001
 40
0.0
 40
0.0
 40
0.0
 40
0.0
 40
0.4349160914722163
 40
0.9438510898697977
 40
0.9438510898697977
 40
0.9438510898697977
 40
0.9438510898697977
 10
712.3461894323391
 20
4261.474792298105
 30
0.0
 10
712.3220787307761
 20
4261.328020008945
 30
0.0
 10
712.2697538793666
 20
4261.009496080016
 30
0.0
 10
712.0365292927502
 20
4260.783923522657
 30
0.0
 10
711.9107719946385
 20
4260.662292298105
 30
0.0
 11
712.3461894323391
 21
4261.474792298105
 31
0.0
 11
712.2354475308341
 21
4261.054211461943
 31
0.0
 11
711.9107719946385
 21
4260.662292298105
 31
0.0
  0
SPLINE
  5
C5
330
47
100
AcDbEntity
  8
0
  6
Continuous
 62
     7
100
AcDbSpline
210
0.0
220
0.0
230
1.0
 70
     8
 71
     3
 72
    17
 73
    13
 74
    11
 42
0.000000001
 43
0.0000000001
 44
0.00000001
 40
0.0
 40
0.0
 40
0.0
 40
0.0
 40
0.616459761369579
 40
1.337395461132693
 40
2.137867868133818
 40
2.980850015952313
 40
3.82383216399388
 40
4.624304571904283
 40
5.345240271060231
 40
5.961700026755296
 40
6.470635027210133
 40
6.905551111892509
 40
6.905551111892509
 40
6.905551111892509
 40
6.905551111892509
 10
711.9107719946385
 20
4260.662292298105
 30
0.0
 10
711.7429523434324
 20
4260.542203955525
 30
0.0
 10
711.3788714124055
 20
4260.281675032668
 30
0.0
 10
710.6988642330531
 20
4260.043649560936
 30
0.0
 10
709.926224808322
 20
4259.88419168757
 30
0.0
 10
709.0960686377593
 20
4259.831963002174
 30
0.0
 10
708.2666250009215
 20
4259.884911876819
 30
0.0
 10
707.4920212339305
 20
4260.041049166693
 30
0.0
 10
706.8181539487616
 20
4260.289839181859
 30
0.0
 10
706.2973269194159
 20
4260.617520529369
 30
0.0
 10
705.9246969528334
 20
4261.013138877137
 30
0.0
 10
705.8709537140934
 20
4261.329169088519
 30
0.0
 10
705.8461894323391
 20
4261.474792298105
 30
0.0
 11
711.9107719946385
 21
4260.662292298105
 31
0.0
 11
711.3942858585093
 21
4260.32574408502
 31
0.0
 11
710.7211894323391
 21
4260.067501016956
 31
0.0
 11
709.9373511046635
 21
4259.905163248858
 31
0.0
 11
709.0961894323391
 21
4259.849792298105
 31
0.0
 11
708.2550277600145
 21
4259.905163248857
 31
0.0
 11
707.4711894323391
 21
4260.067501016956
 31
0.0
 11
706.7980930061686
 21
4260.32574408502
 31
0.0
 11
706.2816068700396
 21
4260.662292298104
 31
0.0
 11
705.9569313338441
 21
4261.054211461942
 31
0.0
 11
705.8461894323391
 21
4261.474792298105
 31
0.0
  0
SPLINE
  5
C6
330
47
100
AcDbEntity
  8
0
  6
Continuous
 62
     7
100
AcDbSpline
210
0.0
220
0.0
230
1.0
 70
     8
 71
     3
 72
     9
 73
     5
 74
     3
 42
0.000000001
 43
0.0000000001
 44
0.00000001
 40
0.0
 40
0.0
 40
0.0
 40
0.0
 40
0.3366800751332749
 40
0.6243937964547479
 40
0.6243937964547479
 40
0.6243937964547479
 40
0.6243937964547479
 10
733.9030077791465
 20
4246.808127173506
 30
0.0
 10
733.9862010684865
 20
4246.888590906499
 30
0.0
 10
734.1404880968516
 20
4247.037815832206
 30
0.0
 10
734.1751030046316
 20
4247.248531659385
 30
0.0
 10
734.1910531610099
 20
4247.345627173506
 30
0.0
 11
733.9030077791465
 21
4246.808127173506
 31
0.0
 11
734.1177931338605
 21
4247.067396774199
 31
0.0
 11
734.1910531610099
 21
4247.345627173506
 31
0.0
  0
SPLINE
  5
C7
330
47
100
AcDbEntity
  8
0
  6
Continuous
 62
     7
100
AcDbSpline
210
0.0
220
0.0
230
1.0
 70
     8
 71
     3
 72
    13
 73
     9
 74
     7
 42
0.000000001
 43
0.0000000001
 44
0.00000001
 40
0.0
 40
0.0
 40
0.0
 40
0.0
 40
0.4080730017971846
 40
0.8448202057366395
 40
1.296516598267811
 40
1.748212990798983
 40
2.184960194738438
 40
2.593033196535513
 40
2.593033196535513
 40
2.593033196535513
 40
2.593033196535513
 10
733.3148270812957
 20
4246.479601769722
 30
0.0
 10
733.1850926437169
 20
4246.521085338994
 30
0.0
 10
732.9165076712476
 20
4246.606967403004
 30
0.0
 10
732.4877268318692
 20
4246.672284883201
 30
0.0
 10
732.0410531610098
 20
4246.696859034944
 30
0.0
 10
731.5943794901509
 20
4246.672284883198
 30
0.0
 10
731.1655986507722
 20
4246.606967403006
 30
0.0
 10
730.8970136783032
 20
4246.521085338994
 30
0.0
 10
730.7672792407243
 20
4246.479601769722
 30
0.0
 11
733.3148270812957
 21
4246.479601769722
 31
0.0
 11
732.9231011563613
 21
4246.593945002151
 31
0.0
 11
732.4921155475549
 21
4246.664652329349
 31
0.0
 11
732.0410531610099
 21
4246.688576286589
 31
0.0
 11
731.5899907744649
 21
4246.664652329349
 31
0.0
 11
731.1590051656585
 21
4246.593945002151
 31
0.0
 11
730.7672792407243
 21
4246.479601769722
 31
0.0
  0
SPLINE
  5
C8
330
47
100
AcDbEntity
  8
0
  6
Continuous
 62
     7
100
AcDbSpline
210
0.0
220
0.0
230
1.0
 70
     8
 71
     3
 72
    17
 73
    13
 74
    11
 42
0.000000001
 43
0.0000000001
 44
0.00000001
 40
0.0
 40
0.0
 40
0.0
 40
0.0
 40
0.2877137145307536
 40
0.624393791721356
 40
1.032205630611836
 40
1.509132324179601
 40
2.038675609611485
 40
2.59634072308018
 40
3.154005836325856
 40
3.683549120848536
 40
4.160475815023573
 40
4.568287659588069
 40
4.568287659588069
 40
4.568287659588069
 40
4.568287659588069
 10
729.89105316101
 20
4247.345627173506
 30
0.0
 10
729.9074356856903
 20
4247.249291820486
 30
0.0
 10
729.942988908698
 20
4247.040225683396
 30
0.0
 10
730.1894979548772
 20
4246.778508924867
 30
0.0
 10
730.534045069128
 20
4246.561735111628
 30
0.0
 10
730.979834195585
 20
4246.397150946704
 30
0.0
 10
731.4922643803168
 20
4246.293860124088
 30
0.0
 10
732.0409732478619
 20
4246.258832406629
 30
0.0
 10
732.5901534836632
 20
4246.293383691003
 30
0.0
 10
733.1012841808006
 20
4246.398871206184
 30
0.0
 10
733.5511350826083
 20
4246.556334215928
 30
0.0
 10
733.7919886246108
 20
4246.728684115634
 30
0.0
 10
733.9030077791465
 20
4246.808127173506
 30
0.0
 11
729.89105316101
 21
4247.345627173506
 31
0.0
 11
729.9643131881594
 21
4247.067396774199
 31
0.0
 11
730.1790985428734
 21
4246.808127173506
 31
0.0
 11
730.5207739867741
 21
4246.585487586389
 31
0.0
 11
730.96605316101
 21
4246.414649864438
 31
0.0
 11
731.4845923623952
 21
4246.307257187081
 31
0.0
 11
732.0410531610099
 21
4246.270627173506
 31
0.0
 11
732.5975139596246
 21
4246.307257187081
 31
0.0
 11
733.1160531610099
 21
4246.414649864438
 31
0.0
 11
733.5613323352457
 21
4246.585487586389
 31
0.0
 11
733.9030077791465
 21
4246.808127173506
 31
0.0
  0
SPLINE
  5
C9
330
47
100
AcDbEntity
  8
0
  6
Continuous
 62
     7
100
AcDbSpline
210
0.0
220
0.0
230
1.0
 70
     8
 71
     3
 72
    19
 73
    15
 74
    13
 42
0.000000001
 43
0.0000000001
 44
0.00000001
 40
0.0
 40
0.0
 40
0.0
 40
0.0
 40
0.2877137191530658
 40
0.6243937928055705
 40
1.032205632742011
 40
1.509132327926777
 40
2.038675615799079
 40
2.596340732498922
 40
3.154005849198765
 40
3.683549137071068
 40
4.160475832255726
 40
4.568287672192263
 40
4.904967745844695
 40
5.192681464997789
 40
5.192681464997789
 40
5.192681464997789
 40
5.192681464997789
 10
734.1910531610099
 20
4247.345627173506
 30
0.0
 10
734.1746706485952
 20
4247.441962506045
 30
0.0
 10
734.1391174454134
 20
4247.651028593325
 30
0.0
 10
733.8926081598185
 20
4247.912745793155
 30
0.0
 10
733.5480622807813
 20
4248.129517426505
 30
0.0
 10
733.1022673626699
 20
4248.294111775381
 30
0.0
 10
732.5898622293919
 20
4248.397358547615
 30
0.0
 10
732.0410531610098
 20
4248.432562435748
 30
0.0
 10
731.492244092628
 20
4248.397358547615
 30
0.0
 10
730.9798389593502
 20
4248.294111775381
 30
0.0
 10
730.5340440412383
 20
4248.129517426506
 30
0.0
 10
730.1894981622015
 20
4247.912745793157
 30
0.0
 10
729.9429888766067
 20
4247.651028593324
 30
0.0
 10
729.9074356734247
 20
4247.441962506045
 30
0.0
 10
729.89105316101
 20
4247.345627173506
 30
0.0
 11
734.1910531610099
 21
4247.345627173506
 31
0.0
 11
734.1177931338605
 21
4247.623857572814
 31
0.0
 11
733.9030077791465
 21
4247.883127173506
 31
0.0
 11
733.5613323352458
 21
4248.105766760625
 31
0.0
 11
733.1160531610099
 21
4248.276604482575
 31
0.0
 11
732.5975139596246
 21
4248.383997159931
 31
0.0
 11
732.0410531610099
 21
4248.420627173506
 31
0.0
 11
731.4845923623952
 21
4248.383997159931
 31
0.0
 11
730.96605316101
 21
4248.276604482575
 31
0.0
 11
730.5207739867742
 21
4248.105766760625
 31
0.0
 11
730.1790985428734
 21
4247.883127173506
 31
0.0
 11
729.9643131881595
 21
4247.623857572814
 31
0.0
 11
729.89105316101
 21
4247.345627173506
 31
0.0
  0
SPLINE
  5
CA
330
47
100
AcDbEntity
  8
0
  6
Continuous
 62
     7
100
AcDbSpline
210
0.0
220
0.0
230
1.0
 70
     8
 71
     3
 72
    19
 73
    15
 74
    13
 42
0.000000001
 43
0.0000000001
 44
0.00000001
 40
0.0
 40
0.0
 40
0.0
 40
0.0
 40
0.4349160893029584
 40
0.9438510862196244
 40
1.560310842960556
 40
2.28124654373405
 40
3.081718954084982
 40
3.92470110535781
 40
4.767683256630298
 40
5.568155666981119
 40
6.289091367754825
 40
6.905551124495852
 40
7.414486121412518
 40
7.849402210715505
 40
7.849402210715505
 40
7.849402210715505
 40
7.849402210715505
 10
627.8461894323391
 20
4193.924810802919
 30
0.0
 10
627.8709536954177
 20
4194.070433980753
 30
0.0
 10
627.9246969004209
 20
4194.386464117864
 30
0.0
 10
628.2973272331459
 20
4194.78208312975
 30
0.0
 10
628.8181523936918
 20
4195.109761183381
 30
0.0
 10
629.492028433493
 20
4195.358566592094
 30
0.0
 10
630.2665943306191
 20
4195.51463729389
 30
0.0
 10
631.0961894323389
 20
4195.567852473108
 30
0.0
 10
631.9257845340587
 20
4195.514637293891
 30
0.0
 10
632.7003504311849
 20
4195.358566592094
 30
0.0
 10
633.3742264709863
 20
4195.10976118338
 30
0.0
 10
633.895051631532
 20
4194.78208312975
 30
0.0
 10
634.2676819642572
 20
4194.386464117864
 30
0.0
 10
634.3214251692605
 20
4194.070433980753
 30
0.0
 10
634.3461894323391
 20
4193.924810802919
 30
0.0
 11
627.8461894323391
 21
4193.924810802919
 31
0.0
 11
627.9569313338442
 21
4194.345391639081
 31
0.0
 11
628.2816068700396
 21
4194.737310802919
 31
0.0
 11
628.7980930061685
 21
4195.073859016004
 31
0.0
 11
629.4711894323389
 21
4195.332102084069
 31
0.0
 11
630.2550277600144
 21
4195.494439852167
 31
0.0
 11
631.0961894323391
 21
4195.549810802919
 31
0.0
 11
631.9373511046634
 21
4195.494439852167
 31
0.0
 11
632.7211894323389
 21
4195.332102084069
 31
0.0
 11
633.3942858585094
 21
4195.073859016004
 31
0.0
 11
633.9107719946385
 21
4194.737310802919
 31
0.0
 11
634.2354475308339
 21
4194.345391639081
 31
0.0
 11
634.3461894323391
 21
4193.924810802919
 31
0.0
  0
SPLINE
  5
CB
330
47
100
AcDbEntity
  8
0
  6
Continuous
 62
     7
100
AcDbSpline
210
0.0
220
0.0
230
1.0
 70
     8
 71
     3
 72
    13
 73
     9
 74
     7
 42
0.000000001
 43
0.0000000001
 44
0.00000001
 40
0.0
 40
0.0
 40
0.0
 40
0.0
 40
0.4080730017970755
 40
0.8448202057364183
 40
1.296516598267655
 40
1.748212990798892
 40
2.184960194738123
 40
2.593033196535417
 40
2.593033196535417
 40
2.593033196535417
 40
2.593033196535417
 10
838.972359997612
 20
4140.187950523733
 30
0.0
 10
839.102094435191
 20
4140.229434093006
 30
0.0
 10
839.37067940766
 20
4140.315316157016
 30
0.0
 10
839.7994602470382
 20
4140.380633637209
 30
0.0
 10
840.2461339178979
 20
4140.405207788956
 30
0.0
 10
840.6928075887568
 20
4140.380633637211
 30
0.0
 10
841.1215884281353
 20
4140.315316157014
 30
0.0
 10
841.3901734006046
 20
4140.229434093006
 30
0.0
 10
841.5199078381834
 20
4140.187950523733
 30
0.0
 11
838.972359997612
 21
4140.187950523733
 31
0.0
 11
839.3640859225462
 21
4140.302293756163
 31
0.0
 11
839.7950715313525
 21
4140.373001083361
 31
0.0
 11
840.2461339178976
 21
4140.396925040599
 31
0.0
 11
840.6971963044427
 21
4140.373001083361
 31
0.0
 11
841.1281819132489
 21
4140.302293756163
 31
0.0
 11
841.5199078381834
 21
4140.187950523733
 31
0.0
  0
SPLINE
  5
CC
330
47
100
AcDbEntity
  8
0
  6
Continuous
 62
     7
100
AcDbSpline
210
0.0
220
0.0
230
1.0
 70
     8
 71
     3
 72
    17
 73
    13
 74
    11
 42
0.000000001
 43
0.0000000001
 44
0.00000001
 40
0.0
 40
0.0
 40
0.0
 40
0.0
 40
0.4078118445648977
 40
0.8847385387396094
 40
1.4142818232624
 40
1.971946936508077
 40
2.529612049976885
 40
3.059155335408769
 40
3.536082028975996
 40
3.943893867867067
 40
4.280573945058298
 40
4.56828765958908
 40
4.56828765958908
 40
4.56828765958908
 40
4.56828765958908
 10
842.1080885360342
 20
4140.516475927518
 30
0.0
 10
841.9970693814985
 20
4140.437032869644
 30
0.0
 10
841.7562158394962
 20
4140.264682969937
 30
0.0
 10
841.3063649376882
 20
4140.107219960196
 30
0.0
 10
840.7952342405512
 20
4140.001732445015
 30
0.0
 10
840.2460540047497
 20
4139.967181160641
 30
0.0
 10
839.6973451372045
 20
4140.0022088781
 30
0.0
 10
839.184914952473
 20
4140.105499700714
 30
0.0
 10
838.739125826015
 20
4140.270083865638
 30
0.0
 10
838.3945787117648
 20
4140.486857678879
 30
0.0
 10
838.148069665586
 20
4140.748574437408
 30
0.0
 10
838.1125164425781
 20
4140.957640574497
 30
0.0
 10
838.0961339178976
 20
4141.053975927518
 30
0.0
 11
842.1080885360342
 21
4140.516475927518
 31
0.0
 11
841.7664130921335
 21
4140.293836340399
 31
0.0
 11
841.3211339178977
 21
4140.122998618449
 31
0.0
 11
840.8025947165123
 21
4140.015605941092
 31
0.0
 11
840.2461339178976
 21
4139.978975927517
 31
0.0
 11
839.6896731192828
 21
4140.015605941092
 31
0.0
 11
839.1711339178976
 21
4140.122998618449
 31
0.0
 11
838.7258547436619
 21
4140.293836340399
 31
0.0
 11
838.3841792997611
 21
4140.516475927518
 31
0.0
 11
838.1693939450472
 21
4140.775745528211
 31
0.0
 11
838.0961339178976
 21
4141.053975927518
 31
0.0
  0
SPLINE
  5
CD
330
47
100
AcDbEntity
  8
0
  6
Continuous
 62
     7
100
AcDbSpline
210
0.0
220
0.0
230
1.0
 70
     8
 71
     3
 72
     9
 73
     5
 74
     3
 42
0.000000001
 43
0.0000000001
 44
0.00000001
 40
0.0
 40
0.0
 40
0.0
 40
0.0
 40
0.4349160914722452
 40
0.9438510898697541
 40
0.9438510898697541
 40
0.9438510898697541
 40
0.9438510898697541
 10
807.5512701892268
 20
4143.924810802919
 30
0.0
 10
807.527159487664
 20
4143.77803851376
 30
0.0
 10
807.4748346362535
 20
4143.459514584827
 30
0.0
 10
807.2416100496379
 20
4143.233942027471
 30
0.0
 10
807.1158527515262
 20
4143.112310802919
 30
0.0
 11
807.5512701892268
 21
4143.924810802919
 31
0.0
 11
807.4405282877217
 21
4143.504229966757
 31
0.0
 11
807.1158527515262
 21
4143.112310802919
 31
0.0
  0
SPLINE
  5
CE
330
47
100
AcDbEntity
  8
0
  6
Continuous
 62
     7
100
AcDbSpline
210
0.0
220
0.0
230
1.0
 70
     8
 71
     3
 72
    17
 73
    13
 74
    11
 42
0.000000001
 43
0.0000000001
 44
0.00000001
 40
0.0
 40
0.0
 40
0.0
 40
0.0
 40
0.6164597613694837
 40
1.337395461133136
 40
2.137867868134149
 40
2.980850015952698
 40
3.823832163994151
 40
4.624304571904481
 40
5.345240271060648
 40
5.96170002675621
 40
6.470635027211046
 40
6.905551111892543
 40
6.905551111892543
 40
6.905551111892543
 40
6.905551111892543
 10
807.1158527515262
 20
4143.112310802919
 30
0.0
 10
806.9480331003201
 20
4142.992222460339
 30
0.0
 10
806.5839521692932
 20
4142.731693537482
 30
0.0
 10
805.9039449899406
 20
4142.493668065747
 30
0.0
 10
805.1313055652097
 20
4142.334210192381
 30
0.0
 10
804.3011493946469
 20
4142.281981506989
 30
0.0
 10
803.4717057578093
 20
4142.334930381634
 30
0.0
 10
802.6971019908179
 20
4142.491067671506
 30
0.0
 10
802.0232347056491
 20
4142.739857686673
 30
0.0
 10
801.5024076763041
 20
4143.067539034185
 30
0.0
 10
801.1297777097211
 20
4143.463157381951
 30
0.0
 10
801.0760344709811
 20
4143.779187593334
 30
0.0
 10
801.0512701892268
 20
4143.924810802919
 30
0.0
 11
807.1158527515262
 21
4143.112310802919
 31
0.0
 11
806.5993666153971
 21
4142.775762589834
 31
0.0
 11
805.9262701892267
 21
4142.517519521769
 31
0.0
 11
805.1424318615512
 21
4142.355181753671
 31
0.0
 11
804.3012701892267
 21
4142.299810802919
 31
0.0
 11
803.4601085169022
 21
4142.355181753671
 31
0.0
 11
802.6762701892267
 21
4142.517519521769
 31
0.0
 11
802.0031737630563
 21
4142.775762589834
 31
0.0
 11
801.4866876269273
 21
4143.112310802919
 31
0.0
 11
801.1620120907318
 21
4143.504229966757
 31
0.0
 11
801.0512701892268
 21
4143.924810802919
 31
0.0
  0
SPLINE
  5
CF
330
47
100
AcDbEntity
  8
0
  6
Continuous
 62
     7
100
AcDbSpline
210
0.0
220
0.0
230
1.0
 70
     8
 71
     3
 72
     9
 73
     5
 74
     3
 42
0.000000001
 43
0.0000000001
 44
0.00000001
 40
0.0
 40
0.0
 40
0.0
 40
0.0
 40
0.2877137213223526
 40
0.6243937964556274
 40
0.6243937964556274
 40
0.6243937964556274
 40
0.6243937964556274
 10
842.3961339178976
 20
4141.053975927518
 30
0.0
 10
842.3801837615193
 20
4140.956880413396
 30
0.0
 10
842.3455688537397
 20
4140.746164586219
 30
0.0
 10
842.1912818253742
 20
4140.59693966051
 30
0.0
 10
842.1080885360342
 20
4140.516475927518
 30
0.0
 11
842.3961339178976
 21
4141.053975927518
 31
0.0
 11
842.3228738907482
 21
4140.77574552821
 31
0.0
 11
842.1080885360342
 21
4140.516475927518
 31
0.0
  0
SPLINE
  5
D0
330
47
100
AcDbEntity
  8
0
  6
Continuous
 62
     7
100
AcDbSpline
210
0.0
220
0.0
230
1.0
 70
     8
 71
     3
 72
    19
 73
    15
 74
    13
 42
0.000000001
 43
0.0000000001
 44
0.00000001
 40
0.0
 40
0.0
 40
0.0
 40
0.0
 40
0.2877137191521862
 40
0.624393792804691
 40
1.032205632740635
 40
1.50913232792562
 40
2.038675615798219
 40
2.596340732498062
 40
3.154005849197905
 40
3.683549137070503
 40
4.160475832255382
 40
4.568287672191421
 40
4.904967745843926
 40
5.192681464996112
 40
5.192681464996112
 40
5.192681464996112
 40
5.192681464996112
 10
838.0961339178976
 20
4141.053975927518
 30
0.0
 10
838.1125164303122
 20
4141.150311260056
 30
0.0
 10
838.1480696334945
 20
4141.359377347337
 30
0.0
 10
838.3945789190889
 20
4141.621094547168
 30
0.0
 10
838.7391247981268
 20
4141.837866180517
 30
0.0
 10
839.1849197162371
 20
4142.00246052939
 30
0.0
 10
839.6973248495156
 20
4142.105707301627
 30
0.0
 10
840.2461339178975
 20
4142.140911189761
 30
0.0
 10
840.7949429862796
 20
4142.105707301626
 30
0.0
 10
841.3073481195581
 20
4142.002460529394
 30
0.0
 10
841.7531430376686
 20
4141.837866180516
 30
0.0
 10
842.0976889167065
 20
4141.621094547168
 30
0.0
 10
842.3441982023007
 20
4141.359377347337
 30
0.0
 10
842.3797514054828
 20
4141.150311260057
 30
0.0
 10
842.3961339178976
 20
4141.053975927518
 30
0.0
 11
838.0961339178976
 21
4141.053975927518
 31
0.0
 11
838.1693939450471
 21
4141.332206326825
 31
0.0
 11
838.3841792997611
 21
4141.591475927517
 31
0.0
 11
838.7258547436618
 21
4141.814115514635
 31
0.0
 11
839.1711339178976
 21
4141.984953236586
 31
0.0
 11
839.6896731192829
 21
4142.092345913943
 31
0.0
 11
840.2461339178976
 21
4142.128975927518
 31
0.0
 11
840.8025947165123
 21
4142.092345913943
 31
0.0
 11
841.3211339178977
 21
4141.984953236586
 31
0.0
 11
841.7664130921333
 21
4141.814115514635
 31
0.0
 11
842.1080885360342
 21
4141.591475927517
 31
0.0
 11
842.3228738907482
 21
4141.332206326825
 31
0.0
 11
842.3961339178976
 21
4141.053975927518
 31
0.0
  0
SPLINE
  5
D1
330
47
100
AcDbEntity
  8
0
  6
Continuous
 62
     7
100
AcDbSpline
210
0.0
220
0.0
230
1.0
 70
     8
 71
     3
 72
    13
 73
     9
 74
     7
 42
0.000000001
 43
0.0000000001
 44
0.00000001
 40
0.0
 40
0.0
 40
0.0
 40
0.0
 40
0.4080730017971846
 40
0.8448202057365273
 40
1.296516598267764
 40
1.748212990798774
 40
2.184960194738229
 40
2.593033196535414
 40
2.593033196535414
 40
2.593033196535414
 40
2.593033196535414
 10
752.3698196191681
 20
4165.187950523733
 30
0.0
 10
752.4995540567469
 20
4165.229434093005
 30
0.0
 10
752.768139029216
 20
4165.315316157016
 30
0.0
 10
753.1969198685948
 20
4165.380633637209
 30
0.0
 10
753.6435935394536
 20
4165.405207788957
 30
0.0
 10
754.0902672103127
 20
4165.380633637209
 30
0.0
 10
754.5190480496915
 20
4165.315316157016
 30
0.0
 10
754.7876330221608
 20
4165.229434093006
 30
0.0
 10
754.9173674597395
 20
4165.187950523733
 30
0.0
 11
752.3698196191681
 21
4165.187950523733
 31
0.0
 11
752.7615455441024
 21
4165.302293756163
 31
0.0
 11
753.1925311529087
 21
4165.373001083361
 31
0.0
 11
753.6435935394538
 21
4165.396925040599
 31
0.0
 11
754.0946559259987
 21
4165.373001083361
 31
0.0
 11
754.5256415348051
 21
4165.302293756163
 31
0.0
 11
754.9173674597395
 21
4165.187950523733
 31
0.0
  0
SPLINE
  5
D2
330
47
100
AcDbEntity
  8
0
  6
Continuous
 62
     7
100
AcDbSpline
210
0.0
220
0.0
230
1.0
 70
     8
 71
     3
 72
    17
 73
    13
 74
    11
 42
0.000000001
 43
0.0000000001
 44
0.00000001
 40
0.0
 40
0.0
 40
0.0
 40
0.0
 40
0.4078118445648977
 40
0.8847385387396094
 40
1.414281823262289
 40
1.971946936507965
 40
2.529612049976773
 40
3.059155335408657
 40
3.53608202897599
 40
3.943893867866967
 40
4.280573945058342
 40
4.568287659589096
 40
4.568287659589096
 40
4.568287659589096
 40
4.568287659589096
 10
755.5055481575903
 20
4165.516475927518
 30
0.0
 10
755.3945290030546
 20
4165.437032869643
 30
0.0
 10
755.1536754610527
 20
4165.26468296994
 30
0.0
 10
754.7038245592443
 20
4165.107219960194
 30
0.0
 10
754.1926938621075
 20
4165.001732445016
 30
0.0
 10
753.6435136263059
 20
4164.967181160641
 30
0.0
 10
753.0948047587606
 20
4165.002208878099
 30
0.0
 10
752.5823745740292
 20
4165.105499700715
 30
0.0
 10
752.1365854475713
 20
4165.270083865638
 30
0.0
 10
751.7920383333211
 20
4165.486857678879
 30
0.0
 10
751.5455292871419
 20
4165.748574437407
 30
0.0
 10
751.5099760641343
 20
4165.957640574499
 30
0.0
 10
751.4935935394537
 20
4166.053975927518
 30
0.0
 11
755.5055481575903
 21
4165.516475927518
 31
0.0
 11
755.1638727136896
 21
4165.293836340399
 31
0.0
 11
754.7185935394538
 21
4165.122998618449
 31
0.0
 11
754.2000543380685
 21
4165.015605941092
 31
0.0
 11
753.6435935394538
 21
4164.978975927517
 31
0.0
 11
753.087132740839
 21
4165.015605941092
 31
0.0
 11
752.5685935394538
 21
4165.122998618449
 31
0.0
 11
752.123314365218
 21
4165.293836340399
 31
0.0
 11
751.7816389213173
 21
4165.516475927518
 31
0.0
 11
751.5668535666032
 21
4165.775745528211
 31
0.0
 11
751.4935935394537
 21
4166.053975927518
 31
0.0
  0
SPLINE
  5
D3
330
47
100
AcDbEntity
  8
0
  6
Continuous
 62
     7
100
AcDbSpline
210
0.0
220
0.0
230
1.0
 70
     8
 71
     3
 72
     9
 73
     5
 74
     3
 42
0.000000001
 43
0.0000000001
 44
0.00000001
 40
0.0
 40
0.0
 40
0.0
 40
0.0
 40
0.4349160914722452
 40
0.9438510898697541
 40
0.9438510898697541
 40
0.9438510898697541
 40
0.9438510898697541
 10
720.9487298107829
 20
4168.924810802919
 30
0.0
 10
720.92461910922
 20
4168.778038513758
 30
0.0
 10
720.8722942578098
 20
4168.459514584828
 30
0.0
 10
720.6390696711937
 20
4168.233942027471
 30
0.0
 10
720.5133123730823
 20
4168.112310802919
 30
0.0
 11
720.9487298107829
 21
4168.924810802919
 31
0.0
 11
720.8379879092778
 21
4168.504229966757
 31
0.0
 11
720.5133123730823
 21
4168.112310802919
 31
0.0
  0
SPLINE
  5
D4
330
47
100
AcDbEntity
  8
0
  6
Continuous
 62
     7
100
AcDbSpline
210
0.0
220
0.0
230
1.0
 70
     8
 71
     3
 72
    17
 73
    13
 74
    11
 42
0.000000001
 43
0.0000000001
 44
0.00000001
 40
0.0
 40
0.0
 40
0.0
 40
0.0
 40
0.6164597613694837
 40
1.33739546113303
 40
2.137867868134043
 40
2.980850015952592
 40
3.823832163994159
 40
4.624304571904377
 40
5.34524027106065
 40
5.961700026756212
 40
6.470635027211048
 40
6.905551111892545
 40
6.905551111892545
 40
6.905551111892545
 40
6.905551111892545
 10
720.5133123730823
 20
4168.112310802919
 30
0.0
 10
720.3454927218762
 20
4167.99222246034
 30
0.0
 10
719.9814117908496
 20
4167.731693537484
 30
0.0
 10
719.3014046114965
 20
4167.493668065747
 30
0.0
 10
718.5287651867661
 20
4167.334210192383
 30
0.0
 10
717.6986090162029
 20
4167.281981506987
 30
0.0
 10
716.8691653793655
 20
4167.334930381634
 30
0.0
 10
716.0945616123742
 20
4167.491067671506
 30
0.0
 10
715.4206943272052
 20
4167.739857686673
 30
0.0
 10
714.8998672978603
 20
4168.067539034186
 30
0.0
 10
714.527237331277
 20
4168.46315738195
 30
0.0
 10
714.4734940925373
 20
4168.779187593334
 30
0.0
 10
714.4487298107829
 20
4168.924810802919
 30
0.0
 11
720.5133123730823
 21
4168.112310802919
 31
0.0
 11
719.9968262369532
 21
4167.775762589834
 31
0.0
 11
719.3237298107829
 21
4167.517519521769
 31
0.0
 11
718.5398914831075
 21
4167.355181753671
 31
0.0
 11
717.6987298107829
 21
4167.299810802919
 31
0.0
 11
716.8575681384583
 21
4167.355181753671
 31
0.0
 11
716.0737298107829
 21
4167.517519521769
 31
0.0
 11
715.4006333846124
 21
4167.775762589834
 31
0.0
 11
714.8841472484834
 21
4168.112310802919
 31
0.0
 11
714.5594717122879
 21
4168.504229966757
 31
0.0
 11
714.4487298107829
 21
4168.924810802919
 31
0.0
  0
SPLINE
  5
D5
330
47
100
AcDbEntity
  8
0
  6
Continuous
 62
     7
100
AcDbSpline
210
0.0
220
0.0
230
1.0
 70
     8
 71
     3
 72
    19
 73
    15
 74
    13
 42
0.000000001
 43
0.0000000001
 44
0.00000001
 40
0.0
 40
0.0
 40
0.0
 40
0.0
 40
0.4349160893029295
 40
0.9438510862197407
 40
1.560310842960767
 40
2.281246543734262
 40
3.081718954084971
 40
3.9247011053578
 40
4.767683256630628
 40
5.568155666981337
 40
6.28909136775483
 40
6.905551124495857
 40
7.414486121412668
 40
7.849402210715598
 40
7.849402210715598
 40
7.849402210715598
 40
7.849402210715598
 10
714.4487298107829
 20
4168.924810802919
 30
0.0
 10
714.473494073861
 20
4169.070433980752
 30
0.0
 10
714.527237278865
 20
4169.386464117866
 30
0.0
 10
714.8998676115898
 20
4169.78208312975
 30
0.0
 10
715.4206927721356
 20
4170.109761183381
 30
0.0
 10
716.094568811937
 20
4170.358566592093
 30
0.0
 10
716.869134709063
 20
4170.514637293891
 30
0.0
 10
717.6987298107829
 20
4170.567852473108
 30
0.0
 10
718.5283249125026
 20
4170.51463729389
 30
0.0
 10
719.3028908096287
 20
4170.358566592092
 30
0.0
 10
719.9767668494301
 20
4170.109761183381
 30
0.0
 10
720.4975920099758
 20
4169.78208312975
 30
0.0
 10
720.8702223427009
 20
4169.386464117864
 30
0.0
 10
720.9239655477044
 20
4169.070433980753
 30
0.0
 10
720.9487298107829
 20
4168.924810802919
 30
0.0
 11
714.4487298107829
 21
4168.924810802919
 31
0.0
 11
714.5594717122879
 21
4169.345391639081
 31
0.0
 11
714.8841472484835
 21
4169.737310802919
 31
0.0
 11
715.4006333846125
 21
4170.073859016004
 31
0.0
 11
716.0737298107829
 21
4170.332102084069
 31
0.0
 11
716.8575681384582
 21
4170.494439852167
 31
0.0
 11
717.6987298107829
 21
4170.549810802919
 31
0.0
 11
718.5398914831076
 21
4170.494439852167
 31
0.0
 11
719.3237298107829
 21
4170.332102084069
 31
0.0
 11
719.9968262369532
 21
4170.073859016004
 31
0.0
 11
720.5133123730823
 21
4169.737310802919
 31
0.0
 11
720.8379879092779
 21
4169.345391639081
 31
0.0
 11
720.9487298107829
 21
4168.924810802919
 31
0.0
  0
SPLINE
  5
D6
330
47
100
AcDbEntity
  8
0
  6
Continuous
 62
     7
100
AcDbSpline
210
0.0
220
0.0
230
1.0
 70
     8
 71
     3
 72
     9
 73
     5
 74
     3
 42
0.000000001
 43
0.0000000001
 44
0.00000001
 40
0.0
 40
0.0
 40
0.0
 40
0.0
 40
0.2877137213223815
 40
0.6243937964556565
 40
0.6243937964556565
 40
0.6243937964556565
 40
0.6243937964556565
 10
755.7935935394538
 20
4166.053975927518
 30
0.0
 10
755.7776433830758
 20
4165.956880413395
 30
0.0
 10
755.7430284752957
 20
4165.74616458622
 30
0.0
 10
755.5887414469302
 20
4165.596939660508
 30
0.0
 10
755.5055481575903
 20
4165.516475927518
 30
0.0
 11
755.7935935394538
 21
4166.053975927518
 31
0.0
 11
755.7203335123043
 21
4165.77574552821
 31
0.0
 11
755.5055481575903
 21
4165.516475927518
 31
0.0
  0
SPLINE
  5
D7
330
47
100
AcDbEntity
  8
0
  6
Continuous
 62
     7
100
AcDbSpline
210
0.0
220
0.0
230
1.0
 70
     8
 71
     3
 72
    19
 73
    15
 74
    13
 42
0.000000001
 43
0.0000000001
 44
0.00000001
 40
0.0
 40
0.0
 40
0.0
 40
0.0
 40
0.2877137191522152
 40
0.62439379280472
 40
1.032205632740664
 40
1.509132327925649
 40
2.038675615798136
 40
2.596340732498093
 40
3.154005849197936
 40
3.683549137070423
 40
4.160475832255514
 40
4.568287672191364
 40
4.904967745843796
 40
5.19268146499604
 40
5.19268146499604
 40
5.19268146499604
 40
5.19268146499604
 10
751.4935935394537
 20
4166.053975927518
 30
0.0
 10
751.5099760518684
 20
4166.150311260056
 30
0.0
 10
751.5455292550507
 20
4166.359377347336
 30
0.0
 10
751.7920385406451
 20
4166.621094547168
 30
0.0
 10
752.1365844196829
 20
4166.837866180516
 30
0.0
 10
752.5823793377936
 20
4167.002460529391
 30
0.0
 10
753.0947844710718
 20
4167.105707301627
 30
0.0
 10
753.6435935394538
 20
4167.14091118976
 30
0.0
 10
754.1924026078358
 20
4167.105707301627
 30
0.0
 10
754.7048077411139
 20
4167.002460529391
 30
0.0
 10
755.1506026592249
 20
4166.837866180518
 30
0.0
 10
755.4951485382626
 20
4166.621094547167
 30
0.0
 10
755.7416578238567
 20
4166.359377347337
 30
0.0
 10
755.7772110270387
 20
4166.150311260057
 30
0.0
 10
755.7935935394538
 20
4166.053975927518
 30
0.0
 11
751.4935935394537
 21
4166.053975927518
 31
0.0
 11
751.5668535666033
 21
4166.332206326825
 31
0.0
 11
751.7816389213173
 21
4166.591475927517
 31
0.0
 11
752.123314365218
 21
4166.814115514635
 31
0.0
 11
752.5685935394538
 21
4166.984953236586
 31
0.0
 11
753.087132740839
 21
4167.092345913943
 31
0.0
 11
753.6435935394538
 21
4167.128975927518
 31
0.0
 11
754.2000543380685
 21
4167.092345913943
 31
0.0
 11
754.7185935394538
 21
4166.984953236586
 31
0.0
 11
755.1638727136897
 21
4166.814115514635
 31
0.0
 11
755.5055481575903
 21
4166.591475927517
 31
0.0
 11
755.7203335123041
 21
4166.332206326825
 31
0.0
 11
755.7935935394538
 21
4166.053975927518
 31
0.0
  0
SPLINE
  5
D8
330
47
100
AcDbEntity
  8
0
  6
Continuous
 62
     7
100
AcDbSpline
210
0.0
220
0.0
230
1.0
 70
     8
 71
     3
 72
     9
 73
     5
 74
     3
 42
0.000000001
 43
0.0000000001
 44
0.00000001
 40
0.0
 40
0.0
 40
0.0
 40
0.0
 40
0.3366800751332749
 40
0.6243937964547479
 40
0.6243937964547479
 40
0.6243937964547479
 40
0.6243937964547479
 10
779.4944518424193
 20
4158.591475927517
 30
0.0
 10
779.4112585530797
 20
4158.511012194528
 30
0.0
 10
779.256971524714
 20
4158.361787268816
 30
0.0
 10
779.2223566169338
 20
4158.151071441638
 30
0.0
 10
779.2064064605559
 20
4158.053975927518
 30
0.0
 11
779.4944518424193
 21
4158.591475927517
 31
0.0
 11
779.2796664877053
 21
4158.332206326825
 31
0.0
 11
779.2064064605559
 21
4158.053975927518
 31
0.0
  0
SPLINE
  5
D9
330
47
100
AcDbEntity
  8
0
  6
Continuous
 62
     7
100
AcDbSpline
210
0.0
220
0.0
230
1.0
 70
     8
 71
     3
 72
    13
 73
     9
 74
     7
 42
0.000000001
 43
0.0000000001
 44
0.00000001
 40
0.0
 40
0.0
 40
0.0
 40
0.0
 40
0.4080730017971846
 40
0.8448202057366395
 40
1.29651659826765
 40
1.748212990798887
 40
2.184960194738342
 40
2.593033196535526
 40
2.593033196535526
 40
2.593033196535526
 40
2.593033196535526
 10
782.6301803808416
 20
4157.187950523733
 30
0.0
 10
782.5004459432629
 20
4157.229434093006
 30
0.0
 10
782.2318609707935
 20
4157.315316157014
 30
0.0
 10
781.8030801314151
 20
4157.380633637211
 30
0.0
 10
781.3564064605557
 20
4157.405207788956
 30
0.0
 10
780.9097327896967
 20
4157.38063363721
 30
0.0
 10
780.4809519503182
 20
4157.315316157015
 30
0.0
 10
780.2123669778488
 20
4157.229434093006
 30
0.0
 10
780.0826325402701
 20
4157.187950523733
 30
0.0
 11
782.6301803808416
 21
4157.187950523733
 31
0.0
 11
782.2384544559072
 21
4157.302293756163
 31
0.0
 11
781.8074688471008
 21
4157.373001083361
 31
0.0
 11
781.356406460556
 21
4157.396925040599
 31
0.0
 11
780.9053440740108
 21
4157.373001083361
 31
0.0
 11
780.4743584652044
 21
4157.302293756163
 31
0.0
 11
780.0826325402701
 21
4157.187950523733
 31
0.0
  0
SPLINE
  5
DA
330
47
100
AcDbEntity
  8
0
  6
Continuous
 62
     7
100
AcDbSpline
210
0.0
220
0.0
230
1.0
 70
     8
 71
     3
 72
    19
 73
    15
 74
    13
 42
0.000000001
 43
0.0000000001
 44
0.00000001
 40
0.0
 40
0.0
 40
0.0
 40
0.0
 40
0.4349160893029295
 40
0.9438510862196681
 40
1.560310842960695
 40
2.281246543734189
 40
3.081718954085121
 40
3.924701105357722
 40
4.767683256630438
 40
5.568155666981259
 40
6.289091367754752
 40
6.905551124495874
 40
7.414486121412685
 40
7.849402210715615
 40
7.849402210715615
 40
7.849402210715615
 40
7.849402210715615
 10
801.0512701892268
 20
4143.924810802919
 30
0.0
 10
801.0760344523052
 20
4144.070433980753
 30
0.0
 10
801.1297776573086
 20
4144.386464117865
 30
0.0
 10
801.5024079900339
 20
4144.78208312975
 30
0.0
 10
802.023233150579
 20
4145.109761183379
 30
0.0
 10
802.6971091903811
 20
4145.358566592094
 30
0.0
 10
803.4716750875069
 20
4145.51463729389
 30
0.0
 10
804.3012701892264
 20
4145.567852473108
 30
0.0
 10
805.1308652909465
 20
4145.514637293889
 30
0.0
 10
805.9054311880727
 20
4145.358566592094
 30
0.0
 10
806.5793072278736
 20
4145.109761183381
 30
0.0
 10
807.10013238842
 20
4144.78208312975
 30
0.0
 10
807.4727627211448
 20
4144.386464117864
 30
0.0
 10
807.5265059261485
 20
4144.070433980753
 30
0.0
 10
807.5512701892268
 20
4143.924810802919
 30
0.0
 11
801.0512701892268
 21
4143.924810802919
 31
0.0
 11
801.1620120907318
 21
4144.345391639081
 31
0.0
 11
801.4866876269273
 21
4144.737310802919
 31
0.0
 11
802.0031737630563
 21
4145.073859016004
 31
0.0
 11
802.6762701892267
 21
4145.332102084069
 31
0.0
 11
803.4601085169022
 21
4145.494439852167
 31
0.0
 11
804.3012701892267
 21
4145.549810802919
 31
0.0
 11
805.1424318615512
 21
4145.494439852167
 31
0.0
 11
805.9262701892267
 21
4145.332102084069
 31
0.0
 11
806.599366615397
 21
4145.073859016004
 31
0.0
 11
807.1158527515262
 21
4144.737310802919
 31
0.0
 11
807.4405282877218
 21
4144.345391639081
 31
0.0
 11
807.5512701892268
 21
4143.924810802919
 31
0.0
  0
SPLINE
  5
DB
330
47
100
AcDbEntity
  8
0
  6
Continuous
 62
     7
100
AcDbSpline
210
0.0
220
0.0
230
1.0
 70
     8
 71
     3
 72
    17
 73
    13
 74
    11
 42
0.000000001
 43
0.0000000001
 44
0.00000001
 40
0.0
 40
0.0
 40
0.0
 40
0.0
 40
0.2877137145307536
 40
0.624393791721356
 40
1.032205630611836
 40
1.509132324179601
 40
2.038675609611485
 40
2.59634072308018
 40
3.15400583632597
 40
3.683549120848649
 40
4.160475815023687
 40
4.568287659588088
 40
4.568287659588088
 40
4.568287659588088
 40
4.568287659588088
 10
783.5064064605558
 20
4158.053975927518
 30
0.0
 10
783.4900239358752
 20
4158.150311280537
 30
0.0
 10
783.4544707128681
 20
4158.35937741763
 30
0.0
 10
783.2079616666881
 20
4158.621094176155
 30
0.0
 10
782.863414552438
 20
4158.837867989396
 30
0.0
 10
782.4176254259808
 20
4159.002452154321
 30
0.0
 10
781.9051952412486
 20
4159.105742976934
 30
0.0
 10
781.3564863737039
 20
4159.140770694394
 30
0.0
 10
780.8073061379022
 20
4159.10621941002
 30
0.0
 10
780.2961754407647
 20
4159.000731894839
 30
0.0
 10
779.8463245389576
 20
4158.843268885095
 30
0.0
 10
779.605470996955
 20
4158.670918985391
 30
0.0
 10
779.4944518424193
 20
4158.591475927517
 30
0.0
 11
783.5064064605558
 21
4158.053975927518
 31
0.0
 11
783.4331464334064
 21
4158.332206326825
 31
0.0
 11
783.2183610786924
 21
4158.591475927517
 31
0.0
 11
782.8766856347917
 21
4158.814115514635
 31
0.0
 11
782.4314064605558
 21
4158.984953236586
 31
0.0
 11
781.9128672591705
 21
4159.092345913943
 31
0.0
 11
781.3564064605558
 21
4159.128975927518
 31
0.0
 11
780.799945661941
 21
4159.092345913943
 31
0.0
 11
780.2814064605558
 21
4158.984953236586
 31
0.0
 11
779.83612728632
 21
4158.814115514635
 31
0.0
 11
779.4944518424193
 21
4158.591475927517
 31
0.0
  0
SPLINE
  5
DC
330
47
100
AcDbEntity
  8
0
  6
Continuous
 62
     7
100
AcDbSpline
210
0.0
220
0.0
230
1.0
 70
     8
 71
     3
 72
    19
 73
    15
 74
    13
 42
0.000000001
 43
0.0000000001
 44
0.00000001
 40
0.0
 40
0.0
 40
0.0
 40
0.0
 40
0.2877137191530947
 40
0.624393792805527
 40
1.032205632741968
 40
1.509132327926733
 40
2.03867561579922
 40
2.596340732499063
 40
3.154005849199019
 40
3.683549137071395
 40
4.160475832256054
 40
4.56828767219259
 40
4.904967745845795
 40
5.192681464997981
 40
5.192681464997981
 40
5.192681464997981
 40
5.192681464997981
 10
779.2064064605559
 20
4158.053975927518
 30
0.0
 10
779.2227889729705
 20
4157.957640594978
 30
0.0
 10
779.2583421761526
 20
4157.7485745077
 30
0.0
 10
779.5048514617474
 20
4157.486857307868
 30
0.0
 10
779.8493973407847
 20
4157.270085674518
 30
0.0
 10
780.295192258896
 20
4157.105491325643
 30
0.0
 10
780.8075973921736
 20
4157.002244553407
 30
0.0
 10
781.3564064605558
 20
4156.967040665274
 30
0.0
 10
781.905215528938
 20
4157.002244553409
 30
0.0
 10
782.4176206622155
 20
4157.105491325643
 30
0.0
 10
782.8634155803275
 20
4157.270085674518
 30
0.0
 10
783.2079614593645
 20
4157.486857307867
 30
0.0
 10
783.4544707449588
 20
4157.748574507701
 30
0.0
 10
783.4900239481411
 20
4157.957640594979
 30
0.0
 10
783.5064064605558
 20
4158.053975927518
 30
0.0
 11
779.2064064605559
 21
4158.053975927518
 31
0.0
 11
779.2796664877054
 21
4157.77574552821
 31
0.0
 11
779.4944518424193
 21
4157.516475927518
 31
0.0
 11
779.83612728632
 21
4157.293836340399
 31
0.0
 11
780.2814064605559
 21
4157.122998618449
 31
0.0
 11
780.7999456619411
 21
4157.015605941092
 31
0.0
 11
781.3564064605558
 21
4156.978975927517
 31
0.0
 11
781.9128672591706
 21
4157.015605941092
 31
0.0
 11
782.4314064605558
 21
4157.122998618449
 31
0.0
 11
782.8766856347916
 21
4157.293836340399
 31
0.0
 11
783.2183610786924
 21
4157.516475927518
 31
0.0
 11
783.4331464334064
 21
4157.775745528211
 31
0.0
 11
783.5064064605558
 21
4158.053975927518
 31
0.0
  0
SPLINE
  5
DD
330
47
100
AcDbEntity
  8
0
  6
Continuous
 62
     7
100
AcDbSpline
210
0.0
220
0.0
230
1.0
 70
     8
 71
     3
 72
     9
 73
     5
 74
     3
 42
0.000000001
 43
0.0000000001
 44
0.00000001
 40
0.0
 40
0.0
 40
0.0
 40
0.0
 40
0.4349160914722452
 40
0.9438510898696817
 40
0.9438510898696817
 40
0.9438510898696817
 40
0.9438510898696817
 10
894.1538105676706
 20
4118.924810802919
 30
0.0
 10
894.1296998661079
 20
4118.778038513758
 30
0.0
 10
894.0773750146973
 20
4118.459514584829
 30
0.0
 10
893.8441504280815
 20
4118.233942027471
 30
0.0
 10
893.7183931299701
 20
4118.112310802919
 30
0.0
 11
894.1538105676706
 21
4118.924810802919
 31
0.0
 11
894.0430686661655
 21
4118.504229966757
 31
0.0
 11
893.7183931299701
 21
4118.112310802919
 31
0.0
  0
SPLINE
  5
DE
330
47
100
AcDbEntity
  8
0
  6
Continuous
 62
     7
100
AcDbSpline
210
0.0
220
0.0
230
1.0
 70
     8
 71
     3
 72
    17
 73
    13
 74
    11
 42
0.000000001
 43
0.0000000001
 44
0.00000001
 40
0.0
 40
0.0
 40
0.0
 40
0.0
 40
0.6164597613694837
 40
1.33739546113303
 40
2.137867868134043
 40
2.980850015952592
 40
3.823832163994159
 40
4.624304571904377
 40
5.34524027106065
 40
5.961700026756212
 40
6.470635027211048
 40
6.905551111892574
 40
6.905551111892574
 40
6.905551111892574
 40
6.905551111892574
 10
893.7183931299701
 20
4118.112310802919
 30
0.0
 10
893.550573478764
 20
4117.992222460339
 30
0.0
 10
893.1864925477374
 20
4117.731693537484
 30
0.0
 10
892.5064853683845
 20
4117.493668065747
 30
0.0
 10
891.7338459436539
 20
4117.334210192383
 30
0.0
 10
890.903689773091
 20
4117.281981506987
 30
0.0
 10
890.0742461362534
 20
4117.334930381635
 30
0.0
 10
889.2996423692618
 20
4117.491067671505
 30
0.0
 10
888.6257750840932
 20
4117.739857686673
 30
0.0
 10
888.104948054748
 20
4118.067539034186
 30
0.0
 10
887.7323180881651
 20
4118.463157381952
 30
0.0
 10
887.6785748494248
 20
4118.779187593333
 30
0.0
 10
887.6538105676706
 20
4118.924810802919
 30
0.0
 11
893.7183931299701
 21
4118.112310802919
 31
0.0
 11
893.201906993841
 21
4117.775762589834
 31
0.0
 11
892.5288105676707
 21
4117.517519521769
 31
0.0
 11
891.7449722399953
 21
4117.355181753671
 31
0.0
 11
890.9038105676707
 21
4117.299810802919
 31
0.0
 11
890.0626488953461
 21
4117.355181753671
 31
0.0
 11
889.2788105676707
 21
4117.517519521769
 31
0.0
 11
888.6057141415002
 21
4117.775762589834
 31
0.0
 11
888.0892280053712
 21
4118.112310802919
 31
0.0
 11
887.7645524691757
 21
4118.504229966757
 31
0.0
 11
887.6538105676706
 21
4118.924810802919
 31
0.0
  0
SPLINE
  5
DF
330
47
100
AcDbEntity
  8
0
  6
Continuous
 62
     7
100
AcDbSpline
210
0.0
220
0.0
230
1.0
 70
     8
 71
     3
 72
    19
 73
    15
 74
    13
 42
0.000000001
 43
0.0000000001
 44
0.00000001
 40
0.0
 40
0.0
 40
0.0
 40
0.0
 40
0.4349160893029584
 40
0.943851086219697
 40
1.560310842960819
 40
2.281246543734207
 40
3.081718954085028
 40
3.924701105357743
 40
4.767683256630458
 40
5.568155666981279
 40
6.289091367754773
 40
6.9055511244958
 40
7.414486121412612
 40
7.849402210715541
 40
7.849402210715541
 40
7.849402210715541
 40
7.849402210715541
 10
887.6538105676706
 20
4118.924810802919
 30
0.0
 10
887.6785748307491
 20
4119.070433980753
 30
0.0
 10
887.7323180357525
 20
4119.386464117865
 30
0.0
 10
888.1049483684776
 20
4119.78208312975
 30
0.0
 10
888.625773529023
 20
4120.109761183379
 30
0.0
 10
889.2996495688249
 20
4120.358566592094
 30
0.0
 10
890.0742154659506
 20
4120.514637293891
 30
0.0
 10
890.9038105676707
 20
4120.567852473108
 30
0.0
 10
891.7334056693905
 20
4120.514637293891
 30
0.0
 10
892.5079715665165
 20
4120.358566592093
 30
0.0
 10
893.1818476063177
 20
4120.109761183381
 30
0.0
 10
893.7026727668635
 20
4119.78208312975
 30
0.0
 10
894.0753030995888
 20
4119.386464117864
 30
0.0
 10
894.129046304592
 20
4119.070433980753
 30
0.0
 10
894.1538105676706
 20
4118.924810802919
 30
0.0
 11
887.6538105676706
 21
4118.924810802919
 31
0.0
 11
887.7645524691757
 21
4119.345391639081
 31
0.0
 11
888.0892280053712
 21
4119.737310802919
 31
0.0
 11
888.6057141415004
 21
4120.073859016004
 31
0.0
 11
889.2788105676706
 21
4120.332102084069
 31
0.0
 11
890.062648895346
 21
4120.494439852167
 31
0.0
 11
890.9038105676706
 21
4120.549810802919
 31
0.0
 11
891.7449722399951
 21
4120.494439852167
 31
0.0
 11
892.5288105676706
 21
4120.332102084069
 31
0.0
 11
893.2019069938409
 21
4120.073859016004
 31
0.0
 11
893.71839312997
 21
4119.737310802919
 31
0.0
 11
894.0430686661656
 21
4119.345391639081
 31
0.0
 11
894.1538105676706
 21
4118.924810802919
 31
0.0
  0
SPLINE
  5
E0
330
47
100
AcDbEntity
  8
0
  6
Continuous
 62
     7
100
AcDbSpline
210
0.0
220
0.0
230
1.0
 70
     8
 71
     3
 72
    19
 73
    15
 74
    13
 42
0.000000001
 43
0.0000000001
 44
0.00000001
 40
0.0
 40
0.0
 40
0.0
 40
0.0
 40
0.2877137191530947
 40
0.6243937928055995
 40
1.03220563274204
 40
1.5091323279267
 40
2.038675615799187
 40
2.596340732499143
 40
3.154005849198986
 40
3.683549137071584
 40
4.160475832256138
 40
4.568287672192579
 40
4.904967745845856
 40
5.192681464998042
 40
5.192681464998042
 40
5.192681464998042
 40
5.192681464998042
 10
865.8089468389996
 20
4133.053975927518
 30
0.0
 10
865.8253293514141
 20
4132.957640594979
 30
0.0
 10
865.8608825545966
 20
4132.748574507699
 30
0.0
 10
866.107391840191
 20
4132.486857307867
 30
0.0
 10
866.4519377192282
 20
4132.270085674518
 30
0.0
 10
866.89773263734
 20
4132.105491325644
 30
0.0
 10
867.4101377706177
 20
4132.002244553408
 30
0.0
 10
867.9589468389996
 20
4131.967040665275
 30
0.0
 10
868.5077559073816
 20
4132.002244553407
 30
0.0
 10
869.0201610406597
 20
4132.105491325643
 30
0.0
 10
869.465955958771
 20
4132.270085674518
 30
0.0
 10
869.8105018378085
 20
4132.486857307867
 30
0.0
 10
870.0570111234027
 20
4132.748574507699
 30
0.0
 10
870.0925643265853
 20
4132.957640594981
 30
0.0
 10
870.1089468389997
 20
4133.053975927518
 30
0.0
 11
865.8089468389996
 21
4133.053975927518
 31
0.0
 11
865.8822068661492
 21
4132.77574552821
 31
0.0
 11
866.0969922208632
 21
4132.516475927518
 31
0.0
 11
866.4386676647639
 21
4132.293836340399
 31
0.0
 11
866.8839468389997
 21
4132.122998618449
 31
0.0
 11
867.4024860403849
 21
4132.015605941092
 31
0.0
 11
867.9589468389997
 21
4131.978975927517
 31
0.0
 11
868.5154076376144
 21
4132.015605941092
 31
0.0
 11
869.0339468389998
 21
4132.122998618449
 31
0.0
 11
869.4792260132355
 21
4132.293836340399
 31
0.0
 11
869.8209014571362
 21
4132.516475927518
 31
0.0
 11
870.0356868118503
 21
4132.775745528211
 31
0.0
 11
870.1089468389997
 21
4133.053975927518
 31
0.0
  0
SPLINE
  5
E1
330
47
100
AcDbEntity
  8
0
  6
Continuous
 62
     7
100
AcDbSpline
210
0.0
220
0.0
230
1.0
 70
     8
 71
     3
 72
     9
 73
     5
 74
     3
 42
0.000000001
 43
0.0000000001
 44
0.00000001
 40
0.0
 40
0.0
 40
0.0
 40
0.0
 40
0.3366800751332749
 40
0.624393796454777
 40
0.624393796454777
 40
0.624393796454777
 40
0.624393796454777
 10
866.0969922208632
 20
4133.591475927517
 30
0.0
 10
866.0137989315235
 20
4133.511012194527
 30
0.0
 10
865.8595119031581
 20
4133.361787268817
 30
0.0
 10
865.8248969953776
 20
4133.151071441638
 30
0.0
 10
865.8089468389996
 20
4133.053975927518
 30
0.0
 11
866.0969922208632
 21
4133.591475927517
 31
0.0
 11
865.8822068661492
 21
4133.332206326825
 31
0.0
 11
865.8089468389996
 21
4133.053975927518
 31
0.0
  0
SPLINE
  5
E2
330
47
100
AcDbEntity
  8
0
  6
Continuous
 62
     7
100
AcDbSpline
210
0.0
220
0.0
230
1.0
 70
     8
 71
     3
 72
    13
 73
     9
 74
     7
 42
0.000000001
 43
0.0000000001
 44
0.00000001
 40
0.0
 40
0.0
 40
0.0
 40
0.0
 40
0.4080730017971846
 40
0.8448202057366395
 40
1.296516598267763
 40
1.748212990798887
 40
2.184960194738342
 40
2.593033196535417
 40
2.593033196535417
 40
2.593033196535417
 40
2.593033196535417
 10
869.2327207592854
 20
4132.187950523733
 30
0.0
 10
869.1029863217067
 20
4132.229434093005
 30
0.0
 10
868.8344013492373
 20
4132.315316157015
 30
0.0
 10
868.4056205098586
 20
4132.38063363721
 30
0.0
 10
867.9589468389993
 20
4132.405207788956
 30
0.0
 10
867.5122731681406
 20
4132.38063363721
 30
0.0
 10
867.0834923287618
 20
4132.315316157015
 30
0.0
 10
866.8149073562929
 20
4132.229434093006
 30
0.0
 10
866.685172918714
 20
4132.187950523733
 30
0.0
 11
869.2327207592854
 21
4132.187950523733
 31
0.0
 11
868.840994834351
 21
4132.302293756163
 31
0.0
 11
868.4100092255446
 21
4132.373001083361
 31
0.0
 11
867.9589468389996
 21
4132.396925040599
 31
0.0
 11
867.5078844524546
 21
4132.373001083361
 31
0.0
 11
867.0768988436482
 21
4132.302293756163
 31
0.0
 11
866.685172918714
 21
4132.187950523733
 31
0.0
  0
SPLINE
  5
E3
330
47
100
AcDbEntity
  8
0
  6
Continuous
 62
     7
100
AcDbSpline
210
0.0
220
0.0
230
1.0
 70
     8
 71
     3
 72
    17
 73
    13
 74
    11
 42
0.000000001
 43
0.0000000001
 44
0.00000001
 40
0.0
 40
0.0
 40
0.0
 40
0.0
 40
0.2877137145307825
 40
0.624393791721385
 40
1.032205630611865
 40
1.509132324179417
 40
2.038675609611301
 40
2.596340723080109
 40
3.154005836325899
 40
3.683549120848579
 40
4.160475815023617
 40
4.568287659588018
 40
4.568287659588018
 40
4.568287659588018
 40
4.568287659588018
 10
870.1089468389997
 20
4133.053975927518
 30
0.0
 10
870.0925643143191
 20
4133.150311280537
 30
0.0
 10
870.0570110913117
 20
4133.359377417629
 30
0.0
 10
869.8105020451325
 20
4133.621094176157
 30
0.0
 10
869.4659549308816
 20
4133.837867989394
 30
0.0
 10
869.0201658044249
 20
4134.002452154322
 30
0.0
 10
868.5077356196923
 20
4134.105742976933
 30
0.0
 10
867.9590267521479
 20
4134.140770694395
 30
0.0
 10
867.4098465163461
 20
4134.106219410019
 30
0.0
 10
866.898715819209
 20
4134.000731894842
 30
0.0
 10
866.4488649174015
 20
4133.843268885095
 30
0.0
 10
866.2080113753988
 20
4133.67091898539
 30
0.0
 10
866.0969922208632
 20
4133.591475927517
 30
0.0
 11
870.1089468389997
 21
4133.053975927518
 31
0.0
 11
870.0356868118502
 21
4133.332206326825
 31
0.0
 11
869.8209014571362
 21
4133.591475927517
 31
0.0
 11
869.4792260132355
 21
4133.814115514635
 31
0.0
 11
869.0339468389998
 21
4133.984953236586
 31
0.0
 11
868.5154076376145
 21
4134.092345913943
 31
0.0
 11
867.9589468389997
 21
4134.128975927518
 31
0.0
 11
867.4024860403849
 21
4134.092345913943
 31
0.0
 11
866.8839468389997
 21
4133.984953236586
 31
0.0
 11
866.4386676647639
 21
4133.814115514635
 31
0.0
 11
866.0969922208632
 21
4133.591475927517
 31
0.0
  0
SPLINE
  5
E4
330
47
100
AcDbEntity
  8
0
  6
Continuous
 62
     7
100
AcDbSpline
210
0.0
220
0.0
230
1.0
 70
     8
 71
     3
 72
    13
 73
     9
 74
     7
 42
0.000000001
 43
0.0000000001
 44
0.00000001
 40
0.0
 40
0.0
 40
0.0
 40
0.0
 40
0.4080730017972937
 40
0.8448202057365243
 40
1.296516598267761
 40
1.748212990798885
 40
2.184960194738228
 40
2.593033196535412
 40
2.593033196535412
 40
2.593033196535412
 40
2.593033196535412
 10
696.0276400023977
 20
4182.187950523733
 30
0.0
 10
695.897905564819
 20
4182.229434093005
 30
0.0
 10
695.6293205923496
 20
4182.315316157015
 30
0.0
 10
695.2005397529709
 20
4182.38063363721
 30
0.0
 10
694.753866082112
 20
4182.405207788956
 30
0.0
 10
694.3071924112529
 20
4182.380633637211
 30
0.0
 10
693.8784115718743
 20
4182.315316157016
 30
0.0
 10
693.6098265994053
 20
4182.229434093006
 30
0.0
 10
693.4800921618263
 20
4182.187950523733
 30
0.0
 11
696.0276400023977
 21
4182.187950523733
 31
0.0
 11
695.6359140774632
 21
4182.302293756163
 31
0.0
 11
695.204928468657
 21
4182.373001083361
 31
0.0
 11
694.7538660821119
 21
4182.396925040599
 31
0.0
 11
694.3028036955669
 21
4182.373001083361
 31
0.0
 11
693.8718180867606
 21
4182.302293756163
 31
0.0
 11
693.4800921618263
 21
4182.187950523733
 31
0.0
  0
SPLINE
  5
E5
330
47
100
AcDbEntity
  8
0
  6
Continuous
 62
     7
100
AcDbSpline
210
0.0
220
0.0
230
1.0
 70
     8
 71
     3
 72
    19
 73
    15
 74
    13
 42
0.000000001
 43
0.0000000001
 44
0.00000001
 40
0.0
 40
0.0
 40
0.0
 40
0.0
 40
0.2877137191530947
 40
0.624393792805527
 40
1.032205632742063
 40
1.509132327926616
 40
2.038675615799215
 40
2.596340732499058
 40
3.154005849199014
 40
3.683549137071501
 40
4.16047583225616
 40
4.568287672192601
 40
4.904967745845734
 40
5.192681464997978
 40
5.192681464997978
 40
5.192681464997978
 40
5.192681464997978
 10
692.603866082112
 20
4183.053975927518
 30
0.0
 10
692.6202485945266
 20
4182.957640594979
 30
0.0
 10
692.6558017977087
 20
4182.748574507698
 30
0.0
 10
692.9023110833033
 20
4182.486857307867
 30
0.0
 10
693.2468569623405
 20
4182.270085674517
 30
0.0
 10
693.6926518804521
 20
4182.105491325644
 30
0.0
 10
694.2050570137299
 20
4182.002244553407
 30
0.0
 10
694.753866082112
 20
4181.967040665275
 30
0.0
 10
695.302675150494
 20
4182.002244553408
 30
0.0
 10
695.8150802837719
 20
4182.105491325643
 30
0.0
 10
696.2608752018832
 20
4182.270085674517
 30
0.0
 10
696.6054210809209
 20
4182.486857307867
 30
0.0
 10
696.8519303665146
 20
4182.748574507699
 30
0.0
 10
696.8874835696972
 20
4182.95764059498
 30
0.0
 10
696.903866082112
 20
4183.053975927518
 30
0.0
 11
692.603866082112
 21
4183.053975927518
 31
0.0
 11
692.6771261092615
 21
4182.77574552821
 31
0.0
 11
692.8919114639754
 21
4182.516475927518
 31
0.0
 11
693.2335869078762
 21
4182.293836340399
 31
0.0
 11
693.6788660821119
 21
4182.122998618449
 31
0.0
 11
694.1974052834972
 21
4182.015605941092
 31
0.0
 11
694.7538660821119
 21
4181.978975927517
 31
0.0
 11
695.3103268807267
 21
4182.015605941092
 31
0.0
 11
695.828866082112
 21
4182.122998618449
 31
0.0
 11
696.2741452563478
 21
4182.293836340399
 31
0.0
 11
696.6158207002485
 21
4182.516475927518
 31
0.0
 11
696.8306060549623
 21
4182.775745528211
 31
0.0
 11
696.903866082112
 21
4183.053975927518
 31
0.0
  0
SPLINE
  5
E6
330
47
100
AcDbEntity
  8
0
  6
Continuous
 62
     7
100
AcDbSpline
210
0.0
220
0.0
230
1.0
 70
     8
 71
     3
 72
     9
 73
     5
 74
     3
 42
0.000000001
 43
0.0000000001
 44
0.00000001
 40
0.0
 40
0.0
 40
0.0
 40
0.0
 40
0.3366800751332749
 40
0.624393796454777
 40
0.624393796454777
 40
0.624393796454777
 40
0.624393796454777
 10
692.8919114639755
 20
4183.591475927517
 30
0.0
 10
692.8087181746357
 20
4183.511012194526
 30
0.0
 10
692.6544311462701
 20
4183.361787268818
 30
0.0
 10
692.6198162384901
 20
4183.151071441638
 30
0.0
 10
692.603866082112
 20
4183.053975927518
 30
0.0
 11
692.8919114639755
 21
4183.591475927517
 31
0.0
 11
692.6771261092615
 21
4183.332206326825
 31
0.0
 11
692.603866082112
 21
4183.053975927518
 31
0.0
  0
SPLINE
  5
E7
330
47
100
AcDbEntity
  8
0
  6
Continuous
 62
     7
100
AcDbSpline
210
0.0
220
0.0
230
1.0
 70
     8
 71
     3
 72
    13
 73
     9
 74
     7
 42
0.000000001
 43
0.0000000001
 44
0.00000001
 40
0.0
 40
0.0
 40
0.0
 40
0.0
 40
0.4080730017970755
 40
0.8448202057366425
 40
1.296516598267766
 40
1.748212990798889
 40
2.184960194738344
 40
2.59303319653542
 40
2.59303319653542
 40
2.59303319653542
 40
2.59303319653542
 10
665.7672792407242
 20
4190.187950523733
 30
0.0
 10
665.897013678303
 20
4190.229434093005
 30
0.0
 10
666.165598650772
 20
4190.315316157016
 30
0.0
 10
666.5943794901509
 20
4190.380633637209
 30
0.0
 10
667.0410531610098
 20
4190.405207788956
 30
0.0
 10
667.4877268318689
 20
4190.380633637209
 30
0.0
 10
667.9165076712478
 20
4190.315316157017
 30
0.0
 10
668.1850926437169
 20
4190.229434093006
 30
0.0
 10
668.3148270812956
 20
4190.187950523733
 30
0.0
 11
665.7672792407242
 21
4190.187950523733
 31
0.0
 11
666.1590051656584
 21
4190.302293756163
 31
0.0
 11
666.5899907744649
 21
4190.373001083361
 31
0.0
 11
667.0410531610099
 21
4190.396925040599
 31
0.0
 11
667.4921155475549
 21
4190.373001083361
 31
0.0
 11
667.9231011563613
 21
4190.302293756163
 31
0.0
 11
668.3148270812956
 21
4190.187950523733
 31
0.0
  0
SPLINE
  5
E8
330
47
100
AcDbEntity
  8
0
  6
Continuous
 62
     7
100
AcDbSpline
210
0.0
220
0.0
230
1.0
 70
     8
 71
     3
 72
    17
 73
    13
 74
    11
 42
0.000000001
 43
0.0000000001
 44
0.00000001
 40
0.0
 40
0.0
 40
0.0
 40
0.0
 40
0.407811844564993
 40
0.8847385387397046
 40
1.414281823262384
 40
1.971946936508061
 40
2.529612049976755
 40
3.05915533540864
 40
3.536082028975973
 40
3.943893867867044
 40
4.280573945058275
 40
4.568287659589057
 40
4.568287659589057
 40
4.568287659589057
 40
4.568287659589057
 10
668.9030077791465
 20
4190.516475927518
 30
0.0
 10
668.7919886246107
 20
4190.437032869644
 30
0.0
 10
668.5511350826087
 20
4190.264682969939
 30
0.0
 10
668.1012841808003
 20
4190.107219960194
 30
0.0
 10
667.5901534836635
 20
4190.001732445016
 30
0.0
 10
667.0409732478619
 20
4189.96718116064
 30
0.0
 10
666.4922643803168
 20
4190.002208878099
 30
0.0
 10
665.9798341955855
 20
4190.105499700715
 30
0.0
 10
665.5340450691276
 20
4190.27008386564
 30
0.0
 10
665.189497954877
 20
4190.486857678878
 30
0.0
 10
664.9429889086986
 20
4190.748574437408
 30
0.0
 10
664.9074356856903
 20
4190.957640574497
 30
0.0
 10
664.89105316101
 20
4191.053975927518
 30
0.0
 11
668.9030077791465
 21
4190.516475927518
 31
0.0
 11
668.5613323352457
 21
4190.293836340399
 31
0.0
 11
668.1160531610099
 21
4190.122998618449
 31
0.0
 11
667.5975139596246
 21
4190.015605941092
 31
0.0
 11
667.0410531610099
 21
4189.978975927517
 31
0.0
 11
666.4845923623952
 21
4190.015605941092
 31
0.0
 11
665.96605316101
 21
4190.122998618449
 31
0.0
 11
665.5207739867742
 21
4190.293836340399
 31
0.0
 11
665.1790985428734
 21
4190.516475927518
 31
0.0
 11
664.9643131881595
 21
4190.775745528211
 31
0.0
 11
664.89105316101
 21
4191.053975927518
 31
0.0
  0
SPLINE
  5
E9
330
47
100
AcDbEntity
  8
0
  6
Continuous
 62
     7
100
AcDbSpline
210
0.0
220
0.0
230
1.0
 70
     8
 71
     3
 72
     9
 73
     5
 74
     3
 42
0.000000001
 43
0.0000000001
 44
0.00000001
 40
0.0
 40
0.0
 40
0.0
 40
0.0
 40
0.4349160914722742
 40
0.9438510898698556
 40
0.9438510898698556
 40
0.9438510898698556
 40
0.9438510898698556
 10
634.3461894323391
 20
4193.924810802919
 30
0.0
 10
634.3220787307763
 20
4193.778038513759
 30
0.0
 10
634.2697538793659
 20
4193.459514584828
 30
0.0
 10
634.0365292927501
 20
4193.233942027471
 30
0.0
 10
633.9107719946383
 20
4193.112310802919
 30
0.0
 11
634.3461894323391
 21
4193.924810802919
 31
0.0
 11
634.2354475308339
 21
4193.504229966757
 31
0.0
 11
633.9107719946383
 21
4193.112310802919
 31
0.0
  0
SPLINE
  5
EA
330
47
100
AcDbEntity
  8
0
  6
Continuous
 62
     7
100
AcDbSpline
210
0.0
220
0.0
230
1.0
 70
     8
 71
     3
 72
    17
 73
    13
 74
    11
 42
0.000000001
 43
0.0000000001
 44
0.00000001
 40
0.0
 40
0.0
 40
0.0
 40
0.0
 40
0.6164597613693885
 40
1.337395461133041
 40
2.137867868133943
 40
2.980850015952492
 40
3.823832163994171
 40
4.624304571904389
 40
5.345240271060557
 40
5.961700026756024
 40
6.47063502721086
 40
6.905551111892357
 40
6.905551111892357
 40
6.905551111892357
 40
6.905551111892357
 10
633.9107719946383
 20
4193.112310802919
 30
0.0
 10
633.7429523434322
 20
4192.992222460338
 30
0.0
 10
633.3788714124054
 20
4192.731693537484
 30
0.0
 10
632.6988642330532
 20
4192.493668065748
 30
0.0
 10
631.9262248083218
 20
4192.334210192382
 30
0.0
 10
631.096068637759
 20
4192.281981506986
 30
0.0
 10
630.2666250009215
 20
4192.334930381634
 30
0.0
 10
629.49202123393
 20
4192.491067671504
 30
0.0
 10
628.8181539487614
 20
4192.739857686674
 30
0.0
 10
628.2973269194162
 20
4193.067539034185
 30
0.0
 10
627.9246969528333
 20
4193.46315738195
 30
0.0
 10
627.8709537140935
 20
4193.779187593334
 30
0.0
 10
627.8461894323391
 20
4193.924810802919
 30
0.0
 11
633.9107719946383
 21
4193.112310802919
 31
0.0
 11
633.3942858585093
 21
4192.775762589834
 31
0.0
 11
632.7211894323389
 21
4192.517519521769
 31
0.0
 11
631.9373511046635
 21
4192.355181753671
 31
0.0
 11
631.096189432339
 21
4192.299810802919
 31
0.0
 11
630.2550277600143
 21
4192.355181753671
 31
0.0
 11
629.4711894323389
 21
4192.517519521769
 31
0.0
 11
628.7980930061685
 21
4192.775762589834
 31
0.0
 11
628.2816068700396
 21
4193.112310802919
 31
0.0
 11
627.9569313338441
 21
4193.504229966757
 31
0.0
 11
627.8461894323391
 21
4193.924810802919
 31
0.0
  0
SPLINE
  5
EB
330
47
100
AcDbEntity
  8
0
  6
Continuous
 62
     7
100
AcDbSpline
210
0.0
220
0.0
230
1.0
 70
     8
 71
     3
 72
     9
 73
     5
 74
     3
 42
0.000000001
 43
0.0000000001
 44
0.00000001
 40
0.0
 40
0.0
 40
0.0
 40
0.0
 40
0.2877137213223526
 40
0.6243937964556274
 40
0.6243937964556274
 40
0.6243937964556274
 40
0.6243937964556274
 10
669.1910531610099
 20
4191.053975927518
 30
0.0
 10
669.1751030046319
 20
4190.956880413395
 30
0.0
 10
669.1404880968518
 20
4190.746164586219
 30
0.0
 10
668.9862010684864
 20
4190.596939660509
 30
0.0
 10
668.9030077791465
 20
4190.516475927518
 30
0.0
 11
669.1910531610099
 21
4191.053975927518
 31
0.0
 11
669.1177931338605
 21
4190.77574552821
 31
0.0
 11
668.9030077791465
 21
4190.516475927518
 31
0.0
  0
SPLINE
  5
EC
330
47
100
AcDbEntity
  8
0
  6
Continuous
 62
     7
100
AcDbSpline
210
0.0
220
0.0
230
1.0
 70
     8
 71
     3
 72
    19
 73
    15
 74
    13
 42
0.000000001
 43
0.0000000001
 44
0.00000001
 40
0.0
 40
0.0
 40
0.0
 40
0.0
 40
0.2877137191521862
 40
0.624393792804691
 40
1.032205632740635
 40
1.50913232792562
 40
2.038675615798219
 40
2.596340732497948
 40
3.154005849197905
 40
3.683549137070392
 40
4.160475832255377
 40
4.568287672191321
 40
4.904967745843826
 40
5.192681464996041
 40
5.192681464996041
 40
5.192681464996041
 40
5.192681464996041
 10
664.89105316101
 20
4191.053975927518
 30
0.0
 10
664.9074356734245
 20
4191.150311260057
 30
0.0
 10
664.9429888766068
 20
4191.359377347335
 30
0.0
 10
665.1894981622013
 20
4191.621094547168
 30
0.0
 10
665.5340440412391
 20
4191.837866180516
 30
0.0
 10
665.9798389593495
 20
4192.00246052939
 30
0.0
 10
666.492244092628
 20
4192.105707301629
 30
0.0
 10
667.0410531610098
 20
4192.14091118976
 30
0.0
 10
667.5898622293918
 20
4192.105707301627
 30
0.0
 10
668.1022673626699
 20
4192.002460529391
 30
0.0
 10
668.5480622807809
 20
4191.837866180517
 30
0.0
 10
668.8926081598186
 20
4191.621094547168
 30
0.0
 10
669.1391174454131
 20
4191.359377347337
 30
0.0
 10
669.1746706485951
 20
4191.150311260056
 30
0.0
 10
669.1910531610099
 20
4191.053975927518
 30
0.0
 11
664.89105316101
 21
4191.053975927518
 31
0.0
 11
664.9643131881594
 21
4191.332206326825
 31
0.0
 11
665.1790985428734
 21
4191.591475927517
 31
0.0
 11
665.5207739867741
 21
4191.814115514635
 31
0.0
 11
665.9660531610099
 21
4191.984953236586
 31
0.0
 11
666.4845923623952
 21
4192.092345913943
 31
0.0
 11
667.0410531610098
 21
4192.128975927518
 31
0.0
 11
667.5975139596246
 21
4192.092345913943
 31
0.0
 11
668.1160531610099
 21
4191.984953236586
 31
0.0
 11
668.5613323352457
 21
4191.814115514635
 31
0.0
 11
668.9030077791464
 21
4191.591475927517
 31
0.0
 11
669.1177931338603
 21
4191.332206326825
 31
0.0
 11
669.1910531610099
 21
4191.053975927518
 31
0.0
  0
SPLINE
  5
ED
330
47
100
AcDbEntity
  8
0
  6
Continuous
 62
     7
100
AcDbSpline
210
0.0
220
0.0
230
1.0
 70
     8
 71
     3
 72
    17
 73
    13
 74
    11
 42
0.000000001
 43
0.0000000001
 44
0.00000001
 40
0.0
 40
0.0
 40
0.0
 40
0.0
 40
0.2877137145308115
 40
0.6243937917213414
 40
1.032205630611821
 40
1.50913232417948
 40
2.038675609611476
 40
2.59634072308017
 40
3.154005836325847
 40
3.683549120848638
 40
4.160475815023569
 40
4.56828765958797
 40
4.56828765958797
 40
4.56828765958797
 40
4.56828765958797
 10
696.903866082112
 20
4183.053975927518
 30
0.0
 10
696.8874835574316
 20
4183.150311280539
 30
0.0
 10
696.851930334424
 20
4183.35937741763
 30
0.0
 10
696.6054212882443
 20
4183.621094176155
 30
0.0
 10
696.2608741739941
 20
4183.837867989396
 30
0.0
 10
695.815085047537
 20
4184.002452154321
 30
0.0
 10
695.3026548628047
 20
4184.105742976935
 30
0.0
 10
694.7539459952601
 20
4184.140770694396
 30
0.0
 10
694.2047657594584
 20
4184.106219410019
 30
0.0
 10
693.693635062321
 20
4184.00073189484
 30
0.0
 10
693.2437841605138
 20
4183.843268885097
 30
0.0
 10
693.002930618511
 20
4183.670918985389
 30
0.0
 10
692.8919114639755
 20
4183.591475927517
 30
0.0
 11
696.903866082112
 21
4183.053975927518
 31
0.0
 11
696.8306060549623
 21
4183.332206326825
 31
0.0
 11
696.6158207002485
 21
4183.591475927517
 31
0.0
 11
696.2741452563478
 21
4183.814115514635
 31
0.0
 11
695.828866082112
 21
4183.984953236586
 31
0.0
 11
695.3103268807266
 21
4184.092345913943
 31
0.0
 11
694.7538660821119
 21
4184.128975927518
 31
0.0
 11
694.1974052834972
 21
4184.092345913943
 31
0.0
 11
693.6788660821119
 21
4183.984953236586
 31
0.0
 11
693.2335869078762
 21
4183.814115514635
 31
0.0
 11
692.8919114639755
 21
4183.591475927517
 31
0.0
  0
ENDBLK
  5
49
330
47
100
AcDbEntity
  8
0
100
AcDbBlockEnd
  0
BLOCK
  5
4C
330
4A
100
AcDbEntity
  8
0
100
AcDbBlockBegin
  2
Allg1
 70
     0
 10
800.0000000000005
 20
4188.03473804103
 30
0.0
  3
Allg1
  1

  0
INSERT
  5
4B
330
4A
100
AcDbEntity
  8
0
100
AcDbBlockReference
  2
1415242_MD_INB24_3_SZP_S-select__1
 10
611.6417067604344
 20
4107.314908842832
 30
0.0
 41
1.0
 42
1.0
 43
1.0
  0
MTEXT
  5
EF
330
4A
100
AcDbEntity
  8
1
 62
     6
100
AcDbMText
 10
799.9999999999991
 20
4082.246607572643
 30
0.0
 40
25.0
 41
0.0
 71
     2
 72
     1
  1
 
  7
CONVERTER_11
 73
     1
 44
1.32052821128451
  0
ENDBLK
  5
4D
330
4A
100
AcDbEntity
  8
0
100
AcDbBlockEnd
  0
BLOCK
  5
4F
330
4E
100
AcDbEntity
  8
0
100
AcDbBlockBegin
  2
1415242_MD_INB24_3_SZP_S-select__2
 70
     0
 10
4.99999999999591
 20
4194.5
 30
0.0
  3
1415242_MD_INB24_3_SZP_S-select__2
  1

  0
LINE
  5
F0
330
4E
100
AcDbEntity
  8
0
  6
Continuous
 62
     7
100
AcDbLine
 10
156.4999999999959
 20
4222.5
 30
0.0
 11
191.4999999999959
 21
4222.5
 31
0.0
  0
LINE
  5
F1
330
4E
100
AcDbEntity
  8
0
  6
Continuous
 62
     7
100
AcDbLine
 10
191.4999999999959
 20
4222.5
 30
0.0
 11
191.4999999999959
 21
4334.5
 31
0.0
  0
LINE
  5
F2
330
4E
100
AcDbEntity
  8
0
  6
Continuous
 62
     7
100
AcDbLine
 10
156.4999999999959
 20
4334.5
 30
0.0
 11
156.4999999999959
 21
4222.5
 31
0.0
  0
LINE
  5
F3
330
4E
100
AcDbEntity
  8
0
  6
Continuous
 62
     7
100
AcDbLine
 10
56.49999999999591
 20
4222.5
 30
0.0
 11
91.49999999999591
 21
4222.5
 31
0.0
  0
LINE
  5
F4
330
4E
100
AcDbEntity
  8
0
  6
Continuous
 62
     7
100
AcDbLine
 10
91.49999999999591
 20
4334.5
 30
0.0
 11
56.49999999999591
 21
4334.5
 31
0.0
  0
LINE
  5
F5
330
4E
100
AcDbEntity
  8
0
  6
Continuous
 62
     7
100
AcDbLine
 10
91.49999999999591
 20
4222.5
 30
0.0
 11
91.49999999999591
 21
4334.5
 31
0.0
  0
LINE
  5
F6
330
4E
100
AcDbEntity
  8
0
  6
Continuous
 62
     7
100
AcDbLine
 10
256.4999999999959
 20
4222.5
 30
0.0
 11
291.4999999999959
 21
4222.5
 31
0.0
  0
LINE
  5
F7
330
4E
100
AcDbEntity
  8
0
  6
Continuous
 62
     7
100
AcDbLine
 10
342.9999999999959
 20
4362.5
 30
0.0
 11
342.9999999999959
 21
4194.5
 31
0.0
  0
LINE
  5
F8
330
4E
100
AcDbEntity
  8
0
  6
Continuous
 62
     7
100
AcDbLine
 10
291.4999999999959
 20
4222.5
 30
0.0
 11
291.4999999999959
 21
4334.5
 31
0.0
  0
LINE
  5
F9
330
4E
100
AcDbEntity
  8
0
  6
Continuous
 62
     7
100
AcDbLine
 10
256.4999999999959
 20
4334.5
 30
0.0
 11
256.4999999999959
 21
4222.5
 31
0.0
  0
LINE
  5
FA
330
4E
100
AcDbEntity
  8
0
  6
Continuous
 62
     7
100
AcDbLine
 10
342.9999999999959
 20
4194.5
 30
0.0
 11
4.99999999999591
 21
4194.5
 31
0.0
  0
LINE
  5
FB
330
4E
100
AcDbEntity
  8
0
  6
Continuous
 62
     7
100
AcDbLine
 10
4.99999999999591
 20
4194.5
 30
0.0
 11
4.99999999999591
 21
4362.5
 31
0.0
  0
LINE
  5
FC
330
4E
100
AcDbEntity
  8
0
  6
Continuous
 62
     7
100
AcDbLine
 10
56.49999999999591
 20
4334.5
 30
0.0
 11
56.49999999999591
 21
4222.5
 31
0.0
  0
LINE
  5
FD
330
4E
100
AcDbEntity
  8
0
  6
Continuous
 62
     7
100
AcDbLine
 10
4.99999999999591
 20
4362.5
 30
0.0
 11
342.9999999999959
 21
4362.5
 31
0.0
  0
LINE
  5
FE
330
4E
100
AcDbEntity
  8
0
  6
Continuous
 62
     7
100
AcDbLine
 10
191.4999999999959
 20
4334.5
 30
0.0
 11
156.4999999999959
 21
4334.5
 31
0.0
  0
LINE
  5
FF
330
4E
100
AcDbEntity
  8
0
  6
Continuous
 62
     7
100
AcDbLine
 10
291.4999999999959
 20
4334.5
 30
0.0
 11
256.4999999999959
 21
4334.5
 31
0.0
  0
LINE
  5
100
330
4E
100
AcDbEntity
  8
1
  6
DOT_CENTER
 62
     2
100
AcDbLine
 10
160.3649999999959
 20
4343.5
 30
0.0
 11
155.6349999999959
 21
4343.5
 31
0.0
  0
LINE
  5
101
330
4E
100
AcDbEntity
  8
1
  6
DOT_CENTER
 62
     2
100
AcDbLine
 10
157.9999999999959
 20
4345.865
 30
0.0
 11
157.9999999999959
 21
4341.135
 31
0.0
  0
LINE
  5
102
330
4E
100
AcDbEntity
  8
1
  6
DOT_CENTER
 62
     2
100
AcDbLine
 10
27.57499999999591
 20
4200.5
 30
0.0
 11
20.42499999999591
 21
4200.5
 31
0.0
  0
LINE
  5
103
330
4E
100
AcDbEntity
  8
1
  6
DOT_CENTER
 62
     2
100
AcDbLine
 10
23.99999999999591
 20
4204.075
 30
0.0
 11
23.99999999999591
 21
4196.925
 31
0.0
  0
LINE
  5
104
330
4E
100
AcDbEntity
  8
1
  6
DOT_CENTER
 62
     2
100
AcDbLine
 10
60.36499999999592
 20
4213.5
 30
0.0
 11
55.6349999999959
 21
4213.5
 31
0.0
  0
LINE
  5
105
330
4E
100
AcDbEntity
  8
1
  6
DOT_CENTER
 62
     2
100
AcDbLine
 10
57.99999999999591
 20
4215.865
 30
0.0
 11
57.99999999999591
 21
4211.135
 31
0.0
  0
LINE
  5
106
330
4E
100
AcDbEntity
  8
1
  6
DOT_CENTER
 62
     2
100
AcDbLine
 10
92.36499999999592
 20
4213.5
 30
0.0
 11
87.6349999999959
 21
4213.5
 31
0.0
  0
LINE
  5
107
330
4E
100
AcDbEntity
  8
1
  6
DOT_CENTER
 62
     2
100
AcDbLine
 10
89.99999999999591
 20
4215.865
 30
0.0
 11
89.99999999999591
 21
4211.135
 31
0.0
  0
LINE
  5
108
330
4E
100
AcDbEntity
  8
1
  6
DOT_CENTER
 62
     2
100
AcDbLine
 10
292.3649999999959
 20
4343.5
 30
0.0
 11
287.634999999996
 21
4343.5
 31
0.0
  0
LINE
  5
109
330
4E
100
AcDbEntity
  8
1
  6
DOT_CENTER
 62
     2
100
AcDbLine
 10
289.9999999999959
 20
4345.865
 30
0.0
 11
289.9999999999959
 21
4341.135
 31
0.0
  0
LINE
  5
10A
330
4E
100
AcDbEntity
  8
1
  6
DOT_CENTER
 62
     2
100
AcDbLine
 10
192.3649999999959
 20
4213.5
 30
0.0
 11
187.6349999999959
 21
4213.5
 31
0.0
  0
LINE
  5
10B
330
4E
100
AcDbEntity
  8
1
  6
DOT_CENTER
 62
     2
100
AcDbLine
 10
189.9999999999959
 20
4215.865
 30
0.0
 11
189.9999999999959
 21
4211.135
 31
0.0
  0
LINE
  5
10C
330
4E
100
AcDbEntity
  8
1
  6
DOT_CENTER
 62
     2
100
AcDbLine
 10
260.3649999999959
 20
4213.5
 30
0.0
 11
255.6349999999959
 21
4213.5
 31
0.0
  0
LINE
  5
10D
330
4E
100
AcDbEntity
  8
1
  6
DOT_CENTER
 62
     2
100
AcDbLine
 10
257.9999999999959
 20
4215.865
 30
0.0
 11
257.9999999999959
 21
4211.135
 31
0.0
  0
LINE
  5
10E
330
4E
100
AcDbEntity
  8
1
  6
DOT_CENTER
 62
     2
100
AcDbLine
 10
160.3649999999959
 20
4213.5
 30
0.0
 11
155.6349999999959
 21
4213.5
 31
0.0
  0
LINE
  5
10F
330
4E
100
AcDbEntity
  8
1
  6
DOT_CENTER
 62
     2
100
AcDbLine
 10
157.9999999999959
 20
4215.865
 30
0.0
 11
157.9999999999959
 21
4211.135
 31
0.0
  0
LINE
  5
110
330
4E
100
AcDbEntity
  8
1
  6
DOT_CENTER
 62
     2
100
AcDbLine
 10
327.5749999999959
 20
4356.5
 30
0.0
 11
320.4249999999959
 21
4356.5
 31
0.0
  0
LINE
  5
111
330
4E
100
AcDbEntity
  8
1
  6
DOT_CENTER
 62
     2
100
AcDbLine
 10
323.9999999999959
 20
4360.075
 30
0.0
 11
323.9999999999959
 21
4352.925
 31
0.0
  0
LINE
  5
112
330
4E
100
AcDbEntity
  8
1
  6
DOT_CENTER
 62
     2
100
AcDbLine
 10
60.36499999999592
 20
4343.5
 30
0.0
 11
55.6349999999959
 21
4343.5
 31
0.0
  0
LINE
  5
113
330
4E
100
AcDbEntity
  8
1
  6
DOT_CENTER
 62
     2
100
AcDbLine
 10
57.99999999999591
 20
4345.865
 30
0.0
 11
57.99999999999591
 21
4341.135
 31
0.0
  0
LINE
  5
114
330
4E
100
AcDbEntity
  8
1
  6
DOT_CENTER
 62
     2
100
AcDbLine
 10
92.36499999999592
 20
4343.5
 30
0.0
 11
87.6349999999959
 21
4343.5
 31
0.0
  0
LINE
  5
115
330
4E
100
AcDbEntity
  8
1
  6
DOT_CENTER
 62
     2
100
AcDbLine
 10
89.99999999999591
 20
4345.865
 30
0.0
 11
89.99999999999591
 21
4341.135
 31
0.0
  0
LINE
  5
116
330
4E
100
AcDbEntity
  8
1
  6
DOT_CENTER
 62
     2
100
AcDbLine
 10
327.5749999999959
 20
4200.5
 30
0.0
 11
320.4249999999959
 21
4200.5
 31
0.0
  0
LINE
  5
117
330
4E
100
AcDbEntity
  8
1
  6
DOT_CENTER
 62
     2
100
AcDbLine
 10
323.9999999999959
 20
4204.075
 30
0.0
 11
323.9999999999959
 21
4196.925
 31
0.0
  0
LINE
  5
118
330
4E
100
AcDbEntity
  8
1
  6
DOT_CENTER
 62
     2
100
AcDbLine
 10
227.5749999999959
 20
4356.5
 30
0.0
 11
220.4249999999959
 21
4356.5
 31
0.0
  0
LINE
  5
119
330
4E
100
AcDbEntity
  8
1
  6
DOT_CENTER
 62
     2
100
AcDbLine
 10
223.9999999999959
 20
4360.075
 30
0.0
 11
223.9999999999959
 21
4352.925
 31
0.0
  0
LINE
  5
11A
330
4E
100
AcDbEntity
  8
1
  6
DOT_CENTER
 62
     2
100
AcDbLine
 10
192.3649999999959
 20
4343.5
 30
0.0
 11
187.6349999999959
 21
4343.5
 31
0.0
  0
LINE
  5
11B
330
4E
100
AcDbEntity
  8
1
  6
DOT_CENTER
 62
     2
100
AcDbLine
 10
189.9999999999959
 20
4345.865
 30
0.0
 11
189.9999999999959
 21
4341.135
 31
0.0
  0
LINE
  5
11C
330
4E
100
AcDbEntity
  8
1
  6
DOT_CENTER
 62
     2
100
AcDbLine
 10
127.5749999999959
 20
4356.5
 30
0.0
 11
120.4249999999959
 21
4356.5
 31
0.0
  0
LINE
  5
11D
330
4E
100
AcDbEntity
  8
1
  6
DOT_CENTER
 62
     2
100
AcDbLine
 10
123.9999999999959
 20
4360.075
 30
0.0
 11
123.9999999999959
 21
4352.925
 31
0.0
  0
LINE
  5
11E
330
4E
100
AcDbEntity
  8
1
  6
DOT_CENTER
 62
     2
100
AcDbLine
 10
227.5749999999959
 20
4200.5
 30
0.0
 11
220.4249999999959
 21
4200.5
 31
0.0
  0
LINE
  5
11F
330
4E
100
AcDbEntity
  8
1
  6
DOT_CENTER
 62
     2
100
AcDbLine
 10
223.9999999999959
 20
4204.075
 30
0.0
 11
223.9999999999959
 21
4196.925
 31
0.0
  0
LINE
  5
120
330
4E
100
AcDbEntity
  8
1
  6
DOT_CENTER
 62
     2
100
AcDbLine
 10
292.3649999999959
 20
4213.5
 30
0.0
 11
287.634999999996
 21
4213.5
 31
0.0
  0
LINE
  5
121
330
4E
100
AcDbEntity
  8
1
  6
DOT_CENTER
 62
     2
100
AcDbLine
 10
289.9999999999959
 20
4215.865
 30
0.0
 11
289.9999999999959
 21
4211.135
 31
0.0
  0
LINE
  5
122
330
4E
100
AcDbEntity
  8
1
  6
DOT_CENTER
 62
     2
100
AcDbLine
 10
127.5749999999959
 20
4200.5
 30
0.0
 11
120.4249999999959
 21
4200.5
 31
0.0
  0
LINE
  5
123
330
4E
100
AcDbEntity
  8
1
  6
DOT_CENTER
 62
     2
100
AcDbLine
 10
123.9999999999959
 20
4204.075
 30
0.0
 11
123.9999999999959
 21
4196.925
 31
0.0
  0
LINE
  5
124
330
4E
100
AcDbEntity
  8
1
  6
DOT_CENTER
 62
     2
100
AcDbLine
 10
260.3649999999959
 20
4343.5
 30
0.0
 11
255.6349999999959
 21
4343.5
 31
0.0
  0
LINE
  5
125
330
4E
100
AcDbEntity
  8
1
  6
DOT_CENTER
 62
     2
100
AcDbLine
 10
257.9999999999959
 20
4345.865
 30
0.0
 11
257.9999999999959
 21
4341.135
 31
0.0
  0
LINE
  5
126
330
4E
100
AcDbEntity
  8
1
  6
DOT_CENTER
 62
     2
100
AcDbLine
 10
27.57499999999591
 20
4356.5
 30
0.0
 11
20.42499999999591
 21
4356.5
 31
0.0
  0
LINE
  5
127
330
4E
100
AcDbEntity
  8
1
  6
DOT_CENTER
 62
     2
100
AcDbLine
 10
23.99999999999591
 20
4360.075
 30
0.0
 11
23.99999999999591
 21
4352.925
 31
0.0
  0
CIRCLE
  5
128
330
4E
100
AcDbEntity
  8
0
  6
Continuous
 62
     7
100
AcDbCircle
 10
223.9999999999959
 20
4200.5
 30
0.0
 40
3.25
  0
CIRCLE
  5
129
330
4E
100
AcDbEntity
  8
0
  6
Continuous
 62
     7
100
AcDbCircle
 10
189.9999999999959
 20
4213.5
 30
0.0
 40
2.150000000000006
  0
CIRCLE
  5
12A
330
4E
100
AcDbEntity
  8
0
  6
Continuous
 62
     7
100
AcDbCircle
 10
157.9999999999959
 20
4213.5
 30
0.0
 40
2.150000000000006
  0
CIRCLE
  5
12B
330
4E
100
AcDbEntity
  8
0
  6
Continuous
 62
     7
100
AcDbCircle
 10
123.9999999999959
 20
4356.5
 30
0.0
 40
3.25
  0
CIRCLE
  5
12C
330
4E
100
AcDbEntity
  8
0
  6
Continuous
 62
     7
100
AcDbCircle
 10
89.99999999999591
 20
4343.5
 30
0.0
 40
2.150000000000006
  0
CIRCLE
  5
12D
330
4E
100
AcDbEntity
  8
0
  6
Continuous
 62
     7
100
AcDbCircle
 10
57.99999999999591
 20
4343.5
 30
0.0
 40
2.150000000000006
  0
CIRCLE
  5
12E
330
4E
100
AcDbEntity
  8
0
  6
Continuous
 62
     7
100
AcDbCircle
 10
323.9999999999959
 20
4200.5
 30
0.0
 40
3.25
  0
CIRCLE
  5
12F
330
4E
100
AcDbEntity
  8
0
  6
Continuous
 62
     7
100
AcDbCircle
 10
289.9999999999959
 20
4213.5
 30
0.0
 40
2.150000000000034
  0
CIRCLE
  5
130
330
4E
100
AcDbEntity
  8
0
  6
Continuous
 62
     7
100
AcDbCircle
 10
257.9999999999959
 20
4213.5
 30
0.0
 40
2.149999999999977
  0
CIRCLE
  5
131
330
4E
100
AcDbEntity
  8
0
  6
Continuous
 62
     7
100
AcDbCircle
 10
223.9999999999959
 20
4356.5
 30
0.0
 40
3.25
  0
CIRCLE
  5
132
330
4E
100
AcDbEntity
  8
0
  6
Continuous
 62
     7
100
AcDbCircle
 10
89.99999999999591
 20
4213.5
 30
0.0
 40
2.150000000000006
  0
CIRCLE
  5
133
330
4E
100
AcDbEntity
  8
0
  6
Continuous
 62
     7
100
AcDbCircle
 10
23.99999999999591
 20
4200.5
 30
0.0
 40
3.25
  0
CIRCLE
  5
134
330
4E
100
AcDbEntity
  8
0
  6
Continuous
 62
     7
100
AcDbCircle
 10
123.9999999999959
 20
4200.5
 30
0.0
 40
3.25
  0
CIRCLE
  5
135
330
4E
100
AcDbEntity
  8
0
  6
Continuous
 62
     7
100
AcDbCircle
 10
57.99999999999591
 20
4213.5
 30
0.0
 40
2.150000000000006
  0
CIRCLE
  5
136
330
4E
100
AcDbEntity
  8
0
  6
Continuous
 62
     7
100
AcDbCircle
 10
157.9999999999959
 20
4343.5
 30
0.0
 40
2.150000000000006
  0
CIRCLE
  5
137
330
4E
100
AcDbEntity
  8
0
  6
Continuous
 62
     7
100
AcDbCircle
 10
189.9999999999959
 20
4343.5
 30
0.0
 40
2.150000000000006
  0
CIRCLE
  5
138
330
4E
100
AcDbEntity
  8
0
  6
Continuous
 62
     7
100
AcDbCircle
 10
323.9999999999959
 20
4356.5
 30
0.0
 40
3.25
  0
CIRCLE
  5
139
330
4E
100
AcDbEntity
  8
0
  6
Continuous
 62
     7
100
AcDbCircle
 10
289.9999999999959
 20
4343.5
 30
0.0
 40
2.150000000000034
  0
CIRCLE
  5
13A
330
4E
100
AcDbEntity
  8
0
  6
Continuous
 62
     7
100
AcDbCircle
 10
257.9999999999959
 20
4343.5
 30
0.0
 40
2.149999999999977
  0
CIRCLE
  5
13B
330
4E
100
AcDbEntity
  8
0
  6
Continuous
 62
     7
100
AcDbCircle
 10
23.99999999999591
 20
4356.5
 30
0.0
 40
3.25
  0
ENDBLK
  5
50
330
4E
100
AcDbEntity
  8
0
100
AcDbBlockEnd
  0
BLOCK
  5
53
330
51
100
AcDbEntity
  8
0
100
AcDbBlockBegin
  2
Drfsicht1
 70
     0
 10
173.9999999999909
 20
4278.5
 30
0.0
  3
Drfsicht1
  1

  0
INSERT
  5
52
330
51
100
AcDbEntity
  8
0
100
AcDbBlockReference
  2
1415242_MD_INB24_3_SZP_S-select__2
 10
4.99999999999591
 20
4194.499999999999
 30
0.0
 41
1.0
 42
1.0
 43
1.0
  0
MTEXT
  5
13C
330
51
100
AcDbEntity
  8
1
 62
     6
100
AcDbMText
 10
173.9999999999909
 20
4169.5
 30
0.0
 40
25.0
 41
0.0
 71
     2
 72
     1
  1
 
  7
CONVERTER_11
 73
     1
 44
1.32052821128451
  0
DIMENSION
  5
147
330
51
100
AcDbEntity
  8
1
100
AcDbDimension
  2
*D16
 10
-45.00000000000409
 20
4362.5
 30
0.0
 11
-63.75000000000409
 21
4278.5
 31
0.0
 70
    32
  1
<>
 71
     5
 42
-1.0
 53
90.0
  3
ME10_DIM_10
100
AcDbAlignedDimension
 13
4.99999999999591
 23
4194.499999999999
 33
0.0
 14
4.99999999999591
 24
4362.499999999999
 34
0.0
 50
90.0
100
AcDbRotatedDimension
  0
DIMENSION
  5
152
330
51
100
AcDbEntity
  8
1
100
AcDbDimension
  2
*D17
 10
4.99999999999591
 20
4412.5
 30
0.0
 11
173.9999999999959
 21
4431.25
 31
0.0
 70
    32
  1
<>
 71
     5
 42
-1.0
 53
0.00013888888889
  3
ME10_DIM_11
100
AcDbAlignedDimension
 13
342.9999999999958
 23
4362.499999999999
 33
0.0
 14
4.99999999999591
 24
4362.499999999999
 34
0.0
100
AcDbRotatedDimension
  0
ENDBLK
  5
54
330
51
100
AcDbEntity
  8
0
100
AcDbBlockEnd
  0
BLOCK
  5
56
330
55
100
AcDbEntity
  8
0
100
AcDbBlockBegin
  2
1415242_MD_INB24_3_SZP_S-select__3
 70
     0
 10
710.999999999995
 20
4512.500000000099
 30
0.0
  3
1415242_MD_INB24_3_SZP_S-select__3
  1

  0
LINE
  5
153
330
55
100
AcDbEntity
  8
0
  6
Continuous
 62
     7
100
AcDbLine
 10
710.999999999995
 20
4515.500000000099
 30
0.0
 11
710.999999999995
 21
4517.500000000099
 31
0.0
  0
LINE
  5
154
330
55
100
AcDbEntity
  8
0
  6
Continuous
 62
     7
100
AcDbLine
 10
1048.899999999995
 20
4512.500000000099
 30
0.0
 11
711.099999999995
 21
4512.500000000099
 31
0.0
  0
LINE
  5
155
330
55
100
AcDbEntity
  8
0
  6
Continuous
 62
     7
100
AcDbLine
 10
1048.999999999995
 20
4515.500000000099
 30
0.0
 11
1048.999999999995
 21
4517.500000000099
 31
0.0
  0
LINE
  5
156
330
55
100
AcDbEntity
  8
0
  6
Continuous
 62
     7
100
AcDbLine
 10
1048.999999999995
 20
4515.500000000099
 30
0.0
 11
1048.899999999995
 21
4515.500000000099
 31
0.0
  0
LINE
  5
157
330
55
100
AcDbEntity
  8
0
  6
Continuous
 62
     7
100
AcDbLine
 10
711.099999999995
 20
4515.500000000099
 30
0.0
 11
710.999999999995
 21
4515.500000000099
 31
0.0
  0
LINE
  5
158
330
55
100
AcDbEntity
  8
0
  6
Continuous
 62
     7
100
AcDbLine
 10
1048.899999999995
 20
4515.500000000099
 30
0.0
 11
711.099999999995
 21
4515.500000000099
 31
0.0
  0
LINE
  5
159
330
55
100
AcDbEntity
  8
0
  6
Continuous
 62
     7
100
AcDbLine
 10
1048.899999999995
 20
4512.500000000099
 30
0.0
 11
1048.899999999995
 21
4515.500000000099
 31
0.0
  0
LINE
  5
15A
330
55
100
AcDbEntity
  8
0
  6
Continuous
 62
     7
100
AcDbLine
 10
711.099999999995
 20
4512.500000000099
 30
0.0
 11
711.099999999995
 21
4515.500000000099
 31
0.0
  0
LINE
  5
15B
330
55
100
AcDbEntity
  8
0
  6
Continuous
 62
     7
100
AcDbLine
 10
1048.999999999995
 20
4517.500000000099
 30
0.0
 11
710.999999999995
 21
4517.500000000099
 31
0.0
  0
ENDBLK
  5
57
330
55
100
AcDbEntity
  8
0
100
AcDbBlockEnd
  0
BLOCK
  5
5A
330
58
100
AcDbEntity
  8
0
100
AcDbBlockBegin
  2
Rckans1
 70
     0
 10
880.0
 20
4515.000000000075
 30
0.0
  3
Rckans1
  1

  0
INSERT
  5
59
330
58
100
AcDbEntity
  8
0
100
AcDbBlockReference
  2
1415242_MD_INB24_3_SZP_S-select__3
 10
710.9999999999949
 20
4512.500000000098
 30
0.0
 41
1.0
 42
1.0
 43
1.0
  0
MTEXT
  5
15C
330
58
100
AcDbEntity
  8
1
 62
     6
100
AcDbMText
 10
880.0
 20
4487.500000000075
 30
0.0
 40
25.0
 41
0.0
 71
     2
 72
     1
  1
 
  7
CONVERTER_11
 73
     1
 44
1.32052821128451
  0
ENDBLK
  5
5B
330
58
100
AcDbEntity
  8
0
100
AcDbBlockEnd
  0
BLOCK
  5
5D
330
5C
100
AcDbEntity
  8
0
100
AcDbBlockBegin
  2
1415242_MD_INB24_3_SZP_S-select__4
 70
     0
 10
443.0000000000001
 20
4512.500000000055
 30
0.0
  3
1415242_MD_INB24_3_SZP_S-select__4
  1

  0
LINE
  5
15D
330
5C
100
AcDbEntity
  8
0
  6
Continuous
 62
     7
100
AcDbLine
 10
443.0000000000001
 20
4515.500000000055
 30
0.0
 11
443.0000000000001
 21
4517.500000000055
 31
0.0
  0
LINE
  5
15E
330
5C
100
AcDbEntity
  8
0
  6
Continuous
 62
     7
100
AcDbLine
 10
610.9000000000001
 20
4512.500000000055
 30
0.0
 11
443.1000000000001
 21
4512.500000000055
 31
0.0
  0
LINE
  5
15F
330
5C
100
AcDbEntity
  8
0
  6
Continuous
 62
     7
100
AcDbLine
 10
611.0000000000001
 20
4515.500000000055
 30
0.0
 11
611.0000000000001
 21
4517.500000000055
 31
0.0
  0
LINE
  5
160
330
5C
100
AcDbEntity
  8
0
  6
Continuous
 62
     7
100
AcDbLine
 10
611.0000000000001
 20
4515.500000000055
 30
0.0
 11
610.9000000000001
 21
4515.500000000055
 31
0.0
  0
LINE
  5
161
330
5C
100
AcDbEntity
  8
0
  6
Continuous
 62
     7
100
AcDbLine
 10
443.1000000000001
 20
4515.500000000055
 30
0.0
 11
443.0000000000001
 21
4515.500000000055
 31
0.0
  0
LINE
  5
162
330
5C
100
AcDbEntity
  8
0
  6
Continuous
 62
     7
100
AcDbLine
 10
610.9000000000001
 20
4515.500000000055
 30
0.0
 11
443.1000000000001
 21
4515.500000000055
 31
0.0
  0
LINE
  5
163
330
5C
100
AcDbEntity
  8
0
  6
Continuous
 62
     7
100
AcDbLine
 10
610.9000000000001
 20
4512.500000000055
 30
0.0
 11
610.9000000000001
 21
4515.500000000055
 31
0.0
  0
LINE
  5
164
330
5C
100
AcDbEntity
  8
0
  6
Continuous
 62
     7
100
AcDbLine
 10
443.1000000000001
 20
4512.500000000055
 30
0.0
 11
443.1000000000001
 21
4515.500000000055
 31
0.0
  0
LINE
  5
165
330
5C
100
AcDbEntity
  8
0
  6
Continuous
 62
     7
100
AcDbLine
 10
611.0000000000001
 20
4517.500000000055
 30
0.0
 11
443.0000000000001
 21
4517.500000000055
 31
0.0
  0
ENDBLK
  5
5E
330
5C
100
AcDbEntity
  8
0
100
AcDbBlockEnd
  0
BLOCK
  5
61
330
5F
100
AcDbEntity
  8
0
100
AcDbBlockBegin
  2
SA_Links1
 70
     0
 10
527.0000000000001
 20
4515.00000000003
 30
0.0
  3
SA_Links1
  1

  0
INSERT
  5
60
330
5F
100
AcDbEntity
  8
0
100
AcDbBlockReference
  2
1415242_MD_INB24_3_SZP_S-select__4
 10
443.0000000000001
 20
4512.500000000054
 30
0.0
 41
1.0
 42
1.0
 43
1.0
  0
MTEXT
  5
166
330
5F
100
AcDbEntity
  8
1
 62
     6
100
AcDbMText
 10
527.0
 20
4487.50000000003
 30
0.0
 40
25.0
 41
0.0
 71
     2
 72
     1
  1
 
  7
CONVERTER_11
 73
     1
 44
1.32052821128451
  0
ENDBLK
  5
62
330
5F
100
AcDbEntity
  8
0
100
AcDbBlockEnd
  0
BLOCK
  5
64
330
63
100
AcDbEntity
  8
0
100
AcDbBlockBegin
  2
1415242_MD_INB24_3_SZP_S-select__5
 70
     0
 10
-313.0000000000099
 20
4512.500000000055
 30
0.0
  3
1415242_MD_INB24_3_SZP_S-select__5
  1

  0
LINE
  5
167
330
63
100
AcDbEntity
  8
0
  6
Continuous
 62
     7
100
AcDbLine
 10
-313.0000000000099
 20
4515.500000000055
 30
0.0
 11
-313.0000000000099
 21
4517.500000000055
 31
0.0
  0
LINE
  5
168
330
63
100
AcDbEntity
  8
0
  6
Continuous
 62
     7
100
AcDbLine
 10
-145.1000000000099
 20
4512.500000000055
 30
0.0
 11
-312.9000000000099
 21
4512.500000000055
 31
0.0
  0
LINE
  5
169
330
63
100
AcDbEntity
  8
0
  6
Continuous
 62
     7
100
AcDbLine
 10
-145.0000000000099
 20
4515.500000000055
 30
0.0
 11
-145.0000000000099
 21
4517.500000000055
 31
0.0
  0
LINE
  5
16A
330
63
100
AcDbEntity
  8
0
  6
Continuous
 62
     7
100
AcDbLine
 10
-145.0000000000099
 20
4515.500000000055
 30
0.0
 11
-145.1000000000099
 21
4515.500000000055
 31
0.0
  0
LINE
  5
16B
330
63
100
AcDbEntity
  8
0
  6
Continuous
 62
     7
100
AcDbLine
 10
-312.9000000000099
 20
4515.500000000055
 30
0.0
 11
-313.0000000000099
 21
4515.500000000055
 31
0.0
  0
LINE
  5
16C
330
63
100
AcDbEntity
  8
0
  6
Continuous
 62
     7
100
AcDbLine
 10
-145.1000000000099
 20
4515.500000000055
 30
0.0
 11
-312.9000000000099
 21
4515.500000000055
 31
0.0
  0
LINE
  5
16D
330
63
100
AcDbEntity
  8
0
  6
Continuous
 62
     7
100
AcDbLine
 10
-145.1000000000099
 20
4512.500000000055
 30
0.0
 11
-145.1000000000099
 21
4515.500000000055
 31
0.0
  0
LINE
  5
16E
330
63
100
AcDbEntity
  8
0
  6
Continuous
 62
     7
100
AcDbLine
 10
-312.9000000000099
 20
4512.500000000055
 30
0.0
 11
-312.9000000000099
 21
4515.500000000055
 31
0.0
  0
LINE
  5
16F
330
63
100
AcDbEntity
  8
0
  6
Continuous
 62
     7
100
AcDbLine
 10
-145.0000000000099
 20
4517.500000000055
 30
0.0
 11
-313.0000000000099
 21
4517.500000000055
 31
0.0
  0
ENDBLK
  5
65
330
63
100
AcDbEntity
  8
0
100
AcDbBlockEnd
  0
BLOCK
  5
68
330
66
100
AcDbEntity
  8
0
100
AcDbBlockBegin
  2
SA_Rechts1
 70
     0
 10
-229.0000000000099
 20
4515.00000000003
 30
0.0
  3
SA_Rechts1
  1

  0
INSERT
  5
67
330
66
100
AcDbEntity
  8
0
100
AcDbBlockReference
  2
1415242_MD_INB24_3_SZP_S-select__5
 10
-313.0000000000098
 20
4512.500000000054
 30
0.0
 41
1.0
 42
1.0
 43
1.0
  0
MTEXT
  5
170
330
66
100
AcDbEntity
  8
1
 62
     6
100
AcDbMText
 10
-229.00000000001
 20
4487.50000000003
 30
0.0
 40
25.0
 41
0.0
 71
     2
 72
     1
  1
 
  7
CONVERTER_11
 73
     1
 44
1.32052821128451
  0
ENDBLK
  5
69
330
66
100
AcDbEntity
  8
0
100
AcDbBlockEnd
  0
BLOCK
  5
6B
330
6A
100
AcDbEntity
  8
0
100
AcDbBlockBegin
  2
1415242_MD_INB24_3_SZP_S-select__6
 70
     0
 10
4.99999999998607
 20
4512.500000000025
 30
0.0
  3
1415242_MD_INB24_3_SZP_S-select__6
  1

  0
LINE
  5
171
330
6A
100
AcDbEntity
  8
0
  6
Continuous
 62
     7
100
AcDbLine
 10
4.99999999998607
 20
4515.500000000025
 30
0.0
 11
4.99999999998607
 21
4517.500000000025
 31
0.0
  0
LINE
  5
172
330
6A
100
AcDbEntity
  8
0
  6
Continuous
 62
     7
100
AcDbLine
 10
342.8999999999861
 20
4512.500000000025
 30
0.0
 11
5.09999999998621
 21
4512.500000000025
 31
0.0
  0
LINE
  5
173
330
6A
100
AcDbEntity
  8
0
  6
Continuous
 62
     7
100
AcDbLine
 10
342.9999999999861
 20
4515.500000000025
 30
0.0
 11
342.9999999999861
 21
4517.500000000025
 31
0.0
  0
LINE
  5
174
330
6A
100
AcDbEntity
  8
0
  6
Continuous
 62
     7
100
AcDbLine
 10
342.9999999999861
 20
4515.500000000025
 30
0.0
 11
342.8999999999861
 21
4515.500000000025
 31
0.0
  0
LINE
  5
175
330
6A
100
AcDbEntity
  8
0
  6
Continuous
 62
     7
100
AcDbLine
 10
5.09999999998621
 20
4515.500000000025
 30
0.0
 11
4.99999999998607
 21
4515.500000000025
 31
0.0
  0
LINE
  5
176
330
6A
100
AcDbEntity
  8
0
  6
Continuous
 62
     7
100
AcDbLine
 10
342.8999999999861
 20
4515.500000000025
 30
0.0
 11
5.09999999998621
 21
4515.500000000025
 31
0.0
  0
LINE
  5
177
330
6A
100
AcDbEntity
  8
0
  6
Continuous
 62
     7
100
AcDbLine
 10
342.8999999999861
 20
4512.500000000025
 30
0.0
 11
342.8999999999861
 21
4515.500000000025
 31
0.0
  0
LINE
  5
178
330
6A
100
AcDbEntity
  8
0
  6
Continuous
 62
     7
100
AcDbLine
 10
5.09999999998621
 20
4512.500000000025
 30
0.0
 11
5.09999999998621
 21
4515.500000000025
 31
0.0
  0
LINE
  5
179
330
6A
100
AcDbEntity
  8
0
  6
Continuous
 62
     7
100
AcDbLine
 10
342.9999999999861
 20
4517.500000000025
 30
0.0
 11
4.99999999998607
 21
4517.500000000025
 31
0.0
  0
ENDBLK
  5
6C
330
6A
100
AcDbEntity
  8
0
100
AcDbBlockEnd
  0
BLOCK
  5
6F
330
6D
100
AcDbEntity
  8
0
100
AcDbBlockBegin
  2
Vordans1
 70
     0
 10
173.9999999999811
 20
4515.0
 30
0.0
  3
Vordans1
  1

  0
INSERT
  5
6E
330
6D
100
AcDbEntity
  8
0
100
AcDbBlockReference
  2
1415242_MD_INB24_3_SZP_S-select__6
 10
4.99999999998607
 20
4512.500000000024
 30
0.0
 41
1.0
 42
1.0
 43
1.0
  0
MTEXT
  5
17A
330
6D
100
AcDbEntity
  8
1
 62
     6
100
AcDbMText
 10
173.99999999999
 20
4487.50000000002
 30
0.0
 40
25.0
 41
0.0
 71
     2
 72
     1
  1
 
  7
CONVERTER_11
 73
     1
 44
1.32052821128451
  0
DIMENSION
  5
187
330
6D
100
AcDbEntity
  8
1
100
AcDbDimension
  2
*D18
 10
-45.00000000001393
 20
4517.500000000025
 30
0.0
 11
-63.75000000001393
 21
4481.837655069289
 31
0.0
 70
    32
  1
<>
 71
     5
 42
-1.0
 53
90.0
  3
ME10_DIM_12
100
AcDbAlignedDimension
 13
5.09999999998621
 23
4512.500000000024
 33
0.0
 14
4.99999999998607
 24
4517.500000000024
 34
0.0
 50
90.0
100
AcDbRotatedDimension
  0
ENDBLK
  5
70
330
6D
100
AcDbEntity
  8
0
100
AcDbBlockEnd
  0
BLOCK
  5
72
330
71
100
AcDbEntity
  8
0
100
AcDbBlockBegin
  2
_punkt
 70
     0
 10
217.0999999999985
 20
769.7000000000027
 30
0.0
  3
_punkt
  1

  0
LINE
  5
188
330
71
100
AcDbEntity
  8
1
  6
Continuous
 62
     2
100
AcDbLine
 10
217.0999999999985
 20
769.7000000000027
 30
0.0
 11
217.0999999999985
 21
764.7000000000025
 31
0.0
  0
LINE
  5
189
330
71
100
AcDbEntity
  8
1
  6
Continuous
 62
     2
100
AcDbLine
 10
217.0999999999985
 20
769.7000000000027
 30
0.0
 11
222.0999999999976
 21
769.7000000000027
 31
0.0
  0
ENDBLK
  5
73
330
71
100
AcDbEntity
  8
0
100
AcDbBlockEnd
  0
BLOCK
  5
75
330
74
100
AcDbEntity
  8
0
100
AcDbBlockBegin
  2
_rahmen
 70
     0
 10
217.0999999999985
 20
764.7000000000025
 30
0.0
  3
_rahmen
  1

  0
POINT
  5
18A
330
74
100
AcDbEntity
  8
1
 62
     3
 60
     1
100
AcDbPoint
 10
153.6000000000009
 20
790.9500000000025
 30
0.0
  0
LINE
  5
18B
102
{ACAD_REACTORS
330
36A
330
36B
102
}
330
74
100
AcDbEntity
  8
0
  6
Continuous
 62
     2
100
AcDbLine
 10
102.0423268300812
 20
777.2085034013696
 30
0.0
 11
102.0423268300812
 21
777.9295918367442
 31
0.0
  0
LINE
  5
18C
102
{ACAD_REACTORS
330
36A
330
36B
102
}
330
74
100
AcDbEntity
  8
0
  6
Continuous
 62
     2
100
AcDbLine
 10
102.0423268300812
 20
776.4153061224581
 30
0.0
 11
102.0423268300812
 21
775.6942176870836
 31
0.0
  0
LINE
  5
18D
102
{ACAD_REACTORS
330
36C
330
36D
102
}
330
74
100
AcDbEntity
  8
0
  6
Continuous
 62
     2
100
AcDbLine
 10
114.7142641328006
 20
777.4248299319815
 30
0.0
 11
115.626362727485
 21
777.4248299319815
 31
0.0
  0
LINE
  5
18E
102
{ACAD_REACTORS
330
36C
330
36D
102
}
330
74
100
AcDbEntity
  8
0
  6
Continuous
 62
     2
100
AcDbLine
 10
115.350344581529
 20
776.4153061224577
 30
0.0
 11
115.350344581529
 21
775.6942176870831
 31
0.0
  0
LINE
  5
18F
102
{ACAD_REACTORS
330
376
330
377
102
}
330
74
100
AcDbEntity
  8
0
  6
Continuous
 62
     2
100
AcDbLine
 10
113.8125291969175
 20
778.3261904761856
 30
0.0
 11
114.9678622935624
 21
779.6326855123632
 31
0.0
  0
LINE
  5
190
102
{ACAD_REACTORS
330
376
330
377
102
}
330
74
100
AcDbEntity
  8
0
  6
Continuous
 62
     2
100
AcDbLine
 10
113.8913915243331
 20
780.8499999999965
 30
0.0
 11
114.9678622935624
 21
779.6326855123632
 31
0.0
  0
LINE
  5
191
102
{ACAD_REACTORS
330
376
330
377
102
}
330
74
100
AcDbEntity
  8
0
  6
Continuous
 62
     2
100
AcDbLine
 10
116.0443330627908
 20
780.8499999999965
 30
0.0
 11
117.203609275805
 21
780.8499999999965
 31
0.0
  0
LINE
  5
192
102
{ACAD_REACTORS
330
376
330
377
102
}
330
74
100
AcDbEntity
  8
0
  6
Continuous
 62
     2
100
AcDbLine
 10
114.9718054099325
 20
778.3261904761856
 30
0.0
 11
115.5475004000695
 21
778.9772084805605
 31
0.0
  0
LINE
  5
193
102
{ACAD_REACTORS
330
376
330
377
102
}
330
74
100
AcDbEntity
  8
0
  6
Continuous
 62
     2
100
AcDbLine
 10
114.9718054099325
 20
778.3261904761856
 30
0.0
 11
113.8125291969175
 21
778.3261904761856
 31
0.0
  0
LINE
  5
194
102
{ACAD_REACTORS
330
378
330
379
102
}
330
74
100
AcDbEntity
  8
0
  6
Continuous
 62
     2
100
AcDbLine
 10
113.7139512876474
 20
778.3261904761856
 30
0.0
 11
112.68874103124
 21
778.3261904761856
 31
0.0
  0
LINE
  5
195
102
{ACAD_REACTORS
330
37A
330
37B
102
}
330
74
100
AcDbEntity
  8
0
  6
Continuous
 62
     2
100
AcDbLine
 10
111.9714025121036
 20
776.5595238095328
 30
0.0
 11
111.7233320681448
 21
777.1940816326623
 31
0.0
  0
LINE
  5
196
102
{ACAD_REACTORS
330
37A
330
37B
102
}
330
74
100
AcDbEntity
  8
0
  6
Continuous
 62
     2
100
AcDbLine
 10
111.4752616241842
 20
776.5595238095328
 30
0.0
 11
111.9714025121036
 21
776.5595238095328
 31
0.0
  0
LINE
  5
197
102
{ACAD_REACTORS
330
37A
330
37B
102
}
330
74
100
AcDbEntity
  8
0
  6
Continuous
 62
     2
100
AcDbLine
 10
110.0553938432967
 20
775.5500000000085
 30
0.0
 11
111.0806040997041
 21
775.5500000000085
 31
0.0
  0
LINE
  5
198
102
{ACAD_REACTORS
330
37A
330
37B
102
}
330
74
100
AcDbEntity
  8
0
  6
Continuous
 62
     2
100
AcDbLine
 10
111.2107269399407
 20
778.0738095238194
 30
0.0
 11
112.235937196348
 21
778.0738095238194
 31
0.0
  0
LINE
  5
199
102
{ACAD_REACTORS
330
37A
330
37B
102
}
330
74
100
AcDbEntity
  8
0
  6
Continuous
 62
     2
100
AcDbLine
 10
112.235937196348
 20
778.0738095238194
 30
0.0
 11
113.3912702929928
 21
775.5500000000085
 31
0.0
  0
LINE
  5
19A
102
{ACAD_REACTORS
330
37A
330
37B
102
}
330
74
100
AcDbEntity
  8
0
  6
Continuous
 62
     2
100
AcDbLine
 10
112.3660600365847
 20
775.5500000000085
 30
0.0
 11
112.1912831328856
 21
775.9970748299406
 31
0.0
  0
LINE
  5
19B
102
{ACAD_REACTORS
330
37C
330
37D
102
}
330
74
100
AcDbEntity
  8
0
  6
Continuous
 62
     2
100
AcDbLine
 10
108.9426557427119
 20
775.5500000000085
 30
0.0
 11
109.9284348354115
 21
775.5500000000085
 31
0.0
  0
LINE
  5
19C
102
{ACAD_REACTORS
330
37C
330
37D
102
}
330
74
100
AcDbEntity
  8
0
  6
Continuous
 62
     2
100
AcDbLine
 10
108.9426557427119
 20
777.4248299319815
 30
0.0
 11
108.9426557427119
 21
775.5500000000085
 31
0.0
  0
LINE
  5
19D
102
{ACAD_REACTORS
330
37C
330
37D
102
}
330
74
100
AcDbEntity
  8
0
  6
Continuous
 62
     2
100
AcDbLine
 10
108.272325959675
 20
778.0738095238194
 30
0.0
 11
108.272325959675
 21
777.4248299319815
 31
0.0
  0
LINE
  5
19E
102
{ACAD_REACTORS
330
37E
330
37F
102
}
330
74
100
AcDbEntity
  8
0
  6
Continuous
 62
     2
100
AcDbLine
 10
109.4948167708921
 20
778.3261904761856
 30
0.0
 11
110.4805958635917
 21
778.3261904761856
 31
0.0
  0
LINE
  5
19F
102
{ACAD_REACTORS
330
37E
330
37F
102
}
330
74
100
AcDbEntity
  8
0
  6
Continuous
 62
     2
100
AcDbLine
 10
111.5058061199999
 20
779.7683673469344
 30
0.0
 11
110.4805958635917
 21
780.8499999999965
 31
0.0
  0
LINE
  5
1A0
102
{ACAD_REACTORS
330
37E
330
37F
102
}
330
74
100
AcDbEntity
  8
0
  6
Continuous
 62
     2
100
AcDbLine
 10
112.4915852126996
 20
780.8499999999965
 30
0.0
 11
111.5058061199999
 21
780.8499999999965
 31
0.0
  0
LINE
  5
1A1
102
{ACAD_REACTORS
330
37E
330
37F
102
}
330
74
100
AcDbEntity
  8
0
  6
Continuous
 62
     2
100
AcDbLine
 10
112.4915852126996
 20
778.3261904761856
 30
0.0
 11
112.4915852126996
 21
780.8499999999965
 31
0.0
  0
LINE
  5
1A2
102
{ACAD_REACTORS
330
37E
330
37F
102
}
330
74
100
AcDbEntity
  8
0
  6
Continuous
 62
     2
100
AcDbLine
 10
111.5058061199999
 20
778.3261904761856
 30
0.0
 11
112.4915852126996
 21
778.3261904761856
 31
0.0
  0
LINE
  5
1A3
102
{ACAD_REACTORS
330
37E
330
37F
102
}
330
74
100
AcDbEntity
  8
0
  6
Continuous
 62
     2
100
AcDbLine
 10
110.4805958635917
 20
779.4078231292473
 30
0.0
 11
111.5058061199999
 21
778.3261904761856
 31
0.0
  0
LINE
  5
1A4
102
{ACAD_REACTORS
330
380
330
381
102
}
330
74
100
AcDbEntity
  8
0
  6
Continuous
 62
     2
100
AcDbLine
 10
107.1682533758514
 20
776.9921768707572
 30
0.0
 11
106.143043119444
 21
778.0738095238194
 31
0.0
  0
LINE
  5
1A5
102
{ACAD_REACTORS
330
380
330
381
102
}
330
74
100
AcDbEntity
  8
0
  6
Continuous
 62
     2
100
AcDbLine
 10
107.1682533758514
 20
778.0738095238194
 30
0.0
 11
107.1682533758514
 21
776.9921768707572
 31
0.0
  0
LINE
  5
1A6
102
{ACAD_REACTORS
330
380
330
381
102
}
330
74
100
AcDbEntity
  8
0
  6
Continuous
 62
     2
100
AcDbLine
 10
108.154032468551
 20
778.0738095238194
 30
0.0
 11
107.1682533758514
 21
778.0738095238194
 31
0.0
  0
LINE
  5
1A7
102
{ACAD_REACTORS
330
380
330
381
102
}
330
74
100
AcDbEntity
  8
0
  6
Continuous
 62
     2
100
AcDbLine
 10
108.154032468551
 20
775.5500000000085
 30
0.0
 11
108.154032468551
 21
778.0738095238194
 31
0.0
  0
LINE
  5
1A8
102
{ACAD_REACTORS
330
380
330
381
102
}
330
74
100
AcDbEntity
  8
0
  6
Continuous
 62
     2
100
AcDbLine
 10
106.143043119444
 20
776.6316326530701
 30
0.0
 11
107.1682533758514
 21
775.5500000000085
 31
0.0
  0
LINE
  5
1A9
102
{ACAD_REACTORS
330
380
330
381
102
}
330
74
100
AcDbEntity
  8
0
  6
Continuous
 62
     2
100
AcDbLine
 10
106.143043119444
 20
775.5500000000085
 30
0.0
 11
106.143043119444
 21
776.6316326530701
 31
0.0
  0
LINE
  5
1AA
102
{ACAD_REACTORS
330
370
330
371
102
}
330
74
100
AcDbEntity
  8
0
  6
Continuous
 62
     2
100
AcDbLine
 10
108.193588368528
 20
780.2731292516966
 30
0.0
 11
109.2976609523525
 21
780.2731292516966
 31
0.0
  0
LINE
  5
1AB
102
{ACAD_REACTORS
330
370
330
371
102
}
330
74
100
AcDbEntity
  8
0
  6
Continuous
 62
     2
100
AcDbLine
 10
108.193588368528
 20
778.9030612244851
 30
0.0
 11
108.193588368528
 21
779.2996598639411
 31
0.0
  0
LINE
  5
1AC
102
{ACAD_REACTORS
330
370
330
371
102
}
330
74
100
AcDbEntity
  8
0
  6
Continuous
 62
     2
100
AcDbLine
 10
109.2976609523525
 20
778.9030612244851
 30
0.0
 11
108.193588368528
 21
778.9030612244851
 31
0.0
  0
LINE
  5
1AD
102
{ACAD_REACTORS
330
370
330
371
102
}
330
74
100
AcDbEntity
  8
0
  6
Continuous
 62
     2
100
AcDbLine
 10
109.2976609523525
 20
778.3261904761856
 30
0.0
 11
109.2976609523525
 21
778.9030612244851
 31
0.0
  0
LINE
  5
1AE
102
{ACAD_REACTORS
330
370
330
371
102
}
330
74
100
AcDbEntity
  8
0
  6
Continuous
 62
     2
100
AcDbLine
 10
106.6940909326988
 20
778.3261904761856
 30
0.0
 11
109.2976609523525
 21
778.3261904761856
 31
0.0
  0
LINE
  5
1AF
102
{ACAD_REACTORS
330
370
330
371
102
}
330
74
100
AcDbEntity
  8
0
  6
Continuous
 62
     2
100
AcDbLine
 10
106.6940909326988
 20
780.8499999999965
 30
0.0
 11
109.2976609523525
 21
780.8499999999965
 31
0.0
  0
LINE
  5
1B0
102
{ACAD_REACTORS
330
370
330
371
102
}
330
74
100
AcDbEntity
  8
0
  6
Continuous
 62
     2
100
AcDbLine
 10
109.2976609523525
 20
780.2731292516966
 30
0.0
 11
109.2976609523525
 21
780.8499999999965
 31
0.0
  0
LINE
  5
1B1
102
{ACAD_REACTORS
330
382
330
383
102
}
330
74
100
AcDbEntity
  8
0
  6
Continuous
 62
     2
100
AcDbLine
 10
104.329334325145
 20
779.9666666666621
 30
0.0
 11
104.329334325145
 21
780.8499999999965
 31
0.0
  0
LINE
  5
1B2
102
{ACAD_REACTORS
330
382
330
383
102
}
330
74
100
AcDbEntity
  8
0
  6
Continuous
 62
     2
100
AcDbLine
 10
104.329334325145
 20
780.8499999999965
 30
0.0
 11
105.3151134178445
 21
780.8499999999965
 31
0.0
  0
LINE
  5
1B3
102
{ACAD_REACTORS
330
382
330
383
102
}
330
74
100
AcDbEntity
  8
0
  6
Continuous
 62
     2
100
AcDbLine
 10
104.329334325145
 20
779.2636054421722
 30
0.0
 11
103.4618487235686
 21
779.2636054421722
 31
0.0
  0
LINE
  5
1B4
102
{ACAD_REACTORS
330
382
330
383
102
}
330
74
100
AcDbEntity
  8
0
  6
Continuous
 62
     2
100
AcDbLine
 10
103.4618487235686
 20
779.2636054421722
 30
0.0
 11
103.4618487235686
 21
778.3261904761856
 31
0.0
  0
LINE
  5
1B5
102
{ACAD_REACTORS
330
382
330
383
102
}
330
74
100
AcDbEntity
  8
0
  6
Continuous
 62
     2
100
AcDbLine
 10
102.476069630869
 20
780.8499999999965
 30
0.0
 11
102.476069630869
 21
778.3261904761856
 31
0.0
  0
LINE
  5
1B6
102
{ACAD_REACTORS
330
374
330
375
102
}
330
74
100
AcDbEntity
  8
0
  6
Continuous
 62
     2
100
AcDbLine
 10
100.8593919188411
 20
779.7187326489367
 30
0.0
 11
100.8593919188411
 21
780.3019786401286
 31
0.0
  0
LINE
  5
1B7
102
{ACAD_REACTORS
330
374
330
375
102
}
330
74
100
AcDbEntity
  8
0
  6
Continuous
 62
     2
100
AcDbLine
 10
99.83418166243285
 20
778.3261904761856
 30
0.0
 11
100.8593919188411
 21
778.3261904761856
 31
0.0
  0
LINE
  5
1B8
102
{ACAD_REACTORS
330
374
330
375
102
}
330
74
100
AcDbEntity
  8
0
  6
Continuous
 62
     2
100
AcDbLine
 10
100.8593919188411
 20
778.3261904761856
 30
0.0
 11
100.8593919188411
 21
779.105593981263
 31
0.0
  0
LINE
  5
1B9
102
{ACAD_REACTORS
330
36E
330
36F
102
}
330
74
100
AcDbEntity
  8
0
  6
Continuous
 62
     2
100
AcDbLine
 10
96.27637517548118
 20
776.1388888888985
 30
0.0
 11
95.05667826555595
 21
776.1388888888985
 31
0.0
  0
LINE
  5
1BA
102
{ACAD_REACTORS
330
36E
330
36F
102
}
330
74
100
AcDbEntity
  8
0
  6
Continuous
 62
     2
100
AcDbLine
 10
94.2152408340441
 20
780.4993846153667
 30
0.0
 11
94.2152408340441
 21
775.9006153846227
 31
0.0
  0
LINE
  5
1BB
102
{ACAD_REACTORS
330
36E
330
36F
102
}
330
74
100
AcDbEntity
  8
0
  6
Continuous
 62
     2
100
AcDbLine
 10
94.56585621865798
 20
780.8499999999815
 30
0.0
 11
99.08925464073803
 21
780.8499999999815
 31
0.0
  0
LINE
  5
1BC
102
{ACAD_REACTORS
330
36E
330
36F
102
}
330
74
100
AcDbEntity
  8
0
  6
Continuous
 62
     2
100
AcDbLine
 10
99.43987002535283
 20
780.4993846153667
 30
0.0
 11
99.43987002535283
 21
775.9006153846227
 31
0.0
  0
LINE
  5
1BD
102
{ACAD_REACTORS
330
36E
330
36F
102
}
330
74
100
AcDbEntity
  8
0
  6
Continuous
 62
     2
100
AcDbLine
 10
99.08925464073803
 20
775.5500000000085
 30
0.0
 11
94.56585621865798
 21
775.5500000000085
 31
0.0
  0
LINE
  5
1BE
102
{ACAD_REACTORS
330
36E
330
36F
102
}
330
74
100
AcDbEntity
  8
0
  6
Continuous
 62
     2
100
AcDbLine
 10
96.53729825240401
 20
776.3998119658214
 30
0.0
 11
96.53729825240401
 21
777.6649119092359
 31
0.0
  0
LINE
  5
1BF
102
{ACAD_REACTORS
330
36E
330
36F
102
}
330
74
100
AcDbEntity
  8
0
  6
Continuous
 62
     2
100
AcDbLine
 10
96.53729825240401
 20
779.5009941341326
 30
0.0
 11
96.53729825240401
 21
780.0001880341827
 31
0.0
  0
LINE
  5
1C0
102
{ACAD_REACTORS
330
36E
330
36F
102
}
330
74
100
AcDbEntity
  8
0
  6
Continuous
 62
     2
100
AcDbLine
 10
95.05667826555595
 20
780.261111111105
 30
0.0
 11
96.27637517548118
 21
780.261111111105
 31
0.0
  0
LINE
  5
1C1
102
{ACAD_REACTORS
330
36E
330
36F
102
}
330
74
100
AcDbEntity
  8
0
  6
Continuous
 62
     2
100
AcDbLine
 10
94.7957551886339
 20
780.0001880341827
 30
0.0
 11
94.7957551886339
 21
776.3998119658214
 31
0.0
  0
LINE
  5
1C2
102
{ACAD_REACTORS
330
374
330
375
102
}
330
74
100
AcDbEntity
  8
0
  6
Continuous
 62
     2
100
AcDbLine
 10
100.8593919188411
 20
779.105593981263
 30
0.0
 11
101.4864725698993
 21
779.105593981263
 31
0.0
  0
LINE
  5
1C3
102
{ACAD_REACTORS
330
374
330
375
102
}
330
74
100
AcDbEntity
  8
0
  6
Continuous
 62
     2
100
AcDbLine
 10
99.83418166243285
 20
780.8499999999965
 30
0.0
 11
101.4864725698993
 21
780.8499999999965
 31
0.0
  0
LINE
  5
1C4
102
{ACAD_REACTORS
330
374
330
375
102
}
330
74
100
AcDbEntity
  8
0
  6
Continuous
 62
     2
100
AcDbLine
 10
99.83418166243285
 20
780.8499999999965
 30
0.0
 11
99.83418166243285
 21
778.3261904761856
 31
0.0
  0
LINE
  5
1C5
102
{ACAD_REACTORS
330
374
330
375
102
}
330
74
100
AcDbEntity
  8
0
  6
Continuous
 62
     2
100
AcDbLine
 10
100.8593919188411
 20
779.7187326489367
 30
0.0
 11
101.1216192424295
 21
779.7187326489367
 31
0.0
  0
LINE
  5
1C6
102
{ACAD_REACTORS
330
374
330
375
102
}
330
74
100
AcDbEntity
  8
0
  6
Continuous
 62
     2
100
AcDbLine
 10
100.8593919188411
 20
780.3019786401286
 30
0.0
 11
101.1216192424295
 21
780.3019786401286
 31
0.0
  0
LINE
  5
1C7
102
{ACAD_REACTORS
330
382
330
383
102
}
330
74
100
AcDbEntity
  8
0
  6
Continuous
 62
     2
100
AcDbLine
 10
103.4618487235686
 20
779.9666666666621
 30
0.0
 11
104.329334325145
 21
779.9666666666621
 31
0.0
  0
LINE
  5
1C8
102
{ACAD_REACTORS
330
382
330
383
102
}
330
74
100
AcDbEntity
  8
0
  6
Continuous
 62
     2
100
AcDbLine
 10
103.4618487235686
 20
780.8499999999965
 30
0.0
 11
103.4618487235686
 21
779.9666666666621
 31
0.0
  0
LINE
  5
1C9
102
{ACAD_REACTORS
330
382
330
383
102
}
330
74
100
AcDbEntity
  8
0
  6
Continuous
 62
     2
100
AcDbLine
 10
102.476069630869
 20
780.8499999999965
 30
0.0
 11
103.4618487235686
 21
780.8499999999965
 31
0.0
  0
LINE
  5
1CA
102
{ACAD_REACTORS
330
382
330
383
102
}
330
74
100
AcDbEntity
  8
0
  6
Continuous
 62
     2
100
AcDbLine
 10
103.4618487235686
 20
778.3261904761856
 30
0.0
 11
102.476069630869
 21
778.3261904761856
 31
0.0
  0
LINE
  5
1CB
102
{ACAD_REACTORS
330
382
330
383
102
}
330
74
100
AcDbEntity
  8
0
  6
Continuous
 62
     2
100
AcDbLine
 10
104.329334325145
 20
778.3261904761856
 30
0.0
 11
104.329334325145
 21
779.2636054421722
 31
0.0
  0
LINE
  5
1CC
102
{ACAD_REACTORS
330
382
330
383
102
}
330
74
100
AcDbEntity
  8
0
  6
Continuous
 62
     2
100
AcDbLine
 10
105.3151134178445
 20
778.3261904761856
 30
0.0
 11
104.329334325145
 21
778.3261904761856
 31
0.0
  0
LINE
  5
1CD
102
{ACAD_REACTORS
330
382
330
383
102
}
330
74
100
AcDbEntity
  8
0
  6
Continuous
 62
     2
100
AcDbLine
 10
105.3151134178445
 20
780.8499999999965
 30
0.0
 11
105.3151134178445
 21
778.3261904761856
 31
0.0
  0
LINE
  5
1CE
102
{ACAD_REACTORS
330
370
330
371
102
}
330
74
100
AcDbEntity
  8
0
  6
Continuous
 62
     2
100
AcDbLine
 10
108.193588368528
 20
779.2996598639411
 30
0.0
 11
109.2976609523525
 21
779.2996598639411
 31
0.0
  0
LINE
  5
1CF
102
{ACAD_REACTORS
330
370
330
371
102
}
330
74
100
AcDbEntity
  8
0
  6
Continuous
 62
     2
100
AcDbLine
 10
109.2976609523525
 20
779.2996598639411
 30
0.0
 11
109.2976609523525
 21
779.8765306122406
 31
0.0
  0
LINE
  5
1D0
102
{ACAD_REACTORS
330
370
330
371
102
}
330
74
100
AcDbEntity
  8
0
  6
Continuous
 62
     2
100
AcDbLine
 10
109.2976609523525
 20
779.8765306122406
 30
0.0
 11
108.193588368528
 21
779.8765306122406
 31
0.0
  0
LINE
  5
1D1
102
{ACAD_REACTORS
330
370
330
371
102
}
330
74
100
AcDbEntity
  8
0
  6
Continuous
 62
     2
100
AcDbLine
 10
108.193588368528
 20
779.8765306122406
 30
0.0
 11
108.193588368528
 21
780.2731292516966
 31
0.0
  0
LINE
  5
1D2
102
{ACAD_REACTORS
330
380
330
381
102
}
330
74
100
AcDbEntity
  8
0
  6
Continuous
 62
     2
100
AcDbLine
 10
105.1572640267436
 20
775.5500000000085
 30
0.0
 11
106.143043119444
 21
775.5500000000085
 31
0.0
  0
LINE
  5
1D3
102
{ACAD_REACTORS
330
380
330
381
102
}
330
74
100
AcDbEntity
  8
0
  6
Continuous
 62
     2
100
AcDbLine
 10
107.1682533758514
 20
775.5500000000085
 30
0.0
 11
108.154032468551
 21
775.5500000000085
 31
0.0
  0
LINE
  5
1D4
102
{ACAD_REACTORS
330
380
330
381
102
}
330
74
100
AcDbEntity
  8
0
  6
Continuous
 62
     2
100
AcDbLine
 10
106.143043119444
 20
778.0738095238194
 30
0.0
 11
105.1572640267436
 21
778.0738095238194
 31
0.0
  0
LINE
  5
1D5
102
{ACAD_REACTORS
330
380
330
381
102
}
330
74
100
AcDbEntity
  8
0
  6
Continuous
 62
     2
100
AcDbLine
 10
105.1572640267436
 20
778.0738095238194
 30
0.0
 11
105.1572640267436
 21
775.5500000000085
 31
0.0
  0
LINE
  5
1D6
102
{ACAD_REACTORS
330
37E
330
37F
102
}
330
74
100
AcDbEntity
  8
0
  6
Continuous
 62
     2
100
AcDbLine
 10
111.5058061199999
 20
780.8499999999965
 30
0.0
 11
111.5058061199999
 21
779.7683673469344
 31
0.0
  0
LINE
  5
1D7
102
{ACAD_REACTORS
330
37E
330
37F
102
}
330
74
100
AcDbEntity
  8
0
  6
Continuous
 62
     2
100
AcDbLine
 10
110.4805958635917
 20
780.8499999999965
 30
0.0
 11
109.4948167708921
 21
780.8499999999965
 31
0.0
  0
LINE
  5
1D8
102
{ACAD_REACTORS
330
37E
330
37F
102
}
330
74
100
AcDbEntity
  8
0
  6
Continuous
 62
     2
100
AcDbLine
 10
109.4948167708921
 20
780.8499999999965
 30
0.0
 11
109.4948167708921
 21
778.3261904761856
 31
0.0
  0
LINE
  5
1D9
102
{ACAD_REACTORS
330
37E
330
37F
102
}
330
74
100
AcDbEntity
  8
0
  6
Continuous
 62
     2
100
AcDbLine
 10
110.4805958635917
 20
778.3261904761856
 30
0.0
 11
110.4805958635917
 21
779.4078231292473
 31
0.0
  0
LINE
  5
1DA
102
{ACAD_REACTORS
330
37C
330
37D
102
}
330
74
100
AcDbEntity
  8
0
  6
Continuous
 62
     2
100
AcDbLine
 10
109.9284348354115
 20
775.5500000000085
 30
0.0
 11
109.9284348354115
 21
777.4248299319815
 31
0.0
  0
LINE
  5
1DB
102
{ACAD_REACTORS
330
37C
330
37D
102
}
330
74
100
AcDbEntity
  8
0
  6
Continuous
 62
     2
100
AcDbLine
 10
109.9284348354115
 20
777.4248299319815
 30
0.0
 11
110.5987646184466
 21
777.4248299319815
 31
0.0
  0
LINE
  5
1DC
102
{ACAD_REACTORS
330
37C
330
37D
102
}
330
74
100
AcDbEntity
  8
0
  6
Continuous
 62
     2
100
AcDbLine
 10
110.5987646184466
 20
777.4248299319815
 30
0.0
 11
110.5987646184466
 21
778.0738095238194
 31
0.0
  0
LINE
  5
1DD
102
{ACAD_REACTORS
330
37C
330
37D
102
}
330
74
100
AcDbEntity
  8
0
  6
Continuous
 62
     2
100
AcDbLine
 10
110.5987646184466
 20
778.0738095238194
 30
0.0
 11
108.272325959675
 21
778.0738095238194
 31
0.0
  0
LINE
  5
1DE
102
{ACAD_REACTORS
330
37C
330
37D
102
}
330
74
100
AcDbEntity
  8
0
  6
Continuous
 62
     2
100
AcDbLine
 10
108.272325959675
 20
777.4248299319815
 30
0.0
 11
108.9426557427119
 21
777.4248299319815
 31
0.0
  0
LINE
  5
1DF
102
{ACAD_REACTORS
330
37A
330
37B
102
}
330
74
100
AcDbEntity
  8
0
  6
Continuous
 62
     2
100
AcDbLine
 10
111.2553810034031
 20
775.9970748299406
 30
0.0
 11
112.1912831328856
 21
775.9970748299406
 31
0.0
  0
LINE
  5
1E0
102
{ACAD_REACTORS
330
37A
330
37B
102
}
330
74
100
AcDbEntity
  8
0
  6
Continuous
 62
     2
100
AcDbLine
 10
113.3912702929928
 20
775.5500000000085
 30
0.0
 11
112.3660600365847
 21
775.5500000000085
 31
0.0
  0
LINE
  5
1E1
102
{ACAD_REACTORS
330
37A
330
37B
102
}
330
74
100
AcDbEntity
  8
0
  6
Continuous
 62
     2
100
AcDbLine
 10
111.2107269399407
 20
778.0738095238194
 30
0.0
 11
110.0553938432967
 21
775.5500000000085
 31
0.0
  0
LINE
  5
1E2
102
{ACAD_REACTORS
330
37A
330
37B
102
}
330
74
100
AcDbEntity
  8
0
  6
Continuous
 62
     2
100
AcDbLine
 10
111.0806040997041
 20
775.5500000000085
 30
0.0
 11
111.2553810034031
 21
775.9970748299406
 31
0.0
  0
LINE
  5
1E3
102
{ACAD_REACTORS
330
37A
330
37B
102
}
330
74
100
AcDbEntity
  8
0
  6
Continuous
 62
     2
100
AcDbLine
 10
111.4752616241842
 20
776.5595238095328
 30
0.0
 11
111.7233320681448
 21
777.1940816326623
 31
0.0
  0
LINE
  5
1E4
102
{ACAD_REACTORS
330
378
330
379
102
}
330
74
100
AcDbEntity
  8
0
  6
Continuous
 62
     2
100
AcDbLine
 10
112.68874103124
 20
778.3261904761856
 30
0.0
 11
112.68874103124
 21
780.8499999999965
 31
0.0
  0
LINE
  5
1E5
102
{ACAD_REACTORS
330
378
330
379
102
}
330
74
100
AcDbEntity
  8
0
  6
Continuous
 62
     2
100
AcDbLine
 10
113.7139512876474
 20
780.8499999999965
 30
0.0
 11
113.7139512876474
 21
778.3261904761856
 31
0.0
  0
LINE
  5
1E6
102
{ACAD_REACTORS
330
378
330
379
102
}
330
74
100
AcDbEntity
  8
0
  6
Continuous
 62
     2
100
AcDbLine
 10
112.68874103124
 20
780.8499999999965
 30
0.0
 11
113.7139512876474
 21
780.8499999999965
 31
0.0
  0
LINE
  5
1E7
102
{ACAD_REACTORS
330
376
330
377
102
}
330
74
100
AcDbEntity
  8
0
  6
Continuous
 62
     2
100
AcDbLine
 10
115.5475004000695
 20
778.9772084805605
 30
0.0
 11
116.1231953902063
 21
778.3261904761856
 31
0.0
  0
LINE
  5
1E8
102
{ACAD_REACTORS
330
376
330
377
102
}
330
74
100
AcDbEntity
  8
0
  6
Continuous
 62
     2
100
AcDbLine
 10
116.1231953902063
 20
778.3261904761856
 30
0.0
 11
117.2824716032214
 21
778.3261904761856
 31
0.0
  0
LINE
  5
1E9
102
{ACAD_REACTORS
330
376
330
377
102
}
330
74
100
AcDbEntity
  8
0
  6
Continuous
 62
     2
100
AcDbLine
 10
116.1271385065765
 20
779.6326855123632
 30
0.0
 11
117.2824716032214
 21
778.3261904761856
 31
0.0
  0
LINE
  5
1EA
102
{ACAD_REACTORS
330
376
330
377
102
}
330
74
100
AcDbEntity
  8
0
  6
Continuous
 62
     2
100
AcDbLine
 10
116.1271385065765
 20
779.6326855123632
 30
0.0
 11
117.203609275805
 21
780.8499999999965
 31
0.0
  0
LINE
  5
1EB
102
{ACAD_REACTORS
330
376
330
377
102
}
330
74
100
AcDbEntity
  8
0
  6
Continuous
 62
     2
100
AcDbLine
 10
115.5475004000695
 20
780.2881625441655
 30
0.0
 11
116.0443330627908
 21
780.8499999999965
 31
0.0
  0
LINE
  5
1EC
102
{ACAD_REACTORS
330
376
330
377
102
}
330
74
100
AcDbEntity
  8
0
  6
Continuous
 62
     2
100
AcDbLine
 10
115.050667737349
 20
780.8499999999965
 30
0.0
 11
115.5475004000695
 21
780.2881625441655
 31
0.0
  0
LINE
  5
1ED
102
{ACAD_REACTORS
330
376
330
377
102
}
330
74
100
AcDbEntity
  8
0
  6
Continuous
 62
     2
100
AcDbLine
 10
115.050667737349
 20
780.8499999999965
 30
0.0
 11
113.8913915243331
 21
780.8499999999965
 31
0.0
  0
LINE
  5
1EE
102
{ACAD_REACTORS
330
36C
330
36D
102
}
330
74
100
AcDbEntity
  8
0
  6
Continuous
 62
     2
100
AcDbLine
 10
115.626362727485
 20
775.5500000000085
 30
0.0
 11
116.6121418201855
 21
775.5500000000085
 31
0.0
  0
LINE
  5
1EF
102
{ACAD_REACTORS
330
36C
330
36D
102
}
330
74
100
AcDbEntity
  8
0
  6
Continuous
 62
     2
100
AcDbLine
 10
116.6121418201855
 20
775.5500000000085
 30
0.0
 11
116.6121418201855
 21
777.4248299319815
 31
0.0
  0
LINE
  5
1F0
102
{ACAD_REACTORS
330
36C
330
36D
102
}
330
74
100
AcDbEntity
  8
0
  6
Continuous
 62
     2
100
AcDbLine
 10
116.6121418201855
 20
777.4248299319815
 30
0.0
 11
117.2824716032214
 21
777.4248299319815
 31
0.0
  0
LINE
  5
1F1
102
{ACAD_REACTORS
330
36C
330
36D
102
}
330
74
100
AcDbEntity
  8
0
  6
Continuous
 62
     2
100
AcDbLine
 10
117.2824716032214
 20
777.4248299319815
 30
0.0
 11
117.2824716032214
 21
778.0738095238194
 31
0.0
  0
LINE
  5
1F2
102
{ACAD_REACTORS
330
36C
330
36D
102
}
330
74
100
AcDbEntity
  8
0
  6
Continuous
 62
     2
100
AcDbLine
 10
114.4849959679911
 20
778.0738095238188
 30
0.0
 11
117.2824716032214
 21
778.0738095238194
 31
0.0
  0
LINE
  5
1F3
102
{ACAD_REACTORS
330
36C
330
36D
102
}
330
74
100
AcDbEntity
  8
0
  6
Continuous
 62
     2
100
AcDbLine
 10
115.626362727485
 20
777.4248299319815
 30
0.0
 11
115.626362727485
 21
775.5500000000085
 31
0.0
  0
LINE
  5
1F4
102
{ACAD_REACTORS
330
36E
330
36F
102
}
330
74
100
AcDbEntity
  8
0
  6
Continuous
 62
     2
100
AcDbLine
 10
96.92430782213029
 20
777.1854381401445
 30
0.0
 11
96.92430782213029
 21
777.6663070712974
 31
0.0
  0
LINE
  5
1F5
102
{ACAD_REACTORS
330
36E
330
36F
102
}
330
74
100
AcDbEntity
  8
0
  6
Continuous
 62
     2
100
AcDbLine
 10
96.92430782213029
 20
779.4995989720711
 30
0.0
 11
96.92430782213029
 21
780.0000413592668
 31
0.0
  0
LINE
  5
1F6
330
74
100
AcDbEntity
  8
1
  6
Continuous
 62
     7
100
AcDbLine
 10
153.6000000000009
 20
786.7000000000025
 30
0.0
 11
153.6000000000009
 21
790.9500000000025
 31
0.0
  0
LINE
  5
1F7
330
74
100
AcDbEntity
  8
1
  6
Continuous
 62
     6
100
AcDbLine
 10
73.59999999999853
 20
769.7000000000027
 30
0.0
 11
74.05519547324853
 21
769.7000000000025
 31
0.0
  0
LINE
  5
1F8
330
74
100
AcDbEntity
  8
1
  6
Continuous
 62
     6
100
AcDbLine
 10
23.59999999999843
 20
769.7000000000027
 30
0.0
 11
-15.20000000000155
 21
769.7000000000027
 31
0.0
  0
LINE
  5
1F9
330
74
100
AcDbEntity
  8
1
  6
Continuous
 62
     6
100
AcDbLine
 10
-26.40000000000146
 20
769.7000000000027
 30
0.0
 11
-15.20000000000155
 21
769.7000000000027
 31
0.0
  0
LINE
  5
1FA
330
74
100
AcDbEntity
  8
1
  6
Continuous
 62
     6
100
AcDbLine
 10
173.5999999999985
 20
769.7000000000027
 30
0.0
 11
217.0999999999985
 21
769.7000000000027
 31
0.0
  0
LINE
  5
1FB
330
74
100
AcDbEntity
  8
1
  6
Continuous
 62
     6
100
AcDbLine
 10
123.5999999999985
 20
769.7000000000027
 30
0.0
 11
105.7551954732485
 21
769.7000000000027
 31
0.0
  0
LINE
  5
1FC
330
74
100
AcDbEntity
  8
1
  6
PHANTOM
 62
     2
100
AcDbLine
 10
95.6744586880489
 20
784.5750000000025
 30
0.0
 11
99.99005365723791
 21
784.5750000000025
 31
0.0
  0
LINE
  5
1FD
330
74
100
AcDbEntity
  8
1
  6
PHANTOM
 62
     2
100
AcDbLine
 10
92.6474552983519
 20
786.2250000000025
 30
0.0
 11
92.6474552983519
 21
782.9250000000026
 31
0.0
  0
LINE
  5
1FE
330
74
100
AcDbEntity
  8
1
  6
PHANTOM
 62
     2
100
AcDbLine
 10
94.2974552983519
 20
784.5750000000025
 30
0.0
 11
90.99745529835191
 21
784.5750000000025
 31
0.0
  0
LINE
  5
1FF
330
74
100
AcDbEntity
  8
1
  6
Continuous
 62
     2
100
AcDbLine
 10
217.0999999999985
 20
769.7000000000027
 30
0.0
 11
222.0999999999976
 21
769.7000000000027
 31
0.0
  0
LINE
  5
200
330
74
100
AcDbEntity
  8
1
  6
Continuous
 62
     2
100
AcDbLine
 10
217.0999999999985
 20
769.7000000000027
 30
0.0
 11
217.0999999999985
 21
764.7000000000025
 31
0.0
  0
LINE
  5
201
330
74
100
AcDbEntity
  8
1
  6
Continuous
 62
     7
100
AcDbLine
 10
123.9551954732485
 20
782.4500000000025
 30
0.0
 11
123.9551954732485
 21
786.7000000000025
 31
0.0
  0
LINE
  5
202
330
74
100
AcDbEntity
  8
1
  6
Continuous
 62
     7
100
AcDbLine
 10
87.55519547324863
 20
782.4500000000025
 30
0.0
 11
123.9551954732485
 21
782.4500000000025
 31
0.0
  0
LINE
  5
203
330
74
100
AcDbEntity
  8
1
  6
Continuous
 62
     2
100
AcDbLine
 10
222.0999999999976
 20
764.7000000000025
 30
0.0
 11
222.0999999999976
 21
769.7000000000027
 31
0.0
  0
LINE
  5
204
330
74
100
AcDbEntity
  8
1
  6
Continuous
 62
     2
100
AcDbLine
 10
222.0999999999976
 20
764.7000000000025
 30
0.0
 11
217.0999999999985
 21
764.7000000000025
 31
0.0
  0
LINE
  5
205
330
74
100
AcDbEntity
  8
1
  6
Continuous
 62
     2
100
AcDbLine
 10
217.0999999999985
 20
764.7000000000025
 30
0.0
 11
173.5999999999985
 21
764.7000000000025
 31
0.0
  0
LINE
  5
206
330
74
100
AcDbEntity
  8
1
  6
Continuous
 62
     6
100
AcDbLine
 10
217.1000000000003
 20
799.4500000000025
 30
0.0
 11
217.0999999999995
 21
819.7000000000027
 31
0.0
  0
LINE
  5
207
330
74
100
AcDbEntity
  8
1
  6
Continuous
 62
     2
100
AcDbLine
 10
222.0999999999976
 20
974.7000000000025
 30
0.0
 11
73.59999999999853
 21
974.7000000000025
 31
0.0
  0
LINE
  5
208
330
74
100
AcDbEntity
  8
1
  6
Continuous
 62
     6
100
AcDbLine
 10
217.0999999999976
 20
954.7000000000025
 30
0.0
 11
-69.90000000000055
 21
954.7000000000025
 31
0.0
  0
LINE
  5
209
330
74
100
AcDbEntity
  8
1
  6
Continuous
 62
     2
100
AcDbLine
 10
217.0999999999995
 20
819.7000000000027
 30
0.0
 11
222.0999999999976
 21
819.7000000000027
 31
0.0
  0
LINE
  5
20A
330
74
100
AcDbEntity
  8
1
  6
Continuous
 62
     6
100
AcDbLine
 10
217.0999999999995
 20
819.7000000000027
 30
0.0
 11
217.0999999999989
 21
869.7000000000024
 31
0.0
  0
LINE
  5
20B
330
74
100
AcDbEntity
  8
1
  6
Continuous
 62
     2
100
AcDbLine
 10
222.0999999999976
 20
819.7000000000027
 30
0.0
 11
222.0999999999976
 21
869.7000000000024
 31
0.0
  0
LINE
  5
20C
330
74
100
AcDbEntity
  8
1
  6
Continuous
 62
     2
100
AcDbLine
 10
217.0999999999989
 20
869.7000000000024
 30
0.0
 11
222.0999999999976
 21
869.7000000000024
 31
0.0
  0
LINE
  5
20D
330
74
100
AcDbEntity
  8
1
  6
Continuous
 62
     6
100
AcDbLine
 10
217.0999999999989
 20
869.7000000000024
 30
0.0
 11
217.0999999999978
 21
919.7000000000025
 31
0.0
  0
LINE
  5
20E
330
74
100
AcDbEntity
  8
1
  6
Continuous
 62
     2
100
AcDbLine
 10
222.0999999999976
 20
869.7000000000024
 30
0.0
 11
222.0999999999976
 21
919.7000000000025
 31
0.0
  0
LINE
  5
20F
330
74
100
AcDbEntity
  8
1
  6
Continuous
 62
     2
100
AcDbLine
 10
217.0999999999978
 20
919.7000000000025
 30
0.0
 11
222.0999999999976
 21
919.7000000000025
 31
0.0
  0
LINE
  5
210
330
74
100
AcDbEntity
  8
1
  6
Continuous
 62
     6
100
AcDbLine
 10
217.0999999999978
 20
919.7000000000025
 30
0.0
 11
217.0999999999976
 21
954.7000000000025
 31
0.0
  0
LINE
  5
211
330
74
100
AcDbEntity
  8
1
  6
Continuous
 62
     2
100
AcDbLine
 10
222.0999999999976
 20
919.7000000000025
 30
0.0
 11
222.0999999999976
 21
974.7000000000025
 31
0.0
  0
LINE
  5
212
330
74
100
AcDbEntity
  8
1
  6
Continuous
 62
     2
100
AcDbLine
 10
222.0999999999976
 20
769.7000000000027
 30
0.0
 11
222.0999999999976
 21
819.7000000000027
 31
0.0
  0
LINE
  5
213
330
74
100
AcDbEntity
  8
1
  6
Continuous
 62
     2
100
AcDbLine
 10
73.59999999999853
 20
974.7000000000025
 30
0.0
 11
-74.90000000000055
 21
974.7000000000025
 31
0.0
  0
LINE
  5
214
330
74
100
AcDbEntity
  8
1
  6
Continuous
 62
     2
100
AcDbLine
 10
73.59999999999853
 20
974.7000000000025
 30
0.0
 11
73.59999999999853
 21
965.4913081553012
 31
0.0
  0
LINE
  5
215
330
74
100
AcDbEntity
  8
1
  6
Continuous
 62
     2
100
AcDbLine
 10
-74.90000000000055
 20
764.7000000000025
 30
0.0
 11
-69.89999999999947
 21
764.7000000000025
 31
0.0
  0
LINE
  5
216
330
74
100
AcDbEntity
  8
1
  6
Continuous
 62
     2
100
AcDbLine
 10
-74.90000000000055
 20
974.7000000000025
 30
0.0
 11
-74.90000000000055
 21
919.7000000000025
 31
0.0
  0
LINE
  5
217
330
74
100
AcDbEntity
  8
1
  6
Continuous
 62
     6
100
AcDbLine
 10
-69.90000000000055
 20
954.7000000000025
 30
0.0
 11
-69.90000000000035
 21
919.7000000000025
 31
0.0
  0
LINE
  5
218
330
74
100
AcDbEntity
  8
1
  6
Continuous
 62
     2
100
AcDbLine
 10
-74.90000000000055
 20
919.7000000000025
 30
0.0
 11
-69.90000000000035
 21
919.7000000000025
 31
0.0
  0
LINE
  5
219
330
74
100
AcDbEntity
  8
1
  6
Continuous
 62
     2
100
AcDbLine
 10
-74.90000000000055
 20
919.7000000000025
 30
0.0
 11
-74.90000000000055
 21
869.7000000000024
 31
0.0
  0
LINE
  5
21A
330
74
100
AcDbEntity
  8
1
  6
Continuous
 62
     6
100
AcDbLine
 10
-69.90000000000035
 20
919.7000000000025
 30
0.0
 11
-69.89999999999995
 21
869.7000000000024
 31
0.0
  0
LINE
  5
21B
330
74
100
AcDbEntity
  8
1
  6
Continuous
 62
     2
100
AcDbLine
 10
-74.90000000000055
 20
869.7000000000024
 30
0.0
 11
-69.89999999999995
 21
869.7000000000024
 31
0.0
  0
LINE
  5
21C
330
74
100
AcDbEntity
  8
1
  6
Continuous
 62
     2
100
AcDbLine
 10
-74.90000000000055
 20
869.7000000000024
 30
0.0
 11
-74.90000000000055
 21
819.7000000000027
 31
0.0
  0
LINE
  5
21D
330
74
100
AcDbEntity
  8
1
  6
Continuous
 62
     6
100
AcDbLine
 10
-69.89999999999995
 20
869.7000000000024
 30
0.0
 11
-69.89999999999966
 21
819.7000000000027
 31
0.0
  0
LINE
  5
21E
330
74
100
AcDbEntity
  8
1
  6
Continuous
 62
     2
100
AcDbLine
 10
-74.90000000000055
 20
819.7000000000027
 30
0.0
 11
-69.89999999999966
 21
819.7000000000027
 31
0.0
  0
LINE
  5
21F
330
74
100
AcDbEntity
  8
1
  6
Continuous
 62
     2
100
AcDbLine
 10
-74.90000000000055
 20
819.7000000000027
 30
0.0
 11
-74.90000000000055
 21
769.7000000000027
 31
0.0
  0
LINE
  5
220
330
74
100
AcDbEntity
  8
1
  6
Continuous
 62
     6
100
AcDbLine
 10
-69.89999999999966
 20
819.7000000000027
 30
0.0
 11
-69.89999999999947
 21
769.7000000000027
 31
0.0
  0
LINE
  5
221
330
74
100
AcDbEntity
  8
1
  6
Continuous
 62
     2
100
AcDbLine
 10
-26.40000000000146
 20
764.7000000000025
 30
0.0
 11
-26.40000000000146
 21
769.7000000000027
 31
0.0
  0
LINE
  5
222
330
74
100
AcDbEntity
  8
1
  6
Continuous
 62
     2
100
AcDbLine
 10
-26.40000000000146
 20
764.7000000000025
 30
0.0
 11
23.59999999999843
 21
764.7000000000025
 31
0.0
  0
LINE
  5
223
330
74
100
AcDbEntity
  8
1
  6
Continuous
 62
     2
100
AcDbLine
 10
23.59999999999843
 20
764.7000000000025
 30
0.0
 11
23.59999999999843
 21
769.7000000000027
 31
0.0
  0
LINE
  5
224
330
74
100
AcDbEntity
  8
1
  6
Continuous
 62
     2
100
AcDbLine
 10
23.59999999999843
 20
764.7000000000025
 30
0.0
 11
73.59999999999853
 21
764.7000000000025
 31
0.0
  0
LINE
  5
225
330
74
100
AcDbEntity
  8
1
  6
Continuous
 62
     2
100
AcDbLine
 10
73.59999999999853
 20
764.7000000000025
 30
0.0
 11
73.59999999999853
 21
769.7000000000027
 31
0.0
  0
LINE
  5
226
330
74
100
AcDbEntity
  8
1
  6
Continuous
 62
     2
100
AcDbLine
 10
73.59999999999853
 20
764.7000000000025
 30
0.0
 11
123.5999999999985
 21
764.7000000000025
 31
0.0
  0
LINE
  5
227
330
74
100
AcDbEntity
  8
1
  6
Continuous
 62
     2
100
AcDbLine
 10
123.5999999999985
 20
764.7000000000025
 30
0.0
 11
123.5999999999985
 21
769.7000000000027
 31
0.0
  0
LINE
  5
228
330
74
100
AcDbEntity
  8
1
  6
Continuous
 62
     2
100
AcDbLine
 10
173.5999999999985
 20
764.7000000000025
 30
0.0
 11
173.5999999999985
 21
769.7000000000027
 31
0.0
  0
LINE
  5
229
330
74
100
AcDbEntity
  8
1
  6
Continuous
 62
     2
100
AcDbLine
 10
173.5999999999985
 20
764.7000000000025
 30
0.0
 11
123.5999999999985
 21
764.7000000000025
 31
0.0
  0
LINE
  5
22A
330
74
100
AcDbEntity
  8
1
  6
Continuous
 62
     2
100
AcDbLine
 10
-69.89999999999947
 20
769.7000000000027
 30
0.0
 11
-69.89999999999947
 21
764.7000000000025
 31
0.0
  0
LINE
  5
22B
330
74
100
AcDbEntity
  8
1
  6
Continuous
 62
     2
100
AcDbLine
 10
-69.89999999999947
 20
764.7000000000025
 30
0.0
 11
-26.40000000000146
 21
764.7000000000025
 31
0.0
  0
LINE
  5
22C
330
74
100
AcDbEntity
  8
1
  6
Continuous
 62
     2
100
AcDbLine
 10
-69.89999999999947
 20
769.7000000000027
 30
0.0
 11
-74.90000000000055
 21
769.7000000000027
 31
0.0
  0
LINE
  5
22D
330
74
100
AcDbEntity
  8
1
  6
Continuous
 62
     2
100
AcDbLine
 10
-74.90000000000055
 20
769.7000000000027
 30
0.0
 11
-74.90000000000055
 21
764.7000000000025
 31
0.0
  0
LINE
  5
22E
330
74
100
AcDbEntity
  8
1
  6
Continuous
 62
     7
100
AcDbLine
 10
-15.20000000000155
 20
773.9500000000027
 30
0.0
 11
47.05519547324865
 21
773.9500000000027
 31
0.0
  0
LINE
  5
22F
330
74
100
AcDbEntity
  8
1
  6
Continuous
 62
     2
100
AcDbLine
 10
-15.20000000000155
 20
773.9500000000027
 30
0.0
 11
-15.20000000000155
 21
769.7000000000027
 31
0.0
  0
LINE
  5
230
330
74
100
AcDbEntity
  8
1
  6
Continuous
 62
     2
100
AcDbLine
 10
-15.20000000000155
 20
778.2000000000025
 30
0.0
 11
-28.70000000000155
 21
778.2000000000025
 31
0.0
  0
LINE
  5
231
330
74
100
AcDbEntity
  8
1
  6
Continuous
 62
     2
100
AcDbLine
 10
-15.20000000000155
 20
778.2000000000025
 30
0.0
 11
-15.20000000000155
 21
773.9500000000027
 31
0.0
  0
LINE
  5
232
330
74
100
AcDbEntity
  8
1
  6
Continuous
 62
     2
100
AcDbLine
 10
-15.20000000000155
 20
786.7000000000025
 30
0.0
 11
-28.70000000000155
 21
786.7000000000025
 31
0.0
  0
LINE
  5
233
330
74
100
AcDbEntity
  8
1
  6
Continuous
 62
     2
100
AcDbLine
 10
-15.20000000000155
 20
786.7000000000025
 30
0.0
 11
-15.20000000000155
 21
782.4500000000025
 31
0.0
  0
LINE
  5
234
330
74
100
AcDbEntity
  8
1
  6
Continuous
 62
     2
100
AcDbLine
 10
-15.20000000000155
 20
782.4500000000025
 30
0.0
 11
-28.70000000000155
 21
782.4500000000025
 31
0.0
  0
LINE
  5
235
330
74
100
AcDbEntity
  8
1
  6
Continuous
 62
     2
100
AcDbLine
 10
-15.20000000000155
 20
782.4500000000025
 30
0.0
 11
-15.20000000000155
 21
778.2000000000025
 31
0.0
  0
LINE
  5
236
330
74
100
AcDbEntity
  8
1
  6
Continuous
 62
     2
100
AcDbLine
 10
-15.20000000000155
 20
795.2000000000025
 30
0.0
 11
-28.70000000000155
 21
795.2000000000025
 31
0.0
  0
LINE
  5
237
330
74
100
AcDbEntity
  8
1
  6
Continuous
 62
     2
100
AcDbLine
 10
-15.20000000000155
 20
790.9500000000025
 30
0.0
 11
-28.70000000000155
 21
790.9500000000025
 31
0.0
  0
LINE
  5
238
330
74
100
AcDbEntity
  8
1
  6
Continuous
 62
     2
100
AcDbLine
 10
-15.20000000000155
 20
790.9500000000025
 30
0.0
 11
-15.20000000000155
 21
786.7000000000025
 31
0.0
  0
LINE
  5
239
330
74
100
AcDbEntity
  8
1
  6
Continuous
 62
     2
100
AcDbLine
 10
-15.20000000000155
 20
795.2000000000025
 30
0.0
 11
-15.20000000000155
 21
790.9500000000025
 31
0.0
  0
LINE
  5
23A
330
74
100
AcDbEntity
  8
1
  6
Continuous
 62
     6
100
AcDbLine
 10
-15.20000000000155
 20
799.4500000000025
 30
0.0
 11
-28.70000000000155
 21
799.4500000000025
 31
0.0
  0
LINE
  5
23B
330
74
100
AcDbEntity
  8
1
  6
Continuous
 62
     2
100
AcDbLine
 10
-15.20000000000155
 20
799.4500000000025
 30
0.0
 11
-15.20000000000155
 21
795.2000000000025
 31
0.0
  0
LINE
  5
23C
330
74
100
AcDbEntity
  8
1
  6
Continuous
 62
     6
100
AcDbLine
 10
217.0999999999985
 20
769.7000000000027
 30
0.0
 11
217.0999999999999
 21
778.2000000000025
 31
0.0
  0
LINE
  5
23D
330
74
100
AcDbEntity
  8
1
  6
Continuous
 62
     6
100
AcDbLine
 10
217.0999999999993
 20
790.9500000000025
 30
0.0
 11
217.1000000000003
 21
786.7000000000025
 31
0.0
  0
LINE
  5
23E
330
74
100
AcDbEntity
  8
1
  6
Continuous
 62
     6
100
AcDbLine
 10
123.9551954732485
 20
769.7000000000025
 30
0.0
 11
173.5999999999985
 21
769.7000000000027
 31
0.0
  0
LINE
  5
23F
330
74
100
AcDbEntity
  8
1
  6
Continuous
 62
     6
100
AcDbLine
 10
87.55519547324863
 20
769.7000000000025
 30
0.0
 11
105.7551954732485
 21
769.7000000000027
 31
0.0
  0
LINE
  5
240
330
74
100
AcDbEntity
  8
1
  6
Continuous
 62
     6
100
AcDbLine
 10
-28.70000000000155
 20
769.7000000000025
 30
0.0
 11
-26.40000000000146
 21
769.7000000000027
 31
0.0
  0
LINE
  5
241
330
74
100
AcDbEntity
  8
1
  6
Continuous
 62
     6
100
AcDbLine
 10
47.05519547324865
 20
769.7000000000025
 30
0.0
 11
23.59999999999843
 21
769.7000000000027
 31
0.0
  0
LINE
  5
242
330
74
100
AcDbEntity
  8
1
  6
Continuous
 62
     6
100
AcDbLine
 10
217.1000000000003
 20
799.4500000000025
 30
0.0
 11
199.2184082816794
 21
799.4500000000025
 31
0.0
  0
LINE
  5
243
330
74
100
AcDbEntity
  8
1
  6
Continuous
 62
     7
100
AcDbLine
 10
217.0999999999999
 20
778.2000000000025
 30
0.0
 11
172.1000000000005
 21
778.2000000000025
 31
0.0
  0
LINE
  5
244
330
74
100
AcDbEntity
  8
1
  6
Continuous
 62
     7
100
AcDbLine
 10
217.0999999999993
 20
790.9500000000025
 30
0.0
 11
199.2184082816794
 21
790.9500000000025
 31
0.0
  0
LINE
  5
245
330
74
100
AcDbEntity
  8
1
  6
Continuous
 62
     7
100
AcDbLine
 10
172.1000000000005
 20
786.7000000000025
 30
0.0
 11
217.1000000000003
 21
786.7000000000025
 31
0.0
  0
LINE
  5
246
330
74
100
AcDbEntity
  8
1
  6
Continuous
 62
     7
100
AcDbLine
 10
123.9551954732485
 20
795.2000000000025
 30
0.0
 11
123.9551954732485
 21
790.9500000000025
 31
0.0
  0
LINE
  5
247
330
74
100
AcDbEntity
  8
1
  6
Continuous
 62
     7
100
AcDbLine
 10
110.4551954732485
 20
795.2000000000025
 30
0.0
 11
123.9551954732485
 21
795.2000000000025
 31
0.0
  0
LINE
  5
248
330
74
100
AcDbEntity
  8
1
  6
Continuous
 62
     7
100
AcDbLine
 10
110.4551954732485
 20
795.2000000000025
 30
0.0
 11
96.95519547324861
 21
795.2000000000025
 31
0.0
  0
LINE
  5
249
330
74
100
AcDbEntity
  8
1
  6
Continuous
 62
     7
100
AcDbLine
 10
199.2184082816794
 20
790.9500000000025
 30
0.0
 11
199.2184082816794
 21
799.4500000000025
 31
0.0
  0
LINE
  5
24A
330
74
100
AcDbEntity
  8
1
  6
Continuous
 62
     6
100
AcDbLine
 10
190.3000000000002
 20
799.4500000000025
 30
0.0
 11
199.2184082816794
 21
799.4500000000025
 31
0.0
  0
LINE
  5
24B
330
74
100
AcDbEntity
  8
1
  6
Continuous
 62
     7
100
AcDbLine
 10
190.3000000000002
 20
799.4500000000025
 30
0.0
 11
190.3000000000006
 21
790.9500000000027
 31
0.0
  0
LINE
  5
24C
330
74
100
AcDbEntity
  8
1
  6
Continuous
 62
     7
100
AcDbLine
 10
172.1000000000005
 20
778.2000000000025
 30
0.0
 11
153.6000000000009
 21
778.2000000000025
 31
0.0
  0
LINE
  5
24D
330
74
100
AcDbEntity
  8
1
  6
Continuous
 62
     7
100
AcDbLine
 10
172.1000000000005
 20
786.7000000000025
 30
0.0
 11
172.1000000000005
 21
778.2000000000025
 31
0.0
  0
LINE
  5
24E
330
74
100
AcDbEntity
  8
1
  6
Continuous
 62
     2
100
AcDbLine
 10
74.05519547324853
 20
799.4500000000025
 30
0.0
 11
74.05519547324853
 21
795.2000000000025
 31
0.0
  0
LINE
  5
24F
330
74
100
AcDbEntity
  8
1
  6
Continuous
 62
     2
100
AcDbLine
 10
60.55519547324865
 20
799.4500000000025
 30
0.0
 11
60.55519547324865
 21
795.2000000000025
 31
0.0
  0
LINE
  5
250
330
74
100
AcDbEntity
  8
1
  6
Continuous
 62
     6
100
AcDbLine
 10
74.05519547324853
 20
799.4500000000025
 30
0.0
 11
60.55519547324865
 21
799.4500000000025
 31
0.0
  0
LINE
  5
251
330
74
100
AcDbEntity
  8
1
  6
Continuous
 62
     6
100
AcDbLine
 10
60.55519547324865
 20
799.4500000000025
 30
0.0
 11
47.05519547324865
 21
799.4500000000025
 31
0.0
  0
LINE
  5
252
330
74
100
AcDbEntity
  8
1
  6
Continuous
 62
     2
100
AcDbLine
 10
47.05519547324865
 20
799.4500000000025
 30
0.0
 11
47.05519547324865
 21
795.2000000000025
 31
0.0
  0
LINE
  5
253
330
74
100
AcDbEntity
  8
1
  6
Continuous
 62
     7
100
AcDbLine
 10
105.7551954732485
 20
773.9500000000027
 30
0.0
 11
105.7551954732485
 21
769.7000000000027
 31
0.0
  0
LINE
  5
254
330
74
100
AcDbEntity
  8
1
  6
Continuous
 62
     7
100
AcDbLine
 10
105.7551954732485
 20
773.9500000000027
 30
0.0
 11
87.55519547324863
 21
773.9500000000027
 31
0.0
  0
LINE
  5
255
330
74
100
AcDbEntity
  8
1
  6
Continuous
 62
     7
100
AcDbLine
 10
110.4551954732485
 20
786.7000000000025
 30
0.0
 11
96.95519547324861
 21
786.7000000000027
 31
0.0
  0
LINE
  5
256
330
74
100
AcDbEntity
  8
1
  6
Continuous
 62
     7
100
AcDbLine
 10
123.9551954732485
 20
773.9500000000027
 30
0.0
 11
105.7551954732485
 21
773.9500000000027
 31
0.0
  0
LINE
  5
257
330
74
100
AcDbEntity
  8
1
  6
Continuous
 62
     6
100
AcDbLine
 10
123.9551954732485
 20
799.4500000000025
 30
0.0
 11
146.8551954732486
 21
799.4500000000025
 31
0.0
  0
LINE
  5
258
330
74
100
AcDbEntity
  8
1
  6
Continuous
 62
     6
100
AcDbLine
 10
190.3000000000002
 20
799.4500000000025
 30
0.0
 11
146.8551954732486
 21
799.4500000000025
 31
0.0
  0
LINE
  5
259
330
74
100
AcDbEntity
  8
1
  6
Continuous
 62
     7
100
AcDbLine
 10
146.8551954732486
 20
799.4500000000025
 30
0.0
 11
146.8551954732486
 21
790.9500000000024
 31
0.0
  0
LINE
  5
25A
330
74
100
AcDbEntity
  8
1
  6
Continuous
 62
     6
100
AcDbLine
 10
-28.70000000000155
 20
799.4500000000025
 30
0.0
 11
-34.89999999999955
 21
799.4500000000025
 31
0.0
  0
LINE
  5
25B
330
74
100
AcDbEntity
  8
1
  6
Continuous
 62
     6
100
AcDbLine
 10
-34.89999999999955
 20
769.7000000000027
 30
0.0
 11
-34.89999999999955
 21
773.9500000000027
 31
0.0
  0
LINE
  5
25C
330
74
100
AcDbEntity
  8
1
  6
Continuous
 62
     6
100
AcDbLine
 10
-34.89999999999955
 20
773.9500000000027
 30
0.0
 11
-34.89999999999955
 21
778.2000000000025
 31
0.0
  0
LINE
  5
25D
330
74
100
AcDbEntity
  8
1
  6
Continuous
 62
     7
100
AcDbLine
 10
110.4551954732485
 20
790.9500000000025
 30
0.0
 11
110.4551954732485
 21
786.7000000000025
 31
0.0
  0
LINE
  5
25E
330
74
100
AcDbEntity
  8
1
  6
Continuous
 62
     7
100
AcDbLine
 10
96.95519547324861
 20
790.9500000000025
 30
0.0
 11
96.95519547324861
 21
786.7000000000027
 31
0.0
  0
LINE
  5
25F
330
74
100
AcDbEntity
  8
1
  6
Continuous
 62
     7
100
AcDbLine
 10
110.4551954732485
 20
790.9500000000025
 30
0.0
 11
96.95519547324861
 21
790.9500000000025
 31
0.0
  0
LINE
  5
260
330
74
100
AcDbEntity
  8
1
  6
Continuous
 62
     2
100
AcDbLine
 10
87.55519547324863
 20
786.7000000000025
 30
0.0
 11
74.05519547324853
 21
786.7000000000025
 31
0.0
  0
LINE
  5
261
330
74
100
AcDbEntity
  8
1
  6
Continuous
 62
     2
100
AcDbLine
 10
-28.70000000000155
 20
786.7000000000025
 30
0.0
 11
-28.70000000000155
 21
790.9500000000025
 31
0.0
  0
LINE
  5
262
330
74
100
AcDbEntity
  8
1
  6
Continuous
 62
     2
100
AcDbLine
 10
-28.70000000000155
 20
786.7000000000025
 30
0.0
 11
-34.89999999999955
 21
786.7000000000025
 31
0.0
  0
LINE
  5
263
330
74
100
AcDbEntity
  8
1
  6
Continuous
 62
     2
100
AcDbLine
 10
87.55519547324863
 20
790.9500000000025
 30
0.0
 11
74.05519547324853
 21
790.9500000000025
 31
0.0
  0
LINE
  5
264
330
74
100
AcDbEntity
  8
1
  6
Continuous
 62
     2
100
AcDbLine
 10
-28.70000000000155
 20
790.9500000000025
 30
0.0
 11
-28.70000000000155
 21
795.2000000000025
 31
0.0
  0
LINE
  5
265
330
74
100
AcDbEntity
  8
1
  6
Continuous
 62
     2
100
AcDbLine
 10
87.55519547324863
 20
795.2000000000025
 30
0.0
 11
74.05519547324853
 21
795.2000000000025
 31
0.0
  0
LINE
  5
266
330
74
100
AcDbEntity
  8
1
  6
Continuous
 62
     2
100
AcDbLine
 10
-28.70000000000155
 20
795.2000000000025
 30
0.0
 11
-28.70000000000155
 21
799.4500000000025
 31
0.0
  0
LINE
  5
267
330
74
100
AcDbEntity
  8
1
  6
Continuous
 62
     2
100
AcDbLine
 10
-28.70000000000155
 20
795.2000000000025
 30
0.0
 11
-34.89999999999955
 21
795.2000000000025
 31
0.0
  0
LINE
  5
268
330
74
100
AcDbEntity
  8
1
  6
Continuous
 62
     6
100
AcDbLine
 10
87.55519547324863
 20
799.4500000000025
 30
0.0
 11
74.05519547324853
 21
799.4500000000025
 31
0.0
  0
LINE
  5
269
330
74
100
AcDbEntity
  8
1
  6
Continuous
 62
     2
100
AcDbLine
 10
87.55519547324863
 20
778.2000000000025
 30
0.0
 11
74.05519547324853
 21
778.2000000000025
 31
0.0
  0
LINE
  5
26A
330
74
100
AcDbEntity
  8
1
  6
Continuous
 62
     2
100
AcDbLine
 10
87.55519547324863
 20
782.4500000000025
 30
0.0
 11
74.05519547324853
 21
782.4500000000025
 31
0.0
  0
LINE
  5
26B
330
74
100
AcDbEntity
  8
1
  6
Continuous
 62
     2
100
AcDbLine
 10
-28.70000000000155
 20
778.2000000000025
 30
0.0
 11
-28.70000000000155
 21
782.4500000000025
 31
0.0
  0
LINE
  5
26C
330
74
100
AcDbEntity
  8
1
  6
Continuous
 62
     2
100
AcDbLine
 10
-28.70000000000155
 20
782.4500000000025
 30
0.0
 11
-28.70000000000155
 21
786.7000000000025
 31
0.0
  0
LINE
  5
26D
330
74
100
AcDbEntity
  8
1
  6
Continuous
 62
     7
100
AcDbLine
 10
-28.70000000000155
 20
773.9500000000027
 30
0.0
 11
-15.20000000000155
 21
773.9500000000027
 31
0.0
  0
LINE
  5
26E
330
74
100
AcDbEntity
  8
1
  6
Continuous
 62
     2
100
AcDbLine
 10
-28.70000000000155
 20
773.9500000000027
 30
0.0
 11
-28.70000000000155
 21
778.2000000000025
 31
0.0
  0
LINE
  5
26F
330
74
100
AcDbEntity
  8
1
  6
Continuous
 62
     7
100
AcDbLine
 10
123.9551954732485
 20
778.2000000000025
 30
0.0
 11
123.9551954732485
 21
782.4500000000025
 31
0.0
  0
LINE
  5
270
330
74
100
AcDbEntity
  8
1
  6
Continuous
 62
     6
100
AcDbLine
 10
110.4551954732485
 20
799.4500000000025
 30
0.0
 11
123.9551954732485
 21
799.4500000000025
 31
0.0
  0
LINE
  5
271
330
74
100
AcDbEntity
  8
1
  6
Continuous
 62
     7
100
AcDbLine
 10
123.9551954732485
 20
799.4500000000025
 30
0.0
 11
123.9551954732485
 21
795.2000000000025
 31
0.0
  0
LINE
  5
272
330
74
100
AcDbEntity
  8
1
  6
Continuous
 62
     6
100
AcDbLine
 10
96.95519547324861
 20
799.4500000000025
 30
0.0
 11
110.4551954732485
 21
799.4500000000025
 31
0.0
  0
LINE
  5
273
330
74
100
AcDbEntity
  8
1
  6
Continuous
 62
     7
100
AcDbLine
 10
87.55519547324863
 20
786.7000000000025
 30
0.0
 11
87.55519547324863
 21
782.4500000000025
 31
0.0
  0
LINE
  5
274
330
74
100
AcDbEntity
  8
1
  6
Continuous
 62
     7
100
AcDbLine
 10
87.55519547324863
 20
790.9500000000025
 30
0.0
 11
87.55519547324863
 21
786.7000000000025
 31
0.0
  0
LINE
  5
275
330
74
100
AcDbEntity
  8
1
  6
Continuous
 62
     2
100
AcDbLine
 10
-34.89999999999955
 20
790.9500000000025
 30
0.0
 11
-28.70000000000155
 21
790.9500000000025
 31
0.0
  0
LINE
  5
276
330
74
100
AcDbEntity
  8
1
  6
Continuous
 62
     7
100
AcDbLine
 10
87.55519547324863
 20
795.2000000000025
 30
0.0
 11
87.55519547324863
 21
790.9500000000025
 31
0.0
  0
LINE
  5
277
330
74
100
AcDbEntity
  8
1
  6
Continuous
 62
     7
100
AcDbLine
 10
123.9551954732485
 20
790.9500000000025
 30
0.0
 11
123.9551954732485
 21
786.7000000000025
 31
0.0
  0
LINE
  5
278
330
74
100
AcDbEntity
  8
1
  6
Continuous
 62
     7
100
AcDbLine
 10
110.4551954732485
 20
799.4500000000025
 30
0.0
 11
110.4551954732485
 21
795.2000000000025
 31
0.0
  0
LINE
  5
279
330
74
100
AcDbEntity
  8
1
  6
Continuous
 62
     7
100
AcDbLine
 10
96.95519547324861
 20
799.4500000000025
 30
0.0
 11
96.95519547324861
 21
795.2000000000025
 31
0.0
  0
LINE
  5
27A
330
74
100
AcDbEntity
  8
1
  6
Continuous
 62
     2
100
AcDbLine
 10
-28.70000000000155
 20
769.7000000000025
 30
0.0
 11
-28.70000000000155
 21
773.9500000000027
 31
0.0
  0
LINE
  5
27B
330
74
100
AcDbEntity
  8
1
  6
Continuous
 62
     2
100
AcDbLine
 10
-34.89999999999955
 20
778.2000000000025
 30
0.0
 11
-28.70000000000155
 21
778.2000000000025
 31
0.0
  0
LINE
  5
27C
330
74
100
AcDbEntity
  8
1
  6
Continuous
 62
     2
100
AcDbLine
 10
-34.89999999999955
 20
782.4500000000025
 30
0.0
 11
-28.70000000000155
 21
782.4500000000025
 31
0.0
  0
LINE
  5
27D
330
74
100
AcDbEntity
  8
1
  6
Continuous
 62
     7
100
AcDbLine
 10
-34.89999999999955
 20
773.9500000000027
 30
0.0
 11
-28.70000000000155
 21
773.9500000000027
 31
0.0
  0
LINE
  5
27E
330
74
100
AcDbEntity
  8
1
  6
Continuous
 62
     7
100
AcDbLine
 10
123.9551954732485
 20
778.2000000000025
 30
0.0
 11
123.9551954732485
 21
773.9500000000027
 31
0.0
  0
LINE
  5
27F
330
74
100
AcDbEntity
  8
1
  6
Continuous
 62
     7
100
AcDbLine
 10
87.55519547324863
 20
782.4500000000025
 30
0.0
 11
87.55519547324863
 21
778.2000000000025
 31
0.0
  0
LINE
  5
280
330
74
100
AcDbEntity
  8
1
  6
Continuous
 62
     7
100
AcDbLine
 10
87.55519547324863
 20
778.2000000000025
 30
0.0
 11
87.55519547324863
 21
773.9500000000027
 31
0.0
  0
LINE
  5
281
330
74
100
AcDbEntity
  8
1
  6
Continuous
 62
     7
100
AcDbLine
 10
110.4551954732485
 20
795.2000000000025
 30
0.0
 11
110.4551954732485
 21
790.9500000000025
 31
0.0
  0
LINE
  5
282
330
74
100
AcDbEntity
  8
1
  6
Continuous
 62
     7
100
AcDbLine
 10
96.95519547324861
 20
795.2000000000025
 30
0.0
 11
96.95519547324861
 21
790.9500000000025
 31
0.0
  0
LINE
  5
283
330
74
100
AcDbEntity
  8
1
  6
Continuous
 62
     7
100
AcDbLine
 10
87.55519547324863
 20
790.9500000000025
 30
0.0
 11
96.95519547324861
 21
790.9500000000025
 31
0.0
  0
LINE
  5
284
330
74
100
AcDbEntity
  8
1
  6
Continuous
 62
     7
100
AcDbLine
 10
123.9551954732485
 20
786.7000000000025
 30
0.0
 11
110.4551954732485
 21
786.7000000000025
 31
0.0
  0
LINE
  5
285
330
74
100
AcDbEntity
  8
1
  6
Continuous
 62
     7
100
AcDbLine
 10
123.9551954732485
 20
773.9500000000027
 30
0.0
 11
123.9551954732485
 21
769.7000000000025
 31
0.0
  0
LINE
  5
286
330
74
100
AcDbEntity
  8
1
  6
Continuous
 62
     7
100
AcDbLine
 10
87.55519547324863
 20
773.9500000000027
 30
0.0
 11
87.55519547324863
 21
769.7000000000025
 31
0.0
  0
LINE
  5
287
330
74
100
AcDbEntity
  8
1
  6
Continuous
 62
     7
100
AcDbLine
 10
87.55519547324863
 20
799.4500000000025
 30
0.0
 11
87.55519547324863
 21
795.2000000000025
 31
0.0
  0
LINE
  5
288
330
74
100
AcDbEntity
  8
1
  6
Continuous
 62
     7
100
AcDbLine
 10
123.9551954732485
 20
778.2000000000025
 30
0.0
 11
153.6000000000009
 21
778.2000000000025
 31
0.0
  0
LINE
  5
289
330
74
100
AcDbEntity
  8
1
  6
Continuous
 62
     7
100
AcDbLine
 10
123.9551954732485
 20
786.7000000000025
 30
0.0
 11
153.6000000000009
 21
786.7000000000025
 31
0.0
  0
LINE
  5
28A
330
74
100
AcDbEntity
  8
1
  6
Continuous
 62
     7
100
AcDbLine
 10
190.3000000000006
 20
790.9500000000027
 30
0.0
 11
199.2184082816794
 21
790.9500000000025
 31
0.0
  0
LINE
  5
28B
330
74
100
AcDbEntity
  8
1
  6
Continuous
 62
     7
100
AcDbLine
 10
190.3000000000006
 20
790.9500000000027
 30
0.0
 11
153.6000000000009
 21
790.9500000000025
 31
0.0
  0
LINE
  5
28C
330
74
100
AcDbEntity
  8
1
  6
Continuous
 62
     7
100
AcDbLine
 10
153.6000000000009
 20
786.7000000000025
 30
0.0
 11
172.1000000000005
 21
786.7000000000025
 31
0.0
  0
LINE
  5
28D
330
74
100
AcDbEntity
  8
1
  6
Continuous
 62
     7
100
AcDbLine
 10
153.6000000000009
 20
786.7000000000025
 30
0.0
 11
153.6000000000009
 21
778.2000000000025
 31
0.0
  0
LINE
  5
28E
330
74
100
AcDbEntity
  8
1
  6
Continuous
 62
     6
100
AcDbLine
 10
-28.70000000000155
 20
769.7000000000025
 30
0.0
 11
-34.89999999999955
 21
769.7000000000027
 31
0.0
  0
LINE
  5
28F
330
74
100
AcDbEntity
  8
1
  6
Continuous
 62
     6
100
AcDbLine
 10
-34.89999999999955
 20
795.2000000000025
 30
0.0
 11
-34.89999999999955
 21
799.4500000000025
 31
0.0
  0
LINE
  5
290
330
74
100
AcDbEntity
  8
1
  6
Continuous
 62
     6
100
AcDbLine
 10
-34.89999999999955
 20
790.9500000000025
 30
0.0
 11
-34.89999999999955
 21
795.2000000000025
 31
0.0
  0
LINE
  5
291
330
74
100
AcDbEntity
  8
1
  6
Continuous
 62
     6
100
AcDbLine
 10
-34.89999999999955
 20
786.7000000000025
 30
0.0
 11
-34.89999999999955
 21
790.9500000000025
 31
0.0
  0
LINE
  5
292
330
74
100
AcDbEntity
  8
1
  6
Continuous
 62
     6
100
AcDbLine
 10
-34.89999999999955
 20
778.2000000000025
 30
0.0
 11
-34.89999999999955
 21
782.4500000000025
 31
0.0
  0
LINE
  5
293
330
74
100
AcDbEntity
  8
1
  6
Continuous
 62
     6
100
AcDbLine
 10
47.05519547324865
 20
799.4500000000025
 30
0.0
 11
-15.20000000000155
 21
799.4500000000025
 31
0.0
  0
LINE
  5
294
330
74
100
AcDbEntity
  8
1
  6
Continuous
 62
     2
100
AcDbLine
 10
-15.20000000000155
 20
795.2000000000025
 30
0.0
 11
47.05519547324865
 21
795.2000000000025
 31
0.0
  0
LINE
  5
295
330
74
100
AcDbEntity
  8
1
  6
Continuous
 62
     2
100
AcDbLine
 10
-15.20000000000155
 20
790.9500000000025
 30
0.0
 11
47.05519547324865
 21
790.9500000000025
 31
0.0
  0
LINE
  5
296
330
74
100
AcDbEntity
  8
1
  6
Continuous
 62
     6
100
AcDbLine
 10
123.9551954732485
 20
769.7000000000025
 30
0.0
 11
123.5999999999985
 21
769.7000000000027
 31
0.0
  0
LINE
  5
297
330
74
100
AcDbEntity
  8
1
  6
Continuous
 62
     7
100
AcDbLine
 10
110.4551954732485
 20
790.9500000000025
 30
0.0
 11
123.9551954732485
 21
790.9500000000025
 31
0.0
  0
LINE
  5
298
330
74
100
AcDbEntity
  8
1
  6
Continuous
 62
     7
100
AcDbLine
 10
146.8551954732486
 20
790.9500000000024
 30
0.0
 11
123.9551954732485
 21
790.9500000000025
 31
0.0
  0
LINE
  5
299
330
74
100
AcDbEntity
  8
1
  6
Continuous
 62
     6
100
AcDbLine
 10
217.1000000000003
 20
786.7000000000025
 30
0.0
 11
217.0999999999999
 21
778.2000000000025
 31
0.0
  0
LINE
  5
29A
330
74
100
AcDbEntity
  8
1
  6
Continuous
 62
     6
100
AcDbLine
 10
74.05519547324853
 20
769.7000000000025
 30
0.0
 11
87.55519547324863
 21
769.7000000000025
 31
0.0
  0
LINE
  5
29B
330
74
100
AcDbEntity
  8
1
  6
Continuous
 62
     2
100
AcDbLine
 10
74.05519547324853
 20
778.2000000000025
 30
0.0
 11
74.05519547324853
 21
773.9500000000027
 31
0.0
  0
LINE
  5
29C
330
74
100
AcDbEntity
  8
1
  6
Continuous
 62
     2
100
AcDbLine
 10
74.05519547324853
 20
778.2000000000025
 30
0.0
 11
60.55519547324865
 21
778.2000000000025
 31
0.0
  0
LINE
  5
29D
330
74
100
AcDbEntity
  8
1
  6
Continuous
 62
     2
100
AcDbLine
 10
74.05519547324853
 20
773.9500000000027
 30
0.0
 11
74.05519547324853
 21
769.7000000000025
 31
0.0
  0
LINE
  5
29E
330
74
100
AcDbEntity
  8
1
  6
Continuous
 62
     7
100
AcDbLine
 10
74.05519547324853
 20
773.9500000000027
 30
0.0
 11
87.55519547324863
 21
773.9500000000027
 31
0.0
  0
LINE
  5
29F
330
74
100
AcDbEntity
  8
1
  6
Continuous
 62
     2
100
AcDbLine
 10
74.05519547324853
 20
786.7000000000025
 30
0.0
 11
74.05519547324853
 21
782.4500000000025
 31
0.0
  0
LINE
  5
2A0
330
74
100
AcDbEntity
  8
1
  6
Continuous
 62
     2
100
AcDbLine
 10
74.05519547324853
 20
786.7000000000025
 30
0.0
 11
60.55519547324865
 21
786.7000000000025
 31
0.0
  0
LINE
  5
2A1
330
74
100
AcDbEntity
  8
1
  6
Continuous
 62
     2
100
AcDbLine
 10
74.05519547324853
 20
790.9500000000025
 30
0.0
 11
74.05519547324853
 21
786.7000000000025
 31
0.0
  0
LINE
  5
2A2
330
74
100
AcDbEntity
  8
1
  6
Continuous
 62
     2
100
AcDbLine
 10
74.05519547324853
 20
790.9500000000025
 30
0.0
 11
60.55519547324865
 21
790.9500000000025
 31
0.0
  0
LINE
  5
2A3
330
74
100
AcDbEntity
  8
1
  6
Continuous
 62
     2
100
AcDbLine
 10
74.05519547324853
 20
795.2000000000025
 30
0.0
 11
74.05519547324853
 21
790.9500000000025
 31
0.0
  0
LINE
  5
2A4
330
74
100
AcDbEntity
  8
1
  6
Continuous
 62
     2
100
AcDbLine
 10
74.05519547324853
 20
795.2000000000025
 30
0.0
 11
60.55519547324865
 21
795.2000000000025
 31
0.0
  0
LINE
  5
2A5
330
74
100
AcDbEntity
  8
1
  6
Continuous
 62
     2
100
AcDbLine
 10
74.05519547324853
 20
782.4500000000025
 30
0.0
 11
74.05519547324853
 21
778.2000000000025
 31
0.0
  0
LINE
  5
2A6
330
74
100
AcDbEntity
  8
1
  6
Continuous
 62
     2
100
AcDbLine
 10
74.05519547324853
 20
782.4500000000025
 30
0.0
 11
60.55519547324865
 21
782.4500000000025
 31
0.0
  0
LINE
  5
2A7
330
74
100
AcDbEntity
  8
1
  6
Continuous
 62
     6
100
AcDbLine
 10
60.55519547324865
 20
769.7000000000025
 30
0.0
 11
73.59999999999853
 21
769.7000000000027
 31
0.0
  0
LINE
  5
2A8
330
74
100
AcDbEntity
  8
1
  6
Continuous
 62
     2
100
AcDbLine
 10
60.55519547324865
 20
778.2000000000025
 30
0.0
 11
60.55519547324865
 21
773.9500000000027
 31
0.0
  0
LINE
  5
2A9
330
74
100
AcDbEntity
  8
1
  6
Continuous
 62
     2
100
AcDbLine
 10
60.55519547324865
 20
778.2000000000025
 30
0.0
 11
47.05519547324865
 21
778.2000000000025
 31
0.0
  0
LINE
  5
2AA
330
74
100
AcDbEntity
  8
1
  6
Continuous
 62
     2
100
AcDbLine
 10
60.55519547324865
 20
773.9500000000027
 30
0.0
 11
60.55519547324865
 21
769.7000000000025
 31
0.0
  0
LINE
  5
2AB
330
74
100
AcDbEntity
  8
1
  6
Continuous
 62
     7
100
AcDbLine
 10
60.55519547324865
 20
773.9500000000027
 30
0.0
 11
74.05519547324853
 21
773.9500000000027
 31
0.0
  0
LINE
  5
2AC
330
74
100
AcDbEntity
  8
1
  6
Continuous
 62
     2
100
AcDbLine
 10
60.55519547324865
 20
786.7000000000025
 30
0.0
 11
60.55519547324865
 21
782.4500000000025
 31
0.0
  0
LINE
  5
2AD
330
74
100
AcDbEntity
  8
1
  6
Continuous
 62
     2
100
AcDbLine
 10
60.55519547324865
 20
786.7000000000025
 30
0.0
 11
47.05519547324865
 21
786.7000000000025
 31
0.0
  0
LINE
  5
2AE
330
74
100
AcDbEntity
  8
1
  6
Continuous
 62
     2
100
AcDbLine
 10
60.55519547324865
 20
790.9500000000025
 30
0.0
 11
60.55519547324865
 21
786.7000000000025
 31
0.0
  0
LINE
  5
2AF
330
74
100
AcDbEntity
  8
1
  6
Continuous
 62
     2
100
AcDbLine
 10
60.55519547324865
 20
790.9500000000025
 30
0.0
 11
47.05519547324865
 21
790.9500000000025
 31
0.0
  0
LINE
  5
2B0
330
74
100
AcDbEntity
  8
1
  6
Continuous
 62
     2
100
AcDbLine
 10
60.55519547324865
 20
795.2000000000025
 30
0.0
 11
60.55519547324865
 21
790.9500000000025
 31
0.0
  0
LINE
  5
2B1
330
74
100
AcDbEntity
  8
1
  6
Continuous
 62
     2
100
AcDbLine
 10
60.55519547324865
 20
795.2000000000025
 30
0.0
 11
47.05519547324865
 21
795.2000000000025
 31
0.0
  0
LINE
  5
2B2
330
74
100
AcDbEntity
  8
1
  6
Continuous
 62
     2
100
AcDbLine
 10
60.55519547324865
 20
782.4500000000025
 30
0.0
 11
60.55519547324865
 21
778.2000000000025
 31
0.0
  0
LINE
  5
2B3
330
74
100
AcDbEntity
  8
1
  6
Continuous
 62
     2
100
AcDbLine
 10
60.55519547324865
 20
782.4500000000025
 30
0.0
 11
47.05519547324865
 21
782.4500000000025
 31
0.0
  0
LINE
  5
2B4
330
74
100
AcDbEntity
  8
1
  6
Continuous
 62
     6
100
AcDbLine
 10
47.05519547324865
 20
769.7000000000025
 30
0.0
 11
60.55519547324865
 21
769.7000000000025
 31
0.0
  0
LINE
  5
2B5
330
74
100
AcDbEntity
  8
1
  6
Continuous
 62
     2
100
AcDbLine
 10
47.05519547324865
 20
778.2000000000025
 30
0.0
 11
47.05519547324865
 21
773.9500000000027
 31
0.0
  0
LINE
  5
2B6
330
74
100
AcDbEntity
  8
1
  6
Continuous
 62
     2
100
AcDbLine
 10
47.05519547324865
 20
778.2000000000025
 30
0.0
 11
-15.20000000000155
 21
778.2000000000025
 31
0.0
  0
LINE
  5
2B7
330
74
100
AcDbEntity
  8
1
  6
Continuous
 62
     2
100
AcDbLine
 10
47.05519547324865
 20
773.9500000000027
 30
0.0
 11
47.05519547324865
 21
769.7000000000025
 31
0.0
  0
LINE
  5
2B8
330
74
100
AcDbEntity
  8
1
  6
Continuous
 62
     7
100
AcDbLine
 10
47.05519547324865
 20
773.9500000000027
 30
0.0
 11
60.55519547324865
 21
773.9500000000027
 31
0.0
  0
LINE
  5
2B9
330
74
100
AcDbEntity
  8
1
  6
Continuous
 62
     2
100
AcDbLine
 10
47.05519547324865
 20
786.7000000000025
 30
0.0
 11
47.05519547324865
 21
782.4500000000025
 31
0.0
  0
LINE
  5
2BA
330
74
100
AcDbEntity
  8
1
  6
Continuous
 62
     2
100
AcDbLine
 10
47.05519547324865
 20
786.7000000000025
 30
0.0
 11
-15.20000000000155
 21
786.7000000000025
 31
0.0
  0
LINE
  5
2BB
330
74
100
AcDbEntity
  8
1
  6
Continuous
 62
     2
100
AcDbLine
 10
47.05519547324865
 20
790.9500000000025
 30
0.0
 11
47.05519547324865
 21
786.7000000000025
 31
0.0
  0
LINE
  5
2BC
330
74
100
AcDbEntity
  8
1
  6
Continuous
 62
     2
100
AcDbLine
 10
47.05519547324865
 20
795.2000000000025
 30
0.0
 11
47.05519547324865
 21
790.9500000000025
 31
0.0
  0
LINE
  5
2BD
330
74
100
AcDbEntity
  8
1
  6
Continuous
 62
     2
100
AcDbLine
 10
47.05519547324865
 20
782.4500000000025
 30
0.0
 11
47.05519547324865
 21
778.2000000000025
 31
0.0
  0
LINE
  5
2BE
330
74
100
AcDbEntity
  8
1
  6
Continuous
 62
     2
100
AcDbLine
 10
47.05519547324865
 20
782.4500000000025
 30
0.0
 11
-15.20000000000155
 21
782.4500000000025
 31
0.0
  0
LINE
  5
2BF
330
74
100
AcDbEntity
  8
1
  6
Continuous
 62
     7
100
AcDbLine
 10
96.95519547324861
 20
786.7000000000027
 30
0.0
 11
87.55519547324863
 21
786.7000000000025
 31
0.0
  0
LINE
  5
2C0
330
74
100
AcDbEntity
  8
1
  6
Continuous
 62
     6
100
AcDbLine
 10
96.95519547324861
 20
799.4500000000025
 30
0.0
 11
87.55519547324863
 21
799.4500000000025
 31
0.0
  0
LINE
  5
2C1
330
74
100
AcDbEntity
  8
1
  6
Continuous
 62
     7
100
AcDbLine
 10
87.55519547324863
 20
795.2000000000025
 30
0.0
 11
96.95519547324861
 21
795.2000000000025
 31
0.0
  0
LINE
  5
2C2
330
74
100
AcDbEntity
  8
1
  6
Continuous
 62
     6
100
AcDbLine
 10
-34.89999999999955
 20
782.4500000000025
 30
0.0
 11
-34.89999999999955
 21
786.7000000000025
 31
0.0
  0
LINE
  5
2C3
330
74
100
AcDbEntity
  8
1
  6
Continuous
 62
     6
100
AcDbLine
 10
217.1000000000003
 20
799.4500000000025
 30
0.0
 11
217.0999999999993
 21
790.9500000000025
 31
0.0
  0
LINE
  5
2C4
330
74
100
AcDbEntity
  8
1
  6
Continuous
 62
     6
100
AcDbLine
 10
-34.89999999999955
 20
769.7000000000027
 30
0.0
 11
-69.89999999999947
 21
769.7000000000027
 31
0.0
  0
LINE
  5
2C5
330
74
100
AcDbEntity
  8
1
  6
Continuous
 62
     2
100
AcDbLine
 10
95.8354646077639
 20
786.0750000000025
 30
0.0
 11
99.8354646077639
 21
785.5750000000025
 31
0.0
  0
LINE
  5
2C6
330
74
100
AcDbEntity
  8
1
  6
Continuous
 62
     2
100
AcDbLine
 10
99.8354646077639
 20
785.5750000000025
 30
0.0
 11
99.8354646077639
 21
783.5750000000025
 31
0.0
  0
LINE
  5
2C7
330
74
100
AcDbEntity
  8
1
  6
Continuous
 62
     2
100
AcDbLine
 10
99.8354646077639
 20
783.5750000000025
 30
0.0
 11
95.8354646077639
 21
783.0750000000025
 31
0.0
  0
LINE
  5
2C8
330
74
100
AcDbEntity
  8
1
  6
Continuous
 62
     2
100
AcDbLine
 10
95.8354646077639
 20
783.0750000000025
 30
0.0
 11
95.8354646077639
 21
786.0750000000025
 31
0.0
  0
LINE
  5
2C9
330
74
100
AcDbEntity
  8
1
  6
Continuous
 62
     7
100
AcDbLine
 10
153.6000000000009
 20
790.9500000000025
 30
0.0
 11
146.8551954732486
 21
790.9500000000024
 31
0.0
  0
LINE
  5
2CA
330
74
100
AcDbEntity
  8
1
  6
Continuous
 62
     7
100
AcDbLine
 10
153.6000000000009
 20
786.7000000000025
 30
0.0
 11
155.6000000000009
 21
786.7000000000025
 31
0.0
  0
LINE
  5
2CB
330
74
100
AcDbEntity
  8
1
  6
Continuous
 62
     2
100
AcDbLine
 10
188.5347366847875
 20
785.1497807209697
 30
0.0
 11
188.5347366847875
 21
783.0923847561163
 31
0.0
  0
ARC
  5
2CC
102
{ACAD_REACTORS
330
372
330
373
102
}
330
74
100
AcDbEntity
  8
0
  6
Continuous
 62
     2
100
AcDbCircle
 10
103.4342434062734
 20
776.8119047619136
 30
0.0
 40
0.6378510567600139
100
AcDbArc
 50
321.8795802028459
 51
38.12041979716215
  0
ARC
  5
2CD
102
{ACAD_REACTORS
330
372
330
373
102
}
330
74
100
AcDbEntity
  8
0
  6
Continuous
 62
     2
100
AcDbCircle
 10
103.599317816477
 20
776.682374862641
 30
0.0
 40
0.4280236140609328
100
AcDbArc
 50
218.1204197972025
 51
321.8795802027975
  0
ARC
  5
2CE
102
{ACAD_REACTORS
330
372
330
373
102
}
330
74
100
AcDbEntity
  8
0
  6
Continuous
 62
     2
100
AcDbCircle
 10
103.7643922266804
 20
776.8119047619136
 30
0.0
 40
0.6378510567599276
100
AcDbArc
 50
141.8795802028268
 51
218.1204197971651
  0
ARC
  5
2CF
102
{ACAD_REACTORS
330
372
330
373
102
}
330
74
100
AcDbEntity
  8
0
  6
Continuous
 62
     2
100
AcDbCircle
 10
103.599317816477
 20
776.9414346611868
 30
0.0
 40
0.4280236140606521
100
AcDbArc
 50
38.12041979715464
 51
141.8795802028454
  0
ARC
  5
2D0
102
{ACAD_REACTORS
330
36A
330
36B
102
}
330
74
100
AcDbEntity
  8
0
  6
Continuous
 62
     2
100
AcDbCircle
 10
101.0687276217961
 20
775.6462300797582
 30
0.0
 40
1.840813230556584
100
AcDbArc
 50
58.069091050038
 51
71.55192388186704
  0
ARC
  5
2D1
102
{ACAD_REACTORS
330
36A
330
36B
102
}
330
74
100
AcDbEntity
  8
0
  6
Continuous
 62
     2
100
AcDbCircle
 10
101.285031506886
 20
776.9813852820286
 30
0.0
 40
0.4227934381775369
100
AcDbArc
 50
113.3722778881918
 51
151.4785267423007
  0
ARC
  5
2D2
102
{ACAD_REACTORS
330
36A
330
36B
102
}
330
74
100
AcDbEntity
  8
0
  6
Continuous
 62
     2
100
AcDbCircle
 10
101.5968970094318
 20
776.8119047619136
 30
0.0
 40
0.7777353184573039
100
AcDbArc
 50
151.4785267422654
 51
208.5214732576978
  0
ARC
  5
2D3
102
{ACAD_REACTORS
330
36A
330
36B
102
}
330
74
100
AcDbEntity
  8
0
  6
Continuous
 62
     2
100
AcDbCircle
 10
100.9382541713061
 20
779.549657609233
 30
0.0
 40
4.010410630990206
100
AcDbArc
 50
275.158144769626
 51
285.9799912583536
  0
ARC
  5
2D4
102
{ACAD_REACTORS
330
36A
330
36B
102
}
330
74
100
AcDbEntity
  8
0
  6
Continuous
 62
     2
100
AcDbCircle
 10
101.1769782165424
 20
776.905119937149
 30
0.0
 40
1.355119937140007
100
AcDbArc
 50
195.0618917770908
 51
275.1581447696423
  0
ARC
  5
2D5
102
{ACAD_REACTORS
330
36A
330
36B
102
}
330
74
100
AcDbEntity
  8
0
  6
Continuous
 62
     2
100
AcDbCircle
 10
100.8305915690525
 20
776.8119047619136
 30
0.0
 40
0.9964100565214636
100
AcDbArc
 50
164.9381082228796
 51
195.0618917770952
  0
ARC
  5
2D6
102
{ACAD_REACTORS
330
36A
330
36B
102
}
330
74
100
AcDbEntity
  8
0
  6
Continuous
 62
     2
100
AcDbCircle
 10
101.1769782165424
 20
776.7186895866782
 30
0.0
 40
1.355119937140985
100
AcDbArc
 50
84.84185523035993
 51
164.9381082228907
  0
ARC
  5
2D7
102
{ACAD_REACTORS
330
36E
330
36F
102
}
330
74
100
AcDbEntity
  8
0
  6
Continuous
 62
     2
100
AcDbCircle
 10
97.18523089905324
 20
777.6663070712974
 30
0.0
 40
0.2609230769227501
100
AcDbArc
 50
115.3740086783571
 51
180.0
  0
ARC
  5
2D8
102
{ACAD_REACTORS
330
36E
330
36F
102
}
330
74
100
AcDbEntity
  8
0
  6
Continuous
 62
     2
100
AcDbCircle
 10
97.18523089905324
 20
779.4995989720711
 30
0.0
 40
0.2609230769229498
100
AcDbArc
 50
180.0
 51
244.6259913216429
  0
ARC
  5
2D9
102
{ACAD_REACTORS
330
36E
330
36F
102
}
330
74
100
AcDbEntity
  8
0
  6
Continuous
 62
     2
100
AcDbCircle
 10
97.1898723331937
 20
778.5927397497056
 30
0.0
 40
1.668232340440729
100
AcDbArc
 50
269.8110329575862
 51
90.18896704241378
  0
ARC
  5
2DA
102
{ACAD_REACTORS
330
36E
330
36F
102
}
330
74
100
AcDbEntity
  8
0
  6
Continuous
 62
     2
100
AcDbCircle
 10
97.18523089905324
 20
777.1854381401445
 30
0.0
 40
0.2609230769229498
100
AcDbArc
 50
180.0
 51
269.8110329574465
  0
ARC
  5
2DB
102
{ACAD_REACTORS
330
36C
330
36D
102
}
330
74
100
AcDbEntity
  8
0
  6
Continuous
 62
     2
100
AcDbCircle
 10
114.5930492583347
 20
776.9813852820286
 30
0.0
 40
0.4227934381771933
100
AcDbArc
 50
109.3371432194835
 51
151.4785267424192
  0
ARC
  5
2DC
102
{ACAD_REACTORS
330
36C
330
36D
102
}
330
74
100
AcDbEntity
  8
0
  6
Continuous
 62
     2
100
AcDbCircle
 10
114.5930492583347
 20
776.6424242417992
 30
0.0
 40
0.422793438178531
100
AcDbArc
 50
208.5214732576755
 51
246.6277221118451
  0
ARC
  5
2DD
102
{ACAD_REACTORS
330
36C
330
36D
102
}
330
74
100
AcDbEntity
  8
0
  6
Continuous
 62
     2
100
AcDbCircle
 10
114.1386093205021
 20
776.8119047619136
 30
0.0
 40
0.9964100565230691
100
AcDbArc
 50
164.9381082229044
 51
195.0618917770956
  0
ARC
  5
2DE
102
{ACAD_REACTORS
330
36C
330
36D
102
}
330
74
100
AcDbEntity
  8
0
  6
Continuous
 62
     2
100
AcDbCircle
 10
114.4849959679911
 20
776.7186895866782
 30
0.0
 40
1.355119937140557
100
AcDbArc
 50
90.0
 51
164.9381082228991
  0
ARC
  5
2DF
102
{ACAD_REACTORS
330
370
330
371
102
}
330
74
100
AcDbEntity
  8
0
  6
Continuous
 62
     2
100
AcDbCircle
 10
106.6940909326988
 20
779.5880952380908
 30
0.0
 40
1.261904761905726
100
AcDbArc
 50
90.0
 51
270.0
  0
ARC
  5
2E0
102
{ACAD_REACTORS
330
374
330
375
102
}
330
74
100
AcDbEntity
  8
0
  6
Continuous
 62
     2
100
AcDbCircle
 10
101.1216192424295
 20
780.0103556445326
 30
0.0
 40
0.2916229955959579
100
AcDbArc
 50
270.0
 51
90.0
  0
ARC
  5
2E1
102
{ACAD_REACTORS
330
36E
330
36F
102
}
330
74
100
AcDbEntity
  8
0
  6
Continuous
 62
     2
100
AcDbCircle
 10
95.05667826555595
 20
780.0001880341827
 30
0.0
 40
0.2609230769223814
100
AcDbArc
 50
90.0
 51
180.0
  0
ARC
  5
2E2
102
{ACAD_REACTORS
330
36E
330
36F
102
}
330
74
100
AcDbEntity
  8
0
  6
Continuous
 62
     2
100
AcDbCircle
 10
96.70826314868367
 20
778.5829530216845
 30
0.0
 40
0.7536343169897431
100
AcDbArc
 50
115.1944106485243
 51
244.8055893514904
  0
ARC
  5
2E3
102
{ACAD_REACTORS
330
36E
330
36F
102
}
330
74
100
AcDbEntity
  8
0
  6
Continuous
 62
     2
100
AcDbCircle
 10
96.27637517548118
 20
777.6649119092359
 30
0.0
 40
0.2609230769228361
100
AcDbArc
 50
0.0
 51
64.80558935144659
  0
ARC
  5
2E4
102
{ACAD_REACTORS
330
36E
330
36F
102
}
330
74
100
AcDbEntity
  8
0
  6
Continuous
 62
     2
100
AcDbCircle
 10
94.56585621865798
 20
775.9006153846227
 30
0.0
 40
0.3506153846138886
100
AcDbArc
 50
180.0
 51
270.0
  0
ARC
  5
2E5
102
{ACAD_REACTORS
330
370
330
371
102
}
330
74
100
AcDbEntity
  8
0
  6
Continuous
 62
     2
100
AcDbCircle
 10
106.8728281311824
 20
779.7176251373639
 30
0.0
 40
0.4280236140607304
100
AcDbArc
 50
38.12041979714642
 51
141.8795802028454
  0
ARC
  5
2E6
102
{ACAD_REACTORS
330
370
330
371
102
}
330
74
100
AcDbEntity
  8
0
  6
Continuous
 62
     2
100
AcDbCircle
 10
107.0379025413859
 20
779.5880952380908
 30
0.0
 40
0.6378510567600058
100
AcDbArc
 50
141.8795802028323
 51
218.1204197971596
  0
ARC
  5
2E7
102
{ACAD_REACTORS
330
372
330
373
102
}
330
74
100
AcDbEntity
  8
0
  6
Continuous
 62
     2
100
AcDbCircle
 10
103.599317816477
 20
777.2570080762139
 30
0.0
 40
1.707008076205393
100
AcDbArc
 50
242.4518518243419
 51
297.5481481756881
  0
ARC
  5
2E8
102
{ACAD_REACTORS
330
372
330
373
102
}
330
74
100
AcDbEntity
  8
0
  6
Continuous
 62
     2
100
AcDbCircle
 10
103.599317816477
 20
776.3668014476139
 30
0.0
 40
1.707008076205456
100
AcDbArc
 50
62.45185182430483
 51
117.5481481756651
  0
ARC
  5
2E9
102
{ACAD_REACTORS
330
372
330
373
102
}
330
74
100
AcDbEntity
  8
0
  6
Continuous
 62
     2
100
AcDbCircle
 10
103.3671360876892
 20
776.8119047619136
 30
0.0
 40
1.204986845993017
100
AcDbArc
 50
117.5481481756622
 51
242.4518518243378
  0
ARC
  5
2EA
102
{ACAD_REACTORS
330
372
330
373
102
}
330
74
100
AcDbEntity
  8
0
  6
Continuous
 62
     2
100
AcDbCircle
 10
103.8314995452649
 20
776.8119047619136
 30
0.0
 40
1.204986845993431
100
AcDbArc
 50
297.5481481756999
 51
62.4518518243001
  0
ARC
  5
2EB
102
{ACAD_REACTORS
330
370
330
371
102
}
330
74
100
AcDbEntity
  8
0
  6
Continuous
 62
     2
100
AcDbCircle
 10
106.8728281311824
 20
779.4585653388177
 30
0.0
 40
0.4280236140606521
100
AcDbArc
 50
218.1204197971547
 51
321.8795802028536
  0
ARC
  5
2EC
102
{ACAD_REACTORS
330
370
330
371
102
}
330
74
100
AcDbEntity
  8
0
  6
Continuous
 62
     2
100
AcDbCircle
 10
106.7077537209789
 20
779.5880952380908
 30
0.0
 40
0.6378510567600139
100
AcDbArc
 50
321.8795802028459
 51
38.12041979716215
  0
ARC
  5
2ED
102
{ACAD_REACTORS
330
36E
330
36F
102
}
330
74
100
AcDbEntity
  8
0
  6
Continuous
 62
     2
100
AcDbCircle
 10
99.08925464073803
 20
775.9006153846227
 30
0.0
 40
0.3506153846142297
100
AcDbArc
 50
270.0
 51
0.0
  0
ARC
  5
2EE
102
{ACAD_REACTORS
330
36E
330
36F
102
}
330
74
100
AcDbEntity
  8
0
  6
Continuous
 62
     2
100
AcDbCircle
 10
99.08925464073803
 20
780.4993846153667
 30
0.0
 40
0.3506153846147981
100
AcDbArc
 50
0.0
 51
90.0
  0
ARC
  5
2EF
102
{ACAD_REACTORS
330
36E
330
36F
102
}
330
74
100
AcDbEntity
  8
0
  6
Continuous
 62
     2
100
AcDbCircle
 10
94.56585621865798
 20
780.4993846153667
 30
0.0
 40
0.3506153846147981
100
AcDbArc
 50
90.0
 51
180.0
  0
ARC
  5
2F0
102
{ACAD_REACTORS
330
36E
330
36F
102
}
330
74
100
AcDbEntity
  8
0
  6
Continuous
 62
     2
100
AcDbCircle
 10
96.27637517548118
 20
776.3998119658214
 30
0.0
 40
0.2609230769229498
100
AcDbArc
 50
270.0
 51
0.0
  0
ARC
  5
2F1
102
{ACAD_REACTORS
330
36E
330
36F
102
}
330
74
100
AcDbEntity
  8
0
  6
Continuous
 62
     2
100
AcDbCircle
 10
96.27637517548118
 20
779.5009941341326
 30
0.0
 40
0.2609230769224708
100
AcDbArc
 50
295.1944106485534
 51
0.0
  0
ARC
  5
2F2
102
{ACAD_REACTORS
330
36E
330
36F
102
}
330
74
100
AcDbEntity
  8
0
  6
Continuous
 62
     2
100
AcDbCircle
 10
96.27637517548118
 20
780.0001880341827
 30
0.0
 40
0.2609230769228361
100
AcDbArc
 50
0.0
 51
90.0
  0
ARC
  5
2F3
102
{ACAD_REACTORS
330
36E
330
36F
102
}
330
74
100
AcDbEntity
  8
0
  6
Continuous
 62
     2
100
AcDbCircle
 10
95.05667826555595
 20
776.3998119658214
 30
0.0
 40
0.2609230769220403
100
AcDbArc
 50
180.0
 51
270.0
  0
ARC
  5
2F4
102
{ACAD_REACTORS
330
374
330
375
102
}
330
74
100
AcDbEntity
  8
0
  6
Continuous
 62
     2
100
AcDbCircle
 10
101.4864725698993
 20
779.9777969906297
 30
0.0
 40
0.8722030093666717
100
AcDbArc
 50
270.0
 51
90.0
  0
ARC
  5
2F5
102
{ACAD_REACTORS
330
36C
330
36D
102
}
330
74
100
AcDbEntity
  8
0
  6
Continuous
 62
     2
100
AcDbCircle
 10
114.4849959679911
 20
776.905119937149
 30
0.0
 40
1.355119937140866
100
AcDbArc
 50
195.0618917771009
 51
275.1581447696782
  0
ARC
  5
2F6
102
{ACAD_REACTORS
330
36C
330
36D
102
}
330
74
100
AcDbEntity
  8
0
  6
Continuous
 62
     2
100
AcDbCircle
 10
114.2462719227548
 20
779.549657609233
 30
0.0
 40
4.01041063099074
100
AcDbArc
 50
275.1581447696381
 51
285.9799912583394
  0
ARC
  5
2F7
102
{ACAD_REACTORS
330
36C
330
36D
102
}
330
74
100
AcDbEntity
  8
0
  6
Continuous
 62
     2
100
AcDbCircle
 10
114.3767453732448
 20
777.9775794440692
 30
0.0
 40
1.840813230556049
100
AcDbArc
 50
288.4480761181319
 51
301.9309089499365
  0
ARC
  5
2F8
102
{ACAD_REACTORS
330
36C
330
36D
102
}
330
74
100
AcDbEntity
  8
0
  6
Continuous
 62
     2
100
AcDbCircle
 10
114.7223385415604
 20
776.9415911994108
 30
0.0
 40
0.7487023016407311
100
AcDbArc
 50
246.6277221118208
 51
288.4480761180799
  0
ARC
  5
2F9
102
{ACAD_REACTORS
330
36C
330
36D
102
}
330
74
100
AcDbEntity
  8
0
  6
Continuous
 62
     2
100
AcDbCircle
 10
114.9049147608814
 20
776.8119047619136
 30
0.0
 40
0.7777353184587474
100
AcDbArc
 50
151.4785267423613
 51
208.5214732576608
  0
ARC
  5
2FA
102
{ACAD_REACTORS
330
36C
330
36D
102
}
330
74
100
AcDbEntity
  8
0
  6
Continuous
 62
     2
100
AcDbCircle
 10
114.7142641328006
 20
776.6359679428691
 30
0.0
 40
0.7888619891124335
100
AcDbArc
 50
90.0
 51
109.3371432194318
  0
ARC
  5
2FB
102
{ACAD_REACTORS
330
36E
330
36F
102
}
330
74
100
AcDbEntity
  8
0
  6
Continuous
 62
     2
100
AcDbCircle
 10
97.18523089905324
 20
780.0000413592668
 30
0.0
 40
0.2609230769223541
100
AcDbArc
 50
90.18896704255357
 51
180.0
  0
ARC
  5
2FC
102
{ACAD_REACTORS
330
36E
330
36F
102
}
330
74
100
AcDbEntity
  8
0
  6
Continuous
 62
     2
100
AcDbCircle
 10
96.75048486757561
 20
778.5829530216845
 30
0.0
 40
0.7535935125160714
100
AcDbArc
 50
295.3740086781789
 51
64.6259913218062
  0
ARC
  5
2FD
102
{ACAD_REACTORS
330
36A
330
36B
102
}
330
74
100
AcDbEntity
  8
0
  6
Continuous
 62
     2
100
AcDbCircle
 10
101.0687276217961
 20
777.9775794440696
 30
0.0
 40
1.840813230556049
100
AcDbArc
 50
288.4480761181319
 51
301.9309089499601
  0
ARC
  5
2FE
102
{ACAD_REACTORS
330
36A
330
36B
102
}
330
74
100
AcDbEntity
  8
0
  6
Continuous
 62
     2
100
AcDbCircle
 10
101.4143207901108
 20
776.9415911994108
 30
0.0
 40
0.7487023016404154
100
AcDbArc
 50
246.6277221118767
 51
288.448076118156
  0
ARC
  5
2FF
102
{ACAD_REACTORS
330
36A
330
36B
102
}
330
74
100
AcDbEntity
  8
0
  6
Continuous
 62
     2
100
AcDbCircle
 10
101.285031506886
 20
776.6424242417992
 30
0.0
 40
0.4227934381774399
100
AcDbArc
 50
208.5214732576858
 51
246.6277221118326
  0
ARC
  5
300
102
{ACAD_REACTORS
330
36A
330
36B
102
}
330
74
100
AcDbEntity
  8
0
  6
Continuous
 62
     2
100
AcDbCircle
 10
101.4143207901108
 20
776.6822183244166
 30
0.0
 40
0.7487023016406925
100
AcDbArc
 50
71.55192388185229
 51
113.3722778881267
  0
ARC
  5
301
102
{ACAD_REACTORS
330
36A
330
36B
102
}
330
74
100
AcDbEntity
  8
0
  6
Continuous
 62
     2
100
AcDbCircle
 10
100.9382541713061
 20
774.0741519145947
 30
0.0
 40
4.010410630990114
100
AcDbArc
 50
74.02000874164648
 51
84.84185523037415
  0
CIRCLE
  5
302
102
{ACAD_REACTORS
330
36E
330
36F
102
}
330
74
100
AcDbEntity
  8
0
  6
Continuous
 62
     2
100
AcDbCircle
 10
96.73080303726755
 20
778.5829530216845
 30
0.0
 40
0.3892387874202541
  0
CIRCLE
  5
303
330
74
100
AcDbEntity
  8
1
  6
Continuous
 62
     2
100
AcDbCircle
 10
92.6474552983519
 20
784.5750000000025
 30
0.0
 40
1.0
  0
CIRCLE
  5
304
330
74
100
AcDbEntity
  8
1
  6
Continuous
 62
     2
100
AcDbCircle
 10
92.6474552983519
 20
784.5750000000025
 30
0.0
 40
1.5
  0
MTEXT
  5
306
330
74
100
AcDbEntity
  8
1
 62
     2
100
AcDbMText
 10
125.0551954732486
 20
789.0250000000025
 30
0.0
 40
1.4
 41
0.0
 71
     4
 72
     1
  1
SAP\Pchange-No.
  7
CONVERTER_12
 73
     1
 44
0.66026410564226
  0
MTEXT
  5
307
330
74
100
AcDbEntity
  8
1
 62
     3
100
AcDbMText
 10
134.2874322913634
 20
788.8250000000025
 30
0.0
 40
2.5
 41
0.0
 71
     4
 72
     1
  1
KBF140001/13
  7
CONVERTER_12
 73
     1
 44
1.20048019207683
  0
MTEXT
  5
309
330
74
100
AcDbEntity
  8
1
 62
     2
100
AcDbMText
 10
-14.20000000000155
 20
776.0750000000027
 30
0.0
 40
2.0
 41
0.0
 71
     4
 72
     1
  1
 
  7
CONVERTER_13
 73
     1
 44
1.20048019207683
  0
MTEXT
  5
30A
330
74
100
AcDbEntity
  8
1
 62
     2
100
AcDbMText
 10
-14.20000000000155
 20
780.3250000000025
 30
0.0
 40
2.0
 41
0.0
 71
     4
 72
     1
  1
 
  7
CONVERTER_13
 73
     1
 44
1.20048019207683
  0
MTEXT
  5
30B
330
74
100
AcDbEntity
  8
1
 62
     2
100
AcDbMText
 10
-14.20000000000155
 20
784.5750000000025
 30
0.0
 40
2.0
 41
0.0
 71
     4
 72
     1
  1
 
  7
CONVERTER_13
 73
     1
 44
1.20048019207683
  0
MTEXT
  5
30C
330
74
100
AcDbEntity
  8
1
 62
     2
100
AcDbMText
 10
-14.20000000000155
 20
788.8250000000025
 30
0.0
 40
2.0
 41
0.0
 71
     4
 72
     1
  1
 
  7
CONVERTER_13
 73
     1
 44
1.20048019207683
  0
MTEXT
  5
30D
330
74
100
AcDbEntity
  8
1
 62
     2
100
AcDbMText
 10
-14.20000000000155
 20
793.0750000000025
 30
0.0
 40
2.0
 41
0.0
 71
     4
 72
     1
  1
 
  7
CONVERTER_13
 73
     1
 44
1.20048019207683
  0
MTEXT
  5
30E
330
74
100
AcDbEntity
  8
1
 62
     2
100
AcDbMText
 10
-14.20000000000155
 20
797.3250000000025
 30
0.0
 40
2.0
 41
0.0
 71
     4
 72
     1
  1
 
  7
CONVERTER_13
 73
     1
 44
1.20048019207683
  0
MTEXT
  5
30F
330
74
100
AcDbEntity
  8
1
 62
     2
100
AcDbMText
 10
80.80519547324856
 20
776.0750000000027
 30
0.0
 40
2.0
 41
0.0
 71
     5
 72
     1
  1
 
  7
CONVERTER_11
 73
     1
 44
1.20048019207683
  0
MTEXT
  5
310
330
74
100
AcDbEntity
  8
1
 62
     2
100
AcDbMText
 10
80.80519547324856
 20
780.3250000000025
 30
0.0
 40
2.0
 41
0.0
 71
     5
 72
     1
  1
 
  7
CONVERTER_11
 73
     1
 44
1.20048019207683
  0
MTEXT
  5
311
330
74
100
AcDbEntity
  8
1
 62
     2
100
AcDbMText
 10
80.80519547324856
 20
784.5750000000025
 30
0.0
 40
2.0
 41
0.0
 71
     5
 72
     1
  1
 
  7
CONVERTER_11
 73
     1
 44
1.20048019207683
  0
MTEXT
  5
312
330
74
100
AcDbEntity
  8
1
 62
     2
100
AcDbMText
 10
80.80519547324856
 20
788.8250000000025
 30
0.0
 40
2.0
 41
0.0
 71
     5
 72
     1
  1
 
  7
CONVERTER_11
 73
     1
 44
1.20048019207683
  0
MTEXT
  5
313
330
74
100
AcDbEntity
  8
1
 62
     2
100
AcDbMText
 10
80.80519547324856
 20
793.0750000000025
 30
0.0
 40
2.0
 41
0.0
 71
     5
 72
     1
  1
 
  7
CONVERTER_11
 73
     1
 44
1.20048019207683
  0
MTEXT
  5
314
330
74
100
AcDbEntity
  8
1
 62
     2
100
AcDbMText
 10
80.80519547324856
 20
797.3250000000025
 30
0.0
 40
2.0
 41
0.0
 71
     5
 72
     1
  1
 
  7
CONVERTER_11
 73
     1
 44
1.20048019207683
  0
MTEXT
  5
315
330
74
100
AcDbEntity
  8
1
 62
     2
100
AcDbMText
 10
67.30519547324855
 20
776.0750000000027
 30
0.0
 40
2.0
 41
0.0
 71
     5
 72
     1
  1
 
  7
CONVERTER_11
 73
     1
 44
1.20048019207683
  0
MTEXT
  5
316
330
74
100
AcDbEntity
  8
1
 62
     2
100
AcDbMText
 10
67.30519547324855
 20
780.3250000000025
 30
0.0
 40
2.0
 41
0.0
 71
     5
 72
     1
  1
 
  7
CONVERTER_11
 73
     1
 44
1.20048019207683
  0
MTEXT
  5
317
330
74
100
AcDbEntity
  8
1
 62
     2
100
AcDbMText
 10
67.30519547324855
 20
784.5750000000025
 30
0.0
 40
2.0
 41
0.0
 71
     5
 72
     1
  1
 
  7
CONVERTER_11
 73
     1
 44
1.20048019207683
  0
MTEXT
  5
318
330
74
100
AcDbEntity
  8
1
 62
     2
100
AcDbMText
 10
67.30519547324855
 20
788.8250000000025
 30
0.0
 40
2.0
 41
0.0
 71
     5
 72
     1
  1
 
  7
CONVERTER_11
 73
     1
 44
1.20048019207683
  0
MTEXT
  5
319
330
74
100
AcDbEntity
  8
1
 62
     2
100
AcDbMText
 10
67.30519547324855
 20
793.0750000000025
 30
0.0
 40
2.0
 41
0.0
 71
     5
 72
     1
  1
 
  7
CONVERTER_11
 73
     1
 44
1.20048019207683
  0
MTEXT
  5
31A
330
74
100
AcDbEntity
  8
1
 62
     2
100
AcDbMText
 10
67.30519547324855
 20
797.3250000000025
 30
0.0
 40
2.0
 41
0.0
 71
     5
 72
     1
  1
 
  7
CONVERTER_11
 73
     1
 44
1.20048019207683
  0
MTEXT
  5
31B
330
74
100
AcDbEntity
  8
1
 62
     2
100
AcDbMText
 10
53.80519547324865
 20
797.3250000000025
 30
0.0
 40
2.0
 41
0.0
 71
     5
 72
     1
  1
 
  7
CONVERTER_11
 73
     1
 44
1.20048019207683
  0
MTEXT
  5
31C
330
74
100
AcDbEntity
  8
1
 62
     2
100
AcDbMText
 10
53.80519547324865
 20
793.0750000000025
 30
0.0
 40
2.0
 41
0.0
 71
     5
 72
     1
  1
 
  7
CONVERTER_11
 73
     1
 44
1.20048019207683
  0
MTEXT
  5
31D
330
74
100
AcDbEntity
  8
1
 62
     2
100
AcDbMText
 10
53.80519547324865
 20
788.8250000000025
 30
0.0
 40
2.0
 41
0.0
 71
     5
 72
     1
  1
 
  7
CONVERTER_11
 73
     1
 44
1.20048019207683
  0
MTEXT
  5
31E
330
74
100
AcDbEntity
  8
1
 62
     2
100
AcDbMText
 10
53.80519547324865
 20
784.5750000000025
 30
0.0
 40
2.0
 41
0.0
 71
     5
 72
     1
  1
 
  7
CONVERTER_11
 73
     1
 44
1.20048019207683
  0
MTEXT
  5
31F
330
74
100
AcDbEntity
  8
1
 62
     2
100
AcDbMText
 10
53.80519547324865
 20
780.3250000000025
 30
0.0
 40
2.0
 41
0.0
 71
     5
 72
     1
  1
 
  7
CONVERTER_11
 73
     1
 44
1.20048019207683
  0
MTEXT
  5
320
330
74
100
AcDbEntity
  8
1
 62
     2
100
AcDbMText
 10
53.80519547324865
 20
776.0750000000027
 30
0.0
 40
2.0
 41
0.0
 71
     5
 72
     1
  1
 
  7
CONVERTER_11
 73
     1
 44
1.20048019207683
  0
MTEXT
  5
321
330
74
100
AcDbEntity
  8
1
 62
     2
100
AcDbMText
 10
-21.95000000000155
 20
797.3250000000025
 30
0.0
 40
2.0
 41
0.0
 71
     5
 72
     1
  1
 
  7
CONVERTER_11
 73
     1
 44
1.20048019207683
  0
MTEXT
  5
322
330
74
100
AcDbEntity
  8
1
 62
     2
100
AcDbMText
 10
-21.95000000000155
 20
793.0750000000025
 30
0.0
 40
2.0
 41
0.0
 71
     5
 72
     1
  1
 
  7
CONVERTER_11
 73
     1
 44
1.20048019207683
  0
MTEXT
  5
323
330
74
100
AcDbEntity
  8
1
 62
     2
100
AcDbMText
 10
-21.95000000000155
 20
788.8250000000025
 30
0.0
 40
2.0
 41
0.0
 71
     5
 72
     1
  1
 
  7
CONVERTER_11
 73
     1
 44
1.20048019207683
  0
MTEXT
  5
324
330
74
100
AcDbEntity
  8
1
 62
     2
100
AcDbMText
 10
-21.95000000000155
 20
784.5750000000025
 30
0.0
 40
2.0
 41
0.0
 71
     5
 72
     1
  1
 
  7
CONVERTER_11
 73
     1
 44
1.20048019207683
  0
MTEXT
  5
325
330
74
100
AcDbEntity
  8
1
 62
     2
100
AcDbMText
 10
-21.95000000000155
 20
780.3250000000025
 30
0.0
 40
2.0
 41
0.0
 71
     5
 72
     1
  1
 
  7
CONVERTER_11
 73
     1
 44
1.20048019207683
  0
MTEXT
  5
326
330
74
100
AcDbEntity
  8
1
 62
     2
100
AcDbMText
 10
-21.95000000000155
 20
776.0750000000027
 30
0.0
 40
2.0
 41
0.0
 71
     5
 72
     1
  1
 
  7
CONVERTER_11
 73
     1
 44
1.20048019207683
  0
MTEXT
  5
327
330
74
100
AcDbEntity
  8
1
 62
     2
100
AcDbMText
 10
-31.80000000000055
 20
776.0750000000027
 30
0.0
 40
2.0
 41
0.0
 71
     5
 72
     1
  1
 
  7
CONVERTER_11
 73
     1
 44
1.20048019207683
  0
MTEXT
  5
328
330
74
100
AcDbEntity
  8
1
 62
     2
100
AcDbMText
 10
-31.80000000000055
 20
780.3250000000025
 30
0.0
 40
2.0
 41
0.0
 71
     5
 72
     1
  1
 
  7
CONVERTER_11
 73
     1
 44
1.20048019207683
  0
MTEXT
  5
329
330
74
100
AcDbEntity
  8
1
 62
     2
100
AcDbMText
 10
-31.80000000000055
 20
784.5750000000025
 30
0.0
 40
2.0
 41
0.0
 71
     5
 72
     1
  1
 
  7
CONVERTER_11
 73
     1
 44
1.20048019207683
  0
MTEXT
  5
32A
330
74
100
AcDbEntity
  8
1
 62
     2
100
AcDbMText
 10
-31.80000000000055
 20
788.8250000000025
 30
0.0
 40
2.0
 41
0.0
 71
     5
 72
     1
  1
 
  7
CONVERTER_11
 73
     1
 44
1.20048019207683
  0
MTEXT
  5
32B
330
74
100
AcDbEntity
  8
1
 62
     2
100
AcDbMText
 10
-31.80000000000055
 20
793.0750000000025
 30
0.0
 40
2.0
 41
0.0
 71
     5
 72
     1
  1
 
  7
CONVERTER_11
 73
     1
 44
1.20048019207683
  0
MTEXT
  5
32C
330
74
100
AcDbEntity
  8
1
 62
     2
100
AcDbMText
 10
-31.80000000000055
 20
797.3250000000025
 30
0.0
 40
2.0
 41
0.0
 71
     5
 72
     1
  1
 
  7
CONVERTER_11
 73
     1
 44
1.20048019207683
  0
MTEXT
  5
32E
330
74
100
AcDbEntity
  8
1
 62
     2
100
AcDbMText
 10
154.6000000000009
 20
789.9500000000025
 30
0.0
 40
1.8
 41
0.0
 71
     1
 72
     1
  1
part-rev.
  7
CONVERTER_14
 73
     1
 44
1.20048019207683
  0
MTEXT
  5
32F
330
74
100
AcDbEntity
  8
1
 62
     2
100
AcDbMText
 10
173.1000000000005
 20
785.7000000000025
 30
0.0
 40
1.8
 41
0.0
 71
     1
 72
     1
  1
surface in um
  7
CONVERTER_11
 73
     1
 44
1.32052821128451
  0
MTEXT
  5
330
330
74
100
AcDbEntity
  8
1
 62
     7
100
AcDbMText
 10
219.5999999999976
 20
844.7000000000045
 30
0.0
 40
3.5
 41
0.0
 71
     5
 72
     1
  1
C
  7
CONVERTER_11
 73
     1
 44
1.20048019207683
  0
MTEXT
  5
331
330
74
100
AcDbEntity
  8
1
 62
     7
100
AcDbMText
 10
219.5999999999976
 20
947.2000000000025
 30
0.0
 40
3.5
 41
0.0
 71
     5
 72
     1
  1
A
  7
CONVERTER_11
 73
     1
 44
1.20048019207683
  0
MTEXT
  5
332
330
74
100
AcDbEntity
  8
1
 62
     7
100
AcDbMText
 10
219.5999999999976
 20
894.7000000000044
 30
0.0
 40
3.5
 41
0.0
 71
     5
 72
     1
  1
B
  7
CONVERTER_11
 73
     1
 44
1.20048019207683
  0
MTEXT
  5
333
330
74
100
AcDbEntity
  8
1
 62
     7
100
AcDbMText
 10
219.5999999999976
 20
792.2000000000025
 30
0.0
 40
3.5
 41
0.0
 71
     5
 72
     1
  1
D
  7
CONVERTER_11
 73
     1
 44
1.20048019207683
  0
MTEXT
  5
334
330
74
100
AcDbEntity
  8
1
 62
     3
100
AcDbMText
 10
-69.89493221392956
 20
956.4913081553013
 30
0.0
 40
1.8
 41
0.0
 71
     7
 72
     1
  3
Weitergabe sowie Vervielf\U+00e4ltigung dieses Dokuments, Verwertung und\PMitteilung seines Inhalts gem\U+00e4\U+00df \U+00a718 UWG verboten, soweit nicht aus-\Pdr\U+00fccklich gestattet. Zuwiderhandlungen verpflichten zu Schadenersatz\P(\U+00a719 U
  1
WG). Alle Rechte vorbehalten, insbesondere das Recht, Patent-,\PGebrauchsmuster- oder Geschmacksmusteranmeldungen durchzuf\U+00fchren.\PPhoenix Contact GmbH & Co. KG
  7
CONVERTER_11
 73
     1
 44
0.99639855942377
  0
MTEXT
  5
335
330
74
100
AcDbEntity
  8
1
 62
     3
100
AcDbMText
 10
102.9581776248585
 20
956.4913081553013
 30
0.0
 40
1.8
 41
0.0
 71
     7
 72
     1
  3
The copying, distribution and utilistion of this document as well as the communication\Pof the contents to others without expressed authorization is prohibited according to\P\U+00a718 UWG German Law. Offenders will be held liable for the payment of 
  1
damages\Paccording to (\U+00a719 UWG German Law). All rights reserved, in particular the right to\Pcarry out patent, utility model or ornamental design registrations.\PFlachsmarktstra\U+00dfe 8  D-32825 Blomberg
  7
CONVERTER_11
 73
     1
 44
0.99639855942377
  0
MTEXT
  5
336
330
74
100
AcDbEntity
  8
1
 62
     7
100
AcDbMText
 10
-50.65000000000106
 20
767.2000000000025
 30
0.0
 40
3.5
 41
0.0
 71
     5
 72
     1
  1
1
  7
CONVERTER_11
 73
     1
 44
1.20048019207683
  0
MTEXT
  5
337
330
74
100
AcDbEntity
  8
1
 62
     7
100
AcDbMText
 10
-1.40000000000145
 20
767.2000000000025
 30
0.0
 40
3.5
 41
0.0
 71
     5
 72
     1
  1
2
  7
CONVERTER_11
 73
     1
 44
1.20048019207683
  0
MTEXT
  5
338
330
74
100
AcDbEntity
  8
1
 62
     7
100
AcDbMText
 10
48.59999999999855
 20
767.2000000000025
 30
0.0
 40
3.5
 41
0.0
 71
     5
 72
     1
  1
3
  7
CONVERTER_11
 73
     1
 44
1.20048019207683
  0
MTEXT
  5
339
330
74
100
AcDbEntity
  8
1
 62
     7
100
AcDbMText
 10
98.5999999999985
 20
767.2000000000025
 30
0.0
 40
3.5
 41
0.0
 71
     5
 72
     1
  1
4
  7
CONVERTER_11
 73
     1
 44
1.20048019207683
  0
MTEXT
  5
33A
330
74
100
AcDbEntity
  8
1
 62
     7
100
AcDbMText
 10
148.5999999999985
 20
767.2000000000025
 30
0.0
 40
3.5
 41
0.0
 71
     5
 72
     1
  1
5
  7
CONVERTER_11
 73
     1
 44
1.20048019207683
  0
MTEXT
  5
33B
330
74
100
AcDbEntity
  8
1
 62
     7
100
AcDbMText
 10
197.8499999999978
 20
767.2000000000025
 30
0.0
 40
3.5
 41
0.0
 71
     5
 72
     1
  1
6
  7
CONVERTER_11
 73
     1
 44
1.20048019207683
  0
MTEXT
  5
33C
330
74
100
AcDbEntity
  8
1
 62
     7
100
AcDbMText
 10
-72.40000000000046
 20
947.2000000000025
 30
0.0
 40
3.5
 41
0.0
 71
     5
 72
     1
  1
A
  7
CONVERTER_11
 73
     1
 44
1.20048019207683
  0
MTEXT
  5
33D
330
74
100
AcDbEntity
  8
1
 62
     7
100
AcDbMText
 10
-72.40000000000046
 20
894.7000000000025
 30
0.0
 40
3.5
 41
0.0
 71
     5
 72
     1
  1
B
  7
CONVERTER_11
 73
     1
 44
1.20048019207683
  0
MTEXT
  5
33E
330
74
100
AcDbEntity
  8
1
 62
     7
100
AcDbMText
 10
-72.40000000000046
 20
844.7000000000025
 30
0.0
 40
3.5
 41
0.0
 71
     5
 72
     1
  1
C
  7
CONVERTER_11
 73
     1
 44
1.20048019207683
  0
MTEXT
  5
33F
330
74
100
AcDbEntity
  8
1
 62
     7
100
AcDbMText
 10
-72.40000000000046
 20
792.2000000000025
 30
0.0
 40
3.5
 41
0.0
 71
     5
 72
     1
  1
D
  7
CONVERTER_11
 73
     1
 44
1.20048019207683
  0
MTEXT
  5
340
330
74
100
AcDbEntity
  8
1
 62
     2
100
AcDbMText
 10
200.5184082816793
 20
798.4500000000025
 30
0.0
 40
1.8
 41
0.0
 71
     1
 72
     1
  1
dim.var.
  7
CONVERTER_11
 73
     1
 44
1.20048019207683
  0
MTEXT
  5
342
330
74
100
AcDbEntity
  8
1
 62
     2
100
AcDbMText
 10
154.6000000000009
 20
785.7000000000025
 30
0.0
 40
1.8
 41
0.0
 71
     1
 72
     1
  1
document-No.
  7
CONVERTER_15
 73
     1
 44
1.32052821128451
  0
TEXT
  5
343
330
74
100
AcDbEntity
  8
1
 62
     2
100
AcDbText
 10
106.7551954732485
 20
770.940982785011
 30
0.0
 40
1.8
  1
of
 41
0.9
  7
CONVERTER_11
100
AcDbText
  0
TEXT
  5
344
330
74
100
AcDbEntity
  8
1
 62
     2
100
AcDbText
 10
88.55519547324863
 20
770.9409827850109
 30
0.0
 40
1.8
  1
page
 41
0.9
  7
CONVERTER_11
100
AcDbText
  0
MTEXT
  5
345
330
74
100
AcDbEntity
  8
1
 62
     2
100
AcDbMText
 10
80.80519547324853
 20
770.9500000000025
 30
0.0
 40
1.8
 41
0.0
 71
     8
 72
     1
  1
name
  7
CONVERTER_11
 73
     1
 44
1.32052821128451
  0
MTEXT
  5
346
330
74
100
AcDbEntity
  8
1
 62
     2
100
AcDbMText
 10
67.30519547324865
 20
770.9500000000025
 30
0.0
 40
1.8
 41
0.0
 71
     8
 72
     1
  1
check.on
  7
CONVERTER_11
 73
     1
 44
1.32052821128451
  0
MTEXT
  5
347
330
74
100
AcDbEntity
  8
1
 62
     2
100
AcDbMText
 10
53.80519547324865
 20
770.9500000000025
 30
0.0
 40
1.8
 41
0.0
 71
     8
 72
     1
  1
name
  7
CONVERTER_11
 73
     1
 44
1.32052821128451
  0
MTEXT
  5
348
330
74
100
AcDbEntity
  8
1
 62
     2
100
AcDbMText
 10
-21.95000000000155
 20
770.9500000000025
 30
0.0
 40
1.8
 41
0.0
 71
     8
 72
     1
  1
date
  7
CONVERTER_11
 73
     1
 44
1.32052821128451
  0
MTEXT
  5
349
330
74
100
AcDbEntity
  8
1
 62
     2
100
AcDbMText
 10
148.08038463084
 20
798.4500000000023
 30
0.0
 40
1.8
 41
0.0
 71
     1
 72
     1
  1
material
  7
CONVERTER_11
 73
     1
 44
1.20048019207683
  0
MTEXT
  5
34A
330
74
100
AcDbEntity
  8
1
 62
     2
100
AcDbMText
 10
-31.80000000000055
 20
770.9500000000025
 30
0.0
 40
1.8
 41
0.0
 71
     8
 72
     1
  1
RI
  7
CONVERTER_11
 73
     1
 44
1.32052821128451
  0
MTEXT
  5
34B
330
74
100
AcDbEntity
  8
1
 62
     2
100
AcDbMText
 10
103.7051954732485
 20
796.4000000000026
 30
0.0
 40
1.8
 41
0.0
 71
     8
 72
     1
  1
date
  7
CONVERTER_11
 73
     1
 44
1.32052821128451
  0
MTEXT
  5
34C
330
74
100
AcDbEntity
  8
1
 62
     2
100
AcDbMText
 10
117.2051954732485
 20
796.4000000000026
 30
0.0
 40
1.8
 41
0.0
 71
     8
 72
     1
  1
name
  7
CONVERTER_11
 73
     1
 44
1.32052821128451
  0
MTEXT
  5
34D
330
74
100
AcDbEntity
  8
1
 62
     2
100
AcDbMText
 10
15.92759773662354
 20
770.9500000000025
 30
0.0
 40
1.8
 41
0.0
 71
     8
 72
     1
  1
revision
  7
CONVERTER_11
 73
     1
 44
1.32052821128451
  0
MTEXT
  5
34E
330
74
100
AcDbEntity
  8
1
 62
     2
100
AcDbMText
 10
191.4000000000004
 20
798.4500000000025
 30
0.0
 40
1.8
 41
0.0
 71
     1
 72
     1
  1
scale
  7
CONVERTER_11
 73
     1
 44
1.20048019207683
  0
MTEXT
  5
34F
330
74
100
AcDbEntity
  8
1
 62
     2
100
AcDbMText
 10
92.2551954732486
 20
793.0750000000025
 30
0.0
 40
1.8
 41
0.0
 71
     5
 72
     1
  1
creat.
  7
CONVERTER_11
 73
     1
 44
1.20048019207683
  0
MTEXT
  5
350
330
74
100
AcDbEntity
  8
1
 62
     2
100
AcDbMText
 10
92.2551954732486
 20
788.8250000000025
 30
0.0
 40
1.8
 41
0.0
 71
     5
 72
     1
  1
check.
  7
CONVERTER_11
 73
     1
 44
1.20048019207683
  0
MTEXT
  5
351
330
74
100
AcDbEntity
  8
1
 62
     3
100
AcDbMText
 10
113.7551954732485
 20
784.5750000000027
 30
0.0
 40
2.5
 41
0.0
 71
     5
 72
     1
  1
DIN A4
  7
CONVERTER_11
 73
     1
 44
1.20048019207683
  0
MTEXT
  5
352
330
74
100
AcDbEntity
  8
1
 62
     2
100
AcDbMText
 10
125.0551954732486
 20
798.4500000000025
 30
0.0
 40
1.8
 41
0.0
 71
     1
 72
     1
  1
ident.-No. / RI
  7
CONVERTER_11
 73
     1
 44
1.20048019207683
  0
TEXT
  5
353
330
74
100
AcDbEntity
  8
1
 62
     2
100
AcDbText
 10
97.2014604435907
 20
770.9007513462005
 30
0.0
 40
1.8
  1
1
 41
0.9
  7
CONVERTER_11
100
AcDbText
  0
TEXT
  5
354
330
74
100
AcDbEntity
  8
1
 62
     2
100
AcDbText
 10
111.9905042830622
 20
770.9500000000025
 30
0.0
 40
1.8
  1
1
 41
0.9
  7
CONVERTER_11
100
AcDbText
  0
MTEXT
  5
355
330
74
100
AcDbEntity
  8
1
 62
     2
100
AcDbMText
 10
124.9551954732485
 20
777.2000000000025
 30
0.0
 40
1.8
 41
0.0
 71
     1
 72
     1
  1
description
  7
CONVERTER_11
 73
     1
 44
1.20048019207683
  0
MTEXT
  5
356
330
74
100
AcDbEntity
  8
1
 62
     2
100
AcDbMText
 10
92.2551954732486
 20
796.4000000000026
 30
0.0
 40
1.8
 41
0.0
 71
     8
 72
     1
  1
00
  7
CONVERTER_11
 73
     1
 44
1.20048019207683
  0
MTEXT
  5
357
330
74
100
AcDbEntity
  8
1
 62
     2
100
AcDbMText
 10
124.9551954732485
 20
785.7000000000024
 30
0.0
 40
1.8
 41
0.0
 71
     1
 72
     1
  1
document-type
  7
CONVERTER_11
 73
     1
 44
1.20048019207683
  0
MTEXT
  5
358
330
74
100
AcDbEntity
  8
1
 62
     2
100
AcDbMText
 10
117.2051954732485
 20
788.8250000000025
 30
0.0
 40
1.8
 41
0.0
 71
     5
 72
     1
  1
pbam06
  7
CONVERTER_11
 73
     1
 44
1.32052821128451
  0
MTEXT
  5
359
330
74
100
AcDbEntity
  8
1
 62
     2
100
AcDbMText
 10
117.2051954732485
 20
793.0750000000025
 30
0.0
 40
1.8
 41
0.0
 71
     5
 72
     1
  1
pbsc11
  7
CONVERTER_11
 73
     1
 44
1.32052821128451
  0
MTEXT
  5
35A
330
74
100
AcDbEntity
  8
1
 62
     2
100
AcDbMText
 10
103.7051954732486
 20
788.8250000000025
 30
0.0
 40
1.8
 41
0.0
 71
     5
 72
     1
  1
29.01.15
  7
CONVERTER_11
 73
     1
 44
1.32052821128451
  0
MTEXT
  5
35B
330
74
100
AcDbEntity
  8
1
 62
     2
100
AcDbMText
 10
103.7051954732486
 20
793.0750000000025
 30
0.0
 40
1.8
 41
0.0
 71
     5
 72
     1
  1
01.12.14
  7
CONVERTER_11
 73
     1
 44
1.32052821128451
  0
TEXT
  5
35C
330
74
100
AcDbEntity
  8
1
 62
     7
100
AcDbText
 10
139.9287431952623
 20
792.2500000000025
 30
0.0
 40
2.5
  1
/
 41
0.9
  7
CONVERTER_11
100
AcDbText
  0
TEXT
  5
35E
330
74
100
AcDbEntity
  8
1
 62
     3
100
AcDbText
 10
173.1000000000005
 20
779.5000000000025
 30
0.0
 40
2.5
  1
 
 41
0.54
  7
CONVERTER_16
100
AcDbText
  0
MTEXT
  5
360
330
74
100
AcDbEntity
  8
1
 62
     7
100
AcDbMText
 10
170.5275977366241
 20
772.9500000000028
 30
0.0
 40
3.0
 41
0.0
 71
     5
 72
     1
  1
MD-INB24-3-SZP-S
  7
CONVERTER_17
 73
     1
 44
1.20048019207683
  0
MTEXT
  5
361
330
74
100
AcDbEntity
  8
1
 62
     3
100
AcDbMText
 10
194.75920414084
 20
792.2500000000026
 30
0.0
 40
2.5
 41
0.0
 71
     8
 72
     1
  1
1:5
  7
CONVERTER_14
 73
     1
 44
1.32052821128451
  0
TEXT
  5
362
330
74
100
AcDbEntity
  8
1
 62
     3
100
AcDbText
 10
147.8551954732486
 20
792.2500000000025
 30
0.0
 40
2.5
  1
-
 41
0.54
  7
CONVERTER_16
100
AcDbText
  0
TEXT
  5
363
330
74
100
AcDbEntity
  8
1
 62
     7
100
AcDbText
 10
125.4551954732484
 20
792.2500000000025
 30
0.0
 40
2.5
  1
1415242
 41
0.81
  7
CONVERTER_17
100
AcDbText
  0
TEXT
  5
364
330
74
100
AcDbEntity
  8
1
 62
     7
100
AcDbText
 10
154.6000000000009
 20
779.5000000000025
 30
0.0
 40
2.5
  1
00837953
 41
0.81
  7
CONVERTER_17
100
AcDbText
  0
TEXT
  5
365
330
74
100
AcDbEntity
  8
1
 62
     3
100
AcDbText
 10
200.2184082816794
 20
792.2500000000025
 30
0.0
 40
2.5
  1
 
 41
0.54
  7
CONVERTER_16
100
AcDbText
  0
TEXT
  5
367
330
74
100
AcDbEntity
  8
1
 62
     3
100
AcDbText
 10
124.9551954732485
 20
779.5000000000025
 30
0.0
 40
2.5
  1
KUNDENZCHNG-SELECT
 41
0.45
  7
CONVERTER_18
100
AcDbText
  0
TEXT
  5
368
330
74
100
AcDbEntity
  8
1
 62
     7
100
AcDbText
 10
142.0851076923044
 20
792.2500000000025
 30
0.0
 40
2.5
  1
00
 41
0.81
  7
CONVERTER_17
100
AcDbText
  0
MTEXT
  5
369
330
74
100
AcDbEntity
  8
1
 62
     3
100
AcDbMText
 10
164.8070198866089
 20
790.0500000000026
 30
0.0
 40
2.0
 41
0.0
 71
     1
 72
     1
  1
 
  7
CONVERTER_14
 73
     1
 44
1.20048019207683
  0
HATCH
  5
36A
330
74
100
AcDbEntity
  8
1
  6
Continuous
 62
     2
100
AcDbHatch
 10
0.0
 20
0.0
 30
0.0
210
0.0
220
0.0
230
1.0
  2
_USER
 70
     0
 71
     1
 91
        1
 92
        1
 93
       14
 72
     2
 10
100.8305915690525
 20
776.8119047619136
 40
0.9964100565214636
 50
164.9381082228796
 51
195.0618917770952
 73
     1
 72
     2
 10
101.1769782165424
 20
776.905119937149
 40
1.355119937140007
 50
195.0618917770908
 51
275.1581447696423
 73
     1
 72
     2
 10
100.9382541713061
 20
779.549657609233
 40
4.010410630990206
 50
275.158144769626
 51
285.9799912583536
 73
     1
 72
     1
 10
102.0423268300812
 20
775.6942176870836
 11
102.0423268300812
 21
776.4153061224581
 72
     2
 10
101.0687276217961
 20
777.9775794440696
 40
1.840813230556049
 50
58.06909105003989
 51
71.55192388186815
 73
     0
 72
     2
 10
101.4143207901108
 20
776.9415911994108
 40
0.7487023016404154
 50
71.55192388184403
 51
113.3722778881233
 73
     0
 72
     2
 10
101.285031506886
 20
776.6424242417992
 40
0.4227934381774399
 50
113.3722778881673
 51
151.4785267423142
 73
     0
 72
     2
 10
101.5968970094318
 20
776.8119047619136
 40
0.7777353184573039
 50
151.4785267423022
 51
208.5214732577346
 73
     0
 72
     2
 10
101.285031506886
 20
776.9813852820286
 40
0.4227934381775369
 50
208.5214732576993
 51
246.6277221118082
 73
     0
 72
     2
 10
101.4143207901108
 20
776.6822183244166
 40
0.7487023016406925
 50
246.6277221118733
 51
288.4480761181477
 73
     0
 72
     2
 10
101.0687276217961
 20
775.6462300797582
 40
1.840813230556584
 50
288.448076118133
 51
301.930908949962
 73
     0
 72
     1
 10
102.0423268300812
 20
777.2085034013696
 11
102.0423268300812
 21
777.9295918367442
 72
     2
 10
100.9382541713061
 20
774.0741519145947
 40
4.010410630990114
 50
74.02000874164648
 51
84.84185523037415
 73
     1
 72
     2
 10
101.1769782165424
 20
776.7186895866782
 40
1.355119937140985
 50
84.84185523035993
 51
164.9381082228907
 73
     1
 97
       14
330
301
330
18B
330
2D0
330
300
330
2D1
330
2D2
330
2FF
330
2FE
330
2FD
330
18C
330
2D3
330
2D4
330
2D5
330
2D6
 75
     1
 76
     0
 52
45.0
 41
0.1
 77
     0
 78
     1
 53
45.0
 43
0.0
 44
0.0
 45
-0.0707106781186548
 46
0.0707106781186548
 79
     0
 98
        1
 10
0.0
 20
0.0
  0
HATCH
  5
36B
330
74
100
AcDbEntity
  8
1
  6
Continuous
 62
     2
100
AcDbHatch
 10
0.0
 20
0.0
 30
0.0
210
0.0
220
0.0
230
1.0
  2
_USER
 70
     0
 71
     1
 91
        1
 92
        1
 93
       14
 72
     2
 10
100.8305915690525
 20
776.8119047619136
 40
0.9964100565214636
 50
164.9381082228796
 51
195.0618917770952
 73
     1
 72
     2
 10
101.1769782165424
 20
776.905119937149
 40
1.355119937140007
 50
195.0618917770908
 51
275.1581447696423
 73
     1
 72
     2
 10
100.9382541713061
 20
779.549657609233
 40
4.010410630990206
 50
275.158144769626
 51
285.9799912583536
 73
     1
 72
     1
 10
102.0423268300812
 20
775.6942176870836
 11
102.0423268300812
 21
776.4153061224581
 72
     2
 10
101.0687276217961
 20
777.9775794440696
 40
1.840813230556049
 50
58.06909105003989
 51
71.55192388186815
 73
     0
 72
     2
 10
101.4143207901108
 20
776.9415911994108
 40
0.7487023016404154
 50
71.55192388184403
 51
113.3722778881233
 73
     0
 72
     2
 10
101.285031506886
 20
776.6424242417992
 40
0.4227934381774399
 50
113.3722778881673
 51
151.4785267423142
 73
     0
 72
     2
 10
101.5968970094318
 20
776.8119047619136
 40
0.7777353184573039
 50
151.4785267423022
 51
208.5214732577346
 73
     0
 72
     2
 10
101.285031506886
 20
776.9813852820286
 40
0.4227934381775369
 50
208.5214732576993
 51
246.6277221118082
 73
     0
 72
     2
 10
101.4143207901108
 20
776.6822183244166
 40
0.7487023016406925
 50
246.6277221118733
 51
288.4480761181477
 73
     0
 72
     2
 10
101.0687276217961
 20
775.6462300797582
 40
1.840813230556584
 50
288.448076118133
 51
301.930908949962
 73
     0
 72
     1
 10
102.0423268300812
 20
777.2085034013696
 11
102.0423268300812
 21
777.9295918367442
 72
     2
 10
100.9382541713061
 20
774.0741519145947
 40
4.010410630990114
 50
74.02000874164648
 51
84.84185523037415
 73
     1
 72
     2
 10
101.1769782165424
 20
776.7186895866782
 40
1.355119937140985
 50
84.84185523035993
 51
164.9381082228907
 73
     1
 97
       14
330
301
330
18B
330
2D0
330
300
330
2D1
330
2D2
330
2FF
330
2FE
330
2FD
330
18C
330
2D3
330
2D4
330
2D5
330
2D6
 75
     1
 76
     0
 52
45.0
 41
0.1
 77
     0
 78
     1
 53
45.0
 43
0.0
 44
0.0
 45
-0.0707106781186548
 46
0.0707106781186548
 79
     0
 98
        1
 10
0.0
 20
0.0
  0
HATCH
  5
36C
330
74
100
AcDbEntity
  8
1
  6
Continuous
 62
     2
100
AcDbHatch
 10
0.0
 20
0.0
 30
0.0
210
0.0
220
0.0
230
1.0
  2
_USER
 70
     0
 71
     1
 91
        1
 92
        1
 93
       18
 72
     2
 10
114.4849959679911
 20
776.7186895866782
 40
1.355119937140557
 50
90.0
 51
164.9381082228991
 73
     1
 72
     2
 10
114.1386093205021
 20
776.8119047619136
 40
0.9964100565230691
 50
164.9381082229044
 51
195.0618917770956
 73
     1
 72
     2
 10
114.4849959679911
 20
776.905119937149
 40
1.355119937140866
 50
195.0618917771009
 51
275.1581447696782
 73
     1
 72
     2
 10
114.2462719227548
 20
779.549657609233
 40
4.01041063099074
 50
275.1581447696381
 51
285.9799912583394
 73
     1
 72
     1
 10
115.350344581529
 20
775.6942176870831
 11
115.350344581529
 21
776.4153061224577
 72
     2
 10
114.3767453732448
 20
777.9775794440692
 40
1.840813230556049
 50
58.06909105006356
 51
71.55192388186815
 73
     0
 72
     2
 10
114.7223385415604
 20
776.9415911994108
 40
0.7487023016407311
 50
71.55192388192005
 51
113.3722778881791
 73
     0
 72
     2
 10
114.5930492583347
 20
776.6424242417992
 40
0.422793438178531
 50
113.3722778881549
 51
151.4785267423244
 73
     0
 72
     2
 10
114.9049147608814
 20
776.8119047619136
 40
0.7777353184587474
 50
151.4785267423392
 51
208.5214732576387
 73
     0
 72
     2
 10
114.5930492583347
 20
776.9813852820286
 40
0.4227934381771933
 50
208.5214732575808
 51
250.6628567805165
 73
     0
 72
     2
 10
114.7142641328006
 20
776.6359679428691
 40
0.7888619891124335
 50
250.6628567805682
 51
270.0
 73
     0
 72
     1
 10
114.7142641328006
 20
777.4248299319815
 11
115.626362727485
 21
777.4248299319815
 72
     1
 10
115.626362727485
 20
777.4248299319815
 11
115.626362727485
 21
775.5500000000085
 72
     1
 10
115.626362727485
 20
775.5500000000085
 11
116.6121418201855
 21
775.5500000000085
 72
     1
 10
116.6121418201855
 20
775.5500000000085
 11
116.6121418201855
 21
777.4248299319815
 72
     1
 10
116.6121418201855
 20
777.4248299319815
 11
117.2824716032214
 21
777.4248299319815
 72
     1
 10
117.2824716032214
 20
777.4248299319815
 11
117.2824716032214
 21
778.0738095238194
 72
     1
 10
117.2824716032214
 20
778.0738095238194
 11
114.4849959679911
 21
778.0738095238188
 97
       18
330
1F1
330
1F0
330
1EF
330
1EE
330
1F3
330
18D
330
2FA
330
2DB
330
2F9
330
2DC
330
2F8
330
2F7
330
18E
330
2F6
330
2F5
330
2DD
330
2DE
330
1F2
 75
     1
 76
     0
 52
45.0
 41
0.1
 77
     0
 78
     1
 53
45.0
 43
0.0
 44
0.0
 45
-0.0707106781186548
 46
0.0707106781186548
 79
     0
 98
        1
 10
0.0
 20
0.0
  0
HATCH
  5
36D
330
74
100
AcDbEntity
  8
1
  6
Continuous
 62
     2
100
AcDbHatch
 10
0.0
 20
0.0
 30
0.0
210
0.0
220
0.0
230
1.0
  2
_USER
 70
     0
 71
     1
 91
        1
 92
        1
 93
       18
 72
     2
 10
114.4849959679911
 20
776.7186895866782
 40
1.355119937140557
 50
90.0
 51
164.9381082228991
 73
     1
 72
     2
 10
114.1386093205021
 20
776.8119047619136
 40
0.9964100565230691
 50
164.9381082229044
 51
195.0618917770956
 73
     1
 72
     2
 10
114.4849959679911
 20
776.905119937149
 40
1.355119937140866
 50
195.0618917771009
 51
275.1581447696782
 73
     1
 72
     2
 10
114.2462719227548
 20
779.549657609233
 40
4.01041063099074
 50
275.1581447696381
 51
285.9799912583394
 73
     1
 72
     1
 10
115.350344581529
 20
775.6942176870831
 11
115.350344581529
 21
776.4153061224577
 72
     2
 10
114.3767453732448
 20
777.9775794440692
 40
1.840813230556049
 50
58.06909105006356
 51
71.55192388186815
 73
     0
 72
     2
 10
114.7223385415604
 20
776.9415911994108
 40
0.7487023016407311
 50
71.55192388192005
 51
113.3722778881791
 73
     0
 72
     2
 10
114.5930492583347
 20
776.6424242417992
 40
0.422793438178531
 50
113.3722778881549
 51
151.4785267423244
 73
     0
 72
     2
 10
114.9049147608814
 20
776.8119047619136
 40
0.7777353184587474
 50
151.4785267423392
 51
208.5214732576387
 73
     0
 72
     2
 10
114.5930492583347
 20
776.9813852820286
 40
0.4227934381771933
 50
208.5214732575808
 51
250.6628567805165
 73
     0
 72
     2
 10
114.7142641328006
 20
776.6359679428691
 40
0.7888619891124335
 50
250.6628567805682
 51
270.0
 73
     0
 72
     1
 10
114.7142641328006
 20
777.4248299319815
 11
115.626362727485
 21
777.4248299319815
 72
     1
 10
115.626362727485
 20
777.4248299319815
 11
115.626362727485
 21
775.5500000000085
 72
     1
 10
115.626362727485
 20
775.5500000000085
 11
116.6121418201855
 21
775.5500000000085
 72
     1
 10
116.6121418201855
 20
775.5500000000085
 11
116.6121418201855
 21
777.4248299319815
 72
     1
 10
116.6121418201855
 20
777.4248299319815
 11
117.2824716032214
 21
777.4248299319815
 72
     1
 10
117.2824716032214
 20
777.4248299319815
 11
117.2824716032214
 21
778.0738095238194
 72
     1
 10
117.2824716032214
 20
778.0738095238194
 11
114.4849959679911
 21
778.0738095238188
 97
       18
330
1F1
330
1F0
330
1EF
330
1EE
330
1F3
330
18D
330
2FA
330
2DB
330
2F9
330
2DC
330
2F8
330
2F7
330
18E
330
2F6
330
2F5
330
2DD
330
2DE
330
1F2
 75
     1
 76
     0
 52
45.0
 41
0.1
 77
     0
 78
     1
 53
45.0
 43
0.0
 44
0.0
 45
-0.0707106781186548
 46
0.0707106781186548
 79
     0
 98
        1
 10
0.0
 20
0.0
  0
HATCH
  5
36E
330
74
100
AcDbEntity
  8
1
  6
Continuous
 62
     2
100
AcDbHatch
 10
0.0
 20
0.0
 30
0.0
210
0.0
220
0.0
230
1.0
  2
_USER
 70
     0
 71
     1
 91
        4
 92
        1
 93
        8
 72
     2
 10
94.56585621865798
 20
780.4993846153667
 40
0.3506153846147981
 50
90.0
 51
180.0
 73
     1
 72
     1
 10
94.2152408340441
 20
780.4993846153667
 11
94.2152408340441
 21
775.9006153846227
 72
     2
 10
94.56585621865798
 20
775.9006153846227
 40
0.3506153846138886
 50
180.0
 51
270.0
 73
     1
 72
     1
 10
94.56585621865798
 20
775.5500000000085
 11
99.08925464073803
 21
775.5500000000085
 72
     2
 10
99.08925464073803
 20
775.9006153846227
 40
0.3506153846142297
 50
270.0
 51
360.0
 73
     1
 72
     1
 10
99.43987002535283
 20
775.9006153846227
 11
99.43987002535283
 21
780.4993846153667
 72
     2
 10
99.08925464073803
 20
780.4993846153667
 40
0.3506153846147981
 50
0.0
 51
90.0
 73
     1
 72
     1
 10
99.08925464073803
 20
780.8499999999815
 11
94.56585621865798
 21
780.8499999999815
 97
        8
330
2EE
330
1BC
330
2ED
330
1BD
330
2E4
330
1BA
330
2EF
330
1BB
 92
       16
 93
        1
 72
     2
 10
96.73080303726755
 20
778.5829530216845
 40
0.3892387874202541
 50
0.0
 51
360.0
 73
     1
 97
        1
330
302
 92
       16
 93
        8
 72
     2
 10
96.75048486757561
 20
778.5829530216845
 40
0.7535935125160714
 50
295.3740086781789
 51
424.6259913218062
 73
     1
 72
     2
 10
97.18523089905324
 20
779.4995989720711
 40
0.2609230769229498
 50
115.3740086783571
 51
180.0
 73
     0
 72
     1
 10
96.92430782213029
 20
779.4995989720711
 11
96.92430782213029
 21
780.0000413592668
 72
     2
 10
97.18523089905324
 20
780.0000413592668
 40
0.2609230769223541
 50
180.0
 51
269.8110329574464
 73
     0
 72
     2
 10
97.1898723331937
 20
778.5927397497056
 40
1.668232340440729
 50
269.8110329575862
 51
450.1889670424138
 73
     0
 72
     2
 10
97.18523089905324
 20
777.1854381401445
 40
0.2609230769229498
 50
90.18896704255349
 51
180.0
 73
     0
 72
     1
 10
96.92430782213029
 20
777.1854381401445
 11
96.92430782213029
 21
777.6663070712974
 72
     2
 10
97.18523089905324
 20
777.6663070712974
 40
0.2609230769227501
 50
180.0
 51
244.6259913216429
 73
     0
 97
        8
330
2FC
330
2D8
330
1F5
330
2FB
330
2D9
330
2DA
330
1F4
330
2D7
 92
       16
 93
       12
 72
     1
 10
95.05667826555595
 20
776.1388888888985
 11
96.27637517548118
 21
776.1388888888985
 72
     2
 10
96.27637517548118
 20
776.3998119658214
 40
0.2609230769229498
 50
270.0
 51
360.0
 73
     1
 72
     1
 10
96.53729825240401
 20
776.3998119658214
 11
96.53729825240401
 21
777.6649119092359
 72
     2
 10
96.27637517548118
 20
777.6649119092359
 40
0.2609230769228361
 50
0.0
 51
64.80558935144659
 73
     1
 72
     2
 10
96.70826314868367
 20
778.5829530216845
 40
0.7536343169897431
 50
115.1944106485096
 51
244.8055893514756
 73
     0
 72
     2
 10
96.27637517548118
 20
779.5009941341326
 40
0.2609230769224708
 50
295.1944106485534
 51
360.0
 73
     1
 72
     1
 10
96.53729825240401
 20
779.5009941341326
 11
96.53729825240401
 21
780.0001880341827
 72
     2
 10
96.27637517548118
 20
780.0001880341827
 40
0.2609230769228361
 50
0.0
 51
90.0
 73
     1
 72
     1
 10
96.27637517548118
 20
780.261111111105
 11
95.05667826555595
 21
780.261111111105
 72
     2
 10
95.05667826555595
 20
780.0001880341827
 40
0.2609230769223814
 50
90.0
 51
180.0
 73
     1
 72
     1
 10
94.7957551886339
 20
780.0001880341827
 11
94.7957551886339
 21
776.3998119658214
 72
     2
 10
95.05667826555595
 20
776.3998119658214
 40
0.2609230769220403
 50
180.0
 51
270.0
 73
     1
 97
       12
330
1C1
330
2E1
330
1C0
330
2F2
330
1BF
330
2F1
330
2E2
330
2E3
330
1BE
330
2F0
330
1B9
330
2F3
 75
     1
 76
     0
 52
45.0
 41
0.1
 77
     0
 78
     1
 53
45.0
 43
0.0
 44
0.0
 45
-0.0707106781186548
 46
0.0707106781186548
 79
     0
 98
        1
 10
0.0
 20
0.0
  0
HATCH
  5
36F
330
74
100
AcDbEntity
  8
1
  6
Continuous
 62
     2
100
AcDbHatch
 10
0.0
 20
0.0
 30
0.0
210
0.0
220
0.0
230
1.0
  2
_USER
 70
     0
 71
     1
 91
        4
 92
        1
 93
        8
 72
     2
 10
94.56585621865798
 20
780.4993846153667
 40
0.3506153846147981
 50
90.0
 51
180.0
 73
     1
 72
     1
 10
94.2152408340441
 20
780.4993846153667
 11
94.2152408340441
 21
775.9006153846227
 72
     2
 10
94.56585621865798
 20
775.9006153846227
 40
0.3506153846138886
 50
180.0
 51
270.0
 73
     1
 72
     1
 10
94.56585621865798
 20
775.5500000000085
 11
99.08925464073803
 21
775.5500000000085
 72
     2
 10
99.08925464073803
 20
775.9006153846227
 40
0.3506153846142297
 50
270.0
 51
360.0
 73
     1
 72
     1
 10
99.43987002535283
 20
775.9006153846227
 11
99.43987002535283
 21
780.4993846153667
 72
     2
 10
99.08925464073803
 20
780.4993846153667
 40
0.3506153846147981
 50
0.0
 51
90.0
 73
     1
 72
     1
 10
99.08925464073803
 20
780.8499999999815
 11
94.56585621865798
 21
780.8499999999815
 97
        8
330
2EE
330
1BC
330
2ED
330
1BD
330
2E4
330
1BA
330
2EF
330
1BB
 92
       16
 93
        1
 72
     2
 10
96.73080303726755
 20
778.5829530216845
 40
0.3892387874202541
 50
0.0
 51
360.0
 73
     1
 97
        1
330
302
 92
       16
 93
        8
 72
     2
 10
96.75048486757561
 20
778.5829530216845
 40
0.7535935125160714
 50
295.3740086781789
 51
424.6259913218062
 73
     1
 72
     2
 10
97.18523089905324
 20
779.4995989720711
 40
0.2609230769229498
 50
115.3740086783571
 51
180.0
 73
     0
 72
     1
 10
96.92430782213029
 20
779.4995989720711
 11
96.92430782213029
 21
780.0000413592668
 72
     2
 10
97.18523089905324
 20
780.0000413592668
 40
0.2609230769223541
 50
180.0
 51
269.8110329574464
 73
     0
 72
     2
 10
97.1898723331937
 20
778.5927397497056
 40
1.668232340440729
 50
269.8110329575862
 51
450.1889670424138
 73
     0
 72
     2
 10
97.18523089905324
 20
777.1854381401445
 40
0.2609230769229498
 50
90.18896704255349
 51
180.0
 73
     0
 72
     1
 10
96.92430782213029
 20
777.1854381401445
 11
96.92430782213029
 21
777.6663070712974
 72
     2
 10
97.18523089905324
 20
777.6663070712974
 40
0.2609230769227501
 50
180.0
 51
244.6259913216429
 73
     0
 97
        8
330
2FC
330
2D8
330
1F5
330
2FB
330
2D9
330
2DA
330
1F4
330
2D7
 92
       16
 93
       12
 72
     1
 10
95.05667826555595
 20
776.1388888888985
 11
96.27637517548118
 21
776.1388888888985
 72
     2
 10
96.27637517548118
 20
776.3998119658214
 40
0.2609230769229498
 50
270.0
 51
360.0
 73
     1
 72
     1
 10
96.53729825240401
 20
776.3998119658214
 11
96.53729825240401
 21
777.6649119092359
 72
     2
 10
96.27637517548118
 20
777.6649119092359
 40
0.2609230769228361
 50
0.0
 51
64.80558935144659
 73
     1
 72
     2
 10
96.70826314868367
 20
778.5829530216845
 40
0.7536343169897431
 50
115.1944106485096
 51
244.8055893514756
 73
     0
 72
     2
 10
96.27637517548118
 20
779.5009941341326
 40
0.2609230769224708
 50
295.1944106485534
 51
360.0
 73
     1
 72
     1
 10
96.53729825240401
 20
779.5009941341326
 11
96.53729825240401
 21
780.0001880341827
 72
     2
 10
96.27637517548118
 20
780.0001880341827
 40
0.2609230769228361
 50
0.0
 51
90.0
 73
     1
 72
     1
 10
96.27637517548118
 20
780.261111111105
 11
95.05667826555595
 21
780.261111111105
 72
     2
 10
95.05667826555595
 20
780.0001880341827
 40
0.2609230769223814
 50
90.0
 51
180.0
 73
     1
 72
     1
 10
94.7957551886339
 20
780.0001880341827
 11
94.7957551886339
 21
776.3998119658214
 72
     2
 10
95.05667826555595
 20
776.3998119658214
 40
0.2609230769220403
 50
180.0
 51
270.0
 73
     1
 97
       12
330
1C1
330
2E1
330
1C0
330
2F2
330
1BF
330
2F1
330
2E2
330
2E3
330
1BE
330
2F0
330
1B9
330
2F3
 75
     1
 76
     0
 52
45.0
 41
0.1
 77
     0
 78
     1
 53
45.0
 43
0.0
 44
0.0
 45
-0.0707106781186548
 46
0.0707106781186548
 79
     0
 98
        1
 10
0.0
 20
0.0
  0
HATCH
  5
370
330
74
100
AcDbEntity
  8
1
  6
Continuous
 62
     2
100
AcDbHatch
 10
0.0
 20
0.0
 30
0.0
210
0.0
220
0.0
230
1.0
  2
_USER
 70
     0
 71
     1
 91
        2
 92
        1
 93
       12
 72
     2
 10
106.6940909326988
 20
779.5880952380908
 40
1.261904761905726
 50
90.0
 51
270.0
 73
     1
 72
     1
 10
106.6940909326988
 20
778.3261904761856
 11
109.2976609523525
 21
778.3261904761856
 72
     1
 10
109.2976609523525
 20
778.3261904761856
 11
109.2976609523525
 21
778.9030612244851
 72
     1
 10
109.2976609523525
 20
778.9030612244851
 11
108.193588368528
 21
778.9030612244851
 72
     1
 10
108.193588368528
 20
778.9030612244851
 11
108.193588368528
 21
779.2996598639411
 72
     1
 10
108.193588368528
 20
779.2996598639411
 11
109.2976609523525
 21
779.2996598639411
 72
     1
 10
109.2976609523525
 20
779.2996598639411
 11
109.2976609523525
 21
779.8765306122406
 72
     1
 10
109.2976609523525
 20
779.8765306122406
 11
108.193588368528
 21
779.8765306122406
 72
     1
 10
108.193588368528
 20
779.8765306122406
 11
108.193588368528
 21
780.2731292516966
 72
     1
 10
108.193588368528
 20
780.2731292516966
 11
109.2976609523525
 21
780.2731292516966
 72
     1
 10
109.2976609523525
 20
780.2731292516966
 11
109.2976609523525
 21
780.8499999999965
 72
     1
 10
109.2976609523525
 20
780.8499999999965
 11
106.6940909326988
 21
780.8499999999965
 97
       12
330
1B0
330
1AA
330
1D1
330
1D0
330
1CF
330
1CE
330
1AB
330
1AC
330
1AD
330
1AE
330
2DF
330
1AF
 92
       16
 93
        4
 72
     2
 10
107.0379025413859
 20
779.5880952380908
 40
0.6378510567600058
 50
141.8795802028323
 51
218.1204197971596
 73
     1
 72
     2
 10
106.8728281311824
 20
779.4585653388177
 40
0.4280236140606521
 50
218.1204197971547
 51
321.8795802028536
 73
     1
 72
     2
 10
106.7077537209789
 20
779.5880952380908
 40
0.6378510567600139
 50
321.8795802028459
 51
398.1204197971622
 73
     1
 72
     2
 10
106.8728281311824
 20
779.7176251373639
 40
0.4280236140607304
 50
38.12041979714642
 51
141.8795802028454
 73
     1
 97
        4
330
2EC
330
2EB
330
2E6
330
2E5
 75
     1
 76
     0
 52
45.0
 41
0.1
 77
     0
 78
     1
 53
45.0
 43
0.0
 44
0.0
 45
-0.0707106781186548
 46
0.0707106781186548
 79
     0
 98
        1
 10
0.0
 20
0.0
  0
HATCH
  5
371
330
74
100
AcDbEntity
  8
1
  6
Continuous
 62
     2
100
AcDbHatch
 10
0.0
 20
0.0
 30
0.0
210
0.0
220
0.0
230
1.0
  2
_USER
 70
     0
 71
     1
 91
        2
 92
        1
 93
       12
 72
     2
 10
106.6940909326988
 20
779.5880952380908
 40
1.261904761905726
 50
90.0
 51
270.0
 73
     1
 72
     1
 10
106.6940909326988
 20
778.3261904761856
 11
109.2976609523525
 21
778.3261904761856
 72
     1
 10
109.2976609523525
 20
778.3261904761856
 11
109.2976609523525
 21
778.9030612244851
 72
     1
 10
109.2976609523525
 20
778.9030612244851
 11
108.193588368528
 21
778.9030612244851
 72
     1
 10
108.193588368528
 20
778.9030612244851
 11
108.193588368528
 21
779.2996598639411
 72
     1
 10
108.193588368528
 20
779.2996598639411
 11
109.2976609523525
 21
779.2996598639411
 72
     1
 10
109.2976609523525
 20
779.2996598639411
 11
109.2976609523525
 21
779.8765306122406
 72
     1
 10
109.2976609523525
 20
779.8765306122406
 11
108.193588368528
 21
779.8765306122406
 72
     1
 10
108.193588368528
 20
779.8765306122406
 11
108.193588368528
 21
780.2731292516966
 72
     1
 10
108.193588368528
 20
780.2731292516966
 11
109.2976609523525
 21
780.2731292516966
 72
     1
 10
109.2976609523525
 20
780.2731292516966
 11
109.2976609523525
 21
780.8499999999965
 72
     1
 10
109.2976609523525
 20
780.8499999999965
 11
106.6940909326988
 21
780.8499999999965
 97
       12
330
1B0
330
1AA
330
1D1
330
1D0
330
1CF
330
1CE
330
1AB
330
1AC
330
1AD
330
1AE
330
2DF
330
1AF
 92
       16
 93
        4
 72
     2
 10
107.0379025413859
 20
779.5880952380908
 40
0.6378510567600058
 50
141.8795802028323
 51
218.1204197971596
 73
     1
 72
     2
 10
106.8728281311824
 20
779.4585653388177
 40
0.4280236140606521
 50
218.1204197971547
 51
321.8795802028536
 73
     1
 72
     2
 10
106.7077537209789
 20
779.5880952380908
 40
0.6378510567600139
 50
321.8795802028459
 51
398.1204197971622
 73
     1
 72
     2
 10
106.8728281311824
 20
779.7176251373639
 40
0.4280236140607304
 50
38.12041979714642
 51
141.8795802028454
 73
     1
 97
        4
330
2EC
330
2EB
330
2E6
330
2E5
 75
     1
 76
     0
 52
45.0
 41
0.1
 77
     0
 78
     1
 53
45.0
 43
0.0
 44
0.0
 45
-0.0707106781186548
 46
0.0707106781186548
 79
     0
 98
        1
 10
0.0
 20
0.0
  0
HATCH
  5
372
330
74
100
AcDbEntity
  8
1
  6
Continuous
 62
     2
100
AcDbHatch
 10
0.0
 20
0.0
 30
0.0
210
0.0
220
0.0
230
1.0
  2
_USER
 70
     0
 71
     1
 91
        2
 92
        1
 93
        4
 72
     2
 10
103.3671360876892
 20
776.8119047619136
 40
1.204986845993017
 50
117.5481481756622
 51
242.4518518243378
 73
     1
 72
     2
 10
103.599317816477
 20
777.2570080762139
 40
1.707008076205393
 50
242.4518518243419
 51
297.5481481756881
 73
     1
 72
     2
 10
103.8314995452649
 20
776.8119047619136
 40
1.204986845993431
 50
297.5481481756999
 51
422.4518518243001
 73
     1
 72
     2
 10
103.599317816477
 20
776.3668014476139
 40
1.707008076205456
 50
62.45185182430483
 51
117.5481481756651
 73
     1
 97
        4
330
2EA
330
2E7
330
2E9
330
2E8
 92
       16
 93
        4
 72
     2
 10
103.599317816477
 20
776.9414346611868
 40
0.4280236140606521
 50
38.12041979715464
 51
141.8795802028454
 73
     1
 72
     2
 10
103.7643922266804
 20
776.8119047619136
 40
0.6378510567599276
 50
141.8795802028268
 51
218.1204197971651
 73
     1
 72
     2
 10
103.599317816477
 20
776.682374862641
 40
0.4280236140609328
 50
218.1204197972025
 51
321.8795802027975
 73
     1
 72
     2
 10
103.4342434062734
 20
776.8119047619136
 40
0.6378510567600139
 50
321.8795802028459
 51
398.1204197971622
 73
     1
 97
        4
330
2CD
330
2CE
330
2CF
330
2CC
 75
     1
 76
     0
 52
45.0
 41
0.1
 77
     0
 78
     1
 53
45.0
 43
0.0
 44
0.0
 45
-0.0707106781186548
 46
0.0707106781186548
 79
     0
 98
        1
 10
0.0
 20
0.0
  0
HATCH
  5
373
330
74
100
AcDbEntity
  8
1
  6
Continuous
 62
     2
100
AcDbHatch
 10
0.0
 20
0.0
 30
0.0
210
0.0
220
0.0
230
1.0
  2
_USER
 70
     0
 71
     1
 91
        2
 92
        1
 93
        4
 72
     2
 10
103.3671360876892
 20
776.8119047619136
 40
1.204986845993017
 50
117.5481481756622
 51
242.4518518243378
 73
     1
 72
     2
 10
103.599317816477
 20
777.2570080762139
 40
1.707008076205393
 50
242.4518518243419
 51
297.5481481756881
 73
     1
 72
     2
 10
103.8314995452649
 20
776.8119047619136
 40
1.204986845993431
 50
297.5481481756999
 51
422.4518518243001
 73
     1
 72
     2
 10
103.599317816477
 20
776.3668014476139
 40
1.707008076205456
 50
62.45185182430483
 51
117.5481481756651
 73
     1
 97
        4
330
2EA
330
2E7
330
2E9
330
2E8
 92
       16
 93
        4
 72
     2
 10
103.599317816477
 20
776.9414346611868
 40
0.4280236140606521
 50
38.12041979715464
 51
141.8795802028454
 73
     1
 72
     2
 10
103.7643922266804
 20
776.8119047619136
 40
0.6378510567599276
 50
141.8795802028268
 51
218.1204197971651
 73
     1
 72
     2
 10
103.599317816477
 20
776.682374862641
 40
0.4280236140609328
 50
218.1204197972025
 51
321.8795802027975
 73
     1
 72
     2
 10
103.4342434062734
 20
776.8119047619136
 40
0.6378510567600139
 50
321.8795802028459
 51
398.1204197971622
 73
     1
 97
        4
330
2CD
330
2CE
330
2CF
330
2CC
 75
     1
 76
     0
 52
45.0
 41
0.1
 77
     0
 78
     1
 53
45.0
 43
0.0
 44
0.0
 45
-0.0707106781186548
 46
0.0707106781186548
 79
     0
 98
        1
 10
0.0
 20
0.0
  0
HATCH
  5
374
330
74
100
AcDbEntity
  8
1
  6
Continuous
 62
     2
100
AcDbHatch
 10
0.0
 20
0.0
 30
0.0
210
0.0
220
0.0
230
1.0
  2
_USER
 70
     0
 71
     1
 91
        2
 92
        1
 93
        6
 72
     1
 10
99.83418166243285
 20
780.8499999999965
 11
99.83418166243285
 21
778.3261904761856
 72
     1
 10
99.83418166243285
 20
778.3261904761856
 11
100.8593919188411
 21
778.3261904761856
 72
     1
 10
100.8593919188411
 20
778.3261904761856
 11
100.8593919188411
 21
779.105593981263
 72
     1
 10
100.8593919188411
 20
779.105593981263
 11
101.4864725698993
 21
779.105593981263
 72
     2
 10
101.4864725698993
 20
779.9777969906297
 40
0.8722030093666717
 50
270.0
 51
450.0
 73
     1
 72
     1
 10
101.4864725698993
 20
780.8499999999965
 11
99.83418166243285
 21
780.8499999999965
 97
        6
330
2F4
330
1C2
330
1B8
330
1B7
330
1C4
330
1C3
 92
       16
 93
        4
 72
     1
 10
101.1216192424295
 20
780.3019786401286
 11
100.8593919188411
 21
780.3019786401286
 72
     1
 10
100.8593919188411
 20
780.3019786401286
 11
100.8593919188411
 21
779.7187326489367
 72
     1
 10
100.8593919188411
 20
779.7187326489367
 11
101.1216192424295
 21
779.7187326489367
 72
     2
 10
101.1216192424295
 20
780.0103556445326
 40
0.2916229955959579
 50
270.0
 51
450.0
 73
     1
 97
        4
330
1C5
330
1B6
330
1C6
330
2E0
 75
     1
 76
     0
 52
45.0
 41
0.1
 77
     0
 78
     1
 53
45.0
 43
0.0
 44
0.0
 45
-0.0707106781186548
 46
0.0707106781186548
 79
     0
 98
        1
 10
0.0
 20
0.0
  0
HATCH
  5
375
330
74
100
AcDbEntity
  8
1
  6
Continuous
 62
     2
100
AcDbHatch
 10
0.0
 20
0.0
 30
0.0
210
0.0
220
0.0
230
1.0
  2
_USER
 70
     0
 71
     1
 91
        2
 92
        1
 93
        6
 72
     1
 10
99.83418166243285
 20
780.8499999999965
 11
99.83418166243285
 21
778.3261904761856
 72
     1
 10
99.83418166243285
 20
778.3261904761856
 11
100.8593919188411
 21
778.3261904761856
 72
     1
 10
100.8593919188411
 20
778.3261904761856
 11
100.8593919188411
 21
779.105593981263
 72
     1
 10
100.8593919188411
 20
779.105593981263
 11
101.4864725698993
 21
779.105593981263
 72
     2
 10
101.4864725698993
 20
779.9777969906297
 40
0.8722030093666717
 50
270.0
 51
450.0
 73
     1
 72
     1
 10
101.4864725698993
 20
780.8499999999965
 11
99.83418166243285
 21
780.8499999999965
 97
        6
330
2F4
330
1C2
330
1B8
330
1B7
330
1C4
330
1C3
 92
       16
 93
        4
 72
     1
 10
101.1216192424295
 20
780.3019786401286
 11
100.8593919188411
 21
780.3019786401286
 72
     1
 10
100.8593919188411
 20
780.3019786401286
 11
100.8593919188411
 21
779.7187326489367
 72
     1
 10
100.8593919188411
 20
779.7187326489367
 11
101.1216192424295
 21
779.7187326489367
 72
     2
 10
101.1216192424295
 20
780.0103556445326
 40
0.2916229955959579
 50
270.0
 51
450.0
 73
     1
 97
        4
330
1C5
330
1B6
330
1C6
330
2E0
 75
     1
 76
     0
 52
45.0
 41
0.1
 77
     0
 78
     1
 53
45.0
 43
0.0
 44
0.0
 45
-0.0707106781186548
 46
0.0707106781186548
 79
     0
 98
        1
 10
0.0
 20
0.0
  0
HATCH
  5
376
330
74
100
AcDbEntity
  8
1
  6
Continuous
 62
     2
100
AcDbHatch
 10
0.0
 20
0.0
 30
0.0
210
0.0
220
0.0
230
1.0
  2
_USER
 70
     0
 71
     1
 91
        1
 92
        1
 93
       12
 72
     1
 10
116.0443330627908
 20
780.8499999999965
 11
117.203609275805
 21
780.8499999999965
 72
     1
 10
117.203609275805
 20
780.8499999999965
 11
116.1271385065765
 21
779.6326855123632
 72
     1
 10
116.1271385065765
 20
779.6326855123632
 11
117.2824716032214
 21
778.3261904761856
 72
     1
 10
117.2824716032214
 20
778.3261904761856
 11
116.1231953902063
 21
778.3261904761856
 72
     1
 10
116.1231953902063
 20
778.3261904761856
 11
115.5475004000695
 21
778.9772084805605
 72
     1
 10
115.5475004000695
 20
778.9772084805605
 11
114.9718054099325
 21
778.3261904761856
 72
     1
 10
114.9718054099325
 20
778.3261904761856
 11
113.8125291969175
 21
778.3261904761856
 72
     1
 10
113.8125291969175
 20
778.3261904761856
 11
114.9678622935624
 21
779.6326855123632
 72
     1
 10
114.9678622935624
 20
779.6326855123632
 11
113.8913915243331
 21
780.8499999999965
 72
     1
 10
113.8913915243331
 20
780.8499999999965
 11
115.050667737349
 21
780.8499999999965
 72
     1
 10
115.050667737349
 20
780.8499999999965
 11
115.5475004000695
 21
780.2881625441655
 72
     1
 10
115.5475004000695
 20
780.2881625441655
 11
116.0443330627908
 21
780.8499999999965
 97
       12
330
191
330
1EA
330
1E9
330
1E8
330
1E7
330
192
330
193
330
18F
330
190
330
1ED
330
1EC
330
1EB
 75
     1
 76
     0
 52
45.0
 41
0.1
 77
     0
 78
     1
 53
45.0
 43
0.0
 44
0.0
 45
-0.0707106781186548
 46
0.0707106781186548
 79
     0
 98
        1
 10
0.0
 20
0.0
  0
HATCH
  5
377
330
74
100
AcDbEntity
  8
1
  6
Continuous
 62
     2
100
AcDbHatch
 10
0.0
 20
0.0
 30
0.0
210
0.0
220
0.0
230
1.0
  2
_USER
 70
     0
 71
     1
 91
        1
 92
        1
 93
       12
 72
     1
 10
116.0443330627908
 20
780.8499999999965
 11
117.203609275805
 21
780.8499999999965
 72
     1
 10
117.203609275805
 20
780.8499999999965
 11
116.1271385065765
 21
779.6326855123632
 72
     1
 10
116.1271385065765
 20
779.6326855123632
 11
117.2824716032214
 21
778.3261904761856
 72
     1
 10
117.2824716032214
 20
778.3261904761856
 11
116.1231953902063
 21
778.3261904761856
 72
     1
 10
116.1231953902063
 20
778.3261904761856
 11
115.5475004000695
 21
778.9772084805605
 72
     1
 10
115.5475004000695
 20
778.9772084805605
 11
114.9718054099325
 21
778.3261904761856
 72
     1
 10
114.9718054099325
 20
778.3261904761856
 11
113.8125291969175
 21
778.3261904761856
 72
     1
 10
113.8125291969175
 20
778.3261904761856
 11
114.9678622935624
 21
779.6326855123632
 72
     1
 10
114.9678622935624
 20
779.6326855123632
 11
113.8913915243331
 21
780.8499999999965
 72
     1
 10
113.8913915243331
 20
780.8499999999965
 11
115.050667737349
 21
780.8499999999965
 72
     1
 10
115.050667737349
 20
780.8499999999965
 11
115.5475004000695
 21
780.2881625441655
 72
     1
 10
115.5475004000695
 20
780.2881625441655
 11
116.0443330627908
 21
780.8499999999965
 97
       12
330
191
330
1EA
330
1E9
330
1E8
330
1E7
330
192
330
193
330
18F
330
190
330
1ED
330
1EC
330
1EB
 75
     1
 76
     0
 52
45.0
 41
0.1
 77
     0
 78
     1
 53
45.0
 43
0.0
 44
0.0
 45
-0.0707106781186548
 46
0.0707106781186548
 79
     0
 98
        1
 10
0.0
 20
0.0
  0
HATCH
  5
378
330
74
100
AcDbEntity
  8
1
  6
Continuous
 62
     2
100
AcDbHatch
 10
0.0
 20
0.0
 30
0.0
210
0.0
220
0.0
230
1.0
  2
_USER
 70
     0
 71
     1
 91
        1
 92
        1
 93
        4
 72
     1
 10
113.7139512876474
 20
780.8499999999965
 11
113.7139512876474
 21
778.3261904761856
 72
     1
 10
113.7139512876474
 20
778.3261904761856
 11
112.68874103124
 21
778.3261904761856
 72
     1
 10
112.68874103124
 20
778.3261904761856
 11
112.68874103124
 21
780.8499999999965
 72
     1
 10
112.68874103124
 20
780.8499999999965
 11
113.7139512876474
 21
780.8499999999965
 97
        4
330
1E5
330
194
330
1E4
330
1E6
 75
     1
 76
     0
 52
45.0
 41
0.1
 77
     0
 78
     1
 53
45.0
 43
0.0
 44
0.0
 45
-0.0707106781186548
 46
0.0707106781186548
 79
     0
 98
        1
 10
0.0
 20
0.0
  0
HATCH
  5
379
330
74
100
AcDbEntity
  8
1
  6
Continuous
 62
     2
100
AcDbHatch
 10
0.0
 20
0.0
 30
0.0
210
0.0
220
0.0
230
1.0
  2
_USER
 70
     0
 71
     1
 91
        1
 92
        1
 93
        4
 72
     1
 10
113.7139512876474
 20
780.8499999999965
 11
113.7139512876474
 21
778.3261904761856
 72
     1
 10
113.7139512876474
 20
778.3261904761856
 11
112.68874103124
 21
778.3261904761856
 72
     1
 10
112.68874103124
 20
778.3261904761856
 11
112.68874103124
 21
780.8499999999965
 72
     1
 10
112.68874103124
 20
780.8499999999965
 11
113.7139512876474
 21
780.8499999999965
 97
        4
330
1E5
330
194
330
1E4
330
1E6
 75
     1
 76
     0
 52
45.0
 41
0.1
 77
     0
 78
     1
 53
45.0
 43
0.0
 44
0.0
 45
-0.0707106781186548
 46
0.0707106781186548
 79
     0
 98
        1
 10
0.0
 20
0.0
  0
HATCH
  5
37A
330
74
100
AcDbEntity
  8
1
  6
Continuous
 62
     2
100
AcDbHatch
 10
0.0
 20
0.0
 30
0.0
210
0.0
220
0.0
230
1.0
  2
_USER
 70
     0
 71
     1
 91
        2
 92
        1
 93
        8
 72
     1
 10
113.3912702929928
 20
775.5500000000085
 11
112.3660600365847
 21
775.5500000000085
 72
     1
 10
112.3660600365847
 20
775.5500000000085
 11
112.1912831328856
 21
775.9970748299406
 72
     1
 10
112.1912831328856
 20
775.9970748299406
 11
111.2553810034031
 21
775.9970748299406
 72
     1
 10
111.2553810034031
 20
775.9970748299406
 11
111.0806040997041
 21
775.5500000000085
 72
     1
 10
111.0806040997041
 20
775.5500000000085
 11
110.0553938432967
 21
775.5500000000085
 72
     1
 10
110.0553938432967
 20
775.5500000000085
 11
111.2107269399407
 21
778.0738095238194
 72
     1
 10
111.2107269399407
 20
778.0738095238194
 11
112.235937196348
 21
778.0738095238194
 72
     1
 10
112.235937196348
 20
778.0738095238194
 11
113.3912702929928
 21
775.5500000000085
 97
        8
330
1E0
330
19A
330
1DF
330
1E2
330
197
330
1E1
330
198
330
199
 92
       16
 93
        3
 72
     1
 10
111.4752616241842
 20
776.5595238095328
 11
111.9714025121036
 21
776.5595238095328
 72
     1
 10
111.9714025121036
 20
776.5595238095328
 11
111.7233320681448
 21
777.1940816326623
 72
     1
 10
111.7233320681448
 20
777.1940816326623
 11
111.4752616241842
 21
776.5595238095328
 97
        3
330
196
330
195
330
1E3
 75
     1
 76
     0
 52
45.0
 41
0.1
 77
     0
 78
     1
 53
45.0
 43
0.0
 44
0.0
 45
-0.0707106781186548
 46
0.0707106781186548
 79
     0
 98
        1
 10
0.0
 20
0.0
  0
HATCH
  5
37B
330
74
100
AcDbEntity
  8
1
  6
Continuous
 62
     2
100
AcDbHatch
 10
0.0
 20
0.0
 30
0.0
210
0.0
220
0.0
230
1.0
  2
_USER
 70
     0
 71
     1
 91
        2
 92
        1
 93
        8
 72
     1
 10
113.3912702929928
 20
775.5500000000085
 11
112.3660600365847
 21
775.5500000000085
 72
     1
 10
112.3660600365847
 20
775.5500000000085
 11
112.1912831328856
 21
775.9970748299406
 72
     1
 10
112.1912831328856
 20
775.9970748299406
 11
111.2553810034031
 21
775.9970748299406
 72
     1
 10
111.2553810034031
 20
775.9970748299406
 11
111.0806040997041
 21
775.5500000000085
 72
     1
 10
111.0806040997041
 20
775.5500000000085
 11
110.0553938432967
 21
775.5500000000085
 72
     1
 10
110.0553938432967
 20
775.5500000000085
 11
111.2107269399407
 21
778.0738095238194
 72
     1
 10
111.2107269399407
 20
778.0738095238194
 11
112.235937196348
 21
778.0738095238194
 72
     1
 10
112.235937196348
 20
778.0738095238194
 11
113.3912702929928
 21
775.5500000000085
 97
        8
330
1E0
330
19A
330
1DF
330
1E2
330
197
330
1E1
330
198
330
199
 92
       16
 93
        3
 72
     1
 10
111.4752616241842
 20
776.5595238095328
 11
111.9714025121036
 21
776.5595238095328
 72
     1
 10
111.9714025121036
 20
776.5595238095328
 11
111.7233320681448
 21
777.1940816326623
 72
     1
 10
111.7233320681448
 20
777.1940816326623
 11
111.4752616241842
 21
776.5595238095328
 97
        3
330
196
330
195
330
1E3
 75
     1
 76
     0
 52
45.0
 41
0.1
 77
     0
 78
     1
 53
45.0
 43
0.0
 44
0.0
 45
-0.0707106781186548
 46
0.0707106781186548
 79
     0
 98
        1
 10
0.0
 20
0.0
  0
HATCH
  5
37C
330
74
100
AcDbEntity
  8
1
  6
Continuous
 62
     2
100
AcDbHatch
 10
0.0
 20
0.0
 30
0.0
210
0.0
220
0.0
230
1.0
  2
_USER
 70
     0
 71
     1
 91
        1
 92
        1
 93
        8
 72
     1
 10
108.272325959675
 20
778.0738095238194
 11
108.272325959675
 21
777.4248299319815
 72
     1
 10
108.272325959675
 20
777.4248299319815
 11
108.9426557427119
 21
777.4248299319815
 72
     1
 10
108.9426557427119
 20
777.4248299319815
 11
108.9426557427119
 21
775.5500000000085
 72
     1
 10
108.9426557427119
 20
775.5500000000085
 11
109.9284348354115
 21
775.5500000000085
 72
     1
 10
109.9284348354115
 20
775.5500000000085
 11
109.9284348354115
 21
777.4248299319815
 72
     1
 10
109.9284348354115
 20
777.4248299319815
 11
110.5987646184466
 21
777.4248299319815
 72
     1
 10
110.5987646184466
 20
777.4248299319815
 11
110.5987646184466
 21
778.0738095238194
 72
     1
 10
110.5987646184466
 20
778.0738095238194
 11
108.272325959675
 21
778.0738095238194
 97
        8
330
1DC
330
1DB
330
1DA
330
19B
330
19C
330
1DE
330
19D
330
1DD
 75
     1
 76
     0
 52
45.0
 41
0.1
 77
     0
 78
     1
 53
45.0
 43
0.0
 44
0.0
 45
-0.0707106781186548
 46
0.0707106781186548
 79
     0
 98
        1
 10
0.0
 20
0.0
  0
HATCH
  5
37D
330
74
100
AcDbEntity
  8
1
  6
Continuous
 62
     2
100
AcDbHatch
 10
0.0
 20
0.0
 30
0.0
210
0.0
220
0.0
230
1.0
  2
_USER
 70
     0
 71
     1
 91
        1
 92
        1
 93
        8
 72
     1
 10
108.272325959675
 20
778.0738095238194
 11
108.272325959675
 21
777.4248299319815
 72
     1
 10
108.272325959675
 20
777.4248299319815
 11
108.9426557427119
 21
777.4248299319815
 72
     1
 10
108.9426557427119
 20
777.4248299319815
 11
108.9426557427119
 21
775.5500000000085
 72
     1
 10
108.9426557427119
 20
775.5500000000085
 11
109.9284348354115
 21
775.5500000000085
 72
     1
 10
109.9284348354115
 20
775.5500000000085
 11
109.9284348354115
 21
777.4248299319815
 72
     1
 10
109.9284348354115
 20
777.4248299319815
 11
110.5987646184466
 21
777.4248299319815
 72
     1
 10
110.5987646184466
 20
777.4248299319815
 11
110.5987646184466
 21
778.0738095238194
 72
     1
 10
110.5987646184466
 20
778.0738095238194
 11
108.272325959675
 21
778.0738095238194
 97
        8
330
1DC
330
1DB
330
1DA
330
19B
330
19C
330
1DE
330
19D
330
1DD
 75
     1
 76
     0
 52
45.0
 41
0.1
 77
     0
 78
     1
 53
45.0
 43
0.0
 44
0.0
 45
-0.0707106781186548
 46
0.0707106781186548
 79
     0
 98
        1
 10
0.0
 20
0.0
  0
HATCH
  5
37E
330
74
100
AcDbEntity
  8
1
  6
Continuous
 62
     2
100
AcDbHatch
 10
0.0
 20
0.0
 30
0.0
210
0.0
220
0.0
230
1.0
  2
_USER
 70
     0
 71
     1
 91
        1
 92
        1
 93
       10
 72
     1
 10
110.4805958635917
 20
780.8499999999965
 11
109.4948167708921
 21
780.8499999999965
 72
     1
 10
109.4948167708921
 20
780.8499999999965
 11
109.4948167708921
 21
778.3261904761856
 72
     1
 10
109.4948167708921
 20
778.3261904761856
 11
110.4805958635917
 21
778.3261904761856
 72
     1
 10
110.4805958635917
 20
778.3261904761856
 11
110.4805958635917
 21
779.4078231292473
 72
     1
 10
110.4805958635917
 20
779.4078231292473
 11
111.5058061199999
 21
778.3261904761856
 72
     1
 10
111.5058061199999
 20
778.3261904761856
 11
112.4915852126996
 21
778.3261904761856
 72
     1
 10
112.4915852126996
 20
778.3261904761856
 11
112.4915852126996
 21
780.8499999999965
 72
     1
 10
112.4915852126996
 20
780.8499999999965
 11
111.5058061199999
 21
780.8499999999965
 72
     1
 10
111.5058061199999
 20
780.8499999999965
 11
111.5058061199999
 21
779.7683673469344
 72
     1
 10
111.5058061199999
 20
779.7683673469344
 11
110.4805958635917
 21
780.8499999999965
 97
       10
330
1D6
330
1A0
330
1A1
330
1A2
330
1A3
330
1D9
330
19E
330
1D8
330
1D7
330
19F
 75
     1
 76
     0
 52
45.0
 41
0.1
 77
     0
 78
     1
 53
45.0
 43
0.0
 44
0.0
 45
-0.0707106781186548
 46
0.0707106781186548
 79
     0
 98
        1
 10
0.0
 20
0.0
  0
HATCH
  5
37F
330
74
100
AcDbEntity
  8
1
  6
Continuous
 62
     2
100
AcDbHatch
 10
0.0
 20
0.0
 30
0.0
210
0.0
220
0.0
230
1.0
  2
_USER
 70
     0
 71
     1
 91
        1
 92
        1
 93
       10
 72
     1
 10
110.4805958635917
 20
780.8499999999965
 11
109.4948167708921
 21
780.8499999999965
 72
     1
 10
109.4948167708921
 20
780.8499999999965
 11
109.4948167708921
 21
778.3261904761856
 72
     1
 10
109.4948167708921
 20
778.3261904761856
 11
110.4805958635917
 21
778.3261904761856
 72
     1
 10
110.4805958635917
 20
778.3261904761856
 11
110.4805958635917
 21
779.4078231292473
 72
     1
 10
110.4805958635917
 20
779.4078231292473
 11
111.5058061199999
 21
778.3261904761856
 72
     1
 10
111.5058061199999
 20
778.3261904761856
 11
112.4915852126996
 21
778.3261904761856
 72
     1
 10
112.4915852126996
 20
778.3261904761856
 11
112.4915852126996
 21
780.8499999999965
 72
     1
 10
112.4915852126996
 20
780.8499999999965
 11
111.5058061199999
 21
780.8499999999965
 72
     1
 10
111.5058061199999
 20
780.8499999999965
 11
111.5058061199999
 21
779.7683673469344
 72
     1
 10
111.5058061199999
 20
779.7683673469344
 11
110.4805958635917
 21
780.8499999999965
 97
       10
330
1D6
330
1A0
330
1A1
330
1A2
330
1A3
330
1D9
330
19E
330
1D8
330
1D7
330
19F
 75
     1
 76
     0
 52
45.0
 41
0.1
 77
     0
 78
     1
 53
45.0
 43
0.0
 44
0.0
 45
-0.0707106781186548
 46
0.0707106781186548
 79
     0
 98
        1
 10
0.0
 20
0.0
  0
HATCH
  5
380
330
74
100
AcDbEntity
  8
1
  6
Continuous
 62
     2
100
AcDbHatch
 10
0.0
 20
0.0
 30
0.0
210
0.0
220
0.0
230
1.0
  2
_USER
 70
     0
 71
     1
 91
        1
 92
        1
 93
       10
 72
     1
 10
106.143043119444
 20
778.0738095238194
 11
105.1572640267436
 21
778.0738095238194
 72
     1
 10
105.1572640267436
 20
778.0738095238194
 11
105.1572640267436
 21
775.5500000000085
 72
     1
 10
105.1572640267436
 20
775.5500000000085
 11
106.143043119444
 21
775.5500000000085
 72
     1
 10
106.143043119444
 20
775.5500000000085
 11
106.143043119444
 21
776.6316326530701
 72
     1
 10
106.143043119444
 20
776.6316326530701
 11
107.1682533758514
 21
775.5500000000085
 72
     1
 10
107.1682533758514
 20
775.5500000000085
 11
108.154032468551
 21
775.5500000000085
 72
     1
 10
108.154032468551
 20
775.5500000000085
 11
108.154032468551
 21
778.0738095238194
 72
     1
 10
108.154032468551
 20
778.0738095238194
 11
107.1682533758514
 21
778.0738095238194
 72
     1
 10
107.1682533758514
 20
778.0738095238194
 11
107.1682533758514
 21
776.9921768707572
 72
     1
 10
107.1682533758514
 20
776.9921768707572
 11
106.143043119444
 21
778.0738095238194
 97
       10
330
1A5
330
1A6
330
1A7
330
1D3
330
1A8
330
1A9
330
1D2
330
1D5
330
1D4
330
1A4
 75
     1
 76
     0
 52
45.0
 41
0.1
 77
     0
 78
     1
 53
45.0
 43
0.0
 44
0.0
 45
-0.0707106781186548
 46
0.0707106781186548
 79
     0
 98
        1
 10
0.0
 20
0.0
  0
HATCH
  5
381
330
74
100
AcDbEntity
  8
1
  6
Continuous
 62
     2
100
AcDbHatch
 10
0.0
 20
0.0
 30
0.0
210
0.0
220
0.0
230
1.0
  2
_USER
 70
     0
 71
     1
 91
        1
 92
        1
 93
       10
 72
     1
 10
106.143043119444
 20
778.0738095238194
 11
105.1572640267436
 21
778.0738095238194
 72
     1
 10
105.1572640267436
 20
778.0738095238194
 11
105.1572640267436
 21
775.5500000000085
 72
     1
 10
105.1572640267436
 20
775.5500000000085
 11
106.143043119444
 21
775.5500000000085
 72
     1
 10
106.143043119444
 20
775.5500000000085
 11
106.143043119444
 21
776.6316326530701
 72
     1
 10
106.143043119444
 20
776.6316326530701
 11
107.1682533758514
 21
775.5500000000085
 72
     1
 10
107.1682533758514
 20
775.5500000000085
 11
108.154032468551
 21
775.5500000000085
 72
     1
 10
108.154032468551
 20
775.5500000000085
 11
108.154032468551
 21
778.0738095238194
 72
     1
 10
108.154032468551
 20
778.0738095238194
 11
107.1682533758514
 21
778.0738095238194
 72
     1
 10
107.1682533758514
 20
778.0738095238194
 11
107.1682533758514
 21
776.9921768707572
 72
     1
 10
107.1682533758514
 20
776.9921768707572
 11
106.143043119444
 21
778.0738095238194
 97
       10
330
1A5
330
1A6
330
1A7
330
1D3
330
1A8
330
1A9
330
1D2
330
1D5
330
1D4
330
1A4
 75
     1
 76
     0
 52
45.0
 41
0.1
 77
     0
 78
     1
 53
45.0
 43
0.0
 44
0.0
 45
-0.0707106781186548
 46
0.0707106781186548
 79
     0
 98
        1
 10
0.0
 20
0.0
  0
HATCH
  5
382
330
74
100
AcDbEntity
  8
1
  6
Continuous
 62
     2
100
AcDbHatch
 10
0.0
 20
0.0
 30
0.0
210
0.0
220
0.0
230
1.0
  2
_USER
 70
     0
 71
     1
 91
        1
 92
        1
 93
       12
 72
     1
 10
105.3151134178445
 20
780.8499999999965
 11
105.3151134178445
 21
778.3261904761856
 72
     1
 10
105.3151134178445
 20
778.3261904761856
 11
104.329334325145
 21
778.3261904761856
 72
     1
 10
104.329334325145
 20
778.3261904761856
 11
104.329334325145
 21
779.2636054421722
 72
     1
 10
104.329334325145
 20
779.2636054421722
 11
103.4618487235686
 21
779.2636054421722
 72
     1
 10
103.4618487235686
 20
779.2636054421722
 11
103.4618487235686
 21
778.3261904761856
 72
     1
 10
103.4618487235686
 20
778.3261904761856
 11
102.476069630869
 21
778.3261904761856
 72
     1
 10
102.476069630869
 20
778.3261904761856
 11
102.476069630869
 21
780.8499999999965
 72
     1
 10
102.476069630869
 20
780.8499999999965
 11
103.4618487235686
 21
780.8499999999965
 72
     1
 10
103.4618487235686
 20
780.8499999999965
 11
103.4618487235686
 21
779.9666666666621
 72
     1
 10
103.4618487235686
 20
779.9666666666621
 11
104.329334325145
 21
779.9666666666621
 72
     1
 10
104.329334325145
 20
779.9666666666621
 11
104.329334325145
 21
780.8499999999965
 72
     1
 10
104.329334325145
 20
780.8499999999965
 11
105.3151134178445
 21
780.8499999999965
 97
       12
330
1CD
330
1CC
330
1CB
330
1B3
330
1B4
330
1CA
330
1B5
330
1C9
330
1C8
330
1C7
330
1B1
330
1B2
 75
     1
 76
     0
 52
45.0
 41
0.1
 77
     0
 78
     1
 53
45.0
 43
0.0
 44
0.0
 45
-0.0707106781186548
 46
0.0707106781186548
 79
     0
 98
        1
 10
0.0
 20
0.0
  0
HATCH
  5
383
330
74
100
AcDbEntity
  8
1
  6
Continuous
 62
     2
100
AcDbHatch
 10
0.0
 20
0.0
 30
0.0
210
0.0
220
0.0
230
1.0
  2
_USER
 70
     0
 71
     1
 91
        1
 92
        1
 93
       12
 72
     1
 10
105.3151134178445
 20
780.8499999999965
 11
105.3151134178445
 21
778.3261904761856
 72
     1
 10
105.3151134178445
 20
778.3261904761856
 11
104.329334325145
 21
778.3261904761856
 72
     1
 10
104.329334325145
 20
778.3261904761856
 11
104.329334325145
 21
779.2636054421722
 72
     1
 10
104.329334325145
 20
779.2636054421722
 11
103.4618487235686
 21
779.2636054421722
 72
     1
 10
103.4618487235686
 20
779.2636054421722
 11
103.4618487235686
 21
778.3261904761856
 72
     1
 10
103.4618487235686
 20
778.3261904761856
 11
102.476069630869
 21
778.3261904761856
 72
     1
 10
102.476069630869
 20
778.3261904761856
 11
102.476069630869
 21
780.8499999999965
 72
     1
 10
102.476069630869
 20
780.8499999999965
 11
103.4618487235686
 21
780.8499999999965
 72
     1
 10
103.4618487235686
 20
780.8499999999965
 11
103.4618487235686
 21
779.9666666666621
 72
     1
 10
103.4618487235686
 20
779.9666666666621
 11
104.329334325145
 21
779.9666666666621
 72
     1
 10
104.329334325145
 20
779.9666666666621
 11
104.329334325145
 21
780.8499999999965
 72
     1
 10
104.329334325145
 20
780.8499999999965
 11
105.3151134178445
 21
780.8499999999965
 97
       12
330
1CD
330
1CC
330
1CB
330
1B3
330
1B4
330
1CA
330
1B5
330
1C9
330
1C8
330
1C7
330
1B1
330
1B2
 75
     1
 76
     0
 52
45.0
 41
0.1
 77
     0
 78
     1
 53
45.0
 43
0.0
 44
0.0
 45
-0.0707106781186548
 46
0.0707106781186548
 79
     0
 98
        1
 10
0.0
 20
0.0
  0
ENDBLK
  5
76
330
74
100
AcDbEntity
  8
0
100
AcDbBlockEnd
  0
BLOCK
  5
7A
330
77
100
AcDbEntity
  8
0
100
AcDbBlockBegin
  2
A4I
 70
     0
 10
217.0999999999985
 20
764.7000000000025
 30
0.0
  3
A4I
  1

  0
INSERT
  5
78
330
77
100
AcDbEntity
  8
1
100
AcDbBlockReference
  2
_punkt
 10
217.0999999999985
 20
769.7000000000027
 30
0.0
  0
INSERT
  5
79
330
77
100
AcDbEntity
  8
1
100
AcDbBlockReference
  2
_rahmen
 10
217.0999999999985
 20
764.7000000000025
 30
0.0
  0
ENDBLK
  5
7B
330
77
100
AcDbEntity
  8
0
100
AcDbBlockEnd
  0
BLOCK
  5
144
330
13D
100
AcDbEntity
  8
0
100
AcDbBlockBegin
  2
*D16
 70
     1
 10
0.0
 20
0.0
 30
0.0
  3
*D16
  1

  0
LINE
  5
13E
330
13D
100
AcDbEntity
  8
1
  6
Continuous
 62
     2
100
AcDbLine
 10
-45.00000000000409
 20
4362.5
 30
0.0
 11
-45.00000000000409
 21
4194.5
 31
0.0
  0
LINE
  5
13F
330
13D
100
AcDbEntity
  8
1
  6
Continuous
 62
     2
100
AcDbLine
 10
4.99999999999591
 20
4362.5
 30
0.0
 11
-55.00000000000409
 21
4362.5
 31
0.0
  0
LINE
  5
140
330
13D
100
AcDbEntity
  8
1
  6
Continuous
 62
     2
100
AcDbLine
 10
4.99999999999591
 20
4194.5
 30
0.0
 11
-55.00000000000409
 21
4194.5
 31
0.0
  0
SOLID
  5
141
330
13D
100
AcDbEntity
  8
1
 62
     2
100
AcDbTrace
 10
-42.69608129222467
 20
4345.0
 30
0.0
 11
-47.30391870778352
 21
4345.0
 31
0.0
 12
-45.00000000000409
 22
4362.5
 32
0.0
 13
-45.00000000000409
 23
4362.5
 33
0.0
  0
SOLID
  5
142
330
13D
100
AcDbEntity
  8
1
 62
     2
100
AcDbTrace
 10
-47.30391870778352
 20
4212.0
 30
0.0
 11
-42.69608129222466
 21
4212.0
 31
0.0
 12
-45.00000000000409
 22
4194.5
 32
0.0
 13
-45.00000000000409
 23
4194.5
 33
0.0
  0
MTEXT
  5
143
330
13D
100
AcDbEntity
  8
1
 62
     3
100
AcDbMText
 10
-55.00000000000409
 20
4260.125
 30
0.0
 40
17.5
 41
0.0
 71
     7
 72
     1
  1
168
  7
CONVERTER_11
 11
0.0
 21
1.0
 31
0.0
 73
     1
 44
0.60024009603842
  0
ENDBLK
  5
145
330
13D
100
AcDbEntity
  8
0
100
AcDbBlockEnd
  0
BLOCK
  5
14F
330
148
100
AcDbEntity
  8
0
100
AcDbBlockBegin
  2
*D17
 70
     1
 10
0.0
 20
0.0
 30
0.0
  3
*D17
  1

  0
LINE
  5
149
330
148
100
AcDbEntity
  8
1
  6
Continuous
 62
     2
100
AcDbLine
 10
4.99999999999591
 20
4412.5
 30
0.0
 11
342.9999999999959
 21
4412.5
 31
0.0
  0
LINE
  5
14A
330
148
100
AcDbEntity
  8
1
  6
Continuous
 62
     2
100
AcDbLine
 10
4.99999999999591
 20
4362.5
 30
0.0
 11
4.99999999999591
 21
4422.5
 31
0.0
  0
LINE
  5
14B
330
148
100
AcDbEntity
  8
1
  6
Continuous
 62
     2
100
AcDbLine
 10
342.9999999999959
 20
4362.5
 30
0.0
 11
342.9999999999959
 21
4422.5
 31
0.0
  0
SOLID
  5
14C
330
148
100
AcDbEntity
  8
1
 62
     2
100
AcDbTrace
 10
22.49999999999591
 20
4414.803918707779
 30
0.0
 11
22.49999999999591
 21
4410.196081292221
 31
0.0
 12
4.99999999999591
 22
4412.5
 32
0.0
 13
4.99999999999591
 23
4412.5
 33
0.0
  0
SOLID
  5
14D
330
148
100
AcDbEntity
  8
1
 62
     2
100
AcDbTrace
 10
325.4999999999959
 20
4410.196081292221
 30
0.0
 11
325.4999999999959
 21
4414.803918707779
 31
0.0
 12
342.9999999999959
 22
4412.5
 32
0.0
 13
342.9999999999959
 23
4412.5
 33
0.0
  0
MTEXT
  5
14E
330
148
100
AcDbEntity
  8
1
 62
     3
100
AcDbMText
 10
152.9999999999959
 20
4422.5
 30
0.0
 40
17.5
 41
0.0
 71
     7
 72
     1
  1
338
  7
CONVERTER_11
 11
0.9999999999970619
 21
2.424068405545306E-6
 31
0.0
 73
     1
 44
0.60024009603842
  0
ENDBLK
  5
150
330
148
100
AcDbEntity
  8
0
100
AcDbBlockEnd
  0
BLOCK
  5
184
330
17B
100
AcDbEntity
  8
0
100
AcDbBlockBegin
  2
*D18
 70
     1
 10
0.0
 20
0.0
 30
0.0
  3
*D18
  1

  0
LINE
  5
17C
330
17B
100
AcDbEntity
  8
1
  6
Continuous
 62
     2
100
AcDbLine
 10
-45.00000000001393
 20
4552.500000000025
 30
0.0
 11
-45.00000000001393
 21
4517.500000000025
 31
0.0
  0
LINE
  5
17D
330
17B
100
AcDbEntity
  8
1
  6
Continuous
 62
     2
100
AcDbLine
 10
-45.00000000001393
 20
4517.500000000025
 30
0.0
 11
-45.00000000001393
 21
4512.500000000025
 31
0.0
  0
LINE
  5
17E
330
17B
100
AcDbEntity
  8
1
  6
Continuous
 62
     2
100
AcDbLine
 10
-45.00000000001393
 20
4512.500000000025
 30
0.0
 11
-45.00000000001393
 21
4476.587655069289
 31
0.0
  0
LINE
  5
17F
330
17B
100
AcDbEntity
  8
1
  6
Continuous
 62
     2
100
AcDbLine
 10
4.99999999998607
 20
4517.500000000025
 30
0.0
 11
-55.00000000001393
 21
4517.500000000025
 31
0.0
  0
LINE
  5
180
330
17B
100
AcDbEntity
  8
1
  6
Continuous
 62
     2
100
AcDbLine
 10
5.09999999998621
 20
4512.500000000025
 30
0.0
 11
-55.00000000001393
 21
4512.500000000025
 31
0.0
  0
SOLID
  5
181
330
17B
100
AcDbEntity
  8
1
 62
     2
100
AcDbTrace
 10
-47.30391870779336
 20
4535.000000000025
 30
0.0
 11
-42.6960812922345
 21
4535.000000000025
 31
0.0
 12
-45.00000000001393
 22
4517.500000000025
 32
0.0
 13
-45.00000000001393
 23
4517.500000000025
 33
0.0
  0
SOLID
  5
182
330
17B
100
AcDbEntity
  8
1
 62
     2
100
AcDbTrace
 10
-42.6960812922345
 20
4495.000000000025
 30
0.0
 11
-47.30391870779336
 21
4495.000000000025
 31
0.0
 12
-45.00000000001393
 22
4512.500000000025
 32
0.0
 13
-45.00000000001393
 23
4512.500000000025
 33
0.0
  0
MTEXT
  5
183
330
17B
100
AcDbEntity
  8
1
 62
     3
100
AcDbMText
 10
-55.00000000001393
 20
4476.587655069289
 30
0.0
 40
17.5
 41
0.0
 71
     7
 72
     1
  1
5
  7
CONVERTER_11
 11
0.0
 21
1.0
 31
0.0
 73
     1
 44
0.60024009603842
  0
ENDBLK
  5
185
330
17B
100
AcDbEntity
  8
0
100
AcDbBlockEnd
  0
ENDSEC
  0
SECTION
  2
ENTITIES
  0
INSERT
  5
7C
330
1F
100
AcDbEntity
  8
0
100
AcDbBlockReference
  2
Allg1
 10
160.0000000000001
 20
837.6069476082062
 30
0.0
 41
0.2
 42
0.2
 43
0.2
  0
INSERT
  5
7D
330
1F
100
AcDbEntity
  8
0
100
AcDbBlockReference
  2
Drfsicht1
 10
34.79999999999819
 20
855.7
 30
0.0
 41
0.2
 42
0.2
 43
0.2
  0
INSERT
  5
7E
330
1F
100
AcDbEntity
  8
0
100
AcDbBlockReference
  2
Rckans1
 10
176.0
 20
903.000000000015
 30
0.0
 41
0.2
 42
0.2
 43
0.2
  0
INSERT
  5
7F
330
1F
100
AcDbEntity
  8
0
100
AcDbBlockReference
  2
SA_Links1
 10
105.4
 20
903.000000000006
 30
0.0
 41
0.2
 42
0.2
 43
0.2
  0
INSERT
  5
80
330
1F
100
AcDbEntity
  8
0
100
AcDbBlockReference
  2
SA_Rechts1
 10
-45.80000000000198
 20
903.000000000006
 30
0.0
 41
0.2
 42
0.2
 43
0.2
  0
INSERT
  5
81
330
1F
100
AcDbEntity
  8
0
100
AcDbBlockReference
  2
Vordans1
 10
34.79999999999622
 20
903.0
 30
0.0
 41
0.2
 42
0.2
 43
0.2
  0
INSERT
  5
82
330
1F
100
AcDbEntity
  8
0
100
AcDbBlockReference
  2
A4I
 10
217.0999999999985
 20
764.7000000000025
 30
0.0
  0
ENDSEC
  0
SECTION
  2
OBJECTS
  0
DICTIONARY
  5
C
330
0
100
AcDbDictionary
281
     1
  3
ACAD_GROUP
350
D
  3
ACAD_LAYOUT
350
1A
  3
ACAD_MATERIAL
350
3B
  3
ACAD_MLEADERSTYLE
350
386
  3
ACAD_MLINESTYLE
350
17
  3
ACAD_PLOTSETTINGS
350
19
  3
ACAD_PLOTSTYLENAME
350
E
  3
ACAD_VISUALSTYLE
350
2A
  3
AcDbVariableDictionary
350
384
  0
DICTIONARY
  5
D
102
{ACAD_REACTORS
330
C
102
}
330
C
100
AcDbDictionary
281
     1
  0
DICTIONARY
  5
1A
102
{ACAD_REACTORS
330
C
102
}
330
C
100
AcDbDictionary
281
     1
  3
Layout1
350
1E
  3
Layout2
350
26
  3
Model
350
22
  0
DICTIONARY
  5
3B
102
{ACAD_REACTORS
330
C
102
}
330
C
100
AcDbDictionary
281
     1
  3
ByBlock
350
3D
  3
ByLayer
350
3C
  3
Global
350
3E
  0
DICTIONARY
  5
386
102
{ACAD_REACTORS
330
C
102
}
330
C
100
AcDbDictionary
281
     1
  0
DICTIONARY
  5
17
102
{ACAD_REACTORS
330
C
102
}
330
C
100
AcDbDictionary
281
     1
  3
Standard
350
18
  0
DICTIONARY
  5
19
102
{ACAD_REACTORS
330
C
102
}
330
C
100
AcDbDictionary
281
     1
  0
ACDBDICTIONARYWDFLT
  5
E
102
{ACAD_REACTORS
330
C
102
}
330
C
100
AcDbDictionary
281
     1
  3
Normal
350
F
100
AcDbDictionaryWithDefault
340
F
  0
DICTIONARY
  5
2A
102
{ACAD_REACTORS
330
C
102
}
330
C
100
AcDbDictionary
281
     1
  3
2dWireframe
350
2F
  3
3D Hidden
350
31
  3
3dWireframe
350
30
  3
Basic
350
32
  3
Brighten
350
36
  3
ColorChange
350
3A
  3
Conceptual
350
34
  3
Dim
350
35
  3
Facepattern
350
39
  3
Flat
350
2B
  3
FlatWithEdges
350
2C
  3
Gouraud
350
2D
  3
GouraudWithEdges
350
2E
  3
Linepattern
350
38
  3
Realistic
350
33
  3
Thicken
350
37
  0
DICTIONARY
  5
384
102
{ACAD_REACTORS
330
C
102
}
330
C
100
AcDbDictionary
281
     1
  3
DIMASSOC
350
387
  3
HIDETEXT
350
388
  0
LAYOUT
  5
1E
102
{ACAD_REACTORS
330
1A
102
}
330
1A
100
AcDbPlotSettings
  1

  2
none_device
  4

  6

 40
0.0
 41
0.0
 42
0.0
 43
0.0
 44
0.0
 45
0.0
 46
0.0
 47
0.0
 48
0.0
 49
0.0
140
0.0
141
0.0
142
1.0
143
1.0
 70
   688
 72
     0
 73
     0
 74
     5
  7

 75
    16
147
1.0
148
0.0
149
0.0
100
AcDbLayout
  1
Layout1
 70
     1
 71
     1
 10
0.0
 20
0.0
 11
12.0
 21
9.0
 12
0.0
 22
0.0
 32
0.0
 14
1.00000000000000E+20
 24
1.00000000000000E+20
 34
1.00000000000000E+20
 15
-1.00000000000000E+20
 25
-1.00000000000000E+20
 35
-1.00000000000000E+20
146
0.0
 13
0.0
 23
0.0
 33
0.0
 16
1.0
 26
0.0
 36
0.0
 17
0.0
 27
1.0
 37
0.0
 76
     0
330
1B
  0
LAYOUT
  5
26
102
{ACAD_REACTORS
330
1A
102
}
330
1A
100
AcDbPlotSettings
  1

  2
none_device
  4

  6

 40
0.0
 41
0.0
 42
0.0
 43
0.0
 44
0.0
 45
0.0
 46
0.0
 47
0.0
 48
0.0
 49
0.0
140
0.0
141
0.0
142
1.0
143
1.0
 70
   688
 72
     0
 73
     0
 74
     5
  7

 75
    16
147
1.0
148
0.0
149
0.0
100
AcDbLayout
  1
Layout2
 70
     1
 71
     2
 10
0.0
 20
0.0
 11
0.0
 21
0.0
 12
0.0
 22
0.0
 32
0.0
 14
0.0
 24
0.0
 34
0.0
 15
0.0
 25
0.0
 35
0.0
146
0.0
 13
0.0
 23
0.0
 33
0.0
 16
1.0
 26
0.0
 36
0.0
 17
0.0
 27
1.0
 37
0.0
 76
     0
330
23
  0
LAYOUT
  5
22
102
{ACAD_REACTORS
330
1A
102
}
330
1A
100
AcDbPlotSettings
  1

  2
none_device
  4

  6

 40
0.0
 41
0.0
 42
0.0
 43
0.0
 44
0.0
 45
0.0
 46
0.0
 47
0.0
 48
0.0
 49
0.0
140
0.0
141
0.0
142
1.0
143
1.0
 70
  1712
 72
     0
 73
     0
 74
     0
  7

 75
     0
147
1.0
148
0.0
149
0.0
100
AcDbLayout
  1
Model
 70
     1
 71
     0
 10
0.0
 20
0.0
 11
12.0
 21
9.0
 12
0.0
 22
0.0
 32
0.0
 14
-74.90000000000055
 24
764.7000000000025
 34
0.0
 15
222.0999999999976
 25
974.7000000000025
 35
0.0
146
0.0
 13
0.0
 23
0.0
 33
0.0
 16
1.0
 26
0.0
 36
0.0
 17
0.0
 27
1.0
 37
0.0
 76
     0
330
1F
331
29
  0
MATERIAL
  5
3D
102
{ACAD_REACTORS
330
3B
102
}
102
{ACAD_XDICTIONARY
360
3AB
102
}
330
3B
100
AcDbMaterial
  1
ByBlock
  0
MATERIAL
  5
3C
102
{ACAD_REACTORS
330
3B
102
}
102
{ACAD_XDICTIONARY
360
3A9
102
}
330
3B
100
AcDbMaterial
  1
ByLayer
  0
MATERIAL
  5
3E
102
{ACAD_REACTORS
330
3B
102
}
102
{ACAD_XDICTIONARY
360
3AD
102
}
330
3B
100
AcDbMaterial
  1
Global
  0
MLINESTYLE
  5
18
102
{ACAD_REACTORS
330
17
102
}
330
17
100
AcDbMlineStyle
  2
Standard
 70
     0
  3

 62
   256
 51
90.0
 52
90.0
 71
     2
 49
0.5
 62
   256
  6
BYLAYER
 49
-0.5
 62
   256
  6
BYLAYER
  0
ACDBPLACEHOLDER
  5
F
102
{ACAD_REACTORS
330
E
102
}
330
E
  0
VISUALSTYLE
  5
2F
102
{ACAD_REACTORS
330
2A
102
}
102
{ACAD_XDICTIONARY
360
391
102
}
330
2A
100
AcDbVisualStyle
  2
2dWireframe
 70
     4
 71
     0
 72
     2
 73
     0
 90
        0
 40
-0.6
 41
-30.0
 62
     5
 63
     7
 74
     1
 91
        4
 64
     7
 65
   257
 75
     1
175
     1
 42
1.0
 92
        0
 66
   257
 43
1.0
 76
     1
 77
     6
 78
     2
 67
     7
 79
     5
170
     0
171
     0
290
     0
174
     0
 93
        1
 44
0.0
173
     0
291
     0
 45
0.0
1001
ACAD
1000
AcDbSavedByObjectVersion
1070
     0
  0
VISUALSTYLE
  5
31
102
{ACAD_REACTORS
330
2A
102
}
102
{ACAD_XDICTIONARY
360
395
102
}
330
2A
100
AcDbVisualStyle
  2
3D Hidden
 70
     6
 71
     1
 72
     2
 73
     2
 90
        0
 40
-0.6
 41
-30.0
 62
     5
 63
     7
 74
     2
 91
        2
 64
     7
 65
   257
 75
     2
175
     1
 42
40.0
 92
        0
 66
   257
 43
1.0
 76
     1
 77
     6
 78
     2
 67
     7
 79
     3
170
     0
171
     0
290
     0
174
     0
 93
        1
 44
0.0
173
     0
291
     0
 45
0.0
1001
ACAD
1000
AcDbSavedByObjectVersion
1070
     0
  0
VISUALSTYLE
  5
30
102
{ACAD_REACTORS
330
2A
102
}
102
{ACAD_XDICTIONARY
360
393
102
}
330
2A
100
AcDbVisualStyle
  2
3dWireframe
 70
     5
 71
     0
 72
     2
 73
     0
 90
        0
 40
-0.6
 41
-30.0
 62
     5
 63
     7
 74
     1
 91
        4
 64
     7
 65
   257
 75
     1
175
     1
 42
1.0
 92
        0
 66
   257
 43
1.0
 76
     1
 77
     6
 78
     2
 67
     7
 79
     5
170
     0
171
     0
290
     0
174
     0
 93
        1
 44
0.0
173
     0
291
     0
 45
0.0
1001
ACAD
1000
AcDbSavedByObjectVersion
1070
     0
  0
VISUALSTYLE
  5
32
102
{ACAD_REACTORS
330
2A
102
}
102
{ACAD_XDICTIONARY
360
397
102
}
330
2A
100
AcDbVisualStyle
  2
Basic
 70
     7
 71
     1
 72
     0
 73
     1
 90
        0
 40
-0.6
 41
-30.0
 62
     5
 63
     7
 74
     0
 91
        4
 64
     7
 65
   257
 75
     1
175
     1
 42
1.0
 92
        8
 66
     7
 43
1.0
 76
     1
 77
     6
 78
     2
 67
     7
 79
     5
170
     0
171
     0
290
     0
174
     0
 93
        1
 44
0.0
173
     0
291
     1
 45
0.0
1001
ACAD
1000
AcDbSavedByObjectVersion
1070
     0
  0
VISUALSTYLE
  5
36
102
{ACAD_REACTORS
330
2A
102
}
102
{ACAD_XDICTIONARY
360
39F
102
}
330
2A
100
AcDbVisualStyle
  2
Brighten
 70
    12
 71
     2
 72
     2
 73
     0
 90
        0
 40
-0.6
 41
-30.0
 62
     5
 63
     7
 74
     1
 91
        4
 64
     7
 65
   257
 75
     1
175
     1
 42
1.0
 92
        8
 66
     7
 43
1.0
 76
     1
 77
     6
 78
     2
 67
     7
 79
     5
170
     0
171
     0
290
     0
174
     0
 93
        1
 44
50.0
173
     0
291
     1
 45
0.0
1001
ACAD
1000
AcDbSavedByObjectVersion
1070
     0
  0
VISUALSTYLE
  5
3A
102
{ACAD_REACTORS
330
2A
102
}
102
{ACAD_XDICTIONARY
360
3A7
102
}
330
2A
100
AcDbVisualStyle
  2
ColorChange
 70
    16
 71
     2
 72
     2
 73
     3
 90
        0
 40
-0.6
 41
-30.0
 62
     5
 63
     8
 74
     1
 91
        4
 64
     7
 65
   257
 75
     1
175
     1
 42
1.0
 92
        8
 66
     8
 43
1.0
 76
     1
 77
     6
 78
     2
 67
     7
 79
     5
170
     0
171
     0
290
     0
174
     0
 93
        1
 44
0.0
173
     0
291
     1
 45
0.0
1001
ACAD
1000
AcDbSavedByObjectVersion
1070
     0
  0
VISUALSTYLE
  5
34
102
{ACAD_REACTORS
330
2A
102
}
102
{ACAD_XDICTIONARY
360
39B
102
}
330
2A
100
AcDbVisualStyle
  2
Conceptual
 70
     9
 71
     3
 72
     2
 73
     0
 90
        0
 40
-0.6
 41
-30.0
 62
     5
 63
     7
 74
     2
 91
        2
 64
     7
 65
   257
 75
     1
175
     1
 42
40.0
 92
        8
 66
     7
 43
1.0
 76
     1
 77
     6
 78
     2
 67
     7
 79
     3
170
     0
171
     0
290
     0
174
     0
 93
        1
 44
0.0
173
     0
291
     0
 45
0.0
1001
ACAD
1000
AcDbSavedByObjectVersion
1070
     0
  0
VISUALSTYLE
  5
35
102
{ACAD_REACTORS
330
2A
102
}
102
{ACAD_XDICTIONARY
360
39D
102
}
330
2A
100
AcDbVisualStyle
  2
Dim
 70
    11
 71
     2
 72
     2
 73
     0
 90
        0
 40
-0.6
 41
-30.0
 62
     5
 63
     7
 74
     1
 91
        4
 64
     7
 65
   257
 75
     1
175
     1
 42
1.0
 92
        8
 66
     7
 43
1.0
 76
     1
 77
     6
 78
     2
 67
     7
 79
     5
170
     0
171
     0
290
     0
174
     0
 93
        1
 44
-50.0
173
     0
291
     1
 45
0.0
1001
ACAD
1000
AcDbSavedByObjectVersion
1070
     0
  0
VISUALSTYLE
  5
39
102
{ACAD_REACTORS
330
2A
102
}
102
{ACAD_XDICTIONARY
360
3A5
102
}
330
2A
100
AcDbVisualStyle
  2
Facepattern
 70
    15
 71
     2
 72
     2
 73
     0
 90
        0
 40
-0.6
 41
-30.0
 62
     5
 63
     7
 74
     1
 91
        4
 64
     7
 65
   257
 75
     1
175
     1
 42
1.0
 92
        8
 66
     7
 43
1.0
 76
     1
 77
     6
 78
     2
 67
     7
 79
     5
170
     0
171
     0
290
     0
174
     0
 93
        1
 44
0.0
173
     0
291
     1
 45
0.0
1001
ACAD
1000
AcDbSavedByObjectVersion
1070
     0
  0
VISUALSTYLE
  5
2B
102
{ACAD_REACTORS
330
2A
102
}
102
{ACAD_XDICTIONARY
360
389
102
}
330
2A
100
AcDbVisualStyle
  2
Flat
 70
     0
 71
     2
 72
     1
 73
     1
 90
        2
 40
-0.6
 41
30.0
 62
     5
 63
     7
 74
     0
 91
        4
 64
     7
 65
   257
 75
     1
175
     1
 42
1.0
 92
        8
 66
     7
 43
1.0
 76
     1
 77
     6
 78
     2
 67
     7
 79
     5
170
     0
171
     0
290
     0
174
     0
 93
       13
 44
0.0
173
     0
291
     1
 45
0.0
1001
ACAD
1000
AcDbSavedByObjectVersion
1070
     0
  0
VISUALSTYLE
  5
2C
102
{ACAD_REACTORS
330
2A
102
}
102
{ACAD_XDICTIONARY
360
38B
102
}
330
2A
100
AcDbVisualStyle
  2
FlatWithEdges
 70
     1
 71
     2
 72
     1
 73
     1
 90
        2
 40
-0.6
 41
30.0
 62
     5
 63
     7
 74
     1
 91
        4
 64
     7
 65
   257
 75
     1
175
     1
 42
1.0
 92
        0
 66
   257
 43
1.0
 76
     1
 77
     6
 78
     2
 67
     7
 79
     5
170
     0
171
     0
290
     0
174
     0
 93
       13
 44
0.0
173
     0
291
     1
 45
0.0
1001
ACAD
1000
AcDbSavedByObjectVersion
1070
     0
  0
VISUALSTYLE
  5
2D
102
{ACAD_REACTORS
330
2A
102
}
102
{ACAD_XDICTIONARY
360
38D
102
}
330
2A
100
AcDbVisualStyle
  2
Gouraud
 70
     2
 71
     2
 72
     2
 73
     1
 90
        2
 40
-0.6
 41
30.0
 62
     5
 63
     7
 74
     0
 91
        4
 64
     7
 65
   257
 75
     1
175
     1
 42
1.0
 92
        0
 66
     7
 43
1.0
 76
     1
 77
     6
 78
     2
 67
     7
 79
     5
170
     0
171
     0
290
     0
174
     0
 93
       13
 44
0.0
173
     0
291
     1
 45
0.0
1001
ACAD
1000
AcDbSavedByObjectVersion
1070
     0
  0
VISUALSTYLE
  5
2E
102
{ACAD_REACTORS
330
2A
102
}
102
{ACAD_XDICTIONARY
360
38F
102
}
330
2A
100
AcDbVisualStyle
  2
GouraudWithEdges
 70
     3
 71
     2
 72
     2
 73
     1
 90
        2
 40
-0.6
 41
30.0
 62
     5
 63
     7
 74
     1
 91
        4
 64
     7
 65
   257
 75
     1
175
     1
 42
1.0
 92
        0
 66
   257
 43
1.0
 76
     1
 77
     6
 78
     2
 67
     7
 79
     5
170
     0
171
     0
290
     0
174
     0
 93
       13
 44
0.0
173
     0
291
     1
 45
0.0
1001
ACAD
1000
AcDbSavedByObjectVersion
1070
     0
  0
VISUALSTYLE
  5
38
102
{ACAD_REACTORS
330
2A
102
}
102
{ACAD_XDICTIONARY
360
3A3
102
}
330
2A
100
AcDbVisualStyle
  2
Linepattern
 70
    14
 71
     2
 72
     2
 73
     0
 90
        0
 40
-0.6
 41
-30.0
 62
     5
 63
     7
 74
     1
 91
        4
 64
     7
 65
   257
 75
     7
175
     7
 42
1.0
 92
        8
 66
     7
 43
1.0
 76
     1
 77
     6
 78
     2
 67
     7
 79
     5
170
     0
171
     0
290
     0
174
     0
 93
        1
 44
0.0
173
     0
291
     1
 45
0.0
1001
ACAD
1000
AcDbSavedByObjectVersion
1070
     0
  0
VISUALSTYLE
  5
33
102
{ACAD_REACTORS
330
2A
102
}
102
{ACAD_XDICTIONARY
360
399
102
}
330
2A
100
AcDbVisualStyle
  2
Realistic
 70
     8
 71
     2
 72
     2
 73
     0
 90
        0
 40
-0.6
 41
-30.0
 62
     5
 63
     7
 74
     1
 91
        0
 64
     7
 65
   257
 75
     1
175
     1
 42
1.0
 92
        8
 66
     8
 43
1.0
 76
     1
 77
     6
 78
     2
 67
     7
 79
     5
170
     0
171
     0
290
     0
174
     0
 93
       13
 44
0.0
173
     0
291
     0
 45
0.0
1001
ACAD
1000
AcDbSavedByObjectVersion
1070
     0
  0
VISUALSTYLE
  5
37
102
{ACAD_REACTORS
330
2A
102
}
102
{ACAD_XDICTIONARY
360
3A1
102
}
330
2A
100
AcDbVisualStyle
  2
Thicken
 70
    13
 71
     2
 72
     2
 73
     0
 90
        0
 40
-0.6
 41
-30.0
 62
     5
 63
     7
 74
     1
 91
        4
 64
     7
 65
   257
 75
     1
175
     1
 42
1.0
 92
       12
 66
     7
 43
1.0
 76
     1
 77
     6
 78
     2
 67
     7
 79
     5
170
     0
171
     0
290
     0
174
     0
 93
        1
 44
0.0
173
     0
291
     1
 45
0.0
1001
ACAD
1000
AcDbSavedByObjectVersion
1070
     0
  0
DICTIONARYVAR
  5
387
102
{ACAD_REACTORS
330
384
102
}
330
384
100
DictionaryVariables
280
     0
  1
2
  0
DICTIONARYVAR
  5
388
102
{ACAD_REACTORS
330
384
102
}
330
384
100
DictionaryVariables
280
     0
  1
1
  0
DICTIONARY
  5
3AB
330
3D
100
AcDbDictionary
280
     1
281
     1
  3
ACAD_XREC_ROUNDTRIP
360
3AC
  0
DICTIONARY
  5
3A9
330
3C
100
AcDbDictionary
280
     1
281
     1
  3
ACAD_XREC_ROUNDTRIP
360
3AA
  0
DICTIONARY
  5
3AD
330
3E
100
AcDbDictionary
280
     1
281
     1
  3
ACAD_XREC_ROUNDTRIP
360
3AE
  0
DICTIONARY
  5
391
330
2F
100
AcDbDictionary
280
     1
281
     1
  3
ACAD_XREC_ROUNDTRIP
360
392
  0
DICTIONARY
  5
395
330
31
100
AcDbDictionary
280
     1
281
     1
  3
ACAD_XREC_ROUNDTRIP
360
396
  0
DICTIONARY
  5
393
330
30
100
AcDbDictionary
280
     1
281
     1
  3
ACAD_XREC_ROUNDTRIP
360
394
  0
DICTIONARY
  5
397
330
32
100
AcDbDictionary
280
     1
281
     1
  3
ACAD_XREC_ROUNDTRIP
360
398
  0
DICTIONARY
  5
39F
330
36
100
AcDbDictionary
280
     1
281
     1
  3
ACAD_XREC_ROUNDTRIP
360
3A0
  0
DICTIONARY
  5
3A7
330
3A
100
AcDbDictionary
280
     1
281
     1
  3
ACAD_XREC_ROUNDTRIP
360
3A8
  0
DICTIONARY
  5
39B
330
34
100
AcDbDictionary
280
     1
281
     1
  3
ACAD_XREC_ROUNDTRIP
360
39C
  0
DICTIONARY
  5
39D
330
35
100
AcDbDictionary
280
     1
281
     1
  3
ACAD_XREC_ROUNDTRIP
360
39E
  0
DICTIONARY
  5
3A5
330
39
100
AcDbDictionary
280
     1
281
     1
  3
ACAD_XREC_ROUNDTRIP
360
3A6
  0
DICTIONARY
  5
389
330
2B
100
AcDbDictionary
280
     1
281
     1
  3
ACAD_XREC_ROUNDTRIP
360
38A
  0
DICTIONARY
  5
38B
330
2C
100
AcDbDictionary
280
     1
281
     1
  3
ACAD_XREC_ROUNDTRIP
360
38C
  0
DICTIONARY
  5
38D
330
2D
100
AcDbDictionary
280
     1
281
     1
  3
ACAD_XREC_ROUNDTRIP
360
38E
  0
DICTIONARY
  5
38F
330
2E
100
AcDbDictionary
280
     1
281
     1
  3
ACAD_XREC_ROUNDTRIP
360
390
  0
DICTIONARY
  5
3A3
330
38
100
AcDbDictionary
280
     1
281
     1
  3
ACAD_XREC_ROUNDTRIP
360
3A4
  0
DICTIONARY
  5
399
330
33
100
AcDbDictionary
280
     1
281
     1
  3
ACAD_XREC_ROUNDTRIP
360
39A
  0
DICTIONARY
  5
3A1
330
37
100
AcDbDictionary
280
     1
281
     1
  3
ACAD_XREC_ROUNDTRIP
360
3A2
  0
XRECORD
  5
3AC
102
{ACAD_REACTORS
330
3AB
102
}
330
3AB
100
AcDbXrecord
280
     1
102
MATERIAL
148
0.0
149
0.0
149
0.0
 93
        0
 94
      127
282
     0
 72
     1
 77
     1
171
     1
175
     1
179
     1
273
     0
  0
XRECORD
  5
3AA
102
{ACAD_REACTORS
330
3A9
102
}
330
3A9
100
AcDbXrecord
280
     1
102
MATERIAL
148
0.0
149
0.0
149
0.0
 93
        0
 94
      127
282
     0
 72
     1
 77
     1
171
     1
175
     1
179
     1
273
     0
  0
XRECORD
  5
3AE
102
{ACAD_REACTORS
330
3AD
102
}
330
3AD
100
AcDbXrecord
280
     1
102
MATERIAL
148
0.0
149
0.0
149
0.0
 93
        0
 94
      127
282
     0
 72
     1
 77
     1
171
     1
175
     1
179
     1
273
     0
  0
XRECORD
  5
392
102
{ACAD_REACTORS
330
391
102
}
330
391
100
AcDbXrecord
280
     1
102
RTVSPropertyOp0
 70
     1
102
RTVSPropertyOp1
 70
     1
102
RTVSPropertyOp2
 70
     1
102
RTVSPropertyOp3
 70
     1
102
RTVSPropertyOp4
 70
     1
102
RTVSPropertyOp5
 70
     1
102
RTVSPropertyOp6
 70
     1
102
RTVSPropertyOp7
 70
     1
102
RTVSPropertyOp8
 70
     1
102
RTVSPropertyOp9
 70
     1
102
RTVSPropertyOp10
 70
     1
102
RTVSPropertyOp11
 70
     1
102
RTVSPropertyOp12
 70
     1
102
RTVSPropertyOp13
 70
     1
102
RTVSPropertyOp14
 70
     1
102
RTVSPropertyOp15
 70
     1
102
RTVSPropertyOp16
 70
     1
102
RTVSPropertyOp17
 70
     1
102
RTVSPropertyOp18
 70
     1
102
RTVSPropertyOp19
 70
     1
102
RTVSPropertyOp20
 70
     1
102
RTVSPropertyOp21
 70
     1
102
RTVSPropertyOp22
 70
     1
102
RTVSPropertyOp23
 70
     1
102
RTVSPropertyOp24
 70
     1
102
RTVSPropertyOp25
 70
     1
102
RTVSPropertyOp26
 70
     1
102
RTVSPropertyOp27
 70
     1
102
RTVSPropertyOp28
 70
     1
102
RTVSPropertyOp29
 70
     1
102
RTVSPropertyOp30
 70
     1
102
RTVSPropertyOp31
 70
     1
102
RTVSPropertyOp32
 70
     1
  0
XRECORD
  5
396
102
{ACAD_REACTORS
330
395
102
}
330
395
100
AcDbXrecord
280
     1
102
RTVSPropertyOp0
 70
     1
102
RTVSPropertyOp1
 70
     1
102
RTVSPropertyOp2
 70
     1
102
RTVSPropertyOp3
 70
     1
102
RTVSPropertyOp4
 70
     1
102
RTVSPropertyOp5
 70
     1
102
RTVSPropertyOp6
 70
     1
102
RTVSPropertyOp7
 70
     1
102
RTVSPropertyOp8
 70
     1
102
RTVSPropertyOp9
 70
     1
102
RTVSPropertyOp10
 70
     1
102
RTVSPropertyOp11
 70
     1
102
RTVSPropertyOp12
 70
     1
102
RTVSPropertyOp13
 70
     1
102
RTVSPropertyOp14
 70
     1
102
RTVSPropertyOp15
 70
     1
102
RTVSPropertyOp16
 70
     1
102
RTVSPropertyOp17
 70
     1
102
RTVSPropertyOp18
 70
     1
102
RTVSPropertyOp19
 70
     1
102
RTVSPropertyOp20
 70
     1
102
RTVSPropertyOp21
 70
     1
102
RTVSPropertyOp22
 70
     1
102
RTVSPropertyOp23
 70
     1
102
RTVSPropertyOp24
 70
     1
102
RTVSPropertyOp25
 70
     1
102
RTVSPropertyOp26
 70
     1
102
RTVSPropertyOp27
 70
     1
102
RTVSPropertyOp28
 70
     1
102
RTVSPropertyOp29
 70
     1
102
RTVSPropertyOp30
 70
     1
102
RTVSPropertyOp31
 70
     1
102
RTVSPropertyOp32
 70
     1
  0
XRECORD
  5
394
102
{ACAD_REACTORS
330
393
102
}
330
393
100
AcDbXrecord
280
     1
102
RTVSPropertyOp0
 70
     1
102
RTVSPropertyOp1
 70
     1
102
RTVSPropertyOp2
 70
     1
102
RTVSPropertyOp3
 70
     1
102
RTVSPropertyOp4
 70
     1
102
RTVSPropertyOp5
 70
     1
102
RTVSPropertyOp6
 70
     1
102
RTVSPropertyOp7
 70
     1
102
RTVSPropertyOp8
 70
     1
102
RTVSPropertyOp9
 70
     1
102
RTVSPropertyOp10
 70
     1
102
RTVSPropertyOp11
 70
     1
102
RTVSPropertyOp12
 70
     1
102
RTVSPropertyOp13
 70
     1
102
RTVSPropertyOp14
 70
     1
102
RTVSPropertyOp15
 70
     1
102
RTVSPropertyOp16
 70
     1
102
RTVSPropertyOp17
 70
     1
102
RTVSPropertyOp18
 70
     1
102
RTVSPropertyOp19
 70
     1
102
RTVSPropertyOp20
 70
     1
102
RTVSPropertyOp21
 70
     1
102
RTVSPropertyOp22
 70
     1
102
RTVSPropertyOp23
 70
     1
102
RTVSPropertyOp24
 70
     1
102
RTVSPropertyOp25
 70
     1
102
RTVSPropertyOp26
 70
     1
102
RTVSPropertyOp27
 70
     1
102
RTVSPropertyOp28
 70
     1
102
RTVSPropertyOp29
 70
     1
102
RTVSPropertyOp30
 70
     1
102
RTVSPropertyOp31
 70
     1
102
RTVSPropertyOp32
 70
     1
  0
XRECORD
  5
398
102
{ACAD_REACTORS
330
397
102
}
330
397
100
AcDbXrecord
280
     1
102
RTVSPropertyOp0
 70
     1
102
RTVSPropertyOp1
 70
     1
102
RTVSPropertyOp2
 70
     1
102
RTVSPropertyOp3
 70
     1
102
RTVSPropertyOp4
 70
     1
102
RTVSPropertyOp5
 70
     1
102
RTVSPropertyOp6
 70
     1
102
RTVSPropertyOp7
 70
     1
102
RTVSPropertyOp8
 70
     1
102
RTVSPropertyOp9
 70
     1
102
RTVSPropertyOp10
 70
     1
102
RTVSPropertyOp11
 70
     1
102
RTVSPropertyOp12
 70
     1
102
RTVSPropertyOp13
 70
     1
102
RTVSPropertyOp14
 70
     1
102
RTVSPropertyOp15
 70
     1
102
RTVSPropertyOp16
 70
     1
102
RTVSPropertyOp17
 70
     1
102
RTVSPropertyOp18
 70
     1
102
RTVSPropertyOp19
 70
     1
102
RTVSPropertyOp20
 70
     1
102
RTVSPropertyOp21
 70
     1
102
RTVSPropertyOp22
 70
     1
102
RTVSPropertyOp23
 70
     1
102
RTVSPropertyOp24
 70
     1
102
RTVSPropertyOp25
 70
     1
102
RTVSPropertyOp26
 70
     1
102
RTVSPropertyOp27
 70
     1
102
RTVSPropertyOp28
 70
     1
102
RTVSPropertyOp29
 70
     1
102
RTVSPropertyOp30
 70
     1
102
RTVSPropertyOp31
 70
     1
102
RTVSPropertyOp32
 70
     1
  0
XRECORD
  5
3A0
102
{ACAD_REACTORS
330
39F
102
}
330
39F
100
AcDbXrecord
280
     1
102
RTVSPropertyOp0
 70
     1
102
RTVSPropertyOp1
 70
     1
102
RTVSPropertyOp2
 70
     1
102
RTVSPropertyOp3
 70
     1
102
RTVSPropertyOp4
 70
     1
102
RTVSPropertyOp5
 70
     1
102
RTVSPropertyOp6
 70
     1
102
RTVSPropertyOp7
 70
     1
102
RTVSPropertyOp8
 70
     1
102
RTVSPropertyOp9
 70
     1
102
RTVSPropertyOp10
 70
     1
102
RTVSPropertyOp11
 70
     1
102
RTVSPropertyOp12
 70
     1
102
RTVSPropertyOp13
 70
     1
102
RTVSPropertyOp14
 70
     1
102
RTVSPropertyOp15
 70
     1
102
RTVSPropertyOp16
 70
     1
102
RTVSPropertyOp17
 70
     1
102
RTVSPropertyOp18
 70
     1
102
RTVSPropertyOp19
 70
     1
102
RTVSPropertyOp20
 70
     1
102
RTVSPropertyOp21
 70
     1
102
RTVSPropertyOp22
 70
     1
102
RTVSPropertyOp23
 70
     1
102
RTVSPropertyOp24
 70
     1
102
RTVSPropertyOp25
 70
     1
102
RTVSPropertyOp26
 70
     1
102
RTVSPropertyOp27
 70
     1
102
RTVSPropertyOp28
 70
     1
102
RTVSPropertyOp29
 70
     1
102
RTVSPropertyOp30
 70
     1
102
RTVSPropertyOp31
 70
     1
102
RTVSPropertyOp32
 70
     1
  0
XRECORD
  5
3A8
102
{ACAD_REACTORS
330
3A7
102
}
330
3A7
100
AcDbXrecord
280
     1
102
RTVSPropertyOp0
 70
     1
102
RTVSPropertyOp1
 70
     1
102
RTVSPropertyOp2
 70
     1
102
RTVSPropertyOp3
 70
     1
102
RTVSPropertyOp4
 70
     1
102
RTVSPropertyOp5
 70
     1
102
RTVSPropertyOp6
 70
     1
102
RTVSPropertyOp7
 70
     1
102
RTVSPropertyOp8
 70
     1
102
RTVSPropertyOp9
 70
     1
102
RTVSPropertyOp10
 70
     1
102
RTVSPropertyOp11
 70
     1
102
RTVSPropertyOp12
 70
     1
102
RTVSPropertyOp13
 70
     1
102
RTVSPropertyOp14
 70
     1
102
RTVSPropertyOp15
 70
     1
102
RTVSPropertyOp16
 70
     1
102
RTVSPropertyOp17
 70
     1
102
RTVSPropertyOp18
 70
     1
102
RTVSPropertyOp19
 70
     1
102
RTVSPropertyOp20
 70
     1
102
RTVSPropertyOp21
 70
     1
102
RTVSPropertyOp22
 70
     1
102
RTVSPropertyOp23
 70
     1
102
RTVSPropertyOp24
 70
     1
102
RTVSPropertyOp25
 70
     1
102
RTVSPropertyOp26
 70
     1
102
RTVSPropertyOp27
 70
     1
102
RTVSPropertyOp28
 70
     1
102
RTVSPropertyOp29
 70
     1
102
RTVSPropertyOp30
 70
     1
102
RTVSPropertyOp31
 70
     1
102
RTVSPropertyOp32
 70
     1
  0
XRECORD
  5
39C
102
{ACAD_REACTORS
330
39B
102
}
330
39B
100
AcDbXrecord
280
     1
102
RTVSPropertyOp0
 70
     1
102
RTVSPropertyOp1
 70
     1
102
RTVSPropertyOp2
 70
     1
102
RTVSPropertyOp3
 70
     1
102
RTVSPropertyOp4
 70
     1
102
RTVSPropertyOp5
 70
     1
102
RTVSPropertyOp6
 70
     1
102
RTVSPropertyOp7
 70
     1
102
RTVSPropertyOp8
 70
     1
102
RTVSPropertyOp9
 70
     1
102
RTVSPropertyOp10
 70
     1
102
RTVSPropertyOp11
 70
     1
102
RTVSPropertyOp12
 70
     1
102
RTVSPropertyOp13
 70
     1
102
RTVSPropertyOp14
 70
     1
102
RTVSPropertyOp15
 70
     1
102
RTVSPropertyOp16
 70
     1
102
RTVSPropertyOp17
 70
     1
102
RTVSPropertyOp18
 70
     1
102
RTVSPropertyOp19
 70
     1
102
RTVSPropertyOp20
 70
     1
102
RTVSPropertyOp21
 70
     1
102
RTVSPropertyOp22
 70
     1
102
RTVSPropertyOp23
 70
     1
102
RTVSPropertyOp24
 70
     1
102
RTVSPropertyOp25
 70
     1
102
RTVSPropertyOp26
 70
     1
102
RTVSPropertyOp27
 70
     1
102
RTVSPropertyOp28
 70
     1
102
RTVSPropertyOp29
 70
     1
102
RTVSPropertyOp30
 70
     1
102
RTVSPropertyOp31
 70
     1
102
RTVSPropertyOp32
 70
     1
  0
XRECORD
  5
39E
102
{ACAD_REACTORS
330
39D
102
}
330
39D
100
AcDbXrecord
280
     1
102
RTVSPropertyOp0
 70
     1
102
RTVSPropertyOp1
 70
     1
102
RTVSPropertyOp2
 70
     1
102
RTVSPropertyOp3
 70
     1
102
RTVSPropertyOp4
 70
     1
102
RTVSPropertyOp5
 70
     1
102
RTVSPropertyOp6
 70
     1
102
RTVSPropertyOp7
 70
     1
102
RTVSPropertyOp8
 70
     1
102
RTVSPropertyOp9
 70
     1
102
RTVSPropertyOp10
 70
     1
102
RTVSPropertyOp11
 70
     1
102
RTVSPropertyOp12
 70
     1
102
RTVSPropertyOp13
 70
     1
102
RTVSPropertyOp14
 70
     1
102
RTVSPropertyOp15
 70
     1
102
RTVSPropertyOp16
 70
     1
102
RTVSPropertyOp17
 70
     1
102
RTVSPropertyOp18
 70
     1
102
RTVSPropertyOp19
 70
     1
102
RTVSPropertyOp20
 70
     1
102
RTVSPropertyOp21
 70
     1
102
RTVSPropertyOp22
 70
     1
102
RTVSPropertyOp23
 70
     1
102
RTVSPropertyOp24
 70
     1
102
RTVSPropertyOp25
 70
     1
102
RTVSPropertyOp26
 70
     1
102
RTVSPropertyOp27
 70
     1
102
RTVSPropertyOp28
 70
     1
102
RTVSPropertyOp29
 70
     1
102
RTVSPropertyOp30
 70
     1
102
RTVSPropertyOp31
 70
     1
102
RTVSPropertyOp32
 70
     1
  0
XRECORD
  5
3A6
102
{ACAD_REACTORS
330
3A5
102
}
330
3A5
100
AcDbXrecord
280
     1
102
RTVSPropertyOp0
 70
     1
102
RTVSPropertyOp1
 70
     1
102
RTVSPropertyOp2
 70
     1
102
RTVSPropertyOp3
 70
     1
102
RTVSPropertyOp4
 70
     1
102
RTVSPropertyOp5
 70
     1
102
RTVSPropertyOp6
 70
     1
102
RTVSPropertyOp7
 70
     1
102
RTVSPropertyOp8
 70
     1
102
RTVSPropertyOp9
 70
     1
102
RTVSPropertyOp10
 70
     1
102
RTVSPropertyOp11
 70
     1
102
RTVSPropertyOp12
 70
     1
102
RTVSPropertyOp13
 70
     1
102
RTVSPropertyOp14
 70
     1
102
RTVSPropertyOp15
 70
     1
102
RTVSPropertyOp16
 70
     1
102
RTVSPropertyOp17
 70
     1
102
RTVSPropertyOp18
 70
     1
102
RTVSPropertyOp19
 70
     1
102
RTVSPropertyOp20
 70
     1
102
RTVSPropertyOp21
 70
     1
102
RTVSPropertyOp22
 70
     1
102
RTVSPropertyOp23
 70
     1
102
RTVSPropertyOp24
 70
     1
102
RTVSPropertyOp25
 70
     1
102
RTVSPropertyOp26
 70
     1
102
RTVSPropertyOp27
 70
     1
102
RTVSPropertyOp28
 70
     1
102
RTVSPropertyOp29
 70
     1
102
RTVSPropertyOp30
 70
     1
102
RTVSPropertyOp31
 70
     1
102
RTVSPropertyOp32
 70
     1
  0
XRECORD
  5
38A
102
{ACAD_REACTORS
330
389
102
}
330
389
100
AcDbXrecord
280
     1
102
RTVSPropertyOp0
 70
     1
102
RTVSPropertyOp1
 70
     1
102
RTVSPropertyOp2
 70
     1
102
RTVSPropertyOp3
 70
     1
102
RTVSPropertyOp4
 70
     1
102
RTVSPropertyOp5
 70
     1
102
RTVSPropertyOp6
 70
     1
102
RTVSPropertyOp7
 70
     1
102
RTVSPropertyOp8
 70
     1
102
RTVSPropertyOp9
 70
     1
102
RTVSPropertyOp10
 70
     1
102
RTVSPropertyOp11
 70
     1
102
RTVSPropertyOp12
 70
     1
102
RTVSPropertyOp13
 70
     1
102
RTVSPropertyOp14
 70
     1
102
RTVSPropertyOp15
 70
     1
102
RTVSPropertyOp16
 70
     1
102
RTVSPropertyOp17
 70
     1
102
RTVSPropertyOp18
 70
     1
102
RTVSPropertyOp19
 70
     1
102
RTVSPropertyOp20
 70
     1
102
RTVSPropertyOp21
 70
     1
102
RTVSPropertyOp22
 70
     1
102
RTVSPropertyOp23
 70
     1
102
RTVSPropertyOp24
 70
     1
102
RTVSPropertyOp25
 70
     1
102
RTVSPropertyOp26
 70
     1
102
RTVSPropertyOp27
 70
     1
102
RTVSPropertyOp28
 70
     1
102
RTVSPropertyOp29
 70
     1
102
RTVSPropertyOp30
 70
     1
102
RTVSPropertyOp31
 70
     1
102
RTVSPropertyOp32
 70
     1
  0
XRECORD
  5
38C
102
{ACAD_REACTORS
330
38B
102
}
330
38B
100
AcDbXrecord
280
     1
102
RTVSPropertyOp0
 70
     1
102
RTVSPropertyOp1
 70
     1
102
RTVSPropertyOp2
 70
     1
102
RTVSPropertyOp3
 70
     1
102
RTVSPropertyOp4
 70
     1
102
RTVSPropertyOp5
 70
     1
102
RTVSPropertyOp6
 70
     1
102
RTVSPropertyOp7
 70
     1
102
RTVSPropertyOp8
 70
     1
102
RTVSPropertyOp9
 70
     1
102
RTVSPropertyOp10
 70
     1
102
RTVSPropertyOp11
 70
     1
102
RTVSPropertyOp12
 70
     1
102
RTVSPropertyOp13
 70
     1
102
RTVSPropertyOp14
 70
     1
102
RTVSPropertyOp15
 70
     1
102
RTVSPropertyOp16
 70
     1
102
RTVSPropertyOp17
 70
     1
102
RTVSPropertyOp18
 70
     1
102
RTVSPropertyOp19
 70
     1
102
RTVSPropertyOp20
 70
     1
102
RTVSPropertyOp21
 70
     1
102
RTVSPropertyOp22
 70
     1
102
RTVSPropertyOp23
 70
     1
102
RTVSPropertyOp24
 70
     1
102
RTVSPropertyOp25
 70
     1
102
RTVSPropertyOp26
 70
     1
102
RTVSPropertyOp27
 70
     1
102
RTVSPropertyOp28
 70
     1
102
RTVSPropertyOp29
 70
     1
102
RTVSPropertyOp30
 70
     1
102
RTVSPropertyOp31
 70
     1
102
RTVSPropertyOp32
 70
     1
  0
XRECORD
  5
38E
102
{ACAD_REACTORS
330
38D
102
}
330
38D
100
AcDbXrecord
280
     1
102
RTVSPropertyOp0
 70
     1
102
RTVSPropertyOp1
 70
     1
102
RTVSPropertyOp2
 70
     1
102
RTVSPropertyOp3
 70
     1
102
RTVSPropertyOp4
 70
     1
102
RTVSPropertyOp5
 70
     1
102
RTVSPropertyOp6
 70
     1
102
RTVSPropertyOp7
 70
     1
102
RTVSPropertyOp8
 70
     1
102
RTVSPropertyOp9
 70
     1
102
RTVSPropertyOp10
 70
     1
102
RTVSPropertyOp11
 70
     1
102
RTVSPropertyOp12
 70
     1
102
RTVSPropertyOp13
 70
     1
102
RTVSPropertyOp14
 70
     1
102
RTVSPropertyOp15
 70
     1
102
RTVSPropertyOp16
 70
     1
102
RTVSPropertyOp17
 70
     1
102
RTVSPropertyOp18
 70
     1
102
RTVSPropertyOp19
 70
     1
102
RTVSPropertyOp20
 70
     1
102
RTVSPropertyOp21
 70
     1
102
RTVSPropertyOp22
 70
     1
102
RTVSPropertyOp23
 70
     1
102
RTVSPropertyOp24
 70
     1
102
RTVSPropertyOp25
 70
     1
102
RTVSPropertyOp26
 70
     1
102
RTVSPropertyOp27
 70
     1
102
RTVSPropertyOp28
 70
     1
102
RTVSPropertyOp29
 70
     1
102
RTVSPropertyOp30
 70
     1
102
RTVSPropertyOp31
 70
     1
102
RTVSPropertyOp32
 70
     1
  0
XRECORD
  5
390
102
{ACAD_REACTORS
330
38F
102
}
330
38F
100
AcDbXrecord
280
     1
102
RTVSPropertyOp0
 70
     1
102
RTVSPropertyOp1
 70
     1
102
RTVSPropertyOp2
 70
     1
102
RTVSPropertyOp3
 70
     1
102
RTVSPropertyOp4
 70
     1
102
RTVSPropertyOp5
 70
     1
102
RTVSPropertyOp6
 70
     1
102
RTVSPropertyOp7
 70
     1
102
RTVSPropertyOp8
 70
     1
102
RTVSPropertyOp9
 70
     1
102
RTVSPropertyOp10
 70
     1
102
RTVSPropertyOp11
 70
     1
102
RTVSPropertyOp12
 70
     1
102
RTVSPropertyOp13
 70
     1
102
RTVSPropertyOp14
 70
     1
102
RTVSPropertyOp15
 70
     1
102
RTVSPropertyOp16
 70
     1
102
RTVSPropertyOp17
 70
     1
102
RTVSPropertyOp18
 70
     1
102
RTVSPropertyOp19
 70
     1
102
RTVSPropertyOp20
 70
     1
102
RTVSPropertyOp21
 70
     1
102
RTVSPropertyOp22
 70
     1
102
RTVSPropertyOp23
 70
     1
102
RTVSPropertyOp24
 70
     1
102
RTVSPropertyOp25
 70
     1
102
RTVSPropertyOp26
 70
     1
102
RTVSPropertyOp27
 70
     1
102
RTVSPropertyOp28
 70
     1
102
RTVSPropertyOp29
 70
     1
102
RTVSPropertyOp30
 70
     1
102
RTVSPropertyOp31
 70
     1
102
RTVSPropertyOp32
 70
     1
  0
XRECORD
  5
3A4
102
{ACAD_REACTORS
330
3A3
102
}
330
3A3
100
AcDbXrecord
280
     1
102
RTVSPropertyOp0
 70
     1
102
RTVSPropertyOp1
 70
     1
102
RTVSPropertyOp2
 70
     1
102
RTVSPropertyOp3
 70
     1
102
RTVSPropertyOp4
 70
     1
102
RTVSPropertyOp5
 70
     1
102
RTVSPropertyOp6
 70
     1
102
RTVSPropertyOp7
 70
     1
102
RTVSPropertyOp8
 70
     1
102
RTVSPropertyOp9
 70
     1
102
RTVSPropertyOp10
 70
     1
102
RTVSPropertyOp11
 70
     1
102
RTVSPropertyOp12
 70
     1
102
RTVSPropertyOp13
 70
     1
102
RTVSPropertyOp14
 70
     1
102
RTVSPropertyOp15
 70
     1
102
RTVSPropertyOp16
 70
     1
102
RTVSPropertyOp17
 70
     1
102
RTVSPropertyOp18
 70
     1
102
RTVSPropertyOp19
 70
     1
102
RTVSPropertyOp20
 70
     1
102
RTVSPropertyOp21
 70
     1
102
RTVSPropertyOp22
 70
     1
102
RTVSPropertyOp23
 70
     1
102
RTVSPropertyOp24
 70
     1
102
RTVSPropertyOp25
 70
     1
102
RTVSPropertyOp26
 70
     1
102
RTVSPropertyOp27
 70
     1
102
RTVSPropertyOp28
 70
     1
102
RTVSPropertyOp29
 70
     1
102
RTVSPropertyOp30
 70
     1
102
RTVSPropertyOp31
 70
     1
102
RTVSPropertyOp32
 70
     1
  0
XRECORD
  5
39A
102
{ACAD_REACTORS
330
399
102
}
330
399
100
AcDbXrecord
280
     1
102
RTVSPropertyOp0
 70
     1
102
RTVSPropertyOp1
 70
     1
102
RTVSPropertyOp2
 70
     1
102
RTVSPropertyOp3
 70
     1
102
RTVSPropertyOp4
 70
     1
102
RTVSPropertyOp5
 70
     1
102
RTVSPropertyOp6
 70
     1
102
RTVSPropertyOp7
 70
     1
102
RTVSPropertyOp8
 70
     1
102
RTVSPropertyOp9
 70
     1
102
RTVSPropertyOp10
 70
     1
102
RTVSPropertyOp11
 70
     1
102
RTVSPropertyOp12
 70
     1
102
RTVSPropertyOp13
 70
     1
102
RTVSPropertyOp14
 70
     1
102
RTVSPropertyOp15
 70
     1
102
RTVSPropertyOp16
 70
     1
102
RTVSPropertyOp17
 70
     1
102
RTVSPropertyOp18
 70
     1
102
RTVSPropertyOp19
 70
     1
102
RTVSPropertyOp20
 70
     1
102
RTVSPropertyOp21
 70
     1
102
RTVSPropertyOp22
 70
     1
102
RTVSPropertyOp23
 70
     1
102
RTVSPropertyOp24
 70
     1
102
RTVSPropertyOp25
 70
     1
102
RTVSPropertyOp26
 70
     1
102
RTVSPropertyOp27
 70
     1
102
RTVSPropertyOp28
 70
     1
102
RTVSPropertyOp29
 70
     1
102
RTVSPropertyOp30
 70
     1
102
RTVSPropertyOp31
 70
     1
102
RTVSPropertyOp32
 70
     1
  0
XRECORD
  5
3A2
102
{ACAD_REACTORS
330
3A1
102
}
330
3A1
100
AcDbXrecord
280
     1
102
RTVSPropertyOp0
 70
     1
102
RTVSPropertyOp1
 70
     1
102
RTVSPropertyOp2
 70
     1
102
RTVSPropertyOp3
 70
     1
102
RTVSPropertyOp4
 70
     1
102
RTVSPropertyOp5
 70
     1
102
RTVSPropertyOp6
 70
     1
102
RTVSPropertyOp7
 70
     1
102
RTVSPropertyOp8
 70
     1
102
RTVSPropertyOp9
 70
     1
102
RTVSPropertyOp10
 70
     1
102
RTVSPropertyOp11
 70
     1
102
RTVSPropertyOp12
 70
     1
102
RTVSPropertyOp13
 70
     1
102
RTVSPropertyOp14
 70
     1
102
RTVSPropertyOp15
 70
     1
102
RTVSPropertyOp16
 70
     1
102
RTVSPropertyOp17
 70
     1
102
RTVSPropertyOp18
 70
     1
102
RTVSPropertyOp19
 70
     1
102
RTVSPropertyOp20
 70
     1
102
RTVSPropertyOp21
 70
     1
102
RTVSPropertyOp22
 70
     1
102
RTVSPropertyOp23
 70
     1
102
RTVSPropertyOp24
 70
     1
102
RTVSPropertyOp25
 70
     1
102
RTVSPropertyOp26
 70
     1
102
RTVSPropertyOp27
 70
     1
102
RTVSPropertyOp28
 70
     1
102
RTVSPropertyOp29
 70
     1
102
RTVSPropertyOp30
 70
     1
102
RTVSPropertyOp31
 70
     1
102
RTVSPropertyOp32
 70
     1
  0
ENDSEC
  0
EOF
