  0
SECTION
  2
HEADER
  9
$ACADVER
  1
AC1015
  9
$ACADMAINTVER
 70
     6
  9
$DWGCODEPAGE
  3
ANSI_1252
  9
$INSBASE
 10
0.0
 20
0.0
 30
0.0
  9
$EXTMIN
 10
-109.8740616157476
 20
696.1343427547549
 30
0.0
  9
$EXTMAX
 10
310.1259383842508
 20
993.1343427547549
 30
0.0
  9
$LIMMIN
 10
0.0
 20
0.0
  9
$LIMMAX
 10
12.0
 20
9.0
  9
$ORTHOMODE
 70
     0
  9
$REGENMODE
 70
     1
  9
$FILLMODE
 70
     1
  9
$QTEXTMODE
 70
     0
  9
$MIRRTEXT
 70
     1
  9
$LTSCALE
 40
1.0
  9
$ATTMODE
 70
     1
  9
$TEXTSIZE
 40
0.2
  9
$TRACEWID
 40
0.05
  9
$TEXTSTYLE
  7
Standard
  9
$CLAYER
  8
0
  9
$CELTYPE
  6
ByLayer
  9
$CECOLOR
 62
   256
  9
$CELTSCALE
 40
1.0
  9
$DISPSILH
 70
     0
  9
$DIMSCALE
 40
1.0
  9
$DIMASZ
 40
0.18
  9
$DIMEXO
 40
0.0625
  9
$DIMDLI
 40
0.38
  9
$DIMRND
 40
0.0
  9
$DIMDLE
 40
0.0
  9
$DIMEXE
 40
0.18
  9
$DIMTP
 40
0.0
  9
$DIMTM
 40
0.0
  9
$DIMTXT
 40
0.18
  9
$DIMCEN
 40
0.09
  9
$DIMTSZ
 40
0.0
  9
$DIMTOL
 70
     0
  9
$DIMLIM
 70
     0
  9
$DIMTIH
 70
     1
  9
$DIMTOH
 70
     1
  9
$DIMSE1
 70
     0
  9
$DIMSE2
 70
     0
  9
$DIMTAD
 70
     0
  9
$DIMZIN
 70
     0
  9
$DIMBLK
  1

  9
$DIMASO
 70
     1
  9
$DIMSHO
 70
     1
  9
$DIMPOST
  1

  9
$DIMAPOST
  1

  9
$DIMALT
 70
     0
  9
$DIMALTD
 70
     2
  9
$DIMALTF
 40
25.4
  9
$DIMLFAC
 40
1.0
  9
$DIMTOFL
 70
     0
  9
$DIMTVP
 40
0.0
  9
$DIMTIX
 70
     0
  9
$DIMSOXD
 70
     0
  9
$DIMSAH
 70
     0
  9
$DIMBLK1
  1

  9
$DIMBLK2
  1

  9
$DIMSTYLE
  2
Standard
  9
$DIMCLRD
 70
     0
  9
$DIMCLRE
 70
     0
  9
$DIMCLRT
 70
     0
  9
$DIMTFAC
 40
1.0
  9
$DIMGAP
 40
0.09
  9
$DIMJUST
 70
     0
  9
$DIMSD1
 70
     0
  9
$DIMSD2
 70
     0
  9
$DIMTOLJ
 70
     1
  9
$DIMTZIN
 70
     0
  9
$DIMALTZ
 70
     0
  9
$DIMALTTZ
 70
     0
  9
$DIMUPT
 70
     0
  9
$DIMDEC
 70
     4
  9
$DIMTDEC
 70
     4
  9
$DIMALTU
 70
     2
  9
$DIMALTTD
 70
     2
  9
$DIMTXSTY
  7
Standard
  9
$DIMAUNIT
 70
     0
  9
$DIMADEC
 70
     0
  9
$DIMALTRND
 40
0.0
  9
$DIMAZIN
 70
     0
  9
$DIMDSEP
 70
    46
  9
$DIMATFIT
 70
     3
  9
$DIMFRAC
 70
     0
  9
$DIMLDRBLK
  1

  9
$DIMLUNIT
 70
     2
  9
$DIMLWD
 70
    -2
  9
$DIMLWE
 70
    -2
  9
$DIMTMOVE
 70
     0
  9
$LUNITS
 70
     2
  9
$LUPREC
 70
     4
  9
$SKETCHINC
 40
0.1
  9
$FILLETRAD
 40
0.5
  9
$AUNITS
 70
     0
  9
$AUPREC
 70
     0
  9
$MENU
  1
.
  9
$ELEVATION
 40
0.0
  9
$PELEVATION
 40
0.0
  9
$THICKNESS
 40
0.0
  9
$LIMCHECK
 70
     0
  9
$CHAMFERA
 40
0.5
  9
$CHAMFERB
 40
0.5
  9
$CHAMFERC
 40
1.0
  9
$CHAMFERD
 40
0.0
  9
$SKPOLY
 70
     0
  9
$TDCREATE
 40
2456784.660740498
  9
$TDUCREATE
 40
2456784.577407164
  9
$TDUPDATE
 40
2456784.660742384
  9
$TDUUPDATE
 40
2456784.577409051
  9
$TDINDWG
 40
0.0000000116
  9
$TDUSRTIMER
 40
0.0000000116
  9
$USRTIMER
 70
     1
  9
$ANGBASE
 50
0.0
  9
$ANGDIR
 70
     0
  9
$PDMODE
 70
     0
  9
$PDSIZE
 40
0.0
  9
$PLINEWID
 40
0.0
  9
$SPLFRAME
 70
     0
  9
$SPLINETYPE
 70
     6
  9
$SPLINESEGS
 70
     8
  9
$HANDSEED
  5
385
  9
$SURFTAB1
 70
     6
  9
$SURFTAB2
 70
     6
  9
$SURFTYPE
 70
     6
  9
$SURFU
 70
     6
  9
$SURFV
 70
     6
  9
$UCSBASE
  2

  9
$UCSNAME
  2

  9
$UCSORG
 10
0.0
 20
0.0
 30
0.0
  9
$UCSXDIR
 10
1.0
 20
0.0
 30
0.0
  9
$UCSYDIR
 10
0.0
 20
1.0
 30
0.0
  9
$UCSORTHOREF
  2

  9
$UCSORTHOVIEW
 70
     0
  9
$UCSORGTOP
 10
0.0
 20
0.0
 30
0.0
  9
$UCSORGBOTTOM
 10
0.0
 20
0.0
 30
0.0
  9
$UCSORGLEFT
 10
0.0
 20
0.0
 30
0.0
  9
$UCSORGRIGHT
 10
0.0
 20
0.0
 30
0.0
  9
$UCSORGFRONT
 10
0.0
 20
0.0
 30
0.0
  9
$UCSORGBACK
 10
0.0
 20
0.0
 30
0.0
  9
$PUCSBASE
  2

  9
$PUCSNAME
  2

  9
$PUCSORG
 10
0.0
 20
0.0
 30
0.0
  9
$PUCSXDIR
 10
1.0
 20
0.0
 30
0.0
  9
$PUCSYDIR
 10
0.0
 20
1.0
 30
0.0
  9
$PUCSORTHOREF
  2

  9
$PUCSORTHOVIEW
 70
     0
  9
$PUCSORGTOP
 10
0.0
 20
0.0
 30
0.0
  9
$PUCSORGBOTTOM
 10
0.0
 20
0.0
 30
0.0
  9
$PUCSORGLEFT
 10
0.0
 20
0.0
 30
0.0
  9
$PUCSORGRIGHT
 10
0.0
 20
0.0
 30
0.0
  9
$PUCSORGFRONT
 10
0.0
 20
0.0
 30
0.0
  9
$PUCSORGBACK
 10
0.0
 20
0.0
 30
0.0
  9
$USERI1
 70
     0
  9
$USERI2
 70
     0
  9
$USERI3
 70
     0
  9
$USERI4
 70
     0
  9
$USERI5
 70
     0
  9
$USERR1
 40
18.1
  9
$USERR2
 40
0.0
  9
$USERR3
 40
0.0
  9
$USERR4
 40
0.0
  9
$USERR5
 40
0.0
  9
$WORLDVIEW
 70
     1
  9
$SHADEDGE
 70
     3
  9
$SHADEDIF
 70
    70
  9
$TILEMODE
 70
     1
  9
$MAXACTVP
 70
    64
  9
$PINSBASE
 10
0.0
 20
0.0
 30
0.0
  9
$PLIMCHECK
 70
     0
  9
$PEXTMIN
 10
1.00000000000000E+20
 20
1.00000000000000E+20
 30
1.00000000000000E+20
  9
$PEXTMAX
 10
-1.00000000000000E+20
 20
-1.00000000000000E+20
 30
-1.00000000000000E+20
  9
$PLIMMIN
 10
0.0
 20
0.0
  9
$PLIMMAX
 10
12.0
 20
9.0
  9
$UNITMODE
 70
     0
  9
$VISRETAIN
 70
     1
  9
$PLINEGEN
 70
     0
  9
$PSLTSCALE
 70
     1
  9
$TREEDEPTH
 70
  3020
  9
$CMLSTYLE
  2
Standard
  9
$CMLJUST
 70
     0
  9
$CMLSCALE
 40
1.0
  9
$PROXYGRAPHICS
 70
     1
  9
$MEASUREMENT
 70
     1
  9
$CELWEIGHT
370
    -1
  9
$ENDCAPS
280
     0
  9
$JOINSTYLE
280
     0
  9
$LWDISPLAY
290
     0
  9
$INSUNITS
 70
     4
  9
$HYPERLINKBASE
  1

  9
$STYLESHEET
  1

  9
$XEDIT
290
     1
  9
$CEPSNTYPE
380
     0
  9
$PSTYLEMODE
290
     1
  9
$FINGERPRINTGUID
  2
{4AB8F737-D3C3-4A67-9861-ED69B978498A}
  9
$VERSIONGUID
  2
{FAEB1C32-E019-11D5-929B-00C0DF256EC4}
  9
$EXTNAMES
290
     1
  9
$PSVPSCALE
 40
0.0
  9
$OLESTARTUP
290
     0
  0
ENDSEC
  0
SECTION
  2
CLASSES
  0
CLASS
  1
ACDBDICTIONARYWDFLT
  2
AcDbDictionaryWithDefault
  3
ObjectDBX Classes
 90
        0
280
     0
281
     0
  0
CLASS
  1
VISUALSTYLE
  2
AcDbVisualStyle
  3
ObjectDBX Classes
 90
     4095
280
     0
281
     0
  0
CLASS
  1
MATERIAL
  2
AcDbMaterial
  3
ObjectDBX Classes
 90
     1153
280
     0
281
     0
  0
CLASS
  1
DICTIONARYVAR
  2
AcDbDictionaryVar
  3
ObjectDBX Classes
 90
        0
280
     0
281
     0
  0
CLASS
  1
ACDBPLACEHOLDER
  2
AcDbPlaceHolder
  3
ObjectDBX Classes
 90
        0
280
     0
281
     0
  0
CLASS
  1
LAYOUT
  2
AcDbLayout
  3
ObjectDBX Classes
 90
        0
280
     0
281
     0
  0
ENDSEC
  0
SECTION
  2
TABLES
  0
TABLE
  2
VPORT
  5
8
330
0
100
AcDbSymbolTable
 70
     1
  0
VPORT
  5
29
330
8
100
AcDbSymbolTableRecord
100
AcDbViewportTableRecord
  2
*Active
 70
     0
 10
0.0
 20
0.0
 11
1.0
 21
1.0
 12
100.1259383842516
 22
844.6343427547549
 13
0.0
 23
0.0
 14
0.5
 24
0.5
 15
0.5
 25
0.5
 16
0.0
 26
0.0
 36
1.0
 17
0.0
 27
0.0
 37
0.0
 40
326.7
 41
1.60267857142857
 42
50.0
 43
0.0
 44
0.0
 50
0.0
 51
0.0
 71
     0
 72
   100
 73
     1
 74
     3
 75
     0
 76
     0
 77
     0
 78
     0
281
     0
 65
     1
110
0.0
120
0.0
130
0.0
111
1.0
121
0.0
131
0.0
112
0.0
122
1.0
132
0.0
 79
     0
146
0.0
  0
ENDTAB
  0
TABLE
  2
LTYPE
  5
5
330
0
100
AcDbSymbolTable
 70
     8
  0
LTYPE
  5
14
330
5
100
AcDbSymbolTableRecord
100
AcDbLinetypeTableRecord
  2
ByBlock
 70
     0
  3

 72
    65
 73
     0
 40
0.0
  0
LTYPE
  5
15
330
5
100
AcDbSymbolTableRecord
100
AcDbLinetypeTableRecord
  2
ByLayer
 70
     0
  3

 72
    65
 73
     0
 40
0.0
  0
LTYPE
  5
16
330
5
100
AcDbSymbolTableRecord
100
AcDbLinetypeTableRecord
  2
Continuous
 70
     0
  3
Solid line
 72
    65
 73
     0
 40
0.0
  0
LTYPE
  5
3F
330
5
100
AcDbSymbolTableRecord
100
AcDbLinetypeTableRecord
  2
DASHED
 70
     0
  3
Dashed
 72
    65
 73
     2
 40
15.0
 49
7.0
 74
     0
 49
-8.0
 74
     0
  0
LTYPE
  5
40
330
5
100
AcDbSymbolTableRecord
100
AcDbLinetypeTableRecord
  2
DOTTED
 70
     0
  3
Dotted
 72
    65
 73
     2
 40
1.0
 49
0.0
 74
     0
 49
-1.0
 74
     0
  0
LTYPE
  5
41
330
5
100
AcDbSymbolTableRecord
100
AcDbLinetypeTableRecord
  2
DOT_CENTER
 70
     0
  3
Dot_Center
 72
    65
 73
     4
 40
14.0
 49
12.0
 74
     0
 49
-1.0
 74
     0
 49
0.0
 74
     0
 49
-1.0
 74
     0
  0
LTYPE
  5
42
330
5
100
AcDbSymbolTableRecord
100
AcDbLinetypeTableRecord
  2
LONG_DASHED
 70
     0
  3
Long_Dashed
 72
    65
 73
     2
 40
15.0
 49
10.0
 74
     0
 49
-5.0
 74
     0
  0
LTYPE
  5
43
330
5
100
AcDbSymbolTableRecord
100
AcDbLinetypeTableRecord
  2
DASH_CENTER
 70
     0
  3
Dash_Center
 72
    65
 73
     4
 40
14.0
 49
11.0
 74
     0
 49
-1.0
 74
     0
 49
1.0
 74
     0
 49
-1.0
 74
     0
  0
LTYPE
  5
44
330
5
100
AcDbSymbolTableRecord
100
AcDbLinetypeTableRecord
  2
PHANTOM
 70
     0
  3
Phantom
 72
    65
 73
     6
 40
13.0
 49
10.0
 74
     0
 49
-1.0
 74
     0
 49
0.0
 74
     0
 49
-1.0
 74
     0
 49
0.0
 74
     0
 49
-1.0
 74
     0
  0
LTYPE
  5
45
330
5
100
AcDbSymbolTableRecord
100
AcDbLinetypeTableRecord
  2
CENTER_DASH_DASH
 70
     0
  3
Center_Dash_Dash
 72
    65
 73
     6
 40
14.0
 49
9.0
 74
     0
 49
-1.0
 74
     0
 49
1.0
 74
     0
 49
-1.0
 74
     0
 49
1.0
 74
     0
 49
-1.0
 74
     0
  0
ENDTAB
  0
TABLE
  2
LAYER
  5
2
330
0
100
AcDbSymbolTable
 70
     2
  0
LAYER
  5
10
330
2
100
AcDbSymbolTableRecord
100
AcDbLayerTableRecord
  2
0
 70
     0
 62
     7
  6
Continuous
370
    -3
390
F
  0
LAYER
  5
46
330
2
100
AcDbSymbolTableRecord
100
AcDbLayerTableRecord
  2
1
 70
     0
 62
     7
  6
Continuous
370
    -3
390
F
  0
ENDTAB
  0
TABLE
  2
STYLE
  5
3
330
0
100
AcDbSymbolTable
 70
     9
  0
STYLE
  5
11
330
3
100
AcDbSymbolTableRecord
100
AcDbTextStyleTableRecord
  2
Standard
 70
     0
 40
0.0
 41
1.0
 50
0.0
 71
     0
 42
0.2
  3
txt
  4

  0
STYLE
  5
AC
330
3
100
AcDbSymbolTableRecord
100
AcDbTextStyleTableRecord
  2
CONVERTER_11
 70
     0
 40
0.0
 41
0.9
 50
0.0
 71
     0
 42
0.2
  3
txt.shx
  4

  0
STYLE
  5
2D3
330
3
100
AcDbSymbolTableRecord
100
AcDbTextStyleTableRecord
  2
CONVERTER_12
 70
     0
 40
0.0
 41
0.81
 50
0.0
 71
     0
 42
0.2
  3
txt.shx
  4

  0
STYLE
  5
2D5
330
3
100
AcDbSymbolTableRecord
100
AcDbTextStyleTableRecord
  2
CONVERTER_13
 70
     0
 40
0.0
 41
0.54
 50
0.0
 71
     0
 42
0.2
  3
txt.shx
  4

  0
STYLE
  5
2D7
330
3
100
AcDbSymbolTableRecord
100
AcDbTextStyleTableRecord
  2
CONVERTER_14
 70
     0
 40
0.0
 41
0.72
 50
0.0
 71
     0
 42
0.2
  3
txt.shx
  4

  0
STYLE
  5
2D9
330
3
100
AcDbSymbolTableRecord
100
AcDbTextStyleTableRecord
  2
CONVERTER_15
 70
     0
 40
0.0
 41
0.63
 50
0.0
 71
     0
 42
0.2
  3
txt.shx
  4

  0
STYLE
  5
2DD
330
3
100
AcDbSymbolTableRecord
100
AcDbTextStyleTableRecord
  2
CONVERTER_16
 70
     0
 40
0.0
 41
0.45
 50
0.0
 71
     0
 42
0.2
  3
txt.shx
  4

  0
STYLE
  5
315
330
3
100
AcDbSymbolTableRecord
100
AcDbTextStyleTableRecord
  2
CONVERTER_17
 70
     0
 40
0.0
 41
0.855
 50
0.0
 71
     0
 42
0.2
  3
txt.shx
  4

  0
STYLE
  5
337
330
3
100
AcDbSymbolTableRecord
100
AcDbTextStyleTableRecord
  2
CONVERTER_18
 70
     0
 40
0.0
 41
0.765
 50
0.0
 71
     0
 42
0.2
  3
txt.shx
  4

  0
ENDTAB
  0
TABLE
  2
VIEW
  5
6
330
0
100
AcDbSymbolTable
 70
     0
  0
ENDTAB
  0
TABLE
  2
UCS
  5
7
330
0
100
AcDbSymbolTable
 70
     0
  0
ENDTAB
  0
TABLE
  2
APPID
  5
9
330
0
100
AcDbSymbolTable
 70
     1
  0
APPID
  5
12
330
9
100
AcDbSymbolTableRecord
100
AcDbRegAppTableRecord
  2
ACAD
 70
     0
  0
ENDTAB
  0
TABLE
  2
DIMSTYLE
  5
A
330
0
100
AcDbSymbolTable
 70
     3
100
AcDbDimStyleTable
  0
DIMSTYLE
105
27
330
A
100
AcDbSymbolTableRecord
100
AcDbDimStyleTableRecord
  2
Standard
 70
     0
178
     0
340
11
  0
DIMSTYLE
105
121
102
{ACAD_REACTORS
330
122
102
}
330
A
100
AcDbSymbolTableRecord
100
AcDbDimStyleTableRecord
  2
ME10_DIM_10
 70
     0
 41
3.5
 42
0.0
 44
2.0
 73
     0
 74
     0
 77
     1
 78
     8
140
3.5
147
2.0
172
     1
173
     1
174
     1
175
     1
176
     2
177
     2
178
     3
340
AC
  0
DIMSTYLE
105
12C
102
{ACAD_REACTORS
330
12D
102
}
330
A
100
AcDbSymbolTableRecord
100
AcDbDimStyleTableRecord
  2
ME10_DIM_11
 70
     0
  3
ø<>
 41
3.5
 42
0.0
 44
2.0
 73
     0
 74
     0
 77
     1
 78
     8
140
3.5
147
2.0
172
     1
173
     1
174
     1
175
     1
176
     2
177
     2
178
     3
340
AC
  0
ENDTAB
  0
TABLE
  2
BLOCK_RECORD
  5
1
330
0
100
AcDbSymbolTable
 70
    18
  0
BLOCK_RECORD
  5
1F
330
1
100
AcDbSymbolTableRecord
100
AcDbBlockTableRecord
  2
*Model_Space
340
22
  0
BLOCK_RECORD
  5
1B
330
1
100
AcDbSymbolTableRecord
100
AcDbBlockTableRecord
  2
*Paper_Space
340
1E
  0
BLOCK_RECORD
  5
23
330
1
100
AcDbSymbolTableRecord
100
AcDbBlockTableRecord
  2
*Paper_Space0
340
26
  0
BLOCK_RECORD
  5
47
330
1
100
AcDbSymbolTableRecord
100
AcDbBlockTableRecord
  2
1411254_A_INL_M63_S_S-select__1
340
0
102
{BLKREFS
331
4B
102
}
  0
BLOCK_RECORD
  5
4A
330
1
100
AcDbSymbolTableRecord
100
AcDbBlockTableRecord
  2
Allg1
340
0
102
{BLKREFS
331
7C
102
}
  0
BLOCK_RECORD
  5
4E
330
1
100
AcDbSymbolTableRecord
100
AcDbBlockTableRecord
  2
1411254_A_INL_M63_S_S-select__2
340
0
102
{BLKREFS
331
52
102
}
  0
BLOCK_RECORD
  5
51
330
1
100
AcDbSymbolTableRecord
100
AcDbBlockTableRecord
  2
Drfsicht1
340
0
102
{BLKREFS
331
7D
102
}
  0
BLOCK_RECORD
  5
55
330
1
100
AcDbSymbolTableRecord
100
AcDbBlockTableRecord
  2
1411254_A_INL_M63_S_S-select__3
340
0
102
{BLKREFS
331
59
102
}
  0
BLOCK_RECORD
  5
58
330
1
100
AcDbSymbolTableRecord
100
AcDbBlockTableRecord
  2
Rckans1
340
0
102
{BLKREFS
331
7E
102
}
  0
BLOCK_RECORD
  5
5C
330
1
100
AcDbSymbolTableRecord
100
AcDbBlockTableRecord
  2
1411254_A_INL_M63_S_S-select__4
340
0
102
{BLKREFS
331
60
102
}
  0
BLOCK_RECORD
  5
5F
330
1
100
AcDbSymbolTableRecord
100
AcDbBlockTableRecord
  2
SA_Links1
340
0
102
{BLKREFS
331
7F
102
}
  0
BLOCK_RECORD
  5
63
330
1
100
AcDbSymbolTableRecord
100
AcDbBlockTableRecord
  2
1411254_A_INL_M63_S_S-select__5
340
0
102
{BLKREFS
331
67
102
}
  0
BLOCK_RECORD
  5
66
330
1
100
AcDbSymbolTableRecord
100
AcDbBlockTableRecord
  2
SA_Rechts1
340
0
102
{BLKREFS
331
80
102
}
  0
BLOCK_RECORD
  5
6A
330
1
100
AcDbSymbolTableRecord
100
AcDbBlockTableRecord
  2
1411254_A_INL_M63_S_S-select__6
340
0
102
{BLKREFS
331
6E
102
}
  0
BLOCK_RECORD
  5
6D
330
1
100
AcDbSymbolTableRecord
100
AcDbBlockTableRecord
  2
Vordans1
340
0
102
{BLKREFS
331
81
102
}
  0
BLOCK_RECORD
  5
71
330
1
100
AcDbSymbolTableRecord
100
AcDbBlockTableRecord
  2
_rahmen
340
0
102
{BLKREFS
331
78
102
}
  0
BLOCK_RECORD
  5
74
330
1
100
AcDbSymbolTableRecord
100
AcDbBlockTableRecord
  2
_punkt
340
0
102
{BLKREFS
331
79
102
}
  0
BLOCK_RECORD
  5
77
330
1
100
AcDbSymbolTableRecord
100
AcDbBlockTableRecord
  2
A3I
340
0
102
{BLKREFS
331
82
102
}
  0
BLOCK_RECORD
  5
116
330
1
100
AcDbSymbolTableRecord
100
AcDbBlockTableRecord
  2
*D16
340
0
  0
BLOCK_RECORD
  5
123
330
1
100
AcDbSymbolTableRecord
100
AcDbBlockTableRecord
  2
*D17
340
0
  0
ENDTAB
  0
ENDSEC
  0
SECTION
  2
BLOCKS
  0
BLOCK
  5
20
330
1F
100
AcDbEntity
  8
0
100
AcDbBlockBegin
  2
*Model_Space
 70
     0
 10
0.0
 20
0.0
 30
0.0
  3
*Model_Space
  1

  0
ENDBLK
  5
21
330
1F
100
AcDbEntity
  8
0
100
AcDbBlockEnd
  0
BLOCK
  5
1C
330
1B
100
AcDbEntity
 67
     1
  8
0
100
AcDbBlockBegin
  2
*Paper_Space
 70
     0
 10
0.0
 20
0.0
 30
0.0
  3
*Paper_Space
  1

  0
ENDBLK
  5
1D
330
1B
100
AcDbEntity
 67
     1
  8
0
100
AcDbBlockEnd
  0
BLOCK
  5
24
330
23
100
AcDbEntity
  8
0
100
AcDbBlockBegin
  2
*Paper_Space0
 70
     0
 10
0.0
 20
0.0
 30
0.0
  3
*Paper_Space0
  1

  0
ENDBLK
  5
25
330
23
100
AcDbEntity
  8
0
100
AcDbBlockEnd
  0
BLOCK
  5
48
330
47
100
AcDbEntity
  8
0
100
AcDbBlockBegin
  2
1411254_A_INL_M63_S_S-select__1
 70
     0
 10
215.4391108675438
 20
759.2260085627383
 30
0.0
  3
1411254_A_INL_M63_S_S-select__1
  1

  0
LINE
  5
83
330
47
100
AcDbEntity
  8
0
  6
Continuous
 62
     7
100
AcDbLine
 10
221.0652942345125
 20
822.2349831589539
 30
0.0
 11
245.1238166330305
 21
829.1800803504985
 31
0.0
  0
LINE
  5
84
330
47
100
AcDbEntity
  8
0
  6
Continuous
 62
     7
100
AcDbLine
 10
251.3761833669678
 20
827.375177542043
 30
0.0
 11
249.3450944537223
 21
825.6162029458275
 31
0.0
  0
LINE
  5
85
330
47
100
AcDbEntity
  8
0
  6
Continuous
 62
     7
100
AcDbLine
 10
243.0927277197853
 20
827.421105754283
 30
0.0
 11
245.1238166330305
 21
829.1800803504985
 31
0.0
  0
LINE
  5
86
330
47
100
AcDbEntity
  8
0
  6
Continuous
 62
     7
100
AcDbLine
 10
251.3761833669678
 20
827.375177542043
 30
0.0
 11
275.4347057654859
 21
806.5398859674094
 31
0.0
  0
LINE
  5
87
330
47
100
AcDbEntity
  8
0
  6
Continuous
 62
     7
100
AcDbLine
 10
278.5608891324546
 20
800.2227261378154
 30
0.0
 11
276.5298002192091
 21
798.4637515415998
 31
0.0
  0
LINE
  5
88
330
47
100
AcDbEntity
  8
0
  6
Continuous
 62
     7
100
AcDbLine
 10
278.5608891324546
 20
800.2227261378154
 30
0.0
 11
278.5608891324546
 21
772.4423373716371
 31
0.0
  0
LINE
  5
89
330
47
100
AcDbEntity
  8
0
  6
Continuous
 62
     7
100
AcDbLine
 10
276.5298002192091
 20
770.6833627754215
 30
0.0
 11
278.5608891324546
 21
772.4423373716371
 31
0.0
  0
LINE
  5
8A
330
47
100
AcDbEntity
  8
0
  6
Continuous
 62
     7
100
AcDbLine
 10
275.4347057654859
 20
767.9300803504984
 30
0.0
 11
273.4036168522404
 21
766.1711057542828
 31
0.0
  0
LINE
  5
8B
330
47
100
AcDbEntity
  8
0
  6
Continuous
 62
     7
100
AcDbLine
 10
221.0652942345125
 20
822.2349831589539
 30
0.0
 11
219.0342053212669
 21
820.4760085627383
 31
0.0
  0
LINE
  5
8C
330
47
100
AcDbEntity
  8
0
  6
Continuous
 62
     7
100
AcDbLine
 10
273.4036168522405
 20
804.7809113711938
 30
0.0
 11
275.4347057654859
 21
806.5398859674094
 31
0.0
  0
SPLINE
  5
8D
330
47
100
AcDbEntity
  8
0
  6
Continuous
 62
     7
100
AcDbSpline
210
0.0
220
0.0
230
1.0
 70
     8
 71
     3
 72
    25
 73
    21
 74
    19
 42
0.000000001
 43
0.0000000001
 44
0.00000001
 40
0.0
 40
0.0
 40
0.0
 40
0.0
 40
3.982746860667965
 40
8.055914664735756
 40
12.29380191009534
 40
16.74398405127719
 40
21.42389206557193
 40
26.32276444535677
 40
31.40640378841091
 40
36.62295218278663
 40
41.90885823170793
 40
47.19476428062924
 40
52.41131267500497
 40
57.49495201805904
 40
62.39382439784408
 40
67.07373241213877
 40
71.52391455332068
 40
75.76180179868021
 40
79.83496960274796
 40
83.81771646341588
 40
83.81771646341588
 40
83.81771646341588
 40
83.81771646341588
 10
225.8648947522444
 20
815.8788099805756
 30
0.0
 10
224.9186661430179
 20
814.9391472221644
 30
0.0
 10
223.0047265538869
 20
813.0384883816927
 30
0.0
 10
221.0229143028422
 20
809.3911990126205
 30
0.0
 10
219.7630121628234
 20
805.3058892243388
 30
0.0
 10
219.3131186338314
 20
800.8440199294173
 30
0.0
 10
219.6612446077604
 20
796.1599524776959
 30
0.0
 10
220.7961155256046
 20
791.3863323064841
 30
0.0
 10
222.6793624935297
 20
786.6649500767694
 30
0.0
 10
225.2538020085743
 20
782.1343044233157
 30
0.0
 10
228.4421188633706
 20
777.9284034952634
 30
0.0
 10
232.14940736925
 20
774.1719452008929
 30
0.0
 10
236.2658065601709
 20
770.9766757983593
 30
0.0
 10
240.6697277955067
 20
768.4382615188879
 30
0.0
 10
245.2322620487143
 20
766.6330848717212
 30
0.0
 10
249.8185542309882
 20
765.6193770218873
 30
0.0
 10
254.2989300582928
 20
765.4272462370187
 30
0.0
 10
258.5223241457027
 20
766.0906102781652
 30
0.0
 10
262.4153204656453
 20
767.5310543739389
 30
0.0
 10
264.5699047952654
 20
769.1538406030102
 30
0.0
 10
265.6351052477539
 20
769.9561265099545
 30
0.0
 11
225.8648947522444
 21
815.8788099805756
 31
0.0
 11
223.1765983487756
 21
812.9402159206176
 31
0.0
 11
221.1741822916875
 21
809.3932417271176
 31
0.0
 11
219.9184911520659
 21
805.3456587343721
 31
0.0
 11
219.4476761471936
 21
800.9204520352284
 31
0.0
 11
219.7760451548851
 21
796.2520783545838
 31
0.0
 11
220.8936184403057
 21
791.4823843868082
 31
0.0
 11
222.7664414467723
 21
786.7562947820078
 31
0.0
 11
225.337607190639
 21
782.2174090312999
 31
0.0
 11
228.5289941013769
 21
778.0036396583366
 31
0.0
 11
232.2436317686144
 21
774.2430187330514
 31
0.0
 11
236.3686542223343
 21
771.0498123669172
 31
0.0
 11
240.7787236880604
 21
768.5210426514977
 31
0.0
 11
245.3398430979959
 21
766.7335471066554
 31
0.0
 11
249.9134248989507
 21
765.7416355494474
 31
0.0
 11
254.3605029493103
 21
765.5754491692296
 31
0.0
 11
258.5459556214201
 21
766.240034943088
 31
0.0
 11
262.3426090674484
 21
767.7152022575985
 31
0.0
 11
265.6351052477539
 21
769.9561265099545
 31
0.0
  0
SPLINE
  5
8E
330
47
100
AcDbEntity
  8
0
  6
Continuous
 62
     7
100
AcDbSpline
210
0.0
220
0.0
230
1.0
 70
     8
 71
     3
 72
    11
 73
     7
 74
     5
 42
0.000000001
 43
0.0000000001
 44
0.00000001
 40
0.0
 40
0.0
 40
0.0
 40
0.0
 40
3.078586808135081
 40
6.124455792013031
 40
9.022423399412112
 40
11.96103334926199
 40
11.96103334926199
 40
11.96103334926199
 40
11.96103334926199
 10
230.5945554337726
 20
823.5424682452655
 30
0.0
 10
229.6077375894589
 20
823.2608793550365
 30
0.0
 10
227.6445893492308
 20
822.700694188005
 30
0.0
 10
224.7409392399688
 20
821.9169678252943
 30
0.0
 10
221.8750770311514
 20
821.1728711159426
 30
0.0
 10
219.9855483981773
 20
820.709371916898
 30
0.0
 10
219.0342053212669
 20
820.4760085627383
 30
0.0
 11
230.5945554337726
 21
823.5424682452655
 31
0.0
 11
227.6321156844623
 21
822.7048242473419
 31
0.0
 11
224.6920649566052
 21
821.9089476329984
 31
0.0
 11
221.8866132645541
 21
821.1825475657336
 31
0.0
 11
219.0342053212669
 21
820.4760085627383
 31
0.0
  0
SPLINE
  5
8F
330
47
100
AcDbEntity
  8
0
  6
Continuous
 62
     7
100
AcDbSpline
210
0.0
220
0.0
230
1.0
 70
     8
 71
     3
 72
    11
 73
     7
 74
     5
 42
0.000000001
 43
0.0000000001
 44
0.00000001
 40
0.0
 40
0.0
 40
0.0
 40
0.0
 40
3.424590183609481
 40
6.669639478440902
 40
9.935358520842435
 40
13.08686830888855
 40
13.08686830888855
 40
13.08686830888855
 40
13.08686830888855
 10
243.0927277197853
 20
827.421105754283
 30
0.0
 10
242.0075602651919
 20
827.0668195380018
 30
0.0
 10
239.8941173936599
 20
826.3768212725383
 30
0.0
 10
236.7355501468824
 20
825.3810017201616
 30
0.0
 10
233.6562182583179
 20
824.4368046315408
 30
0.0
 10
231.6029287165485
 20
823.8370222028732
 30
0.0
 10
230.5945554337726
 20
823.5424682452655
 30
0.0
 11
243.0927277197853
 21
827.421105754283
 31
0.0
 11
239.8354025664832
 21
826.3639157186485
 31
0.0
 11
236.7408524672682
 21
825.3871329332306
 31
0.0
 11
233.6177114145215
 21
824.4327164469681
 31
0.0
 11
230.5945554337726
 21
823.5424682452655
 31
0.0
  0
SPLINE
  5
90
330
47
100
AcDbEntity
  8
0
  6
Continuous
 62
     7
100
AcDbSpline
210
0.0
220
0.0
230
1.0
 70
     8
 71
     3
 72
     9
 73
     5
 74
     3
 42
0.000000001
 43
0.0000000001
 44
0.00000001
 40
0.0
 40
0.0
 40
0.0
 40
0.0
 40
3.297593151050569
 40
6.513788003019437
 40
6.513788003019437
 40
6.513788003019437
 40
6.513788003019437
 10
249.3450944537223
 20
825.6162029458275
 30
0.0
 10
248.3097090748193
 20
825.9891529420313
 30
0.0
 10
246.2644959238233
 20
826.7258469600154
 30
0.0
 10
244.1411390826729
 20
827.1912916090644
 30
0.0
 10
243.0927277197853
 20
827.421105754283
 30
0.0
 11
249.3450944537223
 21
825.6162029458275
 31
0.0
 11
246.2189110867536
 21
826.6655351853026
 31
0.0
 11
243.0927277197853
 21
827.421105754283
 31
0.0
  0
SPLINE
  5
91
330
47
100
AcDbEntity
  8
0
  6
Continuous
 62
     7
100
AcDbSpline
210
0.0
220
0.0
230
1.0
 70
     8
 71
     3
 72
     9
 73
     5
 74
     3
 42
0.000000001
 43
0.0000000001
 44
0.00000001
 40
0.0
 40
0.0
 40
0.0
 40
0.0
 40
3.297593151050461
 40
6.513788003019744
 40
6.513788003019744
 40
6.513788003019744
 40
6.513788003019744
 10
251.3761833669678
 20
827.375177542043
 30
0.0
 10
250.3407979880649
 20
827.7481275382474
 30
0.0
 10
248.2955848370687
 20
828.4848215562304
 30
0.0
 10
246.1722279959181
 20
828.9502662052801
 30
0.0
 10
245.1238166330305
 20
829.1800803504985
 30
0.0
 11
251.3761833669678
 21
827.375177542043
 31
0.0
 11
248.2499999999992
 21
828.4245097815182
 31
0.0
 11
245.1238166330305
 21
829.1800803504985
 31
0.0
  0
SPLINE
  5
92
330
47
100
AcDbEntity
  8
0
  6
Continuous
 62
     7
100
AcDbSpline
210
0.0
220
0.0
230
1.0
 70
     8
 71
     3
 72
     9
 73
     5
 74
     3
 42
0.000000001
 43
0.0000000001
 44
0.00000001
 40
0.0
 40
0.0
 40
0.0
 40
0.0
 40
3.503101557916464
 40
7.053186425226006
 40
7.053186425226006
 40
7.053186425226006
 40
7.053186425226006
 10
276.5298002192091
 20
798.4637515415998
 30
0.0
 10
276.0703779493018
 20
799.5383509152196
 30
0.0
 10
275.1453716577959
 20
801.7019620921767
 30
0.0
 10
273.9867743769475
 20
803.7500473191017
 30
0.0
 10
273.4036168522405
 20
804.7809113711938
 30
0.0
 11
276.5298002192091
 21
798.4637515415998
 31
0.0
 11
275.0939110703781
 21
801.6590516652086
 31
0.0
 11
273.4036168522405
 21
804.7809113711938
 31
0.0
  0
SPLINE
  5
93
330
47
100
AcDbEntity
  8
0
  6
Continuous
 62
     7
100
AcDbSpline
210
0.0
220
0.0
230
1.0
 70
     8
 71
     3
 72
     9
 73
     5
 74
     3
 42
0.000000001
 43
0.0000000001
 44
0.00000001
 40
0.0
 40
0.0
 40
0.0
 40
0.0
 40
2.731716072412923
 40
5.499585636584992
 40
5.499585636584992
 40
5.499585636584992
 40
5.499585636584992
 10
273.4036168522404
 20
766.1711057542828
 30
0.0
 10
273.9896619846123
 20
766.8707477181172
 30
0.0
 10
275.1695083753688
 20
768.2792912217087
 30
0.0
 10
276.0743867630414
 20
769.8785012609534
 30
0.0
 10
276.5298002192091
 20
770.6833627754215
 30
0.0
 11
273.4036168522404
 21
766.1711057542828
 31
0.0
 11
275.0939110703781
 21
768.3170736384167
 31
0.0
 11
276.5298002192091
 21
770.6833627754215
 31
0.0
  0
SPLINE
  5
94
330
47
100
AcDbEntity
  8
0
  6
Continuous
 62
     7
100
AcDbSpline
210
0.0
220
0.0
230
1.0
 70
     8
 71
     3
 72
    11
 73
     7
 74
     5
 42
0.000000001
 43
0.0000000001
 44
0.00000001
 40
0.0
 40
0.0
 40
0.0
 40
0.0
 40
3.482211880377088
 40
7.063246973129994
 40
10.59775540760587
 40
14.30607324170902
 40
14.30607324170902
 40
14.30607324170902
 40
14.30607324170902
 10
276.0608891324546
 20
784.1674682452639
 30
0.0
 10
276.066833755514
 20
785.3282211602977
 30
0.0
 10
276.0788917217977
 20
787.6826685043425
 30
0.0
 10
276.1744160873254
 20
791.2141939258089
 30
0.0
 10
276.3197742420566
 20
794.8193519179553
 30
0.0
 10
276.4586804234881
 20
797.2296711579147
 30
0.0
 10
276.5298002192091
 20
798.4637515415998
 30
0.0
 11
276.0608891324546
 21
784.1674682452639
 31
0.0
 11
276.0912664082998
 21
787.6495476242694
 31
0.0
 11
276.182793675691
 21
791.2294128586182
 31
0.0
 11
276.3273562605391
 21
794.7609637266438
 31
0.0
 11
276.5298002192091
 21
798.4637515415998
 31
0.0
  0
SPLINE
  5
95
330
47
100
AcDbEntity
  8
0
  6
Continuous
 62
     7
100
AcDbSpline
210
0.0
220
0.0
230
1.0
 70
     8
 71
     3
 72
    11
 73
     7
 74
     5
 42
0.000000001
 43
0.0000000001
 44
0.00000001
 40
0.0
 40
0.0
 40
0.0
 40
0.0
 40
3.358232619967109
 40
6.642598940075121
 40
10.06512921022662
 40
13.49475457228678
 40
13.49475457228678
 40
13.49475457228678
 40
13.49475457228678
 10
276.5298002192091
 20
770.6833627754215
 30
0.0
 10
276.458411317319
 20
771.8005229321332
 30
0.0
 10
276.3172037692306
 20
774.0102706523163
 30
0.0
 10
276.1727433548854
 20
777.3623900351981
 30
0.0
 10
276.0781013346138
 20
780.7401497163088
 30
0.0
 10
276.0666304873452
 20
783.0242403786294
 30
0.0
 10
276.0608891324546
 20
784.1674682452639
 30
0.0
 11
276.5298002192091
 21
770.6833627754215
 31
0.0
 11
276.3273572763923
 21
774.0354879498792
 31
0.0
 11
276.1827935794888
 21
777.3166711912241
 31
0.0
 11
276.0912668786312
 21
780.7379774204824
 31
0.0
 11
276.0608891324546
 21
784.1674682452639
 31
0.0
  0
SPLINE
  5
96
330
47
100
AcDbEntity
  8
0
  6
Continuous
 62
     7
100
AcDbSpline
210
0.0
220
0.0
230
1.0
 70
     8
 71
     3
 72
     9
 73
     5
 74
     3
 42
0.000000001
 43
0.0000000001
 44
0.00000001
 40
0.0
 40
0.0
 40
0.0
 40
0.0
 40
3.503101557916568
 40
7.053186425226038
 40
7.053186425226038
 40
7.053186425226038
 40
7.053186425226038
 10
278.5608891324546
 20
800.2227261378154
 30
0.0
 10
278.1014668625472
 20
801.297325511435
 30
0.0
 10
277.1764605710415
 20
803.4609366883927
 30
0.0
 10
276.0178632901929
 20
805.5090219153172
 30
0.0
 10
275.4347057654859
 20
806.5398859674094
 30
0.0
 11
278.5608891324546
 21
800.2227261378154
 31
0.0
 11
277.1249999836236
 21
803.4180262614243
 31
0.0
 11
275.4347057654859
 21
806.5398859674094
 31
0.0
  0
SPLINE
  5
97
330
47
100
AcDbEntity
  8
0
  6
Continuous
 62
     7
100
AcDbSpline
210
0.0
220
0.0
230
1.0
 70
     8
 71
     3
 72
     9
 73
     5
 74
     3
 42
0.000000001
 43
0.0000000001
 44
0.00000001
 40
0.0
 40
0.0
 40
0.0
 40
0.0
 40
2.731716072412958
 40
5.499585636584998
 40
5.499585636584998
 40
5.499585636584998
 40
5.499585636584998
 10
275.4347057654859
 20
767.9300803504984
 30
0.0
 10
276.0207508978578
 20
768.6297223143325
 30
0.0
 10
277.2005972886143
 20
770.0382658179244
 30
0.0
 10
278.105475676287
 20
771.637475857169
 30
0.0
 10
278.5608891324546
 20
772.4423373716371
 30
0.0
 11
275.4347057654859
 21
767.9300803504984
 31
0.0
 11
277.1249999836236
 21
770.0760482346323
 31
0.0
 11
278.5608891324546
 21
772.4423373716371
 31
0.0
  0
SPLINE
  5
98
330
47
100
AcDbEntity
  8
0
  6
Continuous
 62
     7
100
AcDbSpline
210
0.0
220
0.0
230
1.0
 70
     8
 71
     3
 72
    25
 73
    21
 74
    19
 42
0.000000001
 43
0.0000000001
 44
0.00000001
 40
0.0
 40
0.0
 40
0.0
 40
0.0
 40
3.823145886814528
 40
7.756001216310734
 40
11.8557586277555
 40
16.15589706109457
 40
20.66500527053957
 40
25.36909317630973
 40
30.23562010195266
 40
35.21811422413813
 40
40.26088229838504
 40
45.30365037263206
 40
50.28614449481753
 40
55.15267142046045
 40
59.85675932623052
 40
64.36586753567562
 40
68.66600596901482
 40
72.76576338045946
 40
76.69861870995574
 40
80.52176459677024
 40
80.52176459677024
 40
80.52176459677024
 40
80.52176459677024
 10
227.1673482009847
 20
816.9007737098059
 30
0.0
 10
226.347681771955
 20
815.9184130796767
 30
0.0
 10
224.6848276808998
 20
813.9255018754419
 30
0.0
 10
223.047033208731
 20
810.2798754197755
 30
0.0
 10
222.0702951924109
 20
806.2687346115026
 30
0.0
 10
221.8345769673339
 20
801.9482957721578
 30
0.0
 10
222.3227223250349
 20
797.4529127512244
 30
0.0
 10
223.5223677521229
 20
792.8986771038973
 30
0.0
 10
225.3972841148013
 20
788.4090016857969
 30
0.0
 10
227.8959102665315
 20
784.1041282447643
 30
0.0
 10
230.9499230543576
 20
780.1002256323751
 30
0.0
 10
234.4764713722201
 20
776.5055507931884
 30
0.0
 10
238.3802445048427
 20
773.4175703336596
 30
0.0
 10
242.5560255579704
 20
770.9205021881588
 30
0.0
 10
246.8921719431362
 20
769.0825560495214
 30
0.0
 10
251.271712201601
 20
767.9572198688063
 30
0.0
 10
255.5815117084632
 20
767.5733148586739
 30
0.0
 10
259.6910455257897
 20
767.9670146688918
 30
0.0
 10
263.5332505913176
 20
769.0672070255977
 30
0.0
 10
265.7432717247299
 20
770.4283041514395
 30
0.0
 10
266.8326517990137
 20
771.0992262901855
 30
0.0
 11
227.1673482009847
 21
816.9007737098059
 31
0.0
 11
224.8520491749693
 21
813.858433339126
 31
0.0
 11
223.1835916315011
 21
810.2970290509332
 31
0.0
 11
222.2081021863016
 21
806.315015591196
 31
0.0
 11
221.952546718061
 21
802.022477652123
 31
0.0
 11
222.4239919402345
 21
797.5380829045313
 31
0.0
 11
223.6094028197672
 21
792.9858039068148
 31
0.0
 11
225.4760101242992
 21
788.4914895559674
 31
0.0
 11
227.9722093740776
 21
784.1793860123507
 31
0.0
 11
231.0289940017277
 21
780.168703081499
 31
0.0
 11
234.561857117369
 21
776.5703162154427
 31
0.0
 11
238.4731328959959
 21
773.483704894108
 31
0.0
 11
242.654692310122
 21
770.9941978787134
 31
0.0
 11
246.9909356212021
 21
769.1706198097851
 31
0.0
 11
251.3619860431912
 21
768.0633822299634
 31
0.0
 11
255.6470047123065
 21
767.703096841607
 31
0.0
 11
259.7275315637281
 21
768.0997219366918
 31
0.0
 11
263.490758740477
 21
769.2422946015549
 31
0.0
 11
266.8326517990137
 21
771.0992262901855
 31
0.0
  0
SPLINE
  5
99
330
47
100
AcDbEntity
  8
0
  6
Continuous
 62
     7
100
AcDbSpline
210
0.0
220
0.0
230
1.0
 70
     8
 71
     3
 72
    11
 73
     7
 74
     5
 42
0.000000001
 43
0.0000000001
 44
0.00000001
 40
0.0
 40
0.0
 40
0.0
 40
0.0
 40
3.078585595525148
 40
6.124453376518398
 40
9.022422183694593
 40
11.96103334926504
 40
11.96103334926504
 40
11.96103334926504
 40
11.96103334926504
 10
260.9054445662268
 20
762.2924682452651
 30
0.0
 10
259.9186271109562
 20
762.0108794647523
 30
0.0
 10
257.9554796456931
 20
761.4506945162752
 30
0.0
 10
255.0518299333004
 20
760.666968238706
 30
0.0
 10
252.1859673383629
 20
759.9228714077036
 30
0.0
 10
250.2964379239372
 20
759.4593720145787
 30
0.0
 10
249.345094453722
 20
759.2260085627383
 30
0.0
 11
260.9054445662268
 21
762.2924682452651
 31
0.0
 11
257.9430059856149
 21
761.4548245707799
 31
0.0
 11
255.0029564242025
 21
760.658948250983
 31
0.0
 11
252.1975035755366
 21
759.9325478642136
 31
0.0
 11
249.345094453722
 21
759.2260085627383
 31
0.0
  0
SPLINE
  5
9A
330
47
100
AcDbEntity
  8
0
  6
Continuous
 62
     7
100
AcDbSpline
210
0.0
220
0.0
230
1.0
 70
     8
 71
     3
 72
     9
 73
     5
 74
     3
 42
0.000000001
 43
0.0000000001
 44
0.00000001
 40
0.0
 40
0.0
 40
0.0
 40
0.0
 40
3.29759315105038
 40
6.51378800301933
 40
6.51378800301933
 40
6.51378800301933
 40
6.51378800301933
 10
243.0927277197851
 20
761.0309113711938
 30
0.0
 10
244.128113098688
 20
760.6579613749898
 30
0.0
 10
246.1733262496839
 20
759.9212673570062
 30
0.0
 10
248.2966830908345
 20
759.4558227079572
 30
0.0
 10
249.345094453722
 20
759.2260085627383
 30
0.0
 11
243.0927277197851
 21
761.0309113711938
 31
0.0
 11
246.2189110867536
 21
759.9815791317187
 31
0.0
 11
249.345094453722
 21
759.2260085627383
 31
0.0
  0
SPLINE
  5
9B
330
47
100
AcDbEntity
  8
0
  6
Continuous
 62
     7
100
AcDbSpline
210
0.0
220
0.0
230
1.0
 70
     8
 71
     3
 72
    11
 73
     7
 74
     5
 42
0.000000001
 43
0.0000000001
 44
0.00000001
 40
0.0
 40
0.0
 40
0.0
 40
0.0
 40
3.965037097336716
 40
7.994545157685696
 40
11.92890100396132
 40
16.01697211828801
 40
16.01697211828801
 40
16.01697211828801
 40
16.01697211828801
 10
230.5945554337704
 20
771.042468245266
 30
0.0
 10
231.5986971209043
 20
770.1830140827253
 30
0.0
 10
233.623307711937
 20
768.4501311615521
 30
0.0
 10
236.7094886656839
 20
765.9422883110957
 30
0.0
 10
239.8673954993663
 20
763.4586910209039
 30
0.0
 10
242.0039708875306
 20
761.8504429666979
 30
0.0
 10
243.0927277197851
 20
761.0309113711938
 30
0.0
 11
230.5945554337704
 21
771.042468245266
 31
0.0
 11
233.6177287799448
 21
768.4769386501986
 31
0.0
 11
236.7408549967901
 21
765.9307615464434
 31
0.0
 11
239.8354158944331
 21
763.5011836453966
 31
0.0
 11
243.0927277197851
 21
761.0309113711938
 31
0.0
  0
SPLINE
  5
9C
330
47
100
AcDbEntity
  8
0
  6
Continuous
 62
     7
100
AcDbSpline
210
0.0
220
0.0
230
1.0
 70
     8
 71
     3
 72
    13
 73
     9
 74
     7
 42
0.000000001
 43
0.0000000001
 44
0.00000001
 40
0.0
 40
0.0
 40
0.0
 40
0.0
 40
5.999983691144283
 40
11.84083347138712
 40
17.46433338718118
 40
22.83322887438881
 40
27.93782862268699
 40
32.80129861200069
 40
32.80129861200069
 40
32.80129861200069
 40
32.80129861200069
 10
230.5945554337704
 20
771.042468245266
 30
0.0
 10
232.1572958824159
 20
769.7892945479292
 30
0.0
 10
235.2413291758211
 20
767.3161843270299
 30
0.0
 10
240.366130026319
 20
764.4973106088328
 30
0.0
 10
245.6262483568957
 20
762.4832180738592
 30
0.0
 10
250.9035673355252
 20
761.4179159676544
 30
0.0
 10
256.0610848810645
 20
761.2233353295153
 30
0.0
 10
259.3169110513177
 20
761.9418845556244
 30
0.0
 10
260.9054445662268
 20
762.2924682452651
 30
0.0
 11
230.5945554337704
 21
771.042468245266
 31
0.0
 11
235.3830655971078
 21
767.4272262484443
 31
0.0
 11
240.4865693386839
 21
764.5864911815152
 31
0.0
 11
245.7499999999992
 21
762.6065798218895
 31
0.0
 11
251.0134306613144
 21
761.5476480723439
 31
0.0
 11
256.1169344028905
 21
761.4418738802638
 31
0.0
 11
260.9054445662268
 21
762.2924682452651
 31
0.0
  0
SPLINE
  5
9D
330
47
100
AcDbEntity
  8
0
  6
Continuous
 62
     7
100
AcDbSpline
210
0.0
220
0.0
230
1.0
 70
     8
 71
     3
 72
    11
 73
     7
 74
     5
 42
0.000000001
 43
0.0000000001
 44
0.00000001
 40
0.0
 40
0.0
 40
0.0
 40
0.0
 40
4.011715669133247
 40
7.891502246181318
 40
11.88642399747481
 40
15.8399846295564
 40
15.8399846295564
 40
15.8399846295564
 40
15.8399846295564
 10
219.0342053212667
 20
781.8662029458277
 30
0.0
 10
219.9815360003028
 20
780.9223424909121
 30
0.0
 10
221.8450434968101
 20
779.065661342001
 30
0.0
 10
224.7127092451283
 20
776.3312525605944
 30
0.0
 10
227.6104954289385
 20
773.6571186998456
 30
0.0
 10
229.6033254253586
 20
771.9109896449894
 30
0.0
 10
230.5945554337704
 20
771.042468245266
 30
0.0
 11
219.0342053212667
 21
781.8662029458277
 31
0.0
 11
221.8866278615667
 21
779.0452902810857
 31
0.0
 11
224.692067291747
 21
776.3653176154781
 31
0.0
 11
227.6321336424627
 21
773.6606162171796
 31
0.0
 11
230.5945554337704
 21
771.042468245266
 31
0.0
  0
SPLINE
  5
9E
330
47
100
AcDbEntity
  8
0
  6
Continuous
 62
     7
100
AcDbSpline
210
0.0
220
0.0
230
1.0
 70
     8
 71
     3
 72
    13
 73
     9
 74
     7
 42
0.000000001
 43
0.0000000001
 44
0.00000001
 40
0.0
 40
0.0
 40
0.0
 40
0.0
 40
5.415974953798702
 40
11.08173849041141
 40
16.95579007407757
 40
22.97689274316367
 40
29.07094670420057
 40
35.15776234695219
 40
35.15776234695219
 40
35.15776234695219
 40
35.15776234695219
 10
215.4391108675438
 20
801.6674682452651
 30
0.0
 10
215.5326275277755
 20
799.8605281515917
 30
0.0
 10
215.7239739172453
 20
796.1633106146119
 30
0.0
 10
217.1694120461343
 20
790.6629929949631
 30
0.0
 10
219.3951036069292
 20
785.2333125884848
 30
0.0
 10
222.441193466573
 20
780.0493019169918
 30
0.0
 10
226.1417438275728
 20
775.2088943409482
 30
0.0
 10
229.1108730166631
 20
772.430726644075
 30
0.0
 10
230.5945554337704
 20
771.042468245266
 30
0.0
 11
215.4391108675438
 21
801.6674682452651
 31
0.0
 11
215.8996020799709
 21
796.2711053443531
 31
0.0
 11
217.2670811527711
 21
790.772844031731
 31
0.0
 11
219.5000006140802
 21
785.3397461394212
 31
0.0
 11
222.5305118140864
 21
780.1368931496315
 31
0.0
 11
226.266536482862
 21
775.3223720557215
 31
0.0
 11
230.5945554337704
 21
771.042468245266
 31
0.0
  0
SPLINE
  5
9F
330
47
100
AcDbEntity
  8
0
  6
Continuous
 62
     7
100
AcDbSpline
210
0.0
220
0.0
230
1.0
 70
     8
 71
     3
 72
     9
 73
     5
 74
     3
 42
0.000000001
 43
0.0000000001
 44
0.00000001
 40
0.0
 40
0.0
 40
0.0
 40
0.0
 40
3.503101557916533
 40
7.053186425225707
 40
7.053186425225707
 40
7.053186425225707
 40
7.053186425225707
 10
215.9080219542983
 20
788.1833627754215
 30
0.0
 10
216.3674442242056
 20
787.1087634018019
 30
0.0
 10
217.2924505157113
 20
784.9451522248442
 30
0.0
 10
218.4510477965597
 20
782.89706699792
 30
0.0
 10
219.0342053212667
 20
781.8662029458277
 30
0.0
 11
215.9080219542983
 21
788.1833627754215
 31
0.0
 11
217.3439111031292
 21
784.9880626518126
 31
0.0
 11
219.0342053212667
 21
781.8662029458277
 31
0.0
  0
SPLINE
  5
A0
330
47
100
AcDbEntity
  8
0
  6
Continuous
 62
     7
100
AcDbSpline
210
0.0
220
0.0
230
1.0
 70
     8
 71
     3
 72
    11
 73
     7
 74
     5
 42
0.000000001
 43
0.0000000001
 44
0.00000001
 40
0.0
 40
0.0
 40
0.0
 40
0.0
 40
3.42962669757895
 40
6.852158315936248
 40
10.13652331446408
 40
13.4947545722737
 40
13.4947545722737
 40
13.4947545722737
 40
13.4947545722737
 10
215.4391108675438
 20
801.6674682452651
 30
0.0
 10
215.4448522269184
 20
800.5242399334388
 30
0.0
 10
215.4563230831714
 20
798.2401483765054
 30
0.0
 10
215.5509651536151
 20
794.8623882422853
 30
0.0
 10
215.6954255844575
 20
791.5102693059646
 30
0.0
 10
215.8366330793939
 20
789.3005224788486
 30
0.0
 10
215.9080219542983
 20
788.1833627754215
 30
0.0
 11
215.4391108675438
 21
801.6674682452651
 31
0.0
 11
215.4694886374822
 21
798.2379760851229
 31
0.0
 11
215.5610154102583
 21
794.8166685091005
 31
0.0
 11
215.7055790826446
 21
791.5354865895376
 31
0.0
 11
215.9080219542983
 21
788.1833627754215
 31
0.0
  0
SPLINE
  5
A1
330
47
100
AcDbEntity
  8
0
  6
Continuous
 62
     7
100
AcDbSpline
210
0.0
220
0.0
230
1.0
 70
     8
 71
     3
 72
    11
 73
     7
 74
     5
 42
0.000000001
 43
0.0000000001
 44
0.00000001
 40
0.0
 40
0.0
 40
0.0
 40
0.0
 40
3.151511058415769
 40
6.417231479338403
 40
9.662279514799991
 40
13.0868683088817
 40
13.0868683088817
 40
13.0868683088817
 40
13.0868683088817
 10
260.9054445662268
 20
762.2924682452651
 30
0.0
 10
261.913818255106
 20
762.5870223229008
 30
0.0
 10
263.9671086436734
 20
763.1868050017795
 30
0.0
 10
267.0464409691307
 20
764.131002245811
 30
0.0
 10
270.2050078066397
 20
765.1268216877722
 30
0.0
 10
272.3184498382416
 20
765.8168196808863
 30
0.0
 10
273.4036168522404
 20
766.1711057542828
 30
0.0
 11
260.9054445662268
 21
762.2924682452651
 31
0.0
 11
263.9286017637432
 21
763.1827168121514
 31
0.0
 11
267.0517441292454
 21
764.1371337195534
 31
0.0
 11
270.1462930222854
 21
765.1139161424052
 31
0.0
 11
273.4036168522404
 21
766.1711057542828
 31
0.0
  0
SPLINE
  5
A2
330
47
100
AcDbEntity
  8
0
  6
Continuous
 62
     7
100
AcDbSpline
210
0.0
220
0.0
230
1.0
 70
     8
 71
     3
 72
    13
 73
     9
 74
     7
 42
0.000000001
 43
0.0000000001
 44
0.00000001
 40
0.0
 40
0.0
 40
0.0
 40
0.0
 40
4.680185860870918
 40
9.264978773325755
 40
13.85937703042745
 40
18.566606847384
 40
23.46990128928327
 40
28.62102385410291
 40
28.62102385410291
 40
28.62102385410291
 40
28.62102385410291
 10
260.9054445662268
 20
762.2924682452651
 30
0.0
 10
262.381325958803
 20
762.8182961977681
 30
0.0
 10
265.303006882408
 20
763.859234533286
 30
0.0
 10
269.0894915901938
 20
766.610127079515
 30
0.0
 10
272.1715840681815
 20
770.1116151445757
 30
0.0
 10
274.4070881834979
 20
774.3264854177847
 30
0.0
 10
275.8126383793539
 20
779.0901461206313
 30
0.0
 10
275.9767901778356
 20
782.4474432209144
 30
0.0
 10
276.0608891324546
 20
784.1674682452639
 30
0.0
 11
260.9054445662268
 21
762.2924682452651
 31
0.0
 11
265.2334635171362
 21
764.0735891493562
 31
0.0
 11
268.969488185912
 21
766.7311153950494
 31
0.0
 11
271.9999993859182
 21
770.1843019277334
 31
0.0
 11
274.2329188472273
 21
774.3282231679775
 31
0.0
 11
275.6003979200275
 21
779.0369700698072
 31
0.0
 11
276.0608891324546
 21
784.1674682452639
 31
0.0
  0
SPLINE
  5
A3
330
47
100
AcDbEntity
  8
0
  6
Continuous
 62
     7
100
AcDbSpline
210
0.0
220
0.0
230
1.0
 70
     8
 71
     3
 72
    11
 73
     7
 74
     5
 42
0.000000001
 43
0.0000000001
 44
0.00000001
 40
0.0
 40
0.0
 40
0.0
 40
0.0
 40
4.072006034239766
 40
8.240451394958558
 40
12.58386161571794
 40
17.15128921132902
 40
17.15128921132902
 40
17.15128921132902
 40
17.15128921132902
 10
265.6351052477539
 20
769.9561265099545
 30
0.0
 10
266.6018820694864
 20
770.9185681121455
 30
0.0
 10
268.5583323539722
 20
772.8662453053284
 30
0.0
 10
270.5481576251364
 20
776.6173503492039
 30
0.0
 10
271.8328573430286
 20
780.82038197249
 30
0.0
 10
271.9800666050012
 20
783.7976567126341
 30
0.0
 10
272.0555216399515
 20
785.3237182452651
 30
0.0
 11
265.6351052477539
 21
769.9561265099545
 31
0.0
 11
268.3758800454244
 21
772.9676687500969
 31
0.0
 11
270.3982102307395
 21
776.6126814203883
 31
0.0
 11
271.6378777110079
 21
780.7754253353462
 31
0.0
 11
272.0555216399515
 21
785.3237182452651
 31
0.0
  0
SPLINE
  5
A4
330
47
100
AcDbEntity
  8
0
  6
Continuous
 62
     7
100
AcDbSpline
210
0.0
220
0.0
230
1.0
 70
     8
 71
     3
 72
    11
 73
     7
 74
     5
 42
0.000000001
 43
0.0000000001
 44
0.00000001
 40
0.0
 40
0.0
 40
0.0
 40
0.0
 40
3.953562205587025
 40
7.948485585059094
 40
11.82827060431001
 40
15.83998462953213
 40
15.83998462953213
 40
15.83998462953213
 40
15.83998462953213
 10
260.905444566228
 20
814.7924682452642
 30
0.0
 10
259.9142141652968
 20
815.6609899929749
 30
0.0
 10
257.9213833701513
 20
817.4071197558407
 30
0.0
 10
255.0235968168394
 20
820.0812540247853
 30
0.0
 10
252.1559314798198
 20
822.8156624769504
 30
0.0
 10
250.2924247428123
 20
824.6723428759631
 30
0.0
 10
249.3450944537223
 20
825.6162029458275
 30
0.0
 11
260.905444566228
 21
814.7924682452642
 31
0.0
 11
257.9430216063292
 21
817.4106172710102
 31
0.0
 11
255.0029540890607
 21
820.1153198061083
 31
0.0
 11
252.1975158153228
 21
822.7952914270816
 31
0.0
 11
249.3450944537223
 21
825.6162029458275
 31
0.0
  0
SPLINE
  5
A5
330
47
100
AcDbEntity
  8
0
  6
Continuous
 62
     7
100
AcDbSpline
210
0.0
220
0.0
230
1.0
 70
     8
 71
     3
 72
    13
 73
     9
 74
     7
 42
0.000000001
 43
0.0000000001
 44
0.00000001
 40
0.0
 40
0.0
 40
0.0
 40
0.0
 40
5.999983691144306
 40
11.84083347138717
 40
17.46433338718121
 40
22.83322887438886
 40
27.93782862268693
 40
32.80129861199971
 40
32.80129861199971
 40
32.80129861199971
 40
32.80129861199971
 10
260.905444566228
 20
814.7924682452642
 30
0.0
 10
259.3427041175826
 20
816.0456419426009
 30
0.0
 10
256.2586708241772
 20
818.5187521635005
 30
0.0
 10
251.1338699736793
 20
821.3376258816975
 30
0.0
 10
245.8737516431028
 20
823.351718416671
 30
0.0
 10
240.5964326644732
 20
824.417020522876
 30
0.0
 10
235.4389151189343
 20
824.611601161015
 30
0.0
 10
232.1830889486814
 20
823.8930519349062
 30
0.0
 10
230.5945554337726
 20
823.5424682452655
 30
0.0
 11
260.905444566228
 21
814.7924682452642
 31
0.0
 11
256.1169344028906
 21
818.407710242086
 31
0.0
 11
251.0134306613144
 21
821.2484453090151
 31
0.0
 11
245.7499999999992
 21
823.2283566686408
 31
0.0
 11
240.4865693386839
 21
824.2872884181863
 31
0.0
 11
235.383065597108
 21
824.3930626102666
 31
0.0
 11
230.5945554337726
 21
823.5424682452655
 31
0.0
  0
SPLINE
  5
A6
330
47
100
AcDbEntity
  8
0
  6
Continuous
 62
     7
100
AcDbSpline
210
0.0
220
0.0
230
1.0
 70
     8
 71
     3
 72
    13
 73
     9
 74
     7
 42
0.000000001
 43
0.0000000001
 44
0.00000001
 40
0.0
 40
0.0
 40
0.0
 40
0.0
 40
4.680185860871916
 40
9.26497877332682
 40
13.85937703042848
 40
18.56660684738503
 40
23.46990128928453
 40
28.62102385410519
 40
28.62102385410519
 40
28.62102385410519
 40
28.62102385410519
 10
230.5945554337726
 20
823.5424682452655
 30
0.0
 10
229.118674041196
 20
823.0166402927623
 30
0.0
 10
226.1969931175906
 20
821.9757019572443
 30
0.0
 10
222.4105084098047
 20
819.2248094110154
 30
0.0
 10
219.3284159318169
 20
815.7233213459546
 30
0.0
 10
217.0929118165004
 20
811.5084510727452
 30
0.0
 10
215.6873616206444
 20
806.7447903698987
 30
0.0
 10
215.5232098221628
 20
803.387493269615
 30
0.0
 10
215.4391108675438
 20
801.6674682452651
 30
0.0
 11
230.5945554337726
 21
823.5424682452655
 31
0.0
 11
226.2665364828623
 21
821.7613473411741
 31
0.0
 11
222.5305118140864
 21
819.1038210954808
 31
0.0
 11
219.5000006140802
 21
815.6506345627969
 31
0.0
 11
217.2670811527711
 21
811.5067133225527
 31
0.0
 11
215.8996020799708
 21
806.7979664207228
 31
0.0
 11
215.4391108675438
 21
801.6674682452651
 31
0.0
  0
SPLINE
  5
A7
330
47
100
AcDbEntity
  8
0
  6
Continuous
 62
     7
100
AcDbSpline
210
0.0
220
0.0
230
1.0
 70
     8
 71
     3
 72
     9
 73
     5
 74
     3
 42
0.000000001
 43
0.0000000001
 44
0.00000001
 40
0.0
 40
0.0
 40
0.0
 40
0.0
 40
2.731716072412958
 40
5.499585636584856
 40
5.499585636584856
 40
5.499585636584856
 40
5.499585636584856
 10
219.0342053212669
 20
820.4760085627383
 30
0.0
 10
218.448160188895
 20
819.7763665989041
 30
0.0
 10
217.2683137981384
 20
818.3678230953124
 30
0.0
 10
216.3634354104659
 20
816.7686130560679
 30
0.0
 10
215.9080219542983
 20
815.9637515415998
 30
0.0
 11
219.0342053212669
 21
820.4760085627383
 31
0.0
 11
217.3439111031292
 21
818.3300406786045
 31
0.0
 11
215.9080219542983
 21
815.9637515415998
 31
0.0
  0
SPLINE
  5
A8
330
47
100
AcDbEntity
  8
0
  6
Continuous
 62
     7
100
AcDbSpline
210
0.0
220
0.0
230
1.0
 70
     8
 71
     3
 72
    11
 73
     7
 74
     5
 42
0.000000001
 43
0.0000000001
 44
0.00000001
 40
0.0
 40
0.0
 40
0.0
 40
0.0
 40
3.708319368511233
 40
7.242829211823267
 40
10.82386278305424
 40
14.30607324172977
 40
14.30607324172977
 40
14.30607324172977
 40
14.30607324172977
 10
215.9080219542983
 20
815.9637515415998
 30
0.0
 10
215.8369021308858
 20
814.7296706471687
 30
0.0
 10
215.6979958963984
 20
812.3193504275121
 30
0.0
 10
215.5526377559166
 20
808.714191960279
 30
0.0
 10
215.4571134420501
 20
805.1826670493225
 30
0.0
 10
215.4450554857376
 20
802.8282206863836
 30
0.0
 10
215.4391108675438
 20
801.6674682452651
 30
0.0
 11
215.9080219542983
 21
815.9637515415998
 31
0.0
 11
215.7055779221111
 21
812.2609621939636
 31
0.0
 11
215.561015311948
 21
808.7294099169582
 31
0.0
 11
215.4694881188504
 21
805.1495462027291
 31
0.0
 11
215.4391108675438
 21
801.6674682452651
 31
0.0
  0
SPLINE
  5
A9
330
47
100
AcDbEntity
  8
0
  6
Continuous
 62
     7
100
AcDbSpline
210
0.0
220
0.0
230
1.0
 70
     8
 71
     3
 72
    13
 73
     9
 74
     7
 42
0.000000001
 43
0.0000000001
 44
0.00000001
 40
0.0
 40
0.0
 40
0.0
 40
0.0
 40
5.415974953799719
 40
11.08173849041264
 40
16.9557900740789
 40
22.97689274316495
 40
29.07094670420175
 40
35.15776234695341
 40
35.15776234695341
 40
35.15776234695341
 40
35.15776234695341
 10
276.0608891324546
 20
784.1674682452639
 30
0.0
 10
275.9673724722229
 20
785.9744083389377
 30
0.0
 10
275.7760260827532
 20
789.6716258759178
 30
0.0
 10
274.3305879538642
 20
795.1719434955671
 30
0.0
 10
272.1048963930694
 20
800.6016239020457
 30
0.0
 10
269.0588065334254
 20
805.7856345735388
 30
0.0
 10
265.3582561724255
 20
810.6260421495817
 30
0.0
 10
262.3891269833353
 20
813.4042098464552
 30
0.0
 10
260.905444566228
 20
814.7924682452642
 30
0.0
 11
276.0608891324546
 21
784.1674682452639
 31
0.0
 11
275.6003979200275
 21
789.5638311461769
 31
0.0
 11
274.2329188472273
 21
795.0620924587993
 31
0.0
 11
271.9999993859182
 21
800.4951903511092
 31
0.0
 11
268.969488185912
 21
805.6980433408987
 31
0.0
 11
265.2334635171363
 21
810.5125644348086
 31
0.0
 11
260.905444566228
 21
814.7924682452642
 31
0.0
  0
SPLINE
  5
AA
330
47
100
AcDbEntity
  8
0
  6
Continuous
 62
     7
100
AcDbSpline
210
0.0
220
0.0
230
1.0
 70
     8
 71
     3
 72
    21
 73
    17
 74
    15
 42
0.000000001
 43
0.0000000001
 44
0.00000001
 40
0.0
 40
0.0
 40
0.0
 40
0.0
 40
4.669651947377412
 40
9.553502383441119
 40
14.61640219151468
 40
19.80643233982715
 40
25.06068218626922
 40
30.31094459666756
 40
35.48933652330091
 40
40.53392491398844
 40
45.39443338312453
 40
50.03802202051746
 40
54.45486592401108
 40
58.66271677189901
 40
62.70871128934663
 40
66.66595913748715
 40
66.66595913748715
 40
66.66595913748715
 40
66.66595913748715
 10
272.0555216399515
 20
785.3237182452651
 30
0.0
 10
271.9753921067354
 20
786.881616217256
 30
0.0
 10
271.8114574571673
 20
790.0688734583573
 30
0.0
 10
270.5733127751175
 20
794.8124003449539
 30
0.0
 10
268.6636688855571
 20
799.4947275981276
 30
0.0
 10
266.0582545808674
 20
803.9790459869578
 30
0.0
 10
262.8571487582166
 20
808.1346311334778
 30
0.0
 10
259.1481076156214
 20
811.8396926414343
 30
0.0
 10
255.0413726257317
 20
814.985385067117
 30
0.0
 10
250.6562697147735
 20
817.4786627345511
 30
0.0
 10
246.1196766163138
 20
819.2453973875122
 30
0.0
 10
241.5640102507926
 20
820.2291973901929
 30
0.0
 10
237.1165246769033
 20
820.4012139904379
 30
0.0
 10
232.9254911744347
 20
819.7286798903821
 30
0.0
 10
229.0625123471191
 20
818.2894330658278
 30
0.0
 10
226.9228585222343
 20
816.6763887495682
 30
0.0
 10
225.8648947522444
 20
815.8788099805756
 30
0.0
 11
272.0555216399515
 21
785.3237182452651
 31
0.0
 11
271.660952569315
 21
789.9766704854638
 31
0.0
 11
270.4890843151436
 21
794.7178433223976
 31
0.0
 11
268.5750694014056
 21
799.405006789686
 31
0.0
 11
265.9763282985249
 21
803.8975514601456
 31
0.0
 11
262.7708184975457
 21
808.0607051161326
 31
0.0
 11
259.0547034501617
 21
811.769578844575
 31
0.0
 11
254.9394612121235
 21
814.9129089688632
 31
0.0
 11
250.5485455623032
 21
817.3964008232074
 31
0.0
 11
246.0136785634967
 21
819.1455502980577
 31
0.0
 11
241.4709015069039
 21
820.1078870646227
 31
0.0
 11
237.0564929304114
 21
820.2545396998775
 31
0.0
 11
232.9028797040385
 21
819.5811112028365
 31
0.0
 11
229.1346666521927
 21
818.1078012994847
 31
0.0
 11
225.8648947522444
 21
815.8788099805756
 31
0.0
  0
SPLINE
  5
AB
330
47
100
AcDbEntity
  8
0
  6
Continuous
 62
     7
100
AcDbSpline
210
0.0
220
0.0
230
1.0
 70
     8
 71
     3
 72
    11
 73
     7
 74
     5
 42
0.000000001
 43
0.0000000001
 44
0.00000001
 40
0.0
 40
0.0
 40
0.0
 40
0.0
 40
4.088072785628926
 40
8.022430199021564
 40
12.05193660354418
 40
16.01697211831395
 40
16.01697211831395
 40
16.01697211831395
 40
16.01697211831395
 10
273.4036168522405
 20
804.7809113711938
 30
0.0
 10
272.3148595762893
 20
805.6004433036597
 30
0.0
 10
270.1782833284259
 20
807.208692010832
 30
0.0
 10
267.0203761074449
 20
809.6922896624867
 30
0.0
 10
263.934195617372
 20
812.2001321995346
 30
0.0
 10
261.9095858505497
 20
813.9330144234378
 30
0.0
 10
260.905444566228
 20
814.7924682452642
 30
0.0
 11
273.4036168522405
 21
804.7809113711938
 31
0.0
 11
270.1463037035198
 21
807.2511846662468
 31
0.0
 11
267.0517415997235
 21
809.6807635687355
 31
0.0
 11
263.9286166955874
 21
812.2269396621882
 31
0.0
 11
260.905444566228
 21
814.7924682452642
 31
0.0
  0
ENDBLK
  5
49
330
47
100
AcDbEntity
  8
0
100
AcDbBlockEnd
  0
BLOCK
  5
4C
330
4A
100
AcDbEntity
  8
0
100
AcDbBlockBegin
  2
Allg1
 70
     0
 10
246.9999999999992
 20
794.0
 30
0.0
  3
Allg1
  1

  0
INSERT
  5
4B
330
4A
100
AcDbEntity
  8
0
100
AcDbBlockReference
  2
1411254_A_INL_M63_S_S-select__1
 10
215.4391108675438
 20
759.2260085627383
 30
0.0
  0
MTEXT
  5
AD
330
4A
100
AcDbEntity
  8
1
 62
     6
100
AcDbMText
 10
246.9899999769401
 20
745.7981668647094
 30
0.0
 40
5.0
 41
0.0
 71
     2
 72
     1
  1
 
  7
CONVERTER_11
 73
     1
 44
1.32052821128451
  0
ENDBLK
  5
4D
330
4A
100
AcDbEntity
  8
0
100
AcDbBlockEnd
  0
BLOCK
  5
4F
330
4E
100
AcDbEntity
  8
0
100
AcDbBlockBegin
  2
1411254_A_INL_M63_S_S-select__2
 70
     0
 10
22.87999299999998
 20
811.499996
 30
0.0
  3
1411254_A_INL_M63_S_S-select__2
  1

  0
LINE
  5
AE
330
4E
100
AcDbEntity
  8
0
  6
Continuous
 62
     7
100
AcDbLine
 10
92.879993
 20
816.499996
 30
0.0
 11
89.27018738308908
 21
816.499996
 31
0.0
  0
LINE
  5
AF
330
4E
100
AcDbEntity
  8
0
  6
Continuous
 62
     7
100
AcDbLine
 10
61.4897986169109
 20
816.499996
 30
0.0
 11
89.27018738308908
 21
816.499996
 31
0.0
  0
LINE
  5
B0
330
4E
100
AcDbEntity
  8
0
  6
Continuous
 62
     7
100
AcDbLine
 10
26.48979861691091
 20
816.499996
 30
0.0
 11
54.27018738308908
 21
816.499996
 31
0.0
  0
LINE
  5
B1
330
4E
100
AcDbEntity
  8
0
  6
Continuous
 62
     7
100
AcDbLine
 10
26.48979861691091
 20
816.499996
 30
0.0
 11
22.87999300000001
 21
816.499996
 31
0.0
  0
LINE
  5
B2
330
4E
100
AcDbEntity
  8
0
  6
Continuous
 62
     7
100
AcDbLine
 10
61.4897986169109
 20
816.499996
 30
0.0
 11
54.27018738308908
 21
816.499996
 31
0.0
  0
LINE
  5
B3
330
4E
100
AcDbEntity
  8
0
  6
Continuous
 62
     7
100
AcDbLine
 10
75.379993
 20
811.499996
 30
0.0
 11
40.37999300000126
 21
811.499996
 31
0.0
  0
LINE
  5
B4
330
4E
100
AcDbEntity
  8
0
  6
Continuous
 62
     7
100
AcDbLine
 10
40.37999300000126
 20
811.499996
 30
0.0
 11
22.87999299999998
 21
811.499996
 31
0.0
  0
LINE
  5
B5
330
4E
100
AcDbEntity
  8
0
  6
Continuous
 62
     7
100
AcDbLine
 10
92.879993
 20
811.499996
 30
0.0
 11
75.379993
 21
811.499996
 31
0.0
  0
LINE
  5
B6
330
4E
100
AcDbEntity
  8
0
  6
Continuous
 62
     7
100
AcDbLine
 10
22.87999300000001
 20
812.437818173509
 30
0.0
 11
22.87999300000001
 21
816.499996
 31
0.0
  0
LINE
  5
B7
330
4E
100
AcDbEntity
  8
0
  6
Continuous
 62
     7
100
AcDbLine
 10
22.87999300000001
 20
812.437818173509
 30
0.0
 11
22.87999299999998
 21
811.499996
 31
0.0
  0
LINE
  5
B8
330
4E
100
AcDbEntity
  8
0
  6
Continuous
 62
     7
100
AcDbLine
 10
54.27018738308941
 20
812.437818173509
 30
0.0
 11
54.27018738308908
 21
816.499996
 31
0.0
  0
LINE
  5
B9
330
4E
100
AcDbEntity
  8
0
  6
Continuous
 62
     7
100
AcDbLine
 10
92.879993
 20
816.499996
 30
0.0
 11
92.879993
 21
812.437818173509
 31
0.0
  0
LINE
  5
BA
330
4E
100
AcDbEntity
  8
0
  6
Continuous
 62
     7
100
AcDbLine
 10
89.27018738308908
 20
812.437818173509
 30
0.0
 11
89.27018738308908
 21
816.499996
 31
0.0
  0
LINE
  5
BB
330
4E
100
AcDbEntity
  8
0
  6
Continuous
 62
     7
100
AcDbLine
 10
61.4897986169109
 20
816.499996
 30
0.0
 11
61.4897986169109
 21
812.437818173509
 31
0.0
  0
LINE
  5
BC
330
4E
100
AcDbEntity
  8
0
  6
Continuous
 62
     7
100
AcDbLine
 10
26.48979861691091
 20
816.499996
 30
0.0
 11
26.48979861691099
 21
812.4378181735088
 31
0.0
  0
LINE
  5
BD
330
4E
100
AcDbEntity
  8
0
  6
Continuous
 62
     7
100
AcDbLine
 10
92.879993
 20
812.437818173509
 30
0.0
 11
89.27018738308908
 21
812.437818173509
 31
0.0
  0
LINE
  5
BE
330
4E
100
AcDbEntity
  8
0
  6
Continuous
 62
     7
100
AcDbLine
 10
26.48979861691099
 20
812.4378181735088
 30
0.0
 11
22.87999300000001
 21
812.437818173509
 31
0.0
  0
LINE
  5
BF
330
4E
100
AcDbEntity
  8
0
  6
Continuous
 62
     7
100
AcDbLine
 10
92.879993
 20
811.499996
 30
0.0
 11
92.879993
 21
812.437818173509
 31
0.0
  0
LINE
  5
C0
330
4E
100
AcDbEntity
  8
0
  6
Continuous
 62
     7
100
AcDbLine
 10
61.4897986169109
 20
812.437818173509
 30
0.0
 11
54.27018738308941
 21
812.437818173509
 31
0.0
  0
SPLINE
  5
C1
330
4E
100
AcDbEntity
  8
0
  6
Continuous
 62
     7
100
AcDbSpline
210
0.0
220
0.0
230
1.0
 70
     8
 71
     3
 72
    11
 73
     7
 74
     5
 42
0.000000001
 43
0.0000000001
 44
0.00000001
 40
0.0
 40
0.0
 40
0.0
 40
0.0
 40
3.45631894334538
 40
6.961689088342854
 40
10.3803018656257
 40
13.93092027059021
 40
13.93092027059021
 40
13.93092027059021
 40
13.93092027059021
 10
40.37999300000126
 20
811.499996
 30
0.0
 10
39.22781724158286
 20
811.5116961163352
 30
0.0
 10
36.90711433896217
 20
811.5352624091411
 30
0.0
 10
33.45129575540538
 20
811.7255909801411
 30
0.0
 10
29.97121536572904
 20
812.0157657128011
 30
0.0
 10
27.66483275360198
 20
812.2953686760403
 30
0.0
 10
26.48979861691099
 20
812.4378181735088
 30
0.0
 11
40.37999300000126
 21
811.499996
 31
0.0
 11
36.92420807202161
 21
811.5607510087955
 31
0.0
 11
33.42362082688999
 21
811.7438050858524
 31
0.0
 11
30.01725627442276
 21
812.0329311116071
 31
0.0
 11
26.48979861691099
 21
812.4378181735088
 31
0.0
  0
SPLINE
  5
C2
330
4E
100
AcDbEntity
  8
0
  6
Continuous
 62
     7
100
AcDbSpline
210
0.0
220
0.0
230
1.0
 70
     8
 71
     3
 72
    11
 73
     7
 74
     5
 42
0.000000001
 43
0.0000000001
 44
0.00000001
 40
0.0
 40
0.0
 40
0.0
 40
0.0
 40
3.550619856564349
 40
6.969233997251465
 40
10.47460270515788
 40
13.93092027066425
 40
13.93092027066425
 40
13.93092027066425
 40
13.93092027066425
 10
54.2701873830894
 20
812.437818173509
 30
0.0
 10
53.09515276550381
 20
812.2953686214272
 30
0.0
 10
50.78876922079363
 20
812.015765552366
 30
0.0
 10
47.30868836675129
 20
811.7255908499056
 30
0.0
 10
43.85287026324512
 20
811.5352623808008
 30
0.0
 10
41.53216829907207
 20
811.5116961069772
 30
0.0
 10
40.37999300000126
 20
811.499996
 30
0.0
 11
54.2701873830894
 21
812.437818173509
 31
0.0
 11
50.74272828104247
 21
812.0329309670225
 31
0.0
 11
47.33636236449515
 21
811.7438048914722
 31
0.0
 11
43.83577655077757
 21
811.5607509605271
 31
0.0
 11
40.37999300000126
 21
811.499996
 31
0.0
  0
SPLINE
  5
C3
330
4E
100
AcDbEntity
  8
0
  6
Continuous
 62
     7
100
AcDbSpline
210
0.0
220
0.0
230
1.0
 70
     8
 71
     3
 72
    11
 73
     7
 74
     5
 42
0.000000001
 43
0.0000000001
 44
0.00000001
 40
0.0
 40
0.0
 40
0.0
 40
0.0
 40
3.550619856567765
 40
6.969233997251154
 40
10.47460270514693
 40
13.93092027066519
 40
13.93092027066519
 40
13.93092027066519
 40
13.93092027066519
 10
89.27018738308908
 20
812.437818173509
 30
0.0
 10
88.09515276550236
 20
812.2953686214274
 30
0.0
 10
85.78876922079225
 20
812.0157655523664
 30
0.0
 10
82.30868836675357
 20
811.7255908499054
 30
0.0
 10
78.85287026324826
 20
811.5352623808009
 30
0.0
 10
76.53216829907478
 20
811.5116961069772
 30
0.0
 10
75.379993
 20
811.499996
 30
0.0
 11
89.27018738308908
 21
812.437818173509
 31
0.0
 11
85.74272828103872
 21
812.0329309670224
 31
0.0
 11
82.33636236449513
 21
811.7438048914722
 31
0.0
 11
78.8357765507882
 21
811.5607509605273
 31
0.0
 11
75.379993
 21
811.499996
 31
0.0
  0
SPLINE
  5
C4
330
4E
100
AcDbEntity
  8
0
  6
Continuous
 62
     7
100
AcDbSpline
210
0.0
220
0.0
230
1.0
 70
     8
 71
     3
 72
    11
 73
     7
 74
     5
 42
0.000000001
 43
0.0000000001
 44
0.00000001
 40
0.0
 40
0.0
 40
0.0
 40
0.0
 40
3.456318943349568
 40
6.961689088341588
 40
10.38030186562323
 40
13.93092027058905
 40
13.93092027058905
 40
13.93092027058905
 40
13.93092027058905
 10
75.379993
 20
811.499996
 30
0.0
 10
74.2278172415802
 20
811.5116961163351
 30
0.0
 10
71.90711433895997
 20
811.5352624091415
 30
0.0
 10
68.45129575540395
 20
811.7255909801407
 30
0.0
 10
64.9712153657294
 20
812.0157657128011
 30
0.0
 10
62.66483275360232
 20
812.2953686760401
 30
0.0
 10
61.4897986169109
 20
812.437818173509
 30
0.0
 11
75.379993
 21
811.499996
 31
0.0
 11
71.92420807201617
 21
811.5607510087957
 31
0.0
 11
68.42362082689
 21
811.7438050858524
 31
0.0
 11
65.01725627442396
 21
812.0329311116069
 31
0.0
 11
61.4897986169109
 21
812.437818173509
 31
0.0
  0
ENDBLK
  5
50
330
4E
100
AcDbEntity
  8
0
100
AcDbBlockEnd
  0
BLOCK
  5
53
330
51
100
AcDbEntity
  8
0
100
AcDbBlockBegin
  2
Drfsicht1
 70
     0
 10
57.879993
 20
813.999996
 30
0.0
  3
Drfsicht1
  1

  0
INSERT
  5
52
330
51
100
AcDbEntity
  8
0
100
AcDbBlockReference
  2
1411254_A_INL_M63_S_S-select__2
 10
22.87999299999998
 20
811.499996
 30
0.0
  0
MTEXT
  5
C5
330
51
100
AcDbEntity
  8
1
 62
     6
100
AcDbMText
 10
57.87999373799016
 20
806.459993999995
 30
0.0
 40
5.0
 41
0.0
 71
     2
 72
     1
  1
 
  7
CONVERTER_11
 73
     1
 44
1.32052821128451
  0
ENDBLK
  5
54
330
51
100
AcDbEntity
  8
0
100
AcDbBlockEnd
  0
BLOCK
  5
56
330
55
100
AcDbEntity
  8
0
100
AcDbBlockBegin
  2
1411254_A_INL_M63_S_S-select__3
 70
     0
 10
138.0
 20
846.499999999985
 30
0.0
  3
1411254_A_INL_M63_S_S-select__3
  1

  0
LINE
  5
C6
330
55
100
AcDbEntity
  8
1
  6
DOT_CENTER
 62
     2
100
AcDbLine
 10
173.0
 20
918.412499999985
 30
0.0
 11
173.0
 21
851.587499999985
 31
0.0
  0
LINE
  5
C7
330
55
100
AcDbEntity
  8
1
  6
DOT_CENTER
 62
     2
100
AcDbLine
 10
206.4125
 20
884.999999999985
 30
0.0
 11
139.5875
 21
884.999999999985
 31
0.0
  0
LINE
  5
C8
330
55
100
AcDbEntity
  8
0
  6
Continuous
 62
     7
100
AcDbLine
 10
176.6098056169109
 20
846.6696034013569
 30
0.0
 11
204.3901943830891
 21
862.7086183337024
 31
0.0
  0
LINE
  5
C9
330
55
100
AcDbEntity
  8
0
  6
Continuous
 62
     7
100
AcDbLine
 10
208.0
 20
868.9609850676395
 30
0.0
 11
208.0
 21
901.0390149323305
 31
0.0
  0
LINE
  5
CA
330
55
100
AcDbEntity
  8
0
  6
Continuous
 62
     7
100
AcDbLine
 10
204.3901943830891
 20
907.2913816662676
 30
0.0
 11
176.6098056169109
 21
923.3303965986131
 31
0.0
  0
LINE
  5
CB
330
55
100
AcDbEntity
  8
0
  6
Continuous
 62
     7
100
AcDbLine
 10
169.3901943830891
 20
923.3303965986131
 30
0.0
 11
141.6098056169109
 21
907.2913816662676
 31
0.0
  0
LINE
  5
CC
330
55
100
AcDbEntity
  8
0
  6
Continuous
 62
     7
100
AcDbLine
 10
138.0
 20
901.0390149323305
 30
0.0
 11
138.0
 21
868.9609850676395
 31
0.0
  0
LINE
  5
CD
330
55
100
AcDbEntity
  8
0
  6
Continuous
 62
     7
100
AcDbLine
 10
141.6098056169109
 20
862.7086183337024
 30
0.0
 11
169.390194383089
 21
846.6696034013569
 31
0.0
  0
ARC
  5
CE
330
55
100
AcDbEntity
  8
0
  6
Continuous
 62
     7
100
AcDbCircle
 10
173.0
 20
884.999999999985
 30
0.0
 40
38.49999999999999
100
AcDbArc
 50
324.6199773286571
 51
335.3800226713428
  0
ARC
  5
CF
330
55
100
AcDbEntity
  8
0
  6
Continuous
 62
     7
100
AcDbCircle
 10
173.0
 20
884.999999999985
 30
0.0
 40
38.50000000000001
100
AcDbArc
 50
24.61997732865716
 51
35.38002267134291
  0
ARC
  5
D0
330
55
100
AcDbEntity
  8
0
  6
Continuous
 62
     7
100
AcDbCircle
 10
173.0
 20
884.999999999985
 30
0.0
 40
38.50000000000004
100
AcDbArc
 50
84.6199773286571
 51
95.3800226713429
  0
ARC
  5
D1
330
55
100
AcDbEntity
  8
0
  6
Continuous
 62
     7
100
AcDbCircle
 10
173.0
 20
884.999999999985
 30
0.0
 40
38.49999999999999
100
AcDbArc
 50
144.6199773286571
 51
155.3800226713429
  0
ARC
  5
D2
330
55
100
AcDbEntity
  8
0
  6
Continuous
 62
     7
100
AcDbCircle
 10
173.0
 20
884.999999999985
 30
0.0
 40
38.50000000000001
100
AcDbArc
 50
204.6199773286571
 51
215.3800226713429
  0
ARC
  5
D3
330
55
100
AcDbEntity
  8
0
  6
Continuous
 62
     7
100
AcDbCircle
 10
173.0
 20
884.999999999985
 30
0.0
 40
38.50000000000005
100
AcDbArc
 50
264.6199773286569
 51
275.3800226713429
  0
CIRCLE
  5
D4
330
55
100
AcDbEntity
  8
0
  6
Continuous
 62
     7
100
AcDbCircle
 10
173.0
 20
884.999999999985
 30
0.0
 40
30.375
  0
ENDBLK
  5
57
330
55
100
AcDbEntity
  8
0
100
AcDbBlockEnd
  0
BLOCK
  5
5A
330
58
100
AcDbEntity
  8
0
100
AcDbBlockBegin
  2
Rckans1
 70
     0
 10
173.0
 20
884.99999999999
 30
0.0
  3
Rckans1
  1

  0
INSERT
  5
59
330
58
100
AcDbEntity
  8
0
100
AcDbBlockReference
  2
1411254_A_INL_M63_S_S-select__3
 10
138.0
 20
846.499999999985
 30
0.0
  0
MTEXT
  5
D5
330
58
100
AcDbEntity
  8
1
 62
     6
100
AcDbMText
 10
173.0
 20
841.49999799999
 30
0.0
 40
5.0
 41
0.0
 71
     2
 72
     1
  1
 
  7
CONVERTER_11
 73
     1
 44
1.32052821128451
  0
ENDBLK
  5
5B
330
58
100
AcDbEntity
  8
0
100
AcDbBlockEnd
  0
BLOCK
  5
5D
330
5C
100
AcDbEntity
  8
0
100
AcDbBlockBegin
  2
1411254_A_INL_M63_S_S-select__4
 70
     0
 10
112.9199969999999
 20
846.499999999995
 30
0.0
  3
1411254_A_INL_M63_S_S-select__4
  1

  0
LINE
  5
D6
330
5C
100
AcDbEntity
  8
0
  6
Continuous
 62
     7
100
AcDbLine
 10
112.9199969999999
 20
907.2913816662776
 30
0.0
 11
112.9199969999999
 21
923.3303965986231
 31
0.0
  0
LINE
  5
D7
330
5C
100
AcDbEntity
  8
0
  6
Continuous
 62
     7
100
AcDbLine
 10
112.9199969999999
 20
923.499999999995
 30
0.0
 11
112.9199969999999
 21
923.3303965986231
 31
0.0
  0
LINE
  5
D8
330
5C
100
AcDbEntity
  8
0
  6
Continuous
 62
     7
100
AcDbLine
 10
117.9199969999999
 20
849.999999999995
 30
0.0
 11
116.982174826491
 21
846.499999999995
 31
0.0
  0
LINE
  5
D9
330
5C
100
AcDbEntity
  8
0
  6
Continuous
 62
     7
100
AcDbLine
 10
116.982174826491
 20
907.2913816662776
 30
0.0
 11
116.982174826491
 21
901.0390149323408
 31
0.0
  0
LINE
  5
DA
330
5C
100
AcDbEntity
  8
0
  6
Continuous
 62
     7
100
AcDbLine
 10
117.9199969999999
 20
884.9999999999965
 30
0.0
 11
117.9199969999999
 21
854.6891108675403
 31
0.0
  0
LINE
  5
DB
330
5C
100
AcDbEntity
  8
0
  6
Continuous
 62
     7
100
AcDbLine
 10
117.9199969999999
 20
854.6891108675403
 30
0.0
 11
117.9199969999999
 21
849.999999999995
 31
0.0
  0
LINE
  5
DC
330
5C
100
AcDbEntity
  8
0
  6
Continuous
 62
     7
100
AcDbLine
 10
116.982174826491
 20
846.669603401367
 30
0.0
 11
116.982174826491
 21
846.499999999995
 31
0.0
  0
LINE
  5
DD
330
5C
100
AcDbEntity
  8
0
  6
Continuous
 62
     7
100
AcDbLine
 10
117.9199969999999
 20
919.999999999995
 30
0.0
 11
117.9199969999999
 21
915.310889132451
 31
0.0
  0
LINE
  5
DE
330
5C
100
AcDbEntity
  8
0
  6
Continuous
 62
     7
100
AcDbLine
 10
117.9199969999999
 20
915.310889132451
 30
0.0
 11
117.9199969999999
 21
884.9999999999965
 31
0.0
  0
LINE
  5
DF
330
5C
100
AcDbEntity
  8
0
  6
Continuous
 62
     7
100
AcDbLine
 10
116.982174826491
 20
923.3303965986231
 30
0.0
 11
112.9199969999999
 21
923.3303965986231
 31
0.0
  0
LINE
  5
E0
330
5C
100
AcDbEntity
  8
0
  6
Continuous
 62
     7
100
AcDbLine
 10
117.9199969999999
 20
919.999999999995
 30
0.0
 11
116.982174826491
 21
923.499999999995
 31
0.0
  0
LINE
  5
E1
330
5C
100
AcDbEntity
  8
0
  6
Continuous
 62
     7
100
AcDbLine
 10
116.982174826491
 20
923.499999999995
 30
0.0
 11
116.982174826491
 21
923.3303965986231
 31
0.0
  0
LINE
  5
E2
330
5C
100
AcDbEntity
  8
0
  6
Continuous
 62
     7
100
AcDbLine
 10
112.9199969999999
 20
923.499999999995
 30
0.0
 11
116.982174826491
 21
923.499999999995
 31
0.0
  0
LINE
  5
E3
330
5C
100
AcDbEntity
  8
0
  6
Continuous
 62
     7
100
AcDbLine
 10
112.9199969999999
 20
907.2913816662776
 30
0.0
 11
116.982174826491
 21
907.2913816662776
 31
0.0
  0
LINE
  5
E4
330
5C
100
AcDbEntity
  8
0
  6
Continuous
 62
     7
100
AcDbLine
 10
112.9199969999999
 20
868.9609850676495
 30
0.0
 11
112.9199969999999
 21
901.0390149323405
 31
0.0
  0
LINE
  5
E5
330
5C
100
AcDbEntity
  8
0
  6
Continuous
 62
     7
100
AcDbLine
 10
112.9199969999999
 20
907.2913816662776
 30
0.0
 11
112.9199969999999
 21
901.0390149323405
 31
0.0
  0
LINE
  5
E6
330
5C
100
AcDbEntity
  8
0
  6
Continuous
 62
     7
100
AcDbLine
 10
112.9199969999999
 20
846.6696034013669
 30
0.0
 11
112.9199969999999
 21
862.7086183337124
 31
0.0
  0
LINE
  5
E7
330
5C
100
AcDbEntity
  8
0
  6
Continuous
 62
     7
100
AcDbLine
 10
112.9199969999999
 20
846.499999999995
 30
0.0
 11
116.982174826491
 21
846.499999999995
 31
0.0
  0
LINE
  5
E8
330
5C
100
AcDbEntity
  8
0
  6
Continuous
 62
     7
100
AcDbLine
 10
112.9199969999999
 20
868.9609850676495
 30
0.0
 11
112.9199969999999
 21
862.7086183337124
 31
0.0
  0
LINE
  5
E9
330
5C
100
AcDbEntity
  8
0
  6
Continuous
 62
     7
100
AcDbLine
 10
116.982174826491
 20
862.7086183337125
 30
0.0
 11
112.9199969999999
 21
862.7086183337124
 31
0.0
  0
LINE
  5
EA
330
5C
100
AcDbEntity
  8
0
  6
Continuous
 62
     7
100
AcDbLine
 10
116.982174826491
 20
901.0390149323408
 30
0.0
 11
112.9199969999999
 21
901.0390149323405
 31
0.0
  0
LINE
  5
EB
330
5C
100
AcDbEntity
  8
0
  6
Continuous
 62
     7
100
AcDbLine
 10
112.9199969999999
 20
868.9609850676495
 30
0.0
 11
116.982174826491
 21
868.9609850676496
 31
0.0
  0
LINE
  5
EC
330
5C
100
AcDbEntity
  8
0
  6
Continuous
 62
     7
100
AcDbLine
 10
112.9199969999999
 20
846.6696034013669
 30
0.0
 11
116.982174826491
 21
846.669603401367
 31
0.0
  0
LINE
  5
ED
330
5C
100
AcDbEntity
  8
0
  6
Continuous
 62
     7
100
AcDbLine
 10
116.982174826491
 20
868.9609850676496
 30
0.0
 11
116.982174826491
 21
862.7086183337125
 31
0.0
  0
LINE
  5
EE
330
5C
100
AcDbEntity
  8
0
  6
Continuous
 62
     7
100
AcDbLine
 10
112.9199969999999
 20
846.6696034013669
 30
0.0
 11
112.9199969999999
 21
846.499999999995
 31
0.0
  0
SPLINE
  5
EF
330
5C
100
AcDbEntity
  8
0
  6
Continuous
 62
     7
100
AcDbSpline
210
0.0
220
0.0
230
1.0
 70
     8
 71
     3
 72
    11
 73
     7
 74
     5
 42
0.000000001
 43
0.0000000001
 44
0.00000001
 40
0.0
 40
0.0
 40
0.0
 40
0.0
 40
3.99085951756249
 40
8.037131985677695
 40
11.9810757111411
 40
16.07430643722572
 40
16.07430643722572
 40
16.07430643722572
 40
16.07430643722572
 10
117.9199969999999
 20
884.9999999999965
 30
0.0
 10
117.9083002779199
 20
883.6696532569255
 30
0.0
 10
117.8847444101115
 20
880.9904879511317
 30
0.0
 10
117.6944611190335
 20
877.0005039077447
 30
0.0
 10
117.4043767260113
 20
872.9826039637278
 30
0.0
 10
117.1246407889065
 20
870.3180225109254
 30
0.0
 10
116.982174826491
 20
868.9609850676496
 30
0.0
 11
117.9199969999999
 21
884.9999999999965
 31
0.0
 11
117.8592419814676
 21
881.0096029623505
 31
0.0
 11
117.676187914571
 21
876.9674733136028
 31
0.0
 11
117.3870618273171
 21
873.0341416193052
 31
0.0
 11
116.982174826491
 21
868.9609850676496
 31
0.0
  0
SPLINE
  5
F0
330
5C
100
AcDbEntity
  8
0
  6
Continuous
 62
     7
100
AcDbSpline
210
0.0
220
0.0
230
1.0
 70
     8
 71
     3
 72
    11
 73
     7
 74
     5
 42
0.000000001
 43
0.0000000001
 44
0.00000001
 40
0.0
 40
0.0
 40
0.0
 40
0.0
 40
4.093232419535384
 40
8.037177737635664
 40
12.08344852886304
 40
16.07430643728938
 40
16.07430643728938
 40
16.07430643728938
 40
16.07430643728938
 10
116.982174826491
 20
901.0390149323408
 30
0.0
 10
117.1246408441592
 20
899.6819769271873
 30
0.0
 10
117.4043768883952
 20
897.0173943840671
 30
0.0
 10
117.69446125072
 20
892.9994938992047
 30
0.0
 10
117.8847444387589
 20
889.0095104169606
 30
0.0
 10
117.9083002873809
 20
886.3303462066292
 30
0.0
 10
117.9199969999999
 20
884.9999999999965
 30
0.0
 11
116.982174826491
 21
901.0390149323408
 31
0.0
 11
117.3870619735706
 21
896.9658566934266
 31
0.0
 11
117.6761881111916
 21
893.0325234058976
 31
0.0
 11
117.859242030292
 21
888.9903954290631
 31
0.0
 11
117.9199969999999
 21
884.9999999999965
 31
0.0
  0
SPLINE
  5
F1
330
5C
100
AcDbEntity
  8
0
  6
Continuous
 62
     7
100
AcDbSpline
210
0.0
220
0.0
230
1.0
 70
     8
 71
     3
 72
    11
 73
     7
 74
     5
 42
0.000000001
 43
0.0000000001
 44
0.00000001
 40
0.0
 40
0.0
 40
0.0
 40
0.0
 40
1.996121865423283
 40
4.025461098518679
 40
6.013262862032498
 40
8.089701567876432
 40
8.089701567876432
 40
8.089701567876432
 40
8.089701567876432
 10
117.9199969999999
 20
854.6891108675403
 30
0.0
 10
117.9082699472789
 20
854.023618136874
 30
0.0
 10
117.8846206774755
 20
852.6815582436261
 30
0.0
 10
117.6939306457168
 20
850.6845624069904
 30
0.0
 10
117.4030600023514
 20
848.6732549355177
 30
0.0
 10
117.124494963253
 20
847.3471277393052
 30
0.0
 10
116.982174826491
 20
846.669603401367
 30
0.0
 11
117.9199969999999
 21
854.6891108675403
 31
0.0
 11
117.8592420695228
 21
852.6939137992026
 31
0.0
 11
117.6761879141476
 21
850.6728475208114
 31
0.0
 11
117.3870623680791
 21
848.7061847963743
 31
0.0
 11
116.982174826491
 21
846.669603401367
 31
0.0
  0
SPLINE
  5
F2
330
5C
100
AcDbEntity
  8
0
  6
Continuous
 62
     7
100
AcDbSpline
210
0.0
220
0.0
230
1.0
 70
     8
 71
     3
 72
    11
 73
     7
 74
     5
 42
0.000000001
 43
0.0000000001
 44
0.00000001
 40
0.0
 40
0.0
 40
0.0
 40
0.0
 40
2.07643955205943
 40
4.064242101964101
 40
6.093580498807475
 40
8.089701568015439
 40
8.089701568015439
 40
8.089701568015439
 40
8.089701568015439
 10
116.982174826491
 20
862.7086183337125
 30
0.0
 10
117.1244950177927
 20
862.0310937188228
 30
0.0
 10
117.4030601620176
 20
860.7049659882624
 30
0.0
 10
117.6939307763442
 20
858.6936582427505
 30
0.0
 10
117.8846207059687
 20
856.6966626815391
 30
0.0
 10
117.908269956672
 20
855.3546033326849
 30
0.0
 10
117.9199969999999
 20
854.6891108675403
 30
0.0
 11
116.982174826491
 21
862.7086183337125
 31
0.0
 11
117.3870625126685
 21
860.6720361046741
 31
0.0
 11
117.6761881085277
 21
858.7053725927134
 31
0.0
 11
117.8592421177902
 21
856.6843071407634
 31
0.0
 11
117.9199969999999
 21
854.6891108675403
 31
0.0
  0
SPLINE
  5
F3
330
5C
100
AcDbEntity
  8
0
  6
Continuous
 62
     7
100
AcDbSpline
210
0.0
220
0.0
230
1.0
 70
     8
 71
     3
 72
    11
 73
     7
 74
     5
 42
0.000000001
 43
0.0000000001
 44
0.00000001
 40
0.0
 40
0.0
 40
0.0
 40
0.0
 40
1.996121865427154
 40
4.025461098518793
 40
6.013262862037347
 40
8.089701567876542
 40
8.089701567876542
 40
8.089701567876542
 40
8.089701567876542
 10
117.9199969999999
 20
915.310889132451
 30
0.0
 10
117.9082699472788
 20
914.6453964017834
 30
0.0
 10
117.8846206774754
 20
913.3033365085353
 30
0.0
 10
117.6939306457164
 20
911.3063406718982
 30
0.0
 10
117.403060002351
 20
909.295033200427
 30
0.0
 10
117.1244949632527
 20
907.9689060042142
 30
0.0
 10
116.982174826491
 20
907.2913816662776
 30
0.0
 11
117.9199969999999
 21
915.310889132451
 31
0.0
 11
117.8592420695226
 21
913.3156920641095
 31
0.0
 11
117.6761879141476
 21
911.294625785722
 31
0.0
 11
117.3870623680783
 21
909.3279630612802
 31
0.0
 11
116.982174826491
 21
907.2913816662776
 31
0.0
  0
SPLINE
  5
F4
330
5C
100
AcDbEntity
  8
0
  6
Continuous
 62
     7
100
AcDbSpline
210
0.0
220
0.0
230
1.0
 70
     8
 71
     3
 72
    11
 73
     7
 74
     5
 42
0.000000001
 43
0.0000000001
 44
0.00000001
 40
0.0
 40
0.0
 40
0.0
 40
0.0
 40
2.076439552049402
 40
4.06424210196399
 40
6.093580498805656
 40
8.089701568015329
 40
8.089701568015329
 40
8.089701568015329
 40
8.089701568015329
 10
116.982174826491
 20
923.3303965986231
 30
0.0
 10
117.124495017792
 20
922.6528719837366
 30
0.0
 10
117.4030601620171
 20
921.3267442531767
 30
0.0
 10
117.6939307763438
 20
919.3154365076648
 30
0.0
 10
117.8846207059686
 20
917.3184409464502
 30
0.0
 10
117.908269956672
 20
915.9763815975962
 30
0.0
 10
117.9199969999999
 20
915.310889132451
 30
0.0
 11
116.982174826491
 21
923.3303965986231
 31
0.0
 11
117.3870625126668
 21
921.2938143695947
 31
0.0
 11
117.6761881085277
 21
919.3271508576241
 31
0.0
 11
117.8592421177901
 21
917.3060854056758
 31
0.0
 11
117.9199969999999
 21
915.310889132451
 31
0.0
  0
ENDBLK
  5
5E
330
5C
100
AcDbEntity
  8
0
100
AcDbBlockEnd
  0
BLOCK
  5
61
330
5F
100
AcDbEntity
  8
0
100
AcDbBlockBegin
  2
SA_Links1
 70
     0
 10
115.4199969999999
 20
885.0
 30
0.0
  3
SA_Links1
  1

  0
INSERT
  5
60
330
5F
100
AcDbEntity
  8
0
100
AcDbBlockReference
  2
1411254_A_INL_M63_S_S-select__4
 10
112.9199969999999
 20
846.499999999995
 30
0.0
  0
MTEXT
  5
F5
330
5F
100
AcDbEntity
  8
1
 62
     6
100
AcDbMText
 10
115.439996868995
 20
841.499997999995
 30
0.0
 40
5.0
 41
0.0
 71
     2
 72
     1
  1
 
  7
CONVERTER_11
 73
     1
 44
1.32052821128451
  0
ENDBLK
  5
62
330
5F
100
AcDbEntity
  8
0
100
AcDbBlockEnd
  0
BLOCK
  5
64
330
63
100
AcDbEntity
  8
0
100
AcDbBlockBegin
  2
1411254_A_INL_M63_S_S-select__5
 70
     0
 10
-2.16001000000014
 20
846.499999999995
 30
0.0
  3
1411254_A_INL_M63_S_S-select__5
  1

  0
LINE
  5
F6
330
63
100
AcDbEntity
  8
0
  6
Continuous
 62
     7
100
AcDbLine
 10
2.8399899999999
 20
901.0390149323405
 30
0.0
 11
2.8399899999999
 21
907.2913816662776
 31
0.0
  0
LINE
  5
F7
330
63
100
AcDbEntity
  8
0
  6
Continuous
 62
     7
100
AcDbLine
 10
-1.2221878264912
 20
907.2913816662776
 30
0.0
 11
2.8399899999999
 21
907.2913816662776
 31
0.0
  0
LINE
  5
F8
330
63
100
AcDbEntity
  8
0
  6
Continuous
 62
     7
100
AcDbLine
 10
2.8399899999999
 20
901.0390149323405
 30
0.0
 11
-1.22218782649122
 21
901.0390149323403
 31
0.0
  0
LINE
  5
F9
330
63
100
AcDbEntity
  8
0
  6
Continuous
 62
     7
100
AcDbLine
 10
-1.22218782649122
 20
901.0390149323403
 30
0.0
 11
-1.2221878264912
 21
907.2913816662776
 31
0.0
  0
LINE
  5
FA
330
63
100
AcDbEntity
  8
0
  6
Continuous
 62
     7
100
AcDbLine
 10
2.8399899999999
 20
862.7086183337124
 30
0.0
 11
2.8399899999999
 21
868.9609850676495
 31
0.0
  0
LINE
  5
FB
330
63
100
AcDbEntity
  8
0
  6
Continuous
 62
     7
100
AcDbLine
 10
2.8399899999999
 20
862.7086183337124
 30
0.0
 11
2.8399899999999
 21
846.6696034013669
 31
0.0
  0
LINE
  5
FC
330
63
100
AcDbEntity
  8
0
  6
Continuous
 62
     7
100
AcDbLine
 10
2.8399899999999
 20
901.0390149323405
 30
0.0
 11
2.8399899999999
 21
868.9609850676495
 31
0.0
  0
LINE
  5
FD
330
63
100
AcDbEntity
  8
0
  6
Continuous
 62
     7
100
AcDbLine
 10
2.8399899999999
 20
862.7086183337124
 30
0.0
 11
-1.2221878264912
 21
862.7086183337124
 31
0.0
  0
LINE
  5
FE
330
63
100
AcDbEntity
  8
0
  6
Continuous
 62
     7
100
AcDbLine
 10
-1.22218782649121
 20
868.9609850676495
 30
0.0
 11
2.8399899999999
 21
868.9609850676495
 31
0.0
  0
LINE
  5
FF
330
63
100
AcDbEntity
  8
0
  6
Continuous
 62
     7
100
AcDbLine
 10
-2.1600100000001
 20
854.6891108675396
 30
0.0
 11
-2.16001000000011
 21
884.9999999999936
 31
0.0
  0
LINE
  5
100
330
63
100
AcDbEntity
  8
0
  6
Continuous
 62
     7
100
AcDbLine
 10
-2.16001000000011
 20
849.999999999995
 30
0.0
 11
-2.1600100000001
 21
854.6891108675396
 31
0.0
  0
LINE
  5
101
330
63
100
AcDbEntity
  8
0
  6
Continuous
 62
     7
100
AcDbLine
 10
-1.2221878264912
 20
862.7086183337124
 30
0.0
 11
-1.22218782649121
 21
868.9609850676495
 31
0.0
  0
LINE
  5
102
330
63
100
AcDbEntity
  8
0
  6
Continuous
 62
     7
100
AcDbLine
 10
2.8399899999999
 20
923.499999999995
 30
0.0
 11
-1.2221878264912
 21
923.499999999995
 31
0.0
  0
LINE
  5
103
330
63
100
AcDbEntity
  8
0
  6
Continuous
 62
     7
100
AcDbLine
 10
2.8399899999999
 20
923.3303965986231
 30
0.0
 11
-1.2221878264912
 21
923.3303965986231
 31
0.0
  0
LINE
  5
104
330
63
100
AcDbEntity
  8
0
  6
Continuous
 62
     7
100
AcDbLine
 10
-2.1600100000001
 20
919.999999999995
 30
0.0
 11
-1.2221878264912
 21
923.499999999995
 31
0.0
  0
LINE
  5
105
330
63
100
AcDbEntity
  8
0
  6
Continuous
 62
     7
100
AcDbLine
 10
-2.16001000000011
 20
915.3108891324496
 30
0.0
 11
-2.1600100000001
 21
919.999999999995
 31
0.0
  0
LINE
  5
106
330
63
100
AcDbEntity
  8
0
  6
Continuous
 62
     7
100
AcDbLine
 10
-1.2221878264912
 20
923.3303965986231
 30
0.0
 11
-1.2221878264912
 21
923.499999999995
 31
0.0
  0
LINE
  5
107
330
63
100
AcDbEntity
  8
0
  6
Continuous
 62
     7
100
AcDbLine
 10
2.83998999999989
 20
846.499999999995
 30
0.0
 11
-1.22218782649121
 21
846.499999999995
 31
0.0
  0
LINE
  5
108
330
63
100
AcDbEntity
  8
0
  6
Continuous
 62
     7
100
AcDbLine
 10
-1.22218782649121
 20
846.6696034013669
 30
0.0
 11
2.8399899999999
 21
846.6696034013669
 31
0.0
  0
LINE
  5
109
330
63
100
AcDbEntity
  8
0
  6
Continuous
 62
     7
100
AcDbLine
 10
-2.16001000000011
 20
849.999999999995
 30
0.0
 11
-1.22218782649121
 21
846.499999999995
 31
0.0
  0
LINE
  5
10A
330
63
100
AcDbEntity
  8
0
  6
Continuous
 62
     7
100
AcDbLine
 10
-1.22218782649121
 20
846.499999999995
 30
0.0
 11
-1.22218782649121
 21
846.6696034013669
 31
0.0
  0
LINE
  5
10B
330
63
100
AcDbEntity
  8
0
  6
Continuous
 62
     7
100
AcDbLine
 10
2.83998999999989
 20
846.499999999995
 30
0.0
 11
2.8399899999999
 21
846.6696034013669
 31
0.0
  0
LINE
  5
10C
330
63
100
AcDbEntity
  8
0
  6
Continuous
 62
     7
100
AcDbLine
 10
-2.16001000000011
 20
884.9999999999936
 30
0.0
 11
-2.16001000000011
 21
915.3108891324496
 31
0.0
  0
LINE
  5
10D
330
63
100
AcDbEntity
  8
0
  6
Continuous
 62
     7
100
AcDbLine
 10
2.8399899999999
 20
923.3303965986231
 30
0.0
 11
2.8399899999999
 21
923.499999999995
 31
0.0
  0
LINE
  5
10E
330
63
100
AcDbEntity
  8
0
  6
Continuous
 62
     7
100
AcDbLine
 10
2.8399899999999
 20
923.3303965986231
 30
0.0
 11
2.8399899999999
 21
907.2913816662776
 31
0.0
  0
SPLINE
  5
10F
330
63
100
AcDbEntity
  8
0
  6
Continuous
 62
     7
100
AcDbSpline
210
0.0
220
0.0
230
1.0
 70
     8
 71
     3
 72
    11
 73
     7
 74
     5
 42
0.000000001
 43
0.0000000001
 44
0.00000001
 40
0.0
 40
0.0
 40
0.0
 40
0.0
 40
3.990859526121979
 40
8.037132003121608
 40
11.9810757201261
 40
16.07430643722514
 40
16.07430643722514
 40
16.07430643722514
 40
16.07430643722514
 10
-2.160010000000114
 20
884.9999999999936
 30
0.0
 10
-2.148313277869778
 20
886.3303467459182
 30
0.0
 10
-2.124757409959366
 20
889.0095120575265
 30
0.0
 10
-1.93447411833424
 20
892.9994961038919
 30
0.0
 10
-1.64438972514962
 20
897.0173960450315
 30
0.0
 10
-1.364653788613509
 20
899.6819774920459
 30
0.0
 10
-1.222187826491222
 20
901.0390149323403
 30
0.0
 11
-2.160010000000114
 21
884.9999999999936
 31
0.0
 11
-2.099254981208022
 21
888.9903970461961
 31
0.0
 11
-1.916200913527419
 21
893.0325267038019
 31
0.0
 11
-1.627074826541296
 21
896.9658583896374
 31
0.0
 11
-1.222187826491222
 21
901.0390149323403
 31
0.0
  0
SPLINE
  5
110
330
63
100
AcDbEntity
  8
0
  6
Continuous
 62
     7
100
AcDbSpline
210
0.0
220
0.0
230
1.0
 70
     8
 71
     3
 72
    11
 73
     7
 74
     5
 42
0.000000001
 43
0.0000000001
 44
0.00000001
 40
0.0
 40
0.0
 40
0.0
 40
0.0
 40
4.093232374174566
 40
8.037177649725814
 40
12.08344848580453
 40
16.07430643728738
 40
16.07430643728738
 40
16.07430643728738
 40
16.07430643728738
 10
-1.222187826491215
 20
868.9609850676495
 30
0.0
 10
-1.364653842679396
 20
870.3180230577531
 30
0.0
 10
-1.644389884049603
 20
872.982605571704
 30
0.0
 10
-1.934474247196213
 20
877.0005060420953
 30
0.0
 10
-2.124757437992598
 20
880.9904895393701
 30
0.0
 10
-2.148313287127943
 20
883.6696537790068
 30
0.0
 10
-2.160010000000114
 20
884.9999999999936
 30
0.0
 11
-1.222187826491215
 21
868.9609850676495
 31
0.0
 11
-1.627074969653188
 21
873.0341432613687
 31
0.0
 11
-1.916201105931762
 21
876.9674765063327
 31
0.0
 11
-2.099255028985809
 21
881.0096045278854
 31
0.0
 11
-2.160010000000114
 21
884.9999999999936
 31
0.0
  0
SPLINE
  5
111
330
63
100
AcDbEntity
  8
0
  6
Continuous
 62
     7
100
AcDbSpline
210
0.0
220
0.0
230
1.0
 70
     8
 71
     3
 72
    11
 73
     7
 74
     5
 42
0.000000001
 43
0.0000000001
 44
0.00000001
 40
0.0
 40
0.0
 40
0.0
 40
0.0
 40
1.996121865432848
 40
4.025461098518793
 40
6.013262862023272
 40
8.089701567876652
 40
8.089701567876652
 40
8.089701567876652
 40
8.089701567876652
 10
-2.160010000000114
 20
915.3108891324496
 30
0.0
 10
-2.148282947278927
 20
915.9763818631194
 30
0.0
 10
-2.124633677475466
 20
917.3184417563666
 30
0.0
 10
-1.933943645716789
 20
919.3154375929997
 30
0.0
 10
-1.643073002352027
 20
921.3267450644692
 30
0.0
 10
-1.364507963253775
 20
922.6528722606819
 30
0.0
 10
-1.222187826491201
 20
923.3303965986231
 30
0.0
 11
-2.160010000000114
 21
915.3108891324496
 31
0.0
 11
-2.099255069522372
 21
917.3060862007968
 31
0.0
 11
-1.91620091414778
 21
919.3271524791786
 31
0.0
 11
-1.627075368080866
 21
921.2938152036065
 31
0.0
 11
-1.222187826491201
 21
923.3303965986231
 31
0.0
  0
SPLINE
  5
112
330
63
100
AcDbEntity
  8
0
  6
Continuous
 62
     7
100
AcDbSpline
210
0.0
220
0.0
230
1.0
 70
     8
 71
     3
 72
    11
 73
     7
 74
     5
 42
0.000000001
 43
0.0000000001
 44
0.00000001
 40
0.0
 40
0.0
 40
0.0
 40
0.0
 40
2.07643955206058
 40
4.064242101963987
 40
6.093580498800302
 40
8.089701568015212
 40
8.089701568015212
 40
8.089701568015212
 40
8.089701568015212
 10
-1.222187826491201
 20
907.2913816662776
 30
0.0
 10
-1.364508017792911
 20
907.968906281168
 30
0.0
 10
-1.643073162017853
 20
909.2950340117281
 30
0.0
 10
-1.933943776344111
 20
911.3063417572373
 30
0.0
 10
-2.124633705968693
 20
913.3033373184486
 30
0.0
 10
-2.148282956672118
 20
914.6453966673029
 30
0.0
 10
-2.160010000000114
 20
915.3108891324496
 30
0.0
 11
-1.222187826491201
 21
907.2913816662776
 31
0.0
 11
-1.627075512668833
 21
909.3279638953171
 31
0.0
 11
-1.916201108527879
 21
911.2946274072766
 31
0.0
 11
-2.099255117789995
 21
913.3156928592196
 31
0.0
 11
-2.160010000000114
 21
915.3108891324496
 31
0.0
  0
SPLINE
  5
113
330
63
100
AcDbEntity
  8
0
  6
Continuous
 62
     7
100
AcDbSpline
210
0.0
220
0.0
230
1.0
 70
     8
 71
     3
 72
    11
 73
     7
 74
     5
 42
0.000000001
 43
0.0000000001
 44
0.00000001
 40
0.0
 40
0.0
 40
0.0
 40
0.0
 40
1.996121865428522
 40
4.025461098518111
 40
6.013262862033551
 40
8.089701567875856
 40
8.089701567875856
 40
8.089701567875856
 40
8.089701567875856
 10
-2.160010000000099
 20
854.6891108675396
 30
0.0
 10
-2.14828294727895
 20
855.3546035982083
 30
0.0
 10
-2.124633677475515
 20
856.6966634914548
 30
0.0
 10
-1.933943645716631
 20
858.6936593280917
 30
0.0
 10
-1.643073002351374
 20
860.704966799562
 30
0.0
 10
-1.364507963253055
 20
862.0310939957748
 30
0.0
 10
-1.222187826491201
 20
862.7086183337124
 30
0.0
 11
-2.160010000000099
 21
854.6891108675396
 31
0.0
 11
-2.099255069522588
 21
856.6843079358825
 31
0.0
 11
-1.91620091414778
 21
858.705374214268
 31
0.0
 11
-1.627075368078977
 21
860.6720369387067
 31
0.0
 11
-1.222187826491201
 21
862.7086183337124
 31
0.0
  0
SPLINE
  5
114
330
63
100
AcDbEntity
  8
0
  6
Continuous
 62
     7
100
AcDbSpline
210
0.0
220
0.0
230
1.0
 70
     8
 71
     3
 72
    11
 73
     7
 74
     5
 42
0.000000001
 43
0.0000000001
 44
0.00000001
 40
0.0
 40
0.0
 40
0.0
 40
0.0
 40
1.996121069210695
 40
4.025459466051907
 40
6.013262015965347
 40
8.089701568016004
 40
8.089701568016004
 40
8.089701568016004
 40
8.089701568016004
 10
-2.160010000000099
 20
854.6891108675396
 30
0.0
 10
-2.148282956672181
 20
854.0236184023943
 30
0.0
 10
-2.12463370596886
 20
852.6815590535396
 30
0.0
 10
-1.933943776344042
 20
850.6845634923259
 30
0.0
 10
-1.64307316201728
 20
848.6732557468135
 30
0.0
 10
-1.364508017792273
 20
847.3471280162539
 30
0.0
 10
-1.222187826491215
 20
846.6696034013669
 30
0.0
 11
-2.160010000000099
 21
854.6891108675396
 31
0.0
 11
-2.099255117790317
 21
852.6939145943138
 31
0.0
 11
-1.916201108527893
 21
850.672849142366
 31
0.0
 11
-1.627075512667137
 21
848.7061856303966
 31
0.0
 11
-1.222187826491215
 21
846.6696034013669
 31
0.0
  0
ENDBLK
  5
65
330
63
100
AcDbEntity
  8
0
100
AcDbBlockEnd
  0
BLOCK
  5
68
330
66
100
AcDbEntity
  8
0
100
AcDbBlockBegin
  2
SA_Rechts1
 70
     0
 10
0.3399899999999
 20
885.0
 30
0.0
  3
SA_Rechts1
  1

  0
INSERT
  5
67
330
66
100
AcDbEntity
  8
0
100
AcDbBlockReference
  2
1411254_A_INL_M63_S_S-select__5
 10
-2.16001000000014
 20
846.499999999995
 30
0.0
  0
MTEXT
  5
115
330
66
100
AcDbEntity
  8
1
 62
     6
100
AcDbMText
 10
0.31999060698536
 20
841.499997999995
 30
0.0
 40
5.0
 41
0.0
 71
     2
 72
     1
  1
 
  7
CONVERTER_11
 73
     1
 44
1.32052821128451
  0
DIMENSION
  5
122
330
66
100
AcDbEntity
  8
1
100
AcDbDimension
  2
*D16
 10
2.83998999999989
 20
836.499999999995
 30
0.0
 11
8.97860901911171
 21
840.249999999995
 31
0.0
 70
    32
  1
<>
 71
     5
 42
-1.0
 53
0.00013888888889
  3
ME10_DIM_10
100
AcDbAlignedDimension
 13
-2.1600100000001
 23
854.6891108675396
 33
0.0
 14
2.83998999999989
 24
846.499999999995
 34
0.0
100
AcDbRotatedDimension
  0
DIMENSION
  5
12D
330
66
100
AcDbEntity
  8
1
100
AcDbDimension
  2
*D17
 10
-12.16001000000011
 20
846.499999999995
 30
0.0
 11
-15.91001000000011
 21
884.999999999995
 31
0.0
 70
    32
  1
<>
 71
     5
 42
-1.0
 53
90.0
  3
ME10_DIM_11
100
AcDbAlignedDimension
 13
-1.2221878264912
 23
923.499999999995
 33
0.0
 14
-1.22218782649121
 24
846.499999999995
 34
0.0
 50
90.0
100
AcDbRotatedDimension
  0
ENDBLK
  5
69
330
66
100
AcDbEntity
  8
0
100
AcDbBlockEnd
  0
BLOCK
  5
6B
330
6A
100
AcDbEntity
  8
0
100
AcDbBlockBegin
  2
1411254_A_INL_M63_S_S-select__6
 70
     0
 10
22.87999373798967
 20
846.49999999999
 30
0.0
  3
1411254_A_INL_M63_S_S-select__6
  1

  0
LINE
  5
12E
330
6A
100
AcDbEntity
  8
1
  6
DOT_CENTER
 62
     2
100
AcDbLine
 10
57.87999373798967
 20
923.49999999999
 30
0.0
 11
57.87999373798967
 21
846.49999999999
 31
0.0
  0
LINE
  5
12F
330
6A
100
AcDbEntity
  8
1
  6
DOT_CENTER
 62
     2
100
AcDbLine
 10
96.37999373798968
 20
884.99999999999
 30
0.0
 11
19.37999373798964
 21
884.99999999999
 31
0.0
  0
LINE
  5
130
330
6A
100
AcDbEntity
  8
0
  6
Continuous
 62
     7
100
AcDbLine
 10
22.87999373798972
 20
901.0390149323355
 30
0.0
 11
22.87999373798969
 21
884.99999999999
 31
0.0
  0
LINE
  5
131
330
6A
100
AcDbEntity
  8
0
  6
Continuous
 62
     7
100
AcDbLine
 10
92.87999373798975
 20
884.99999999999
 30
0.0
 11
92.87999373798975
 21
901.0390149323355
 31
0.0
  0
LINE
  5
132
330
6A
100
AcDbEntity
  8
0
  6
Continuous
 62
     7
100
AcDbLine
 10
40.37999373798968
 20
915.3108891324454
 30
0.0
 11
26.48979935490061
 21
907.2913816662726
 31
0.0
  0
LINE
  5
133
330
6A
100
AcDbEntity
  8
0
  6
Continuous
 62
     7
100
AcDbLine
 10
92.87999373798975
 20
868.9609850676445
 30
0.0
 11
92.87999373798975
 21
884.99999999999
 31
0.0
  0
LINE
  5
134
330
6A
100
AcDbEntity
  8
0
  6
Continuous
 62
     7
100
AcDbLine
 10
89.27018812107876
 20
907.2913816662726
 30
0.0
 11
75.37999373798966
 21
915.3108891324454
 31
0.0
  0
LINE
  5
135
330
6A
100
AcDbEntity
  8
0
  6
Continuous
 62
     7
100
AcDbLine
 10
26.48979935490064
 20
862.7086183337074
 30
0.0
 11
40.37999373798972
 21
854.6891108675346
 31
0.0
  0
LINE
  5
136
330
6A
100
AcDbEntity
  8
0
  6
Continuous
 62
     7
100
AcDbLine
 10
22.87999373798969
 20
884.99999999999
 30
0.0
 11
22.87999373798972
 21
868.9609850676445
 31
0.0
  0
LINE
  5
137
330
6A
100
AcDbEntity
  8
0
  6
Continuous
 62
     7
100
AcDbLine
 10
75.37999373798976
 20
854.6891108675346
 30
0.0
 11
61.48979935490067
 21
846.6696034013619
 31
0.0
  0
LINE
  5
138
330
6A
100
AcDbEntity
  8
0
  6
Continuous
 62
     7
100
AcDbLine
 10
40.37999373798972
 20
854.6891108675346
 30
0.0
 11
54.27018812107876
 21
846.6696034013619
 31
0.0
  0
LINE
  5
139
330
6A
100
AcDbEntity
  8
0
  6
Continuous
 62
     7
100
AcDbLine
 10
75.37999373798976
 20
854.6891108675346
 30
0.0
 11
89.27018812107876
 21
862.7086183337074
 31
0.0
  0
LINE
  5
13A
330
6A
100
AcDbEntity
  8
0
  6
Continuous
 62
     7
100
AcDbLine
 10
54.27018812107886
 20
923.3303965986181
 30
0.0
 11
40.37999373798968
 21
915.3108891324454
 31
0.0
  0
LINE
  5
13B
330
6A
100
AcDbEntity
  8
0
  6
Continuous
 62
     7
100
AcDbLine
 10
75.37999373798966
 20
915.3108891324454
 30
0.0
 11
61.48979935490067
 21
923.3303965986181
 31
0.0
  0
ARC
  5
13C
330
6A
100
AcDbEntity
  8
0
  6
Continuous
 62
     7
100
AcDbCircle
 10
57.87999373798967
 20
884.99999999999
 30
0.0
 40
35.00000000000001
100
AcDbArc
 50
120.0
 51
180.0
  0
ARC
  5
13D
330
6A
100
AcDbEntity
  8
0
  6
Continuous
 62
     7
100
AcDbCircle
 10
57.87999373798967
 20
884.99999999999
 30
0.0
 40
38.49999999999996
100
AcDbArc
 50
144.6199773286571
 51
155.3800226713428
  0
ARC
  5
13E
330
6A
100
AcDbEntity
  8
0
  6
Continuous
 62
     7
100
AcDbCircle
 10
57.87999373798967
 20
884.99999999999
 30
0.0
 40
38.50000000000009
100
AcDbArc
 50
24.61997732865711
 51
35.38002267134291
  0
ARC
  5
13F
330
6A
100
AcDbEntity
  8
0
  6
Continuous
 62
     7
100
AcDbCircle
 10
57.87999373798967
 20
884.99999999999
 30
0.0
 40
35.00000000000006
100
AcDbArc
 50
300.0000000000001
 51
0.0
  0
ARC
  5
140
330
6A
100
AcDbEntity
  8
0
  6
Continuous
 62
     7
100
AcDbCircle
 10
57.87999373798967
 20
884.99999999999
 30
0.0
 40
38.49999999999999
100
AcDbArc
 50
324.6199773286571
 51
335.3800226713429
  0
ARC
  5
141
330
6A
100
AcDbEntity
  8
0
  6
Continuous
 62
     7
100
AcDbCircle
 10
57.87999373798967
 20
884.99999999999
 30
0.0
 40
35.00000000000008
100
AcDbArc
 50
0.0
 51
60.00000000000004
  0
ARC
  5
142
330
6A
100
AcDbEntity
  8
0
  6
Continuous
 62
     7
100
AcDbCircle
 10
57.87999373798967
 20
884.99999999999
 30
0.0
 40
34.99999999999999
100
AcDbArc
 50
180.0
 51
240.0000000000001
  0
ARC
  5
143
330
6A
100
AcDbEntity
  8
0
  6
Continuous
 62
     7
100
AcDbCircle
 10
57.87999373798967
 20
884.99999999999
 30
0.0
 40
38.49999999999997
100
AcDbArc
 50
204.6199773286572
 51
215.380022671343
  0
ARC
  5
144
330
6A
100
AcDbEntity
  8
0
  6
Continuous
 62
     7
100
AcDbCircle
 10
57.87999373798967
 20
884.99999999999
 30
0.0
 40
38.50000000000004
100
AcDbArc
 50
264.6199773286571
 51
275.3800226713431
  0
ARC
  5
145
330
6A
100
AcDbEntity
  8
0
  6
Continuous
 62
     7
100
AcDbCircle
 10
57.87999373798967
 20
884.99999999999
 30
0.0
 40
34.99999999999999
100
AcDbArc
 50
240.0000000000001
 51
300.0000000000001
  0
ARC
  5
146
330
6A
100
AcDbEntity
  8
0
  6
Continuous
 62
     7
100
AcDbCircle
 10
57.87999373798967
 20
884.99999999999
 30
0.0
 40
35.00000000000001
100
AcDbArc
 50
60.00000000000004
 51
120.0
  0
ARC
  5
147
330
6A
100
AcDbEntity
  8
0
  6
Continuous
 62
     7
100
AcDbCircle
 10
57.87999373798967
 20
884.99999999999
 30
0.0
 40
38.50000000000005
100
AcDbArc
 50
84.61997732865697
 51
95.38002267134276
  0
CIRCLE
  5
148
330
6A
100
AcDbEntity
  8
0
  6
Continuous
 62
     7
100
AcDbCircle
 10
57.87999373798967
 20
884.99999999999
 30
0.0
 40
30.37500000000008
  0
ENDBLK
  5
6C
330
6A
100
AcDbEntity
  8
0
100
AcDbBlockEnd
  0
BLOCK
  5
6F
330
6D
100
AcDbEntity
  8
0
100
AcDbBlockBegin
  2
Vordans1
 70
     0
 10
57.87999373798967
 20
884.999999999995
 30
0.0
  3
Vordans1
  1

  0
INSERT
  5
6E
330
6D
100
AcDbEntity
  8
0
100
AcDbBlockReference
  2
1411254_A_INL_M63_S_S-select__6
 10
22.87999373798967
 20
846.49999999999
 30
0.0
  0
MTEXT
  5
149
330
6D
100
AcDbEntity
  8
1
 62
     6
100
AcDbMText
 10
57.87999373799016
 20
841.499997999995
 30
0.0
 40
5.0
 41
0.0
 71
     2
 72
     1
  1
 
  7
CONVERTER_11
 73
     1
 44
1.32052821128451
  0
ENDBLK
  5
70
330
6D
100
AcDbEntity
  8
0
100
AcDbBlockEnd
  0
BLOCK
  5
72
330
71
100
AcDbEntity
  8
0
100
AcDbBlockBegin
  2
_rahmen
 70
     0
 10
305.1259383842532
 20
696.1343427547549
 30
0.0
  3
_rahmen
  1

  0
POINT
  5
14A
330
71
100
AcDbEntity
  8
1
 62
     3
 60
     1
100
AcDbPoint
 10
241.6259383842555
 20
722.3843427547544
 30
0.0
  0
LINE
  5
14B
330
71
100
AcDbEntity
  8
1
  6
Continuous
 62
     7
100
AcDbLine
 10
241.6259383842555
 20
722.3843427547544
 30
0.0
 11
234.8811338575014
 21
722.3843427547544
 31
0.0
  0
LINE
  5
14C
330
71
100
AcDbEntity
  8
1
  6
Continuous
 62
     7
100
AcDbLine
 10
241.6259383842555
 20
718.1343427547544
 30
0.0
 11
241.6259383842555
 21
722.3843427547544
 31
0.0
  0
LINE
  5
14D
330
71
100
AcDbEntity
  8
1
  6
Continuous
 62
     2
100
AcDbLine
 10
276.5666750690439
 20
716.5841234757222
 30
0.0
 11
276.566675069044
 21
714.5267275108686
 31
0.0
  0
LINE
  5
14E
330
71
100
AcDbEntity
  8
1
  6
Continuous
 62
     6
100
AcDbLine
 10
31.79260505092003
 20
701.1343427547549
 30
0.0
 11
53.12593838425329
 21
701.1343427547545
 31
0.0
  0
LINE
  5
14F
330
71
100
AcDbEntity
  8
1
  6
Continuous
 62
     6
100
AcDbLine
 10
305.1259383842531
 20
701.1343427547545
 30
0.0
 11
305.1259383842527
 21
709.6343427547544
 31
0.0
  0
LINE
  5
150
330
71
100
AcDbEntity
  8
1
  6
Continuous
 62
     6
100
AcDbLine
 10
-89.87406161574657
 20
701.1343427547549
 30
0.0
 11
-89.87406161574756
 21
988.1343427547552
 31
0.0
  0
LINE
  5
151
330
71
100
AcDbEntity
  8
1
  6
Continuous
 62
     2
100
AcDbLine
 10
-109.8740616157476
 20
844.6343427547549
 30
0.0
 11
-109.8740616157476
 21
696.1343427547549
 31
0.0
  0
LINE
  5
152
330
71
100
AcDbEntity
  8
1
  6
Continuous
 62
     2
100
AcDbLine
 10
-109.8740616157476
 20
844.6343427547549
 30
0.0
 11
-99.87406161574756
 21
844.6343427547549
 31
0.0
  0
LINE
  5
153
330
71
100
AcDbEntity
  8
1
  6
Continuous
 62
     2
100
AcDbLine
 10
-109.8740616157476
 20
993.1343427547549
 30
0.0
 11
-109.8740616157476
 21
844.6343427547549
 31
0.0
  0
LINE
  5
154
330
71
100
AcDbEntity
  8
1
  6
Continuous
 62
     2
100
AcDbLine
 10
120.1259383842504
 20
993.1343427547549
 30
0.0
 11
100.1259383842532
 21
993.1343427547549
 31
0.0
  0
LINE
  5
155
330
71
100
AcDbEntity
  8
1
  6
Continuous
 62
     2
100
AcDbLine
 10
120.1259383842504
 20
993.1343427547549
 30
0.0
 11
120.1259383842504
 21
989.1343427547552
 31
0.0
  0
LINE
  5
156
330
71
100
AcDbEntity
  8
1
  6
Continuous
 62
     2
100
AcDbLine
 10
-89.87406161574756
 20
993.1343427547549
 30
0.0
 11
-109.8740616157476
 21
993.1343427547549
 31
0.0
  0
LINE
  5
157
330
71
100
AcDbEntity
  8
1
  6
Continuous
 62
     2
100
AcDbLine
 10
-89.87406161574756
 20
993.1343427547549
 30
0.0
 11
-89.87406161574756
 21
989.1343427547552
 31
0.0
  0
LINE
  5
158
330
71
100
AcDbEntity
  8
1
  6
Continuous
 62
     2
100
AcDbLine
 10
-36.5407282824134
 20
993.1343427547549
 30
0.0
 11
-89.87406161574756
 21
993.1343427547549
 31
0.0
  0
LINE
  5
159
330
71
100
AcDbEntity
  8
1
  6
Continuous
 62
     6
100
AcDbLine
 10
-36.5407282824134
 20
988.1343427547552
 30
0.0
 11
31.79260505092003
 21
988.1343427547549
 31
0.0
  0
LINE
  5
15A
330
71
100
AcDbEntity
  8
1
  6
Continuous
 62
     2
100
AcDbLine
 10
-36.5407282824134
 20
988.1343427547552
 30
0.0
 11
-36.5407282824134
 21
993.1343427547549
 31
0.0
  0
LINE
  5
15B
330
71
100
AcDbEntity
  8
1
  6
Continuous
 62
     2
100
AcDbLine
 10
31.79260505092003
 20
993.1343427547549
 30
0.0
 11
-36.5407282824134
 21
993.1343427547549
 31
0.0
  0
LINE
  5
15C
330
71
100
AcDbEntity
  8
1
  6
Continuous
 62
     6
100
AcDbLine
 10
31.79260505092003
 20
988.1343427547549
 30
0.0
 11
100.1259383842532
 21
988.1343427547549
 31
0.0
  0
LINE
  5
15D
330
71
100
AcDbEntity
  8
1
  6
Continuous
 62
     2
100
AcDbLine
 10
31.79260505092003
 20
988.1343427547549
 30
0.0
 11
31.79260505092003
 21
993.1343427547549
 31
0.0
  0
LINE
  5
15E
330
71
100
AcDbEntity
  8
1
  6
Continuous
 62
     2
100
AcDbLine
 10
100.1259383842532
 20
993.1343427547549
 30
0.0
 11
31.79260505092003
 21
993.1343427547549
 31
0.0
  0
LINE
  5
15F
330
71
100
AcDbEntity
  8
1
  6
Continuous
 62
     6
100
AcDbLine
 10
100.1259383842532
 20
988.1343427547549
 30
0.0
 11
168.4592717175866
 21
988.1343427547549
 31
0.0
  0
LINE
  5
160
330
71
100
AcDbEntity
  8
1
  6
Continuous
 62
     2
100
AcDbLine
 10
100.1259383842532
 20
988.1343427547549
 30
0.0
 11
100.1259383842532
 21
993.1343427547549
 31
0.0
  0
LINE
  5
161
330
71
100
AcDbEntity
  8
1
  6
Continuous
 62
     2
100
AcDbLine
 10
168.4592717175866
 20
993.1343427547549
 30
0.0
 11
120.1259383842504
 21
993.1343427547549
 31
0.0
  0
LINE
  5
162
330
71
100
AcDbEntity
  8
1
  6
Continuous
 62
     6
100
AcDbLine
 10
168.4592717175866
 20
988.1343427547549
 30
0.0
 11
236.7926050509198
 21
988.1343427547549
 31
0.0
  0
LINE
  5
163
330
71
100
AcDbEntity
  8
1
  6
Continuous
 62
     2
100
AcDbLine
 10
168.4592717175866
 20
988.1343427547549
 30
0.0
 11
168.4592717175866
 21
993.1343427547549
 31
0.0
  0
LINE
  5
164
330
71
100
AcDbEntity
  8
1
  6
Continuous
 62
     2
100
AcDbLine
 10
236.7926050509198
 20
993.1343427547549
 30
0.0
 11
168.4592717175866
 21
993.1343427547549
 31
0.0
  0
LINE
  5
165
330
71
100
AcDbEntity
  8
1
  6
Continuous
 62
     6
100
AcDbLine
 10
236.7926050509198
 20
988.1343427547549
 30
0.0
 11
305.1259383842507
 21
988.1343427547549
 31
0.0
  0
LINE
  5
166
330
71
100
AcDbEntity
  8
1
  6
Continuous
 62
     2
100
AcDbLine
 10
236.7926050509198
 20
988.1343427547549
 30
0.0
 11
236.7926050509198
 21
993.1343427547549
 31
0.0
  0
LINE
  5
167
330
71
100
AcDbEntity
  8
1
  6
Continuous
 62
     2
100
AcDbLine
 10
305.1259383842507
 20
993.1343427547549
 30
0.0
 11
236.7926050509198
 21
993.1343427547549
 31
0.0
  0
LINE
  5
168
330
71
100
AcDbEntity
  8
1
  6
Continuous
 62
     6
100
AcDbLine
 10
-89.87406161574756
 20
988.1343427547552
 30
0.0
 11
-36.5407282824134
 21
988.1343427547552
 31
0.0
  0
LINE
  5
169
330
71
100
AcDbEntity
  8
1
  6
Continuous
 62
     6
100
AcDbLine
 10
305.1259383842532
 20
815.9343427547551
 30
0.0
 11
305.1259383842531
 21
758.534342754755
 31
0.0
  0
LINE
  5
16A
330
71
100
AcDbEntity
  8
1
  6
Continuous
 62
     2
100
AcDbLine
 10
305.1259383842532
 20
815.9343427547551
 30
0.0
 11
310.1259383842507
 21
815.9343427547551
 31
0.0
  0
LINE
  5
16B
330
71
100
AcDbEntity
  8
1
  6
Continuous
 62
     2
100
AcDbLine
 10
310.1259383842507
 20
873.334342754755
 30
0.0
 11
310.1259383842507
 21
815.9343427547551
 31
0.0
  0
LINE
  5
16C
330
71
100
AcDbEntity
  8
1
  6
Continuous
 62
     6
100
AcDbLine
 10
305.1259383842532
 20
873.334342754755
 30
0.0
 11
305.1259383842532
 21
815.9343427547551
 31
0.0
  0
LINE
  5
16D
330
71
100
AcDbEntity
  8
1
  6
Continuous
 62
     2
100
AcDbLine
 10
305.1259383842532
 20
873.334342754755
 30
0.0
 11
310.1259383842507
 21
873.334342754755
 31
0.0
  0
LINE
  5
16E
330
71
100
AcDbEntity
  8
1
  6
Continuous
 62
     2
100
AcDbLine
 10
310.1259383842507
 20
930.7343427547548
 30
0.0
 11
310.1259383842507
 21
873.334342754755
 31
0.0
  0
LINE
  5
16F
330
71
100
AcDbEntity
  8
1
  6
Continuous
 62
     6
100
AcDbLine
 10
305.1259383842512
 20
930.7343427547548
 30
0.0
 11
305.1259383842532
 21
873.334342754755
 31
0.0
  0
LINE
  5
170
330
71
100
AcDbEntity
  8
1
  6
Continuous
 62
     2
100
AcDbLine
 10
305.1259383842512
 20
930.7343427547548
 30
0.0
 11
310.1259383842507
 21
930.7343427547548
 31
0.0
  0
LINE
  5
171
330
71
100
AcDbEntity
  8
1
  6
Continuous
 62
     2
100
AcDbLine
 10
310.1259383842507
 20
988.1343427547549
 30
0.0
 11
310.1259383842507
 21
930.7343427547548
 31
0.0
  0
LINE
  5
172
330
71
100
AcDbEntity
  8
1
  6
Continuous
 62
     2
100
AcDbLine
 10
305.1259383842507
 20
988.1343427547549
 30
0.0
 11
310.1259383842507
 21
988.1343427547549
 31
0.0
  0
LINE
  5
173
330
71
100
AcDbEntity
  8
1
  6
Continuous
 62
     2
100
AcDbLine
 10
305.1259383842507
 20
988.1343427547549
 30
0.0
 11
305.1259383842507
 21
993.1343427547549
 31
0.0
  0
LINE
  5
174
330
71
100
AcDbEntity
  8
1
  6
Continuous
 62
     2
100
AcDbLine
 10
310.1259383842507
 20
993.1343427547549
 30
0.0
 11
310.1259383842507
 21
988.1343427547549
 31
0.0
  0
LINE
  5
175
330
71
100
AcDbEntity
  8
1
  6
Continuous
 62
     6
100
AcDbLine
 10
305.1259383842507
 20
988.1343427547549
 30
0.0
 11
305.1259383842512
 21
930.7343427547548
 31
0.0
  0
LINE
  5
176
330
71
100
AcDbEntity
  8
1
  6
Continuous
 62
     2
100
AcDbLine
 10
310.1259383842507
 20
993.1343427547549
 30
0.0
 11
305.1259383842507
 21
993.1343427547549
 31
0.0
  0
LINE
  5
177
330
71
100
AcDbEntity
  8
1
  6
Continuous
 62
     2
100
AcDbLine
 10
310.1259383842507
 20
701.1343427547549
 30
0.0
 11
310.1259383842507
 21
758.534342754755
 31
0.0
  0
LINE
  5
178
330
71
100
AcDbEntity
  8
1
  6
Continuous
 62
     2
100
AcDbLine
 10
310.1259383842507
 20
701.1343427547549
 30
0.0
 11
310.1259383842507
 21
696.1343427547549
 31
0.0
  0
LINE
  5
179
330
71
100
AcDbEntity
  8
1
  6
Continuous
 62
     2
100
AcDbLine
 10
310.1259383842507
 20
696.1343427547549
 30
0.0
 11
305.1259383842532
 21
696.1343427547549
 31
0.0
  0
LINE
  5
17A
330
71
100
AcDbEntity
  8
1
  6
Continuous
 62
     2
100
AcDbLine
 10
168.4592717175866
 20
696.1343427547549
 30
0.0
 11
236.7926050509198
 21
696.1343427547549
 31
0.0
  0
LINE
  5
17B
330
71
100
AcDbEntity
  8
1
  6
Continuous
 62
     2
100
AcDbLine
 10
120.1259383842504
 20
696.1343427547549
 30
0.0
 11
168.4592717175866
 21
696.1343427547549
 31
0.0
  0
LINE
  5
17C
330
71
100
AcDbEntity
  8
1
  6
Continuous
 62
     2
100
AcDbLine
 10
120.1259383842504
 20
696.1343427547549
 30
0.0
 11
120.1259383842504
 21
700.1343427547549
 31
0.0
  0
LINE
  5
17D
330
71
100
AcDbEntity
  8
1
  6
Continuous
 62
     2
100
AcDbLine
 10
120.1259383842504
 20
696.1343427547549
 30
0.0
 11
100.1259383842532
 21
696.1343427547549
 31
0.0
  0
LINE
  5
17E
330
71
100
AcDbEntity
  8
1
  6
Continuous
 62
     2
100
AcDbLine
 10
-89.87406161574756
 20
696.1343427547549
 30
0.0
 11
-36.5407282824134
 21
696.1343427547549
 31
0.0
  0
LINE
  5
17F
330
71
100
AcDbEntity
  8
1
  6
Continuous
 62
     2
100
AcDbLine
 10
-89.87406161574756
 20
696.1343427547549
 30
0.0
 11
-89.87406161574756
 21
700.1343427547549
 31
0.0
  0
LINE
  5
180
330
71
100
AcDbEntity
  8
1
  6
Continuous
 62
     2
100
AcDbLine
 10
31.79260505092003
 20
696.1343427547549
 30
0.0
 11
31.79260505092003
 21
701.1343427547549
 31
0.0
  0
LINE
  5
181
330
71
100
AcDbEntity
  8
1
  6
Continuous
 62
     6
100
AcDbLine
 10
-36.5407282824134
 20
701.1343427547549
 30
0.0
 11
-89.87406161574657
 21
701.1343427547549
 31
0.0
  0
LINE
  5
182
330
71
100
AcDbEntity
  8
1
  6
Continuous
 62
     6
100
AcDbLine
 10
-36.5407282824134
 20
701.1343427547549
 30
0.0
 11
31.79260505092003
 21
701.1343427547549
 31
0.0
  0
LINE
  5
183
330
71
100
AcDbEntity
  8
1
  6
Continuous
 62
     2
100
AcDbLine
 10
-36.5407282824134
 20
696.1343427547549
 30
0.0
 11
31.79260505092003
 21
696.1343427547549
 31
0.0
  0
LINE
  5
184
330
71
100
AcDbEntity
  8
1
  6
Continuous
 62
     2
100
AcDbLine
 10
-36.5407282824134
 20
696.1343427547549
 30
0.0
 11
-36.5407282824134
 21
701.1343427547549
 31
0.0
  0
LINE
  5
185
330
71
100
AcDbEntity
  8
1
  6
Continuous
 62
     2
100
AcDbLine
 10
-89.87406161574756
 20
696.1343427547549
 30
0.0
 11
-109.8740616157476
 21
696.1343427547549
 31
0.0
  0
LINE
  5
186
330
71
100
AcDbEntity
  8
1
  6
Continuous
 62
     2
100
AcDbLine
 10
310.1259383842507
 20
758.534342754755
 30
0.0
 11
305.1259383842531
 21
758.534342754755
 31
0.0
  0
LINE
  5
187
330
71
100
AcDbEntity
  8
1
  6
Continuous
 62
     2
100
AcDbLine
 10
310.1259383842507
 20
758.534342754755
 30
0.0
 11
310.1259383842507
 21
815.9343427547551
 31
0.0
  0
LINE
  5
188
330
71
100
AcDbEntity
  8
1
  6
Continuous
 62
     2
100
AcDbLine
 10
100.1259383842532
 20
696.1343427547549
 30
0.0
 11
100.1259383842532
 21
701.1343427547549
 31
0.0
  0
LINE
  5
189
330
71
100
AcDbEntity
  8
1
  6
Continuous
 62
     2
100
AcDbLine
 10
168.4592717175866
 20
696.1343427547549
 30
0.0
 11
168.4592717175866
 21
701.1343427547549
 31
0.0
  0
LINE
  5
18A
330
71
100
AcDbEntity
  8
1
  6
Continuous
 62
     2
100
AcDbLine
 10
236.7926050509198
 20
696.1343427547549
 30
0.0
 11
236.7926050509198
 21
701.1343427547549
 31
0.0
  0
LINE
  5
18B
330
71
100
AcDbEntity
  8
1
  6
Continuous
 62
     2
100
AcDbLine
 10
236.7926050509198
 20
696.1343427547549
 30
0.0
 11
305.1259383842532
 21
696.1343427547549
 31
0.0
  0
LINE
  5
18C
330
71
100
AcDbEntity
  8
1
  6
Continuous
 62
     2
100
AcDbLine
 10
100.1259383842532
 20
696.1343427547549
 30
0.0
 11
31.79260505092003
 21
696.1343427547549
 31
0.0
  0
LINE
  5
18D
330
71
100
AcDbEntity
  8
1
  6
Continuous
 62
     2
100
AcDbLine
 10
183.8614029920168
 20
714.5093427547544
 30
0.0
 11
183.8614029920168
 21
717.5093427547544
 31
0.0
  0
LINE
  5
18E
330
71
100
AcDbEntity
  8
1
  6
Continuous
 62
     2
100
AcDbLine
 10
187.8614029920168
 20
715.0093427547544
 30
0.0
 11
183.8614029920168
 21
714.5093427547544
 31
0.0
  0
LINE
  5
18F
330
71
100
AcDbEntity
  8
1
  6
Continuous
 62
     2
100
AcDbLine
 10
187.8614029920168
 20
717.0093427547544
 30
0.0
 11
187.8614029920168
 21
715.0093427547544
 31
0.0
  0
LINE
  5
190
330
71
100
AcDbEntity
  8
1
  6
Continuous
 62
     2
100
AcDbLine
 10
183.8614029920168
 20
717.5093427547544
 30
0.0
 11
187.8614029920168
 21
717.0093427547544
 31
0.0
  0
LINE
  5
191
330
71
100
AcDbEntity
  8
1
  6
Continuous
 62
     6
100
AcDbLine
 10
53.12593838425329
 20
713.8843427547544
 30
0.0
 11
53.12593838425329
 21
718.1343427547544
 31
0.0
  0
LINE
  5
192
330
71
100
AcDbEntity
  8
1
  6
Continuous
 62
     7
100
AcDbLine
 10
175.5811338575015
 20
726.6343427547544
 30
0.0
 11
184.9811338575015
 21
726.6343427547544
 31
0.0
  0
LINE
  5
193
330
71
100
AcDbEntity
  8
1
  6
Continuous
 62
     6
100
AcDbLine
 10
184.9811338575015
 20
730.8843427547544
 30
0.0
 11
175.5811338575015
 21
730.8843427547544
 31
0.0
  0
LINE
  5
194
330
71
100
AcDbEntity
  8
1
  6
Continuous
 62
     7
100
AcDbLine
 10
184.9811338575015
 20
718.1343427547545
 30
0.0
 11
175.5811338575015
 21
718.1343427547544
 31
0.0
  0
LINE
  5
195
330
71
100
AcDbEntity
  8
1
  6
Continuous
 62
     2
100
AcDbLine
 10
135.0811338575015
 20
713.8843427547544
 30
0.0
 11
72.82593838425129
 21
713.8843427547544
 31
0.0
  0
LINE
  5
196
330
71
100
AcDbEntity
  8
1
  6
Continuous
 62
     2
100
AcDbLine
 10
135.0811338575015
 20
713.8843427547544
 30
0.0
 11
135.0811338575015
 21
709.6343427547544
 31
0.0
  0
LINE
  5
197
330
71
100
AcDbEntity
  8
1
  6
Continuous
 62
     2
100
AcDbLine
 10
135.0811338575015
 20
726.6343427547544
 30
0.0
 11
135.0811338575015
 21
722.3843427547544
 31
0.0
  0
LINE
  5
198
330
71
100
AcDbEntity
  8
1
  6
Continuous
 62
     2
100
AcDbLine
 10
135.0811338575015
 20
722.3843427547544
 30
0.0
 11
135.0811338575015
 21
718.1343427547544
 31
0.0
  0
LINE
  5
199
330
71
100
AcDbEntity
  8
1
  6
Continuous
 62
     2
100
AcDbLine
 10
135.0811338575015
 20
718.1343427547544
 30
0.0
 11
72.82593838425129
 21
718.1343427547544
 31
0.0
  0
LINE
  5
19A
330
71
100
AcDbEntity
  8
1
  6
Continuous
 62
     2
100
AcDbLine
 10
135.0811338575015
 20
718.1343427547544
 30
0.0
 11
135.0811338575015
 21
713.8843427547544
 31
0.0
  0
LINE
  5
19B
330
71
100
AcDbEntity
  8
1
  6
Continuous
 62
     7
100
AcDbLine
 10
135.0811338575015
 20
705.3843427547545
 30
0.0
 11
148.5811338575015
 21
705.3843427547545
 31
0.0
  0
LINE
  5
19C
330
71
100
AcDbEntity
  8
1
  6
Continuous
 62
     2
100
AcDbLine
 10
135.0811338575015
 20
705.3843427547545
 30
0.0
 11
135.0811338575015
 21
701.1343427547544
 31
0.0
  0
LINE
  5
19D
330
71
100
AcDbEntity
  8
1
  6
Continuous
 62
     2
100
AcDbLine
 10
135.0811338575015
 20
709.6343427547544
 30
0.0
 11
72.82593838425129
 21
709.6343427547544
 31
0.0
  0
LINE
  5
19E
330
71
100
AcDbEntity
  8
1
  6
Continuous
 62
     2
100
AcDbLine
 10
135.0811338575015
 20
709.6343427547544
 30
0.0
 11
135.0811338575015
 21
705.3843427547545
 31
0.0
  0
LINE
  5
19F
330
71
100
AcDbEntity
  8
1
  6
Continuous
 62
     2
100
AcDbLine
 10
148.5811338575015
 20
713.8843427547544
 30
0.0
 11
135.0811338575015
 21
713.8843427547544
 31
0.0
  0
LINE
  5
1A0
330
71
100
AcDbEntity
  8
1
  6
Continuous
 62
     2
100
AcDbLine
 10
148.5811338575015
 20
713.8843427547544
 30
0.0
 11
148.5811338575015
 21
709.6343427547544
 31
0.0
  0
LINE
  5
1A1
330
71
100
AcDbEntity
  8
1
  6
Continuous
 62
     2
100
AcDbLine
 10
148.5811338575015
 20
726.6343427547544
 30
0.0
 11
135.0811338575015
 21
726.6343427547544
 31
0.0
  0
LINE
  5
1A2
330
71
100
AcDbEntity
  8
1
  6
Continuous
 62
     2
100
AcDbLine
 10
148.5811338575015
 20
726.6343427547544
 30
0.0
 11
148.5811338575015
 21
722.3843427547544
 31
0.0
  0
LINE
  5
1A3
330
71
100
AcDbEntity
  8
1
  6
Continuous
 62
     2
100
AcDbLine
 10
148.5811338575015
 20
722.3843427547544
 30
0.0
 11
135.0811338575015
 21
722.3843427547544
 31
0.0
  0
LINE
  5
1A4
330
71
100
AcDbEntity
  8
1
  6
Continuous
 62
     2
100
AcDbLine
 10
148.5811338575015
 20
722.3843427547544
 30
0.0
 11
148.5811338575015
 21
718.1343427547544
 31
0.0
  0
LINE
  5
1A5
330
71
100
AcDbEntity
  8
1
  6
Continuous
 62
     2
100
AcDbLine
 10
148.5811338575015
 20
718.1343427547544
 30
0.0
 11
135.0811338575015
 21
718.1343427547544
 31
0.0
  0
LINE
  5
1A6
330
71
100
AcDbEntity
  8
1
  6
Continuous
 62
     2
100
AcDbLine
 10
148.5811338575015
 20
718.1343427547544
 30
0.0
 11
148.5811338575015
 21
713.8843427547544
 31
0.0
  0
LINE
  5
1A7
330
71
100
AcDbEntity
  8
1
  6
Continuous
 62
     7
100
AcDbLine
 10
148.5811338575015
 20
705.3843427547545
 30
0.0
 11
162.0811338575014
 21
705.3843427547545
 31
0.0
  0
LINE
  5
1A8
330
71
100
AcDbEntity
  8
1
  6
Continuous
 62
     2
100
AcDbLine
 10
148.5811338575015
 20
705.3843427547545
 30
0.0
 11
148.5811338575015
 21
701.1343427547544
 31
0.0
  0
LINE
  5
1A9
330
71
100
AcDbEntity
  8
1
  6
Continuous
 62
     2
100
AcDbLine
 10
148.5811338575015
 20
709.6343427547544
 30
0.0
 11
135.0811338575015
 21
709.6343427547544
 31
0.0
  0
LINE
  5
1AA
330
71
100
AcDbEntity
  8
1
  6
Continuous
 62
     2
100
AcDbLine
 10
148.5811338575015
 20
709.6343427547544
 30
0.0
 11
148.5811338575015
 21
705.3843427547545
 31
0.0
  0
LINE
  5
1AB
330
71
100
AcDbEntity
  8
1
  6
Continuous
 62
     2
100
AcDbLine
 10
162.0811338575014
 20
713.8843427547544
 30
0.0
 11
148.5811338575015
 21
713.8843427547544
 31
0.0
  0
LINE
  5
1AC
330
71
100
AcDbEntity
  8
1
  6
Continuous
 62
     2
100
AcDbLine
 10
162.0811338575014
 20
713.8843427547544
 30
0.0
 11
162.0811338575014
 21
709.6343427547544
 31
0.0
  0
LINE
  5
1AD
330
71
100
AcDbEntity
  8
1
  6
Continuous
 62
     2
100
AcDbLine
 10
162.0811338575014
 20
726.6343427547544
 30
0.0
 11
148.5811338575015
 21
726.6343427547544
 31
0.0
  0
LINE
  5
1AE
330
71
100
AcDbEntity
  8
1
  6
Continuous
 62
     2
100
AcDbLine
 10
162.0811338575014
 20
726.6343427547544
 30
0.0
 11
162.0811338575014
 21
722.3843427547544
 31
0.0
  0
LINE
  5
1AF
330
71
100
AcDbEntity
  8
1
  6
Continuous
 62
     2
100
AcDbLine
 10
162.0811338575014
 20
722.3843427547544
 30
0.0
 11
148.5811338575015
 21
722.3843427547544
 31
0.0
  0
LINE
  5
1B0
330
71
100
AcDbEntity
  8
1
  6
Continuous
 62
     2
100
AcDbLine
 10
162.0811338575014
 20
722.3843427547544
 30
0.0
 11
162.0811338575014
 21
718.1343427547544
 31
0.0
  0
LINE
  5
1B1
330
71
100
AcDbEntity
  8
1
  6
Continuous
 62
     2
100
AcDbLine
 10
162.0811338575014
 20
718.1343427547544
 30
0.0
 11
148.5811338575015
 21
718.1343427547544
 31
0.0
  0
LINE
  5
1B2
330
71
100
AcDbEntity
  8
1
  6
Continuous
 62
     2
100
AcDbLine
 10
162.0811338575014
 20
718.1343427547544
 30
0.0
 11
162.0811338575014
 21
713.8843427547544
 31
0.0
  0
LINE
  5
1B3
330
71
100
AcDbEntity
  8
1
  6
Continuous
 62
     7
100
AcDbLine
 10
162.0811338575014
 20
705.3843427547545
 30
0.0
 11
175.5811338575015
 21
705.3843427547545
 31
0.0
  0
LINE
  5
1B4
330
71
100
AcDbEntity
  8
1
  6
Continuous
 62
     2
100
AcDbLine
 10
162.0811338575014
 20
705.3843427547545
 30
0.0
 11
162.0811338575014
 21
701.1343427547544
 31
0.0
  0
LINE
  5
1B5
330
71
100
AcDbEntity
  8
1
  6
Continuous
 62
     2
100
AcDbLine
 10
162.0811338575014
 20
709.6343427547544
 30
0.0
 11
148.5811338575015
 21
709.6343427547544
 31
0.0
  0
LINE
  5
1B6
330
71
100
AcDbEntity
  8
1
  6
Continuous
 62
     2
100
AcDbLine
 10
162.0811338575014
 20
709.6343427547544
 30
0.0
 11
162.0811338575014
 21
705.3843427547545
 31
0.0
  0
LINE
  5
1B7
330
71
100
AcDbEntity
  8
1
  6
Continuous
 62
     7
100
AcDbLine
 10
234.8811338575014
 20
722.3843427547544
 30
0.0
 11
211.9811338575014
 21
722.3843427547544
 31
0.0
  0
LINE
  5
1B8
330
71
100
AcDbEntity
  8
1
  6
Continuous
 62
     7
100
AcDbLine
 10
198.4811338575014
 20
722.3843427547544
 30
0.0
 11
211.9811338575014
 21
722.3843427547544
 31
0.0
  0
LINE
  5
1B9
330
71
100
AcDbEntity
  8
1
  6
Continuous
 62
     2
100
AcDbLine
 10
72.82593838425129
 20
722.3843427547544
 30
0.0
 11
135.0811338575015
 21
722.3843427547544
 31
0.0
  0
LINE
  5
1BA
330
71
100
AcDbEntity
  8
1
  6
Continuous
 62
     2
100
AcDbLine
 10
72.82593838425129
 20
726.6343427547544
 30
0.0
 11
135.0811338575015
 21
726.6343427547544
 31
0.0
  0
LINE
  5
1BB
330
71
100
AcDbEntity
  8
1
  6
Continuous
 62
     6
100
AcDbLine
 10
135.0811338575015
 20
730.8843427547544
 30
0.0
 11
72.82593838425129
 21
730.8843427547544
 31
0.0
  0
LINE
  5
1BC
330
71
100
AcDbEntity
  8
1
  6
Continuous
 62
     6
100
AcDbLine
 10
53.12593838425329
 20
709.6343427547544
 30
0.0
 11
53.12593838425329
 21
713.8843427547544
 31
0.0
  0
LINE
  5
1BD
330
71
100
AcDbEntity
  8
1
  6
Continuous
 62
     6
100
AcDbLine
 10
53.12593838425329
 20
718.1343427547544
 30
0.0
 11
53.12593838425329
 21
722.3843427547544
 31
0.0
  0
LINE
  5
1BE
330
71
100
AcDbEntity
  8
1
  6
Continuous
 62
     6
100
AcDbLine
 10
53.12593838425329
 20
722.3843427547544
 30
0.0
 11
53.12593838425329
 21
726.6343427547544
 31
0.0
  0
LINE
  5
1BF
330
71
100
AcDbEntity
  8
1
  6
Continuous
 62
     6
100
AcDbLine
 10
53.12593838425329
 20
726.6343427547544
 30
0.0
 11
53.12593838425329
 21
730.8843427547544
 31
0.0
  0
LINE
  5
1C0
330
71
100
AcDbEntity
  8
1
  6
Continuous
 62
     7
100
AcDbLine
 10
241.6259383842555
 20
718.1343427547544
 30
0.0
 11
241.6259383842555
 21
709.6343427547544
 31
0.0
  0
LINE
  5
1C1
330
71
100
AcDbEntity
  8
1
  6
Continuous
 62
     7
100
AcDbLine
 10
241.6259383842555
 20
718.1343427547544
 30
0.0
 11
260.1259383842551
 21
718.1343427547544
 31
0.0
  0
LINE
  5
1C2
330
71
100
AcDbEntity
  8
1
  6
Continuous
 62
     7
100
AcDbLine
 10
278.3259383842534
 20
722.3843427547545
 30
0.0
 11
241.6259383842555
 21
722.3843427547544
 31
0.0
  0
LINE
  5
1C3
330
71
100
AcDbEntity
  8
1
  6
Continuous
 62
     7
100
AcDbLine
 10
278.3259383842534
 20
722.3843427547545
 30
0.0
 11
287.2443466659323
 21
722.3843427547544
 31
0.0
  0
LINE
  5
1C4
330
71
100
AcDbEntity
  8
1
  6
Continuous
 62
     7
100
AcDbLine
 10
211.9811338575014
 20
718.1343427547544
 30
0.0
 11
241.6259383842555
 21
718.1343427547544
 31
0.0
  0
LINE
  5
1C5
330
71
100
AcDbEntity
  8
1
  6
Continuous
 62
     7
100
AcDbLine
 10
211.9811338575014
 20
709.6343427547544
 30
0.0
 11
241.6259383842555
 21
709.6343427547544
 31
0.0
  0
LINE
  5
1C6
330
71
100
AcDbEntity
  8
1
  6
Continuous
 62
     7
100
AcDbLine
 10
175.5811338575015
 20
730.8843427547544
 30
0.0
 11
175.5811338575015
 21
726.6343427547544
 31
0.0
  0
LINE
  5
1C7
330
71
100
AcDbEntity
  8
1
  6
Continuous
 62
     7
100
AcDbLine
 10
175.5811338575015
 20
705.3843427547545
 30
0.0
 11
175.5811338575015
 21
701.1343427547544
 31
0.0
  0
LINE
  5
1C8
330
71
100
AcDbEntity
  8
1
  6
Continuous
 62
     7
100
AcDbLine
 10
211.9811338575014
 20
705.3843427547545
 30
0.0
 11
211.9811338575014
 21
701.1343427547544
 31
0.0
  0
LINE
  5
1C9
330
71
100
AcDbEntity
  8
1
  6
Continuous
 62
     7
100
AcDbLine
 10
211.9811338575014
 20
718.1343427547544
 30
0.0
 11
198.4811338575014
 21
718.1343427547544
 31
0.0
  0
LINE
  5
1CA
330
71
100
AcDbEntity
  8
1
  6
Continuous
 62
     7
100
AcDbLine
 10
175.5811338575015
 20
722.3843427547544
 30
0.0
 11
184.9811338575015
 21
722.3843427547544
 31
0.0
  0
LINE
  5
1CB
330
71
100
AcDbEntity
  8
1
  6
Continuous
 62
     7
100
AcDbLine
 10
184.9811338575015
 20
726.6343427547544
 30
0.0
 11
184.9811338575015
 21
722.3843427547544
 31
0.0
  0
LINE
  5
1CC
330
71
100
AcDbEntity
  8
1
  6
Continuous
 62
     7
100
AcDbLine
 10
198.4811338575014
 20
726.6343427547544
 30
0.0
 11
198.4811338575014
 21
722.3843427547544
 31
0.0
  0
LINE
  5
1CD
330
71
100
AcDbEntity
  8
1
  6
Continuous
 62
     7
100
AcDbLine
 10
175.5811338575015
 20
709.6343427547544
 30
0.0
 11
175.5811338575015
 21
705.3843427547545
 31
0.0
  0
LINE
  5
1CE
330
71
100
AcDbEntity
  8
1
  6
Continuous
 62
     7
100
AcDbLine
 10
175.5811338575015
 20
713.8843427547544
 30
0.0
 11
175.5811338575015
 21
709.6343427547544
 31
0.0
  0
LINE
  5
1CF
330
71
100
AcDbEntity
  8
1
  6
Continuous
 62
     7
100
AcDbLine
 10
211.9811338575014
 20
709.6343427547544
 30
0.0
 11
211.9811338575014
 21
705.3843427547545
 31
0.0
  0
LINE
  5
1D0
330
71
100
AcDbEntity
  8
1
  6
Continuous
 62
     7
100
AcDbLine
 10
53.12593838425329
 20
705.3843427547545
 30
0.0
 11
59.32593838425129
 21
705.3843427547545
 31
0.0
  0
LINE
  5
1D1
330
71
100
AcDbEntity
  8
1
  6
Continuous
 62
     2
100
AcDbLine
 10
53.12593838425329
 20
713.8843427547544
 30
0.0
 11
59.32593838425129
 21
713.8843427547544
 31
0.0
  0
LINE
  5
1D2
330
71
100
AcDbEntity
  8
1
  6
Continuous
 62
     2
100
AcDbLine
 10
53.12593838425329
 20
709.6343427547544
 30
0.0
 11
59.32593838425129
 21
709.6343427547544
 31
0.0
  0
LINE
  5
1D3
330
71
100
AcDbEntity
  8
1
  6
Continuous
 62
     2
100
AcDbLine
 10
59.32593838425129
 20
701.1343427547544
 30
0.0
 11
59.32593838425129
 21
705.3843427547545
 31
0.0
  0
LINE
  5
1D4
330
71
100
AcDbEntity
  8
1
  6
Continuous
 62
     7
100
AcDbLine
 10
184.9811338575015
 20
730.8843427547544
 30
0.0
 11
184.9811338575015
 21
726.6343427547544
 31
0.0
  0
LINE
  5
1D5
330
71
100
AcDbEntity
  8
1
  6
Continuous
 62
     7
100
AcDbLine
 10
198.4811338575014
 20
730.8843427547544
 30
0.0
 11
198.4811338575014
 21
726.6343427547544
 31
0.0
  0
LINE
  5
1D6
330
71
100
AcDbEntity
  8
1
  6
Continuous
 62
     7
100
AcDbLine
 10
211.9811338575014
 20
722.3843427547544
 30
0.0
 11
211.9811338575014
 21
718.1343427547544
 31
0.0
  0
LINE
  5
1D7
330
71
100
AcDbEntity
  8
1
  6
Continuous
 62
     7
100
AcDbLine
 10
175.5811338575015
 20
726.6343427547544
 30
0.0
 11
175.5811338575015
 21
722.3843427547544
 31
0.0
  0
LINE
  5
1D8
330
71
100
AcDbEntity
  8
1
  6
Continuous
 62
     2
100
AcDbLine
 10
53.12593838425329
 20
722.3843427547544
 30
0.0
 11
59.32593838425129
 21
722.3843427547544
 31
0.0
  0
LINE
  5
1D9
330
71
100
AcDbEntity
  8
1
  6
Continuous
 62
     7
100
AcDbLine
 10
175.5811338575015
 20
722.3843427547544
 30
0.0
 11
175.5811338575015
 21
718.1343427547544
 31
0.0
  0
LINE
  5
1DA
330
71
100
AcDbEntity
  8
1
  6
Continuous
 62
     7
100
AcDbLine
 10
175.5811338575015
 20
718.1343427547544
 30
0.0
 11
175.5811338575015
 21
713.8843427547544
 31
0.0
  0
LINE
  5
1DB
330
71
100
AcDbEntity
  8
1
  6
Continuous
 62
     6
100
AcDbLine
 10
184.9811338575015
 20
730.8843427547544
 30
0.0
 11
198.4811338575014
 21
730.8843427547544
 31
0.0
  0
LINE
  5
1DC
330
71
100
AcDbEntity
  8
1
  6
Continuous
 62
     7
100
AcDbLine
 10
211.9811338575014
 20
730.8843427547544
 30
0.0
 11
211.9811338575014
 21
726.6343427547544
 31
0.0
  0
LINE
  5
1DD
330
71
100
AcDbEntity
  8
1
  6
Continuous
 62
     6
100
AcDbLine
 10
198.4811338575014
 20
730.8843427547544
 30
0.0
 11
211.9811338575014
 21
730.8843427547544
 31
0.0
  0
LINE
  5
1DE
330
71
100
AcDbEntity
  8
1
  6
Continuous
 62
     7
100
AcDbLine
 10
211.9811338575014
 20
709.6343427547544
 30
0.0
 11
211.9811338575014
 21
713.8843427547544
 31
0.0
  0
LINE
  5
1DF
330
71
100
AcDbEntity
  8
1
  6
Continuous
 62
     2
100
AcDbLine
 10
59.32593838425129
 20
705.3843427547545
 30
0.0
 11
59.32593838425129
 21
709.6343427547544
 31
0.0
  0
LINE
  5
1E0
330
71
100
AcDbEntity
  8
1
  6
Continuous
 62
     7
100
AcDbLine
 10
59.32593838425129
 20
705.3843427547545
 30
0.0
 11
72.82593838425129
 21
705.3843427547545
 31
0.0
  0
LINE
  5
1E1
330
71
100
AcDbEntity
  8
1
  6
Continuous
 62
     2
100
AcDbLine
 10
59.32593838425129
 20
713.8843427547544
 30
0.0
 11
59.32593838425129
 21
718.1343427547544
 31
0.0
  0
LINE
  5
1E2
330
71
100
AcDbEntity
  8
1
  6
Continuous
 62
     2
100
AcDbLine
 10
59.32593838425129
 20
709.6343427547544
 30
0.0
 11
59.32593838425129
 21
713.8843427547544
 31
0.0
  0
LINE
  5
1E3
330
71
100
AcDbEntity
  8
1
  6
Continuous
 62
     2
100
AcDbLine
 10
175.5811338575015
 20
713.8843427547544
 30
0.0
 11
162.0811338575014
 21
713.8843427547544
 31
0.0
  0
LINE
  5
1E4
330
71
100
AcDbEntity
  8
1
  6
Continuous
 62
     2
100
AcDbLine
 10
175.5811338575015
 20
709.6343427547544
 30
0.0
 11
162.0811338575014
 21
709.6343427547544
 31
0.0
  0
LINE
  5
1E5
330
71
100
AcDbEntity
  8
1
  6
Continuous
 62
     6
100
AcDbLine
 10
175.5811338575015
 20
730.8843427547544
 30
0.0
 11
162.0811338575014
 21
730.8843427547544
 31
0.0
  0
LINE
  5
1E6
330
71
100
AcDbEntity
  8
1
  6
Continuous
 62
     2
100
AcDbLine
 10
59.32593838425129
 20
726.6343427547544
 30
0.0
 11
53.12593838425329
 21
726.6343427547544
 31
0.0
  0
LINE
  5
1E7
330
71
100
AcDbEntity
  8
1
  6
Continuous
 62
     2
100
AcDbLine
 10
59.32593838425129
 20
726.6343427547544
 30
0.0
 11
59.32593838425129
 21
730.8843427547544
 31
0.0
  0
LINE
  5
1E8
330
71
100
AcDbEntity
  8
1
  6
Continuous
 62
     2
100
AcDbLine
 10
175.5811338575015
 20
726.6343427547544
 30
0.0
 11
162.0811338575014
 21
726.6343427547544
 31
0.0
  0
LINE
  5
1E9
330
71
100
AcDbEntity
  8
1
  6
Continuous
 62
     2
100
AcDbLine
 10
59.32593838425129
 20
722.3843427547544
 30
0.0
 11
59.32593838425129
 21
726.6343427547544
 31
0.0
  0
LINE
  5
1EA
330
71
100
AcDbEntity
  8
1
  6
Continuous
 62
     2
100
AcDbLine
 10
175.5811338575015
 20
722.3843427547544
 30
0.0
 11
162.0811338575014
 21
722.3843427547544
 31
0.0
  0
LINE
  5
1EB
330
71
100
AcDbEntity
  8
1
  6
Continuous
 62
     2
100
AcDbLine
 10
59.32593838425129
 20
718.1343427547544
 30
0.0
 11
53.12593838425329
 21
718.1343427547544
 31
0.0
  0
LINE
  5
1EC
330
71
100
AcDbEntity
  8
1
  6
Continuous
 62
     2
100
AcDbLine
 10
59.32593838425129
 20
718.1343427547544
 30
0.0
 11
59.32593838425129
 21
722.3843427547544
 31
0.0
  0
LINE
  5
1ED
330
71
100
AcDbEntity
  8
1
  6
Continuous
 62
     2
100
AcDbLine
 10
175.5811338575015
 20
718.1343427547544
 30
0.0
 11
162.0811338575014
 21
718.1343427547544
 31
0.0
  0
LINE
  5
1EE
330
71
100
AcDbEntity
  8
1
  6
Continuous
 62
     7
100
AcDbLine
 10
198.4811338575014
 20
722.3843427547544
 30
0.0
 11
184.9811338575015
 21
722.3843427547544
 31
0.0
  0
LINE
  5
1EF
330
71
100
AcDbEntity
  8
1
  6
Continuous
 62
     7
100
AcDbLine
 10
184.9811338575015
 20
722.3843427547544
 30
0.0
 11
184.9811338575015
 21
718.1343427547545
 31
0.0
  0
LINE
  5
1F0
330
71
100
AcDbEntity
  8
1
  6
Continuous
 62
     7
100
AcDbLine
 10
198.4811338575014
 20
722.3843427547544
 30
0.0
 11
198.4811338575014
 21
718.1343427547544
 31
0.0
  0
LINE
  5
1F1
330
71
100
AcDbEntity
  8
1
  6
Continuous
 62
     6
100
AcDbLine
 10
53.12593838425329
 20
705.3843427547545
 30
0.0
 11
53.12593838425329
 21
709.6343427547544
 31
0.0
  0
LINE
  5
1F2
330
71
100
AcDbEntity
  8
1
  6
Continuous
 62
     6
100
AcDbLine
 10
53.12593838425329
 20
701.1343427547545
 30
0.0
 11
53.12593838425329
 21
705.3843427547545
 31
0.0
  0
LINE
  5
1F3
330
71
100
AcDbEntity
  8
1
  6
Continuous
 62
     6
100
AcDbLine
 10
59.32593838425129
 20
730.8843427547544
 30
0.0
 11
53.12593838425329
 21
730.8843427547544
 31
0.0
  0
LINE
  5
1F4
330
71
100
AcDbEntity
  8
1
  6
Continuous
 62
     7
100
AcDbLine
 10
234.8811338575014
 20
730.8843427547544
 30
0.0
 11
234.8811338575014
 21
722.3843427547544
 31
0.0
  0
LINE
  5
1F5
330
71
100
AcDbEntity
  8
1
  6
Continuous
 62
     6
100
AcDbLine
 10
278.3259383842531
 20
730.8843427547544
 30
0.0
 11
234.8811338575014
 21
730.8843427547544
 31
0.0
  0
LINE
  5
1F6
330
71
100
AcDbEntity
  8
1
  6
Continuous
 62
     6
100
AcDbLine
 10
211.9811338575014
 20
730.8843427547544
 30
0.0
 11
234.8811338575014
 21
730.8843427547544
 31
0.0
  0
LINE
  5
1F7
330
71
100
AcDbEntity
  8
1
  6
Continuous
 62
     7
100
AcDbLine
 10
211.9811338575014
 20
705.3843427547545
 30
0.0
 11
193.7811338575014
 21
705.3843427547545
 31
0.0
  0
LINE
  5
1F8
330
71
100
AcDbEntity
  8
1
  6
Continuous
 62
     7
100
AcDbLine
 10
198.4811338575014
 20
718.1343427547544
 30
0.0
 11
184.9811338575015
 21
718.1343427547545
 31
0.0
  0
LINE
  5
1F9
330
71
100
AcDbEntity
  8
1
  6
Continuous
 62
     7
100
AcDbLine
 10
193.7811338575014
 20
705.3843427547545
 30
0.0
 11
175.5811338575015
 21
705.3843427547545
 31
0.0
  0
LINE
  5
1FA
330
71
100
AcDbEntity
  8
1
  6
Continuous
 62
     7
100
AcDbLine
 10
193.7811338575014
 20
705.3843427547545
 30
0.0
 11
193.7811338575014
 21
701.1343427547545
 31
0.0
  0
LINE
  5
1FB
330
71
100
AcDbEntity
  8
1
  6
Continuous
 62
     2
100
AcDbLine
 10
135.0811338575015
 20
730.8843427547544
 30
0.0
 11
135.0811338575015
 21
726.6343427547544
 31
0.0
  0
LINE
  5
1FC
330
71
100
AcDbEntity
  8
1
  6
Continuous
 62
     6
100
AcDbLine
 10
148.5811338575015
 20
730.8843427547544
 30
0.0
 11
135.0811338575015
 21
730.8843427547544
 31
0.0
  0
LINE
  5
1FD
330
71
100
AcDbEntity
  8
1
  6
Continuous
 62
     6
100
AcDbLine
 10
162.0811338575014
 20
730.8843427547544
 30
0.0
 11
148.5811338575015
 21
730.8843427547544
 31
0.0
  0
LINE
  5
1FE
330
71
100
AcDbEntity
  8
1
  6
Continuous
 62
     2
100
AcDbLine
 10
148.5811338575015
 20
730.8843427547544
 30
0.0
 11
148.5811338575015
 21
726.6343427547544
 31
0.0
  0
LINE
  5
1FF
330
71
100
AcDbEntity
  8
1
  6
Continuous
 62
     2
100
AcDbLine
 10
162.0811338575014
 20
730.8843427547544
 30
0.0
 11
162.0811338575014
 21
726.6343427547544
 31
0.0
  0
LINE
  5
200
330
71
100
AcDbEntity
  8
1
  6
Continuous
 62
     7
100
AcDbLine
 10
260.1259383842551
 20
718.1343427547544
 30
0.0
 11
260.1259383842551
 21
709.6343427547544
 31
0.0
  0
LINE
  5
201
330
71
100
AcDbEntity
  8
1
  6
Continuous
 62
     7
100
AcDbLine
 10
260.1259383842551
 20
709.6343427547544
 30
0.0
 11
241.6259383842555
 21
709.6343427547544
 31
0.0
  0
LINE
  5
202
330
71
100
AcDbEntity
  8
1
  6
Continuous
 62
     7
100
AcDbLine
 10
278.3259383842531
 20
730.8843427547544
 30
0.0
 11
278.3259383842534
 21
722.3843427547545
 31
0.0
  0
LINE
  5
203
330
71
100
AcDbEntity
  8
1
  6
Continuous
 62
     6
100
AcDbLine
 10
278.3259383842531
 20
730.8843427547544
 30
0.0
 11
287.2443466659323
 21
730.8843427547544
 31
0.0
  0
LINE
  5
204
330
71
100
AcDbEntity
  8
1
  6
Continuous
 62
     7
100
AcDbLine
 10
287.2443466659323
 20
722.3843427547544
 30
0.0
 11
287.2443466659323
 21
730.8843427547544
 31
0.0
  0
LINE
  5
205
330
71
100
AcDbEntity
  8
1
  6
Continuous
 62
     7
100
AcDbLine
 10
198.4811338575014
 20
726.6343427547544
 30
0.0
 11
184.9811338575015
 21
726.6343427547544
 31
0.0
  0
LINE
  5
206
330
71
100
AcDbEntity
  8
1
  6
Continuous
 62
     7
100
AcDbLine
 10
198.4811338575014
 20
726.6343427547544
 30
0.0
 11
211.9811338575014
 21
726.6343427547544
 31
0.0
  0
LINE
  5
207
330
71
100
AcDbEntity
  8
1
  6
Continuous
 62
     7
100
AcDbLine
 10
211.9811338575014
 20
726.6343427547544
 30
0.0
 11
211.9811338575014
 21
722.3843427547544
 31
0.0
  0
LINE
  5
208
330
71
100
AcDbEntity
  8
1
  6
Continuous
 62
     7
100
AcDbLine
 10
260.1259383842551
 20
718.1343427547544
 30
0.0
 11
305.1259383842532
 21
718.1343427547544
 31
0.0
  0
LINE
  5
209
330
71
100
AcDbEntity
  8
1
  6
Continuous
 62
     7
100
AcDbLine
 10
305.1259383842522
 20
722.3843427547544
 30
0.0
 11
287.2443466659323
 21
722.3843427547544
 31
0.0
  0
LINE
  5
20A
330
71
100
AcDbEntity
  8
1
  6
Continuous
 62
     7
100
AcDbLine
 10
305.1259383842527
 20
709.6343427547544
 30
0.0
 11
260.1259383842551
 21
709.6343427547544
 31
0.0
  0
LINE
  5
20B
330
71
100
AcDbEntity
  8
1
  6
Continuous
 62
     6
100
AcDbLine
 10
305.1259383842531
 20
730.8843427547544
 30
0.0
 11
287.2443466659323
 21
730.8843427547544
 31
0.0
  0
LINE
  5
20C
330
71
100
AcDbEntity
  8
1
  6
Continuous
 62
     2
100
AcDbLine
 10
72.82593838425129
 20
730.8843427547544
 30
0.0
 11
72.82593838425129
 21
726.6343427547544
 31
0.0
  0
LINE
  5
20D
330
71
100
AcDbEntity
  8
1
  6
Continuous
 62
     6
100
AcDbLine
 10
72.82593838425129
 20
730.8843427547544
 30
0.0
 11
59.32593838425129
 21
730.8843427547544
 31
0.0
  0
LINE
  5
20E
330
71
100
AcDbEntity
  8
1
  6
Continuous
 62
     2
100
AcDbLine
 10
72.82593838425129
 20
726.6343427547544
 30
0.0
 11
72.82593838425129
 21
722.3843427547544
 31
0.0
  0
LINE
  5
20F
330
71
100
AcDbEntity
  8
1
  6
Continuous
 62
     2
100
AcDbLine
 10
72.82593838425129
 20
722.3843427547544
 30
0.0
 11
72.82593838425129
 21
718.1343427547544
 31
0.0
  0
LINE
  5
210
330
71
100
AcDbEntity
  8
1
  6
Continuous
 62
     2
100
AcDbLine
 10
72.82593838425129
 20
722.3843427547544
 30
0.0
 11
59.32593838425129
 21
722.3843427547544
 31
0.0
  0
LINE
  5
211
330
71
100
AcDbEntity
  8
1
  6
Continuous
 62
     2
100
AcDbLine
 10
72.82593838425129
 20
726.6343427547544
 30
0.0
 11
59.32593838425129
 21
726.6343427547544
 31
0.0
  0
LINE
  5
212
330
71
100
AcDbEntity
  8
1
  6
Continuous
 62
     2
100
AcDbLine
 10
72.82593838425129
 20
713.8843427547544
 30
0.0
 11
72.82593838425129
 21
709.6343427547544
 31
0.0
  0
LINE
  5
213
330
71
100
AcDbEntity
  8
1
  6
Continuous
 62
     2
100
AcDbLine
 10
72.82593838425129
 20
713.8843427547544
 30
0.0
 11
59.32593838425129
 21
713.8843427547544
 31
0.0
  0
LINE
  5
214
330
71
100
AcDbEntity
  8
1
  6
Continuous
 62
     2
100
AcDbLine
 10
72.82593838425129
 20
718.1343427547544
 30
0.0
 11
72.82593838425129
 21
713.8843427547544
 31
0.0
  0
LINE
  5
215
330
71
100
AcDbEntity
  8
1
  6
Continuous
 62
     2
100
AcDbLine
 10
72.82593838425129
 20
718.1343427547544
 30
0.0
 11
59.32593838425129
 21
718.1343427547544
 31
0.0
  0
LINE
  5
216
330
71
100
AcDbEntity
  8
1
  6
Continuous
 62
     2
100
AcDbLine
 10
72.82593838425129
 20
709.6343427547544
 30
0.0
 11
72.82593838425129
 21
705.3843427547545
 31
0.0
  0
LINE
  5
217
330
71
100
AcDbEntity
  8
1
  6
Continuous
 62
     2
100
AcDbLine
 10
72.82593838425129
 20
709.6343427547544
 30
0.0
 11
59.32593838425129
 21
709.6343427547544
 31
0.0
  0
LINE
  5
218
330
71
100
AcDbEntity
  8
1
  6
Continuous
 62
     2
100
AcDbLine
 10
72.82593838425129
 20
705.3843427547545
 30
0.0
 11
72.82593838425129
 21
701.1343427547545
 31
0.0
  0
LINE
  5
219
330
71
100
AcDbEntity
  8
1
  6
Continuous
 62
     7
100
AcDbLine
 10
72.82593838425129
 20
705.3843427547545
 30
0.0
 11
135.0811338575015
 21
705.3843427547545
 31
0.0
  0
LINE
  5
21A
330
71
100
AcDbEntity
  8
1
  6
Continuous
 62
     7
100
AcDbLine
 10
175.5811338575015
 20
713.8843427547544
 30
0.0
 11
211.9811338575014
 21
713.8843427547544
 31
0.0
  0
LINE
  5
21B
330
71
100
AcDbEntity
  8
1
  6
Continuous
 62
     7
100
AcDbLine
 10
211.9811338575014
 20
713.8843427547544
 30
0.0
 11
211.9811338575014
 21
718.1343427547544
 31
0.0
  0
LINE
  5
21C
330
71
100
AcDbEntity
  8
1
  6
PHANTOM
 62
     2
100
AcDbLine
 10
182.3233936826048
 20
716.0093427547544
 30
0.0
 11
179.0233936826048
 21
716.0093427547544
 31
0.0
  0
LINE
  5
21D
330
71
100
AcDbEntity
  8
1
  6
PHANTOM
 62
     2
100
AcDbLine
 10
180.6733936826048
 20
717.6593427547544
 30
0.0
 11
180.6733936826048
 21
714.3593427547544
 31
0.0
  0
LINE
  5
21E
330
71
100
AcDbEntity
  8
1
  6
PHANTOM
 62
     2
100
AcDbLine
 10
183.7003970723018
 20
716.0093427547544
 30
0.0
 11
188.0159920414908
 21
716.0093427547544
 31
0.0
  0
LINE
  5
21F
330
71
100
AcDbEntity
  8
1
  6
Continuous
 62
     6
100
AcDbLine
 10
305.1259383842531
 20
730.8843427547544
 30
0.0
 11
305.1259383842531
 21
758.534342754755
 31
0.0
  0
LINE
  5
220
330
71
100
AcDbEntity
  8
1
  6
Continuous
 62
     6
100
AcDbLine
 10
305.1259383842522
 20
722.3843427547544
 30
0.0
 11
305.1259383842531
 21
730.8843427547544
 31
0.0
  0
LINE
  5
221
330
71
100
AcDbEntity
  8
1
  6
Continuous
 62
     6
100
AcDbLine
 10
305.1259383842532
 20
718.1343427547544
 30
0.0
 11
305.1259383842522
 21
722.3843427547544
 31
0.0
  0
LINE
  5
222
330
71
100
AcDbEntity
  8
1
  6
Continuous
 62
     6
100
AcDbLine
 10
305.1259383842527
 20
709.6343427547544
 30
0.0
 11
305.1259383842532
 21
718.1343427547544
 31
0.0
  0
LINE
  5
223
330
71
100
AcDbEntity
  8
1
  6
Continuous
 62
     6
100
AcDbLine
 10
236.7926050509198
 20
701.1343427547549
 30
0.0
 11
305.1259383842531
 21
701.1343427547545
 31
0.0
  0
LINE
  5
224
330
71
100
AcDbEntity
  8
1
  6
Continuous
 62
     6
100
AcDbLine
 10
211.9811338575014
 20
701.1343427547544
 30
0.0
 11
236.7926050509198
 21
701.1343427547549
 31
0.0
  0
LINE
  5
225
330
71
100
AcDbEntity
  8
1
  6
Continuous
 62
     6
100
AcDbLine
 10
193.7811338575014
 20
701.1343427547545
 30
0.0
 11
211.9811338575014
 21
701.1343427547544
 31
0.0
  0
LINE
  5
226
330
71
100
AcDbEntity
  8
1
  6
Continuous
 62
     6
100
AcDbLine
 10
175.5811338575015
 20
701.1343427547544
 30
0.0
 11
193.7811338575014
 21
701.1343427547545
 31
0.0
  0
LINE
  5
227
330
71
100
AcDbEntity
  8
1
  6
Continuous
 62
     6
100
AcDbLine
 10
168.4592717175866
 20
701.1343427547549
 30
0.0
 11
175.5811338575015
 21
701.1343427547544
 31
0.0
  0
LINE
  5
228
330
71
100
AcDbEntity
  8
1
  6
Continuous
 62
     6
100
AcDbLine
 10
135.0811338575015
 20
701.1343427547544
 30
0.0
 11
148.5811338575015
 21
701.1343427547544
 31
0.0
  0
LINE
  5
229
330
71
100
AcDbEntity
  8
1
  6
Continuous
 62
     6
100
AcDbLine
 10
148.5811338575015
 20
701.1343427547544
 30
0.0
 11
162.0811338575014
 21
701.1343427547544
 31
0.0
  0
LINE
  5
22A
330
71
100
AcDbEntity
  8
1
  6
Continuous
 62
     6
100
AcDbLine
 10
162.0811338575014
 20
701.1343427547544
 30
0.0
 11
168.4592717175866
 21
701.1343427547549
 31
0.0
  0
LINE
  5
22B
330
71
100
AcDbEntity
  8
1
  6
Continuous
 62
     6
100
AcDbLine
 10
100.1259383842532
 20
701.1343427547549
 30
0.0
 11
135.0811338575015
 21
701.1343427547544
 31
0.0
  0
LINE
  5
22C
330
71
100
AcDbEntity
  8
1
  6
Continuous
 62
     6
100
AcDbLine
 10
72.82593838425129
 20
701.1343427547545
 30
0.0
 11
100.1259383842532
 21
701.1343427547549
 31
0.0
  0
LINE
  5
22D
330
71
100
AcDbEntity
  8
1
  6
Continuous
 62
     6
100
AcDbLine
 10
59.32593838425129
 20
701.1343427547544
 30
0.0
 11
72.82593838425129
 21
701.1343427547545
 31
0.0
  0
LINE
  5
22E
330
71
100
AcDbEntity
  8
1
  6
Continuous
 62
     6
100
AcDbLine
 10
53.12593838425329
 20
701.1343427547545
 30
0.0
 11
59.32593838425129
 21
701.1343427547544
 31
0.0
  0
LINE
  5
22F
102
{ACAD_REACTORS
330
352
330
353
102
}
330
71
100
AcDbEntity
  8
0
  6
Continuous
 62
     2
100
AcDbLine
 10
184.9502462063832
 20
710.9339417268229
 30
0.0
 11
184.9502462063832
 21
711.4343841140186
 31
0.0
  0
LINE
  5
230
102
{ACAD_REACTORS
330
352
330
353
102
}
330
71
100
AcDbEntity
  8
0
  6
Continuous
 62
     2
100
AcDbLine
 10
184.9502462063832
 20
708.6197808948963
 30
0.0
 11
184.9502462063832
 21
709.1006498260492
 31
0.0
  0
LINE
  5
231
102
{ACAD_REACTORS
330
354
330
355
102
}
330
71
100
AcDbEntity
  8
0
  6
Continuous
 62
     2
100
AcDbLine
 10
203.6523011117379
 20
708.8591726867335
 30
0.0
 11
203.6523011117379
 21
706.9843427547603
 31
0.0
  0
LINE
  5
232
102
{ACAD_REACTORS
330
354
330
355
102
}
330
71
100
AcDbEntity
  8
0
  6
Continuous
 62
     2
100
AcDbLine
 10
202.510934352244
 20
709.5081522785707
 30
0.0
 11
205.3084099874743
 21
709.5081522785712
 31
0.0
  0
LINE
  5
233
102
{ACAD_REACTORS
330
354
330
355
102
}
330
71
100
AcDbEntity
  8
0
  6
Continuous
 62
     2
100
AcDbLine
 10
205.3084099874743
 20
708.8591726867335
 30
0.0
 11
205.3084099874743
 21
709.5081522785712
 31
0.0
  0
LINE
  5
234
102
{ACAD_REACTORS
330
354
330
355
102
}
330
71
100
AcDbEntity
  8
0
  6
Continuous
 62
     2
100
AcDbLine
 10
204.6380802044384
 20
708.8591726867335
 30
0.0
 11
205.3084099874743
 21
708.8591726867335
 31
0.0
  0
LINE
  5
235
102
{ACAD_REACTORS
330
354
330
355
102
}
330
71
100
AcDbEntity
  8
0
  6
Continuous
 62
     2
100
AcDbLine
 10
204.6380802044384
 20
706.9843427547603
 30
0.0
 11
204.6380802044384
 21
708.8591726867335
 31
0.0
  0
LINE
  5
236
102
{ACAD_REACTORS
330
354
330
355
102
}
330
71
100
AcDbEntity
  8
0
  6
Continuous
 62
     2
100
AcDbLine
 10
203.6523011117379
 20
706.9843427547603
 30
0.0
 11
204.6380802044384
 21
706.9843427547603
 31
0.0
  0
LINE
  5
237
102
{ACAD_REACTORS
330
34A
330
34B
102
}
330
71
100
AcDbEntity
  8
0
  6
Continuous
 62
     2
100
AcDbLine
 10
203.0766061216019
 20
712.2843427547483
 30
0.0
 11
201.917329908586
 21
712.2843427547483
 31
0.0
  0
LINE
  5
238
102
{ACAD_REACTORS
330
34A
330
34B
102
}
330
71
100
AcDbEntity
  8
0
  6
Continuous
 62
     2
100
AcDbLine
 10
203.0766061216019
 20
712.2843427547483
 30
0.0
 11
203.5734387843224
 21
711.7225052989173
 31
0.0
  0
LINE
  5
239
102
{ACAD_REACTORS
330
34A
330
34B
102
}
330
71
100
AcDbEntity
  8
0
  6
Continuous
 62
     2
100
AcDbLine
 10
203.5734387843224
 20
711.7225052989173
 30
0.0
 11
204.0702714470438
 21
712.2843427547483
 31
0.0
  0
LINE
  5
23A
102
{ACAD_REACTORS
330
34A
330
34B
102
}
330
71
100
AcDbEntity
  8
0
  6
Continuous
 62
     2
100
AcDbLine
 10
204.1530768908294
 20
711.0670282671151
 30
0.0
 11
205.229547660058
 21
712.2843427547483
 31
0.0
  0
LINE
  5
23B
102
{ACAD_REACTORS
330
34A
330
34B
102
}
330
71
100
AcDbEntity
  8
0
  6
Continuous
 62
     2
100
AcDbLine
 10
204.1530768908294
 20
711.0670282671151
 30
0.0
 11
205.3084099874743
 21
709.7605332309374
 31
0.0
  0
LINE
  5
23C
102
{ACAD_REACTORS
330
34A
330
34B
102
}
330
71
100
AcDbEntity
  8
0
  6
Continuous
 62
     2
100
AcDbLine
 10
204.1491337744592
 20
709.7605332309374
 30
0.0
 11
205.3084099874743
 21
709.7605332309374
 31
0.0
  0
LINE
  5
23D
102
{ACAD_REACTORS
330
34A
330
34B
102
}
330
71
100
AcDbEntity
  8
0
  6
Continuous
 62
     2
100
AcDbLine
 10
203.5734387843224
 20
710.4115512353125
 30
0.0
 11
204.1491337744592
 21
709.7605332309374
 31
0.0
  0
LINE
  5
23E
102
{ACAD_REACTORS
330
348
330
349
102
}
330
71
100
AcDbEntity
  8
0
  6
Continuous
 62
     2
100
AcDbLine
 10
200.7146794154929
 20
712.2843427547483
 30
0.0
 11
201.7398896719003
 21
712.2843427547483
 31
0.0
  0
LINE
  5
23F
102
{ACAD_REACTORS
330
348
330
349
102
}
330
71
100
AcDbEntity
  8
0
  6
Continuous
 62
     2
100
AcDbLine
 10
201.7398896719003
 20
712.2843427547483
 30
0.0
 11
201.7398896719003
 21
709.7605332309374
 31
0.0
  0
LINE
  5
240
102
{ACAD_REACTORS
330
348
330
349
102
}
330
71
100
AcDbEntity
  8
0
  6
Continuous
 62
     2
100
AcDbLine
 10
200.7146794154929
 20
709.7605332309374
 30
0.0
 11
200.7146794154929
 21
712.2843427547483
 31
0.0
  0
LINE
  5
241
102
{ACAD_REACTORS
330
346
330
347
102
}
330
71
100
AcDbEntity
  8
0
  6
Continuous
 62
     2
100
AcDbLine
 10
199.5012000084371
 20
707.9938665642846
 30
0.0
 11
199.7492704523977
 21
708.6284243874142
 31
0.0
  0
LINE
  5
242
102
{ACAD_REACTORS
330
346
330
347
102
}
330
71
100
AcDbEntity
  8
0
  6
Continuous
 62
     2
100
AcDbLine
 10
199.106542483957
 20
706.9843427547603
 30
0.0
 11
199.281319387656
 21
707.4314175846924
 31
0.0
  0
LINE
  5
243
102
{ACAD_REACTORS
330
346
330
347
102
}
330
71
100
AcDbEntity
  8
0
  6
Continuous
 62
     2
100
AcDbLine
 10
199.2366653241936
 20
709.5081522785712
 30
0.0
 11
198.0813322275496
 21
706.9843427547603
 31
0.0
  0
LINE
  5
244
102
{ACAD_REACTORS
330
346
330
347
102
}
330
71
100
AcDbEntity
  8
0
  6
Continuous
 62
     2
100
AcDbLine
 10
201.4172086772458
 20
706.9843427547603
 30
0.0
 11
200.3919984208376
 21
706.9843427547603
 31
0.0
  0
LINE
  5
245
102
{ACAD_REACTORS
330
346
330
347
102
}
330
71
100
AcDbEntity
  8
0
  6
Continuous
 62
     2
100
AcDbLine
 10
199.281319387656
 20
707.4314175846924
 30
0.0
 11
200.2172215171386
 21
707.4314175846924
 31
0.0
  0
LINE
  5
246
102
{ACAD_REACTORS
330
344
330
345
102
}
330
71
100
AcDbEntity
  8
0
  6
Continuous
 62
     2
100
AcDbLine
 10
196.2982643439279
 20
708.8591726867335
 30
0.0
 11
196.9685941269648
 21
708.8591726867335
 31
0.0
  0
LINE
  5
247
102
{ACAD_REACTORS
330
344
330
345
102
}
330
71
100
AcDbEntity
  8
0
  6
Continuous
 62
     2
100
AcDbLine
 10
198.6247030026996
 20
709.5081522785712
 30
0.0
 11
196.2982643439279
 21
709.5081522785712
 31
0.0
  0
LINE
  5
248
102
{ACAD_REACTORS
330
344
330
345
102
}
330
71
100
AcDbEntity
  8
0
  6
Continuous
 62
     2
100
AcDbLine
 10
198.6247030026996
 20
708.8591726867335
 30
0.0
 11
198.6247030026996
 21
709.5081522785712
 31
0.0
  0
LINE
  5
249
102
{ACAD_REACTORS
330
344
330
345
102
}
330
71
100
AcDbEntity
  8
0
  6
Continuous
 62
     2
100
AcDbLine
 10
197.9543732196644
 20
708.8591726867335
 30
0.0
 11
198.6247030026996
 21
708.8591726867335
 31
0.0
  0
LINE
  5
24A
102
{ACAD_REACTORS
330
344
330
345
102
}
330
71
100
AcDbEntity
  8
0
  6
Continuous
 62
     2
100
AcDbLine
 10
197.9543732196644
 20
706.9843427547603
 30
0.0
 11
197.9543732196644
 21
708.8591726867335
 31
0.0
  0
LINE
  5
24B
102
{ACAD_REACTORS
330
342
330
343
102
}
330
71
100
AcDbEntity
  8
0
  6
Continuous
 62
     2
100
AcDbLine
 10
198.5065342478446
 20
709.7605332309374
 30
0.0
 11
198.5065342478446
 21
710.8421658839991
 31
0.0
  0
LINE
  5
24C
102
{ACAD_REACTORS
330
342
330
343
102
}
330
71
100
AcDbEntity
  8
0
  6
Continuous
 62
     2
100
AcDbLine
 10
197.520755155145
 20
712.2843427547483
 30
0.0
 11
197.520755155145
 21
709.7605332309374
 31
0.0
  0
LINE
  5
24D
102
{ACAD_REACTORS
330
342
330
343
102
}
330
71
100
AcDbEntity
  8
0
  6
Continuous
 62
     2
100
AcDbLine
 10
198.5065342478446
 20
712.2843427547483
 30
0.0
 11
197.520755155145
 21
712.2843427547483
 31
0.0
  0
LINE
  5
24E
102
{ACAD_REACTORS
330
342
330
343
102
}
330
71
100
AcDbEntity
  8
0
  6
Continuous
 62
     2
100
AcDbLine
 10
199.5317445042529
 20
712.2843427547483
 30
0.0
 11
199.5317445042529
 21
711.2027101016862
 31
0.0
  0
LINE
  5
24F
102
{ACAD_REACTORS
330
340
330
341
102
}
330
71
100
AcDbEntity
  8
0
  6
Continuous
 62
     2
100
AcDbLine
 10
193.1832024109965
 20
709.5081522785712
 30
0.0
 11
193.1832024109965
 21
706.9843427547603
 31
0.0
  0
LINE
  5
250
102
{ACAD_REACTORS
330
340
330
341
102
}
330
71
100
AcDbEntity
  8
0
  6
Continuous
 62
     2
100
AcDbLine
 10
194.168981503697
 20
709.5081522785712
 30
0.0
 11
193.1832024109965
 21
709.5081522785712
 31
0.0
  0
LINE
  5
251
102
{ACAD_REACTORS
330
340
330
341
102
}
330
71
100
AcDbEntity
  8
0
  6
Continuous
 62
     2
100
AcDbLine
 10
195.1941917601043
 20
706.9843427547603
 30
0.0
 11
196.1799708528039
 21
706.9843427547603
 31
0.0
  0
LINE
  5
252
102
{ACAD_REACTORS
330
340
330
341
102
}
330
71
100
AcDbEntity
  8
0
  6
Continuous
 62
     2
100
AcDbLine
 10
193.1832024109965
 20
706.9843427547603
 30
0.0
 11
194.168981503697
 21
706.9843427547603
 31
0.0
  0
LINE
  5
253
102
{ACAD_REACTORS
330
350
330
351
102
}
330
71
100
AcDbEntity
  8
0
  6
Continuous
 62
     2
100
AcDbLine
 10
196.2195267527809
 20
711.3108733669924
 30
0.0
 11
196.2195267527809
 21
711.7074720064484
 31
0.0
  0
LINE
  5
254
102
{ACAD_REACTORS
330
350
330
351
102
}
330
71
100
AcDbEntity
  8
0
  6
Continuous
 62
     2
100
AcDbLine
 10
197.3235993366054
 20
711.3108733669924
 30
0.0
 11
196.2195267527809
 21
711.3108733669924
 31
0.0
  0
LINE
  5
255
102
{ACAD_REACTORS
330
350
330
351
102
}
330
71
100
AcDbEntity
  8
0
  6
Continuous
 62
     2
100
AcDbLine
 10
197.3235993366054
 20
710.7340026186929
 30
0.0
 11
197.3235993366054
 21
711.3108733669924
 31
0.0
  0
LINE
  5
256
102
{ACAD_REACTORS
330
350
330
351
102
}
330
71
100
AcDbEntity
  8
0
  6
Continuous
 62
     2
100
AcDbLine
 10
196.2195267527809
 20
710.7340026186929
 30
0.0
 11
197.3235993366054
 21
710.7340026186929
 31
0.0
  0
LINE
  5
257
102
{ACAD_REACTORS
330
33E
330
33F
102
}
330
71
100
AcDbEntity
  8
0
  6
Continuous
 62
     2
100
AcDbLine
 10
193.3410518020975
 20
712.2843427547483
 30
0.0
 11
193.3410518020975
 21
709.7605332309374
 31
0.0
  0
LINE
  5
258
102
{ACAD_REACTORS
330
33E
330
33F
102
}
330
71
100
AcDbEntity
  8
0
  6
Continuous
 62
     2
100
AcDbLine
 10
193.3410518020975
 20
709.7605332309374
 30
0.0
 11
192.3552727093979
 21
709.7605332309374
 31
0.0
  0
LINE
  5
259
102
{ACAD_REACTORS
330
33E
330
33F
102
}
330
71
100
AcDbEntity
  8
0
  6
Continuous
 62
     2
100
AcDbLine
 10
192.3552727093979
 20
709.7605332309374
 30
0.0
 11
192.3552727093979
 21
710.697948196924
 31
0.0
  0
LINE
  5
25A
102
{ACAD_REACTORS
330
33E
330
33F
102
}
330
71
100
AcDbEntity
  8
0
  6
Continuous
 62
     2
100
AcDbLine
 10
191.4877871078215
 20
709.7605332309374
 30
0.0
 11
190.5020080151219
 21
709.7605332309374
 31
0.0
  0
LINE
  5
25B
102
{ACAD_REACTORS
330
33E
330
33F
102
}
330
71
100
AcDbEntity
  8
0
  6
Continuous
 62
     2
100
AcDbLine
 10
190.5020080151219
 20
712.2843427547483
 30
0.0
 11
191.4877871078215
 21
712.2843427547483
 31
0.0
  0
LINE
  5
25C
102
{ACAD_REACTORS
330
33E
330
33F
102
}
330
71
100
AcDbEntity
  8
0
  6
Continuous
 62
     2
100
AcDbLine
 10
191.4877871078215
 20
712.2843427547483
 30
0.0
 11
191.4877871078215
 21
711.401009421414
 31
0.0
  0
LINE
  5
25D
102
{ACAD_REACTORS
330
33E
330
33F
102
}
330
71
100
AcDbEntity
  8
0
  6
Continuous
 62
     2
100
AcDbLine
 10
191.4877871078215
 20
711.401009421414
 30
0.0
 11
192.3552727093979
 21
711.401009421414
 31
0.0
  0
LINE
  5
25E
102
{ACAD_REACTORS
330
34C
330
34D
102
}
330
71
100
AcDbEntity
  8
0
  6
Continuous
 62
     2
100
AcDbLine
 10
188.8853303030941
 20
711.7363213948805
 30
0.0
 11
189.1475576266824
 21
711.7363213948805
 31
0.0
  0
LINE
  5
25F
102
{ACAD_REACTORS
330
34C
330
34D
102
}
330
71
100
AcDbEntity
  8
0
  6
Continuous
 62
     2
100
AcDbLine
 10
188.8853303030941
 20
711.1530754036885
 30
0.0
 11
189.1475576266824
 21
711.1530754036885
 31
0.0
  0
LINE
  5
260
102
{ACAD_REACTORS
330
34C
330
34D
102
}
330
71
100
AcDbEntity
  8
0
  6
Continuous
 62
     2
100
AcDbLine
 10
187.8601200466858
 20
712.2843427547483
 30
0.0
 11
187.8601200466858
 21
709.7605332309374
 31
0.0
  0
LINE
  5
261
102
{ACAD_REACTORS
330
34C
330
34D
102
}
330
71
100
AcDbEntity
  8
0
  6
Continuous
 62
     2
100
AcDbLine
 10
187.8601200466858
 20
712.2843427547483
 30
0.0
 11
189.5124109541522
 21
712.2843427547483
 31
0.0
  0
LINE
  5
262
102
{ACAD_REACTORS
330
34C
330
34D
102
}
330
71
100
AcDbEntity
  8
0
  6
Continuous
 62
     2
100
AcDbLine
 10
188.8853303030941
 20
710.539936736015
 30
0.0
 11
189.5124109541522
 21
710.539936736015
 31
0.0
  0
LINE
  5
263
102
{ACAD_REACTORS
330
352
330
353
102
}
330
71
100
AcDbEntity
  8
0
  6
Continuous
 62
     2
100
AcDbLine
 10
182.8216935728868
 20
711.4345307889345
 30
0.0
 11
182.8216935728868
 21
707.8341547205732
 31
0.0
  0
LINE
  5
264
102
{ACAD_REACTORS
330
352
330
353
102
}
330
71
100
AcDbEntity
  8
0
  6
Continuous
 62
     2
100
AcDbLine
 10
183.0826166498089
 20
711.695453865857
 30
0.0
 11
184.3023135597341
 21
711.695453865857
 31
0.0
  0
LINE
  5
265
102
{ACAD_REACTORS
330
352
330
353
102
}
330
71
100
AcDbEntity
  8
0
  6
Continuous
 62
     2
100
AcDbLine
 10
184.5632366366569
 20
710.9353368888844
 30
0.0
 11
184.5632366366569
 21
711.4345307889345
 31
0.0
  0
LINE
  5
266
102
{ACAD_REACTORS
330
352
330
353
102
}
330
71
100
AcDbEntity
  8
0
  6
Continuous
 62
     2
100
AcDbLine
 10
184.5632366366569
 20
707.8341547205732
 30
0.0
 11
184.5632366366569
 21
709.0992546639878
 31
0.0
  0
LINE
  5
267
102
{ACAD_REACTORS
330
352
330
353
102
}
330
71
100
AcDbEntity
  8
0
  6
Continuous
 62
     2
100
AcDbLine
 10
187.115193024991
 20
706.9843427547603
 30
0.0
 11
182.5917946029109
 21
706.9843427547603
 31
0.0
  0
LINE
  5
268
102
{ACAD_REACTORS
330
352
330
353
102
}
330
71
100
AcDbEntity
  8
0
  6
Continuous
 62
     2
100
AcDbLine
 10
187.4658084096058
 20
711.9337273701186
 30
0.0
 11
187.4658084096058
 21
707.3349581393746
 31
0.0
  0
LINE
  5
269
102
{ACAD_REACTORS
330
352
330
353
102
}
330
71
100
AcDbEntity
  8
0
  6
Continuous
 62
     2
100
AcDbLine
 10
182.5917946029109
 20
712.2843427547333
 30
0.0
 11
187.115193024991
 21
712.2843427547333
 31
0.0
  0
LINE
  5
26A
102
{ACAD_REACTORS
330
352
330
353
102
}
330
71
100
AcDbEntity
  8
0
  6
Continuous
 62
     2
100
AcDbLine
 10
182.241179218297
 20
711.9337273701186
 30
0.0
 11
182.241179218297
 21
707.3349581393746
 31
0.0
  0
LINE
  5
26B
102
{ACAD_REACTORS
330
352
330
353
102
}
330
71
100
AcDbEntity
  8
0
  6
Continuous
 62
     2
100
AcDbLine
 10
184.3023135597341
 20
707.5732316436504
 30
0.0
 11
183.0826166498089
 21
707.5732316436504
 31
0.0
  0
LINE
  5
26C
102
{ACAD_REACTORS
330
34C
330
34D
102
}
330
71
100
AcDbEntity
  8
0
  6
Continuous
 62
     2
100
AcDbLine
 10
188.8853303030941
 20
709.7605332309374
 30
0.0
 11
188.8853303030941
 21
710.539936736015
 31
0.0
  0
LINE
  5
26D
102
{ACAD_REACTORS
330
34C
330
34D
102
}
330
71
100
AcDbEntity
  8
0
  6
Continuous
 62
     2
100
AcDbLine
 10
187.8601200466858
 20
709.7605332309374
 30
0.0
 11
188.8853303030941
 21
709.7605332309374
 31
0.0
  0
LINE
  5
26E
102
{ACAD_REACTORS
330
34C
330
34D
102
}
330
71
100
AcDbEntity
  8
0
  6
Continuous
 62
     2
100
AcDbLine
 10
188.8853303030941
 20
711.1530754036885
 30
0.0
 11
188.8853303030941
 21
711.7363213948805
 31
0.0
  0
LINE
  5
26F
102
{ACAD_REACTORS
330
33E
330
33F
102
}
330
71
100
AcDbEntity
  8
0
  6
Continuous
 62
     2
100
AcDbLine
 10
190.5020080151219
 20
712.2843427547483
 30
0.0
 11
190.5020080151219
 21
709.7605332309374
 31
0.0
  0
LINE
  5
270
102
{ACAD_REACTORS
330
33E
330
33F
102
}
330
71
100
AcDbEntity
  8
0
  6
Continuous
 62
     2
100
AcDbLine
 10
191.4877871078215
 20
710.697948196924
 30
0.0
 11
191.4877871078215
 21
709.7605332309374
 31
0.0
  0
LINE
  5
271
102
{ACAD_REACTORS
330
33E
330
33F
102
}
330
71
100
AcDbEntity
  8
0
  6
Continuous
 62
     2
100
AcDbLine
 10
192.3552727093979
 20
710.697948196924
 30
0.0
 11
191.4877871078215
 21
710.697948196924
 31
0.0
  0
LINE
  5
272
102
{ACAD_REACTORS
330
33E
330
33F
102
}
330
71
100
AcDbEntity
  8
0
  6
Continuous
 62
     2
100
AcDbLine
 10
192.3552727093979
 20
712.2843427547483
 30
0.0
 11
193.3410518020975
 21
712.2843427547483
 31
0.0
  0
LINE
  5
273
102
{ACAD_REACTORS
330
33E
330
33F
102
}
330
71
100
AcDbEntity
  8
0
  6
Continuous
 62
     2
100
AcDbLine
 10
192.3552727093979
 20
711.401009421414
 30
0.0
 11
192.3552727093979
 21
712.2843427547483
 31
0.0
  0
LINE
  5
274
102
{ACAD_REACTORS
330
350
330
351
102
}
330
71
100
AcDbEntity
  8
0
  6
Continuous
 62
     2
100
AcDbLine
 10
197.3235993366054
 20
711.7074720064484
 30
0.0
 11
197.3235993366054
 21
712.2843427547483
 31
0.0
  0
LINE
  5
275
102
{ACAD_REACTORS
330
350
330
351
102
}
330
71
100
AcDbEntity
  8
0
  6
Continuous
 62
     2
100
AcDbLine
 10
194.7200293169517
 20
712.2843427547483
 30
0.0
 11
197.3235993366054
 21
712.2843427547483
 31
0.0
  0
LINE
  5
276
102
{ACAD_REACTORS
330
350
330
351
102
}
330
71
100
AcDbEntity
  8
0
  6
Continuous
 62
     2
100
AcDbLine
 10
194.7200293169517
 20
709.7605332309374
 30
0.0
 11
197.3235993366054
 21
709.7605332309374
 31
0.0
  0
LINE
  5
277
102
{ACAD_REACTORS
330
350
330
351
102
}
330
71
100
AcDbEntity
  8
0
  6
Continuous
 62
     2
100
AcDbLine
 10
197.3235993366054
 20
709.7605332309374
 30
0.0
 11
197.3235993366054
 21
710.3374039792369
 31
0.0
  0
LINE
  5
278
102
{ACAD_REACTORS
330
350
330
351
102
}
330
71
100
AcDbEntity
  8
0
  6
Continuous
 62
     2
100
AcDbLine
 10
197.3235993366054
 20
710.3374039792369
 30
0.0
 11
196.2195267527809
 21
710.3374039792369
 31
0.0
  0
LINE
  5
279
102
{ACAD_REACTORS
330
350
330
351
102
}
330
71
100
AcDbEntity
  8
0
  6
Continuous
 62
     2
100
AcDbLine
 10
196.2195267527809
 20
710.3374039792369
 30
0.0
 11
196.2195267527809
 21
710.7340026186929
 31
0.0
  0
LINE
  5
27A
102
{ACAD_REACTORS
330
350
330
351
102
}
330
71
100
AcDbEntity
  8
0
  6
Continuous
 62
     2
100
AcDbLine
 10
196.2195267527809
 20
711.7074720064484
 30
0.0
 11
197.3235993366054
 21
711.7074720064484
 31
0.0
  0
LINE
  5
27B
102
{ACAD_REACTORS
330
340
330
341
102
}
330
71
100
AcDbEntity
  8
0
  6
Continuous
 62
     2
100
AcDbLine
 10
194.168981503697
 20
706.9843427547603
 30
0.0
 11
194.168981503697
 21
708.065975407822
 31
0.0
  0
LINE
  5
27C
102
{ACAD_REACTORS
330
340
330
341
102
}
330
71
100
AcDbEntity
  8
0
  6
Continuous
 62
     2
100
AcDbLine
 10
194.168981503697
 20
708.065975407822
 30
0.0
 11
195.1941917601043
 21
706.9843427547603
 31
0.0
  0
LINE
  5
27D
102
{ACAD_REACTORS
330
340
330
341
102
}
330
71
100
AcDbEntity
  8
0
  6
Continuous
 62
     2
100
AcDbLine
 10
196.1799708528039
 20
706.9843427547603
 30
0.0
 11
196.1799708528039
 21
709.5081522785712
 31
0.0
  0
LINE
  5
27E
102
{ACAD_REACTORS
330
340
330
341
102
}
330
71
100
AcDbEntity
  8
0
  6
Continuous
 62
     2
100
AcDbLine
 10
196.1799708528039
 20
709.5081522785712
 30
0.0
 11
195.1941917601043
 21
709.5081522785712
 31
0.0
  0
LINE
  5
27F
102
{ACAD_REACTORS
330
340
330
341
102
}
330
71
100
AcDbEntity
  8
0
  6
Continuous
 62
     2
100
AcDbLine
 10
195.1941917601043
 20
709.5081522785712
 30
0.0
 11
195.1941917601043
 21
708.4265196255091
 31
0.0
  0
LINE
  5
280
102
{ACAD_REACTORS
330
340
330
341
102
}
330
71
100
AcDbEntity
  8
0
  6
Continuous
 62
     2
100
AcDbLine
 10
195.1941917601043
 20
708.4265196255091
 30
0.0
 11
194.168981503697
 21
709.5081522785712
 31
0.0
  0
LINE
  5
281
102
{ACAD_REACTORS
330
342
330
343
102
}
330
71
100
AcDbEntity
  8
0
  6
Continuous
 62
     2
100
AcDbLine
 10
198.5065342478446
 20
710.8421658839991
 30
0.0
 11
199.5317445042529
 21
709.7605332309374
 31
0.0
  0
LINE
  5
282
102
{ACAD_REACTORS
330
342
330
343
102
}
330
71
100
AcDbEntity
  8
0
  6
Continuous
 62
     2
100
AcDbLine
 10
199.5317445042529
 20
709.7605332309374
 30
0.0
 11
200.5175235969525
 21
709.7605332309374
 31
0.0
  0
LINE
  5
283
102
{ACAD_REACTORS
330
342
330
343
102
}
330
71
100
AcDbEntity
  8
0
  6
Continuous
 62
     2
100
AcDbLine
 10
200.5175235969525
 20
709.7605332309374
 30
0.0
 11
200.5175235969525
 21
712.2843427547483
 31
0.0
  0
LINE
  5
284
102
{ACAD_REACTORS
330
342
330
343
102
}
330
71
100
AcDbEntity
  8
0
  6
Continuous
 62
     2
100
AcDbLine
 10
200.5175235969525
 20
712.2843427547483
 30
0.0
 11
199.5317445042529
 21
712.2843427547483
 31
0.0
  0
LINE
  5
285
102
{ACAD_REACTORS
330
342
330
343
102
}
330
71
100
AcDbEntity
  8
0
  6
Continuous
 62
     2
100
AcDbLine
 10
199.5317445042529
 20
711.2027101016862
 30
0.0
 11
198.5065342478446
 21
712.2843427547483
 31
0.0
  0
LINE
  5
286
102
{ACAD_REACTORS
330
342
330
343
102
}
330
71
100
AcDbEntity
  8
0
  6
Continuous
 62
     2
100
AcDbLine
 10
197.520755155145
 20
709.7605332309374
 30
0.0
 11
198.5065342478446
 21
709.7605332309374
 31
0.0
  0
LINE
  5
287
102
{ACAD_REACTORS
330
344
330
345
102
}
330
71
100
AcDbEntity
  8
0
  6
Continuous
 62
     2
100
AcDbLine
 10
196.2982643439279
 20
709.5081522785712
 30
0.0
 11
196.2982643439279
 21
708.8591726867335
 31
0.0
  0
LINE
  5
288
102
{ACAD_REACTORS
330
344
330
345
102
}
330
71
100
AcDbEntity
  8
0
  6
Continuous
 62
     2
100
AcDbLine
 10
196.9685941269648
 20
708.8591726867335
 30
0.0
 11
196.9685941269648
 21
706.9843427547603
 31
0.0
  0
LINE
  5
289
102
{ACAD_REACTORS
330
344
330
345
102
}
330
71
100
AcDbEntity
  8
0
  6
Continuous
 62
     2
100
AcDbLine
 10
196.9685941269648
 20
706.9843427547603
 30
0.0
 11
197.9543732196644
 21
706.9843427547603
 31
0.0
  0
LINE
  5
28A
102
{ACAD_REACTORS
330
346
330
347
102
}
330
71
100
AcDbEntity
  8
0
  6
Continuous
 62
     2
100
AcDbLine
 10
200.3919984208376
 20
706.9843427547603
 30
0.0
 11
200.2172215171386
 21
707.4314175846924
 31
0.0
  0
LINE
  5
28B
102
{ACAD_REACTORS
330
346
330
347
102
}
330
71
100
AcDbEntity
  8
0
  6
Continuous
 62
     2
100
AcDbLine
 10
200.2618755806009
 20
709.5081522785712
 30
0.0
 11
201.4172086772458
 21
706.9843427547603
 31
0.0
  0
LINE
  5
28C
102
{ACAD_REACTORS
330
346
330
347
102
}
330
71
100
AcDbEntity
  8
0
  6
Continuous
 62
     2
100
AcDbLine
 10
199.2366653241936
 20
709.5081522785712
 30
0.0
 11
200.2618755806009
 21
709.5081522785712
 31
0.0
  0
LINE
  5
28D
102
{ACAD_REACTORS
330
346
330
347
102
}
330
71
100
AcDbEntity
  8
0
  6
Continuous
 62
     2
100
AcDbLine
 10
198.0813322275496
 20
706.9843427547603
 30
0.0
 11
199.106542483957
 21
706.9843427547603
 31
0.0
  0
LINE
  5
28E
102
{ACAD_REACTORS
330
346
330
347
102
}
330
71
100
AcDbEntity
  8
0
  6
Continuous
 62
     2
100
AcDbLine
 10
199.5012000084371
 20
707.9938665642846
 30
0.0
 11
199.9973408963565
 21
707.9938665642846
 31
0.0
  0
LINE
  5
28F
102
{ACAD_REACTORS
330
346
330
347
102
}
330
71
100
AcDbEntity
  8
0
  6
Continuous
 62
     2
100
AcDbLine
 10
199.9973408963565
 20
707.9938665642846
 30
0.0
 11
199.7492704523977
 21
708.6284243874142
 31
0.0
  0
LINE
  5
290
102
{ACAD_REACTORS
330
348
330
349
102
}
330
71
100
AcDbEntity
  8
0
  6
Continuous
 62
     2
100
AcDbLine
 10
201.7398896719003
 20
709.7605332309374
 30
0.0
 11
200.7146794154929
 21
709.7605332309374
 31
0.0
  0
LINE
  5
291
102
{ACAD_REACTORS
330
34A
330
34B
102
}
330
71
100
AcDbEntity
  8
0
  6
Continuous
 62
     2
100
AcDbLine
 10
202.9977437941855
 20
709.7605332309374
 30
0.0
 11
201.8384675811705
 21
709.7605332309374
 31
0.0
  0
LINE
  5
292
102
{ACAD_REACTORS
330
34A
330
34B
102
}
330
71
100
AcDbEntity
  8
0
  6
Continuous
 62
     2
100
AcDbLine
 10
202.9977437941855
 20
709.7605332309374
 30
0.0
 11
203.5734387843224
 21
710.4115512353125
 31
0.0
  0
LINE
  5
293
102
{ACAD_REACTORS
330
34A
330
34B
102
}
330
71
100
AcDbEntity
  8
0
  6
Continuous
 62
     2
100
AcDbLine
 10
204.0702714470438
 20
712.2843427547483
 30
0.0
 11
205.229547660058
 21
712.2843427547483
 31
0.0
  0
LINE
  5
294
102
{ACAD_REACTORS
330
34A
330
34B
102
}
330
71
100
AcDbEntity
  8
0
  6
Continuous
 62
     2
100
AcDbLine
 10
201.917329908586
 20
712.2843427547483
 30
0.0
 11
202.9938006778153
 21
711.0670282671151
 31
0.0
  0
LINE
  5
295
102
{ACAD_REACTORS
330
34A
330
34B
102
}
330
71
100
AcDbEntity
  8
0
  6
Continuous
 62
     2
100
AcDbLine
 10
201.8384675811705
 20
709.7605332309374
 30
0.0
 11
202.9938006778153
 21
711.0670282671151
 31
0.0
  0
LINE
  5
296
102
{ACAD_REACTORS
330
354
330
355
102
}
330
71
100
AcDbEntity
  8
0
  6
Continuous
 62
     2
100
AcDbLine
 10
203.3762829657819
 20
707.8496488772096
 30
0.0
 11
203.3762829657819
 21
707.1285604418349
 31
0.0
  0
LINE
  5
297
102
{ACAD_REACTORS
330
354
330
355
102
}
330
71
100
AcDbEntity
  8
0
  6
Continuous
 62
     2
100
AcDbLine
 10
202.7402025170535
 20
708.8591726867335
 30
0.0
 11
203.6523011117379
 21
708.8591726867335
 31
0.0
  0
LINE
  5
298
102
{ACAD_REACTORS
330
356
330
357
102
}
330
71
100
AcDbEntity
  8
0
  6
Continuous
 62
     2
100
AcDbLine
 10
190.0682652143341
 20
707.84964887721
 30
0.0
 11
190.0682652143341
 21
707.1285604418354
 31
0.0
  0
LINE
  5
299
102
{ACAD_REACTORS
330
356
330
357
102
}
330
71
100
AcDbEntity
  8
0
  6
Continuous
 62
     2
100
AcDbLine
 10
190.0682652143341
 20
708.6428461561214
 30
0.0
 11
190.0682652143341
 21
709.363934591496
 31
0.0
  0
ARC
  5
29A
102
{ACAD_REACTORS
330
356
330
357
102
}
330
71
100
AcDbEntity
  8
0
  6
Continuous
 62
     2
100
AcDbCircle
 10
188.9641925555591
 20
705.5084946693466
 30
0.0
 40
4.010410630989981
100
AcDbArc
 50
74.0200087416472
 51
84.84185523037543
  0
ARC
  5
29B
102
{ACAD_REACTORS
330
356
330
357
102
}
330
71
100
AcDbEntity
  8
0
  6
Continuous
 62
     2
100
AcDbCircle
 10
189.4402591743638
 20
708.1165610791684
 30
0.0
 40
0.7487023016407643
100
AcDbArc
 50
71.5519238818633
 51
113.3722778881292
  0
ARC
  5
29C
102
{ACAD_REACTORS
330
356
330
357
102
}
330
71
100
AcDbEntity
  8
0
  6
Continuous
 62
     2
100
AcDbCircle
 10
189.3109698911389
 20
708.076766996551
 30
0.0
 40
0.4227934381774399
100
AcDbArc
 50
208.5214732576858
 51
246.6277221118326
  0
ARC
  5
29D
102
{ACAD_REACTORS
330
356
330
357
102
}
330
71
100
AcDbEntity
  8
0
  6
Continuous
 62
     2
100
AcDbCircle
 10
189.4402591743638
 20
708.3759339541626
 30
0.0
 40
0.7487023016404492
100
AcDbArc
 50
246.6277221118707
 51
288.4480761181478
  0
ARC
  5
29E
102
{ACAD_REACTORS
330
356
330
357
102
}
330
71
100
AcDbEntity
  8
0
  6
Continuous
 62
     2
100
AcDbCircle
 10
189.094666006049
 20
709.4119221988215
 30
0.0
 40
1.84081323055604
100
AcDbArc
 50
288.448076118131
 51
301.930908949962
  0
ARC
  5
29F
102
{ACAD_REACTORS
330
352
330
353
102
}
330
71
100
AcDbEntity
  8
0
  6
Continuous
 62
     2
100
AcDbCircle
 10
184.7764232518285
 20
710.0172957764363
 30
0.0
 40
0.7535935125160714
100
AcDbArc
 50
295.3740086781789
 51
64.6259913218062
  0
ARC
  5
2A0
102
{ACAD_REACTORS
330
352
330
353
102
}
330
71
100
AcDbEntity
  8
0
  6
Continuous
 62
     2
100
AcDbCircle
 10
185.2111692833062
 20
711.4343841140186
 30
0.0
 40
0.2609230769224678
100
AcDbArc
 50
90.18896704255349
 51
180.0
  0
ARC
  5
2A1
102
{ACAD_REACTORS
330
354
330
355
102
}
330
71
100
AcDbEntity
  8
0
  6
Continuous
 62
     2
100
AcDbCircle
 10
202.7402025170535
 20
708.0703106976209
 30
0.0
 40
0.7888619891125472
100
AcDbArc
 50
90.0
 51
109.3371432194291
  0
ARC
  5
2A2
102
{ACAD_REACTORS
330
354
330
355
102
}
330
71
100
AcDbEntity
  8
0
  6
Continuous
 62
     2
100
AcDbCircle
 10
202.9308531451343
 20
708.2462475166656
 30
0.0
 40
0.7777353184586058
100
AcDbArc
 50
151.4785267423652
 51
208.5214732576716
  0
ARC
  5
2A3
102
{ACAD_REACTORS
330
354
330
355
102
}
330
71
100
AcDbEntity
  8
0
  6
Continuous
 62
     2
100
AcDbCircle
 10
202.7482769258133
 20
708.3759339541626
 30
0.0
 40
0.7487023016407198
100
AcDbArc
 50
246.6277221118229
 51
288.448076118081
  0
ARC
  5
2A4
102
{ACAD_REACTORS
330
354
330
355
102
}
330
71
100
AcDbEntity
  8
0
  6
Continuous
 62
     2
100
AcDbCircle
 10
202.4026837574977
 20
709.411922198821
 30
0.0
 40
1.840813230556049
100
AcDbArc
 50
288.4480761181319
 51
301.9309089499387
  0
ARC
  5
2A5
102
{ACAD_REACTORS
330
354
330
355
102
}
330
71
100
AcDbEntity
  8
0
  6
Continuous
 62
     2
100
AcDbCircle
 10
202.2722103070078
 20
710.9840003639848
 30
0.0
 40
4.010410630990729
100
AcDbArc
 50
275.1581447696365
 51
285.979991258338
  0
ARC
  5
2A6
102
{ACAD_REACTORS
330
354
330
355
102
}
330
71
100
AcDbEntity
  8
0
  6
Continuous
 62
     2
100
AcDbCircle
 10
202.510934352244
 20
708.3394626919008
 30
0.0
 40
1.355119937140852
100
AcDbArc
 50
195.061891777101
 51
275.1581447696782
  0
ARC
  5
2A7
102
{ACAD_REACTORS
330
34C
330
34D
102
}
330
71
100
AcDbEntity
  8
0
  6
Continuous
 62
     2
100
AcDbCircle
 10
189.5124109541522
 20
711.4121397453816
 30
0.0
 40
0.8722030093666717
100
AcDbArc
 50
270.0
 51
90.0
  0
ARC
  5
2A8
102
{ACAD_REACTORS
330
352
330
353
102
}
330
71
100
AcDbEntity
  8
0
  6
Continuous
 62
     2
100
AcDbCircle
 10
183.0826166498089
 20
707.8341547205732
 30
0.0
 40
0.2609230769220972
100
AcDbArc
 50
180.0
 51
270.0
  0
ARC
  5
2A9
102
{ACAD_REACTORS
330
352
330
353
102
}
330
71
100
AcDbEntity
  8
0
  6
Continuous
 62
     2
100
AcDbCircle
 10
184.3023135597341
 20
711.4345307889345
 30
0.0
 40
0.2609230769228077
100
AcDbArc
 50
0.0
 51
90.0
  0
ARC
  5
2AA
102
{ACAD_REACTORS
330
352
330
353
102
}
330
71
100
AcDbEntity
  8
0
  6
Continuous
 62
     2
100
AcDbCircle
 10
184.3023135597341
 20
710.9353368888844
 30
0.0
 40
0.2609230769223558
100
AcDbArc
 50
295.1944106485584
 51
0.0
  0
ARC
  5
2AB
102
{ACAD_REACTORS
330
352
330
353
102
}
330
71
100
AcDbEntity
  8
0
  6
Continuous
 62
     2
100
AcDbCircle
 10
184.3023135597341
 20
707.8341547205732
 30
0.0
 40
0.2609230769228361
100
AcDbArc
 50
270.0
 51
0.0
  0
ARC
  5
2AC
102
{ACAD_REACTORS
330
352
330
353
102
}
330
71
100
AcDbEntity
  8
0
  6
Continuous
 62
     2
100
AcDbCircle
 10
182.5917946029109
 20
711.9337273701186
 30
0.0
 40
0.3506153846146844
100
AcDbArc
 50
90.0
 51
180.0
  0
ARC
  5
2AD
102
{ACAD_REACTORS
330
352
330
353
102
}
330
71
100
AcDbEntity
  8
0
  6
Continuous
 62
     2
100
AcDbCircle
 10
187.115193024991
 20
711.9337273701186
 30
0.0
 40
0.3506153846148266
100
AcDbArc
 50
0.0
 51
90.0
  0
ARC
  5
2AE
102
{ACAD_REACTORS
330
352
330
353
102
}
330
71
100
AcDbEntity
  8
0
  6
Continuous
 62
     2
100
AcDbCircle
 10
187.115193024991
 20
707.3349581393746
 30
0.0
 40
0.3506153846143434
100
AcDbArc
 50
270.0
 51
0.0
  0
ARC
  5
2AF
102
{ACAD_REACTORS
330
350
330
351
102
}
330
71
100
AcDbEntity
  8
0
  6
Continuous
 62
     2
100
AcDbCircle
 10
194.7336921052319
 20
711.0224379928427
 30
0.0
 40
0.6378510567600058
100
AcDbArc
 50
321.8795802028323
 51
38.12041979715963
  0
ARC
  5
2B0
102
{ACAD_REACTORS
330
350
330
351
102
}
330
71
100
AcDbEntity
  8
0
  6
Continuous
 62
     2
100
AcDbCircle
 10
194.8987665154353
 20
710.8929080935695
 30
0.0
 40
0.4280236140606632
100
AcDbArc
 50
218.1204197971535
 51
321.8795802028536
  0
ARC
  5
2B1
102
{ACAD_REACTORS
330
34E
330
34F
102
}
330
71
100
AcDbEntity
  8
0
  6
Continuous
 62
     2
100
AcDbCircle
 10
191.8574379295178
 20
708.2462475166656
 30
0.0
 40
1.204986845993431
100
AcDbArc
 50
297.5481481756999
 51
62.45185182429761
  0
ARC
  5
2B2
102
{ACAD_REACTORS
330
34E
330
34F
102
}
330
71
100
AcDbEntity
  8
0
  6
Continuous
 62
     2
100
AcDbCircle
 10
191.3930744719421
 20
708.2462475166656
 30
0.0
 40
1.20498684599291
100
AcDbArc
 50
117.548148175664
 51
242.4518518243384
  0
ARC
  5
2B3
102
{ACAD_REACTORS
330
34E
330
34F
102
}
330
71
100
AcDbEntity
  8
0
  6
Continuous
 62
     2
100
AcDbCircle
 10
191.62525620073
 20
707.8011442023657
 30
0.0
 40
1.707008076205403
100
AcDbArc
 50
62.45185182430821
 51
117.5481481756681
  0
ARC
  5
2B4
102
{ACAD_REACTORS
330
34E
330
34F
102
}
330
71
100
AcDbEntity
  8
0
  6
Continuous
 62
     2
100
AcDbCircle
 10
191.62525620073
 20
708.6913508309658
 30
0.0
 40
1.707008076205438
100
AcDbArc
 50
242.451851824339
 51
297.5481481756847
  0
ARC
  5
2B5
102
{ACAD_REACTORS
330
350
330
351
102
}
330
71
100
AcDbEntity
  8
0
  6
Continuous
 62
     2
100
AcDbCircle
 10
195.0638409256388
 20
711.0224379928427
 30
0.0
 40
0.6378510567599356
100
AcDbArc
 50
141.8795802028404
 51
218.1204197971676
  0
ARC
  5
2B6
102
{ACAD_REACTORS
330
350
330
351
102
}
330
71
100
AcDbEntity
  8
0
  6
Continuous
 62
     2
100
AcDbCircle
 10
194.8987665154353
 20
711.1519678921157
 30
0.0
 40
0.4280236140607304
100
AcDbArc
 50
38.12041979714642
 51
141.8795802028465
  0
ARC
  5
2B7
102
{ACAD_REACTORS
330
352
330
353
102
}
330
71
100
AcDbEntity
  8
0
  6
Continuous
 62
     2
100
AcDbCircle
 10
182.5917946029109
 20
707.3349581393746
 30
0.0
 40
0.3506153846139171
100
AcDbArc
 50
180.0
 51
270.0
  0
ARC
  5
2B8
102
{ACAD_REACTORS
330
352
330
353
102
}
330
71
100
AcDbEntity
  8
0
  6
Continuous
 62
     2
100
AcDbCircle
 10
184.3023135597341
 20
709.0992546639878
 30
0.0
 40
0.2609230769228077
100
AcDbArc
 50
0.0
 51
64.80558935144161
  0
ARC
  5
2B9
102
{ACAD_REACTORS
330
352
330
353
102
}
330
71
100
AcDbEntity
  8
0
  6
Continuous
 62
     2
100
AcDbCircle
 10
184.7342015329366
 20
710.0172957764363
 30
0.0
 40
0.753634316989858
100
AcDbArc
 50
115.1944106485226
 51
244.8055893514885
  0
ARC
  5
2BA
102
{ACAD_REACTORS
330
352
330
353
102
}
330
71
100
AcDbEntity
  8
0
  6
Continuous
 62
     2
100
AcDbCircle
 10
183.0826166498089
 20
711.4345307889345
 30
0.0
 40
0.2609230769224951
100
AcDbArc
 50
90.0
 51
180.0
  0
ARC
  5
2BB
102
{ACAD_REACTORS
330
34C
330
34D
102
}
330
71
100
AcDbEntity
  8
0
  6
Continuous
 62
     2
100
AcDbCircle
 10
189.1475576266824
 20
711.4446983992846
 30
0.0
 40
0.2916229955960716
100
AcDbArc
 50
270.0
 51
90.0
  0
ARC
  5
2BC
102
{ACAD_REACTORS
330
350
330
351
102
}
330
71
100
AcDbEntity
  8
0
  6
Continuous
 62
     2
100
AcDbCircle
 10
194.7200293169517
 20
711.0224379928427
 30
0.0
 40
1.261904761905612
100
AcDbArc
 50
90.0
 51
270.0
  0
ARC
  5
2BD
102
{ACAD_REACTORS
330
354
330
355
102
}
330
71
100
AcDbEntity
  8
0
  6
Continuous
 62
     2
100
AcDbCircle
 10
202.510934352244
 20
708.15303234143
 30
0.0
 40
1.355119937140671
100
AcDbArc
 50
90.0
 51
164.938108222899
  0
ARC
  5
2BE
102
{ACAD_REACTORS
330
354
330
355
102
}
330
71
100
AcDbEntity
  8
0
  6
Continuous
 62
     2
100
AcDbCircle
 10
202.164547704755
 20
708.2462475166656
 30
0.0
 40
0.9964100565230259
100
AcDbArc
 50
164.9381082229105
 51
195.0618917771021
  0
ARC
  5
2BF
102
{ACAD_REACTORS
330
354
330
355
102
}
330
71
100
AcDbEntity
  8
0
  6
Continuous
 62
     2
100
AcDbCircle
 10
202.6189876425876
 20
708.076766996551
 30
0.0
 40
0.4227934381784311
100
AcDbArc
 50
208.5214732576829
 51
246.6277221118468
  0
ARC
  5
2C0
102
{ACAD_REACTORS
330
354
330
355
102
}
330
71
100
AcDbEntity
  8
0
  6
Continuous
 62
     2
100
AcDbCircle
 10
202.6189876425876
 20
708.4157280367804
 30
0.0
 40
0.4227934381773005
100
AcDbArc
 50
109.3371432194784
 51
151.4785267424119
  0
ARC
  5
2C1
102
{ACAD_REACTORS
330
352
330
353
102
}
330
71
100
AcDbEntity
  8
0
  6
Continuous
 62
     2
100
AcDbCircle
 10
185.2111692833062
 20
708.6197808948963
 30
0.0
 40
0.2609230769229782
100
AcDbArc
 50
180.0
 51
269.8110329574465
  0
ARC
  5
2C2
102
{ACAD_REACTORS
330
352
330
353
102
}
330
71
100
AcDbEntity
  8
0
  6
Continuous
 62
     2
100
AcDbCircle
 10
185.2158107174466
 20
710.0270825044574
 30
0.0
 40
1.668232340440728
100
AcDbArc
 50
269.8110329575882
 51
90.18896704241182
  0
ARC
  5
2C3
102
{ACAD_REACTORS
330
352
330
353
102
}
330
71
100
AcDbEntity
  8
0
  6
Continuous
 62
     2
100
AcDbCircle
 10
185.2111692833062
 20
710.9339417268229
 30
0.0
 40
0.2609230769229782
100
AcDbArc
 50
180.0
 51
244.6259913216317
  0
ARC
  5
2C4
102
{ACAD_REACTORS
330
352
330
353
102
}
330
71
100
AcDbEntity
  8
0
  6
Continuous
 62
     2
100
AcDbCircle
 10
185.2111692833062
 20
709.1006498260492
 30
0.0
 40
0.2609230769227745
100
AcDbArc
 50
115.3740086783684
 51
180.0
  0
ARC
  5
2C5
102
{ACAD_REACTORS
330
356
330
357
102
}
330
71
100
AcDbEntity
  8
0
  6
Continuous
 62
     2
100
AcDbCircle
 10
189.2029166007953
 20
708.15303234143
 30
0.0
 40
1.355119937140984
100
AcDbArc
 50
84.84185523036052
 51
164.9381082228905
  0
ARC
  5
2C6
102
{ACAD_REACTORS
330
356
330
357
102
}
330
71
100
AcDbEntity
  8
0
  6
Continuous
 62
     2
100
AcDbCircle
 10
188.8565299533054
 20
708.2462475166656
 30
0.0
 40
0.9964100565214067
100
AcDbArc
 50
164.9381082228855
 51
195.0618917771019
  0
ARC
  5
2C7
102
{ACAD_REACTORS
330
356
330
357
102
}
330
71
100
AcDbEntity
  8
0
  6
Continuous
 62
     2
100
AcDbCircle
 10
189.2029166007953
 20
708.3394626919008
 30
0.0
 40
1.355119937139993
100
AcDbArc
 50
195.0618917770909
 51
275.1581447696416
  0
ARC
  5
2C8
102
{ACAD_REACTORS
330
356
330
357
102
}
330
71
100
AcDbEntity
  8
0
  6
Continuous
 62
     2
100
AcDbCircle
 10
188.9641925555591
 20
710.9840003639848
 30
0.0
 40
4.010410630990197
100
AcDbArc
 50
275.1581447696246
 51
285.9799912583524
  0
ARC
  5
2C9
102
{ACAD_REACTORS
330
356
330
357
102
}
330
71
100
AcDbEntity
  8
0
  6
Continuous
 62
     2
100
AcDbCircle
 10
189.6228353936847
 20
708.2462475166656
 30
0.0
 40
0.7777353184572496
100
AcDbArc
 50
151.4785267422727
 51
208.5214732577052
  0
ARC
  5
2CA
102
{ACAD_REACTORS
330
356
330
357
102
}
330
71
100
AcDbEntity
  8
0
  6
Continuous
 62
     2
100
AcDbCircle
 10
189.3109698911389
 20
708.4157280367804
 30
0.0
 40
0.4227934381776413
100
AcDbArc
 50
113.3722778881857
 51
151.4785267423007
  0
ARC
  5
2CB
102
{ACAD_REACTORS
330
356
330
357
102
}
330
71
100
AcDbEntity
  8
0
  6
Continuous
 62
     2
100
AcDbCircle
 10
189.094666006049
 20
707.08057283451
 30
0.0
 40
1.840813230556584
100
AcDbArc
 50
58.069091050038
 51
71.551923881869
  0
ARC
  5
2CC
102
{ACAD_REACTORS
330
34E
330
34F
102
}
330
71
100
AcDbEntity
  8
0
  6
Continuous
 62
     2
100
AcDbCircle
 10
191.62525620073
 20
708.3757774159386
 30
0.0
 40
0.4280236140605738
100
AcDbArc
 50
38.12041979716286
 51
141.8795802028536
  0
ARC
  5
2CD
102
{ACAD_REACTORS
330
34E
330
34F
102
}
330
71
100
AcDbEntity
  8
0
  6
Continuous
 62
     2
100
AcDbCircle
 10
191.7903306109333
 20
708.2462475166656
 30
0.0
 40
0.6378510567598462
100
AcDbArc
 50
141.8795802028341
 51
218.120419797174
  0
ARC
  5
2CE
102
{ACAD_REACTORS
330
34E
330
34F
102
}
330
71
100
AcDbEntity
  8
0
  6
Continuous
 62
     2
100
AcDbCircle
 10
191.62525620073
 20
708.1167176173929
 30
0.0
 40
0.4280236140610111
100
AcDbArc
 50
218.1204197971943
 51
321.8795802027893
  0
ARC
  5
2CF
102
{ACAD_REACTORS
330
34E
330
34F
102
}
330
71
100
AcDbEntity
  8
0
  6
Continuous
 62
     2
100
AcDbCircle
 10
191.4601817905264
 20
708.2462475166656
 30
0.0
 40
0.6378510567600058
100
AcDbArc
 50
321.8795802028323
 51
38.12041979715963
  0
CIRCLE
  5
2D0
330
71
100
AcDbEntity
  8
1
  6
Continuous
 62
     2
100
AcDbCircle
 10
180.6733936826048
 20
716.0093427547544
 30
0.0
 40
1.5
  0
CIRCLE
  5
2D1
330
71
100
AcDbEntity
  8
1
  6
Continuous
 62
     2
100
AcDbCircle
 10
180.6733936826048
 20
716.0093427547544
 30
0.0
 40
1.0
  0
CIRCLE
  5
2D2
102
{ACAD_REACTORS
330
352
330
353
102
}
330
71
100
AcDbEntity
  8
0
  6
Continuous
 62
     2
100
AcDbCircle
 10
184.7567414215205
 20
710.0172957764363
 30
0.0
 40
0.3892387874201972
  0
MTEXT
  5
2D4
330
71
100
AcDbEntity
  8
1
 62
     7
100
AcDbMText
 10
258.5535361208769
 20
704.3843427547546
 30
0.0
 40
3.0
 41
0.0
 71
     5
 72
     1
  1
A-INL-M63-S-S
  7
CONVERTER_12
 73
     1
 44
1.20048019207683
  0
TEXT
  5
2D6
330
71
100
AcDbEntity
  8
1
 62
     3
100
AcDbText
 10
261.1259383842534
 20
710.9343427547543
 30
0.0
 40
2.5
  1
 
 41
0.54
  7
CONVERTER_13
100
AcDbText
  0
MTEXT
  5
2D8
330
71
100
AcDbEntity
  8
1
 62
     2
100
AcDbMText
 10
242.6259383842538
 20
721.3843427547544
 30
0.0
 40
1.8
 41
0.0
 71
     1
 72
     1
  1
part-rev.
  7
CONVERTER_14
 73
     1
 44
1.20048019207683
  0
MTEXT
  5
2DA
330
71
100
AcDbEntity
  8
1
 62
     2
100
AcDbMText
 10
213.0811338575014
 20
720.4593427547543
 30
0.0
 40
1.4
 41
0.0
 71
     4
 72
     1
  1
SAP\Pchange-No.
  7
CONVERTER_15
 73
     1
 44
0.66026410564226
  0
MTEXT
  5
2DB
330
71
100
AcDbEntity
  8
1
 62
     3
100
AcDbMText
 10
222.3133706756163
 20
720.2593427547544
 30
0.0
 40
2.5
 41
0.0
 71
     4
 72
     1
  1
N02-13036/01
  7
CONVERTER_15
 73
     1
 44
1.20048019207683
  0
MTEXT
  5
2DC
330
71
100
AcDbEntity
  8
1
 62
     3
100
AcDbMText
 10
252.8329582708618
 20
721.4843427547544
 30
0.0
 40
2.0
 41
0.0
 71
     1
 72
     1
  1
 
  7
CONVERTER_14
 73
     1
 44
1.20048019207683
  0
TEXT
  5
2DE
330
71
100
AcDbEntity
  8
1
 62
     3
100
AcDbText
 10
212.9811338575014
 20
710.9343427547543
 30
0.0
 40
2.5
  1
KUNDENZCHNG-SELECT
 41
0.45
  7
CONVERTER_16
100
AcDbText
  0
TEXT
  5
2DF
330
71
100
AcDbEntity
  8
1
 62
     3
100
AcDbText
 10
213.0811338575031
 20
733.1791143283592
 30
0.0
 40
2.5
  1
 
 41
0.72
  7
CONVERTER_14
100
AcDbText
  0
TEXT
  5
2E0
330
71
100
AcDbEntity
  8
1
 62
     3
100
AcDbText
 10
213.0811338575031
 20
736.6791143283592
 30
0.0
 40
2.5
  1
 
 41
0.72
  7
CONVERTER_14
100
AcDbText
  0
TEXT
  5
2E1
330
71
100
AcDbEntity
  8
1
 62
     3
100
AcDbText
 10
213.0811338575031
 20
740.1791143283592
 30
0.0
 40
2.5
  1
 
 41
0.72
  7
CONVERTER_14
100
AcDbText
  0
MTEXT
  5
2E2
330
71
100
AcDbEntity
  8
1
 62
     3
100
AcDbMText
 10
-91.60559461548758
 20
874.1206268684086
 30
0.0
 40
1.8
 41
0.0
 71
     7
 72
     1
  3
The copying, distribution and utilistion of this document as well as the communication\Pof the contents to others without expressed authorization is prohibited according to\P\U+00a718 UWG German Law. Offenders will be held liable for the payment of 
  1
damages\Paccording to (\U+00a719 UWG German Law). All rights reserved, in particular the right to\Pcarry out patent, utility model or ornamental design registrations.\PFlachsmarktstra\U+00dfe 8  D-32825 Blomberg
  7
CONVERTER_11
 11
6.123233764940082E-17
 21
1.0
 31
0.0
 73
     1
 44
0.99639855942377
  0
MTEXT
  5
2E3
330
71
100
AcDbEntity
  8
1
 62
     3
100
AcDbMText
 10
-91.45138830439356
 20
701.1612568542555
 30
0.0
 40
1.8
 41
0.0
 71
     7
 72
     1
  3
Weitergabe sowie Vervielf\U+00e4ltigung dieses Dokuments, Verwertung und\PMitteilung seines Inhalts gem\U+00e4\U+00df \U+00a718 UWG verboten, soweit nicht aus-\Pdr\U+00fccklich gestattet. Zuwiderhandlungen verpflichten zu Schadenersatz\P(\U+00a719 U
  1
WG). Alle Rechte vorbehalten, insbesondere das Recht, Patent-,\PGebrauchsmuster- oder Geschmacksmusteranmeldungen durchzuf\U+00fchren.\PPhoenix Contact GmbH & Co. KG
  7
CONVERTER_11
 11
6.123233764940082E-17
 21
1.0
 31
0.0
 73
     1
 44
0.99639855942377
  0
TEXT
  5
2E4
330
71
100
AcDbEntity
  8
1
 62
     7
100
AcDbText
 10
-71.87406161574657
 20
989.1343427547552
 30
0.0
 40
2.5
  1
1
 41
0.9
  7
CONVERTER_11
100
AcDbText
  0
TEXT
  5
2E5
330
71
100
AcDbEntity
  8
1
 62
     7
100
AcDbText
 10
-3.5407282824134
 20
989.1343427547552
 30
0.0
 40
2.5
  1
2
 41
0.9
  7
CONVERTER_11
100
AcDbText
  0
TEXT
  5
2E6
330
71
100
AcDbEntity
  8
1
 62
     7
100
AcDbText
 10
64.79260505092003
 20
989.1343427547552
 30
0.0
 40
2.5
  1
3
 41
0.9
  7
CONVERTER_11
100
AcDbText
  0
TEXT
  5
2E7
330
71
100
AcDbEntity
  8
1
 62
     7
100
AcDbText
 10
133.1259383842532
 20
989.1343427547552
 30
0.0
 40
2.5
  1
4
 41
0.9
  7
CONVERTER_11
100
AcDbText
  0
TEXT
  5
2E8
330
71
100
AcDbEntity
  8
1
 62
     7
100
AcDbText
 10
201.4592717175866
 20
989.1343427547552
 30
0.0
 40
2.5
  1
5
 41
0.9
  7
CONVERTER_11
100
AcDbText
  0
TEXT
  5
2E9
330
71
100
AcDbEntity
  8
1
 62
     7
100
AcDbText
 10
269.7926050509198
 20
989.1343427547552
 30
0.0
 40
2.5
  1
6
 41
0.9
  7
CONVERTER_11
100
AcDbText
  0
TEXT
  5
2EA
330
71
100
AcDbEntity
  8
1
 62
     7
100
AcDbText
 10
306.1259383842532
 20
958.2343427547548
 30
0.0
 40
2.5
  1
A
 41
0.9
  7
CONVERTER_11
100
AcDbText
  0
TEXT
  5
2EB
330
71
100
AcDbEntity
  8
1
 62
     7
100
AcDbText
 10
306.1259383842532
 20
900.834342754755
 30
0.0
 40
2.5
  1
B
 41
0.9
  7
CONVERTER_11
100
AcDbText
  0
TEXT
  5
2EC
330
71
100
AcDbEntity
  8
1
 62
     7
100
AcDbText
 10
306.1259383842532
 20
843.4343427547551
 30
0.0
 40
2.5
  1
C
 41
0.9
  7
CONVERTER_11
100
AcDbText
  0
TEXT
  5
2ED
330
71
100
AcDbEntity
  8
1
 62
     7
100
AcDbText
 10
306.1259383842532
 20
786.034342754755
 30
0.0
 40
2.5
  1
D
 41
0.9
  7
CONVERTER_11
100
AcDbText
  0
TEXT
  5
2EE
330
71
100
AcDbEntity
  8
1
 62
     7
100
AcDbText
 10
-3.5407282824134
 20
697.1343427547549
 30
0.0
 40
2.5
  1
2
 41
0.9
  7
CONVERTER_11
100
AcDbText
  0
TEXT
  5
2EF
330
71
100
AcDbEntity
  8
1
 62
     7
100
AcDbText
 10
-71.87406161574657
 20
697.1343427547549
 30
0.0
 40
2.5
  1
1
 41
0.9
  7
CONVERTER_11
100
AcDbText
  0
TEXT
  5
2F0
330
71
100
AcDbEntity
  8
1
 62
     7
100
AcDbText
 10
306.1259383842532
 20
728.6343427547549
 30
0.0
 40
2.5
  1
E
 41
0.9
  7
CONVERTER_11
100
AcDbText
  0
TEXT
  5
2F1
330
71
100
AcDbEntity
  8
1
 62
     7
100
AcDbText
 10
64.79260505092003
 20
697.1343427547549
 30
0.0
 40
2.5
  1
3
 41
0.9
  7
CONVERTER_11
100
AcDbText
  0
TEXT
  5
2F2
330
71
100
AcDbEntity
  8
1
 62
     7
100
AcDbText
 10
133.1259383842532
 20
697.1343427547549
 30
0.0
 40
2.5
  1
4
 41
0.9
  7
CONVERTER_11
100
AcDbText
  0
TEXT
  5
2F3
330
71
100
AcDbEntity
  8
1
 62
     7
100
AcDbText
 10
201.4592717175864
 20
697.1343427547549
 30
0.0
 40
2.5
  1
5
 41
0.9
  7
CONVERTER_11
100
AcDbText
  0
TEXT
  5
2F4
330
71
100
AcDbEntity
  8
1
 62
     7
100
AcDbText
 10
269.7926050509198
 20
697.1343427547549
 30
0.0
 40
2.5
  1
6
 41
0.9
  7
CONVERTER_11
100
AcDbText
  0
TEXT
  5
2F5
330
71
100
AcDbEntity
  8
1
 62
     7
100
AcDbText
 10
230.1110460765572
 20
723.6843427547543
 30
0.0
 40
2.5
  1
00
 41
0.81
  7
CONVERTER_12
100
AcDbText
  0
TEXT
  5
2F6
330
71
100
AcDbEntity
  8
1
 62
     3
100
AcDbText
 10
288.2443466659323
 20
723.6843427547543
 30
0.0
 40
2.5
  1
 
 41
0.54
  7
CONVERTER_13
100
AcDbText
  0
TEXT
  5
2F7
330
71
100
AcDbEntity
  8
1
 62
     7
100
AcDbText
 10
242.6259383842555
 20
710.9343427547543
 30
0.0
 40
2.5
  1
00784305
 41
0.81
  7
CONVERTER_12
100
AcDbText
  0
TEXT
  5
2F8
330
71
100
AcDbEntity
  8
1
 62
     7
100
AcDbText
 10
213.4811338575012
 20
723.6843427547543
 30
0.0
 40
2.5
  1
1411254
 41
0.81
  7
CONVERTER_12
100
AcDbText
  0
TEXT
  5
2F9
330
71
100
AcDbEntity
  8
1
 62
     3
100
AcDbText
 10
235.8811338575014
 20
723.6843427547543
 30
0.0
 40
2.5
  1
 
 41
0.54
  7
CONVERTER_13
100
AcDbText
  0
MTEXT
  5
2FA
330
71
100
AcDbEntity
  8
1
 62
     3
100
AcDbMText
 10
282.7851425250929
 20
723.6843427547544
 30
0.0
 40
2.5
 41
0.0
 71
     8
 72
     1
  1
1:1
  7
CONVERTER_14
 73
     1
 44
1.32052821128451
  0
TEXT
  5
2FB
330
71
100
AcDbEntity
  8
1
 62
     7
100
AcDbText
 10
227.9546815795152
 20
723.6843427547543
 30
0.0
 40
2.5
  1
/
 41
0.9
  7
CONVERTER_11
100
AcDbText
  0
MTEXT
  5
2FC
330
71
100
AcDbEntity
  8
1
 62
     2
100
AcDbMText
 10
191.7311338575014
 20
724.5093427547544
 30
0.0
 40
1.8
 41
0.0
 71
     5
 72
     1
  1
26.03.14
  7
CONVERTER_11
 73
     1
 44
1.32052821128451
  0
MTEXT
  5
2FD
330
71
100
AcDbEntity
  8
1
 62
     2
100
AcDbMText
 10
191.7311338575014
 20
720.2593427547544
 30
0.0
 40
1.8
 41
0.0
 71
     5
 72
     1
  1
06.05.14
  7
CONVERTER_11
 73
     1
 44
1.32052821128451
  0
MTEXT
  5
2FE
330
71
100
AcDbEntity
  8
1
 62
     2
100
AcDbMText
 10
205.2311338575014
 20
724.5093427547544
 30
0.0
 40
1.8
 41
0.0
 71
     5
 72
     1
  1
Schr\U+00f6der
  7
CONVERTER_11
 73
     1
 44
1.32052821128451
  0
MTEXT
  5
2FF
330
71
100
AcDbEntity
  8
1
 62
     2
100
AcDbMText
 10
205.2311338575014
 20
720.2593427547544
 30
0.0
 40
1.8
 41
0.0
 71
     5
 72
     1
  1
Angenent
  7
CONVERTER_11
 73
     1
 44
1.32052821128451
  0
MTEXT
  5
300
330
71
100
AcDbEntity
  8
1
 62
     2
100
AcDbMText
 10
212.9811338575014
 20
717.1343427547544
 30
0.0
 40
1.8
 41
0.0
 71
     1
 72
     1
  1
document-type
  7
CONVERTER_11
 73
     1
 44
1.20048019207683
  0
MTEXT
  5
301
330
71
100
AcDbEntity
  8
1
 62
     2
100
AcDbMText
 10
180.2811338575015
 20
727.8343427547544
 30
0.0
 40
1.8
 41
0.0
 71
     8
 72
     1
  1
00
  7
CONVERTER_11
 73
     1
 44
1.20048019207683
  0
MTEXT
  5
302
330
71
100
AcDbEntity
  8
1
 62
     2
100
AcDbMText
 10
212.9811338575014
 20
708.6343427547544
 30
0.0
 40
1.8
 41
0.0
 71
     1
 72
     1
  1
description
  7
CONVERTER_11
 73
     1
 44
1.20048019207683
  0
TEXT
  5
303
330
71
100
AcDbEntity
  8
1
 62
     2
100
AcDbText
 10
200.0164426673151
 20
702.3843427547544
 30
0.0
 40
1.8
  1
1
 41
0.9
  7
CONVERTER_11
100
AcDbText
  0
TEXT
  5
304
330
71
100
AcDbEntity
  8
1
 62
     2
100
AcDbText
 10
185.2273988278436
 20
702.3350941009525
 30
0.0
 40
1.8
  1
 
 41
0.9
  7
CONVERTER_11
100
AcDbText
  0
MTEXT
  5
305
330
71
100
AcDbEntity
  8
1
 62
     2
100
AcDbMText
 10
213.0811338575014
 20
729.8843427547544
 30
0.0
 40
1.8
 41
0.0
 71
     1
 72
     1
  1
ident.-No. / RI
  7
CONVERTER_11
 73
     1
 44
1.20048019207683
  0
MTEXT
  5
306
330
71
100
AcDbEntity
  8
1
 62
     3
100
AcDbMText
 10
201.7811338575014
 20
716.0093427547545
 30
0.0
 40
2.5
 41
0.0
 71
     5
 72
     1
  1
DIN A3
  7
CONVERTER_11
 73
     1
 44
1.20048019207683
  0
MTEXT
  5
307
330
71
100
AcDbEntity
  8
1
 62
     2
100
AcDbMText
 10
180.2811338575015
 20
720.2593427547544
 30
0.0
 40
1.8
 41
0.0
 71
     5
 72
     1
  1
check.
  7
CONVERTER_11
 73
     1
 44
1.20048019207683
  0
MTEXT
  5
308
330
71
100
AcDbEntity
  8
1
 62
     2
100
AcDbMText
 10
180.2811338575015
 20
724.5093427547544
 30
0.0
 40
1.8
 41
0.0
 71
     5
 72
     1
  1
creat.
  7
CONVERTER_11
 73
     1
 44
1.20048019207683
  0
MTEXT
  5
309
330
71
100
AcDbEntity
  8
1
 62
     2
100
AcDbMText
 10
279.4259383842533
 20
729.8843427547544
 30
0.0
 40
1.8
 41
0.0
 71
     1
 72
     1
  1
scale
  7
CONVERTER_11
 73
     1
 44
1.20048019207683
  0
MTEXT
  5
30A
330
71
100
AcDbEntity
  8
1
 62
     2
100
AcDbMText
 10
103.9535361208764
 20
702.3843427547544
 30
0.0
 40
1.8
 41
0.0
 71
     8
 72
     1
  1
revision
  7
CONVERTER_11
 73
     1
 44
1.32052821128451
  0
MTEXT
  5
30B
330
71
100
AcDbEntity
  8
1
 62
     2
100
AcDbMText
 10
205.2311338575014
 20
727.8343427547544
 30
0.0
 40
1.8
 41
0.0
 71
     8
 72
     1
  1
name
  7
CONVERTER_11
 73
     1
 44
1.32052821128451
  0
MTEXT
  5
30C
330
71
100
AcDbEntity
  8
1
 62
     2
100
AcDbMText
 10
191.7311338575014
 20
727.8343427547544
 30
0.0
 40
1.8
 41
0.0
 71
     8
 72
     1
  1
date
  7
CONVERTER_11
 73
     1
 44
1.32052821128451
  0
MTEXT
  5
30D
330
71
100
AcDbEntity
  8
1
 62
     2
100
AcDbMText
 10
56.22593838425229
 20
702.3843427547544
 30
0.0
 40
1.8
 41
0.0
 71
     8
 72
     1
  1
RI
  7
CONVERTER_11
 73
     1
 44
1.32052821128451
  0
MTEXT
  5
30E
330
71
100
AcDbEntity
  8
1
 62
     2
100
AcDbMText
 10
236.1063230150929
 20
729.8843427547541
 30
0.0
 40
1.8
 41
0.0
 71
     1
 72
     1
  1
material
  7
CONVERTER_11
 73
     1
 44
1.20048019207683
  0
MTEXT
  5
30F
330
71
100
AcDbEntity
  8
1
 62
     2
100
AcDbMText
 10
66.07593838425129
 20
702.3843427547544
 30
0.0
 40
1.8
 41
0.0
 71
     8
 72
     1
  1
date
  7
CONVERTER_11
 73
     1
 44
1.32052821128451
  0
MTEXT
  5
310
330
71
100
AcDbEntity
  8
1
 62
     2
100
AcDbMText
 10
141.8311338575015
 20
702.3843427547544
 30
0.0
 40
1.8
 41
0.0
 71
     8
 72
     1
  1
name
  7
CONVERTER_11
 73
     1
 44
1.32052821128451
  0
MTEXT
  5
311
330
71
100
AcDbEntity
  8
1
 62
     2
100
AcDbMText
 10
155.3311338575015
 20
702.3843427547544
 30
0.0
 40
1.8
 41
0.0
 71
     8
 72
     1
  1
check.on
  7
CONVERTER_11
 73
     1
 44
1.32052821128451
  0
MTEXT
  5
312
330
71
100
AcDbEntity
  8
1
 62
     2
100
AcDbMText
 10
168.8311338575014
 20
702.3843427547544
 30
0.0
 40
1.8
 41
0.0
 71
     8
 72
     1
  1
name
  7
CONVERTER_11
 73
     1
 44
1.32052821128451
  0
TEXT
  5
313
330
71
100
AcDbEntity
  8
1
 62
     2
100
AcDbText
 10
176.5811338575015
 20
702.3753255397627
 30
0.0
 40
1.8
  1
page
 41
0.9
  7
CONVERTER_11
100
AcDbText
  0
TEXT
  5
314
330
71
100
AcDbEntity
  8
1
 62
     2
100
AcDbText
 10
194.7811338575014
 20
702.3753255397628
 30
0.0
 40
1.8
  1
of
 41
0.9
  7
CONVERTER_11
100
AcDbText
  0
MTEXT
  5
316
330
71
100
AcDbEntity
  8
1
 62
     2
100
AcDbMText
 10
242.6259383842555
 20
717.1343427547544
 30
0.0
 40
1.8
 41
0.0
 71
     1
 72
     1
  1
document-No.
  7
CONVERTER_17
 73
     1
 44
1.32052821128451
  0
MTEXT
  5
317
330
71
100
AcDbEntity
  8
1
 62
     2
100
AcDbMText
 10
288.5443466659322
 20
729.8843427547544
 30
0.0
 40
1.8
 41
0.0
 71
     1
 72
     1
  1
dim.var.
  7
CONVERTER_11
 73
     1
 44
1.20048019207683
  0
MTEXT
  5
318
330
71
100
AcDbEntity
  8
1
 62
     2
100
AcDbMText
 10
261.1259383842551
 20
717.1343427547544
 30
0.0
 40
1.8
 41
0.0
 71
     1
 72
     1
  1
surface in um
  7
CONVERTER_11
 73
     1
 44
1.32052821128451
  0
MTEXT
  5
319
330
71
100
AcDbEntity
  8
1
 62
     2
100
AcDbMText
 10
56.22593838425229
 20
728.7593427547544
 30
0.0
 40
2.0
 41
0.0
 71
     5
 72
     1
  1
 
  7
CONVERTER_11
 73
     1
 44
1.20048019207683
  0
MTEXT
  5
31A
330
71
100
AcDbEntity
  8
1
 62
     2
100
AcDbMText
 10
56.22593838425229
 20
724.5093427547544
 30
0.0
 40
2.0
 41
0.0
 71
     5
 72
     1
  1
 
  7
CONVERTER_11
 73
     1
 44
1.20048019207683
  0
MTEXT
  5
31B
330
71
100
AcDbEntity
  8
1
 62
     2
100
AcDbMText
 10
56.22593838425229
 20
720.2593427547544
 30
0.0
 40
2.0
 41
0.0
 71
     5
 72
     1
  1
 
  7
CONVERTER_11
 73
     1
 44
1.20048019207683
  0
MTEXT
  5
31C
330
71
100
AcDbEntity
  8
1
 62
     2
100
AcDbMText
 10
56.22593838425229
 20
716.0093427547544
 30
0.0
 40
2.0
 41
0.0
 71
     5
 72
     1
  1
 
  7
CONVERTER_11
 73
     1
 44
1.20048019207683
  0
MTEXT
  5
31D
330
71
100
AcDbEntity
  8
1
 62
     2
100
AcDbMText
 10
56.22593838425229
 20
711.7593427547544
 30
0.0
 40
2.0
 41
0.0
 71
     5
 72
     1
  1
 
  7
CONVERTER_11
 73
     1
 44
1.20048019207683
  0
MTEXT
  5
31E
330
71
100
AcDbEntity
  8
1
 62
     2
100
AcDbMText
 10
56.22593838425229
 20
707.5093427547545
 30
0.0
 40
2.0
 41
0.0
 71
     5
 72
     1
  1
 
  7
CONVERTER_11
 73
     1
 44
1.20048019207683
  0
MTEXT
  5
31F
330
71
100
AcDbEntity
  8
1
 62
     2
100
AcDbMText
 10
66.07593838425129
 20
707.5093427547545
 30
0.0
 40
2.0
 41
0.0
 71
     5
 72
     1
  1
 
  7
CONVERTER_11
 73
     1
 44
1.20048019207683
  0
MTEXT
  5
320
330
71
100
AcDbEntity
  8
1
 62
     2
100
AcDbMText
 10
66.07593838425129
 20
711.7593427547544
 30
0.0
 40
2.0
 41
0.0
 71
     5
 72
     1
  1
 
  7
CONVERTER_11
 73
     1
 44
1.20048019207683
  0
MTEXT
  5
321
330
71
100
AcDbEntity
  8
1
 62
     2
100
AcDbMText
 10
66.07593838425129
 20
716.0093427547544
 30
0.0
 40
2.0
 41
0.0
 71
     5
 72
     1
  1
 
  7
CONVERTER_11
 73
     1
 44
1.20048019207683
  0
MTEXT
  5
322
330
71
100
AcDbEntity
  8
1
 62
     2
100
AcDbMText
 10
66.07593838425129
 20
720.2593427547544
 30
0.0
 40
2.0
 41
0.0
 71
     5
 72
     1
  1
 
  7
CONVERTER_11
 73
     1
 44
1.20048019207683
  0
MTEXT
  5
323
330
71
100
AcDbEntity
  8
1
 62
     2
100
AcDbMText
 10
66.07593838425129
 20
724.5093427547544
 30
0.0
 40
2.0
 41
0.0
 71
     5
 72
     1
  1
 
  7
CONVERTER_11
 73
     1
 44
1.20048019207683
  0
MTEXT
  5
324
330
71
100
AcDbEntity
  8
1
 62
     2
100
AcDbMText
 10
66.07593838425129
 20
728.7593427547544
 30
0.0
 40
2.0
 41
0.0
 71
     5
 72
     1
  1
 
  7
CONVERTER_11
 73
     1
 44
1.20048019207683
  0
MTEXT
  5
325
330
71
100
AcDbEntity
  8
1
 62
     2
100
AcDbMText
 10
141.8311338575015
 20
707.5093427547545
 30
0.0
 40
2.0
 41
0.0
 71
     5
 72
     1
  1
 
  7
CONVERTER_11
 73
     1
 44
1.20048019207683
  0
MTEXT
  5
326
330
71
100
AcDbEntity
  8
1
 62
     2
100
AcDbMText
 10
141.8311338575015
 20
711.7593427547544
 30
0.0
 40
2.0
 41
0.0
 71
     5
 72
     1
  1
 
  7
CONVERTER_11
 73
     1
 44
1.20048019207683
  0
MTEXT
  5
327
330
71
100
AcDbEntity
  8
1
 62
     2
100
AcDbMText
 10
141.8311338575015
 20
716.0093427547544
 30
0.0
 40
2.0
 41
0.0
 71
     5
 72
     1
  1
 
  7
CONVERTER_11
 73
     1
 44
1.20048019207683
  0
MTEXT
  5
328
330
71
100
AcDbEntity
  8
1
 62
     2
100
AcDbMText
 10
141.8311338575015
 20
720.2593427547544
 30
0.0
 40
2.0
 41
0.0
 71
     5
 72
     1
  1
 
  7
CONVERTER_11
 73
     1
 44
1.20048019207683
  0
MTEXT
  5
329
330
71
100
AcDbEntity
  8
1
 62
     2
100
AcDbMText
 10
141.8311338575015
 20
724.5093427547544
 30
0.0
 40
2.0
 41
0.0
 71
     5
 72
     1
  1
 
  7
CONVERTER_11
 73
     1
 44
1.20048019207683
  0
MTEXT
  5
32A
330
71
100
AcDbEntity
  8
1
 62
     2
100
AcDbMText
 10
141.8311338575015
 20
728.7593427547544
 30
0.0
 40
2.0
 41
0.0
 71
     5
 72
     1
  1
 
  7
CONVERTER_11
 73
     1
 44
1.20048019207683
  0
MTEXT
  5
32B
330
71
100
AcDbEntity
  8
1
 62
     2
100
AcDbMText
 10
155.3311338575015
 20
728.7593427547544
 30
0.0
 40
2.0
 41
0.0
 71
     5
 72
     1
  1
 
  7
CONVERTER_11
 73
     1
 44
1.20048019207683
  0
MTEXT
  5
32C
330
71
100
AcDbEntity
  8
1
 62
     2
100
AcDbMText
 10
155.3311338575015
 20
724.5093427547544
 30
0.0
 40
2.0
 41
0.0
 71
     5
 72
     1
  1
 
  7
CONVERTER_11
 73
     1
 44
1.20048019207683
  0
MTEXT
  5
32D
330
71
100
AcDbEntity
  8
1
 62
     2
100
AcDbMText
 10
155.3311338575015
 20
720.2593427547544
 30
0.0
 40
2.0
 41
0.0
 71
     5
 72
     1
  1
 
  7
CONVERTER_11
 73
     1
 44
1.20048019207683
  0
MTEXT
  5
32E
330
71
100
AcDbEntity
  8
1
 62
     2
100
AcDbMText
 10
155.3311338575015
 20
716.0093427547544
 30
0.0
 40
2.0
 41
0.0
 71
     5
 72
     1
  1
 
  7
CONVERTER_11
 73
     1
 44
1.20048019207683
  0
MTEXT
  5
32F
330
71
100
AcDbEntity
  8
1
 62
     2
100
AcDbMText
 10
155.3311338575015
 20
711.7593427547544
 30
0.0
 40
2.0
 41
0.0
 71
     5
 72
     1
  1
 
  7
CONVERTER_11
 73
     1
 44
1.20048019207683
  0
MTEXT
  5
330
330
71
100
AcDbEntity
  8
1
 62
     2
100
AcDbMText
 10
155.3311338575014
 20
707.5093427547545
 30
0.0
 40
2.0
 41
0.0
 71
     5
 72
     1
  1
 
  7
CONVERTER_11
 73
     1
 44
1.20048019207683
  0
MTEXT
  5
331
330
71
100
AcDbEntity
  8
1
 62
     2
100
AcDbMText
 10
168.8311338575014
 20
728.7593427547544
 30
0.0
 40
2.0
 41
0.0
 71
     5
 72
     1
  1
 
  7
CONVERTER_11
 73
     1
 44
1.20048019207683
  0
MTEXT
  5
332
330
71
100
AcDbEntity
  8
1
 62
     2
100
AcDbMText
 10
168.8311338575014
 20
724.5093427547544
 30
0.0
 40
2.0
 41
0.0
 71
     5
 72
     1
  1
 
  7
CONVERTER_11
 73
     1
 44
1.20048019207683
  0
MTEXT
  5
333
330
71
100
AcDbEntity
  8
1
 62
     2
100
AcDbMText
 10
168.8311338575014
 20
720.2593427547544
 30
0.0
 40
2.0
 41
0.0
 71
     5
 72
     1
  1
 
  7
CONVERTER_11
 73
     1
 44
1.20048019207683
  0
MTEXT
  5
334
330
71
100
AcDbEntity
  8
1
 62
     2
100
AcDbMText
 10
168.8311338575014
 20
716.0093427547544
 30
0.0
 40
2.0
 41
0.0
 71
     5
 72
     1
  1
 
  7
CONVERTER_11
 73
     1
 44
1.20048019207683
  0
MTEXT
  5
335
330
71
100
AcDbEntity
  8
1
 62
     2
100
AcDbMText
 10
168.8311338575014
 20
711.7593427547544
 30
0.0
 40
2.0
 41
0.0
 71
     5
 72
     1
  1
 
  7
CONVERTER_11
 73
     1
 44
1.20048019207683
  0
MTEXT
  5
336
330
71
100
AcDbEntity
  8
1
 62
     2
100
AcDbMText
 10
168.8311338575014
 20
707.5093427547545
 30
0.0
 40
2.0
 41
0.0
 71
     5
 72
     1
  1
 
  7
CONVERTER_11
 73
     1
 44
1.20048019207683
  0
MTEXT
  5
338
330
71
100
AcDbEntity
  8
1
 62
     2
100
AcDbMText
 10
73.82593838425129
 20
728.7593427547544
 30
0.0
 40
2.0
 41
0.0
 71
     4
 72
     1
  1
 
  7
CONVERTER_18
 73
     1
 44
1.20048019207683
  0
MTEXT
  5
339
330
71
100
AcDbEntity
  8
1
 62
     2
100
AcDbMText
 10
73.82593838425129
 20
724.5093427547544
 30
0.0
 40
2.0
 41
0.0
 71
     4
 72
     1
  1
 
  7
CONVERTER_18
 73
     1
 44
1.20048019207683
  0
MTEXT
  5
33A
330
71
100
AcDbEntity
  8
1
 62
     2
100
AcDbMText
 10
73.82593838425129
 20
720.2593427547544
 30
0.0
 40
2.0
 41
0.0
 71
     4
 72
     1
  1
 
  7
CONVERTER_18
 73
     1
 44
1.20048019207683
  0
MTEXT
  5
33B
330
71
100
AcDbEntity
  8
1
 62
     2
100
AcDbMText
 10
73.82593838425129
 20
716.0093427547544
 30
0.0
 40
2.0
 41
0.0
 71
     4
 72
     1
  1
 
  7
CONVERTER_18
 73
     1
 44
1.20048019207683
  0
MTEXT
  5
33C
330
71
100
AcDbEntity
  8
1
 62
     2
100
AcDbMText
 10
73.82593838425129
 20
711.7593427547544
 30
0.0
 40
2.0
 41
0.0
 71
     4
 72
     1
  1
 
  7
CONVERTER_18
 73
     1
 44
1.20048019207683
  0
MTEXT
  5
33D
330
71
100
AcDbEntity
  8
1
 62
     2
100
AcDbMText
 10
73.82593838425129
 20
707.5093427547545
 30
0.0
 40
2.0
 41
0.0
 71
     4
 72
     1
  1
 
  7
CONVERTER_18
 73
     1
 44
1.20048019207683
  0
HATCH
  5
33E
330
71
100
AcDbEntity
  8
1
  6
Continuous
 62
     2
100
AcDbHatch
 10
0.0
 20
0.0
 30
0.0
210
0.0
220
0.0
230
1.0
  2
_USER
 70
     0
 71
     1
 91
        1
 92
        1
 93
       12
 72
     1
 10
193.3410518020975
 20
709.7605332309374
 11
192.3552727093979
 21
709.7605332309374
 72
     1
 10
192.3552727093979
 20
709.7605332309374
 11
192.3552727093979
 21
710.697948196924
 72
     1
 10
192.3552727093979
 20
710.697948196924
 11
191.4877871078215
 21
710.697948196924
 72
     1
 10
191.4877871078215
 20
710.697948196924
 11
191.4877871078215
 21
709.7605332309374
 72
     1
 10
191.4877871078215
 20
709.7605332309374
 11
190.5020080151219
 21
709.7605332309374
 72
     1
 10
190.5020080151219
 20
709.7605332309374
 11
190.5020080151219
 21
712.2843427547483
 72
     1
 10
190.5020080151219
 20
712.2843427547483
 11
191.4877871078215
 21
712.2843427547483
 72
     1
 10
191.4877871078215
 20
712.2843427547483
 11
191.4877871078215
 21
711.401009421414
 72
     1
 10
191.4877871078215
 20
711.401009421414
 11
192.3552727093979
 21
711.401009421414
 72
     1
 10
192.3552727093979
 20
711.401009421414
 11
192.3552727093979
 21
712.2843427547483
 72
     1
 10
192.3552727093979
 20
712.2843427547483
 11
193.3410518020975
 21
712.2843427547483
 72
     1
 10
193.3410518020975
 20
712.2843427547483
 11
193.3410518020975
 21
709.7605332309374
 97
       12
330
272
330
273
330
25D
330
25C
330
25B
330
26F
330
25A
330
270
330
271
330
259
330
258
330
257
 75
     1
 76
     0
 52
45.0
 41
0.1
 77
     0
 78
     1
 53
45.0
 43
0.0
 44
0.0
 45
-0.0707106781186548
 46
0.0707106781186548
 79
     0
 98
        1
 10
0.0
 20
0.0
  0
HATCH
  5
33F
330
71
100
AcDbEntity
  8
1
  6
Continuous
 62
     2
100
AcDbHatch
 10
0.0
 20
0.0
 30
0.0
210
0.0
220
0.0
230
1.0
  2
_USER
 70
     0
 71
     1
 91
        1
 92
        1
 93
       12
 72
     1
 10
193.3410518020975
 20
709.7605332309374
 11
192.3552727093979
 21
709.7605332309374
 72
     1
 10
192.3552727093979
 20
709.7605332309374
 11
192.3552727093979
 21
710.697948196924
 72
     1
 10
192.3552727093979
 20
710.697948196924
 11
191.4877871078215
 21
710.697948196924
 72
     1
 10
191.4877871078215
 20
710.697948196924
 11
191.4877871078215
 21
709.7605332309374
 72
     1
 10
191.4877871078215
 20
709.7605332309374
 11
190.5020080151219
 21
709.7605332309374
 72
     1
 10
190.5020080151219
 20
709.7605332309374
 11
190.5020080151219
 21
712.2843427547483
 72
     1
 10
190.5020080151219
 20
712.2843427547483
 11
191.4877871078215
 21
712.2843427547483
 72
     1
 10
191.4877871078215
 20
712.2843427547483
 11
191.4877871078215
 21
711.401009421414
 72
     1
 10
191.4877871078215
 20
711.401009421414
 11
192.3552727093979
 21
711.401009421414
 72
     1
 10
192.3552727093979
 20
711.401009421414
 11
192.3552727093979
 21
712.2843427547483
 72
     1
 10
192.3552727093979
 20
712.2843427547483
 11
193.3410518020975
 21
712.2843427547483
 72
     1
 10
193.3410518020975
 20
712.2843427547483
 11
193.3410518020975
 21
709.7605332309374
 97
       12
330
272
330
273
330
25D
330
25C
330
25B
330
26F
330
25A
330
270
330
271
330
259
330
258
330
257
 75
     1
 76
     0
 52
45.0
 41
0.1
 77
     0
 78
     1
 53
45.0
 43
0.0
 44
0.0
 45
-0.0707106781186548
 46
0.0707106781186548
 79
     0
 98
        1
 10
0.0
 20
0.0
  0
HATCH
  5
340
330
71
100
AcDbEntity
  8
1
  6
Continuous
 62
     2
100
AcDbHatch
 10
0.0
 20
0.0
 30
0.0
210
0.0
220
0.0
230
1.0
  2
_USER
 70
     0
 71
     1
 91
        1
 92
        1
 93
       10
 72
     1
 10
195.1941917601043
 20
708.4265196255091
 11
194.168981503697
 21
709.5081522785712
 72
     1
 10
194.168981503697
 20
709.5081522785712
 11
193.1832024109965
 21
709.5081522785712
 72
     1
 10
193.1832024109965
 20
709.5081522785712
 11
193.1832024109965
 21
706.9843427547603
 72
     1
 10
193.1832024109965
 20
706.9843427547603
 11
194.168981503697
 21
706.9843427547603
 72
     1
 10
194.168981503697
 20
706.9843427547603
 11
194.168981503697
 21
708.065975407822
 72
     1
 10
194.168981503697
 20
708.065975407822
 11
195.1941917601043
 21
706.9843427547603
 72
     1
 10
195.1941917601043
 20
706.9843427547603
 11
196.1799708528039
 21
706.9843427547603
 72
     1
 10
196.1799708528039
 20
706.9843427547603
 11
196.1799708528039
 21
709.5081522785712
 72
     1
 10
196.1799708528039
 20
709.5081522785712
 11
195.1941917601043
 21
709.5081522785712
 72
     1
 10
195.1941917601043
 20
709.5081522785712
 11
195.1941917601043
 21
708.4265196255091
 97
       10
330
280
330
250
330
24F
330
252
330
27B
330
27C
330
251
330
27D
330
27E
330
27F
 75
     1
 76
     0
 52
45.0
 41
0.1
 77
     0
 78
     1
 53
45.0
 43
0.0
 44
0.0
 45
-0.0707106781186548
 46
0.0707106781186548
 79
     0
 98
        1
 10
0.0
 20
0.0
  0
HATCH
  5
341
330
71
100
AcDbEntity
  8
1
  6
Continuous
 62
     2
100
AcDbHatch
 10
0.0
 20
0.0
 30
0.0
210
0.0
220
0.0
230
1.0
  2
_USER
 70
     0
 71
     1
 91
        1
 92
        1
 93
       10
 72
     1
 10
195.1941917601043
 20
708.4265196255091
 11
194.168981503697
 21
709.5081522785712
 72
     1
 10
194.168981503697
 20
709.5081522785712
 11
193.1832024109965
 21
709.5081522785712
 72
     1
 10
193.1832024109965
 20
709.5081522785712
 11
193.1832024109965
 21
706.9843427547603
 72
     1
 10
193.1832024109965
 20
706.9843427547603
 11
194.168981503697
 21
706.9843427547603
 72
     1
 10
194.168981503697
 20
706.9843427547603
 11
194.168981503697
 21
708.065975407822
 72
     1
 10
194.168981503697
 20
708.065975407822
 11
195.1941917601043
 21
706.9843427547603
 72
     1
 10
195.1941917601043
 20
706.9843427547603
 11
196.1799708528039
 21
706.9843427547603
 72
     1
 10
196.1799708528039
 20
706.9843427547603
 11
196.1799708528039
 21
709.5081522785712
 72
     1
 10
196.1799708528039
 20
709.5081522785712
 11
195.1941917601043
 21
709.5081522785712
 72
     1
 10
195.1941917601043
 20
709.5081522785712
 11
195.1941917601043
 21
708.4265196255091
 97
       10
330
280
330
250
330
24F
330
252
330
27B
330
27C
330
251
330
27D
330
27E
330
27F
 75
     1
 76
     0
 52
45.0
 41
0.1
 77
     0
 78
     1
 53
45.0
 43
0.0
 44
0.0
 45
-0.0707106781186548
 46
0.0707106781186548
 79
     0
 98
        1
 10
0.0
 20
0.0
  0
HATCH
  5
342
330
71
100
AcDbEntity
  8
1
  6
Continuous
 62
     2
100
AcDbHatch
 10
0.0
 20
0.0
 30
0.0
210
0.0
220
0.0
230
1.0
  2
_USER
 70
     0
 71
     1
 91
        1
 92
        1
 93
       10
 72
     1
 10
199.5317445042529
 20
711.2027101016862
 11
198.5065342478446
 21
712.2843427547483
 72
     1
 10
198.5065342478446
 20
712.2843427547483
 11
197.520755155145
 21
712.2843427547483
 72
     1
 10
197.520755155145
 20
712.2843427547483
 11
197.520755155145
 21
709.7605332309374
 72
     1
 10
197.520755155145
 20
709.7605332309374
 11
198.5065342478446
 21
709.7605332309374
 72
     1
 10
198.5065342478446
 20
709.7605332309374
 11
198.5065342478446
 21
710.8421658839991
 72
     1
 10
198.5065342478446
 20
710.8421658839991
 11
199.5317445042529
 21
709.7605332309374
 72
     1
 10
199.5317445042529
 20
709.7605332309374
 11
200.5175235969525
 21
709.7605332309374
 72
     1
 10
200.5175235969525
 20
709.7605332309374
 11
200.5175235969525
 21
712.2843427547483
 72
     1
 10
200.5175235969525
 20
712.2843427547483
 11
199.5317445042529
 21
712.2843427547483
 72
     1
 10
199.5317445042529
 20
712.2843427547483
 11
199.5317445042529
 21
711.2027101016862
 97
       10
330
285
330
24D
330
24C
330
286
330
24B
330
281
330
282
330
283
330
284
330
24E
 75
     1
 76
     0
 52
45.0
 41
0.1
 77
     0
 78
     1
 53
45.0
 43
0.0
 44
0.0
 45
-0.0707106781186548
 46
0.0707106781186548
 79
     0
 98
        1
 10
0.0
 20
0.0
  0
HATCH
  5
343
330
71
100
AcDbEntity
  8
1
  6
Continuous
 62
     2
100
AcDbHatch
 10
0.0
 20
0.0
 30
0.0
210
0.0
220
0.0
230
1.0
  2
_USER
 70
     0
 71
     1
 91
        1
 92
        1
 93
       10
 72
     1
 10
199.5317445042529
 20
711.2027101016862
 11
198.5065342478446
 21
712.2843427547483
 72
     1
 10
198.5065342478446
 20
712.2843427547483
 11
197.520755155145
 21
712.2843427547483
 72
     1
 10
197.520755155145
 20
712.2843427547483
 11
197.520755155145
 21
709.7605332309374
 72
     1
 10
197.520755155145
 20
709.7605332309374
 11
198.5065342478446
 21
709.7605332309374
 72
     1
 10
198.5065342478446
 20
709.7605332309374
 11
198.5065342478446
 21
710.8421658839991
 72
     1
 10
198.5065342478446
 20
710.8421658839991
 11
199.5317445042529
 21
709.7605332309374
 72
     1
 10
199.5317445042529
 20
709.7605332309374
 11
200.5175235969525
 21
709.7605332309374
 72
     1
 10
200.5175235969525
 20
709.7605332309374
 11
200.5175235969525
 21
712.2843427547483
 72
     1
 10
200.5175235969525
 20
712.2843427547483
 11
199.5317445042529
 21
712.2843427547483
 72
     1
 10
199.5317445042529
 20
712.2843427547483
 11
199.5317445042529
 21
711.2027101016862
 97
       10
330
285
330
24D
330
24C
330
286
330
24B
330
281
330
282
330
283
330
284
330
24E
 75
     1
 76
     0
 52
45.0
 41
0.1
 77
     0
 78
     1
 53
45.0
 43
0.0
 44
0.0
 45
-0.0707106781186548
 46
0.0707106781186548
 79
     0
 98
        1
 10
0.0
 20
0.0
  0
HATCH
  5
344
330
71
100
AcDbEntity
  8
1
  6
Continuous
 62
     2
100
AcDbHatch
 10
0.0
 20
0.0
 30
0.0
210
0.0
220
0.0
230
1.0
  2
_USER
 70
     0
 71
     1
 91
        1
 92
        1
 93
        8
 72
     1
 10
198.6247030026996
 20
709.5081522785712
 11
196.2982643439279
 21
709.5081522785712
 72
     1
 10
196.2982643439279
 20
709.5081522785712
 11
196.2982643439279
 21
708.8591726867335
 72
     1
 10
196.2982643439279
 20
708.8591726867335
 11
196.9685941269648
 21
708.8591726867335
 72
     1
 10
196.9685941269648
 20
708.8591726867335
 11
196.9685941269648
 21
706.9843427547603
 72
     1
 10
196.9685941269648
 20
706.9843427547603
 11
197.9543732196644
 21
706.9843427547603
 72
     1
 10
197.9543732196644
 20
706.9843427547603
 11
197.9543732196644
 21
708.8591726867335
 72
     1
 10
197.9543732196644
 20
708.8591726867335
 11
198.6247030026996
 21
708.8591726867335
 72
     1
 10
198.6247030026996
 20
708.8591726867335
 11
198.6247030026996
 21
709.5081522785712
 97
        8
330
247
330
287
330
246
330
288
330
289
330
24A
330
249
330
248
 75
     1
 76
     0
 52
45.0
 41
0.1
 77
     0
 78
     1
 53
45.0
 43
0.0
 44
0.0
 45
-0.0707106781186548
 46
0.0707106781186548
 79
     0
 98
        1
 10
0.0
 20
0.0
  0
HATCH
  5
345
330
71
100
AcDbEntity
  8
1
  6
Continuous
 62
     2
100
AcDbHatch
 10
0.0
 20
0.0
 30
0.0
210
0.0
220
0.0
230
1.0
  2
_USER
 70
     0
 71
     1
 91
        1
 92
        1
 93
        8
 72
     1
 10
198.6247030026996
 20
709.5081522785712
 11
196.2982643439279
 21
709.5081522785712
 72
     1
 10
196.2982643439279
 20
709.5081522785712
 11
196.2982643439279
 21
708.8591726867335
 72
     1
 10
196.2982643439279
 20
708.8591726867335
 11
196.9685941269648
 21
708.8591726867335
 72
     1
 10
196.9685941269648
 20
708.8591726867335
 11
196.9685941269648
 21
706.9843427547603
 72
     1
 10
196.9685941269648
 20
706.9843427547603
 11
197.9543732196644
 21
706.9843427547603
 72
     1
 10
197.9543732196644
 20
706.9843427547603
 11
197.9543732196644
 21
708.8591726867335
 72
     1
 10
197.9543732196644
 20
708.8591726867335
 11
198.6247030026996
 21
708.8591726867335
 72
     1
 10
198.6247030026996
 20
708.8591726867335
 11
198.6247030026996
 21
709.5081522785712
 97
        8
330
247
330
287
330
246
330
288
330
289
330
24A
330
249
330
248
 75
     1
 76
     0
 52
45.0
 41
0.1
 77
     0
 78
     1
 53
45.0
 43
0.0
 44
0.0
 45
-0.0707106781186548
 46
0.0707106781186548
 79
     0
 98
        1
 10
0.0
 20
0.0
  0
HATCH
  5
346
330
71
100
AcDbEntity
  8
1
  6
Continuous
 62
     2
100
AcDbHatch
 10
0.0
 20
0.0
 30
0.0
210
0.0
220
0.0
230
1.0
  2
_USER
 70
     0
 71
     1
 91
        2
 92
        1
 93
        8
 72
     1
 10
200.3919984208376
 20
706.9843427547603
 11
200.2172215171386
 21
707.4314175846924
 72
     1
 10
200.2172215171386
 20
707.4314175846924
 11
199.281319387656
 21
707.4314175846924
 72
     1
 10
199.281319387656
 20
707.4314175846924
 11
199.106542483957
 21
706.9843427547603
 72
     1
 10
199.106542483957
 20
706.9843427547603
 11
198.0813322275496
 21
706.9843427547603
 72
     1
 10
198.0813322275496
 20
706.9843427547603
 11
199.2366653241936
 21
709.5081522785712
 72
     1
 10
199.2366653241936
 20
709.5081522785712
 11
200.2618755806009
 21
709.5081522785712
 72
     1
 10
200.2618755806009
 20
709.5081522785712
 11
201.4172086772458
 21
706.9843427547603
 72
     1
 10
201.4172086772458
 20
706.9843427547603
 11
200.3919984208376
 21
706.9843427547603
 97
        8
330
28B
330
28C
330
243
330
28D
330
242
330
245
330
28A
330
244
 92
       16
 93
        3
 72
     1
 10
199.5012000084371
 20
707.9938665642846
 11
199.7492704523977
 21
708.6284243874142
 72
     1
 10
199.7492704523977
 20
708.6284243874142
 11
199.9973408963565
 21
707.9938665642846
 72
     1
 10
199.9973408963565
 20
707.9938665642846
 11
199.5012000084371
 21
707.9938665642846
 97
        3
330
241
330
28F
330
28E
 75
     1
 76
     0
 52
45.0
 41
0.1
 77
     0
 78
     1
 53
45.0
 43
0.0
 44
0.0
 45
-0.0707106781186548
 46
0.0707106781186548
 79
     0
 98
        1
 10
0.0
 20
0.0
  0
HATCH
  5
347
330
71
100
AcDbEntity
  8
1
  6
Continuous
 62
     2
100
AcDbHatch
 10
0.0
 20
0.0
 30
0.0
210
0.0
220
0.0
230
1.0
  2
_USER
 70
     0
 71
     1
 91
        2
 92
        1
 93
        8
 72
     1
 10
200.3919984208376
 20
706.9843427547603
 11
200.2172215171386
 21
707.4314175846924
 72
     1
 10
200.2172215171386
 20
707.4314175846924
 11
199.281319387656
 21
707.4314175846924
 72
     1
 10
199.281319387656
 20
707.4314175846924
 11
199.106542483957
 21
706.9843427547603
 72
     1
 10
199.106542483957
 20
706.9843427547603
 11
198.0813322275496
 21
706.9843427547603
 72
     1
 10
198.0813322275496
 20
706.9843427547603
 11
199.2366653241936
 21
709.5081522785712
 72
     1
 10
199.2366653241936
 20
709.5081522785712
 11
200.2618755806009
 21
709.5081522785712
 72
     1
 10
200.2618755806009
 20
709.5081522785712
 11
201.4172086772458
 21
706.9843427547603
 72
     1
 10
201.4172086772458
 20
706.9843427547603
 11
200.3919984208376
 21
706.9843427547603
 97
        8
330
28B
330
28C
330
243
330
28D
330
242
330
245
330
28A
330
244
 92
       16
 93
        3
 72
     1
 10
199.5012000084371
 20
707.9938665642846
 11
199.7492704523977
 21
708.6284243874142
 72
     1
 10
199.7492704523977
 20
708.6284243874142
 11
199.9973408963565
 21
707.9938665642846
 72
     1
 10
199.9973408963565
 20
707.9938665642846
 11
199.5012000084371
 21
707.9938665642846
 97
        3
330
241
330
28F
330
28E
 75
     1
 76
     0
 52
45.0
 41
0.1
 77
     0
 78
     1
 53
45.0
 43
0.0
 44
0.0
 45
-0.0707106781186548
 46
0.0707106781186548
 79
     0
 98
        1
 10
0.0
 20
0.0
  0
HATCH
  5
348
330
71
100
AcDbEntity
  8
1
  6
Continuous
 62
     2
100
AcDbHatch
 10
0.0
 20
0.0
 30
0.0
210
0.0
220
0.0
230
1.0
  2
_USER
 70
     0
 71
     1
 91
        1
 92
        1
 93
        4
 72
     1
 10
201.7398896719003
 20
709.7605332309374
 11
200.7146794154929
 21
709.7605332309374
 72
     1
 10
200.7146794154929
 20
709.7605332309374
 11
200.7146794154929
 21
712.2843427547483
 72
     1
 10
200.7146794154929
 20
712.2843427547483
 11
201.7398896719003
 21
712.2843427547483
 72
     1
 10
201.7398896719003
 20
712.2843427547483
 11
201.7398896719003
 21
709.7605332309374
 97
        4
330
23E
330
240
330
290
330
23F
 75
     1
 76
     0
 52
45.0
 41
0.1
 77
     0
 78
     1
 53
45.0
 43
0.0
 44
0.0
 45
-0.0707106781186548
 46
0.0707106781186548
 79
     0
 98
        1
 10
0.0
 20
0.0
  0
HATCH
  5
349
330
71
100
AcDbEntity
  8
1
  6
Continuous
 62
     2
100
AcDbHatch
 10
0.0
 20
0.0
 30
0.0
210
0.0
220
0.0
230
1.0
  2
_USER
 70
     0
 71
     1
 91
        1
 92
        1
 93
        4
 72
     1
 10
201.7398896719003
 20
709.7605332309374
 11
200.7146794154929
 21
709.7605332309374
 72
     1
 10
200.7146794154929
 20
709.7605332309374
 11
200.7146794154929
 21
712.2843427547483
 72
     1
 10
200.7146794154929
 20
712.2843427547483
 11
201.7398896719003
 21
712.2843427547483
 72
     1
 10
201.7398896719003
 20
712.2843427547483
 11
201.7398896719003
 21
709.7605332309374
 97
        4
330
23E
330
240
330
290
330
23F
 75
     1
 76
     0
 52
45.0
 41
0.1
 77
     0
 78
     1
 53
45.0
 43
0.0
 44
0.0
 45
-0.0707106781186548
 46
0.0707106781186548
 79
     0
 98
        1
 10
0.0
 20
0.0
  0
HATCH
  5
34A
330
71
100
AcDbEntity
  8
1
  6
Continuous
 62
     2
100
AcDbHatch
 10
0.0
 20
0.0
 30
0.0
210
0.0
220
0.0
230
1.0
  2
_USER
 70
     0
 71
     1
 91
        1
 92
        1
 93
       12
 72
     1
 10
205.229547660058
 20
712.2843427547483
 11
204.1530768908294
 21
711.0670282671151
 72
     1
 10
204.1530768908294
 20
711.0670282671151
 11
205.3084099874743
 21
709.7605332309374
 72
     1
 10
205.3084099874743
 20
709.7605332309374
 11
204.1491337744592
 21
709.7605332309374
 72
     1
 10
204.1491337744592
 20
709.7605332309374
 11
203.5734387843224
 21
710.4115512353125
 72
     1
 10
203.5734387843224
 20
710.4115512353125
 11
202.9977437941855
 21
709.7605332309374
 72
     1
 10
202.9977437941855
 20
709.7605332309374
 11
201.8384675811705
 21
709.7605332309374
 72
     1
 10
201.8384675811705
 20
709.7605332309374
 11
202.9938006778153
 21
711.0670282671151
 72
     1
 10
202.9938006778153
 20
711.0670282671151
 11
201.917329908586
 21
712.2843427547483
 72
     1
 10
201.917329908586
 20
712.2843427547483
 11
203.0766061216019
 21
712.2843427547483
 72
     1
 10
203.0766061216019
 20
712.2843427547483
 11
203.5734387843224
 21
711.7225052989173
 72
     1
 10
203.5734387843224
 20
711.7225052989173
 11
204.0702714470438
 21
712.2843427547483
 72
     1
 10
204.0702714470438
 20
712.2843427547483
 11
205.229547660058
 21
712.2843427547483
 97
       12
330
239
330
238
330
237
330
294
330
295
330
291
330
292
330
23D
330
23C
330
23B
330
23A
330
293
 75
     1
 76
     0
 52
45.0
 41
0.1
 77
     0
 78
     1
 53
45.0
 43
0.0
 44
0.0
 45
-0.0707106781186548
 46
0.0707106781186548
 79
     0
 98
        1
 10
0.0
 20
0.0
  0
HATCH
  5
34B
330
71
100
AcDbEntity
  8
1
  6
Continuous
 62
     2
100
AcDbHatch
 10
0.0
 20
0.0
 30
0.0
210
0.0
220
0.0
230
1.0
  2
_USER
 70
     0
 71
     1
 91
        1
 92
        1
 93
       12
 72
     1
 10
205.229547660058
 20
712.2843427547483
 11
204.1530768908294
 21
711.0670282671151
 72
     1
 10
204.1530768908294
 20
711.0670282671151
 11
205.3084099874743
 21
709.7605332309374
 72
     1
 10
205.3084099874743
 20
709.7605332309374
 11
204.1491337744592
 21
709.7605332309374
 72
     1
 10
204.1491337744592
 20
709.7605332309374
 11
203.5734387843224
 21
710.4115512353125
 72
     1
 10
203.5734387843224
 20
710.4115512353125
 11
202.9977437941855
 21
709.7605332309374
 72
     1
 10
202.9977437941855
 20
709.7605332309374
 11
201.8384675811705
 21
709.7605332309374
 72
     1
 10
201.8384675811705
 20
709.7605332309374
 11
202.9938006778153
 21
711.0670282671151
 72
     1
 10
202.9938006778153
 20
711.0670282671151
 11
201.917329908586
 21
712.2843427547483
 72
     1
 10
201.917329908586
 20
712.2843427547483
 11
203.0766061216019
 21
712.2843427547483
 72
     1
 10
203.0766061216019
 20
712.2843427547483
 11
203.5734387843224
 21
711.7225052989173
 72
     1
 10
203.5734387843224
 20
711.7225052989173
 11
204.0702714470438
 21
712.2843427547483
 72
     1
 10
204.0702714470438
 20
712.2843427547483
 11
205.229547660058
 21
712.2843427547483
 97
       12
330
239
330
238
330
237
330
294
330
295
330
291
330
292
330
23D
330
23C
330
23B
330
23A
330
293
 75
     1
 76
     0
 52
45.0
 41
0.1
 77
     0
 78
     1
 53
45.0
 43
0.0
 44
0.0
 45
-0.0707106781186548
 46
0.0707106781186548
 79
     0
 98
        1
 10
0.0
 20
0.0
  0
HATCH
  5
34C
330
71
100
AcDbEntity
  8
1
  6
Continuous
 62
     2
100
AcDbHatch
 10
0.0
 20
0.0
 30
0.0
210
0.0
220
0.0
230
1.0
  2
_USER
 70
     0
 71
     1
 91
        2
 92
        1
 93
        6
 72
     1
 10
189.5124109541522
 20
710.539936736015
 11
188.8853303030941
 21
710.539936736015
 72
     1
 10
188.8853303030941
 20
710.539936736015
 11
188.8853303030941
 21
709.7605332309374
 72
     1
 10
188.8853303030941
 20
709.7605332309374
 11
187.8601200466858
 21
709.7605332309374
 72
     1
 10
187.8601200466858
 20
709.7605332309374
 11
187.8601200466858
 21
712.2843427547483
 72
     1
 10
187.8601200466858
 20
712.2843427547483
 11
189.5124109541522
 21
712.2843427547483
 72
     2
 10
189.5124109541522
 20
711.4121397453816
 40
0.8722030093666717
 50
270.0
 51
450.0
 73
     0
 97
        6
330
261
330
260
330
26D
330
26C
330
262
330
2A7
 92
       16
 93
        4
 72
     2
 10
189.1475576266824
 20
711.4446983992846
 40
0.2916229955960716
 50
270.0
 51
450.0
 73
     1
 72
     1
 10
189.1475576266824
 20
711.7363213948805
 11
188.8853303030941
 21
711.7363213948805
 72
     1
 10
188.8853303030941
 20
711.7363213948805
 11
188.8853303030941
 21
711.1530754036885
 72
     1
 10
188.8853303030941
 20
711.1530754036885
 11
189.1475576266824
 21
711.1530754036885
 97
        4
330
2BB
330
25E
330
26E
330
25F
 75
     1
 76
     0
 52
45.0
 41
0.1
 77
     0
 78
     1
 53
45.0
 43
0.0
 44
0.0
 45
-0.0707106781186548
 46
0.0707106781186548
 79
     0
 98
        1
 10
0.0
 20
0.0
  0
HATCH
  5
34D
330
71
100
AcDbEntity
  8
1
  6
Continuous
 62
     2
100
AcDbHatch
 10
0.0
 20
0.0
 30
0.0
210
0.0
220
0.0
230
1.0
  2
_USER
 70
     0
 71
     1
 91
        2
 92
        1
 93
        6
 72
     1
 10
189.5124109541522
 20
710.539936736015
 11
188.8853303030941
 21
710.539936736015
 72
     1
 10
188.8853303030941
 20
710.539936736015
 11
188.8853303030941
 21
709.7605332309374
 72
     1
 10
188.8853303030941
 20
709.7605332309374
 11
187.8601200466858
 21
709.7605332309374
 72
     1
 10
187.8601200466858
 20
709.7605332309374
 11
187.8601200466858
 21
712.2843427547483
 72
     1
 10
187.8601200466858
 20
712.2843427547483
 11
189.5124109541522
 21
712.2843427547483
 72
     2
 10
189.5124109541522
 20
711.4121397453816
 40
0.8722030093666717
 50
270.0
 51
450.0
 73
     0
 97
        6
330
261
330
260
330
26D
330
26C
330
262
330
2A7
 92
       16
 93
        4
 72
     2
 10
189.1475576266824
 20
711.4446983992846
 40
0.2916229955960716
 50
270.0
 51
450.0
 73
     1
 72
     1
 10
189.1475576266824
 20
711.7363213948805
 11
188.8853303030941
 21
711.7363213948805
 72
     1
 10
188.8853303030941
 20
711.7363213948805
 11
188.8853303030941
 21
711.1530754036885
 72
     1
 10
188.8853303030941
 20
711.1530754036885
 11
189.1475576266824
 21
711.1530754036885
 97
        4
330
2BB
330
25E
330
26E
330
25F
 75
     1
 76
     0
 52
45.0
 41
0.1
 77
     0
 78
     1
 53
45.0
 43
0.0
 44
0.0
 45
-0.0707106781186548
 46
0.0707106781186548
 79
     0
 98
        1
 10
0.0
 20
0.0
  0
HATCH
  5
34E
330
71
100
AcDbEntity
  8
1
  6
Continuous
 62
     2
100
AcDbHatch
 10
0.0
 20
0.0
 30
0.0
210
0.0
220
0.0
230
1.0
  2
_USER
 70
     0
 71
     1
 91
        2
 92
        1
 93
        4
 72
     2
 10
191.62525620073
 20
707.8011442023657
 40
1.707008076205403
 50
62.45185182430821
 51
117.5481481756681
 73
     1
 72
     2
 10
191.3930744719421
 20
708.2462475166656
 40
1.20498684599291
 50
117.548148175664
 51
242.4518518243384
 73
     1
 72
     2
 10
191.62525620073
 20
708.6913508309658
 40
1.707008076205438
 50
242.451851824339
 51
297.5481481756847
 73
     1
 72
     2
 10
191.8574379295178
 20
708.2462475166656
 40
1.204986845993431
 50
297.5481481756999
 51
422.4518518242976
 73
     1
 97
        4
330
2B3
330
2B2
330
2B4
330
2B1
 92
       16
 93
        4
 72
     2
 10
191.4601817905264
 20
708.2462475166656
 40
0.6378510567600058
 50
321.8795802028323
 51
398.1204197971596
 73
     1
 72
     2
 10
191.62525620073
 20
708.3757774159386
 40
0.4280236140605738
 50
38.12041979716286
 51
141.8795802028536
 73
     1
 72
     2
 10
191.7903306109333
 20
708.2462475166656
 40
0.6378510567598462
 50
141.8795802028341
 51
218.120419797174
 73
     1
 72
     2
 10
191.62525620073
 20
708.1167176173929
 40
0.4280236140610111
 50
218.1204197971943
 51
321.8795802027893
 73
     1
 97
        4
330
2CF
330
2CC
330
2CD
330
2CE
 75
     1
 76
     0
 52
45.0
 41
0.1
 77
     0
 78
     1
 53
45.0
 43
0.0
 44
0.0
 45
-0.0707106781186548
 46
0.0707106781186548
 79
     0
 98
        1
 10
0.0
 20
0.0
  0
HATCH
  5
34F
330
71
100
AcDbEntity
  8
1
  6
Continuous
 62
     2
100
AcDbHatch
 10
0.0
 20
0.0
 30
0.0
210
0.0
220
0.0
230
1.0
  2
_USER
 70
     0
 71
     1
 91
        2
 92
        1
 93
        4
 72
     2
 10
191.62525620073
 20
707.8011442023657
 40
1.707008076205403
 50
62.45185182430821
 51
117.5481481756681
 73
     1
 72
     2
 10
191.3930744719421
 20
708.2462475166656
 40
1.20498684599291
 50
117.548148175664
 51
242.4518518243384
 73
     1
 72
     2
 10
191.62525620073
 20
708.6913508309658
 40
1.707008076205438
 50
242.451851824339
 51
297.5481481756847
 73
     1
 72
     2
 10
191.8574379295178
 20
708.2462475166656
 40
1.204986845993431
 50
297.5481481756999
 51
422.4518518242976
 73
     1
 97
        4
330
2B3
330
2B2
330
2B4
330
2B1
 92
       16
 93
        4
 72
     2
 10
191.4601817905264
 20
708.2462475166656
 40
0.6378510567600058
 50
321.8795802028323
 51
398.1204197971596
 73
     1
 72
     2
 10
191.62525620073
 20
708.3757774159386
 40
0.4280236140605738
 50
38.12041979716286
 51
141.8795802028536
 73
     1
 72
     2
 10
191.7903306109333
 20
708.2462475166656
 40
0.6378510567598462
 50
141.8795802028341
 51
218.120419797174
 73
     1
 72
     2
 10
191.62525620073
 20
708.1167176173929
 40
0.4280236140610111
 50
218.1204197971943
 51
321.8795802027893
 73
     1
 97
        4
330
2CF
330
2CC
330
2CD
330
2CE
 75
     1
 76
     0
 52
45.0
 41
0.1
 77
     0
 78
     1
 53
45.0
 43
0.0
 44
0.0
 45
-0.0707106781186548
 46
0.0707106781186548
 79
     0
 98
        1
 10
0.0
 20
0.0
  0
HATCH
  5
350
330
71
100
AcDbEntity
  8
1
  6
Continuous
 62
     2
100
AcDbHatch
 10
0.0
 20
0.0
 30
0.0
210
0.0
220
0.0
230
1.0
  2
_USER
 70
     0
 71
     1
 91
        2
 92
        1
 93
       12
 72
     1
 10
197.3235993366054
 20
711.7074720064484
 11
196.2195267527809
 21
711.7074720064484
 72
     1
 10
196.2195267527809
 20
711.7074720064484
 11
196.2195267527809
 21
711.3108733669924
 72
     1
 10
196.2195267527809
 20
711.3108733669924
 11
197.3235993366054
 21
711.3108733669924
 72
     1
 10
197.3235993366054
 20
711.3108733669924
 11
197.3235993366054
 21
710.7340026186929
 72
     1
 10
197.3235993366054
 20
710.7340026186929
 11
196.2195267527809
 21
710.7340026186929
 72
     1
 10
196.2195267527809
 20
710.7340026186929
 11
196.2195267527809
 21
710.3374039792369
 72
     1
 10
196.2195267527809
 20
710.3374039792369
 11
197.3235993366054
 21
710.3374039792369
 72
     1
 10
197.3235993366054
 20
710.3374039792369
 11
197.3235993366054
 21
709.7605332309374
 72
     1
 10
197.3235993366054
 20
709.7605332309374
 11
194.7200293169517
 21
709.7605332309374
 72
     2
 10
194.7200293169517
 20
711.0224379928427
 40
1.261904761905612
 50
90.0
 51
270.0
 73
     0
 72
     1
 10
194.7200293169517
 20
712.2843427547483
 11
197.3235993366054
 21
712.2843427547483
 72
     1
 10
197.3235993366054
 20
712.2843427547483
 11
197.3235993366054
 21
711.7074720064484
 97
       12
330
275
330
2BC
330
276
330
277
330
278
330
279
330
256
330
255
330
254
330
253
330
27A
330
274
 92
       16
 93
        4
 72
     2
 10
194.8987665154353
 20
711.1519678921157
 40
0.4280236140607304
 50
38.12041979714642
 51
141.8795802028465
 73
     1
 72
     2
 10
195.0638409256388
 20
711.0224379928427
 40
0.6378510567599356
 50
141.8795802028404
 51
218.1204197971676
 73
     1
 72
     2
 10
194.8987665154353
 20
710.8929080935695
 40
0.4280236140606632
 50
218.1204197971535
 51
321.8795802028536
 73
     1
 72
     2
 10
194.7336921052319
 20
711.0224379928427
 40
0.6378510567600058
 50
321.8795802028323
 51
398.1204197971596
 73
     1
 97
        4
330
2B6
330
2B5
330
2B0
330
2AF
 75
     1
 76
     0
 52
45.0
 41
0.1
 77
     0
 78
     1
 53
45.0
 43
0.0
 44
0.0
 45
-0.0707106781186548
 46
0.0707106781186548
 79
     0
 98
        1
 10
0.0
 20
0.0
  0
HATCH
  5
351
330
71
100
AcDbEntity
  8
1
  6
Continuous
 62
     2
100
AcDbHatch
 10
0.0
 20
0.0
 30
0.0
210
0.0
220
0.0
230
1.0
  2
_USER
 70
     0
 71
     1
 91
        2
 92
        1
 93
       12
 72
     1
 10
197.3235993366054
 20
711.7074720064484
 11
196.2195267527809
 21
711.7074720064484
 72
     1
 10
196.2195267527809
 20
711.7074720064484
 11
196.2195267527809
 21
711.3108733669924
 72
     1
 10
196.2195267527809
 20
711.3108733669924
 11
197.3235993366054
 21
711.3108733669924
 72
     1
 10
197.3235993366054
 20
711.3108733669924
 11
197.3235993366054
 21
710.7340026186929
 72
     1
 10
197.3235993366054
 20
710.7340026186929
 11
196.2195267527809
 21
710.7340026186929
 72
     1
 10
196.2195267527809
 20
710.7340026186929
 11
196.2195267527809
 21
710.3374039792369
 72
     1
 10
196.2195267527809
 20
710.3374039792369
 11
197.3235993366054
 21
710.3374039792369
 72
     1
 10
197.3235993366054
 20
710.3374039792369
 11
197.3235993366054
 21
709.7605332309374
 72
     1
 10
197.3235993366054
 20
709.7605332309374
 11
194.7200293169517
 21
709.7605332309374
 72
     2
 10
194.7200293169517
 20
711.0224379928427
 40
1.261904761905612
 50
90.0
 51
270.0
 73
     0
 72
     1
 10
194.7200293169517
 20
712.2843427547483
 11
197.3235993366054
 21
712.2843427547483
 72
     1
 10
197.3235993366054
 20
712.2843427547483
 11
197.3235993366054
 21
711.7074720064484
 97
       12
330
275
330
2BC
330
276
330
277
330
278
330
279
330
256
330
255
330
254
330
253
330
27A
330
274
 92
       16
 93
        4
 72
     2
 10
194.8987665154353
 20
711.1519678921157
 40
0.4280236140607304
 50
38.12041979714642
 51
141.8795802028465
 73
     1
 72
     2
 10
195.0638409256388
 20
711.0224379928427
 40
0.6378510567599356
 50
141.8795802028404
 51
218.1204197971676
 73
     1
 72
     2
 10
194.8987665154353
 20
710.8929080935695
 40
0.4280236140606632
 50
218.1204197971535
 51
321.8795802028536
 73
     1
 72
     2
 10
194.7336921052319
 20
711.0224379928427
 40
0.6378510567600058
 50
321.8795802028323
 51
398.1204197971596
 73
     1
 97
        4
330
2B6
330
2B5
330
2B0
330
2AF
 75
     1
 76
     0
 52
45.0
 41
0.1
 77
     0
 78
     1
 53
45.0
 43
0.0
 44
0.0
 45
-0.0707106781186548
 46
0.0707106781186548
 79
     0
 98
        1
 10
0.0
 20
0.0
  0
HATCH
  5
352
330
71
100
AcDbEntity
  8
1
  6
Continuous
 62
     2
100
AcDbHatch
 10
0.0
 20
0.0
 30
0.0
210
0.0
220
0.0
230
1.0
  2
_USER
 70
     0
 71
     1
 91
        4
 92
        1
 93
        8
 72
     1
 10
187.4658084096058
 20
711.9337273701186
 11
187.4658084096058
 21
707.3349581393746
 72
     2
 10
187.115193024991
 20
707.3349581393746
 40
0.3506153846143434
 50
0.0
 51
90.0
 73
     0
 72
     1
 10
187.115193024991
 20
706.9843427547603
 11
182.5917946029109
 21
706.9843427547603
 72
     2
 10
182.5917946029109
 20
707.3349581393746
 40
0.3506153846139171
 50
90.0
 51
180.0
 73
     0
 72
     1
 10
182.241179218297
 20
707.3349581393746
 11
182.241179218297
 21
711.9337273701186
 72
     2
 10
182.5917946029109
 20
711.9337273701186
 40
0.3506153846146844
 50
180.0
 51
270.0
 73
     0
 72
     1
 10
182.5917946029109
 20
712.2843427547333
 11
187.115193024991
 21
712.2843427547333
 72
     2
 10
187.115193024991
 20
711.9337273701186
 40
0.3506153846148266
 50
270.0
 51
360.0
 73
     0
 97
        8
330
269
330
2AC
330
26A
330
2B7
330
267
330
2AE
330
268
330
2AD
 92
       16
 93
        1
 72
     2
 10
184.7567414215205
 20
710.0172957764363
 40
0.3892387874201972
 50
0.0
 51
360.0
 73
     1
 97
        1
330
2D2
 92
       16
 93
        8
 72
     2
 10
185.2111692833062
 20
709.1006498260492
 40
0.2609230769227745
 50
115.3740086783684
 51
180.0
 73
     1
 72
     1
 10
184.9502462063832
 20
709.1006498260492
 11
184.9502462063832
 21
708.6197808948963
 72
     2
 10
185.2111692833062
 20
708.6197808948963
 40
0.2609230769229782
 50
180.0
 51
269.8110329574465
 73
     1
 72
     2
 10
185.2158107174466
 20
710.0270825044574
 40
1.668232340440728
 50
269.8110329575882
 51
450.1889670424118
 73
     1
 72
     2
 10
185.2111692833062
 20
711.4343841140186
 40
0.2609230769224678
 50
90.18896704255349
 51
180.0
 73
     1
 72
     1
 10
184.9502462063832
 20
711.4343841140186
 11
184.9502462063832
 21
710.9339417268229
 72
     2
 10
185.2111692833062
 20
710.9339417268229
 40
0.2609230769229782
 50
180.0
 51
244.6259913216317
 73
     1
 72
     2
 10
184.7764232518285
 20
710.0172957764363
 40
0.7535935125160714
 50
295.3740086781938
 51
424.625991321821
 73
     0
 97
        8
330
2C4
330
230
330
2C1
330
2C2
330
2A0
330
22F
330
2C3
330
29F
 92
       16
 93
       12
 72
     2
 10
183.0826166498089
 20
707.8341547205732
 40
0.2609230769220972
 50
180.0
 51
270.0
 73
     1
 72
     1
 10
183.0826166498089
 20
707.5732316436504
 11
184.3023135597341
 21
707.5732316436504
 72
     2
 10
184.3023135597341
 20
707.8341547205732
 40
0.2609230769228361
 50
270.0
 51
360.0
 73
     1
 72
     1
 10
184.5632366366569
 20
707.8341547205732
 11
184.5632366366569
 21
709.0992546639878
 72
     2
 10
184.3023135597341
 20
709.0992546639878
 40
0.2609230769228077
 50
0.0
 51
64.80558935144161
 73
     1
 72
     2
 10
184.7342015329366
 20
710.0172957764363
 40
0.753634316989858
 50
115.1944106485115
 51
244.8055893514774
 73
     0
 72
     2
 10
184.3023135597341
 20
710.9353368888844
 40
0.2609230769223558
 50
295.1944106485584
 51
360.0
 73
     1
 72
     1
 10
184.5632366366569
 20
710.9353368888844
 11
184.5632366366569
 21
711.4345307889345
 72
     2
 10
184.3023135597341
 20
711.4345307889345
 40
0.2609230769228077
 50
0.0
 51
90.0
 73
     1
 72
     1
 10
184.3023135597341
 20
711.695453865857
 11
183.0826166498089
 21
711.695453865857
 72
     2
 10
183.0826166498089
 20
711.4345307889345
 40
0.2609230769224951
 50
90.0
 51
180.0
 73
     1
 72
     1
 10
182.8216935728868
 20
711.4345307889345
 11
182.8216935728868
 21
707.8341547205732
 97
       12
330
2A8
330
26B
330
2AB
330
266
330
2B8
330
2B9
330
2AA
330
265
330
2A9
330
264
330
2BA
330
263
 75
     1
 76
     0
 52
45.0
 41
0.1
 77
     0
 78
     1
 53
45.0
 43
0.0
 44
0.0
 45
-0.0707106781186548
 46
0.0707106781186548
 79
     0
 98
        1
 10
0.0
 20
0.0
  0
HATCH
  5
353
330
71
100
AcDbEntity
  8
1
  6
Continuous
 62
     2
100
AcDbHatch
 10
0.0
 20
0.0
 30
0.0
210
0.0
220
0.0
230
1.0
  2
_USER
 70
     0
 71
     1
 91
        4
 92
        1
 93
        8
 72
     1
 10
187.4658084096058
 20
711.9337273701186
 11
187.4658084096058
 21
707.3349581393746
 72
     2
 10
187.115193024991
 20
707.3349581393746
 40
0.3506153846143434
 50
0.0
 51
90.0
 73
     0
 72
     1
 10
187.115193024991
 20
706.9843427547603
 11
182.5917946029109
 21
706.9843427547603
 72
     2
 10
182.5917946029109
 20
707.3349581393746
 40
0.3506153846139171
 50
90.0
 51
180.0
 73
     0
 72
     1
 10
182.241179218297
 20
707.3349581393746
 11
182.241179218297
 21
711.9337273701186
 72
     2
 10
182.5917946029109
 20
711.9337273701186
 40
0.3506153846146844
 50
180.0
 51
270.0
 73
     0
 72
     1
 10
182.5917946029109
 20
712.2843427547333
 11
187.115193024991
 21
712.2843427547333
 72
     2
 10
187.115193024991
 20
711.9337273701186
 40
0.3506153846148266
 50
270.0
 51
360.0
 73
     0
 97
        8
330
269
330
2AC
330
26A
330
2B7
330
267
330
2AE
330
268
330
2AD
 92
       16
 93
        1
 72
     2
 10
184.7567414215205
 20
710.0172957764363
 40
0.3892387874201972
 50
0.0
 51
360.0
 73
     1
 97
        1
330
2D2
 92
       16
 93
        8
 72
     2
 10
185.2111692833062
 20
709.1006498260492
 40
0.2609230769227745
 50
115.3740086783684
 51
180.0
 73
     1
 72
     1
 10
184.9502462063832
 20
709.1006498260492
 11
184.9502462063832
 21
708.6197808948963
 72
     2
 10
185.2111692833062
 20
708.6197808948963
 40
0.2609230769229782
 50
180.0
 51
269.8110329574465
 73
     1
 72
     2
 10
185.2158107174466
 20
710.0270825044574
 40
1.668232340440728
 50
269.8110329575882
 51
450.1889670424118
 73
     1
 72
     2
 10
185.2111692833062
 20
711.4343841140186
 40
0.2609230769224678
 50
90.18896704255349
 51
180.0
 73
     1
 72
     1
 10
184.9502462063832
 20
711.4343841140186
 11
184.9502462063832
 21
710.9339417268229
 72
     2
 10
185.2111692833062
 20
710.9339417268229
 40
0.2609230769229782
 50
180.0
 51
244.6259913216317
 73
     1
 72
     2
 10
184.7764232518285
 20
710.0172957764363
 40
0.7535935125160714
 50
295.3740086781938
 51
424.625991321821
 73
     0
 97
        8
330
2C4
330
230
330
2C1
330
2C2
330
2A0
330
22F
330
2C3
330
29F
 92
       16
 93
       12
 72
     2
 10
183.0826166498089
 20
707.8341547205732
 40
0.2609230769220972
 50
180.0
 51
270.0
 73
     1
 72
     1
 10
183.0826166498089
 20
707.5732316436504
 11
184.3023135597341
 21
707.5732316436504
 72
     2
 10
184.3023135597341
 20
707.8341547205732
 40
0.2609230769228361
 50
270.0
 51
360.0
 73
     1
 72
     1
 10
184.5632366366569
 20
707.8341547205732
 11
184.5632366366569
 21
709.0992546639878
 72
     2
 10
184.3023135597341
 20
709.0992546639878
 40
0.2609230769228077
 50
0.0
 51
64.80558935144161
 73
     1
 72
     2
 10
184.7342015329366
 20
710.0172957764363
 40
0.753634316989858
 50
115.1944106485115
 51
244.8055893514774
 73
     0
 72
     2
 10
184.3023135597341
 20
710.9353368888844
 40
0.2609230769223558
 50
295.1944106485584
 51
360.0
 73
     1
 72
     1
 10
184.5632366366569
 20
710.9353368888844
 11
184.5632366366569
 21
711.4345307889345
 72
     2
 10
184.3023135597341
 20
711.4345307889345
 40
0.2609230769228077
 50
0.0
 51
90.0
 73
     1
 72
     1
 10
184.3023135597341
 20
711.695453865857
 11
183.0826166498089
 21
711.695453865857
 72
     2
 10
183.0826166498089
 20
711.4345307889345
 40
0.2609230769224951
 50
90.0
 51
180.0
 73
     1
 72
     1
 10
182.8216935728868
 20
711.4345307889345
 11
182.8216935728868
 21
707.8341547205732
 97
       12
330
2A8
330
26B
330
2AB
330
266
330
2B8
330
2B9
330
2AA
330
265
330
2A9
330
264
330
2BA
330
263
 75
     1
 76
     0
 52
45.0
 41
0.1
 77
     0
 78
     1
 53
45.0
 43
0.0
 44
0.0
 45
-0.0707106781186548
 46
0.0707106781186548
 79
     0
 98
        1
 10
0.0
 20
0.0
  0
HATCH
  5
354
330
71
100
AcDbEntity
  8
1
  6
Continuous
 62
     2
100
AcDbHatch
 10
0.0
 20
0.0
 30
0.0
210
0.0
220
0.0
230
1.0
  2
_USER
 70
     0
 71
     1
 91
        1
 92
        1
 93
       18
 72
     1
 10
205.3084099874743
 20
708.8591726867335
 11
204.6380802044384
 21
708.8591726867335
 72
     1
 10
204.6380802044384
 20
708.8591726867335
 11
204.6380802044384
 21
706.9843427547603
 72
     1
 10
204.6380802044384
 20
706.9843427547603
 11
203.6523011117379
 21
706.9843427547603
 72
     1
 10
203.6523011117379
 20
706.9843427547603
 11
203.6523011117379
 21
708.8591726867335
 72
     1
 10
203.6523011117379
 20
708.8591726867335
 11
202.7402025170535
 21
708.8591726867335
 72
     2
 10
202.7402025170535
 20
708.0703106976209
 40
0.7888619891125472
 50
90.0
 51
109.3371432194291
 73
     1
 72
     2
 10
202.6189876425876
 20
708.4157280367804
 40
0.4227934381773005
 50
109.3371432194784
 51
151.4785267424119
 73
     1
 72
     2
 10
202.9308531451343
 20
708.2462475166656
 40
0.7777353184586058
 50
151.4785267423652
 51
208.5214732576716
 73
     1
 72
     2
 10
202.6189876425876
 20
708.076766996551
 40
0.4227934381784311
 50
208.5214732576829
 51
246.6277221118468
 73
     1
 72
     2
 10
202.7482769258133
 20
708.3759339541626
 40
0.7487023016407198
 50
246.6277221118229
 51
288.448076118081
 73
     1
 72
     2
 10
202.4026837574977
 20
709.411922198821
 40
1.840813230556049
 50
288.4480761181319
 51
301.9309089499387
 73
     1
 72
     1
 10
203.3762829657819
 20
707.8496488772096
 11
203.3762829657819
 21
707.1285604418349
 72
     2
 10
202.2722103070078
 20
710.9840003639848
 40
4.010410630990729
 50
74.02000874166195
 51
84.84185523036345
 73
     0
 72
     2
 10
202.510934352244
 20
708.3394626919008
 40
1.355119937140852
 50
84.84185523032178
 51
164.938108222899
 73
     0
 72
     2
 10
202.164547704755
 20
708.2462475166656
 40
0.9964100565230259
 50
164.9381082228979
 51
195.0618917770894
 73
     0
 72
     2
 10
202.510934352244
 20
708.15303234143
 40
1.355119937140671
 50
195.061891777101
 51
270.0
 73
     0
 72
     1
 10
202.510934352244
 20
709.5081522785707
 11
205.3084099874743
 21
709.5081522785712
 72
     1
 10
205.3084099874743
 20
709.5081522785712
 11
205.3084099874743
 21
708.8591726867335
 97
       18
330
232
330
2BD
330
2BE
330
2A6
330
2A5
330
296
330
2A4
330
2A3
330
2BF
330
2A2
330
2C0
330
2A1
330
297
330
231
330
236
330
235
330
234
330
233
 75
     1
 76
     0
 52
45.0
 41
0.1
 77
     0
 78
     1
 53
45.0
 43
0.0
 44
0.0
 45
-0.0707106781186548
 46
0.0707106781186548
 79
     0
 98
        1
 10
0.0
 20
0.0
  0
HATCH
  5
355
330
71
100
AcDbEntity
  8
1
  6
Continuous
 62
     2
100
AcDbHatch
 10
0.0
 20
0.0
 30
0.0
210
0.0
220
0.0
230
1.0
  2
_USER
 70
     0
 71
     1
 91
        1
 92
        1
 93
       18
 72
     1
 10
205.3084099874743
 20
708.8591726867335
 11
204.6380802044384
 21
708.8591726867335
 72
     1
 10
204.6380802044384
 20
708.8591726867335
 11
204.6380802044384
 21
706.9843427547603
 72
     1
 10
204.6380802044384
 20
706.9843427547603
 11
203.6523011117379
 21
706.9843427547603
 72
     1
 10
203.6523011117379
 20
706.9843427547603
 11
203.6523011117379
 21
708.8591726867335
 72
     1
 10
203.6523011117379
 20
708.8591726867335
 11
202.7402025170535
 21
708.8591726867335
 72
     2
 10
202.7402025170535
 20
708.0703106976209
 40
0.7888619891125472
 50
90.0
 51
109.3371432194291
 73
     1
 72
     2
 10
202.6189876425876
 20
708.4157280367804
 40
0.4227934381773005
 50
109.3371432194784
 51
151.4785267424119
 73
     1
 72
     2
 10
202.9308531451343
 20
708.2462475166656
 40
0.7777353184586058
 50
151.4785267423652
 51
208.5214732576716
 73
     1
 72
     2
 10
202.6189876425876
 20
708.076766996551
 40
0.4227934381784311
 50
208.5214732576829
 51
246.6277221118468
 73
     1
 72
     2
 10
202.7482769258133
 20
708.3759339541626
 40
0.7487023016407198
 50
246.6277221118229
 51
288.448076118081
 73
     1
 72
     2
 10
202.4026837574977
 20
709.411922198821
 40
1.840813230556049
 50
288.4480761181319
 51
301.9309089499387
 73
     1
 72
     1
 10
203.3762829657819
 20
707.8496488772096
 11
203.3762829657819
 21
707.1285604418349
 72
     2
 10
202.2722103070078
 20
710.9840003639848
 40
4.010410630990729
 50
74.02000874166195
 51
84.84185523036345
 73
     0
 72
     2
 10
202.510934352244
 20
708.3394626919008
 40
1.355119937140852
 50
84.84185523032178
 51
164.938108222899
 73
     0
 72
     2
 10
202.164547704755
 20
708.2462475166656
 40
0.9964100565230259
 50
164.9381082228979
 51
195.0618917770894
 73
     0
 72
     2
 10
202.510934352244
 20
708.15303234143
 40
1.355119937140671
 50
195.061891777101
 51
270.0
 73
     0
 72
     1
 10
202.510934352244
 20
709.5081522785707
 11
205.3084099874743
 21
709.5081522785712
 72
     1
 10
205.3084099874743
 20
709.5081522785712
 11
205.3084099874743
 21
708.8591726867335
 97
       18
330
232
330
2BD
330
2BE
330
2A6
330
2A5
330
296
330
2A4
330
2A3
330
2BF
330
2A2
330
2C0
330
2A1
330
297
330
231
330
236
330
235
330
234
330
233
 75
     1
 76
     0
 52
45.0
 41
0.1
 77
     0
 78
     1
 53
45.0
 43
0.0
 44
0.0
 45
-0.0707106781186548
 46
0.0707106781186548
 79
     0
 98
        1
 10
0.0
 20
0.0
  0
HATCH
  5
356
330
71
100
AcDbEntity
  8
1
  6
Continuous
 62
     2
100
AcDbHatch
 10
0.0
 20
0.0
 30
0.0
210
0.0
220
0.0
230
1.0
  2
_USER
 70
     0
 71
     1
 91
        1
 92
        1
 93
       14
 72
     2
 10
189.2029166007953
 20
708.15303234143
 40
1.355119937140984
 50
84.84185523036052
 51
164.9381082228905
 73
     1
 72
     2
 10
188.8565299533054
 20
708.2462475166656
 40
0.9964100565214067
 50
164.9381082228855
 51
195.0618917771019
 73
     1
 72
     2
 10
189.2029166007953
 20
708.3394626919008
 40
1.355119937139993
 50
195.0618917770909
 51
275.1581447696416
 73
     1
 72
     2
 10
188.9641925555591
 20
710.9840003639848
 40
4.010410630990197
 50
275.1581447696246
 51
285.9799912583524
 73
     1
 72
     1
 10
190.0682652143341
 20
707.1285604418354
 11
190.0682652143341
 21
707.84964887721
 72
     2
 10
189.094666006049
 20
709.4119221988215
 40
1.84081323055604
 50
58.069091050038
 51
71.55192388186902
 73
     0
 72
     2
 10
189.4402591743638
 20
708.3759339541626
 40
0.7487023016404492
 50
71.55192388185228
 51
113.3722778881293
 73
     0
 72
     2
 10
189.3109698911389
 20
708.076766996551
 40
0.4227934381774399
 50
113.3722778881673
 51
151.4785267423142
 73
     0
 72
     2
 10
189.6228353936847
 20
708.2462475166656
 40
0.7777353184572496
 50
151.4785267422948
 51
208.5214732577273
 73
     0
 72
     2
 10
189.3109698911389
 20
708.4157280367804
 40
0.4227934381776413
 50
208.5214732576993
 51
246.6277221118143
 73
     0
 72
     2
 10
189.4402591743638
 20
708.1165610791684
 40
0.7487023016407643
 50
246.6277221118707
 51
288.4480761181367
 73
     0
 72
     2
 10
189.094666006049
 20
707.08057283451
 40
1.840813230556584
 50
288.448076118131
 51
301.930908949962
 73
     0
 72
     1
 10
190.0682652143341
 20
708.6428461561214
 11
190.0682652143341
 21
709.363934591496
 72
     2
 10
188.9641925555591
 20
705.5084946693466
 40
4.010410630989981
 50
74.0200087416472
 51
84.84185523037543
 73
     1
 97
       14
330
2C5
330
2C6
330
2C7
330
2C8
330
298
330
29E
330
29D
330
29C
330
2C9
330
2CA
330
29B
330
2CB
330
299
330
29A
 75
     1
 76
     0
 52
45.0
 41
0.1
 77
     0
 78
     1
 53
45.0
 43
0.0
 44
0.0
 45
-0.0707106781186548
 46
0.0707106781186548
 79
     0
 98
        1
 10
0.0
 20
0.0
  0
HATCH
  5
357
330
71
100
AcDbEntity
  8
1
  6
Continuous
 62
     2
100
AcDbHatch
 10
0.0
 20
0.0
 30
0.0
210
0.0
220
0.0
230
1.0
  2
_USER
 70
     0
 71
     1
 91
        1
 92
        1
 93
       14
 72
     2
 10
189.2029166007953
 20
708.15303234143
 40
1.355119937140984
 50
84.84185523036052
 51
164.9381082228905
 73
     1
 72
     2
 10
188.8565299533054
 20
708.2462475166656
 40
0.9964100565214067
 50
164.9381082228855
 51
195.0618917771019
 73
     1
 72
     2
 10
189.2029166007953
 20
708.3394626919008
 40
1.355119937139993
 50
195.0618917770909
 51
275.1581447696416
 73
     1
 72
     2
 10
188.9641925555591
 20
710.9840003639848
 40
4.010410630990197
 50
275.1581447696246
 51
285.9799912583524
 73
     1
 72
     1
 10
190.0682652143341
 20
707.1285604418354
 11
190.0682652143341
 21
707.84964887721
 72
     2
 10
189.094666006049
 20
709.4119221988215
 40
1.84081323055604
 50
58.069091050038
 51
71.55192388186902
 73
     0
 72
     2
 10
189.4402591743638
 20
708.3759339541626
 40
0.7487023016404492
 50
71.55192388185228
 51
113.3722778881293
 73
     0
 72
     2
 10
189.3109698911389
 20
708.076766996551
 40
0.4227934381774399
 50
113.3722778881673
 51
151.4785267423142
 73
     0
 72
     2
 10
189.6228353936847
 20
708.2462475166656
 40
0.7777353184572496
 50
151.4785267422948
 51
208.5214732577273
 73
     0
 72
     2
 10
189.3109698911389
 20
708.4157280367804
 40
0.4227934381776413
 50
208.5214732576993
 51
246.6277221118143
 73
     0
 72
     2
 10
189.4402591743638
 20
708.1165610791684
 40
0.7487023016407643
 50
246.6277221118707
 51
288.4480761181367
 73
     0
 72
     2
 10
189.094666006049
 20
707.08057283451
 40
1.840813230556584
 50
288.448076118131
 51
301.930908949962
 73
     0
 72
     1
 10
190.0682652143341
 20
708.6428461561214
 11
190.0682652143341
 21
709.363934591496
 72
     2
 10
188.9641925555591
 20
705.5084946693466
 40
4.010410630989981
 50
74.0200087416472
 51
84.84185523037543
 73
     1
 97
       14
330
2C5
330
2C6
330
2C7
330
2C8
330
298
330
29E
330
29D
330
29C
330
2C9
330
2CA
330
29B
330
2CB
330
299
330
29A
 75
     1
 76
     0
 52
45.0
 41
0.1
 77
     0
 78
     1
 53
45.0
 43
0.0
 44
0.0
 45
-0.0707106781186548
 46
0.0707106781186548
 79
     0
 98
        1
 10
0.0
 20
0.0
  0
ENDBLK
  5
73
330
71
100
AcDbEntity
  8
0
100
AcDbBlockEnd
  0
BLOCK
  5
75
330
74
100
AcDbEntity
  8
0
100
AcDbBlockBegin
  2
_punkt
 70
     0
 10
305.1259383842531
 20
701.1343427547545
 30
0.0
  3
_punkt
  1

  0
LINE
  5
358
330
74
100
AcDbEntity
  8
1
  6
Continuous
 62
     2
100
AcDbLine
 10
305.1259383842532
 20
701.1343427547545
 30
0.0
 11
310.1259383842508
 21
701.1343427547545
 31
0.0
  0
LINE
  5
359
330
74
100
AcDbEntity
  8
1
  6
Continuous
 62
     2
100
AcDbLine
 10
305.1259383842532
 20
701.1343427547545
 30
0.0
 11
305.1259383842532
 21
696.1343427547549
 31
0.0
  0
ENDBLK
  5
76
330
74
100
AcDbEntity
  8
0
100
AcDbBlockEnd
  0
BLOCK
  5
7A
330
77
100
AcDbEntity
  8
0
100
AcDbBlockBegin
  2
A3I
 70
     0
 10
305.1259383842532
 20
696.1343427547549
 30
0.0
  3
A3I
  1

  0
INSERT
  5
78
330
77
100
AcDbEntity
  8
1
100
AcDbBlockReference
  2
_rahmen
 10
305.1259383842532
 20
696.1343427547549
 30
0.0
  0
INSERT
  5
79
330
77
100
AcDbEntity
  8
1
100
AcDbBlockReference
  2
_punkt
 10
305.1259383842531
 20
701.1343427547545
 30
0.0
  0
ENDBLK
  5
7B
330
77
100
AcDbEntity
  8
0
100
AcDbBlockEnd
  0
BLOCK
  5
11F
330
116
100
AcDbEntity
  8
0
100
AcDbBlockBegin
  2
*D16
 70
     1
 10
0.0
 20
0.0
 30
0.0
  3
*D16
  1

  0
LINE
  5
117
330
116
100
AcDbEntity
  8
1
  6
Continuous
 62
     2
100
AcDbLine
 10
-2.1600100000001
 20
836.499999999995
 30
0.0
 11
-9.1600100000001
 21
836.499999999995
 31
0.0
  0
LINE
  5
118
330
116
100
AcDbEntity
  8
1
  6
Continuous
 62
     2
100
AcDbLine
 10
2.83998999999989
 20
836.499999999995
 30
0.0
 11
-2.1600100000001
 21
836.499999999995
 31
0.0
  0
LINE
  5
119
330
116
100
AcDbEntity
  8
1
  6
Continuous
 62
     2
100
AcDbLine
 10
10.02860901911171
 20
836.499999999995
 30
0.0
 11
2.83998999999989
 21
836.499999999995
 31
0.0
  0
LINE
  5
11A
330
116
100
AcDbEntity
  8
1
  6
Continuous
 62
     2
100
AcDbLine
 10
-2.1600100000001
 20
854.6891108675396
 30
0.0
 11
-2.1600100000001
 21
834.499999999995
 31
0.0
  0
LINE
  5
11B
330
116
100
AcDbEntity
  8
1
  6
Continuous
 62
     2
100
AcDbLine
 10
2.83998999999989
 20
846.499999999995
 30
0.0
 11
2.83998999999989
 21
834.499999999995
 31
0.0
  0
SOLID
  5
11C
330
116
100
AcDbEntity
  8
1
 62
     2
100
AcDbTrace
 10
6.33998999999989
 20
836.9607837415509
 30
0.0
 11
6.33998999999989
 21
836.0392162584391
 31
0.0
 12
2.83998999999989
 22
836.499999999995
 32
0.0
 13
2.83998999999989
 23
836.499999999995
 33
0.0
  0
SOLID
  5
11D
330
116
100
AcDbEntity
  8
1
 62
     2
100
AcDbTrace
 10
-5.6600100000001
 20
836.0392162584391
 30
0.0
 11
-5.6600100000001
 21
836.9607837415509
 31
0.0
 12
-2.1600100000001
 22
836.499999999995
 32
0.0
 13
-2.1600100000001
 23
836.499999999995
 33
0.0
  0
MTEXT
  5
11E
330
116
100
AcDbEntity
  8
1
 62
     3
100
AcDbMText
 10
7.92860901911171
 20
838.499999999995
 30
0.0
 40
3.5
 41
0.0
 71
     7
 72
     1
  1
5
  7
CONVERTER_11
 11
0.9999999999970619
 21
2.424068405545306E-6
 31
0.0
 73
     1
 44
0.60024009603842
  0
ENDBLK
  5
120
330
116
100
AcDbEntity
  8
0
100
AcDbBlockEnd
  0
BLOCK
  5
12A
330
123
100
AcDbEntity
  8
0
100
AcDbBlockBegin
  2
*D17
 70
     1
 10
0.0
 20
0.0
 30
0.0
  3
*D17
  1

  0
LINE
  5
124
330
123
100
AcDbEntity
  8
1
  6
Continuous
 62
     2
100
AcDbLine
 10
-12.16001000000011
 20
846.499999999995
 30
0.0
 11
-12.16001000000011
 21
923.499999999995
 31
0.0
  0
LINE
  5
125
330
123
100
AcDbEntity
  8
1
  6
Continuous
 62
     2
100
AcDbLine
 10
-1.2221878264912
 20
923.499999999995
 30
0.0
 11
-14.16001000000011
 21
923.499999999995
 31
0.0
  0
LINE
  5
126
330
123
100
AcDbEntity
  8
1
  6
Continuous
 62
     2
100
AcDbLine
 10
-1.22218782649121
 20
846.499999999995
 30
0.0
 11
-14.16001000000011
 21
846.499999999995
 31
0.0
  0
SOLID
  5
127
330
123
100
AcDbEntity
  8
1
 62
     2
100
AcDbTrace
 10
-12.620793741556
 20
849.999999999995
 30
0.0
 11
-11.69922625844422
 21
849.999999999995
 31
0.0
 12
-12.16001000000011
 22
846.499999999995
 32
0.0
 13
-12.16001000000011
 23
846.499999999995
 33
0.0
  0
SOLID
  5
128
330
123
100
AcDbEntity
  8
1
 62
     2
100
AcDbTrace
 10
-11.69922625844423
 20
919.999999999995
 30
0.0
 11
-12.620793741556
 21
919.999999999995
 31
0.0
 12
-12.16001000000011
 22
923.499999999995
 32
0.0
 13
-12.16001000000011
 23
923.499999999995
 33
0.0
  0
MTEXT
  5
129
330
123
100
AcDbEntity
  8
1
 62
     3
100
AcDbMText
 10
-14.16001000000011
 20
881.429999999995
 30
0.0
 40
3.5
 41
0.0
 71
     7
 72
     1
  1
\C3;\U+00f8\C3;77
  7
CONVERTER_11
 11
0.0
 21
1.0
 31
0.0
 73
     1
 44
0.60024009603842
  0
ENDBLK
  5
12B
330
123
100
AcDbEntity
  8
0
100
AcDbBlockEnd
  0
ENDSEC
  0
SECTION
  2
ENTITIES
  0
INSERT
  5
7C
330
1F
100
AcDbEntity
  8
0
100
AcDbBlockReference
  2
Allg1
 10
246.9999999999992
 20
794.0
 30
0.0
  0
INSERT
  5
7D
330
1F
100
AcDbEntity
  8
0
100
AcDbBlockReference
  2
Drfsicht1
 10
57.879993
 20
813.999996
 30
0.0
  0
INSERT
  5
7E
330
1F
100
AcDbEntity
  8
0
100
AcDbBlockReference
  2
Rckans1
 10
173.0
 20
884.99999999999
 30
0.0
  0
INSERT
  5
7F
330
1F
100
AcDbEntity
  8
0
100
AcDbBlockReference
  2
SA_Links1
 10
115.4199969999999
 20
885.0
 30
0.0
  0
INSERT
  5
80
330
1F
100
AcDbEntity
  8
0
100
AcDbBlockReference
  2
SA_Rechts1
 10
0.3399899999999
 20
885.0
 30
0.0
  0
INSERT
  5
81
330
1F
100
AcDbEntity
  8
0
100
AcDbBlockReference
  2
Vordans1
 10
57.87999373798967
 20
884.999999999995
 30
0.0
  0
INSERT
  5
82
330
1F
100
AcDbEntity
  8
0
100
AcDbBlockReference
  2
A3I
 10
305.1259383842532
 20
696.1343427547549
 30
0.0
  0
ENDSEC
  0
SECTION
  2
OBJECTS
  0
DICTIONARY
  5
C
330
0
100
AcDbDictionary
281
     1
  3
ACAD_GROUP
350
D
  3
ACAD_LAYOUT
350
1A
  3
ACAD_MATERIAL
350
3B
  3
ACAD_MLEADERSTYLE
350
35C
  3
ACAD_MLINESTYLE
350
17
  3
ACAD_PLOTSETTINGS
350
19
  3
ACAD_PLOTSTYLENAME
350
E
  3
ACAD_VISUALSTYLE
350
2A
  3
AcDbVariableDictionary
350
35A
  0
DICTIONARY
  5
D
102
{ACAD_REACTORS
330
C
102
}
330
C
100
AcDbDictionary
281
     1
  0
DICTIONARY
  5
1A
102
{ACAD_REACTORS
330
C
102
}
330
C
100
AcDbDictionary
281
     1
  3
Layout1
350
1E
  3
Layout2
350
26
  3
Model
350
22
  0
DICTIONARY
  5
3B
102
{ACAD_REACTORS
330
C
102
}
330
C
100
AcDbDictionary
281
     1
  3
ByBlock
350
3D
  3
ByLayer
350
3C
  3
Global
350
3E
  0
DICTIONARY
  5
35C
102
{ACAD_REACTORS
330
C
102
}
330
C
100
AcDbDictionary
281
     1
  0
DICTIONARY
  5
17
102
{ACAD_REACTORS
330
C
102
}
330
C
100
AcDbDictionary
281
     1
  3
Standard
350
18
  0
DICTIONARY
  5
19
102
{ACAD_REACTORS
330
C
102
}
330
C
100
AcDbDictionary
281
     1
  0
ACDBDICTIONARYWDFLT
  5
E
102
{ACAD_REACTORS
330
C
102
}
330
C
100
AcDbDictionary
281
     1
  3
Normal
350
F
100
AcDbDictionaryWithDefault
340
F
  0
DICTIONARY
  5
2A
102
{ACAD_REACTORS
330
C
102
}
330
C
100
AcDbDictionary
281
     1
  3
2dWireframe
350
2F
  3
3D Hidden
350
31
  3
3dWireframe
350
30
  3
Basic
350
32
  3
Brighten
350
36
  3
ColorChange
350
3A
  3
Conceptual
350
34
  3
Dim
350
35
  3
Facepattern
350
39
  3
Flat
350
2B
  3
FlatWithEdges
350
2C
  3
Gouraud
350
2D
  3
GouraudWithEdges
350
2E
  3
Linepattern
350
38
  3
Realistic
350
33
  3
Thicken
350
37
  0
DICTIONARY
  5
35A
102
{ACAD_REACTORS
330
C
102
}
330
C
100
AcDbDictionary
281
     1
  3
DIMASSOC
350
35D
  3
HIDETEXT
350
35E
  0
LAYOUT
  5
1E
102
{ACAD_REACTORS
330
1A
102
}
330
1A
100
AcDbPlotSettings
  1

  2
none_device
  4

  6

 40
0.0
 41
0.0
 42
0.0
 43
0.0
 44
0.0
 45
0.0
 46
0.0
 47
0.0
 48
0.0
 49
0.0
140
0.0
141
0.0
142
1.0
143
1.0
 70
   688
 72
     0
 73
     0
 74
     5
  7

 75
    16
147
1.0
148
0.0
149
0.0
100
AcDbLayout
  1
Layout1
 70
     1
 71
     1
 10
0.0
 20
0.0
 11
12.0
 21
9.0
 12
0.0
 22
0.0
 32
0.0
 14
1.00000000000000E+20
 24
1.00000000000000E+20
 34
1.00000000000000E+20
 15
-1.00000000000000E+20
 25
-1.00000000000000E+20
 35
-1.00000000000000E+20
146
0.0
 13
0.0
 23
0.0
 33
0.0
 16
1.0
 26
0.0
 36
0.0
 17
0.0
 27
1.0
 37
0.0
 76
     0
330
1B
  0
LAYOUT
  5
26
102
{ACAD_REACTORS
330
1A
102
}
330
1A
100
AcDbPlotSettings
  1

  2
none_device
  4

  6

 40
0.0
 41
0.0
 42
0.0
 43
0.0
 44
0.0
 45
0.0
 46
0.0
 47
0.0
 48
0.0
 49
0.0
140
0.0
141
0.0
142
1.0
143
1.0
 70
   688
 72
     0
 73
     0
 74
     5
  7

 75
    16
147
1.0
148
0.0
149
0.0
100
AcDbLayout
  1
Layout2
 70
     1
 71
     2
 10
0.0
 20
0.0
 11
0.0
 21
0.0
 12
0.0
 22
0.0
 32
0.0
 14
0.0
 24
0.0
 34
0.0
 15
0.0
 25
0.0
 35
0.0
146
0.0
 13
0.0
 23
0.0
 33
0.0
 16
1.0
 26
0.0
 36
0.0
 17
0.0
 27
1.0
 37
0.0
 76
     0
330
23
  0
LAYOUT
  5
22
102
{ACAD_REACTORS
330
1A
102
}
330
1A
100
AcDbPlotSettings
  1

  2
none_device
  4

  6

 40
0.0
 41
0.0
 42
0.0
 43
0.0
 44
0.0
 45
0.0
 46
0.0
 47
0.0
 48
0.0
 49
0.0
140
0.0
141
0.0
142
1.0
143
1.0
 70
  1712
 72
     0
 73
     0
 74
     0
  7

 75
     0
147
1.0
148
0.0
149
0.0
100
AcDbLayout
  1
Model
 70
     1
 71
     0
 10
0.0
 20
0.0
 11
12.0
 21
9.0
 12
0.0
 22
0.0
 32
0.0
 14
-109.8740616157476
 24
696.1343427547549
 34
0.0
 15
310.1259383842508
 25
993.1343427547549
 35
0.0
146
0.0
 13
0.0
 23
0.0
 33
0.0
 16
1.0
 26
0.0
 36
0.0
 17
0.0
 27
1.0
 37
0.0
 76
     0
330
1F
331
29
  0
MATERIAL
  5
3D
102
{ACAD_REACTORS
330
3B
102
}
102
{ACAD_XDICTIONARY
360
381
102
}
330
3B
100
AcDbMaterial
  1
ByBlock
  0
MATERIAL
  5
3C
102
{ACAD_REACTORS
330
3B
102
}
102
{ACAD_XDICTIONARY
360
37F
102
}
330
3B
100
AcDbMaterial
  1
ByLayer
  0
MATERIAL
  5
3E
102
{ACAD_REACTORS
330
3B
102
}
102
{ACAD_XDICTIONARY
360
383
102
}
330
3B
100
AcDbMaterial
  1
Global
  0
MLINESTYLE
  5
18
102
{ACAD_REACTORS
330
17
102
}
330
17
100
AcDbMlineStyle
  2
Standard
 70
     0
  3

 62
   256
 51
90.0
 52
90.0
 71
     2
 49
0.5
 62
   256
  6
BYLAYER
 49
-0.5
 62
   256
  6
BYLAYER
  0
ACDBPLACEHOLDER
  5
F
102
{ACAD_REACTORS
330
E
102
}
330
E
  0
VISUALSTYLE
  5
2F
102
{ACAD_REACTORS
330
2A
102
}
102
{ACAD_XDICTIONARY
360
367
102
}
330
2A
100
AcDbVisualStyle
  2
2dWireframe
 70
     4
 71
     0
 72
     2
 73
     0
 90
        0
 40
-0.6
 41
-30.0
 62
     5
 63
     7
 74
     1
 91
        4
 64
     7
 65
   257
 75
     1
175
     1
 42
1.0
 92
        0
 66
   257
 43
1.0
 76
     1
 77
     6
 78
     2
 67
     7
 79
     5
170
     0
171
     0
290
     0
174
     0
 93
        1
 44
0.0
173
     0
291
     0
 45
0.0
1001
ACAD
1000
AcDbSavedByObjectVersion
1070
     0
  0
VISUALSTYLE
  5
31
102
{ACAD_REACTORS
330
2A
102
}
102
{ACAD_XDICTIONARY
360
36B
102
}
330
2A
100
AcDbVisualStyle
  2
3D Hidden
 70
     6
 71
     1
 72
     2
 73
     2
 90
        0
 40
-0.6
 41
-30.0
 62
     5
 63
     7
 74
     2
 91
        2
 64
     7
 65
   257
 75
     2
175
     1
 42
40.0
 92
        0
 66
   257
 43
1.0
 76
     1
 77
     6
 78
     2
 67
     7
 79
     3
170
     0
171
     0
290
     0
174
     0
 93
        1
 44
0.0
173
     0
291
     0
 45
0.0
1001
ACAD
1000
AcDbSavedByObjectVersion
1070
     0
  0
VISUALSTYLE
  5
30
102
{ACAD_REACTORS
330
2A
102
}
102
{ACAD_XDICTIONARY
360
369
102
}
330
2A
100
AcDbVisualStyle
  2
3dWireframe
 70
     5
 71
     0
 72
     2
 73
     0
 90
        0
 40
-0.6
 41
-30.0
 62
     5
 63
     7
 74
     1
 91
        4
 64
     7
 65
   257
 75
     1
175
     1
 42
1.0
 92
        0
 66
   257
 43
1.0
 76
     1
 77
     6
 78
     2
 67
     7
 79
     5
170
     0
171
     0
290
     0
174
     0
 93
        1
 44
0.0
173
     0
291
     0
 45
0.0
1001
ACAD
1000
AcDbSavedByObjectVersion
1070
     0
  0
VISUALSTYLE
  5
32
102
{ACAD_REACTORS
330
2A
102
}
102
{ACAD_XDICTIONARY
360
36D
102
}
330
2A
100
AcDbVisualStyle
  2
Basic
 70
     7
 71
     1
 72
     0
 73
     1
 90
        0
 40
-0.6
 41
-30.0
 62
     5
 63
     7
 74
     0
 91
        4
 64
     7
 65
   257
 75
     1
175
     1
 42
1.0
 92
        8
 66
     7
 43
1.0
 76
     1
 77
     6
 78
     2
 67
     7
 79
     5
170
     0
171
     0
290
     0
174
     0
 93
        1
 44
0.0
173
     0
291
     1
 45
0.0
1001
ACAD
1000
AcDbSavedByObjectVersion
1070
     0
  0
VISUALSTYLE
  5
36
102
{ACAD_REACTORS
330
2A
102
}
102
{ACAD_XDICTIONARY
360
375
102
}
330
2A
100
AcDbVisualStyle
  2
Brighten
 70
    12
 71
     2
 72
     2
 73
     0
 90
        0
 40
-0.6
 41
-30.0
 62
     5
 63
     7
 74
     1
 91
        4
 64
     7
 65
   257
 75
     1
175
     1
 42
1.0
 92
        8
 66
     7
 43
1.0
 76
     1
 77
     6
 78
     2
 67
     7
 79
     5
170
     0
171
     0
290
     0
174
     0
 93
        1
 44
50.0
173
     0
291
     1
 45
0.0
1001
ACAD
1000
AcDbSavedByObjectVersion
1070
     0
  0
VISUALSTYLE
  5
3A
102
{ACAD_REACTORS
330
2A
102
}
102
{ACAD_XDICTIONARY
360
37D
102
}
330
2A
100
AcDbVisualStyle
  2
ColorChange
 70
    16
 71
     2
 72
     2
 73
     3
 90
        0
 40
-0.6
 41
-30.0
 62
     5
 63
     8
 74
     1
 91
        4
 64
     7
 65
   257
 75
     1
175
     1
 42
1.0
 92
        8
 66
     8
 43
1.0
 76
     1
 77
     6
 78
     2
 67
     7
 79
     5
170
     0
171
     0
290
     0
174
     0
 93
        1
 44
0.0
173
     0
291
     1
 45
0.0
1001
ACAD
1000
AcDbSavedByObjectVersion
1070
     0
  0
VISUALSTYLE
  5
34
102
{ACAD_REACTORS
330
2A
102
}
102
{ACAD_XDICTIONARY
360
371
102
}
330
2A
100
AcDbVisualStyle
  2
Conceptual
 70
     9
 71
     3
 72
     2
 73
     0
 90
        0
 40
-0.6
 41
-30.0
 62
     5
 63
     7
 74
     2
 91
        2
 64
     7
 65
   257
 75
     1
175
     1
 42
40.0
 92
        8
 66
     7
 43
1.0
 76
     1
 77
     6
 78
     2
 67
     7
 79
     3
170
     0
171
     0
290
     0
174
     0
 93
        1
 44
0.0
173
     0
291
     0
 45
0.0
1001
ACAD
1000
AcDbSavedByObjectVersion
1070
     0
  0
VISUALSTYLE
  5
35
102
{ACAD_REACTORS
330
2A
102
}
102
{ACAD_XDICTIONARY
360
373
102
}
330
2A
100
AcDbVisualStyle
  2
Dim
 70
    11
 71
     2
 72
     2
 73
     0
 90
        0
 40
-0.6
 41
-30.0
 62
     5
 63
     7
 74
     1
 91
        4
 64
     7
 65
   257
 75
     1
175
     1
 42
1.0
 92
        8
 66
     7
 43
1.0
 76
     1
 77
     6
 78
     2
 67
     7
 79
     5
170
     0
171
     0
290
     0
174
     0
 93
        1
 44
-50.0
173
     0
291
     1
 45
0.0
1001
ACAD
1000
AcDbSavedByObjectVersion
1070
     0
  0
VISUALSTYLE
  5
39
102
{ACAD_REACTORS
330
2A
102
}
102
{ACAD_XDICTIONARY
360
37B
102
}
330
2A
100
AcDbVisualStyle
  2
Facepattern
 70
    15
 71
     2
 72
     2
 73
     0
 90
        0
 40
-0.6
 41
-30.0
 62
     5
 63
     7
 74
     1
 91
        4
 64
     7
 65
   257
 75
     1
175
     1
 42
1.0
 92
        8
 66
     7
 43
1.0
 76
     1
 77
     6
 78
     2
 67
     7
 79
     5
170
     0
171
     0
290
     0
174
     0
 93
        1
 44
0.0
173
     0
291
     1
 45
0.0
1001
ACAD
1000
AcDbSavedByObjectVersion
1070
     0
  0
VISUALSTYLE
  5
2B
102
{ACAD_REACTORS
330
2A
102
}
102
{ACAD_XDICTIONARY
360
35F
102
}
330
2A
100
AcDbVisualStyle
  2
Flat
 70
     0
 71
     2
 72
     1
 73
     1
 90
        2
 40
-0.6
 41
30.0
 62
     5
 63
     7
 74
     0
 91
        4
 64
     7
 65
   257
 75
     1
175
     1
 42
1.0
 92
        8
 66
     7
 43
1.0
 76
     1
 77
     6
 78
     2
 67
     7
 79
     5
170
     0
171
     0
290
     0
174
     0
 93
       13
 44
0.0
173
     0
291
     1
 45
0.0
1001
ACAD
1000
AcDbSavedByObjectVersion
1070
     0
  0
VISUALSTYLE
  5
2C
102
{ACAD_REACTORS
330
2A
102
}
102
{ACAD_XDICTIONARY
360
361
102
}
330
2A
100
AcDbVisualStyle
  2
FlatWithEdges
 70
     1
 71
     2
 72
     1
 73
     1
 90
        2
 40
-0.6
 41
30.0
 62
     5
 63
     7
 74
     1
 91
        4
 64
     7
 65
   257
 75
     1
175
     1
 42
1.0
 92
        0
 66
   257
 43
1.0
 76
     1
 77
     6
 78
     2
 67
     7
 79
     5
170
     0
171
     0
290
     0
174
     0
 93
       13
 44
0.0
173
     0
291
     1
 45
0.0
1001
ACAD
1000
AcDbSavedByObjectVersion
1070
     0
  0
VISUALSTYLE
  5
2D
102
{ACAD_REACTORS
330
2A
102
}
102
{ACAD_XDICTIONARY
360
363
102
}
330
2A
100
AcDbVisualStyle
  2
Gouraud
 70
     2
 71
     2
 72
     2
 73
     1
 90
        2
 40
-0.6
 41
30.0
 62
     5
 63
     7
 74
     0
 91
        4
 64
     7
 65
   257
 75
     1
175
     1
 42
1.0
 92
        0
 66
     7
 43
1.0
 76
     1
 77
     6
 78
     2
 67
     7
 79
     5
170
     0
171
     0
290
     0
174
     0
 93
       13
 44
0.0
173
     0
291
     1
 45
0.0
1001
ACAD
1000
AcDbSavedByObjectVersion
1070
     0
  0
VISUALSTYLE
  5
2E
102
{ACAD_REACTORS
330
2A
102
}
102
{ACAD_XDICTIONARY
360
365
102
}
330
2A
100
AcDbVisualStyle
  2
GouraudWithEdges
 70
     3
 71
     2
 72
     2
 73
     1
 90
        2
 40
-0.6
 41
30.0
 62
     5
 63
     7
 74
     1
 91
        4
 64
     7
 65
   257
 75
     1
175
     1
 42
1.0
 92
        0
 66
   257
 43
1.0
 76
     1
 77
     6
 78
     2
 67
     7
 79
     5
170
     0
171
     0
290
     0
174
     0
 93
       13
 44
0.0
173
     0
291
     1
 45
0.0
1001
ACAD
1000
AcDbSavedByObjectVersion
1070
     0
  0
VISUALSTYLE
  5
38
102
{ACAD_REACTORS
330
2A
102
}
102
{ACAD_XDICTIONARY
360
379
102
}
330
2A
100
AcDbVisualStyle
  2
Linepattern
 70
    14
 71
     2
 72
     2
 73
     0
 90
        0
 40
-0.6
 41
-30.0
 62
     5
 63
     7
 74
     1
 91
        4
 64
     7
 65
   257
 75
     7
175
     7
 42
1.0
 92
        8
 66
     7
 43
1.0
 76
     1
 77
     6
 78
     2
 67
     7
 79
     5
170
     0
171
     0
290
     0
174
     0
 93
        1
 44
0.0
173
     0
291
     1
 45
0.0
1001
ACAD
1000
AcDbSavedByObjectVersion
1070
     0
  0
VISUALSTYLE
  5
33
102
{ACAD_REACTORS
330
2A
102
}
102
{ACAD_XDICTIONARY
360
36F
102
}
330
2A
100
AcDbVisualStyle
  2
Realistic
 70
     8
 71
     2
 72
     2
 73
     0
 90
        0
 40
-0.6
 41
-30.0
 62
     5
 63
     7
 74
     1
 91
        0
 64
     7
 65
   257
 75
     1
175
     1
 42
1.0
 92
        8
 66
     8
 43
1.0
 76
     1
 77
     6
 78
     2
 67
     7
 79
     5
170
     0
171
     0
290
     0
174
     0
 93
       13
 44
0.0
173
     0
291
     0
 45
0.0
1001
ACAD
1000
AcDbSavedByObjectVersion
1070
     0
  0
VISUALSTYLE
  5
37
102
{ACAD_REACTORS
330
2A
102
}
102
{ACAD_XDICTIONARY
360
377
102
}
330
2A
100
AcDbVisualStyle
  2
Thicken
 70
    13
 71
     2
 72
     2
 73
     0
 90
        0
 40
-0.6
 41
-30.0
 62
     5
 63
     7
 74
     1
 91
        4
 64
     7
 65
   257
 75
     1
175
     1
 42
1.0
 92
       12
 66
     7
 43
1.0
 76
     1
 77
     6
 78
     2
 67
     7
 79
     5
170
     0
171
     0
290
     0
174
     0
 93
        1
 44
0.0
173
     0
291
     1
 45
0.0
1001
ACAD
1000
AcDbSavedByObjectVersion
1070
     0
  0
DICTIONARYVAR
  5
35D
102
{ACAD_REACTORS
330
35A
102
}
330
35A
100
DictionaryVariables
280
     0
  1
2
  0
DICTIONARYVAR
  5
35E
102
{ACAD_REACTORS
330
35A
102
}
330
35A
100
DictionaryVariables
280
     0
  1
1
  0
DICTIONARY
  5
381
330
3D
100
AcDbDictionary
280
     1
281
     1
  3
ACAD_XREC_ROUNDTRIP
360
382
  0
DICTIONARY
  5
37F
330
3C
100
AcDbDictionary
280
     1
281
     1
  3
ACAD_XREC_ROUNDTRIP
360
380
  0
DICTIONARY
  5
383
330
3E
100
AcDbDictionary
280
     1
281
     1
  3
ACAD_XREC_ROUNDTRIP
360
384
  0
DICTIONARY
  5
367
330
2F
100
AcDbDictionary
280
     1
281
     1
  3
ACAD_XREC_ROUNDTRIP
360
368
  0
DICTIONARY
  5
36B
330
31
100
AcDbDictionary
280
     1
281
     1
  3
ACAD_XREC_ROUNDTRIP
360
36C
  0
DICTIONARY
  5
369
330
30
100
AcDbDictionary
280
     1
281
     1
  3
ACAD_XREC_ROUNDTRIP
360
36A
  0
DICTIONARY
  5
36D
330
32
100
AcDbDictionary
280
     1
281
     1
  3
ACAD_XREC_ROUNDTRIP
360
36E
  0
DICTIONARY
  5
375
330
36
100
AcDbDictionary
280
     1
281
     1
  3
ACAD_XREC_ROUNDTRIP
360
376
  0
DICTIONARY
  5
37D
330
3A
100
AcDbDictionary
280
     1
281
     1
  3
ACAD_XREC_ROUNDTRIP
360
37E
  0
DICTIONARY
  5
371
330
34
100
AcDbDictionary
280
     1
281
     1
  3
ACAD_XREC_ROUNDTRIP
360
372
  0
DICTIONARY
  5
373
330
35
100
AcDbDictionary
280
     1
281
     1
  3
ACAD_XREC_ROUNDTRIP
360
374
  0
DICTIONARY
  5
37B
330
39
100
AcDbDictionary
280
     1
281
     1
  3
ACAD_XREC_ROUNDTRIP
360
37C
  0
DICTIONARY
  5
35F
330
2B
100
AcDbDictionary
280
     1
281
     1
  3
ACAD_XREC_ROUNDTRIP
360
360
  0
DICTIONARY
  5
361
330
2C
100
AcDbDictionary
280
     1
281
     1
  3
ACAD_XREC_ROUNDTRIP
360
362
  0
DICTIONARY
  5
363
330
2D
100
AcDbDictionary
280
     1
281
     1
  3
ACAD_XREC_ROUNDTRIP
360
364
  0
DICTIONARY
  5
365
330
2E
100
AcDbDictionary
280
     1
281
     1
  3
ACAD_XREC_ROUNDTRIP
360
366
  0
DICTIONARY
  5
379
330
38
100
AcDbDictionary
280
     1
281
     1
  3
ACAD_XREC_ROUNDTRIP
360
37A
  0
DICTIONARY
  5
36F
330
33
100
AcDbDictionary
280
     1
281
     1
  3
ACAD_XREC_ROUNDTRIP
360
370
  0
DICTIONARY
  5
377
330
37
100
AcDbDictionary
280
     1
281
     1
  3
ACAD_XREC_ROUNDTRIP
360
378
  0
XRECORD
  5
382
102
{ACAD_REACTORS
330
381
102
}
330
381
100
AcDbXrecord
280
     1
102
MATERIAL
148
0.0
149
0.0
149
0.0
 93
        0
 94
      127
282
     0
 72
     1
 77
     1
171
     1
175
     1
179
     1
273
     0
  0
XRECORD
  5
380
102
{ACAD_REACTORS
330
37F
102
}
330
37F
100
AcDbXrecord
280
     1
102
MATERIAL
148
0.0
149
0.0
149
0.0
 93
        0
 94
      127
282
     0
 72
     1
 77
     1
171
     1
175
     1
179
     1
273
     0
  0
XRECORD
  5
384
102
{ACAD_REACTORS
330
383
102
}
330
383
100
AcDbXrecord
280
     1
102
MATERIAL
148
0.0
149
0.0
149
0.0
 93
        0
 94
      127
282
     0
 72
     1
 77
     1
171
     1
175
     1
179
     1
273
     0
  0
XRECORD
  5
368
102
{ACAD_REACTORS
330
367
102
}
330
367
100
AcDbXrecord
280
     1
102
RTVSPropertyOp0
 70
     1
102
RTVSPropertyOp1
 70
     1
102
RTVSPropertyOp2
 70
     1
102
RTVSPropertyOp3
 70
     1
102
RTVSPropertyOp4
 70
     1
102
RTVSPropertyOp5
 70
     1
102
RTVSPropertyOp6
 70
     1
102
RTVSPropertyOp7
 70
     1
102
RTVSPropertyOp8
 70
     1
102
RTVSPropertyOp9
 70
     1
102
RTVSPropertyOp10
 70
     1
102
RTVSPropertyOp11
 70
     1
102
RTVSPropertyOp12
 70
     1
102
RTVSPropertyOp13
 70
     1
102
RTVSPropertyOp14
 70
     1
102
RTVSPropertyOp15
 70
     1
102
RTVSPropertyOp16
 70
     1
102
RTVSPropertyOp17
 70
     1
102
RTVSPropertyOp18
 70
     1
102
RTVSPropertyOp19
 70
     1
102
RTVSPropertyOp20
 70
     1
102
RTVSPropertyOp21
 70
     1
102
RTVSPropertyOp22
 70
     1
102
RTVSPropertyOp23
 70
     1
102
RTVSPropertyOp24
 70
     1
102
RTVSPropertyOp25
 70
     1
102
RTVSPropertyOp26
 70
     1
102
RTVSPropertyOp27
 70
     1
102
RTVSPropertyOp28
 70
     1
102
RTVSPropertyOp29
 70
     1
102
RTVSPropertyOp30
 70
     1
102
RTVSPropertyOp31
 70
     1
102
RTVSPropertyOp32
 70
     1
  0
XRECORD
  5
36C
102
{ACAD_REACTORS
330
36B
102
}
330
36B
100
AcDbXrecord
280
     1
102
RTVSPropertyOp0
 70
     1
102
RTVSPropertyOp1
 70
     1
102
RTVSPropertyOp2
 70
     1
102
RTVSPropertyOp3
 70
     1
102
RTVSPropertyOp4
 70
     1
102
RTVSPropertyOp5
 70
     1
102
RTVSPropertyOp6
 70
     1
102
RTVSPropertyOp7
 70
     1
102
RTVSPropertyOp8
 70
     1
102
RTVSPropertyOp9
 70
     1
102
RTVSPropertyOp10
 70
     1
102
RTVSPropertyOp11
 70
     1
102
RTVSPropertyOp12
 70
     1
102
RTVSPropertyOp13
 70
     1
102
RTVSPropertyOp14
 70
     1
102
RTVSPropertyOp15
 70
     1
102
RTVSPropertyOp16
 70
     1
102
RTVSPropertyOp17
 70
     1
102
RTVSPropertyOp18
 70
     1
102
RTVSPropertyOp19
 70
     1
102
RTVSPropertyOp20
 70
     1
102
RTVSPropertyOp21
 70
     1
102
RTVSPropertyOp22
 70
     1
102
RTVSPropertyOp23
 70
     1
102
RTVSPropertyOp24
 70
     1
102
RTVSPropertyOp25
 70
     1
102
RTVSPropertyOp26
 70
     1
102
RTVSPropertyOp27
 70
     1
102
RTVSPropertyOp28
 70
     1
102
RTVSPropertyOp29
 70
     1
102
RTVSPropertyOp30
 70
     1
102
RTVSPropertyOp31
 70
     1
102
RTVSPropertyOp32
 70
     1
  0
XRECORD
  5
36A
102
{ACAD_REACTORS
330
369
102
}
330
369
100
AcDbXrecord
280
     1
102
RTVSPropertyOp0
 70
     1
102
RTVSPropertyOp1
 70
     1
102
RTVSPropertyOp2
 70
     1
102
RTVSPropertyOp3
 70
     1
102
RTVSPropertyOp4
 70
     1
102
RTVSPropertyOp5
 70
     1
102
RTVSPropertyOp6
 70
     1
102
RTVSPropertyOp7
 70
     1
102
RTVSPropertyOp8
 70
     1
102
RTVSPropertyOp9
 70
     1
102
RTVSPropertyOp10
 70
     1
102
RTVSPropertyOp11
 70
     1
102
RTVSPropertyOp12
 70
     1
102
RTVSPropertyOp13
 70
     1
102
RTVSPropertyOp14
 70
     1
102
RTVSPropertyOp15
 70
     1
102
RTVSPropertyOp16
 70
     1
102
RTVSPropertyOp17
 70
     1
102
RTVSPropertyOp18
 70
     1
102
RTVSPropertyOp19
 70
     1
102
RTVSPropertyOp20
 70
     1
102
RTVSPropertyOp21
 70
     1
102
RTVSPropertyOp22
 70
     1
102
RTVSPropertyOp23
 70
     1
102
RTVSPropertyOp24
 70
     1
102
RTVSPropertyOp25
 70
     1
102
RTVSPropertyOp26
 70
     1
102
RTVSPropertyOp27
 70
     1
102
RTVSPropertyOp28
 70
     1
102
RTVSPropertyOp29
 70
     1
102
RTVSPropertyOp30
 70
     1
102
RTVSPropertyOp31
 70
     1
102
RTVSPropertyOp32
 70
     1
  0
XRECORD
  5
36E
102
{ACAD_REACTORS
330
36D
102
}
330
36D
100
AcDbXrecord
280
     1
102
RTVSPropertyOp0
 70
     1
102
RTVSPropertyOp1
 70
     1
102
RTVSPropertyOp2
 70
     1
102
RTVSPropertyOp3
 70
     1
102
RTVSPropertyOp4
 70
     1
102
RTVSPropertyOp5
 70
     1
102
RTVSPropertyOp6
 70
     1
102
RTVSPropertyOp7
 70
     1
102
RTVSPropertyOp8
 70
     1
102
RTVSPropertyOp9
 70
     1
102
RTVSPropertyOp10
 70
     1
102
RTVSPropertyOp11
 70
     1
102
RTVSPropertyOp12
 70
     1
102
RTVSPropertyOp13
 70
     1
102
RTVSPropertyOp14
 70
     1
102
RTVSPropertyOp15
 70
     1
102
RTVSPropertyOp16
 70
     1
102
RTVSPropertyOp17
 70
     1
102
RTVSPropertyOp18
 70
     1
102
RTVSPropertyOp19
 70
     1
102
RTVSPropertyOp20
 70
     1
102
RTVSPropertyOp21
 70
     1
102
RTVSPropertyOp22
 70
     1
102
RTVSPropertyOp23
 70
     1
102
RTVSPropertyOp24
 70
     1
102
RTVSPropertyOp25
 70
     1
102
RTVSPropertyOp26
 70
     1
102
RTVSPropertyOp27
 70
     1
102
RTVSPropertyOp28
 70
     1
102
RTVSPropertyOp29
 70
     1
102
RTVSPropertyOp30
 70
     1
102
RTVSPropertyOp31
 70
     1
102
RTVSPropertyOp32
 70
     1
  0
XRECORD
  5
376
102
{ACAD_REACTORS
330
375
102
}
330
375
100
AcDbXrecord
280
     1
102
RTVSPropertyOp0
 70
     1
102
RTVSPropertyOp1
 70
     1
102
RTVSPropertyOp2
 70
     1
102
RTVSPropertyOp3
 70
     1
102
RTVSPropertyOp4
 70
     1
102
RTVSPropertyOp5
 70
     1
102
RTVSPropertyOp6
 70
     1
102
RTVSPropertyOp7
 70
     1
102
RTVSPropertyOp8
 70
     1
102
RTVSPropertyOp9
 70
     1
102
RTVSPropertyOp10
 70
     1
102
RTVSPropertyOp11
 70
     1
102
RTVSPropertyOp12
 70
     1
102
RTVSPropertyOp13
 70
     1
102
RTVSPropertyOp14
 70
     1
102
RTVSPropertyOp15
 70
     1
102
RTVSPropertyOp16
 70
     1
102
RTVSPropertyOp17
 70
     1
102
RTVSPropertyOp18
 70
     1
102
RTVSPropertyOp19
 70
     1
102
RTVSPropertyOp20
 70
     1
102
RTVSPropertyOp21
 70
     1
102
RTVSPropertyOp22
 70
     1
102
RTVSPropertyOp23
 70
     1
102
RTVSPropertyOp24
 70
     1
102
RTVSPropertyOp25
 70
     1
102
RTVSPropertyOp26
 70
     1
102
RTVSPropertyOp27
 70
     1
102
RTVSPropertyOp28
 70
     1
102
RTVSPropertyOp29
 70
     1
102
RTVSPropertyOp30
 70
     1
102
RTVSPropertyOp31
 70
     1
102
RTVSPropertyOp32
 70
     1
  0
XRECORD
  5
37E
102
{ACAD_REACTORS
330
37D
102
}
330
37D
100
AcDbXrecord
280
     1
102
RTVSPropertyOp0
 70
     1
102
RTVSPropertyOp1
 70
     1
102
RTVSPropertyOp2
 70
     1
102
RTVSPropertyOp3
 70
     1
102
RTVSPropertyOp4
 70
     1
102
RTVSPropertyOp5
 70
     1
102
RTVSPropertyOp6
 70
     1
102
RTVSPropertyOp7
 70
     1
102
RTVSPropertyOp8
 70
     1
102
RTVSPropertyOp9
 70
     1
102
RTVSPropertyOp10
 70
     1
102
RTVSPropertyOp11
 70
     1
102
RTVSPropertyOp12
 70
     1
102
RTVSPropertyOp13
 70
     1
102
RTVSPropertyOp14
 70
     1
102
RTVSPropertyOp15
 70
     1
102
RTVSPropertyOp16
 70
     1
102
RTVSPropertyOp17
 70
     1
102
RTVSPropertyOp18
 70
     1
102
RTVSPropertyOp19
 70
     1
102
RTVSPropertyOp20
 70
     1
102
RTVSPropertyOp21
 70
     1
102
RTVSPropertyOp22
 70
     1
102
RTVSPropertyOp23
 70
     1
102
RTVSPropertyOp24
 70
     1
102
RTVSPropertyOp25
 70
     1
102
RTVSPropertyOp26
 70
     1
102
RTVSPropertyOp27
 70
     1
102
RTVSPropertyOp28
 70
     1
102
RTVSPropertyOp29
 70
     1
102
RTVSPropertyOp30
 70
     1
102
RTVSPropertyOp31
 70
     1
102
RTVSPropertyOp32
 70
     1
  0
XRECORD
  5
372
102
{ACAD_REACTORS
330
371
102
}
330
371
100
AcDbXrecord
280
     1
102
RTVSPropertyOp0
 70
     1
102
RTVSPropertyOp1
 70
     1
102
RTVSPropertyOp2
 70
     1
102
RTVSPropertyOp3
 70
     1
102
RTVSPropertyOp4
 70
     1
102
RTVSPropertyOp5
 70
     1
102
RTVSPropertyOp6
 70
     1
102
RTVSPropertyOp7
 70
     1
102
RTVSPropertyOp8
 70
     1
102
RTVSPropertyOp9
 70
     1
102
RTVSPropertyOp10
 70
     1
102
RTVSPropertyOp11
 70
     1
102
RTVSPropertyOp12
 70
     1
102
RTVSPropertyOp13
 70
     1
102
RTVSPropertyOp14
 70
     1
102
RTVSPropertyOp15
 70
     1
102
RTVSPropertyOp16
 70
     1
102
RTVSPropertyOp17
 70
     1
102
RTVSPropertyOp18
 70
     1
102
RTVSPropertyOp19
 70
     1
102
RTVSPropertyOp20
 70
     1
102
RTVSPropertyOp21
 70
     1
102
RTVSPropertyOp22
 70
     1
102
RTVSPropertyOp23
 70
     1
102
RTVSPropertyOp24
 70
     1
102
RTVSPropertyOp25
 70
     1
102
RTVSPropertyOp26
 70
     1
102
RTVSPropertyOp27
 70
     1
102
RTVSPropertyOp28
 70
     1
102
RTVSPropertyOp29
 70
     1
102
RTVSPropertyOp30
 70
     1
102
RTVSPropertyOp31
 70
     1
102
RTVSPropertyOp32
 70
     1
  0
XRECORD
  5
374
102
{ACAD_REACTORS
330
373
102
}
330
373
100
AcDbXrecord
280
     1
102
RTVSPropertyOp0
 70
     1
102
RTVSPropertyOp1
 70
     1
102
RTVSPropertyOp2
 70
     1
102
RTVSPropertyOp3
 70
     1
102
RTVSPropertyOp4
 70
     1
102
RTVSPropertyOp5
 70
     1
102
RTVSPropertyOp6
 70
     1
102
RTVSPropertyOp7
 70
     1
102
RTVSPropertyOp8
 70
     1
102
RTVSPropertyOp9
 70
     1
102
RTVSPropertyOp10
 70
     1
102
RTVSPropertyOp11
 70
     1
102
RTVSPropertyOp12
 70
     1
102
RTVSPropertyOp13
 70
     1
102
RTVSPropertyOp14
 70
     1
102
RTVSPropertyOp15
 70
     1
102
RTVSPropertyOp16
 70
     1
102
RTVSPropertyOp17
 70
     1
102
RTVSPropertyOp18
 70
     1
102
RTVSPropertyOp19
 70
     1
102
RTVSPropertyOp20
 70
     1
102
RTVSPropertyOp21
 70
     1
102
RTVSPropertyOp22
 70
     1
102
RTVSPropertyOp23
 70
     1
102
RTVSPropertyOp24
 70
     1
102
RTVSPropertyOp25
 70
     1
102
RTVSPropertyOp26
 70
     1
102
RTVSPropertyOp27
 70
     1
102
RTVSPropertyOp28
 70
     1
102
RTVSPropertyOp29
 70
     1
102
RTVSPropertyOp30
 70
     1
102
RTVSPropertyOp31
 70
     1
102
RTVSPropertyOp32
 70
     1
  0
XRECORD
  5
37C
102
{ACAD_REACTORS
330
37B
102
}
330
37B
100
AcDbXrecord
280
     1
102
RTVSPropertyOp0
 70
     1
102
RTVSPropertyOp1
 70
     1
102
RTVSPropertyOp2
 70
     1
102
RTVSPropertyOp3
 70
     1
102
RTVSPropertyOp4
 70
     1
102
RTVSPropertyOp5
 70
     1
102
RTVSPropertyOp6
 70
     1
102
RTVSPropertyOp7
 70
     1
102
RTVSPropertyOp8
 70
     1
102
RTVSPropertyOp9
 70
     1
102
RTVSPropertyOp10
 70
     1
102
RTVSPropertyOp11
 70
     1
102
RTVSPropertyOp12
 70
     1
102
RTVSPropertyOp13
 70
     1
102
RTVSPropertyOp14
 70
     1
102
RTVSPropertyOp15
 70
     1
102
RTVSPropertyOp16
 70
     1
102
RTVSPropertyOp17
 70
     1
102
RTVSPropertyOp18
 70
     1
102
RTVSPropertyOp19
 70
     1
102
RTVSPropertyOp20
 70
     1
102
RTVSPropertyOp21
 70
     1
102
RTVSPropertyOp22
 70
     1
102
RTVSPropertyOp23
 70
     1
102
RTVSPropertyOp24
 70
     1
102
RTVSPropertyOp25
 70
     1
102
RTVSPropertyOp26
 70
     1
102
RTVSPropertyOp27
 70
     1
102
RTVSPropertyOp28
 70
     1
102
RTVSPropertyOp29
 70
     1
102
RTVSPropertyOp30
 70
     1
102
RTVSPropertyOp31
 70
     1
102
RTVSPropertyOp32
 70
     1
  0
XRECORD
  5
360
102
{ACAD_REACTORS
330
35F
102
}
330
35F
100
AcDbXrecord
280
     1
102
RTVSPropertyOp0
 70
     1
102
RTVSPropertyOp1
 70
     1
102
RTVSPropertyOp2
 70
     1
102
RTVSPropertyOp3
 70
     1
102
RTVSPropertyOp4
 70
     1
102
RTVSPropertyOp5
 70
     1
102
RTVSPropertyOp6
 70
     1
102
RTVSPropertyOp7
 70
     1
102
RTVSPropertyOp8
 70
     1
102
RTVSPropertyOp9
 70
     1
102
RTVSPropertyOp10
 70
     1
102
RTVSPropertyOp11
 70
     1
102
RTVSPropertyOp12
 70
     1
102
RTVSPropertyOp13
 70
     1
102
RTVSPropertyOp14
 70
     1
102
RTVSPropertyOp15
 70
     1
102
RTVSPropertyOp16
 70
     1
102
RTVSPropertyOp17
 70
     1
102
RTVSPropertyOp18
 70
     1
102
RTVSPropertyOp19
 70
     1
102
RTVSPropertyOp20
 70
     1
102
RTVSPropertyOp21
 70
     1
102
RTVSPropertyOp22
 70
     1
102
RTVSPropertyOp23
 70
     1
102
RTVSPropertyOp24
 70
     1
102
RTVSPropertyOp25
 70
     1
102
RTVSPropertyOp26
 70
     1
102
RTVSPropertyOp27
 70
     1
102
RTVSPropertyOp28
 70
     1
102
RTVSPropertyOp29
 70
     1
102
RTVSPropertyOp30
 70
     1
102
RTVSPropertyOp31
 70
     1
102
RTVSPropertyOp32
 70
     1
  0
XRECORD
  5
362
102
{ACAD_REACTORS
330
361
102
}
330
361
100
AcDbXrecord
280
     1
102
RTVSPropertyOp0
 70
     1
102
RTVSPropertyOp1
 70
     1
102
RTVSPropertyOp2
 70
     1
102
RTVSPropertyOp3
 70
     1
102
RTVSPropertyOp4
 70
     1
102
RTVSPropertyOp5
 70
     1
102
RTVSPropertyOp6
 70
     1
102
RTVSPropertyOp7
 70
     1
102
RTVSPropertyOp8
 70
     1
102
RTVSPropertyOp9
 70
     1
102
RTVSPropertyOp10
 70
     1
102
RTVSPropertyOp11
 70
     1
102
RTVSPropertyOp12
 70
     1
102
RTVSPropertyOp13
 70
     1
102
RTVSPropertyOp14
 70
     1
102
RTVSPropertyOp15
 70
     1
102
RTVSPropertyOp16
 70
     1
102
RTVSPropertyOp17
 70
     1
102
RTVSPropertyOp18
 70
     1
102
RTVSPropertyOp19
 70
     1
102
RTVSPropertyOp20
 70
     1
102
RTVSPropertyOp21
 70
     1
102
RTVSPropertyOp22
 70
     1
102
RTVSPropertyOp23
 70
     1
102
RTVSPropertyOp24
 70
     1
102
RTVSPropertyOp25
 70
     1
102
RTVSPropertyOp26
 70
     1
102
RTVSPropertyOp27
 70
     1
102
RTVSPropertyOp28
 70
     1
102
RTVSPropertyOp29
 70
     1
102
RTVSPropertyOp30
 70
     1
102
RTVSPropertyOp31
 70
     1
102
RTVSPropertyOp32
 70
     1
  0
XRECORD
  5
364
102
{ACAD_REACTORS
330
363
102
}
330
363
100
AcDbXrecord
280
     1
102
RTVSPropertyOp0
 70
     1
102
RTVSPropertyOp1
 70
     1
102
RTVSPropertyOp2
 70
     1
102
RTVSPropertyOp3
 70
     1
102
RTVSPropertyOp4
 70
     1
102
RTVSPropertyOp5
 70
     1
102
RTVSPropertyOp6
 70
     1
102
RTVSPropertyOp7
 70
     1
102
RTVSPropertyOp8
 70
     1
102
RTVSPropertyOp9
 70
     1
102
RTVSPropertyOp10
 70
     1
102
RTVSPropertyOp11
 70
     1
102
RTVSPropertyOp12
 70
     1
102
RTVSPropertyOp13
 70
     1
102
RTVSPropertyOp14
 70
     1
102
RTVSPropertyOp15
 70
     1
102
RTVSPropertyOp16
 70
     1
102
RTVSPropertyOp17
 70
     1
102
RTVSPropertyOp18
 70
     1
102
RTVSPropertyOp19
 70
     1
102
RTVSPropertyOp20
 70
     1
102
RTVSPropertyOp21
 70
     1
102
RTVSPropertyOp22
 70
     1
102
RTVSPropertyOp23
 70
     1
102
RTVSPropertyOp24
 70
     1
102
RTVSPropertyOp25
 70
     1
102
RTVSPropertyOp26
 70
     1
102
RTVSPropertyOp27
 70
     1
102
RTVSPropertyOp28
 70
     1
102
RTVSPropertyOp29
 70
     1
102
RTVSPropertyOp30
 70
     1
102
RTVSPropertyOp31
 70
     1
102
RTVSPropertyOp32
 70
     1
  0
XRECORD
  5
366
102
{ACAD_REACTORS
330
365
102
}
330
365
100
AcDbXrecord
280
     1
102
RTVSPropertyOp0
 70
     1
102
RTVSPropertyOp1
 70
     1
102
RTVSPropertyOp2
 70
     1
102
RTVSPropertyOp3
 70
     1
102
RTVSPropertyOp4
 70
     1
102
RTVSPropertyOp5
 70
     1
102
RTVSPropertyOp6
 70
     1
102
RTVSPropertyOp7
 70
     1
102
RTVSPropertyOp8
 70
     1
102
RTVSPropertyOp9
 70
     1
102
RTVSPropertyOp10
 70
     1
102
RTVSPropertyOp11
 70
     1
102
RTVSPropertyOp12
 70
     1
102
RTVSPropertyOp13
 70
     1
102
RTVSPropertyOp14
 70
     1
102
RTVSPropertyOp15
 70
     1
102
RTVSPropertyOp16
 70
     1
102
RTVSPropertyOp17
 70
     1
102
RTVSPropertyOp18
 70
     1
102
RTVSPropertyOp19
 70
     1
102
RTVSPropertyOp20
 70
     1
102
RTVSPropertyOp21
 70
     1
102
RTVSPropertyOp22
 70
     1
102
RTVSPropertyOp23
 70
     1
102
RTVSPropertyOp24
 70
     1
102
RTVSPropertyOp25
 70
     1
102
RTVSPropertyOp26
 70
     1
102
RTVSPropertyOp27
 70
     1
102
RTVSPropertyOp28
 70
     1
102
RTVSPropertyOp29
 70
     1
102
RTVSPropertyOp30
 70
     1
102
RTVSPropertyOp31
 70
     1
102
RTVSPropertyOp32
 70
     1
  0
XRECORD
  5
37A
102
{ACAD_REACTORS
330
379
102
}
330
379
100
AcDbXrecord
280
     1
102
RTVSPropertyOp0
 70
     1
102
RTVSPropertyOp1
 70
     1
102
RTVSPropertyOp2
 70
     1
102
RTVSPropertyOp3
 70
     1
102
RTVSPropertyOp4
 70
     1
102
RTVSPropertyOp5
 70
     1
102
RTVSPropertyOp6
 70
     1
102
RTVSPropertyOp7
 70
     1
102
RTVSPropertyOp8
 70
     1
102
RTVSPropertyOp9
 70
     1
102
RTVSPropertyOp10
 70
     1
102
RTVSPropertyOp11
 70
     1
102
RTVSPropertyOp12
 70
     1
102
RTVSPropertyOp13
 70
     1
102
RTVSPropertyOp14
 70
     1
102
RTVSPropertyOp15
 70
     1
102
RTVSPropertyOp16
 70
     1
102
RTVSPropertyOp17
 70
     1
102
RTVSPropertyOp18
 70
     1
102
RTVSPropertyOp19
 70
     1
102
RTVSPropertyOp20
 70
     1
102
RTVSPropertyOp21
 70
     1
102
RTVSPropertyOp22
 70
     1
102
RTVSPropertyOp23
 70
     1
102
RTVSPropertyOp24
 70
     1
102
RTVSPropertyOp25
 70
     1
102
RTVSPropertyOp26
 70
     1
102
RTVSPropertyOp27
 70
     1
102
RTVSPropertyOp28
 70
     1
102
RTVSPropertyOp29
 70
     1
102
RTVSPropertyOp30
 70
     1
102
RTVSPropertyOp31
 70
     1
102
RTVSPropertyOp32
 70
     1
  0
XRECORD
  5
370
102
{ACAD_REACTORS
330
36F
102
}
330
36F
100
AcDbXrecord
280
     1
102
RTVSPropertyOp0
 70
     1
102
RTVSPropertyOp1
 70
     1
102
RTVSPropertyOp2
 70
     1
102
RTVSPropertyOp3
 70
     1
102
RTVSPropertyOp4
 70
     1
102
RTVSPropertyOp5
 70
     1
102
RTVSPropertyOp6
 70
     1
102
RTVSPropertyOp7
 70
     1
102
RTVSPropertyOp8
 70
     1
102
RTVSPropertyOp9
 70
     1
102
RTVSPropertyOp10
 70
     1
102
RTVSPropertyOp11
 70
     1
102
RTVSPropertyOp12
 70
     1
102
RTVSPropertyOp13
 70
     1
102
RTVSPropertyOp14
 70
     1
102
RTVSPropertyOp15
 70
     1
102
RTVSPropertyOp16
 70
     1
102
RTVSPropertyOp17
 70
     1
102
RTVSPropertyOp18
 70
     1
102
RTVSPropertyOp19
 70
     1
102
RTVSPropertyOp20
 70
     1
102
RTVSPropertyOp21
 70
     1
102
RTVSPropertyOp22
 70
     1
102
RTVSPropertyOp23
 70
     1
102
RTVSPropertyOp24
 70
     1
102
RTVSPropertyOp25
 70
     1
102
RTVSPropertyOp26
 70
     1
102
RTVSPropertyOp27
 70
     1
102
RTVSPropertyOp28
 70
     1
102
RTVSPropertyOp29
 70
     1
102
RTVSPropertyOp30
 70
     1
102
RTVSPropertyOp31
 70
     1
102
RTVSPropertyOp32
 70
     1
  0
XRECORD
  5
378
102
{ACAD_REACTORS
330
377
102
}
330
377
100
AcDbXrecord
280
     1
102
RTVSPropertyOp0
 70
     1
102
RTVSPropertyOp1
 70
     1
102
RTVSPropertyOp2
 70
     1
102
RTVSPropertyOp3
 70
     1
102
RTVSPropertyOp4
 70
     1
102
RTVSPropertyOp5
 70
     1
102
RTVSPropertyOp6
 70
     1
102
RTVSPropertyOp7
 70
     1
102
RTVSPropertyOp8
 70
     1
102
RTVSPropertyOp9
 70
     1
102
RTVSPropertyOp10
 70
     1
102
RTVSPropertyOp11
 70
     1
102
RTVSPropertyOp12
 70
     1
102
RTVSPropertyOp13
 70
     1
102
RTVSPropertyOp14
 70
     1
102
RTVSPropertyOp15
 70
     1
102
RTVSPropertyOp16
 70
     1
102
RTVSPropertyOp17
 70
     1
102
RTVSPropertyOp18
 70
     1
102
RTVSPropertyOp19
 70
     1
102
RTVSPropertyOp20
 70
     1
102
RTVSPropertyOp21
 70
     1
102
RTVSPropertyOp22
 70
     1
102
RTVSPropertyOp23
 70
     1
102
RTVSPropertyOp24
 70
     1
102
RTVSPropertyOp25
 70
     1
102
RTVSPropertyOp26
 70
     1
102
RTVSPropertyOp27
 70
     1
102
RTVSPropertyOp28
 70
     1
102
RTVSPropertyOp29
 70
     1
102
RTVSPropertyOp30
 70
     1
102
RTVSPropertyOp31
 70
     1
102
RTVSPropertyOp32
 70
     1
  0
ENDSEC
  0
EOF
