  0
SECTION
  2
HEADER
  9
$ACADVER
  1
AC1015
  9
$ACADMAINTVER
 70
     6
  9
$DWGCODEPAGE
  3
ANSI_1252
  9
$INSBASE
 10
0.0
 20
0.0
 30
0.0
  9
$EXTMIN
 10
-244.037669747061
 20
2.28207210725108
 30
0.0
  9
$EXTMAX
 10
52.96233025293711
 20
212.2820721072511
 30
0.0
  9
$LIMMIN
 10
0.0
 20
0.0
  9
$LIMMAX
 10
12.0
 20
9.0
  9
$ORTHOMODE
 70
     0
  9
$REGENMODE
 70
     1
  9
$FILLMODE
 70
     1
  9
$QTEXTMODE
 70
     0
  9
$MIRRTEXT
 70
     1
  9
$LTSCALE
 40
1.0
  9
$ATTMODE
 70
     1
  9
$TEXTSIZE
 40
0.2
  9
$TRACEWID
 40
0.05
  9
$TEXTSTYLE
  7
Standard
  9
$CLAYER
  8
0
  9
$CELTYPE
  6
ByLayer
  9
$CECOLOR
 62
   256
  9
$CELTSCALE
 40
1.0
  9
$DISPSILH
 70
     0
  9
$DIMSCALE
 40
1.0
  9
$DIMASZ
 40
0.18
  9
$DIMEXO
 40
0.0625
  9
$DIMDLI
 40
0.38
  9
$DIMRND
 40
0.0
  9
$DIMDLE
 40
0.0
  9
$DIMEXE
 40
0.18
  9
$DIMTP
 40
0.0
  9
$DIMTM
 40
0.0
  9
$DIMTXT
 40
0.18
  9
$DIMCEN
 40
0.09
  9
$DIMTSZ
 40
0.0
  9
$DIMTOL
 70
     0
  9
$DIMLIM
 70
     0
  9
$DIMTIH
 70
     1
  9
$DIMTOH
 70
     1
  9
$DIMSE1
 70
     0
  9
$DIMSE2
 70
     0
  9
$DIMTAD
 70
     0
  9
$DIMZIN
 70
     0
  9
$DIMBLK
  1

  9
$DIMASO
 70
     1
  9
$DIMSHO
 70
     1
  9
$DIMPOST
  1

  9
$DIMAPOST
  1

  9
$DIMALT
 70
     0
  9
$DIMALTD
 70
     2
  9
$DIMALTF
 40
25.4
  9
$DIMLFAC
 40
1.0
  9
$DIMTOFL
 70
     0
  9
$DIMTVP
 40
0.0
  9
$DIMTIX
 70
     0
  9
$DIMSOXD
 70
     0
  9
$DIMSAH
 70
     0
  9
$DIMBLK1
  1

  9
$DIMBLK2
  1

  9
$DIMSTYLE
  2
Standard
  9
$DIMCLRD
 70
     0
  9
$DIMCLRE
 70
     0
  9
$DIMCLRT
 70
     0
  9
$DIMTFAC
 40
1.0
  9
$DIMGAP
 40
0.09
  9
$DIMJUST
 70
     0
  9
$DIMSD1
 70
     0
  9
$DIMSD2
 70
     0
  9
$DIMTOLJ
 70
     1
  9
$DIMTZIN
 70
     0
  9
$DIMALTZ
 70
     0
  9
$DIMALTTZ
 70
     0
  9
$DIMUPT
 70
     0
  9
$DIMDEC
 70
     4
  9
$DIMTDEC
 70
     4
  9
$DIMALTU
 70
     2
  9
$DIMALTTD
 70
     2
  9
$DIMTXSTY
  7
Standard
  9
$DIMAUNIT
 70
     0
  9
$DIMADEC
 70
     0
  9
$DIMALTRND
 40
0.0
  9
$DIMAZIN
 70
     0
  9
$DIMDSEP
 70
    46
  9
$DIMATFIT
 70
     3
  9
$DIMFRAC
 70
     0
  9
$DIMLDRBLK
  1

  9
$DIMLUNIT
 70
     2
  9
$DIMLWD
 70
    -2
  9
$DIMLWE
 70
    -2
  9
$DIMTMOVE
 70
     0
  9
$LUNITS
 70
     2
  9
$LUPREC
 70
     4
  9
$SKETCHINC
 40
0.1
  9
$FILLETRAD
 40
0.5
  9
$AUNITS
 70
     0
  9
$AUPREC
 70
     0
  9
$MENU
  1
.
  9
$ELEVATION
 40
0.0
  9
$PELEVATION
 40
0.0
  9
$THICKNESS
 40
0.0
  9
$LIMCHECK
 70
     0
  9
$CHAMFERA
 40
0.5
  9
$CHAMFERB
 40
0.5
  9
$CHAMFERC
 40
1.0
  9
$CHAMFERD
 40
0.0
  9
$SKPOLY
 70
     0
  9
$TDCREATE
 40
2456784.58202618
  9
$TDUCREATE
 40
2456784.498692847
  9
$TDUPDATE
 40
2456784.582027882
  9
$TDUUPDATE
 40
2456784.498694548
  9
$TDINDWG
 40
0.0000000116
  9
$TDUSRTIMER
 40
0.0000000116
  9
$USRTIMER
 70
     1
  9
$ANGBASE
 50
0.0
  9
$ANGDIR
 70
     0
  9
$PDMODE
 70
     0
  9
$PDSIZE
 40
0.0
  9
$PLINEWID
 40
0.0
  9
$SPLFRAME
 70
     0
  9
$SPLINETYPE
 70
     6
  9
$SPLINESEGS
 70
     8
  9
$HANDSEED
  5
374
  9
$SURFTAB1
 70
     6
  9
$SURFTAB2
 70
     6
  9
$SURFTYPE
 70
     6
  9
$SURFU
 70
     6
  9
$SURFV
 70
     6
  9
$UCSBASE
  2

  9
$UCSNAME
  2

  9
$UCSORG
 10
0.0
 20
0.0
 30
0.0
  9
$UCSXDIR
 10
1.0
 20
0.0
 30
0.0
  9
$UCSYDIR
 10
0.0
 20
1.0
 30
0.0
  9
$UCSORTHOREF
  2

  9
$UCSORTHOVIEW
 70
     0
  9
$UCSORGTOP
 10
0.0
 20
0.0
 30
0.0
  9
$UCSORGBOTTOM
 10
0.0
 20
0.0
 30
0.0
  9
$UCSORGLEFT
 10
0.0
 20
0.0
 30
0.0
  9
$UCSORGRIGHT
 10
0.0
 20
0.0
 30
0.0
  9
$UCSORGFRONT
 10
0.0
 20
0.0
 30
0.0
  9
$UCSORGBACK
 10
0.0
 20
0.0
 30
0.0
  9
$PUCSBASE
  2

  9
$PUCSNAME
  2

  9
$PUCSORG
 10
0.0
 20
0.0
 30
0.0
  9
$PUCSXDIR
 10
1.0
 20
0.0
 30
0.0
  9
$PUCSYDIR
 10
0.0
 20
1.0
 30
0.0
  9
$PUCSORTHOREF
  2

  9
$PUCSORTHOVIEW
 70
     0
  9
$PUCSORGTOP
 10
0.0
 20
0.0
 30
0.0
  9
$PUCSORGBOTTOM
 10
0.0
 20
0.0
 30
0.0
  9
$PUCSORGLEFT
 10
0.0
 20
0.0
 30
0.0
  9
$PUCSORGRIGHT
 10
0.0
 20
0.0
 30
0.0
  9
$PUCSORGFRONT
 10
0.0
 20
0.0
 30
0.0
  9
$PUCSORGBACK
 10
0.0
 20
0.0
 30
0.0
  9
$USERI1
 70
     0
  9
$USERI2
 70
     0
  9
$USERI3
 70
     0
  9
$USERI4
 70
     0
  9
$USERI5
 70
     0
  9
$USERR1
 40
18.1
  9
$USERR2
 40
0.0
  9
$USERR3
 40
0.0
  9
$USERR4
 40
0.0
  9
$USERR5
 40
0.0
  9
$WORLDVIEW
 70
     1
  9
$SHADEDGE
 70
     3
  9
$SHADEDIF
 70
    70
  9
$TILEMODE
 70
     1
  9
$MAXACTVP
 70
    64
  9
$PINSBASE
 10
0.0
 20
0.0
 30
0.0
  9
$PLIMCHECK
 70
     0
  9
$PEXTMIN
 10
1.00000000000000E+20
 20
1.00000000000000E+20
 30
1.00000000000000E+20
  9
$PEXTMAX
 10
-1.00000000000000E+20
 20
-1.00000000000000E+20
 30
-1.00000000000000E+20
  9
$PLIMMIN
 10
0.0
 20
0.0
  9
$PLIMMAX
 10
12.0
 20
9.0
  9
$UNITMODE
 70
     0
  9
$VISRETAIN
 70
     1
  9
$PLINEGEN
 70
     0
  9
$PSLTSCALE
 70
     1
  9
$TREEDEPTH
 70
  3020
  9
$CMLSTYLE
  2
Standard
  9
$CMLJUST
 70
     0
  9
$CMLSCALE
 40
1.0
  9
$PROXYGRAPHICS
 70
     1
  9
$MEASUREMENT
 70
     1
  9
$CELWEIGHT
370
    -1
  9
$ENDCAPS
280
     0
  9
$JOINSTYLE
280
     0
  9
$LWDISPLAY
290
     0
  9
$INSUNITS
 70
     4
  9
$HYPERLINKBASE
  1

  9
$STYLESHEET
  1

  9
$XEDIT
290
     1
  9
$CEPSNTYPE
380
     0
  9
$PSTYLEMODE
290
     1
  9
$FINGERPRINTGUID
  2
{2CC280A9-9EB1-43FC-9963-6825A936D5C9}
  9
$VERSIONGUID
  2
{FAEB1C32-E019-11D5-929B-00C0DF256EC4}
  9
$EXTNAMES
290
     1
  9
$PSVPSCALE
 40
0.0
  9
$OLESTARTUP
290
     0
  0
ENDSEC
  0
SECTION
  2
CLASSES
  0
CLASS
  1
ACDBDICTIONARYWDFLT
  2
AcDbDictionaryWithDefault
  3
ObjectDBX Classes
 90
        0
280
     0
281
     0
  0
CLASS
  1
VISUALSTYLE
  2
AcDbVisualStyle
  3
ObjectDBX Classes
 90
     4095
280
     0
281
     0
  0
CLASS
  1
MATERIAL
  2
AcDbMaterial
  3
ObjectDBX Classes
 90
     1153
280
     0
281
     0
  0
CLASS
  1
DICTIONARYVAR
  2
AcDbDictionaryVar
  3
ObjectDBX Classes
 90
        0
280
     0
281
     0
  0
CLASS
  1
ACDBPLACEHOLDER
  2
AcDbPlaceHolder
  3
ObjectDBX Classes
 90
        0
280
     0
281
     0
  0
CLASS
  1
LAYOUT
  2
AcDbLayout
  3
ObjectDBX Classes
 90
        0
280
     0
281
     0
  0
ENDSEC
  0
SECTION
  2
TABLES
  0
TABLE
  2
VPORT
  5
8
330
0
100
AcDbSymbolTable
 70
     1
  0
VPORT
  5
29
330
8
100
AcDbSymbolTableRecord
100
AcDbViewportTableRecord
  2
*Active
 70
     0
 10
0.0
 20
0.0
 11
1.0
 21
1.0
 12
-95.53766974706194
 22
107.2820721072511
 13
0.0
 23
0.0
 14
0.5
 24
0.5
 15
0.5
 25
0.5
 16
0.0
 26
0.0
 36
1.0
 17
0.0
 27
0.0
 37
0.0
 40
231.0000000000001
 41
1.60267857142857
 42
50.0
 43
0.0
 44
0.0
 50
0.0
 51
0.0
 71
     0
 72
   100
 73
     1
 74
     3
 75
     0
 76
     0
 77
     0
 78
     0
281
     0
 65
     1
110
0.0
120
0.0
130
0.0
111
1.0
121
0.0
131
0.0
112
0.0
122
1.0
132
0.0
 79
     0
146
0.0
  0
ENDTAB
  0
TABLE
  2
LTYPE
  5
5
330
0
100
AcDbSymbolTable
 70
     8
  0
LTYPE
  5
14
330
5
100
AcDbSymbolTableRecord
100
AcDbLinetypeTableRecord
  2
ByBlock
 70
     0
  3

 72
    65
 73
     0
 40
0.0
  0
LTYPE
  5
15
330
5
100
AcDbSymbolTableRecord
100
AcDbLinetypeTableRecord
  2
ByLayer
 70
     0
  3

 72
    65
 73
     0
 40
0.0
  0
LTYPE
  5
16
330
5
100
AcDbSymbolTableRecord
100
AcDbLinetypeTableRecord
  2
Continuous
 70
     0
  3
Solid line
 72
    65
 73
     0
 40
0.0
  0
LTYPE
  5
3F
330
5
100
AcDbSymbolTableRecord
100
AcDbLinetypeTableRecord
  2
DASHED
 70
     0
  3
Dashed
 72
    65
 73
     2
 40
15.0
 49
7.0
 74
     0
 49
-8.0
 74
     0
  0
LTYPE
  5
40
330
5
100
AcDbSymbolTableRecord
100
AcDbLinetypeTableRecord
  2
DOTTED
 70
     0
  3
Dotted
 72
    65
 73
     2
 40
1.0
 49
0.0
 74
     0
 49
-1.0
 74
     0
  0
LTYPE
  5
41
330
5
100
AcDbSymbolTableRecord
100
AcDbLinetypeTableRecord
  2
DOT_CENTER
 70
     0
  3
Dot_Center
 72
    65
 73
     4
 40
14.0
 49
12.0
 74
     0
 49
-1.0
 74
     0
 49
0.0
 74
     0
 49
-1.0
 74
     0
  0
LTYPE
  5
42
330
5
100
AcDbSymbolTableRecord
100
AcDbLinetypeTableRecord
  2
LONG_DASHED
 70
     0
  3
Long_Dashed
 72
    65
 73
     2
 40
15.0
 49
10.0
 74
     0
 49
-5.0
 74
     0
  0
LTYPE
  5
43
330
5
100
AcDbSymbolTableRecord
100
AcDbLinetypeTableRecord
  2
DASH_CENTER
 70
     0
  3
Dash_Center
 72
    65
 73
     4
 40
14.0
 49
11.0
 74
     0
 49
-1.0
 74
     0
 49
1.0
 74
     0
 49
-1.0
 74
     0
  0
LTYPE
  5
44
330
5
100
AcDbSymbolTableRecord
100
AcDbLinetypeTableRecord
  2
PHANTOM
 70
     0
  3
Phantom
 72
    65
 73
     6
 40
13.0
 49
10.0
 74
     0
 49
-1.0
 74
     0
 49
0.0
 74
     0
 49
-1.0
 74
     0
 49
0.0
 74
     0
 49
-1.0
 74
     0
  0
LTYPE
  5
45
330
5
100
AcDbSymbolTableRecord
100
AcDbLinetypeTableRecord
  2
CENTER_DASH_DASH
 70
     0
  3
Center_Dash_Dash
 72
    65
 73
     6
 40
14.0
 49
9.0
 74
     0
 49
-1.0
 74
     0
 49
1.0
 74
     0
 49
-1.0
 74
     0
 49
1.0
 74
     0
 49
-1.0
 74
     0
  0
ENDTAB
  0
TABLE
  2
LAYER
  5
2
330
0
100
AcDbSymbolTable
 70
     2
  0
LAYER
  5
10
330
2
100
AcDbSymbolTableRecord
100
AcDbLayerTableRecord
  2
0
 70
     0
 62
     7
  6
Continuous
370
    -3
390
F
  0
LAYER
  5
46
330
2
100
AcDbSymbolTableRecord
100
AcDbLayerTableRecord
  2
1
 70
     0
 62
     7
  6
Continuous
370
    -3
390
F
  0
ENDTAB
  0
TABLE
  2
STYLE
  5
3
330
0
100
AcDbSymbolTable
 70
     9
  0
STYLE
  5
11
330
3
100
AcDbSymbolTableRecord
100
AcDbTextStyleTableRecord
  2
Standard
 70
     0
 40
0.0
 41
1.0
 50
0.0
 71
     0
 42
0.2
  3
txt
  4

  0
STYLE
  5
AC
330
3
100
AcDbSymbolTableRecord
100
AcDbTextStyleTableRecord
  2
CONVERTER_11
 70
     0
 40
0.0
 41
0.9
 50
0.0
 71
     0
 42
0.2
  3
txt.shx
  4

  0
STYLE
  5
2C7
330
3
100
AcDbSymbolTableRecord
100
AcDbTextStyleTableRecord
  2
CONVERTER_12
 70
     0
 40
0.0
 41
0.63
 50
0.0
 71
     0
 42
0.2
  3
txt.shx
  4

  0
STYLE
  5
2CA
330
3
100
AcDbSymbolTableRecord
100
AcDbTextStyleTableRecord
  2
CONVERTER_13
 70
     0
 40
0.0
 41
0.72
 50
0.0
 71
     0
 42
0.2
  3
txt.shx
  4

  0
STYLE
  5
2CE
330
3
100
AcDbSymbolTableRecord
100
AcDbTextStyleTableRecord
  2
CONVERTER_14
 70
     0
 40
0.0
 41
0.765
 50
0.0
 71
     0
 42
0.2
  3
txt.shx
  4

  0
STYLE
  5
306
330
3
100
AcDbSymbolTableRecord
100
AcDbTextStyleTableRecord
  2
CONVERTER_15
 70
     0
 40
0.0
 41
0.855
 50
0.0
 71
     0
 42
0.2
  3
txt.shx
  4

  0
STYLE
  5
322
330
3
100
AcDbSymbolTableRecord
100
AcDbTextStyleTableRecord
  2
CONVERTER_16
 70
     0
 40
0.0
 41
0.54
 50
0.0
 71
     0
 42
0.2
  3
txt.shx
  4

  0
STYLE
  5
324
330
3
100
AcDbSymbolTableRecord
100
AcDbTextStyleTableRecord
  2
CONVERTER_17
 70
     0
 40
0.0
 41
0.81
 50
0.0
 71
     0
 42
0.2
  3
txt.shx
  4

  0
STYLE
  5
32B
330
3
100
AcDbSymbolTableRecord
100
AcDbTextStyleTableRecord
  2
CONVERTER_18
 70
     0
 40
0.0
 41
0.45
 50
0.0
 71
     0
 42
0.2
  3
txt.shx
  4

  0
ENDTAB
  0
TABLE
  2
VIEW
  5
6
330
0
100
AcDbSymbolTable
 70
     0
  0
ENDTAB
  0
TABLE
  2
UCS
  5
7
330
0
100
AcDbSymbolTable
 70
     0
  0
ENDTAB
  0
TABLE
  2
APPID
  5
9
330
0
100
AcDbSymbolTable
 70
     1
  0
APPID
  5
12
330
9
100
AcDbSymbolTableRecord
100
AcDbRegAppTableRecord
  2
ACAD
 70
     0
  0
ENDTAB
  0
TABLE
  2
DIMSTYLE
  5
A
330
0
100
AcDbSymbolTable
 70
     3
100
AcDbDimStyleTable
  0
DIMSTYLE
105
27
330
A
100
AcDbSymbolTableRecord
100
AcDbDimStyleTableRecord
  2
Standard
 70
     0
178
     0
340
11
  0
DIMSTYLE
105
121
102
{ACAD_REACTORS
330
122
102
}
330
A
100
AcDbSymbolTableRecord
100
AcDbDimStyleTableRecord
  2
ME10_DIM_10
 70
     0
 41
1.75
 42
0.0
 44
1.0
 73
     0
 74
     0
 77
     1
 78
     8
140
1.75
147
1.0
172
     1
173
     1
174
     1
175
     1
176
     2
177
     2
178
     3
340
AC
  0
DIMSTYLE
105
12C
102
{ACAD_REACTORS
330
12D
102
}
330
A
100
AcDbSymbolTableRecord
100
AcDbDimStyleTableRecord
  2
ME10_DIM_11
 70
     0
  3
ø<>
 41
1.75
 42
0.0
 44
1.0
 73
     0
 74
     0
 77
     1
 78
     8
140
1.75
147
1.0
172
     1
173
     1
174
     1
175
     1
176
     2
177
     2
178
     3
340
AC
  0
ENDTAB
  0
TABLE
  2
BLOCK_RECORD
  5
1
330
0
100
AcDbSymbolTable
 70
    18
  0
BLOCK_RECORD
  5
1F
330
1
100
AcDbSymbolTableRecord
100
AcDbBlockTableRecord
  2
*Model_Space
340
22
  0
BLOCK_RECORD
  5
1B
330
1
100
AcDbSymbolTableRecord
100
AcDbBlockTableRecord
  2
*Paper_Space
340
1E
  0
BLOCK_RECORD
  5
23
330
1
100
AcDbSymbolTableRecord
100
AcDbBlockTableRecord
  2
*Paper_Space0
340
26
  0
BLOCK_RECORD
  5
47
330
1
100
AcDbSymbolTableRecord
100
AcDbBlockTableRecord
  2
1411243_A_INL_M25_N_S-select__1
340
0
102
{BLKREFS
331
4B
102
}
  0
BLOCK_RECORD
  5
4A
330
1
100
AcDbSymbolTableRecord
100
AcDbBlockTableRecord
  2
Allg1
340
0
102
{BLKREFS
331
7C
102
}
  0
BLOCK_RECORD
  5
4E
330
1
100
AcDbSymbolTableRecord
100
AcDbBlockTableRecord
  2
1411243_A_INL_M25_N_S-select__2
340
0
102
{BLKREFS
331
52
102
}
  0
BLOCK_RECORD
  5
51
330
1
100
AcDbSymbolTableRecord
100
AcDbBlockTableRecord
  2
Drfsicht1
340
0
102
{BLKREFS
331
7D
102
}
  0
BLOCK_RECORD
  5
55
330
1
100
AcDbSymbolTableRecord
100
AcDbBlockTableRecord
  2
1411243_A_INL_M25_N_S-select__3
340
0
102
{BLKREFS
331
59
102
}
  0
BLOCK_RECORD
  5
58
330
1
100
AcDbSymbolTableRecord
100
AcDbBlockTableRecord
  2
Rckans1
340
0
102
{BLKREFS
331
7E
102
}
  0
BLOCK_RECORD
  5
5C
330
1
100
AcDbSymbolTableRecord
100
AcDbBlockTableRecord
  2
1411243_A_INL_M25_N_S-select__4
340
0
102
{BLKREFS
331
60
102
}
  0
BLOCK_RECORD
  5
5F
330
1
100
AcDbSymbolTableRecord
100
AcDbBlockTableRecord
  2
SA_Links1
340
0
102
{BLKREFS
331
7F
102
}
  0
BLOCK_RECORD
  5
63
330
1
100
AcDbSymbolTableRecord
100
AcDbBlockTableRecord
  2
1411243_A_INL_M25_N_S-select__5
340
0
102
{BLKREFS
331
67
102
}
  0
BLOCK_RECORD
  5
66
330
1
100
AcDbSymbolTableRecord
100
AcDbBlockTableRecord
  2
SA_Rechts1
340
0
102
{BLKREFS
331
80
102
}
  0
BLOCK_RECORD
  5
6A
330
1
100
AcDbSymbolTableRecord
100
AcDbBlockTableRecord
  2
1411243_A_INL_M25_N_S-select__6
340
0
102
{BLKREFS
331
6E
102
}
  0
BLOCK_RECORD
  5
6D
330
1
100
AcDbSymbolTableRecord
100
AcDbBlockTableRecord
  2
Vordans1
340
0
102
{BLKREFS
331
81
102
}
  0
BLOCK_RECORD
  5
71
330
1
100
AcDbSymbolTableRecord
100
AcDbBlockTableRecord
  2
_punkt
340
0
102
{BLKREFS
331
78
102
}
  0
BLOCK_RECORD
  5
74
330
1
100
AcDbSymbolTableRecord
100
AcDbBlockTableRecord
  2
_rahmen
340
0
102
{BLKREFS
331
79
102
}
  0
BLOCK_RECORD
  5
77
330
1
100
AcDbSymbolTableRecord
100
AcDbBlockTableRecord
  2
A4I
340
0
102
{BLKREFS
331
82
102
}
  0
BLOCK_RECORD
  5
116
330
1
100
AcDbSymbolTableRecord
100
AcDbBlockTableRecord
  2
*D16
340
0
  0
BLOCK_RECORD
  5
123
330
1
100
AcDbSymbolTableRecord
100
AcDbBlockTableRecord
  2
*D17
340
0
  0
ENDTAB
  0
ENDSEC
  0
SECTION
  2
BLOCKS
  0
BLOCK
  5
20
330
1F
100
AcDbEntity
  8
0
100
AcDbBlockBegin
  2
*Model_Space
 70
     0
 10
0.0
 20
0.0
 30
0.0
  3
*Model_Space
  1

  0
ENDBLK
  5
21
330
1F
100
AcDbEntity
  8
0
100
AcDbBlockEnd
  0
BLOCK
  5
1C
330
1B
100
AcDbEntity
 67
     1
  8
0
100
AcDbBlockBegin
  2
*Paper_Space
 70
     0
 10
0.0
 20
0.0
 30
0.0
  3
*Paper_Space
  1

  0
ENDBLK
  5
1D
330
1B
100
AcDbEntity
 67
     1
  8
0
100
AcDbBlockEnd
  0
BLOCK
  5
24
330
23
100
AcDbEntity
  8
0
100
AcDbBlockBegin
  2
*Paper_Space0
 70
     0
 10
0.0
 20
0.0
 30
0.0
  3
*Paper_Space0
  1

  0
ENDBLK
  5
25
330
23
100
AcDbEntity
  8
0
100
AcDbBlockEnd
  0
BLOCK
  5
48
330
47
100
AcDbEntity
  8
0
100
AcDbBlockBegin
  2
1411243_A_INL_M25_N_S-select__1
 70
     0
 10
-11.36538105676211
 20
25.30303076489016
 30
0.0
  3
1411243_A_INL_M25_N_S-select__1
  1

  0
LINE
  5
83
330
47
100
AcDbEntity
  8
0
  6
Continuous
 62
     7
100
AcDbLine
 10
16.36538105677106
 20
43.46071267820545
 30
0.0
 11
14.8163429510944
 21
42.11920632725931
 31
0.0
  0
LINE
  5
84
330
47
100
AcDbEntity
  8
0
  6
Continuous
 62
     7
100
AcDbLine
 10
16.36538105677106
 20
43.46071267820545
 30
0.0
 11
16.36538105677105
 21
31.55483177841479
 31
0.0
  0
LINE
  5
85
330
47
100
AcDbEntity
  8
0
  6
Continuous
 62
     7
100
AcDbLine
 10
14.8163429510944
 20
30.21332542746868
 30
0.0
 11
16.36538105677105
 21
31.55483177841479
 31
0.0
  0
LINE
  5
86
330
47
100
AcDbEntity
  8
0
  6
Continuous
 62
     7
100
AcDbLine
 10
15.02558818521307
 20
29.62100734078396
 30
0.0
 11
13.47655007953639
 21
28.27950098983784
 31
0.0
  0
LINE
  5
87
330
47
100
AcDbEntity
  8
0
  6
Continuous
 62
     7
100
AcDbLine
 10
13.47655007953642
 20
44.82656053994252
 30
0.0
 11
15.02558818521309
 21
46.16806689088864
 31
0.0
  0
LINE
  5
88
330
47
100
AcDbEntity
  8
0
  6
Continuous
 62
     7
100
AcDbLine
 10
4.71479287156245
 20
55.09747756573163
 30
0.0
 11
15.02558818521309
 21
46.16806689088864
 31
0.0
  0
LINE
  5
89
330
47
100
AcDbEntity
  8
0
  6
Continuous
 62
     7
100
AcDbLine
 10
4.71479287156245
 20
55.09747756573163
 30
0.0
 11
3.16575476588578
 21
53.75597121478552
 31
0.0
  0
LINE
  5
8A
330
47
100
AcDbEntity
  8
0
  6
Continuous
 62
     7
100
AcDbLine
 10
0.48616902276996
 20
54.52950098983789
 30
0.0
 11
2.03520712844649
 21
55.87100734078397
 31
0.0
  0
LINE
  5
8B
330
47
100
AcDbEntity
  8
0
  6
Continuous
 62
     7
100
AcDbLine
 10
-8.27558818520414
 20
52.89453711583631
 30
0.0
 11
2.03520712844649
 21
55.87100734078397
 31
0.0
  0
LINE
  5
8C
330
47
100
AcDbEntity
  8
0
  6
Continuous
 62
     7
100
AcDbLine
 10
-8.27558818520414
 20
52.89453711583631
 30
0.0
 11
-9.8246262908808
 21
51.55303076489019
 31
0.0
  0
SPLINE
  5
8D
330
47
100
AcDbEntity
  8
0
  6
Continuous
 62
     7
100
AcDbSpline
210
0.0
220
0.0
230
1.0
 70
     8
 71
     3
 72
    11
 73
     7
 74
     5
 42
0.000000001
 43
0.0000000001
 44
0.00000001
 40
0.0
 40
0.0
 40
0.0
 40
0.0
 40
1.57517928799973
 40
3.1876643232057
 40
4.867831238652967
 40
6.634655081910374
 40
6.634655081910374
 40
6.634655081910374
 40
6.634655081910374
 10
9.31718063082321
 20
30.86006265597053
 30
0.0
 10
9.691160141881415
 20
31.23236516852406
 30
0.0
 10
10.44797629394106
 20
31.98578762731406
 30
0.0
 10
11.21770294515219
 20
33.43683237309033
 30
0.0
 10
11.71466497152615
 20
35.0626964578817
 30
0.0
 10
11.77161012704748
 20
36.21439944229655
 30
0.0
 10
11.80079849447163
 20
36.80472777168737
 30
0.0
 11
9.31718063082321
 21
30.86006265597053
 31
0.0
 11
10.37739804226774
 21
32.02502138260996
 31
0.0
 11
11.15969860778057
 21
33.4350262838749
 31
0.0
 11
11.63924076064158
 21
35.04530582299446
 31
0.0
 11
11.80079849447163
 21
36.80472777168737
 31
0.0
  0
SPLINE
  5
8E
330
47
100
AcDbEntity
  8
0
  6
Continuous
 62
     7
100
AcDbSpline
210
0.0
220
0.0
230
1.0
 70
     8
 71
     3
 72
    19
 73
    15
 74
    13
 42
0.000000001
 43
0.0000000001
 44
0.00000001
 40
0.0
 40
0.0
 40
0.0
 40
0.0
 40
2.114901787205229
 40
4.340019843288347
 40
6.650973113908558
 40
9.012748479945653
 40
11.38450521493673
 40
13.72429469267646
 40
15.99375771435338
 40
18.16288926034405
 40
20.21485072507819
 40
22.15046254725159
 40
23.99117010458099
 40
25.77814193105442
 40
25.77814193105442
 40
25.77814193105442
 40
25.77814193105442
 10
11.80079849447163
 20
36.80472777168737
 30
0.0
 10
11.75828042925901
 20
37.51046641773813
 30
0.0
 10
11.67102849202127
 20
38.95872266465714
 30
0.0
 10
11.02099265198947
 20
41.09731555894941
 30
0.0
 10
10.02859348584182
 20
43.17859881308376
 30
0.0
 10
8.690328811354986
 20
45.12054430313884
 30
0.0
 10
7.071716391609813
 20
46.8467562904202
 30
0.0
 10
5.233385295691028
 20
48.2887368245466
 30
0.0
 10
3.248127532186909
 20
49.38918700371082
 30
0.0
 10
1.193749764126678
 20
50.10240026105349
 30
0.0
 10
-0.8527413519061866
 20
50.40027177157845
 30
0.0
 10
-2.801935412073894
 20
50.25485302444149
 30
0.0
 10
-4.604603830153575
 20
49.70035792276173
 30
0.0
 10
-5.584493302941044
 20
48.97948856213291
 30
0.0
 10
-6.067180630814256
 20
48.62439288740421
 30
0.0
 11
11.80079849447163
 21
36.80472777168737
 31
0.0
 11
11.59323763215139
 21
38.9094196859179
 31
0.0
 11
10.97902470869048
 21
41.0480858227854
 31
0.0
 11
9.983214324203708
 21
43.13347947724259
 31
0.0
 11
8.646432425210701
 21
45.08052776446419
 31
0.0
 11
7.023211173140594
 21
46.80980009033448
 31
0.0
 11
5.179771083896192
 21
48.25075235836727
 31
0.0
 11
3.191314099530524
 21
49.34459934493355
 31
0.0
 11
1.138959676071728
 21
50.04671969573963
 31
0.0
 11
-0.8935667311753228
 21
50.32846827312838
 31
0.0
 11
-2.823348762721331
 21
50.17835349828736
 31
0.0
 11
-4.571660395537528
 21
49.60249694872993
 31
0.0
 11
-6.067180630814256
 21
48.62439288740421
 31
0.0
  0
SPLINE
  5
8F
330
47
100
AcDbEntity
  8
0
  6
Continuous
 62
     7
100
AcDbSpline
210
0.0
220
0.0
230
1.0
 70
     8
 71
     3
 72
    11
 73
     7
 74
     5
 42
0.000000001
 43
0.0000000001
 44
0.00000001
 40
0.0
 40
0.0
 40
0.0
 40
0.0
 40
1.58927972934656
 40
3.104069662093364
 40
4.638798335415034
 40
6.131174246192808
 40
6.131174246192808
 40
6.131174246192808
 40
6.131174246192808
 10
-11.16441916243876
 20
49.61920632725936
 30
0.0
 10
-11.19489908675807
 20
49.09031451536551
 30
0.0
 10
-11.25443032166415
 20
48.05732013509982
 30
0.0
 10
-11.31672667172739
 20
46.5122522208142
 30
0.0
 10
-11.35766565905435
 20
44.99874154469491
 30
0.0
 10
-11.36283336325069
 20
43.98969310356805
 30
0.0
 10
-11.36538105676211
 20
43.49222777168792
 30
0.0
 11
-11.16441916243876
 21
49.61920632725936
 31
0.0
 11
-11.2511808905192
 21
48.03229660683912
 31
0.0
 11
-11.31313629487411
 21
46.5187742024278
 31
0.0
 11
-11.35236223477396
 21
44.98454689629318
 31
0.0
 11
-11.36538105676211
 21
43.49222777168792
 31
0.0
  0
SPLINE
  5
90
330
47
100
AcDbEntity
  8
0
  6
Continuous
 62
     7
100
AcDbSpline
210
0.0
220
0.0
230
1.0
 70
     8
 71
     3
 72
     9
 73
     5
 74
     3
 42
0.000000001
 43
0.0000000001
 44
0.00000001
 40
0.0
 40
0.0
 40
0.0
 40
0.0
 40
1.170735459257855
 40
2.356965272126746
 40
2.356965272126746
 40
2.356965272126746
 40
2.356965272126746
 10
-9.8246262908808
 20
51.55303076489019
 30
0.0
 10
-10.07578849039417
 20
51.25318420905029
 30
0.0
 10
-10.58143693426939
 20
50.6495227009117
 30
0.0
 10
-10.96924196699558
 20
49.96414697621604
 30
0.0
 10
-11.16441916243876
 20
49.61920632725936
 30
0.0
 11
-9.8246262908808
 21
51.55303076489019
 31
0.0
 11
-10.54903809865407
 21
50.63333024311859
 31
0.0
 11
-11.16441916243876
 21
49.61920632725936
 31
0.0
  0
SPLINE
  5
91
330
47
100
AcDbEntity
  8
0
  6
Continuous
 62
     7
100
AcDbSpline
210
0.0
220
0.0
230
1.0
 70
     8
 71
     3
 72
    11
 73
     7
 74
     5
 42
0.000000001
 43
0.0000000001
 44
0.00000001
 40
0.0
 40
0.0
 40
0.0
 40
0.0
 40
1.31939434636776
 40
2.624766767962282
 40
3.866752885337763
 40
5.1261571494961
 40
5.1261571494961
 40
5.1261571494961
 40
5.1261571494961
 10
-4.870190528378807
 20
52.86722777168737
 30
0.0
 10
-5.293112461663842
 20
52.74654681873005
 30
0.0
 10
-6.134461709784405
 20
52.50646746967416
 30
0.0
 10
-7.378883184016113
 20
52.17058473871131
 30
0.0
 10
-8.607109845907374
 20
51.85168615308
 30
0.0
 10
-9.416907829368135
 20
51.65304363095364
 30
0.0
 10
-9.8246262908808
 20
51.55303076489019
 30
0.0
 11
-4.870190528378807
 21
52.86722777168737
 31
0.0
 11
-6.139807563850083
 21
52.50823748684845
 31
0.0
 11
-7.399829304357091
 21
52.16714750927415
 31
0.0
 11
-8.602165743788216
 21
51.85583319473758
 31
0.0
 11
-9.8246262908808
 21
51.55303076489019
 31
0.0
  0
SPLINE
  5
92
330
47
100
AcDbEntity
  8
0
  6
Continuous
 62
     7
100
AcDbSpline
210
0.0
220
0.0
230
1.0
 70
     8
 71
     3
 72
    13
 73
     9
 74
     7
 42
0.000000001
 43
0.0000000001
 44
0.00000001
 40
0.0
 40
0.0
 40
0.0
 40
0.0
 40
2.005793939022584
 40
3.970705185836938
 40
5.939733009188814
 40
7.957117215460811
 40
10.05852911819506
 40
12.26615307414188
 40
12.26615307414188
 40
12.26615307414188
 40
12.26615307414188
 10
-4.870190528378807
 20
52.86722777168737
 30
0.0
 10
-5.502711124771267
 20
52.64187293505208
 30
0.0
 10
-6.754860088051872
 20
52.1957564983342
 30
0.0
 10
-8.377639248895479
 20
51.01680255389808
 30
0.0
 10
-9.698536023962886
 20
49.51616481186419
 30
0.0
 10
-10.65660921671464
 20
47.70979183886547
 30
0.0
 10
-11.25898786872053
 20
45.6682229666297
 30
0.0
 10
-11.3293386476463
 20
44.22938135341696
 30
0.0
 10
-11.36538105676211
 20
43.49222777168792
 30
0.0
 11
-4.870190528378807
 21
52.86722777168737
 31
0.0
 11
-6.725055793054254
 21
52.10389024136263
 31
0.0
 11
-8.326209222529599
 21
50.96495042177983
 31
0.0
 11
-9.624999736817948
 21
49.48501333634383
 31
0.0
 11
-10.58196522023614
 21
47.70904709052488
 31
0.0
 11
-11.16802768000768
 21
45.69101270402646
 31
0.0
 11
-11.36538105676211
 21
43.49222777168792
 31
0.0
  0
SPLINE
  5
93
330
47
100
AcDbEntity
  8
0
  6
Continuous
 62
     7
100
AcDbSpline
210
0.0
220
0.0
230
1.0
 70
     8
 71
     3
 72
    11
 73
     7
 74
     5
 42
0.000000001
 43
0.0000000001
 44
0.00000001
 40
0.0
 40
0.0
 40
0.0
 40
0.0
 40
1.719306715356001
 40
3.382072391161059
 40
5.09418171299312
 40
6.788564840918611
 40
6.788564840918611
 40
6.788564840918611
 40
6.788564840918611
 10
-9.824626290880794
 20
35.0059712147855
 30
0.0
 10
-9.418627428433604
 20
34.60145959124718
 30
0.0
 10
-8.619981352562313
 20
33.80573910490727
 30
0.0
 10
-7.390981749084133
 20
32.63384962421213
 30
0.0
 10
-6.14907338179709
 20
31.48779225857581
 30
0.0
 10
-5.295003389099343
 20
30.73945122868759
 30
0.0
 10
-4.870190528378807
 20
30.36722777168736
 30
0.0
 11
-9.824626290880794
 21
35.0059712147855
 31
0.0
 11
-8.60215948785783
 21
33.79700864414557
 31
0.0
 11
-7.399828303473534
 21
32.64844893029509
 31
0.0
 11
-6.139799867477893
 21
31.48929118819217
 31
0.0
 11
-4.870190528378807
 21
30.36722777168736
 31
0.0
  0
SPLINE
  5
94
330
47
100
AcDbEntity
  8
0
  6
Continuous
 62
     7
100
AcDbSpline
210
0.0
220
0.0
230
1.0
 70
     8
 71
     3
 72
     9
 73
     5
 74
     3
 42
0.000000001
 43
0.0000000001
 44
0.00000001
 40
0.0
 40
0.0
 40
0.0
 40
0.0
 40
1.50132923889597
 40
3.022794181817513
 40
3.022794181817513
 40
3.022794181817513
 40
3.022794181817513
 10
-11.16441916243876
 20
37.71332542746873
 30
0.0
 10
-10.96752390393474
 20
37.25278283883939
 30
0.0
 10
-10.57109262587646
 20
36.3255209108551
 30
0.0
 10
-10.07455094429199
 20
35.44777009419234
 30
0.0
 10
-9.824626290880794
 20
35.0059712147855
 30
0.0
 11
-11.16441916243876
 21
37.71332542746873
 31
0.0
 11
-10.54903809865407
 21
36.34391108877917
 31
0.0
 11
-9.824626290880794
 21
35.0059712147855
 31
0.0
  0
SPLINE
  5
95
330
47
100
AcDbEntity
  8
0
  6
Continuous
 62
     7
100
AcDbSpline
210
0.0
220
0.0
230
1.0
 70
     8
 71
     3
 72
    13
 73
     9
 74
     7
 42
0.000000001
 43
0.0000000001
 44
0.00000001
 40
0.0
 40
0.0
 40
0.0
 40
0.0
 40
2.32113212227176
 40
4.749316493914991
 40
7.266767171629915
 40
9.847239743381207
 40
12.45897715481463
 40
15.06761243040562
 40
15.06761243040562
 40
15.06761243040562
 40
15.06761243040562
 10
-11.36538105676211
 20
43.49222777168792
 30
0.0
 10
-11.32530248810496
 20
42.71782487466111
 30
0.0
 10
-11.24329688424474
 20
41.13330307448579
 30
0.0
 10
-10.62382340437909
 20
38.7760240952332
 30
0.0
 10
-9.669955591938837
 20
36.44901820783706
 30
0.0
 10
-8.36448851058746
 20
34.22729934853894
 30
0.0
 10
-6.778538353673232
 20
32.15283896144749
 30
0.0
 10
-5.506054421455506
 20
30.96219565691989
 30
0.0
 10
-4.870190528378807
 20
30.36722777168736
 30
0.0
 11
-11.36538105676211
 21
43.49222777168792
 31
0.0
 11
-11.16802768000767
 21
41.17950081415374
 31
0.0
 11
-10.58196522023613
 21
38.82310310874416
 31
0.0
 11
-9.62499973681794
 21
36.49463258346853
 31
0.0
 11
-8.326209222529592
 21
34.26483844498723
 31
0.0
 11
-6.72505579305425
 21
32.20147226188295
 31
0.0
 11
-4.870190528378807
 21
30.36722777168736
 31
0.0
  0
SPLINE
  5
96
330
47
100
AcDbEntity
  8
0
  6
Continuous
 62
     7
100
AcDbSpline
210
0.0
220
0.0
230
1.0
 70
     8
 71
     3
 72
    11
 73
     7
 74
     5
 42
0.000000001
 43
0.0000000001
 44
0.00000001
 40
0.0
 40
0.0
 40
0.0
 40
0.0
 40
1.752031193850373
 40
3.438184370958697
 40
5.165115687029858
 40
6.864416621821114
 40
6.864416621821114
 40
6.864416621821114
 40
6.864416621821114
 10
13.47655007953642
 20
44.82656053994252
 30
0.0
 10
13.00993981841205
 20
45.17778851100136
 30
0.0
 10
12.09426428875446
 20
45.86703796366429
 30
0.0
 10
10.74087547726255
 20
46.93143695390554
 30
0.0
 10
9.41822669863253
 20
48.00622661588396
 30
0.0
 10
8.550536793069554
 20
48.74889041949935
 30
0.0
 10
8.120190528388228
 20
49.11722777168697
 30
0.0
 11
13.47655007953642
 21
44.82656053994252
 31
0.0
 11
12.0805587300507
 21
45.88524909499147
 31
0.0
 11
10.75431782839428
 21
46.9264971960826
 31
0.0
 11
9.415835726652045
 21
48.01771552182481
 31
0.0
 11
8.120190528388228
 21
49.11722777168697
 31
0.0
  0
SPLINE
  5
97
330
47
100
AcDbEntity
  8
0
  6
Continuous
 62
     7
100
AcDbSpline
210
0.0
220
0.0
230
1.0
 70
     8
 71
     3
 72
    13
 73
     9
 74
     7
 42
0.000000001
 43
0.0000000001
 44
0.00000001
 40
0.0
 40
0.0
 40
0.0
 40
0.0
 40
2.321132122271285
 40
4.749316493914455
 40
7.26676717162937
 40
9.847239743380658
 40
12.45897715481402
 40
15.06761243040448
 40
15.06761243040448
 40
15.06761243040448
 40
15.06761243040448
 10
14.61538105677106
 20
35.99222777168735
 30
0.0
 10
14.5753024881139
 20
36.76663066871398
 30
0.0
 10
14.49329688425367
 20
38.35115246888915
 30
0.0
 10
13.87382340438802
 20
40.70843144814154
 30
0.0
 10
12.91995559194779
 20
43.03543733553767
 30
0.0
 10
11.61448851059644
 20
45.25715619483576
 30
0.0
 10
10.02853835368235
 20
47.33161658192708
 30
0.0
 10
8.756054421464789
 20
48.52225988645456
 30
0.0
 10
8.120190528388228
 20
49.11722777168697
 30
0.0
 11
14.61538105677106
 21
35.99222777168735
 31
0.0
 11
14.41802768001663
 21
38.30495472922105
 31
0.0
 11
13.83196522024508
 21
40.66135243463057
 31
0.0
 11
12.8749997368269
 21
42.98982295990619
 31
0.0
 11
11.57620922253856
 21
45.21961709838749
 31
0.0
 11
9.97505579306327
 21
47.28298328149174
 31
0.0
 11
8.120190528388228
 21
49.11722777168697
 31
0.0
  0
SPLINE
  5
98
330
47
100
AcDbEntity
  8
0
  6
Continuous
 62
     7
100
AcDbSpline
210
0.0
220
0.0
230
1.0
 70
     8
 71
     3
 72
     9
 73
     5
 74
     3
 42
0.000000001
 43
0.0000000001
 44
0.00000001
 40
0.0
 40
0.0
 40
0.0
 40
0.0
 40
1.501329238895965
 40
3.022794181817495
 40
3.022794181817495
 40
3.022794181817495
 40
3.022794181817495
 10
14.8163429510944
 20
42.11920632725931
 30
0.0
 10
14.61944769259038
 20
42.57974891588866
 30
0.0
 10
14.2230164145321
 20
43.50701084387293
 30
0.0
 10
13.72647473294762
 20
44.38476166053569
 30
0.0
 10
13.47655007953642
 20
44.82656053994252
 30
0.0
 11
14.8163429510944
 21
42.11920632725931
 31
0.0
 11
14.20096188730971
 21
43.48862066594887
 31
0.0
 11
13.47655007953642
 21
44.82656053994252
 31
0.0
  0
SPLINE
  5
99
330
47
100
AcDbEntity
  8
0
  6
Continuous
 62
     7
100
AcDbSpline
210
0.0
220
0.0
230
1.0
 70
     8
 71
     3
 72
     9
 73
     5
 74
     3
 42
0.000000001
 43
0.0000000001
 44
0.00000001
 40
0.0
 40
0.0
 40
0.0
 40
0.0
 40
1.501329238895937
 40
3.022794181817477
 40
3.022794181817477
 40
3.022794181817477
 40
3.022794181817477
 10
16.36538105677106
 20
43.46071267820545
 30
0.0
 10
16.16848579826704
 20
43.92125526683478
 30
0.0
 10
15.77205452020876
 20
44.84851719481904
 30
0.0
 10
15.27551283862429
 20
45.7262680114818
 30
0.0
 10
15.02558818521309
 20
46.16806689088864
 30
0.0
 11
16.36538105677106
 21
43.46071267820545
 31
0.0
 11
15.74999999298637
 21
44.83012701689498
 31
0.0
 11
15.02558818521309
 21
46.16806689088864
 31
0.0
  0
SPLINE
  5
9A
330
47
100
AcDbEntity
  8
0
  6
Continuous
 62
     7
100
AcDbSpline
210
0.0
220
0.0
230
1.0
 70
     8
 71
     3
 72
     9
 73
     5
 74
     3
 42
0.000000001
 43
0.0000000001
 44
0.00000001
 40
0.0
 40
0.0
 40
0.0
 40
0.0
 40
1.413254207345404
 40
2.791623429370174
 40
2.791623429370174
 40
2.791623429370174
 40
2.791623429370174
 10
3.165754765885779
 20
53.75597121478552
 30
0.0
 10
2.722018175005148
 20
53.91580692741648
 30
0.0
 10
1.84549824991512
 20
54.23153292417142
 30
0.0
 10
0.9354881782124527
 20
54.43100921333328
 30
0.0
 10
0.4861690227699569
 20
54.52950098983789
 30
0.0
 11
3.165754765885779
 21
53.75597121478552
 31
0.0
 11
1.825961894327834
 21
54.20568503170345
 31
0.0
 11
0.4861690227699569
 21
54.52950098983789
 31
0.0
  0
SPLINE
  5
9B
330
47
100
AcDbEntity
  8
0
  6
Continuous
 62
     7
100
AcDbSpline
210
0.0
220
0.0
230
1.0
 70
     8
 71
     3
 72
    13
 73
     9
 74
     7
 42
0.000000001
 43
0.0000000001
 44
0.00000001
 40
0.0
 40
0.0
 40
0.0
 40
0.0
 40
2.571421582586932
 40
5.074642916712605
 40
7.484714308407639
 40
9.785669515927832
 40
11.97335512068095
 40
14.05769940057042
 40
14.05769940057042
 40
14.05769940057042
 40
14.05769940057042
 10
8.120190528388228
 20
49.11722777168697
 30
0.0
 10
7.450444621651904
 20
49.65430221354219
 30
0.0
 10
6.128716062281066
 20
50.71420658743249
 30
0.0
 10
3.932372842665409
 20
51.92229532638586
 30
0.0
 10
1.678036415472728
 20
52.78547783994164
 30
0.0
 10
-0.5836717171330377
 20
53.24203588604628
 30
0.0
 10
-2.794036377505116
 20
53.325427584178
 30
0.0
 10
-4.189390450967295
 20
53.01747792430074
 30
0.0
 10
-4.870190528378807
 20
52.86722777168737
 30
0.0
 11
8.120190528388228
 21
49.11722777168697
 31
0.0
 11
6.067971886957944
 21
50.66661719889627
 31
0.0
 11
3.880755997711006
 21
51.88407508472302
 31
0.0
 11
1.625000000004482
 21
52.73260852456265
 31
0.0
 11
-0.6307559977020496
 21
53.186436417225
 31
0.0
 11
-2.817971886948938
 21
53.2317682138308
 31
0.0
 11
-4.870190528378807
 21
52.86722777168737
 31
0.0
  0
SPLINE
  5
9C
330
47
100
AcDbEntity
  8
0
  6
Continuous
 62
     7
100
AcDbSpline
210
0.0
220
0.0
230
1.0
 70
     8
 71
     3
 72
    11
 73
     7
 74
     5
 42
0.000000001
 43
0.0000000001
 44
0.00000001
 40
0.0
 40
0.0
 40
0.0
 40
0.0
 40
1.694383802376269
 40
3.406493822056034
 40
5.069258830139133
 40
6.788564840907727
 40
6.788564840907727
 40
6.788564840907727
 40
6.788564840907727
 10
8.120190528388228
 20
49.11722777168697
 30
0.0
 10
7.695377499422348
 20
49.48945137784479
 30
0.0
 10
6.841307164376786
 20
50.23779271119846
 30
0.0
 10
5.599398638720322
 20
51.3838502517899
 30
0.0
 10
4.370399211536632
 20
52.55573959136181
 30
0.0
 10
3.571753461200383
 20
53.3514597562818
 30
0.0
 10
3.165754765885779
 20
53.75597121478552
 30
0.0
 11
8.120190528388228
 21
49.11722777168697
 31
0.0
 11
6.850580688396577
 21
50.23929163989543
 31
0.0
 11
5.590551752409489
 21
51.39844986923843
 31
0.0
 11
4.388221063713094
 21
52.54700913532453
 31
0.0
 11
3.165754765885779
 21
53.75597121478552
 31
0.0
  0
SPLINE
  5
9D
330
47
100
AcDbEntity
  8
0
  6
Continuous
 62
     7
100
AcDbSpline
210
0.0
220
0.0
230
1.0
 70
     8
 71
     3
 72
    21
 73
    17
 74
    15
 42
0.000000001
 43
0.0000000001
 44
0.00000001
 40
0.0
 40
0.0
 40
0.0
 40
0.0
 40
1.846080062812141
 40
3.778011519721523
 40
5.825390024164099
 40
7.995558234995097
 40
10.27583384149579
 40
12.63806866272012
 40
15.04383263208983
 40
17.44959660145955
 40
19.81183142268387
 40
22.09210702918457
 40
24.26227524001557
 40
26.30965374445815
 40
28.24158520136753
 40
30.08766526417966
 40
30.08766526417966
 40
30.08766526417966
 40
30.08766526417966
 10
-5.125536671195107
 20
49.30521129966363
 30
0.0
 10
-5.475895259101669
 20
48.79507769725255
 30
0.0
 10
-6.192905742802426
 20
47.75108687654158
 30
0.0
 10
-6.72868640040164
 20
45.85266731994814
 30
0.0
 10
-6.865533589395833
 20
43.79708222500834
 30
0.0
 10
-6.564607963700137
 20
41.63715622451737
 30
0.0
 10
-5.854050290366835
 20
39.4692812739761
 30
0.0
 10
-4.761441290776133
 20
37.37789345031572
 30
0.0
 10
-3.333137388122171
 20
35.44835483811626
 30
0.0
 10
-1.627432853361068
 20
33.75905222034745
 30
0.0
 10
0.2864172717892085
 20
32.37888007405419
 30
0.0
 10
2.330548780623502
 20
31.36591394287904
 30
0.0
 10
4.425331733203792
 20
30.75951395823494
 30
0.0
 10
6.479382945184113
 20
30.60130253564979
 30
0.0
 10
8.434871111185249
 20
30.86038506795047
 30
0.0
 10
9.570584119775035
 20
31.42089985775131
 30
0.0
 10
10.12553667120405
 20
31.69478870033388
 30
0.0
 11
-5.125536671195107
 21
49.30521129966363
 31
0.0
 11
-6.088379844295494
 21
47.73010983051074
 31
0.0
 11
-6.652675192985832
 21
45.88242751681339
 31
0.0
 11
-6.79465510915689
 21
43.83997789555686
 31
0.0
 11
-6.508342598579592
 21
41.68877934233386
 31
0.0
 11
-5.805793221138589
 21
39.51942892915582
 31
0.0
 11
-4.716597082725713
 21
37.42328839990451
 31
0.0
 11
-3.286623420510145
 21
35.48863711569908
 31
0.0
 11
-1.576097189871121
 21
33.79695148284534
 31
0.0
 11
0.3429444454799468
 21
32.41947823515863
 31
0.0
 11
2.389680325871172
 21
31.41422748095965
 31
0.0
 11
4.477912933703495
 21
30.82353750754923
 31
0.0
 11
6.519696645108588
 21
30.67228266363409
 31
0.0
 11
8.429041491247334
 21
30.96683559848103
 31
0.0
 11
10.12553667120405
 21
31.69478870033388
 31
0.0
  0
SPLINE
  5
9E
330
47
100
AcDbEntity
  8
0
  6
Continuous
 62
     7
100
AcDbSpline
210
0.0
220
0.0
230
1.0
 70
     8
 71
     3
 72
    11
 73
     7
 74
     5
 42
0.000000001
 43
0.0000000001
 44
0.00000001
 40
0.0
 40
0.0
 40
0.0
 40
0.0
 40
1.492376520101938
 40
3.027105845506494
 40
4.541895174463988
 40
6.131174246183906
 40
6.131174246183906
 40
6.131174246183906
 40
6.131174246183906
 10
14.61538105677106
 20
35.99222777168735
 30
0.0
 10
14.61792875236787
 20
36.48969330668202
 30
0.0
 10
14.62309646083762
 20
37.4987421682912
 30
0.0
 10
14.66403547030574
 20
39.01225306320826
 30
0.0
 10
14.72633182647595
 20
40.55732077387739
 30
0.0
 10
14.78586303864328
 20
41.59031473426423
 30
0.0
 10
14.8163429510944
 20
42.11920632725931
 30
0.0
 11
14.61538105677106
 21
35.99222777168735
 31
0.0
 11
14.62839988927619
 21
37.48454750554821
 31
0.0
 11
14.66762586101655
 21
39.01877546316473
 31
0.0
 11
14.72958125452244
 21
40.53229726372518
 31
0.0
 11
14.8163429510944
 21
42.11920632725931
 31
0.0
  0
SPLINE
  5
9F
330
47
100
AcDbEntity
  8
0
  6
Continuous
 62
     7
100
AcDbSpline
210
0.0
220
0.0
230
1.0
 70
     8
 71
     3
 72
    13
 73
     9
 74
     7
 42
0.000000001
 43
0.0000000001
 44
0.00000001
 40
0.0
 40
0.0
 40
0.0
 40
0.0
 40
2.005793939023019
 40
3.97070518583743
 40
5.939733009189294
 40
7.957117215461298
 40
10.05852911819561
 40
12.2661530741429
 40
12.2661530741429
 40
12.2661530741429
 40
12.2661530741429
 10
8.120190528387283
 20
26.61722777168723
 30
0.0
 10
8.75271112477989
 20
26.84258260832254
 30
0.0
 10
10.00486008806066
 20
27.28869904504043
 30
0.0
 10
11.62763924890442
 20
28.46765298947663
 30
0.0
 10
12.94853602397185
 20
29.96829073151054
 30
0.0
 10
13.90660921672359
 20
31.77466370450928
 30
0.0
 10
14.50898786872951
 20
33.81623257674522
 30
0.0
 10
14.57933864765526
 20
35.25507418995817
 30
0.0
 10
14.61538105677106
 20
35.99222777168735
 30
0.0
 11
8.120190528387283
 21
26.61722777168723
 31
0.0
 11
9.975055793063149
 21
27.38056530201208
 31
0.0
 11
11.57620922253856
 21
28.5195051215949
 31
0.0
 11
12.8749997368269
 21
29.9994422070309
 31
0.0
 11
13.83196522024508
 21
31.77540845284985
 31
0.0
 11
14.41802768001663
 21
33.79344283934833
 31
0.0
 11
14.61538105677106
 21
35.99222777168735
 31
0.0
  0
SPLINE
  5
A0
330
47
100
AcDbEntity
  8
0
  6
Continuous
 62
     7
100
AcDbSpline
210
0.0
220
0.0
230
1.0
 70
     8
 71
     3
 72
    11
 73
     7
 74
     5
 42
0.000000001
 43
0.0000000001
 44
0.00000001
 40
0.0
 40
0.0
 40
0.0
 40
0.0
 40
1.439242551338347
 40
2.846828117036564
 40
4.31362680417082
 40
5.783466244972217
 40
5.783466244972217
 40
5.783466244972217
 40
5.783466244972217
 10
14.8163429510944
 20
30.21332542746868
 30
0.0
 10
14.78574770742884
 20
30.69210835174829
 30
0.0
 10
14.7252301953051
 20
31.63914308942583
 30
0.0
 10
14.66331858497876
 20
33.07576568181145
 30
0.0
 10
14.62275772341387
 20
34.5233769737294
 30
0.0
 10
14.61784163743832
 20
35.50227297172835
 30
0.0
 10
14.61538105677106
 20
35.99222777168735
 30
0.0
 11
14.8163429510944
 21
30.21332542746868
 31
0.0
 11
14.72958168988891
 21
31.64995050220421
 31
0.0
 11
14.66762581978571
 21
33.05617189138408
 31
0.0
 11
14.62840009084626
 21
34.52244598966653
 31
0.0
 11
14.61538105677106
 21
35.99222777168735
 31
0.0
  0
SPLINE
  5
A1
330
47
100
AcDbEntity
  8
0
  6
Continuous
 62
     7
100
AcDbSpline
210
0.0
220
0.0
230
1.0
 70
     8
 71
     3
 72
     9
 73
     5
 74
     3
 42
0.000000001
 43
0.0000000001
 44
0.00000001
 40
0.0
 40
0.0
 40
0.0
 40
0.0
 40
1.170735459257861
 40
2.356965272126762
 40
2.356965272126762
 40
2.356965272126762
 40
2.356965272126762
 10
15.02558818521307
 20
29.62100734078396
 30
0.0
 10
15.27675038472644
 20
29.92085389662385
 30
0.0
 10
15.78239882860169
 20
30.52451540476244
 30
0.0
 10
16.17020386132787
 20
31.20989112945812
 30
0.0
 10
16.36538105677105
 20
31.55483177841479
 30
0.0
 11
15.02558818521307
 21
29.62100734078396
 31
0.0
 11
15.74999999298636
 21
30.54070786255556
 31
0.0
 11
16.36538105677105
 21
31.55483177841479
 31
0.0
  0
SPLINE
  5
A2
330
47
100
AcDbEntity
  8
0
  6
Continuous
 62
     7
100
AcDbSpline
210
0.0
220
0.0
230
1.0
 70
     8
 71
     3
 72
     9
 73
     5
 74
     3
 42
0.000000001
 43
0.0000000001
 44
0.00000001
 40
0.0
 40
0.0
 40
0.0
 40
0.0
 40
1.170735459257879
 40
2.356965272126788
 40
2.356965272126788
 40
2.356965272126788
 40
2.356965272126788
 10
13.47655007953639
 20
28.27950098983784
 30
0.0
 10
13.72771227904976
 20
28.57934754567773
 30
0.0
 10
14.23336072292501
 20
29.18300905381633
 30
0.0
 10
14.62116575565121
 20
29.86838477851201
 30
0.0
 10
14.8163429510944
 20
30.21332542746868
 30
0.0
 11
13.47655007953639
 21
28.27950098983784
 31
0.0
 11
14.20096188730969
 21
29.19920151160945
 31
0.0
 11
14.8163429510944
 21
30.21332542746868
 31
0.0
  0
SPLINE
  5
A3
330
47
100
AcDbEntity
  8
0
  6
Continuous
 62
     7
100
AcDbSpline
210
0.0
220
0.0
230
1.0
 70
     8
 71
     3
 72
    11
 73
     7
 74
     5
 42
0.000000001
 43
0.0000000001
 44
0.00000001
 40
0.0
 40
0.0
 40
0.0
 40
0.0
 40
1.467681507419778
 40
2.858416919340778
 40
4.258010794458486
 40
5.608657846510157
 40
5.608657846510157
 40
5.608657846510157
 40
5.608657846510157
 10
0.4861690227699565
 20
54.52950098983789
 30
0.0
 10
0.0210972564653552
 20
54.37766403998675
 30
0.0
 10
-0.8846639767960197
 20
54.08195050568109
 30
0.0
 10
-2.23833565267287
 20
53.65517069359014
 30
0.0
 10
-3.55804932035076
 20
53.25051480266168
 30
0.0
 10
-4.438030550036071
 20
52.99346518209374
 30
0.0
 10
-4.870190528378807
 20
52.86722777168737
 30
0.0
 11
0.4861690227699565
 21
54.52950098983789
 31
0.0
 11
-0.9098274716617798
 21
54.07641954594351
 31
0.0
 11
-2.236063228372316
 21
53.65779835222428
 31
0.0
 11
-3.574552250847832
 21
53.24876271529442
 31
0.0
 11
-4.870190528378807
 21
52.86722777168737
 31
0.0
  0
SPLINE
  5
A4
330
47
100
AcDbEntity
  8
0
  6
Continuous
 62
     7
100
AcDbSpline
210
0.0
220
0.0
230
1.0
 70
     8
 71
     3
 72
     9
 73
     5
 74
     3
 42
0.000000001
 43
0.0000000001
 44
0.00000001
 40
0.0
 40
0.0
 40
0.0
 40
0.0
 40
1.413254207345423
 40
2.79162342937029
 40
2.79162342937029
 40
2.79162342937029
 40
2.79162342937029
 10
4.714792871562445
 20
55.09747756573163
 30
0.0
 10
4.271056280681809
 20
55.25731327836258
 30
0.0
 10
3.394536355591744
 20
55.57303927511755
 30
0.0
 10
2.484526283889028
 20
55.77251556427937
 30
0.0
 10
2.035207128446494
 20
55.87100734078397
 30
0.0
 11
4.714792871562445
 21
55.09747756573163
 31
0.0
 11
3.37500000000448
 21
55.54719138264956
 31
0.0
 11
2.035207128446494
 21
55.87100734078397
 31
0.0
  0
SPLINE
  5
A5
330
47
100
AcDbEntity
  8
0
  6
Continuous
 62
     7
100
AcDbSpline
210
0.0
220
0.0
230
1.0
 70
     8
 71
     3
 72
    11
 73
     7
 74
     5
 42
0.000000001
 43
0.0000000001
 44
0.00000001
 40
0.0
 40
0.0
 40
0.0
 40
0.0
 40
1.469840013172058
 40
2.936639278103371
 40
4.344224277421408
 40
5.783466244966598
 40
5.783466244966598
 40
5.783466244966598
 40
5.783466244966598
 10
-11.36538105676211
 20
43.49222777168792
 30
0.0
 10
-11.36292047417315
 20
43.00227278093063
 30
0.0
 10
-11.35800438434713
 20
42.02337639952632
 30
0.0
 10
-11.31744350127979
 20
40.57576491341457
 30
0.0
 10
-11.2555318838832
 20
39.13914251241424
 30
0.0
 10
-11.19501439453884
 20
38.19210815747979
 30
0.0
 10
-11.16441916243876
 20
37.71332542746873
 30
0.0
 11
-11.36538105676211
 21
43.49222777168792
 31
0.0
 11
-11.35236201250324
 21
42.0224454173642
 31
0.0
 11
-11.31313625274162
 21
40.55617074190253
 31
0.0
 11
-11.2511803931452
 21
39.14994991918937
 31
0.0
 11
-11.16441916243876
 21
37.71332542746873
 31
0.0
  0
SPLINE
  5
A6
330
47
100
AcDbEntity
  8
0
  6
Continuous
 62
     7
100
AcDbSpline
210
0.0
220
0.0
230
1.0
 70
     8
 71
     3
 72
     9
 73
     5
 74
     3
 42
0.000000001
 43
0.0000000001
 44
0.00000001
 40
0.0
 40
0.0
 40
0.0
 40
0.0
 40
1.413254207345436
 40
2.791623429370211
 40
2.791623429370211
 40
2.791623429370211
 40
2.791623429370211
 10
0.4861690227698077
 20
26.07656053994254
 30
0.0
 10
0.929905613650449
 20
25.91672482731158
 30
0.0
 10
1.80642553874049
 20
25.60099883055664
 30
0.0
 10
2.716435610443169
 20
25.40152254139477
 30
0.0
 10
3.165754765885666
 20
25.30303076489016
 30
0.0
 11
0.4861690227698077
 21
26.07656053994254
 31
0.0
 11
1.825961894327785
 21
25.6268467230246
 31
0.0
 11
3.165754765885666
 21
25.30303076489016
 31
0.0
  0
SPLINE
  5
A7
330
47
100
AcDbEntity
  8
0
  6
Continuous
 62
     7
100
AcDbSpline
210
0.0
220
0.0
230
1.0
 70
     8
 71
     3
 72
    11
 73
     7
 74
     5
 42
0.000000001
 43
0.0000000001
 44
0.00000001
 40
0.0
 40
0.0
 40
0.0
 40
0.0
 40
1.319393826577589
 40
2.624765732638125
 40
3.86675236428647
 40
5.126157149497429
 40
5.126157149497429
 40
5.126157149497429
 40
5.126157149497429
 10
8.120190528387283
 20
26.61722777168723
 30
0.0
 10
7.697268761867138
 20
26.49654686576011
 30
0.0
 10
6.855919845910471
 20
26.25646761038076
 30
0.0
 10
5.611498541775306
 20
25.92058491590815
 30
0.0
 10
4.383271714372002
 20
25.60168627813175
 30
0.0
 10
3.573473395967059
 20
25.40304367281924
 30
0.0
 10
3.165754765885666
 20
25.30303076489016
 30
0.0
 11
8.120190528387283
 21
26.61722777168723
 31
0.0
 11
6.850573993883326
 21
26.25823762549154
 31
0.0
 11
5.590552753293046
 21
25.91714777415343
 31
0.0
 11
4.38821581809002
 21
25.6058333226648
 31
0.0
 11
3.165754765885666
 21
25.30303076489016
 31
0.0
  0
SPLINE
  5
A8
330
47
100
AcDbEntity
  8
0
  6
Continuous
 62
     7
100
AcDbSpline
210
0.0
220
0.0
230
1.0
 70
     8
 71
     3
 72
    11
 73
     7
 74
     5
 42
0.000000001
 43
0.0000000001
 44
0.00000001
 40
0.0
 40
0.0
 40
0.0
 40
0.0
 40
1.699301613085068
 40
3.426233638895069
 40
5.112386144301828
 40
6.864416621809321
 40
6.864416621809321
 40
6.864416621809321
 40
6.864416621809321
 10
-4.870190528378807
 20
30.36722777168736
 30
0.0
 10
-4.439844091050723
 20
29.99889027346847
 30
0.0
 10
-3.572153832216664
 20
29.25622617099075
 30
0.0
 10
-2.249504854849835
 20
28.18143637468119
 30
0.0
 10
-0.8961162093552938
 20
27.11703753936481
 30
0.0
 10
0.0195589518198405
 20
26.42778836657485
 30
0.0
 10
0.4861690227698077
 20
26.07656053994254
 30
0.0
 11
-4.870190528378807
 21
30.36722777168736
 31
0.0
 11
-3.57454480858378
 21
29.26771508808206
 31
0.0
 11
-2.236062144173964
 21
28.176496329292
 31
0.0
 11
-0.9098217595020877
 21
27.1352486574412
 31
0.0
 11
0.4861690227698077
 21
26.07656053994254
 31
0.0
  0
SPLINE
  5
A9
330
47
100
AcDbEntity
  8
0
  6
Continuous
 62
     7
100
AcDbSpline
210
0.0
220
0.0
230
1.0
 70
     8
 71
     3
 72
    13
 73
     9
 74
     7
 42
0.000000001
 43
0.0000000001
 44
0.00000001
 40
0.0
 40
0.0
 40
0.0
 40
0.0
 40
2.571421582586395
 40
5.074642916711989
 40
7.48471430840703
 40
9.785669515927223
 40
11.97335512068027
 40
14.05769940056932
 40
14.05769940056932
 40
14.05769940056932
 40
14.05769940056932
 10
-4.870190528378807
 20
30.36722777168736
 30
0.0
 10
-4.200444621642617
 20
29.83015332983227
 30
0.0
 10
-2.878716062271932
 20
28.77024895594208
 30
0.0
 10
-0.6823728426564294
 20
27.56216021698886
 30
0.0
 10
1.571963584536227
 20
26.6989777034331
 30
0.0
 10
3.833671717141973
 20
26.24241965732845
 30
0.0
 10
6.044036377513883
 20
26.15902795919669
 30
0.0
 10
7.439390450975907
 20
26.4669776190739
 30
0.0
 10
8.120190528387283
 20
26.61722777168723
 30
0.0
 11
-4.870190528378807
 21
30.36722777168736
 31
0.0
 11
-2.817971886948939
 21
28.81783834447841
 31
0.0
 11
-0.6307559977020567
 21
27.60038045865171
 31
0.0
 11
1.625000000004476
 21
26.75184701881208
 31
0.0
 11
3.880755997711006
 21
26.29801912614973
 31
0.0
 11
6.067971886957826
 21
26.2526873295439
 31
0.0
 11
8.120190528387283
 21
26.61722777168723
 31
0.0
  0
SPLINE
  5
AA
330
47
100
AcDbEntity
  8
0
  6
Continuous
 62
     7
100
AcDbSpline
210
0.0
220
0.0
230
1.0
 70
     8
 71
     3
 72
    11
 73
     7
 74
     5
 42
0.000000001
 43
0.0000000001
 44
0.00000001
 40
0.0
 40
0.0
 40
0.0
 40
0.0
 40
1.350647596497721
 40
2.750242062531379
 40
4.140976934741191
 40
5.608657846507159
 40
5.608657846507159
 40
5.608657846507159
 40
5.608657846507159
 10
8.120190528387283
 20
26.61722777168723
 30
0.0
 10
8.552350680774918
 20
26.74346523353437
 30
0.0
 10
9.432332273413031
 20
27.00051496134721
 30
0.0
 10
10.75204612837572
 20
27.40517091889447
 30
0.0
 10
12.10571762885083
 20
27.8319506836658
 30
0.0
 10
13.01147850210302
 20
28.1276641012376
 30
0.0
 10
13.47655007953639
 20
28.27950098983784
 30
0.0
 11
8.120190528387283
 21
26.61722777168723
 31
0.0
 11
9.41582932739193
 21
26.99876287180211
 31
0.0
 11
10.75431891259262
 21
27.40779868925628
 31
0.0
 11
12.08055415238853
 21
27.82641972759684
 31
0.0
 11
13.47655007953639
 21
28.27950098983784
 31
0.0
  0
SPLINE
  5
AB
330
47
100
AcDbEntity
  8
0
  6
Continuous
 62
     7
100
AcDbSpline
210
0.0
220
0.0
230
1.0
 70
     8
 71
     3
 72
    23
 73
    19
 74
    17
 42
0.000000001
 43
0.0000000001
 44
0.00000001
 40
0.0
 40
0.0
 40
0.0
 40
0.0
 40
1.733994542575939
 40
3.517259671198161
 40
5.388154643190365
 40
7.367706368714416
 40
9.458513693077865
 40
11.64708681370629
 40
13.90763227375837
 40
16.20618904299772
 40
18.50474581223707
 40
20.76529127228915
 40
22.95386439291758
 40
25.04467171728103
 40
27.02422344280508
 40
28.89511841479728
 40
30.6783835434195
 40
32.41237808599544
 40
32.41237808599544
 40
32.41237808599544
 40
32.41237808599544
 10
-6.067180630814256
 20
48.62439288740421
 30
0.0
 10
-6.475994587388393
 20
48.21118024911713
 30
0.0
 10
-7.305238734224879
 20
47.37301373385539
 30
0.0
 10
-8.105196938043763
 20
45.73268059519913
 30
0.0
 10
-8.545128636502795
 20
43.8956779000634
 30
0.0
 10
-8.585369194289683
 20
41.90094577533429
 30
0.0
 10
-8.238053646962072
 20
39.83318755441037
 30
0.0
 10
-7.516657903568783
 20
37.76573049351053
 30
0.0
 10
-6.450257351780505
 20
35.7756012098946
 30
0.0
 10
-5.079084913550892
 20
33.93631992742042
 30
0.0
 10
-3.454550330066136
 20
32.31645669909451
 30
0.0
 10
-1.63717610440533
 20
30.97668969462551
 30
0.0
 10
0.306019173364498
 20
29.96734206882776
 30
0.0
 10
2.302952550265378
 20
29.32819479485005
 30
0.0
 10
4.282973994246744
 20
29.08306088595263
 30
0.0
 10
6.16398252352147
 20
29.2560513886996
 30
0.0
 10
7.901771031205064
 20
29.8134713705749
 30
0.0
 10
8.849804189116721
 20
30.5144721507946
 30
0.0
 10
9.31718063082321
 20
30.86006265597053
 30
0.0
 11
-6.067180630814256
 21
48.62439288740421
 31
0.0
 11
-7.218995456898179
 21
47.32822171828044
 31
0.0
 11
-8.0309413201757
 21
45.74052576185343
 31
0.0
 11
-8.471813875258174
 21
43.92231801947564
 31
0.0
 11
-8.52467247486575
 21
41.94347214200653
 31
0.0
 11
-8.18748390895513
 21
39.88003347305754
 31
0.0
 11
-7.473208002266905
 21
37.81129902110846
 31
0.0
 11
-6.409292217901116
 21
35.81676925781763
 31
0.0
 11
-5.036623836783154
 21
33.97309229857332
 31
0.0
 11
-3.407952367711293
 21
32.35112051694434
 31
0.0
 11
-1.585867829918946
 21
31.0131841544765
 31
0.0
 11
0.3596088566364265
 21
30.01070085505157
 31
0.0
 11
2.353713697461743
 21
29.38219377212258
 31
0.0
 11
4.319814411762655
 21
29.15181794970543
 31
0.0
 11
6.182355170210677
 21
29.32842465226035
 31
0.0
 11
7.869758901252172
 21
29.90522893745194
 31
0.0
 11
9.31718063082321
 21
30.86006265597053
 31
0.0
  0
ENDBLK
  5
49
330
47
100
AcDbEntity
  8
0
100
AcDbBlockEnd
  0
BLOCK
  5
4C
330
4A
100
AcDbEntity
  8
0
100
AcDbBlockBegin
  2
Allg1
 70
     0
 10
2.50000000000015
 20
40.5
 30
0.0
  3
Allg1
  1

  0
INSERT
  5
4B
330
4A
100
AcDbEntity
  8
0
100
AcDbBlockReference
  2
1411243_A_INL_M25_N_S-select__1
 10
-11.36538105676211
 20
25.30303076489016
 30
0.0
  0
MTEXT
  5
AD
330
4A
100
AcDbEntity
  8
1
 62
     6
100
AcDbMText
 10
2.489999976945
 20
19.17548511620942
 30
0.0
 40
2.5
 41
0.0
 71
     2
 72
     1
  1
 
  7
CONVERTER_11
 73
     1
 44
1.32052821128451
  0
ENDBLK
  5
4D
330
4A
100
AcDbEntity
  8
0
100
AcDbBlockEnd
  0
BLOCK
  5
4F
330
4E
100
AcDbEntity
  8
0
100
AcDbBlockBegin
  2
1411243_A_INL_M25_N_S-select__2
 70
     0
 10
-82.12000799999501
 20
38.99999599999999
 30
0.0
  3
1411243_A_INL_M25_N_S-select__2
  1

  0
LINE
  5
AE
330
4E
100
AcDbEntity
  8
0
  6
Continuous
 62
     7
100
AcDbLine
 10
-65.57294844989029
 20
39.40191978864667
 30
0.0
 11
-68.66706755009966
 21
39.40191978864668
 31
0.0
  0
LINE
  5
AF
330
4E
100
AcDbEntity
  8
0
  6
Continuous
 62
     7
100
AcDbLine
 10
-52.12000799999498
 20
38.999996
 30
0.0
 11
-59.62000799999446
 21
38.999996
 31
0.0
  0
LINE
  5
B0
330
4E
100
AcDbEntity
  8
0
  6
Continuous
 62
     7
100
AcDbLine
 10
-59.62000799999446
 20
38.999996
 30
0.0
 11
-74.62000799999446
 21
38.999996
 31
0.0
  0
LINE
  5
B1
330
4E
100
AcDbEntity
  8
0
  6
Continuous
 62
     7
100
AcDbLine
 10
-74.62000799999446
 20
38.999996
 30
0.0
 11
-82.12000799999501
 21
38.999996
 31
0.0
  0
LINE
  5
B2
330
4E
100
AcDbEntity
  8
0
  6
Continuous
 62
     7
100
AcDbLine
 10
-80.57294844989033
 20
39.40191978864667
 30
0.0
 11
-82.120007999995
 21
39.40191978864667
 31
0.0
  0
LINE
  5
B3
330
4E
100
AcDbEntity
  8
0
  6
Continuous
 62
     7
100
AcDbLine
 10
-68.66706755009966
 20
39.40191978864668
 30
0.0
 11
-68.66706755009967
 21
42.499996
 31
0.0
  0
LINE
  5
B4
330
4E
100
AcDbEntity
  8
0
  6
Continuous
 62
     7
100
AcDbLine
 10
-65.57294844989033
 20
42.499996
 30
0.0
 11
-65.57294844989029
 21
39.40191978864667
 31
0.0
  0
LINE
  5
B5
330
4E
100
AcDbEntity
  8
0
  6
Continuous
 62
     7
100
AcDbLine
 10
-82.120007999995
 20
39.40191978864667
 30
0.0
 11
-82.12000799999501
 21
38.999996
 31
0.0
  0
LINE
  5
B6
330
4E
100
AcDbEntity
  8
0
  6
Continuous
 62
     7
100
AcDbLine
 10
-80.57294844989032
 20
42.499996
 30
0.0
 11
-80.57294844989033
 21
39.40191978864667
 31
0.0
  0
LINE
  5
B7
330
4E
100
AcDbEntity
  8
0
  6
Continuous
 62
     7
100
AcDbLine
 10
-53.66706755009967
 20
39.40191978864667
 30
0.0
 11
-53.66706755009967
 21
42.499996
 31
0.0
  0
LINE
  5
B8
330
4E
100
AcDbEntity
  8
0
  6
Continuous
 62
     7
100
AcDbLine
 10
-82.120007999995
 20
39.40191978864667
 30
0.0
 11
-82.12000799999498
 21
42.499996
 31
0.0
  0
LINE
  5
B9
330
4E
100
AcDbEntity
  8
0
  6
Continuous
 62
     7
100
AcDbLine
 10
-65.57294844989033
 20
42.499996
 30
0.0
 11
-68.66706755009967
 21
42.499996
 31
0.0
  0
LINE
  5
BA
330
4E
100
AcDbEntity
  8
0
  6
Continuous
 62
     7
100
AcDbLine
 10
-80.57294844989032
 20
42.499996
 30
0.0
 11
-82.12000799999498
 21
42.499996
 31
0.0
  0
LINE
  5
BB
330
4E
100
AcDbEntity
  8
0
  6
Continuous
 62
     7
100
AcDbLine
 10
-80.57294844989032
 20
42.499996
 30
0.0
 11
-68.66706755009967
 21
42.499996
 31
0.0
  0
LINE
  5
BC
330
4E
100
AcDbEntity
  8
0
  6
Continuous
 62
     7
100
AcDbLine
 10
-65.57294844989033
 20
42.499996
 30
0.0
 11
-53.66706755009967
 21
42.499996
 31
0.0
  0
LINE
  5
BD
330
4E
100
AcDbEntity
  8
0
  6
Continuous
 62
     7
100
AcDbLine
 10
-52.12000799999498
 20
42.499996
 30
0.0
 11
-53.66706755009967
 21
42.499996
 31
0.0
  0
LINE
  5
BE
330
4E
100
AcDbEntity
  8
0
  6
Continuous
 62
     7
100
AcDbLine
 10
-52.120007999995
 20
39.40191978864667
 30
0.0
 11
-53.66706755009967
 21
39.40191978864667
 31
0.0
  0
LINE
  5
BF
330
4E
100
AcDbEntity
  8
0
  6
Continuous
 62
     7
100
AcDbLine
 10
-52.12000799999498
 20
42.499996
 30
0.0
 11
-52.120007999995
 21
39.40191978864667
 31
0.0
  0
LINE
  5
C0
330
4E
100
AcDbEntity
  8
0
  6
Continuous
 62
     7
100
AcDbLine
 10
-52.12000799999498
 20
38.999996
 30
0.0
 11
-52.120007999995
 21
39.40191978864667
 31
0.0
  0
SPLINE
  5
C1
330
4E
100
AcDbEntity
  8
0
  6
Continuous
 62
     7
100
AcDbSpline
210
0.0
220
0.0
230
1.0
 70
     8
 71
     3
 72
    11
 73
     7
 74
     5
 42
0.000000001
 43
0.0000000001
 44
0.00000001
 40
0.0
 40
0.0
 40
0.0
 40
0.0
 40
1.521694224216518
 40
2.986814570086729
 40
4.489115444661991
 40
5.97039440116057
 40
5.97039440116057
 40
5.97039440116057
 40
5.97039440116057
 10
-68.66706755009966
 20
39.40191978864668
 30
0.0
 10
-69.17065381477082
 20
39.34086998061291
 30
0.0
 10
-70.15910390625243
 20
39.22104010229508
 30
0.0
 10
-71.65056712889299
 20
39.09667951140112
 30
0.0
 10
-73.13163203038171
 20
39.01511017180006
 30
0.0
 10
-74.12621858615599
 20
39.00501033156106
 30
0.0
 10
-74.62000799999446
 20
38.999996
 30
0.0
 11
-68.66706755009966
 21
39.40191978864668
 31
0.0
 11
-70.17883573672694
 21
39.22839670014902
 31
0.0
 11
-71.63870684385331
 21
39.10448552491179
 31
0.0
 11
-73.13895790683448
 21
39.02603384022481
 31
0.0
 11
-74.62000799999446
 21
38.999996
 31
0.0
  0
SPLINE
  5
C2
330
4E
100
AcDbEntity
  8
0
  6
Continuous
 62
     7
100
AcDbSpline
210
0.0
220
0.0
230
1.0
 70
     8
 71
     3
 72
    11
 73
     7
 74
     5
 42
0.000000001
 43
0.0000000001
 44
0.00000001
 40
0.0
 40
0.0
 40
0.0
 40
0.0
 40
1.481279547062319
 40
2.983581037603246
 40
4.448700799088815
 40
5.970394401129012
 40
5.970394401129012
 40
5.970394401129012
 40
5.970394401129012
 10
-74.62000799999446
 20
38.999996
 30
0.0
 10
-75.11379761071663
 20
39.0050103355719
 30
0.0
 10
-76.10838456872635
 20
39.01511018394714
 30
0.0
 10
-77.58944967597162
 20
39.09667956722228
 30
0.0
 10
-79.08091269957762
 20
39.2210401710602
 30
0.0
 10
-80.06936239133742
 20
39.34087000402074
 30
0.0
 10
-80.57294844989033
 20
39.40191978864667
 30
0.0
 11
-74.62000799999446
 21
38.999996
 31
0.0
 11
-76.10105868344571
 21
39.0260338609134
 31
0.0
 11
-77.60131035995927
 21
39.10448560822658
 31
0.0
 11
-79.06118088241136
 21
39.22839676212
 31
0.0
 11
-80.57294844989033
 21
39.40191978864667
 31
0.0
  0
SPLINE
  5
C3
330
4E
100
AcDbEntity
  8
0
  6
Continuous
 62
     7
100
AcDbSpline
210
0.0
220
0.0
230
1.0
 70
     8
 71
     3
 72
    11
 73
     7
 74
     5
 42
0.000000001
 43
0.0000000001
 44
0.00000001
 40
0.0
 40
0.0
 40
0.0
 40
0.0
 40
1.521694224218725
 40
2.986814570086728
 40
4.489115444663931
 40
5.970394401160569
 40
5.970394401160569
 40
5.970394401160569
 40
5.970394401160569
 10
-53.66706755009967
 20
39.40191978864667
 30
0.0
 10
-54.17065381477156
 20
39.34086998061282
 30
0.0
 10
-55.15910390625316
 20
39.22104010229499
 30
0.0
 10
-56.65056712889439
 20
39.09667951140106
 30
0.0
 10
-58.13163203038235
 20
39.0151101718
 30
0.0
 10
-59.12621858615664
 20
39.00501033156107
 30
0.0
 10
-59.62000799999446
 20
38.999996
 30
0.0
 11
-53.66706755009967
 21
39.40191978864667
 31
0.0
 11
-55.17883573672913
 21
39.22839670014879
 31
0.0
 11
-56.63870684385331
 21
39.10448552491179
 31
0.0
 11
-58.13895790683642
 21
39.02603384022474
 31
0.0
 11
-59.62000799999446
 21
38.999996
 31
0.0
  0
SPLINE
  5
C4
330
4E
100
AcDbEntity
  8
0
  6
Continuous
 62
     7
100
AcDbSpline
210
0.0
220
0.0
230
1.0
 70
     8
 71
     3
 72
    11
 73
     7
 74
     5
 42
0.000000001
 43
0.0000000001
 44
0.00000001
 40
0.0
 40
0.0
 40
0.0
 40
0.0
 40
1.481279547060592
 40
2.983581037603238
 40
4.44870079909262
 40
5.970394401128962
 40
5.970394401128962
 40
5.970394401128962
 40
5.970394401128962
 10
-59.62000799999446
 20
38.999996
 30
0.0
 10
-60.11379761071605
 20
39.0050103355719
 30
0.0
 10
-61.10838456872577
 20
39.01511018394713
 30
0.0
 10
-62.58944967597233
 20
39.0966795672223
 30
0.0
 10
-64.08091269957885
 20
39.22104017106031
 30
0.0
 10
-65.06936239133866
 20
39.34087000402089
 30
0.0
 10
-65.57294844989029
 20
39.40191978864667
 30
0.0
 11
-59.62000799999446
 21
38.999996
 31
0.0
 11
-61.101058683444
 21
39.02603386091334
 31
0.0
 11
-62.60131035995928
 21
39.10448560822658
 31
0.0
 11
-64.06118088241516
 21
39.22839676212038
 31
0.0
 11
-65.57294844989029
 21
39.40191978864667
 31
0.0
  0
ENDBLK
  5
50
330
4E
100
AcDbEntity
  8
0
100
AcDbBlockEnd
  0
BLOCK
  5
53
330
51
100
AcDbEntity
  8
0
100
AcDbBlockBegin
  2
Drfsicht1
 70
     0
 10
-67.120008
 20
40.749996
 30
0.0
  3
Drfsicht1
  1

  0
INSERT
  5
52
330
51
100
AcDbEntity
  8
0
100
AcDbBlockReference
  2
1411243_A_INL_M25_N_S-select__2
 10
-82.12000799999501
 20
38.99999599999999
 30
0.0
  0
MTEXT
  5
C5
330
51
100
AcDbEntity
  8
1
 62
     6
100
AcDbMText
 10
-67.12000764533377
 20
36.45999413959692
 30
0.0
 40
2.5
 41
0.0
 71
     2
 72
     1
  1
 
  7
CONVERTER_11
 73
     1
 44
1.32052821128451
  0
ENDBLK
  5
54
330
51
100
AcDbEntity
  8
0
100
AcDbBlockEnd
  0
BLOCK
  5
56
330
55
100
AcDbEntity
  8
0
100
AcDbBlockBegin
  2
1411243_A_INL_M25_N_S-select__3
 70
     0
 10
-28.50000000001001
 20
57.50000000000004
 30
0.0
  3
1411243_A_INL_M25_N_S-select__3
  1

  0
LINE
  5
C6
330
55
100
AcDbEntity
  8
0
  6
Continuous
 62
     7
100
AcDbLine
 10
-11.95294044990532
 20
57.57268717201659
 30
0.0
 11
-0.04705955011468
 21
64.44655071445032
 31
0.0
  0
LINE
  5
C7
330
55
100
AcDbEntity
  8
0
  6
Continuous
 62
     7
100
AcDbLine
 10
-28.50000000001001
 20
80.8738635424338
 30
0.0
 11
-28.50000000001
 21
67.12613645756628
 31
0.0
  0
LINE
  5
C8
330
55
100
AcDbEntity
  8
0
  6
Continuous
 62
     7
100
AcDbLine
 10
-15.04705955011467
 20
90.4273128279835
 30
0.0
 11
-26.95294044990533
 21
83.55344928554973
 31
0.0
  0
LINE
  5
C9
330
55
100
AcDbEntity
  8
0
  6
Continuous
 62
     7
100
AcDbLine
 10
-0.04705955011468
 20
83.55344928554975
 30
0.0
 11
-11.95294044990532
 21
90.42731282798349
 31
0.0
  0
LINE
  5
CA
330
55
100
AcDbEntity
  8
0
  6
Continuous
 62
     7
100
AcDbLine
 10
1.49999999998999
 20
67.12613645756626
 30
0.0
 11
1.49999999998999
 21
80.87386354243381
 31
0.0
  0
LINE
  5
CB
330
55
100
AcDbEntity
  8
0
  6
Continuous
 62
     7
100
AcDbLine
 10
-26.95294044990533
 20
64.44655071445032
 30
0.0
 11
-15.04705955011468
 21
57.57268717201659
 31
0.0
  0
LINE
  5
CC
330
55
100
AcDbEntity
  8
1
  6
DOT_CENTER
 62
     2
100
AcDbLine
 10
-0.57500000001
 20
74.00000000000004
 30
0.0
 11
-26.42500000001
 21
74.00000000000004
 31
0.0
  0
LINE
  5
CD
330
55
100
AcDbEntity
  8
1
  6
DOT_CENTER
 62
     2
100
AcDbLine
 10
-13.50000000001
 20
86.92500000000004
 30
0.0
 11
-13.50000000001
 21
61.07500000000005
 31
0.0
  0
ARC
  5
CE
330
55
100
AcDbEntity
  8
0
  6
Continuous
 62
     7
100
AcDbCircle
 10
-13.50000000001
 20
74.00000000000004
 30
0.0
 40
16.49999999999999
100
AcDbArc
 50
264.6199773286571
 51
275.3800226713429
  0
ARC
  5
CF
330
55
100
AcDbEntity
  8
0
  6
Continuous
 62
     7
100
AcDbCircle
 10
-13.50000000001
 20
74.00000000000004
 30
0.0
 40
16.5
100
AcDbArc
 50
204.6199773286571
 51
215.3800226713429
  0
ARC
  5
D0
330
55
100
AcDbEntity
  8
0
  6
Continuous
 62
     7
100
AcDbCircle
 10
-13.50000000001
 20
74.00000000000004
 30
0.0
 40
16.5
100
AcDbArc
 50
144.6199773286571
 51
155.3800226713429
  0
ARC
  5
D1
330
55
100
AcDbEntity
  8
0
  6
Continuous
 62
     7
100
AcDbCircle
 10
-13.50000000001
 20
74.00000000000004
 30
0.0
 40
16.49999999999999
100
AcDbArc
 50
84.61997732865707
 51
95.3800226713429
  0
ARC
  5
D2
330
55
100
AcDbEntity
  8
0
  6
Continuous
 62
     7
100
AcDbCircle
 10
-13.50000000001
 20
74.00000000000004
 30
0.0
 40
16.49999999999999
100
AcDbArc
 50
24.61997732865715
 51
35.38002267134293
  0
ARC
  5
D3
330
55
100
AcDbEntity
  8
0
  6
Continuous
 62
     7
100
AcDbCircle
 10
-13.50000000001
 20
74.00000000000004
 30
0.0
 40
16.5
100
AcDbArc
 50
324.6199773286571
 51
335.3800226713428
  0
CIRCLE
  5
D4
330
55
100
AcDbEntity
  8
0
  6
Continuous
 62
     7
100
AcDbCircle
 10
-13.50000000001
 20
74.00000000000004
 30
0.0
 40
11.75
  0
ENDBLK
  5
57
330
55
100
AcDbEntity
  8
0
100
AcDbBlockEnd
  0
BLOCK
  5
5A
330
58
100
AcDbEntity
  8
0
100
AcDbBlockBegin
  2
Rckans1
 70
     0
 10
-13.500000000005
 20
74.00000000000004
 30
0.0
  3
Rckans1
  1

  0
INSERT
  5
59
330
58
100
AcDbEntity
  8
0
100
AcDbBlockReference
  2
1411243_A_INL_M25_N_S-select__3
 10
-28.50000000001001
 20
57.50000000000004
 30
0.0
  0
MTEXT
  5
D5
330
58
100
AcDbEntity
  8
1
 62
     6
100
AcDbMText
 10
-13.500000000005
 20
54.99999809265137
 30
0.0
 40
2.5
 41
0.0
 71
     2
 72
     1
  1
 
  7
CONVERTER_11
 73
     1
 44
1.32052821128451
  0
ENDBLK
  5
5B
330
58
100
AcDbEntity
  8
0
100
AcDbBlockEnd
  0
BLOCK
  5
5D
330
5C
100
AcDbEntity
  8
0
100
AcDbBlockBegin
  2
1411243_A_INL_M25_N_S-select__4
 70
     0
 10
-42.08000399999989
 20
57.5
 30
0.0
  3
1411243_A_INL_M25_N_S-select__4
  1

  0
LINE
  5
D6
330
5C
100
AcDbEntity
  8
0
  6
Continuous
 62
     7
100
AcDbLine
 10
-38.58000399999989
 20
61.00961894323372
 30
0.0
 11
-38.58000399999989
 21
59.0
 31
0.0
  0
LINE
  5
D7
330
5C
100
AcDbEntity
  8
0
  6
Continuous
 62
     7
100
AcDbLine
 10
-38.58000399999989
 20
74.00000000000063
 30
0.0
 11
-38.58000399999989
 21
61.00961894323372
 31
0.0
  0
LINE
  5
D8
330
5C
100
AcDbEntity
  8
0
  6
Continuous
 62
     7
100
AcDbLine
 10
-38.98192778864656
 20
83.55344928554973
 30
0.0
 11
-38.98192778864656
 21
80.87386354243377
 31
0.0
  0
LINE
  5
D9
330
5C
100
AcDbEntity
  8
0
  6
Continuous
 62
     7
100
AcDbLine
 10
-38.58000399999989
 20
59.0
 30
0.0
 11
-38.98192778864656
 21
57.5
 31
0.0
  0
LINE
  5
DA
330
5C
100
AcDbEntity
  8
0
  6
Continuous
 62
     7
100
AcDbLine
 10
-42.08000399999989
 20
90.5
 30
0.0
 11
-42.08000399999989
 21
90.42731282798346
 31
0.0
  0
LINE
  5
DB
330
5C
100
AcDbEntity
  8
0
  6
Continuous
 62
     7
100
AcDbLine
 10
-42.08000399999989
 20
83.5534492855497
 30
0.0
 11
-42.08000399999989
 21
90.42731282798346
 31
0.0
  0
LINE
  5
DC
330
5C
100
AcDbEntity
  8
0
  6
Continuous
 62
     7
100
AcDbLine
 10
-38.98192778864657
 20
90.42731282798354
 30
0.0
 11
-42.08000399999989
 21
90.42731282798346
 31
0.0
  0
LINE
  5
DD
330
5C
100
AcDbEntity
  8
0
  6
Continuous
 62
     7
100
AcDbLine
 10
-42.08000399999989
 20
90.5
 30
0.0
 11
-38.98192778864656
 21
90.5
 31
0.0
  0
LINE
  5
DE
330
5C
100
AcDbEntity
  8
0
  6
Continuous
 62
     7
100
AcDbLine
 10
-42.08000399999989
 20
57.57268717201654
 30
0.0
 11
-42.08000399999989
 21
57.5
 31
0.0
  0
LINE
  5
DF
330
5C
100
AcDbEntity
  8
0
  6
Continuous
 62
     7
100
AcDbLine
 10
-38.98192778864656
 20
57.57268717201654
 30
0.0
 11
-38.98192778864656
 21
57.5
 31
0.0
  0
LINE
  5
E0
330
5C
100
AcDbEntity
  8
0
  6
Continuous
 62
     7
100
AcDbLine
 10
-42.08000399999989
 20
67.12613645756623
 30
0.0
 11
-42.08000399999989
 21
64.44655071445028
 31
0.0
  0
LINE
  5
E1
330
5C
100
AcDbEntity
  8
0
  6
Continuous
 62
     7
100
AcDbLine
 10
-38.98192778864656
 20
67.12613645756628
 30
0.0
 11
-38.98192778864656
 21
64.44655071445028
 31
0.0
  0
LINE
  5
E2
330
5C
100
AcDbEntity
  8
0
  6
Continuous
 62
     7
100
AcDbLine
 10
-38.98192778864656
 20
64.44655071445028
 30
0.0
 11
-42.08000399999989
 21
64.44655071445028
 31
0.0
  0
LINE
  5
E3
330
5C
100
AcDbEntity
  8
0
  6
Continuous
 62
     7
100
AcDbLine
 10
-38.98192778864656
 20
80.87386354243377
 30
0.0
 11
-42.08000399999989
 21
80.87386354243377
 31
0.0
  0
LINE
  5
E4
330
5C
100
AcDbEntity
  8
0
  6
Continuous
 62
     7
100
AcDbLine
 10
-42.08000399999989
 20
67.12613645756623
 30
0.0
 11
-38.98192778864656
 21
67.12613645756628
 31
0.0
  0
LINE
  5
E5
330
5C
100
AcDbEntity
  8
0
  6
Continuous
 62
     7
100
AcDbLine
 10
-42.08000399999989
 20
57.57268717201654
 30
0.0
 11
-38.98192778864656
 21
57.57268717201654
 31
0.0
  0
LINE
  5
E6
330
5C
100
AcDbEntity
  8
0
  6
Continuous
 62
     7
100
AcDbLine
 10
-42.08000399999989
 20
57.5
 30
0.0
 11
-38.98192778864656
 21
57.5
 31
0.0
  0
LINE
  5
E7
330
5C
100
AcDbEntity
  8
0
  6
Continuous
 62
     7
100
AcDbLine
 10
-38.98192778864656
 20
90.5
 30
0.0
 11
-38.98192778864657
 21
90.42731282798354
 31
0.0
  0
LINE
  5
E8
330
5C
100
AcDbEntity
  8
0
  6
Continuous
 62
     7
100
AcDbLine
 10
-38.58000399999989
 20
89.0
 30
0.0
 11
-38.98192778864656
 21
90.5
 31
0.0
  0
LINE
  5
E9
330
5C
100
AcDbEntity
  8
0
  6
Continuous
 62
     7
100
AcDbLine
 10
-38.58000399999989
 20
86.99038105676689
 30
0.0
 11
-38.58000399999989
 21
74.00000000000063
 31
0.0
  0
LINE
  5
EA
330
5C
100
AcDbEntity
  8
0
  6
Continuous
 62
     7
100
AcDbLine
 10
-38.58000399999989
 20
89.0
 30
0.0
 11
-38.58000399999989
 21
86.99038105676689
 31
0.0
  0
LINE
  5
EB
330
5C
100
AcDbEntity
  8
0
  6
Continuous
 62
     7
100
AcDbLine
 10
-42.08000399999989
 20
83.5534492855497
 30
0.0
 11
-38.98192778864656
 21
83.55344928554973
 31
0.0
  0
LINE
  5
EC
330
5C
100
AcDbEntity
  8
0
  6
Continuous
 62
     7
100
AcDbLine
 10
-42.08000399999989
 20
57.57268717201654
 30
0.0
 11
-42.08000399999989
 21
64.44655071445028
 31
0.0
  0
LINE
  5
ED
330
5C
100
AcDbEntity
  8
0
  6
Continuous
 62
     7
100
AcDbLine
 10
-42.08000399999989
 20
83.5534492855497
 30
0.0
 11
-42.08000399999989
 21
80.87386354243377
 31
0.0
  0
LINE
  5
EE
330
5C
100
AcDbEntity
  8
0
  6
Continuous
 62
     7
100
AcDbLine
 10
-42.08000399999989
 20
67.12613645756623
 30
0.0
 11
-42.08000399999989
 21
80.87386354243377
 31
0.0
  0
SPLINE
  5
EF
330
5C
100
AcDbEntity
  8
0
  6
Continuous
 62
     7
100
AcDbSpline
210
0.0
220
0.0
230
1.0
 70
     8
 71
     3
 72
    11
 73
     7
 74
     5
 42
0.000000001
 43
0.0000000001
 44
0.00000001
 40
0.0
 40
0.0
 40
0.0
 40
0.0
 40
0.8899026650936072
 40
1.741818043349198
 40
2.611534498766462
 40
3.467014956773509
 40
3.467014956773509
 40
3.467014956773509
 40
3.467014956773509
 10
-38.98192778864656
 20
64.44655071445028
 30
0.0
 10
-38.92093342095107
 20
64.15618302237903
 30
0.0
 10
-38.80154836746272
 20
63.58784256492466
 30
0.0
 10
-38.6768895287066
 20
62.72585353202737
 30
0.0
 10
-38.59516527746106
 20
61.86999829152226
 30
0.0
 10
-38.58502987571044
 20
61.29482999964922
 30
0.0
 10
-38.58000399999989
 20
61.00961894323372
 30
0.0
 11
-38.98192778864656
 21
64.44655071445028
 31
0.0
 11
-38.80840449456691
 21
63.57372975912736
 31
0.0
 11
-38.68449352491167
 21
62.73087396826714
 31
0.0
 11
-38.60604180666022
 21
61.86470306031335
 31
0.0
 11
-38.58000399999989
 21
61.00961894323372
 31
0.0
  0
SPLINE
  5
F0
330
5C
100
AcDbEntity
  8
0
  6
Continuous
 62
     7
100
AcDbSpline
210
0.0
220
0.0
230
1.0
 70
     8
 71
     3
 72
    11
 73
     7
 74
     5
 42
0.000000001
 43
0.0000000001
 44
0.00000001
 40
0.0
 40
0.0
 40
0.0
 40
0.0
 40
0.8554807992773962
 40
1.725197613129104
 40
2.577112654319914
 40
3.467014956714049
 40
3.467014956714049
 40
3.467014956714049
 40
3.467014956714049
 10
-38.58000399999989
 20
61.00961894323372
 30
0.0
 10
-38.5850298797365
 20
60.7244077730113
 30
0.0
 10
-38.59516528967372
 20
60.14923924780156
 30
0.0
 10
-38.67688958469564
 20
59.2933838892457
 30
0.0
 10
-38.80154843589835
 20
58.43139497380611
 30
0.0
 10
-38.92093344432751
 20
57.86305474538257
 30
0.0
 10
-38.98192778864656
 20
57.57268717201654
 30
0.0
 11
-38.58000399999989
 21
61.00961894323372
 31
0.0
 11
-38.60604182734841
 21
60.15453448535553
 31
0.0
 11
-38.68449360822646
 21
59.28836322317237
 31
0.0
 11
-38.80840455653988
 21
58.4455077698624
 31
0.0
 11
-38.98192778864656
 21
57.57268717201654
 31
0.0
  0
SPLINE
  5
F1
330
5C
100
AcDbEntity
  8
0
  6
Continuous
 62
     7
100
AcDbSpline
210
0.0
220
0.0
230
1.0
 70
     8
 71
     3
 72
    11
 73
     7
 74
     5
 42
0.000000001
 43
0.0000000001
 44
0.00000001
 40
0.0
 40
0.0
 40
0.0
 40
0.0
 40
1.754242465456376
 40
3.444504744480079
 40
5.178620797698208
 40
6.888988472644723
 40
6.888988472644723
 40
6.888988472644723
 40
6.888988472644723
 10
-38.98192778864656
 20
80.87386354243377
 30
0.0
 10
-38.92087092393363
 20
80.29227582595874
 30
0.0
 10
-38.80098405627125
 20
79.15031187816005
 30
0.0
 10
-38.67666218256711
 20
77.42835452796811
 30
0.0
 10
-38.59511224913344
 20
75.71836160700614
 30
0.0
 10
-38.58501687683636
 20
74.57014837424073
 30
0.0
 10
-38.58000399999989
 20
74.00000000000063
 30
0.0
 11
-38.98192778864656
 21
80.87386354243377
 31
0.0
 11
-38.8084047256129
 21
79.12822429718992
 31
0.0
 11
-38.6844935237759
 21
77.44251003111778
 31
0.0
 11
-38.60604184416064
 21
75.71016946960832
 31
0.0
 11
-38.58000399999989
 21
74.00000000000063
 31
0.0
  0
SPLINE
  5
F2
330
5C
100
AcDbEntity
  8
0
  6
Continuous
 62
     7
100
AcDbSpline
210
0.0
220
0.0
230
1.0
 70
     8
 71
     3
 72
    11
 73
     7
 74
     5
 42
0.000000001
 43
0.0000000001
 44
0.00000001
 40
0.0
 40
0.0
 40
0.0
 40
0.0
 40
0.8899026650915085
 40
1.741818043349284
 40
2.61153449876694
 40
3.467014956773595
 40
3.467014956773595
 40
3.467014956773595
 40
3.467014956773595
 10
-38.98192778864657
 20
90.42731282798354
 30
0.0
 10
-38.92093342095121
 20
90.13694513591295
 30
0.0
 10
-38.80154836746289
 20
89.56860467845863
 30
0.0
 10
-38.67688952870664
 20
88.70661564556109
 30
0.0
 10
-38.59516527746104
 20
87.85076040505534
 30
0.0
 10
-38.58502987571043
 20
87.27559211318227
 30
0.0
 10
-38.58000399999989
 20
86.99038105676689
 30
0.0
 11
-38.98192778864657
 21
90.42731282798354
 31
0.0
 11
-38.80840449456728
 21
89.5544918726627
 31
0.0
 11
-38.68449352491167
 21
88.71163608180032
 31
0.0
 11
-38.60604180666019
 21
87.84546517384612
 31
0.0
 11
-38.58000399999989
 21
86.99038105676689
 31
0.0
  0
SPLINE
  5
F3
330
5C
100
AcDbEntity
  8
0
  6
Continuous
 62
     7
100
AcDbSpline
210
0.0
220
0.0
230
1.0
 70
     8
 71
     3
 72
    11
 73
     7
 74
     5
 42
0.000000001
 43
0.0000000001
 44
0.00000001
 40
0.0
 40
0.0
 40
0.0
 40
0.0
 40
0.8554807992774317
 40
1.725197613129098
 40
2.577112654322097
 40
3.467014956714036
 40
3.467014956714036
 40
3.467014956714036
 40
3.467014956714036
 10
-38.58000399999989
 20
86.99038105676689
 30
0.0
 10
-38.5850298797365
 20
86.70516988654447
 30
0.0
 10
-38.5951652896737
 20
86.13000136133473
 30
0.0
 10
-38.67688958469572
 20
85.27414600277818
 30
0.0
 10
-38.80154843589847
 20
84.41215708733854
 30
0.0
 10
-38.92093344432764
 20
83.84381685891503
 30
0.0
 10
-38.98192778864656
 20
83.55344928554973
 30
0.0
 11
-38.58000399999989
 21
86.99038105676689
 31
0.0
 11
-38.60604182734841
 21
86.13529659888867
 31
0.0
 11
-38.68449360822646
 21
85.26912533670554
 31
0.0
 11
-38.80840455654025
 21
84.42626988339342
 31
0.0
 11
-38.98192778864656
 21
83.55344928554973
 31
0.0
  0
SPLINE
  5
F4
330
5C
100
AcDbEntity
  8
0
  6
Continuous
 62
     7
100
AcDbSpline
210
0.0
220
0.0
230
1.0
 70
     8
 71
     3
 72
    11
 73
     7
 74
     5
 42
0.000000001
 43
0.0000000001
 44
0.00000001
 40
0.0
 40
0.0
 40
0.0
 40
0.0
 40
1.710368364572962
 40
3.4444851364439
 40
5.134746732912774
 40
6.888988472617575
 40
6.888988472617575
 40
6.888988472617575
 40
6.888988472617575
 10
-38.58000399999989
 20
74.00000000000063
 30
0.0
 10
-38.58501688089104
 20
73.42985139585952
 30
0.0
 10
-38.59511226141084
 20
72.28163769361602
 30
0.0
 10
-38.67666223900356
 20
70.57164453216829
 30
0.0
 10
-38.80098412586338
 20
68.84968741376609
 30
0.0
 10
-38.92087094761298
 20
67.70772393324067
 30
0.0
 10
-38.98192778864656
 20
67.12613645756628
 30
0.0
 11
-38.58000399999989
 21
74.00000000000063
 31
0.0
 11
-38.60604186508532
 21
72.28982984100514
 31
0.0
 11
-38.68449360804085
 21
70.55748856297478
 31
0.0
 11
-38.80840478829182
 21
68.87177497971227
 31
0.0
 11
-38.98192778864656
 21
67.12613645756628
 31
0.0
  0
ENDBLK
  5
5E
330
5C
100
AcDbEntity
  8
0
100
AcDbBlockEnd
  0
BLOCK
  5
61
330
5F
100
AcDbEntity
  8
0
100
AcDbBlockBegin
  2
SA_Links1
 70
     0
 10
-40.33000399999989
 20
74.0
 30
0.0
  3
SA_Links1
  1

  0
INSERT
  5
60
330
5F
100
AcDbEntity
  8
0
100
AcDbBlockReference
  2
1411243_A_INL_M25_N_S-select__4
 10
-42.08000399999989
 20
57.5
 30
0.0
  0
MTEXT
  5
F5
330
5F
100
AcDbEntity
  8
1
 62
     6
100
AcDbMText
 10
-40.31000377655039
 20
54.99999809265137
 30
0.0
 40
2.5
 41
0.0
 71
     2
 72
     1
  1
 
  7
CONVERTER_11
 73
     1
 44
1.32052821128451
  0
ENDBLK
  5
62
330
5F
100
AcDbEntity
  8
0
100
AcDbBlockEnd
  0
BLOCK
  5
64
330
63
100
AcDbEntity
  8
0
100
AcDbBlockBegin
  2
1411243_A_INL_M25_N_S-select__5
 70
     0
 10
-95.66001199999994
 20
57.50000000000004
 30
0.0
  3
1411243_A_INL_M25_N_S-select__5
  1

  0
LINE
  5
F6
330
63
100
AcDbEntity
  8
0
  6
Continuous
 62
     7
100
AcDbLine
 10
-95.66001199999991
 20
86.99038105676664
 30
0.0
 11
-95.66001199999991
 21
89.00000000000004
 31
0.0
  0
LINE
  5
F7
330
63
100
AcDbEntity
  8
0
  6
Continuous
 62
     7
100
AcDbLine
 10
-95.66001199999991
 20
89.00000000000004
 30
0.0
 11
-95.25808821135325
 21
90.50000000000004
 31
0.0
  0
LINE
  5
F8
330
63
100
AcDbEntity
  8
0
  6
Continuous
 62
     7
100
AcDbLine
 10
-92.16001199999991
 20
90.4273128279835
 30
0.0
 11
-92.16001199999991
 21
90.50000000000004
 31
0.0
  0
LINE
  5
F9
330
63
100
AcDbEntity
  8
0
  6
Continuous
 62
     7
100
AcDbLine
 10
-92.16001199999991
 20
90.4273128279835
 30
0.0
 11
-95.25808821135325
 21
90.4273128279835
 31
0.0
  0
LINE
  5
FA
330
63
100
AcDbEntity
  8
0
  6
Continuous
 62
     7
100
AcDbLine
 10
-92.16001199999991
 20
90.50000000000004
 30
0.0
 11
-95.25808821135325
 21
90.50000000000004
 31
0.0
  0
LINE
  5
FB
330
63
100
AcDbEntity
  8
0
  6
Continuous
 62
     7
100
AcDbLine
 10
-95.25808821135325
 20
90.4273128279835
 30
0.0
 11
-95.25808821135325
 21
90.50000000000004
 31
0.0
  0
LINE
  5
FC
330
63
100
AcDbEntity
  8
0
  6
Continuous
 62
     7
100
AcDbLine
 10
-92.16001199999991
 20
90.4273128279835
 30
0.0
 11
-92.16001199999991
 21
83.55344928554973
 31
0.0
  0
LINE
  5
FD
330
63
100
AcDbEntity
  8
0
  6
Continuous
 62
     7
100
AcDbLine
 10
-92.16001199999991
 20
80.8738635424338
 30
0.0
 11
-92.16001199999991
 21
83.55344928554973
 31
0.0
  0
LINE
  5
FE
330
63
100
AcDbEntity
  8
0
  6
Continuous
 62
     7
100
AcDbLine
 10
-95.66001199999992
 20
73.99999999999943
 30
0.0
 11
-95.66001199999991
 21
86.99038105676664
 31
0.0
  0
LINE
  5
FF
330
63
100
AcDbEntity
  8
0
  6
Continuous
 62
     7
100
AcDbLine
 10
-95.25808821135325
 20
57.50000000000004
 30
0.0
 11
-95.25808821135325
 21
57.57268717201659
 31
0.0
  0
LINE
  5
100
330
63
100
AcDbEntity
  8
0
  6
Continuous
 62
     7
100
AcDbLine
 10
-95.66001199999992
 20
59.00000000000004
 30
0.0
 11
-95.25808821135325
 21
57.50000000000004
 31
0.0
  0
LINE
  5
101
330
63
100
AcDbEntity
  8
0
  6
Continuous
 62
     7
100
AcDbLine
 10
-95.25808821135325
 20
57.57268717201659
 30
0.0
 11
-92.16001199999992
 21
57.57268717201659
 31
0.0
  0
LINE
  5
102
330
63
100
AcDbEntity
  8
0
  6
Continuous
 62
     7
100
AcDbLine
 10
-92.16001199999992
 20
57.50000000000004
 30
0.0
 11
-95.25808821135325
 21
57.50000000000004
 31
0.0
  0
LINE
  5
103
330
63
100
AcDbEntity
  8
0
  6
Continuous
 62
     7
100
AcDbLine
 10
-92.16001199999991
 20
80.8738635424338
 30
0.0
 11
-92.16001199999991
 21
67.12613645756628
 31
0.0
  0
LINE
  5
104
330
63
100
AcDbEntity
  8
0
  6
Continuous
 62
     7
100
AcDbLine
 10
-92.16001199999991
 20
64.44655071445032
 30
0.0
 11
-92.16001199999992
 21
57.57268717201659
 31
0.0
  0
LINE
  5
105
330
63
100
AcDbEntity
  8
0
  6
Continuous
 62
     7
100
AcDbLine
 10
-92.16001199999991
 20
64.44655071445032
 30
0.0
 11
-92.16001199999991
 21
67.12613645756628
 31
0.0
  0
LINE
  5
106
330
63
100
AcDbEntity
  8
0
  6
Continuous
 62
     7
100
AcDbLine
 10
-92.16001199999992
 20
57.50000000000004
 30
0.0
 11
-92.16001199999992
 21
57.57268717201659
 31
0.0
  0
LINE
  5
107
330
63
100
AcDbEntity
  8
0
  6
Continuous
 62
     7
100
AcDbLine
 10
-95.25808821135325
 20
67.12613645756616
 30
0.0
 11
-92.16001199999991
 21
67.12613645756628
 31
0.0
  0
LINE
  5
108
330
63
100
AcDbEntity
  8
0
  6
Continuous
 62
     7
100
AcDbLine
 10
-92.16001199999991
 20
64.44655071445032
 30
0.0
 11
-95.25808821135325
 21
64.44655071445035
 31
0.0
  0
LINE
  5
109
330
63
100
AcDbEntity
  8
0
  6
Continuous
 62
     7
100
AcDbLine
 10
-95.25808821135325
 20
64.44655071445035
 30
0.0
 11
-95.25808821135325
 21
67.12613645756616
 31
0.0
  0
LINE
  5
10A
330
63
100
AcDbEntity
  8
0
  6
Continuous
 62
     7
100
AcDbLine
 10
-95.66001199999992
 20
59.00000000000004
 30
0.0
 11
-95.66001199999991
 21
61.00961894323346
 31
0.0
  0
LINE
  5
10B
330
63
100
AcDbEntity
  8
0
  6
Continuous
 62
     7
100
AcDbLine
 10
-95.66001199999991
 20
61.00961894323346
 30
0.0
 11
-95.66001199999992
 21
73.99999999999943
 31
0.0
  0
LINE
  5
10C
330
63
100
AcDbEntity
  8
0
  6
Continuous
 62
     7
100
AcDbLine
 10
-95.25808821135325
 20
80.87386354243375
 30
0.0
 11
-95.25808821135325
 21
83.55344928554973
 31
0.0
  0
LINE
  5
10D
330
63
100
AcDbEntity
  8
0
  6
Continuous
 62
     7
100
AcDbLine
 10
-95.25808821135325
 20
83.55344928554973
 30
0.0
 11
-92.16001199999991
 21
83.55344928554973
 31
0.0
  0
LINE
  5
10E
330
63
100
AcDbEntity
  8
0
  6
Continuous
 62
     7
100
AcDbLine
 10
-92.16001199999991
 20
80.8738635424338
 30
0.0
 11
-95.25808821135325
 21
80.87386354243375
 31
0.0
  0
SPLINE
  5
10F
330
63
100
AcDbEntity
  8
0
  6
Continuous
 62
     7
100
AcDbSpline
210
0.0
220
0.0
230
1.0
 70
     8
 71
     3
 72
    11
 73
     7
 74
     5
 42
0.000000001
 43
0.0000000001
 44
0.00000001
 40
0.0
 40
0.0
 40
0.0
 40
0.0
 40
0.8554807992767641
 40
1.72519761312877
 40
2.577112654322116
 40
3.467014956713732
 40
3.467014956713732
 40
3.467014956713732
 40
3.467014956713732
 10
-95.66001199999991
 20
86.99038105676664
 30
0.0
 10
-95.6549861202633
 20
87.27559222698885
 30
0.0
 10
-95.64485071032607
 20
87.85076075219848
 30
0.0
 10
-95.56312641530408
 20
88.70661611075506
 30
0.0
 10
-95.43846756410132
 20
89.56860502619477
 30
0.0
 10
-95.31908255567214
 20
90.13694525461833
 30
0.0
 10
-95.25808821135325
 20
90.4273128279835
 30
0.0
 11
-95.66001199999991
 21
86.99038105676664
 31
0.0
 11
-95.63397417265139
 21
87.84546551464419
 31
0.0
 11
-95.55552239177334
 21
88.71163677682766
 31
0.0
 11
-95.43161144345947
 21
89.55449223014013
 31
0.0
 11
-95.25808821135325
 21
90.4273128279835
 31
0.0
  0
SPLINE
  5
110
330
63
100
AcDbEntity
  8
0
  6
Continuous
 62
     7
100
AcDbSpline
210
0.0
220
0.0
230
1.0
 70
     8
 71
     3
 72
    11
 73
     7
 74
     5
 42
0.000000001
 43
0.0000000001
 44
0.00000001
 40
0.0
 40
0.0
 40
0.0
 40
0.0
 40
0.8554804580055023
 40
1.72519691342463
 40
2.577112291682298
 40
3.467014956773812
 40
3.467014956773812
 40
3.467014956773812
 40
3.467014956773812
 10
-95.66001199999991
 20
61.00961894323346
 30
0.0
 10
-95.65498612428938
 20
60.72440788681845
 30
0.0
 10
-95.64485072253876
 20
60.14923959494531
 30
0.0
 10
-95.56312647129326
 20
59.29338435443945
 30
0.0
 10
-95.43846763253693
 20
58.43139532154149
 30
0.0
 10
-95.31908257904864
 20
57.86305486408719
 30
0.0
 10
-95.25808821135325
 20
57.57268717201659
 30
0.0
 11
-95.66001199999991
 21
61.00961894323346
 31
0.0
 11
-95.6339741933397
 21
60.15453482615538
 31
0.0
 11
-95.55552247508814
 21
59.28836391819972
 31
0.0
 11
-95.43161150543253
 21
58.44550812733745
 31
0.0
 11
-95.25808821135325
 21
57.57268717201659
 31
0.0
  0
SPLINE
  5
111
330
63
100
AcDbEntity
  8
0
  6
Continuous
 62
     7
100
AcDbSpline
210
0.0
220
0.0
230
1.0
 70
     8
 71
     3
 72
    11
 73
     7
 74
     5
 42
0.000000001
 43
0.0000000001
 44
0.00000001
 40
0.0
 40
0.0
 40
0.0
 40
0.0
 40
0.8554807992758738
 40
1.725197613128799
 40
2.577112654327012
 40
3.467014956713763
 40
3.467014956713763
 40
3.467014956713763
 40
3.467014956713763
 10
-95.66001199999991
 20
61.00961894323346
 30
0.0
 10
-95.65498612026333
 20
61.29483011345538
 30
0.0
 10
-95.64485071032614
 20
61.86999863866501
 30
0.0
 10
-95.56312641530398
 20
62.72585399722323
 30
0.0
 10
-95.43846756410102
 20
63.58784291266321
 30
0.0
 10
-95.31908255567183
 20
64.15618314108676
 30
0.0
 10
-95.25808821135325
 20
64.44655071445035
 30
0.0
 11
-95.66001199999991
 21
61.00961894323346
 31
0.0
 11
-95.63397417265148
 21
61.86470340111013
 31
0.0
 11
-95.55552239177335
 21
62.73087466329451
 31
0.0
 11
-95.43161144345865
 21
63.57373011661177
 31
0.0
 11
-95.25808821135325
 21
64.44655071445035
 31
0.0
  0
SPLINE
  5
112
330
63
100
AcDbEntity
  8
0
  6
Continuous
 62
     7
100
AcDbSpline
210
0.0
220
0.0
230
1.0
 70
     8
 71
     3
 72
    11
 73
     7
 74
     5
 42
0.000000001
 43
0.0000000001
 44
0.00000001
 40
0.0
 40
0.0
 40
0.0
 40
0.0
 40
0.8899026650930957
 40
1.741818043349211
 40
2.611534498768546
 40
3.467014956773849
 40
3.467014956773849
 40
3.467014956773849
 40
3.467014956773849
 10
-95.25808821135325
 20
83.55344928554973
 30
0.0
 10
-95.31908257904874
 20
83.84381697762086
 30
0.0
 10
-95.43846763253707
 20
84.41215743507519
 30
0.0
 10
-95.56312647129329
 20
85.27414646797318
 30
0.0
 10
-95.64485072253882
 20
86.13000170847856
 30
0.0
 10
-95.65498612428941
 20
86.70517000035169
 30
0.0
 10
-95.66001199999991
 20
86.99038105676664
 30
0.0
 11
-95.25808821135325
 21
83.55344928554973
 31
0.0
 11
-95.43161150543281
 21
84.42627024087214
 31
0.0
 11
-95.55552247508814
 21
85.26912603173288
 31
0.0
 11
-95.63397419333972
 21
86.13529693968876
 31
0.0
 11
-95.66001199999991
 21
86.99038105676664
 31
0.0
  0
SPLINE
  5
113
330
63
100
AcDbEntity
  8
0
  6
Continuous
 62
     7
100
AcDbSpline
210
0.0
220
0.0
230
1.0
 70
     8
 71
     3
 72
    11
 73
     7
 74
     5
 42
0.000000001
 43
0.0000000001
 44
0.00000001
 40
0.0
 40
0.0
 40
0.0
 40
0.0
 40
1.754242446023012
 40
3.444504706821398
 40
5.178620779252055
 40
6.88898847264409
 40
6.88898847264409
 40
6.88898847264409
 40
6.88898847264409
 10
-95.25808821135325
 20
67.12613645756616
 30
0.0
 10
-95.3191450754321
 20
67.70772416759331
 30
0.0
 10
-95.43903194186682
 20
68.84968810289688
 30
0.0
 10
-95.56335381592305
 20
70.57164544688916
 30
0.0
 10
-95.64490375053803
 20
72.28163837429068
 30
0.0
 10
-95.65499912305498
 20
73.42985161961013
 30
0.0
 10
-95.66001199999992
 20
73.99999999999943
 30
0.0
 11
-95.25808821135325
 21
67.12613645756616
 31
0.0
 11
-95.43161127270854
 21
68.87177568344771
 31
0.0
 11
-95.55552247397063
 21
70.55748993128762
 31
0.0
 11
-95.63397415527949
 21
72.2898305119526
 31
0.0
 11
-95.66001199999992
 21
73.99999999999943
 31
0.0
  0
SPLINE
  5
114
330
63
100
AcDbEntity
  8
0
  6
Continuous
 62
     7
100
AcDbSpline
210
0.0
220
0.0
230
1.0
 70
     8
 71
     3
 72
    11
 73
     7
 74
     5
 42
0.000000001
 43
0.0000000001
 44
0.00000001
 40
0.0
 40
0.0
 40
0.0
 40
0.0
 40
1.710368368255714
 40
3.444485143965207
 40
5.134746736800789
 40
6.888988472617394
 40
6.888988472617394
 40
6.888988472617394
 40
6.888988472617394
 10
-95.66001199999992
 20
73.99999999999943
 30
0.0
 10
-95.65499911908712
 20
74.57014860536823
 30
0.0
 10
-95.64490373852342
 20
75.71836231011915
 30
0.0
 10
-95.56335376069464
 20
77.42835547285526
 30
0.0
 10
-95.43903187376443
 20
79.15031259001965
 30
0.0
 10
-95.31914505225997
 20
80.29227606804945
 30
0.0
 10
-95.25808821135325
 20
80.87386354243375
 30
0.0
 11
-95.66001199999992
 21
73.99999999999943
 31
0.0
 11
-95.63397413480276
 21
75.71017016267639
 31
0.0
 11
-95.55552239150892
 21
77.44251144453392
 31
0.0
 11
-95.43161121137219
 21
79.12822502416174
 31
0.0
 11
-95.25808821135325
 21
80.87386354243375
 31
0.0
  0
ENDBLK
  5
65
330
63
100
AcDbEntity
  8
0
100
AcDbBlockEnd
  0
BLOCK
  5
68
330
66
100
AcDbEntity
  8
0
100
AcDbBlockBegin
  2
SA_Rechts1
 70
     0
 10
-93.91001199999991
 20
74.00000000000004
 30
0.0
  3
SA_Rechts1
  1

  0
INSERT
  5
67
330
66
100
AcDbEntity
  8
0
100
AcDbBlockReference
  2
1411243_A_INL_M25_N_S-select__5
 10
-95.66001199999994
 20
57.50000000000004
 30
0.0
  0
MTEXT
  5
115
330
66
100
AcDbEntity
  8
1
 62
     6
100
AcDbMText
 10
-93.93001151412716
 20
54.99999809265137
 30
0.0
 40
2.5
 41
0.0
 71
     2
 72
     1
  1
 
  7
CONVERTER_11
 73
     1
 44
1.32052821128451
  0
DIMENSION
  5
122
330
66
100
AcDbEntity
  8
1
100
AcDbDimension
  2
*D16
 10
-92.16001199999992
 20
52.50000000000004
 30
0.0
 11
-88.54789464471247
 21
54.46250000000004
 31
0.0
 70
    32
  1
<>
 71
     5
 42
-1.0
 53
0.00013888888889
  3
ME10_DIM_10
100
AcDbAlignedDimension
 13
-95.66001199999991
 23
61.00961894323346
 33
0.0
 14
-92.16001199999992
 24
57.50000000000004
 34
0.0
100
AcDbRotatedDimension
  0
DIMENSION
  5
12D
330
66
100
AcDbEntity
  8
1
100
AcDbDimension
  2
*D17
 10
-100.6600119999999
 20
57.50000000000004
 30
0.0
 11
-102.5350119999999
 21
74.00000000000004
 31
0.0
 70
    32
  1
<>
 71
     5
 42
-1.0
 53
90.0
  3
ME10_DIM_11
100
AcDbAlignedDimension
 13
-95.25808821135325
 23
90.50000000000004
 33
0.0
 14
-95.25808821135325
 24
57.50000000000004
 34
0.0
 50
90.0
100
AcDbRotatedDimension
  0
ENDBLK
  5
69
330
66
100
AcDbEntity
  8
0
100
AcDbBlockEnd
  0
BLOCK
  5
6B
330
6A
100
AcDbEntity
  8
0
100
AcDbBlockBegin
  2
1411243_A_INL_M25_N_S-select__6
 70
     0
 10
-82.12000764532871
 20
57.50000000000004
 30
0.0
  3
1411243_A_INL_M25_N_S-select__6
  1

  0
LINE
  5
12E
330
6A
100
AcDbEntity
  8
0
  6
Continuous
 62
     7
100
AcDbLine
 10
-59.6200076453287
 20
86.99038105676664
 30
0.0
 11
-65.57294809522405
 21
90.4273128279835
 31
0.0
  0
LINE
  5
12F
330
6A
100
AcDbEntity
  8
0
  6
Continuous
 62
     7
100
AcDbLine
 10
-68.66706719543336
 20
90.4273128279835
 30
0.0
 11
-74.62000764532871
 21
86.99038105676662
 31
0.0
  0
LINE
  5
130
330
6A
100
AcDbEntity
  8
0
  6
Continuous
 62
     7
100
AcDbLine
 10
-52.1200076453287
 20
74.00000000000004
 30
0.0
 11
-52.1200076453287
 21
80.87386354243381
 31
0.0
  0
LINE
  5
131
330
6A
100
AcDbEntity
  8
0
  6
Continuous
 62
     7
100
AcDbLine
 10
-53.66706719543337
 20
83.55344928554973
 30
0.0
 11
-59.6200076453287
 21
86.99038105676664
 31
0.0
  0
LINE
  5
132
330
6A
100
AcDbEntity
  8
0
  6
Continuous
 62
     7
100
AcDbLine
 10
-82.12000764532871
 20
74.00000000000004
 30
0.0
 11
-82.1200076453287
 21
67.12613645756628
 31
0.0
  0
LINE
  5
133
330
6A
100
AcDbEntity
  8
0
  6
Continuous
 62
     7
100
AcDbLine
 10
-80.57294809522404
 20
64.44655071445032
 30
0.0
 11
-74.6200076453287
 21
61.00961894323346
 31
0.0
  0
LINE
  5
134
330
6A
100
AcDbEntity
  8
0
  6
Continuous
 62
     7
100
AcDbLine
 10
-52.1200076453287
 20
67.1261364575663
 30
0.0
 11
-52.1200076453287
 21
74.00000000000004
 31
0.0
  0
LINE
  5
135
330
6A
100
AcDbEntity
  8
0
  6
Continuous
 62
     7
100
AcDbLine
 10
-59.6200076453287
 20
61.00961894323346
 30
0.0
 11
-53.66706719543337
 21
64.44655071445035
 31
0.0
  0
LINE
  5
136
330
6A
100
AcDbEntity
  8
0
  6
Continuous
 62
     7
100
AcDbLine
 10
-82.1200076453287
 20
80.87386354243381
 30
0.0
 11
-82.12000764532871
 21
74.00000000000004
 31
0.0
  0
LINE
  5
137
330
6A
100
AcDbEntity
  8
0
  6
Continuous
 62
     7
100
AcDbLine
 10
-74.62000764532871
 20
86.99038105676662
 30
0.0
 11
-80.57294809522404
 21
83.55344928554973
 31
0.0
  0
LINE
  5
138
330
6A
100
AcDbEntity
  8
0
  6
Continuous
 62
     7
100
AcDbLine
 10
-59.6200076453287
 20
61.00961894323346
 30
0.0
 11
-65.57294809522404
 21
57.57268717201659
 31
0.0
  0
LINE
  5
139
330
6A
100
AcDbEntity
  8
0
  6
Continuous
 62
     7
100
AcDbLine
 10
-74.6200076453287
 20
61.00961894323346
 30
0.0
 11
-68.66706719543339
 21
57.57268717201659
 31
0.0
  0
LINE
  5
13A
330
6A
100
AcDbEntity
  8
1
  6
DOT_CENTER
 62
     2
100
AcDbLine
 10
-50.62000764532868
 20
74.00000000000004
 30
0.0
 11
-83.62000764532871
 21
74.00000000000004
 31
0.0
  0
LINE
  5
13B
330
6A
100
AcDbEntity
  8
1
  6
DOT_CENTER
 62
     2
100
AcDbLine
 10
-67.1200076453287
 20
90.50000000000006
 30
0.0
 11
-67.1200076453287
 21
57.50000000000003
 31
0.0
  0
ARC
  5
13C
330
6A
100
AcDbEntity
  8
0
  6
Continuous
 62
     7
100
AcDbCircle
 10
-67.1200076453287
 20
74.00000000000004
 30
0.0
 40
16.5
100
AcDbArc
 50
84.61997732865717
 51
95.38002267134287
  0
ARC
  5
13D
330
6A
100
AcDbEntity
  8
0
  6
Continuous
 62
     7
100
AcDbCircle
 10
-67.1200076453287
 20
74.00000000000004
 30
0.0
 40
15.00000000000001
100
AcDbArc
 50
60.00000000000004
 51
120.0
  0
ARC
  5
13E
330
6A
100
AcDbEntity
  8
0
  6
Continuous
 62
     7
100
AcDbCircle
 10
-67.1200076453287
 20
74.00000000000004
 30
0.0
 40
16.5
100
AcDbArc
 50
24.61997732865713
 51
35.38002267134287
  0
ARC
  5
13F
330
6A
100
AcDbEntity
  8
0
  6
Continuous
 62
     7
100
AcDbCircle
 10
-67.1200076453287
 20
74.00000000000004
 30
0.0
 40
15.0
100
AcDbArc
 50
0.0
 51
60.00000000000004
  0
ARC
  5
140
330
6A
100
AcDbEntity
  8
0
  6
Continuous
 62
     7
100
AcDbCircle
 10
-67.1200076453287
 20
74.00000000000004
 30
0.0
 40
16.5
100
AcDbArc
 50
204.6199773286571
 51
215.3800226713429
  0
ARC
  5
141
330
6A
100
AcDbEntity
  8
0
  6
Continuous
 62
     7
100
AcDbCircle
 10
-67.1200076453287
 20
74.00000000000004
 30
0.0
 40
15.00000000000001
100
AcDbArc
 50
180.0
 51
240.0
  0
ARC
  5
142
330
6A
100
AcDbEntity
  8
0
  6
Continuous
 62
     7
100
AcDbCircle
 10
-67.1200076453287
 20
74.00000000000004
 30
0.0
 40
16.5
100
AcDbArc
 50
324.6199773286572
 51
335.380022671343
  0
ARC
  5
143
330
6A
100
AcDbEntity
  8
0
  6
Continuous
 62
     7
100
AcDbCircle
 10
-67.1200076453287
 20
74.00000000000004
 30
0.0
 40
15.0
100
AcDbArc
 50
300.0
 51
0.0
  0
ARC
  5
144
330
6A
100
AcDbEntity
  8
0
  6
Continuous
 62
     7
100
AcDbCircle
 10
-67.1200076453287
 20
74.00000000000004
 30
0.0
 40
16.5
100
AcDbArc
 50
144.6199773286571
 51
155.3800226713429
  0
ARC
  5
145
330
6A
100
AcDbEntity
  8
0
  6
Continuous
 62
     7
100
AcDbCircle
 10
-67.1200076453287
 20
74.00000000000004
 30
0.0
 40
15.00000000000001
100
AcDbArc
 50
120.0
 51
180.0
  0
ARC
  5
146
330
6A
100
AcDbEntity
  8
0
  6
Continuous
 62
     7
100
AcDbCircle
 10
-67.1200076453287
 20
74.00000000000004
 30
0.0
 40
15.0
100
AcDbArc
 50
240.0
 51
300.0
  0
ARC
  5
147
330
6A
100
AcDbEntity
  8
0
  6
Continuous
 62
     7
100
AcDbCircle
 10
-67.1200076453287
 20
74.00000000000004
 30
0.0
 40
16.49999999999999
100
AcDbArc
 50
264.619977328657
 51
275.3800226713429
  0
CIRCLE
  5
148
330
6A
100
AcDbEntity
  8
0
  6
Continuous
 62
     7
100
AcDbCircle
 10
-67.1200076453287
 20
74.00000000000004
 30
0.0
 40
11.75
  0
ENDBLK
  5
6C
330
6A
100
AcDbEntity
  8
0
100
AcDbBlockEnd
  0
BLOCK
  5
6F
330
6D
100
AcDbEntity
  8
0
100
AcDbBlockBegin
  2
Vordans1
 70
     0
 10
-67.12000764533371
 20
74.00000000000004
 30
0.0
  3
Vordans1
  1

  0
INSERT
  5
6E
330
6D
100
AcDbEntity
  8
0
100
AcDbBlockReference
  2
1411243_A_INL_M25_N_S-select__6
 10
-82.12000764532871
 20
57.50000000000004
 30
0.0
  0
MTEXT
  5
149
330
6D
100
AcDbEntity
  8
1
 62
     6
100
AcDbMText
 10
-67.12000764533377
 20
54.99999809265137
 30
0.0
 40
2.5
 41
0.0
 71
     2
 72
     1
  1
 
  7
CONVERTER_11
 73
     1
 44
1.32052821128451
  0
ENDBLK
  5
70
330
6D
100
AcDbEntity
  8
0
100
AcDbBlockEnd
  0
BLOCK
  5
72
330
71
100
AcDbEntity
  8
0
100
AcDbBlockBegin
  2
_punkt
 70
     0
 10
47.9623302529381
 20
7.28207210725119
 30
0.0
  3
_punkt
  1

  0
LINE
  5
14A
330
71
100
AcDbEntity
  8
1
  6
Continuous
 62
     2
100
AcDbLine
 10
47.9623302529381
 20
7.28207210725119
 30
0.0
 11
47.9623302529381
 21
2.28207210725108
 31
0.0
  0
LINE
  5
14B
330
71
100
AcDbEntity
  8
1
  6
Continuous
 62
     2
100
AcDbLine
 10
47.9623302529381
 20
7.28207210725119
 30
0.0
 11
52.96233025293711
 21
7.28207210725119
 31
0.0
  0
ENDBLK
  5
73
330
71
100
AcDbEntity
  8
0
100
AcDbBlockEnd
  0
BLOCK
  5
75
330
74
100
AcDbEntity
  8
0
100
AcDbBlockBegin
  2
_rahmen
 70
     0
 10
47.9623302529381
 20
2.28207210725108
 30
0.0
  3
_rahmen
  1

  0
POINT
  5
14C
330
74
100
AcDbEntity
  8
1
 62
     3
 60
     1
100
AcDbPoint
 10
-15.53766974705952
 20
28.53207210725106
 30
0.0
  0
LINE
  5
14D
102
{ACAD_REACTORS
330
32F
330
330
102
}
330
74
100
AcDbEntity
  8
0
  6
Continuous
 62
     2
100
AcDbLine
 10
-67.09534291697923
 20
14.79057550861818
 30
0.0
 11
-67.09534291697923
 21
15.51166394399277
 31
0.0
  0
LINE
  5
14E
102
{ACAD_REACTORS
330
32F
330
330
102
}
330
74
100
AcDbEntity
  8
0
  6
Continuous
 62
     2
100
AcDbLine
 10
-67.09534291697923
 20
13.99737822970672
 30
0.0
 11
-67.09534291697923
 21
13.27628979433213
 31
0.0
  0
LINE
  5
14F
102
{ACAD_REACTORS
330
331
330
332
102
}
330
74
100
AcDbEntity
  8
0
  6
Continuous
 62
     2
100
AcDbLine
 10
-54.42340561425988
 20
15.00690203923015
 30
0.0
 11
-53.5113070195755
 21
15.00690203923015
 31
0.0
  0
LINE
  5
150
102
{ACAD_REACTORS
330
331
330
332
102
}
330
74
100
AcDbEntity
  8
0
  6
Continuous
 62
     2
100
AcDbLine
 10
-53.78732516553146
 20
13.99737822970626
 30
0.0
 11
-53.78732516553146
 21
13.27628979433169
 31
0.0
  0
LINE
  5
151
102
{ACAD_REACTORS
330
33B
330
33C
102
}
330
74
100
AcDbEntity
  8
0
  6
Continuous
 62
     2
100
AcDbLine
 10
-55.32514055014292
 20
15.90826258343419
 30
0.0
 11
-54.16980745349804
 21
17.2147576196118
 31
0.0
  0
LINE
  5
152
102
{ACAD_REACTORS
330
33B
330
33C
102
}
330
74
100
AcDbEntity
  8
0
  6
Continuous
 62
     2
100
AcDbLine
 10
-55.24627822272737
 20
18.43207210724502
 30
0.0
 11
-54.16980745349804
 21
17.2147576196118
 31
0.0
  0
LINE
  5
153
102
{ACAD_REACTORS
330
33B
330
33C
102
}
330
74
100
AcDbEntity
  8
0
  6
Continuous
 62
     2
100
AcDbLine
 10
-53.09333668426962
 20
18.43207210724502
 30
0.0
 11
-51.93406047125541
 21
18.43207210724502
 31
0.0
  0
LINE
  5
154
102
{ACAD_REACTORS
330
33B
330
33C
102
}
330
74
100
AcDbEntity
  8
0
  6
Continuous
 62
     2
100
AcDbLine
 10
-54.16586433712791
 20
15.90826258343419
 30
0.0
 11
-53.59016934699093
 21
16.55928058780913
 31
0.0
  0
LINE
  5
155
102
{ACAD_REACTORS
330
33B
330
33C
102
}
330
74
100
AcDbEntity
  8
0
  6
Continuous
 62
     2
100
AcDbLine
 10
-54.16586433712791
 20
15.90826258343419
 30
0.0
 11
-55.32514055014292
 21
15.90826258343419
 31
0.0
  0
LINE
  5
156
102
{ACAD_REACTORS
330
33D
330
33E
102
}
330
74
100
AcDbEntity
  8
0
  6
Continuous
 62
     2
100
AcDbLine
 10
-55.42371845941307
 20
15.90826258343419
 30
0.0
 11
-56.44892871582044
 21
15.90826258343419
 31
0.0
  0
LINE
  5
157
102
{ACAD_REACTORS
330
33F
330
340
102
}
330
74
100
AcDbEntity
  8
0
  6
Continuous
 62
     2
100
AcDbLine
 10
-57.16626723495688
 20
14.14159591678136
 30
0.0
 11
-57.41433767891567
 21
14.7761537399109
 31
0.0
  0
LINE
  5
158
102
{ACAD_REACTORS
330
33F
330
340
102
}
330
74
100
AcDbEntity
  8
0
  6
Continuous
 62
     2
100
AcDbLine
 10
-57.66240812287629
 20
14.14159591678136
 30
0.0
 11
-57.16626723495688
 21
14.14159591678136
 31
0.0
  0
LINE
  5
159
102
{ACAD_REACTORS
330
33F
330
340
102
}
330
74
100
AcDbEntity
  8
0
  6
Continuous
 62
     2
100
AcDbLine
 10
-59.08227590376373
 20
13.13207210725704
 30
0.0
 11
-58.05706564735635
 21
13.13207210725704
 31
0.0
  0
LINE
  5
15A
102
{ACAD_REACTORS
330
33F
330
340
102
}
330
74
100
AcDbEntity
  8
0
  6
Continuous
 62
     2
100
AcDbLine
 10
-57.92694280711976
 20
15.65588163106787
 30
0.0
 11
-56.9017325507125
 21
15.65588163106787
 31
0.0
  0
LINE
  5
15B
102
{ACAD_REACTORS
330
33F
330
340
102
}
330
74
100
AcDbEntity
  8
0
  6
Continuous
 62
     2
100
AcDbLine
 10
-56.9017325507125
 20
15.65588163106787
 30
0.0
 11
-55.74639945406761
 21
13.13207210725704
 31
0.0
  0
LINE
  5
15C
102
{ACAD_REACTORS
330
33F
330
340
102
}
330
74
100
AcDbEntity
  8
0
  6
Continuous
 62
     2
100
AcDbLine
 10
-56.77160971047579
 20
13.13207210725704
 30
0.0
 11
-56.9463866141748
 21
13.57914693718916
 31
0.0
  0
LINE
  5
15D
102
{ACAD_REACTORS
330
341
330
342
102
}
330
74
100
AcDbEntity
  8
0
  6
Continuous
 62
     2
100
AcDbLine
 10
-60.19501400434854
 20
13.13207210725704
 30
0.0
 11
-59.20923491164899
 21
13.13207210725704
 31
0.0
  0
LINE
  5
15E
102
{ACAD_REACTORS
330
341
330
342
102
}
330
74
100
AcDbEntity
  8
0
  6
Continuous
 62
     2
100
AcDbLine
 10
-60.19501400434854
 20
15.00690203923015
 30
0.0
 11
-60.19501400434854
 21
13.13207210725704
 31
0.0
  0
LINE
  5
15F
102
{ACAD_REACTORS
330
341
330
342
102
}
330
74
100
AcDbEntity
  8
0
  6
Continuous
 62
     2
100
AcDbLine
 10
-60.86534378738543
 20
15.65588163106787
 30
0.0
 11
-60.86534378738543
 21
15.00690203923015
 31
0.0
  0
LINE
  5
160
102
{ACAD_REACTORS
330
343
330
344
102
}
330
74
100
AcDbEntity
  8
0
  6
Continuous
 62
     2
100
AcDbLine
 10
-59.64285297616834
 20
15.90826258343419
 30
0.0
 11
-58.6570738834688
 21
15.90826258343419
 31
0.0
  0
LINE
  5
161
102
{ACAD_REACTORS
330
343
330
344
102
}
330
74
100
AcDbEntity
  8
0
  6
Continuous
 62
     2
100
AcDbLine
 10
-57.63186362706051
 20
17.35043945418291
 30
0.0
 11
-58.6570738834688
 21
18.43207210724502
 31
0.0
  0
LINE
  5
162
102
{ACAD_REACTORS
330
343
330
344
102
}
330
74
100
AcDbEntity
  8
0
  6
Continuous
 62
     2
100
AcDbLine
 10
-56.64608453436085
 20
18.43207210724502
 30
0.0
 11
-57.63186362706051
 21
18.43207210724502
 31
0.0
  0
LINE
  5
163
102
{ACAD_REACTORS
330
343
330
344
102
}
330
74
100
AcDbEntity
  8
0
  6
Continuous
 62
     2
100
AcDbLine
 10
-56.64608453436085
 20
15.90826258343419
 30
0.0
 11
-56.64608453436085
 21
18.43207210724502
 31
0.0
  0
LINE
  5
164
102
{ACAD_REACTORS
330
343
330
344
102
}
330
74
100
AcDbEntity
  8
0
  6
Continuous
 62
     2
100
AcDbLine
 10
-57.63186362706051
 20
15.90826258343419
 30
0.0
 11
-56.64608453436085
 21
15.90826258343419
 31
0.0
  0
LINE
  5
165
102
{ACAD_REACTORS
330
343
330
344
102
}
330
74
100
AcDbEntity
  8
0
  6
Continuous
 62
     2
100
AcDbLine
 10
-58.6570738834688
 20
16.98989523649585
 30
0.0
 11
-57.63186362706051
 21
15.90826258343419
 31
0.0
  0
LINE
  5
166
102
{ACAD_REACTORS
330
345
330
346
102
}
330
74
100
AcDbEntity
  8
0
  6
Continuous
 62
     2
100
AcDbLine
 10
-61.96941637120904
 20
14.57424897800576
 30
0.0
 11
-62.99462662761641
 21
15.65588163106787
 31
0.0
  0
LINE
  5
167
102
{ACAD_REACTORS
330
345
330
346
102
}
330
74
100
AcDbEntity
  8
0
  6
Continuous
 62
     2
100
AcDbLine
 10
-61.96941637120904
 20
15.65588163106787
 30
0.0
 11
-61.96941637120904
 21
14.57424897800576
 31
0.0
  0
LINE
  5
168
102
{ACAD_REACTORS
330
345
330
346
102
}
330
74
100
AcDbEntity
  8
0
  6
Continuous
 62
     2
100
AcDbLine
 10
-60.98363727850949
 20
15.65588163106787
 30
0.0
 11
-61.96941637120904
 21
15.65588163106787
 31
0.0
  0
LINE
  5
169
102
{ACAD_REACTORS
330
345
330
346
102
}
330
74
100
AcDbEntity
  8
0
  6
Continuous
 62
     2
100
AcDbLine
 10
-60.98363727850949
 20
13.13207210725704
 30
0.0
 11
-60.98363727850949
 21
15.65588163106787
 31
0.0
  0
LINE
  5
16A
102
{ACAD_REACTORS
330
345
330
346
102
}
330
74
100
AcDbEntity
  8
0
  6
Continuous
 62
     2
100
AcDbLine
 10
-62.99462662761641
 20
14.21370476031869
 30
0.0
 11
-61.96941637120904
 21
13.13207210725704
 31
0.0
  0
LINE
  5
16B
102
{ACAD_REACTORS
330
345
330
346
102
}
330
74
100
AcDbEntity
  8
0
  6
Continuous
 62
     2
100
AcDbLine
 10
-62.99462662761641
 20
13.13207210725704
 30
0.0
 11
-62.99462662761641
 21
14.21370476031869
 31
0.0
  0
LINE
  5
16C
102
{ACAD_REACTORS
330
335
330
336
102
}
330
74
100
AcDbEntity
  8
0
  6
Continuous
 62
     2
100
AcDbLine
 10
-60.94408137853247
 20
17.85520135894508
 30
0.0
 11
-59.84000879470796
 21
17.85520135894508
 31
0.0
  0
LINE
  5
16D
102
{ACAD_REACTORS
330
335
330
336
102
}
330
74
100
AcDbEntity
  8
0
  6
Continuous
 62
     2
100
AcDbLine
 10
-60.94408137853247
 20
16.48513333173368
 30
0.0
 11
-60.94408137853247
 21
16.88173197118964
 31
0.0
  0
LINE
  5
16E
102
{ACAD_REACTORS
330
335
330
336
102
}
330
74
100
AcDbEntity
  8
0
  6
Continuous
 62
     2
100
AcDbLine
 10
-59.84000879470796
 20
16.48513333173368
 30
0.0
 11
-60.94408137853247
 21
16.48513333173368
 31
0.0
  0
LINE
  5
16F
102
{ACAD_REACTORS
330
335
330
336
102
}
330
74
100
AcDbEntity
  8
0
  6
Continuous
 62
     2
100
AcDbLine
 10
-59.84000879470796
 20
15.90826258343419
 30
0.0
 11
-59.84000879470796
 21
16.48513333173368
 31
0.0
  0
LINE
  5
170
102
{ACAD_REACTORS
330
335
330
336
102
}
330
74
100
AcDbEntity
  8
0
  6
Continuous
 62
     2
100
AcDbLine
 10
-62.44357881436167
 20
15.90826258343419
 30
0.0
 11
-59.84000879470796
 21
15.90826258343419
 31
0.0
  0
LINE
  5
171
102
{ACAD_REACTORS
330
335
330
336
102
}
330
74
100
AcDbEntity
  8
0
  6
Continuous
 62
     2
100
AcDbLine
 10
-62.44357881436167
 20
18.43207210724502
 30
0.0
 11
-59.84000879470796
 21
18.43207210724502
 31
0.0
  0
LINE
  5
172
102
{ACAD_REACTORS
330
335
330
336
102
}
330
74
100
AcDbEntity
  8
0
  6
Continuous
 62
     2
100
AcDbLine
 10
-59.84000879470796
 20
17.85520135894508
 30
0.0
 11
-59.84000879470796
 21
18.43207210724502
 31
0.0
  0
LINE
  5
173
102
{ACAD_REACTORS
330
347
330
348
102
}
330
74
100
AcDbEntity
  8
0
  6
Continuous
 62
     2
100
AcDbLine
 10
-64.80833542191544
 20
17.54873877391066
 30
0.0
 11
-64.80833542191544
 21
18.43207210724502
 31
0.0
  0
LINE
  5
174
102
{ACAD_REACTORS
330
347
330
348
102
}
330
74
100
AcDbEntity
  8
0
  6
Continuous
 62
     2
100
AcDbLine
 10
-64.80833542191544
 20
18.43207210724502
 30
0.0
 11
-63.8225563292159
 21
18.43207210724502
 31
0.0
  0
LINE
  5
175
102
{ACAD_REACTORS
330
347
330
348
102
}
330
74
100
AcDbEntity
  8
0
  6
Continuous
 62
     2
100
AcDbLine
 10
-64.80833542191544
 20
16.84567754942075
 30
0.0
 11
-65.67582102349184
 21
16.84567754942075
 31
0.0
  0
LINE
  5
176
102
{ACAD_REACTORS
330
347
330
348
102
}
330
74
100
AcDbEntity
  8
0
  6
Continuous
 62
     2
100
AcDbLine
 10
-65.67582102349184
 20
16.84567754942075
 30
0.0
 11
-65.67582102349184
 21
15.90826258343419
 31
0.0
  0
LINE
  5
177
102
{ACAD_REACTORS
330
347
330
348
102
}
330
74
100
AcDbEntity
  8
0
  6
Continuous
 62
     2
100
AcDbLine
 10
-66.6616001161915
 20
18.43207210724502
 30
0.0
 11
-66.6616001161915
 21
15.90826258343419
 31
0.0
  0
LINE
  5
178
102
{ACAD_REACTORS
330
339
330
33A
102
}
330
74
100
AcDbEntity
  8
0
  6
Continuous
 62
     2
100
AcDbLine
 10
-68.2782778282193
 20
17.30080475618525
 30
0.0
 11
-68.2782778282193
 21
17.88405074737721
 31
0.0
  0
LINE
  5
179
102
{ACAD_REACTORS
330
339
330
33A
102
}
330
74
100
AcDbEntity
  8
0
  6
Continuous
 62
     2
100
AcDbLine
 10
-69.30348808462759
 20
15.90826258343419
 30
0.0
 11
-68.2782778282193
 21
15.90826258343419
 31
0.0
  0
LINE
  5
17A
102
{ACAD_REACTORS
330
339
330
33A
102
}
330
74
100
AcDbEntity
  8
0
  6
Continuous
 62
     2
100
AcDbLine
 10
-68.2782778282193
 20
15.90826258343419
 30
0.0
 11
-68.2782778282193
 21
16.68766608851166
 31
0.0
  0
LINE
  5
17B
102
{ACAD_REACTORS
330
333
330
334
102
}
330
74
100
AcDbEntity
  8
0
  6
Continuous
 62
     2
100
AcDbLine
 10
-72.86129457157926
 20
13.72096099614706
 30
0.0
 11
-74.0809914815045
 21
13.72096099614706
 31
0.0
  0
LINE
  5
17C
102
{ACAD_REACTORS
330
333
330
334
102
}
330
74
100
AcDbEntity
  8
0
  6
Continuous
 62
     2
100
AcDbLine
 10
-74.92242891301635
 20
18.08145672261529
 30
0.0
 11
-74.92242891301635
 21
13.48268749187132
 31
0.0
  0
LINE
  5
17D
102
{ACAD_REACTORS
330
333
330
334
102
}
330
74
100
AcDbEntity
  8
0
  6
Continuous
 62
     2
100
AcDbLine
 10
-74.57181352840246
 20
18.43207210723003
 30
0.0
 11
-70.04841510632241
 21
18.43207210723003
 31
0.0
  0
LINE
  5
17E
102
{ACAD_REACTORS
330
333
330
334
102
}
330
74
100
AcDbEntity
  8
0
  6
Continuous
 62
     2
100
AcDbLine
 10
-69.69779972170761
 20
18.08145672261529
 30
0.0
 11
-69.69779972170761
 21
13.48268749187132
 31
0.0
  0
LINE
  5
17F
102
{ACAD_REACTORS
330
333
330
334
102
}
330
74
100
AcDbEntity
  8
0
  6
Continuous
 62
     2
100
AcDbLine
 10
-70.04841510632241
 20
13.13207210725704
 30
0.0
 11
-74.57181352840246
 21
13.13207210725704
 31
0.0
  0
LINE
  5
180
102
{ACAD_REACTORS
330
333
330
334
102
}
330
74
100
AcDbEntity
  8
0
  6
Continuous
 62
     2
100
AcDbLine
 10
-72.60037149465643
 20
13.98188407306995
 30
0.0
 11
-72.60037149465643
 21
15.24698401648451
 31
0.0
  0
LINE
  5
181
102
{ACAD_REACTORS
330
333
330
334
102
}
330
74
100
AcDbEntity
  8
0
  6
Continuous
 62
     2
100
AcDbLine
 10
-72.60037149465643
 20
17.08306624138113
 30
0.0
 11
-72.60037149465643
 21
17.58226014143119
 31
0.0
  0
LINE
  5
182
102
{ACAD_REACTORS
330
333
330
334
102
}
330
74
100
AcDbEntity
  8
0
  6
Continuous
 62
     2
100
AcDbLine
 10
-74.0809914815045
 20
17.84318321835364
 30
0.0
 11
-72.86129457157926
 21
17.84318321835364
 31
0.0
  0
LINE
  5
183
102
{ACAD_REACTORS
330
333
330
334
102
}
330
74
100
AcDbEntity
  8
0
  6
Continuous
 62
     2
100
AcDbLine
 10
-74.34191455842654
 20
17.58226014143119
 30
0.0
 11
-74.34191455842654
 21
13.98188407306995
 31
0.0
  0
LINE
  5
184
102
{ACAD_REACTORS
330
339
330
33A
102
}
330
74
100
AcDbEntity
  8
0
  6
Continuous
 62
     2
100
AcDbLine
 10
-68.2782778282193
 20
16.68766608851166
 30
0.0
 11
-67.65119717716118
 21
16.68766608851166
 31
0.0
  0
LINE
  5
185
102
{ACAD_REACTORS
330
339
330
33A
102
}
330
74
100
AcDbEntity
  8
0
  6
Continuous
 62
     2
100
AcDbLine
 10
-69.30348808462759
 20
18.43207210724502
 30
0.0
 11
-67.65119717716118
 21
18.43207210724502
 31
0.0
  0
LINE
  5
186
102
{ACAD_REACTORS
330
339
330
33A
102
}
330
74
100
AcDbEntity
  8
0
  6
Continuous
 62
     2
100
AcDbLine
 10
-69.30348808462759
 20
18.43207210724502
 30
0.0
 11
-69.30348808462759
 21
15.90826258343419
 31
0.0
  0
LINE
  5
187
102
{ACAD_REACTORS
330
339
330
33A
102
}
330
74
100
AcDbEntity
  8
0
  6
Continuous
 62
     2
100
AcDbLine
 10
-68.2782778282193
 20
17.30080475618525
 30
0.0
 11
-68.01605050463093
 21
17.30080475618525
 31
0.0
  0
LINE
  5
188
102
{ACAD_REACTORS
330
339
330
33A
102
}
330
74
100
AcDbEntity
  8
0
  6
Continuous
 62
     2
100
AcDbLine
 10
-68.2782778282193
 20
17.88405074737721
 30
0.0
 11
-68.01605050463093
 21
17.88405074737721
 31
0.0
  0
LINE
  5
189
102
{ACAD_REACTORS
330
347
330
348
102
}
330
74
100
AcDbEntity
  8
0
  6
Continuous
 62
     2
100
AcDbLine
 10
-65.67582102349184
 20
17.54873877391066
 30
0.0
 11
-64.80833542191544
 21
17.54873877391066
 31
0.0
  0
LINE
  5
18A
102
{ACAD_REACTORS
330
347
330
348
102
}
330
74
100
AcDbEntity
  8
0
  6
Continuous
 62
     2
100
AcDbLine
 10
-65.67582102349184
 20
18.43207210724502
 30
0.0
 11
-65.67582102349184
 21
17.54873877391066
 31
0.0
  0
LINE
  5
18B
102
{ACAD_REACTORS
330
347
330
348
102
}
330
74
100
AcDbEntity
  8
0
  6
Continuous
 62
     2
100
AcDbLine
 10
-66.6616001161915
 20
18.43207210724502
 30
0.0
 11
-65.67582102349184
 21
18.43207210724502
 31
0.0
  0
LINE
  5
18C
102
{ACAD_REACTORS
330
347
330
348
102
}
330
74
100
AcDbEntity
  8
0
  6
Continuous
 62
     2
100
AcDbLine
 10
-65.67582102349184
 20
15.90826258343419
 30
0.0
 11
-66.6616001161915
 21
15.90826258343419
 31
0.0
  0
LINE
  5
18D
102
{ACAD_REACTORS
330
347
330
348
102
}
330
74
100
AcDbEntity
  8
0
  6
Continuous
 62
     2
100
AcDbLine
 10
-64.80833542191544
 20
15.90826258343419
 30
0.0
 11
-64.80833542191544
 21
16.84567754942075
 31
0.0
  0
LINE
  5
18E
102
{ACAD_REACTORS
330
347
330
348
102
}
330
74
100
AcDbEntity
  8
0
  6
Continuous
 62
     2
100
AcDbLine
 10
-63.8225563292159
 20
15.90826258343419
 30
0.0
 11
-64.80833542191544
 21
15.90826258343419
 31
0.0
  0
LINE
  5
18F
102
{ACAD_REACTORS
330
347
330
348
102
}
330
74
100
AcDbEntity
  8
0
  6
Continuous
 62
     2
100
AcDbLine
 10
-63.8225563292159
 20
18.43207210724502
 30
0.0
 11
-63.8225563292159
 21
15.90826258343419
 31
0.0
  0
LINE
  5
190
102
{ACAD_REACTORS
330
335
330
336
102
}
330
74
100
AcDbEntity
  8
0
  6
Continuous
 62
     2
100
AcDbLine
 10
-60.94408137853247
 20
16.88173197118964
 30
0.0
 11
-59.84000879470796
 21
16.88173197118964
 31
0.0
  0
LINE
  5
191
102
{ACAD_REACTORS
330
335
330
336
102
}
330
74
100
AcDbEntity
  8
0
  6
Continuous
 62
     2
100
AcDbLine
 10
-59.84000879470796
 20
16.88173197118964
 30
0.0
 11
-59.84000879470796
 21
17.45860271948912
 31
0.0
  0
LINE
  5
192
102
{ACAD_REACTORS
330
335
330
336
102
}
330
74
100
AcDbEntity
  8
0
  6
Continuous
 62
     2
100
AcDbLine
 10
-59.84000879470796
 20
17.45860271948912
 30
0.0
 11
-60.94408137853247
 21
17.45860271948912
 31
0.0
  0
LINE
  5
193
102
{ACAD_REACTORS
330
335
330
336
102
}
330
74
100
AcDbEntity
  8
0
  6
Continuous
 62
     2
100
AcDbLine
 10
-60.94408137853247
 20
17.45860271948912
 30
0.0
 11
-60.94408137853247
 21
17.85520135894508
 31
0.0
  0
LINE
  5
194
102
{ACAD_REACTORS
330
345
330
346
102
}
330
74
100
AcDbEntity
  8
0
  6
Continuous
 62
     2
100
AcDbLine
 10
-63.98040572031687
 20
13.13207210725704
 30
0.0
 11
-62.99462662761641
 21
13.13207210725704
 31
0.0
  0
LINE
  5
195
102
{ACAD_REACTORS
330
345
330
346
102
}
330
74
100
AcDbEntity
  8
0
  6
Continuous
 62
     2
100
AcDbLine
 10
-61.96941637120904
 20
13.13207210725704
 30
0.0
 11
-60.98363727850949
 21
13.13207210725704
 31
0.0
  0
LINE
  5
196
102
{ACAD_REACTORS
330
345
330
346
102
}
330
74
100
AcDbEntity
  8
0
  6
Continuous
 62
     2
100
AcDbLine
 10
-62.99462662761641
 20
15.65588163106787
 30
0.0
 11
-63.98040572031687
 21
15.65588163106787
 31
0.0
  0
LINE
  5
197
102
{ACAD_REACTORS
330
345
330
346
102
}
330
74
100
AcDbEntity
  8
0
  6
Continuous
 62
     2
100
AcDbLine
 10
-63.98040572031687
 20
15.65588163106787
 30
0.0
 11
-63.98040572031687
 21
13.13207210725704
 31
0.0
  0
LINE
  5
198
102
{ACAD_REACTORS
330
343
330
344
102
}
330
74
100
AcDbEntity
  8
0
  6
Continuous
 62
     2
100
AcDbLine
 10
-57.63186362706051
 20
18.43207210724502
 30
0.0
 11
-57.63186362706051
 21
17.35043945418291
 31
0.0
  0
LINE
  5
199
102
{ACAD_REACTORS
330
343
330
344
102
}
330
74
100
AcDbEntity
  8
0
  6
Continuous
 62
     2
100
AcDbLine
 10
-58.6570738834688
 20
18.43207210724502
 30
0.0
 11
-59.64285297616834
 21
18.43207210724502
 31
0.0
  0
LINE
  5
19A
102
{ACAD_REACTORS
330
343
330
344
102
}
330
74
100
AcDbEntity
  8
0
  6
Continuous
 62
     2
100
AcDbLine
 10
-59.64285297616834
 20
18.43207210724502
 30
0.0
 11
-59.64285297616834
 21
15.90826258343419
 31
0.0
  0
LINE
  5
19B
102
{ACAD_REACTORS
330
343
330
344
102
}
330
74
100
AcDbEntity
  8
0
  6
Continuous
 62
     2
100
AcDbLine
 10
-58.6570738834688
 20
15.90826258343419
 30
0.0
 11
-58.6570738834688
 21
16.98989523649585
 31
0.0
  0
LINE
  5
19C
102
{ACAD_REACTORS
330
341
330
342
102
}
330
74
100
AcDbEntity
  8
0
  6
Continuous
 62
     2
100
AcDbLine
 10
-59.20923491164899
 20
13.13207210725704
 30
0.0
 11
-59.20923491164899
 21
15.00690203923015
 31
0.0
  0
LINE
  5
19D
102
{ACAD_REACTORS
330
341
330
342
102
}
330
74
100
AcDbEntity
  8
0
  6
Continuous
 62
     2
100
AcDbLine
 10
-59.20923491164899
 20
15.00690203923015
 30
0.0
 11
-58.53890512861381
 21
15.00690203923015
 31
0.0
  0
LINE
  5
19E
102
{ACAD_REACTORS
330
341
330
342
102
}
330
74
100
AcDbEntity
  8
0
  6
Continuous
 62
     2
100
AcDbLine
 10
-58.53890512861381
 20
15.00690203923015
 30
0.0
 11
-58.53890512861381
 21
15.65588163106787
 31
0.0
  0
LINE
  5
19F
102
{ACAD_REACTORS
330
341
330
342
102
}
330
74
100
AcDbEntity
  8
0
  6
Continuous
 62
     2
100
AcDbLine
 10
-58.53890512861381
 20
15.65588163106787
 30
0.0
 11
-60.86534378738543
 21
15.65588163106787
 31
0.0
  0
LINE
  5
1A0
102
{ACAD_REACTORS
330
341
330
342
102
}
330
74
100
AcDbEntity
  8
0
  6
Continuous
 62
     2
100
AcDbLine
 10
-60.86534378738543
 20
15.00690203923015
 30
0.0
 11
-60.19501400434854
 21
15.00690203923015
 31
0.0
  0
LINE
  5
1A1
102
{ACAD_REACTORS
330
33F
330
340
102
}
330
74
100
AcDbEntity
  8
0
  6
Continuous
 62
     2
100
AcDbLine
 10
-57.88228874365734
 20
13.57914693718916
 30
0.0
 11
-56.9463866141748
 21
13.57914693718916
 31
0.0
  0
LINE
  5
1A2
102
{ACAD_REACTORS
330
33F
330
340
102
}
330
74
100
AcDbEntity
  8
0
  6
Continuous
 62
     2
100
AcDbLine
 10
-55.74639945406761
 20
13.13207210725704
 30
0.0
 11
-56.77160971047579
 21
13.13207210725704
 31
0.0
  0
LINE
  5
1A3
102
{ACAD_REACTORS
330
33F
330
340
102
}
330
74
100
AcDbEntity
  8
0
  6
Continuous
 62
     2
100
AcDbLine
 10
-57.92694280711976
 20
15.65588163106787
 30
0.0
 11
-59.08227590376373
 21
13.13207210725704
 31
0.0
  0
LINE
  5
1A4
102
{ACAD_REACTORS
330
33F
330
340
102
}
330
74
100
AcDbEntity
  8
0
  6
Continuous
 62
     2
100
AcDbLine
 10
-58.05706564735635
 20
13.13207210725704
 30
0.0
 11
-57.88228874365734
 21
13.57914693718916
 31
0.0
  0
LINE
  5
1A5
102
{ACAD_REACTORS
330
33F
330
340
102
}
330
74
100
AcDbEntity
  8
0
  6
Continuous
 62
     2
100
AcDbLine
 10
-57.66240812287629
 20
14.14159591678136
 30
0.0
 11
-57.41433767891567
 21
14.7761537399109
 31
0.0
  0
LINE
  5
1A6
102
{ACAD_REACTORS
330
33D
330
33E
102
}
330
74
100
AcDbEntity
  8
0
  6
Continuous
 62
     2
100
AcDbLine
 10
-56.44892871582044
 20
15.90826258343419
 30
0.0
 11
-56.44892871582044
 21
18.43207210724502
 31
0.0
  0
LINE
  5
1A7
102
{ACAD_REACTORS
330
33D
330
33E
102
}
330
74
100
AcDbEntity
  8
0
  6
Continuous
 62
     2
100
AcDbLine
 10
-55.42371845941307
 20
18.43207210724502
 30
0.0
 11
-55.42371845941307
 21
15.90826258343419
 31
0.0
  0
LINE
  5
1A8
102
{ACAD_REACTORS
330
33D
330
33E
102
}
330
74
100
AcDbEntity
  8
0
  6
Continuous
 62
     2
100
AcDbLine
 10
-56.44892871582044
 20
18.43207210724502
 30
0.0
 11
-55.42371845941307
 21
18.43207210724502
 31
0.0
  0
LINE
  5
1A9
102
{ACAD_REACTORS
330
33B
330
33C
102
}
330
74
100
AcDbEntity
  8
0
  6
Continuous
 62
     2
100
AcDbLine
 10
-53.59016934699093
 20
16.55928058780913
 30
0.0
 11
-53.01447435685418
 21
15.90826258343419
 31
0.0
  0
LINE
  5
1AA
102
{ACAD_REACTORS
330
33B
330
33C
102
}
330
74
100
AcDbEntity
  8
0
  6
Continuous
 62
     2
100
AcDbLine
 10
-53.01447435685418
 20
15.90826258343419
 30
0.0
 11
-51.85519814383906
 21
15.90826258343419
 31
0.0
  0
LINE
  5
1AB
102
{ACAD_REACTORS
330
33B
330
33C
102
}
330
74
100
AcDbEntity
  8
0
  6
Continuous
 62
     2
100
AcDbLine
 10
-53.01053124048394
 20
17.2147576196118
 30
0.0
 11
-51.85519814383906
 21
15.90826258343419
 31
0.0
  0
LINE
  5
1AC
102
{ACAD_REACTORS
330
33B
330
33C
102
}
330
74
100
AcDbEntity
  8
0
  6
Continuous
 62
     2
100
AcDbLine
 10
-53.01053124048394
 20
17.2147576196118
 30
0.0
 11
-51.93406047125541
 21
18.43207210724502
 31
0.0
  0
LINE
  5
1AD
102
{ACAD_REACTORS
330
33B
330
33C
102
}
330
74
100
AcDbEntity
  8
0
  6
Continuous
 62
     2
100
AcDbLine
 10
-53.59016934699093
 20
17.87023465141403
 30
0.0
 11
-53.09333668426962
 21
18.43207210724502
 31
0.0
  0
LINE
  5
1AE
102
{ACAD_REACTORS
330
33B
330
33C
102
}
330
74
100
AcDbEntity
  8
0
  6
Continuous
 62
     2
100
AcDbLine
 10
-54.08700200971146
 20
18.43207210724502
 30
0.0
 11
-53.59016934699093
 21
17.87023465141403
 31
0.0
  0
LINE
  5
1AF
102
{ACAD_REACTORS
330
33B
330
33C
102
}
330
74
100
AcDbEntity
  8
0
  6
Continuous
 62
     2
100
AcDbLine
 10
-54.08700200971146
 20
18.43207210724502
 30
0.0
 11
-55.24627822272737
 21
18.43207210724502
 31
0.0
  0
LINE
  5
1B0
102
{ACAD_REACTORS
330
331
330
332
102
}
330
74
100
AcDbEntity
  8
0
  6
Continuous
 62
     2
100
AcDbLine
 10
-53.5113070195755
 20
13.13207210725704
 30
0.0
 11
-52.52552792687493
 21
13.13207210725704
 31
0.0
  0
LINE
  5
1B1
102
{ACAD_REACTORS
330
331
330
332
102
}
330
74
100
AcDbEntity
  8
0
  6
Continuous
 62
     2
100
AcDbLine
 10
-52.52552792687493
 20
13.13207210725704
 30
0.0
 11
-52.52552792687493
 21
15.00690203923015
 31
0.0
  0
LINE
  5
1B2
102
{ACAD_REACTORS
330
331
330
332
102
}
330
74
100
AcDbEntity
  8
0
  6
Continuous
 62
     2
100
AcDbLine
 10
-52.52552792687493
 20
15.00690203923015
 30
0.0
 11
-51.85519814383906
 21
15.00690203923015
 31
0.0
  0
LINE
  5
1B3
102
{ACAD_REACTORS
330
331
330
332
102
}
330
74
100
AcDbEntity
  8
0
  6
Continuous
 62
     2
100
AcDbLine
 10
-51.85519814383906
 20
15.00690203923015
 30
0.0
 11
-51.85519814383906
 21
15.65588163106787
 31
0.0
  0
LINE
  5
1B4
102
{ACAD_REACTORS
330
331
330
332
102
}
330
74
100
AcDbEntity
  8
0
  6
Continuous
 62
     2
100
AcDbLine
 10
-54.65267377906935
 20
15.65588163106741
 30
0.0
 11
-51.85519814383906
 21
15.65588163106787
 31
0.0
  0
LINE
  5
1B5
102
{ACAD_REACTORS
330
331
330
332
102
}
330
74
100
AcDbEntity
  8
0
  6
Continuous
 62
     2
100
AcDbLine
 10
-53.5113070195755
 20
15.00690203923015
 30
0.0
 11
-53.5113070195755
 21
13.13207210725704
 31
0.0
  0
LINE
  5
1B6
102
{ACAD_REACTORS
330
333
330
334
102
}
330
74
100
AcDbEntity
  8
0
  6
Continuous
 62
     2
100
AcDbLine
 10
-72.21336192493015
 20
14.76751024739299
 30
0.0
 11
-72.21336192493015
 21
15.24837917854596
 31
0.0
  0
LINE
  5
1B7
102
{ACAD_REACTORS
330
333
330
334
102
}
330
74
100
AcDbEntity
  8
0
  6
Continuous
 62
     2
100
AcDbLine
 10
-72.21336192493015
 20
17.08167107931967
 30
0.0
 11
-72.21336192493015
 21
17.58211346651534
 31
0.0
  0
LINE
  5
1B8
330
74
100
AcDbEntity
  8
1
  6
Continuous
 62
     7
100
AcDbLine
 10
-15.53766974705952
 20
24.28207210725108
 30
0.0
 11
-15.53766974705952
 21
28.53207210725106
 31
0.0
  0
LINE
  5
1B9
330
74
100
AcDbEntity
  8
1
  6
Continuous
 62
     6
100
AcDbLine
 10
-95.53766974706191
 20
7.28207210725119
 30
0.0
 11
-95.08247427381191
 21
7.28207210725108
 31
0.0
  0
LINE
  5
1BA
330
74
100
AcDbEntity
  8
1
  6
Continuous
 62
     6
100
AcDbLine
 10
-145.537669747062
 20
7.28207210725119
 30
0.0
 11
-184.337669747062
 21
7.28207210725119
 31
0.0
  0
LINE
  5
1BB
330
74
100
AcDbEntity
  8
1
  6
Continuous
 62
     6
100
AcDbLine
 10
-195.5376697470619
 20
7.28207210725119
 30
0.0
 11
-184.337669747062
 21
7.28207210725119
 31
0.0
  0
LINE
  5
1BC
330
74
100
AcDbEntity
  8
1
  6
Continuous
 62
     6
100
AcDbLine
 10
4.46233025293811
 20
7.28207210725119
 30
0.0
 11
47.9623302529381
 21
7.28207210725119
 31
0.0
  0
LINE
  5
1BD
330
74
100
AcDbEntity
  8
1
  6
Continuous
 62
     6
100
AcDbLine
 10
-45.5376697470619
 20
7.28207210725119
 30
0.0
 11
-63.38247427381194
 21
7.28207210725119
 31
0.0
  0
LINE
  5
1BE
330
74
100
AcDbEntity
  8
1
  6
PHANTOM
 62
     2
100
AcDbLine
 10
-73.46321105901154
 20
22.15707210725108
 30
0.0
 11
-69.14761608982253
 21
22.15707210725108
 31
0.0
  0
LINE
  5
1BF
330
74
100
AcDbEntity
  8
1
  6
PHANTOM
 62
     2
100
AcDbLine
 10
-76.49021444870854
 20
23.80707210725111
 30
0.0
 11
-76.49021444870854
 21
20.5070721072511
 31
0.0
  0
LINE
  5
1C0
330
74
100
AcDbEntity
  8
1
  6
PHANTOM
 62
     2
100
AcDbLine
 10
-74.84021444870854
 20
22.15707210725108
 30
0.0
 11
-78.14021444870853
 21
22.15707210725108
 31
0.0
  0
LINE
  5
1C1
330
74
100
AcDbEntity
  8
1
  6
Continuous
 62
     2
100
AcDbLine
 10
47.9623302529381
 20
7.28207210725119
 30
0.0
 11
52.96233025293711
 21
7.28207210725119
 31
0.0
  0
LINE
  5
1C2
330
74
100
AcDbEntity
  8
1
  6
Continuous
 62
     2
100
AcDbLine
 10
47.9623302529381
 20
7.28207210725119
 30
0.0
 11
47.9623302529381
 21
2.28207210725108
 31
0.0
  0
LINE
  5
1C3
330
74
100
AcDbEntity
  8
1
  6
Continuous
 62
     7
100
AcDbLine
 10
-45.18247427381191
 20
20.03207210725108
 30
0.0
 11
-45.18247427381191
 21
24.28207210725108
 31
0.0
  0
LINE
  5
1C4
330
74
100
AcDbEntity
  8
1
  6
Continuous
 62
     7
100
AcDbLine
 10
-81.58247427381181
 20
20.03207210725108
 30
0.0
 11
-45.18247427381191
 21
20.03207210725108
 31
0.0
  0
LINE
  5
1C5
330
74
100
AcDbEntity
  8
1
  6
Continuous
 62
     2
100
AcDbLine
 10
52.96233025293711
 20
2.28207210725108
 30
0.0
 11
52.96233025293711
 21
7.28207210725119
 31
0.0
  0
LINE
  5
1C6
330
74
100
AcDbEntity
  8
1
  6
Continuous
 62
     2
100
AcDbLine
 10
52.96233025293711
 20
2.28207210725108
 30
0.0
 11
47.9623302529381
 21
2.28207210725108
 31
0.0
  0
LINE
  5
1C7
330
74
100
AcDbEntity
  8
1
  6
Continuous
 62
     2
100
AcDbLine
 10
47.9623302529381
 20
2.28207210725108
 30
0.0
 11
4.46233025293811
 21
2.28207210725108
 31
0.0
  0
LINE
  5
1C8
330
74
100
AcDbEntity
  8
1
  6
Continuous
 62
     6
100
AcDbLine
 10
47.96233025293981
 20
37.03207210725108
 30
0.0
 11
47.96233025293901
 21
57.28207210725119
 31
0.0
  0
LINE
  5
1C9
330
74
100
AcDbEntity
  8
1
  6
Continuous
 62
     2
100
AcDbLine
 10
52.96233025293711
 20
212.2820721072511
 30
0.0
 11
-95.53766974706191
 21
212.2820721072511
 31
0.0
  0
LINE
  5
1CA
330
74
100
AcDbEntity
  8
1
  6
Continuous
 62
     6
100
AcDbLine
 10
47.96233025293711
 20
192.2820721072511
 30
0.0
 11
-239.037669747061
 21
192.2820721072511
 31
0.0
  0
LINE
  5
1CB
330
74
100
AcDbEntity
  8
1
  6
Continuous
 62
     2
100
AcDbLine
 10
47.96233025293901
 20
57.28207210725119
 30
0.0
 11
52.96233025293711
 21
57.28207210725119
 31
0.0
  0
LINE
  5
1CC
330
74
100
AcDbEntity
  8
1
  6
Continuous
 62
     6
100
AcDbLine
 10
47.96233025293901
 20
57.28207210725119
 30
0.0
 11
47.9623302529385
 21
107.282072107251
 31
0.0
  0
LINE
  5
1CD
330
74
100
AcDbEntity
  8
1
  6
Continuous
 62
     2
100
AcDbLine
 10
52.96233025293711
 20
57.28207210725119
 30
0.0
 11
52.96233025293711
 21
107.282072107251
 31
0.0
  0
LINE
  5
1CE
330
74
100
AcDbEntity
  8
1
  6
Continuous
 62
     2
100
AcDbLine
 10
47.9623302529385
 20
107.282072107251
 30
0.0
 11
52.96233025293711
 21
107.282072107251
 31
0.0
  0
LINE
  5
1CF
330
74
100
AcDbEntity
  8
1
  6
Continuous
 62
     6
100
AcDbLine
 10
47.9623302529385
 20
107.282072107251
 30
0.0
 11
47.96233025293739
 21
157.2820721072511
 31
0.0
  0
LINE
  5
1D0
330
74
100
AcDbEntity
  8
1
  6
Continuous
 62
     2
100
AcDbLine
 10
52.96233025293711
 20
107.282072107251
 30
0.0
 11
52.96233025293711
 21
157.2820721072511
 31
0.0
  0
LINE
  5
1D1
330
74
100
AcDbEntity
  8
1
  6
Continuous
 62
     2
100
AcDbLine
 10
47.96233025293739
 20
157.2820721072511
 30
0.0
 11
52.96233025293711
 21
157.2820721072511
 31
0.0
  0
LINE
  5
1D2
330
74
100
AcDbEntity
  8
1
  6
Continuous
 62
     6
100
AcDbLine
 10
47.96233025293739
 20
157.2820721072511
 30
0.0
 11
47.96233025293711
 21
192.2820721072511
 31
0.0
  0
LINE
  5
1D3
330
74
100
AcDbEntity
  8
1
  6
Continuous
 62
     2
100
AcDbLine
 10
52.96233025293711
 20
157.2820721072511
 30
0.0
 11
52.96233025293711
 21
212.2820721072511
 31
0.0
  0
LINE
  5
1D4
330
74
100
AcDbEntity
  8
1
  6
Continuous
 62
     2
100
AcDbLine
 10
52.96233025293711
 20
7.28207210725119
 30
0.0
 11
52.96233025293711
 21
57.28207210725119
 31
0.0
  0
LINE
  5
1D5
330
74
100
AcDbEntity
  8
1
  6
Continuous
 62
     2
100
AcDbLine
 10
-95.53766974706191
 20
212.2820721072511
 30
0.0
 11
-244.037669747061
 21
212.2820721072511
 31
0.0
  0
LINE
  5
1D6
330
74
100
AcDbEntity
  8
1
  6
Continuous
 62
     2
100
AcDbLine
 10
-95.53766974706191
 20
212.2820721072511
 30
0.0
 11
-95.53766974706191
 21
203.0733802625498
 31
0.0
  0
LINE
  5
1D7
330
74
100
AcDbEntity
  8
1
  6
Continuous
 62
     2
100
AcDbLine
 10
-244.037669747061
 20
2.28207210725108
 30
0.0
 11
-239.0376697470599
 21
2.28207210725108
 31
0.0
  0
LINE
  5
1D8
330
74
100
AcDbEntity
  8
1
  6
Continuous
 62
     2
100
AcDbLine
 10
-244.037669747061
 20
212.2820721072511
 30
0.0
 11
-244.037669747061
 21
157.2820721072511
 31
0.0
  0
LINE
  5
1D9
330
74
100
AcDbEntity
  8
1
  6
Continuous
 62
     6
100
AcDbLine
 10
-239.037669747061
 20
192.2820721072511
 30
0.0
 11
-239.0376697470608
 21
157.2820721072511
 31
0.0
  0
LINE
  5
1DA
330
74
100
AcDbEntity
  8
1
  6
Continuous
 62
     2
100
AcDbLine
 10
-244.037669747061
 20
157.2820721072511
 30
0.0
 11
-239.0376697470608
 21
157.2820721072511
 31
0.0
  0
LINE
  5
1DB
330
74
100
AcDbEntity
  8
1
  6
Continuous
 62
     2
100
AcDbLine
 10
-244.037669747061
 20
157.2820721072511
 30
0.0
 11
-244.037669747061
 21
107.282072107251
 31
0.0
  0
LINE
  5
1DC
330
74
100
AcDbEntity
  8
1
  6
Continuous
 62
     6
100
AcDbLine
 10
-239.0376697470608
 20
157.2820721072511
 30
0.0
 11
-239.0376697470604
 21
107.282072107251
 31
0.0
  0
LINE
  5
1DD
330
74
100
AcDbEntity
  8
1
  6
Continuous
 62
     2
100
AcDbLine
 10
-244.037669747061
 20
107.282072107251
 30
0.0
 11
-239.0376697470604
 21
107.282072107251
 31
0.0
  0
LINE
  5
1DE
330
74
100
AcDbEntity
  8
1
  6
Continuous
 62
     2
100
AcDbLine
 10
-244.037669747061
 20
107.282072107251
 30
0.0
 11
-244.037669747061
 21
57.28207210725119
 31
0.0
  0
LINE
  5
1DF
330
74
100
AcDbEntity
  8
1
  6
Continuous
 62
     6
100
AcDbLine
 10
-239.0376697470604
 20
107.282072107251
 30
0.0
 11
-239.0376697470601
 21
57.28207210725119
 31
0.0
  0
LINE
  5
1E0
330
74
100
AcDbEntity
  8
1
  6
Continuous
 62
     2
100
AcDbLine
 10
-244.037669747061
 20
57.28207210725119
 30
0.0
 11
-239.0376697470601
 21
57.28207210725119
 31
0.0
  0
LINE
  5
1E1
330
74
100
AcDbEntity
  8
1
  6
Continuous
 62
     2
100
AcDbLine
 10
-244.037669747061
 20
57.28207210725119
 30
0.0
 11
-244.037669747061
 21
7.28207210725119
 31
0.0
  0
LINE
  5
1E2
330
74
100
AcDbEntity
  8
1
  6
Continuous
 62
     6
100
AcDbLine
 10
-239.0376697470601
 20
57.28207210725119
 30
0.0
 11
-239.0376697470599
 21
7.28207210725119
 31
0.0
  0
LINE
  5
1E3
330
74
100
AcDbEntity
  8
1
  6
Continuous
 62
     2
100
AcDbLine
 10
-195.5376697470619
 20
2.28207210725108
 30
0.0
 11
-195.5376697470619
 21
7.28207210725119
 31
0.0
  0
LINE
  5
1E4
330
74
100
AcDbEntity
  8
1
  6
Continuous
 62
     2
100
AcDbLine
 10
-195.5376697470619
 20
2.28207210725108
 30
0.0
 11
-145.537669747062
 21
2.28207210725108
 31
0.0
  0
LINE
  5
1E5
330
74
100
AcDbEntity
  8
1
  6
Continuous
 62
     2
100
AcDbLine
 10
-145.537669747062
 20
2.28207210725108
 30
0.0
 11
-145.537669747062
 21
7.28207210725119
 31
0.0
  0
LINE
  5
1E6
330
74
100
AcDbEntity
  8
1
  6
Continuous
 62
     2
100
AcDbLine
 10
-145.537669747062
 20
2.28207210725108
 30
0.0
 11
-95.53766974706191
 21
2.28207210725108
 31
0.0
  0
LINE
  5
1E7
330
74
100
AcDbEntity
  8
1
  6
Continuous
 62
     2
100
AcDbLine
 10
-95.53766974706191
 20
2.28207210725108
 30
0.0
 11
-95.53766974706191
 21
7.28207210725119
 31
0.0
  0
LINE
  5
1E8
330
74
100
AcDbEntity
  8
1
  6
Continuous
 62
     2
100
AcDbLine
 10
-95.53766974706191
 20
2.28207210725108
 30
0.0
 11
-45.5376697470619
 21
2.28207210725108
 31
0.0
  0
LINE
  5
1E9
330
74
100
AcDbEntity
  8
1
  6
Continuous
 62
     2
100
AcDbLine
 10
-45.5376697470619
 20
2.28207210725108
 30
0.0
 11
-45.5376697470619
 21
7.28207210725119
 31
0.0
  0
LINE
  5
1EA
330
74
100
AcDbEntity
  8
1
  6
Continuous
 62
     2
100
AcDbLine
 10
4.46233025293811
 20
2.28207210725108
 30
0.0
 11
4.46233025293811
 21
7.28207210725119
 31
0.0
  0
LINE
  5
1EB
330
74
100
AcDbEntity
  8
1
  6
Continuous
 62
     2
100
AcDbLine
 10
4.46233025293811
 20
2.28207210725108
 30
0.0
 11
-45.5376697470619
 21
2.28207210725108
 31
0.0
  0
LINE
  5
1EC
330
74
100
AcDbEntity
  8
1
  6
Continuous
 62
     2
100
AcDbLine
 10
-239.0376697470599
 20
7.28207210725119
 30
0.0
 11
-239.0376697470599
 21
2.28207210725108
 31
0.0
  0
LINE
  5
1ED
330
74
100
AcDbEntity
  8
1
  6
Continuous
 62
     2
100
AcDbLine
 10
-239.0376697470599
 20
2.28207210725108
 30
0.0
 11
-195.5376697470619
 21
2.28207210725108
 31
0.0
  0
LINE
  5
1EE
330
74
100
AcDbEntity
  8
1
  6
Continuous
 62
     2
100
AcDbLine
 10
-239.0376697470599
 20
7.28207210725119
 30
0.0
 11
-244.037669747061
 21
7.28207210725119
 31
0.0
  0
LINE
  5
1EF
330
74
100
AcDbEntity
  8
1
  6
Continuous
 62
     2
100
AcDbLine
 10
-244.037669747061
 20
7.28207210725119
 30
0.0
 11
-244.037669747061
 21
2.28207210725108
 31
0.0
  0
LINE
  5
1F0
330
74
100
AcDbEntity
  8
1
  6
Continuous
 62
     7
100
AcDbLine
 10
-184.337669747062
 20
11.53207210725119
 30
0.0
 11
-122.0824742738118
 21
11.53207210725119
 31
0.0
  0
LINE
  5
1F1
330
74
100
AcDbEntity
  8
1
  6
Continuous
 62
     2
100
AcDbLine
 10
-184.337669747062
 20
11.53207210725119
 30
0.0
 11
-184.337669747062
 21
7.28207210725119
 31
0.0
  0
LINE
  5
1F2
330
74
100
AcDbEntity
  8
1
  6
Continuous
 62
     2
100
AcDbLine
 10
-184.337669747062
 20
15.78207210725108
 30
0.0
 11
-197.837669747062
 21
15.78207210725108
 31
0.0
  0
LINE
  5
1F3
330
74
100
AcDbEntity
  8
1
  6
Continuous
 62
     2
100
AcDbLine
 10
-184.337669747062
 20
15.78207210725108
 30
0.0
 11
-184.337669747062
 21
11.53207210725119
 31
0.0
  0
LINE
  5
1F4
330
74
100
AcDbEntity
  8
1
  6
Continuous
 62
     2
100
AcDbLine
 10
-184.337669747062
 20
24.28207210725108
 30
0.0
 11
-197.837669747062
 21
24.28207210725108
 31
0.0
  0
LINE
  5
1F5
330
74
100
AcDbEntity
  8
1
  6
Continuous
 62
     2
100
AcDbLine
 10
-184.337669747062
 20
24.28207210725108
 30
0.0
 11
-184.337669747062
 21
20.03207210725108
 31
0.0
  0
LINE
  5
1F6
330
74
100
AcDbEntity
  8
1
  6
Continuous
 62
     2
100
AcDbLine
 10
-184.337669747062
 20
20.03207210725108
 30
0.0
 11
-197.837669747062
 21
20.03207210725108
 31
0.0
  0
LINE
  5
1F7
330
74
100
AcDbEntity
  8
1
  6
Continuous
 62
     2
100
AcDbLine
 10
-184.337669747062
 20
20.03207210725108
 30
0.0
 11
-184.337669747062
 21
15.78207210725108
 31
0.0
  0
LINE
  5
1F8
330
74
100
AcDbEntity
  8
1
  6
Continuous
 62
     2
100
AcDbLine
 10
-184.337669747062
 20
32.78207210725108
 30
0.0
 11
-197.837669747062
 21
32.78207210725108
 31
0.0
  0
LINE
  5
1F9
330
74
100
AcDbEntity
  8
1
  6
Continuous
 62
     2
100
AcDbLine
 10
-184.337669747062
 20
28.53207210725108
 30
0.0
 11
-197.837669747062
 21
28.53207210725108
 31
0.0
  0
LINE
  5
1FA
330
74
100
AcDbEntity
  8
1
  6
Continuous
 62
     2
100
AcDbLine
 10
-184.337669747062
 20
28.53207210725108
 30
0.0
 11
-184.337669747062
 21
24.28207210725108
 31
0.0
  0
LINE
  5
1FB
330
74
100
AcDbEntity
  8
1
  6
Continuous
 62
     2
100
AcDbLine
 10
-184.337669747062
 20
32.78207210725108
 30
0.0
 11
-184.337669747062
 21
28.53207210725108
 31
0.0
  0
LINE
  5
1FC
330
74
100
AcDbEntity
  8
1
  6
Continuous
 62
     6
100
AcDbLine
 10
-184.337669747062
 20
37.03207210725108
 30
0.0
 11
-197.837669747062
 21
37.03207210725108
 31
0.0
  0
LINE
  5
1FD
330
74
100
AcDbEntity
  8
1
  6
Continuous
 62
     2
100
AcDbLine
 10
-184.337669747062
 20
37.03207210725108
 30
0.0
 11
-184.337669747062
 21
32.78207210725108
 31
0.0
  0
LINE
  5
1FE
330
74
100
AcDbEntity
  8
1
  6
Continuous
 62
     6
100
AcDbLine
 10
47.9623302529381
 20
7.28207210725119
 30
0.0
 11
47.96233025293941
 21
15.78207210725108
 31
0.0
  0
LINE
  5
1FF
330
74
100
AcDbEntity
  8
1
  6
Continuous
 62
     6
100
AcDbLine
 10
47.9623302529389
 20
28.53207210725108
 30
0.0
 11
47.96233025293989
 21
24.28207210725108
 31
0.0
  0
LINE
  5
200
330
74
100
AcDbEntity
  8
1
  6
Continuous
 62
     6
100
AcDbLine
 10
-45.18247427381191
 20
7.28207210725108
 30
0.0
 11
4.46233025293811
 21
7.28207210725119
 31
0.0
  0
LINE
  5
201
330
74
100
AcDbEntity
  8
1
  6
Continuous
 62
     6
100
AcDbLine
 10
-81.58247427381181
 20
7.28207210725108
 30
0.0
 11
-63.38247427381194
 21
7.28207210725119
 31
0.0
  0
LINE
  5
202
330
74
100
AcDbEntity
  8
1
  6
Continuous
 62
     6
100
AcDbLine
 10
-197.837669747062
 20
7.28207210725108
 30
0.0
 11
-195.5376697470619
 21
7.28207210725119
 31
0.0
  0
LINE
  5
203
330
74
100
AcDbEntity
  8
1
  6
Continuous
 62
     6
100
AcDbLine
 10
-122.0824742738118
 20
7.28207210725108
 30
0.0
 11
-145.537669747062
 21
7.28207210725119
 31
0.0
  0
LINE
  5
204
330
74
100
AcDbEntity
  8
1
  6
Continuous
 62
     6
100
AcDbLine
 10
47.96233025293981
 20
37.03207210725108
 30
0.0
 11
30.080738534619
 21
37.03207210725108
 31
0.0
  0
LINE
  5
205
330
74
100
AcDbEntity
  8
1
  6
Continuous
 62
     7
100
AcDbLine
 10
47.96233025293941
 20
15.78207210725108
 30
0.0
 11
2.9623302529401
 21
15.78207210725108
 31
0.0
  0
LINE
  5
206
330
74
100
AcDbEntity
  8
1
  6
Continuous
 62
     7
100
AcDbLine
 10
47.9623302529389
 20
28.53207210725108
 30
0.0
 11
30.080738534619
 21
28.53207210725108
 31
0.0
  0
LINE
  5
207
330
74
100
AcDbEntity
  8
1
  6
Continuous
 62
     7
100
AcDbLine
 10
2.9623302529401
 20
24.28207210725108
 30
0.0
 11
47.96233025293989
 21
24.28207210725108
 31
0.0
  0
LINE
  5
208
330
74
100
AcDbEntity
  8
1
  6
Continuous
 62
     7
100
AcDbLine
 10
-45.18247427381191
 20
32.78207210725108
 30
0.0
 11
-45.18247427381191
 21
28.53207210725108
 31
0.0
  0
LINE
  5
209
330
74
100
AcDbEntity
  8
1
  6
Continuous
 62
     7
100
AcDbLine
 10
-58.68247427381193
 20
32.78207210725108
 30
0.0
 11
-45.18247427381191
 21
32.78207210725108
 31
0.0
  0
LINE
  5
20A
330
74
100
AcDbEntity
  8
1
  6
Continuous
 62
     7
100
AcDbLine
 10
-58.68247427381193
 20
32.78207210725108
 30
0.0
 11
-72.18247427381183
 21
32.78207210725108
 31
0.0
  0
LINE
  5
20B
330
74
100
AcDbEntity
  8
1
  6
Continuous
 62
     7
100
AcDbLine
 10
30.080738534619
 20
28.53207210725108
 30
0.0
 11
30.080738534619
 21
37.03207210725108
 31
0.0
  0
LINE
  5
20C
330
74
100
AcDbEntity
  8
1
  6
Continuous
 62
     6
100
AcDbLine
 10
21.1623302529398
 20
37.03207210725108
 30
0.0
 11
30.080738534619
 21
37.03207210725108
 31
0.0
  0
LINE
  5
20D
330
74
100
AcDbEntity
  8
1
  6
Continuous
 62
     7
100
AcDbLine
 10
21.1623302529398
 20
37.03207210725108
 30
0.0
 11
21.16233025294011
 21
28.53207210725119
 31
0.0
  0
LINE
  5
20E
330
74
100
AcDbEntity
  8
1
  6
Continuous
 62
     7
100
AcDbLine
 10
2.9623302529401
 20
15.78207210725108
 30
0.0
 11
-15.53766974705952
 21
15.78207210725108
 31
0.0
  0
LINE
  5
20F
330
74
100
AcDbEntity
  8
1
  6
Continuous
 62
     7
100
AcDbLine
 10
2.9623302529401
 20
24.28207210725108
 30
0.0
 11
2.9623302529401
 21
15.78207210725108
 31
0.0
  0
LINE
  5
210
330
74
100
AcDbEntity
  8
1
  6
Continuous
 62
     2
100
AcDbLine
 10
-95.08247427381191
 20
37.03207210725108
 30
0.0
 11
-95.08247427381191
 21
32.78207210725108
 31
0.0
  0
LINE
  5
211
330
74
100
AcDbEntity
  8
1
  6
Continuous
 62
     2
100
AcDbLine
 10
-108.5824742738118
 20
37.03207210725108
 30
0.0
 11
-108.5824742738118
 21
32.78207210725108
 31
0.0
  0
LINE
  5
212
330
74
100
AcDbEntity
  8
1
  6
Continuous
 62
     6
100
AcDbLine
 10
-95.08247427381191
 20
37.03207210725108
 30
0.0
 11
-108.5824742738118
 21
37.03207210725108
 31
0.0
  0
LINE
  5
213
330
74
100
AcDbEntity
  8
1
  6
Continuous
 62
     6
100
AcDbLine
 10
-108.5824742738118
 20
37.03207210725108
 30
0.0
 11
-122.0824742738118
 21
37.03207210725108
 31
0.0
  0
LINE
  5
214
330
74
100
AcDbEntity
  8
1
  6
Continuous
 62
     2
100
AcDbLine
 10
-122.0824742738118
 20
37.03207210725108
 30
0.0
 11
-122.0824742738118
 21
32.78207210725108
 31
0.0
  0
LINE
  5
215
330
74
100
AcDbEntity
  8
1
  6
Continuous
 62
     7
100
AcDbLine
 10
-63.38247427381194
 20
11.53207210725119
 30
0.0
 11
-63.38247427381194
 21
7.28207210725119
 31
0.0
  0
LINE
  5
216
330
74
100
AcDbEntity
  8
1
  6
Continuous
 62
     7
100
AcDbLine
 10
-63.38247427381194
 20
11.53207210725119
 30
0.0
 11
-81.58247427381181
 21
11.53207210725119
 31
0.0
  0
LINE
  5
217
330
74
100
AcDbEntity
  8
1
  6
Continuous
 62
     7
100
AcDbLine
 10
-58.68247427381193
 20
24.28207210725108
 30
0.0
 11
-72.18247427381183
 21
24.28207210725119
 31
0.0
  0
LINE
  5
218
330
74
100
AcDbEntity
  8
1
  6
Continuous
 62
     7
100
AcDbLine
 10
-45.18247427381191
 20
11.53207210725119
 30
0.0
 11
-63.38247427381194
 21
11.53207210725119
 31
0.0
  0
LINE
  5
219
330
74
100
AcDbEntity
  8
1
  6
Continuous
 62
     6
100
AcDbLine
 10
-45.18247427381191
 20
37.03207210725108
 30
0.0
 11
-22.28247427381189
 21
37.03207210725108
 31
0.0
  0
LINE
  5
21A
330
74
100
AcDbEntity
  8
1
  6
Continuous
 62
     6
100
AcDbLine
 10
21.1623302529398
 20
37.03207210725108
 30
0.0
 11
-22.28247427381189
 21
37.03207210725108
 31
0.0
  0
LINE
  5
21B
330
74
100
AcDbEntity
  8
1
  6
Continuous
 62
     7
100
AcDbLine
 10
-22.28247427381189
 20
37.03207210725108
 30
0.0
 11
-22.28247427381189
 21
28.53207210725102
 31
0.0
  0
LINE
  5
21C
330
74
100
AcDbEntity
  8
1
  6
Continuous
 62
     6
100
AcDbLine
 10
-197.837669747062
 20
37.03207210725108
 30
0.0
 11
-204.03766974706
 21
37.03207210725108
 31
0.0
  0
LINE
  5
21D
330
74
100
AcDbEntity
  8
1
  6
Continuous
 62
     6
100
AcDbLine
 10
-204.03766974706
 20
7.28207210725119
 30
0.0
 11
-204.03766974706
 21
11.53207210725119
 31
0.0
  0
LINE
  5
21E
330
74
100
AcDbEntity
  8
1
  6
Continuous
 62
     6
100
AcDbLine
 10
-204.03766974706
 20
11.53207210725119
 30
0.0
 11
-204.03766974706
 21
15.78207210725108
 31
0.0
  0
LINE
  5
21F
330
74
100
AcDbEntity
  8
1
  6
Continuous
 62
     7
100
AcDbLine
 10
-58.68247427381193
 20
28.53207210725108
 30
0.0
 11
-58.68247427381193
 21
24.28207210725108
 31
0.0
  0
LINE
  5
220
330
74
100
AcDbEntity
  8
1
  6
Continuous
 62
     7
100
AcDbLine
 10
-72.18247427381183
 20
28.53207210725108
 30
0.0
 11
-72.18247427381183
 21
24.28207210725119
 31
0.0
  0
LINE
  5
221
330
74
100
AcDbEntity
  8
1
  6
Continuous
 62
     7
100
AcDbLine
 10
-58.68247427381193
 20
28.53207210725108
 30
0.0
 11
-72.18247427381183
 21
28.53207210725108
 31
0.0
  0
LINE
  5
222
330
74
100
AcDbEntity
  8
1
  6
Continuous
 62
     2
100
AcDbLine
 10
-81.58247427381181
 20
24.28207210725108
 30
0.0
 11
-95.08247427381191
 21
24.28207210725108
 31
0.0
  0
LINE
  5
223
330
74
100
AcDbEntity
  8
1
  6
Continuous
 62
     2
100
AcDbLine
 10
-197.837669747062
 20
24.28207210725108
 30
0.0
 11
-197.837669747062
 21
28.53207210725108
 31
0.0
  0
LINE
  5
224
330
74
100
AcDbEntity
  8
1
  6
Continuous
 62
     2
100
AcDbLine
 10
-197.837669747062
 20
24.28207210725108
 30
0.0
 11
-204.03766974706
 21
24.28207210725108
 31
0.0
  0
LINE
  5
225
330
74
100
AcDbEntity
  8
1
  6
Continuous
 62
     2
100
AcDbLine
 10
-81.58247427381181
 20
28.53207210725108
 30
0.0
 11
-95.08247427381191
 21
28.53207210725108
 31
0.0
  0
LINE
  5
226
330
74
100
AcDbEntity
  8
1
  6
Continuous
 62
     2
100
AcDbLine
 10
-197.837669747062
 20
28.53207210725108
 30
0.0
 11
-197.837669747062
 21
32.78207210725108
 31
0.0
  0
LINE
  5
227
330
74
100
AcDbEntity
  8
1
  6
Continuous
 62
     2
100
AcDbLine
 10
-81.58247427381181
 20
32.78207210725108
 30
0.0
 11
-95.08247427381191
 21
32.78207210725108
 31
0.0
  0
LINE
  5
228
330
74
100
AcDbEntity
  8
1
  6
Continuous
 62
     2
100
AcDbLine
 10
-197.837669747062
 20
32.78207210725108
 30
0.0
 11
-197.837669747062
 21
37.03207210725108
 31
0.0
  0
LINE
  5
229
330
74
100
AcDbEntity
  8
1
  6
Continuous
 62
     2
100
AcDbLine
 10
-197.837669747062
 20
32.78207210725108
 30
0.0
 11
-204.03766974706
 21
32.78207210725108
 31
0.0
  0
LINE
  5
22A
330
74
100
AcDbEntity
  8
1
  6
Continuous
 62
     6
100
AcDbLine
 10
-81.58247427381181
 20
37.03207210725108
 30
0.0
 11
-95.08247427381191
 21
37.03207210725108
 31
0.0
  0
LINE
  5
22B
330
74
100
AcDbEntity
  8
1
  6
Continuous
 62
     2
100
AcDbLine
 10
-81.58247427381181
 20
15.78207210725108
 30
0.0
 11
-95.08247427381191
 21
15.78207210725108
 31
0.0
  0
LINE
  5
22C
330
74
100
AcDbEntity
  8
1
  6
Continuous
 62
     2
100
AcDbLine
 10
-81.58247427381181
 20
20.03207210725108
 30
0.0
 11
-95.08247427381191
 21
20.03207210725108
 31
0.0
  0
LINE
  5
22D
330
74
100
AcDbEntity
  8
1
  6
Continuous
 62
     2
100
AcDbLine
 10
-197.837669747062
 20
15.78207210725108
 30
0.0
 11
-197.837669747062
 21
20.03207210725108
 31
0.0
  0
LINE
  5
22E
330
74
100
AcDbEntity
  8
1
  6
Continuous
 62
     2
100
AcDbLine
 10
-197.837669747062
 20
20.03207210725108
 30
0.0
 11
-197.837669747062
 21
24.28207210725108
 31
0.0
  0
LINE
  5
22F
330
74
100
AcDbEntity
  8
1
  6
Continuous
 62
     7
100
AcDbLine
 10
-197.837669747062
 20
11.53207210725119
 30
0.0
 11
-184.337669747062
 21
11.53207210725119
 31
0.0
  0
LINE
  5
230
330
74
100
AcDbEntity
  8
1
  6
Continuous
 62
     2
100
AcDbLine
 10
-197.837669747062
 20
11.53207210725119
 30
0.0
 11
-197.837669747062
 21
15.78207210725108
 31
0.0
  0
LINE
  5
231
330
74
100
AcDbEntity
  8
1
  6
Continuous
 62
     7
100
AcDbLine
 10
-45.18247427381191
 20
15.78207210725108
 30
0.0
 11
-45.18247427381191
 21
20.03207210725108
 31
0.0
  0
LINE
  5
232
330
74
100
AcDbEntity
  8
1
  6
Continuous
 62
     6
100
AcDbLine
 10
-58.68247427381193
 20
37.03207210725108
 30
0.0
 11
-45.18247427381191
 21
37.03207210725108
 31
0.0
  0
LINE
  5
233
330
74
100
AcDbEntity
  8
1
  6
Continuous
 62
     7
100
AcDbLine
 10
-45.18247427381191
 20
37.03207210725108
 30
0.0
 11
-45.18247427381191
 21
32.78207210725108
 31
0.0
  0
LINE
  5
234
330
74
100
AcDbEntity
  8
1
  6
Continuous
 62
     6
100
AcDbLine
 10
-72.18247427381183
 20
37.03207210725108
 30
0.0
 11
-58.68247427381193
 21
37.03207210725108
 31
0.0
  0
LINE
  5
235
330
74
100
AcDbEntity
  8
1
  6
Continuous
 62
     7
100
AcDbLine
 10
-81.58247427381181
 20
24.28207210725108
 30
0.0
 11
-81.58247427381181
 21
20.03207210725108
 31
0.0
  0
LINE
  5
236
330
74
100
AcDbEntity
  8
1
  6
Continuous
 62
     7
100
AcDbLine
 10
-81.58247427381181
 20
28.53207210725108
 30
0.0
 11
-81.58247427381181
 21
24.28207210725108
 31
0.0
  0
LINE
  5
237
330
74
100
AcDbEntity
  8
1
  6
Continuous
 62
     2
100
AcDbLine
 10
-204.03766974706
 20
28.53207210725108
 30
0.0
 11
-197.837669747062
 21
28.53207210725108
 31
0.0
  0
LINE
  5
238
330
74
100
AcDbEntity
  8
1
  6
Continuous
 62
     7
100
AcDbLine
 10
-81.58247427381181
 20
32.78207210725108
 30
0.0
 11
-81.58247427381181
 21
28.53207210725108
 31
0.0
  0
LINE
  5
239
330
74
100
AcDbEntity
  8
1
  6
Continuous
 62
     7
100
AcDbLine
 10
-45.18247427381191
 20
28.53207210725108
 30
0.0
 11
-45.18247427381191
 21
24.28207210725108
 31
0.0
  0
LINE
  5
23A
330
74
100
AcDbEntity
  8
1
  6
Continuous
 62
     7
100
AcDbLine
 10
-58.68247427381193
 20
37.03207210725108
 30
0.0
 11
-58.68247427381193
 21
32.78207210725108
 31
0.0
  0
LINE
  5
23B
330
74
100
AcDbEntity
  8
1
  6
Continuous
 62
     7
100
AcDbLine
 10
-72.18247427381183
 20
37.03207210725108
 30
0.0
 11
-72.18247427381183
 21
32.78207210725108
 31
0.0
  0
LINE
  5
23C
330
74
100
AcDbEntity
  8
1
  6
Continuous
 62
     2
100
AcDbLine
 10
-197.837669747062
 20
7.28207210725108
 30
0.0
 11
-197.837669747062
 21
11.53207210725119
 31
0.0
  0
LINE
  5
23D
330
74
100
AcDbEntity
  8
1
  6
Continuous
 62
     2
100
AcDbLine
 10
-204.03766974706
 20
15.78207210725108
 30
0.0
 11
-197.837669747062
 21
15.78207210725108
 31
0.0
  0
LINE
  5
23E
330
74
100
AcDbEntity
  8
1
  6
Continuous
 62
     2
100
AcDbLine
 10
-204.03766974706
 20
20.03207210725108
 30
0.0
 11
-197.837669747062
 21
20.03207210725108
 31
0.0
  0
LINE
  5
23F
330
74
100
AcDbEntity
  8
1
  6
Continuous
 62
     7
100
AcDbLine
 10
-204.03766974706
 20
11.53207210725119
 30
0.0
 11
-197.837669747062
 21
11.53207210725119
 31
0.0
  0
LINE
  5
240
330
74
100
AcDbEntity
  8
1
  6
Continuous
 62
     7
100
AcDbLine
 10
-45.18247427381191
 20
15.78207210725108
 30
0.0
 11
-45.18247427381191
 21
11.53207210725119
 31
0.0
  0
LINE
  5
241
330
74
100
AcDbEntity
  8
1
  6
Continuous
 62
     7
100
AcDbLine
 10
-81.58247427381181
 20
20.03207210725108
 30
0.0
 11
-81.58247427381181
 21
15.78207210725108
 31
0.0
  0
LINE
  5
242
330
74
100
AcDbEntity
  8
1
  6
Continuous
 62
     7
100
AcDbLine
 10
-81.58247427381181
 20
15.78207210725108
 30
0.0
 11
-81.58247427381181
 21
11.53207210725119
 31
0.0
  0
LINE
  5
243
330
74
100
AcDbEntity
  8
1
  6
Continuous
 62
     7
100
AcDbLine
 10
-58.68247427381193
 20
32.78207210725108
 30
0.0
 11
-58.68247427381193
 21
28.53207210725108
 31
0.0
  0
LINE
  5
244
330
74
100
AcDbEntity
  8
1
  6
Continuous
 62
     7
100
AcDbLine
 10
-72.18247427381183
 20
32.78207210725108
 30
0.0
 11
-72.18247427381183
 21
28.53207210725108
 31
0.0
  0
LINE
  5
245
330
74
100
AcDbEntity
  8
1
  6
Continuous
 62
     7
100
AcDbLine
 10
-81.58247427381181
 20
28.53207210725108
 30
0.0
 11
-72.18247427381183
 21
28.53207210725108
 31
0.0
  0
LINE
  5
246
330
74
100
AcDbEntity
  8
1
  6
Continuous
 62
     7
100
AcDbLine
 10
-45.18247427381191
 20
24.28207210725108
 30
0.0
 11
-58.68247427381193
 21
24.28207210725108
 31
0.0
  0
LINE
  5
247
330
74
100
AcDbEntity
  8
1
  6
Continuous
 62
     7
100
AcDbLine
 10
-45.18247427381191
 20
11.53207210725119
 30
0.0
 11
-45.18247427381191
 21
7.28207210725108
 31
0.0
  0
LINE
  5
248
330
74
100
AcDbEntity
  8
1
  6
Continuous
 62
     7
100
AcDbLine
 10
-81.58247427381181
 20
11.53207210725119
 30
0.0
 11
-81.58247427381181
 21
7.28207210725108
 31
0.0
  0
LINE
  5
249
330
74
100
AcDbEntity
  8
1
  6
Continuous
 62
     7
100
AcDbLine
 10
-81.58247427381181
 20
37.03207210725108
 30
0.0
 11
-81.58247427381181
 21
32.78207210725108
 31
0.0
  0
LINE
  5
24A
330
74
100
AcDbEntity
  8
1
  6
Continuous
 62
     7
100
AcDbLine
 10
-45.18247427381191
 20
15.78207210725108
 30
0.0
 11
-15.53766974705952
 21
15.78207210725108
 31
0.0
  0
LINE
  5
24B
330
74
100
AcDbEntity
  8
1
  6
Continuous
 62
     7
100
AcDbLine
 10
-45.18247427381191
 20
24.28207210725108
 30
0.0
 11
-15.53766974705952
 21
24.28207210725108
 31
0.0
  0
LINE
  5
24C
330
74
100
AcDbEntity
  8
1
  6
Continuous
 62
     7
100
AcDbLine
 10
21.16233025294011
 20
28.53207210725119
 30
0.0
 11
30.080738534619
 21
28.53207210725108
 31
0.0
  0
LINE
  5
24D
330
74
100
AcDbEntity
  8
1
  6
Continuous
 62
     7
100
AcDbLine
 10
21.16233025294011
 20
28.53207210725119
 30
0.0
 11
-15.53766974705952
 21
28.53207210725106
 31
0.0
  0
LINE
  5
24E
330
74
100
AcDbEntity
  8
1
  6
Continuous
 62
     7
100
AcDbLine
 10
-15.53766974705952
 20
24.28207210725108
 30
0.0
 11
2.9623302529401
 21
24.28207210725108
 31
0.0
  0
LINE
  5
24F
330
74
100
AcDbEntity
  8
1
  6
Continuous
 62
     7
100
AcDbLine
 10
-15.53766974705952
 20
24.28207210725108
 30
0.0
 11
-15.53766974705952
 21
15.78207210725108
 31
0.0
  0
LINE
  5
250
330
74
100
AcDbEntity
  8
1
  6
Continuous
 62
     6
100
AcDbLine
 10
-197.837669747062
 20
7.28207210725108
 30
0.0
 11
-204.03766974706
 21
7.28207210725119
 31
0.0
  0
LINE
  5
251
330
74
100
AcDbEntity
  8
1
  6
Continuous
 62
     6
100
AcDbLine
 10
-204.03766974706
 20
32.78207210725108
 30
0.0
 11
-204.03766974706
 21
37.03207210725108
 31
0.0
  0
LINE
  5
252
330
74
100
AcDbEntity
  8
1
  6
Continuous
 62
     6
100
AcDbLine
 10
-204.03766974706
 20
28.53207210725108
 30
0.0
 11
-204.03766974706
 21
32.78207210725108
 31
0.0
  0
LINE
  5
253
330
74
100
AcDbEntity
  8
1
  6
Continuous
 62
     6
100
AcDbLine
 10
-204.03766974706
 20
24.28207210725108
 30
0.0
 11
-204.03766974706
 21
28.53207210725108
 31
0.0
  0
LINE
  5
254
330
74
100
AcDbEntity
  8
1
  6
Continuous
 62
     6
100
AcDbLine
 10
-204.03766974706
 20
15.78207210725108
 30
0.0
 11
-204.03766974706
 21
20.03207210725108
 31
0.0
  0
LINE
  5
255
330
74
100
AcDbEntity
  8
1
  6
Continuous
 62
     6
100
AcDbLine
 10
-122.0824742738118
 20
37.03207210725108
 30
0.0
 11
-184.337669747062
 21
37.03207210725108
 31
0.0
  0
LINE
  5
256
330
74
100
AcDbEntity
  8
1
  6
Continuous
 62
     2
100
AcDbLine
 10
-184.337669747062
 20
32.78207210725108
 30
0.0
 11
-122.0824742738118
 21
32.78207210725108
 31
0.0
  0
LINE
  5
257
330
74
100
AcDbEntity
  8
1
  6
Continuous
 62
     2
100
AcDbLine
 10
-184.337669747062
 20
28.53207210725108
 30
0.0
 11
-122.0824742738118
 21
28.53207210725108
 31
0.0
  0
LINE
  5
258
330
74
100
AcDbEntity
  8
1
  6
Continuous
 62
     6
100
AcDbLine
 10
-45.18247427381191
 20
7.28207210725108
 30
0.0
 11
-45.5376697470619
 21
7.28207210725119
 31
0.0
  0
LINE
  5
259
330
74
100
AcDbEntity
  8
1
  6
Continuous
 62
     7
100
AcDbLine
 10
-58.68247427381193
 20
28.53207210725108
 30
0.0
 11
-45.18247427381191
 21
28.53207210725108
 31
0.0
  0
LINE
  5
25A
330
74
100
AcDbEntity
  8
1
  6
Continuous
 62
     7
100
AcDbLine
 10
-22.28247427381189
 20
28.53207210725102
 30
0.0
 11
-45.18247427381191
 21
28.53207210725108
 31
0.0
  0
LINE
  5
25B
330
74
100
AcDbEntity
  8
1
  6
Continuous
 62
     6
100
AcDbLine
 10
47.96233025293989
 20
24.28207210725108
 30
0.0
 11
47.96233025293941
 21
15.78207210725108
 31
0.0
  0
LINE
  5
25C
330
74
100
AcDbEntity
  8
1
  6
Continuous
 62
     6
100
AcDbLine
 10
-95.08247427381191
 20
7.28207210725108
 30
0.0
 11
-81.58247427381181
 21
7.28207210725108
 31
0.0
  0
LINE
  5
25D
330
74
100
AcDbEntity
  8
1
  6
Continuous
 62
     2
100
AcDbLine
 10
-95.08247427381191
 20
15.78207210725108
 30
0.0
 11
-95.08247427381191
 21
11.53207210725119
 31
0.0
  0
LINE
  5
25E
330
74
100
AcDbEntity
  8
1
  6
Continuous
 62
     2
100
AcDbLine
 10
-95.08247427381191
 20
15.78207210725108
 30
0.0
 11
-108.5824742738118
 21
15.78207210725108
 31
0.0
  0
LINE
  5
25F
330
74
100
AcDbEntity
  8
1
  6
Continuous
 62
     2
100
AcDbLine
 10
-95.08247427381191
 20
11.53207210725119
 30
0.0
 11
-95.08247427381191
 21
7.28207210725108
 31
0.0
  0
LINE
  5
260
330
74
100
AcDbEntity
  8
1
  6
Continuous
 62
     7
100
AcDbLine
 10
-95.08247427381191
 20
11.53207210725119
 30
0.0
 11
-81.58247427381181
 21
11.53207210725119
 31
0.0
  0
LINE
  5
261
330
74
100
AcDbEntity
  8
1
  6
Continuous
 62
     2
100
AcDbLine
 10
-95.08247427381191
 20
24.28207210725108
 30
0.0
 11
-95.08247427381191
 21
20.03207210725108
 31
0.0
  0
LINE
  5
262
330
74
100
AcDbEntity
  8
1
  6
Continuous
 62
     2
100
AcDbLine
 10
-95.08247427381191
 20
24.28207210725108
 30
0.0
 11
-108.5824742738118
 21
24.28207210725108
 31
0.0
  0
LINE
  5
263
330
74
100
AcDbEntity
  8
1
  6
Continuous
 62
     2
100
AcDbLine
 10
-95.08247427381191
 20
28.53207210725108
 30
0.0
 11
-95.08247427381191
 21
24.28207210725108
 31
0.0
  0
LINE
  5
264
330
74
100
AcDbEntity
  8
1
  6
Continuous
 62
     2
100
AcDbLine
 10
-95.08247427381191
 20
28.53207210725108
 30
0.0
 11
-108.5824742738118
 21
28.53207210725108
 31
0.0
  0
LINE
  5
265
330
74
100
AcDbEntity
  8
1
  6
Continuous
 62
     2
100
AcDbLine
 10
-95.08247427381191
 20
32.78207210725108
 30
0.0
 11
-95.08247427381191
 21
28.53207210725108
 31
0.0
  0
LINE
  5
266
330
74
100
AcDbEntity
  8
1
  6
Continuous
 62
     2
100
AcDbLine
 10
-95.08247427381191
 20
32.78207210725108
 30
0.0
 11
-108.5824742738118
 21
32.78207210725108
 31
0.0
  0
LINE
  5
267
330
74
100
AcDbEntity
  8
1
  6
Continuous
 62
     2
100
AcDbLine
 10
-95.08247427381191
 20
20.03207210725108
 30
0.0
 11
-95.08247427381191
 21
15.78207210725108
 31
0.0
  0
LINE
  5
268
330
74
100
AcDbEntity
  8
1
  6
Continuous
 62
     2
100
AcDbLine
 10
-95.08247427381191
 20
20.03207210725108
 30
0.0
 11
-108.5824742738118
 21
20.03207210725108
 31
0.0
  0
LINE
  5
269
330
74
100
AcDbEntity
  8
1
  6
Continuous
 62
     6
100
AcDbLine
 10
-108.5824742738118
 20
7.28207210725108
 30
0.0
 11
-95.53766974706191
 21
7.28207210725119
 31
0.0
  0
LINE
  5
26A
330
74
100
AcDbEntity
  8
1
  6
Continuous
 62
     2
100
AcDbLine
 10
-108.5824742738118
 20
15.78207210725108
 30
0.0
 11
-108.5824742738118
 21
11.53207210725119
 31
0.0
  0
LINE
  5
26B
330
74
100
AcDbEntity
  8
1
  6
Continuous
 62
     2
100
AcDbLine
 10
-108.5824742738118
 20
15.78207210725108
 30
0.0
 11
-122.0824742738118
 21
15.78207210725108
 31
0.0
  0
LINE
  5
26C
330
74
100
AcDbEntity
  8
1
  6
Continuous
 62
     2
100
AcDbLine
 10
-108.5824742738118
 20
11.53207210725119
 30
0.0
 11
-108.5824742738118
 21
7.28207210725108
 31
0.0
  0
LINE
  5
26D
330
74
100
AcDbEntity
  8
1
  6
Continuous
 62
     7
100
AcDbLine
 10
-108.5824742738118
 20
11.53207210725119
 30
0.0
 11
-95.08247427381191
 21
11.53207210725119
 31
0.0
  0
LINE
  5
26E
330
74
100
AcDbEntity
  8
1
  6
Continuous
 62
     2
100
AcDbLine
 10
-108.5824742738118
 20
24.28207210725108
 30
0.0
 11
-108.5824742738118
 21
20.03207210725108
 31
0.0
  0
LINE
  5
26F
330
74
100
AcDbEntity
  8
1
  6
Continuous
 62
     2
100
AcDbLine
 10
-108.5824742738118
 20
24.28207210725108
 30
0.0
 11
-122.0824742738118
 21
24.28207210725108
 31
0.0
  0
LINE
  5
270
330
74
100
AcDbEntity
  8
1
  6
Continuous
 62
     2
100
AcDbLine
 10
-108.5824742738118
 20
28.53207210725108
 30
0.0
 11
-108.5824742738118
 21
24.28207210725108
 31
0.0
  0
LINE
  5
271
330
74
100
AcDbEntity
  8
1
  6
Continuous
 62
     2
100
AcDbLine
 10
-108.5824742738118
 20
28.53207210725108
 30
0.0
 11
-122.0824742738118
 21
28.53207210725108
 31
0.0
  0
LINE
  5
272
330
74
100
AcDbEntity
  8
1
  6
Continuous
 62
     2
100
AcDbLine
 10
-108.5824742738118
 20
32.78207210725108
 30
0.0
 11
-108.5824742738118
 21
28.53207210725108
 31
0.0
  0
LINE
  5
273
330
74
100
AcDbEntity
  8
1
  6
Continuous
 62
     2
100
AcDbLine
 10
-108.5824742738118
 20
32.78207210725108
 30
0.0
 11
-122.0824742738118
 21
32.78207210725108
 31
0.0
  0
LINE
  5
274
330
74
100
AcDbEntity
  8
1
  6
Continuous
 62
     2
100
AcDbLine
 10
-108.5824742738118
 20
20.03207210725108
 30
0.0
 11
-108.5824742738118
 21
15.78207210725108
 31
0.0
  0
LINE
  5
275
330
74
100
AcDbEntity
  8
1
  6
Continuous
 62
     2
100
AcDbLine
 10
-108.5824742738118
 20
20.03207210725108
 30
0.0
 11
-122.0824742738118
 21
20.03207210725108
 31
0.0
  0
LINE
  5
276
330
74
100
AcDbEntity
  8
1
  6
Continuous
 62
     6
100
AcDbLine
 10
-122.0824742738118
 20
7.28207210725108
 30
0.0
 11
-108.5824742738118
 21
7.28207210725108
 31
0.0
  0
LINE
  5
277
330
74
100
AcDbEntity
  8
1
  6
Continuous
 62
     2
100
AcDbLine
 10
-122.0824742738118
 20
15.78207210725108
 30
0.0
 11
-122.0824742738118
 21
11.53207210725119
 31
0.0
  0
LINE
  5
278
330
74
100
AcDbEntity
  8
1
  6
Continuous
 62
     2
100
AcDbLine
 10
-122.0824742738118
 20
15.78207210725108
 30
0.0
 11
-184.337669747062
 21
15.78207210725108
 31
0.0
  0
LINE
  5
279
330
74
100
AcDbEntity
  8
1
  6
Continuous
 62
     2
100
AcDbLine
 10
-122.0824742738118
 20
11.53207210725119
 30
0.0
 11
-122.0824742738118
 21
7.28207210725108
 31
0.0
  0
LINE
  5
27A
330
74
100
AcDbEntity
  8
1
  6
Continuous
 62
     7
100
AcDbLine
 10
-122.0824742738118
 20
11.53207210725119
 30
0.0
 11
-108.5824742738118
 21
11.53207210725119
 31
0.0
  0
LINE
  5
27B
330
74
100
AcDbEntity
  8
1
  6
Continuous
 62
     2
100
AcDbLine
 10
-122.0824742738118
 20
24.28207210725108
 30
0.0
 11
-122.0824742738118
 21
20.03207210725108
 31
0.0
  0
LINE
  5
27C
330
74
100
AcDbEntity
  8
1
  6
Continuous
 62
     2
100
AcDbLine
 10
-122.0824742738118
 20
24.28207210725108
 30
0.0
 11
-184.337669747062
 21
24.28207210725108
 31
0.0
  0
LINE
  5
27D
330
74
100
AcDbEntity
  8
1
  6
Continuous
 62
     2
100
AcDbLine
 10
-122.0824742738118
 20
28.53207210725108
 30
0.0
 11
-122.0824742738118
 21
24.28207210725108
 31
0.0
  0
LINE
  5
27E
330
74
100
AcDbEntity
  8
1
  6
Continuous
 62
     2
100
AcDbLine
 10
-122.0824742738118
 20
32.78207210725108
 30
0.0
 11
-122.0824742738118
 21
28.53207210725108
 31
0.0
  0
LINE
  5
27F
330
74
100
AcDbEntity
  8
1
  6
Continuous
 62
     2
100
AcDbLine
 10
-122.0824742738118
 20
20.03207210725108
 30
0.0
 11
-122.0824742738118
 21
15.78207210725108
 31
0.0
  0
LINE
  5
280
330
74
100
AcDbEntity
  8
1
  6
Continuous
 62
     2
100
AcDbLine
 10
-122.0824742738118
 20
20.03207210725108
 30
0.0
 11
-184.337669747062
 21
20.03207210725108
 31
0.0
  0
LINE
  5
281
330
74
100
AcDbEntity
  8
1
  6
Continuous
 62
     7
100
AcDbLine
 10
-72.18247427381183
 20
24.28207210725119
 30
0.0
 11
-81.58247427381181
 21
24.28207210725108
 31
0.0
  0
LINE
  5
282
330
74
100
AcDbEntity
  8
1
  6
Continuous
 62
     6
100
AcDbLine
 10
-72.18247427381183
 20
37.03207210725108
 30
0.0
 11
-81.58247427381181
 21
37.03207210725108
 31
0.0
  0
LINE
  5
283
330
74
100
AcDbEntity
  8
1
  6
Continuous
 62
     7
100
AcDbLine
 10
-81.58247427381181
 20
32.78207210725108
 30
0.0
 11
-72.18247427381183
 21
32.78207210725108
 31
0.0
  0
LINE
  5
284
330
74
100
AcDbEntity
  8
1
  6
Continuous
 62
     6
100
AcDbLine
 10
-204.03766974706
 20
20.03207210725108
 30
0.0
 11
-204.03766974706
 21
24.28207210725108
 31
0.0
  0
LINE
  5
285
330
74
100
AcDbEntity
  8
1
  6
Continuous
 62
     6
100
AcDbLine
 10
47.96233025293981
 20
37.03207210725108
 30
0.0
 11
47.9623302529389
 21
28.53207210725108
 31
0.0
  0
LINE
  5
286
330
74
100
AcDbEntity
  8
1
  6
Continuous
 62
     6
100
AcDbLine
 10
-204.03766974706
 20
7.28207210725119
 30
0.0
 11
-239.0376697470599
 21
7.28207210725119
 31
0.0
  0
LINE
  5
287
330
74
100
AcDbEntity
  8
1
  6
Continuous
 62
     2
100
AcDbLine
 10
-73.30220513929655
 20
23.65707210725108
 30
0.0
 11
-69.30220513929655
 21
23.15707210725108
 31
0.0
  0
LINE
  5
288
330
74
100
AcDbEntity
  8
1
  6
Continuous
 62
     2
100
AcDbLine
 10
-69.30220513929655
 20
23.15707210725108
 30
0.0
 11
-69.30220513929655
 21
21.15707210725108
 31
0.0
  0
LINE
  5
289
330
74
100
AcDbEntity
  8
1
  6
Continuous
 62
     2
100
AcDbLine
 10
-69.30220513929655
 20
21.15707210725108
 30
0.0
 11
-73.30220513929655
 21
20.65707210725108
 31
0.0
  0
LINE
  5
28A
330
74
100
AcDbEntity
  8
1
  6
Continuous
 62
     2
100
AcDbLine
 10
-73.30220513929655
 20
20.65707210725108
 30
0.0
 11
-73.30220513929655
 21
23.65707210725108
 31
0.0
  0
LINE
  5
28B
330
74
100
AcDbEntity
  8
1
  6
Continuous
 62
     7
100
AcDbLine
 10
-15.53766974705952
 20
28.53207210725106
 30
0.0
 11
-22.28247427381189
 21
28.53207210725102
 31
0.0
  0
LINE
  5
28C
330
74
100
AcDbEntity
  8
1
  6
Continuous
 62
     7
100
AcDbLine
 10
-15.53766974705952
 20
24.28207210725108
 30
0.0
 11
-13.53766974705952
 21
24.28207210725108
 31
0.0
  0
LINE
  5
28D
330
74
100
AcDbEntity
  8
1
  6
Continuous
 62
     2
100
AcDbLine
 10
19.39706693772709
 20
22.73185282821832
 30
0.0
 11
19.39706693772709
 21
20.67445686336482
 31
0.0
  0
ARC
  5
28E
102
{ACAD_REACTORS
330
337
330
338
102
}
330
74
100
AcDbEntity
  8
0
  6
Continuous
 62
     2
100
AcDbCircle
 10
-65.70342634078702
 20
14.39397686916223
 30
0.0
 40
0.6378510567600066
100
AcDbArc
 50
321.8795802028405
 51
38.12041979715862
  0
ARC
  5
28F
102
{ACAD_REACTORS
330
337
330
338
102
}
330
74
100
AcDbEntity
  8
0
  6
Continuous
 62
     2
100
AcDbCircle
 10
-65.53835193058342
 20
14.26444696988955
 30
0.0
 40
0.4280236140609635
100
AcDbArc
 50
218.1204197971923
 51
321.8795802027983
  0
ARC
  5
290
102
{ACAD_REACTORS
330
337
330
338
102
}
330
74
100
AcDbEntity
  8
0
  6
Continuous
 62
     2
100
AcDbCircle
 10
-65.37327752038004
 20
14.39397686916223
 30
0.0
 40
0.6378510567599095
100
AcDbArc
 50
141.8795802028351
 51
218.1204197971658
  0
ARC
  5
291
102
{ACAD_REACTORS
330
337
330
338
102
}
330
74
100
AcDbEntity
  8
0
  6
Continuous
 62
     2
100
AcDbCircle
 10
-65.53835193058342
 20
14.52350676843535
 30
0.0
 40
0.4280236140605955
100
AcDbArc
 50
38.12041979715423
 51
141.8795802028552
  0
ARC
  5
292
102
{ACAD_REACTORS
330
32F
330
330
102
}
330
74
100
AcDbEntity
  8
0
  6
Continuous
 62
     2
100
AcDbCircle
 10
-68.06894212526436
 20
13.22830218700673
 30
0.0
 40
1.840813230556617
100
AcDbArc
 50
58.06909105003761
 51
71.55192388186693
  0
ARC
  5
293
102
{ACAD_REACTORS
330
32F
330
330
102
}
330
74
100
AcDbEntity
  8
0
  6
Continuous
 62
     2
100
AcDbCircle
 10
-67.85263824017443
 20
14.56345738927714
 30
0.0
 40
0.4227934381775693
100
AcDbArc
 50
113.3722778881983
 51
151.4785267423096
  0
ARC
  5
294
102
{ACAD_REACTORS
330
32F
330
330
102
}
330
74
100
AcDbEntity
  8
0
  6
Continuous
 62
     2
100
AcDbCircle
 10
-67.54077273762869
 20
14.39397686916223
 30
0.0
 40
0.7777353184572794
100
AcDbArc
 50
151.4785267422687
 51
208.5214732577029
  0
ARC
  5
295
102
{ACAD_REACTORS
330
32F
330
330
102
}
330
74
100
AcDbEntity
  8
0
  6
Continuous
 62
     2
100
AcDbCircle
 10
-68.1994155757543
 20
17.13172971648158
 30
0.0
 40
4.010410630990213
100
AcDbArc
 50
275.1581447696246
 51
285.9799912583532
  0
ARC
  5
296
102
{ACAD_REACTORS
330
32F
330
330
102
}
330
74
100
AcDbEntity
  8
0
  6
Continuous
 62
     2
100
AcDbCircle
 10
-67.96069153051803
 20
14.48719204439762
 30
0.0
 40
1.355119937140023
100
AcDbArc
 50
195.0618917770909
 51
275.1581447696391
  0
ARC
  5
297
102
{ACAD_REACTORS
330
32F
330
330
102
}
330
74
100
AcDbEntity
  8
0
  6
Continuous
 62
     2
100
AcDbCircle
 10
-68.30707817800794
 20
14.39397686916223
 30
0.0
 40
0.9964100565214622
100
AcDbArc
 50
164.9381082228799
 51
195.0618917770962
  0
ARC
  5
298
102
{ACAD_REACTORS
330
32F
330
330
102
}
330
74
100
AcDbEntity
  8
0
  6
Continuous
 62
     2
100
AcDbCircle
 10
-67.96069153051803
 20
14.30076169392682
 30
0.0
 40
1.355119937140908
100
AcDbArc
 50
84.84185523036265
 51
164.9381082228906
  0
ARC
  5
299
102
{ACAD_REACTORS
330
333
330
334
102
}
330
74
100
AcDbEntity
  8
0
  6
Continuous
 62
     2
100
AcDbCircle
 10
-71.9524388480072
 20
15.24837917854596
 30
0.0
 40
0.2609230769227325
100
AcDbArc
 50
115.3740086783589
 51
180.0
  0
ARC
  5
29A
102
{ACAD_REACTORS
330
333
330
334
102
}
330
74
100
AcDbEntity
  8
0
  6
Continuous
 62
     2
100
AcDbCircle
 10
-71.9524388480072
 20
17.08167107931967
 30
0.0
 40
0.2609230769229498
100
AcDbArc
 50
180.0
 51
244.6259913216399
  0
ARC
  5
29B
102
{ACAD_REACTORS
330
333
330
334
102
}
330
74
100
AcDbEntity
  8
0
  6
Continuous
 62
     2
100
AcDbCircle
 10
-71.94779741386674
 20
16.17481185695416
 30
0.0
 40
1.668232340440702
100
AcDbArc
 50
269.8110329575862
 51
90.18896704241376
  0
ARC
  5
29C
102
{ACAD_REACTORS
330
333
330
334
102
}
330
74
100
AcDbEntity
  8
0
  6
Continuous
 62
     2
100
AcDbCircle
 10
-71.9524388480072
 20
14.76751024739299
 30
0.0
 40
0.2609230769229498
100
AcDbArc
 50
180.0
 51
269.8110329574465
  0
ARC
  5
29D
102
{ACAD_REACTORS
330
331
330
332
102
}
330
74
100
AcDbEntity
  8
0
  6
Continuous
 62
     2
100
AcDbCircle
 10
-54.54462048872574
 20
14.56345738927714
 30
0.0
 40
0.4227934381772261
100
AcDbArc
 50
109.337143219486
 51
151.478526742422
  0
ARC
  5
29E
102
{ACAD_REACTORS
330
331
330
332
102
}
330
74
100
AcDbEntity
  8
0
  6
Continuous
 62
     2
100
AcDbCircle
 10
-54.54462048872574
 20
14.22449634904777
 30
0.0
 40
0.4227934381785468
100
AcDbArc
 50
208.5214732576875
 51
246.6277221118393
  0
ARC
  5
29F
102
{ACAD_REACTORS
330
331
330
332
102
}
330
74
100
AcDbEntity
  8
0
  6
Continuous
 62
     2
100
AcDbCircle
 10
-54.99906042655834
 20
14.39397686916223
 30
0.0
 40
0.996410056523109
100
AcDbArc
 50
164.9381082229054
 51
195.0618917770958
  0
ARC
  5
2A0
102
{ACAD_REACTORS
330
331
330
332
102
}
330
74
100
AcDbEntity
  8
0
  6
Continuous
 62
     2
100
AcDbCircle
 10
-54.65267377906935
 20
14.30076169392682
 30
0.0
 40
1.355119937140591
100
AcDbArc
 50
90.0
 51
164.9381082228992
  0
ARC
  5
2A1
102
{ACAD_REACTORS
330
335
330
336
102
}
330
74
100
AcDbEntity
  8
0
  6
Continuous
 62
     2
100
AcDbCircle
 10
-62.44357881436167
 20
17.17016734533938
 30
0.0
 40
1.26190476190564
100
AcDbArc
 50
90.0
 51
270.0
  0
ARC
  5
2A2
102
{ACAD_REACTORS
330
339
330
33A
102
}
330
74
100
AcDbEntity
  8
0
  6
Continuous
 62
     2
100
AcDbCircle
 10
-68.01605050463093
 20
17.59242775178124
 30
0.0
 40
0.2916229955959899
100
AcDbArc
 50
270.0
 51
90.0
  0
ARC
  5
2A3
102
{ACAD_REACTORS
330
333
330
334
102
}
330
74
100
AcDbEntity
  8
0
  6
Continuous
 62
     2
100
AcDbCircle
 10
-74.0809914815045
 20
17.58226014143119
 30
0.0
 40
0.2609230769224524
100
AcDbArc
 50
90.0
 51
180.0
  0
ARC
  5
2A4
102
{ACAD_REACTORS
330
333
330
334
102
}
330
74
100
AcDbEntity
  8
0
  6
Continuous
 62
     2
100
AcDbCircle
 10
-72.42940659837677
 20
16.16502512893305
 30
0.0
 40
0.7536343169897688
100
AcDbArc
 50
115.1944106485234
 51
244.8055893514914
  0
ARC
  5
2A5
102
{ACAD_REACTORS
330
333
330
334
102
}
330
74
100
AcDbEntity
  8
0
  6
Continuous
 62
     2
100
AcDbCircle
 10
-72.86129457157926
 20
15.24698401648451
 30
0.0
 40
0.2609230769228361
100
AcDbArc
 50
0.0
 51
64.8055893514401
  0
ARC
  5
2A6
102
{ACAD_REACTORS
330
333
330
334
102
}
330
74
100
AcDbEntity
  8
0
  6
Continuous
 62
     2
100
AcDbCircle
 10
-74.57181352840246
 20
13.48268749187132
 30
0.0
 40
0.3506153846138886
100
AcDbArc
 50
180.0
 51
270.0
  0
ARC
  5
2A7
102
{ACAD_REACTORS
330
335
330
336
102
}
330
74
100
AcDbEntity
  8
0
  6
Continuous
 62
     2
100
AcDbCircle
 10
-62.26484161587803
 20
17.2996972446125
 30
0.0
 40
0.4280236140606861
100
AcDbArc
 50
38.12041979714503
 51
141.8795802028555
  0
ARC
  5
2A8
102
{ACAD_REACTORS
330
335
330
336
102
}
330
74
100
AcDbEntity
  8
0
  6
Continuous
 62
     2
100
AcDbCircle
 10
-62.09976720567454
 20
17.17016734533938
 30
0.0
 40
0.6378510567600056
100
AcDbArc
 50
141.8795802028417
 51
218.1204197971583
  0
ARC
  5
2A9
102
{ACAD_REACTORS
330
337
330
338
102
}
330
74
100
AcDbEntity
  8
0
  6
Continuous
 62
     2
100
AcDbCircle
 10
-65.53835193058342
 20
14.8390801834625
 30
0.0
 40
1.70700807620544
100
AcDbArc
 50
242.4518518243401
 51
297.548148175687
  0
ARC
  5
2AA
102
{ACAD_REACTORS
330
337
330
338
102
}
330
74
100
AcDbEntity
  8
0
  6
Continuous
 62
     2
100
AcDbCircle
 10
-65.53835193058342
 20
13.94887355486241
 30
0.0
 40
1.707008076205444
100
AcDbArc
 50
62.45185182430569
 51
117.5481481756673
  0
ARC
  5
2AB
102
{ACAD_REACTORS
330
337
330
338
102
}
330
74
100
AcDbEntity
  8
0
  6
Continuous
 62
     2
100
AcDbCircle
 10
-65.77053365937127
 20
14.39397686916223
 30
0.0
 40
1.204986845992994
100
AcDbArc
 50
117.5481481756635
 51
242.451851824337
  0
ARC
  5
2AC
102
{ACAD_REACTORS
330
337
330
338
102
}
330
74
100
AcDbEntity
  8
0
  6
Continuous
 62
     2
100
AcDbCircle
 10
-65.30617020179557
 20
14.39397686916223
 30
0.0
 40
1.204986845993433
100
AcDbArc
 50
297.5481481757013
 51
62.45185182429817
  0
ARC
  5
2AD
102
{ACAD_REACTORS
330
335
330
336
102
}
330
74
100
AcDbEntity
  8
0
  6
Continuous
 62
     2
100
AcDbCircle
 10
-62.26484161587803
 20
17.04063744606625
 30
0.0
 40
0.4280236140606851
100
AcDbArc
 50
218.1204197971433
 51
321.8795802028561
  0
ARC
  5
2AE
102
{ACAD_REACTORS
330
335
330
336
102
}
330
74
100
AcDbEntity
  8
0
  6
Continuous
 62
     2
100
AcDbCircle
 10
-62.42991602608151
 20
17.17016734533938
 30
0.0
 40
0.6378510567599944
100
AcDbArc
 50
321.8795802028409
 51
38.12041979715914
  0
ARC
  5
2AF
102
{ACAD_REACTORS
330
333
330
334
102
}
330
74
100
AcDbEntity
  8
0
  6
Continuous
 62
     2
100
AcDbCircle
 10
-70.04841510632241
 20
13.48268749187132
 30
0.0
 40
0.3506153846142812
100
AcDbArc
 50
270.0
 51
0.0
  0
ARC
  5
2B0
102
{ACAD_REACTORS
330
333
330
334
102
}
330
74
100
AcDbEntity
  8
0
  6
Continuous
 62
     2
100
AcDbCircle
 10
-70.04841510632241
 20
18.08145672261529
 30
0.0
 40
0.3506153846147981
100
AcDbArc
 50
0.0
 51
90.0
  0
ARC
  5
2B1
102
{ACAD_REACTORS
330
333
330
334
102
}
330
74
100
AcDbEntity
  8
0
  6
Continuous
 62
     2
100
AcDbCircle
 10
-74.57181352840246
 20
18.08145672261529
 30
0.0
 40
0.3506153846147413
100
AcDbArc
 50
90.0
 51
180.0
  0
ARC
  5
2B2
102
{ACAD_REACTORS
330
333
330
334
102
}
330
74
100
AcDbEntity
  8
0
  6
Continuous
 62
     2
100
AcDbCircle
 10
-72.86129457157926
 20
13.98188407306995
 30
0.0
 40
0.2609230769228894
100
AcDbArc
 50
270.0
 51
0.0
  0
ARC
  5
2B3
102
{ACAD_REACTORS
330
333
330
334
102
}
330
74
100
AcDbEntity
  8
0
  6
Continuous
 62
     2
100
AcDbCircle
 10
-72.86129457157926
 20
17.08306624138113
 30
0.0
 40
0.2609230769224065
100
AcDbArc
 50
295.1944106485601
 51
0.0
  0
ARC
  5
2B4
102
{ACAD_REACTORS
330
333
330
334
102
}
330
74
100
AcDbEntity
  8
0
  6
Continuous
 62
     2
100
AcDbCircle
 10
-72.86129457157926
 20
17.58226014143119
 30
0.0
 40
0.2609230769228361
100
AcDbArc
 50
0.0
 51
90.0
  0
ARC
  5
2B5
102
{ACAD_REACTORS
330
333
330
334
102
}
330
74
100
AcDbEntity
  8
0
  6
Continuous
 62
     2
100
AcDbCircle
 10
-74.0809914815045
 20
13.98188407306995
 30
0.0
 40
0.2609230769220403
100
AcDbArc
 50
180.0
 51
270.0
  0
ARC
  5
2B6
102
{ACAD_REACTORS
330
339
330
33A
102
}
330
74
100
AcDbEntity
  8
0
  6
Continuous
 62
     2
100
AcDbCircle
 10
-67.65119717716118
 20
17.55986909787833
 30
0.0
 40
0.8722030093666717
100
AcDbArc
 50
270.0
 51
90.0
  0
ARC
  5
2B7
102
{ACAD_REACTORS
330
331
330
332
102
}
330
74
100
AcDbEntity
  8
0
  6
Continuous
 62
     2
100
AcDbCircle
 10
-54.65267377906935
 20
14.48719204439762
 30
0.0
 40
1.355119937140895
100
AcDbArc
 50
195.0618917771008
 51
275.158144769676
  0
ARC
  5
2B8
102
{ACAD_REACTORS
330
331
330
332
102
}
330
74
100
AcDbEntity
  8
0
  6
Continuous
 62
     2
100
AcDbCircle
 10
-54.89139782430561
 20
17.13172971648158
 30
0.0
 40
4.010410630990744
100
AcDbArc
 50
275.1581447696369
 51
285.9799912583388
  0
ARC
  5
2B9
102
{ACAD_REACTORS
330
331
330
332
102
}
330
74
100
AcDbEntity
  8
0
  6
Continuous
 62
     2
100
AcDbCircle
 10
-54.76092437381567
 20
15.55965155131771
 30
0.0
 40
1.840813230556003
100
AcDbArc
 50
288.4480761181333
 51
301.9309089499382
  0
ARC
  5
2BA
102
{ACAD_REACTORS
330
331
330
332
102
}
330
74
100
AcDbEntity
  8
0
  6
Continuous
 62
     2
100
AcDbCircle
 10
-54.41533120550002
 20
14.52366330665935
 30
0.0
 40
0.7487023016407038
100
AcDbArc
 50
246.627722111814
 51
288.4480761180797
  0
ARC
  5
2BB
102
{ACAD_REACTORS
330
331
330
332
102
}
330
74
100
AcDbEntity
  8
0
  6
Continuous
 62
     2
100
AcDbCircle
 10
-54.23275498617909
 20
14.39397686916223
 30
0.0
 40
0.777735318458663
100
AcDbArc
 50
151.4785267423618
 51
208.5214732576687
  0
ARC
  5
2BC
102
{ACAD_REACTORS
330
331
330
332
102
}
330
74
100
AcDbEntity
  8
0
  6
Continuous
 62
     2
100
AcDbCircle
 10
-54.42340561425988
 20
14.21804005011771
 30
0.0
 40
0.7888619891124407
100
AcDbArc
 50
90.0
 51
109.3371432194314
  0
ARC
  5
2BD
102
{ACAD_REACTORS
330
333
330
334
102
}
330
74
100
AcDbEntity
  8
0
  6
Continuous
 62
     2
100
AcDbCircle
 10
-71.9524388480072
 20
17.58211346651534
 30
0.0
 40
0.2609230769224181
100
AcDbArc
 50
90.18896704255353
 51
180.0
  0
ARC
  5
2BE
102
{ACAD_REACTORS
330
333
330
334
102
}
330
74
100
AcDbEntity
  8
0
  6
Continuous
 62
     2
100
AcDbCircle
 10
-72.38718487948483
 20
16.16502512893305
 30
0.0
 40
0.7535935125160986
100
AcDbArc
 50
295.374008678178
 51
64.62599132180713
  0
ARC
  5
2BF
102
{ACAD_REACTORS
330
32F
330
330
102
}
330
74
100
AcDbEntity
  8
0
  6
Continuous
 62
     2
100
AcDbCircle
 10
-68.06894212526436
 20
15.55965155131817
 30
0.0
 40
1.840813230556011
100
AcDbArc
 50
288.4480761181332
 51
301.9309089499624
  0
ARC
  5
2C0
102
{ACAD_REACTORS
330
32F
330
330
102
}
330
74
100
AcDbEntity
  8
0
  6
Continuous
 62
     2
100
AcDbCircle
 10
-67.72334895694962
 20
14.52366330665935
 30
0.0
 40
0.7487023016403824
100
AcDbArc
 50
246.6277221118709
 51
288.4480761181571
  0
ARC
  5
2C1
102
{ACAD_REACTORS
330
32F
330
330
102
}
330
74
100
AcDbEntity
  8
0
  6
Continuous
 62
     2
100
AcDbCircle
 10
-67.85263824017443
 20
14.22449634904777
 30
0.0
 40
0.422793438177528
100
AcDbArc
 50
208.5214732576916
 51
246.627722111826
  0
ARC
  5
2C2
102
{ACAD_REACTORS
330
32F
330
330
102
}
330
74
100
AcDbEntity
  8
0
  6
Continuous
 62
     2
100
AcDbCircle
 10
-67.72334895694962
 20
14.26429043166509
 30
0.0
 40
0.7487023016407717
100
AcDbArc
 50
71.55192388185432
 51
113.3722778881285
  0
ARC
  5
2C3
102
{ACAD_REACTORS
330
32F
330
330
102
}
330
74
100
AcDbEntity
  8
0
  6
Continuous
 62
     2
100
AcDbCircle
 10
-68.1994155757543
 20
11.65622402184333
 30
0.0
 40
4.010410630990089
100
AcDbArc
 50
74.02000874164679
 51
84.84185523037543
  0
CIRCLE
  5
2C4
102
{ACAD_REACTORS
330
333
330
334
102
}
330
74
100
AcDbEntity
  8
0
  6
Continuous
 62
     2
100
AcDbCircle
 10
-72.4068667097929
 20
16.16502512893305
 30
0.0
 40
0.3892387874202541
  0
CIRCLE
  5
2C5
330
74
100
AcDbEntity
  8
1
  6
Continuous
 62
     2
100
AcDbCircle
 10
-76.49021444870854
 20
22.15707210725108
 30
0.0
 40
1.0
  0
CIRCLE
  5
2C6
330
74
100
AcDbEntity
  8
1
  6
Continuous
 62
     2
100
AcDbCircle
 10
-76.49021444870854
 20
22.15707210725108
 30
0.0
 40
1.5
  0
MTEXT
  5
2C8
330
74
100
AcDbEntity
  8
1
 62
     2
100
AcDbMText
 10
-44.0824742738119
 20
26.60707210725107
 30
0.0
 40
1.4
 41
0.0
 71
     4
 72
     1
  1
SAP\Pchange-No.
  7
CONVERTER_12
 73
     1
 44
0.66026410564226
  0
MTEXT
  5
2C9
330
74
100
AcDbEntity
  8
1
 62
     3
100
AcDbMText
 10
-34.85023745569701
 20
26.40707210725107
 30
0.0
 40
2.5
 41
0.0
 71
     4
 72
     1
  1
N02-13036/01
  7
CONVERTER_12
 73
     1
 44
1.20048019207683
  0
TEXT
  5
2CB
330
74
100
AcDbEntity
  8
1
 62
     3
100
AcDbText
 10
-44.08247427381198
 20
39.32684368085533
 30
0.0
 40
2.5
  1
 
 41
0.72
  7
CONVERTER_13
100
AcDbText
  0
TEXT
  5
2CC
330
74
100
AcDbEntity
  8
1
 62
     3
100
AcDbText
 10
-44.08247427381198
 20
42.82684368085533
 30
0.0
 40
2.5
  1
 
 41
0.72
  7
CONVERTER_13
100
AcDbText
  0
TEXT
  5
2CD
330
74
100
AcDbEntity
  8
1
 62
     3
100
AcDbText
 10
-44.08247427381198
 20
46.32684368085533
 30
0.0
 40
2.5
  1
 
 41
0.72
  7
CONVERTER_13
100
AcDbText
  0
MTEXT
  5
2CF
330
74
100
AcDbEntity
  8
1
 62
     2
100
AcDbMText
 10
-183.337669747062
 20
13.65707210725119
 30
0.0
 40
2.0
 41
0.0
 71
     4
 72
     1
  1
 
  7
CONVERTER_14
 73
     1
 44
1.20048019207683
  0
MTEXT
  5
2D0
330
74
100
AcDbEntity
  8
1
 62
     2
100
AcDbMText
 10
-183.337669747062
 20
17.90707210725108
 30
0.0
 40
2.0
 41
0.0
 71
     4
 72
     1
  1
 
  7
CONVERTER_14
 73
     1
 44
1.20048019207683
  0
MTEXT
  5
2D1
330
74
100
AcDbEntity
  8
1
 62
     2
100
AcDbMText
 10
-183.337669747062
 20
22.15707210725108
 30
0.0
 40
2.0
 41
0.0
 71
     4
 72
     1
  1
 
  7
CONVERTER_14
 73
     1
 44
1.20048019207683
  0
MTEXT
  5
2D2
330
74
100
AcDbEntity
  8
1
 62
     2
100
AcDbMText
 10
-183.337669747062
 20
26.40707210725108
 30
0.0
 40
2.0
 41
0.0
 71
     4
 72
     1
  1
 
  7
CONVERTER_14
 73
     1
 44
1.20048019207683
  0
MTEXT
  5
2D3
330
74
100
AcDbEntity
  8
1
 62
     2
100
AcDbMText
 10
-183.337669747062
 20
30.65707210725108
 30
0.0
 40
2.0
 41
0.0
 71
     4
 72
     1
  1
 
  7
CONVERTER_14
 73
     1
 44
1.20048019207683
  0
MTEXT
  5
2D4
330
74
100
AcDbEntity
  8
1
 62
     2
100
AcDbMText
 10
-183.337669747062
 20
34.90707210725108
 30
0.0
 40
2.0
 41
0.0
 71
     4
 72
     1
  1
 
  7
CONVERTER_14
 73
     1
 44
1.20048019207683
  0
MTEXT
  5
2D5
330
74
100
AcDbEntity
  8
1
 62
     2
100
AcDbMText
 10
-88.33247427381188
 20
13.65707210725119
 30
0.0
 40
2.0
 41
0.0
 71
     5
 72
     1
  1
 
  7
CONVERTER_11
 73
     1
 44
1.20048019207683
  0
MTEXT
  5
2D6
330
74
100
AcDbEntity
  8
1
 62
     2
100
AcDbMText
 10
-88.33247427381188
 20
17.90707210725108
 30
0.0
 40
2.0
 41
0.0
 71
     5
 72
     1
  1
 
  7
CONVERTER_11
 73
     1
 44
1.20048019207683
  0
MTEXT
  5
2D7
330
74
100
AcDbEntity
  8
1
 62
     2
100
AcDbMText
 10
-88.33247427381188
 20
22.15707210725108
 30
0.0
 40
2.0
 41
0.0
 71
     5
 72
     1
  1
 
  7
CONVERTER_11
 73
     1
 44
1.20048019207683
  0
MTEXT
  5
2D8
330
74
100
AcDbEntity
  8
1
 62
     2
100
AcDbMText
 10
-88.33247427381188
 20
26.40707210725108
 30
0.0
 40
2.0
 41
0.0
 71
     5
 72
     1
  1
 
  7
CONVERTER_11
 73
     1
 44
1.20048019207683
  0
MTEXT
  5
2D9
330
74
100
AcDbEntity
  8
1
 62
     2
100
AcDbMText
 10
-88.33247427381188
 20
30.65707210725108
 30
0.0
 40
2.0
 41
0.0
 71
     5
 72
     1
  1
 
  7
CONVERTER_11
 73
     1
 44
1.20048019207683
  0
MTEXT
  5
2DA
330
74
100
AcDbEntity
  8
1
 62
     2
100
AcDbMText
 10
-88.33247427381188
 20
34.90707210725108
 30
0.0
 40
2.0
 41
0.0
 71
     5
 72
     1
  1
 
  7
CONVERTER_11
 73
     1
 44
1.20048019207683
  0
MTEXT
  5
2DB
330
74
100
AcDbEntity
  8
1
 62
     2
100
AcDbMText
 10
-101.8324742738119
 20
13.65707210725119
 30
0.0
 40
2.0
 41
0.0
 71
     5
 72
     1
  1
 
  7
CONVERTER_11
 73
     1
 44
1.20048019207683
  0
MTEXT
  5
2DC
330
74
100
AcDbEntity
  8
1
 62
     2
100
AcDbMText
 10
-101.8324742738119
 20
17.90707210725108
 30
0.0
 40
2.0
 41
0.0
 71
     5
 72
     1
  1
 
  7
CONVERTER_11
 73
     1
 44
1.20048019207683
  0
MTEXT
  5
2DD
330
74
100
AcDbEntity
  8
1
 62
     2
100
AcDbMText
 10
-101.8324742738119
 20
22.15707210725108
 30
0.0
 40
2.0
 41
0.0
 71
     5
 72
     1
  1
 
  7
CONVERTER_11
 73
     1
 44
1.20048019207683
  0
MTEXT
  5
2DE
330
74
100
AcDbEntity
  8
1
 62
     2
100
AcDbMText
 10
-101.8324742738119
 20
26.40707210725108
 30
0.0
 40
2.0
 41
0.0
 71
     5
 72
     1
  1
 
  7
CONVERTER_11
 73
     1
 44
1.20048019207683
  0
MTEXT
  5
2DF
330
74
100
AcDbEntity
  8
1
 62
     2
100
AcDbMText
 10
-101.8324742738119
 20
30.65707210725108
 30
0.0
 40
2.0
 41
0.0
 71
     5
 72
     1
  1
 
  7
CONVERTER_11
 73
     1
 44
1.20048019207683
  0
MTEXT
  5
2E0
330
74
100
AcDbEntity
  8
1
 62
     2
100
AcDbMText
 10
-101.8324742738119
 20
34.90707210725108
 30
0.0
 40
2.0
 41
0.0
 71
     5
 72
     1
  1
 
  7
CONVERTER_11
 73
     1
 44
1.20048019207683
  0
MTEXT
  5
2E1
330
74
100
AcDbEntity
  8
1
 62
     2
100
AcDbMText
 10
-115.3324742738118
 20
34.90707210725108
 30
0.0
 40
2.0
 41
0.0
 71
     5
 72
     1
  1
 
  7
CONVERTER_11
 73
     1
 44
1.20048019207683
  0
MTEXT
  5
2E2
330
74
100
AcDbEntity
  8
1
 62
     2
100
AcDbMText
 10
-115.3324742738118
 20
30.65707210725108
 30
0.0
 40
2.0
 41
0.0
 71
     5
 72
     1
  1
 
  7
CONVERTER_11
 73
     1
 44
1.20048019207683
  0
MTEXT
  5
2E3
330
74
100
AcDbEntity
  8
1
 62
     2
100
AcDbMText
 10
-115.3324742738118
 20
26.40707210725108
 30
0.0
 40
2.0
 41
0.0
 71
     5
 72
     1
  1
 
  7
CONVERTER_11
 73
     1
 44
1.20048019207683
  0
MTEXT
  5
2E4
330
74
100
AcDbEntity
  8
1
 62
     2
100
AcDbMText
 10
-115.3324742738118
 20
22.15707210725108
 30
0.0
 40
2.0
 41
0.0
 71
     5
 72
     1
  1
 
  7
CONVERTER_11
 73
     1
 44
1.20048019207683
  0
MTEXT
  5
2E5
330
74
100
AcDbEntity
  8
1
 62
     2
100
AcDbMText
 10
-115.3324742738118
 20
17.90707210725108
 30
0.0
 40
2.0
 41
0.0
 71
     5
 72
     1
  1
 
  7
CONVERTER_11
 73
     1
 44
1.20048019207683
  0
MTEXT
  5
2E6
330
74
100
AcDbEntity
  8
1
 62
     2
100
AcDbMText
 10
-115.3324742738118
 20
13.65707210725119
 30
0.0
 40
2.0
 41
0.0
 71
     5
 72
     1
  1
 
  7
CONVERTER_11
 73
     1
 44
1.20048019207683
  0
MTEXT
  5
2E7
330
74
100
AcDbEntity
  8
1
 62
     2
100
AcDbMText
 10
-191.087669747062
 20
34.90707210725108
 30
0.0
 40
2.0
 41
0.0
 71
     5
 72
     1
  1
 
  7
CONVERTER_11
 73
     1
 44
1.20048019207683
  0
MTEXT
  5
2E8
330
74
100
AcDbEntity
  8
1
 62
     2
100
AcDbMText
 10
-191.087669747062
 20
30.65707210725108
 30
0.0
 40
2.0
 41
0.0
 71
     5
 72
     1
  1
 
  7
CONVERTER_11
 73
     1
 44
1.20048019207683
  0
MTEXT
  5
2E9
330
74
100
AcDbEntity
  8
1
 62
     2
100
AcDbMText
 10
-191.087669747062
 20
26.40707210725108
 30
0.0
 40
2.0
 41
0.0
 71
     5
 72
     1
  1
 
  7
CONVERTER_11
 73
     1
 44
1.20048019207683
  0
MTEXT
  5
2EA
330
74
100
AcDbEntity
  8
1
 62
     2
100
AcDbMText
 10
-191.087669747062
 20
22.15707210725108
 30
0.0
 40
2.0
 41
0.0
 71
     5
 72
     1
  1
 
  7
CONVERTER_11
 73
     1
 44
1.20048019207683
  0
MTEXT
  5
2EB
330
74
100
AcDbEntity
  8
1
 62
     2
100
AcDbMText
 10
-191.087669747062
 20
17.90707210725108
 30
0.0
 40
2.0
 41
0.0
 71
     5
 72
     1
  1
 
  7
CONVERTER_11
 73
     1
 44
1.20048019207683
  0
MTEXT
  5
2EC
330
74
100
AcDbEntity
  8
1
 62
     2
100
AcDbMText
 10
-191.087669747062
 20
13.65707210725119
 30
0.0
 40
2.0
 41
0.0
 71
     5
 72
     1
  1
 
  7
CONVERTER_11
 73
     1
 44
1.20048019207683
  0
MTEXT
  5
2ED
330
74
100
AcDbEntity
  8
1
 62
     2
100
AcDbMText
 10
-200.937669747061
 20
13.65707210725119
 30
0.0
 40
2.0
 41
0.0
 71
     5
 72
     1
  1
 
  7
CONVERTER_11
 73
     1
 44
1.20048019207683
  0
MTEXT
  5
2EE
330
74
100
AcDbEntity
  8
1
 62
     2
100
AcDbMText
 10
-200.937669747061
 20
17.90707210725108
 30
0.0
 40
2.0
 41
0.0
 71
     5
 72
     1
  1
 
  7
CONVERTER_11
 73
     1
 44
1.20048019207683
  0
MTEXT
  5
2EF
330
74
100
AcDbEntity
  8
1
 62
     2
100
AcDbMText
 10
-200.937669747061
 20
22.15707210725108
 30
0.0
 40
2.0
 41
0.0
 71
     5
 72
     1
  1
 
  7
CONVERTER_11
 73
     1
 44
1.20048019207683
  0
MTEXT
  5
2F0
330
74
100
AcDbEntity
  8
1
 62
     2
100
AcDbMText
 10
-200.937669747061
 20
26.40707210725108
 30
0.0
 40
2.0
 41
0.0
 71
     5
 72
     1
  1
 
  7
CONVERTER_11
 73
     1
 44
1.20048019207683
  0
MTEXT
  5
2F1
330
74
100
AcDbEntity
  8
1
 62
     2
100
AcDbMText
 10
-200.937669747061
 20
30.65707210725108
 30
0.0
 40
2.0
 41
0.0
 71
     5
 72
     1
  1
 
  7
CONVERTER_11
 73
     1
 44
1.20048019207683
  0
MTEXT
  5
2F2
330
74
100
AcDbEntity
  8
1
 62
     2
100
AcDbMText
 10
-200.937669747061
 20
34.90707210725108
 30
0.0
 40
2.0
 41
0.0
 71
     5
 72
     1
  1
 
  7
CONVERTER_11
 73
     1
 44
1.20048019207683
  0
MTEXT
  5
2F3
330
74
100
AcDbEntity
  8
1
 62
     2
100
AcDbMText
 10
-14.53766974705952
 20
27.53207210725108
 30
0.0
 40
1.8
 41
0.0
 71
     1
 72
     1
  1
part-rev.
  7
CONVERTER_13
 73
     1
 44
1.20048019207683
  0
MTEXT
  5
2F4
330
74
100
AcDbEntity
  8
1
 62
     2
100
AcDbMText
 10
3.9623302529401
 20
23.28207210725108
 30
0.0
 40
1.8
 41
0.0
 71
     1
 72
     1
  1
surface in um
  7
CONVERTER_11
 73
     1
 44
1.32052821128451
  0
MTEXT
  5
2F5
330
74
100
AcDbEntity
  8
1
 62
     7
100
AcDbMText
 10
50.46233025293719
 20
82.28207210725301
 30
0.0
 40
3.5
 41
0.0
 71
     5
 72
     1
  1
C
  7
CONVERTER_11
 73
     1
 44
1.20048019207683
  0
MTEXT
  5
2F6
330
74
100
AcDbEntity
  8
1
 62
     7
100
AcDbMText
 10
50.46233025293719
 20
184.7820721072511
 30
0.0
 40
3.5
 41
0.0
 71
     5
 72
     1
  1
A
  7
CONVERTER_11
 73
     1
 44
1.20048019207683
  0
MTEXT
  5
2F7
330
74
100
AcDbEntity
  8
1
 62
     7
100
AcDbMText
 10
50.46233025293719
 20
132.282072107253
 30
0.0
 40
3.5
 41
0.0
 71
     5
 72
     1
  1
B
  7
CONVERTER_11
 73
     1
 44
1.20048019207683
  0
MTEXT
  5
2F8
330
74
100
AcDbEntity
  8
1
 62
     7
100
AcDbMText
 10
50.46233025293719
 20
29.78207210725108
 30
0.0
 40
3.5
 41
0.0
 71
     5
 72
     1
  1
D
  7
CONVERTER_11
 73
     1
 44
1.20048019207683
  0
MTEXT
  5
2F9
330
74
100
AcDbEntity
  8
1
 62
     3
100
AcDbMText
 10
-239.03260196099
 20
194.0733802625499
 30
0.0
 40
1.8
 41
0.0
 71
     7
 72
     1
  3
Weitergabe sowie Vervielf\U+00e4ltigung dieses Dokuments, Verwertung und\PMitteilung seines Inhalts gem\U+00e4\U+00df \U+00a718 UWG verboten, soweit nicht aus-\Pdr\U+00fccklich gestattet. Zuwiderhandlungen verpflichten zu Schadenersatz\P(\U+00a719 U
  1
WG). Alle Rechte vorbehalten, insbesondere das Recht, Patent-,\PGebrauchsmuster- oder Geschmacksmusteranmeldungen durchzuf\U+00fchren.\PPhoenix Contact GmbH & Co. KG
  7
CONVERTER_11
 73
     1
 44
0.99639855942377
  0
MTEXT
  5
2FA
330
74
100
AcDbEntity
  8
1
 62
     3
100
AcDbMText
 10
-66.17949212220194
 20
194.0733802625499
 30
0.0
 40
1.8
 41
0.0
 71
     7
 72
     1
  3
The copying, distribution and utilistion of this document as well as the communication\Pof the contents to others without expressed authorization is prohibited according to\P\U+00a718 UWG German Law. Offenders will be held liable for the payment of 
  1
damages\Paccording to (\U+00a719 UWG German Law). All rights reserved, in particular the right to\Pcarry out patent, utility model or ornamental design registrations.\PFlachsmarktstra\U+00dfe 8  D-32825 Blomberg
  7
CONVERTER_11
 73
     1
 44
0.99639855942377
  0
MTEXT
  5
2FB
330
74
100
AcDbEntity
  8
1
 62
     7
100
AcDbMText
 10
-219.7876697470615
 20
4.78207210725108
 30
0.0
 40
3.5
 41
0.0
 71
     5
 72
     1
  1
1
  7
CONVERTER_11
 73
     1
 44
1.20048019207683
  0
MTEXT
  5
2FC
330
74
100
AcDbEntity
  8
1
 62
     7
100
AcDbMText
 10
-170.5376697470619
 20
4.78207210725108
 30
0.0
 40
3.5
 41
0.0
 71
     5
 72
     1
  1
2
  7
CONVERTER_11
 73
     1
 44
1.20048019207683
  0
MTEXT
  5
2FD
330
74
100
AcDbEntity
  8
1
 62
     7
100
AcDbMText
 10
-120.5376697470619
 20
4.78207210725108
 30
0.0
 40
3.5
 41
0.0
 71
     5
 72
     1
  1
3
  7
CONVERTER_11
 73
     1
 44
1.20048019207683
  0
MTEXT
  5
2FE
330
74
100
AcDbEntity
  8
1
 62
     7
100
AcDbMText
 10
-70.53766974706194
 20
4.78207210725108
 30
0.0
 40
3.5
 41
0.0
 71
     5
 72
     1
  1
4
  7
CONVERTER_11
 73
     1
 44
1.20048019207683
  0
MTEXT
  5
2FF
330
74
100
AcDbEntity
  8
1
 62
     7
100
AcDbMText
 10
-20.53766974706189
 20
4.78207210725108
 30
0.0
 40
3.5
 41
0.0
 71
     5
 72
     1
  1
5
  7
CONVERTER_11
 73
     1
 44
1.20048019207683
  0
MTEXT
  5
300
330
74
100
AcDbEntity
  8
1
 62
     7
100
AcDbMText
 10
28.71233025293739
 20
4.78207210725108
 30
0.0
 40
3.5
 41
0.0
 71
     5
 72
     1
  1
6
  7
CONVERTER_11
 73
     1
 44
1.20048019207683
  0
MTEXT
  5
301
330
74
100
AcDbEntity
  8
1
 62
     7
100
AcDbMText
 10
-241.5376697470609
 20
184.7820721072511
 30
0.0
 40
3.5
 41
0.0
 71
     5
 72
     1
  1
A
  7
CONVERTER_11
 73
     1
 44
1.20048019207683
  0
MTEXT
  5
302
330
74
100
AcDbEntity
  8
1
 62
     7
100
AcDbMText
 10
-241.5376697470609
 20
132.2820721072511
 30
0.0
 40
3.5
 41
0.0
 71
     5
 72
     1
  1
B
  7
CONVERTER_11
 73
     1
 44
1.20048019207683
  0
MTEXT
  5
303
330
74
100
AcDbEntity
  8
1
 62
     7
100
AcDbMText
 10
-241.5376697470609
 20
82.28207210725108
 30
0.0
 40
3.5
 41
0.0
 71
     5
 72
     1
  1
C
  7
CONVERTER_11
 73
     1
 44
1.20048019207683
  0
MTEXT
  5
304
330
74
100
AcDbEntity
  8
1
 62
     7
100
AcDbMText
 10
-241.5376697470609
 20
29.78207210725108
 30
0.0
 40
3.5
 41
0.0
 71
     5
 72
     1
  1
D
  7
CONVERTER_11
 73
     1
 44
1.20048019207683
  0
MTEXT
  5
305
330
74
100
AcDbEntity
  8
1
 62
     2
100
AcDbMText
 10
31.3807385346189
 20
36.03207210725108
 30
0.0
 40
1.8
 41
0.0
 71
     1
 72
     1
  1
dim.var.
  7
CONVERTER_11
 73
     1
 44
1.20048019207683
  0
MTEXT
  5
307
330
74
100
AcDbEntity
  8
1
 62
     2
100
AcDbMText
 10
-14.53766974705952
 20
23.28207210725108
 30
0.0
 40
1.8
 41
0.0
 71
     1
 72
     1
  1
document-No.
  7
CONVERTER_15
 73
     1
 44
1.32052821128451
  0
TEXT
  5
308
330
74
100
AcDbEntity
  8
1
 62
     2
100
AcDbText
 10
-62.38247427381194
 20
8.52305489225952
 30
0.0
 40
1.8
  1
of
 41
0.9
  7
CONVERTER_11
100
AcDbText
  0
TEXT
  5
309
330
74
100
AcDbEntity
  8
1
 62
     2
100
AcDbText
 10
-80.58247427381181
 20
8.52305489225941
 30
0.0
 40
1.8
  1
page
 41
0.9
  7
CONVERTER_11
100
AcDbText
  0
MTEXT
  5
30A
330
74
100
AcDbEntity
  8
1
 62
     2
100
AcDbMText
 10
-88.33247427381191
 20
8.53207210725108
 30
0.0
 40
1.8
 41
0.0
 71
     8
 72
     1
  1
name
  7
CONVERTER_11
 73
     1
 44
1.32052821128451
  0
MTEXT
  5
30B
330
74
100
AcDbEntity
  8
1
 62
     2
100
AcDbMText
 10
-101.8324742738118
 20
8.53207210725108
 30
0.0
 40
1.8
 41
0.0
 71
     8
 72
     1
  1
check.on
  7
CONVERTER_11
 73
     1
 44
1.32052821128451
  0
MTEXT
  5
30C
330
74
100
AcDbEntity
  8
1
 62
     2
100
AcDbMText
 10
-115.3324742738118
 20
8.53207210725108
 30
0.0
 40
1.8
 41
0.0
 71
     8
 72
     1
  1
name
  7
CONVERTER_11
 73
     1
 44
1.32052821128451
  0
MTEXT
  5
30D
330
74
100
AcDbEntity
  8
1
 62
     2
100
AcDbMText
 10
-191.087669747062
 20
8.53207210725108
 30
0.0
 40
1.8
 41
0.0
 71
     8
 72
     1
  1
date
  7
CONVERTER_11
 73
     1
 44
1.32052821128451
  0
MTEXT
  5
30E
330
74
100
AcDbEntity
  8
1
 62
     2
100
AcDbMText
 10
-21.05728511622041
 20
36.03207210725091
 30
0.0
 40
1.8
 41
0.0
 71
     1
 72
     1
  1
material
  7
CONVERTER_11
 73
     1
 44
1.20048019207683
  0
MTEXT
  5
30F
330
74
100
AcDbEntity
  8
1
 62
     2
100
AcDbMText
 10
-200.937669747061
 20
8.53207210725108
 30
0.0
 40
1.8
 41
0.0
 71
     8
 72
     1
  1
RI
  7
CONVERTER_11
 73
     1
 44
1.32052821128451
  0
MTEXT
  5
310
330
74
100
AcDbEntity
  8
1
 62
     2
100
AcDbMText
 10
-65.43247427381193
 20
33.98207210725113
 30
0.0
 40
1.8
 41
0.0
 71
     8
 72
     1
  1
date
  7
CONVERTER_11
 73
     1
 44
1.32052821128451
  0
MTEXT
  5
311
330
74
100
AcDbEntity
  8
1
 62
     2
100
AcDbMText
 10
-51.93247427381195
 20
33.98207210725113
 30
0.0
 40
1.8
 41
0.0
 71
     8
 72
     1
  1
name
  7
CONVERTER_11
 73
     1
 44
1.32052821128451
  0
MTEXT
  5
312
330
74
100
AcDbEntity
  8
1
 62
     2
100
AcDbMText
 10
-153.2100720104369
 20
8.53207210725108
 30
0.0
 40
1.8
 41
0.0
 71
     8
 72
     1
  1
revision
  7
CONVERTER_11
 73
     1
 44
1.32052821128451
  0
MTEXT
  5
313
330
74
100
AcDbEntity
  8
1
 62
     2
100
AcDbMText
 10
22.26233025293999
 20
36.03207210725108
 30
0.0
 40
1.8
 41
0.0
 71
     1
 72
     1
  1
scale
  7
CONVERTER_11
 73
     1
 44
1.20048019207683
  0
MTEXT
  5
314
330
74
100
AcDbEntity
  8
1
 62
     2
100
AcDbMText
 10
-76.88247427381184
 20
30.65707210725108
 30
0.0
 40
1.8
 41
0.0
 71
     5
 72
     1
  1
creat.
  7
CONVERTER_11
 73
     1
 44
1.20048019207683
  0
MTEXT
  5
315
330
74
100
AcDbEntity
  8
1
 62
     2
100
AcDbMText
 10
-76.88247427381184
 20
26.40707210725108
 30
0.0
 40
1.8
 41
0.0
 71
     5
 72
     1
  1
check.
  7
CONVERTER_11
 73
     1
 44
1.20048019207683
  0
MTEXT
  5
316
330
74
100
AcDbEntity
  8
1
 62
     3
100
AcDbMText
 10
-55.38247427381194
 20
22.15707210725119
 30
0.0
 40
2.5
 41
0.0
 71
     5
 72
     1
  1
DIN A4
  7
CONVERTER_11
 73
     1
 44
1.20048019207683
  0
MTEXT
  5
317
330
74
100
AcDbEntity
  8
1
 62
     2
100
AcDbMText
 10
-44.0824742738119
 20
36.03207210725108
 30
0.0
 40
1.8
 41
0.0
 71
     1
 72
     1
  1
ident.-No. / RI
  7
CONVERTER_11
 73
     1
 44
1.20048019207683
  0
TEXT
  5
318
330
74
100
AcDbEntity
  8
1
 62
     2
100
AcDbText
 10
-71.93620930346974
 20
8.48282345344913
 30
0.0
 40
1.8
  1
 
 41
0.9
  7
CONVERTER_11
100
AcDbText
  0
TEXT
  5
319
330
74
100
AcDbEntity
  8
1
 62
     2
100
AcDbText
 10
-57.14716546399824
 20
8.53207210725108
 30
0.0
 40
1.8
  1
1
 41
0.9
  7
CONVERTER_11
100
AcDbText
  0
MTEXT
  5
31A
330
74
100
AcDbEntity
  8
1
 62
     2
100
AcDbMText
 10
-44.18247427381191
 20
14.78207210725108
 30
0.0
 40
1.8
 41
0.0
 71
     1
 72
     1
  1
description
  7
CONVERTER_11
 73
     1
 44
1.20048019207683
  0
MTEXT
  5
31B
330
74
100
AcDbEntity
  8
1
 62
     2
100
AcDbMText
 10
-76.88247427381184
 20
33.98207210725113
 30
0.0
 40
1.8
 41
0.0
 71
     8
 72
     1
  1
00
  7
CONVERTER_11
 73
     1
 44
1.20048019207683
  0
MTEXT
  5
31C
330
74
100
AcDbEntity
  8
1
 62
     2
100
AcDbMText
 10
-44.18247427381191
 20
23.28207210725102
 30
0.0
 40
1.8
 41
0.0
 71
     1
 72
     1
  1
document-type
  7
CONVERTER_11
 73
     1
 44
1.20048019207683
  0
MTEXT
  5
31D
330
74
100
AcDbEntity
  8
1
 62
     2
100
AcDbMText
 10
-51.93247427381195
 20
26.40707210725108
 30
0.0
 40
1.8
 41
0.0
 71
     5
 72
     1
  1
Angenent
  7
CONVERTER_11
 73
     1
 44
1.32052821128451
  0
MTEXT
  5
31E
330
74
100
AcDbEntity
  8
1
 62
     2
100
AcDbMText
 10
-51.93247427381195
 20
30.65707210725108
 30
0.0
 40
1.8
 41
0.0
 71
     5
 72
     1
  1
Schr\U+00f6der
  7
CONVERTER_11
 73
     1
 44
1.32052821128451
  0
MTEXT
  5
31F
330
74
100
AcDbEntity
  8
1
 62
     2
100
AcDbMText
 10
-65.43247427381189
 20
26.40707210725108
 30
0.0
 40
1.8
 41
0.0
 71
     5
 72
     1
  1
06.05.14
  7
CONVERTER_11
 73
     1
 44
1.32052821128451
  0
MTEXT
  5
320
330
74
100
AcDbEntity
  8
1
 62
     2
100
AcDbMText
 10
-65.43247427381189
 20
30.65707210725108
 30
0.0
 40
1.8
 41
0.0
 71
     5
 72
     1
  1
26.03.14
  7
CONVERTER_11
 73
     1
 44
1.32052821128451
  0
TEXT
  5
321
330
74
100
AcDbEntity
  8
1
 62
     7
100
AcDbText
 10
-29.2089265517981
 20
29.83207210725108
 30
0.0
 40
2.5
  1
/
 41
0.9
  7
CONVERTER_11
100
AcDbText
  0
TEXT
  5
323
330
74
100
AcDbEntity
  8
1
 62
     3
100
AcDbText
 10
3.9623302529401
 20
17.08207210725108
 30
0.0
 40
2.5
  1
 
 41
0.54
  7
CONVERTER_16
100
AcDbText
  0
MTEXT
  5
325
330
74
100
AcDbEntity
  8
1
 62
     7
100
AcDbMText
 10
1.3899279895636
 20
10.53207210725131
 30
0.0
 40
3.0
 41
0.0
 71
     5
 72
     1
  1
A-INL-M25-N-S
  7
CONVERTER_17
 73
     1
 44
1.20048019207683
  0
MTEXT
  5
326
330
74
100
AcDbEntity
  8
1
 62
     3
100
AcDbMText
 10
25.62153439377951
 20
29.83207210725119
 30
0.0
 40
2.5
 41
0.0
 71
     8
 72
     1
  1
2:1
  7
CONVERTER_13
 73
     1
 44
1.32052821128451
  0
TEXT
  5
327
330
74
100
AcDbEntity
  8
1
 62
     3
100
AcDbText
 10
-21.28247427381189
 20
29.83207210725108
 30
0.0
 40
2.5
  1
 
 41
0.54
  7
CONVERTER_16
100
AcDbText
  0
TEXT
  5
328
330
74
100
AcDbEntity
  8
1
 62
     7
100
AcDbText
 10
-43.6824742738121
 20
29.83207210725108
 30
0.0
 40
2.5
  1
1411243
 41
0.81
  7
CONVERTER_17
100
AcDbText
  0
TEXT
  5
329
330
74
100
AcDbEntity
  8
1
 62
     7
100
AcDbText
 10
-14.53766974705952
 20
17.08207210725108
 30
0.0
 40
2.5
  1
00784328
 41
0.81
  7
CONVERTER_17
100
AcDbText
  0
TEXT
  5
32A
330
74
100
AcDbEntity
  8
1
 62
     3
100
AcDbText
 10
31.080738534619
 20
29.83207210725108
 30
0.0
 40
2.5
  1
 
 41
0.54
  7
CONVERTER_16
100
AcDbText
  0
TEXT
  5
32C
330
74
100
AcDbEntity
  8
1
 62
     3
100
AcDbText
 10
-44.18247427381191
 20
17.08207210725108
 30
0.0
 40
2.5
  1
KUNDENZCHNG-SELECT
 41
0.45
  7
CONVERTER_18
100
AcDbText
  0
TEXT
  5
32D
330
74
100
AcDbEntity
  8
1
 62
     7
100
AcDbText
 10
-27.05256205475609
 20
29.83207210725108
 30
0.0
 40
2.5
  1
00
 41
0.81
  7
CONVERTER_17
100
AcDbText
  0
MTEXT
  5
32E
330
74
100
AcDbEntity
  8
1
 62
     3
100
AcDbMText
 10
-4.3306498604515
 20
27.63207210725108
 30
0.0
 40
2.0
 41
0.0
 71
     1
 72
     1
  1
 
  7
CONVERTER_13
 73
     1
 44
1.20048019207683
  0
HATCH
  5
32F
330
74
100
AcDbEntity
  8
1
  6
Continuous
 62
     2
100
AcDbHatch
 10
0.0
 20
0.0
 30
0.0
210
0.0
220
0.0
230
1.0
  2
_USER
 70
     0
 71
     1
 91
        1
 92
        1
 93
       14
 72
     2
 10
-68.30707817800794
 20
14.39397686916223
 40
0.9964100565214622
 50
164.9381082228799
 51
195.0618917770962
 73
     1
 72
     2
 10
-67.96069153051803
 20
14.48719204439762
 40
1.355119937140023
 50
195.0618917770909
 51
275.1581447696391
 73
     1
 72
     2
 10
-68.1994155757543
 20
17.13172971648158
 40
4.010410630990213
 50
275.1581447696246
 51
285.9799912583532
 73
     1
 72
     1
 10
-67.09534291697923
 20
13.27628979433213
 11
-67.09534291697923
 21
13.99737822970672
 72
     2
 10
-68.06894212526436
 20
15.55965155131817
 40
1.840813230556011
 50
58.0690910500376
 51
71.55192388186683
 73
     0
 72
     2
 10
-67.72334895694962
 20
14.52366330665935
 40
0.7487023016403824
 50
71.55192388184291
 51
113.3722778881291
 73
     0
 72
     2
 10
-67.85263824017443
 20
14.22449634904777
 40
0.422793438177528
 50
113.372277888174
 51
151.4785267423084
 73
     0
 72
     2
 10
-67.54077273762869
 20
14.39397686916223
 40
0.7777353184572794
 50
151.4785267422971
 51
208.5214732577313
 73
     0
 72
     2
 10
-67.85263824017443
 20
14.56345738927714
 40
0.4227934381775693
 50
208.5214732576904
 51
246.6277221118017
 73
     0
 72
     2
 10
-67.72334895694962
 20
14.26429043166509
 40
0.7487023016407717
 50
246.6277221118715
 51
288.4480761181457
 73
     0
 72
     2
 10
-68.06894212526436
 20
13.22830218700673
 40
1.840813230556617
 50
288.4480761181331
 51
301.9309089499624
 73
     0
 72
     1
 10
-67.09534291697923
 20
14.79057550861818
 11
-67.09534291697923
 21
15.51166394399277
 72
     2
 10
-68.1994155757543
 20
11.65622402184333
 40
4.010410630990089
 50
74.02000874164679
 51
84.84185523037543
 73
     1
 72
     2
 10
-67.96069153051803
 20
14.30076169392682
 40
1.355119937140908
 50
84.84185523036265
 51
164.9381082228906
 73
     1
 97
       14
330
2C3
330
14D
330
292
330
2C2
330
293
330
294
330
2C1
330
2C0
330
2BF
330
14E
330
295
330
296
330
297
330
298
 75
     1
 76
     0
 52
45.0
 41
0.1
 77
     0
 78
     1
 53
45.0
 43
0.0
 44
0.0
 45
-0.0707106781186548
 46
0.0707106781186548
 79
     0
 98
        1
 10
0.0
 20
0.0
  0
HATCH
  5
330
330
74
100
AcDbEntity
  8
1
  6
Continuous
 62
     2
100
AcDbHatch
 10
0.0
 20
0.0
 30
0.0
210
0.0
220
0.0
230
1.0
  2
_USER
 70
     0
 71
     1
 91
        1
 92
        1
 93
       14
 72
     2
 10
-68.30707817800794
 20
14.39397686916223
 40
0.9964100565214622
 50
164.9381082228799
 51
195.0618917770962
 73
     1
 72
     2
 10
-67.96069153051803
 20
14.48719204439762
 40
1.355119937140023
 50
195.0618917770909
 51
275.1581447696391
 73
     1
 72
     2
 10
-68.1994155757543
 20
17.13172971648158
 40
4.010410630990213
 50
275.1581447696246
 51
285.9799912583532
 73
     1
 72
     1
 10
-67.09534291697923
 20
13.27628979433213
 11
-67.09534291697923
 21
13.99737822970672
 72
     2
 10
-68.06894212526436
 20
15.55965155131817
 40
1.840813230556011
 50
58.0690910500376
 51
71.55192388186683
 73
     0
 72
     2
 10
-67.72334895694962
 20
14.52366330665935
 40
0.7487023016403824
 50
71.55192388184291
 51
113.3722778881291
 73
     0
 72
     2
 10
-67.85263824017443
 20
14.22449634904777
 40
0.422793438177528
 50
113.372277888174
 51
151.4785267423084
 73
     0
 72
     2
 10
-67.54077273762869
 20
14.39397686916223
 40
0.7777353184572794
 50
151.4785267422971
 51
208.5214732577313
 73
     0
 72
     2
 10
-67.85263824017443
 20
14.56345738927714
 40
0.4227934381775693
 50
208.5214732576904
 51
246.6277221118017
 73
     0
 72
     2
 10
-67.72334895694962
 20
14.26429043166509
 40
0.7487023016407717
 50
246.6277221118715
 51
288.4480761181457
 73
     0
 72
     2
 10
-68.06894212526436
 20
13.22830218700673
 40
1.840813230556617
 50
288.4480761181331
 51
301.9309089499624
 73
     0
 72
     1
 10
-67.09534291697923
 20
14.79057550861818
 11
-67.09534291697923
 21
15.51166394399277
 72
     2
 10
-68.1994155757543
 20
11.65622402184333
 40
4.010410630990089
 50
74.02000874164679
 51
84.84185523037543
 73
     1
 72
     2
 10
-67.96069153051803
 20
14.30076169392682
 40
1.355119937140908
 50
84.84185523036265
 51
164.9381082228906
 73
     1
 97
       14
330
2C3
330
14D
330
292
330
2C2
330
293
330
294
330
2C1
330
2C0
330
2BF
330
14E
330
295
330
296
330
297
330
298
 75
     1
 76
     0
 52
45.0
 41
0.1
 77
     0
 78
     1
 53
45.0
 43
0.0
 44
0.0
 45
-0.0707106781186548
 46
0.0707106781186548
 79
     0
 98
        1
 10
0.0
 20
0.0
  0
HATCH
  5
331
330
74
100
AcDbEntity
  8
1
  6
Continuous
 62
     2
100
AcDbHatch
 10
0.0
 20
0.0
 30
0.0
210
0.0
220
0.0
230
1.0
  2
_USER
 70
     0
 71
     1
 91
        1
 92
        1
 93
       18
 72
     2
 10
-54.65267377906935
 20
14.30076169392682
 40
1.355119937140591
 50
90.0
 51
164.9381082228992
 73
     1
 72
     2
 10
-54.99906042655834
 20
14.39397686916223
 40
0.996410056523109
 50
164.9381082229054
 51
195.0618917770958
 73
     1
 72
     2
 10
-54.65267377906935
 20
14.48719204439762
 40
1.355119937140895
 50
195.0618917771008
 51
275.158144769676
 73
     1
 72
     2
 10
-54.89139782430561
 20
17.13172971648158
 40
4.010410630990744
 50
275.1581447696369
 51
285.9799912583388
 73
     1
 72
     1
 10
-53.78732516553146
 20
13.27628979433169
 11
-53.78732516553146
 21
13.99737822970626
 72
     2
 10
-54.76092437381567
 20
15.55965155131771
 40
1.840813230556003
 50
58.06909105006183
 51
71.55192388186671
 73
     0
 72
     2
 10
-54.41533120550002
 20
14.52366330665935
 40
0.7487023016407038
 50
71.55192388192036
 51
113.372277888186
 73
     0
 72
     2
 10
-54.54462048872574
 20
14.22449634904777
 40
0.4227934381785468
 50
113.3722778881607
 51
151.4785267423125
 73
     0
 72
     2
 10
-54.23275498617909
 20
14.39397686916223
 40
0.777735318458663
 50
151.4785267423313
 51
208.5214732576382
 73
     0
 72
     2
 10
-54.54462048872574
 20
14.56345738927714
 40
0.4227934381772261
 50
208.521473257578
 51
250.662856780514
 73
     0
 72
     2
 10
-54.42340561425988
 20
14.21804005011771
 40
0.7888619891124407
 50
250.6628567805685
 51
270.0
 73
     0
 72
     1
 10
-54.42340561425988
 20
15.00690203923015
 11
-53.5113070195755
 21
15.00690203923015
 72
     1
 10
-53.5113070195755
 20
15.00690203923015
 11
-53.5113070195755
 21
13.13207210725704
 72
     1
 10
-53.5113070195755
 20
13.13207210725704
 11
-52.52552792687493
 21
13.13207210725704
 72
     1
 10
-52.52552792687493
 20
13.13207210725704
 11
-52.52552792687493
 21
15.00690203923015
 72
     1
 10
-52.52552792687493
 20
15.00690203923015
 11
-51.85519814383906
 21
15.00690203923015
 72
     1
 10
-51.85519814383906
 20
15.00690203923015
 11
-51.85519814383906
 21
15.65588163106787
 72
     1
 10
-51.85519814383906
 20
15.65588163106787
 11
-54.65267377906935
 21
15.65588163106741
 97
       18
330
1B3
330
1B2
330
1B1
330
1B0
330
1B5
330
14F
330
2BC
330
29D
330
2BB
330
29E
330
2BA
330
2B9
330
150
330
2B8
330
2B7
330
29F
330
2A0
330
1B4
 75
     1
 76
     0
 52
45.0
 41
0.1
 77
     0
 78
     1
 53
45.0
 43
0.0
 44
0.0
 45
-0.0707106781186548
 46
0.0707106781186548
 79
     0
 98
        1
 10
0.0
 20
0.0
  0
HATCH
  5
332
330
74
100
AcDbEntity
  8
1
  6
Continuous
 62
     2
100
AcDbHatch
 10
0.0
 20
0.0
 30
0.0
210
0.0
220
0.0
230
1.0
  2
_USER
 70
     0
 71
     1
 91
        1
 92
        1
 93
       18
 72
     2
 10
-54.65267377906935
 20
14.30076169392682
 40
1.355119937140591
 50
90.0
 51
164.9381082228992
 73
     1
 72
     2
 10
-54.99906042655834
 20
14.39397686916223
 40
0.996410056523109
 50
164.9381082229054
 51
195.0618917770958
 73
     1
 72
     2
 10
-54.65267377906935
 20
14.48719204439762
 40
1.355119937140895
 50
195.0618917771008
 51
275.158144769676
 73
     1
 72
     2
 10
-54.89139782430561
 20
17.13172971648158
 40
4.010410630990744
 50
275.1581447696369
 51
285.9799912583388
 73
     1
 72
     1
 10
-53.78732516553146
 20
13.27628979433169
 11
-53.78732516553146
 21
13.99737822970626
 72
     2
 10
-54.76092437381567
 20
15.55965155131771
 40
1.840813230556003
 50
58.06909105006183
 51
71.55192388186671
 73
     0
 72
     2
 10
-54.41533120550002
 20
14.52366330665935
 40
0.7487023016407038
 50
71.55192388192036
 51
113.372277888186
 73
     0
 72
     2
 10
-54.54462048872574
 20
14.22449634904777
 40
0.4227934381785468
 50
113.3722778881607
 51
151.4785267423125
 73
     0
 72
     2
 10
-54.23275498617909
 20
14.39397686916223
 40
0.777735318458663
 50
151.4785267423313
 51
208.5214732576382
 73
     0
 72
     2
 10
-54.54462048872574
 20
14.56345738927714
 40
0.4227934381772261
 50
208.521473257578
 51
250.662856780514
 73
     0
 72
     2
 10
-54.42340561425988
 20
14.21804005011771
 40
0.7888619891124407
 50
250.6628567805685
 51
270.0
 73
     0
 72
     1
 10
-54.42340561425988
 20
15.00690203923015
 11
-53.5113070195755
 21
15.00690203923015
 72
     1
 10
-53.5113070195755
 20
15.00690203923015
 11
-53.5113070195755
 21
13.13207210725704
 72
     1
 10
-53.5113070195755
 20
13.13207210725704
 11
-52.52552792687493
 21
13.13207210725704
 72
     1
 10
-52.52552792687493
 20
13.13207210725704
 11
-52.52552792687493
 21
15.00690203923015
 72
     1
 10
-52.52552792687493
 20
15.00690203923015
 11
-51.85519814383906
 21
15.00690203923015
 72
     1
 10
-51.85519814383906
 20
15.00690203923015
 11
-51.85519814383906
 21
15.65588163106787
 72
     1
 10
-51.85519814383906
 20
15.65588163106787
 11
-54.65267377906935
 21
15.65588163106741
 97
       18
330
1B3
330
1B2
330
1B1
330
1B0
330
1B5
330
14F
330
2BC
330
29D
330
2BB
330
29E
330
2BA
330
2B9
330
150
330
2B8
330
2B7
330
29F
330
2A0
330
1B4
 75
     1
 76
     0
 52
45.0
 41
0.1
 77
     0
 78
     1
 53
45.0
 43
0.0
 44
0.0
 45
-0.0707106781186548
 46
0.0707106781186548
 79
     0
 98
        1
 10
0.0
 20
0.0
  0
HATCH
  5
333
330
74
100
AcDbEntity
  8
1
  6
Continuous
 62
     2
100
AcDbHatch
 10
0.0
 20
0.0
 30
0.0
210
0.0
220
0.0
230
1.0
  2
_USER
 70
     0
 71
     1
 91
        4
 92
        1
 93
        8
 72
     2
 10
-74.57181352840246
 20
18.08145672261529
 40
0.3506153846147413
 50
90.0
 51
180.0
 73
     1
 72
     1
 10
-74.92242891301635
 20
18.08145672261529
 11
-74.92242891301635
 21
13.48268749187132
 72
     2
 10
-74.57181352840246
 20
13.48268749187132
 40
0.3506153846138886
 50
180.0
 51
270.0
 73
     1
 72
     1
 10
-74.57181352840246
 20
13.13207210725704
 11
-70.04841510632241
 21
13.13207210725704
 72
     2
 10
-70.04841510632241
 20
13.48268749187132
 40
0.3506153846142812
 50
270.0
 51
360.0
 73
     1
 72
     1
 10
-69.69779972170761
 20
13.48268749187132
 11
-69.69779972170761
 21
18.08145672261529
 72
     2
 10
-70.04841510632241
 20
18.08145672261529
 40
0.3506153846147981
 50
0.0
 51
90.0
 73
     1
 72
     1
 10
-70.04841510632241
 20
18.43207210723003
 11
-74.57181352840246
 21
18.43207210723003
 97
        8
330
2B0
330
17E
330
2AF
330
17F
330
2A6
330
17C
330
2B1
330
17D
 92
       16
 93
        1
 72
     2
 10
-72.4068667097929
 20
16.16502512893305
 40
0.3892387874202541
 50
0.0
 51
360.0
 73
     1
 97
        1
330
2C4
 92
       16
 93
        8
 72
     2
 10
-72.38718487948483
 20
16.16502512893305
 40
0.7535935125160986
 50
295.374008678178
 51
424.6259913218071
 73
     1
 72
     2
 10
-71.9524388480072
 20
17.08167107931967
 40
0.2609230769229498
 50
115.3740086783601
 51
180.0
 73
     0
 72
     1
 10
-72.21336192493015
 20
17.08167107931967
 11
-72.21336192493015
 21
17.58211346651534
 72
     2
 10
-71.9524388480072
 20
17.58211346651534
 40
0.2609230769224181
 50
180.0
 51
269.8110329574465
 73
     0
 72
     2
 10
-71.94779741386674
 20
16.17481185695416
 40
1.668232340440702
 50
269.8110329575862
 51
450.1889670424138
 73
     0
 72
     2
 10
-71.9524388480072
 20
14.76751024739299
 40
0.2609230769229498
 50
90.18896704255353
 51
180.0
 73
     0
 72
     1
 10
-72.21336192493015
 20
14.76751024739299
 11
-72.21336192493015
 21
15.24837917854596
 72
     2
 10
-71.9524388480072
 20
15.24837917854596
 40
0.2609230769227325
 50
180.0
 51
244.625991321641
 73
     0
 97
        8
330
2BE
330
29A
330
1B7
330
2BD
330
29B
330
29C
330
1B6
330
299
 92
       16
 93
       12
 72
     1
 10
-74.0809914815045
 20
13.72096099614706
 11
-72.86129457157926
 21
13.72096099614706
 72
     2
 10
-72.86129457157926
 20
13.98188407306995
 40
0.2609230769228894
 50
270.0
 51
360.0
 73
     1
 72
     1
 10
-72.60037149465643
 20
13.98188407306995
 11
-72.60037149465643
 21
15.24698401648451
 72
     2
 10
-72.86129457157926
 20
15.24698401648451
 40
0.2609230769228361
 50
0.0
 51
64.8055893514401
 73
     1
 72
     2
 10
-72.42940659837677
 20
16.16502512893305
 40
0.7536343169897688
 50
115.1944106485086
 51
244.8055893514766
 73
     0
 72
     2
 10
-72.86129457157926
 20
17.08306624138113
 40
0.2609230769224065
 50
295.1944106485601
 51
360.0
 73
     1
 72
     1
 10
-72.60037149465643
 20
17.08306624138113
 11
-72.60037149465643
 21
17.58226014143119
 72
     2
 10
-72.86129457157926
 20
17.58226014143119
 40
0.2609230769228361
 50
0.0
 51
90.0
 73
     1
 72
     1
 10
-72.86129457157926
 20
17.84318321835364
 11
-74.0809914815045
 21
17.84318321835364
 72
     2
 10
-74.0809914815045
 20
17.58226014143119
 40
0.2609230769224524
 50
90.0
 51
180.0
 73
     1
 72
     1
 10
-74.34191455842654
 20
17.58226014143119
 11
-74.34191455842654
 21
13.98188407306995
 72
     2
 10
-74.0809914815045
 20
13.98188407306995
 40
0.2609230769220403
 50
180.0
 51
270.0
 73
     1
 97
       12
330
183
330
2A3
330
182
330
2B4
330
181
330
2B3
330
2A4
330
2A5
330
180
330
2B2
330
17B
330
2B5
 75
     1
 76
     0
 52
45.0
 41
0.1
 77
     0
 78
     1
 53
45.0
 43
0.0
 44
0.0
 45
-0.0707106781186548
 46
0.0707106781186548
 79
     0
 98
        1
 10
0.0
 20
0.0
  0
HATCH
  5
334
330
74
100
AcDbEntity
  8
1
  6
Continuous
 62
     2
100
AcDbHatch
 10
0.0
 20
0.0
 30
0.0
210
0.0
220
0.0
230
1.0
  2
_USER
 70
     0
 71
     1
 91
        4
 92
        1
 93
        8
 72
     2
 10
-74.57181352840246
 20
18.08145672261529
 40
0.3506153846147413
 50
90.0
 51
180.0
 73
     1
 72
     1
 10
-74.92242891301635
 20
18.08145672261529
 11
-74.92242891301635
 21
13.48268749187132
 72
     2
 10
-74.57181352840246
 20
13.48268749187132
 40
0.3506153846138886
 50
180.0
 51
270.0
 73
     1
 72
     1
 10
-74.57181352840246
 20
13.13207210725704
 11
-70.04841510632241
 21
13.13207210725704
 72
     2
 10
-70.04841510632241
 20
13.48268749187132
 40
0.3506153846142812
 50
270.0
 51
360.0
 73
     1
 72
     1
 10
-69.69779972170761
 20
13.48268749187132
 11
-69.69779972170761
 21
18.08145672261529
 72
     2
 10
-70.04841510632241
 20
18.08145672261529
 40
0.3506153846147981
 50
0.0
 51
90.0
 73
     1
 72
     1
 10
-70.04841510632241
 20
18.43207210723003
 11
-74.57181352840246
 21
18.43207210723003
 97
        8
330
2B0
330
17E
330
2AF
330
17F
330
2A6
330
17C
330
2B1
330
17D
 92
       16
 93
        1
 72
     2
 10
-72.4068667097929
 20
16.16502512893305
 40
0.3892387874202541
 50
0.0
 51
360.0
 73
     1
 97
        1
330
2C4
 92
       16
 93
        8
 72
     2
 10
-72.38718487948483
 20
16.16502512893305
 40
0.7535935125160986
 50
295.374008678178
 51
424.6259913218071
 73
     1
 72
     2
 10
-71.9524388480072
 20
17.08167107931967
 40
0.2609230769229498
 50
115.3740086783601
 51
180.0
 73
     0
 72
     1
 10
-72.21336192493015
 20
17.08167107931967
 11
-72.21336192493015
 21
17.58211346651534
 72
     2
 10
-71.9524388480072
 20
17.58211346651534
 40
0.2609230769224181
 50
180.0
 51
269.8110329574465
 73
     0
 72
     2
 10
-71.94779741386674
 20
16.17481185695416
 40
1.668232340440702
 50
269.8110329575862
 51
450.1889670424138
 73
     0
 72
     2
 10
-71.9524388480072
 20
14.76751024739299
 40
0.2609230769229498
 50
90.18896704255353
 51
180.0
 73
     0
 72
     1
 10
-72.21336192493015
 20
14.76751024739299
 11
-72.21336192493015
 21
15.24837917854596
 72
     2
 10
-71.9524388480072
 20
15.24837917854596
 40
0.2609230769227325
 50
180.0
 51
244.625991321641
 73
     0
 97
        8
330
2BE
330
29A
330
1B7
330
2BD
330
29B
330
29C
330
1B6
330
299
 92
       16
 93
       12
 72
     1
 10
-74.0809914815045
 20
13.72096099614706
 11
-72.86129457157926
 21
13.72096099614706
 72
     2
 10
-72.86129457157926
 20
13.98188407306995
 40
0.2609230769228894
 50
270.0
 51
360.0
 73
     1
 72
     1
 10
-72.60037149465643
 20
13.98188407306995
 11
-72.60037149465643
 21
15.24698401648451
 72
     2
 10
-72.86129457157926
 20
15.24698401648451
 40
0.2609230769228361
 50
0.0
 51
64.8055893514401
 73
     1
 72
     2
 10
-72.42940659837677
 20
16.16502512893305
 40
0.7536343169897688
 50
115.1944106485086
 51
244.8055893514766
 73
     0
 72
     2
 10
-72.86129457157926
 20
17.08306624138113
 40
0.2609230769224065
 50
295.1944106485601
 51
360.0
 73
     1
 72
     1
 10
-72.60037149465643
 20
17.08306624138113
 11
-72.60037149465643
 21
17.58226014143119
 72
     2
 10
-72.86129457157926
 20
17.58226014143119
 40
0.2609230769228361
 50
0.0
 51
90.0
 73
     1
 72
     1
 10
-72.86129457157926
 20
17.84318321835364
 11
-74.0809914815045
 21
17.84318321835364
 72
     2
 10
-74.0809914815045
 20
17.58226014143119
 40
0.2609230769224524
 50
90.0
 51
180.0
 73
     1
 72
     1
 10
-74.34191455842654
 20
17.58226014143119
 11
-74.34191455842654
 21
13.98188407306995
 72
     2
 10
-74.0809914815045
 20
13.98188407306995
 40
0.2609230769220403
 50
180.0
 51
270.0
 73
     1
 97
       12
330
183
330
2A3
330
182
330
2B4
330
181
330
2B3
330
2A4
330
2A5
330
180
330
2B2
330
17B
330
2B5
 75
     1
 76
     0
 52
45.0
 41
0.1
 77
     0
 78
     1
 53
45.0
 43
0.0
 44
0.0
 45
-0.0707106781186548
 46
0.0707106781186548
 79
     0
 98
        1
 10
0.0
 20
0.0
  0
HATCH
  5
335
330
74
100
AcDbEntity
  8
1
  6
Continuous
 62
     2
100
AcDbHatch
 10
0.0
 20
0.0
 30
0.0
210
0.0
220
0.0
230
1.0
  2
_USER
 70
     0
 71
     1
 91
        2
 92
        1
 93
       12
 72
     2
 10
-62.44357881436167
 20
17.17016734533938
 40
1.26190476190564
 50
90.0
 51
270.0
 73
     1
 72
     1
 10
-62.44357881436167
 20
15.90826258343419
 11
-59.84000879470796
 21
15.90826258343419
 72
     1
 10
-59.84000879470796
 20
15.90826258343419
 11
-59.84000879470796
 21
16.48513333173368
 72
     1
 10
-59.84000879470796
 20
16.48513333173368
 11
-60.94408137853247
 21
16.48513333173368
 72
     1
 10
-60.94408137853247
 20
16.48513333173368
 11
-60.94408137853247
 21
16.88173197118964
 72
     1
 10
-60.94408137853247
 20
16.88173197118964
 11
-59.84000879470796
 21
16.88173197118964
 72
     1
 10
-59.84000879470796
 20
16.88173197118964
 11
-59.84000879470796
 21
17.45860271948912
 72
     1
 10
-59.84000879470796
 20
17.45860271948912
 11
-60.94408137853247
 21
17.45860271948912
 72
     1
 10
-60.94408137853247
 20
17.45860271948912
 11
-60.94408137853247
 21
17.85520135894508
 72
     1
 10
-60.94408137853247
 20
17.85520135894508
 11
-59.84000879470796
 21
17.85520135894508
 72
     1
 10
-59.84000879470796
 20
17.85520135894508
 11
-59.84000879470796
 21
18.43207210724502
 72
     1
 10
-59.84000879470796
 20
18.43207210724502
 11
-62.44357881436167
 21
18.43207210724502
 97
       12
330
172
330
16C
330
193
330
192
330
191
330
190
330
16D
330
16E
330
16F
330
170
330
2A1
330
171
 92
       16
 93
        4
 72
     2
 10
-62.09976720567454
 20
17.17016734533938
 40
0.6378510567600056
 50
141.8795802028417
 51
218.1204197971583
 73
     1
 72
     2
 10
-62.26484161587803
 20
17.04063744606625
 40
0.4280236140606851
 50
218.1204197971433
 51
321.8795802028561
 73
     1
 72
     2
 10
-62.42991602608151
 20
17.17016734533938
 40
0.6378510567599944
 50
321.8795802028409
 51
398.1204197971591
 73
     1
 72
     2
 10
-62.26484161587803
 20
17.2996972446125
 40
0.4280236140606861
 50
38.12041979714503
 51
141.8795802028555
 73
     1
 97
        4
330
2AE
330
2AD
330
2A8
330
2A7
 75
     1
 76
     0
 52
45.0
 41
0.1
 77
     0
 78
     1
 53
45.0
 43
0.0
 44
0.0
 45
-0.0707106781186548
 46
0.0707106781186548
 79
     0
 98
        1
 10
0.0
 20
0.0
  0
HATCH
  5
336
330
74
100
AcDbEntity
  8
1
  6
Continuous
 62
     2
100
AcDbHatch
 10
0.0
 20
0.0
 30
0.0
210
0.0
220
0.0
230
1.0
  2
_USER
 70
     0
 71
     1
 91
        2
 92
        1
 93
       12
 72
     2
 10
-62.44357881436167
 20
17.17016734533938
 40
1.26190476190564
 50
90.0
 51
270.0
 73
     1
 72
     1
 10
-62.44357881436167
 20
15.90826258343419
 11
-59.84000879470796
 21
15.90826258343419
 72
     1
 10
-59.84000879470796
 20
15.90826258343419
 11
-59.84000879470796
 21
16.48513333173368
 72
     1
 10
-59.84000879470796
 20
16.48513333173368
 11
-60.94408137853247
 21
16.48513333173368
 72
     1
 10
-60.94408137853247
 20
16.48513333173368
 11
-60.94408137853247
 21
16.88173197118964
 72
     1
 10
-60.94408137853247
 20
16.88173197118964
 11
-59.84000879470796
 21
16.88173197118964
 72
     1
 10
-59.84000879470796
 20
16.88173197118964
 11
-59.84000879470796
 21
17.45860271948912
 72
     1
 10
-59.84000879470796
 20
17.45860271948912
 11
-60.94408137853247
 21
17.45860271948912
 72
     1
 10
-60.94408137853247
 20
17.45860271948912
 11
-60.94408137853247
 21
17.85520135894508
 72
     1
 10
-60.94408137853247
 20
17.85520135894508
 11
-59.84000879470796
 21
17.85520135894508
 72
     1
 10
-59.84000879470796
 20
17.85520135894508
 11
-59.84000879470796
 21
18.43207210724502
 72
     1
 10
-59.84000879470796
 20
18.43207210724502
 11
-62.44357881436167
 21
18.43207210724502
 97
       12
330
172
330
16C
330
193
330
192
330
191
330
190
330
16D
330
16E
330
16F
330
170
330
2A1
330
171
 92
       16
 93
        4
 72
     2
 10
-62.09976720567454
 20
17.17016734533938
 40
0.6378510567600056
 50
141.8795802028417
 51
218.1204197971583
 73
     1
 72
     2
 10
-62.26484161587803
 20
17.04063744606625
 40
0.4280236140606851
 50
218.1204197971433
 51
321.8795802028561
 73
     1
 72
     2
 10
-62.42991602608151
 20
17.17016734533938
 40
0.6378510567599944
 50
321.8795802028409
 51
398.1204197971591
 73
     1
 72
     2
 10
-62.26484161587803
 20
17.2996972446125
 40
0.4280236140606861
 50
38.12041979714503
 51
141.8795802028555
 73
     1
 97
        4
330
2AE
330
2AD
330
2A8
330
2A7
 75
     1
 76
     0
 52
45.0
 41
0.1
 77
     0
 78
     1
 53
45.0
 43
0.0
 44
0.0
 45
-0.0707106781186548
 46
0.0707106781186548
 79
     0
 98
        1
 10
0.0
 20
0.0
  0
HATCH
  5
337
330
74
100
AcDbEntity
  8
1
  6
Continuous
 62
     2
100
AcDbHatch
 10
0.0
 20
0.0
 30
0.0
210
0.0
220
0.0
230
1.0
  2
_USER
 70
     0
 71
     1
 91
        2
 92
        1
 93
        4
 72
     2
 10
-65.77053365937127
 20
14.39397686916223
 40
1.204986845992994
 50
117.5481481756635
 51
242.451851824337
 73
     1
 72
     2
 10
-65.53835193058342
 20
14.8390801834625
 40
1.70700807620544
 50
242.4518518243401
 51
297.548148175687
 73
     1
 72
     2
 10
-65.30617020179557
 20
14.39397686916223
 40
1.204986845993433
 50
297.5481481757013
 51
422.4518518242982
 73
     1
 72
     2
 10
-65.53835193058342
 20
13.94887355486241
 40
1.707008076205444
 50
62.45185182430569
 51
117.5481481756673
 73
     1
 97
        4
330
2AC
330
2A9
330
2AB
330
2AA
 92
       16
 93
        4
 72
     2
 10
-65.53835193058342
 20
14.52350676843535
 40
0.4280236140605955
 50
38.12041979715423
 51
141.8795802028552
 73
     1
 72
     2
 10
-65.37327752038004
 20
14.39397686916223
 40
0.6378510567599095
 50
141.8795802028351
 51
218.1204197971658
 73
     1
 72
     2
 10
-65.53835193058342
 20
14.26444696988955
 40
0.4280236140609635
 50
218.1204197971923
 51
321.8795802027983
 73
     1
 72
     2
 10
-65.70342634078702
 20
14.39397686916223
 40
0.6378510567600066
 50
321.8795802028405
 51
398.1204197971587
 73
     1
 97
        4
330
28F
330
290
330
291
330
28E
 75
     1
 76
     0
 52
45.0
 41
0.1
 77
     0
 78
     1
 53
45.0
 43
0.0
 44
0.0
 45
-0.0707106781186548
 46
0.0707106781186548
 79
     0
 98
        1
 10
0.0
 20
0.0
  0
HATCH
  5
338
330
74
100
AcDbEntity
  8
1
  6
Continuous
 62
     2
100
AcDbHatch
 10
0.0
 20
0.0
 30
0.0
210
0.0
220
0.0
230
1.0
  2
_USER
 70
     0
 71
     1
 91
        2
 92
        1
 93
        4
 72
     2
 10
-65.77053365937127
 20
14.39397686916223
 40
1.204986845992994
 50
117.5481481756635
 51
242.451851824337
 73
     1
 72
     2
 10
-65.53835193058342
 20
14.8390801834625
 40
1.70700807620544
 50
242.4518518243401
 51
297.548148175687
 73
     1
 72
     2
 10
-65.30617020179557
 20
14.39397686916223
 40
1.204986845993433
 50
297.5481481757013
 51
422.4518518242982
 73
     1
 72
     2
 10
-65.53835193058342
 20
13.94887355486241
 40
1.707008076205444
 50
62.45185182430569
 51
117.5481481756673
 73
     1
 97
        4
330
2AC
330
2A9
330
2AB
330
2AA
 92
       16
 93
        4
 72
     2
 10
-65.53835193058342
 20
14.52350676843535
 40
0.4280236140605955
 50
38.12041979715423
 51
141.8795802028552
 73
     1
 72
     2
 10
-65.37327752038004
 20
14.39397686916223
 40
0.6378510567599095
 50
141.8795802028351
 51
218.1204197971658
 73
     1
 72
     2
 10
-65.53835193058342
 20
14.26444696988955
 40
0.4280236140609635
 50
218.1204197971923
 51
321.8795802027983
 73
     1
 72
     2
 10
-65.70342634078702
 20
14.39397686916223
 40
0.6378510567600066
 50
321.8795802028405
 51
398.1204197971587
 73
     1
 97
        4
330
28F
330
290
330
291
330
28E
 75
     1
 76
     0
 52
45.0
 41
0.1
 77
     0
 78
     1
 53
45.0
 43
0.0
 44
0.0
 45
-0.0707106781186548
 46
0.0707106781186548
 79
     0
 98
        1
 10
0.0
 20
0.0
  0
HATCH
  5
339
330
74
100
AcDbEntity
  8
1
  6
Continuous
 62
     2
100
AcDbHatch
 10
0.0
 20
0.0
 30
0.0
210
0.0
220
0.0
230
1.0
  2
_USER
 70
     0
 71
     1
 91
        2
 92
        1
 93
        6
 72
     1
 10
-69.30348808462759
 20
18.43207210724502
 11
-69.30348808462759
 21
15.90826258343419
 72
     1
 10
-69.30348808462759
 20
15.90826258343419
 11
-68.2782778282193
 21
15.90826258343419
 72
     1
 10
-68.2782778282193
 20
15.90826258343419
 11
-68.2782778282193
 21
16.68766608851166
 72
     1
 10
-68.2782778282193
 20
16.68766608851166
 11
-67.65119717716118
 21
16.68766608851166
 72
     2
 10
-67.65119717716118
 20
17.55986909787833
 40
0.8722030093666717
 50
270.0
 51
450.0
 73
     1
 72
     1
 10
-67.65119717716118
 20
18.43207210724502
 11
-69.30348808462759
 21
18.43207210724502
 97
        6
330
2B6
330
184
330
17A
330
179
330
186
330
185
 92
       16
 93
        4
 72
     1
 10
-68.01605050463093
 20
17.88405074737721
 11
-68.2782778282193
 21
17.88405074737721
 72
     1
 10
-68.2782778282193
 20
17.88405074737721
 11
-68.2782778282193
 21
17.30080475618525
 72
     1
 10
-68.2782778282193
 20
17.30080475618525
 11
-68.01605050463093
 21
17.30080475618525
 72
     2
 10
-68.01605050463093
 20
17.59242775178124
 40
0.2916229955959899
 50
270.0
 51
450.0
 73
     1
 97
        4
330
187
330
178
330
188
330
2A2
 75
     1
 76
     0
 52
45.0
 41
0.1
 77
     0
 78
     1
 53
45.0
 43
0.0
 44
0.0
 45
-0.0707106781186548
 46
0.0707106781186548
 79
     0
 98
        1
 10
0.0
 20
0.0
  0
HATCH
  5
33A
330
74
100
AcDbEntity
  8
1
  6
Continuous
 62
     2
100
AcDbHatch
 10
0.0
 20
0.0
 30
0.0
210
0.0
220
0.0
230
1.0
  2
_USER
 70
     0
 71
     1
 91
        2
 92
        1
 93
        6
 72
     1
 10
-69.30348808462759
 20
18.43207210724502
 11
-69.30348808462759
 21
15.90826258343419
 72
     1
 10
-69.30348808462759
 20
15.90826258343419
 11
-68.2782778282193
 21
15.90826258343419
 72
     1
 10
-68.2782778282193
 20
15.90826258343419
 11
-68.2782778282193
 21
16.68766608851166
 72
     1
 10
-68.2782778282193
 20
16.68766608851166
 11
-67.65119717716118
 21
16.68766608851166
 72
     2
 10
-67.65119717716118
 20
17.55986909787833
 40
0.8722030093666717
 50
270.0
 51
450.0
 73
     1
 72
     1
 10
-67.65119717716118
 20
18.43207210724502
 11
-69.30348808462759
 21
18.43207210724502
 97
        6
330
2B6
330
184
330
17A
330
179
330
186
330
185
 92
       16
 93
        4
 72
     1
 10
-68.01605050463093
 20
17.88405074737721
 11
-68.2782778282193
 21
17.88405074737721
 72
     1
 10
-68.2782778282193
 20
17.88405074737721
 11
-68.2782778282193
 21
17.30080475618525
 72
     1
 10
-68.2782778282193
 20
17.30080475618525
 11
-68.01605050463093
 21
17.30080475618525
 72
     2
 10
-68.01605050463093
 20
17.59242775178124
 40
0.2916229955959899
 50
270.0
 51
450.0
 73
     1
 97
        4
330
187
330
178
330
188
330
2A2
 75
     1
 76
     0
 52
45.0
 41
0.1
 77
     0
 78
     1
 53
45.0
 43
0.0
 44
0.0
 45
-0.0707106781186548
 46
0.0707106781186548
 79
     0
 98
        1
 10
0.0
 20
0.0
  0
HATCH
  5
33B
330
74
100
AcDbEntity
  8
1
  6
Continuous
 62
     2
100
AcDbHatch
 10
0.0
 20
0.0
 30
0.0
210
0.0
220
0.0
230
1.0
  2
_USER
 70
     0
 71
     1
 91
        1
 92
        1
 93
       12
 72
     1
 10
-53.09333668426962
 20
18.43207210724502
 11
-51.93406047125541
 21
18.43207210724502
 72
     1
 10
-51.93406047125541
 20
18.43207210724502
 11
-53.01053124048394
 21
17.2147576196118
 72
     1
 10
-53.01053124048394
 20
17.2147576196118
 11
-51.85519814383906
 21
15.90826258343419
 72
     1
 10
-51.85519814383906
 20
15.90826258343419
 11
-53.01447435685418
 21
15.90826258343419
 72
     1
 10
-53.01447435685418
 20
15.90826258343419
 11
-53.59016934699093
 21
16.55928058780913
 72
     1
 10
-53.59016934699093
 20
16.55928058780913
 11
-54.16586433712791
 21
15.90826258343419
 72
     1
 10
-54.16586433712791
 20
15.90826258343419
 11
-55.32514055014292
 21
15.90826258343419
 72
     1
 10
-55.32514055014292
 20
15.90826258343419
 11
-54.16980745349804
 21
17.2147576196118
 72
     1
 10
-54.16980745349804
 20
17.2147576196118
 11
-55.24627822272737
 21
18.43207210724502
 72
     1
 10
-55.24627822272737
 20
18.43207210724502
 11
-54.08700200971146
 21
18.43207210724502
 72
     1
 10
-54.08700200971146
 20
18.43207210724502
 11
-53.59016934699093
 21
17.87023465141403
 72
     1
 10
-53.59016934699093
 20
17.87023465141403
 11
-53.09333668426962
 21
18.43207210724502
 97
       12
330
153
330
1AC
330
1AB
330
1AA
330
1A9
330
154
330
155
330
151
330
152
330
1AF
330
1AE
330
1AD
 75
     1
 76
     0
 52
45.0
 41
0.1
 77
     0
 78
     1
 53
45.0
 43
0.0
 44
0.0
 45
-0.0707106781186548
 46
0.0707106781186548
 79
     0
 98
        1
 10
0.0
 20
0.0
  0
HATCH
  5
33C
330
74
100
AcDbEntity
  8
1
  6
Continuous
 62
     2
100
AcDbHatch
 10
0.0
 20
0.0
 30
0.0
210
0.0
220
0.0
230
1.0
  2
_USER
 70
     0
 71
     1
 91
        1
 92
        1
 93
       12
 72
     1
 10
-53.09333668426962
 20
18.43207210724502
 11
-51.93406047125541
 21
18.43207210724502
 72
     1
 10
-51.93406047125541
 20
18.43207210724502
 11
-53.01053124048394
 21
17.2147576196118
 72
     1
 10
-53.01053124048394
 20
17.2147576196118
 11
-51.85519814383906
 21
15.90826258343419
 72
     1
 10
-51.85519814383906
 20
15.90826258343419
 11
-53.01447435685418
 21
15.90826258343419
 72
     1
 10
-53.01447435685418
 20
15.90826258343419
 11
-53.59016934699093
 21
16.55928058780913
 72
     1
 10
-53.59016934699093
 20
16.55928058780913
 11
-54.16586433712791
 21
15.90826258343419
 72
     1
 10
-54.16586433712791
 20
15.90826258343419
 11
-55.32514055014292
 21
15.90826258343419
 72
     1
 10
-55.32514055014292
 20
15.90826258343419
 11
-54.16980745349804
 21
17.2147576196118
 72
     1
 10
-54.16980745349804
 20
17.2147576196118
 11
-55.24627822272737
 21
18.43207210724502
 72
     1
 10
-55.24627822272737
 20
18.43207210724502
 11
-54.08700200971146
 21
18.43207210724502
 72
     1
 10
-54.08700200971146
 20
18.43207210724502
 11
-53.59016934699093
 21
17.87023465141403
 72
     1
 10
-53.59016934699093
 20
17.87023465141403
 11
-53.09333668426962
 21
18.43207210724502
 97
       12
330
153
330
1AC
330
1AB
330
1AA
330
1A9
330
154
330
155
330
151
330
152
330
1AF
330
1AE
330
1AD
 75
     1
 76
     0
 52
45.0
 41
0.1
 77
     0
 78
     1
 53
45.0
 43
0.0
 44
0.0
 45
-0.0707106781186548
 46
0.0707106781186548
 79
     0
 98
        1
 10
0.0
 20
0.0
  0
HATCH
  5
33D
330
74
100
AcDbEntity
  8
1
  6
Continuous
 62
     2
100
AcDbHatch
 10
0.0
 20
0.0
 30
0.0
210
0.0
220
0.0
230
1.0
  2
_USER
 70
     0
 71
     1
 91
        1
 92
        1
 93
        4
 72
     1
 10
-55.42371845941307
 20
18.43207210724502
 11
-55.42371845941307
 21
15.90826258343419
 72
     1
 10
-55.42371845941307
 20
15.90826258343419
 11
-56.44892871582044
 21
15.90826258343419
 72
     1
 10
-56.44892871582044
 20
15.90826258343419
 11
-56.44892871582044
 21
18.43207210724502
 72
     1
 10
-56.44892871582044
 20
18.43207210724502
 11
-55.42371845941307
 21
18.43207210724502
 97
        4
330
1A7
330
156
330
1A6
330
1A8
 75
     1
 76
     0
 52
45.0
 41
0.1
 77
     0
 78
     1
 53
45.0
 43
0.0
 44
0.0
 45
-0.0707106781186548
 46
0.0707106781186548
 79
     0
 98
        1
 10
0.0
 20
0.0
  0
HATCH
  5
33E
330
74
100
AcDbEntity
  8
1
  6
Continuous
 62
     2
100
AcDbHatch
 10
0.0
 20
0.0
 30
0.0
210
0.0
220
0.0
230
1.0
  2
_USER
 70
     0
 71
     1
 91
        1
 92
        1
 93
        4
 72
     1
 10
-55.42371845941307
 20
18.43207210724502
 11
-55.42371845941307
 21
15.90826258343419
 72
     1
 10
-55.42371845941307
 20
15.90826258343419
 11
-56.44892871582044
 21
15.90826258343419
 72
     1
 10
-56.44892871582044
 20
15.90826258343419
 11
-56.44892871582044
 21
18.43207210724502
 72
     1
 10
-56.44892871582044
 20
18.43207210724502
 11
-55.42371845941307
 21
18.43207210724502
 97
        4
330
1A7
330
156
330
1A6
330
1A8
 75
     1
 76
     0
 52
45.0
 41
0.1
 77
     0
 78
     1
 53
45.0
 43
0.0
 44
0.0
 45
-0.0707106781186548
 46
0.0707106781186548
 79
     0
 98
        1
 10
0.0
 20
0.0
  0
HATCH
  5
33F
330
74
100
AcDbEntity
  8
1
  6
Continuous
 62
     2
100
AcDbHatch
 10
0.0
 20
0.0
 30
0.0
210
0.0
220
0.0
230
1.0
  2
_USER
 70
     0
 71
     1
 91
        2
 92
        1
 93
        8
 72
     1
 10
-55.74639945406761
 20
13.13207210725704
 11
-56.77160971047579
 21
13.13207210725704
 72
     1
 10
-56.77160971047579
 20
13.13207210725704
 11
-56.9463866141748
 21
13.57914693718916
 72
     1
 10
-56.9463866141748
 20
13.57914693718916
 11
-57.88228874365734
 21
13.57914693718916
 72
     1
 10
-57.88228874365734
 20
13.57914693718916
 11
-58.05706564735635
 21
13.13207210725704
 72
     1
 10
-58.05706564735635
 20
13.13207210725704
 11
-59.08227590376373
 21
13.13207210725704
 72
     1
 10
-59.08227590376373
 20
13.13207210725704
 11
-57.92694280711976
 21
15.65588163106787
 72
     1
 10
-57.92694280711976
 20
15.65588163106787
 11
-56.9017325507125
 21
15.65588163106787
 72
     1
 10
-56.9017325507125
 20
15.65588163106787
 11
-55.74639945406761
 21
13.13207210725704
 97
        8
330
1A2
330
15C
330
1A1
330
1A4
330
159
330
1A3
330
15A
330
15B
 92
       16
 93
        3
 72
     1
 10
-57.66240812287629
 20
14.14159591678136
 11
-57.16626723495688
 21
14.14159591678136
 72
     1
 10
-57.16626723495688
 20
14.14159591678136
 11
-57.41433767891567
 21
14.7761537399109
 72
     1
 10
-57.41433767891567
 20
14.7761537399109
 11
-57.66240812287629
 21
14.14159591678136
 97
        3
330
158
330
157
330
1A5
 75
     1
 76
     0
 52
45.0
 41
0.1
 77
     0
 78
     1
 53
45.0
 43
0.0
 44
0.0
 45
-0.0707106781186548
 46
0.0707106781186548
 79
     0
 98
        1
 10
0.0
 20
0.0
  0
HATCH
  5
340
330
74
100
AcDbEntity
  8
1
  6
Continuous
 62
     2
100
AcDbHatch
 10
0.0
 20
0.0
 30
0.0
210
0.0
220
0.0
230
1.0
  2
_USER
 70
     0
 71
     1
 91
        2
 92
        1
 93
        8
 72
     1
 10
-55.74639945406761
 20
13.13207210725704
 11
-56.77160971047579
 21
13.13207210725704
 72
     1
 10
-56.77160971047579
 20
13.13207210725704
 11
-56.9463866141748
 21
13.57914693718916
 72
     1
 10
-56.9463866141748
 20
13.57914693718916
 11
-57.88228874365734
 21
13.57914693718916
 72
     1
 10
-57.88228874365734
 20
13.57914693718916
 11
-58.05706564735635
 21
13.13207210725704
 72
     1
 10
-58.05706564735635
 20
13.13207210725704
 11
-59.08227590376373
 21
13.13207210725704
 72
     1
 10
-59.08227590376373
 20
13.13207210725704
 11
-57.92694280711976
 21
15.65588163106787
 72
     1
 10
-57.92694280711976
 20
15.65588163106787
 11
-56.9017325507125
 21
15.65588163106787
 72
     1
 10
-56.9017325507125
 20
15.65588163106787
 11
-55.74639945406761
 21
13.13207210725704
 97
        8
330
1A2
330
15C
330
1A1
330
1A4
330
159
330
1A3
330
15A
330
15B
 92
       16
 93
        3
 72
     1
 10
-57.66240812287629
 20
14.14159591678136
 11
-57.16626723495688
 21
14.14159591678136
 72
     1
 10
-57.16626723495688
 20
14.14159591678136
 11
-57.41433767891567
 21
14.7761537399109
 72
     1
 10
-57.41433767891567
 20
14.7761537399109
 11
-57.66240812287629
 21
14.14159591678136
 97
        3
330
158
330
157
330
1A5
 75
     1
 76
     0
 52
45.0
 41
0.1
 77
     0
 78
     1
 53
45.0
 43
0.0
 44
0.0
 45
-0.0707106781186548
 46
0.0707106781186548
 79
     0
 98
        1
 10
0.0
 20
0.0
  0
HATCH
  5
341
330
74
100
AcDbEntity
  8
1
  6
Continuous
 62
     2
100
AcDbHatch
 10
0.0
 20
0.0
 30
0.0
210
0.0
220
0.0
230
1.0
  2
_USER
 70
     0
 71
     1
 91
        1
 92
        1
 93
        8
 72
     1
 10
-60.86534378738543
 20
15.65588163106787
 11
-60.86534378738543
 21
15.00690203923015
 72
     1
 10
-60.86534378738543
 20
15.00690203923015
 11
-60.19501400434854
 21
15.00690203923015
 72
     1
 10
-60.19501400434854
 20
15.00690203923015
 11
-60.19501400434854
 21
13.13207210725704
 72
     1
 10
-60.19501400434854
 20
13.13207210725704
 11
-59.20923491164899
 21
13.13207210725704
 72
     1
 10
-59.20923491164899
 20
13.13207210725704
 11
-59.20923491164899
 21
15.00690203923015
 72
     1
 10
-59.20923491164899
 20
15.00690203923015
 11
-58.53890512861381
 21
15.00690203923015
 72
     1
 10
-58.53890512861381
 20
15.00690203923015
 11
-58.53890512861381
 21
15.65588163106787
 72
     1
 10
-58.53890512861381
 20
15.65588163106787
 11
-60.86534378738543
 21
15.65588163106787
 97
        8
330
19E
330
19D
330
19C
330
15D
330
15E
330
1A0
330
15F
330
19F
 75
     1
 76
     0
 52
45.0
 41
0.1
 77
     0
 78
     1
 53
45.0
 43
0.0
 44
0.0
 45
-0.0707106781186548
 46
0.0707106781186548
 79
     0
 98
        1
 10
0.0
 20
0.0
  0
HATCH
  5
342
330
74
100
AcDbEntity
  8
1
  6
Continuous
 62
     2
100
AcDbHatch
 10
0.0
 20
0.0
 30
0.0
210
0.0
220
0.0
230
1.0
  2
_USER
 70
     0
 71
     1
 91
        1
 92
        1
 93
        8
 72
     1
 10
-60.86534378738543
 20
15.65588163106787
 11
-60.86534378738543
 21
15.00690203923015
 72
     1
 10
-60.86534378738543
 20
15.00690203923015
 11
-60.19501400434854
 21
15.00690203923015
 72
     1
 10
-60.19501400434854
 20
15.00690203923015
 11
-60.19501400434854
 21
13.13207210725704
 72
     1
 10
-60.19501400434854
 20
13.13207210725704
 11
-59.20923491164899
 21
13.13207210725704
 72
     1
 10
-59.20923491164899
 20
13.13207210725704
 11
-59.20923491164899
 21
15.00690203923015
 72
     1
 10
-59.20923491164899
 20
15.00690203923015
 11
-58.53890512861381
 21
15.00690203923015
 72
     1
 10
-58.53890512861381
 20
15.00690203923015
 11
-58.53890512861381
 21
15.65588163106787
 72
     1
 10
-58.53890512861381
 20
15.65588163106787
 11
-60.86534378738543
 21
15.65588163106787
 97
        8
330
19E
330
19D
330
19C
330
15D
330
15E
330
1A0
330
15F
330
19F
 75
     1
 76
     0
 52
45.0
 41
0.1
 77
     0
 78
     1
 53
45.0
 43
0.0
 44
0.0
 45
-0.0707106781186548
 46
0.0707106781186548
 79
     0
 98
        1
 10
0.0
 20
0.0
  0
HATCH
  5
343
330
74
100
AcDbEntity
  8
1
  6
Continuous
 62
     2
100
AcDbHatch
 10
0.0
 20
0.0
 30
0.0
210
0.0
220
0.0
230
1.0
  2
_USER
 70
     0
 71
     1
 91
        1
 92
        1
 93
       10
 72
     1
 10
-58.6570738834688
 20
18.43207210724502
 11
-59.64285297616834
 21
18.43207210724502
 72
     1
 10
-59.64285297616834
 20
18.43207210724502
 11
-59.64285297616834
 21
15.90826258343419
 72
     1
 10
-59.64285297616834
 20
15.90826258343419
 11
-58.6570738834688
 21
15.90826258343419
 72
     1
 10
-58.6570738834688
 20
15.90826258343419
 11
-58.6570738834688
 21
16.98989523649585
 72
     1
 10
-58.6570738834688
 20
16.98989523649585
 11
-57.63186362706051
 21
15.90826258343419
 72
     1
 10
-57.63186362706051
 20
15.90826258343419
 11
-56.64608453436085
 21
15.90826258343419
 72
     1
 10
-56.64608453436085
 20
15.90826258343419
 11
-56.64608453436085
 21
18.43207210724502
 72
     1
 10
-56.64608453436085
 20
18.43207210724502
 11
-57.63186362706051
 21
18.43207210724502
 72
     1
 10
-57.63186362706051
 20
18.43207210724502
 11
-57.63186362706051
 21
17.35043945418291
 72
     1
 10
-57.63186362706051
 20
17.35043945418291
 11
-58.6570738834688
 21
18.43207210724502
 97
       10
330
198
330
162
330
163
330
164
330
165
330
19B
330
160
330
19A
330
199
330
161
 75
     1
 76
     0
 52
45.0
 41
0.1
 77
     0
 78
     1
 53
45.0
 43
0.0
 44
0.0
 45
-0.0707106781186548
 46
0.0707106781186548
 79
     0
 98
        1
 10
0.0
 20
0.0
  0
HATCH
  5
344
330
74
100
AcDbEntity
  8
1
  6
Continuous
 62
     2
100
AcDbHatch
 10
0.0
 20
0.0
 30
0.0
210
0.0
220
0.0
230
1.0
  2
_USER
 70
     0
 71
     1
 91
        1
 92
        1
 93
       10
 72
     1
 10
-58.6570738834688
 20
18.43207210724502
 11
-59.64285297616834
 21
18.43207210724502
 72
     1
 10
-59.64285297616834
 20
18.43207210724502
 11
-59.64285297616834
 21
15.90826258343419
 72
     1
 10
-59.64285297616834
 20
15.90826258343419
 11
-58.6570738834688
 21
15.90826258343419
 72
     1
 10
-58.6570738834688
 20
15.90826258343419
 11
-58.6570738834688
 21
16.98989523649585
 72
     1
 10
-58.6570738834688
 20
16.98989523649585
 11
-57.63186362706051
 21
15.90826258343419
 72
     1
 10
-57.63186362706051
 20
15.90826258343419
 11
-56.64608453436085
 21
15.90826258343419
 72
     1
 10
-56.64608453436085
 20
15.90826258343419
 11
-56.64608453436085
 21
18.43207210724502
 72
     1
 10
-56.64608453436085
 20
18.43207210724502
 11
-57.63186362706051
 21
18.43207210724502
 72
     1
 10
-57.63186362706051
 20
18.43207210724502
 11
-57.63186362706051
 21
17.35043945418291
 72
     1
 10
-57.63186362706051
 20
17.35043945418291
 11
-58.6570738834688
 21
18.43207210724502
 97
       10
330
198
330
162
330
163
330
164
330
165
330
19B
330
160
330
19A
330
199
330
161
 75
     1
 76
     0
 52
45.0
 41
0.1
 77
     0
 78
     1
 53
45.0
 43
0.0
 44
0.0
 45
-0.0707106781186548
 46
0.0707106781186548
 79
     0
 98
        1
 10
0.0
 20
0.0
  0
HATCH
  5
345
330
74
100
AcDbEntity
  8
1
  6
Continuous
 62
     2
100
AcDbHatch
 10
0.0
 20
0.0
 30
0.0
210
0.0
220
0.0
230
1.0
  2
_USER
 70
     0
 71
     1
 91
        1
 92
        1
 93
       10
 72
     1
 10
-62.99462662761641
 20
15.65588163106787
 11
-63.98040572031687
 21
15.65588163106787
 72
     1
 10
-63.98040572031687
 20
15.65588163106787
 11
-63.98040572031687
 21
13.13207210725704
 72
     1
 10
-63.98040572031687
 20
13.13207210725704
 11
-62.99462662761641
 21
13.13207210725704
 72
     1
 10
-62.99462662761641
 20
13.13207210725704
 11
-62.99462662761641
 21
14.21370476031869
 72
     1
 10
-62.99462662761641
 20
14.21370476031869
 11
-61.96941637120904
 21
13.13207210725704
 72
     1
 10
-61.96941637120904
 20
13.13207210725704
 11
-60.98363727850949
 21
13.13207210725704
 72
     1
 10
-60.98363727850949
 20
13.13207210725704
 11
-60.98363727850949
 21
15.65588163106787
 72
     1
 10
-60.98363727850949
 20
15.65588163106787
 11
-61.96941637120904
 21
15.65588163106787
 72
     1
 10
-61.96941637120904
 20
15.65588163106787
 11
-61.96941637120904
 21
14.57424897800576
 72
     1
 10
-61.96941637120904
 20
14.57424897800576
 11
-62.99462662761641
 21
15.65588163106787
 97
       10
330
167
330
168
330
169
330
195
330
16A
330
16B
330
194
330
197
330
196
330
166
 75
     1
 76
     0
 52
45.0
 41
0.1
 77
     0
 78
     1
 53
45.0
 43
0.0
 44
0.0
 45
-0.0707106781186548
 46
0.0707106781186548
 79
     0
 98
        1
 10
0.0
 20
0.0
  0
HATCH
  5
346
330
74
100
AcDbEntity
  8
1
  6
Continuous
 62
     2
100
AcDbHatch
 10
0.0
 20
0.0
 30
0.0
210
0.0
220
0.0
230
1.0
  2
_USER
 70
     0
 71
     1
 91
        1
 92
        1
 93
       10
 72
     1
 10
-62.99462662761641
 20
15.65588163106787
 11
-63.98040572031687
 21
15.65588163106787
 72
     1
 10
-63.98040572031687
 20
15.65588163106787
 11
-63.98040572031687
 21
13.13207210725704
 72
     1
 10
-63.98040572031687
 20
13.13207210725704
 11
-62.99462662761641
 21
13.13207210725704
 72
     1
 10
-62.99462662761641
 20
13.13207210725704
 11
-62.99462662761641
 21
14.21370476031869
 72
     1
 10
-62.99462662761641
 20
14.21370476031869
 11
-61.96941637120904
 21
13.13207210725704
 72
     1
 10
-61.96941637120904
 20
13.13207210725704
 11
-60.98363727850949
 21
13.13207210725704
 72
     1
 10
-60.98363727850949
 20
13.13207210725704
 11
-60.98363727850949
 21
15.65588163106787
 72
     1
 10
-60.98363727850949
 20
15.65588163106787
 11
-61.96941637120904
 21
15.65588163106787
 72
     1
 10
-61.96941637120904
 20
15.65588163106787
 11
-61.96941637120904
 21
14.57424897800576
 72
     1
 10
-61.96941637120904
 20
14.57424897800576
 11
-62.99462662761641
 21
15.65588163106787
 97
       10
330
167
330
168
330
169
330
195
330
16A
330
16B
330
194
330
197
330
196
330
166
 75
     1
 76
     0
 52
45.0
 41
0.1
 77
     0
 78
     1
 53
45.0
 43
0.0
 44
0.0
 45
-0.0707106781186548
 46
0.0707106781186548
 79
     0
 98
        1
 10
0.0
 20
0.0
  0
HATCH
  5
347
330
74
100
AcDbEntity
  8
1
  6
Continuous
 62
     2
100
AcDbHatch
 10
0.0
 20
0.0
 30
0.0
210
0.0
220
0.0
230
1.0
  2
_USER
 70
     0
 71
     1
 91
        1
 92
        1
 93
       12
 72
     1
 10
-63.8225563292159
 20
18.43207210724502
 11
-63.8225563292159
 21
15.90826258343419
 72
     1
 10
-63.8225563292159
 20
15.90826258343419
 11
-64.80833542191544
 21
15.90826258343419
 72
     1
 10
-64.80833542191544
 20
15.90826258343419
 11
-64.80833542191544
 21
16.84567754942075
 72
     1
 10
-64.80833542191544
 20
16.84567754942075
 11
-65.67582102349184
 21
16.84567754942075
 72
     1
 10
-65.67582102349184
 20
16.84567754942075
 11
-65.67582102349184
 21
15.90826258343419
 72
     1
 10
-65.67582102349184
 20
15.90826258343419
 11
-66.6616001161915
 21
15.90826258343419
 72
     1
 10
-66.6616001161915
 20
15.90826258343419
 11
-66.6616001161915
 21
18.43207210724502
 72
     1
 10
-66.6616001161915
 20
18.43207210724502
 11
-65.67582102349184
 21
18.43207210724502
 72
     1
 10
-65.67582102349184
 20
18.43207210724502
 11
-65.67582102349184
 21
17.54873877391066
 72
     1
 10
-65.67582102349184
 20
17.54873877391066
 11
-64.80833542191544
 21
17.54873877391066
 72
     1
 10
-64.80833542191544
 20
17.54873877391066
 11
-64.80833542191544
 21
18.43207210724502
 72
     1
 10
-64.80833542191544
 20
18.43207210724502
 11
-63.8225563292159
 21
18.43207210724502
 97
       12
330
18F
330
18E
330
18D
330
175
330
176
330
18C
330
177
330
18B
330
18A
330
189
330
173
330
174
 75
     1
 76
     0
 52
45.0
 41
0.1
 77
     0
 78
     1
 53
45.0
 43
0.0
 44
0.0
 45
-0.0707106781186548
 46
0.0707106781186548
 79
     0
 98
        1
 10
0.0
 20
0.0
  0
HATCH
  5
348
330
74
100
AcDbEntity
  8
1
  6
Continuous
 62
     2
100
AcDbHatch
 10
0.0
 20
0.0
 30
0.0
210
0.0
220
0.0
230
1.0
  2
_USER
 70
     0
 71
     1
 91
        1
 92
        1
 93
       12
 72
     1
 10
-63.8225563292159
 20
18.43207210724502
 11
-63.8225563292159
 21
15.90826258343419
 72
     1
 10
-63.8225563292159
 20
15.90826258343419
 11
-64.80833542191544
 21
15.90826258343419
 72
     1
 10
-64.80833542191544
 20
15.90826258343419
 11
-64.80833542191544
 21
16.84567754942075
 72
     1
 10
-64.80833542191544
 20
16.84567754942075
 11
-65.67582102349184
 21
16.84567754942075
 72
     1
 10
-65.67582102349184
 20
16.84567754942075
 11
-65.67582102349184
 21
15.90826258343419
 72
     1
 10
-65.67582102349184
 20
15.90826258343419
 11
-66.6616001161915
 21
15.90826258343419
 72
     1
 10
-66.6616001161915
 20
15.90826258343419
 11
-66.6616001161915
 21
18.43207210724502
 72
     1
 10
-66.6616001161915
 20
18.43207210724502
 11
-65.67582102349184
 21
18.43207210724502
 72
     1
 10
-65.67582102349184
 20
18.43207210724502
 11
-65.67582102349184
 21
17.54873877391066
 72
     1
 10
-65.67582102349184
 20
17.54873877391066
 11
-64.80833542191544
 21
17.54873877391066
 72
     1
 10
-64.80833542191544
 20
17.54873877391066
 11
-64.80833542191544
 21
18.43207210724502
 72
     1
 10
-64.80833542191544
 20
18.43207210724502
 11
-63.8225563292159
 21
18.43207210724502
 97
       12
330
18F
330
18E
330
18D
330
175
330
176
330
18C
330
177
330
18B
330
18A
330
189
330
173
330
174
 75
     1
 76
     0
 52
45.0
 41
0.1
 77
     0
 78
     1
 53
45.0
 43
0.0
 44
0.0
 45
-0.0707106781186548
 46
0.0707106781186548
 79
     0
 98
        1
 10
0.0
 20
0.0
  0
ENDBLK
  5
76
330
74
100
AcDbEntity
  8
0
100
AcDbBlockEnd
  0
BLOCK
  5
7A
330
77
100
AcDbEntity
  8
0
100
AcDbBlockBegin
  2
A4I
 70
     0
 10
47.9623302529381
 20
2.28207210725108
 30
0.0
  3
A4I
  1

  0
INSERT
  5
78
330
77
100
AcDbEntity
  8
1
100
AcDbBlockReference
  2
_punkt
 10
47.9623302529381
 20
7.28207210725119
 30
0.0
  0
INSERT
  5
79
330
77
100
AcDbEntity
  8
1
100
AcDbBlockReference
  2
_rahmen
 10
47.9623302529381
 20
2.28207210725108
 30
0.0
  0
ENDBLK
  5
7B
330
77
100
AcDbEntity
  8
0
100
AcDbBlockEnd
  0
BLOCK
  5
11F
330
116
100
AcDbEntity
  8
0
100
AcDbBlockBegin
  2
*D16
 70
     1
 10
0.0
 20
0.0
 30
0.0
  3
*D16
  1

  0
LINE
  5
117
330
116
100
AcDbEntity
  8
1
  6
Continuous
 62
     2
100
AcDbLine
 10
-86.92914464471247
 20
52.50000000000004
 30
0.0
 11
-92.16001199999992
 21
52.50000000000004
 31
0.0
  0
LINE
  5
118
330
116
100
AcDbEntity
  8
1
  6
Continuous
 62
     2
100
AcDbLine
 10
-92.16001199999992
 20
52.50000000000004
 30
0.0
 11
-95.66001199999991
 21
52.50000000000004
 31
0.0
  0
LINE
  5
119
330
116
100
AcDbEntity
  8
1
  6
Continuous
 62
     2
100
AcDbLine
 10
-95.66001199999991
 20
52.50000000000004
 30
0.0
 11
-99.16001199999991
 21
52.50000000000004
 31
0.0
  0
LINE
  5
11A
330
116
100
AcDbEntity
  8
1
  6
Continuous
 62
     2
100
AcDbLine
 10
-92.16001199999992
 20
57.50000000000004
 30
0.0
 11
-92.16001199999992
 21
51.50000000000004
 31
0.0
  0
LINE
  5
11B
330
116
100
AcDbEntity
  8
1
  6
Continuous
 62
     2
100
AcDbLine
 10
-95.66001199999991
 20
61.00961894323346
 30
0.0
 11
-95.66001199999991
 21
51.50000000000004
 31
0.0
  0
SOLID
  5
11C
330
116
100
AcDbEntity
  8
1
 62
     2
100
AcDbTrace
 10
-90.41001199999992
 20
52.73039187077799
 30
0.0
 11
-90.41001199999992
 21
52.2696081292221
 31
0.0
 12
-92.16001199999992
 22
52.50000000000004
 32
0.0
 13
-92.16001199999992
 23
52.50000000000004
 33
0.0
  0
SOLID
  5
11D
330
116
100
AcDbEntity
  8
1
 62
     2
100
AcDbTrace
 10
-97.41001199999991
 20
52.2696081292221
 30
0.0
 11
-97.41001199999991
 21
52.73039187077799
 31
0.0
 12
-95.66001199999991
 22
52.50000000000004
 32
0.0
 13
-95.66001199999991
 23
52.50000000000004
 33
0.0
  0
MTEXT
  5
11E
330
116
100
AcDbEntity
  8
1
 62
     3
100
AcDbMText
 10
-90.16664464471248
 20
53.67500000000004
 30
0.0
 40
1.75
 41
0.0
 71
     7
 72
     1
  1
3,5
  7
CONVERTER_11
 11
0.9999999999970619
 21
2.424068405545306E-6
 31
0.0
 73
     1
 44
0.60024009603842
  0
ENDBLK
  5
120
330
116
100
AcDbEntity
  8
0
100
AcDbBlockEnd
  0
BLOCK
  5
12A
330
123
100
AcDbEntity
  8
0
100
AcDbBlockBegin
  2
*D17
 70
     1
 10
0.0
 20
0.0
 30
0.0
  3
*D17
  1

  0
LINE
  5
124
330
123
100
AcDbEntity
  8
1
  6
Continuous
 62
     2
100
AcDbLine
 10
-100.6600119999999
 20
57.50000000000004
 30
0.0
 11
-100.6600119999999
 21
90.50000000000004
 31
0.0
  0
LINE
  5
125
330
123
100
AcDbEntity
  8
1
  6
Continuous
 62
     2
100
AcDbLine
 10
-95.25808821135324
 20
57.50000000000004
 30
0.0
 11
-101.6600119999999
 21
57.50000000000004
 31
0.0
  0
LINE
  5
126
330
123
100
AcDbEntity
  8
1
  6
Continuous
 62
     2
100
AcDbLine
 10
-95.25808821135324
 20
90.50000000000004
 30
0.0
 11
-101.6600119999999
 21
90.50000000000004
 31
0.0
  0
SOLID
  5
127
330
123
100
AcDbEntity
  8
1
 62
     2
100
AcDbTrace
 10
-100.8904038707778
 20
59.25000000000004
 30
0.0
 11
-100.429620129222
 21
59.25000000000004
 31
0.0
 12
-100.6600119999999
 22
57.50000000000004
 32
0.0
 13
-100.6600119999999
 23
57.50000000000004
 33
0.0
  0
SOLID
  5
128
330
123
100
AcDbEntity
  8
1
 62
     2
100
AcDbTrace
 10
-100.429620129222
 20
88.75000000000004
 30
0.0
 11
-100.8904038707778
 21
88.75000000000004
 31
0.0
 12
-100.6600119999999
 22
90.50000000000004
 32
0.0
 13
-100.6600119999999
 23
90.50000000000004
 33
0.0
  0
MTEXT
  5
129
330
123
100
AcDbEntity
  8
1
 62
     3
100
AcDbMText
 10
-101.6600119999999
 20
72.21500000000005
 30
0.0
 40
1.75
 41
0.0
 71
     7
 72
     1
  1
\C3;\U+00f8\C3;33
  7
CONVERTER_11
 11
0.0
 21
1.0
 31
0.0
 73
     1
 44
0.60024009603842
  0
ENDBLK
  5
12B
330
123
100
AcDbEntity
  8
0
100
AcDbBlockEnd
  0
ENDSEC
  0
SECTION
  2
ENTITIES
  0
INSERT
  5
7C
330
1F
100
AcDbEntity
  8
0
100
AcDbBlockReference
  2
Allg1
 10
5.0000000000003
 20
81.0
 30
0.0
 41
2.0
 42
2.0
 43
2.0
  0
INSERT
  5
7D
330
1F
100
AcDbEntity
  8
0
100
AcDbBlockReference
  2
Drfsicht1
 10
-134.240016
 20
81.499992
 30
0.0
 41
2.0
 42
2.0
 43
2.0
  0
INSERT
  5
7E
330
1F
100
AcDbEntity
  8
0
100
AcDbBlockReference
  2
Rckans1
 10
-27.00000000001
 20
148.0000000000001
 30
0.0
 41
2.0
 42
2.0
 43
2.0
  0
INSERT
  5
7F
330
1F
100
AcDbEntity
  8
0
100
AcDbBlockReference
  2
SA_Links1
 10
-80.66000799999978
 20
148.0
 30
0.0
 41
2.0
 42
2.0
 43
2.0
  0
INSERT
  5
80
330
1F
100
AcDbEntity
  8
0
100
AcDbBlockReference
  2
SA_Rechts1
 10
-187.8200239999998
 20
148.0000000000001
 30
0.0
 41
2.0
 42
2.0
 43
2.0
  0
INSERT
  5
81
330
1F
100
AcDbEntity
  8
0
100
AcDbBlockReference
  2
Vordans1
 10
-134.2400152906674
 20
148.0000000000001
 30
0.0
 41
2.0
 42
2.0
 43
2.0
  0
INSERT
  5
82
330
1F
100
AcDbEntity
  8
0
100
AcDbBlockReference
  2
A4I
 10
47.9623302529381
 20
2.28207210725108
 30
0.0
  0
ENDSEC
  0
SECTION
  2
OBJECTS
  0
DICTIONARY
  5
C
330
0
100
AcDbDictionary
281
     1
  3
ACAD_GROUP
350
D
  3
ACAD_LAYOUT
350
1A
  3
ACAD_MATERIAL
350
3B
  3
ACAD_MLEADERSTYLE
350
34B
  3
ACAD_MLINESTYLE
350
17
  3
ACAD_PLOTSETTINGS
350
19
  3
ACAD_PLOTSTYLENAME
350
E
  3
ACAD_VISUALSTYLE
350
2A
  3
AcDbVariableDictionary
350
349
  0
DICTIONARY
  5
D
102
{ACAD_REACTORS
330
C
102
}
330
C
100
AcDbDictionary
281
     1
  0
DICTIONARY
  5
1A
102
{ACAD_REACTORS
330
C
102
}
330
C
100
AcDbDictionary
281
     1
  3
Layout1
350
1E
  3
Layout2
350
26
  3
Model
350
22
  0
DICTIONARY
  5
3B
102
{ACAD_REACTORS
330
C
102
}
330
C
100
AcDbDictionary
281
     1
  3
ByBlock
350
3D
  3
ByLayer
350
3C
  3
Global
350
3E
  0
DICTIONARY
  5
34B
102
{ACAD_REACTORS
330
C
102
}
330
C
100
AcDbDictionary
281
     1
  0
DICTIONARY
  5
17
102
{ACAD_REACTORS
330
C
102
}
330
C
100
AcDbDictionary
281
     1
  3
Standard
350
18
  0
DICTIONARY
  5
19
102
{ACAD_REACTORS
330
C
102
}
330
C
100
AcDbDictionary
281
     1
  0
ACDBDICTIONARYWDFLT
  5
E
102
{ACAD_REACTORS
330
C
102
}
330
C
100
AcDbDictionary
281
     1
  3
Normal
350
F
100
AcDbDictionaryWithDefault
340
F
  0
DICTIONARY
  5
2A
102
{ACAD_REACTORS
330
C
102
}
330
C
100
AcDbDictionary
281
     1
  3
2dWireframe
350
2F
  3
3D Hidden
350
31
  3
3dWireframe
350
30
  3
Basic
350
32
  3
Brighten
350
36
  3
ColorChange
350
3A
  3
Conceptual
350
34
  3
Dim
350
35
  3
Facepattern
350
39
  3
Flat
350
2B
  3
FlatWithEdges
350
2C
  3
Gouraud
350
2D
  3
GouraudWithEdges
350
2E
  3
Linepattern
350
38
  3
Realistic
350
33
  3
Thicken
350
37
  0
DICTIONARY
  5
349
102
{ACAD_REACTORS
330
C
102
}
330
C
100
AcDbDictionary
281
     1
  3
DIMASSOC
350
34C
  3
HIDETEXT
350
34D
  0
LAYOUT
  5
1E
102
{ACAD_REACTORS
330
1A
102
}
330
1A
100
AcDbPlotSettings
  1

  2
none_device
  4

  6

 40
0.0
 41
0.0
 42
0.0
 43
0.0
 44
0.0
 45
0.0
 46
0.0
 47
0.0
 48
0.0
 49
0.0
140
0.0
141
0.0
142
1.0
143
1.0
 70
   688
 72
     0
 73
     0
 74
     5
  7

 75
    16
147
1.0
148
0.0
149
0.0
100
AcDbLayout
  1
Layout1
 70
     1
 71
     1
 10
0.0
 20
0.0
 11
12.0
 21
9.0
 12
0.0
 22
0.0
 32
0.0
 14
1.00000000000000E+20
 24
1.00000000000000E+20
 34
1.00000000000000E+20
 15
-1.00000000000000E+20
 25
-1.00000000000000E+20
 35
-1.00000000000000E+20
146
0.0
 13
0.0
 23
0.0
 33
0.0
 16
1.0
 26
0.0
 36
0.0
 17
0.0
 27
1.0
 37
0.0
 76
     0
330
1B
  0
LAYOUT
  5
26
102
{ACAD_REACTORS
330
1A
102
}
330
1A
100
AcDbPlotSettings
  1

  2
none_device
  4

  6

 40
0.0
 41
0.0
 42
0.0
 43
0.0
 44
0.0
 45
0.0
 46
0.0
 47
0.0
 48
0.0
 49
0.0
140
0.0
141
0.0
142
1.0
143
1.0
 70
   688
 72
     0
 73
     0
 74
     5
  7

 75
    16
147
1.0
148
0.0
149
0.0
100
AcDbLayout
  1
Layout2
 70
     1
 71
     2
 10
0.0
 20
0.0
 11
0.0
 21
0.0
 12
0.0
 22
0.0
 32
0.0
 14
0.0
 24
0.0
 34
0.0
 15
0.0
 25
0.0
 35
0.0
146
0.0
 13
0.0
 23
0.0
 33
0.0
 16
1.0
 26
0.0
 36
0.0
 17
0.0
 27
1.0
 37
0.0
 76
     0
330
23
  0
LAYOUT
  5
22
102
{ACAD_REACTORS
330
1A
102
}
330
1A
100
AcDbPlotSettings
  1

  2
none_device
  4

  6

 40
0.0
 41
0.0
 42
0.0
 43
0.0
 44
0.0
 45
0.0
 46
0.0
 47
0.0
 48
0.0
 49
0.0
140
0.0
141
0.0
142
1.0
143
1.0
 70
  1712
 72
     0
 73
     0
 74
     0
  7

 75
     0
147
1.0
148
0.0
149
0.0
100
AcDbLayout
  1
Model
 70
     1
 71
     0
 10
0.0
 20
0.0
 11
12.0
 21
9.0
 12
0.0
 22
0.0
 32
0.0
 14
-244.037669747061
 24
2.28207210725108
 34
0.0
 15
52.96233025293711
 25
212.2820721072511
 35
0.0
146
0.0
 13
0.0
 23
0.0
 33
0.0
 16
1.0
 26
0.0
 36
0.0
 17
0.0
 27
1.0
 37
0.0
 76
     0
330
1F
331
29
  0
MATERIAL
  5
3D
102
{ACAD_REACTORS
330
3B
102
}
102
{ACAD_XDICTIONARY
360
370
102
}
330
3B
100
AcDbMaterial
  1
ByBlock
  0
MATERIAL
  5
3C
102
{ACAD_REACTORS
330
3B
102
}
102
{ACAD_XDICTIONARY
360
36E
102
}
330
3B
100
AcDbMaterial
  1
ByLayer
  0
MATERIAL
  5
3E
102
{ACAD_REACTORS
330
3B
102
}
102
{ACAD_XDICTIONARY
360
372
102
}
330
3B
100
AcDbMaterial
  1
Global
  0
MLINESTYLE
  5
18
102
{ACAD_REACTORS
330
17
102
}
330
17
100
AcDbMlineStyle
  2
Standard
 70
     0
  3

 62
   256
 51
90.0
 52
90.0
 71
     2
 49
0.5
 62
   256
  6
BYLAYER
 49
-0.5
 62
   256
  6
BYLAYER
  0
ACDBPLACEHOLDER
  5
F
102
{ACAD_REACTORS
330
E
102
}
330
E
  0
VISUALSTYLE
  5
2F
102
{ACAD_REACTORS
330
2A
102
}
102
{ACAD_XDICTIONARY
360
356
102
}
330
2A
100
AcDbVisualStyle
  2
2dWireframe
 70
     4
 71
     0
 72
     2
 73
     0
 90
        0
 40
-0.6
 41
-30.0
 62
     5
 63
     7
 74
     1
 91
        4
 64
     7
 65
   257
 75
     1
175
     1
 42
1.0
 92
        0
 66
   257
 43
1.0
 76
     1
 77
     6
 78
     2
 67
     7
 79
     5
170
     0
171
     0
290
     0
174
     0
 93
        1
 44
0.0
173
     0
291
     0
 45
0.0
1001
ACAD
1000
AcDbSavedByObjectVersion
1070
     0
  0
VISUALSTYLE
  5
31
102
{ACAD_REACTORS
330
2A
102
}
102
{ACAD_XDICTIONARY
360
35A
102
}
330
2A
100
AcDbVisualStyle
  2
3D Hidden
 70
     6
 71
     1
 72
     2
 73
     2
 90
        0
 40
-0.6
 41
-30.0
 62
     5
 63
     7
 74
     2
 91
        2
 64
     7
 65
   257
 75
     2
175
     1
 42
40.0
 92
        0
 66
   257
 43
1.0
 76
     1
 77
     6
 78
     2
 67
     7
 79
     3
170
     0
171
     0
290
     0
174
     0
 93
        1
 44
0.0
173
     0
291
     0
 45
0.0
1001
ACAD
1000
AcDbSavedByObjectVersion
1070
     0
  0
VISUALSTYLE
  5
30
102
{ACAD_REACTORS
330
2A
102
}
102
{ACAD_XDICTIONARY
360
358
102
}
330
2A
100
AcDbVisualStyle
  2
3dWireframe
 70
     5
 71
     0
 72
     2
 73
     0
 90
        0
 40
-0.6
 41
-30.0
 62
     5
 63
     7
 74
     1
 91
        4
 64
     7
 65
   257
 75
     1
175
     1
 42
1.0
 92
        0
 66
   257
 43
1.0
 76
     1
 77
     6
 78
     2
 67
     7
 79
     5
170
     0
171
     0
290
     0
174
     0
 93
        1
 44
0.0
173
     0
291
     0
 45
0.0
1001
ACAD
1000
AcDbSavedByObjectVersion
1070
     0
  0
VISUALSTYLE
  5
32
102
{ACAD_REACTORS
330
2A
102
}
102
{ACAD_XDICTIONARY
360
35C
102
}
330
2A
100
AcDbVisualStyle
  2
Basic
 70
     7
 71
     1
 72
     0
 73
     1
 90
        0
 40
-0.6
 41
-30.0
 62
     5
 63
     7
 74
     0
 91
        4
 64
     7
 65
   257
 75
     1
175
     1
 42
1.0
 92
        8
 66
     7
 43
1.0
 76
     1
 77
     6
 78
     2
 67
     7
 79
     5
170
     0
171
     0
290
     0
174
     0
 93
        1
 44
0.0
173
     0
291
     1
 45
0.0
1001
ACAD
1000
AcDbSavedByObjectVersion
1070
     0
  0
VISUALSTYLE
  5
36
102
{ACAD_REACTORS
330
2A
102
}
102
{ACAD_XDICTIONARY
360
364
102
}
330
2A
100
AcDbVisualStyle
  2
Brighten
 70
    12
 71
     2
 72
     2
 73
     0
 90
        0
 40
-0.6
 41
-30.0
 62
     5
 63
     7
 74
     1
 91
        4
 64
     7
 65
   257
 75
     1
175
     1
 42
1.0
 92
        8
 66
     7
 43
1.0
 76
     1
 77
     6
 78
     2
 67
     7
 79
     5
170
     0
171
     0
290
     0
174
     0
 93
        1
 44
50.0
173
     0
291
     1
 45
0.0
1001
ACAD
1000
AcDbSavedByObjectVersion
1070
     0
  0
VISUALSTYLE
  5
3A
102
{ACAD_REACTORS
330
2A
102
}
102
{ACAD_XDICTIONARY
360
36C
102
}
330
2A
100
AcDbVisualStyle
  2
ColorChange
 70
    16
 71
     2
 72
     2
 73
     3
 90
        0
 40
-0.6
 41
-30.0
 62
     5
 63
     8
 74
     1
 91
        4
 64
     7
 65
   257
 75
     1
175
     1
 42
1.0
 92
        8
 66
     8
 43
1.0
 76
     1
 77
     6
 78
     2
 67
     7
 79
     5
170
     0
171
     0
290
     0
174
     0
 93
        1
 44
0.0
173
     0
291
     1
 45
0.0
1001
ACAD
1000
AcDbSavedByObjectVersion
1070
     0
  0
VISUALSTYLE
  5
34
102
{ACAD_REACTORS
330
2A
102
}
102
{ACAD_XDICTIONARY
360
360
102
}
330
2A
100
AcDbVisualStyle
  2
Conceptual
 70
     9
 71
     3
 72
     2
 73
     0
 90
        0
 40
-0.6
 41
-30.0
 62
     5
 63
     7
 74
     2
 91
        2
 64
     7
 65
   257
 75
     1
175
     1
 42
40.0
 92
        8
 66
     7
 43
1.0
 76
     1
 77
     6
 78
     2
 67
     7
 79
     3
170
     0
171
     0
290
     0
174
     0
 93
        1
 44
0.0
173
     0
291
     0
 45
0.0
1001
ACAD
1000
AcDbSavedByObjectVersion
1070
     0
  0
VISUALSTYLE
  5
35
102
{ACAD_REACTORS
330
2A
102
}
102
{ACAD_XDICTIONARY
360
362
102
}
330
2A
100
AcDbVisualStyle
  2
Dim
 70
    11
 71
     2
 72
     2
 73
     0
 90
        0
 40
-0.6
 41
-30.0
 62
     5
 63
     7
 74
     1
 91
        4
 64
     7
 65
   257
 75
     1
175
     1
 42
1.0
 92
        8
 66
     7
 43
1.0
 76
     1
 77
     6
 78
     2
 67
     7
 79
     5
170
     0
171
     0
290
     0
174
     0
 93
        1
 44
-50.0
173
     0
291
     1
 45
0.0
1001
ACAD
1000
AcDbSavedByObjectVersion
1070
     0
  0
VISUALSTYLE
  5
39
102
{ACAD_REACTORS
330
2A
102
}
102
{ACAD_XDICTIONARY
360
36A
102
}
330
2A
100
AcDbVisualStyle
  2
Facepattern
 70
    15
 71
     2
 72
     2
 73
     0
 90
        0
 40
-0.6
 41
-30.0
 62
     5
 63
     7
 74
     1
 91
        4
 64
     7
 65
   257
 75
     1
175
     1
 42
1.0
 92
        8
 66
     7
 43
1.0
 76
     1
 77
     6
 78
     2
 67
     7
 79
     5
170
     0
171
     0
290
     0
174
     0
 93
        1
 44
0.0
173
     0
291
     1
 45
0.0
1001
ACAD
1000
AcDbSavedByObjectVersion
1070
     0
  0
VISUALSTYLE
  5
2B
102
{ACAD_REACTORS
330
2A
102
}
102
{ACAD_XDICTIONARY
360
34E
102
}
330
2A
100
AcDbVisualStyle
  2
Flat
 70
     0
 71
     2
 72
     1
 73
     1
 90
        2
 40
-0.6
 41
30.0
 62
     5
 63
     7
 74
     0
 91
        4
 64
     7
 65
   257
 75
     1
175
     1
 42
1.0
 92
        8
 66
     7
 43
1.0
 76
     1
 77
     6
 78
     2
 67
     7
 79
     5
170
     0
171
     0
290
     0
174
     0
 93
       13
 44
0.0
173
     0
291
     1
 45
0.0
1001
ACAD
1000
AcDbSavedByObjectVersion
1070
     0
  0
VISUALSTYLE
  5
2C
102
{ACAD_REACTORS
330
2A
102
}
102
{ACAD_XDICTIONARY
360
350
102
}
330
2A
100
AcDbVisualStyle
  2
FlatWithEdges
 70
     1
 71
     2
 72
     1
 73
     1
 90
        2
 40
-0.6
 41
30.0
 62
     5
 63
     7
 74
     1
 91
        4
 64
     7
 65
   257
 75
     1
175
     1
 42
1.0
 92
        0
 66
   257
 43
1.0
 76
     1
 77
     6
 78
     2
 67
     7
 79
     5
170
     0
171
     0
290
     0
174
     0
 93
       13
 44
0.0
173
     0
291
     1
 45
0.0
1001
ACAD
1000
AcDbSavedByObjectVersion
1070
     0
  0
VISUALSTYLE
  5
2D
102
{ACAD_REACTORS
330
2A
102
}
102
{ACAD_XDICTIONARY
360
352
102
}
330
2A
100
AcDbVisualStyle
  2
Gouraud
 70
     2
 71
     2
 72
     2
 73
     1
 90
        2
 40
-0.6
 41
30.0
 62
     5
 63
     7
 74
     0
 91
        4
 64
     7
 65
   257
 75
     1
175
     1
 42
1.0
 92
        0
 66
     7
 43
1.0
 76
     1
 77
     6
 78
     2
 67
     7
 79
     5
170
     0
171
     0
290
     0
174
     0
 93
       13
 44
0.0
173
     0
291
     1
 45
0.0
1001
ACAD
1000
AcDbSavedByObjectVersion
1070
     0
  0
VISUALSTYLE
  5
2E
102
{ACAD_REACTORS
330
2A
102
}
102
{ACAD_XDICTIONARY
360
354
102
}
330
2A
100
AcDbVisualStyle
  2
GouraudWithEdges
 70
     3
 71
     2
 72
     2
 73
     1
 90
        2
 40
-0.6
 41
30.0
 62
     5
 63
     7
 74
     1
 91
        4
 64
     7
 65
   257
 75
     1
175
     1
 42
1.0
 92
        0
 66
   257
 43
1.0
 76
     1
 77
     6
 78
     2
 67
     7
 79
     5
170
     0
171
     0
290
     0
174
     0
 93
       13
 44
0.0
173
     0
291
     1
 45
0.0
1001
ACAD
1000
AcDbSavedByObjectVersion
1070
     0
  0
VISUALSTYLE
  5
38
102
{ACAD_REACTORS
330
2A
102
}
102
{ACAD_XDICTIONARY
360
368
102
}
330
2A
100
AcDbVisualStyle
  2
Linepattern
 70
    14
 71
     2
 72
     2
 73
     0
 90
        0
 40
-0.6
 41
-30.0
 62
     5
 63
     7
 74
     1
 91
        4
 64
     7
 65
   257
 75
     7
175
     7
 42
1.0
 92
        8
 66
     7
 43
1.0
 76
     1
 77
     6
 78
     2
 67
     7
 79
     5
170
     0
171
     0
290
     0
174
     0
 93
        1
 44
0.0
173
     0
291
     1
 45
0.0
1001
ACAD
1000
AcDbSavedByObjectVersion
1070
     0
  0
VISUALSTYLE
  5
33
102
{ACAD_REACTORS
330
2A
102
}
102
{ACAD_XDICTIONARY
360
35E
102
}
330
2A
100
AcDbVisualStyle
  2
Realistic
 70
     8
 71
     2
 72
     2
 73
     0
 90
        0
 40
-0.6
 41
-30.0
 62
     5
 63
     7
 74
     1
 91
        0
 64
     7
 65
   257
 75
     1
175
     1
 42
1.0
 92
        8
 66
     8
 43
1.0
 76
     1
 77
     6
 78
     2
 67
     7
 79
     5
170
     0
171
     0
290
     0
174
     0
 93
       13
 44
0.0
173
     0
291
     0
 45
0.0
1001
ACAD
1000
AcDbSavedByObjectVersion
1070
     0
  0
VISUALSTYLE
  5
37
102
{ACAD_REACTORS
330
2A
102
}
102
{ACAD_XDICTIONARY
360
366
102
}
330
2A
100
AcDbVisualStyle
  2
Thicken
 70
    13
 71
     2
 72
     2
 73
     0
 90
        0
 40
-0.6
 41
-30.0
 62
     5
 63
     7
 74
     1
 91
        4
 64
     7
 65
   257
 75
     1
175
     1
 42
1.0
 92
       12
 66
     7
 43
1.0
 76
     1
 77
     6
 78
     2
 67
     7
 79
     5
170
     0
171
     0
290
     0
174
     0
 93
        1
 44
0.0
173
     0
291
     1
 45
0.0
1001
ACAD
1000
AcDbSavedByObjectVersion
1070
     0
  0
DICTIONARYVAR
  5
34C
102
{ACAD_REACTORS
330
349
102
}
330
349
100
DictionaryVariables
280
     0
  1
2
  0
DICTIONARYVAR
  5
34D
102
{ACAD_REACTORS
330
349
102
}
330
349
100
DictionaryVariables
280
     0
  1
1
  0
DICTIONARY
  5
370
330
3D
100
AcDbDictionary
280
     1
281
     1
  3
ACAD_XREC_ROUNDTRIP
360
371
  0
DICTIONARY
  5
36E
330
3C
100
AcDbDictionary
280
     1
281
     1
  3
ACAD_XREC_ROUNDTRIP
360
36F
  0
DICTIONARY
  5
372
330
3E
100
AcDbDictionary
280
     1
281
     1
  3
ACAD_XREC_ROUNDTRIP
360
373
  0
DICTIONARY
  5
356
330
2F
100
AcDbDictionary
280
     1
281
     1
  3
ACAD_XREC_ROUNDTRIP
360
357
  0
DICTIONARY
  5
35A
330
31
100
AcDbDictionary
280
     1
281
     1
  3
ACAD_XREC_ROUNDTRIP
360
35B
  0
DICTIONARY
  5
358
330
30
100
AcDbDictionary
280
     1
281
     1
  3
ACAD_XREC_ROUNDTRIP
360
359
  0
DICTIONARY
  5
35C
330
32
100
AcDbDictionary
280
     1
281
     1
  3
ACAD_XREC_ROUNDTRIP
360
35D
  0
DICTIONARY
  5
364
330
36
100
AcDbDictionary
280
     1
281
     1
  3
ACAD_XREC_ROUNDTRIP
360
365
  0
DICTIONARY
  5
36C
330
3A
100
AcDbDictionary
280
     1
281
     1
  3
ACAD_XREC_ROUNDTRIP
360
36D
  0
DICTIONARY
  5
360
330
34
100
AcDbDictionary
280
     1
281
     1
  3
ACAD_XREC_ROUNDTRIP
360
361
  0
DICTIONARY
  5
362
330
35
100
AcDbDictionary
280
     1
281
     1
  3
ACAD_XREC_ROUNDTRIP
360
363
  0
DICTIONARY
  5
36A
330
39
100
AcDbDictionary
280
     1
281
     1
  3
ACAD_XREC_ROUNDTRIP
360
36B
  0
DICTIONARY
  5
34E
330
2B
100
AcDbDictionary
280
     1
281
     1
  3
ACAD_XREC_ROUNDTRIP
360
34F
  0
DICTIONARY
  5
350
330
2C
100
AcDbDictionary
280
     1
281
     1
  3
ACAD_XREC_ROUNDTRIP
360
351
  0
DICTIONARY
  5
352
330
2D
100
AcDbDictionary
280
     1
281
     1
  3
ACAD_XREC_ROUNDTRIP
360
353
  0
DICTIONARY
  5
354
330
2E
100
AcDbDictionary
280
     1
281
     1
  3
ACAD_XREC_ROUNDTRIP
360
355
  0
DICTIONARY
  5
368
330
38
100
AcDbDictionary
280
     1
281
     1
  3
ACAD_XREC_ROUNDTRIP
360
369
  0
DICTIONARY
  5
35E
330
33
100
AcDbDictionary
280
     1
281
     1
  3
ACAD_XREC_ROUNDTRIP
360
35F
  0
DICTIONARY
  5
366
330
37
100
AcDbDictionary
280
     1
281
     1
  3
ACAD_XREC_ROUNDTRIP
360
367
  0
XRECORD
  5
371
102
{ACAD_REACTORS
330
370
102
}
330
370
100
AcDbXrecord
280
     1
102
MATERIAL
148
0.0
149
0.0
149
0.0
 93
        0
 94
      127
282
     0
 72
     1
 77
     1
171
     1
175
     1
179
     1
273
     0
  0
XRECORD
  5
36F
102
{ACAD_REACTORS
330
36E
102
}
330
36E
100
AcDbXrecord
280
     1
102
MATERIAL
148
0.0
149
0.0
149
0.0
 93
        0
 94
      127
282
     0
 72
     1
 77
     1
171
     1
175
     1
179
     1
273
     0
  0
XRECORD
  5
373
102
{ACAD_REACTORS
330
372
102
}
330
372
100
AcDbXrecord
280
     1
102
MATERIAL
148
0.0
149
0.0
149
0.0
 93
        0
 94
      127
282
     0
 72
     1
 77
     1
171
     1
175
     1
179
     1
273
     0
  0
XRECORD
  5
357
102
{ACAD_REACTORS
330
356
102
}
330
356
100
AcDbXrecord
280
     1
102
RTVSPropertyOp0
 70
     1
102
RTVSPropertyOp1
 70
     1
102
RTVSPropertyOp2
 70
     1
102
RTVSPropertyOp3
 70
     1
102
RTVSPropertyOp4
 70
     1
102
RTVSPropertyOp5
 70
     1
102
RTVSPropertyOp6
 70
     1
102
RTVSPropertyOp7
 70
     1
102
RTVSPropertyOp8
 70
     1
102
RTVSPropertyOp9
 70
     1
102
RTVSPropertyOp10
 70
     1
102
RTVSPropertyOp11
 70
     1
102
RTVSPropertyOp12
 70
     1
102
RTVSPropertyOp13
 70
     1
102
RTVSPropertyOp14
 70
     1
102
RTVSPropertyOp15
 70
     1
102
RTVSPropertyOp16
 70
     1
102
RTVSPropertyOp17
 70
     1
102
RTVSPropertyOp18
 70
     1
102
RTVSPropertyOp19
 70
     1
102
RTVSPropertyOp20
 70
     1
102
RTVSPropertyOp21
 70
     1
102
RTVSPropertyOp22
 70
     1
102
RTVSPropertyOp23
 70
     1
102
RTVSPropertyOp24
 70
     1
102
RTVSPropertyOp25
 70
     1
102
RTVSPropertyOp26
 70
     1
102
RTVSPropertyOp27
 70
     1
102
RTVSPropertyOp28
 70
     1
102
RTVSPropertyOp29
 70
     1
102
RTVSPropertyOp30
 70
     1
102
RTVSPropertyOp31
 70
     1
102
RTVSPropertyOp32
 70
     1
  0
XRECORD
  5
35B
102
{ACAD_REACTORS
330
35A
102
}
330
35A
100
AcDbXrecord
280
     1
102
RTVSPropertyOp0
 70
     1
102
RTVSPropertyOp1
 70
     1
102
RTVSPropertyOp2
 70
     1
102
RTVSPropertyOp3
 70
     1
102
RTVSPropertyOp4
 70
     1
102
RTVSPropertyOp5
 70
     1
102
RTVSPropertyOp6
 70
     1
102
RTVSPropertyOp7
 70
     1
102
RTVSPropertyOp8
 70
     1
102
RTVSPropertyOp9
 70
     1
102
RTVSPropertyOp10
 70
     1
102
RTVSPropertyOp11
 70
     1
102
RTVSPropertyOp12
 70
     1
102
RTVSPropertyOp13
 70
     1
102
RTVSPropertyOp14
 70
     1
102
RTVSPropertyOp15
 70
     1
102
RTVSPropertyOp16
 70
     1
102
RTVSPropertyOp17
 70
     1
102
RTVSPropertyOp18
 70
     1
102
RTVSPropertyOp19
 70
     1
102
RTVSPropertyOp20
 70
     1
102
RTVSPropertyOp21
 70
     1
102
RTVSPropertyOp22
 70
     1
102
RTVSPropertyOp23
 70
     1
102
RTVSPropertyOp24
 70
     1
102
RTVSPropertyOp25
 70
     1
102
RTVSPropertyOp26
 70
     1
102
RTVSPropertyOp27
 70
     1
102
RTVSPropertyOp28
 70
     1
102
RTVSPropertyOp29
 70
     1
102
RTVSPropertyOp30
 70
     1
102
RTVSPropertyOp31
 70
     1
102
RTVSPropertyOp32
 70
     1
  0
XRECORD
  5
359
102
{ACAD_REACTORS
330
358
102
}
330
358
100
AcDbXrecord
280
     1
102
RTVSPropertyOp0
 70
     1
102
RTVSPropertyOp1
 70
     1
102
RTVSPropertyOp2
 70
     1
102
RTVSPropertyOp3
 70
     1
102
RTVSPropertyOp4
 70
     1
102
RTVSPropertyOp5
 70
     1
102
RTVSPropertyOp6
 70
     1
102
RTVSPropertyOp7
 70
     1
102
RTVSPropertyOp8
 70
     1
102
RTVSPropertyOp9
 70
     1
102
RTVSPropertyOp10
 70
     1
102
RTVSPropertyOp11
 70
     1
102
RTVSPropertyOp12
 70
     1
102
RTVSPropertyOp13
 70
     1
102
RTVSPropertyOp14
 70
     1
102
RTVSPropertyOp15
 70
     1
102
RTVSPropertyOp16
 70
     1
102
RTVSPropertyOp17
 70
     1
102
RTVSPropertyOp18
 70
     1
102
RTVSPropertyOp19
 70
     1
102
RTVSPropertyOp20
 70
     1
102
RTVSPropertyOp21
 70
     1
102
RTVSPropertyOp22
 70
     1
102
RTVSPropertyOp23
 70
     1
102
RTVSPropertyOp24
 70
     1
102
RTVSPropertyOp25
 70
     1
102
RTVSPropertyOp26
 70
     1
102
RTVSPropertyOp27
 70
     1
102
RTVSPropertyOp28
 70
     1
102
RTVSPropertyOp29
 70
     1
102
RTVSPropertyOp30
 70
     1
102
RTVSPropertyOp31
 70
     1
102
RTVSPropertyOp32
 70
     1
  0
XRECORD
  5
35D
102
{ACAD_REACTORS
330
35C
102
}
330
35C
100
AcDbXrecord
280
     1
102
RTVSPropertyOp0
 70
     1
102
RTVSPropertyOp1
 70
     1
102
RTVSPropertyOp2
 70
     1
102
RTVSPropertyOp3
 70
     1
102
RTVSPropertyOp4
 70
     1
102
RTVSPropertyOp5
 70
     1
102
RTVSPropertyOp6
 70
     1
102
RTVSPropertyOp7
 70
     1
102
RTVSPropertyOp8
 70
     1
102
RTVSPropertyOp9
 70
     1
102
RTVSPropertyOp10
 70
     1
102
RTVSPropertyOp11
 70
     1
102
RTVSPropertyOp12
 70
     1
102
RTVSPropertyOp13
 70
     1
102
RTVSPropertyOp14
 70
     1
102
RTVSPropertyOp15
 70
     1
102
RTVSPropertyOp16
 70
     1
102
RTVSPropertyOp17
 70
     1
102
RTVSPropertyOp18
 70
     1
102
RTVSPropertyOp19
 70
     1
102
RTVSPropertyOp20
 70
     1
102
RTVSPropertyOp21
 70
     1
102
RTVSPropertyOp22
 70
     1
102
RTVSPropertyOp23
 70
     1
102
RTVSPropertyOp24
 70
     1
102
RTVSPropertyOp25
 70
     1
102
RTVSPropertyOp26
 70
     1
102
RTVSPropertyOp27
 70
     1
102
RTVSPropertyOp28
 70
     1
102
RTVSPropertyOp29
 70
     1
102
RTVSPropertyOp30
 70
     1
102
RTVSPropertyOp31
 70
     1
102
RTVSPropertyOp32
 70
     1
  0
XRECORD
  5
365
102
{ACAD_REACTORS
330
364
102
}
330
364
100
AcDbXrecord
280
     1
102
RTVSPropertyOp0
 70
     1
102
RTVSPropertyOp1
 70
     1
102
RTVSPropertyOp2
 70
     1
102
RTVSPropertyOp3
 70
     1
102
RTVSPropertyOp4
 70
     1
102
RTVSPropertyOp5
 70
     1
102
RTVSPropertyOp6
 70
     1
102
RTVSPropertyOp7
 70
     1
102
RTVSPropertyOp8
 70
     1
102
RTVSPropertyOp9
 70
     1
102
RTVSPropertyOp10
 70
     1
102
RTVSPropertyOp11
 70
     1
102
RTVSPropertyOp12
 70
     1
102
RTVSPropertyOp13
 70
     1
102
RTVSPropertyOp14
 70
     1
102
RTVSPropertyOp15
 70
     1
102
RTVSPropertyOp16
 70
     1
102
RTVSPropertyOp17
 70
     1
102
RTVSPropertyOp18
 70
     1
102
RTVSPropertyOp19
 70
     1
102
RTVSPropertyOp20
 70
     1
102
RTVSPropertyOp21
 70
     1
102
RTVSPropertyOp22
 70
     1
102
RTVSPropertyOp23
 70
     1
102
RTVSPropertyOp24
 70
     1
102
RTVSPropertyOp25
 70
     1
102
RTVSPropertyOp26
 70
     1
102
RTVSPropertyOp27
 70
     1
102
RTVSPropertyOp28
 70
     1
102
RTVSPropertyOp29
 70
     1
102
RTVSPropertyOp30
 70
     1
102
RTVSPropertyOp31
 70
     1
102
RTVSPropertyOp32
 70
     1
  0
XRECORD
  5
36D
102
{ACAD_REACTORS
330
36C
102
}
330
36C
100
AcDbXrecord
280
     1
102
RTVSPropertyOp0
 70
     1
102
RTVSPropertyOp1
 70
     1
102
RTVSPropertyOp2
 70
     1
102
RTVSPropertyOp3
 70
     1
102
RTVSPropertyOp4
 70
     1
102
RTVSPropertyOp5
 70
     1
102
RTVSPropertyOp6
 70
     1
102
RTVSPropertyOp7
 70
     1
102
RTVSPropertyOp8
 70
     1
102
RTVSPropertyOp9
 70
     1
102
RTVSPropertyOp10
 70
     1
102
RTVSPropertyOp11
 70
     1
102
RTVSPropertyOp12
 70
     1
102
RTVSPropertyOp13
 70
     1
102
RTVSPropertyOp14
 70
     1
102
RTVSPropertyOp15
 70
     1
102
RTVSPropertyOp16
 70
     1
102
RTVSPropertyOp17
 70
     1
102
RTVSPropertyOp18
 70
     1
102
RTVSPropertyOp19
 70
     1
102
RTVSPropertyOp20
 70
     1
102
RTVSPropertyOp21
 70
     1
102
RTVSPropertyOp22
 70
     1
102
RTVSPropertyOp23
 70
     1
102
RTVSPropertyOp24
 70
     1
102
RTVSPropertyOp25
 70
     1
102
RTVSPropertyOp26
 70
     1
102
RTVSPropertyOp27
 70
     1
102
RTVSPropertyOp28
 70
     1
102
RTVSPropertyOp29
 70
     1
102
RTVSPropertyOp30
 70
     1
102
RTVSPropertyOp31
 70
     1
102
RTVSPropertyOp32
 70
     1
  0
XRECORD
  5
361
102
{ACAD_REACTORS
330
360
102
}
330
360
100
AcDbXrecord
280
     1
102
RTVSPropertyOp0
 70
     1
102
RTVSPropertyOp1
 70
     1
102
RTVSPropertyOp2
 70
     1
102
RTVSPropertyOp3
 70
     1
102
RTVSPropertyOp4
 70
     1
102
RTVSPropertyOp5
 70
     1
102
RTVSPropertyOp6
 70
     1
102
RTVSPropertyOp7
 70
     1
102
RTVSPropertyOp8
 70
     1
102
RTVSPropertyOp9
 70
     1
102
RTVSPropertyOp10
 70
     1
102
RTVSPropertyOp11
 70
     1
102
RTVSPropertyOp12
 70
     1
102
RTVSPropertyOp13
 70
     1
102
RTVSPropertyOp14
 70
     1
102
RTVSPropertyOp15
 70
     1
102
RTVSPropertyOp16
 70
     1
102
RTVSPropertyOp17
 70
     1
102
RTVSPropertyOp18
 70
     1
102
RTVSPropertyOp19
 70
     1
102
RTVSPropertyOp20
 70
     1
102
RTVSPropertyOp21
 70
     1
102
RTVSPropertyOp22
 70
     1
102
RTVSPropertyOp23
 70
     1
102
RTVSPropertyOp24
 70
     1
102
RTVSPropertyOp25
 70
     1
102
RTVSPropertyOp26
 70
     1
102
RTVSPropertyOp27
 70
     1
102
RTVSPropertyOp28
 70
     1
102
RTVSPropertyOp29
 70
     1
102
RTVSPropertyOp30
 70
     1
102
RTVSPropertyOp31
 70
     1
102
RTVSPropertyOp32
 70
     1
  0
XRECORD
  5
363
102
{ACAD_REACTORS
330
362
102
}
330
362
100
AcDbXrecord
280
     1
102
RTVSPropertyOp0
 70
     1
102
RTVSPropertyOp1
 70
     1
102
RTVSPropertyOp2
 70
     1
102
RTVSPropertyOp3
 70
     1
102
RTVSPropertyOp4
 70
     1
102
RTVSPropertyOp5
 70
     1
102
RTVSPropertyOp6
 70
     1
102
RTVSPropertyOp7
 70
     1
102
RTVSPropertyOp8
 70
     1
102
RTVSPropertyOp9
 70
     1
102
RTVSPropertyOp10
 70
     1
102
RTVSPropertyOp11
 70
     1
102
RTVSPropertyOp12
 70
     1
102
RTVSPropertyOp13
 70
     1
102
RTVSPropertyOp14
 70
     1
102
RTVSPropertyOp15
 70
     1
102
RTVSPropertyOp16
 70
     1
102
RTVSPropertyOp17
 70
     1
102
RTVSPropertyOp18
 70
     1
102
RTVSPropertyOp19
 70
     1
102
RTVSPropertyOp20
 70
     1
102
RTVSPropertyOp21
 70
     1
102
RTVSPropertyOp22
 70
     1
102
RTVSPropertyOp23
 70
     1
102
RTVSPropertyOp24
 70
     1
102
RTVSPropertyOp25
 70
     1
102
RTVSPropertyOp26
 70
     1
102
RTVSPropertyOp27
 70
     1
102
RTVSPropertyOp28
 70
     1
102
RTVSPropertyOp29
 70
     1
102
RTVSPropertyOp30
 70
     1
102
RTVSPropertyOp31
 70
     1
102
RTVSPropertyOp32
 70
     1
  0
XRECORD
  5
36B
102
{ACAD_REACTORS
330
36A
102
}
330
36A
100
AcDbXrecord
280
     1
102
RTVSPropertyOp0
 70
     1
102
RTVSPropertyOp1
 70
     1
102
RTVSPropertyOp2
 70
     1
102
RTVSPropertyOp3
 70
     1
102
RTVSPropertyOp4
 70
     1
102
RTVSPropertyOp5
 70
     1
102
RTVSPropertyOp6
 70
     1
102
RTVSPropertyOp7
 70
     1
102
RTVSPropertyOp8
 70
     1
102
RTVSPropertyOp9
 70
     1
102
RTVSPropertyOp10
 70
     1
102
RTVSPropertyOp11
 70
     1
102
RTVSPropertyOp12
 70
     1
102
RTVSPropertyOp13
 70
     1
102
RTVSPropertyOp14
 70
     1
102
RTVSPropertyOp15
 70
     1
102
RTVSPropertyOp16
 70
     1
102
RTVSPropertyOp17
 70
     1
102
RTVSPropertyOp18
 70
     1
102
RTVSPropertyOp19
 70
     1
102
RTVSPropertyOp20
 70
     1
102
RTVSPropertyOp21
 70
     1
102
RTVSPropertyOp22
 70
     1
102
RTVSPropertyOp23
 70
     1
102
RTVSPropertyOp24
 70
     1
102
RTVSPropertyOp25
 70
     1
102
RTVSPropertyOp26
 70
     1
102
RTVSPropertyOp27
 70
     1
102
RTVSPropertyOp28
 70
     1
102
RTVSPropertyOp29
 70
     1
102
RTVSPropertyOp30
 70
     1
102
RTVSPropertyOp31
 70
     1
102
RTVSPropertyOp32
 70
     1
  0
XRECORD
  5
34F
102
{ACAD_REACTORS
330
34E
102
}
330
34E
100
AcDbXrecord
280
     1
102
RTVSPropertyOp0
 70
     1
102
RTVSPropertyOp1
 70
     1
102
RTVSPropertyOp2
 70
     1
102
RTVSPropertyOp3
 70
     1
102
RTVSPropertyOp4
 70
     1
102
RTVSPropertyOp5
 70
     1
102
RTVSPropertyOp6
 70
     1
102
RTVSPropertyOp7
 70
     1
102
RTVSPropertyOp8
 70
     1
102
RTVSPropertyOp9
 70
     1
102
RTVSPropertyOp10
 70
     1
102
RTVSPropertyOp11
 70
     1
102
RTVSPropertyOp12
 70
     1
102
RTVSPropertyOp13
 70
     1
102
RTVSPropertyOp14
 70
     1
102
RTVSPropertyOp15
 70
     1
102
RTVSPropertyOp16
 70
     1
102
RTVSPropertyOp17
 70
     1
102
RTVSPropertyOp18
 70
     1
102
RTVSPropertyOp19
 70
     1
102
RTVSPropertyOp20
 70
     1
102
RTVSPropertyOp21
 70
     1
102
RTVSPropertyOp22
 70
     1
102
RTVSPropertyOp23
 70
     1
102
RTVSPropertyOp24
 70
     1
102
RTVSPropertyOp25
 70
     1
102
RTVSPropertyOp26
 70
     1
102
RTVSPropertyOp27
 70
     1
102
RTVSPropertyOp28
 70
     1
102
RTVSPropertyOp29
 70
     1
102
RTVSPropertyOp30
 70
     1
102
RTVSPropertyOp31
 70
     1
102
RTVSPropertyOp32
 70
     1
  0
XRECORD
  5
351
102
{ACAD_REACTORS
330
350
102
}
330
350
100
AcDbXrecord
280
     1
102
RTVSPropertyOp0
 70
     1
102
RTVSPropertyOp1
 70
     1
102
RTVSPropertyOp2
 70
     1
102
RTVSPropertyOp3
 70
     1
102
RTVSPropertyOp4
 70
     1
102
RTVSPropertyOp5
 70
     1
102
RTVSPropertyOp6
 70
     1
102
RTVSPropertyOp7
 70
     1
102
RTVSPropertyOp8
 70
     1
102
RTVSPropertyOp9
 70
     1
102
RTVSPropertyOp10
 70
     1
102
RTVSPropertyOp11
 70
     1
102
RTVSPropertyOp12
 70
     1
102
RTVSPropertyOp13
 70
     1
102
RTVSPropertyOp14
 70
     1
102
RTVSPropertyOp15
 70
     1
102
RTVSPropertyOp16
 70
     1
102
RTVSPropertyOp17
 70
     1
102
RTVSPropertyOp18
 70
     1
102
RTVSPropertyOp19
 70
     1
102
RTVSPropertyOp20
 70
     1
102
RTVSPropertyOp21
 70
     1
102
RTVSPropertyOp22
 70
     1
102
RTVSPropertyOp23
 70
     1
102
RTVSPropertyOp24
 70
     1
102
RTVSPropertyOp25
 70
     1
102
RTVSPropertyOp26
 70
     1
102
RTVSPropertyOp27
 70
     1
102
RTVSPropertyOp28
 70
     1
102
RTVSPropertyOp29
 70
     1
102
RTVSPropertyOp30
 70
     1
102
RTVSPropertyOp31
 70
     1
102
RTVSPropertyOp32
 70
     1
  0
XRECORD
  5
353
102
{ACAD_REACTORS
330
352
102
}
330
352
100
AcDbXrecord
280
     1
102
RTVSPropertyOp0
 70
     1
102
RTVSPropertyOp1
 70
     1
102
RTVSPropertyOp2
 70
     1
102
RTVSPropertyOp3
 70
     1
102
RTVSPropertyOp4
 70
     1
102
RTVSPropertyOp5
 70
     1
102
RTVSPropertyOp6
 70
     1
102
RTVSPropertyOp7
 70
     1
102
RTVSPropertyOp8
 70
     1
102
RTVSPropertyOp9
 70
     1
102
RTVSPropertyOp10
 70
     1
102
RTVSPropertyOp11
 70
     1
102
RTVSPropertyOp12
 70
     1
102
RTVSPropertyOp13
 70
     1
102
RTVSPropertyOp14
 70
     1
102
RTVSPropertyOp15
 70
     1
102
RTVSPropertyOp16
 70
     1
102
RTVSPropertyOp17
 70
     1
102
RTVSPropertyOp18
 70
     1
102
RTVSPropertyOp19
 70
     1
102
RTVSPropertyOp20
 70
     1
102
RTVSPropertyOp21
 70
     1
102
RTVSPropertyOp22
 70
     1
102
RTVSPropertyOp23
 70
     1
102
RTVSPropertyOp24
 70
     1
102
RTVSPropertyOp25
 70
     1
102
RTVSPropertyOp26
 70
     1
102
RTVSPropertyOp27
 70
     1
102
RTVSPropertyOp28
 70
     1
102
RTVSPropertyOp29
 70
     1
102
RTVSPropertyOp30
 70
     1
102
RTVSPropertyOp31
 70
     1
102
RTVSPropertyOp32
 70
     1
  0
XRECORD
  5
355
102
{ACAD_REACTORS
330
354
102
}
330
354
100
AcDbXrecord
280
     1
102
RTVSPropertyOp0
 70
     1
102
RTVSPropertyOp1
 70
     1
102
RTVSPropertyOp2
 70
     1
102
RTVSPropertyOp3
 70
     1
102
RTVSPropertyOp4
 70
     1
102
RTVSPropertyOp5
 70
     1
102
RTVSPropertyOp6
 70
     1
102
RTVSPropertyOp7
 70
     1
102
RTVSPropertyOp8
 70
     1
102
RTVSPropertyOp9
 70
     1
102
RTVSPropertyOp10
 70
     1
102
RTVSPropertyOp11
 70
     1
102
RTVSPropertyOp12
 70
     1
102
RTVSPropertyOp13
 70
     1
102
RTVSPropertyOp14
 70
     1
102
RTVSPropertyOp15
 70
     1
102
RTVSPropertyOp16
 70
     1
102
RTVSPropertyOp17
 70
     1
102
RTVSPropertyOp18
 70
     1
102
RTVSPropertyOp19
 70
     1
102
RTVSPropertyOp20
 70
     1
102
RTVSPropertyOp21
 70
     1
102
RTVSPropertyOp22
 70
     1
102
RTVSPropertyOp23
 70
     1
102
RTVSPropertyOp24
 70
     1
102
RTVSPropertyOp25
 70
     1
102
RTVSPropertyOp26
 70
     1
102
RTVSPropertyOp27
 70
     1
102
RTVSPropertyOp28
 70
     1
102
RTVSPropertyOp29
 70
     1
102
RTVSPropertyOp30
 70
     1
102
RTVSPropertyOp31
 70
     1
102
RTVSPropertyOp32
 70
     1
  0
XRECORD
  5
369
102
{ACAD_REACTORS
330
368
102
}
330
368
100
AcDbXrecord
280
     1
102
RTVSPropertyOp0
 70
     1
102
RTVSPropertyOp1
 70
     1
102
RTVSPropertyOp2
 70
     1
102
RTVSPropertyOp3
 70
     1
102
RTVSPropertyOp4
 70
     1
102
RTVSPropertyOp5
 70
     1
102
RTVSPropertyOp6
 70
     1
102
RTVSPropertyOp7
 70
     1
102
RTVSPropertyOp8
 70
     1
102
RTVSPropertyOp9
 70
     1
102
RTVSPropertyOp10
 70
     1
102
RTVSPropertyOp11
 70
     1
102
RTVSPropertyOp12
 70
     1
102
RTVSPropertyOp13
 70
     1
102
RTVSPropertyOp14
 70
     1
102
RTVSPropertyOp15
 70
     1
102
RTVSPropertyOp16
 70
     1
102
RTVSPropertyOp17
 70
     1
102
RTVSPropertyOp18
 70
     1
102
RTVSPropertyOp19
 70
     1
102
RTVSPropertyOp20
 70
     1
102
RTVSPropertyOp21
 70
     1
102
RTVSPropertyOp22
 70
     1
102
RTVSPropertyOp23
 70
     1
102
RTVSPropertyOp24
 70
     1
102
RTVSPropertyOp25
 70
     1
102
RTVSPropertyOp26
 70
     1
102
RTVSPropertyOp27
 70
     1
102
RTVSPropertyOp28
 70
     1
102
RTVSPropertyOp29
 70
     1
102
RTVSPropertyOp30
 70
     1
102
RTVSPropertyOp31
 70
     1
102
RTVSPropertyOp32
 70
     1
  0
XRECORD
  5
35F
102
{ACAD_REACTORS
330
35E
102
}
330
35E
100
AcDbXrecord
280
     1
102
RTVSPropertyOp0
 70
     1
102
RTVSPropertyOp1
 70
     1
102
RTVSPropertyOp2
 70
     1
102
RTVSPropertyOp3
 70
     1
102
RTVSPropertyOp4
 70
     1
102
RTVSPropertyOp5
 70
     1
102
RTVSPropertyOp6
 70
     1
102
RTVSPropertyOp7
 70
     1
102
RTVSPropertyOp8
 70
     1
102
RTVSPropertyOp9
 70
     1
102
RTVSPropertyOp10
 70
     1
102
RTVSPropertyOp11
 70
     1
102
RTVSPropertyOp12
 70
     1
102
RTVSPropertyOp13
 70
     1
102
RTVSPropertyOp14
 70
     1
102
RTVSPropertyOp15
 70
     1
102
RTVSPropertyOp16
 70
     1
102
RTVSPropertyOp17
 70
     1
102
RTVSPropertyOp18
 70
     1
102
RTVSPropertyOp19
 70
     1
102
RTVSPropertyOp20
 70
     1
102
RTVSPropertyOp21
 70
     1
102
RTVSPropertyOp22
 70
     1
102
RTVSPropertyOp23
 70
     1
102
RTVSPropertyOp24
 70
     1
102
RTVSPropertyOp25
 70
     1
102
RTVSPropertyOp26
 70
     1
102
RTVSPropertyOp27
 70
     1
102
RTVSPropertyOp28
 70
     1
102
RTVSPropertyOp29
 70
     1
102
RTVSPropertyOp30
 70
     1
102
RTVSPropertyOp31
 70
     1
102
RTVSPropertyOp32
 70
     1
  0
XRECORD
  5
367
102
{ACAD_REACTORS
330
366
102
}
330
366
100
AcDbXrecord
280
     1
102
RTVSPropertyOp0
 70
     1
102
RTVSPropertyOp1
 70
     1
102
RTVSPropertyOp2
 70
     1
102
RTVSPropertyOp3
 70
     1
102
RTVSPropertyOp4
 70
     1
102
RTVSPropertyOp5
 70
     1
102
RTVSPropertyOp6
 70
     1
102
RTVSPropertyOp7
 70
     1
102
RTVSPropertyOp8
 70
     1
102
RTVSPropertyOp9
 70
     1
102
RTVSPropertyOp10
 70
     1
102
RTVSPropertyOp11
 70
     1
102
RTVSPropertyOp12
 70
     1
102
RTVSPropertyOp13
 70
     1
102
RTVSPropertyOp14
 70
     1
102
RTVSPropertyOp15
 70
     1
102
RTVSPropertyOp16
 70
     1
102
RTVSPropertyOp17
 70
     1
102
RTVSPropertyOp18
 70
     1
102
RTVSPropertyOp19
 70
     1
102
RTVSPropertyOp20
 70
     1
102
RTVSPropertyOp21
 70
     1
102
RTVSPropertyOp22
 70
     1
102
RTVSPropertyOp23
 70
     1
102
RTVSPropertyOp24
 70
     1
102
RTVSPropertyOp25
 70
     1
102
RTVSPropertyOp26
 70
     1
102
RTVSPropertyOp27
 70
     1
102
RTVSPropertyOp28
 70
     1
102
RTVSPropertyOp29
 70
     1
102
RTVSPropertyOp30
 70
     1
102
RTVSPropertyOp31
 70
     1
102
RTVSPropertyOp32
 70
     1
  0
ENDSEC
  0
EOF
