  0
SECTION
  2
HEADER
  9
$ACADVER
  1
AC1015
  9
$ACADMAINTVER
 70
     6
  9
$DWGCODEPAGE
  3
ANSI_1252
  9
$INSBASE
 10
0.0
 20
0.0
 30
0.0
  9
$EXTMIN
 10
-29.80287616070203
 20
752.248120707749
 30
0.0
  9
$EXTMAX
 10
267.1971238392961
 20
962.248120707749
 30
0.0
  9
$LIMMIN
 10
0.0
 20
0.0
  9
$LIMMAX
 10
12.0
 20
9.0
  9
$ORTHOMODE
 70
     0
  9
$REGENMODE
 70
     1
  9
$FILLMODE
 70
     1
  9
$QTEXTMODE
 70
     0
  9
$MIRRTEXT
 70
     1
  9
$LTSCALE
 40
1.0
  9
$ATTMODE
 70
     1
  9
$TEXTSIZE
 40
0.2
  9
$TRACEWID
 40
0.05
  9
$TEXTSTYLE
  7
Standard
  9
$CLAYER
  8
0
  9
$CELTYPE
  6
ByLayer
  9
$CECOLOR
 62
   256
  9
$CELTSCALE
 40
1.0
  9
$DISPSILH
 70
     0
  9
$DIMSCALE
 40
1.0
  9
$DIMASZ
 40
0.18
  9
$DIMEXO
 40
0.0625
  9
$DIMDLI
 40
0.38
  9
$DIMRND
 40
0.0
  9
$DIMDLE
 40
0.0
  9
$DIMEXE
 40
0.18
  9
$DIMTP
 40
0.0
  9
$DIMTM
 40
0.0
  9
$DIMTXT
 40
0.18
  9
$DIMCEN
 40
0.09
  9
$DIMTSZ
 40
0.0
  9
$DIMTOL
 70
     0
  9
$DIMLIM
 70
     0
  9
$DIMTIH
 70
     1
  9
$DIMTOH
 70
     1
  9
$DIMSE1
 70
     0
  9
$DIMSE2
 70
     0
  9
$DIMTAD
 70
     0
  9
$DIMZIN
 70
     0
  9
$DIMBLK
  1

  9
$DIMASO
 70
     1
  9
$DIMSHO
 70
     1
  9
$DIMPOST
  1

  9
$DIMAPOST
  1

  9
$DIMALT
 70
     0
  9
$DIMALTD
 70
     2
  9
$DIMALTF
 40
25.4
  9
$DIMLFAC
 40
1.0
  9
$DIMTOFL
 70
     0
  9
$DIMTVP
 40
0.0
  9
$DIMTIX
 70
     0
  9
$DIMSOXD
 70
     0
  9
$DIMSAH
 70
     0
  9
$DIMBLK1
  1

  9
$DIMBLK2
  1

  9
$DIMSTYLE
  2
Standard
  9
$DIMCLRD
 70
     0
  9
$DIMCLRE
 70
     0
  9
$DIMCLRT
 70
     0
  9
$DIMTFAC
 40
1.0
  9
$DIMGAP
 40
0.09
  9
$DIMJUST
 70
     0
  9
$DIMSD1
 70
     0
  9
$DIMSD2
 70
     0
  9
$DIMTOLJ
 70
     1
  9
$DIMTZIN
 70
     0
  9
$DIMALTZ
 70
     0
  9
$DIMALTTZ
 70
     0
  9
$DIMUPT
 70
     0
  9
$DIMDEC
 70
     4
  9
$DIMTDEC
 70
     4
  9
$DIMALTU
 70
     2
  9
$DIMALTTD
 70
     2
  9
$DIMTXSTY
  7
Standard
  9
$DIMAUNIT
 70
     0
  9
$DIMADEC
 70
     0
  9
$DIMALTRND
 40
0.0
  9
$DIMAZIN
 70
     0
  9
$DIMDSEP
 70
    46
  9
$DIMATFIT
 70
     3
  9
$DIMFRAC
 70
     0
  9
$DIMLDRBLK
  1

  9
$DIMLUNIT
 70
     2
  9
$DIMLWD
 70
    -2
  9
$DIMLWE
 70
    -2
  9
$DIMTMOVE
 70
     0
  9
$LUNITS
 70
     2
  9
$LUPREC
 70
     4
  9
$SKETCHINC
 40
0.1
  9
$FILLETRAD
 40
0.5
  9
$AUNITS
 70
     0
  9
$AUPREC
 70
     0
  9
$MENU
  1
.
  9
$ELEVATION
 40
0.0
  9
$PELEVATION
 40
0.0
  9
$THICKNESS
 40
0.0
  9
$LIMCHECK
 70
     0
  9
$CHAMFERA
 40
0.5
  9
$CHAMFERB
 40
0.5
  9
$CHAMFERC
 40
1.0
  9
$CHAMFERD
 40
0.0
  9
$SKPOLY
 70
     0
  9
$TDCREATE
 40
2456773.545909062
  9
$TDUCREATE
 40
2456773.462575729
  9
$TDUPDATE
 40
2456773.545910741
  9
$TDUUPDATE
 40
2456773.462577407
  9
$TDINDWG
 40
0.0000000116
  9
$TDUSRTIMER
 40
0.0000000116
  9
$USRTIMER
 70
     1
  9
$ANGBASE
 50
0.0
  9
$ANGDIR
 70
     0
  9
$PDMODE
 70
     0
  9
$PDSIZE
 40
0.0
  9
$PLINEWID
 40
0.0
  9
$SPLFRAME
 70
     0
  9
$SPLINETYPE
 70
     6
  9
$SPLINESEGS
 70
     8
  9
$HANDSEED
  5
380
  9
$SURFTAB1
 70
     6
  9
$SURFTAB2
 70
     6
  9
$SURFTYPE
 70
     6
  9
$SURFU
 70
     6
  9
$SURFV
 70
     6
  9
$UCSBASE
  2

  9
$UCSNAME
  2

  9
$UCSORG
 10
0.0
 20
0.0
 30
0.0
  9
$UCSXDIR
 10
1.0
 20
0.0
 30
0.0
  9
$UCSYDIR
 10
0.0
 20
1.0
 30
0.0
  9
$UCSORTHOREF
  2

  9
$UCSORTHOVIEW
 70
     0
  9
$UCSORGTOP
 10
0.0
 20
0.0
 30
0.0
  9
$UCSORGBOTTOM
 10
0.0
 20
0.0
 30
0.0
  9
$UCSORGLEFT
 10
0.0
 20
0.0
 30
0.0
  9
$UCSORGRIGHT
 10
0.0
 20
0.0
 30
0.0
  9
$UCSORGFRONT
 10
0.0
 20
0.0
 30
0.0
  9
$UCSORGBACK
 10
0.0
 20
0.0
 30
0.0
  9
$PUCSBASE
  2

  9
$PUCSNAME
  2

  9
$PUCSORG
 10
0.0
 20
0.0
 30
0.0
  9
$PUCSXDIR
 10
1.0
 20
0.0
 30
0.0
  9
$PUCSYDIR
 10
0.0
 20
1.0
 30
0.0
  9
$PUCSORTHOREF
  2

  9
$PUCSORTHOVIEW
 70
     0
  9
$PUCSORGTOP
 10
0.0
 20
0.0
 30
0.0
  9
$PUCSORGBOTTOM
 10
0.0
 20
0.0
 30
0.0
  9
$PUCSORGLEFT
 10
0.0
 20
0.0
 30
0.0
  9
$PUCSORGRIGHT
 10
0.0
 20
0.0
 30
0.0
  9
$PUCSORGFRONT
 10
0.0
 20
0.0
 30
0.0
  9
$PUCSORGBACK
 10
0.0
 20
0.0
 30
0.0
  9
$USERI1
 70
     0
  9
$USERI2
 70
     0
  9
$USERI3
 70
     0
  9
$USERI4
 70
     0
  9
$USERI5
 70
     0
  9
$USERR1
 40
18.1
  9
$USERR2
 40
0.0
  9
$USERR3
 40
0.0
  9
$USERR4
 40
0.0
  9
$USERR5
 40
0.0
  9
$WORLDVIEW
 70
     1
  9
$SHADEDGE
 70
     3
  9
$SHADEDIF
 70
    70
  9
$TILEMODE
 70
     1
  9
$MAXACTVP
 70
    64
  9
$PINSBASE
 10
0.0
 20
0.0
 30
0.0
  9
$PLIMCHECK
 70
     0
  9
$PEXTMIN
 10
1.00000000000000E+20
 20
1.00000000000000E+20
 30
1.00000000000000E+20
  9
$PEXTMAX
 10
-1.00000000000000E+20
 20
-1.00000000000000E+20
 30
-1.00000000000000E+20
  9
$PLIMMIN
 10
0.0
 20
0.0
  9
$PLIMMAX
 10
12.0
 20
9.0
  9
$UNITMODE
 70
     0
  9
$VISRETAIN
 70
     1
  9
$PLINEGEN
 70
     0
  9
$PSLTSCALE
 70
     1
  9
$TREEDEPTH
 70
  3020
  9
$CMLSTYLE
  2
Standard
  9
$CMLJUST
 70
     0
  9
$CMLSCALE
 40
1.0
  9
$PROXYGRAPHICS
 70
     1
  9
$MEASUREMENT
 70
     1
  9
$CELWEIGHT
370
    -1
  9
$ENDCAPS
280
     0
  9
$JOINSTYLE
280
     0
  9
$LWDISPLAY
290
     0
  9
$INSUNITS
 70
     4
  9
$HYPERLINKBASE
  1

  9
$STYLESHEET
  1

  9
$XEDIT
290
     1
  9
$CEPSNTYPE
380
     0
  9
$PSTYLEMODE
290
     1
  9
$FINGERPRINTGUID
  2
{FEE7D5D3-93B6-43DF-AD29-986B39923C63}
  9
$VERSIONGUID
  2
{FAEB1C32-E019-11D5-929B-00C0DF256EC4}
  9
$EXTNAMES
290
     1
  9
$PSVPSCALE
 40
0.0
  9
$OLESTARTUP
290
     0
  0
ENDSEC
  0
SECTION
  2
CLASSES
  0
CLASS
  1
ACDBDICTIONARYWDFLT
  2
AcDbDictionaryWithDefault
  3
ObjectDBX Classes
 90
        0
280
     0
281
     0
  0
CLASS
  1
VISUALSTYLE
  2
AcDbVisualStyle
  3
ObjectDBX Classes
 90
     4095
280
     0
281
     0
  0
CLASS
  1
MATERIAL
  2
AcDbMaterial
  3
ObjectDBX Classes
 90
     1153
280
     0
281
     0
  0
CLASS
  1
DICTIONARYVAR
  2
AcDbDictionaryVar
  3
ObjectDBX Classes
 90
        0
280
     0
281
     0
  0
CLASS
  1
ACDBPLACEHOLDER
  2
AcDbPlaceHolder
  3
ObjectDBX Classes
 90
        0
280
     0
281
     0
  0
CLASS
  1
LAYOUT
  2
AcDbLayout
  3
ObjectDBX Classes
 90
        0
280
     0
281
     0
  0
ENDSEC
  0
SECTION
  2
TABLES
  0
TABLE
  2
VPORT
  5
8
330
0
100
AcDbSymbolTable
 70
     1
  0
VPORT
  5
29
330
8
100
AcDbSymbolTableRecord
100
AcDbViewportTableRecord
  2
*Active
 70
     0
 10
0.0
 20
0.0
 11
1.0
 21
1.0
 12
118.697123839297
 22
857.248120707749
 13
0.0
 23
0.0
 14
0.5
 24
0.5
 15
0.5
 25
0.5
 16
0.0
 26
0.0
 36
1.0
 17
0.0
 27
0.0
 37
0.0
 40
231.0
 41
1.60267857142857
 42
50.0
 43
0.0
 44
0.0
 50
0.0
 51
0.0
 71
     0
 72
   100
 73
     1
 74
     3
 75
     0
 76
     0
 77
     0
 78
     0
281
     0
 65
     1
110
0.0
120
0.0
130
0.0
111
1.0
121
0.0
131
0.0
112
0.0
122
1.0
132
0.0
 79
     0
146
0.0
  0
ENDTAB
  0
TABLE
  2
LTYPE
  5
5
330
0
100
AcDbSymbolTable
 70
     8
  0
LTYPE
  5
14
330
5
100
AcDbSymbolTableRecord
100
AcDbLinetypeTableRecord
  2
ByBlock
 70
     0
  3

 72
    65
 73
     0
 40
0.0
  0
LTYPE
  5
15
330
5
100
AcDbSymbolTableRecord
100
AcDbLinetypeTableRecord
  2
ByLayer
 70
     0
  3

 72
    65
 73
     0
 40
0.0
  0
LTYPE
  5
16
330
5
100
AcDbSymbolTableRecord
100
AcDbLinetypeTableRecord
  2
Continuous
 70
     0
  3
Solid line
 72
    65
 73
     0
 40
0.0
  0
LTYPE
  5
3F
330
5
100
AcDbSymbolTableRecord
100
AcDbLinetypeTableRecord
  2
DASHED
 70
     0
  3
Dashed
 72
    65
 73
     2
 40
15.0
 49
7.0
 74
     0
 49
-8.0
 74
     0
  0
LTYPE
  5
40
330
5
100
AcDbSymbolTableRecord
100
AcDbLinetypeTableRecord
  2
DOTTED
 70
     0
  3
Dotted
 72
    65
 73
     2
 40
1.0
 49
0.0
 74
     0
 49
-1.0
 74
     0
  0
LTYPE
  5
41
330
5
100
AcDbSymbolTableRecord
100
AcDbLinetypeTableRecord
  2
DOT_CENTER
 70
     0
  3
Dot_Center
 72
    65
 73
     4
 40
14.0
 49
12.0
 74
     0
 49
-1.0
 74
     0
 49
0.0
 74
     0
 49
-1.0
 74
     0
  0
LTYPE
  5
42
330
5
100
AcDbSymbolTableRecord
100
AcDbLinetypeTableRecord
  2
LONG_DASHED
 70
     0
  3
Long_Dashed
 72
    65
 73
     2
 40
15.0
 49
10.0
 74
     0
 49
-5.0
 74
     0
  0
LTYPE
  5
43
330
5
100
AcDbSymbolTableRecord
100
AcDbLinetypeTableRecord
  2
DASH_CENTER
 70
     0
  3
Dash_Center
 72
    65
 73
     4
 40
14.0
 49
11.0
 74
     0
 49
-1.0
 74
     0
 49
1.0
 74
     0
 49
-1.0
 74
     0
  0
LTYPE
  5
44
330
5
100
AcDbSymbolTableRecord
100
AcDbLinetypeTableRecord
  2
PHANTOM
 70
     0
  3
Phantom
 72
    65
 73
     6
 40
13.0
 49
10.0
 74
     0
 49
-1.0
 74
     0
 49
0.0
 74
     0
 49
-1.0
 74
     0
 49
0.0
 74
     0
 49
-1.0
 74
     0
  0
LTYPE
  5
45
330
5
100
AcDbSymbolTableRecord
100
AcDbLinetypeTableRecord
  2
CENTER_DASH_DASH
 70
     0
  3
Center_Dash_Dash
 72
    65
 73
     6
 40
14.0
 49
9.0
 74
     0
 49
-1.0
 74
     0
 49
1.0
 74
     0
 49
-1.0
 74
     0
 49
1.0
 74
     0
 49
-1.0
 74
     0
  0
ENDTAB
  0
TABLE
  2
LAYER
  5
2
330
0
100
AcDbSymbolTable
 70
     2
  0
LAYER
  5
10
330
2
100
AcDbSymbolTableRecord
100
AcDbLayerTableRecord
  2
0
 70
     0
 62
     7
  6
Continuous
370
    -3
390
F
  0
LAYER
  5
46
330
2
100
AcDbSymbolTableRecord
100
AcDbLayerTableRecord
  2
1
 70
     0
 62
     7
  6
Continuous
370
    -3
390
F
  0
ENDTAB
  0
TABLE
  2
STYLE
  5
3
330
0
100
AcDbSymbolTable
 70
     9
  0
STYLE
  5
11
330
3
100
AcDbSymbolTableRecord
100
AcDbTextStyleTableRecord
  2
Standard
 70
     0
 40
0.0
 41
1.0
 50
0.0
 71
     0
 42
0.2
  3
txt
  4

  0
STYLE
  5
F4
330
3
100
AcDbSymbolTableRecord
100
AcDbTextStyleTableRecord
  2
CONVERTER_11
 70
     0
 40
0.0
 41
0.9
 50
0.0
 71
     0
 42
0.2
  3
txt.shx
  4

  0
STYLE
  5
2D6
330
3
100
AcDbSymbolTableRecord
100
AcDbTextStyleTableRecord
  2
CONVERTER_12
 70
     0
 40
0.0
 41
0.63
 50
0.0
 71
     0
 42
0.2
  3
txt.shx
  4

  0
STYLE
  5
2D9
330
3
100
AcDbSymbolTableRecord
100
AcDbTextStyleTableRecord
  2
CONVERTER_13
 70
     0
 40
0.0
 41
0.765
 50
0.0
 71
     0
 42
0.2
  3
txt.shx
  4

  0
STYLE
  5
2FE
330
3
100
AcDbSymbolTableRecord
100
AcDbTextStyleTableRecord
  2
CONVERTER_14
 70
     0
 40
0.0
 41
0.72
 50
0.0
 71
     0
 42
0.2
  3
txt.shx
  4

  0
STYLE
  5
312
330
3
100
AcDbSymbolTableRecord
100
AcDbTextStyleTableRecord
  2
CONVERTER_15
 70
     0
 40
0.0
 41
0.855
 50
0.0
 71
     0
 42
0.2
  3
txt.shx
  4

  0
STYLE
  5
32E
330
3
100
AcDbSymbolTableRecord
100
AcDbTextStyleTableRecord
  2
CONVERTER_16
 70
     0
 40
0.0
 41
0.54
 50
0.0
 71
     0
 42
0.2
  3
txt.shx
  4

  0
STYLE
  5
330
330
3
100
AcDbSymbolTableRecord
100
AcDbTextStyleTableRecord
  2
CONVERTER_17
 70
     0
 40
0.0
 41
0.81
 50
0.0
 71
     0
 42
0.2
  3
txt.shx
  4

  0
STYLE
  5
337
330
3
100
AcDbSymbolTableRecord
100
AcDbTextStyleTableRecord
  2
CONVERTER_18
 70
     0
 40
0.0
 41
0.45
 50
0.0
 71
     0
 42
0.2
  3
txt.shx
  4

  0
ENDTAB
  0
TABLE
  2
VIEW
  5
6
330
0
100
AcDbSymbolTable
 70
     0
  0
ENDTAB
  0
TABLE
  2
UCS
  5
7
330
0
100
AcDbSymbolTable
 70
     0
  0
ENDTAB
  0
TABLE
  2
APPID
  5
9
330
0
100
AcDbSymbolTable
 70
     1
  0
APPID
  5
12
330
9
100
AcDbSymbolTableRecord
100
AcDbRegAppTableRecord
  2
ACAD
 70
     0
  0
ENDTAB
  0
TABLE
  2
DIMSTYLE
  5
A
330
0
100
AcDbSymbolTable
 70
     3
100
AcDbDimStyleTable
  0
DIMSTYLE
105
27
330
A
100
AcDbSymbolTableRecord
100
AcDbDimStyleTableRecord
  2
Standard
 70
     0
178
     0
340
11
  0
DIMSTYLE
105
14C
102
{ACAD_REACTORS
330
14D
102
}
330
A
100
AcDbSymbolTableRecord
100
AcDbDimStyleTableRecord
  2
ME10_DIM_10
 70
     0
  3
ø<>
 41
3.5
 42
0.0
 44
2.0
 73
     0
 74
     0
 77
     1
 78
     8
140
3.5
147
2.0
172
     1
173
     1
174
     1
175
     1
176
     2
177
     2
178
     3
340
F4
  0
DIMSTYLE
105
157
102
{ACAD_REACTORS
330
158
102
}
330
A
100
AcDbSymbolTableRecord
100
AcDbDimStyleTableRecord
  2
ME10_DIM_11
 70
     0
 41
3.5
 42
0.0
 44
2.0
 73
     0
 74
     0
 77
     1
 78
     8
140
3.5
147
2.0
172
     1
173
     1
174
     1
175
     1
176
     2
177
     2
178
     3
340
F4
  0
ENDTAB
  0
TABLE
  2
BLOCK_RECORD
  5
1
330
0
100
AcDbSymbolTable
 70
    18
  0
BLOCK_RECORD
  5
1F
330
1
100
AcDbSymbolTableRecord
100
AcDbBlockTableRecord
  2
*Model_Space
340
22
  0
BLOCK_RECORD
  5
1B
330
1
100
AcDbSymbolTableRecord
100
AcDbBlockTableRecord
  2
*Paper_Space
340
1E
  0
BLOCK_RECORD
  5
23
330
1
100
AcDbSymbolTableRecord
100
AcDbBlockTableRecord
  2
*Paper_Space0
340
26
  0
BLOCK_RECORD
  5
47
330
1
100
AcDbSymbolTableRecord
100
AcDbBlockTableRecord
  2
1411109_A_EXSH_M32_68L_N_S-select__1
340
0
102
{BLKREFS
331
4B
102
}
  0
BLOCK_RECORD
  5
4A
330
1
100
AcDbSymbolTableRecord
100
AcDbBlockTableRecord
  2
Allg1
340
0
102
{BLKREFS
331
7C
102
}
  0
BLOCK_RECORD
  5
4E
330
1
100
AcDbSymbolTableRecord
100
AcDbBlockTableRecord
  2
1411109_A_EXSH_M32_68L_N_S-select__2
340
0
102
{BLKREFS
331
52
102
}
  0
BLOCK_RECORD
  5
51
330
1
100
AcDbSymbolTableRecord
100
AcDbBlockTableRecord
  2
Drfsicht1
340
0
102
{BLKREFS
331
7D
102
}
  0
BLOCK_RECORD
  5
55
330
1
100
AcDbSymbolTableRecord
100
AcDbBlockTableRecord
  2
1411109_A_EXSH_M32_68L_N_S-select__3
340
0
102
{BLKREFS
331
59
102
}
  0
BLOCK_RECORD
  5
58
330
1
100
AcDbSymbolTableRecord
100
AcDbBlockTableRecord
  2
Rckans1
340
0
102
{BLKREFS
331
7E
102
}
  0
BLOCK_RECORD
  5
5C
330
1
100
AcDbSymbolTableRecord
100
AcDbBlockTableRecord
  2
1411109_A_EXSH_M32_68L_N_S-select__4
340
0
102
{BLKREFS
331
60
102
}
  0
BLOCK_RECORD
  5
5F
330
1
100
AcDbSymbolTableRecord
100
AcDbBlockTableRecord
  2
SA_Links1
340
0
102
{BLKREFS
331
7F
102
}
  0
BLOCK_RECORD
  5
63
330
1
100
AcDbSymbolTableRecord
100
AcDbBlockTableRecord
  2
1411109_A_EXSH_M32_68L_N_S-select__5
340
0
102
{BLKREFS
331
67
102
}
  0
BLOCK_RECORD
  5
66
330
1
100
AcDbSymbolTableRecord
100
AcDbBlockTableRecord
  2
SA_Rechts1
340
0
102
{BLKREFS
331
80
102
}
  0
BLOCK_RECORD
  5
6A
330
1
100
AcDbSymbolTableRecord
100
AcDbBlockTableRecord
  2
1411109_A_EXSH_M32_68L_N_S-select__6
340
0
102
{BLKREFS
331
6E
102
}
  0
BLOCK_RECORD
  5
6D
330
1
100
AcDbSymbolTableRecord
100
AcDbBlockTableRecord
  2
Vordans1
340
0
102
{BLKREFS
331
81
102
}
  0
BLOCK_RECORD
  5
71
330
1
100
AcDbSymbolTableRecord
100
AcDbBlockTableRecord
  2
_punkt
340
0
102
{BLKREFS
331
78
102
}
  0
BLOCK_RECORD
  5
74
330
1
100
AcDbSymbolTableRecord
100
AcDbBlockTableRecord
  2
_rahmen
340
0
102
{BLKREFS
331
79
102
}
  0
BLOCK_RECORD
  5
77
330
1
100
AcDbSymbolTableRecord
100
AcDbBlockTableRecord
  2
A4I
340
0
102
{BLKREFS
331
82
102
}
  0
BLOCK_RECORD
  5
143
330
1
100
AcDbSymbolTableRecord
100
AcDbBlockTableRecord
  2
*D16
340
0
  0
BLOCK_RECORD
  5
14E
330
1
100
AcDbSymbolTableRecord
100
AcDbBlockTableRecord
  2
*D17
340
0
  0
ENDTAB
  0
ENDSEC
  0
SECTION
  2
BLOCKS
  0
BLOCK
  5
20
330
1F
100
AcDbEntity
  8
0
100
AcDbBlockBegin
  2
*Model_Space
 70
     0
 10
0.0
 20
0.0
 30
0.0
  3
*Model_Space
  1

  0
ENDBLK
  5
21
330
1F
100
AcDbEntity
  8
0
100
AcDbBlockEnd
  0
BLOCK
  5
1C
330
1B
100
AcDbEntity
 67
     1
  8
0
100
AcDbBlockBegin
  2
*Paper_Space
 70
     0
 10
0.0
 20
0.0
 30
0.0
  3
*Paper_Space
  1

  0
ENDBLK
  5
1D
330
1B
100
AcDbEntity
 67
     1
  8
0
100
AcDbBlockEnd
  0
BLOCK
  5
24
330
23
100
AcDbEntity
  8
0
100
AcDbBlockBegin
  2
*Paper_Space0
 70
     0
 10
0.0
 20
0.0
 30
0.0
  3
*Paper_Space0
  1

  0
ENDBLK
  5
25
330
23
100
AcDbEntity
  8
0
100
AcDbBlockEnd
  0
BLOCK
  5
48
330
47
100
AcDbEntity
  8
0
100
AcDbBlockBegin
  2
1411109_A_EXSH_M32_68L_N_S-select__1
 70
     0
 10
199.9504757596609
 20
802.3552696799467
 30
0.0
  3
1411109_A_EXSH_M32_68L_N_S-select__1
  1

  0
LINE
  5
83
330
47
100
AcDbEntity
  8
0
  6
Continuous
 62
     7
100
AcDbLine
 10
238.8953394883318
 20
814.267451089481
 30
0.0
 11
238.8953394883318
 21
826.9851867369932
 31
0.0
  0
LINE
  5
84
330
47
100
AcDbEntity
  8
0
  6
Continuous
 62
     7
100
AcDbLine
 10
238.8953394883318
 20
814.267451089481
 30
0.0
 11
241.1689224207275
 21
816.2364316665464
 31
0.0
  0
LINE
  5
85
330
47
100
AcDbEntity
  8
0
  6
Continuous
 62
     7
100
AcDbLine
 10
236.6080519289521
 20
810.9660358691762
 30
0.0
 11
238.8816348613478
 21
812.9350164462415
 31
0.0
  0
LINE
  5
86
330
47
100
AcDbEntity
  8
0
  6
Continuous
 62
     7
100
AcDbLine
 10
221.0195946608322
 20
842.4660358691762
 30
0.0
 11
210.0057125114718
 21
839.2866019572981
 31
0.0
  0
LINE
  5
87
330
47
100
AcDbEntity
  8
0
  6
Continuous
 62
     7
100
AcDbLine
 10
210.0057125114718
 20
839.2866019572981
 30
0.0
 11
212.2792954438675
 21
841.2555825343635
 31
0.0
  0
LINE
  5
88
330
47
100
AcDbEntity
  8
0
  6
Continuous
 62
     7
100
AcDbLine
 10
221.0195946608322
 20
842.4660358691762
 30
0.0
 11
223.2931775932279
 21
844.4350164462415
 31
0.0
  0
LINE
  5
89
330
47
100
AcDbEntity
  8
0
  6
Continuous
 62
     7
100
AcDbLine
 10
225.5941697795917
 20
841.1454697810542
 30
0.0
 11
227.8677527119874
 21
843.1144503581196
 31
0.0
  0
LINE
  5
8A
330
47
100
AcDbEntity
  8
0
  6
Continuous
 62
     7
100
AcDbLine
 10
236.6080519289521
 20
831.60716804542
 30
0.0
 11
225.5941697795917
 21
841.1454697810542
 31
0.0
  0
LINE
  5
8B
330
47
100
AcDbEntity
  8
0
  6
Continuous
 62
     7
100
AcDbLine
 10
236.6080519289521
 20
831.60716804542
 30
0.0
 11
238.8816348613478
 21
833.5761486224854
 31
0.0
  0
LINE
  5
8C
330
47
100
AcDbEntity
  8
0
  6
Continuous
 62
     7
100
AcDbLine
 10
238.8953394883318
 20
826.9851867369932
 30
0.0
 11
241.1689224207275
 21
828.9541673140586
 31
0.0
  0
LINE
  5
8D
330
47
100
AcDbEntity
  8
0
  6
Continuous
 62
     7
100
AcDbLine
 10
209.6867795651453
 20
836.8120068974958
 30
0.0
 11
211.6867795651453
 21
838.5440577050647
 31
0.0
  0
LINE
  5
8E
330
47
100
AcDbEntity
  8
0
  6
Continuous
 62
     7
100
AcDbLine
 10
224.2813409515396
 20
804.8042144409897
 30
0.0
 11
231.7813409515396
 21
811.299404969373
 31
0.0
  0
LINE
  5
8F
330
47
100
AcDbEntity
  8
0
  6
Continuous
 62
     7
100
AcDbLine
 10
232.7969828914269
 20
809.8658750018185
 30
0.0
 11
236.6080519289521
 21
810.9660358691762
 31
0.0
  0
LINE
  5
90
330
47
100
AcDbEntity
  8
0
  6
Continuous
 62
     7
100
AcDbLine
 10
207.718424952092
 20
835.9851867369931
 30
0.0
 11
207.718424952092
 21
834.5037602636145
 31
0.0
  0
LINE
  5
91
330
47
100
AcDbEntity
  8
0
  6
Continuous
 62
     7
100
AcDbLine
 10
203.3324234888843
 20
828.9939407135802
 30
0.0
 11
210.8324234888843
 21
835.4891312419636
 31
0.0
  0
LINE
  5
92
330
47
100
AcDbEntity
  8
0
  6
Continuous
 62
     7
100
AcDbLine
 10
232.9269848752785
 20
809.9765293138407
 30
0.0
 11
234.9269848752785
 21
811.7085801214096
 31
0.0
  0
SPLINE
  5
93
330
47
100
AcDbEntity
  8
0
  6
Continuous
 62
     7
100
AcDbSpline
210
0.0
220
0.0
230
1.0
 70
     8
 71
     3
 72
    11
 73
     7
 74
     5
 42
0.000000001
 43
0.0000000001
 44
0.00000001
 40
0.0
 40
0.0
 40
0.0
 40
0.0
 40
1.572971371825333
 40
3.1410297487482
 40
4.655680167535905
 40
6.195725728172507
 40
6.195725728172507
 40
6.195725728172507
 40
6.195725728172507
 10
241.3618458392779
 20
822.7623760717521
 30
0.0
 10
241.3595000942802
 20
823.2867069739027
 30
0.0
 10
241.3548159159487
 20
824.3337310908883
 30
0.0
 10
241.3161009378032
 20
825.8852299557265
 30
0.0
 10
241.2568514259304
 20
827.4250810261904
 30
0.0
 10
241.1983940886867
 20
828.4416547978026
 30
0.0
 10
241.1689224207275
 20
828.9541673140586
 30
0.0
 11
241.3618458392779
 21
822.7623760717521
 31
0.0
 11
241.3494329455409
 21
824.3352984655479
 31
0.0
 11
241.3120665453614
 21
825.9029115638851
 31
0.0
 11
241.2524304586919
 21
827.4163875064615
 31
0.0
 11
241.1689224207275
 21
828.9541673140586
 31
0.0
  0
SPLINE
  5
94
330
47
100
AcDbEntity
  8
0
  6
Continuous
 62
     7
100
AcDbSpline
210
0.0
220
0.0
230
1.0
 70
     8
 71
     3
 72
    11
 73
     7
 74
     5
 42
0.000000001
 43
0.0000000001
 44
0.00000001
 40
0.0
 40
0.0
 40
0.0
 40
0.0
 40
1.594461247142135
 40
3.227231844362751
 40
4.845092216835051
 40
6.52959105844986
 40
6.52959105844986
 40
6.52959105844986
 40
6.52959105844986
 10
241.3618458392779
 20
822.7623760717521
 30
0.0
 10
241.3594256655621
 20
822.2308831377972
 30
0.0
 10
241.3545271546942
 20
821.1551273460665
 30
0.0
 10
241.3154846323428
 20
819.5404839632653
 30
0.0
 10
241.2558711539435
 20
817.8964676466635
 30
0.0
 10
241.1982926301255
 20
816.7971712450747
 30
0.0
 10
241.1689224207275
 20
816.2364316665464
 30
0.0
 11
241.3618458392779
 21
822.7623760717521
 31
0.0
 11
241.349433087874
 21
821.1679631413801
 31
0.0
 11
241.3120665411436
 21
819.5356201734835
 31
0.0
 11
241.2524307905577
 21
817.9188592874852
 31
0.0
 11
241.1689224207275
 21
816.2364316665464
 31
0.0
  0
SPLINE
  5
95
330
47
100
AcDbEntity
  8
0
  6
Continuous
 62
     7
100
AcDbSpline
210
0.0
220
0.0
230
1.0
 70
     8
 71
     3
 72
     9
 73
     5
 74
     3
 42
0.000000001
 43
0.0000000001
 44
0.00000001
 40
0.0
 40
0.0
 40
0.0
 40
0.0
 40
2.035200522994576
 40
4.032057063712625
 40
4.032057063712625
 40
4.032057063712625
 40
4.032057063712625
 10
241.1689224207275
 20
816.2364316665464
 30
0.0
 10
240.8575811305672
 20
815.629950221933
 30
0.0
 10
240.2407643264173
 20
814.4284136934457
 30
0.0
 10
239.3317966602415
 20
813.4296495149115
 30
0.0
 10
238.8816348613478
 20
812.9350164462415
 30
0.0
 11
241.1689224207275
 21
816.2364316665464
 31
0.0
 11
240.1604650753121
 21
814.4686491700653
 31
0.0
 11
238.8816348613478
 21
812.9350164462415
 31
0.0
  0
SPLINE
  5
96
330
47
100
AcDbEntity
  8
0
  6
Continuous
 62
     7
100
AcDbSpline
210
0.0
220
0.0
230
1.0
 70
     8
 71
     3
 72
     9
 73
     5
 74
     3
 42
0.000000001
 43
0.0000000001
 44
0.00000001
 40
0.0
 40
0.0
 40
0.0
 40
0.0
 40
2.03520052299459
 40
4.032057063712621
 40
4.032057063712621
 40
4.032057063712621
 40
4.032057063712621
 10
238.8953394883318
 20
814.267451089481
 30
0.0
 10
238.5839981981715
 20
813.6609696448678
 30
0.0
 10
237.9671813940216
 20
812.4594331163803
 30
0.0
 10
237.0582137278457
 20
811.4606689378458
 30
0.0
 10
236.6080519289521
 20
810.9660358691762
 30
0.0
 11
238.8953394883318
 21
814.267451089481
 31
0.0
 11
237.8868821429163
 21
812.4996685929999
 31
0.0
 11
236.6080519289521
 21
810.9660358691762
 31
0.0
  0
SPLINE
  5
97
330
47
100
AcDbEntity
  8
0
  6
Continuous
 62
     7
100
AcDbSpline
210
0.0
220
0.0
230
1.0
 70
     8
 71
     3
 72
     9
 73
     5
 74
     3
 42
0.000000001
 43
0.0000000001
 44
0.00000001
 40
0.0
 40
0.0
 40
0.0
 40
0.0
 40
2.342196633738383
 40
4.770810518942044
 40
4.770810518942044
 40
4.770810518942044
 40
4.770810518942044
 10
221.0195946608322
 20
842.4660358691762
 30
0.0
 10
221.7886833632479
 20
842.3211432597857
 30
0.0
 10
223.3552369169508
 20
842.026012090899
 30
0.0
 10
224.8389005916361
 20
841.4425070449042
 30
0.0
 10
225.5941697795917
 20
841.1454697810542
 30
0.0
 11
221.0195946608322
 21
842.4660358691762
 31
0.0
 11
223.3068822202119
 21
841.9618526735534
 31
0.0
 11
225.5941697795917
 21
841.1454697810542
 31
0.0
  0
SPLINE
  5
98
330
47
100
AcDbEntity
  8
0
  6
Continuous
 62
     7
100
AcDbSpline
210
0.0
220
0.0
230
1.0
 70
     8
 71
     3
 72
    11
 73
     7
 74
     5
 42
0.000000001
 43
0.0000000001
 44
0.00000001
 40
0.0
 40
0.0
 40
0.0
 40
0.0
 40
2.748388843865679
 40
5.501405214183814
 40
8.368948464412089
 40
11.46608868754036
 40
11.46608868754036
 40
11.46608868754036
 40
11.46608868754036
 10
223.2931775932279
 20
844.4350164462415
 30
0.0
 10
222.4049344557611
 20
844.2105675133645
 30
0.0
 10
220.62695262886
 20
843.761291723238
 30
0.0
 10
217.9402803771732
 20
843.00940062722
 30
0.0
 10
215.1554007891938
 20
842.1789182927276
 30
0.0
 10
213.2622875915435
 20
841.5711592279623
 30
0.0
 10
212.2792954438675
 20
841.2555825343635
 30
0.0
 11
223.2931775932279
 21
844.4350164462415
 31
0.0
 11
220.6314114709667
 21
843.7504418716106
 31
0.0
 11
217.9791739299355
 21
843.0123801111356
 31
0.0
 11
215.2315914198842
 21
842.1916519933177
 31
0.0
 11
212.2792954438675
 21
841.2555825343635
 31
0.0
  0
SPLINE
  5
99
330
47
100
AcDbEntity
  8
0
  6
Continuous
 62
     7
100
AcDbSpline
210
0.0
220
0.0
230
1.0
 70
     8
 71
     3
 72
     9
 73
     5
 74
     3
 42
0.000000001
 43
0.0000000001
 44
0.00000001
 40
0.0
 40
0.0
 40
0.0
 40
0.0
 40
2.342196633738386
 40
4.770810518942059
 40
4.770810518942059
 40
4.770810518942059
 40
4.770810518942059
 10
223.2931775932279
 20
844.4350164462415
 30
0.0
 10
224.0622662956435
 20
844.2901238368509
 30
0.0
 10
225.6288198493467
 20
843.9949926679647
 30
0.0
 10
227.1124835240318
 20
843.4114876219699
 30
0.0
 10
227.8677527119874
 20
843.1144503581196
 30
0.0
 11
223.2931775932279
 21
844.4350164462415
 31
0.0
 11
225.5804651526076
 21
843.9308332506189
 31
0.0
 11
227.8677527119874
 21
843.1144503581196
 31
0.0
  0
SPLINE
  5
9A
330
47
100
AcDbEntity
  8
0
  6
Continuous
 62
     7
100
AcDbSpline
210
0.0
220
0.0
230
1.0
 70
     8
 71
     3
 72
    11
 73
     7
 74
     5
 42
0.000000001
 43
0.0000000001
 44
0.00000001
 40
0.0
 40
0.0
 40
0.0
 40
0.0
 40
3.690794713725178
 40
7.253966700155198
 40
10.83517451336627
 40
14.58081410988632
 40
14.58081410988632
 40
14.58081410988632
 40
14.58081410988632
 10
238.8816348613478
 20
833.5761486224854
 30
0.0
 10
238.0005076805463
 20
834.4349156822396
 30
0.0
 10
236.2687215039416
 20
836.122754778779
 30
0.0
 10
233.575427387264
 20
838.5305646592327
 30
0.0
 10
230.7932524831235
 20
840.8635888349027
 30
0.0
 10
228.8574010006132
 20
842.3530210604989
 30
0.0
 10
227.8677527119874
 20
843.1144503581196
 30
0.0
 11
238.8816348613478
 21
833.5761486224854
 31
0.0
 11
236.219788124265
 21
836.1328139444563
 31
0.0
 11
233.5676311980554
 21
838.5123639535973
 31
0.0
 11
230.8199730894245
 21
840.8091931422426
 31
0.0
 11
227.8677527119874
 21
843.1144503581196
 31
0.0
  0
SPLINE
  5
9B
330
47
100
AcDbEntity
  8
0
  6
Continuous
 62
     7
100
AcDbSpline
210
0.0
220
0.0
230
1.0
 70
     8
 71
     3
 72
     9
 73
     5
 74
     3
 42
0.000000001
 43
0.0000000001
 44
0.00000001
 40
0.0
 40
0.0
 40
0.0
 40
0.0
 40
2.607150709001709
 40
5.164406975342949
 40
5.164406975342949
 40
5.164406975342949
 40
5.164406975342949
 10
236.6080519289521
 20
831.60716804542
 30
0.0
 10
237.0554219140779
 20
830.8602709767663
 30
0.0
 10
237.9416003071249
 20
829.3807706002963
 30
0.0
 10
238.5794806668685
 20
827.7785549111259
 30
0.0
 10
238.8953394883318
 20
826.9851867369932
 30
0.0
 11
236.6080519289521
 21
831.60716804542
 31
0.0
 11
237.8868821429163
 21
829.3352023533163
 31
0.0
 11
238.8953394883318
 21
826.9851867369932
 31
0.0
  0
SPLINE
  5
9C
330
47
100
AcDbEntity
  8
0
  6
Continuous
 62
     7
100
AcDbSpline
210
0.0
220
0.0
230
1.0
 70
     8
 71
     3
 72
     9
 73
     5
 74
     3
 42
0.000000001
 43
0.0000000001
 44
0.00000001
 40
0.0
 40
0.0
 40
0.0
 40
0.0
 40
2.607150709001822
 40
5.164406975342947
 40
5.164406975342947
 40
5.164406975342947
 40
5.164406975342947
 10
238.8816348613478
 20
833.5761486224854
 30
0.0
 10
239.3290048464737
 20
832.8292515538321
 30
0.0
 10
240.2151832395205
 20
831.3497511773614
 30
0.0
 10
240.8530635992642
 20
829.747535488191
 30
0.0
 10
241.1689224207275
 20
828.9541673140586
 30
0.0
 11
238.8816348613478
 21
833.5761486224854
 31
0.0
 11
240.1604650753121
 21
831.3041829303816
 31
0.0
 11
241.1689224207275
 21
828.9541673140586
 31
0.0
  0
SPLINE
  5
9D
330
47
100
AcDbEntity
  8
0
  6
Continuous
 62
     7
100
AcDbSpline
210
0.0
220
0.0
230
1.0
 70
     8
 71
     3
 72
     9
 73
     5
 74
     3
 42
0.000000001
 43
0.0000000001
 44
0.00000001
 40
0.0
 40
0.0
 40
0.0
 40
0.0
 40
2.035200522994689
 40
4.032057063712792
 40
4.032057063712792
 40
4.032057063712792
 40
4.032057063712792
 10
207.718424952092
 20
835.9851867369931
 30
0.0
 10
208.0297662422524
 20
836.5916681816066
 30
0.0
 10
208.6465830464022
 20
837.7932047100938
 30
0.0
 10
209.5555507125782
 20
838.7919688886286
 30
0.0
 10
210.0057125114718
 20
839.2866019572981
 30
0.0
 11
207.718424952092
 21
835.9851867369931
 31
0.0
 11
208.7268822975075
 21
837.7529692334743
 31
0.0
 11
210.0057125114718
 21
839.2866019572981
 31
0.0
  0
SPLINE
  5
9E
330
47
100
AcDbEntity
  8
0
  6
Continuous
 62
     7
100
AcDbSpline
210
0.0
220
0.0
230
1.0
 70
     8
 71
     3
 72
    11
 73
     7
 74
     5
 42
0.000000001
 43
0.0000000001
 44
0.00000001
 40
0.0
 40
0.0
 40
0.0
 40
0.0
 40
1.49131735311874
 40
2.996916137916701
 40
4.529982254948414
 40
6.101686107405897
 40
6.101686107405897
 40
6.101686107405897
 40
6.101686107405897
 10
232.9269848752785
 20
809.9765293138407
 30
0.0
 10
232.5367606184876
 20
809.6669340630946
 30
0.0
 10
231.7525751577258
 20
809.0447787698205
 30
0.0
 10
230.4069471041062
 20
808.343586278208
 30
0.0
 10
228.9603599315331
 20
807.8067748157317
 30
0.0
 10
227.9405070028292
 20
807.6203915957626
 30
0.0
 10
227.4242346870562
 20
807.5260402573421
 30
0.0
 11
232.9269848752785
 21
809.9765293138407
 31
0.0
 11
231.7300525804339
 21
809.086933601254
 31
0.0
 11
230.4026340386135
 21
808.3764494563754
 31
0.0
 11
228.9613469624714
 21
807.8539714304463
 31
0.0
 11
227.4242346870562
 21
807.5260402573421
 31
0.0
  0
SPLINE
  5
9F
330
47
100
AcDbEntity
  8
0
  6
Continuous
 62
     7
100
AcDbSpline
210
0.0
220
0.0
230
1.0
 70
     8
 71
     3
 72
    11
 73
     7
 74
     5
 42
0.000000001
 43
0.0000000001
 44
0.00000001
 40
0.0
 40
0.0
 40
0.0
 40
0.0
 40
1.809780458787488
 40
3.662422840014802
 40
5.592827381464414
 40
7.622795201453117
 40
7.622795201453117
 40
7.622795201453117
 40
7.622795201453117
 10
222.6447067747696
 20
806.6940368060358
 30
0.0
 10
223.0743853619985
 20
807.1217886290249
 30
0.0
 10
223.9439188150915
 20
807.9874229420534
 30
0.0
 10
224.8282856050902
 20
809.6545807359731
 30
0.0
 10
225.3992632534861
 20
811.5225947908245
 30
0.0
 10
225.4646896002174
 20
812.8458280073211
 30
0.0
 10
225.4982251713018
 20
813.524077577285
 30
0.0
 11
222.6447067747696
 21
806.6940368060358
 31
0.0
 11
223.8628289070676
 21
808.0325000238769
 31
0.0
 11
224.7616423227632
 21
809.6525056551175
 31
0.0
 11
225.3126056473269
 21
811.5026140617654
 31
0.0
 11
225.4982251713018
 21
813.524077577285
 31
0.0
  0
SPLINE
  5
A0
330
47
100
AcDbEntity
  8
0
  6
Continuous
 62
     7
100
AcDbSpline
210
0.0
220
0.0
230
1.0
 70
     8
 71
     3
 72
    23
 73
    19
 74
    17
 42
0.000000001
 43
0.0000000001
 44
0.00000001
 40
0.0
 40
0.0
 40
0.0
 40
0.0
 40
1.99224904975756
 40
4.041106857778462
 40
6.190645762089613
 40
8.465024340513052
 40
10.86722850048704
 40
13.38175931990592
 40
15.97898176323537
 40
18.61987677448002
 40
21.26077178572477
 40
23.85799422905417
 40
26.37252504847307
 40
28.77472920844709
 40
31.04910778687067
 40
33.19864669118179
 40
35.24750449920261
 40
37.23975354896013
 40
37.23975354896013
 40
37.23975354896013
 40
37.23975354896013
 10
204.9690576656542
 20
827.1041183485341
 30
0.0
 10
204.4993565238603
 20
826.6293634022168
 30
0.0
 10
203.5466079277721
 20
825.6663635770967
 30
0.0
 10
202.6275070136556
 20
823.7817255014907
 30
0.0
 10
202.1220535729125
 20
821.6711266600131
 30
0.0
 10
202.0758197407916
 20
819.3793067717959
 30
0.0
 10
202.4748631356437
 20
817.0035845604857
 30
0.0
 10
203.3037007982294
 20
814.6282083628748
 30
0.0
 10
204.5289269639845
 20
812.3416768456074
 30
0.0
 10
206.1043165737179
 20
810.2284600531038
 30
0.0
 10
207.9708031163408
 20
808.3673405994467
 30
0.0
 10
210.0588500989559
 20
806.8280338284937
 30
0.0
 10
212.2914574393589
 20
805.6683578329348
 30
0.0
 10
214.585806425614
 20
804.9340184117141
 30
0.0
 10
216.8607246805962
 20
804.6523751969759
 30
0.0
 10
219.0218834166086
 20
804.8511302426087
 30
0.0
 10
221.0184914905269
 20
805.4915702206845
 30
0.0
 10
222.1077210755611
 20
806.2969753743893
 30
0.0
 10
222.6447067747696
 20
806.6940368060358
 30
0.0
 11
204.9690576656542
 21
827.1041183485341
 31
0.0
 11
203.6456959505791
 21
825.6149004095408
 31
0.0
 11
202.7128219800049
 21
823.7907390979012
 31
0.0
 11
202.2062875550166
 21
821.7017344577224
 31
0.0
 11
202.1455563980206
 21
819.428166853822
 31
0.0
 11
202.5329645375775
 21
817.0574075320508
 31
0.0
 11
203.3536219622831
 21
814.6805636936411
 31
0.0
 11
204.5759932890013
 21
812.3889763060304
 31
0.0
 11
206.1531016417751
 21
810.2707091613668
 31
0.0
 11
208.0243412019853
 21
808.4071671143887
 31
0.0
 11
210.1178000326403
 21
806.8699636341065
 31
0.0
 11
212.3530285661295
 21
805.718174311363
 31
0.0
 11
214.6441277449501
 21
804.9960597905509
 31
0.0
 11
216.9030519698915
 21
804.7313726754334
 31
0.0
 11
219.042992415768
 21
804.9342825039007
 31
0.0
 11
220.9817115961135
 21
805.5969938102911
 31
0.0
 11
222.6447067747696
 21
806.6940368060358
 31
0.0
  0
SPLINE
  5
A1
330
47
100
AcDbEntity
  8
0
  6
Continuous
 62
     7
100
AcDbSpline
210
0.0
220
0.0
230
1.0
 70
     8
 71
     3
 72
    11
 73
     7
 74
     5
 42
0.000000001
 43
0.0000000001
 44
0.00000001
 40
0.0
 40
0.0
 40
0.0
 40
0.0
 40
1.57170385245745
 40
3.104769969489242
 40
4.610368754287173
 40
6.101686107405909
 40
6.101686107405909
 40
6.101686107405909
 40
6.101686107405909
 10
206.4753172244009
 20
831.7157665299326
 30
0.0
 10
206.642454019172
 20
832.213264842421
 30
0.0
 10
206.9726188413669
 20
833.1960312902901
 30
0.0
 10
207.7105797100743
 20
834.5510939273502
 30
0.0
 10
208.596812872796
 20
835.7827499468108
 30
0.0
 10
209.3246134118466
 20
836.4700129395407
 30
0.0
 10
209.6867795651453
 20
836.8120068974958
 30
0.0
 11
206.4753172244009
 21
831.7157665299326
 31
0.0
 11
207.0194723798615
 21
833.1902658240359
 31
0.0
 11
207.7424896688805
 21
834.5421303598578
 31
0.0
 11
208.635317824513
 21
835.7544362576419
 31
0.0
 11
209.6867795651453
 21
836.8120068974958
 31
0.0
  0
SPLINE
  5
A2
330
47
100
AcDbEntity
  8
0
  6
Continuous
 62
     7
100
AcDbSpline
210
0.0
220
0.0
230
1.0
 70
     8
 71
     3
 72
    11
 73
     7
 74
     5
 42
0.000000001
 43
0.0000000001
 44
0.00000001
 40
0.0
 40
0.0
 40
0.0
 40
0.0
 40
2.669031763478771
 40
5.207156253791622
 40
7.643037903927791
 40
10.02256406319957
 40
10.02256406319957
 40
10.02256406319957
 40
10.02256406319957
 10
236.6788331373857
 20
818.9567681056683
 30
0.0
 10
236.6347400716981
 20
818.0649955228846
 30
0.0
 10
236.5487165463133
 20
816.3251888856174
 30
0.0
 10
235.7979866730073
 20
813.8690963320493
 30
0.0
 10
234.6352081173817
 20
811.6770925640669
 30
0.0
 10
233.4919326474935
 20
810.538943747888
 30
0.0
 10
232.9269848752785
 20
809.9765293138407
 30
0.0
 11
236.6788331373857
 21
818.9567681056683
 31
0.0
 11
236.4347778373446
 21
816.2989179278555
 31
0.0
 11
235.7103630957886
 21
813.8663679857814
 31
0.0
 11
234.5285899010777
 21
811.7363605817429
 31
0.0
 11
232.9269848752785
 21
809.9765293138407
 31
0.0
  0
SPLINE
  5
A3
330
47
100
AcDbEntity
  8
0
  6
Continuous
 62
     7
100
AcDbSpline
210
0.0
220
0.0
230
1.0
 70
     8
 71
     3
 72
    19
 73
    15
 74
    13
 42
0.000000001
 43
0.0000000001
 44
0.00000001
 40
0.0
 40
0.0
 40
0.0
 40
0.0
 40
2.433323340230451
 40
4.93981873936076
 40
7.575545476756388
 40
10.36970576953602
 40
13.32341681110974
 40
16.41374943652605
 40
19.59984574673563
 40
22.8294719390805
 40
26.04550647996222
 40
29.19233646524582
 40
32.22228445624971
 40
35.102150719325
 40
35.102150719325
 40
35.102150719325
 40
35.102150719325
 10
210.8324234888843
 20
835.4891312419636
 30
0.0
 10
211.4896998507984
 20
835.9726657781724
 30
0.0
 10
212.8240174292495
 20
836.9542751252395
 30
0.0
 10
215.2787148529894
 20
837.7093322817759
 30
0.0
 10
217.9329365526546
 20
837.9073492984537
 30
0.0
 10
220.719647860026
 20
837.5017370277718
 30
0.0
 10
223.5170984378303
 20
836.5305530172398
 30
0.0
 10
226.2204281583227
 20
835.0320676665153
 30
0.0
 10
228.7236875229486
 20
833.0685197049748
 30
0.0
 10
230.9277554987086
 20
830.7179331690883
 30
0.0
 10
232.7500733535374
 20
828.0735818636618
 30
0.0
 10
234.101425409002
 20
825.2394940284407
 30
0.0
 10
234.9865805976891
 20
822.3273675346009
 30
0.0
 10
235.1053917409061
 20
820.3552739214492
 30
0.0
 10
235.163288680763
 20
819.3942681056683
 30
0.0
 11
210.8324234888843
 21
835.4891312419636
 31
0.0
 11
212.8688765752185
 21
836.8210176233433
 31
0.0
 11
215.2495562454363
 21
837.6051627121024
 31
0.0
 11
217.8773445437118
 21
837.8095743203965
 31
0.0
 11
220.6450400769843
 21
837.4259166831011
 31
0.0
 11
223.4397354621197
 21
836.4698379075354
 31
0.0
 11
226.14742156849
 21
834.9803441385941
 31
0.0
 11
228.6576378602271
 21
833.018196369358
 31
0.0
 11
230.8679816928332
 21
830.6634425639176
 31
0.0
 11
232.6882804489088
 21
828.0121427685518
 31
0.0
 11
234.0442775682099
 21
825.1724577922698
 31
0.0
 11
234.8806526129227
 21
822.260231563344
 31
0.0
 11
235.163288680763
 21
819.3942681056683
 31
0.0
  0
SPLINE
  5
A4
330
47
100
AcDbEntity
  8
0
  6
Continuous
 62
     7
100
AcDbSpline
210
0.0
220
0.0
230
1.0
 70
     8
 71
     3
 72
    21
 73
    17
 74
    15
 42
0.000000001
 43
0.0000000001
 44
0.00000001
 40
0.0
 40
0.0
 40
0.0
 40
0.0
 40
2.312465818316189
 40
4.676791830562308
 40
7.135700555656175
 40
9.71673691041666
 40
12.4302743032434
 40
15.27057143319809
 40
18.21843790006182
 40
21.24449408755475
 40
24.31254866478967
 40
27.38293334877038
 40
30.41579047265638
 40
33.37435743899884
 40
36.22829473115387
 40
38.95706253617575
 40
38.95706253617575
 40
38.95706253617575
 40
38.95706253617575
 10
209.6867795651453
 20
836.8120068974958
 30
0.0
 10
210.3050135370882
 20
837.2780817332118
 30
0.0
 10
211.5553462267366
 20
838.2206837560766
 30
0.0
 10
213.8127247968082
 20
839.0617251138715
 30
0.0
 10
216.2618061019409
 20
839.454728580448
 30
0.0
 10
218.8607482886188
 20
839.3542085929665
 30
0.0
 10
221.5229072346689
 20
838.7793131187839
 30
0.0
 10
224.1739204856281
 20
837.7469002768039
 30
0.0
 10
226.7364086064861
 20
836.289923203971
 30
0.0
 10
229.136229053304
 20
834.4516996467654
 30
0.0
 10
231.3036522724452
 20
832.2866019754997
 30
0.0
 10
233.1742573211169
 20
829.8582353465754
 30
0.0
 10
234.6967627993155
 20
827.2377694565414
 30
0.0
 10
235.8126863897461
 20
824.5015946828278
 30
0.0
 10
236.5362112630938
 20
821.7296571600639
 30
0.0
 10
236.6320084718784
 20
819.8671446984819
 30
0.0
 10
236.6788331373857
 20
818.9567681056683
 30
0.0
 11
209.6867795651453
 21
836.8120068974958
 31
0.0
 11
211.5975104696418
 21
838.1145450344715
 31
0.0
 11
213.7995115122843
 21
838.975491562356
 31
0.0
 11
216.226725825638
 21
839.3690176799685
 31
0.0
 11
218.8063390678682
 21
839.2833194322063
 31
0.0
 11
221.4609659898277
 21
838.7209662599751
 31
0.0
 11
224.1109705734924
 21
837.6988295298156
 31
0.0
 11
226.6768554388196
 21
836.2475709153429
 31
0.0
 11
229.0816471993193
 21
834.410727797446
 31
0.0
 11
231.2532041405889
 21
832.2434024088088
 31
0.0
 11
233.1263827074162
 21
829.8106130295901
 31
0.0
 11
234.6449886193876
 21
827.1853400122845
 31
0.0
 11
235.763466470214
 21
824.4463391383958
 31
0.0
 11
236.4482619109232
 21
821.6757772336857
 31
0.0
 11
236.6788331373857
 21
818.9567681056683
 31
0.0
  0
SPLINE
  5
A5
330
47
100
AcDbEntity
  8
0
  6
Continuous
 62
     7
100
AcDbSpline
210
0.0
220
0.0
230
1.0
 70
     8
 71
     3
 72
    11
 73
     7
 74
     5
 42
0.000000001
 43
0.0000000001
 44
0.00000001
 40
0.0
 40
0.0
 40
0.0
 40
0.0
 40
2.405887786747439
 40
4.693774651058002
 40
6.889498955172773
 40
9.034423943656924
 40
9.034423943656924
 40
9.034423943656924
 40
9.034423943656924
 10
235.163288680763
 20
819.3942681056683
 30
0.0
 10
235.1235428187355
 20
818.5904167634575
 30
0.0
 10
235.0460004845608
 20
817.0221403582725
 30
0.0
 10
234.3692862332769
 20
814.8081977747638
 30
0.0
 10
233.3211478164387
 20
812.8323070549251
 30
0.0
 10
232.2905896475839
 20
811.8063700929848
 30
0.0
 10
231.7813409515396
 20
811.299404969373
 30
0.0
 11
235.163288680763
 21
819.3942681056683
 31
0.0
 11
234.9432951708667
 21
816.9984594946823
 31
0.0
 11
234.2903016010135
 21
814.8057384201363
 31
0.0
 11
233.2250412564854
 21
812.8857317460736
 31
0.0
 11
231.7813409515396
 21
811.299404969373
 31
0.0
  0
SPLINE
  5
A6
330
47
100
AcDbEntity
  8
0
  6
Continuous
 62
     7
100
AcDbSpline
210
0.0
220
0.0
230
1.0
 70
     8
 71
     3
 72
    17
 73
    13
 74
    11
 42
0.000000001
 43
0.0000000001
 44
0.00000001
 40
0.0
 40
0.0
 40
0.0
 40
0.0
 40
2.132438677446279
 40
4.369998392360609
 40
6.697130400176349
 40
9.089061565238902
 40
11.51490879792815
 40
13.94075603061748
 40
16.33268719567993
 40
18.65981920349582
 40
20.89737891841009
 40
23.02981759585645
 40
23.02981759585645
 40
23.02981759585645
 40
23.02981759585645
 10
211.6269608985944
 20
829.0146821262587
 30
0.0
 10
211.6341787441324
 20
828.3021502049821
 30
0.0
 10
211.6489702620526
 20
826.8419612757589
 30
0.0
 10
212.1540734510043
 20
824.6514695729818
 30
0.0
 10
212.9845495421462
 20
822.4804192947844
 30
0.0
 10
214.1533686584233
 20
820.3954092235397
 30
0.0
 10
215.6118091839754
 20
818.4621901798798
 30
0.0
 10
217.3168511693414
 20
816.7425342650291
 30
0.0
 10
219.2135017971241
 20
815.2878447724227
 30
0.0
 10
221.2436448627465
 20
814.1557365702068
 30
0.0
 10
223.3395117916205
 20
813.3428866776214
 30
0.0
 10
224.7826109542401
 20
813.1196484531274
 30
0.0
 10
225.4868035418295
 20
813.0107143642634
 30
0.0
 11
211.6269608985944
 21
829.0146821262587
 31
0.0
 11
211.7235730830699
 21
826.8844331259961
 31
0.0
 11
212.195532509486
 21
824.6972139358713
 31
0.0
 11
213.0275469770156
 21
822.5238995740789
 31
0.0
 11
214.1926545258777
 21
820.434914388842
 31
0.0
 11
215.6531018590716
 21
818.4979506855033
 31
0.0
 11
217.3615634095294
 21
816.7757735948146
 31
0.0
 11
219.2626786037426
 21
815.3241897278315
 31
0.0
 11
221.2948427629206
 21
814.1902354873505
 31
0.0
 11
223.3922055674816
 21
813.4106569140963
 31
0.0
 11
225.4868035418295
 21
813.0107143642634
 31
0.0
  0
SPLINE
  5
A7
330
47
100
AcDbEntity
  8
0
  6
Continuous
 62
     7
100
AcDbSpline
210
0.0
220
0.0
230
1.0
 70
     8
 71
     3
 72
    19
 73
    15
 74
    13
 42
0.000000001
 43
0.0000000001
 44
0.00000001
 40
0.0
 40
0.0
 40
0.0
 40
0.0
 40
2.429887159622233
 40
4.986405777143405
 40
7.6415435773308
 40
10.35507272124513
 40
13.08006982102895
 40
15.7683385827269
 40
18.37580673535528
 40
20.86800042658605
 40
23.2255731734566
 40
25.4494676077803
 40
27.5643230999689
 40
29.61743966740115
 40
29.61743966740115
 40
29.61743966740115
 40
29.61743966740115
 10
225.4982251713018
 20
813.524077577285
 30
0.0
 10
225.4493746282945
 20
814.3349262344011
 30
0.0
 10
225.3491277238888
 20
815.9988802203568
 30
0.0
 10
224.6022780344107
 20
818.4559869497572
 30
0.0
 10
223.4620747373679
 20
820.8472485608097
 30
0.0
 10
221.9244940474462
 20
823.0784199748414
 30
0.0
 10
220.0648116928713
 20
825.0617273644891
 30
0.0
 10
217.9526866039556
 20
826.718470956963
 30
0.0
 10
215.6717521522798
 20
827.9828179714755
 30
0.0
 10
213.3114032272661
 20
828.8022544801311
 30
0.0
 10
210.9601155618586
 20
829.1444898330737
 30
0.0
 10
208.7206160030742
 20
828.9774129749494
 30
0.0
 10
206.6494650532522
 20
828.3403334977404
 30
0.0
 10
205.5236345957795
 20
827.512100613284
 30
0.0
 10
204.9690576656542
 20
827.1041183485341
 30
0.0
 11
225.4982251713018
 21
813.524077577285
 31
0.0
 11
225.2597509890616
 21
815.9422342446987
 31
0.0
 11
224.5540595450852
 21
818.399425125355
 31
0.0
 11
223.4099369756748
 21
820.7954093240929
 31
0.0
 11
221.8740599002361
 21
823.0324435264328
 31
0.0
 11
220.0090822914747
 21
825.0192670497731
 31
0.0
 11
217.8910872953215
 21
826.6748292300662
 31
0.0
 11
215.6064771430717
 21
827.9315895976104
 31
0.0
 11
213.2484529118637
 21
828.738281064494
 31
0.0
 11
210.9132098056649
 21
829.0619921959619
 31
0.0
 11
208.6960134289951
 21
828.8895199014637
 31
0.0
 11
206.6873149572488
 21
828.2278974828232
 31
0.0
 11
204.9690576656542
 21
827.1041183485341
 31
0.0
  0
SPLINE
  5
A8
330
47
100
AcDbEntity
  8
0
  6
Continuous
 62
     7
100
AcDbSpline
210
0.0
220
0.0
230
1.0
 70
     8
 71
     3
 72
    23
 73
    19
 74
    17
 42
0.000000001
 43
0.0000000001
 44
0.00000001
 40
0.0
 40
0.0
 40
0.0
 40
0.0
 40
2.361184060016924
 40
4.789459981464454
 40
7.337061646231168
 40
10.03262144308263
 40
12.87967822535743
 40
15.85986290019119
 40
18.93805246248839
 40
22.06800210516917
 40
25.19795174785015
 40
28.27614131014724
 40
31.25632598498092
 40
34.10338276725575
 40
36.79894256410738
 40
39.34654422887395
 40
41.77482015032137
 40
44.13600421033843
 40
44.13600421033843
 40
44.13600421033843
 40
44.13600421033843
 10
203.3324234888843
 20
828.9939407135802
 30
0.0
 10
203.9688509845242
 20
829.464532040184
 30
0.0
 10
205.2597897511623
 20
830.4190862988688
 30
0.0
 10
207.6261400625586
 20
831.178126271516
 30
0.0
 10
210.1875133796249
 20
831.4136878069862
 30
0.0
 10
212.8837127931794
 20
831.0798884410463
 30
0.0
 10
215.6029412213693
 20
830.2095602380501
 30
0.0
 10
218.248994365534
 20
828.8351294285466
 30
0.0
 10
220.7237167152264
 20
827.0107658483314
 30
0.0
 10
222.9358489137613
 20
824.8049946442005
 30
0.0
 10
224.8029773399285
 20
822.3004414087984
 30
0.0
 10
226.2550972399218
 20
819.5904781291713
 30
0.0
 10
227.237423358497
 20
816.7752174505449
 30
0.0
 10
227.7103636783839
 20
813.9595466815397
 30
0.0
 10
227.6555680257861
 20
811.2433157026253
 30
0.0
 10
227.0565120960657
 20
808.741865223516
 30
0.0
 10
225.967207310095
 20
806.5082200951251
 30
0.0
 10
224.8380237865048
 20
805.3668869702077
 30
0.0
 10
224.2813409515396
 20
804.8042144409897
 30
0.0
 11
203.3324234888843
 21
828.9939407135802
 31
0.0
 11
205.3033807376619
 21
830.294139819648
 31
0.0
 11
207.6011219884418
 21
831.0795754420367
 31
0.0
 11
210.1373477020731
 21
831.3200611646647
 31
0.0
 11
212.8145912279297
 21
831.0063579171178
 31
0.0
 11
215.5299680324578
 21
830.1505184850444
 31
0.0
 11
218.1791277758523
 21
828.7854348432743
 31
0.0
 11
220.6602641677397
 21
826.9635640518286
 31
0.0
 11
222.8780295724333
 21
824.7549216257808
 31
0.0
 11
224.7471950275727
 21
822.2443827876607
 31
0.0
 11
226.1959314147942
 21
819.5284273653073
 31
0.0
 11
227.1685624366675
 21
816.7114272605256
 31
0.0
 11
227.6277128242905
 21
813.9016384347227
 31
0.0
 11
227.5557351567398
 21
811.2070397930626
 31
0.0
 11
226.9553980604572
 21
808.7311824417397
 31
0.0
 11
225.8497696508879
 21
806.5692134797966
 31
0.0
 11
224.2813409515396
 21
804.8042144409897
 31
0.0
  0
SPLINE
  5
A9
330
47
100
AcDbEntity
  8
0
  6
Continuous
 62
     7
100
AcDbSpline
210
0.0
220
0.0
230
1.0
 70
     8
 71
     3
 72
    19
 73
    15
 74
    13
 42
0.000000001
 43
0.0000000001
 44
0.00000001
 40
0.0
 40
0.0
 40
0.0
 40
0.0
 40
2.43332334023046
 40
4.939818739360778
 40
7.575545476756369
 40
10.36970576953601
 40
13.32341681110967
 40
16.41374943652606
 40
19.59984574673566
 40
22.82947193908041
 40
26.04550647996206
 40
29.19233646524586
 40
32.22228445624974
 40
35.10215071932502
 40
35.10215071932502
 40
35.10215071932502
 40
35.10215071932502
 10
224.2813409515396
 20
804.8042144409897
 30
0.0
 10
223.6240645896255
 20
804.3206799047806
 30
0.0
 10
222.2897470111742
 20
803.339070557714
 30
0.0
 10
219.8350495874346
 20
802.5840134011775
 30
0.0
 10
217.1808278877691
 20
802.3859963844993
 30
0.0
 10
214.394116580398
 20
802.7916086551818
 30
0.0
 10
211.5966660025935
 20
803.7627926657133
 30
0.0
 10
208.8933362821012
 20
805.2612780164378
 30
0.0
 10
206.3900769174752
 20
807.2248259779785
 30
0.0
 10
204.1860089417152
 20
809.5754125138648
 30
0.0
 10
202.3636910868864
 20
812.2197638192915
 30
0.0
 10
201.0123390314218
 20
815.0538516545123
 30
0.0
 10
200.1271838427348
 20
817.9659781483524
 30
0.0
 10
200.0083726995178
 20
819.9380717615038
 30
0.0
 10
199.9504757596609
 20
820.899077577285
 30
0.0
 11
224.2813409515396
 21
804.8042144409897
 31
0.0
 11
222.2448878652053
 21
803.47232805961
 31
0.0
 11
219.8642081949875
 21
802.6881829708509
 31
0.0
 11
217.2364198967121
 21
802.4837713625569
 31
0.0
 11
214.4687243634395
 21
802.8674289998521
 31
0.0
 11
211.6740289783041
 21
803.8235077754177
 31
0.0
 11
208.9663428719338
 21
805.3130015443592
 31
0.0
 11
206.4561265801968
 21
807.2751493135953
 31
0.0
 11
204.2457827475907
 21
809.6299031190356
 31
0.0
 11
202.4254839915151
 21
812.2812029144012
 31
0.0
 11
201.0694868722139
 21
815.1208878906834
 31
0.0
 11
200.2331118275012
 21
818.0331141196093
 31
0.0
 11
199.9504757596609
 21
820.899077577285
 31
0.0
  0
SPLINE
  5
AA
330
47
100
AcDbEntity
  8
0
  6
Continuous
 62
     7
100
AcDbSpline
210
0.0
220
0.0
230
1.0
 70
     8
 71
     3
 72
    11
 73
     7
 74
     5
 42
0.000000001
 43
0.0000000001
 44
0.00000001
 40
0.0
 40
0.0
 40
0.0
 40
0.0
 40
2.405887786747434
 40
4.693774651057895
 40
6.88949895517278
 40
9.034423943656845
 40
9.034423943656845
 40
9.034423943656845
 40
9.034423943656845
 10
199.9504757596609
 20
820.899077577285
 30
0.0
 10
199.9902216216882
 20
821.7029289194955
 30
0.0
 10
200.0677639558629
 20
823.2712053246805
 30
0.0
 10
200.7444782071472
 20
825.4851479081896
 30
0.0
 10
201.7926166239851
 20
827.4610386280283
 30
0.0
 10
202.82317479284
 20
828.4869755899684
 30
0.0
 10
203.3324234888843
 20
828.9939407135802
 30
0.0
 11
199.9504757596609
 21
820.899077577285
 31
0.0
 11
200.1704692695571
 21
823.294886188271
 31
0.0
 11
200.8234628394104
 21
825.4876072628168
 31
0.0
 11
201.8887231839385
 21
827.4076139368797
 31
0.0
 11
203.3324234888843
 21
828.9939407135802
 31
0.0
  0
SPLINE
  5
AB
330
47
100
AcDbEntity
  8
0
  6
Continuous
 62
     7
100
AcDbSpline
210
0.0
220
0.0
230
1.0
 70
     8
 71
     3
 72
    23
 73
    19
 74
    17
 42
0.000000001
 43
0.0000000001
 44
0.00000001
 40
0.0
 40
0.0
 40
0.0
 40
0.0
 40
2.619438567198611
 40
5.31330716804467
 40
8.139552765130404
 40
11.12993941488135
 40
14.28839303276669
 40
17.59453540639096
 40
21.00940195196542
 40
24.4816898366516
 40
27.95397772133774
 40
31.36884426691232
 40
34.67498664053652
 40
37.83344025842194
 40
40.82382690817289
 40
43.65007250525856
 40
46.3439411061047
 40
48.96337967330327
 40
48.96337967330327
 40
48.96337967330327
 40
48.96337967330327
 10
211.6867795651453
 20
838.5440577050647
 30
0.0
 10
212.3928163182872
 20
839.066119958139
 30
0.0
 10
213.8249515120477
 20
840.1250785903092
 30
0.0
 10
216.4501213896789
 20
840.9671385591562
 30
0.0
 10
219.2916449134829
 20
841.2284646375128
 30
0.0
 10
222.2827411380381
 20
840.8581559657315
 30
0.0
 10
225.2993851755823
 20
839.8926356154927
 30
0.0
 10
228.2348503823802
 20
838.367876436228
 30
0.0
 10
230.9802454890269
 20
836.3439730895292
 30
0.0
 10
233.4343296467
 20
833.8969456600669
 30
0.0
 10
235.505675244371
 20
831.1184569146358
 30
0.0
 10
237.1166207583312
 20
828.112091401357
 30
0.0
 10
238.2063887960987
 20
824.9889115860194
 30
0.0
 10
238.7310569635102
 20
821.8652768266272
 30
0.0
 10
238.6702680365783
 20
818.8519580842261
 30
0.0
 10
238.0056903645738
 20
816.0769114587737
 30
0.0
 10
236.7972428683056
 20
813.5989613934337
 30
0.0
 10
235.5445548954635
 20
812.3327949586576
 30
0.0
 10
234.9269848752785
 20
811.7085801214096
 30
0.0
 11
211.6867795651453
 21
838.5440577050647
 31
0.0
 11
213.8733102630079
 21
839.9864660883587
 31
0.0
 11
216.4223669630919
 21
840.857808731946
 31
0.0
 11
219.2359923641517
 21
841.1245975804864
 31
0.0
 11
222.2060594006489
 21
840.7765830402393
 31
0.0
 11
225.2184305431722
 21
839.8271361702828
 31
0.0
 11
228.1573421335005
 21
838.3127465051939
 31
0.0
 11
230.9098528182506
 21
836.291608595934
 31
0.0
 11
233.3701863140826
 21
833.8413959045371
 31
0.0
 11
235.4437917408778
 21
831.0562668809979
 31
0.0
 11
237.0509836704517
 21
828.0432538343244
 31
0.0
 11
238.1299962103424
 21
824.9181443430822
 31
0.0
 11
238.6393661716116
 21
821.801034864457
 31
0.0
 11
238.5595159466725
 21
818.8117144963655
 31
0.0
 11
237.8935169804841
 21
816.0650602472416
 31
0.0
 11
236.6669604636181
 21
813.6666259300858
 31
0.0
 11
234.9269848752785
 21
811.7085801214096
 31
0.0
  0
ENDBLK
  5
49
330
47
100
AcDbEntity
  8
0
100
AcDbBlockEnd
  0
BLOCK
  5
4C
330
4A
100
AcDbEntity
  8
0
100
AcDbBlockBegin
  2
Allg1
 70
     0
 10
219.8068822202169
 20
822.0952299999959
 30
0.0
  3
Allg1
  1

  0
INSERT
  5
4B
330
4A
100
AcDbEntity
  8
0
100
AcDbBlockReference
  2
1411109_A_EXSH_M32_68L_N_S-select__1
 10
199.9504757596609
 20
802.3552696799467
 30
0.0
  0
ENDBLK
  5
4D
330
4A
100
AcDbEntity
  8
0
100
AcDbBlockEnd
  0
BLOCK
  5
4F
330
4E
100
AcDbEntity
  8
0
100
AcDbBlockBegin
  2
1411109_A_EXSH_M32_68L_N_S-select__2
 70
     0
 10
77.02835699997999
 20
814.2000012370606
 30
0.0
  3
1411109_A_EXSH_M32_68L_N_S-select__2
  1

  0
LINE
  5
AC
330
4E
100
AcDbEntity
  8
0
  6
Continuous
 62
     7
100
AcDbLine
 10
100.9613697018722
 20
814.2000012370606
 30
0.0
 11
100.5755228647714
 21
814.2000012370606
 31
0.0
  0
LINE
  5
AD
330
4E
100
AcDbEntity
  8
0
  6
Continuous
 62
     7
100
AcDbLine
 10
92.02835699997999
 20
814.4500012370606
 30
0.0
 11
96.02835699997999
 21
814.4500012370606
 31
0.0
  0
LINE
  5
AE
330
4E
100
AcDbEntity
  8
0
  6
Continuous
 62
     7
100
AcDbLine
 10
96.02835699997996
 20
847.5588690608167
 30
0.0
 11
100.5755228647714
 21
847.5588690608167
 31
0.0
  0
LINE
  5
AF
330
4E
100
AcDbEntity
  8
0
  6
Continuous
 62
     7
100
AcDbLine
 10
96.02835699997996
 20
834.8411334133046
 30
0.0
 11
100.5755228647714
 21
834.8411334133045
 31
0.0
  0
LINE
  5
B0
330
4E
100
AcDbEntity
  8
0
  6
Continuous
 62
     7
100
AcDbLine
 10
92.02835699997999
 20
849.9500012370606
 30
0.0
 11
96.02835699997999
 21
849.9500012370606
 31
0.0
  0
LINE
  5
B1
330
4E
100
AcDbEntity
  8
0
  6
Continuous
 62
     7
100
AcDbLine
 10
92.02835699997999
 20
849.9500012370606
 30
0.0
 11
92.02835699997999
 21
848.2000012370606
 31
0.0
  0
LINE
  5
B2
330
4E
100
AcDbEntity
  8
0
  6
Continuous
 62
     7
100
AcDbLine
 10
100.5755228647714
 20
850.2000012370606
 30
0.0
 11
100.9613697018722
 21
850.2000012370606
 31
0.0
  0
LINE
  5
B3
330
4E
100
AcDbEntity
  8
0
  6
Continuous
 62
     7
100
AcDbLine
 10
96.02835699997996
 20
850.2000012370606
 30
0.0
 11
100.5755228647714
 21
850.2000012370606
 31
0.0
  0
LINE
  5
B4
330
4E
100
AcDbEntity
  8
0
  6
Continuous
 62
     7
100
AcDbLine
 10
77.02835699997999
 20
848.2000012370606
 30
0.0
 11
92.02835699997999
 21
848.2000012370606
 31
0.0
  0
LINE
  5
B5
330
4E
100
AcDbEntity
  8
0
  6
Continuous
 62
     7
100
AcDbLine
 10
77.02835699997999
 20
848.2000012370606
 30
0.0
 11
77.02835699997999
 21
816.2000012370606
 31
0.0
  0
LINE
  5
B6
330
4E
100
AcDbEntity
  8
0
  6
Continuous
 62
     7
100
AcDbLine
 10
92.02835699997999
 20
816.2000012370606
 30
0.0
 11
92.02835699997999
 21
814.4500012370606
 31
0.0
  0
LINE
  5
B7
330
4E
100
AcDbEntity
  8
0
  6
Continuous
 62
     7
100
AcDbLine
 10
77.02835699997999
 20
816.2000012370606
 30
0.0
 11
92.02835699997999
 21
816.2000012370606
 31
0.0
  0
LINE
  5
B8
330
4E
100
AcDbEntity
  8
0
  6
Continuous
 62
     7
100
AcDbLine
 10
96.02835699997999
 20
814.4500012370606
 30
0.0
 11
96.02835699997996
 21
814.2000012370606
 31
0.0
  0
LINE
  5
B9
330
4E
100
AcDbEntity
  8
0
  6
Continuous
 62
     7
100
AcDbLine
 10
96.02835699997996
 20
850.2000012370606
 30
0.0
 11
96.02835699997999
 21
849.9500012370606
 31
0.0
  0
LINE
  5
BA
330
4E
100
AcDbEntity
  8
0
  6
Continuous
 62
     7
100
AcDbLine
 10
96.02835699997999
 20
849.9500012370606
 30
0.0
 11
96.02835699997996
 21
847.5588690608167
 31
0.0
  0
LINE
  5
BB
330
4E
100
AcDbEntity
  8
0
  6
Continuous
 62
     7
100
AcDbLine
 10
96.02835699997996
 20
834.8411334133046
 30
0.0
 11
96.02835699997996
 21
847.5588690608167
 31
0.0
  0
LINE
  5
BC
330
4E
100
AcDbEntity
  8
0
  6
Continuous
 62
     7
100
AcDbLine
 10
96.02835699997996
 20
834.8411334133046
 30
0.0
 11
96.02835699997996
 21
829.5588690608167
 31
0.0
  0
LINE
  5
BD
330
4E
100
AcDbEntity
  8
0
  6
Continuous
 62
     7
100
AcDbLine
 10
96.02835699997996
 20
816.8411334133046
 30
0.0
 11
96.02835699997999
 21
814.4500012370606
 31
0.0
  0
LINE
  5
BE
330
4E
100
AcDbEntity
  8
0
  6
Continuous
 62
     7
100
AcDbLine
 10
92.02835699997999
 20
848.2000012370606
 30
0.0
 11
92.02835699997999
 21
816.2000012370606
 31
0.0
  0
LINE
  5
BF
330
4E
100
AcDbEntity
  8
0
  6
Continuous
 62
     7
100
AcDbLine
 10
96.02835699997996
 20
814.2000012370606
 30
0.0
 11
100.5755228647714
 21
814.2000012370606
 31
0.0
  0
LINE
  5
C0
330
4E
100
AcDbEntity
  8
0
  6
Continuous
 62
     7
100
AcDbLine
 10
96.02835699997996
 20
816.8411334133046
 30
0.0
 11
100.5755228647714
 21
816.8411334133045
 31
0.0
  0
LINE
  5
C1
330
4E
100
AcDbEntity
  8
0
  6
Continuous
 62
     7
100
AcDbLine
 10
96.02835699997996
 20
829.5588690608167
 30
0.0
 11
100.5755228647714
 21
829.5588690608167
 31
0.0
  0
LINE
  5
C2
330
4E
100
AcDbEntity
  8
0
  6
Continuous
 62
     7
100
AcDbLine
 10
100.5755228647714
 20
816.8411334133045
 30
0.0
 11
100.5755228647714
 21
814.2000012370606
 31
0.0
  0
LINE
  5
C3
330
4E
100
AcDbEntity
  8
0
  6
Continuous
 62
     7
100
AcDbLine
 10
96.02835699997996
 20
816.8411334133046
 30
0.0
 11
96.02835699997996
 21
829.5588690608167
 31
0.0
  0
LINE
  5
C4
330
4E
100
AcDbEntity
  8
0
  6
Continuous
 62
     7
100
AcDbLine
 10
100.5755228647714
 20
834.8411334133045
 30
0.0
 11
100.5755228647714
 21
829.5588690608167
 31
0.0
  0
LINE
  5
C5
330
4E
100
AcDbEntity
  8
0
  6
Continuous
 62
     7
100
AcDbLine
 10
101.02835699998
 20
849.9500012370606
 30
0.0
 11
100.9613697018722
 21
850.2000012370606
 31
0.0
  0
LINE
  5
C6
330
4E
100
AcDbEntity
  8
0
  6
Continuous
 62
     7
100
AcDbLine
 10
100.5755228647714
 20
850.2000012370606
 30
0.0
 11
100.5755228647714
 21
847.5588690608167
 31
0.0
  0
LINE
  5
C7
330
4E
100
AcDbEntity
  8
0
  6
Continuous
 62
     7
100
AcDbLine
 10
101.02835699998
 20
814.4500012370606
 30
0.0
 11
100.9613697018722
 21
814.2000012370606
 31
0.0
  0
LINE
  5
C8
330
4E
100
AcDbEntity
  8
0
  6
Continuous
 62
     7
100
AcDbLine
 10
101.02835699998
 20
849.9500012370606
 30
0.0
 11
101.02835699998
 21
814.4500012370606
 31
0.0
  0
LINE
  5
C9
330
4E
100
AcDbEntity
  8
1
  6
DOT_CENTER
 62
     2
100
AcDbLine
 10
77.02835699998002
 20
832.2000012370604
 30
0.0
 11
96.02835699997999
 21
832.2000012370606
 31
0.0
  0
LINE
  5
CA
330
4E
100
AcDbEntity
  8
1
  6
DOT_CENTER
 62
     2
100
AcDbLine
 10
101.02835699998
 20
832.2000012370606
 30
0.0
 11
100.9613697018722
 21
832.2000012370606
 31
0.0
  0
SPLINE
  5
CB
330
4E
100
AcDbEntity
  8
0
  6
Continuous
 62
     7
100
AcDbSpline
210
0.0
220
0.0
230
1.0
 70
     8
 71
     3
 72
    11
 73
     7
 74
     5
 42
0.000000001
 43
0.0000000001
 44
0.00000001
 40
0.0
 40
0.0
 40
0.0
 40
0.0
 40
3.254257758000701
 40
6.37329181228047
 40
9.492341660458083
 40
12.74661592508559
 40
12.74661592508559
 40
12.74661592508559
 40
12.74661592508559
 10
100.5755228647714
 20
816.8411334133045
 30
0.0
 10
100.6859606269848
 20
817.9205856439282
 30
0.0
 10
100.9022471322663
 20
820.0346357834287
 30
0.0
 10
100.9903034144921
 20
823.1999903329337
 30
0.0
 10
100.9022485550796
 20
826.3653504676702
 30
0.0
 10
100.685961108225
 20
828.4794113435571
 30
0.0
 10
100.5755228647714
 20
829.5588690608167
 30
0.0
 11
100.5755228647714
 21
816.8411334133045
 31
0.0
 11
100.8658600925585
 21
820.0824136930337
 31
0.0
 11
100.9613697018696
 21
823.1999850795223
 31
0.0
 11
100.8658610926963
 21
826.3175722979586
 31
0.0
 11
100.5755228647714
 21
829.5588690608167
 31
0.0
  0
SPLINE
  5
CC
330
4E
100
AcDbEntity
  8
0
  6
Continuous
 62
     7
100
AcDbSpline
210
0.0
220
0.0
230
1.0
 70
     8
 71
     3
 72
    11
 73
     7
 74
     5
 42
0.000000001
 43
0.0000000001
 44
0.00000001
 40
0.0
 40
0.0
 40
0.0
 40
0.0
 40
3.254257757998877
 40
6.373291812280469
 40
9.492341660458536
 40
12.74661592508558
 40
12.74661592508558
 40
12.74661592508558
 40
12.74661592508558
 10
100.5755228647714
 20
834.8411334133045
 30
0.0
 10
100.6859606269847
 20
835.9205856439278
 30
0.0
 10
100.9022471322662
 20
838.0346357834279
 30
0.0
 10
100.9903034144921
 20
841.1999903329333
 30
0.0
 10
100.9022485550796
 20
844.3653504676706
 30
0.0
 10
100.685961108225
 20
846.479411343557
 30
0.0
 10
100.5755228647714
 20
847.5588690608167
 30
0.0
 11
100.5755228647714
 21
834.8411334133045
 31
0.0
 11
100.8658600925583
 21
838.0824136930319
 31
0.0
 11
100.9613697018696
 21
841.1999850795223
 31
0.0
 11
100.8658610926962
 21
844.317572297959
 31
0.0
 11
100.5755228647714
 21
847.5588690608167
 31
0.0
  0
ENDBLK
  5
50
330
4E
100
AcDbEntity
  8
0
100
AcDbBlockEnd
  0
BLOCK
  5
53
330
51
100
AcDbEntity
  8
0
100
AcDbBlockBegin
  2
Drfsicht1
 70
     0
 10
89.02835699999
 20
832.2000012370606
 30
0.0
  3
Drfsicht1
  1

  0
INSERT
  5
52
330
51
100
AcDbEntity
  8
0
100
AcDbBlockReference
  2
1411109_A_EXSH_M32_68L_N_S-select__2
 10
77.02835699997999
 20
814.2000012370606
 30
0.0
  0
ENDBLK
  5
54
330
51
100
AcDbEntity
  8
0
100
AcDbBlockEnd
  0
BLOCK
  5
56
330
55
100
AcDbEntity
  8
0
100
AcDbBlockBegin
  2
1411109_A_EXSH_M32_68L_N_S-select__3
 70
     0
 10
210.99775100003
 20
886.5599999999964
 30
0.0
  3
1411109_A_EXSH_M32_68L_N_S-select__3
  1

  0
LINE
  5
CD
330
55
100
AcDbEntity
  8
0
  6
Continuous
 62
     7
100
AcDbLine
 10
219.99775100003
 20
888.2499999999964
 30
0.0
 11
215.99775100003
 21
888.2499999999964
 31
0.0
  0
LINE
  5
CE
330
55
100
AcDbEntity
  8
0
  6
Continuous
 62
     7
100
AcDbLine
 10
210.99775100003
 20
888.2499999999964
 30
0.0
 11
211.4505851352386
 21
886.5599999999964
 31
0.0
  0
LINE
  5
CF
330
55
100
AcDbEntity
  8
0
  6
Continuous
 62
     7
100
AcDbLine
 10
215.99775100003
 20
925.2597513179031
 30
0.0
 11
215.99775100003
 21
925.4399999999964
 31
0.0
  0
LINE
  5
D0
330
55
100
AcDbEntity
  8
0
  6
Continuous
 62
     7
100
AcDbLine
 10
211.4505851352386
 20
925.2597513179031
 30
0.0
 11
211.4505851352386
 21
925.4399999999964
 31
0.0
  0
LINE
  5
D1
330
55
100
AcDbEntity
  8
0
  6
Continuous
 62
     7
100
AcDbLine
 10
234.99775100003
 20
921.9999999999964
 30
0.0
 11
219.99775100003
 21
921.9999999999964
 31
0.0
  0
LINE
  5
D2
330
55
100
AcDbEntity
  8
0
  6
Continuous
 62
     7
100
AcDbLine
 10
215.99775100003
 20
925.2597513179031
 30
0.0
 11
211.4505851352386
 21
925.2597513179031
 31
0.0
  0
LINE
  5
D3
330
55
100
AcDbEntity
  8
0
  6
Continuous
 62
     7
100
AcDbLine
 10
215.99775100003
 20
925.4399999999964
 30
0.0
 11
211.4505851352386
 21
925.4399999999964
 31
0.0
  0
LINE
  5
D4
330
55
100
AcDbEntity
  8
0
  6
Continuous
 62
     7
100
AcDbLine
 10
210.99775100003
 20
923.7499999999964
 30
0.0
 11
211.4505851352386
 21
925.4399999999964
 31
0.0
  0
LINE
  5
D5
330
55
100
AcDbEntity
  8
0
  6
Continuous
 62
     7
100
AcDbLine
 10
219.99775100003
 20
888.2499999999964
 30
0.0
 11
219.99775100003
 21
889.9999999999964
 31
0.0
  0
LINE
  5
D6
330
55
100
AcDbEntity
  8
0
  6
Continuous
 62
     7
100
AcDbLine
 10
219.99775100003
 20
921.9999999999964
 30
0.0
 11
219.99775100003
 21
923.7499999999964
 31
0.0
  0
LINE
  5
D7
330
55
100
AcDbEntity
  8
0
  6
Continuous
 62
     7
100
AcDbLine
 10
219.99775100003
 20
889.9999999999964
 30
0.0
 11
219.99775100003
 21
921.9999999999964
 31
0.0
  0
LINE
  5
D8
330
55
100
AcDbEntity
  8
0
  6
Continuous
 62
     7
100
AcDbLine
 10
234.99775100003
 20
889.9999999999964
 30
0.0
 11
219.99775100003
 21
889.9999999999964
 31
0.0
  0
LINE
  5
D9
330
55
100
AcDbEntity
  8
0
  6
Continuous
 62
     7
100
AcDbLine
 10
215.99775100003
 20
888.2499999999964
 30
0.0
 11
215.99775100003
 21
886.7402486820897
 31
0.0
  0
LINE
  5
DA
330
55
100
AcDbEntity
  8
0
  6
Continuous
 62
     7
100
AcDbLine
 10
215.99775100003
 20
894.0828367816633
 30
0.0
 11
215.99775100003
 21
888.2499999999964
 31
0.0
  0
LINE
  5
DB
330
55
100
AcDbEntity
  8
0
  6
Continuous
 62
     7
100
AcDbLine
 10
215.99775100003
 20
894.0828367816633
 30
0.0
 11
215.99775100003
 21
898.6574119004229
 31
0.0
  0
LINE
  5
DC
330
55
100
AcDbEntity
  8
0
  6
Continuous
 62
     7
100
AcDbLine
 10
215.99775100003
 20
913.34258809957
 30
0.0
 11
215.99775100003
 21
898.6574119004229
 31
0.0
  0
LINE
  5
DD
330
55
100
AcDbEntity
  8
0
  6
Continuous
 62
     7
100
AcDbLine
 10
215.99775100003
 20
913.34258809957
 30
0.0
 11
215.99775100003
 21
917.9171632183295
 31
0.0
  0
LINE
  5
DE
330
55
100
AcDbEntity
  8
0
  6
Continuous
 62
     7
100
AcDbLine
 10
215.99775100003
 20
925.2597513179031
 30
0.0
 11
215.99775100003
 21
923.7499999999964
 31
0.0
  0
LINE
  5
DF
330
55
100
AcDbEntity
  8
0
  6
Continuous
 62
     7
100
AcDbLine
 10
215.99775100003
 20
886.5599999999964
 30
0.0
 11
215.99775100003
 21
886.7402486820897
 31
0.0
  0
LINE
  5
E0
330
55
100
AcDbEntity
  8
0
  6
Continuous
 62
     7
100
AcDbLine
 10
215.99775100003
 20
886.5599999999964
 30
0.0
 11
211.4505851352386
 21
886.5599999999964
 31
0.0
  0
LINE
  5
E1
330
55
100
AcDbEntity
  8
0
  6
Continuous
 62
     7
100
AcDbLine
 10
211.4505851352386
 20
886.5599999999964
 30
0.0
 11
211.4505851352386
 21
886.7402486820897
 31
0.0
  0
LINE
  5
E2
330
55
100
AcDbEntity
  8
0
  6
Continuous
 62
     7
100
AcDbLine
 10
215.99775100003
 20
886.7402486820897
 30
0.0
 11
211.4505851352386
 21
886.7402486820897
 31
0.0
  0
LINE
  5
E3
330
55
100
AcDbEntity
  8
0
  6
Continuous
 62
     7
100
AcDbLine
 10
234.99775100003
 20
905.9999999999964
 30
0.0
 11
234.99775100003
 21
921.9999999999964
 31
0.0
  0
LINE
  5
E4
330
55
100
AcDbEntity
  8
0
  6
Continuous
 62
     7
100
AcDbLine
 10
234.99775100003
 20
889.9999999999964
 30
0.0
 11
234.99775100003
 21
905.9999999999964
 31
0.0
  0
LINE
  5
E5
330
55
100
AcDbEntity
  8
0
  6
Continuous
 62
     7
100
AcDbLine
 10
211.4505851352386
 20
913.3425880995701
 30
0.0
 11
211.4505851352386
 21
917.9171632183295
 31
0.0
  0
LINE
  5
E6
330
55
100
AcDbEntity
  8
0
  6
Continuous
 62
     7
100
AcDbLine
 10
215.99775100003
 20
917.9171632183295
 30
0.0
 11
211.4505851352386
 21
917.9171632183295
 31
0.0
  0
LINE
  5
E7
330
55
100
AcDbEntity
  8
0
  6
Continuous
 62
     7
100
AcDbLine
 10
219.99775100003
 20
923.7499999999964
 30
0.0
 11
215.99775100003
 21
923.7499999999964
 31
0.0
  0
LINE
  5
E8
330
55
100
AcDbEntity
  8
0
  6
Continuous
 62
     7
100
AcDbLine
 10
215.99775100003
 20
913.34258809957
 30
0.0
 11
211.4505851352386
 21
913.3425880995701
 31
0.0
  0
LINE
  5
E9
330
55
100
AcDbEntity
  8
0
  6
Continuous
 62
     7
100
AcDbLine
 10
215.99775100003
 20
923.7499999999964
 30
0.0
 11
215.99775100003
 21
917.9171632183295
 31
0.0
  0
LINE
  5
EA
330
55
100
AcDbEntity
  8
0
  6
Continuous
 62
     7
100
AcDbLine
 10
215.99775100003
 20
894.0828367816633
 30
0.0
 11
211.4505851352386
 21
894.0828367816633
 31
0.0
  0
LINE
  5
EB
330
55
100
AcDbEntity
  8
0
  6
Continuous
 62
     7
100
AcDbLine
 10
211.4505851352386
 20
894.0828367816633
 30
0.0
 11
211.4505851352386
 21
898.657411900423
 31
0.0
  0
LINE
  5
EC
330
55
100
AcDbEntity
  8
0
  6
Continuous
 62
     7
100
AcDbLine
 10
215.99775100003
 20
898.6574119004229
 30
0.0
 11
211.4505851352386
 21
898.657411900423
 31
0.0
  0
LINE
  5
ED
330
55
100
AcDbEntity
  8
0
  6
Continuous
 62
     7
100
AcDbLine
 10
210.99775100003
 20
888.2499999999964
 30
0.0
 11
210.99775100003
 21
923.7499999999964
 31
0.0
  0
LINE
  5
EE
330
55
100
AcDbEntity
  8
1
  6
DOT_CENTER
 62
     2
100
AcDbLine
 10
234.99775100003
 20
905.9999999999964
 30
0.0
 11
215.99775100003
 21
905.9999999999964
 31
0.0
  0
LINE
  5
EF
330
55
100
AcDbEntity
  8
1
  6
DOT_CENTER
 62
     2
100
AcDbLine
 10
210.9977510000299
 20
905.9999999999958
 30
0.0
 11
211.4505851352388
 21
905.9999999999958
 31
0.0
  0
SPLINE
  5
F0
330
55
100
AcDbEntity
  8
0
  6
Continuous
 62
     7
100
AcDbSpline
210
0.0
220
0.0
230
1.0
 70
     8
 71
     3
 72
    11
 73
     7
 74
     5
 42
0.000000001
 43
0.0000000001
 44
0.00000001
 40
0.0
 40
0.0
 40
0.0
 40
0.0
 40
1.89376252657649
 40
3.69622430414071
 40
5.498677007330162
 40
7.392429976173463
 40
7.392429976173463
 40
7.392429976173463
 40
7.392429976173463
 10
211.4505851352386
 20
886.7402486820897
 30
0.0
 10
211.340208158336
 20
887.362355275149
 30
0.0
 10
211.1247756363861
 20
888.5765758972368
 30
0.0
 10
211.0354607908801
 20
890.4115490552624
 30
0.0
 10
211.1247770579041
 20
892.2465188831104
 30
0.0
 10
211.3402086403601
 20
893.4607333473692
 30
0.0
 10
211.4505851352386
 20
894.0828367816633
 30
0.0
 11
211.4505851352386
 21
886.7402486820897
 31
0.0
 11
211.1602458389904
 21
888.6116224027194
 31
0.0
 11
211.0647382981404
 21
890.4115520604356
 31
0.0
 11
211.1602468391614
 21
892.2114725779398
 31
0.0
 11
211.4505851352386
 21
894.0828367816633
 31
0.0
  0
SPLINE
  5
F1
330
55
100
AcDbEntity
  8
0
  6
Continuous
 62
     7
100
AcDbSpline
210
0.0
220
0.0
230
1.0
 70
     8
 71
     3
 72
    11
 73
     7
 74
     5
 42
0.000000001
 43
0.0000000001
 44
0.00000001
 40
0.0
 40
0.0
 40
0.0
 40
0.0
 40
1.866674837324517
 40
3.677849007736735
 40
5.526855532721344
 40
7.355685705835343
 40
7.355685705835343
 40
7.355685705835343
 40
7.355685705835343
 10
211.4505851352386
 20
898.657411900423
 30
0.0
 10
211.3917577278403
 20
899.2768827700892
 30
0.0
 10
211.2758520060852
 20
900.4974061736289
 30
0.0
 10
211.1568948872022
 20
902.3360610522516
 30
0.0
 10
211.0790993490349
 20
904.1643771912002
 30
0.0
 10
211.069507770543
 20
905.3903676292507
 30
0.0
 10
211.0647382981378
 20
905.9999999999964
 30
0.0
 11
211.4505851352386
 21
898.657411900423
 31
0.0
 11
211.2835686761963
 21
900.5166000165251
 31
0.0
 11
211.1642968850435
 21
902.323842699808
 31
0.0
 11
211.0895639349735
 21
904.1713383335286
 31
0.0
 11
211.0647382981378
 21
905.9999999999964
 31
0.0
  0
SPLINE
  5
F2
330
55
100
AcDbEntity
  8
0
  6
Continuous
 62
     7
100
AcDbSpline
210
0.0
220
0.0
230
1.0
 70
     8
 71
     3
 72
    11
 73
     7
 74
     5
 42
0.000000001
 43
0.0000000001
 44
0.00000001
 40
0.0
 40
0.0
 40
0.0
 40
0.0
 40
1.866674759864625
 40
3.67784885967715
 40
5.526855460703926
 40
7.355685705833702
 40
7.355685705833702
 40
7.355685705833702
 40
7.355685705833702
 10
211.4505851352386
 20
913.3425880995701
 30
0.0
 10
211.3917577301228
 20
912.7231172556271
 30
0.0
 10
211.2758520127211
 20
911.502593901256
 30
0.0
 10
211.156894892512
 20
909.6639390468061
 30
0.0
 10
211.0790993501781
 20
907.8356228821565
 30
0.0
 10
211.0695077709198
 20
906.6096323947495
 30
0.0
 10
211.0647382981378
 20
905.9999999999964
 30
0.0
 11
211.4505851352386
 21
913.3425880995701
 31
0.0
 11
211.2835686822267
 21
911.483400060698
 31
0.0
 11
211.1642968929712
 21
909.6761574480432
 31
0.0
 11
211.0895639369234
 21
907.82866173846
 31
0.0
 11
211.0647382981378
 21
905.9999999999964
 31
0.0
  0
SPLINE
  5
F3
330
55
100
AcDbEntity
  8
0
  6
Continuous
 62
     7
100
AcDbSpline
210
0.0
220
0.0
230
1.0
 70
     8
 71
     3
 72
    11
 73
     7
 74
     5
 42
0.000000001
 43
0.0000000001
 44
0.00000001
 40
0.0
 40
0.0
 40
0.0
 40
0.0
 40
1.893752968843409
 40
3.696205672032748
 40
5.49866744959743
 40
7.392429976173449
 40
7.392429976173449
 40
7.392429976173449
 40
7.392429976173449
 10
211.4505851352386
 20
925.2597513179031
 30
0.0
 10
211.3402086403601
 20
924.6376478836089
 30
0.0
 10
211.1247770579042
 20
923.42343341935
 30
0.0
 10
211.0354607908801
 20
921.5884635915024
 30
0.0
 10
211.1247756363862
 20
919.7534904334761
 30
0.0
 10
211.340208158336
 20
918.5392698113885
 30
0.0
 10
211.4505851352386
 20
917.9171632183295
 30
0.0
 11
211.4505851352386
 21
925.2597513179031
 31
0.0
 11
211.1602468391614
 21
923.3883871141795
 31
0.0
 11
211.0647382981404
 21
921.5884665966754
 31
0.0
 11
211.1602458389905
 21
919.7885369389587
 31
0.0
 11
211.4505851352386
 21
917.9171632183295
 31
0.0
  0
ENDBLK
  5
57
330
55
100
AcDbEntity
  8
0
100
AcDbBlockEnd
  0
BLOCK
  5
5A
330
58
100
AcDbEntity
  8
0
100
AcDbBlockBegin
  2
Rckans1
 70
     0
 10
222.99775100002
 20
905.9999999999964
 30
0.0
  3
Rckans1
  1

  0
INSERT
  5
59
330
58
100
AcDbEntity
  8
0
100
AcDbBlockReference
  2
1411109_A_EXSH_M32_68L_N_S-select__3
 10
210.99775100003
 20
886.5599999999964
 30
0.0
  0
MTEXT
  5
F5
330
58
100
AcDbEntity
  8
1
 62
     6
100
AcDbMText
 10
223.00000000002
 20
863.2000007629395
 30
0.0
 40
5.0
 41
0.0
 71
     2
 72
     1
  1
 
  7
CONVERTER_11
 73
     1
 44
1.32052821128451
  0
ENDBLK
  5
5B
330
58
100
AcDbEntity
  8
0
100
AcDbBlockEnd
  0
BLOCK
  5
5D
330
5C
100
AcDbEntity
  8
0
100
AcDbBlockBegin
  2
1411109_A_EXSH_M32_68L_N_S-select__4
 70
     0
 10
138.0
 20
886.56
 30
0.0
  3
1411109_A_EXSH_M32_68L_N_S-select__4
  1

  0
LINE
  5
F6
330
5C
100
AcDbEntity
  8
0
  6
Continuous
 62
     7
100
AcDbLine
 10
174.0
 20
898.6574119004264
 30
0.0
 11
174.0
 21
913.3425880995736
 31
0.0
  0
LINE
  5
F7
330
5C
100
AcDbEntity
  8
0
  6
Continuous
 62
     7
100
AcDbLine
 10
138.0
 20
913.3425880995736
 30
0.0
 11
138.0
 21
898.6574119004264
 31
0.0
  0
LINE
  5
F8
330
5C
100
AcDbEntity
  8
0
  6
Continuous
 62
     7
100
AcDbLine
 10
153.358867823756
 20
925.2597513179066
 30
0.0
 11
140.6411321762439
 21
917.9171632183331
 31
0.0
  0
LINE
  5
F9
330
5C
100
AcDbEntity
  8
0
  6
Continuous
 62
     7
100
AcDbLine
 10
171.358867823756
 20
917.9171632183331
 30
0.0
 11
158.6411321762439
 21
925.2597513179066
 31
0.0
  0
LINE
  5
FA
330
5C
100
AcDbEntity
  8
0
  6
Continuous
 62
     7
100
AcDbLine
 10
140.641132176244
 20
894.0828367816669
 30
0.0
 11
153.358867823756
 21
886.7402486820934
 31
0.0
  0
LINE
  5
FB
330
5C
100
AcDbEntity
  8
0
  6
Continuous
 62
     7
100
AcDbLine
 10
158.6411321762439
 20
886.7402486820934
 30
0.0
 11
171.358867823756
 21
894.082836781667
 31
0.0
  0
LINE
  5
FC
330
5C
100
AcDbEntity
  8
1
  6
DOT_CENTER
 62
     2
100
AcDbLine
 10
175.525
 20
906.0
 30
0.0
 11
136.475
 21
906.0
 31
0.0
  0
LINE
  5
FD
330
5C
100
AcDbEntity
  8
1
  6
DOT_CENTER
 62
     2
100
AcDbLine
 10
156.0
 20
925.525
 30
0.0
 11
156.0
 21
886.475
 31
0.0
  0
ARC
  5
FE
330
5C
100
AcDbEntity
  8
0
  6
Continuous
 62
     7
100
AcDbCircle
 10
156.0
 20
906.0
 30
0.0
 40
19.43999999999991
100
AcDbArc
 50
322.1916065662728
 51
337.8083934337272
  0
ARC
  5
FF
330
5C
100
AcDbEntity
  8
0
  6
Continuous
 62
     7
100
AcDbCircle
 10
156.0
 20
906.0
 30
0.0
 40
19.44000000000007
100
AcDbArc
 50
142.1916065662728
 51
157.8083934337272
  0
ARC
  5
100
330
5C
100
AcDbEntity
  8
0
  6
Continuous
 62
     7
100
AcDbCircle
 10
156.0
 20
906.0
 30
0.0
 40
19.43999999999994
100
AcDbArc
 50
82.19160656627292
 51
97.80839343372743
  0
ARC
  5
101
330
5C
100
AcDbEntity
  8
0
  6
Continuous
 62
     7
100
AcDbCircle
 10
156.0
 20
906.0
 30
0.0
 40
19.43999999999996
100
AcDbArc
 50
262.1916065662726
 51
277.8083934337271
  0
ARC
  5
102
330
5C
100
AcDbEntity
  8
0
  6
Continuous
 62
     7
100
AcDbCircle
 10
156.0
 20
906.0
 30
0.0
 40
19.44
100
AcDbArc
 50
22.19160656627281
 51
37.80839343372745
  0
ARC
  5
103
330
5C
100
AcDbEntity
  8
0
  6
Continuous
 62
     7
100
AcDbCircle
 10
156.0
 20
906.0
 30
0.0
 40
19.44
100
AcDbArc
 50
202.1916065662728
 51
217.8083934337274
  0
CIRCLE
  5
104
330
5C
100
AcDbEntity
  8
0
  6
Continuous
 62
     7
100
AcDbCircle
 10
156.0
 20
906.0
 30
0.0
 40
16.0
  0
CIRCLE
  5
105
330
5C
100
AcDbEntity
  8
0
  6
Continuous
 62
     7
100
AcDbCircle
 10
156.0
 20
906.0
 30
0.0
 40
13.5
  0
CIRCLE
  5
106
330
5C
100
AcDbEntity
  8
0
  6
Continuous
 62
     7
100
AcDbCircle
 10
156.0
 20
906.0
 30
0.0
 40
17.75
  0
ENDBLK
  5
5E
330
5C
100
AcDbEntity
  8
0
100
AcDbBlockEnd
  0
BLOCK
  5
61
330
5F
100
AcDbEntity
  8
0
100
AcDbBlockBegin
  2
SA_Links1
 70
     0
 10
156.0
 20
906.0
 30
0.0
  3
SA_Links1
  1

  0
INSERT
  5
60
330
5F
100
AcDbEntity
  8
0
100
AcDbBlockReference
  2
1411109_A_EXSH_M32_68L_N_S-select__4
 10
138.0
 20
886.56
 30
0.0
  0
MTEXT
  5
107
330
5F
100
AcDbEntity
  8
1
 62
     6
100
AcDbMText
 10
156.0
 20
863.2000007629395
 30
0.0
 40
5.0
 41
0.0
 71
     2
 72
     1
  1
 
  7
CONVERTER_11
 73
     1
 44
1.32052821128451
  0
ENDBLK
  5
62
330
5F
100
AcDbEntity
  8
0
100
AcDbBlockEnd
  0
BLOCK
  5
64
330
63
100
AcDbEntity
  8
0
100
AcDbBlockBegin
  2
1411109_A_EXSH_M32_68L_N_S-select__5
 70
     0
 10
8.99999999998992
 20
886.5599999999964
 30
0.0
  3
1411109_A_EXSH_M32_68L_N_S-select__5
  1

  0
LINE
  5
108
330
63
100
AcDbEntity
  8
0
  6
Continuous
 62
     7
100
AcDbLine
 10
44.99999999998991
 20
898.6574119004229
 30
0.0
 11
44.99999999998991
 21
905.9999999999964
 31
0.0
  0
LINE
  5
109
330
63
100
AcDbEntity
  8
0
  6
Continuous
 62
     7
100
AcDbLine
 10
44.99999999998991
 20
913.3425880995701
 30
0.0
 11
44.99999999998991
 21
905.9999999999964
 31
0.0
  0
LINE
  5
10A
330
63
100
AcDbEntity
  8
0
  6
Continuous
 62
     7
100
AcDbLine
 10
8.99999999998992
 20
905.9999999999964
 30
0.0
 11
8.99999999998992
 21
898.6574119004229
 31
0.0
  0
LINE
  5
10B
330
63
100
AcDbEntity
  8
0
  6
Continuous
 62
     7
100
AcDbLine
 10
8.99999999998992
 20
905.9999999999964
 30
0.0
 11
8.99999999998992
 21
913.3425880995701
 31
0.0
  0
LINE
  5
10C
330
63
100
AcDbEntity
  8
0
  6
Continuous
 62
     7
100
AcDbLine
 10
11.64113217623385
 20
917.9171632183295
 30
0.0
 11
24.35886782374595
 21
925.2597513179031
 31
0.0
  0
LINE
  5
10D
330
63
100
AcDbEntity
  8
0
  6
Continuous
 62
     7
100
AcDbLine
 10
29.64113217623387
 20
925.2597513179031
 30
0.0
 11
42.35886782374595
 21
917.9171632183295
 31
0.0
  0
LINE
  5
10E
330
63
100
AcDbEntity
  8
0
  6
Continuous
 62
     7
100
AcDbLine
 10
11.64113217623384
 20
894.0828367816633
 30
0.0
 11
24.35886782374599
 21
886.7402486820897
 31
0.0
  0
LINE
  5
10F
330
63
100
AcDbEntity
  8
0
  6
Continuous
 62
     7
100
AcDbLine
 10
29.64113217623387
 20
886.7402486820897
 30
0.0
 11
42.35886782374595
 21
894.0828367816633
 31
0.0
  0
LINE
  5
110
330
63
100
AcDbEntity
  8
1
  6
DOT_CENTER
 62
     2
100
AcDbLine
 10
46.52499999998992
 20
905.9999999999964
 30
0.0
 11
7.4749999999899
 21
905.9999999999964
 31
0.0
  0
LINE
  5
111
330
63
100
AcDbEntity
  8
1
  6
DOT_CENTER
 62
     2
100
AcDbLine
 10
26.99999999998991
 20
925.5249999999963
 30
0.0
 11
26.99999999998991
 21
886.4749999999964
 31
0.0
  0
ARC
  5
112
330
63
100
AcDbEntity
  8
0
  6
Continuous
 62
     7
100
AcDbCircle
 10
26.99999999998991
 20
905.9999999999964
 30
0.0
 40
19.43999999999996
100
AcDbArc
 50
322.1916065662729
 51
337.8083934337275
  0
ARC
  5
113
330
63
100
AcDbEntity
  8
0
  6
Continuous
 62
     7
100
AcDbCircle
 10
26.99999999998991
 20
905.9999999999964
 30
0.0
 40
19.43999999999996
100
AcDbArc
 50
202.1916065662725
 51
217.808393433727
  0
ARC
  5
114
330
63
100
AcDbEntity
  8
0
  6
Continuous
 62
     7
100
AcDbCircle
 10
26.99999999998991
 20
905.9999999999964
 30
0.0
 40
19.44000000000004
100
AcDbArc
 50
142.1916065662727
 51
157.8083934337269
  0
ARC
  5
115
330
63
100
AcDbEntity
  8
0
  6
Continuous
 62
     7
100
AcDbCircle
 10
26.99999999998991
 20
905.9999999999964
 30
0.0
 40
19.44000000000006
100
AcDbArc
 50
82.19160656627278
 51
97.80839343372723
  0
ARC
  5
116
330
63
100
AcDbEntity
  8
0
  6
Continuous
 62
     7
100
AcDbCircle
 10
26.99999999998991
 20
905.9999999999964
 30
0.0
 40
19.44000000000005
100
AcDbArc
 50
22.19160656627312
 51
37.80839343372735
  0
ARC
  5
117
330
63
100
AcDbEntity
  8
0
  6
Continuous
 62
     7
100
AcDbCircle
 10
26.99999999998991
 20
905.9999999999964
 30
0.0
 40
19.43999999999994
100
AcDbArc
 50
262.1916065662729
 51
277.8083934337272
  0
CIRCLE
  5
118
330
63
100
AcDbEntity
  8
0
  6
Continuous
 62
     7
100
AcDbCircle
 10
26.99999999998991
 20
905.9999999999964
 30
0.0
 40
17.75000000000001
  0
ENDBLK
  5
65
330
63
100
AcDbEntity
  8
0
100
AcDbBlockEnd
  0
BLOCK
  5
68
330
66
100
AcDbEntity
  8
0
100
AcDbBlockBegin
  2
SA_Rechts1
 70
     0
 10
26.9999999999899
 20
905.9999999999964
 30
0.0
  3
SA_Rechts1
  1

  0
INSERT
  5
67
330
66
100
AcDbEntity
  8
0
100
AcDbBlockReference
  2
1411109_A_EXSH_M32_68L_N_S-select__5
 10
8.99999999998992
 20
886.5599999999964
 30
0.0
  0
MTEXT
  5
119
330
66
100
AcDbEntity
  8
1
 62
     6
100
AcDbMText
 10
26.99999999998999
 20
863.2000007629395
 30
0.0
 40
5.0
 41
0.0
 71
     2
 72
     1
  1
 
  7
CONVERTER_11
 73
     1
 44
1.32052821128451
  0
ENDBLK
  5
69
330
66
100
AcDbEntity
  8
0
100
AcDbBlockEnd
  0
BLOCK
  5
6B
330
6A
100
AcDbEntity
  8
0
100
AcDbBlockBegin
  2
1411109_A_EXSH_M32_68L_N_S-select__6
 70
     0
 10
77.0022489999813
 20
886.5599999999964
 30
0.0
  3
1411109_A_EXSH_M32_68L_N_S-select__6
  1

  0
LINE
  5
11A
330
6A
100
AcDbEntity
  8
0
  6
Continuous
 62
     7
100
AcDbLine
 10
92.0022489999813
 20
889.9999999999964
 30
0.0
 11
92.0022489999813
 21
888.2499999999964
 31
0.0
  0
LINE
  5
11B
330
6A
100
AcDbEntity
  8
0
  6
Continuous
 62
     7
100
AcDbLine
 10
96.0022489999813
 20
886.5599999999964
 30
0.0
 11
100.5494148647727
 21
886.5599999999964
 31
0.0
  0
LINE
  5
11C
330
6A
100
AcDbEntity
  8
0
  6
Continuous
 62
     7
100
AcDbLine
 10
100.5494148647727
 20
886.7402486820897
 30
0.0
 11
100.5494148647727
 21
886.5599999999964
 31
0.0
  0
LINE
  5
11D
330
6A
100
AcDbEntity
  8
0
  6
Continuous
 62
     7
100
AcDbLine
 10
101.0022489999813
 20
888.2499999999964
 30
0.0
 11
100.5494148647727
 21
886.5599999999964
 31
0.0
  0
LINE
  5
11E
330
6A
100
AcDbEntity
  8
0
  6
Continuous
 62
     7
100
AcDbLine
 10
96.0022489999813
 20
886.7402486820897
 30
0.0
 11
100.5494148647727
 21
886.7402486820897
 31
0.0
  0
LINE
  5
11F
330
6A
100
AcDbEntity
  8
0
  6
Continuous
 62
     7
100
AcDbLine
 10
96.0022489999813
 20
886.7402486820897
 30
0.0
 11
96.0022489999813
 21
886.5599999999964
 31
0.0
  0
LINE
  5
120
330
6A
100
AcDbEntity
  8
0
  6
Continuous
 62
     7
100
AcDbLine
 10
92.0022489999813
 20
888.2499999999964
 30
0.0
 11
96.0022489999813
 21
888.2499999999964
 31
0.0
  0
LINE
  5
121
330
6A
100
AcDbEntity
  8
0
  6
Continuous
 62
     7
100
AcDbLine
 10
96.0022489999813
 20
898.6574119004229
 30
0.0
 11
96.0022489999813
 21
913.3425880995701
 31
0.0
  0
LINE
  5
122
330
6A
100
AcDbEntity
  8
0
  6
Continuous
 62
     7
100
AcDbLine
 10
100.5494148647727
 20
898.6574119004229
 30
0.0
 11
100.5494148647727
 21
894.0828367816633
 31
0.0
  0
LINE
  5
123
330
6A
100
AcDbEntity
  8
0
  6
Continuous
 62
     7
100
AcDbLine
 10
96.0022489999813
 20
898.6574119004229
 30
0.0
 11
100.5494148647727
 21
898.6574119004229
 31
0.0
  0
LINE
  5
124
330
6A
100
AcDbEntity
  8
0
  6
Continuous
 62
     7
100
AcDbLine
 10
96.0022489999813
 20
898.6574119004229
 30
0.0
 11
96.0022489999813
 21
894.0828367816633
 31
0.0
  0
LINE
  5
125
330
6A
100
AcDbEntity
  8
0
  6
Continuous
 62
     7
100
AcDbLine
 10
96.0022489999813
 20
894.0828367816633
 30
0.0
 11
100.5494148647727
 21
894.0828367816633
 31
0.0
  0
LINE
  5
126
330
6A
100
AcDbEntity
  8
0
  6
Continuous
 62
     7
100
AcDbLine
 10
101.0022489999813
 20
905.9999999999964
 30
0.0
 11
101.0022489999813
 21
888.2499999999964
 31
0.0
  0
LINE
  5
127
330
6A
100
AcDbEntity
  8
0
  6
Continuous
 62
     7
100
AcDbLine
 10
96.0022489999813
 20
886.7402486820897
 30
0.0
 11
96.0022489999813
 21
888.2499999999964
 31
0.0
  0
LINE
  5
128
330
6A
100
AcDbEntity
  8
0
  6
Continuous
 62
     7
100
AcDbLine
 10
96.0022489999813
 20
888.2499999999964
 30
0.0
 11
96.0022489999813
 21
894.0828367816633
 31
0.0
  0
LINE
  5
129
330
6A
100
AcDbEntity
  8
0
  6
Continuous
 62
     7
100
AcDbLine
 10
100.5494148647727
 20
917.9171632183295
 30
0.0
 11
100.5494148647727
 21
913.3425880995701
 31
0.0
  0
LINE
  5
12A
330
6A
100
AcDbEntity
  8
0
  6
Continuous
 62
     7
100
AcDbLine
 10
96.0022489999813
 20
917.9171632183295
 30
0.0
 11
100.5494148647727
 21
917.9171632183295
 31
0.0
  0
LINE
  5
12B
330
6A
100
AcDbEntity
  8
0
  6
Continuous
 62
     7
100
AcDbLine
 10
96.0022489999813
 20
917.9171632183295
 30
0.0
 11
96.0022489999813
 21
913.3425880995701
 31
0.0
  0
LINE
  5
12C
330
6A
100
AcDbEntity
  8
0
  6
Continuous
 62
     7
100
AcDbLine
 10
96.0022489999813
 20
913.3425880995701
 30
0.0
 11
100.5494148647727
 21
913.3425880995701
 31
0.0
  0
LINE
  5
12D
330
6A
100
AcDbEntity
  8
0
  6
Continuous
 62
     7
100
AcDbLine
 10
96.0022489999813
 20
923.7499999999964
 30
0.0
 11
96.0022489999813
 21
925.2597513179031
 31
0.0
  0
LINE
  5
12E
330
6A
100
AcDbEntity
  8
0
  6
Continuous
 62
     7
100
AcDbLine
 10
96.0022489999813
 20
925.4399999999964
 30
0.0
 11
96.0022489999813
 21
925.2597513179031
 31
0.0
  0
LINE
  5
12F
330
6A
100
AcDbEntity
  8
0
  6
Continuous
 62
     7
100
AcDbLine
 10
100.5494148647727
 20
925.4399999999964
 30
0.0
 11
100.5494148647727
 21
925.2597513179031
 31
0.0
  0
LINE
  5
130
330
6A
100
AcDbEntity
  8
0
  6
Continuous
 62
     7
100
AcDbLine
 10
96.0022489999813
 20
925.4399999999964
 30
0.0
 11
100.5494148647727
 21
925.4399999999964
 31
0.0
  0
LINE
  5
131
330
6A
100
AcDbEntity
  8
0
  6
Continuous
 62
     7
100
AcDbLine
 10
96.0022489999813
 20
925.2597513179031
 30
0.0
 11
100.5494148647727
 21
925.2597513179031
 31
0.0
  0
LINE
  5
132
330
6A
100
AcDbEntity
  8
0
  6
Continuous
 62
     7
100
AcDbLine
 10
96.0022489999813
 20
917.9171632183295
 30
0.0
 11
96.0022489999813
 21
923.7499999999964
 31
0.0
  0
LINE
  5
133
330
6A
100
AcDbEntity
  8
0
  6
Continuous
 62
     7
100
AcDbLine
 10
92.0022489999813
 20
923.7499999999964
 30
0.0
 11
92.0022489999813
 21
921.9999999999964
 31
0.0
  0
LINE
  5
134
330
6A
100
AcDbEntity
  8
0
  6
Continuous
 62
     7
100
AcDbLine
 10
101.0022489999813
 20
923.7499999999964
 30
0.0
 11
100.5494148647727
 21
925.4399999999964
 31
0.0
  0
LINE
  5
135
330
6A
100
AcDbEntity
  8
0
  6
Continuous
 62
     7
100
AcDbLine
 10
92.0022489999813
 20
923.7499999999964
 30
0.0
 11
96.0022489999813
 21
923.7499999999964
 31
0.0
  0
LINE
  5
136
330
6A
100
AcDbEntity
  8
0
  6
Continuous
 62
     7
100
AcDbLine
 10
92.0022489999813
 20
905.9999999999964
 30
0.0
 11
92.0022489999813
 21
889.9999999999964
 31
0.0
  0
LINE
  5
137
330
6A
100
AcDbEntity
  8
0
  6
Continuous
 62
     7
100
AcDbLine
 10
92.0022489999813
 20
921.9999999999964
 30
0.0
 11
92.0022489999813
 21
905.9999999999964
 31
0.0
  0
LINE
  5
138
330
6A
100
AcDbEntity
  8
0
  6
Continuous
 62
     7
100
AcDbLine
 10
77.0022489999813
 20
889.9999999999964
 30
0.0
 11
92.0022489999813
 21
889.9999999999964
 31
0.0
  0
LINE
  5
139
330
6A
100
AcDbEntity
  8
0
  6
Continuous
 62
     7
100
AcDbLine
 10
77.0022489999813
 20
921.9999999999964
 30
0.0
 11
92.0022489999813
 21
921.9999999999964
 31
0.0
  0
LINE
  5
13A
330
6A
100
AcDbEntity
  8
0
  6
Continuous
 62
     7
100
AcDbLine
 10
77.0022489999813
 20
921.9999999999964
 30
0.0
 11
77.0022489999813
 21
889.9999999999964
 31
0.0
  0
LINE
  5
13B
330
6A
100
AcDbEntity
  8
0
  6
Continuous
 62
     7
100
AcDbLine
 10
101.0022489999813
 20
923.7499999999964
 30
0.0
 11
101.0022489999813
 21
905.9999999999964
 31
0.0
  0
LINE
  5
13C
330
6A
100
AcDbEntity
  8
1
  6
DOT_CENTER
 62
     2
100
AcDbLine
 10
77.0022489999813
 20
905.9999999999964
 30
0.0
 11
96.0022489999813
 21
905.9999999999964
 31
0.0
  0
LINE
  5
13D
330
6A
100
AcDbEntity
  8
1
  6
DOT_CENTER
 62
     2
100
AcDbLine
 10
101.0022489999813
 20
905.9999999999964
 30
0.0
 11
100.5494148647725
 21
905.9999999999958
 31
0.0
  0
SPLINE
  5
13E
330
6A
100
AcDbEntity
  8
0
  6
Continuous
 62
     7
100
AcDbSpline
210
0.0
220
0.0
230
1.0
 70
     8
 71
     3
 72
    11
 73
     7
 74
     5
 42
0.000000001
 43
0.0000000001
 44
0.00000001
 40
0.0
 40
0.0
 40
0.0
 40
0.0
 40
1.828830258326541
 40
3.677836872960682
 40
5.489010959697803
 40
7.355685705833118
 40
7.355685705833118
 40
7.355685705833118
 40
7.355685705833118
 10
100.9352617018735
 20
905.9999999999964
 30
0.0
 10
100.9304922290225
 20
905.3903676008441
 30
0.0
 10
100.9209006496248
 20
904.1643771045012
 30
0.0
 10
100.8431051065387
 20
902.336060935297
 30
0.0
 10
100.7241479860965
 20
900.4974060852763
 30
0.0
 10
100.608242269484
 20
899.2768827398066
 30
0.0
 10
100.5494148647727
 20
898.6574119004229
 30
0.0
 11
100.9352617018735
 21
905.9999999999964
 31
0.0
 11
100.9104360627306
 21
904.1713382483396
 31
0.0
 11
100.8357031056049
 21
902.3238425251815
 31
0.0
 11
100.7164313167158
 21
900.5165999256063
 31
0.0
 11
100.5494148647727
 21
898.6574119004229
 31
0.0
  0
SPLINE
  5
13F
330
6A
100
AcDbEntity
  8
0
  6
Continuous
 62
     7
100
AcDbSpline
210
0.0
220
0.0
230
1.0
 70
     8
 71
     3
 72
    11
 73
     7
 74
     5
 42
0.000000001
 43
0.0000000001
 44
0.00000001
 40
0.0
 40
0.0
 40
0.0
 40
0.0
 40
1.828830181614205
 40
3.677836715415296
 40
5.489010877379695
 40
7.355685705835453
 40
7.355685705835453
 40
7.355685705835453
 40
7.355685705835453
 10
100.9352617018735
 20
905.9999999999964
 30
0.0
 10
100.9304922294238
 20
906.6096323735758
 30
0.0
 10
100.9209006508418
 20
907.8356228173985
 30
0.0
 10
100.8431051121891
 20
909.66393895929
 30
0.0
 10
100.7241479931551
 20
911.50259383506
 30
0.0
 10
100.6082422719098
 20
912.7231172328488
 30
0.0
 10
100.5494148647727
 20
913.3425880995701
 30
0.0
 11
100.9352617018735
 21
905.9999999999964
 31
0.0
 11
100.9104360648076
 21
907.828661674962
 31
0.0
 11
100.8357031140406
 21
909.6761573174781
 31
0.0
 11
100.7164313231246
 21
911.4833999923104
 31
0.0
 11
100.5494148647727
 21
913.3425880995701
 31
0.0
  0
SPLINE
  5
140
330
6A
100
AcDbEntity
  8
0
  6
Continuous
 62
     7
100
AcDbSpline
210
0.0
220
0.0
230
1.0
 70
     8
 71
     3
 72
    11
 73
     7
 74
     5
 42
0.000000001
 43
0.0000000001
 44
0.00000001
 40
0.0
 40
0.0
 40
0.0
 40
0.0
 40
1.893762526576827
 40
3.696224304140713
 40
5.498677007329257
 40
7.392429976173469
 40
7.392429976173469
 40
7.392429976173469
 40
7.392429976173469
 10
100.5494148647727
 20
894.0828367816633
 30
0.0
 10
100.6597918416754
 20
893.4607301886042
 30
0.0
 10
100.8752243636251
 20
892.2465095665161
 30
0.0
 10
100.9645392091314
 20
890.411536408491
 30
0.0
 10
100.8752229421072
 20
888.5765665806427
 30
0.0
 10
100.6597913596513
 20
887.3623521163842
 30
0.0
 10
100.5494148647727
 20
886.7402486820897
 30
0.0
 11
100.5494148647727
 21
894.0828367816633
 31
0.0
 11
100.8397541610209
 21
892.2114630610333
 31
0.0
 11
100.935261701871
 21
890.4115334033174
 31
0.0
 11
100.83975316085
 21
888.6116128858141
 31
0.0
 11
100.5494148647727
 21
886.7402486820897
 31
0.0
  0
SPLINE
  5
141
330
6A
100
AcDbEntity
  8
0
  6
Continuous
 62
     7
100
AcDbSpline
210
0.0
220
0.0
230
1.0
 70
     8
 71
     3
 72
    11
 73
     7
 74
     5
 42
0.000000001
 43
0.0000000001
 44
0.00000001
 40
0.0
 40
0.0
 40
0.0
 40
0.0
 40
1.893752968844212
 40
3.696205672032757
 40
5.498667449596985
 40
7.392429976173471
 40
7.392429976173471
 40
7.392429976173471
 40
7.392429976173471
 10
100.5494148647727
 20
917.9171632183295
 30
0.0
 10
100.6597913596512
 20
918.5392666526238
 30
0.0
 10
100.8752229421072
 20
919.7534811168832
 30
0.0
 10
100.9645392091314
 20
921.5884509447305
 30
0.0
 10
100.8752243636251
 20
923.4234241027561
 30
0.0
 10
100.6597918416753
 20
924.6376447248438
 30
0.0
 10
100.5494148647727
 20
925.2597513179031
 30
0.0
 11
100.5494148647727
 21
917.9171632183295
 31
0.0
 11
100.83975316085
 21
919.7885274220539
 31
0.0
 11
100.935261701871
 21
921.5884479395572
 31
0.0
 11
100.8397541610209
 21
923.3883775972735
 31
0.0
 11
100.5494148647727
 21
925.2597513179031
 31
0.0
  0
ENDBLK
  5
6C
330
6A
100
AcDbEntity
  8
0
100
AcDbBlockEnd
  0
BLOCK
  5
6F
330
6D
100
AcDbEntity
  8
0
100
AcDbBlockBegin
  2
Vordans1
 70
     0
 10
89.00224899999131
 20
905.9999999999964
 30
0.0
  3
Vordans1
  1

  0
INSERT
  5
6E
330
6D
100
AcDbEntity
  8
0
100
AcDbBlockReference
  2
1411109_A_EXSH_M32_68L_N_S-select__6
 10
77.0022489999813
 20
886.5599999999964
 30
0.0
  0
MTEXT
  5
142
330
6D
100
AcDbEntity
  8
1
 62
     6
100
AcDbMText
 10
88.99999999999
 20
863.2000007629395
 30
0.0
 40
5.0
 41
0.0
 71
     2
 72
     1
  1
 
  7
CONVERTER_11
 73
     1
 44
1.32052821128451
  0
DIMENSION
  5
14D
330
6D
100
AcDbEntity
  8
1
100
AcDbDimension
  2
*D16
 10
111.0022489999813
 20
886.5599999999964
 30
0.0
 11
107.0772489999813
 21
905.9999999999964
 31
0.0
 70
    32
  1
<>
 71
     5
 42
-1.0
 53
90.0
  3
ME10_DIM_10
100
AcDbAlignedDimension
 13
100.5494148647727
 23
925.4399999999964
 33
0.0
 14
100.5494148647727
 24
886.5599999999964
 34
0.0
 50
90.0
100
AcDbRotatedDimension
  0
DIMENSION
  5
158
330
6D
100
AcDbEntity
  8
1
100
AcDbDimension
  2
*D17
 10
101.0022489999813
 20
876.5599999999964
 30
0.0
 11
89.0022489999813
 21
880.3099999999964
 31
0.0
 70
    32
  1
<>
 71
     5
 42
-1.0
 53
0.00013888888889
  3
ME10_DIM_11
100
AcDbAlignedDimension
 13
77.0022489999813
 23
889.9999999999964
 33
0.0
 14
101.0022489999813
 24
888.2499999999964
 34
0.0
100
AcDbRotatedDimension
  0
ENDBLK
  5
70
330
6D
100
AcDbEntity
  8
0
100
AcDbBlockEnd
  0
BLOCK
  5
72
330
71
100
AcDbEntity
  8
0
100
AcDbBlockBegin
  2
_punkt
 70
     0
 10
262.1971238392971
 20
757.2481207077491
 30
0.0
  3
_punkt
  1

  0
LINE
  5
159
330
71
100
AcDbEntity
  8
1
  6
Continuous
 62
     2
100
AcDbLine
 10
262.1971238392971
 20
757.2481207077491
 30
0.0
 11
262.1971238392971
 21
752.248120707749
 31
0.0
  0
LINE
  5
15A
330
71
100
AcDbEntity
  8
1
  6
Continuous
 62
     2
100
AcDbLine
 10
262.1971238392971
 20
757.2481207077491
 30
0.0
 11
267.1971238392961
 21
757.2481207077491
 31
0.0
  0
ENDBLK
  5
73
330
71
100
AcDbEntity
  8
0
100
AcDbBlockEnd
  0
BLOCK
  5
75
330
74
100
AcDbEntity
  8
0
100
AcDbBlockBegin
  2
_rahmen
 70
     0
 10
262.1971238392971
 20
752.248120707749
 30
0.0
  3
_rahmen
  1

  0
POINT
  5
15B
330
74
100
AcDbEntity
  8
1
 62
     3
 60
     1
100
AcDbPoint
 10
198.6971238392995
 20
778.498120707749
 30
0.0
  0
LINE
  5
15C
102
{ACAD_REACTORS
330
33B
330
33C
102
}
330
74
100
AcDbEntity
  8
0
  6
Continuous
 62
     2
100
AcDbLine
 10
147.1394506693797
 20
764.756624109116
 30
0.0
 11
147.1394506693797
 21
765.4777125444906
 31
0.0
  0
LINE
  5
15D
102
{ACAD_REACTORS
330
33B
330
33C
102
}
330
74
100
AcDbEntity
  8
0
  6
Continuous
 62
     2
100
AcDbLine
 10
147.1394506693797
 20
763.9634268302045
 30
0.0
 11
147.1394506693797
 21
763.24233839483
 31
0.0
  0
LINE
  5
15E
102
{ACAD_REACTORS
330
33D
330
33E
102
}
330
74
100
AcDbEntity
  8
0
  6
Continuous
 62
     2
100
AcDbLine
 10
159.8113879720991
 20
764.972950639728
 30
0.0
 11
160.7234865667835
 21
764.972950639728
 31
0.0
  0
LINE
  5
15F
102
{ACAD_REACTORS
330
33D
330
33E
102
}
330
74
100
AcDbEntity
  8
0
  6
Continuous
 62
     2
100
AcDbLine
 10
160.4474684208275
 20
763.9634268302041
 30
0.0
 11
160.4474684208275
 21
763.2423383948295
 31
0.0
  0
LINE
  5
160
102
{ACAD_REACTORS
330
347
330
348
102
}
330
74
100
AcDbEntity
  8
0
  6
Continuous
 62
     2
100
AcDbLine
 10
158.909653036216
 20
765.874311183932
 30
0.0
 11
160.0649861328609
 21
767.1808062201096
 31
0.0
  0
LINE
  5
161
102
{ACAD_REACTORS
330
347
330
348
102
}
330
74
100
AcDbEntity
  8
0
  6
Continuous
 62
     2
100
AcDbLine
 10
158.9885153636316
 20
768.3981207077429
 30
0.0
 11
160.0649861328609
 21
767.1808062201096
 31
0.0
  0
LINE
  5
162
102
{ACAD_REACTORS
330
347
330
348
102
}
330
74
100
AcDbEntity
  8
0
  6
Continuous
 62
     2
100
AcDbLine
 10
161.1414569020894
 20
768.3981207077429
 30
0.0
 11
162.3007331151036
 21
768.3981207077429
 31
0.0
  0
LINE
  5
163
102
{ACAD_REACTORS
330
347
330
348
102
}
330
74
100
AcDbEntity
  8
0
  6
Continuous
 62
     2
100
AcDbLine
 10
160.0689292492311
 20
765.874311183932
 30
0.0
 11
160.644624239368
 21
766.525329188307
 31
0.0
  0
LINE
  5
164
102
{ACAD_REACTORS
330
347
330
348
102
}
330
74
100
AcDbEntity
  8
0
  6
Continuous
 62
     2
100
AcDbLine
 10
160.0689292492311
 20
765.874311183932
 30
0.0
 11
158.909653036216
 21
765.874311183932
 31
0.0
  0
LINE
  5
165
102
{ACAD_REACTORS
330
349
330
34A
102
}
330
74
100
AcDbEntity
  8
0
  6
Continuous
 62
     2
100
AcDbLine
 10
158.8110751269459
 20
765.874311183932
 30
0.0
 11
157.7858648705385
 21
765.874311183932
 31
0.0
  0
LINE
  5
166
102
{ACAD_REACTORS
330
34B
330
34C
102
}
330
74
100
AcDbEntity
  8
0
  6
Continuous
 62
     2
100
AcDbLine
 10
157.0685263514021
 20
764.1076445172793
 30
0.0
 11
156.8204559074433
 21
764.7422023404088
 31
0.0
  0
LINE
  5
167
102
{ACAD_REACTORS
330
34B
330
34C
102
}
330
74
100
AcDbEntity
  8
0
  6
Continuous
 62
     2
100
AcDbLine
 10
156.5723854634827
 20
764.1076445172793
 30
0.0
 11
157.0685263514021
 21
764.1076445172793
 31
0.0
  0
LINE
  5
168
102
{ACAD_REACTORS
330
34B
330
34C
102
}
330
74
100
AcDbEntity
  8
0
  6
Continuous
 62
     2
100
AcDbLine
 10
155.1525176825952
 20
763.0981207077549
 30
0.0
 11
156.1777279390026
 21
763.0981207077549
 31
0.0
  0
LINE
  5
169
102
{ACAD_REACTORS
330
34B
330
34C
102
}
330
74
100
AcDbEntity
  8
0
  6
Continuous
 62
     2
100
AcDbLine
 10
156.3078507792392
 20
765.6219302315658
 30
0.0
 11
157.3330610356465
 21
765.6219302315658
 31
0.0
  0
LINE
  5
16A
102
{ACAD_REACTORS
330
34B
330
34C
102
}
330
74
100
AcDbEntity
  8
0
  6
Continuous
 62
     2
100
AcDbLine
 10
157.3330610356465
 20
765.6219302315658
 30
0.0
 11
158.4883941322914
 21
763.0981207077549
 31
0.0
  0
LINE
  5
16B
102
{ACAD_REACTORS
330
34B
330
34C
102
}
330
74
100
AcDbEntity
  8
0
  6
Continuous
 62
     2
100
AcDbLine
 10
157.4631838758832
 20
763.0981207077549
 30
0.0
 11
157.2884069721842
 21
763.545195537687
 31
0.0
  0
LINE
  5
16C
102
{ACAD_REACTORS
330
34D
330
34E
102
}
330
74
100
AcDbEntity
  8
0
  6
Continuous
 62
     2
100
AcDbLine
 10
154.0397795820104
 20
763.0981207077549
 30
0.0
 11
155.02555867471
 21
763.0981207077549
 31
0.0
  0
LINE
  5
16D
102
{ACAD_REACTORS
330
34D
330
34E
102
}
330
74
100
AcDbEntity
  8
0
  6
Continuous
 62
     2
100
AcDbLine
 10
154.0397795820104
 20
764.972950639728
 30
0.0
 11
154.0397795820104
 21
763.0981207077549
 31
0.0
  0
LINE
  5
16E
102
{ACAD_REACTORS
330
34D
330
34E
102
}
330
74
100
AcDbEntity
  8
0
  6
Continuous
 62
     2
100
AcDbLine
 10
153.3694497989735
 20
765.6219302315658
 30
0.0
 11
153.3694497989735
 21
764.972950639728
 31
0.0
  0
LINE
  5
16F
102
{ACAD_REACTORS
330
34F
330
350
102
}
330
74
100
AcDbEntity
  8
0
  6
Continuous
 62
     2
100
AcDbLine
 10
154.5919406101906
 20
765.874311183932
 30
0.0
 11
155.5777197028902
 21
765.874311183932
 31
0.0
  0
LINE
  5
170
102
{ACAD_REACTORS
330
34F
330
350
102
}
330
74
100
AcDbEntity
  8
0
  6
Continuous
 62
     2
100
AcDbLine
 10
156.6029299592985
 20
767.3164880546808
 30
0.0
 11
155.5777197028902
 21
768.3981207077429
 31
0.0
  0
LINE
  5
171
102
{ACAD_REACTORS
330
34F
330
350
102
}
330
74
100
AcDbEntity
  8
0
  6
Continuous
 62
     2
100
AcDbLine
 10
157.5887090519981
 20
768.3981207077429
 30
0.0
 11
156.6029299592985
 21
768.3981207077429
 31
0.0
  0
LINE
  5
172
102
{ACAD_REACTORS
330
34F
330
350
102
}
330
74
100
AcDbEntity
  8
0
  6
Continuous
 62
     2
100
AcDbLine
 10
157.5887090519981
 20
765.874311183932
 30
0.0
 11
157.5887090519981
 21
768.3981207077429
 31
0.0
  0
LINE
  5
173
102
{ACAD_REACTORS
330
34F
330
350
102
}
330
74
100
AcDbEntity
  8
0
  6
Continuous
 62
     2
100
AcDbLine
 10
156.6029299592985
 20
765.874311183932
 30
0.0
 11
157.5887090519981
 21
765.874311183932
 31
0.0
  0
LINE
  5
174
102
{ACAD_REACTORS
330
34F
330
350
102
}
330
74
100
AcDbEntity
  8
0
  6
Continuous
 62
     2
100
AcDbLine
 10
155.5777197028902
 20
766.9559438369937
 30
0.0
 11
156.6029299592985
 21
765.874311183932
 31
0.0
  0
LINE
  5
175
102
{ACAD_REACTORS
330
351
330
352
102
}
330
74
100
AcDbEntity
  8
0
  6
Continuous
 62
     2
100
AcDbLine
 10
152.2653772151499
 20
764.5402975785037
 30
0.0
 11
151.2401669587426
 21
765.6219302315658
 31
0.0
  0
LINE
  5
176
102
{ACAD_REACTORS
330
351
330
352
102
}
330
74
100
AcDbEntity
  8
0
  6
Continuous
 62
     2
100
AcDbLine
 10
152.2653772151499
 20
765.6219302315658
 30
0.0
 11
152.2653772151499
 21
764.5402975785037
 31
0.0
  0
LINE
  5
177
102
{ACAD_REACTORS
330
351
330
352
102
}
330
74
100
AcDbEntity
  8
0
  6
Continuous
 62
     2
100
AcDbLine
 10
153.2511563078495
 20
765.6219302315658
 30
0.0
 11
152.2653772151499
 21
765.6219302315658
 31
0.0
  0
LINE
  5
178
102
{ACAD_REACTORS
330
351
330
352
102
}
330
74
100
AcDbEntity
  8
0
  6
Continuous
 62
     2
100
AcDbLine
 10
153.2511563078495
 20
763.0981207077549
 30
0.0
 11
153.2511563078495
 21
765.6219302315658
 31
0.0
  0
LINE
  5
179
102
{ACAD_REACTORS
330
351
330
352
102
}
330
74
100
AcDbEntity
  8
0
  6
Continuous
 62
     2
100
AcDbLine
 10
151.2401669587426
 20
764.1797533608166
 30
0.0
 11
152.2653772151499
 21
763.0981207077549
 31
0.0
  0
LINE
  5
17A
102
{ACAD_REACTORS
330
351
330
352
102
}
330
74
100
AcDbEntity
  8
0
  6
Continuous
 62
     2
100
AcDbLine
 10
151.2401669587426
 20
763.0981207077549
 30
0.0
 11
151.2401669587426
 21
764.1797533608166
 31
0.0
  0
LINE
  5
17B
102
{ACAD_REACTORS
330
341
330
342
102
}
330
74
100
AcDbEntity
  8
0
  6
Continuous
 62
     2
100
AcDbLine
 10
153.2907122078265
 20
767.821249959443
 30
0.0
 11
154.394784791651
 21
767.821249959443
 31
0.0
  0
LINE
  5
17C
102
{ACAD_REACTORS
330
341
330
342
102
}
330
74
100
AcDbEntity
  8
0
  6
Continuous
 62
     2
100
AcDbLine
 10
153.2907122078265
 20
766.4511819322315
 30
0.0
 11
153.2907122078265
 21
766.8477805716875
 31
0.0
  0
LINE
  5
17D
102
{ACAD_REACTORS
330
341
330
342
102
}
330
74
100
AcDbEntity
  8
0
  6
Continuous
 62
     2
100
AcDbLine
 10
154.394784791651
 20
766.4511819322315
 30
0.0
 11
153.2907122078265
 21
766.4511819322315
 31
0.0
  0
LINE
  5
17E
102
{ACAD_REACTORS
330
341
330
342
102
}
330
74
100
AcDbEntity
  8
0
  6
Continuous
 62
     2
100
AcDbLine
 10
154.394784791651
 20
765.874311183932
 30
0.0
 11
154.394784791651
 21
766.4511819322315
 31
0.0
  0
LINE
  5
17F
102
{ACAD_REACTORS
330
341
330
342
102
}
330
74
100
AcDbEntity
  8
0
  6
Continuous
 62
     2
100
AcDbLine
 10
151.7912147719973
 20
765.874311183932
 30
0.0
 11
154.394784791651
 21
765.874311183932
 31
0.0
  0
LINE
  5
180
102
{ACAD_REACTORS
330
341
330
342
102
}
330
74
100
AcDbEntity
  8
0
  6
Continuous
 62
     2
100
AcDbLine
 10
151.7912147719973
 20
768.3981207077429
 30
0.0
 11
154.394784791651
 21
768.3981207077429
 31
0.0
  0
LINE
  5
181
102
{ACAD_REACTORS
330
341
330
342
102
}
330
74
100
AcDbEntity
  8
0
  6
Continuous
 62
     2
100
AcDbLine
 10
154.394784791651
 20
767.821249959443
 30
0.0
 11
154.394784791651
 21
768.3981207077429
 31
0.0
  0
LINE
  5
182
102
{ACAD_REACTORS
330
353
330
354
102
}
330
74
100
AcDbEntity
  8
0
  6
Continuous
 62
     2
100
AcDbLine
 10
149.4264581644435
 20
767.5147873744086
 30
0.0
 11
149.4264581644435
 21
768.3981207077429
 31
0.0
  0
LINE
  5
183
102
{ACAD_REACTORS
330
353
330
354
102
}
330
74
100
AcDbEntity
  8
0
  6
Continuous
 62
     2
100
AcDbLine
 10
149.4264581644435
 20
768.3981207077429
 30
0.0
 11
150.4122372571431
 21
768.3981207077429
 31
0.0
  0
LINE
  5
184
102
{ACAD_REACTORS
330
353
330
354
102
}
330
74
100
AcDbEntity
  8
0
  6
Continuous
 62
     2
100
AcDbLine
 10
149.4264581644435
 20
766.8117261499186
 30
0.0
 11
148.5589725628671
 21
766.8117261499186
 31
0.0
  0
LINE
  5
185
102
{ACAD_REACTORS
330
353
330
354
102
}
330
74
100
AcDbEntity
  8
0
  6
Continuous
 62
     2
100
AcDbLine
 10
148.5589725628671
 20
766.8117261499186
 30
0.0
 11
148.5589725628671
 21
765.874311183932
 31
0.0
  0
LINE
  5
186
102
{ACAD_REACTORS
330
353
330
354
102
}
330
74
100
AcDbEntity
  8
0
  6
Continuous
 62
     2
100
AcDbLine
 10
147.5731934701675
 20
768.3981207077429
 30
0.0
 11
147.5731934701675
 21
765.874311183932
 31
0.0
  0
LINE
  5
187
102
{ACAD_REACTORS
330
345
330
346
102
}
330
74
100
AcDbEntity
  8
0
  6
Continuous
 62
     2
100
AcDbLine
 10
145.9565157581397
 20
767.2668533566831
 30
0.0
 11
145.9565157581397
 21
767.850099347875
 31
0.0
  0
LINE
  5
188
102
{ACAD_REACTORS
330
345
330
346
102
}
330
74
100
AcDbEntity
  8
0
  6
Continuous
 62
     2
100
AcDbLine
 10
144.9313055017314
 20
765.874311183932
 30
0.0
 11
145.9565157581397
 21
765.874311183932
 31
0.0
  0
LINE
  5
189
102
{ACAD_REACTORS
330
345
330
346
102
}
330
74
100
AcDbEntity
  8
0
  6
Continuous
 62
     2
100
AcDbLine
 10
145.9565157581397
 20
765.874311183932
 30
0.0
 11
145.9565157581397
 21
766.6537146890095
 31
0.0
  0
LINE
  5
18A
102
{ACAD_REACTORS
330
33F
330
340
102
}
330
74
100
AcDbEntity
  8
0
  6
Continuous
 62
     2
100
AcDbLine
 10
141.3734990147797
 20
763.6870095966449
 30
0.0
 11
140.1538021048545
 21
763.6870095966449
 31
0.0
  0
LINE
  5
18B
102
{ACAD_REACTORS
330
33F
330
340
102
}
330
74
100
AcDbEntity
  8
0
  6
Continuous
 62
     2
100
AcDbLine
 10
139.3123646733426
 20
768.0475053231131
 30
0.0
 11
139.3123646733426
 21
763.4487360923691
 31
0.0
  0
LINE
  5
18C
102
{ACAD_REACTORS
330
33F
330
340
102
}
330
74
100
AcDbEntity
  8
0
  6
Continuous
 62
     2
100
AcDbLine
 10
139.6629800579565
 20
768.3981207077279
 30
0.0
 11
144.1863784800366
 21
768.3981207077279
 31
0.0
  0
LINE
  5
18D
102
{ACAD_REACTORS
330
33F
330
340
102
}
330
74
100
AcDbEntity
  8
0
  6
Continuous
 62
     2
100
AcDbLine
 10
144.5369938646514
 20
768.0475053231131
 30
0.0
 11
144.5369938646514
 21
763.4487360923691
 31
0.0
  0
LINE
  5
18E
102
{ACAD_REACTORS
330
33F
330
340
102
}
330
74
100
AcDbEntity
  8
0
  6
Continuous
 62
     2
100
AcDbLine
 10
144.1863784800366
 20
763.0981207077549
 30
0.0
 11
139.6629800579565
 21
763.0981207077549
 31
0.0
  0
LINE
  5
18F
102
{ACAD_REACTORS
330
33F
330
340
102
}
330
74
100
AcDbEntity
  8
0
  6
Continuous
 62
     2
100
AcDbLine
 10
141.6344220917025
 20
763.9479326735678
 30
0.0
 11
141.6344220917025
 21
765.2130326169823
 31
0.0
  0
LINE
  5
190
102
{ACAD_REACTORS
330
33F
330
340
102
}
330
74
100
AcDbEntity
  8
0
  6
Continuous
 62
     2
100
AcDbLine
 10
141.6344220917025
 20
767.049114841879
 30
0.0
 11
141.6344220917025
 21
767.5483087419291
 31
0.0
  0
LINE
  5
191
102
{ACAD_REACTORS
330
33F
330
340
102
}
330
74
100
AcDbEntity
  8
0
  6
Continuous
 62
     2
100
AcDbLine
 10
140.1538021048545
 20
767.8092318188515
 30
0.0
 11
141.3734990147797
 21
767.8092318188515
 31
0.0
  0
LINE
  5
192
102
{ACAD_REACTORS
330
33F
330
340
102
}
330
74
100
AcDbEntity
  8
0
  6
Continuous
 62
     2
100
AcDbLine
 10
139.8928790279324
 20
767.5483087419291
 30
0.0
 11
139.8928790279324
 21
763.9479326735678
 31
0.0
  0
LINE
  5
193
102
{ACAD_REACTORS
330
345
330
346
102
}
330
74
100
AcDbEntity
  8
0
  6
Continuous
 62
     2
100
AcDbLine
 10
145.9565157581397
 20
766.6537146890095
 30
0.0
 11
146.5835964091978
 21
766.6537146890095
 31
0.0
  0
LINE
  5
194
102
{ACAD_REACTORS
330
345
330
346
102
}
330
74
100
AcDbEntity
  8
0
  6
Continuous
 62
     2
100
AcDbLine
 10
144.9313055017314
 20
768.3981207077429
 30
0.0
 11
146.5835964091978
 21
768.3981207077429
 31
0.0
  0
LINE
  5
195
102
{ACAD_REACTORS
330
345
330
346
102
}
330
74
100
AcDbEntity
  8
0
  6
Continuous
 62
     2
100
AcDbLine
 10
144.9313055017314
 20
768.3981207077429
 30
0.0
 11
144.9313055017314
 21
765.874311183932
 31
0.0
  0
LINE
  5
196
102
{ACAD_REACTORS
330
345
330
346
102
}
330
74
100
AcDbEntity
  8
0
  6
Continuous
 62
     2
100
AcDbLine
 10
145.9565157581397
 20
767.2668533566831
 30
0.0
 11
146.218743081728
 21
767.2668533566831
 31
0.0
  0
LINE
  5
197
102
{ACAD_REACTORS
330
345
330
346
102
}
330
74
100
AcDbEntity
  8
0
  6
Continuous
 62
     2
100
AcDbLine
 10
145.9565157581397
 20
767.850099347875
 30
0.0
 11
146.218743081728
 21
767.850099347875
 31
0.0
  0
LINE
  5
198
102
{ACAD_REACTORS
330
353
330
354
102
}
330
74
100
AcDbEntity
  8
0
  6
Continuous
 62
     2
100
AcDbLine
 10
148.5589725628671
 20
767.5147873744086
 30
0.0
 11
149.4264581644435
 21
767.5147873744086
 31
0.0
  0
LINE
  5
199
102
{ACAD_REACTORS
330
353
330
354
102
}
330
74
100
AcDbEntity
  8
0
  6
Continuous
 62
     2
100
AcDbLine
 10
148.5589725628671
 20
768.3981207077429
 30
0.0
 11
148.5589725628671
 21
767.5147873744086
 31
0.0
  0
LINE
  5
19A
102
{ACAD_REACTORS
330
353
330
354
102
}
330
74
100
AcDbEntity
  8
0
  6
Continuous
 62
     2
100
AcDbLine
 10
147.5731934701675
 20
768.3981207077429
 30
0.0
 11
148.5589725628671
 21
768.3981207077429
 31
0.0
  0
LINE
  5
19B
102
{ACAD_REACTORS
330
353
330
354
102
}
330
74
100
AcDbEntity
  8
0
  6
Continuous
 62
     2
100
AcDbLine
 10
148.5589725628671
 20
765.874311183932
 30
0.0
 11
147.5731934701675
 21
765.874311183932
 31
0.0
  0
LINE
  5
19C
102
{ACAD_REACTORS
330
353
330
354
102
}
330
74
100
AcDbEntity
  8
0
  6
Continuous
 62
     2
100
AcDbLine
 10
149.4264581644435
 20
765.874311183932
 30
0.0
 11
149.4264581644435
 21
766.8117261499186
 31
0.0
  0
LINE
  5
19D
102
{ACAD_REACTORS
330
353
330
354
102
}
330
74
100
AcDbEntity
  8
0
  6
Continuous
 62
     2
100
AcDbLine
 10
150.4122372571431
 20
765.874311183932
 30
0.0
 11
149.4264581644435
 21
765.874311183932
 31
0.0
  0
LINE
  5
19E
102
{ACAD_REACTORS
330
353
330
354
102
}
330
74
100
AcDbEntity
  8
0
  6
Continuous
 62
     2
100
AcDbLine
 10
150.4122372571431
 20
768.3981207077429
 30
0.0
 11
150.4122372571431
 21
765.874311183932
 31
0.0
  0
LINE
  5
19F
102
{ACAD_REACTORS
330
341
330
342
102
}
330
74
100
AcDbEntity
  8
0
  6
Continuous
 62
     2
100
AcDbLine
 10
153.2907122078265
 20
766.8477805716875
 30
0.0
 11
154.394784791651
 21
766.8477805716875
 31
0.0
  0
LINE
  5
1A0
102
{ACAD_REACTORS
330
341
330
342
102
}
330
74
100
AcDbEntity
  8
0
  6
Continuous
 62
     2
100
AcDbLine
 10
154.394784791651
 20
766.8477805716875
 30
0.0
 11
154.394784791651
 21
767.424651319987
 31
0.0
  0
LINE
  5
1A1
102
{ACAD_REACTORS
330
341
330
342
102
}
330
74
100
AcDbEntity
  8
0
  6
Continuous
 62
     2
100
AcDbLine
 10
154.394784791651
 20
767.424651319987
 30
0.0
 11
153.2907122078265
 21
767.424651319987
 31
0.0
  0
LINE
  5
1A2
102
{ACAD_REACTORS
330
341
330
342
102
}
330
74
100
AcDbEntity
  8
0
  6
Continuous
 62
     2
100
AcDbLine
 10
153.2907122078265
 20
767.424651319987
 30
0.0
 11
153.2907122078265
 21
767.821249959443
 31
0.0
  0
LINE
  5
1A3
102
{ACAD_REACTORS
330
351
330
352
102
}
330
74
100
AcDbEntity
  8
0
  6
Continuous
 62
     2
100
AcDbLine
 10
150.2543878660421
 20
763.0981207077549
 30
0.0
 11
151.2401669587426
 21
763.0981207077549
 31
0.0
  0
LINE
  5
1A4
102
{ACAD_REACTORS
330
351
330
352
102
}
330
74
100
AcDbEntity
  8
0
  6
Continuous
 62
     2
100
AcDbLine
 10
152.2653772151499
 20
763.0981207077549
 30
0.0
 11
153.2511563078495
 21
763.0981207077549
 31
0.0
  0
LINE
  5
1A5
102
{ACAD_REACTORS
330
351
330
352
102
}
330
74
100
AcDbEntity
  8
0
  6
Continuous
 62
     2
100
AcDbLine
 10
151.2401669587426
 20
765.6219302315658
 30
0.0
 11
150.2543878660421
 21
765.6219302315658
 31
0.0
  0
LINE
  5
1A6
102
{ACAD_REACTORS
330
351
330
352
102
}
330
74
100
AcDbEntity
  8
0
  6
Continuous
 62
     2
100
AcDbLine
 10
150.2543878660421
 20
765.6219302315658
 30
0.0
 11
150.2543878660421
 21
763.0981207077549
 31
0.0
  0
LINE
  5
1A7
102
{ACAD_REACTORS
330
34F
330
350
102
}
330
74
100
AcDbEntity
  8
0
  6
Continuous
 62
     2
100
AcDbLine
 10
156.6029299592985
 20
768.3981207077429
 30
0.0
 11
156.6029299592985
 21
767.3164880546808
 31
0.0
  0
LINE
  5
1A8
102
{ACAD_REACTORS
330
34F
330
350
102
}
330
74
100
AcDbEntity
  8
0
  6
Continuous
 62
     2
100
AcDbLine
 10
155.5777197028902
 20
768.3981207077429
 30
0.0
 11
154.5919406101906
 21
768.3981207077429
 31
0.0
  0
LINE
  5
1A9
102
{ACAD_REACTORS
330
34F
330
350
102
}
330
74
100
AcDbEntity
  8
0
  6
Continuous
 62
     2
100
AcDbLine
 10
154.5919406101906
 20
768.3981207077429
 30
0.0
 11
154.5919406101906
 21
765.874311183932
 31
0.0
  0
LINE
  5
1AA
102
{ACAD_REACTORS
330
34F
330
350
102
}
330
74
100
AcDbEntity
  8
0
  6
Continuous
 62
     2
100
AcDbLine
 10
155.5777197028902
 20
765.874311183932
 30
0.0
 11
155.5777197028902
 21
766.9559438369937
 31
0.0
  0
LINE
  5
1AB
102
{ACAD_REACTORS
330
34D
330
34E
102
}
330
74
100
AcDbEntity
  8
0
  6
Continuous
 62
     2
100
AcDbLine
 10
155.02555867471
 20
763.0981207077549
 30
0.0
 11
155.02555867471
 21
764.972950639728
 31
0.0
  0
LINE
  5
1AC
102
{ACAD_REACTORS
330
34D
330
34E
102
}
330
74
100
AcDbEntity
  8
0
  6
Continuous
 62
     2
100
AcDbLine
 10
155.02555867471
 20
764.972950639728
 30
0.0
 11
155.6958884577452
 21
764.972950639728
 31
0.0
  0
LINE
  5
1AD
102
{ACAD_REACTORS
330
34D
330
34E
102
}
330
74
100
AcDbEntity
  8
0
  6
Continuous
 62
     2
100
AcDbLine
 10
155.6958884577452
 20
764.972950639728
 30
0.0
 11
155.6958884577452
 21
765.6219302315658
 31
0.0
  0
LINE
  5
1AE
102
{ACAD_REACTORS
330
34D
330
34E
102
}
330
74
100
AcDbEntity
  8
0
  6
Continuous
 62
     2
100
AcDbLine
 10
155.6958884577452
 20
765.6219302315658
 30
0.0
 11
153.3694497989735
 21
765.6219302315658
 31
0.0
  0
LINE
  5
1AF
102
{ACAD_REACTORS
330
34D
330
34E
102
}
330
74
100
AcDbEntity
  8
0
  6
Continuous
 62
     2
100
AcDbLine
 10
153.3694497989735
 20
764.972950639728
 30
0.0
 11
154.0397795820104
 21
764.972950639728
 31
0.0
  0
LINE
  5
1B0
102
{ACAD_REACTORS
330
34B
330
34C
102
}
330
74
100
AcDbEntity
  8
0
  6
Continuous
 62
     2
100
AcDbLine
 10
156.3525048427016
 20
763.545195537687
 30
0.0
 11
157.2884069721842
 21
763.545195537687
 31
0.0
  0
LINE
  5
1B1
102
{ACAD_REACTORS
330
34B
330
34C
102
}
330
74
100
AcDbEntity
  8
0
  6
Continuous
 62
     2
100
AcDbLine
 10
158.4883941322914
 20
763.0981207077549
 30
0.0
 11
157.4631838758832
 21
763.0981207077549
 31
0.0
  0
LINE
  5
1B2
102
{ACAD_REACTORS
330
34B
330
34C
102
}
330
74
100
AcDbEntity
  8
0
  6
Continuous
 62
     2
100
AcDbLine
 10
156.3078507792392
 20
765.6219302315658
 30
0.0
 11
155.1525176825952
 21
763.0981207077549
 31
0.0
  0
LINE
  5
1B3
102
{ACAD_REACTORS
330
34B
330
34C
102
}
330
74
100
AcDbEntity
  8
0
  6
Continuous
 62
     2
100
AcDbLine
 10
156.1777279390026
 20
763.0981207077549
 30
0.0
 11
156.3525048427016
 21
763.545195537687
 31
0.0
  0
LINE
  5
1B4
102
{ACAD_REACTORS
330
34B
330
34C
102
}
330
74
100
AcDbEntity
  8
0
  6
Continuous
 62
     2
100
AcDbLine
 10
156.5723854634827
 20
764.1076445172793
 30
0.0
 11
156.8204559074433
 21
764.7422023404088
 31
0.0
  0
LINE
  5
1B5
102
{ACAD_REACTORS
330
349
330
34A
102
}
330
74
100
AcDbEntity
  8
0
  6
Continuous
 62
     2
100
AcDbLine
 10
157.7858648705385
 20
765.874311183932
 30
0.0
 11
157.7858648705385
 21
768.3981207077429
 31
0.0
  0
LINE
  5
1B6
102
{ACAD_REACTORS
330
349
330
34A
102
}
330
74
100
AcDbEntity
  8
0
  6
Continuous
 62
     2
100
AcDbLine
 10
158.8110751269459
 20
768.3981207077429
 30
0.0
 11
158.8110751269459
 21
765.874311183932
 31
0.0
  0
LINE
  5
1B7
102
{ACAD_REACTORS
330
349
330
34A
102
}
330
74
100
AcDbEntity
  8
0
  6
Continuous
 62
     2
100
AcDbLine
 10
157.7858648705385
 20
768.3981207077429
 30
0.0
 11
158.8110751269459
 21
768.3981207077429
 31
0.0
  0
LINE
  5
1B8
102
{ACAD_REACTORS
330
347
330
348
102
}
330
74
100
AcDbEntity
  8
0
  6
Continuous
 62
     2
100
AcDbLine
 10
160.644624239368
 20
766.525329188307
 30
0.0
 11
161.2203192295048
 21
765.874311183932
 31
0.0
  0
LINE
  5
1B9
102
{ACAD_REACTORS
330
347
330
348
102
}
330
74
100
AcDbEntity
  8
0
  6
Continuous
 62
     2
100
AcDbLine
 10
161.2203192295048
 20
765.874311183932
 30
0.0
 11
162.3795954425199
 21
765.874311183932
 31
0.0
  0
LINE
  5
1BA
102
{ACAD_REACTORS
330
347
330
348
102
}
330
74
100
AcDbEntity
  8
0
  6
Continuous
 62
     2
100
AcDbLine
 10
161.224262345875
 20
767.1808062201096
 30
0.0
 11
162.3795954425199
 21
765.874311183932
 31
0.0
  0
LINE
  5
1BB
102
{ACAD_REACTORS
330
347
330
348
102
}
330
74
100
AcDbEntity
  8
0
  6
Continuous
 62
     2
100
AcDbLine
 10
161.224262345875
 20
767.1808062201096
 30
0.0
 11
162.3007331151036
 21
768.3981207077429
 31
0.0
  0
LINE
  5
1BC
102
{ACAD_REACTORS
330
347
330
348
102
}
330
74
100
AcDbEntity
  8
0
  6
Continuous
 62
     2
100
AcDbLine
 10
160.644624239368
 20
767.8362832519119
 30
0.0
 11
161.1414569020894
 21
768.3981207077429
 31
0.0
  0
LINE
  5
1BD
102
{ACAD_REACTORS
330
347
330
348
102
}
330
74
100
AcDbEntity
  8
0
  6
Continuous
 62
     2
100
AcDbLine
 10
160.1477915766475
 20
768.3981207077429
 30
0.0
 11
160.644624239368
 21
767.8362832519119
 31
0.0
  0
LINE
  5
1BE
102
{ACAD_REACTORS
330
347
330
348
102
}
330
74
100
AcDbEntity
  8
0
  6
Continuous
 62
     2
100
AcDbLine
 10
160.1477915766475
 20
768.3981207077429
 30
0.0
 11
158.9885153636316
 21
768.3981207077429
 31
0.0
  0
LINE
  5
1BF
102
{ACAD_REACTORS
330
33D
330
33E
102
}
330
74
100
AcDbEntity
  8
0
  6
Continuous
 62
     2
100
AcDbLine
 10
160.7234865667835
 20
763.0981207077549
 30
0.0
 11
161.709265659484
 21
763.0981207077549
 31
0.0
  0
LINE
  5
1C0
102
{ACAD_REACTORS
330
33D
330
33E
102
}
330
74
100
AcDbEntity
  8
0
  6
Continuous
 62
     2
100
AcDbLine
 10
161.709265659484
 20
763.0981207077549
 30
0.0
 11
161.709265659484
 21
764.972950639728
 31
0.0
  0
LINE
  5
1C1
102
{ACAD_REACTORS
330
33D
330
33E
102
}
330
74
100
AcDbEntity
  8
0
  6
Continuous
 62
     2
100
AcDbLine
 10
161.709265659484
 20
764.972950639728
 30
0.0
 11
162.3795954425199
 21
764.972950639728
 31
0.0
  0
LINE
  5
1C2
102
{ACAD_REACTORS
330
33D
330
33E
102
}
330
74
100
AcDbEntity
  8
0
  6
Continuous
 62
     2
100
AcDbLine
 10
162.3795954425199
 20
764.972950639728
 30
0.0
 11
162.3795954425199
 21
765.6219302315658
 31
0.0
  0
LINE
  5
1C3
102
{ACAD_REACTORS
330
33D
330
33E
102
}
330
74
100
AcDbEntity
  8
0
  6
Continuous
 62
     2
100
AcDbLine
 10
159.5821198072896
 20
765.6219302315652
 30
0.0
 11
162.3795954425199
 21
765.6219302315658
 31
0.0
  0
LINE
  5
1C4
102
{ACAD_REACTORS
330
33D
330
33E
102
}
330
74
100
AcDbEntity
  8
0
  6
Continuous
 62
     2
100
AcDbLine
 10
160.7234865667835
 20
764.972950639728
 30
0.0
 11
160.7234865667835
 21
763.0981207077549
 31
0.0
  0
LINE
  5
1C5
102
{ACAD_REACTORS
330
33F
330
340
102
}
330
74
100
AcDbEntity
  8
0
  6
Continuous
 62
     2
100
AcDbLine
 10
142.0214316614288
 20
764.7335588478909
 30
0.0
 11
142.0214316614288
 21
765.2144277790438
 31
0.0
  0
LINE
  5
1C6
102
{ACAD_REACTORS
330
33F
330
340
102
}
330
74
100
AcDbEntity
  8
0
  6
Continuous
 62
     2
100
AcDbLine
 10
142.0214316614288
 20
767.0477196798175
 30
0.0
 11
142.0214316614288
 21
767.5481620670132
 31
0.0
  0
LINE
  5
1C7
330
74
100
AcDbEntity
  8
1
  6
Continuous
 62
     7
100
AcDbLine
 10
198.6971238392995
 20
774.248120707749
 30
0.0
 11
198.6971238392995
 21
778.498120707749
 31
0.0
  0
LINE
  5
1C8
330
74
100
AcDbEntity
  8
1
  6
Continuous
 62
     6
100
AcDbLine
 10
118.6971238392971
 20
757.2481207077491
 30
0.0
 11
119.1523193125471
 21
757.248120707749
 31
0.0
  0
LINE
  5
1C9
330
74
100
AcDbEntity
  8
1
  6
Continuous
 62
     6
100
AcDbLine
 10
68.69712383929695
 20
757.2481207077491
 30
0.0
 11
29.89712383929697
 21
757.2481207077491
 31
0.0
  0
LINE
  5
1CA
330
74
100
AcDbEntity
  8
1
  6
Continuous
 62
     6
100
AcDbLine
 10
18.69712383929706
 20
757.2481207077491
 30
0.0
 11
29.89712383929697
 21
757.2481207077491
 31
0.0
  0
LINE
  5
1CB
330
74
100
AcDbEntity
  8
1
  6
Continuous
 62
     6
100
AcDbLine
 10
218.6971238392971
 20
757.2481207077491
 30
0.0
 11
262.1971238392971
 21
757.2481207077491
 31
0.0
  0
LINE
  5
1CC
330
74
100
AcDbEntity
  8
1
  6
Continuous
 62
     6
100
AcDbLine
 10
168.6971238392971
 20
757.2481207077491
 30
0.0
 11
150.852319312547
 21
757.2481207077491
 31
0.0
  0
LINE
  5
1CD
330
74
100
AcDbEntity
  8
1
  6
PHANTOM
 62
     2
100
AcDbLine
 10
140.7715825273474
 20
772.123120707749
 30
0.0
 11
145.0871774965364
 21
772.123120707749
 31
0.0
  0
LINE
  5
1CE
330
74
100
AcDbEntity
  8
1
  6
PHANTOM
 62
     2
100
AcDbLine
 10
137.7445791376504
 20
773.773120707749
 30
0.0
 11
137.7445791376504
 21
770.473120707749
 31
0.0
  0
LINE
  5
1CF
330
74
100
AcDbEntity
  8
1
  6
PHANTOM
 62
     2
100
AcDbLine
 10
139.3945791376504
 20
772.123120707749
 30
0.0
 11
136.0945791376504
 21
772.123120707749
 31
0.0
  0
LINE
  5
1D0
330
74
100
AcDbEntity
  8
1
  6
Continuous
 62
     2
100
AcDbLine
 10
262.1971238392971
 20
757.2481207077491
 30
0.0
 11
267.1971238392961
 21
757.2481207077491
 31
0.0
  0
LINE
  5
1D1
330
74
100
AcDbEntity
  8
1
  6
Continuous
 62
     2
100
AcDbLine
 10
262.1971238392971
 20
757.2481207077491
 30
0.0
 11
262.1971238392971
 21
752.248120707749
 31
0.0
  0
LINE
  5
1D2
330
74
100
AcDbEntity
  8
1
  6
Continuous
 62
     7
100
AcDbLine
 10
169.052319312547
 20
769.998120707749
 30
0.0
 11
169.052319312547
 21
774.248120707749
 31
0.0
  0
LINE
  5
1D3
330
74
100
AcDbEntity
  8
1
  6
Continuous
 62
     7
100
AcDbLine
 10
132.6523193125472
 20
769.998120707749
 30
0.0
 11
169.052319312547
 21
769.998120707749
 31
0.0
  0
LINE
  5
1D4
330
74
100
AcDbEntity
  8
1
  6
Continuous
 62
     2
100
AcDbLine
 10
267.1971238392961
 20
752.248120707749
 30
0.0
 11
267.1971238392961
 21
757.2481207077491
 31
0.0
  0
LINE
  5
1D5
330
74
100
AcDbEntity
  8
1
  6
Continuous
 62
     2
100
AcDbLine
 10
267.1971238392961
 20
752.248120707749
 30
0.0
 11
262.1971238392971
 21
752.248120707749
 31
0.0
  0
LINE
  5
1D6
330
74
100
AcDbEntity
  8
1
  6
Continuous
 62
     2
100
AcDbLine
 10
262.1971238392971
 20
752.248120707749
 30
0.0
 11
218.6971238392971
 21
752.248120707749
 31
0.0
  0
LINE
  5
1D7
330
74
100
AcDbEntity
  8
1
  6
Continuous
 62
     6
100
AcDbLine
 10
262.1971238392988
 20
786.998120707749
 30
0.0
 11
262.197123839298
 21
807.2481207077491
 31
0.0
  0
LINE
  5
1D8
330
74
100
AcDbEntity
  8
1
  6
Continuous
 62
     2
100
AcDbLine
 10
267.1971238392961
 20
962.248120707749
 30
0.0
 11
118.6971238392971
 21
962.248120707749
 31
0.0
  0
LINE
  5
1D9
330
74
100
AcDbEntity
  8
1
  6
Continuous
 62
     6
100
AcDbLine
 10
262.1971238392961
 20
942.248120707749
 30
0.0
 11
-24.80287616070203
 21
942.248120707749
 31
0.0
  0
LINE
  5
1DA
330
74
100
AcDbEntity
  8
1
  6
Continuous
 62
     2
100
AcDbLine
 10
262.197123839298
 20
807.2481207077491
 30
0.0
 11
267.1971238392961
 21
807.2481207077491
 31
0.0
  0
LINE
  5
1DB
330
74
100
AcDbEntity
  8
1
  6
Continuous
 62
     6
100
AcDbLine
 10
262.197123839298
 20
807.2481207077491
 30
0.0
 11
262.1971238392974
 21
857.2481207077489
 31
0.0
  0
LINE
  5
1DC
330
74
100
AcDbEntity
  8
1
  6
Continuous
 62
     2
100
AcDbLine
 10
267.1971238392961
 20
807.2481207077491
 30
0.0
 11
267.1971238392961
 21
857.2481207077489
 31
0.0
  0
LINE
  5
1DD
330
74
100
AcDbEntity
  8
1
  6
Continuous
 62
     2
100
AcDbLine
 10
262.1971238392974
 20
857.2481207077489
 30
0.0
 11
267.1971238392961
 21
857.2481207077489
 31
0.0
  0
LINE
  5
1DE
330
74
100
AcDbEntity
  8
1
  6
Continuous
 62
     6
100
AcDbLine
 10
262.1971238392974
 20
857.2481207077489
 30
0.0
 11
262.1971238392964
 21
907.248120707749
 31
0.0
  0
LINE
  5
1DF
330
74
100
AcDbEntity
  8
1
  6
Continuous
 62
     2
100
AcDbLine
 10
267.1971238392961
 20
857.2481207077489
 30
0.0
 11
267.1971238392961
 21
907.248120707749
 31
0.0
  0
LINE
  5
1E0
330
74
100
AcDbEntity
  8
1
  6
Continuous
 62
     2
100
AcDbLine
 10
262.1971238392964
 20
907.248120707749
 30
0.0
 11
267.1971238392961
 21
907.248120707749
 31
0.0
  0
LINE
  5
1E1
330
74
100
AcDbEntity
  8
1
  6
Continuous
 62
     6
100
AcDbLine
 10
262.1971238392964
 20
907.248120707749
 30
0.0
 11
262.1971238392961
 21
942.248120707749
 31
0.0
  0
LINE
  5
1E2
330
74
100
AcDbEntity
  8
1
  6
Continuous
 62
     2
100
AcDbLine
 10
267.1971238392961
 20
907.248120707749
 30
0.0
 11
267.1971238392961
 21
962.248120707749
 31
0.0
  0
LINE
  5
1E3
330
74
100
AcDbEntity
  8
1
  6
Continuous
 62
     2
100
AcDbLine
 10
267.1971238392961
 20
757.2481207077491
 30
0.0
 11
267.1971238392961
 21
807.2481207077491
 31
0.0
  0
LINE
  5
1E4
330
74
100
AcDbEntity
  8
1
  6
Continuous
 62
     2
100
AcDbLine
 10
118.6971238392971
 20
962.248120707749
 30
0.0
 11
-29.80287616070203
 21
962.248120707749
 31
0.0
  0
LINE
  5
1E5
330
74
100
AcDbEntity
  8
1
  6
Continuous
 62
     2
100
AcDbLine
 10
118.6971238392971
 20
962.248120707749
 30
0.0
 11
118.6971238392971
 21
953.0394288630476
 31
0.0
  0
LINE
  5
1E6
330
74
100
AcDbEntity
  8
1
  6
Continuous
 62
     2
100
AcDbLine
 10
-29.80287616070203
 20
752.248120707749
 30
0.0
 11
-24.80287616070095
 21
752.248120707749
 31
0.0
  0
LINE
  5
1E7
330
74
100
AcDbEntity
  8
1
  6
Continuous
 62
     2
100
AcDbLine
 10
-29.80287616070203
 20
962.248120707749
 30
0.0
 11
-29.80287616070203
 21
907.248120707749
 31
0.0
  0
LINE
  5
1E8
330
74
100
AcDbEntity
  8
1
  6
Continuous
 62
     6
100
AcDbLine
 10
-24.80287616070203
 20
942.248120707749
 30
0.0
 11
-24.80287616070183
 21
907.248120707749
 31
0.0
  0
LINE
  5
1E9
330
74
100
AcDbEntity
  8
1
  6
Continuous
 62
     2
100
AcDbLine
 10
-29.80287616070203
 20
907.248120707749
 30
0.0
 11
-24.80287616070183
 21
907.248120707749
 31
0.0
  0
LINE
  5
1EA
330
74
100
AcDbEntity
  8
1
  6
Continuous
 62
     2
100
AcDbLine
 10
-29.80287616070203
 20
907.248120707749
 30
0.0
 11
-29.80287616070203
 21
857.2481207077489
 31
0.0
  0
LINE
  5
1EB
330
74
100
AcDbEntity
  8
1
  6
Continuous
 62
     6
100
AcDbLine
 10
-24.80287616070183
 20
907.248120707749
 30
0.0
 11
-24.80287616070143
 21
857.2481207077489
 31
0.0
  0
LINE
  5
1EC
330
74
100
AcDbEntity
  8
1
  6
Continuous
 62
     2
100
AcDbLine
 10
-29.80287616070203
 20
857.2481207077489
 30
0.0
 11
-24.80287616070143
 21
857.2481207077489
 31
0.0
  0
LINE
  5
1ED
330
74
100
AcDbEntity
  8
1
  6
Continuous
 62
     2
100
AcDbLine
 10
-29.80287616070203
 20
857.2481207077489
 30
0.0
 11
-29.80287616070203
 21
807.2481207077491
 31
0.0
  0
LINE
  5
1EE
330
74
100
AcDbEntity
  8
1
  6
Continuous
 62
     6
100
AcDbLine
 10
-24.80287616070143
 20
857.2481207077489
 30
0.0
 11
-24.80287616070115
 21
807.2481207077491
 31
0.0
  0
LINE
  5
1EF
330
74
100
AcDbEntity
  8
1
  6
Continuous
 62
     2
100
AcDbLine
 10
-29.80287616070203
 20
807.2481207077491
 30
0.0
 11
-24.80287616070115
 21
807.2481207077491
 31
0.0
  0
LINE
  5
1F0
330
74
100
AcDbEntity
  8
1
  6
Continuous
 62
     2
100
AcDbLine
 10
-29.80287616070203
 20
807.2481207077491
 30
0.0
 11
-29.80287616070203
 21
757.2481207077491
 31
0.0
  0
LINE
  5
1F1
330
74
100
AcDbEntity
  8
1
  6
Continuous
 62
     6
100
AcDbLine
 10
-24.80287616070115
 20
807.2481207077491
 30
0.0
 11
-24.80287616070095
 21
757.2481207077491
 31
0.0
  0
LINE
  5
1F2
330
74
100
AcDbEntity
  8
1
  6
Continuous
 62
     2
100
AcDbLine
 10
18.69712383929706
 20
752.248120707749
 30
0.0
 11
18.69712383929706
 21
757.2481207077491
 31
0.0
  0
LINE
  5
1F3
330
74
100
AcDbEntity
  8
1
  6
Continuous
 62
     2
100
AcDbLine
 10
18.69712383929706
 20
752.248120707749
 30
0.0
 11
68.69712383929695
 21
752.248120707749
 31
0.0
  0
LINE
  5
1F4
330
74
100
AcDbEntity
  8
1
  6
Continuous
 62
     2
100
AcDbLine
 10
68.69712383929695
 20
752.248120707749
 30
0.0
 11
68.69712383929695
 21
757.2481207077491
 31
0.0
  0
LINE
  5
1F5
330
74
100
AcDbEntity
  8
1
  6
Continuous
 62
     2
100
AcDbLine
 10
68.69712383929695
 20
752.248120707749
 30
0.0
 11
118.6971238392971
 21
752.248120707749
 31
0.0
  0
LINE
  5
1F6
330
74
100
AcDbEntity
  8
1
  6
Continuous
 62
     2
100
AcDbLine
 10
118.6971238392971
 20
752.248120707749
 30
0.0
 11
118.6971238392971
 21
757.2481207077491
 31
0.0
  0
LINE
  5
1F7
330
74
100
AcDbEntity
  8
1
  6
Continuous
 62
     2
100
AcDbLine
 10
118.6971238392971
 20
752.248120707749
 30
0.0
 11
168.6971238392971
 21
752.248120707749
 31
0.0
  0
LINE
  5
1F8
330
74
100
AcDbEntity
  8
1
  6
Continuous
 62
     2
100
AcDbLine
 10
168.6971238392971
 20
752.248120707749
 30
0.0
 11
168.6971238392971
 21
757.2481207077491
 31
0.0
  0
LINE
  5
1F9
330
74
100
AcDbEntity
  8
1
  6
Continuous
 62
     2
100
AcDbLine
 10
218.6971238392971
 20
752.248120707749
 30
0.0
 11
218.6971238392971
 21
757.2481207077491
 31
0.0
  0
LINE
  5
1FA
330
74
100
AcDbEntity
  8
1
  6
Continuous
 62
     2
100
AcDbLine
 10
218.6971238392971
 20
752.248120707749
 30
0.0
 11
168.6971238392971
 21
752.248120707749
 31
0.0
  0
LINE
  5
1FB
330
74
100
AcDbEntity
  8
1
  6
Continuous
 62
     2
100
AcDbLine
 10
-24.80287616070095
 20
757.2481207077491
 30
0.0
 11
-24.80287616070095
 21
752.248120707749
 31
0.0
  0
LINE
  5
1FC
330
74
100
AcDbEntity
  8
1
  6
Continuous
 62
     2
100
AcDbLine
 10
-24.80287616070095
 20
752.248120707749
 30
0.0
 11
18.69712383929706
 21
752.248120707749
 31
0.0
  0
LINE
  5
1FD
330
74
100
AcDbEntity
  8
1
  6
Continuous
 62
     2
100
AcDbLine
 10
-24.80287616070095
 20
757.2481207077491
 30
0.0
 11
-29.80287616070203
 21
757.2481207077491
 31
0.0
  0
LINE
  5
1FE
330
74
100
AcDbEntity
  8
1
  6
Continuous
 62
     2
100
AcDbLine
 10
-29.80287616070203
 20
757.2481207077491
 30
0.0
 11
-29.80287616070203
 21
752.248120707749
 31
0.0
  0
LINE
  5
1FF
330
74
100
AcDbEntity
  8
1
  6
Continuous
 62
     7
100
AcDbLine
 10
29.89712383929697
 20
761.4981207077491
 30
0.0
 11
92.15231931254716
 21
761.4981207077491
 31
0.0
  0
LINE
  5
200
330
74
100
AcDbEntity
  8
1
  6
Continuous
 62
     2
100
AcDbLine
 10
29.89712383929697
 20
761.4981207077491
 30
0.0
 11
29.89712383929697
 21
757.2481207077491
 31
0.0
  0
LINE
  5
201
330
74
100
AcDbEntity
  8
1
  6
Continuous
 62
     2
100
AcDbLine
 10
29.89712383929697
 20
765.748120707749
 30
0.0
 11
16.39712383929697
 21
765.748120707749
 31
0.0
  0
LINE
  5
202
330
74
100
AcDbEntity
  8
1
  6
Continuous
 62
     2
100
AcDbLine
 10
29.89712383929697
 20
765.748120707749
 30
0.0
 11
29.89712383929697
 21
761.4981207077491
 31
0.0
  0
LINE
  5
203
330
74
100
AcDbEntity
  8
1
  6
Continuous
 62
     2
100
AcDbLine
 10
29.89712383929697
 20
774.248120707749
 30
0.0
 11
16.39712383929697
 21
774.248120707749
 31
0.0
  0
LINE
  5
204
330
74
100
AcDbEntity
  8
1
  6
Continuous
 62
     2
100
AcDbLine
 10
29.89712383929697
 20
774.248120707749
 30
0.0
 11
29.89712383929697
 21
769.998120707749
 31
0.0
  0
LINE
  5
205
330
74
100
AcDbEntity
  8
1
  6
Continuous
 62
     2
100
AcDbLine
 10
29.89712383929697
 20
769.998120707749
 30
0.0
 11
16.39712383929697
 21
769.998120707749
 31
0.0
  0
LINE
  5
206
330
74
100
AcDbEntity
  8
1
  6
Continuous
 62
     2
100
AcDbLine
 10
29.89712383929697
 20
769.998120707749
 30
0.0
 11
29.89712383929697
 21
765.748120707749
 31
0.0
  0
LINE
  5
207
330
74
100
AcDbEntity
  8
1
  6
Continuous
 62
     2
100
AcDbLine
 10
29.89712383929697
 20
782.748120707749
 30
0.0
 11
16.39712383929697
 21
782.748120707749
 31
0.0
  0
LINE
  5
208
330
74
100
AcDbEntity
  8
1
  6
Continuous
 62
     2
100
AcDbLine
 10
29.89712383929697
 20
778.498120707749
 30
0.0
 11
16.39712383929697
 21
778.498120707749
 31
0.0
  0
LINE
  5
209
330
74
100
AcDbEntity
  8
1
  6
Continuous
 62
     2
100
AcDbLine
 10
29.89712383929697
 20
778.498120707749
 30
0.0
 11
29.89712383929697
 21
774.248120707749
 31
0.0
  0
LINE
  5
20A
330
74
100
AcDbEntity
  8
1
  6
Continuous
 62
     2
100
AcDbLine
 10
29.89712383929697
 20
782.748120707749
 30
0.0
 11
29.89712383929697
 21
778.498120707749
 31
0.0
  0
LINE
  5
20B
330
74
100
AcDbEntity
  8
1
  6
Continuous
 62
     6
100
AcDbLine
 10
29.89712383929697
 20
786.998120707749
 30
0.0
 11
16.39712383929697
 21
786.998120707749
 31
0.0
  0
LINE
  5
20C
330
74
100
AcDbEntity
  8
1
  6
Continuous
 62
     2
100
AcDbLine
 10
29.89712383929697
 20
786.998120707749
 30
0.0
 11
29.89712383929697
 21
782.748120707749
 31
0.0
  0
LINE
  5
20D
330
74
100
AcDbEntity
  8
1
  6
Continuous
 62
     6
100
AcDbLine
 10
262.1971238392971
 20
757.2481207077491
 30
0.0
 11
262.1971238392983
 21
765.748120707749
 31
0.0
  0
LINE
  5
20E
330
74
100
AcDbEntity
  8
1
  6
Continuous
 62
     6
100
AcDbLine
 10
262.1971238392979
 20
778.498120707749
 30
0.0
 11
262.1971238392989
 21
774.248120707749
 31
0.0
  0
LINE
  5
20F
330
74
100
AcDbEntity
  8
1
  6
Continuous
 62
     6
100
AcDbLine
 10
169.052319312547
 20
757.248120707749
 30
0.0
 11
218.6971238392971
 21
757.2481207077491
 31
0.0
  0
LINE
  5
210
330
74
100
AcDbEntity
  8
1
  6
Continuous
 62
     6
100
AcDbLine
 10
132.6523193125472
 20
757.248120707749
 30
0.0
 11
150.852319312547
 21
757.2481207077491
 31
0.0
  0
LINE
  5
211
330
74
100
AcDbEntity
  8
1
  6
Continuous
 62
     6
100
AcDbLine
 10
16.39712383929697
 20
757.248120707749
 30
0.0
 11
18.69712383929706
 21
757.2481207077491
 31
0.0
  0
LINE
  5
212
330
74
100
AcDbEntity
  8
1
  6
Continuous
 62
     6
100
AcDbLine
 10
92.15231931254716
 20
757.248120707749
 30
0.0
 11
68.69712383929695
 21
757.2481207077491
 31
0.0
  0
LINE
  5
213
330
74
100
AcDbEntity
  8
1
  6
Continuous
 62
     6
100
AcDbLine
 10
262.1971238392988
 20
786.998120707749
 30
0.0
 11
244.315532120978
 21
786.998120707749
 31
0.0
  0
LINE
  5
214
330
74
100
AcDbEntity
  8
1
  6
Continuous
 62
     7
100
AcDbLine
 10
262.1971238392983
 20
765.748120707749
 30
0.0
 11
217.1971238392991
 21
765.748120707749
 31
0.0
  0
LINE
  5
215
330
74
100
AcDbEntity
  8
1
  6
Continuous
 62
     7
100
AcDbLine
 10
262.1971238392979
 20
778.498120707749
 30
0.0
 11
244.315532120978
 21
778.498120707749
 31
0.0
  0
LINE
  5
216
330
74
100
AcDbEntity
  8
1
  6
Continuous
 62
     7
100
AcDbLine
 10
217.1971238392991
 20
774.248120707749
 30
0.0
 11
262.1971238392989
 21
774.248120707749
 31
0.0
  0
LINE
  5
217
330
74
100
AcDbEntity
  8
1
  6
Continuous
 62
     7
100
AcDbLine
 10
169.052319312547
 20
782.748120707749
 30
0.0
 11
169.052319312547
 21
778.498120707749
 31
0.0
  0
LINE
  5
218
330
74
100
AcDbEntity
  8
1
  6
Continuous
 62
     7
100
AcDbLine
 10
155.552319312547
 20
782.748120707749
 30
0.0
 11
169.052319312547
 21
782.748120707749
 31
0.0
  0
LINE
  5
219
330
74
100
AcDbEntity
  8
1
  6
Continuous
 62
     7
100
AcDbLine
 10
155.552319312547
 20
782.748120707749
 30
0.0
 11
142.0523193125471
 21
782.748120707749
 31
0.0
  0
LINE
  5
21A
330
74
100
AcDbEntity
  8
1
  6
Continuous
 62
     7
100
AcDbLine
 10
244.315532120978
 20
778.498120707749
 30
0.0
 11
244.315532120978
 21
786.998120707749
 31
0.0
  0
LINE
  5
21B
330
74
100
AcDbEntity
  8
1
  6
Continuous
 62
     6
100
AcDbLine
 10
235.3971238392988
 20
786.998120707749
 30
0.0
 11
244.315532120978
 21
786.998120707749
 31
0.0
  0
LINE
  5
21C
330
74
100
AcDbEntity
  8
1
  6
Continuous
 62
     7
100
AcDbLine
 10
235.3971238392988
 20
786.998120707749
 30
0.0
 11
235.3971238392991
 21
778.4981207077491
 31
0.0
  0
LINE
  5
21D
330
74
100
AcDbEntity
  8
1
  6
Continuous
 62
     7
100
AcDbLine
 10
217.1971238392991
 20
765.748120707749
 30
0.0
 11
198.6971238392995
 21
765.748120707749
 31
0.0
  0
LINE
  5
21E
330
74
100
AcDbEntity
  8
1
  6
Continuous
 62
     7
100
AcDbLine
 10
217.1971238392991
 20
774.248120707749
 30
0.0
 11
217.1971238392991
 21
765.748120707749
 31
0.0
  0
LINE
  5
21F
330
74
100
AcDbEntity
  8
1
  6
Continuous
 62
     2
100
AcDbLine
 10
119.1523193125471
 20
786.998120707749
 30
0.0
 11
119.1523193125471
 21
782.748120707749
 31
0.0
  0
LINE
  5
220
330
74
100
AcDbEntity
  8
1
  6
Continuous
 62
     2
100
AcDbLine
 10
105.6523193125472
 20
786.998120707749
 30
0.0
 11
105.6523193125472
 21
782.748120707749
 31
0.0
  0
LINE
  5
221
330
74
100
AcDbEntity
  8
1
  6
Continuous
 62
     6
100
AcDbLine
 10
119.1523193125471
 20
786.998120707749
 30
0.0
 11
105.6523193125472
 21
786.998120707749
 31
0.0
  0
LINE
  5
222
330
74
100
AcDbEntity
  8
1
  6
Continuous
 62
     6
100
AcDbLine
 10
105.6523193125472
 20
786.998120707749
 30
0.0
 11
92.15231931254716
 21
786.998120707749
 31
0.0
  0
LINE
  5
223
330
74
100
AcDbEntity
  8
1
  6
Continuous
 62
     2
100
AcDbLine
 10
92.15231931254716
 20
786.998120707749
 30
0.0
 11
92.15231931254716
 21
782.748120707749
 31
0.0
  0
LINE
  5
224
330
74
100
AcDbEntity
  8
1
  6
Continuous
 62
     7
100
AcDbLine
 10
150.852319312547
 20
761.4981207077491
 30
0.0
 11
150.852319312547
 21
757.2481207077491
 31
0.0
  0
LINE
  5
225
330
74
100
AcDbEntity
  8
1
  6
Continuous
 62
     7
100
AcDbLine
 10
150.852319312547
 20
761.4981207077491
 30
0.0
 11
132.6523193125472
 21
761.4981207077491
 31
0.0
  0
LINE
  5
226
330
74
100
AcDbEntity
  8
1
  6
Continuous
 62
     7
100
AcDbLine
 10
155.552319312547
 20
774.248120707749
 30
0.0
 11
142.0523193125471
 21
774.2481207077491
 31
0.0
  0
LINE
  5
227
330
74
100
AcDbEntity
  8
1
  6
Continuous
 62
     7
100
AcDbLine
 10
169.052319312547
 20
761.4981207077491
 30
0.0
 11
150.852319312547
 21
761.4981207077491
 31
0.0
  0
LINE
  5
228
330
74
100
AcDbEntity
  8
1
  6
Continuous
 62
     6
100
AcDbLine
 10
169.052319312547
 20
786.998120707749
 30
0.0
 11
191.9523193125471
 21
786.998120707749
 31
0.0
  0
LINE
  5
229
330
74
100
AcDbEntity
  8
1
  6
Continuous
 62
     6
100
AcDbLine
 10
235.3971238392988
 20
786.998120707749
 30
0.0
 11
191.9523193125471
 21
786.998120707749
 31
0.0
  0
LINE
  5
22A
330
74
100
AcDbEntity
  8
1
  6
Continuous
 62
     7
100
AcDbLine
 10
191.9523193125471
 20
786.998120707749
 30
0.0
 11
191.9523193125471
 21
778.4981207077489
 31
0.0
  0
LINE
  5
22B
330
74
100
AcDbEntity
  8
1
  6
Continuous
 62
     6
100
AcDbLine
 10
16.39712383929697
 20
786.998120707749
 30
0.0
 11
10.19712383929897
 21
786.998120707749
 31
0.0
  0
LINE
  5
22C
330
74
100
AcDbEntity
  8
1
  6
Continuous
 62
     6
100
AcDbLine
 10
10.19712383929897
 20
757.2481207077491
 30
0.0
 11
10.19712383929897
 21
761.4981207077491
 31
0.0
  0
LINE
  5
22D
330
74
100
AcDbEntity
  8
1
  6
Continuous
 62
     6
100
AcDbLine
 10
10.19712383929897
 20
761.4981207077491
 30
0.0
 11
10.19712383929897
 21
765.748120707749
 31
0.0
  0
LINE
  5
22E
330
74
100
AcDbEntity
  8
1
  6
Continuous
 62
     7
100
AcDbLine
 10
155.552319312547
 20
778.498120707749
 30
0.0
 11
155.552319312547
 21
774.248120707749
 31
0.0
  0
LINE
  5
22F
330
74
100
AcDbEntity
  8
1
  6
Continuous
 62
     7
100
AcDbLine
 10
142.0523193125471
 20
778.498120707749
 30
0.0
 11
142.0523193125471
 21
774.2481207077491
 31
0.0
  0
LINE
  5
230
330
74
100
AcDbEntity
  8
1
  6
Continuous
 62
     7
100
AcDbLine
 10
155.552319312547
 20
778.498120707749
 30
0.0
 11
142.0523193125471
 21
778.498120707749
 31
0.0
  0
LINE
  5
231
330
74
100
AcDbEntity
  8
1
  6
Continuous
 62
     2
100
AcDbLine
 10
132.6523193125472
 20
774.248120707749
 30
0.0
 11
119.1523193125471
 21
774.248120707749
 31
0.0
  0
LINE
  5
232
330
74
100
AcDbEntity
  8
1
  6
Continuous
 62
     2
100
AcDbLine
 10
16.39712383929697
 20
774.248120707749
 30
0.0
 11
16.39712383929697
 21
778.498120707749
 31
0.0
  0
LINE
  5
233
330
74
100
AcDbEntity
  8
1
  6
Continuous
 62
     2
100
AcDbLine
 10
16.39712383929697
 20
774.248120707749
 30
0.0
 11
10.19712383929897
 21
774.248120707749
 31
0.0
  0
LINE
  5
234
330
74
100
AcDbEntity
  8
1
  6
Continuous
 62
     2
100
AcDbLine
 10
132.6523193125472
 20
778.498120707749
 30
0.0
 11
119.1523193125471
 21
778.498120707749
 31
0.0
  0
LINE
  5
235
330
74
100
AcDbEntity
  8
1
  6
Continuous
 62
     2
100
AcDbLine
 10
16.39712383929697
 20
778.498120707749
 30
0.0
 11
16.39712383929697
 21
782.748120707749
 31
0.0
  0
LINE
  5
236
330
74
100
AcDbEntity
  8
1
  6
Continuous
 62
     2
100
AcDbLine
 10
132.6523193125472
 20
782.748120707749
 30
0.0
 11
119.1523193125471
 21
782.748120707749
 31
0.0
  0
LINE
  5
237
330
74
100
AcDbEntity
  8
1
  6
Continuous
 62
     2
100
AcDbLine
 10
16.39712383929697
 20
782.748120707749
 30
0.0
 11
16.39712383929697
 21
786.998120707749
 31
0.0
  0
LINE
  5
238
330
74
100
AcDbEntity
  8
1
  6
Continuous
 62
     2
100
AcDbLine
 10
16.39712383929697
 20
782.748120707749
 30
0.0
 11
10.19712383929897
 21
782.748120707749
 31
0.0
  0
LINE
  5
239
330
74
100
AcDbEntity
  8
1
  6
Continuous
 62
     6
100
AcDbLine
 10
132.6523193125472
 20
786.998120707749
 30
0.0
 11
119.1523193125471
 21
786.998120707749
 31
0.0
  0
LINE
  5
23A
330
74
100
AcDbEntity
  8
1
  6
Continuous
 62
     2
100
AcDbLine
 10
132.6523193125472
 20
765.748120707749
 30
0.0
 11
119.1523193125471
 21
765.748120707749
 31
0.0
  0
LINE
  5
23B
330
74
100
AcDbEntity
  8
1
  6
Continuous
 62
     2
100
AcDbLine
 10
132.6523193125472
 20
769.998120707749
 30
0.0
 11
119.1523193125471
 21
769.998120707749
 31
0.0
  0
LINE
  5
23C
330
74
100
AcDbEntity
  8
1
  6
Continuous
 62
     2
100
AcDbLine
 10
16.39712383929697
 20
765.748120707749
 30
0.0
 11
16.39712383929697
 21
769.998120707749
 31
0.0
  0
LINE
  5
23D
330
74
100
AcDbEntity
  8
1
  6
Continuous
 62
     2
100
AcDbLine
 10
16.39712383929697
 20
769.998120707749
 30
0.0
 11
16.39712383929697
 21
774.248120707749
 31
0.0
  0
LINE
  5
23E
330
74
100
AcDbEntity
  8
1
  6
Continuous
 62
     7
100
AcDbLine
 10
16.39712383929697
 20
761.4981207077491
 30
0.0
 11
29.89712383929697
 21
761.4981207077491
 31
0.0
  0
LINE
  5
23F
330
74
100
AcDbEntity
  8
1
  6
Continuous
 62
     2
100
AcDbLine
 10
16.39712383929697
 20
761.4981207077491
 30
0.0
 11
16.39712383929697
 21
765.748120707749
 31
0.0
  0
LINE
  5
240
330
74
100
AcDbEntity
  8
1
  6
Continuous
 62
     7
100
AcDbLine
 10
169.052319312547
 20
765.748120707749
 30
0.0
 11
169.052319312547
 21
769.998120707749
 31
0.0
  0
LINE
  5
241
330
74
100
AcDbEntity
  8
1
  6
Continuous
 62
     6
100
AcDbLine
 10
155.552319312547
 20
786.998120707749
 30
0.0
 11
169.052319312547
 21
786.998120707749
 31
0.0
  0
LINE
  5
242
330
74
100
AcDbEntity
  8
1
  6
Continuous
 62
     7
100
AcDbLine
 10
169.052319312547
 20
786.998120707749
 30
0.0
 11
169.052319312547
 21
782.748120707749
 31
0.0
  0
LINE
  5
243
330
74
100
AcDbEntity
  8
1
  6
Continuous
 62
     6
100
AcDbLine
 10
142.0523193125471
 20
786.998120707749
 30
0.0
 11
155.552319312547
 21
786.998120707749
 31
0.0
  0
LINE
  5
244
330
74
100
AcDbEntity
  8
1
  6
Continuous
 62
     7
100
AcDbLine
 10
132.6523193125472
 20
774.248120707749
 30
0.0
 11
132.6523193125472
 21
769.998120707749
 31
0.0
  0
LINE
  5
245
330
74
100
AcDbEntity
  8
1
  6
Continuous
 62
     7
100
AcDbLine
 10
132.6523193125472
 20
778.498120707749
 30
0.0
 11
132.6523193125472
 21
774.248120707749
 31
0.0
  0
LINE
  5
246
330
74
100
AcDbEntity
  8
1
  6
Continuous
 62
     2
100
AcDbLine
 10
10.19712383929897
 20
778.498120707749
 30
0.0
 11
16.39712383929697
 21
778.498120707749
 31
0.0
  0
LINE
  5
247
330
74
100
AcDbEntity
  8
1
  6
Continuous
 62
     7
100
AcDbLine
 10
132.6523193125472
 20
782.748120707749
 30
0.0
 11
132.6523193125472
 21
778.498120707749
 31
0.0
  0
LINE
  5
248
330
74
100
AcDbEntity
  8
1
  6
Continuous
 62
     7
100
AcDbLine
 10
169.052319312547
 20
778.498120707749
 30
0.0
 11
169.052319312547
 21
774.248120707749
 31
0.0
  0
LINE
  5
249
330
74
100
AcDbEntity
  8
1
  6
Continuous
 62
     7
100
AcDbLine
 10
155.552319312547
 20
786.998120707749
 30
0.0
 11
155.552319312547
 21
782.748120707749
 31
0.0
  0
LINE
  5
24A
330
74
100
AcDbEntity
  8
1
  6
Continuous
 62
     7
100
AcDbLine
 10
142.0523193125471
 20
786.998120707749
 30
0.0
 11
142.0523193125471
 21
782.748120707749
 31
0.0
  0
LINE
  5
24B
330
74
100
AcDbEntity
  8
1
  6
Continuous
 62
     2
100
AcDbLine
 10
16.39712383929697
 20
757.248120707749
 30
0.0
 11
16.39712383929697
 21
761.4981207077491
 31
0.0
  0
LINE
  5
24C
330
74
100
AcDbEntity
  8
1
  6
Continuous
 62
     2
100
AcDbLine
 10
10.19712383929897
 20
765.748120707749
 30
0.0
 11
16.39712383929697
 21
765.748120707749
 31
0.0
  0
LINE
  5
24D
330
74
100
AcDbEntity
  8
1
  6
Continuous
 62
     2
100
AcDbLine
 10
10.19712383929897
 20
769.998120707749
 30
0.0
 11
16.39712383929697
 21
769.998120707749
 31
0.0
  0
LINE
  5
24E
330
74
100
AcDbEntity
  8
1
  6
Continuous
 62
     7
100
AcDbLine
 10
10.19712383929897
 20
761.4981207077491
 30
0.0
 11
16.39712383929697
 21
761.4981207077491
 31
0.0
  0
LINE
  5
24F
330
74
100
AcDbEntity
  8
1
  6
Continuous
 62
     7
100
AcDbLine
 10
169.052319312547
 20
765.748120707749
 30
0.0
 11
169.052319312547
 21
761.4981207077491
 31
0.0
  0
LINE
  5
250
330
74
100
AcDbEntity
  8
1
  6
Continuous
 62
     7
100
AcDbLine
 10
132.6523193125472
 20
769.998120707749
 30
0.0
 11
132.6523193125472
 21
765.748120707749
 31
0.0
  0
LINE
  5
251
330
74
100
AcDbEntity
  8
1
  6
Continuous
 62
     7
100
AcDbLine
 10
132.6523193125472
 20
765.748120707749
 30
0.0
 11
132.6523193125472
 21
761.4981207077491
 31
0.0
  0
LINE
  5
252
330
74
100
AcDbEntity
  8
1
  6
Continuous
 62
     7
100
AcDbLine
 10
155.552319312547
 20
782.748120707749
 30
0.0
 11
155.552319312547
 21
778.498120707749
 31
0.0
  0
LINE
  5
253
330
74
100
AcDbEntity
  8
1
  6
Continuous
 62
     7
100
AcDbLine
 10
142.0523193125471
 20
782.748120707749
 30
0.0
 11
142.0523193125471
 21
778.498120707749
 31
0.0
  0
LINE
  5
254
330
74
100
AcDbEntity
  8
1
  6
Continuous
 62
     7
100
AcDbLine
 10
132.6523193125472
 20
778.498120707749
 30
0.0
 11
142.0523193125471
 21
778.498120707749
 31
0.0
  0
LINE
  5
255
330
74
100
AcDbEntity
  8
1
  6
Continuous
 62
     7
100
AcDbLine
 10
169.052319312547
 20
774.248120707749
 30
0.0
 11
155.552319312547
 21
774.248120707749
 31
0.0
  0
LINE
  5
256
330
74
100
AcDbEntity
  8
1
  6
Continuous
 62
     7
100
AcDbLine
 10
169.052319312547
 20
761.4981207077491
 30
0.0
 11
169.052319312547
 21
757.248120707749
 31
0.0
  0
LINE
  5
257
330
74
100
AcDbEntity
  8
1
  6
Continuous
 62
     7
100
AcDbLine
 10
132.6523193125472
 20
761.4981207077491
 30
0.0
 11
132.6523193125472
 21
757.248120707749
 31
0.0
  0
LINE
  5
258
330
74
100
AcDbEntity
  8
1
  6
Continuous
 62
     7
100
AcDbLine
 10
132.6523193125472
 20
786.998120707749
 30
0.0
 11
132.6523193125472
 21
782.748120707749
 31
0.0
  0
LINE
  5
259
330
74
100
AcDbEntity
  8
1
  6
Continuous
 62
     7
100
AcDbLine
 10
169.052319312547
 20
765.748120707749
 30
0.0
 11
198.6971238392995
 21
765.748120707749
 31
0.0
  0
LINE
  5
25A
330
74
100
AcDbEntity
  8
1
  6
Continuous
 62
     7
100
AcDbLine
 10
169.052319312547
 20
774.248120707749
 30
0.0
 11
198.6971238392995
 21
774.248120707749
 31
0.0
  0
LINE
  5
25B
330
74
100
AcDbEntity
  8
1
  6
Continuous
 62
     7
100
AcDbLine
 10
235.3971238392991
 20
778.4981207077491
 30
0.0
 11
244.315532120978
 21
778.498120707749
 31
0.0
  0
LINE
  5
25C
330
74
100
AcDbEntity
  8
1
  6
Continuous
 62
     7
100
AcDbLine
 10
235.3971238392991
 20
778.4981207077491
 30
0.0
 11
198.6971238392995
 21
778.498120707749
 31
0.0
  0
LINE
  5
25D
330
74
100
AcDbEntity
  8
1
  6
Continuous
 62
     7
100
AcDbLine
 10
198.6971238392995
 20
774.248120707749
 30
0.0
 11
217.1971238392991
 21
774.248120707749
 31
0.0
  0
LINE
  5
25E
330
74
100
AcDbEntity
  8
1
  6
Continuous
 62
     7
100
AcDbLine
 10
198.6971238392995
 20
774.248120707749
 30
0.0
 11
198.6971238392995
 21
765.748120707749
 31
0.0
  0
LINE
  5
25F
330
74
100
AcDbEntity
  8
1
  6
Continuous
 62
     6
100
AcDbLine
 10
16.39712383929697
 20
757.248120707749
 30
0.0
 11
10.19712383929897
 21
757.2481207077491
 31
0.0
  0
LINE
  5
260
330
74
100
AcDbEntity
  8
1
  6
Continuous
 62
     6
100
AcDbLine
 10
10.19712383929897
 20
782.748120707749
 30
0.0
 11
10.19712383929897
 21
786.998120707749
 31
0.0
  0
LINE
  5
261
330
74
100
AcDbEntity
  8
1
  6
Continuous
 62
     6
100
AcDbLine
 10
10.19712383929897
 20
778.498120707749
 30
0.0
 11
10.19712383929897
 21
782.748120707749
 31
0.0
  0
LINE
  5
262
330
74
100
AcDbEntity
  8
1
  6
Continuous
 62
     6
100
AcDbLine
 10
10.19712383929897
 20
774.248120707749
 30
0.0
 11
10.19712383929897
 21
778.498120707749
 31
0.0
  0
LINE
  5
263
330
74
100
AcDbEntity
  8
1
  6
Continuous
 62
     6
100
AcDbLine
 10
10.19712383929897
 20
765.748120707749
 30
0.0
 11
10.19712383929897
 21
769.998120707749
 31
0.0
  0
LINE
  5
264
330
74
100
AcDbEntity
  8
1
  6
Continuous
 62
     6
100
AcDbLine
 10
92.15231931254716
 20
786.998120707749
 30
0.0
 11
29.89712383929697
 21
786.998120707749
 31
0.0
  0
LINE
  5
265
330
74
100
AcDbEntity
  8
1
  6
Continuous
 62
     2
100
AcDbLine
 10
29.89712383929697
 20
782.748120707749
 30
0.0
 11
92.15231931254716
 21
782.748120707749
 31
0.0
  0
LINE
  5
266
330
74
100
AcDbEntity
  8
1
  6
Continuous
 62
     2
100
AcDbLine
 10
29.89712383929697
 20
778.498120707749
 30
0.0
 11
92.15231931254716
 21
778.498120707749
 31
0.0
  0
LINE
  5
267
330
74
100
AcDbEntity
  8
1
  6
Continuous
 62
     6
100
AcDbLine
 10
169.052319312547
 20
757.248120707749
 30
0.0
 11
168.6971238392971
 21
757.2481207077491
 31
0.0
  0
LINE
  5
268
330
74
100
AcDbEntity
  8
1
  6
Continuous
 62
     7
100
AcDbLine
 10
155.552319312547
 20
778.498120707749
 30
0.0
 11
169.052319312547
 21
778.498120707749
 31
0.0
  0
LINE
  5
269
330
74
100
AcDbEntity
  8
1
  6
Continuous
 62
     7
100
AcDbLine
 10
191.9523193125471
 20
778.4981207077489
 30
0.0
 11
169.052319312547
 21
778.498120707749
 31
0.0
  0
LINE
  5
26A
330
74
100
AcDbEntity
  8
1
  6
Continuous
 62
     6
100
AcDbLine
 10
262.1971238392989
 20
774.248120707749
 30
0.0
 11
262.1971238392983
 21
765.748120707749
 31
0.0
  0
LINE
  5
26B
330
74
100
AcDbEntity
  8
1
  6
Continuous
 62
     6
100
AcDbLine
 10
119.1523193125471
 20
757.248120707749
 30
0.0
 11
132.6523193125472
 21
757.248120707749
 31
0.0
  0
LINE
  5
26C
330
74
100
AcDbEntity
  8
1
  6
Continuous
 62
     2
100
AcDbLine
 10
119.1523193125471
 20
765.748120707749
 30
0.0
 11
119.1523193125471
 21
761.4981207077491
 31
0.0
  0
LINE
  5
26D
330
74
100
AcDbEntity
  8
1
  6
Continuous
 62
     2
100
AcDbLine
 10
119.1523193125471
 20
765.748120707749
 30
0.0
 11
105.6523193125472
 21
765.748120707749
 31
0.0
  0
LINE
  5
26E
330
74
100
AcDbEntity
  8
1
  6
Continuous
 62
     2
100
AcDbLine
 10
119.1523193125471
 20
761.4981207077491
 30
0.0
 11
119.1523193125471
 21
757.248120707749
 31
0.0
  0
LINE
  5
26F
330
74
100
AcDbEntity
  8
1
  6
Continuous
 62
     7
100
AcDbLine
 10
119.1523193125471
 20
761.4981207077491
 30
0.0
 11
132.6523193125472
 21
761.4981207077491
 31
0.0
  0
LINE
  5
270
330
74
100
AcDbEntity
  8
1
  6
Continuous
 62
     2
100
AcDbLine
 10
119.1523193125471
 20
774.248120707749
 30
0.0
 11
119.1523193125471
 21
769.998120707749
 31
0.0
  0
LINE
  5
271
330
74
100
AcDbEntity
  8
1
  6
Continuous
 62
     2
100
AcDbLine
 10
119.1523193125471
 20
774.248120707749
 30
0.0
 11
105.6523193125472
 21
774.248120707749
 31
0.0
  0
LINE
  5
272
330
74
100
AcDbEntity
  8
1
  6
Continuous
 62
     2
100
AcDbLine
 10
119.1523193125471
 20
778.498120707749
 30
0.0
 11
119.1523193125471
 21
774.248120707749
 31
0.0
  0
LINE
  5
273
330
74
100
AcDbEntity
  8
1
  6
Continuous
 62
     2
100
AcDbLine
 10
119.1523193125471
 20
778.498120707749
 30
0.0
 11
105.6523193125472
 21
778.498120707749
 31
0.0
  0
LINE
  5
274
330
74
100
AcDbEntity
  8
1
  6
Continuous
 62
     2
100
AcDbLine
 10
119.1523193125471
 20
782.748120707749
 30
0.0
 11
119.1523193125471
 21
778.498120707749
 31
0.0
  0
LINE
  5
275
330
74
100
AcDbEntity
  8
1
  6
Continuous
 62
     2
100
AcDbLine
 10
119.1523193125471
 20
782.748120707749
 30
0.0
 11
105.6523193125472
 21
782.748120707749
 31
0.0
  0
LINE
  5
276
330
74
100
AcDbEntity
  8
1
  6
Continuous
 62
     2
100
AcDbLine
 10
119.1523193125471
 20
769.998120707749
 30
0.0
 11
119.1523193125471
 21
765.748120707749
 31
0.0
  0
LINE
  5
277
330
74
100
AcDbEntity
  8
1
  6
Continuous
 62
     2
100
AcDbLine
 10
119.1523193125471
 20
769.998120707749
 30
0.0
 11
105.6523193125472
 21
769.998120707749
 31
0.0
  0
LINE
  5
278
330
74
100
AcDbEntity
  8
1
  6
Continuous
 62
     6
100
AcDbLine
 10
105.6523193125472
 20
757.248120707749
 30
0.0
 11
118.6971238392971
 21
757.2481207077491
 31
0.0
  0
LINE
  5
279
330
74
100
AcDbEntity
  8
1
  6
Continuous
 62
     2
100
AcDbLine
 10
105.6523193125472
 20
765.748120707749
 30
0.0
 11
105.6523193125472
 21
761.4981207077491
 31
0.0
  0
LINE
  5
27A
330
74
100
AcDbEntity
  8
1
  6
Continuous
 62
     2
100
AcDbLine
 10
105.6523193125472
 20
765.748120707749
 30
0.0
 11
92.15231931254716
 21
765.748120707749
 31
0.0
  0
LINE
  5
27B
330
74
100
AcDbEntity
  8
1
  6
Continuous
 62
     2
100
AcDbLine
 10
105.6523193125472
 20
761.4981207077491
 30
0.0
 11
105.6523193125472
 21
757.248120707749
 31
0.0
  0
LINE
  5
27C
330
74
100
AcDbEntity
  8
1
  6
Continuous
 62
     7
100
AcDbLine
 10
105.6523193125472
 20
761.4981207077491
 30
0.0
 11
119.1523193125471
 21
761.4981207077491
 31
0.0
  0
LINE
  5
27D
330
74
100
AcDbEntity
  8
1
  6
Continuous
 62
     2
100
AcDbLine
 10
105.6523193125472
 20
774.248120707749
 30
0.0
 11
105.6523193125472
 21
769.998120707749
 31
0.0
  0
LINE
  5
27E
330
74
100
AcDbEntity
  8
1
  6
Continuous
 62
     2
100
AcDbLine
 10
105.6523193125472
 20
774.248120707749
 30
0.0
 11
92.15231931254716
 21
774.248120707749
 31
0.0
  0
LINE
  5
27F
330
74
100
AcDbEntity
  8
1
  6
Continuous
 62
     2
100
AcDbLine
 10
105.6523193125472
 20
778.498120707749
 30
0.0
 11
105.6523193125472
 21
774.248120707749
 31
0.0
  0
LINE
  5
280
330
74
100
AcDbEntity
  8
1
  6
Continuous
 62
     2
100
AcDbLine
 10
105.6523193125472
 20
778.498120707749
 30
0.0
 11
92.15231931254716
 21
778.498120707749
 31
0.0
  0
LINE
  5
281
330
74
100
AcDbEntity
  8
1
  6
Continuous
 62
     2
100
AcDbLine
 10
105.6523193125472
 20
782.748120707749
 30
0.0
 11
105.6523193125472
 21
778.498120707749
 31
0.0
  0
LINE
  5
282
330
74
100
AcDbEntity
  8
1
  6
Continuous
 62
     2
100
AcDbLine
 10
105.6523193125472
 20
782.748120707749
 30
0.0
 11
92.15231931254716
 21
782.748120707749
 31
0.0
  0
LINE
  5
283
330
74
100
AcDbEntity
  8
1
  6
Continuous
 62
     2
100
AcDbLine
 10
105.6523193125472
 20
769.998120707749
 30
0.0
 11
105.6523193125472
 21
765.748120707749
 31
0.0
  0
LINE
  5
284
330
74
100
AcDbEntity
  8
1
  6
Continuous
 62
     2
100
AcDbLine
 10
105.6523193125472
 20
769.998120707749
 30
0.0
 11
92.15231931254716
 21
769.998120707749
 31
0.0
  0
LINE
  5
285
330
74
100
AcDbEntity
  8
1
  6
Continuous
 62
     6
100
AcDbLine
 10
92.15231931254716
 20
757.248120707749
 30
0.0
 11
105.6523193125472
 21
757.248120707749
 31
0.0
  0
LINE
  5
286
330
74
100
AcDbEntity
  8
1
  6
Continuous
 62
     2
100
AcDbLine
 10
92.15231931254716
 20
765.748120707749
 30
0.0
 11
92.15231931254716
 21
761.4981207077491
 31
0.0
  0
LINE
  5
287
330
74
100
AcDbEntity
  8
1
  6
Continuous
 62
     2
100
AcDbLine
 10
92.15231931254716
 20
765.748120707749
 30
0.0
 11
29.89712383929697
 21
765.748120707749
 31
0.0
  0
LINE
  5
288
330
74
100
AcDbEntity
  8
1
  6
Continuous
 62
     2
100
AcDbLine
 10
92.15231931254716
 20
761.4981207077491
 30
0.0
 11
92.15231931254716
 21
757.248120707749
 31
0.0
  0
LINE
  5
289
330
74
100
AcDbEntity
  8
1
  6
Continuous
 62
     7
100
AcDbLine
 10
92.15231931254716
 20
761.4981207077491
 30
0.0
 11
105.6523193125472
 21
761.4981207077491
 31
0.0
  0
LINE
  5
28A
330
74
100
AcDbEntity
  8
1
  6
Continuous
 62
     2
100
AcDbLine
 10
92.15231931254716
 20
774.248120707749
 30
0.0
 11
92.15231931254716
 21
769.998120707749
 31
0.0
  0
LINE
  5
28B
330
74
100
AcDbEntity
  8
1
  6
Continuous
 62
     2
100
AcDbLine
 10
92.15231931254716
 20
774.248120707749
 30
0.0
 11
29.89712383929697
 21
774.248120707749
 31
0.0
  0
LINE
  5
28C
330
74
100
AcDbEntity
  8
1
  6
Continuous
 62
     2
100
AcDbLine
 10
92.15231931254716
 20
778.498120707749
 30
0.0
 11
92.15231931254716
 21
774.248120707749
 31
0.0
  0
LINE
  5
28D
330
74
100
AcDbEntity
  8
1
  6
Continuous
 62
     2
100
AcDbLine
 10
92.15231931254716
 20
782.748120707749
 30
0.0
 11
92.15231931254716
 21
778.498120707749
 31
0.0
  0
LINE
  5
28E
330
74
100
AcDbEntity
  8
1
  6
Continuous
 62
     2
100
AcDbLine
 10
92.15231931254716
 20
769.998120707749
 30
0.0
 11
92.15231931254716
 21
765.748120707749
 31
0.0
  0
LINE
  5
28F
330
74
100
AcDbEntity
  8
1
  6
Continuous
 62
     2
100
AcDbLine
 10
92.15231931254716
 20
769.998120707749
 30
0.0
 11
29.89712383929697
 21
769.998120707749
 31
0.0
  0
LINE
  5
290
330
74
100
AcDbEntity
  8
1
  6
Continuous
 62
     7
100
AcDbLine
 10
142.0523193125471
 20
774.2481207077491
 30
0.0
 11
132.6523193125472
 21
774.248120707749
 31
0.0
  0
LINE
  5
291
330
74
100
AcDbEntity
  8
1
  6
Continuous
 62
     6
100
AcDbLine
 10
142.0523193125471
 20
786.998120707749
 30
0.0
 11
132.6523193125472
 21
786.998120707749
 31
0.0
  0
LINE
  5
292
330
74
100
AcDbEntity
  8
1
  6
Continuous
 62
     7
100
AcDbLine
 10
132.6523193125472
 20
782.748120707749
 30
0.0
 11
142.0523193125471
 21
782.748120707749
 31
0.0
  0
LINE
  5
293
330
74
100
AcDbEntity
  8
1
  6
Continuous
 62
     6
100
AcDbLine
 10
10.19712383929897
 20
769.998120707749
 30
0.0
 11
10.19712383929897
 21
774.248120707749
 31
0.0
  0
LINE
  5
294
330
74
100
AcDbEntity
  8
1
  6
Continuous
 62
     6
100
AcDbLine
 10
262.1971238392988
 20
786.998120707749
 30
0.0
 11
262.1971238392979
 21
778.498120707749
 31
0.0
  0
LINE
  5
295
330
74
100
AcDbEntity
  8
1
  6
Continuous
 62
     6
100
AcDbLine
 10
10.19712383929897
 20
757.2481207077491
 30
0.0
 11
-24.80287616070095
 21
757.2481207077491
 31
0.0
  0
LINE
  5
296
330
74
100
AcDbEntity
  8
1
  6
Continuous
 62
     2
100
AcDbLine
 10
140.9325884470624
 20
773.623120707749
 30
0.0
 11
144.9325884470624
 21
773.123120707749
 31
0.0
  0
LINE
  5
297
330
74
100
AcDbEntity
  8
1
  6
Continuous
 62
     2
100
AcDbLine
 10
144.9325884470624
 20
773.123120707749
 30
0.0
 11
144.9325884470624
 21
771.123120707749
 31
0.0
  0
LINE
  5
298
330
74
100
AcDbEntity
  8
1
  6
Continuous
 62
     2
100
AcDbLine
 10
144.9325884470624
 20
771.123120707749
 30
0.0
 11
140.9325884470624
 21
770.623120707749
 31
0.0
  0
LINE
  5
299
330
74
100
AcDbEntity
  8
1
  6
Continuous
 62
     2
100
AcDbLine
 10
140.9325884470624
 20
770.623120707749
 30
0.0
 11
140.9325884470624
 21
773.623120707749
 31
0.0
  0
LINE
  5
29A
330
74
100
AcDbEntity
  8
1
  6
Continuous
 62
     7
100
AcDbLine
 10
198.6971238392995
 20
778.498120707749
 30
0.0
 11
191.9523193125471
 21
778.4981207077489
 31
0.0
  0
LINE
  5
29B
330
74
100
AcDbEntity
  8
1
  6
Continuous
 62
     7
100
AcDbLine
 10
198.6971238392995
 20
774.248120707749
 30
0.0
 11
200.6971238392995
 21
774.248120707749
 31
0.0
  0
LINE
  5
29C
330
74
100
AcDbEntity
  8
1
  6
Continuous
 62
     2
100
AcDbLine
 10
233.6318605240861
 20
772.6979014287161
 30
0.0
 11
233.6318605240861
 21
770.6405054638627
 31
0.0
  0
ARC
  5
29D
102
{ACAD_REACTORS
330
343
330
344
102
}
330
74
100
AcDbEntity
  8
0
  6
Continuous
 62
     2
100
AcDbCircle
 10
148.5313672455719
 20
764.3600254696601
 30
0.0
 40
0.6378510567600251
100
AcDbArc
 50
321.8795802028467
 51
38.12041979716137
  0
ARC
  5
29E
102
{ACAD_REACTORS
330
343
330
344
102
}
330
74
100
AcDbEntity
  8
0
  6
Continuous
 62
     2
100
AcDbCircle
 10
148.6964416557755
 20
764.2304955703875
 30
0.0
 40
0.4280236140609217
100
AcDbArc
 50
218.1204197972037
 51
321.8795802027986
  0
ARC
  5
29F
102
{ACAD_REACTORS
330
343
330
344
102
}
330
74
100
AcDbEntity
  8
0
  6
Continuous
 62
     2
100
AcDbCircle
 10
148.8615160659789
 20
764.3600254696601
 30
0.0
 40
0.6378510567599164
100
AcDbArc
 50
141.879580202826
 51
218.1204197971659
  0
ARC
  5
2A0
102
{ACAD_REACTORS
330
343
330
344
102
}
330
74
100
AcDbEntity
  8
0
  6
Continuous
 62
     2
100
AcDbCircle
 10
148.6964416557755
 20
764.4895553689332
 30
0.0
 40
0.4280236140606632
100
AcDbArc
 50
38.12041979715347
 51
141.8795802028442
  0
ARC
  5
2A1
102
{ACAD_REACTORS
330
33B
330
33C
102
}
330
74
100
AcDbEntity
  8
0
  6
Continuous
 62
     2
100
AcDbCircle
 10
146.1658514610946
 20
763.1943507875046
 30
0.0
 40
1.840813230556584
100
AcDbArc
 50
58.069091050038
 51
71.55192388186704
  0
ARC
  5
2A2
102
{ACAD_REACTORS
330
33B
330
33C
102
}
330
74
100
AcDbEntity
  8
0
  6
Continuous
 62
     2
100
AcDbCircle
 10
146.3821553461845
 20
764.529505989775
 30
0.0
 40
0.4227934381775369
100
AcDbArc
 50
113.3722778881918
 51
151.4785267423007
  0
ARC
  5
2A3
102
{ACAD_REACTORS
330
33B
330
33C
102
}
330
74
100
AcDbEntity
  8
0
  6
Continuous
 62
     2
100
AcDbCircle
 10
146.6940208487303
 20
764.3600254696601
 30
0.0
 40
0.7777353184573039
100
AcDbArc
 50
151.4785267422654
 51
208.5214732576978
  0
ARC
  5
2A4
102
{ACAD_REACTORS
330
33B
330
33C
102
}
330
74
100
AcDbEntity
  8
0
  6
Continuous
 62
     2
100
AcDbCircle
 10
146.0353780106047
 20
767.0977783169794
 30
0.0
 40
4.010410630990197
100
AcDbArc
 50
275.1581447696246
 51
285.9799912583524
  0
ARC
  5
2A5
102
{ACAD_REACTORS
330
33B
330
33C
102
}
330
74
100
AcDbEntity
  8
0
  6
Continuous
 62
     2
100
AcDbCircle
 10
146.2741020558409
 20
764.4532406448955
 30
0.0
 40
1.355119937139965
100
AcDbArc
 50
195.0618917770912
 51
275.1581447696416
  0
ARC
  5
2A6
102
{ACAD_REACTORS
330
33B
330
33C
102
}
330
74
100
AcDbEntity
  8
0
  6
Continuous
 62
     2
100
AcDbCircle
 10
145.927715408351
 20
764.3600254696601
 30
0.0
 40
0.9964100565214088
100
AcDbArc
 50
164.9381082228788
 51
195.061891777096
  0
ARC
  5
2A7
102
{ACAD_REACTORS
330
33B
330
33C
102
}
330
74
100
AcDbEntity
  8
0
  6
Continuous
 62
     2
100
AcDbCircle
 10
146.2741020558409
 20
764.2668102944247
 30
0.0
 40
1.355119937140984
100
AcDbArc
 50
84.84185523036052
 51
164.9381082228902
  0
ARC
  5
2A8
102
{ACAD_REACTORS
330
33F
330
340
102
}
330
74
100
AcDbEntity
  8
0
  6
Continuous
 62
     2
100
AcDbCircle
 10
142.2823547383518
 20
765.2144277790438
 30
0.0
 40
0.2609230769227867
100
AcDbArc
 50
115.374008678374
 51
180.0
  0
ARC
  5
2A9
102
{ACAD_REACTORS
330
33F
330
340
102
}
330
74
100
AcDbEntity
  8
0
  6
Continuous
 62
     2
100
AcDbCircle
 10
142.2823547383518
 20
767.0477196798175
 30
0.0
 40
0.2609230769230066
100
AcDbArc
 50
180.0
 51
244.625991321626
  0
ARC
  5
2AA
102
{ACAD_REACTORS
330
33F
330
340
102
}
330
74
100
AcDbEntity
  8
0
  6
Continuous
 62
     2
100
AcDbCircle
 10
142.2869961724922
 20
766.140860457452
 30
0.0
 40
1.668232340440728
100
AcDbArc
 50
269.8110329575882
 51
90.18896704241185
  0
ARC
  5
2AB
102
{ACAD_REACTORS
330
33F
330
340
102
}
330
74
100
AcDbEntity
  8
0
  6
Continuous
 62
     2
100
AcDbCircle
 10
142.2823547383518
 20
764.7335588478909
 30
0.0
 40
0.2609230769230066
100
AcDbArc
 50
180.0
 51
269.8110329574403
  0
ARC
  5
2AC
102
{ACAD_REACTORS
330
33D
330
33E
102
}
330
74
100
AcDbEntity
  8
0
  6
Continuous
 62
     2
100
AcDbCircle
 10
159.6901730976332
 20
764.529505989775
 30
0.0
 40
0.4227934381771933
100
AcDbArc
 50
109.3371432194835
 51
151.4785267424119
  0
ARC
  5
2AD
102
{ACAD_REACTORS
330
33D
330
33E
102
}
330
74
100
AcDbEntity
  8
0
  6
Continuous
 62
     2
100
AcDbCircle
 10
159.6901730976332
 20
764.1905449495456
 30
0.0
 40
0.4227934381784311
100
AcDbArc
 50
208.5214732576829
 51
246.6277221118468
  0
ARC
  5
2AE
102
{ACAD_REACTORS
330
33D
330
33E
102
}
330
74
100
AcDbEntity
  8
0
  6
Continuous
 62
     2
100
AcDbCircle
 10
159.2357331598006
 20
764.3600254696601
 30
0.0
 40
0.9964100565230555
100
AcDbArc
 50
164.9381082229042
 51
195.0618917770958
  0
ARC
  5
2AF
102
{ACAD_REACTORS
330
33D
330
33E
102
}
330
74
100
AcDbEntity
  8
0
  6
Continuous
 62
     2
100
AcDbCircle
 10
159.5821198072896
 20
764.2668102944247
 30
0.0
 40
1.355119937140557
100
AcDbArc
 50
90.0
 51
164.938108222899
  0
ARC
  5
2B0
102
{ACAD_REACTORS
330
341
330
342
102
}
330
74
100
AcDbEntity
  8
0
  6
Continuous
 62
     2
100
AcDbCircle
 10
151.7912147719973
 20
767.1362159458372
 30
0.0
 40
1.261904761905726
100
AcDbArc
 50
90.0
 51
270.0
  0
ARC
  5
2B1
102
{ACAD_REACTORS
330
345
330
346
102
}
330
74
100
AcDbEntity
  8
0
  6
Continuous
 62
     2
100
AcDbCircle
 10
146.218743081728
 20
767.5584763522791
 30
0.0
 40
0.2916229955959579
100
AcDbArc
 50
270.0
 51
90.0
  0
ARC
  5
2B2
102
{ACAD_REACTORS
330
33F
330
340
102
}
330
74
100
AcDbEntity
  8
0
  6
Continuous
 62
     2
100
AcDbCircle
 10
140.1538021048545
 20
767.5483087419291
 30
0.0
 40
0.2609230769223814
100
AcDbArc
 50
90.0
 51
180.0
  0
ARC
  5
2B3
102
{ACAD_REACTORS
330
33F
330
340
102
}
330
74
100
AcDbEntity
  8
0
  6
Continuous
 62
     2
100
AcDbCircle
 10
141.8053869879822
 20
766.1310737294309
 30
0.0
 40
0.7536343169897552
100
AcDbArc
 50
115.1944106485263
 51
244.8055893514885
  0
ARC
  5
2B4
102
{ACAD_REACTORS
330
33F
330
340
102
}
330
74
100
AcDbEntity
  8
0
  6
Continuous
 62
     2
100
AcDbCircle
 10
141.3734990147797
 20
765.2130326169823
 30
0.0
 40
0.2609230769228077
100
AcDbArc
 50
0.0
 51
64.80558935145224
  0
ARC
  5
2B5
102
{ACAD_REACTORS
330
33F
330
340
102
}
330
74
100
AcDbEntity
  8
0
  6
Continuous
 62
     2
100
AcDbCircle
 10
139.6629800579565
 20
763.4487360923691
 30
0.0
 40
0.3506153846138886
100
AcDbArc
 50
180.0
 51
270.0
  0
ARC
  5
2B6
102
{ACAD_REACTORS
330
341
330
342
102
}
330
74
100
AcDbEntity
  8
0
  6
Continuous
 62
     2
100
AcDbCircle
 10
151.9699519704809
 20
767.2657458451104
 30
0.0
 40
0.4280236140607304
100
AcDbArc
 50
38.12041979714642
 51
141.8795802028465
  0
ARC
  5
2B7
102
{ACAD_REACTORS
330
341
330
342
102
}
330
74
100
AcDbEntity
  8
0
  6
Continuous
 62
     2
100
AcDbCircle
 10
152.1350263806844
 20
767.1362159458372
 30
0.0
 40
0.6378510567600058
100
AcDbArc
 50
141.8795802028323
 51
218.1204197971596
  0
ARC
  5
2B8
102
{ACAD_REACTORS
330
343
330
344
102
}
330
74
100
AcDbEntity
  8
0
  6
Continuous
 62
     2
100
AcDbCircle
 10
148.6964416557755
 20
764.8051287839603
 30
0.0
 40
1.707008076205386
100
AcDbArc
 50
242.4518518243423
 51
297.5481481756881
  0
ARC
  5
2B9
102
{ACAD_REACTORS
330
343
330
344
102
}
330
74
100
AcDbEntity
  8
0
  6
Continuous
 62
     2
100
AcDbCircle
 10
148.6964416557755
 20
763.9149221553603
 30
0.0
 40
1.707008076205456
100
AcDbArc
 50
62.45185182430483
 51
117.5481481756647
  0
ARC
  5
2BA
102
{ACAD_REACTORS
330
343
330
344
102
}
330
74
100
AcDbEntity
  8
0
  6
Continuous
 62
     2
100
AcDbCircle
 10
148.4642599269877
 20
764.3600254696601
 30
0.0
 40
1.20498684599301
100
AcDbArc
 50
117.5481481756616
 51
242.4518518243384
  0
ARC
  5
2BB
102
{ACAD_REACTORS
330
343
330
344
102
}
330
74
100
AcDbEntity
  8
0
  6
Continuous
 62
     2
100
AcDbCircle
 10
148.9286233845634
 20
764.3600254696601
 30
0.0
 40
1.204986845993431
100
AcDbArc
 50
297.5481481756999
 51
62.4518518243001
  0
ARC
  5
2BC
102
{ACAD_REACTORS
330
341
330
342
102
}
330
74
100
AcDbEntity
  8
0
  6
Continuous
 62
     2
100
AcDbCircle
 10
151.9699519704809
 20
767.0066860465641
 30
0.0
 40
0.4280236140606632
100
AcDbArc
 50
218.1204197971535
 51
321.8795802028536
  0
ARC
  5
2BD
102
{ACAD_REACTORS
330
341
330
342
102
}
330
74
100
AcDbEntity
  8
0
  6
Continuous
 62
     2
100
AcDbCircle
 10
151.8048775602775
 20
767.1362159458372
 30
0.0
 40
0.6378510567599356
100
AcDbArc
 50
321.8795802028404
 51
38.12041979716767
  0
ARC
  5
2BE
102
{ACAD_REACTORS
330
33F
330
340
102
}
330
74
100
AcDbEntity
  8
0
  6
Continuous
 62
     2
100
AcDbCircle
 10
144.1863784800366
 20
763.4487360923691
 30
0.0
 40
0.3506153846142297
100
AcDbArc
 50
270.0
 51
0.0
  0
ARC
  5
2BF
102
{ACAD_REACTORS
330
33F
330
340
102
}
330
74
100
AcDbEntity
  8
0
  6
Continuous
 62
     2
100
AcDbCircle
 10
144.1863784800366
 20
768.0475053231131
 30
0.0
 40
0.3506153846147981
100
AcDbArc
 50
0.0
 51
90.0
  0
ARC
  5
2C0
102
{ACAD_REACTORS
330
33F
330
340
102
}
330
74
100
AcDbEntity
  8
0
  6
Continuous
 62
     2
100
AcDbCircle
 10
139.6629800579565
 20
768.0475053231131
 30
0.0
 40
0.3506153846147981
100
AcDbArc
 50
90.0
 51
180.0
  0
ARC
  5
2C1
102
{ACAD_REACTORS
330
33F
330
340
102
}
330
74
100
AcDbEntity
  8
0
  6
Continuous
 62
     2
100
AcDbCircle
 10
141.3734990147797
 20
763.9479326735678
 30
0.0
 40
0.2609230769229498
100
AcDbArc
 50
270.0
 51
0.0
  0
ARC
  5
2C2
102
{ACAD_REACTORS
330
33F
330
340
102
}
330
74
100
AcDbEntity
  8
0
  6
Continuous
 62
     2
100
AcDbCircle
 10
141.3734990147797
 20
767.049114841879
 30
0.0
 40
0.2609230769224587
100
AcDbArc
 50
295.1944106485478
 51
0.0
  0
ARC
  5
2C3
102
{ACAD_REACTORS
330
33F
330
340
102
}
330
74
100
AcDbEntity
  8
0
  6
Continuous
 62
     2
100
AcDbCircle
 10
141.3734990147797
 20
767.5483087419291
 30
0.0
 40
0.2609230769228077
100
AcDbArc
 50
0.0
 51
90.0
  0
ARC
  5
2C4
102
{ACAD_REACTORS
330
33F
330
340
102
}
330
74
100
AcDbEntity
  8
0
  6
Continuous
 62
     2
100
AcDbCircle
 10
140.1538021048545
 20
763.9479326735678
 30
0.0
 40
0.2609230769220972
100
AcDbArc
 50
180.0
 51
270.0
  0
ARC
  5
2C5
102
{ACAD_REACTORS
330
345
330
346
102
}
330
74
100
AcDbEntity
  8
0
  6
Continuous
 62
     2
100
AcDbCircle
 10
146.5835964091978
 20
767.5259176983761
 30
0.0
 40
0.8722030093666717
100
AcDbArc
 50
270.0
 51
90.0
  0
ARC
  5
2C6
102
{ACAD_REACTORS
330
33D
330
33E
102
}
330
74
100
AcDbEntity
  8
0
  6
Continuous
 62
     2
100
AcDbCircle
 10
159.5821198072896
 20
764.4532406448955
 30
0.0
 40
1.355119937140852
100
AcDbArc
 50
195.061891777101
 51
275.1581447696782
  0
ARC
  5
2C7
102
{ACAD_REACTORS
330
33D
330
33E
102
}
330
74
100
AcDbEntity
  8
0
  6
Continuous
 62
     2
100
AcDbCircle
 10
159.3433957620534
 20
767.0977783169794
 30
0.0
 40
4.010410630990729
100
AcDbArc
 50
275.1581447696365
 51
285.979991258338
  0
ARC
  5
2C8
102
{ACAD_REACTORS
330
33D
330
33E
102
}
330
74
100
AcDbEntity
  8
0
  6
Continuous
 62
     2
100
AcDbCircle
 10
159.4738692125433
 20
765.5257001518156
 30
0.0
 40
1.840813230556049
100
AcDbArc
 50
288.4480761181319
 51
301.9309089499368
  0
ARC
  5
2C9
102
{ACAD_REACTORS
330
33D
330
33E
102
}
330
74
100
AcDbEntity
  8
0
  6
Continuous
 62
     2
100
AcDbCircle
 10
159.8194623808589
 20
764.4897119071572
 30
0.0
 40
0.7487023016407311
100
AcDbArc
 50
246.6277221118208
 51
288.4480761180789
  0
ARC
  5
2CA
102
{ACAD_REACTORS
330
33D
330
33E
102
}
330
74
100
AcDbEntity
  8
0
  6
Continuous
 62
     2
100
AcDbCircle
 10
160.0020386001799
 20
764.3600254696601
 30
0.0
 40
0.7777353184586601
100
AcDbArc
 50
151.4785267423578
 51
208.5214732576642
  0
ARC
  5
2CB
102
{ACAD_REACTORS
330
33D
330
33E
102
}
330
74
100
AcDbEntity
  8
0
  6
Continuous
 62
     2
100
AcDbCircle
 10
159.8113879720991
 20
764.1840886506155
 30
0.0
 40
0.7888619891124335
100
AcDbArc
 50
90.0
 51
109.3371432194338
  0
ARC
  5
2CC
102
{ACAD_REACTORS
330
33F
330
340
102
}
330
74
100
AcDbEntity
  8
0
  6
Continuous
 62
     2
100
AcDbCircle
 10
142.2823547383518
 20
767.5481620670132
 30
0.0
 40
0.2609230769223542
100
AcDbArc
 50
90.18896704255982
 51
180.0
  0
ARC
  5
2CD
102
{ACAD_REACTORS
330
33F
330
340
102
}
330
74
100
AcDbEntity
  8
0
  6
Continuous
 62
     2
100
AcDbCircle
 10
141.8476087068741
 20
766.1310737294309
 30
0.0
 40
0.7535935125160714
100
AcDbArc
 50
295.3740086781789
 51
64.6259913218062
  0
ARC
  5
2CE
102
{ACAD_REACTORS
330
33B
330
33C
102
}
330
74
100
AcDbEntity
  8
0
  6
Continuous
 62
     2
100
AcDbCircle
 10
146.1658514610946
 20
765.5257001518161
 30
0.0
 40
1.840813230556049
100
AcDbArc
 50
288.4480761181319
 51
301.9309089499601
  0
ARC
  5
2CF
102
{ACAD_REACTORS
330
33B
330
33C
102
}
330
74
100
AcDbEntity
  8
0
  6
Continuous
 62
     2
100
AcDbCircle
 10
146.5114446294093
 20
764.4897119071572
 30
0.0
 40
0.7487023016404154
100
AcDbArc
 50
246.6277221118767
 51
288.448076118156
  0
ARC
  5
2D0
102
{ACAD_REACTORS
330
33B
330
33C
102
}
330
74
100
AcDbEntity
  8
0
  6
Continuous
 62
     2
100
AcDbCircle
 10
146.3821553461845
 20
764.1905449495456
 30
0.0
 40
0.4227934381774399
100
AcDbArc
 50
208.5214732576858
 51
246.6277221118326
  0
ARC
  5
2D1
102
{ACAD_REACTORS
330
33B
330
33C
102
}
330
74
100
AcDbEntity
  8
0
  6
Continuous
 62
     2
100
AcDbCircle
 10
146.5114446294093
 20
764.230339032163
 30
0.0
 40
0.7487023016406925
100
AcDbArc
 50
71.55192388185229
 51
113.3722778881267
  0
ARC
  5
2D2
102
{ACAD_REACTORS
330
33B
330
33C
102
}
330
74
100
AcDbEntity
  8
0
  6
Continuous
 62
     2
100
AcDbCircle
 10
146.0353780106047
 20
761.6222726223411
 30
0.0
 40
4.010410630990091
100
AcDbArc
 50
74.02000874164766
 51
84.84185523037556
  0
CIRCLE
  5
2D3
102
{ACAD_REACTORS
330
33F
330
340
102
}
330
74
100
AcDbEntity
  8
0
  6
Continuous
 62
     2
100
AcDbCircle
 10
141.8279268765661
 20
766.1310737294309
 30
0.0
 40
0.3892387874201972
  0
CIRCLE
  5
2D4
330
74
100
AcDbEntity
  8
1
  6
Continuous
 62
     2
100
AcDbCircle
 10
137.7445791376504
 20
772.123120707749
 30
0.0
 40
1.0
  0
CIRCLE
  5
2D5
330
74
100
AcDbEntity
  8
1
  6
Continuous
 62
     2
100
AcDbCircle
 10
137.7445791376504
 20
772.123120707749
 30
0.0
 40
1.5
  0
MTEXT
  5
2D7
330
74
100
AcDbEntity
  8
1
 62
     2
100
AcDbMText
 10
170.1523193125471
 20
776.5731207077489
 30
0.0
 40
1.4
 41
0.0
 71
     4
 72
     1
  1
SAP\Pchange-No.
  7
CONVERTER_12
 73
     1
 44
0.66026410564226
  0
MTEXT
  5
2D8
330
74
100
AcDbEntity
  8
1
 62
     3
100
AcDbMText
 10
179.3845561306619
 20
776.373120707749
 30
0.0
 40
2.5
 41
0.0
 71
     4
 72
     1
  1
N02-13035/01
  7
CONVERTER_12
 73
     1
 44
1.20048019207683
  0
MTEXT
  5
2DA
330
74
100
AcDbEntity
  8
1
 62
     2
100
AcDbMText
 10
30.89712383929697
 20
763.6231207077491
 30
0.0
 40
2.0
 41
0.0
 71
     4
 72
     1
  1
 
  7
CONVERTER_13
 73
     1
 44
1.20048019207683
  0
MTEXT
  5
2DB
330
74
100
AcDbEntity
  8
1
 62
     2
100
AcDbMText
 10
30.89712383929697
 20
767.873120707749
 30
0.0
 40
2.0
 41
0.0
 71
     4
 72
     1
  1
 
  7
CONVERTER_13
 73
     1
 44
1.20048019207683
  0
MTEXT
  5
2DC
330
74
100
AcDbEntity
  8
1
 62
     2
100
AcDbMText
 10
30.89712383929697
 20
772.123120707749
 30
0.0
 40
2.0
 41
0.0
 71
     4
 72
     1
  1
 
  7
CONVERTER_13
 73
     1
 44
1.20048019207683
  0
MTEXT
  5
2DD
330
74
100
AcDbEntity
  8
1
 62
     2
100
AcDbMText
 10
30.89712383929697
 20
776.373120707749
 30
0.0
 40
2.0
 41
0.0
 71
     4
 72
     1
  1
 
  7
CONVERTER_13
 73
     1
 44
1.20048019207683
  0
MTEXT
  5
2DE
330
74
100
AcDbEntity
  8
1
 62
     2
100
AcDbMText
 10
30.89712383929697
 20
780.623120707749
 30
0.0
 40
2.0
 41
0.0
 71
     4
 72
     1
  1
 
  7
CONVERTER_13
 73
     1
 44
1.20048019207683
  0
MTEXT
  5
2DF
330
74
100
AcDbEntity
  8
1
 62
     2
100
AcDbMText
 10
30.89712383929697
 20
784.873120707749
 30
0.0
 40
2.0
 41
0.0
 71
     4
 72
     1
  1
 
  7
CONVERTER_13
 73
     1
 44
1.20048019207683
  0
MTEXT
  5
2E0
330
74
100
AcDbEntity
  8
1
 62
     2
100
AcDbMText
 10
125.9023193125471
 20
763.6231207077491
 30
0.0
 40
2.0
 41
0.0
 71
     5
 72
     1
  1
 
  7
CONVERTER_11
 73
     1
 44
1.20048019207683
  0
MTEXT
  5
2E1
330
74
100
AcDbEntity
  8
1
 62
     2
100
AcDbMText
 10
125.9023193125471
 20
767.873120707749
 30
0.0
 40
2.0
 41
0.0
 71
     5
 72
     1
  1
 
  7
CONVERTER_11
 73
     1
 44
1.20048019207683
  0
MTEXT
  5
2E2
330
74
100
AcDbEntity
  8
1
 62
     2
100
AcDbMText
 10
125.9023193125471
 20
772.123120707749
 30
0.0
 40
2.0
 41
0.0
 71
     5
 72
     1
  1
 
  7
CONVERTER_11
 73
     1
 44
1.20048019207683
  0
MTEXT
  5
2E3
330
74
100
AcDbEntity
  8
1
 62
     2
100
AcDbMText
 10
125.9023193125471
 20
776.373120707749
 30
0.0
 40
2.0
 41
0.0
 71
     5
 72
     1
  1
 
  7
CONVERTER_11
 73
     1
 44
1.20048019207683
  0
MTEXT
  5
2E4
330
74
100
AcDbEntity
  8
1
 62
     2
100
AcDbMText
 10
125.9023193125471
 20
780.623120707749
 30
0.0
 40
2.0
 41
0.0
 71
     5
 72
     1
  1
 
  7
CONVERTER_11
 73
     1
 44
1.20048019207683
  0
MTEXT
  5
2E5
330
74
100
AcDbEntity
  8
1
 62
     2
100
AcDbMText
 10
125.9023193125471
 20
784.873120707749
 30
0.0
 40
2.0
 41
0.0
 71
     5
 72
     1
  1
 
  7
CONVERTER_11
 73
     1
 44
1.20048019207683
  0
MTEXT
  5
2E6
330
74
100
AcDbEntity
  8
1
 62
     2
100
AcDbMText
 10
112.4023193125471
 20
763.6231207077491
 30
0.0
 40
2.0
 41
0.0
 71
     5
 72
     1
  1
 
  7
CONVERTER_11
 73
     1
 44
1.20048019207683
  0
MTEXT
  5
2E7
330
74
100
AcDbEntity
  8
1
 62
     2
100
AcDbMText
 10
112.4023193125471
 20
767.873120707749
 30
0.0
 40
2.0
 41
0.0
 71
     5
 72
     1
  1
 
  7
CONVERTER_11
 73
     1
 44
1.20048019207683
  0
MTEXT
  5
2E8
330
74
100
AcDbEntity
  8
1
 62
     2
100
AcDbMText
 10
112.4023193125471
 20
772.123120707749
 30
0.0
 40
2.0
 41
0.0
 71
     5
 72
     1
  1
 
  7
CONVERTER_11
 73
     1
 44
1.20048019207683
  0
MTEXT
  5
2E9
330
74
100
AcDbEntity
  8
1
 62
     2
100
AcDbMText
 10
112.4023193125471
 20
776.373120707749
 30
0.0
 40
2.0
 41
0.0
 71
     5
 72
     1
  1
 
  7
CONVERTER_11
 73
     1
 44
1.20048019207683
  0
MTEXT
  5
2EA
330
74
100
AcDbEntity
  8
1
 62
     2
100
AcDbMText
 10
112.4023193125471
 20
780.623120707749
 30
0.0
 40
2.0
 41
0.0
 71
     5
 72
     1
  1
 
  7
CONVERTER_11
 73
     1
 44
1.20048019207683
  0
MTEXT
  5
2EB
330
74
100
AcDbEntity
  8
1
 62
     2
100
AcDbMText
 10
112.4023193125471
 20
784.873120707749
 30
0.0
 40
2.0
 41
0.0
 71
     5
 72
     1
  1
 
  7
CONVERTER_11
 73
     1
 44
1.20048019207683
  0
MTEXT
  5
2EC
330
74
100
AcDbEntity
  8
1
 62
     2
100
AcDbMText
 10
98.90231931254716
 20
784.873120707749
 30
0.0
 40
2.0
 41
0.0
 71
     5
 72
     1
  1
 
  7
CONVERTER_11
 73
     1
 44
1.20048019207683
  0
MTEXT
  5
2ED
330
74
100
AcDbEntity
  8
1
 62
     2
100
AcDbMText
 10
98.90231931254716
 20
780.623120707749
 30
0.0
 40
2.0
 41
0.0
 71
     5
 72
     1
  1
 
  7
CONVERTER_11
 73
     1
 44
1.20048019207683
  0
MTEXT
  5
2EE
330
74
100
AcDbEntity
  8
1
 62
     2
100
AcDbMText
 10
98.90231931254716
 20
776.373120707749
 30
0.0
 40
2.0
 41
0.0
 71
     5
 72
     1
  1
 
  7
CONVERTER_11
 73
     1
 44
1.20048019207683
  0
MTEXT
  5
2EF
330
74
100
AcDbEntity
  8
1
 62
     2
100
AcDbMText
 10
98.90231931254716
 20
772.123120707749
 30
0.0
 40
2.0
 41
0.0
 71
     5
 72
     1
  1
 
  7
CONVERTER_11
 73
     1
 44
1.20048019207683
  0
MTEXT
  5
2F0
330
74
100
AcDbEntity
  8
1
 62
     2
100
AcDbMText
 10
98.90231931254716
 20
767.873120707749
 30
0.0
 40
2.0
 41
0.0
 71
     5
 72
     1
  1
 
  7
CONVERTER_11
 73
     1
 44
1.20048019207683
  0
MTEXT
  5
2F1
330
74
100
AcDbEntity
  8
1
 62
     2
100
AcDbMText
 10
98.90231931254716
 20
763.6231207077491
 30
0.0
 40
2.0
 41
0.0
 71
     5
 72
     1
  1
 
  7
CONVERTER_11
 73
     1
 44
1.20048019207683
  0
MTEXT
  5
2F2
330
74
100
AcDbEntity
  8
1
 62
     2
100
AcDbMText
 10
23.14712383929697
 20
784.873120707749
 30
0.0
 40
2.0
 41
0.0
 71
     5
 72
     1
  1
 
  7
CONVERTER_11
 73
     1
 44
1.20048019207683
  0
MTEXT
  5
2F3
330
74
100
AcDbEntity
  8
1
 62
     2
100
AcDbMText
 10
23.14712383929697
 20
780.623120707749
 30
0.0
 40
2.0
 41
0.0
 71
     5
 72
     1
  1
 
  7
CONVERTER_11
 73
     1
 44
1.20048019207683
  0
MTEXT
  5
2F4
330
74
100
AcDbEntity
  8
1
 62
     2
100
AcDbMText
 10
23.14712383929697
 20
776.373120707749
 30
0.0
 40
2.0
 41
0.0
 71
     5
 72
     1
  1
 
  7
CONVERTER_11
 73
     1
 44
1.20048019207683
  0
MTEXT
  5
2F5
330
74
100
AcDbEntity
  8
1
 62
     2
100
AcDbMText
 10
23.14712383929697
 20
772.123120707749
 30
0.0
 40
2.0
 41
0.0
 71
     5
 72
     1
  1
 
  7
CONVERTER_11
 73
     1
 44
1.20048019207683
  0
MTEXT
  5
2F6
330
74
100
AcDbEntity
  8
1
 62
     2
100
AcDbMText
 10
23.14712383929697
 20
767.873120707749
 30
0.0
 40
2.0
 41
0.0
 71
     5
 72
     1
  1
 
  7
CONVERTER_11
 73
     1
 44
1.20048019207683
  0
MTEXT
  5
2F7
330
74
100
AcDbEntity
  8
1
 62
     2
100
AcDbMText
 10
23.14712383929697
 20
763.6231207077491
 30
0.0
 40
2.0
 41
0.0
 71
     5
 72
     1
  1
 
  7
CONVERTER_11
 73
     1
 44
1.20048019207683
  0
MTEXT
  5
2F8
330
74
100
AcDbEntity
  8
1
 62
     2
100
AcDbMText
 10
13.29712383929797
 20
763.6231207077491
 30
0.0
 40
2.0
 41
0.0
 71
     5
 72
     1
  1
 
  7
CONVERTER_11
 73
     1
 44
1.20048019207683
  0
MTEXT
  5
2F9
330
74
100
AcDbEntity
  8
1
 62
     2
100
AcDbMText
 10
13.29712383929797
 20
767.873120707749
 30
0.0
 40
2.0
 41
0.0
 71
     5
 72
     1
  1
 
  7
CONVERTER_11
 73
     1
 44
1.20048019207683
  0
MTEXT
  5
2FA
330
74
100
AcDbEntity
  8
1
 62
     2
100
AcDbMText
 10
13.29712383929797
 20
772.123120707749
 30
0.0
 40
2.0
 41
0.0
 71
     5
 72
     1
  1
 
  7
CONVERTER_11
 73
     1
 44
1.20048019207683
  0
MTEXT
  5
2FB
330
74
100
AcDbEntity
  8
1
 62
     2
100
AcDbMText
 10
13.29712383929797
 20
776.373120707749
 30
0.0
 40
2.0
 41
0.0
 71
     5
 72
     1
  1
 
  7
CONVERTER_11
 73
     1
 44
1.20048019207683
  0
MTEXT
  5
2FC
330
74
100
AcDbEntity
  8
1
 62
     2
100
AcDbMText
 10
13.29712383929797
 20
780.623120707749
 30
0.0
 40
2.0
 41
0.0
 71
     5
 72
     1
  1
 
  7
CONVERTER_11
 73
     1
 44
1.20048019207683
  0
MTEXT
  5
2FD
330
74
100
AcDbEntity
  8
1
 62
     2
100
AcDbMText
 10
13.29712383929797
 20
784.873120707749
 30
0.0
 40
2.0
 41
0.0
 71
     5
 72
     1
  1
 
  7
CONVERTER_11
 73
     1
 44
1.20048019207683
  0
MTEXT
  5
2FF
330
74
100
AcDbEntity
  8
1
 62
     2
100
AcDbMText
 10
199.6971238392995
 20
777.498120707749
 30
0.0
 40
1.8
 41
0.0
 71
     1
 72
     1
  1
part-rev.
  7
CONVERTER_14
 73
     1
 44
1.20048019207683
  0
MTEXT
  5
300
330
74
100
AcDbEntity
  8
1
 62
     2
100
AcDbMText
 10
218.1971238392991
 20
773.248120707749
 30
0.0
 40
1.8
 41
0.0
 71
     1
 72
     1
  1
surface in um
  7
CONVERTER_11
 73
     1
 44
1.32052821128451
  0
MTEXT
  5
301
330
74
100
AcDbEntity
  8
1
 62
     7
100
AcDbMText
 10
264.6971238392962
 20
832.2481207077509
 30
0.0
 40
3.5
 41
0.0
 71
     5
 72
     1
  1
C
  7
CONVERTER_11
 73
     1
 44
1.20048019207683
  0
MTEXT
  5
302
330
74
100
AcDbEntity
  8
1
 62
     7
100
AcDbMText
 10
264.6971238392962
 20
934.748120707749
 30
0.0
 40
3.5
 41
0.0
 71
     5
 72
     1
  1
A
  7
CONVERTER_11
 73
     1
 44
1.20048019207683
  0
MTEXT
  5
303
330
74
100
AcDbEntity
  8
1
 62
     7
100
AcDbMText
 10
264.6971238392962
 20
882.2481207077508
 30
0.0
 40
3.5
 41
0.0
 71
     5
 72
     1
  1
B
  7
CONVERTER_11
 73
     1
 44
1.20048019207683
  0
MTEXT
  5
304
330
74
100
AcDbEntity
  8
1
 62
     7
100
AcDbMText
 10
264.6971238392962
 20
779.748120707749
 30
0.0
 40
3.5
 41
0.0
 71
     5
 72
     1
  1
D
  7
CONVERTER_11
 73
     1
 44
1.20048019207683
  0
MTEXT
  5
305
330
74
100
AcDbEntity
  8
1
 62
     3
100
AcDbMText
 10
-24.79780837463105
 20
944.0394288630478
 30
0.0
 40
1.8
 41
0.0
 71
     7
 72
     1
  3
Weitergabe sowie Vervielf\U+00e4ltigung dieses Dokuments, Verwertung und\PMitteilung seines Inhalts gem\U+00e4\U+00df \U+00a718 UWG verboten, soweit nicht aus-\Pdr\U+00fccklich gestattet. Zuwiderhandlungen verpflichten zu Schadenersatz\P(\U+00a719 U
  1
WG). Alle Rechte vorbehalten, insbesondere das Recht, Patent-,\PGebrauchsmuster- oder Geschmacksmusteranmeldungen durchzuf\U+00fchren.\PPhoenix Contact GmbH & Co. KG
  7
CONVERTER_11
 73
     1
 44
0.99639855942377
  0
MTEXT
  5
306
330
74
100
AcDbEntity
  8
1
 62
     3
100
AcDbMText
 10
148.055301464157
 20
944.0394288630478
 30
0.0
 40
1.8
 41
0.0
 71
     7
 72
     1
  3
The copying, distribution and utilistion of this document as well as the communication\Pof the contents to others without expressed authorization is prohibited according to\P\U+00a718 UWG German Law. Offenders will be held liable for the payment of 
  1
damages\Paccording to (\U+00a719 UWG German Law). All rights reserved, in particular the right to\Pcarry out patent, utility model or ornamental design registrations.\PFlachsmarktstra\U+00dfe 8  D-32825 Blomberg
  7
CONVERTER_11
 73
     1
 44
0.99639855942377
  0
MTEXT
  5
307
330
74
100
AcDbEntity
  8
1
 62
     7
100
AcDbMText
 10
-5.55287616070254
 20
754.748120707749
 30
0.0
 40
3.5
 41
0.0
 71
     5
 72
     1
  1
1
  7
CONVERTER_11
 73
     1
 44
1.20048019207683
  0
MTEXT
  5
308
330
74
100
AcDbEntity
  8
1
 62
     7
100
AcDbMText
 10
43.69712383929706
 20
754.748120707749
 30
0.0
 40
3.5
 41
0.0
 71
     5
 72
     1
  1
2
  7
CONVERTER_11
 73
     1
 44
1.20048019207683
  0
MTEXT
  5
309
330
74
100
AcDbEntity
  8
1
 62
     7
100
AcDbMText
 10
93.69712383929706
 20
754.748120707749
 30
0.0
 40
3.5
 41
0.0
 71
     5
 72
     1
  1
3
  7
CONVERTER_11
 73
     1
 44
1.20048019207683
  0
MTEXT
  5
30A
330
74
100
AcDbEntity
  8
1
 62
     7
100
AcDbMText
 10
143.697123839297
 20
754.748120707749
 30
0.0
 40
3.5
 41
0.0
 71
     5
 72
     1
  1
4
  7
CONVERTER_11
 73
     1
 44
1.20048019207683
  0
MTEXT
  5
30B
330
74
100
AcDbEntity
  8
1
 62
     7
100
AcDbMText
 10
193.6971238392971
 20
754.748120707749
 30
0.0
 40
3.5
 41
0.0
 71
     5
 72
     1
  1
5
  7
CONVERTER_11
 73
     1
 44
1.20048019207683
  0
MTEXT
  5
30C
330
74
100
AcDbEntity
  8
1
 62
     7
100
AcDbMText
 10
242.9471238392964
 20
754.748120707749
 30
0.0
 40
3.5
 41
0.0
 71
     5
 72
     1
  1
6
  7
CONVERTER_11
 73
     1
 44
1.20048019207683
  0
MTEXT
  5
30D
330
74
100
AcDbEntity
  8
1
 62
     7
100
AcDbMText
 10
-27.30287616070194
 20
934.748120707749
 30
0.0
 40
3.5
 41
0.0
 71
     5
 72
     1
  1
A
  7
CONVERTER_11
 73
     1
 44
1.20048019207683
  0
MTEXT
  5
30E
330
74
100
AcDbEntity
  8
1
 62
     7
100
AcDbMText
 10
-27.30287616070194
 20
882.248120707749
 30
0.0
 40
3.5
 41
0.0
 71
     5
 72
     1
  1
B
  7
CONVERTER_11
 73
     1
 44
1.20048019207683
  0
MTEXT
  5
30F
330
74
100
AcDbEntity
  8
1
 62
     7
100
AcDbMText
 10
-27.30287616070194
 20
832.248120707749
 30
0.0
 40
3.5
 41
0.0
 71
     5
 72
     1
  1
C
  7
CONVERTER_11
 73
     1
 44
1.20048019207683
  0
MTEXT
  5
310
330
74
100
AcDbEntity
  8
1
 62
     7
100
AcDbMText
 10
-27.30287616070194
 20
779.748120707749
 30
0.0
 40
3.5
 41
0.0
 71
     5
 72
     1
  1
D
  7
CONVERTER_11
 73
     1
 44
1.20048019207683
  0
MTEXT
  5
311
330
74
100
AcDbEntity
  8
1
 62
     2
100
AcDbMText
 10
245.6155321209779
 20
785.998120707749
 30
0.0
 40
1.8
 41
0.0
 71
     1
 72
     1
  1
dim.var.
  7
CONVERTER_11
 73
     1
 44
1.20048019207683
  0
MTEXT
  5
313
330
74
100
AcDbEntity
  8
1
 62
     2
100
AcDbMText
 10
199.6971238392995
 20
773.248120707749
 30
0.0
 40
1.8
 41
0.0
 71
     1
 72
     1
  1
document-No.
  7
CONVERTER_15
 73
     1
 44
1.32052821128451
  0
TEXT
  5
314
330
74
100
AcDbEntity
  8
1
 62
     2
100
AcDbText
 10
151.852319312547
 20
758.4891034927574
 30
0.0
 40
1.8
  1
of
 41
0.9
  7
CONVERTER_11
100
AcDbText
  0
TEXT
  5
315
330
74
100
AcDbEntity
  8
1
 62
     2
100
AcDbText
 10
133.6523193125472
 20
758.4891034927573
 30
0.0
 40
1.8
  1
page
 41
0.9
  7
CONVERTER_11
100
AcDbText
  0
MTEXT
  5
316
330
74
100
AcDbEntity
  8
1
 62
     2
100
AcDbMText
 10
125.9023193125471
 20
758.498120707749
 30
0.0
 40
1.8
 41
0.0
 71
     8
 72
     1
  1
name
  7
CONVERTER_11
 73
     1
 44
1.32052821128451
  0
MTEXT
  5
317
330
74
100
AcDbEntity
  8
1
 62
     2
100
AcDbMText
 10
112.4023193125472
 20
758.498120707749
 30
0.0
 40
1.8
 41
0.0
 71
     8
 72
     1
  1
check.on
  7
CONVERTER_11
 73
     1
 44
1.32052821128451
  0
MTEXT
  5
318
330
74
100
AcDbEntity
  8
1
 62
     2
100
AcDbMText
 10
98.90231931254716
 20
758.498120707749
 30
0.0
 40
1.8
 41
0.0
 71
     8
 72
     1
  1
name
  7
CONVERTER_11
 73
     1
 44
1.32052821128451
  0
MTEXT
  5
319
330
74
100
AcDbEntity
  8
1
 62
     2
100
AcDbMText
 10
23.14712383929697
 20
758.498120707749
 30
0.0
 40
1.8
 41
0.0
 71
     8
 72
     1
  1
date
  7
CONVERTER_11
 73
     1
 44
1.32052821128451
  0
MTEXT
  5
31A
330
74
100
AcDbEntity
  8
1
 62
     2
100
AcDbMText
 10
193.1775084701386
 20
785.9981207077487
 30
0.0
 40
1.8
 41
0.0
 71
     1
 72
     1
  1
material
  7
CONVERTER_11
 73
     1
 44
1.20048019207683
  0
MTEXT
  5
31B
330
74
100
AcDbEntity
  8
1
 62
     2
100
AcDbMText
 10
13.29712383929797
 20
758.498120707749
 30
0.0
 40
1.8
 41
0.0
 71
     8
 72
     1
  1
RI
  7
CONVERTER_11
 73
     1
 44
1.32052821128451
  0
MTEXT
  5
31C
330
74
100
AcDbEntity
  8
1
 62
     2
100
AcDbMText
 10
148.802319312547
 20
783.948120707749
 30
0.0
 40
1.8
 41
0.0
 71
     8
 72
     1
  1
date
  7
CONVERTER_11
 73
     1
 44
1.32052821128451
  0
MTEXT
  5
31D
330
74
100
AcDbEntity
  8
1
 62
     2
100
AcDbMText
 10
162.302319312547
 20
783.948120707749
 30
0.0
 40
1.8
 41
0.0
 71
     8
 72
     1
  1
name
  7
CONVERTER_11
 73
     1
 44
1.32052821128451
  0
MTEXT
  5
31E
330
74
100
AcDbEntity
  8
1
 62
     2
100
AcDbMText
 10
61.02472157592206
 20
758.498120707749
 30
0.0
 40
1.8
 41
0.0
 71
     8
 72
     1
  1
revision
  7
CONVERTER_11
 73
     1
 44
1.32052821128451
  0
MTEXT
  5
31F
330
74
100
AcDbEntity
  8
1
 62
     2
100
AcDbMText
 10
236.497123839299
 20
785.998120707749
 30
0.0
 40
1.8
 41
0.0
 71
     1
 72
     1
  1
scale
  7
CONVERTER_11
 73
     1
 44
1.20048019207683
  0
MTEXT
  5
320
330
74
100
AcDbEntity
  8
1
 62
     2
100
AcDbMText
 10
137.3523193125471
 20
780.623120707749
 30
0.0
 40
1.8
 41
0.0
 71
     5
 72
     1
  1
creat.
  7
CONVERTER_11
 73
     1
 44
1.20048019207683
  0
MTEXT
  5
321
330
74
100
AcDbEntity
  8
1
 62
     2
100
AcDbMText
 10
137.3523193125471
 20
776.373120707749
 30
0.0
 40
1.8
 41
0.0
 71
     5
 72
     1
  1
check.
  7
CONVERTER_11
 73
     1
 44
1.20048019207683
  0
MTEXT
  5
322
330
74
100
AcDbEntity
  8
1
 62
     3
100
AcDbMText
 10
158.852319312547
 20
772.1231207077491
 30
0.0
 40
2.5
 41
0.0
 71
     5
 72
     1
  1
DIN A4
  7
CONVERTER_11
 73
     1
 44
1.20048019207683
  0
MTEXT
  5
323
330
74
100
AcDbEntity
  8
1
 62
     2
100
AcDbMText
 10
170.1523193125471
 20
785.998120707749
 30
0.0
 40
1.8
 41
0.0
 71
     1
 72
     1
  1
ident.-No. / RI
  7
CONVERTER_11
 73
     1
 44
1.20048019207683
  0
TEXT
  5
324
330
74
100
AcDbEntity
  8
1
 62
     2
100
AcDbText
 10
142.2985842828892
 20
758.448872053947
 30
0.0
 40
1.8
  1
 
 41
0.9
  7
CONVERTER_11
100
AcDbText
  0
TEXT
  5
325
330
74
100
AcDbEntity
  8
1
 62
     2
100
AcDbText
 10
157.0876281223607
 20
758.498120707749
 30
0.0
 40
1.8
  1
1
 41
0.9
  7
CONVERTER_11
100
AcDbText
  0
MTEXT
  5
326
330
74
100
AcDbEntity
  8
1
 62
     2
100
AcDbMText
 10
170.052319312547
 20
764.748120707749
 30
0.0
 40
1.8
 41
0.0
 71
     1
 72
     1
  1
description
  7
CONVERTER_11
 73
     1
 44
1.20048019207683
  0
MTEXT
  5
327
330
74
100
AcDbEntity
  8
1
 62
     2
100
AcDbMText
 10
137.3523193125471
 20
783.948120707749
 30
0.0
 40
1.8
 41
0.0
 71
     8
 72
     1
  1
00
  7
CONVERTER_11
 73
     1
 44
1.20048019207683
  0
MTEXT
  5
328
330
74
100
AcDbEntity
  8
1
 62
     2
100
AcDbMText
 10
170.052319312547
 20
773.2481207077489
 30
0.0
 40
1.8
 41
0.0
 71
     1
 72
     1
  1
document-type
  7
CONVERTER_11
 73
     1
 44
1.20048019207683
  0
MTEXT
  5
329
330
74
100
AcDbEntity
  8
1
 62
     2
100
AcDbMText
 10
162.302319312547
 20
776.373120707749
 30
0.0
 40
1.8
 41
0.0
 71
     5
 72
     1
  1
Angenent
  7
CONVERTER_11
 73
     1
 44
1.32052821128451
  0
MTEXT
  5
32A
330
74
100
AcDbEntity
  8
1
 62
     2
100
AcDbMText
 10
162.302319312547
 20
780.623120707749
 30
0.0
 40
1.8
 41
0.0
 71
     5
 72
     1
  1
Schr\U+00f6der
  7
CONVERTER_11
 73
     1
 44
1.32052821128451
  0
MTEXT
  5
32B
330
74
100
AcDbEntity
  8
1
 62
     2
100
AcDbMText
 10
148.8023193125471
 20
776.373120707749
 30
0.0
 40
1.8
 41
0.0
 71
     5
 72
     1
  1
25.04.14
  7
CONVERTER_11
 73
     1
 44
1.32052821128451
  0
MTEXT
  5
32C
330
74
100
AcDbEntity
  8
1
 62
     2
100
AcDbMText
 10
148.8023193125471
 20
780.623120707749
 30
0.0
 40
1.8
 41
0.0
 71
     5
 72
     1
  1
25.03.14
  7
CONVERTER_11
 73
     1
 44
1.32052821128451
  0
TEXT
  5
32D
330
74
100
AcDbEntity
  8
1
 62
     7
100
AcDbText
 10
185.0258670345609
 20
779.7981207077489
 30
0.0
 40
2.5
  1
/
 41
0.9
  7
CONVERTER_11
100
AcDbText
  0
TEXT
  5
32F
330
74
100
AcDbEntity
  8
1
 62
     3
100
AcDbText
 10
218.1971238392991
 20
767.0481207077489
 30
0.0
 40
2.5
  1
 
 41
0.54
  7
CONVERTER_16
100
AcDbText
  0
MTEXT
  5
331
330
74
100
AcDbEntity
  8
1
 62
     7
100
AcDbMText
 10
215.6247215759226
 20
760.4981207077492
 30
0.0
 40
3.0
 41
0.0
 71
     5
 72
     1
  1
A-EXSH-M32-68L-N-S
  7
CONVERTER_17
 73
     1
 44
1.20048019207683
  0
MTEXT
  5
332
330
74
100
AcDbEntity
  8
1
 62
     3
100
AcDbMText
 10
239.8563279801385
 20
779.798120707749
 30
0.0
 40
2.5
 41
0.0
 71
     8
 72
     1
  1
1:1
  7
CONVERTER_14
 73
     1
 44
1.32052821128451
  0
TEXT
  5
333
330
74
100
AcDbEntity
  8
1
 62
     3
100
AcDbText
 10
192.9523193125471
 20
779.7981207077489
 30
0.0
 40
2.5
  1
 
 41
0.54
  7
CONVERTER_16
100
AcDbText
  0
TEXT
  5
334
330
74
100
AcDbEntity
  8
1
 62
     7
100
AcDbText
 10
170.5523193125469
 20
779.7981207077489
 30
0.0
 40
2.5
  1
1411109
 41
0.81
  7
CONVERTER_17
100
AcDbText
  0
TEXT
  5
335
330
74
100
AcDbEntity
  8
1
 62
     7
100
AcDbText
 10
199.6971238392995
 20
767.0481207077489
 30
0.0
 40
2.5
  1
00783910
 41
0.81
  7
CONVERTER_17
100
AcDbText
  0
TEXT
  5
336
330
74
100
AcDbEntity
  8
1
 62
     3
100
AcDbText
 10
245.315532120978
 20
779.7981207077489
 30
0.0
 40
2.5
  1
 
 41
0.54
  7
CONVERTER_16
100
AcDbText
  0
TEXT
  5
338
330
74
100
AcDbEntity
  8
1
 62
     3
100
AcDbText
 10
170.052319312547
 20
767.0481207077489
 30
0.0
 40
2.5
  1
KUNDENZCHNG-SELECT
 41
0.45
  7
CONVERTER_18
100
AcDbText
  0
TEXT
  5
339
330
74
100
AcDbEntity
  8
1
 62
     7
100
AcDbText
 10
187.1822315316029
 20
779.7981207077489
 30
0.0
 40
2.5
  1
00
 41
0.81
  7
CONVERTER_17
100
AcDbText
  0
MTEXT
  5
33A
330
74
100
AcDbEntity
  8
1
 62
     3
100
AcDbMText
 10
209.9041437259075
 20
777.598120707749
 30
0.0
 40
2.0
 41
0.0
 71
     1
 72
     1
  1
 
  7
CONVERTER_14
 73
     1
 44
1.20048019207683
  0
HATCH
  5
33B
330
74
100
AcDbEntity
  8
1
  6
Continuous
 62
     2
100
AcDbHatch
 10
0.0
 20
0.0
 30
0.0
210
0.0
220
0.0
230
1.0
  2
_USER
 70
     0
 71
     1
 91
        1
 92
        1
 93
       14
 72
     2
 10
145.927715408351
 20
764.3600254696601
 40
0.9964100565214088
 50
164.9381082228788
 51
195.061891777096
 73
     1
 72
     2
 10
146.2741020558409
 20
764.4532406448955
 40
1.355119937139965
 50
195.0618917770912
 51
275.1581447696416
 73
     1
 72
     2
 10
146.0353780106047
 20
767.0977783169794
 40
4.010410630990197
 50
275.1581447696246
 51
285.9799912583524
 73
     1
 72
     1
 10
147.1394506693797
 20
763.24233839483
 11
147.1394506693797
 21
763.9634268302045
 72
     2
 10
146.1658514610946
 20
765.5257001518161
 40
1.840813230556049
 50
58.06909105003989
 51
71.55192388186815
 73
     0
 72
     2
 10
146.5114446294093
 20
764.4897119071572
 40
0.7487023016404154
 50
71.55192388184403
 51
113.3722778881233
 73
     0
 72
     2
 10
146.3821553461845
 20
764.1905449495456
 40
0.4227934381774399
 50
113.3722778881673
 51
151.4785267423142
 73
     0
 72
     2
 10
146.6940208487303
 20
764.3600254696601
 40
0.7777353184573039
 50
151.4785267423022
 51
208.5214732577346
 73
     0
 72
     2
 10
146.3821553461845
 20
764.529505989775
 40
0.4227934381775369
 50
208.5214732576993
 51
246.6277221118082
 73
     0
 72
     2
 10
146.5114446294093
 20
764.230339032163
 40
0.7487023016406925
 50
246.6277221118733
 51
288.4480761181477
 73
     0
 72
     2
 10
146.1658514610946
 20
763.1943507875046
 40
1.840813230556584
 50
288.448076118133
 51
301.930908949962
 73
     0
 72
     1
 10
147.1394506693797
 20
764.756624109116
 11
147.1394506693797
 21
765.4777125444906
 72
     2
 10
146.0353780106047
 20
761.6222726223411
 40
4.010410630990091
 50
74.02000874164766
 51
84.84185523037556
 73
     1
 72
     2
 10
146.2741020558409
 20
764.2668102944247
 40
1.355119937140984
 50
84.84185523036052
 51
164.9381082228902
 73
     1
 97
       14
330
2D2
330
15C
330
2A1
330
2D1
330
2A2
330
2A3
330
2D0
330
2CF
330
2CE
330
15D
330
2A4
330
2A5
330
2A6
330
2A7
 75
     1
 76
     0
 52
44.99999999999998
 41
0.1
 77
     0
 78
     1
 53
44.99999999999998
 43
0.0
 44
0.0
 45
-0.0707106781186547
 46
0.0707106781186548
 79
     0
 98
        1
 10
0.0
 20
0.0
  0
HATCH
  5
33C
330
74
100
AcDbEntity
  8
1
  6
Continuous
 62
     2
100
AcDbHatch
 10
0.0
 20
0.0
 30
0.0
210
0.0
220
0.0
230
1.0
  2
_USER
 70
     0
 71
     1
 91
        1
 92
        1
 93
       14
 72
     2
 10
145.927715408351
 20
764.3600254696601
 40
0.9964100565214088
 50
164.9381082228788
 51
195.061891777096
 73
     1
 72
     2
 10
146.2741020558409
 20
764.4532406448955
 40
1.355119937139965
 50
195.0618917770912
 51
275.1581447696416
 73
     1
 72
     2
 10
146.0353780106047
 20
767.0977783169794
 40
4.010410630990197
 50
275.1581447696246
 51
285.9799912583524
 73
     1
 72
     1
 10
147.1394506693797
 20
763.24233839483
 11
147.1394506693797
 21
763.9634268302045
 72
     2
 10
146.1658514610946
 20
765.5257001518161
 40
1.840813230556049
 50
58.06909105003989
 51
71.55192388186815
 73
     0
 72
     2
 10
146.5114446294093
 20
764.4897119071572
 40
0.7487023016404154
 50
71.55192388184403
 51
113.3722778881233
 73
     0
 72
     2
 10
146.3821553461845
 20
764.1905449495456
 40
0.4227934381774399
 50
113.3722778881673
 51
151.4785267423142
 73
     0
 72
     2
 10
146.6940208487303
 20
764.3600254696601
 40
0.7777353184573039
 50
151.4785267423022
 51
208.5214732577346
 73
     0
 72
     2
 10
146.3821553461845
 20
764.529505989775
 40
0.4227934381775369
 50
208.5214732576993
 51
246.6277221118082
 73
     0
 72
     2
 10
146.5114446294093
 20
764.230339032163
 40
0.7487023016406925
 50
246.6277221118733
 51
288.4480761181477
 73
     0
 72
     2
 10
146.1658514610946
 20
763.1943507875046
 40
1.840813230556584
 50
288.448076118133
 51
301.930908949962
 73
     0
 72
     1
 10
147.1394506693797
 20
764.756624109116
 11
147.1394506693797
 21
765.4777125444906
 72
     2
 10
146.0353780106047
 20
761.6222726223411
 40
4.010410630990091
 50
74.02000874164766
 51
84.84185523037556
 73
     1
 72
     2
 10
146.2741020558409
 20
764.2668102944247
 40
1.355119937140984
 50
84.84185523036052
 51
164.9381082228902
 73
     1
 97
       14
330
2D2
330
15C
330
2A1
330
2D1
330
2A2
330
2A3
330
2D0
330
2CF
330
2CE
330
15D
330
2A4
330
2A5
330
2A6
330
2A7
 75
     1
 76
     0
 52
44.99999999999998
 41
0.1
 77
     0
 78
     1
 53
44.99999999999998
 43
0.0
 44
0.0
 45
-0.0707106781186547
 46
0.0707106781186548
 79
     0
 98
        1
 10
0.0
 20
0.0
  0
HATCH
  5
33D
330
74
100
AcDbEntity
  8
1
  6
Continuous
 62
     2
100
AcDbHatch
 10
0.0
 20
0.0
 30
0.0
210
0.0
220
0.0
230
1.0
  2
_USER
 70
     0
 71
     1
 91
        1
 92
        1
 93
       18
 72
     2
 10
159.5821198072896
 20
764.2668102944247
 40
1.355119937140557
 50
90.0
 51
164.938108222899
 73
     1
 72
     2
 10
159.2357331598006
 20
764.3600254696601
 40
0.9964100565230555
 50
164.9381082229042
 51
195.0618917770958
 73
     1
 72
     2
 10
159.5821198072896
 20
764.4532406448955
 40
1.355119937140852
 50
195.061891777101
 51
275.1581447696782
 73
     1
 72
     2
 10
159.3433957620534
 20
767.0977783169794
 40
4.010410630990729
 50
275.1581447696365
 51
285.979991258338
 73
     1
 72
     1
 10
160.4474684208275
 20
763.2423383948295
 11
160.4474684208275
 21
763.9634268302041
 72
     2
 10
159.4738692125433
 20
765.5257001518156
 40
1.840813230556049
 50
58.06909105006314
 51
71.55192388186815
 73
     0
 72
     2
 10
159.8194623808589
 20
764.4897119071572
 40
0.7487023016407311
 50
71.55192388192107
 51
113.3722778881791
 73
     0
 72
     2
 10
159.6901730976332
 20
764.1905449495456
 40
0.4227934381784311
 50
113.3722778881532
 51
151.4785267423171
 73
     0
 72
     2
 10
160.0020386001799
 20
764.3600254696601
 40
0.7777353184586601
 50
151.4785267423357
 51
208.5214732576422
 73
     0
 72
     2
 10
159.6901730976332
 20
764.529505989775
 40
0.4227934381771933
 50
208.5214732575882
 51
250.6628567805165
 73
     0
 72
     2
 10
159.8113879720991
 20
764.1840886506155
 40
0.7888619891124335
 50
250.6628567805663
 51
270.0
 73
     0
 72
     1
 10
159.8113879720991
 20
764.972950639728
 11
160.7234865667835
 21
764.972950639728
 72
     1
 10
160.7234865667835
 20
764.972950639728
 11
160.7234865667835
 21
763.0981207077549
 72
     1
 10
160.7234865667835
 20
763.0981207077549
 11
161.709265659484
 21
763.0981207077549
 72
     1
 10
161.709265659484
 20
763.0981207077549
 11
161.709265659484
 21
764.972950639728
 72
     1
 10
161.709265659484
 20
764.972950639728
 11
162.3795954425199
 21
764.972950639728
 72
     1
 10
162.3795954425199
 20
764.972950639728
 11
162.3795954425199
 21
765.6219302315658
 72
     1
 10
162.3795954425199
 20
765.6219302315658
 11
159.5821198072896
 21
765.6219302315652
 97
       18
330
1C2
330
1C1
330
1C0
330
1BF
330
1C4
330
15E
330
2CB
330
2AC
330
2CA
330
2AD
330
2C9
330
2C8
330
15F
330
2C7
330
2C6
330
2AE
330
2AF
330
1C3
 75
     1
 76
     0
 52
44.99999999999998
 41
0.1
 77
     0
 78
     1
 53
44.99999999999998
 43
0.0
 44
0.0
 45
-0.0707106781186547
 46
0.0707106781186548
 79
     0
 98
        1
 10
0.0
 20
0.0
  0
HATCH
  5
33E
330
74
100
AcDbEntity
  8
1
  6
Continuous
 62
     2
100
AcDbHatch
 10
0.0
 20
0.0
 30
0.0
210
0.0
220
0.0
230
1.0
  2
_USER
 70
     0
 71
     1
 91
        1
 92
        1
 93
       18
 72
     2
 10
159.5821198072896
 20
764.2668102944247
 40
1.355119937140557
 50
90.0
 51
164.938108222899
 73
     1
 72
     2
 10
159.2357331598006
 20
764.3600254696601
 40
0.9964100565230555
 50
164.9381082229042
 51
195.0618917770958
 73
     1
 72
     2
 10
159.5821198072896
 20
764.4532406448955
 40
1.355119937140852
 50
195.061891777101
 51
275.1581447696782
 73
     1
 72
     2
 10
159.3433957620534
 20
767.0977783169794
 40
4.010410630990729
 50
275.1581447696365
 51
285.979991258338
 73
     1
 72
     1
 10
160.4474684208275
 20
763.2423383948295
 11
160.4474684208275
 21
763.9634268302041
 72
     2
 10
159.4738692125433
 20
765.5257001518156
 40
1.840813230556049
 50
58.06909105006314
 51
71.55192388186815
 73
     0
 72
     2
 10
159.8194623808589
 20
764.4897119071572
 40
0.7487023016407311
 50
71.55192388192107
 51
113.3722778881791
 73
     0
 72
     2
 10
159.6901730976332
 20
764.1905449495456
 40
0.4227934381784311
 50
113.3722778881532
 51
151.4785267423171
 73
     0
 72
     2
 10
160.0020386001799
 20
764.3600254696601
 40
0.7777353184586601
 50
151.4785267423357
 51
208.5214732576422
 73
     0
 72
     2
 10
159.6901730976332
 20
764.529505989775
 40
0.4227934381771933
 50
208.5214732575882
 51
250.6628567805165
 73
     0
 72
     2
 10
159.8113879720991
 20
764.1840886506155
 40
0.7888619891124335
 50
250.6628567805663
 51
270.0
 73
     0
 72
     1
 10
159.8113879720991
 20
764.972950639728
 11
160.7234865667835
 21
764.972950639728
 72
     1
 10
160.7234865667835
 20
764.972950639728
 11
160.7234865667835
 21
763.0981207077549
 72
     1
 10
160.7234865667835
 20
763.0981207077549
 11
161.709265659484
 21
763.0981207077549
 72
     1
 10
161.709265659484
 20
763.0981207077549
 11
161.709265659484
 21
764.972950639728
 72
     1
 10
161.709265659484
 20
764.972950639728
 11
162.3795954425199
 21
764.972950639728
 72
     1
 10
162.3795954425199
 20
764.972950639728
 11
162.3795954425199
 21
765.6219302315658
 72
     1
 10
162.3795954425199
 20
765.6219302315658
 11
159.5821198072896
 21
765.6219302315652
 97
       18
330
1C2
330
1C1
330
1C0
330
1BF
330
1C4
330
15E
330
2CB
330
2AC
330
2CA
330
2AD
330
2C9
330
2C8
330
15F
330
2C7
330
2C6
330
2AE
330
2AF
330
1C3
 75
     1
 76
     0
 52
44.99999999999998
 41
0.1
 77
     0
 78
     1
 53
44.99999999999998
 43
0.0
 44
0.0
 45
-0.0707106781186547
 46
0.0707106781186548
 79
     0
 98
        1
 10
0.0
 20
0.0
  0
HATCH
  5
33F
330
74
100
AcDbEntity
  8
1
  6
Continuous
 62
     2
100
AcDbHatch
 10
0.0
 20
0.0
 30
0.0
210
0.0
220
0.0
230
1.0
  2
_USER
 70
     0
 71
     1
 91
        4
 92
        1
 93
        8
 72
     2
 10
139.6629800579565
 20
768.0475053231131
 40
0.3506153846147981
 50
90.0
 51
180.0
 73
     1
 72
     1
 10
139.3123646733426
 20
768.0475053231131
 11
139.3123646733426
 21
763.4487360923691
 72
     2
 10
139.6629800579565
 20
763.4487360923691
 40
0.3506153846138886
 50
180.0
 51
270.0
 73
     1
 72
     1
 10
139.6629800579565
 20
763.0981207077549
 11
144.1863784800366
 21
763.0981207077549
 72
     2
 10
144.1863784800366
 20
763.4487360923691
 40
0.3506153846142297
 50
270.0
 51
360.0
 73
     1
 72
     1
 10
144.5369938646514
 20
763.4487360923691
 11
144.5369938646514
 21
768.0475053231131
 72
     2
 10
144.1863784800366
 20
768.0475053231131
 40
0.3506153846147981
 50
0.0
 51
90.0
 73
     1
 72
     1
 10
144.1863784800366
 20
768.3981207077279
 11
139.6629800579565
 21
768.3981207077279
 97
        8
330
2BF
330
18D
330
2BE
330
18E
330
2B5
330
18B
330
2C0
330
18C
 92
       16
 93
        1
 72
     2
 10
141.8279268765661
 20
766.1310737294309
 40
0.3892387874201972
 50
0.0
 51
360.0
 73
     1
 97
        1
330
2D3
 92
       16
 93
        8
 72
     2
 10
141.8476087068741
 20
766.1310737294309
 40
0.7535935125160714
 50
295.3740086781789
 51
424.6259913218062
 73
     1
 72
     2
 10
142.2823547383518
 20
767.0477196798175
 40
0.2609230769230066
 50
115.374008678374
 51
180.0
 73
     0
 72
     1
 10
142.0214316614288
 20
767.0477196798175
 11
142.0214316614288
 21
767.5481620670132
 72
     2
 10
142.2823547383518
 20
767.5481620670132
 40
0.2609230769223542
 50
180.0
 51
269.8110329574402
 73
     0
 72
     2
 10
142.2869961724922
 20
766.140860457452
 40
1.668232340440728
 50
269.8110329575882
 51
450.1889670424118
 73
     0
 72
     2
 10
142.2823547383518
 20
764.7335588478909
 40
0.2609230769230066
 50
90.18896704255974
 51
180.0
 73
     0
 72
     1
 10
142.0214316614288
 20
764.7335588478909
 11
142.0214316614288
 21
765.2144277790438
 72
     2
 10
142.2823547383518
 20
765.2144277790438
 40
0.2609230769227867
 50
180.0
 51
244.625991321626
 73
     0
 97
        8
330
2CD
330
2A9
330
1C6
330
2CC
330
2AA
330
2AB
330
1C5
330
2A8
 92
       16
 93
       12
 72
     1
 10
140.1538021048545
 20
763.6870095966449
 11
141.3734990147797
 21
763.6870095966449
 72
     2
 10
141.3734990147797
 20
763.9479326735678
 40
0.2609230769229498
 50
270.0
 51
360.0
 73
     1
 72
     1
 10
141.6344220917025
 20
763.9479326735678
 11
141.6344220917025
 21
765.2130326169823
 72
     2
 10
141.3734990147797
 20
765.2130326169823
 40
0.2609230769228077
 50
0.0
 51
64.80558935145224
 73
     1
 72
     2
 10
141.8053869879822
 20
766.1310737294309
 40
0.7536343169897552
 50
115.1944106485115
 51
244.8055893514737
 73
     0
 72
     2
 10
141.3734990147797
 20
767.049114841879
 40
0.2609230769224587
 50
295.1944106485478
 51
360.0
 73
     1
 72
     1
 10
141.6344220917025
 20
767.049114841879
 11
141.6344220917025
 21
767.5483087419291
 72
     2
 10
141.3734990147797
 20
767.5483087419291
 40
0.2609230769228077
 50
0.0
 51
90.0
 73
     1
 72
     1
 10
141.3734990147797
 20
767.8092318188515
 11
140.1538021048545
 21
767.8092318188515
 72
     2
 10
140.1538021048545
 20
767.5483087419291
 40
0.2609230769223814
 50
90.0
 51
180.0
 73
     1
 72
     1
 10
139.8928790279324
 20
767.5483087419291
 11
139.8928790279324
 21
763.9479326735678
 72
     2
 10
140.1538021048545
 20
763.9479326735678
 40
0.2609230769220972
 50
180.0
 51
270.0
 73
     1
 97
       12
330
192
330
2B2
330
191
330
2C3
330
190
330
2C2
330
2B3
330
2B4
330
18F
330
2C1
330
18A
330
2C4
 75
     1
 76
     0
 52
44.99999999999998
 41
0.1
 77
     0
 78
     1
 53
44.99999999999998
 43
0.0
 44
0.0
 45
-0.0707106781186547
 46
0.0707106781186548
 79
     0
 98
        1
 10
0.0
 20
0.0
  0
HATCH
  5
340
330
74
100
AcDbEntity
  8
1
  6
Continuous
 62
     2
100
AcDbHatch
 10
0.0
 20
0.0
 30
0.0
210
0.0
220
0.0
230
1.0
  2
_USER
 70
     0
 71
     1
 91
        4
 92
        1
 93
        8
 72
     2
 10
139.6629800579565
 20
768.0475053231131
 40
0.3506153846147981
 50
90.0
 51
180.0
 73
     1
 72
     1
 10
139.3123646733426
 20
768.0475053231131
 11
139.3123646733426
 21
763.4487360923691
 72
     2
 10
139.6629800579565
 20
763.4487360923691
 40
0.3506153846138886
 50
180.0
 51
270.0
 73
     1
 72
     1
 10
139.6629800579565
 20
763.0981207077549
 11
144.1863784800366
 21
763.0981207077549
 72
     2
 10
144.1863784800366
 20
763.4487360923691
 40
0.3506153846142297
 50
270.0
 51
360.0
 73
     1
 72
     1
 10
144.5369938646514
 20
763.4487360923691
 11
144.5369938646514
 21
768.0475053231131
 72
     2
 10
144.1863784800366
 20
768.0475053231131
 40
0.3506153846147981
 50
0.0
 51
90.0
 73
     1
 72
     1
 10
144.1863784800366
 20
768.3981207077279
 11
139.6629800579565
 21
768.3981207077279
 97
        8
330
2BF
330
18D
330
2BE
330
18E
330
2B5
330
18B
330
2C0
330
18C
 92
       16
 93
        1
 72
     2
 10
141.8279268765661
 20
766.1310737294309
 40
0.3892387874201972
 50
0.0
 51
360.0
 73
     1
 97
        1
330
2D3
 92
       16
 93
        8
 72
     2
 10
141.8476087068741
 20
766.1310737294309
 40
0.7535935125160714
 50
295.3740086781789
 51
424.6259913218062
 73
     1
 72
     2
 10
142.2823547383518
 20
767.0477196798175
 40
0.2609230769230066
 50
115.374008678374
 51
180.0
 73
     0
 72
     1
 10
142.0214316614288
 20
767.0477196798175
 11
142.0214316614288
 21
767.5481620670132
 72
     2
 10
142.2823547383518
 20
767.5481620670132
 40
0.2609230769223542
 50
180.0
 51
269.8110329574402
 73
     0
 72
     2
 10
142.2869961724922
 20
766.140860457452
 40
1.668232340440728
 50
269.8110329575882
 51
450.1889670424118
 73
     0
 72
     2
 10
142.2823547383518
 20
764.7335588478909
 40
0.2609230769230066
 50
90.18896704255974
 51
180.0
 73
     0
 72
     1
 10
142.0214316614288
 20
764.7335588478909
 11
142.0214316614288
 21
765.2144277790438
 72
     2
 10
142.2823547383518
 20
765.2144277790438
 40
0.2609230769227867
 50
180.0
 51
244.625991321626
 73
     0
 97
        8
330
2CD
330
2A9
330
1C6
330
2CC
330
2AA
330
2AB
330
1C5
330
2A8
 92
       16
 93
       12
 72
     1
 10
140.1538021048545
 20
763.6870095966449
 11
141.3734990147797
 21
763.6870095966449
 72
     2
 10
141.3734990147797
 20
763.9479326735678
 40
0.2609230769229498
 50
270.0
 51
360.0
 73
     1
 72
     1
 10
141.6344220917025
 20
763.9479326735678
 11
141.6344220917025
 21
765.2130326169823
 72
     2
 10
141.3734990147797
 20
765.2130326169823
 40
0.2609230769228077
 50
0.0
 51
64.80558935145224
 73
     1
 72
     2
 10
141.8053869879822
 20
766.1310737294309
 40
0.7536343169897552
 50
115.1944106485115
 51
244.8055893514737
 73
     0
 72
     2
 10
141.3734990147797
 20
767.049114841879
 40
0.2609230769224587
 50
295.1944106485478
 51
360.0
 73
     1
 72
     1
 10
141.6344220917025
 20
767.049114841879
 11
141.6344220917025
 21
767.5483087419291
 72
     2
 10
141.3734990147797
 20
767.5483087419291
 40
0.2609230769228077
 50
0.0
 51
90.0
 73
     1
 72
     1
 10
141.3734990147797
 20
767.8092318188515
 11
140.1538021048545
 21
767.8092318188515
 72
     2
 10
140.1538021048545
 20
767.5483087419291
 40
0.2609230769223814
 50
90.0
 51
180.0
 73
     1
 72
     1
 10
139.8928790279324
 20
767.5483087419291
 11
139.8928790279324
 21
763.9479326735678
 72
     2
 10
140.1538021048545
 20
763.9479326735678
 40
0.2609230769220972
 50
180.0
 51
270.0
 73
     1
 97
       12
330
192
330
2B2
330
191
330
2C3
330
190
330
2C2
330
2B3
330
2B4
330
18F
330
2C1
330
18A
330
2C4
 75
     1
 76
     0
 52
44.99999999999998
 41
0.1
 77
     0
 78
     1
 53
44.99999999999998
 43
0.0
 44
0.0
 45
-0.0707106781186547
 46
0.0707106781186548
 79
     0
 98
        1
 10
0.0
 20
0.0
  0
HATCH
  5
341
330
74
100
AcDbEntity
  8
1
  6
Continuous
 62
     2
100
AcDbHatch
 10
0.0
 20
0.0
 30
0.0
210
0.0
220
0.0
230
1.0
  2
_USER
 70
     0
 71
     1
 91
        2
 92
        1
 93
       12
 72
     2
 10
151.7912147719973
 20
767.1362159458372
 40
1.261904761905726
 50
90.0
 51
270.0
 73
     1
 72
     1
 10
151.7912147719973
 20
765.874311183932
 11
154.394784791651
 21
765.874311183932
 72
     1
 10
154.394784791651
 20
765.874311183932
 11
154.394784791651
 21
766.4511819322315
 72
     1
 10
154.394784791651
 20
766.4511819322315
 11
153.2907122078265
 21
766.4511819322315
 72
     1
 10
153.2907122078265
 20
766.4511819322315
 11
153.2907122078265
 21
766.8477805716875
 72
     1
 10
153.2907122078265
 20
766.8477805716875
 11
154.394784791651
 21
766.8477805716875
 72
     1
 10
154.394784791651
 20
766.8477805716875
 11
154.394784791651
 21
767.424651319987
 72
     1
 10
154.394784791651
 20
767.424651319987
 11
153.2907122078265
 21
767.424651319987
 72
     1
 10
153.2907122078265
 20
767.424651319987
 11
153.2907122078265
 21
767.821249959443
 72
     1
 10
153.2907122078265
 20
767.821249959443
 11
154.394784791651
 21
767.821249959443
 72
     1
 10
154.394784791651
 20
767.821249959443
 11
154.394784791651
 21
768.3981207077429
 72
     1
 10
154.394784791651
 20
768.3981207077429
 11
151.7912147719973
 21
768.3981207077429
 97
       12
330
181
330
17B
330
1A2
330
1A1
330
1A0
330
19F
330
17C
330
17D
330
17E
330
17F
330
2B0
330
180
 92
       16
 93
        4
 72
     2
 10
152.1350263806844
 20
767.1362159458372
 40
0.6378510567600058
 50
141.8795802028323
 51
218.1204197971596
 73
     1
 72
     2
 10
151.9699519704809
 20
767.0066860465641
 40
0.4280236140606632
 50
218.1204197971535
 51
321.8795802028536
 73
     1
 72
     2
 10
151.8048775602775
 20
767.1362159458372
 40
0.6378510567599356
 50
321.8795802028404
 51
398.1204197971677
 73
     1
 72
     2
 10
151.9699519704809
 20
767.2657458451104
 40
0.4280236140607304
 50
38.12041979714642
 51
141.8795802028465
 73
     1
 97
        4
330
2BD
330
2BC
330
2B7
330
2B6
 75
     1
 76
     0
 52
44.99999999999998
 41
0.1
 77
     0
 78
     1
 53
44.99999999999998
 43
0.0
 44
0.0
 45
-0.0707106781186547
 46
0.0707106781186548
 79
     0
 98
        1
 10
0.0
 20
0.0
  0
HATCH
  5
342
330
74
100
AcDbEntity
  8
1
  6
Continuous
 62
     2
100
AcDbHatch
 10
0.0
 20
0.0
 30
0.0
210
0.0
220
0.0
230
1.0
  2
_USER
 70
     0
 71
     1
 91
        2
 92
        1
 93
       12
 72
     2
 10
151.7912147719973
 20
767.1362159458372
 40
1.261904761905726
 50
90.0
 51
270.0
 73
     1
 72
     1
 10
151.7912147719973
 20
765.874311183932
 11
154.394784791651
 21
765.874311183932
 72
     1
 10
154.394784791651
 20
765.874311183932
 11
154.394784791651
 21
766.4511819322315
 72
     1
 10
154.394784791651
 20
766.4511819322315
 11
153.2907122078265
 21
766.4511819322315
 72
     1
 10
153.2907122078265
 20
766.4511819322315
 11
153.2907122078265
 21
766.8477805716875
 72
     1
 10
153.2907122078265
 20
766.8477805716875
 11
154.394784791651
 21
766.8477805716875
 72
     1
 10
154.394784791651
 20
766.8477805716875
 11
154.394784791651
 21
767.424651319987
 72
     1
 10
154.394784791651
 20
767.424651319987
 11
153.2907122078265
 21
767.424651319987
 72
     1
 10
153.2907122078265
 20
767.424651319987
 11
153.2907122078265
 21
767.821249959443
 72
     1
 10
153.2907122078265
 20
767.821249959443
 11
154.394784791651
 21
767.821249959443
 72
     1
 10
154.394784791651
 20
767.821249959443
 11
154.394784791651
 21
768.3981207077429
 72
     1
 10
154.394784791651
 20
768.3981207077429
 11
151.7912147719973
 21
768.3981207077429
 97
       12
330
181
330
17B
330
1A2
330
1A1
330
1A0
330
19F
330
17C
330
17D
330
17E
330
17F
330
2B0
330
180
 92
       16
 93
        4
 72
     2
 10
152.1350263806844
 20
767.1362159458372
 40
0.6378510567600058
 50
141.8795802028323
 51
218.1204197971596
 73
     1
 72
     2
 10
151.9699519704809
 20
767.0066860465641
 40
0.4280236140606632
 50
218.1204197971535
 51
321.8795802028536
 73
     1
 72
     2
 10
151.8048775602775
 20
767.1362159458372
 40
0.6378510567599356
 50
321.8795802028404
 51
398.1204197971677
 73
     1
 72
     2
 10
151.9699519704809
 20
767.2657458451104
 40
0.4280236140607304
 50
38.12041979714642
 51
141.8795802028465
 73
     1
 97
        4
330
2BD
330
2BC
330
2B7
330
2B6
 75
     1
 76
     0
 52
44.99999999999998
 41
0.1
 77
     0
 78
     1
 53
44.99999999999998
 43
0.0
 44
0.0
 45
-0.0707106781186547
 46
0.0707106781186548
 79
     0
 98
        1
 10
0.0
 20
0.0
  0
HATCH
  5
343
330
74
100
AcDbEntity
  8
1
  6
Continuous
 62
     2
100
AcDbHatch
 10
0.0
 20
0.0
 30
0.0
210
0.0
220
0.0
230
1.0
  2
_USER
 70
     0
 71
     1
 91
        2
 92
        1
 93
        4
 72
     2
 10
148.4642599269877
 20
764.3600254696601
 40
1.20498684599301
 50
117.5481481756616
 51
242.4518518243384
 73
     1
 72
     2
 10
148.6964416557755
 20
764.8051287839603
 40
1.707008076205386
 50
242.4518518243423
 51
297.5481481756881
 73
     1
 72
     2
 10
148.9286233845634
 20
764.3600254696601
 40
1.204986845993431
 50
297.5481481756999
 51
422.4518518243001
 73
     1
 72
     2
 10
148.6964416557755
 20
763.9149221553603
 40
1.707008076205456
 50
62.45185182430483
 51
117.5481481756647
 73
     1
 97
        4
330
2BB
330
2B8
330
2BA
330
2B9
 92
       16
 93
        4
 72
     2
 10
148.6964416557755
 20
764.4895553689332
 40
0.4280236140606632
 50
38.12041979715347
 51
141.8795802028442
 73
     1
 72
     2
 10
148.8615160659789
 20
764.3600254696601
 40
0.6378510567599164
 50
141.879580202826
 51
218.1204197971659
 73
     1
 72
     2
 10
148.6964416557755
 20
764.2304955703875
 40
0.4280236140609217
 50
218.1204197972037
 51
321.8795802027986
 73
     1
 72
     2
 10
148.5313672455719
 20
764.3600254696601
 40
0.6378510567600251
 50
321.8795802028467
 51
398.1204197971614
 73
     1
 97
        4
330
29E
330
29F
330
2A0
330
29D
 75
     1
 76
     0
 52
44.99999999999998
 41
0.1
 77
     0
 78
     1
 53
44.99999999999998
 43
0.0
 44
0.0
 45
-0.0707106781186547
 46
0.0707106781186548
 79
     0
 98
        1
 10
0.0
 20
0.0
  0
HATCH
  5
344
330
74
100
AcDbEntity
  8
1
  6
Continuous
 62
     2
100
AcDbHatch
 10
0.0
 20
0.0
 30
0.0
210
0.0
220
0.0
230
1.0
  2
_USER
 70
     0
 71
     1
 91
        2
 92
        1
 93
        4
 72
     2
 10
148.4642599269877
 20
764.3600254696601
 40
1.20498684599301
 50
117.5481481756616
 51
242.4518518243384
 73
     1
 72
     2
 10
148.6964416557755
 20
764.8051287839603
 40
1.707008076205386
 50
242.4518518243423
 51
297.5481481756881
 73
     1
 72
     2
 10
148.9286233845634
 20
764.3600254696601
 40
1.204986845993431
 50
297.5481481756999
 51
422.4518518243001
 73
     1
 72
     2
 10
148.6964416557755
 20
763.9149221553603
 40
1.707008076205456
 50
62.45185182430483
 51
117.5481481756647
 73
     1
 97
        4
330
2BB
330
2B8
330
2BA
330
2B9
 92
       16
 93
        4
 72
     2
 10
148.6964416557755
 20
764.4895553689332
 40
0.4280236140606632
 50
38.12041979715347
 51
141.8795802028442
 73
     1
 72
     2
 10
148.8615160659789
 20
764.3600254696601
 40
0.6378510567599164
 50
141.879580202826
 51
218.1204197971659
 73
     1
 72
     2
 10
148.6964416557755
 20
764.2304955703875
 40
0.4280236140609217
 50
218.1204197972037
 51
321.8795802027986
 73
     1
 72
     2
 10
148.5313672455719
 20
764.3600254696601
 40
0.6378510567600251
 50
321.8795802028467
 51
398.1204197971614
 73
     1
 97
        4
330
29E
330
29F
330
2A0
330
29D
 75
     1
 76
     0
 52
44.99999999999998
 41
0.1
 77
     0
 78
     1
 53
44.99999999999998
 43
0.0
 44
0.0
 45
-0.0707106781186547
 46
0.0707106781186548
 79
     0
 98
        1
 10
0.0
 20
0.0
  0
HATCH
  5
345
330
74
100
AcDbEntity
  8
1
  6
Continuous
 62
     2
100
AcDbHatch
 10
0.0
 20
0.0
 30
0.0
210
0.0
220
0.0
230
1.0
  2
_USER
 70
     0
 71
     1
 91
        2
 92
        1
 93
        6
 72
     1
 10
144.9313055017314
 20
768.3981207077429
 11
144.9313055017314
 21
765.874311183932
 72
     1
 10
144.9313055017314
 20
765.874311183932
 11
145.9565157581397
 21
765.874311183932
 72
     1
 10
145.9565157581397
 20
765.874311183932
 11
145.9565157581397
 21
766.6537146890095
 72
     1
 10
145.9565157581397
 20
766.6537146890095
 11
146.5835964091978
 21
766.6537146890095
 72
     2
 10
146.5835964091978
 20
767.5259176983761
 40
0.8722030093666717
 50
270.0
 51
450.0
 73
     1
 72
     1
 10
146.5835964091978
 20
768.3981207077429
 11
144.9313055017314
 21
768.3981207077429
 97
        6
330
2C5
330
193
330
189
330
188
330
195
330
194
 92
       16
 93
        4
 72
     1
 10
146.218743081728
 20
767.850099347875
 11
145.9565157581397
 21
767.850099347875
 72
     1
 10
145.9565157581397
 20
767.850099347875
 11
145.9565157581397
 21
767.2668533566831
 72
     1
 10
145.9565157581397
 20
767.2668533566831
 11
146.218743081728
 21
767.2668533566831
 72
     2
 10
146.218743081728
 20
767.5584763522791
 40
0.2916229955959579
 50
270.0
 51
450.0
 73
     1
 97
        4
330
196
330
187
330
197
330
2B1
 75
     1
 76
     0
 52
44.99999999999998
 41
0.1
 77
     0
 78
     1
 53
44.99999999999998
 43
0.0
 44
0.0
 45
-0.0707106781186547
 46
0.0707106781186548
 79
     0
 98
        1
 10
0.0
 20
0.0
  0
HATCH
  5
346
330
74
100
AcDbEntity
  8
1
  6
Continuous
 62
     2
100
AcDbHatch
 10
0.0
 20
0.0
 30
0.0
210
0.0
220
0.0
230
1.0
  2
_USER
 70
     0
 71
     1
 91
        2
 92
        1
 93
        6
 72
     1
 10
144.9313055017314
 20
768.3981207077429
 11
144.9313055017314
 21
765.874311183932
 72
     1
 10
144.9313055017314
 20
765.874311183932
 11
145.9565157581397
 21
765.874311183932
 72
     1
 10
145.9565157581397
 20
765.874311183932
 11
145.9565157581397
 21
766.6537146890095
 72
     1
 10
145.9565157581397
 20
766.6537146890095
 11
146.5835964091978
 21
766.6537146890095
 72
     2
 10
146.5835964091978
 20
767.5259176983761
 40
0.8722030093666717
 50
270.0
 51
450.0
 73
     1
 72
     1
 10
146.5835964091978
 20
768.3981207077429
 11
144.9313055017314
 21
768.3981207077429
 97
        6
330
2C5
330
193
330
189
330
188
330
195
330
194
 92
       16
 93
        4
 72
     1
 10
146.218743081728
 20
767.850099347875
 11
145.9565157581397
 21
767.850099347875
 72
     1
 10
145.9565157581397
 20
767.850099347875
 11
145.9565157581397
 21
767.2668533566831
 72
     1
 10
145.9565157581397
 20
767.2668533566831
 11
146.218743081728
 21
767.2668533566831
 72
     2
 10
146.218743081728
 20
767.5584763522791
 40
0.2916229955959579
 50
270.0
 51
450.0
 73
     1
 97
        4
330
196
330
187
330
197
330
2B1
 75
     1
 76
     0
 52
44.99999999999998
 41
0.1
 77
     0
 78
     1
 53
44.99999999999998
 43
0.0
 44
0.0
 45
-0.0707106781186547
 46
0.0707106781186548
 79
     0
 98
        1
 10
0.0
 20
0.0
  0
HATCH
  5
347
330
74
100
AcDbEntity
  8
1
  6
Continuous
 62
     2
100
AcDbHatch
 10
0.0
 20
0.0
 30
0.0
210
0.0
220
0.0
230
1.0
  2
_USER
 70
     0
 71
     1
 91
        1
 92
        1
 93
       12
 72
     1
 10
161.1414569020894
 20
768.3981207077429
 11
162.3007331151036
 21
768.3981207077429
 72
     1
 10
162.3007331151036
 20
768.3981207077429
 11
161.224262345875
 21
767.1808062201096
 72
     1
 10
161.224262345875
 20
767.1808062201096
 11
162.3795954425199
 21
765.874311183932
 72
     1
 10
162.3795954425199
 20
765.874311183932
 11
161.2203192295048
 21
765.874311183932
 72
     1
 10
161.2203192295048
 20
765.874311183932
 11
160.644624239368
 21
766.525329188307
 72
     1
 10
160.644624239368
 20
766.525329188307
 11
160.0689292492311
 21
765.874311183932
 72
     1
 10
160.0689292492311
 20
765.874311183932
 11
158.909653036216
 21
765.874311183932
 72
     1
 10
158.909653036216
 20
765.874311183932
 11
160.0649861328609
 21
767.1808062201096
 72
     1
 10
160.0649861328609
 20
767.1808062201096
 11
158.9885153636316
 21
768.3981207077429
 72
     1
 10
158.9885153636316
 20
768.3981207077429
 11
160.1477915766475
 21
768.3981207077429
 72
     1
 10
160.1477915766475
 20
768.3981207077429
 11
160.644624239368
 21
767.8362832519119
 72
     1
 10
160.644624239368
 20
767.8362832519119
 11
161.1414569020894
 21
768.3981207077429
 97
       12
330
162
330
1BB
330
1BA
330
1B9
330
1B8
330
163
330
164
330
160
330
161
330
1BE
330
1BD
330
1BC
 75
     1
 76
     0
 52
44.99999999999998
 41
0.1
 77
     0
 78
     1
 53
44.99999999999998
 43
0.0
 44
0.0
 45
-0.0707106781186547
 46
0.0707106781186548
 79
     0
 98
        1
 10
0.0
 20
0.0
  0
HATCH
  5
348
330
74
100
AcDbEntity
  8
1
  6
Continuous
 62
     2
100
AcDbHatch
 10
0.0
 20
0.0
 30
0.0
210
0.0
220
0.0
230
1.0
  2
_USER
 70
     0
 71
     1
 91
        1
 92
        1
 93
       12
 72
     1
 10
161.1414569020894
 20
768.3981207077429
 11
162.3007331151036
 21
768.3981207077429
 72
     1
 10
162.3007331151036
 20
768.3981207077429
 11
161.224262345875
 21
767.1808062201096
 72
     1
 10
161.224262345875
 20
767.1808062201096
 11
162.3795954425199
 21
765.874311183932
 72
     1
 10
162.3795954425199
 20
765.874311183932
 11
161.2203192295048
 21
765.874311183932
 72
     1
 10
161.2203192295048
 20
765.874311183932
 11
160.644624239368
 21
766.525329188307
 72
     1
 10
160.644624239368
 20
766.525329188307
 11
160.0689292492311
 21
765.874311183932
 72
     1
 10
160.0689292492311
 20
765.874311183932
 11
158.909653036216
 21
765.874311183932
 72
     1
 10
158.909653036216
 20
765.874311183932
 11
160.0649861328609
 21
767.1808062201096
 72
     1
 10
160.0649861328609
 20
767.1808062201096
 11
158.9885153636316
 21
768.3981207077429
 72
     1
 10
158.9885153636316
 20
768.3981207077429
 11
160.1477915766475
 21
768.3981207077429
 72
     1
 10
160.1477915766475
 20
768.3981207077429
 11
160.644624239368
 21
767.8362832519119
 72
     1
 10
160.644624239368
 20
767.8362832519119
 11
161.1414569020894
 21
768.3981207077429
 97
       12
330
162
330
1BB
330
1BA
330
1B9
330
1B8
330
163
330
164
330
160
330
161
330
1BE
330
1BD
330
1BC
 75
     1
 76
     0
 52
44.99999999999998
 41
0.1
 77
     0
 78
     1
 53
44.99999999999998
 43
0.0
 44
0.0
 45
-0.0707106781186547
 46
0.0707106781186548
 79
     0
 98
        1
 10
0.0
 20
0.0
  0
HATCH
  5
349
330
74
100
AcDbEntity
  8
1
  6
Continuous
 62
     2
100
AcDbHatch
 10
0.0
 20
0.0
 30
0.0
210
0.0
220
0.0
230
1.0
  2
_USER
 70
     0
 71
     1
 91
        1
 92
        1
 93
        4
 72
     1
 10
158.8110751269459
 20
768.3981207077429
 11
158.8110751269459
 21
765.874311183932
 72
     1
 10
158.8110751269459
 20
765.874311183932
 11
157.7858648705385
 21
765.874311183932
 72
     1
 10
157.7858648705385
 20
765.874311183932
 11
157.7858648705385
 21
768.3981207077429
 72
     1
 10
157.7858648705385
 20
768.3981207077429
 11
158.8110751269459
 21
768.3981207077429
 97
        4
330
1B6
330
165
330
1B5
330
1B7
 75
     1
 76
     0
 52
44.99999999999998
 41
0.1
 77
     0
 78
     1
 53
44.99999999999998
 43
0.0
 44
0.0
 45
-0.0707106781186547
 46
0.0707106781186548
 79
     0
 98
        1
 10
0.0
 20
0.0
  0
HATCH
  5
34A
330
74
100
AcDbEntity
  8
1
  6
Continuous
 62
     2
100
AcDbHatch
 10
0.0
 20
0.0
 30
0.0
210
0.0
220
0.0
230
1.0
  2
_USER
 70
     0
 71
     1
 91
        1
 92
        1
 93
        4
 72
     1
 10
158.8110751269459
 20
768.3981207077429
 11
158.8110751269459
 21
765.874311183932
 72
     1
 10
158.8110751269459
 20
765.874311183932
 11
157.7858648705385
 21
765.874311183932
 72
     1
 10
157.7858648705385
 20
765.874311183932
 11
157.7858648705385
 21
768.3981207077429
 72
     1
 10
157.7858648705385
 20
768.3981207077429
 11
158.8110751269459
 21
768.3981207077429
 97
        4
330
1B6
330
165
330
1B5
330
1B7
 75
     1
 76
     0
 52
44.99999999999998
 41
0.1
 77
     0
 78
     1
 53
44.99999999999998
 43
0.0
 44
0.0
 45
-0.0707106781186547
 46
0.0707106781186548
 79
     0
 98
        1
 10
0.0
 20
0.0
  0
HATCH
  5
34B
330
74
100
AcDbEntity
  8
1
  6
Continuous
 62
     2
100
AcDbHatch
 10
0.0
 20
0.0
 30
0.0
210
0.0
220
0.0
230
1.0
  2
_USER
 70
     0
 71
     1
 91
        2
 92
        1
 93
        8
 72
     1
 10
158.4883941322914
 20
763.0981207077549
 11
157.4631838758832
 21
763.0981207077549
 72
     1
 10
157.4631838758832
 20
763.0981207077549
 11
157.2884069721842
 21
763.545195537687
 72
     1
 10
157.2884069721842
 20
763.545195537687
 11
156.3525048427016
 21
763.545195537687
 72
     1
 10
156.3525048427016
 20
763.545195537687
 11
156.1777279390026
 21
763.0981207077549
 72
     1
 10
156.1777279390026
 20
763.0981207077549
 11
155.1525176825952
 21
763.0981207077549
 72
     1
 10
155.1525176825952
 20
763.0981207077549
 11
156.3078507792392
 21
765.6219302315658
 72
     1
 10
156.3078507792392
 20
765.6219302315658
 11
157.3330610356465
 21
765.6219302315658
 72
     1
 10
157.3330610356465
 20
765.6219302315658
 11
158.4883941322914
 21
763.0981207077549
 97
        8
330
1B1
330
16B
330
1B0
330
1B3
330
168
330
1B2
330
169
330
16A
 92
       16
 93
        3
 72
     1
 10
156.5723854634827
 20
764.1076445172793
 11
157.0685263514021
 21
764.1076445172793
 72
     1
 10
157.0685263514021
 20
764.1076445172793
 11
156.8204559074433
 21
764.7422023404088
 72
     1
 10
156.8204559074433
 20
764.7422023404088
 11
156.5723854634827
 21
764.1076445172793
 97
        3
330
167
330
166
330
1B4
 75
     1
 76
     0
 52
44.99999999999998
 41
0.1
 77
     0
 78
     1
 53
44.99999999999998
 43
0.0
 44
0.0
 45
-0.0707106781186547
 46
0.0707106781186548
 79
     0
 98
        1
 10
0.0
 20
0.0
  0
HATCH
  5
34C
330
74
100
AcDbEntity
  8
1
  6
Continuous
 62
     2
100
AcDbHatch
 10
0.0
 20
0.0
 30
0.0
210
0.0
220
0.0
230
1.0
  2
_USER
 70
     0
 71
     1
 91
        2
 92
        1
 93
        8
 72
     1
 10
158.4883941322914
 20
763.0981207077549
 11
157.4631838758832
 21
763.0981207077549
 72
     1
 10
157.4631838758832
 20
763.0981207077549
 11
157.2884069721842
 21
763.545195537687
 72
     1
 10
157.2884069721842
 20
763.545195537687
 11
156.3525048427016
 21
763.545195537687
 72
     1
 10
156.3525048427016
 20
763.545195537687
 11
156.1777279390026
 21
763.0981207077549
 72
     1
 10
156.1777279390026
 20
763.0981207077549
 11
155.1525176825952
 21
763.0981207077549
 72
     1
 10
155.1525176825952
 20
763.0981207077549
 11
156.3078507792392
 21
765.6219302315658
 72
     1
 10
156.3078507792392
 20
765.6219302315658
 11
157.3330610356465
 21
765.6219302315658
 72
     1
 10
157.3330610356465
 20
765.6219302315658
 11
158.4883941322914
 21
763.0981207077549
 97
        8
330
1B1
330
16B
330
1B0
330
1B3
330
168
330
1B2
330
169
330
16A
 92
       16
 93
        3
 72
     1
 10
156.5723854634827
 20
764.1076445172793
 11
157.0685263514021
 21
764.1076445172793
 72
     1
 10
157.0685263514021
 20
764.1076445172793
 11
156.8204559074433
 21
764.7422023404088
 72
     1
 10
156.8204559074433
 20
764.7422023404088
 11
156.5723854634827
 21
764.1076445172793
 97
        3
330
167
330
166
330
1B4
 75
     1
 76
     0
 52
44.99999999999998
 41
0.1
 77
     0
 78
     1
 53
44.99999999999998
 43
0.0
 44
0.0
 45
-0.0707106781186547
 46
0.0707106781186548
 79
     0
 98
        1
 10
0.0
 20
0.0
  0
HATCH
  5
34D
330
74
100
AcDbEntity
  8
1
  6
Continuous
 62
     2
100
AcDbHatch
 10
0.0
 20
0.0
 30
0.0
210
0.0
220
0.0
230
1.0
  2
_USER
 70
     0
 71
     1
 91
        1
 92
        1
 93
        8
 72
     1
 10
153.3694497989735
 20
765.6219302315658
 11
153.3694497989735
 21
764.972950639728
 72
     1
 10
153.3694497989735
 20
764.972950639728
 11
154.0397795820104
 21
764.972950639728
 72
     1
 10
154.0397795820104
 20
764.972950639728
 11
154.0397795820104
 21
763.0981207077549
 72
     1
 10
154.0397795820104
 20
763.0981207077549
 11
155.02555867471
 21
763.0981207077549
 72
     1
 10
155.02555867471
 20
763.0981207077549
 11
155.02555867471
 21
764.972950639728
 72
     1
 10
155.02555867471
 20
764.972950639728
 11
155.6958884577452
 21
764.972950639728
 72
     1
 10
155.6958884577452
 20
764.972950639728
 11
155.6958884577452
 21
765.6219302315658
 72
     1
 10
155.6958884577452
 20
765.6219302315658
 11
153.3694497989735
 21
765.6219302315658
 97
        8
330
1AD
330
1AC
330
1AB
330
16C
330
16D
330
1AF
330
16E
330
1AE
 75
     1
 76
     0
 52
44.99999999999998
 41
0.1
 77
     0
 78
     1
 53
44.99999999999998
 43
0.0
 44
0.0
 45
-0.0707106781186547
 46
0.0707106781186548
 79
     0
 98
        1
 10
0.0
 20
0.0
  0
HATCH
  5
34E
330
74
100
AcDbEntity
  8
1
  6
Continuous
 62
     2
100
AcDbHatch
 10
0.0
 20
0.0
 30
0.0
210
0.0
220
0.0
230
1.0
  2
_USER
 70
     0
 71
     1
 91
        1
 92
        1
 93
        8
 72
     1
 10
153.3694497989735
 20
765.6219302315658
 11
153.3694497989735
 21
764.972950639728
 72
     1
 10
153.3694497989735
 20
764.972950639728
 11
154.0397795820104
 21
764.972950639728
 72
     1
 10
154.0397795820104
 20
764.972950639728
 11
154.0397795820104
 21
763.0981207077549
 72
     1
 10
154.0397795820104
 20
763.0981207077549
 11
155.02555867471
 21
763.0981207077549
 72
     1
 10
155.02555867471
 20
763.0981207077549
 11
155.02555867471
 21
764.972950639728
 72
     1
 10
155.02555867471
 20
764.972950639728
 11
155.6958884577452
 21
764.972950639728
 72
     1
 10
155.6958884577452
 20
764.972950639728
 11
155.6958884577452
 21
765.6219302315658
 72
     1
 10
155.6958884577452
 20
765.6219302315658
 11
153.3694497989735
 21
765.6219302315658
 97
        8
330
1AD
330
1AC
330
1AB
330
16C
330
16D
330
1AF
330
16E
330
1AE
 75
     1
 76
     0
 52
44.99999999999998
 41
0.1
 77
     0
 78
     1
 53
44.99999999999998
 43
0.0
 44
0.0
 45
-0.0707106781186547
 46
0.0707106781186548
 79
     0
 98
        1
 10
0.0
 20
0.0
  0
HATCH
  5
34F
330
74
100
AcDbEntity
  8
1
  6
Continuous
 62
     2
100
AcDbHatch
 10
0.0
 20
0.0
 30
0.0
210
0.0
220
0.0
230
1.0
  2
_USER
 70
     0
 71
     1
 91
        1
 92
        1
 93
       10
 72
     1
 10
155.5777197028902
 20
768.3981207077429
 11
154.5919406101906
 21
768.3981207077429
 72
     1
 10
154.5919406101906
 20
768.3981207077429
 11
154.5919406101906
 21
765.874311183932
 72
     1
 10
154.5919406101906
 20
765.874311183932
 11
155.5777197028902
 21
765.874311183932
 72
     1
 10
155.5777197028902
 20
765.874311183932
 11
155.5777197028902
 21
766.9559438369937
 72
     1
 10
155.5777197028902
 20
766.9559438369937
 11
156.6029299592985
 21
765.874311183932
 72
     1
 10
156.6029299592985
 20
765.874311183932
 11
157.5887090519981
 21
765.874311183932
 72
     1
 10
157.5887090519981
 20
765.874311183932
 11
157.5887090519981
 21
768.3981207077429
 72
     1
 10
157.5887090519981
 20
768.3981207077429
 11
156.6029299592985
 21
768.3981207077429
 72
     1
 10
156.6029299592985
 20
768.3981207077429
 11
156.6029299592985
 21
767.3164880546808
 72
     1
 10
156.6029299592985
 20
767.3164880546808
 11
155.5777197028902
 21
768.3981207077429
 97
       10
330
1A7
330
171
330
172
330
173
330
174
330
1AA
330
16F
330
1A9
330
1A8
330
170
 75
     1
 76
     0
 52
44.99999999999998
 41
0.1
 77
     0
 78
     1
 53
44.99999999999998
 43
0.0
 44
0.0
 45
-0.0707106781186547
 46
0.0707106781186548
 79
     0
 98
        1
 10
0.0
 20
0.0
  0
HATCH
  5
350
330
74
100
AcDbEntity
  8
1
  6
Continuous
 62
     2
100
AcDbHatch
 10
0.0
 20
0.0
 30
0.0
210
0.0
220
0.0
230
1.0
  2
_USER
 70
     0
 71
     1
 91
        1
 92
        1
 93
       10
 72
     1
 10
155.5777197028902
 20
768.3981207077429
 11
154.5919406101906
 21
768.3981207077429
 72
     1
 10
154.5919406101906
 20
768.3981207077429
 11
154.5919406101906
 21
765.874311183932
 72
     1
 10
154.5919406101906
 20
765.874311183932
 11
155.5777197028902
 21
765.874311183932
 72
     1
 10
155.5777197028902
 20
765.874311183932
 11
155.5777197028902
 21
766.9559438369937
 72
     1
 10
155.5777197028902
 20
766.9559438369937
 11
156.6029299592985
 21
765.874311183932
 72
     1
 10
156.6029299592985
 20
765.874311183932
 11
157.5887090519981
 21
765.874311183932
 72
     1
 10
157.5887090519981
 20
765.874311183932
 11
157.5887090519981
 21
768.3981207077429
 72
     1
 10
157.5887090519981
 20
768.3981207077429
 11
156.6029299592985
 21
768.3981207077429
 72
     1
 10
156.6029299592985
 20
768.3981207077429
 11
156.6029299592985
 21
767.3164880546808
 72
     1
 10
156.6029299592985
 20
767.3164880546808
 11
155.5777197028902
 21
768.3981207077429
 97
       10
330
1A7
330
171
330
172
330
173
330
174
330
1AA
330
16F
330
1A9
330
1A8
330
170
 75
     1
 76
     0
 52
44.99999999999998
 41
0.1
 77
     0
 78
     1
 53
44.99999999999998
 43
0.0
 44
0.0
 45
-0.0707106781186547
 46
0.0707106781186548
 79
     0
 98
        1
 10
0.0
 20
0.0
  0
HATCH
  5
351
330
74
100
AcDbEntity
  8
1
  6
Continuous
 62
     2
100
AcDbHatch
 10
0.0
 20
0.0
 30
0.0
210
0.0
220
0.0
230
1.0
  2
_USER
 70
     0
 71
     1
 91
        1
 92
        1
 93
       10
 72
     1
 10
151.2401669587426
 20
765.6219302315658
 11
150.2543878660421
 21
765.6219302315658
 72
     1
 10
150.2543878660421
 20
765.6219302315658
 11
150.2543878660421
 21
763.0981207077549
 72
     1
 10
150.2543878660421
 20
763.0981207077549
 11
151.2401669587426
 21
763.0981207077549
 72
     1
 10
151.2401669587426
 20
763.0981207077549
 11
151.2401669587426
 21
764.1797533608166
 72
     1
 10
151.2401669587426
 20
764.1797533608166
 11
152.2653772151499
 21
763.0981207077549
 72
     1
 10
152.2653772151499
 20
763.0981207077549
 11
153.2511563078495
 21
763.0981207077549
 72
     1
 10
153.2511563078495
 20
763.0981207077549
 11
153.2511563078495
 21
765.6219302315658
 72
     1
 10
153.2511563078495
 20
765.6219302315658
 11
152.2653772151499
 21
765.6219302315658
 72
     1
 10
152.2653772151499
 20
765.6219302315658
 11
152.2653772151499
 21
764.5402975785037
 72
     1
 10
152.2653772151499
 20
764.5402975785037
 11
151.2401669587426
 21
765.6219302315658
 97
       10
330
176
330
177
330
178
330
1A4
330
179
330
17A
330
1A3
330
1A6
330
1A5
330
175
 75
     1
 76
     0
 52
44.99999999999998
 41
0.1
 77
     0
 78
     1
 53
44.99999999999998
 43
0.0
 44
0.0
 45
-0.0707106781186547
 46
0.0707106781186548
 79
     0
 98
        1
 10
0.0
 20
0.0
  0
HATCH
  5
352
330
74
100
AcDbEntity
  8
1
  6
Continuous
 62
     2
100
AcDbHatch
 10
0.0
 20
0.0
 30
0.0
210
0.0
220
0.0
230
1.0
  2
_USER
 70
     0
 71
     1
 91
        1
 92
        1
 93
       10
 72
     1
 10
151.2401669587426
 20
765.6219302315658
 11
150.2543878660421
 21
765.6219302315658
 72
     1
 10
150.2543878660421
 20
765.6219302315658
 11
150.2543878660421
 21
763.0981207077549
 72
     1
 10
150.2543878660421
 20
763.0981207077549
 11
151.2401669587426
 21
763.0981207077549
 72
     1
 10
151.2401669587426
 20
763.0981207077549
 11
151.2401669587426
 21
764.1797533608166
 72
     1
 10
151.2401669587426
 20
764.1797533608166
 11
152.2653772151499
 21
763.0981207077549
 72
     1
 10
152.2653772151499
 20
763.0981207077549
 11
153.2511563078495
 21
763.0981207077549
 72
     1
 10
153.2511563078495
 20
763.0981207077549
 11
153.2511563078495
 21
765.6219302315658
 72
     1
 10
153.2511563078495
 20
765.6219302315658
 11
152.2653772151499
 21
765.6219302315658
 72
     1
 10
152.2653772151499
 20
765.6219302315658
 11
152.2653772151499
 21
764.5402975785037
 72
     1
 10
152.2653772151499
 20
764.5402975785037
 11
151.2401669587426
 21
765.6219302315658
 97
       10
330
176
330
177
330
178
330
1A4
330
179
330
17A
330
1A3
330
1A6
330
1A5
330
175
 75
     1
 76
     0
 52
44.99999999999998
 41
0.1
 77
     0
 78
     1
 53
44.99999999999998
 43
0.0
 44
0.0
 45
-0.0707106781186547
 46
0.0707106781186548
 79
     0
 98
        1
 10
0.0
 20
0.0
  0
HATCH
  5
353
330
74
100
AcDbEntity
  8
1
  6
Continuous
 62
     2
100
AcDbHatch
 10
0.0
 20
0.0
 30
0.0
210
0.0
220
0.0
230
1.0
  2
_USER
 70
     0
 71
     1
 91
        1
 92
        1
 93
       12
 72
     1
 10
150.4122372571431
 20
768.3981207077429
 11
150.4122372571431
 21
765.874311183932
 72
     1
 10
150.4122372571431
 20
765.874311183932
 11
149.4264581644435
 21
765.874311183932
 72
     1
 10
149.4264581644435
 20
765.874311183932
 11
149.4264581644435
 21
766.8117261499186
 72
     1
 10
149.4264581644435
 20
766.8117261499186
 11
148.5589725628671
 21
766.8117261499186
 72
     1
 10
148.5589725628671
 20
766.8117261499186
 11
148.5589725628671
 21
765.874311183932
 72
     1
 10
148.5589725628671
 20
765.874311183932
 11
147.5731934701675
 21
765.874311183932
 72
     1
 10
147.5731934701675
 20
765.874311183932
 11
147.5731934701675
 21
768.3981207077429
 72
     1
 10
147.5731934701675
 20
768.3981207077429
 11
148.5589725628671
 21
768.3981207077429
 72
     1
 10
148.5589725628671
 20
768.3981207077429
 11
148.5589725628671
 21
767.5147873744086
 72
     1
 10
148.5589725628671
 20
767.5147873744086
 11
149.4264581644435
 21
767.5147873744086
 72
     1
 10
149.4264581644435
 20
767.5147873744086
 11
149.4264581644435
 21
768.3981207077429
 72
     1
 10
149.4264581644435
 20
768.3981207077429
 11
150.4122372571431
 21
768.3981207077429
 97
       12
330
19E
330
19D
330
19C
330
184
330
185
330
19B
330
186
330
19A
330
199
330
198
330
182
330
183
 75
     1
 76
     0
 52
44.99999999999998
 41
0.1
 77
     0
 78
     1
 53
44.99999999999998
 43
0.0
 44
0.0
 45
-0.0707106781186547
 46
0.0707106781186548
 79
     0
 98
        1
 10
0.0
 20
0.0
  0
HATCH
  5
354
330
74
100
AcDbEntity
  8
1
  6
Continuous
 62
     2
100
AcDbHatch
 10
0.0
 20
0.0
 30
0.0
210
0.0
220
0.0
230
1.0
  2
_USER
 70
     0
 71
     1
 91
        1
 92
        1
 93
       12
 72
     1
 10
150.4122372571431
 20
768.3981207077429
 11
150.4122372571431
 21
765.874311183932
 72
     1
 10
150.4122372571431
 20
765.874311183932
 11
149.4264581644435
 21
765.874311183932
 72
     1
 10
149.4264581644435
 20
765.874311183932
 11
149.4264581644435
 21
766.8117261499186
 72
     1
 10
149.4264581644435
 20
766.8117261499186
 11
148.5589725628671
 21
766.8117261499186
 72
     1
 10
148.5589725628671
 20
766.8117261499186
 11
148.5589725628671
 21
765.874311183932
 72
     1
 10
148.5589725628671
 20
765.874311183932
 11
147.5731934701675
 21
765.874311183932
 72
     1
 10
147.5731934701675
 20
765.874311183932
 11
147.5731934701675
 21
768.3981207077429
 72
     1
 10
147.5731934701675
 20
768.3981207077429
 11
148.5589725628671
 21
768.3981207077429
 72
     1
 10
148.5589725628671
 20
768.3981207077429
 11
148.5589725628671
 21
767.5147873744086
 72
     1
 10
148.5589725628671
 20
767.5147873744086
 11
149.4264581644435
 21
767.5147873744086
 72
     1
 10
149.4264581644435
 20
767.5147873744086
 11
149.4264581644435
 21
768.3981207077429
 72
     1
 10
149.4264581644435
 20
768.3981207077429
 11
150.4122372571431
 21
768.3981207077429
 97
       12
330
19E
330
19D
330
19C
330
184
330
185
330
19B
330
186
330
19A
330
199
330
198
330
182
330
183
 75
     1
 76
     0
 52
44.99999999999998
 41
0.1
 77
     0
 78
     1
 53
44.99999999999998
 43
0.0
 44
0.0
 45
-0.0707106781186547
 46
0.0707106781186548
 79
     0
 98
        1
 10
0.0
 20
0.0
  0
ENDBLK
  5
76
330
74
100
AcDbEntity
  8
0
100
AcDbBlockEnd
  0
BLOCK
  5
7A
330
77
100
AcDbEntity
  8
0
100
AcDbBlockBegin
  2
A4I
 70
     0
 10
262.1971238392971
 20
752.248120707749
 30
0.0
  3
A4I
  1

  0
INSERT
  5
78
330
77
100
AcDbEntity
  8
1
100
AcDbBlockReference
  2
_punkt
 10
262.1971238392971
 20
757.2481207077491
 30
0.0
  0
INSERT
  5
79
330
77
100
AcDbEntity
  8
1
100
AcDbBlockReference
  2
_rahmen
 10
262.1971238392971
 20
752.248120707749
 30
0.0
  0
ENDBLK
  5
7B
330
77
100
AcDbEntity
  8
0
100
AcDbBlockEnd
  0
BLOCK
  5
14A
330
143
100
AcDbEntity
  8
0
100
AcDbBlockBegin
  2
*D16
 70
     1
 10
0.0
 20
0.0
 30
0.0
  3
*D16
  1

  0
LINE
  5
144
330
143
100
AcDbEntity
  8
1
  6
Continuous
 62
     2
100
AcDbLine
 10
111.0022489999813
 20
886.5599999999964
 30
0.0
 11
111.0022489999813
 21
925.4399999999964
 31
0.0
  0
LINE
  5
145
330
143
100
AcDbEntity
  8
1
  6
Continuous
 62
     2
100
AcDbLine
 10
100.5494148647727
 20
886.5599999999964
 30
0.0
 11
113.0022489999813
 21
886.5599999999964
 31
0.0
  0
LINE
  5
146
330
143
100
AcDbEntity
  8
1
  6
Continuous
 62
     2
100
AcDbLine
 10
100.5494148647727
 20
925.4399999999964
 30
0.0
 11
113.0022489999813
 21
925.4399999999964
 31
0.0
  0
SOLID
  5
147
330
143
100
AcDbEntity
  8
1
 62
     2
100
AcDbTrace
 10
110.5414652584254
 20
890.0599999999964
 30
0.0
 11
111.4630327415372
 21
890.0599999999964
 31
0.0
 12
111.0022489999813
 22
886.5599999999964
 32
0.0
 13
111.0022489999813
 23
886.5599999999964
 33
0.0
  0
SOLID
  5
148
330
143
100
AcDbEntity
  8
1
 62
     2
100
AcDbTrace
 10
111.4630327415372
 20
921.9399999999964
 30
0.0
 11
110.5414652584254
 21
921.9399999999964
 31
0.0
 12
111.0022489999813
 22
925.4399999999964
 32
0.0
 13
111.0022489999813
 23
925.4399999999964
 33
0.0
  0
MTEXT
  5
149
330
143
100
AcDbEntity
  8
1
 62
     3
100
AcDbMText
 10
108.6522489999813
 20
898.6674999999964
 30
0.0
 40
3.5
 41
0.0
 71
     7
 72
     1
  1
\C3;\U+00f8\C3;38,88
  7
CONVERTER_11
 11
0.0
 21
1.0
 31
0.0
 73
     1
 44
0.60024009603842
  0
ENDBLK
  5
14B
330
143
100
AcDbEntity
  8
0
100
AcDbBlockEnd
  0
BLOCK
  5
155
330
14E
100
AcDbEntity
  8
0
100
AcDbBlockBegin
  2
*D17
 70
     1
 10
0.0
 20
0.0
 30
0.0
  3
*D17
  1

  0
LINE
  5
14F
330
14E
100
AcDbEntity
  8
1
  6
Continuous
 62
     2
100
AcDbLine
 10
101.0022489999813
 20
876.5599999999964
 30
0.0
 11
77.0022489999813
 21
876.5599999999964
 31
0.0
  0
LINE
  5
150
330
14E
100
AcDbEntity
  8
1
  6
Continuous
 62
     2
100
AcDbLine
 10
101.0022489999813
 20
888.2499999999964
 30
0.0
 11
101.0022489999813
 21
874.5599999999964
 31
0.0
  0
LINE
  5
151
330
14E
100
AcDbEntity
  8
1
  6
Continuous
 62
     2
100
AcDbLine
 10
77.0022489999813
 20
889.9999999999964
 30
0.0
 11
77.0022489999813
 21
874.5599999999964
 31
0.0
  0
SOLID
  5
152
330
14E
100
AcDbEntity
  8
1
 62
     2
100
AcDbTrace
 10
97.5022489999813
 20
876.0992162584405
 30
0.0
 11
97.5022489999813
 21
877.0207837415523
 31
0.0
 12
101.0022489999813
 22
876.5599999999964
 32
0.0
 13
101.0022489999813
 23
876.5599999999964
 33
0.0
  0
SOLID
  5
153
330
14E
100
AcDbEntity
  8
1
 62
     2
100
AcDbTrace
 10
80.5022489999813
 20
877.0207837415523
 30
0.0
 11
80.5022489999813
 21
876.0992162584405
 31
0.0
 12
77.0022489999813
 22
876.5599999999964
 32
0.0
 13
77.0022489999813
 23
876.5599999999964
 33
0.0
  0
MTEXT
  5
154
330
14E
100
AcDbEntity
  8
1
 62
     3
100
AcDbMText
 10
86.3772489999813
 20
878.5599999999964
 30
0.0
 40
3.5
 41
0.0
 71
     7
 72
     1
  1
24
  7
CONVERTER_11
 11
0.9999999999970619
 21
2.424068405545306E-6
 31
0.0
 73
     1
 44
0.60024009603842
  0
ENDBLK
  5
156
330
14E
100
AcDbEntity
  8
0
100
AcDbBlockEnd
  0
ENDSEC
  0
SECTION
  2
ENTITIES
  0
INSERT
  5
7C
330
1F
100
AcDbEntity
  8
0
100
AcDbBlockReference
  2
Allg1
 10
219.8068822202169
 20
822.0952299999959
 30
0.0
  0
INSERT
  5
7D
330
1F
100
AcDbEntity
  8
0
100
AcDbBlockReference
  2
Drfsicht1
 10
89.02835699999
 20
832.2000012370606
 30
0.0
  0
INSERT
  5
7E
330
1F
100
AcDbEntity
  8
0
100
AcDbBlockReference
  2
Rckans1
 10
222.99775100002
 20
905.9999999999964
 30
0.0
  0
INSERT
  5
7F
330
1F
100
AcDbEntity
  8
0
100
AcDbBlockReference
  2
SA_Links1
 10
156.0
 20
906.0
 30
0.0
  0
INSERT
  5
80
330
1F
100
AcDbEntity
  8
0
100
AcDbBlockReference
  2
SA_Rechts1
 10
26.9999999999899
 20
905.9999999999964
 30
0.0
  0
INSERT
  5
81
330
1F
100
AcDbEntity
  8
0
100
AcDbBlockReference
  2
Vordans1
 10
89.00224899999131
 20
905.9999999999964
 30
0.0
  0
INSERT
  5
82
330
1F
100
AcDbEntity
  8
0
100
AcDbBlockReference
  2
A4I
 10
262.1971238392971
 20
752.248120707749
 30
0.0
  0
ENDSEC
  0
SECTION
  2
OBJECTS
  0
DICTIONARY
  5
C
330
0
100
AcDbDictionary
281
     1
  3
ACAD_GROUP
350
D
  3
ACAD_LAYOUT
350
1A
  3
ACAD_MATERIAL
350
3B
  3
ACAD_MLEADERSTYLE
350
357
  3
ACAD_MLINESTYLE
350
17
  3
ACAD_PLOTSETTINGS
350
19
  3
ACAD_PLOTSTYLENAME
350
E
  3
ACAD_VISUALSTYLE
350
2A
  3
AcDbVariableDictionary
350
355
  0
DICTIONARY
  5
D
102
{ACAD_REACTORS
330
C
102
}
330
C
100
AcDbDictionary
281
     1
  0
DICTIONARY
  5
1A
102
{ACAD_REACTORS
330
C
102
}
330
C
100
AcDbDictionary
281
     1
  3
Layout1
350
1E
  3
Layout2
350
26
  3
Model
350
22
  0
DICTIONARY
  5
3B
102
{ACAD_REACTORS
330
C
102
}
330
C
100
AcDbDictionary
281
     1
  3
ByBlock
350
3D
  3
ByLayer
350
3C
  3
Global
350
3E
  0
DICTIONARY
  5
357
102
{ACAD_REACTORS
330
C
102
}
330
C
100
AcDbDictionary
281
     1
  0
DICTIONARY
  5
17
102
{ACAD_REACTORS
330
C
102
}
330
C
100
AcDbDictionary
281
     1
  3
Standard
350
18
  0
DICTIONARY
  5
19
102
{ACAD_REACTORS
330
C
102
}
330
C
100
AcDbDictionary
281
     1
  0
ACDBDICTIONARYWDFLT
  5
E
102
{ACAD_REACTORS
330
C
102
}
330
C
100
AcDbDictionary
281
     1
  3
Normal
350
F
100
AcDbDictionaryWithDefault
340
F
  0
DICTIONARY
  5
2A
102
{ACAD_REACTORS
330
C
102
}
330
C
100
AcDbDictionary
281
     1
  3
2dWireframe
350
2F
  3
3D Hidden
350
31
  3
3dWireframe
350
30
  3
Basic
350
32
  3
Brighten
350
36
  3
ColorChange
350
3A
  3
Conceptual
350
34
  3
Dim
350
35
  3
Facepattern
350
39
  3
Flat
350
2B
  3
FlatWithEdges
350
2C
  3
Gouraud
350
2D
  3
GouraudWithEdges
350
2E
  3
Linepattern
350
38
  3
Realistic
350
33
  3
Thicken
350
37
  0
DICTIONARY
  5
355
102
{ACAD_REACTORS
330
C
102
}
330
C
100
AcDbDictionary
281
     1
  3
DIMASSOC
350
358
  3
HIDETEXT
350
359
  0
LAYOUT
  5
1E
102
{ACAD_REACTORS
330
1A
102
}
330
1A
100
AcDbPlotSettings
  1

  2
none_device
  4

  6

 40
0.0
 41
0.0
 42
0.0
 43
0.0
 44
0.0
 45
0.0
 46
0.0
 47
0.0
 48
0.0
 49
0.0
140
0.0
141
0.0
142
1.0
143
1.0
 70
   688
 72
     0
 73
     0
 74
     5
  7

 75
    16
147
1.0
148
0.0
149
0.0
100
AcDbLayout
  1
Layout1
 70
     1
 71
     1
 10
0.0
 20
0.0
 11
12.0
 21
9.0
 12
0.0
 22
0.0
 32
0.0
 14
1.00000000000000E+20
 24
1.00000000000000E+20
 34
1.00000000000000E+20
 15
-1.00000000000000E+20
 25
-1.00000000000000E+20
 35
-1.00000000000000E+20
146
0.0
 13
0.0
 23
0.0
 33
0.0
 16
1.0
 26
0.0
 36
0.0
 17
0.0
 27
1.0
 37
0.0
 76
     0
330
1B
  0
LAYOUT
  5
26
102
{ACAD_REACTORS
330
1A
102
}
330
1A
100
AcDbPlotSettings
  1

  2
none_device
  4

  6

 40
0.0
 41
0.0
 42
0.0
 43
0.0
 44
0.0
 45
0.0
 46
0.0
 47
0.0
 48
0.0
 49
0.0
140
0.0
141
0.0
142
1.0
143
1.0
 70
   688
 72
     0
 73
     0
 74
     5
  7

 75
    16
147
1.0
148
0.0
149
0.0
100
AcDbLayout
  1
Layout2
 70
     1
 71
     2
 10
0.0
 20
0.0
 11
0.0
 21
0.0
 12
0.0
 22
0.0
 32
0.0
 14
0.0
 24
0.0
 34
0.0
 15
0.0
 25
0.0
 35
0.0
146
0.0
 13
0.0
 23
0.0
 33
0.0
 16
1.0
 26
0.0
 36
0.0
 17
0.0
 27
1.0
 37
0.0
 76
     0
330
23
  0
LAYOUT
  5
22
102
{ACAD_REACTORS
330
1A
102
}
330
1A
100
AcDbPlotSettings
  1

  2
none_device
  4

  6

 40
0.0
 41
0.0
 42
0.0
 43
0.0
 44
0.0
 45
0.0
 46
0.0
 47
0.0
 48
0.0
 49
0.0
140
0.0
141
0.0
142
1.0
143
1.0
 70
  1712
 72
     0
 73
     0
 74
     0
  7

 75
     0
147
1.0
148
0.0
149
0.0
100
AcDbLayout
  1
Model
 70
     1
 71
     0
 10
0.0
 20
0.0
 11
12.0
 21
9.0
 12
0.0
 22
0.0
 32
0.0
 14
-29.80287616070203
 24
752.248120707749
 34
0.0
 15
267.1971238392961
 25
962.248120707749
 35
0.0
146
0.0
 13
0.0
 23
0.0
 33
0.0
 16
1.0
 26
0.0
 36
0.0
 17
0.0
 27
1.0
 37
0.0
 76
     0
330
1F
331
29
  0
MATERIAL
  5
3D
102
{ACAD_REACTORS
330
3B
102
}
102
{ACAD_XDICTIONARY
360
37C
102
}
330
3B
100
AcDbMaterial
  1
ByBlock
  0
MATERIAL
  5
3C
102
{ACAD_REACTORS
330
3B
102
}
102
{ACAD_XDICTIONARY
360
37A
102
}
330
3B
100
AcDbMaterial
  1
ByLayer
  0
MATERIAL
  5
3E
102
{ACAD_REACTORS
330
3B
102
}
102
{ACAD_XDICTIONARY
360
37E
102
}
330
3B
100
AcDbMaterial
  1
Global
  0
MLINESTYLE
  5
18
102
{ACAD_REACTORS
330
17
102
}
330
17
100
AcDbMlineStyle
  2
Standard
 70
     0
  3

 62
   256
 51
90.0
 52
90.0
 71
     2
 49
0.5
 62
   256
  6
BYLAYER
 49
-0.5
 62
   256
  6
BYLAYER
  0
ACDBPLACEHOLDER
  5
F
102
{ACAD_REACTORS
330
E
102
}
330
E
  0
VISUALSTYLE
  5
2F
102
{ACAD_REACTORS
330
2A
102
}
102
{ACAD_XDICTIONARY
360
362
102
}
330
2A
100
AcDbVisualStyle
  2
2dWireframe
 70
     4
 71
     0
 72
     2
 73
     0
 90
        0
 40
-0.6
 41
-30.0
 62
     5
 63
     7
 74
     1
 91
        4
 64
     7
 65
   257
 75
     1
175
     1
 42
1.0
 92
        0
 66
   257
 43
1.0
 76
     1
 77
     6
 78
     2
 67
     7
 79
     5
170
     0
171
     0
290
     0
174
     0
 93
        1
 44
0.0
173
     0
291
     0
 45
0.0
1001
ACAD
1000
AcDbSavedByObjectVersion
1070
     0
  0
VISUALSTYLE
  5
31
102
{ACAD_REACTORS
330
2A
102
}
102
{ACAD_XDICTIONARY
360
366
102
}
330
2A
100
AcDbVisualStyle
  2
3D Hidden
 70
     6
 71
     1
 72
     2
 73
     2
 90
        0
 40
-0.6
 41
-30.0
 62
     5
 63
     7
 74
     2
 91
        2
 64
     7
 65
   257
 75
     2
175
     1
 42
40.0
 92
        0
 66
   257
 43
1.0
 76
     1
 77
     6
 78
     2
 67
     7
 79
     3
170
     0
171
     0
290
     0
174
     0
 93
        1
 44
0.0
173
     0
291
     0
 45
0.0
1001
ACAD
1000
AcDbSavedByObjectVersion
1070
     0
  0
VISUALSTYLE
  5
30
102
{ACAD_REACTORS
330
2A
102
}
102
{ACAD_XDICTIONARY
360
364
102
}
330
2A
100
AcDbVisualStyle
  2
3dWireframe
 70
     5
 71
     0
 72
     2
 73
     0
 90
        0
 40
-0.6
 41
-30.0
 62
     5
 63
     7
 74
     1
 91
        4
 64
     7
 65
   257
 75
     1
175
     1
 42
1.0
 92
        0
 66
   257
 43
1.0
 76
     1
 77
     6
 78
     2
 67
     7
 79
     5
170
     0
171
     0
290
     0
174
     0
 93
        1
 44
0.0
173
     0
291
     0
 45
0.0
1001
ACAD
1000
AcDbSavedByObjectVersion
1070
     0
  0
VISUALSTYLE
  5
32
102
{ACAD_REACTORS
330
2A
102
}
102
{ACAD_XDICTIONARY
360
368
102
}
330
2A
100
AcDbVisualStyle
  2
Basic
 70
     7
 71
     1
 72
     0
 73
     1
 90
        0
 40
-0.6
 41
-30.0
 62
     5
 63
     7
 74
     0
 91
        4
 64
     7
 65
   257
 75
     1
175
     1
 42
1.0
 92
        8
 66
     7
 43
1.0
 76
     1
 77
     6
 78
     2
 67
     7
 79
     5
170
     0
171
     0
290
     0
174
     0
 93
        1
 44
0.0
173
     0
291
     1
 45
0.0
1001
ACAD
1000
AcDbSavedByObjectVersion
1070
     0
  0
VISUALSTYLE
  5
36
102
{ACAD_REACTORS
330
2A
102
}
102
{ACAD_XDICTIONARY
360
370
102
}
330
2A
100
AcDbVisualStyle
  2
Brighten
 70
    12
 71
     2
 72
     2
 73
     0
 90
        0
 40
-0.6
 41
-30.0
 62
     5
 63
     7
 74
     1
 91
        4
 64
     7
 65
   257
 75
     1
175
     1
 42
1.0
 92
        8
 66
     7
 43
1.0
 76
     1
 77
     6
 78
     2
 67
     7
 79
     5
170
     0
171
     0
290
     0
174
     0
 93
        1
 44
50.0
173
     0
291
     1
 45
0.0
1001
ACAD
1000
AcDbSavedByObjectVersion
1070
     0
  0
VISUALSTYLE
  5
3A
102
{ACAD_REACTORS
330
2A
102
}
102
{ACAD_XDICTIONARY
360
378
102
}
330
2A
100
AcDbVisualStyle
  2
ColorChange
 70
    16
 71
     2
 72
     2
 73
     3
 90
        0
 40
-0.6
 41
-30.0
 62
     5
 63
     8
 74
     1
 91
        4
 64
     7
 65
   257
 75
     1
175
     1
 42
1.0
 92
        8
 66
     8
 43
1.0
 76
     1
 77
     6
 78
     2
 67
     7
 79
     5
170
     0
171
     0
290
     0
174
     0
 93
        1
 44
0.0
173
     0
291
     1
 45
0.0
1001
ACAD
1000
AcDbSavedByObjectVersion
1070
     0
  0
VISUALSTYLE
  5
34
102
{ACAD_REACTORS
330
2A
102
}
102
{ACAD_XDICTIONARY
360
36C
102
}
330
2A
100
AcDbVisualStyle
  2
Conceptual
 70
     9
 71
     3
 72
     2
 73
     0
 90
        0
 40
-0.6
 41
-30.0
 62
     5
 63
     7
 74
     2
 91
        2
 64
     7
 65
   257
 75
     1
175
     1
 42
40.0
 92
        8
 66
     7
 43
1.0
 76
     1
 77
     6
 78
     2
 67
     7
 79
     3
170
     0
171
     0
290
     0
174
     0
 93
        1
 44
0.0
173
     0
291
     0
 45
0.0
1001
ACAD
1000
AcDbSavedByObjectVersion
1070
     0
  0
VISUALSTYLE
  5
35
102
{ACAD_REACTORS
330
2A
102
}
102
{ACAD_XDICTIONARY
360
36E
102
}
330
2A
100
AcDbVisualStyle
  2
Dim
 70
    11
 71
     2
 72
     2
 73
     0
 90
        0
 40
-0.6
 41
-30.0
 62
     5
 63
     7
 74
     1
 91
        4
 64
     7
 65
   257
 75
     1
175
     1
 42
1.0
 92
        8
 66
     7
 43
1.0
 76
     1
 77
     6
 78
     2
 67
     7
 79
     5
170
     0
171
     0
290
     0
174
     0
 93
        1
 44
-50.0
173
     0
291
     1
 45
0.0
1001
ACAD
1000
AcDbSavedByObjectVersion
1070
     0
  0
VISUALSTYLE
  5
39
102
{ACAD_REACTORS
330
2A
102
}
102
{ACAD_XDICTIONARY
360
376
102
}
330
2A
100
AcDbVisualStyle
  2
Facepattern
 70
    15
 71
     2
 72
     2
 73
     0
 90
        0
 40
-0.6
 41
-30.0
 62
     5
 63
     7
 74
     1
 91
        4
 64
     7
 65
   257
 75
     1
175
     1
 42
1.0
 92
        8
 66
     7
 43
1.0
 76
     1
 77
     6
 78
     2
 67
     7
 79
     5
170
     0
171
     0
290
     0
174
     0
 93
        1
 44
0.0
173
     0
291
     1
 45
0.0
1001
ACAD
1000
AcDbSavedByObjectVersion
1070
     0
  0
VISUALSTYLE
  5
2B
102
{ACAD_REACTORS
330
2A
102
}
102
{ACAD_XDICTIONARY
360
35A
102
}
330
2A
100
AcDbVisualStyle
  2
Flat
 70
     0
 71
     2
 72
     1
 73
     1
 90
        2
 40
-0.6
 41
30.0
 62
     5
 63
     7
 74
     0
 91
        4
 64
     7
 65
   257
 75
     1
175
     1
 42
1.0
 92
        8
 66
     7
 43
1.0
 76
     1
 77
     6
 78
     2
 67
     7
 79
     5
170
     0
171
     0
290
     0
174
     0
 93
       13
 44
0.0
173
     0
291
     1
 45
0.0
1001
ACAD
1000
AcDbSavedByObjectVersion
1070
     0
  0
VISUALSTYLE
  5
2C
102
{ACAD_REACTORS
330
2A
102
}
102
{ACAD_XDICTIONARY
360
35C
102
}
330
2A
100
AcDbVisualStyle
  2
FlatWithEdges
 70
     1
 71
     2
 72
     1
 73
     1
 90
        2
 40
-0.6
 41
30.0
 62
     5
 63
     7
 74
     1
 91
        4
 64
     7
 65
   257
 75
     1
175
     1
 42
1.0
 92
        0
 66
   257
 43
1.0
 76
     1
 77
     6
 78
     2
 67
     7
 79
     5
170
     0
171
     0
290
     0
174
     0
 93
       13
 44
0.0
173
     0
291
     1
 45
0.0
1001
ACAD
1000
AcDbSavedByObjectVersion
1070
     0
  0
VISUALSTYLE
  5
2D
102
{ACAD_REACTORS
330
2A
102
}
102
{ACAD_XDICTIONARY
360
35E
102
}
330
2A
100
AcDbVisualStyle
  2
Gouraud
 70
     2
 71
     2
 72
     2
 73
     1
 90
        2
 40
-0.6
 41
30.0
 62
     5
 63
     7
 74
     0
 91
        4
 64
     7
 65
   257
 75
     1
175
     1
 42
1.0
 92
        0
 66
     7
 43
1.0
 76
     1
 77
     6
 78
     2
 67
     7
 79
     5
170
     0
171
     0
290
     0
174
     0
 93
       13
 44
0.0
173
     0
291
     1
 45
0.0
1001
ACAD
1000
AcDbSavedByObjectVersion
1070
     0
  0
VISUALSTYLE
  5
2E
102
{ACAD_REACTORS
330
2A
102
}
102
{ACAD_XDICTIONARY
360
360
102
}
330
2A
100
AcDbVisualStyle
  2
GouraudWithEdges
 70
     3
 71
     2
 72
     2
 73
     1
 90
        2
 40
-0.6
 41
30.0
 62
     5
 63
     7
 74
     1
 91
        4
 64
     7
 65
   257
 75
     1
175
     1
 42
1.0
 92
        0
 66
   257
 43
1.0
 76
     1
 77
     6
 78
     2
 67
     7
 79
     5
170
     0
171
     0
290
     0
174
     0
 93
       13
 44
0.0
173
     0
291
     1
 45
0.0
1001
ACAD
1000
AcDbSavedByObjectVersion
1070
     0
  0
VISUALSTYLE
  5
38
102
{ACAD_REACTORS
330
2A
102
}
102
{ACAD_XDICTIONARY
360
374
102
}
330
2A
100
AcDbVisualStyle
  2
Linepattern
 70
    14
 71
     2
 72
     2
 73
     0
 90
        0
 40
-0.6
 41
-30.0
 62
     5
 63
     7
 74
     1
 91
        4
 64
     7
 65
   257
 75
     7
175
     7
 42
1.0
 92
        8
 66
     7
 43
1.0
 76
     1
 77
     6
 78
     2
 67
     7
 79
     5
170
     0
171
     0
290
     0
174
     0
 93
        1
 44
0.0
173
     0
291
     1
 45
0.0
1001
ACAD
1000
AcDbSavedByObjectVersion
1070
     0
  0
VISUALSTYLE
  5
33
102
{ACAD_REACTORS
330
2A
102
}
102
{ACAD_XDICTIONARY
360
36A
102
}
330
2A
100
AcDbVisualStyle
  2
Realistic
 70
     8
 71
     2
 72
     2
 73
     0
 90
        0
 40
-0.6
 41
-30.0
 62
     5
 63
     7
 74
     1
 91
        0
 64
     7
 65
   257
 75
     1
175
     1
 42
1.0
 92
        8
 66
     8
 43
1.0
 76
     1
 77
     6
 78
     2
 67
     7
 79
     5
170
     0
171
     0
290
     0
174
     0
 93
       13
 44
0.0
173
     0
291
     0
 45
0.0
1001
ACAD
1000
AcDbSavedByObjectVersion
1070
     0
  0
VISUALSTYLE
  5
37
102
{ACAD_REACTORS
330
2A
102
}
102
{ACAD_XDICTIONARY
360
372
102
}
330
2A
100
AcDbVisualStyle
  2
Thicken
 70
    13
 71
     2
 72
     2
 73
     0
 90
        0
 40
-0.6
 41
-30.0
 62
     5
 63
     7
 74
     1
 91
        4
 64
     7
 65
   257
 75
     1
175
     1
 42
1.0
 92
       12
 66
     7
 43
1.0
 76
     1
 77
     6
 78
     2
 67
     7
 79
     5
170
     0
171
     0
290
     0
174
     0
 93
        1
 44
0.0
173
     0
291
     1
 45
0.0
1001
ACAD
1000
AcDbSavedByObjectVersion
1070
     0
  0
DICTIONARYVAR
  5
358
102
{ACAD_REACTORS
330
355
102
}
330
355
100
DictionaryVariables
280
     0
  1
2
  0
DICTIONARYVAR
  5
359
102
{ACAD_REACTORS
330
355
102
}
330
355
100
DictionaryVariables
280
     0
  1
1
  0
DICTIONARY
  5
37C
330
3D
100
AcDbDictionary
280
     1
281
     1
  3
ACAD_XREC_ROUNDTRIP
360
37D
  0
DICTIONARY
  5
37A
330
3C
100
AcDbDictionary
280
     1
281
     1
  3
ACAD_XREC_ROUNDTRIP
360
37B
  0
DICTIONARY
  5
37E
330
3E
100
AcDbDictionary
280
     1
281
     1
  3
ACAD_XREC_ROUNDTRIP
360
37F
  0
DICTIONARY
  5
362
330
2F
100
AcDbDictionary
280
     1
281
     1
  3
ACAD_XREC_ROUNDTRIP
360
363
  0
DICTIONARY
  5
366
330
31
100
AcDbDictionary
280
     1
281
     1
  3
ACAD_XREC_ROUNDTRIP
360
367
  0
DICTIONARY
  5
364
330
30
100
AcDbDictionary
280
     1
281
     1
  3
ACAD_XREC_ROUNDTRIP
360
365
  0
DICTIONARY
  5
368
330
32
100
AcDbDictionary
280
     1
281
     1
  3
ACAD_XREC_ROUNDTRIP
360
369
  0
DICTIONARY
  5
370
330
36
100
AcDbDictionary
280
     1
281
     1
  3
ACAD_XREC_ROUNDTRIP
360
371
  0
DICTIONARY
  5
378
330
3A
100
AcDbDictionary
280
     1
281
     1
  3
ACAD_XREC_ROUNDTRIP
360
379
  0
DICTIONARY
  5
36C
330
34
100
AcDbDictionary
280
     1
281
     1
  3
ACAD_XREC_ROUNDTRIP
360
36D
  0
DICTIONARY
  5
36E
330
35
100
AcDbDictionary
280
     1
281
     1
  3
ACAD_XREC_ROUNDTRIP
360
36F
  0
DICTIONARY
  5
376
330
39
100
AcDbDictionary
280
     1
281
     1
  3
ACAD_XREC_ROUNDTRIP
360
377
  0
DICTIONARY
  5
35A
330
2B
100
AcDbDictionary
280
     1
281
     1
  3
ACAD_XREC_ROUNDTRIP
360
35B
  0
DICTIONARY
  5
35C
330
2C
100
AcDbDictionary
280
     1
281
     1
  3
ACAD_XREC_ROUNDTRIP
360
35D
  0
DICTIONARY
  5
35E
330
2D
100
AcDbDictionary
280
     1
281
     1
  3
ACAD_XREC_ROUNDTRIP
360
35F
  0
DICTIONARY
  5
360
330
2E
100
AcDbDictionary
280
     1
281
     1
  3
ACAD_XREC_ROUNDTRIP
360
361
  0
DICTIONARY
  5
374
330
38
100
AcDbDictionary
280
     1
281
     1
  3
ACAD_XREC_ROUNDTRIP
360
375
  0
DICTIONARY
  5
36A
330
33
100
AcDbDictionary
280
     1
281
     1
  3
ACAD_XREC_ROUNDTRIP
360
36B
  0
DICTIONARY
  5
372
330
37
100
AcDbDictionary
280
     1
281
     1
  3
ACAD_XREC_ROUNDTRIP
360
373
  0
XRECORD
  5
37D
102
{ACAD_REACTORS
330
37C
102
}
330
37C
100
AcDbXrecord
280
     1
102
MATERIAL
148
0.0
149
0.0
149
0.0
 93
        0
 94
      127
282
     0
 72
     1
 77
     1
171
     1
175
     1
179
     1
273
     0
  0
XRECORD
  5
37B
102
{ACAD_REACTORS
330
37A
102
}
330
37A
100
AcDbXrecord
280
     1
102
MATERIAL
148
0.0
149
0.0
149
0.0
 93
        0
 94
      127
282
     0
 72
     1
 77
     1
171
     1
175
     1
179
     1
273
     0
  0
XRECORD
  5
37F
102
{ACAD_REACTORS
330
37E
102
}
330
37E
100
AcDbXrecord
280
     1
102
MATERIAL
148
0.0
149
0.0
149
0.0
 93
        0
 94
      127
282
     0
 72
     1
 77
     1
171
     1
175
     1
179
     1
273
     0
  0
XRECORD
  5
363
102
{ACAD_REACTORS
330
362
102
}
330
362
100
AcDbXrecord
280
     1
102
RTVSPropertyOp0
 70
     1
102
RTVSPropertyOp1
 70
     1
102
RTVSPropertyOp2
 70
     1
102
RTVSPropertyOp3
 70
     1
102
RTVSPropertyOp4
 70
     1
102
RTVSPropertyOp5
 70
     1
102
RTVSPropertyOp6
 70
     1
102
RTVSPropertyOp7
 70
     1
102
RTVSPropertyOp8
 70
     1
102
RTVSPropertyOp9
 70
     1
102
RTVSPropertyOp10
 70
     1
102
RTVSPropertyOp11
 70
     1
102
RTVSPropertyOp12
 70
     1
102
RTVSPropertyOp13
 70
     1
102
RTVSPropertyOp14
 70
     1
102
RTVSPropertyOp15
 70
     1
102
RTVSPropertyOp16
 70
     1
102
RTVSPropertyOp17
 70
     1
102
RTVSPropertyOp18
 70
     1
102
RTVSPropertyOp19
 70
     1
102
RTVSPropertyOp20
 70
     1
102
RTVSPropertyOp21
 70
     1
102
RTVSPropertyOp22
 70
     1
102
RTVSPropertyOp23
 70
     1
102
RTVSPropertyOp24
 70
     1
102
RTVSPropertyOp25
 70
     1
102
RTVSPropertyOp26
 70
     1
102
RTVSPropertyOp27
 70
     1
102
RTVSPropertyOp28
 70
     1
102
RTVSPropertyOp29
 70
     1
102
RTVSPropertyOp30
 70
     1
102
RTVSPropertyOp31
 70
     1
102
RTVSPropertyOp32
 70
     1
  0
XRECORD
  5
367
102
{ACAD_REACTORS
330
366
102
}
330
366
100
AcDbXrecord
280
     1
102
RTVSPropertyOp0
 70
     1
102
RTVSPropertyOp1
 70
     1
102
RTVSPropertyOp2
 70
     1
102
RTVSPropertyOp3
 70
     1
102
RTVSPropertyOp4
 70
     1
102
RTVSPropertyOp5
 70
     1
102
RTVSPropertyOp6
 70
     1
102
RTVSPropertyOp7
 70
     1
102
RTVSPropertyOp8
 70
     1
102
RTVSPropertyOp9
 70
     1
102
RTVSPropertyOp10
 70
     1
102
RTVSPropertyOp11
 70
     1
102
RTVSPropertyOp12
 70
     1
102
RTVSPropertyOp13
 70
     1
102
RTVSPropertyOp14
 70
     1
102
RTVSPropertyOp15
 70
     1
102
RTVSPropertyOp16
 70
     1
102
RTVSPropertyOp17
 70
     1
102
RTVSPropertyOp18
 70
     1
102
RTVSPropertyOp19
 70
     1
102
RTVSPropertyOp20
 70
     1
102
RTVSPropertyOp21
 70
     1
102
RTVSPropertyOp22
 70
     1
102
RTVSPropertyOp23
 70
     1
102
RTVSPropertyOp24
 70
     1
102
RTVSPropertyOp25
 70
     1
102
RTVSPropertyOp26
 70
     1
102
RTVSPropertyOp27
 70
     1
102
RTVSPropertyOp28
 70
     1
102
RTVSPropertyOp29
 70
     1
102
RTVSPropertyOp30
 70
     1
102
RTVSPropertyOp31
 70
     1
102
RTVSPropertyOp32
 70
     1
  0
XRECORD
  5
365
102
{ACAD_REACTORS
330
364
102
}
330
364
100
AcDbXrecord
280
     1
102
RTVSPropertyOp0
 70
     1
102
RTVSPropertyOp1
 70
     1
102
RTVSPropertyOp2
 70
     1
102
RTVSPropertyOp3
 70
     1
102
RTVSPropertyOp4
 70
     1
102
RTVSPropertyOp5
 70
     1
102
RTVSPropertyOp6
 70
     1
102
RTVSPropertyOp7
 70
     1
102
RTVSPropertyOp8
 70
     1
102
RTVSPropertyOp9
 70
     1
102
RTVSPropertyOp10
 70
     1
102
RTVSPropertyOp11
 70
     1
102
RTVSPropertyOp12
 70
     1
102
RTVSPropertyOp13
 70
     1
102
RTVSPropertyOp14
 70
     1
102
RTVSPropertyOp15
 70
     1
102
RTVSPropertyOp16
 70
     1
102
RTVSPropertyOp17
 70
     1
102
RTVSPropertyOp18
 70
     1
102
RTVSPropertyOp19
 70
     1
102
RTVSPropertyOp20
 70
     1
102
RTVSPropertyOp21
 70
     1
102
RTVSPropertyOp22
 70
     1
102
RTVSPropertyOp23
 70
     1
102
RTVSPropertyOp24
 70
     1
102
RTVSPropertyOp25
 70
     1
102
RTVSPropertyOp26
 70
     1
102
RTVSPropertyOp27
 70
     1
102
RTVSPropertyOp28
 70
     1
102
RTVSPropertyOp29
 70
     1
102
RTVSPropertyOp30
 70
     1
102
RTVSPropertyOp31
 70
     1
102
RTVSPropertyOp32
 70
     1
  0
XRECORD
  5
369
102
{ACAD_REACTORS
330
368
102
}
330
368
100
AcDbXrecord
280
     1
102
RTVSPropertyOp0
 70
     1
102
RTVSPropertyOp1
 70
     1
102
RTVSPropertyOp2
 70
     1
102
RTVSPropertyOp3
 70
     1
102
RTVSPropertyOp4
 70
     1
102
RTVSPropertyOp5
 70
     1
102
RTVSPropertyOp6
 70
     1
102
RTVSPropertyOp7
 70
     1
102
RTVSPropertyOp8
 70
     1
102
RTVSPropertyOp9
 70
     1
102
RTVSPropertyOp10
 70
     1
102
RTVSPropertyOp11
 70
     1
102
RTVSPropertyOp12
 70
     1
102
RTVSPropertyOp13
 70
     1
102
RTVSPropertyOp14
 70
     1
102
RTVSPropertyOp15
 70
     1
102
RTVSPropertyOp16
 70
     1
102
RTVSPropertyOp17
 70
     1
102
RTVSPropertyOp18
 70
     1
102
RTVSPropertyOp19
 70
     1
102
RTVSPropertyOp20
 70
     1
102
RTVSPropertyOp21
 70
     1
102
RTVSPropertyOp22
 70
     1
102
RTVSPropertyOp23
 70
     1
102
RTVSPropertyOp24
 70
     1
102
RTVSPropertyOp25
 70
     1
102
RTVSPropertyOp26
 70
     1
102
RTVSPropertyOp27
 70
     1
102
RTVSPropertyOp28
 70
     1
102
RTVSPropertyOp29
 70
     1
102
RTVSPropertyOp30
 70
     1
102
RTVSPropertyOp31
 70
     1
102
RTVSPropertyOp32
 70
     1
  0
XRECORD
  5
371
102
{ACAD_REACTORS
330
370
102
}
330
370
100
AcDbXrecord
280
     1
102
RTVSPropertyOp0
 70
     1
102
RTVSPropertyOp1
 70
     1
102
RTVSPropertyOp2
 70
     1
102
RTVSPropertyOp3
 70
     1
102
RTVSPropertyOp4
 70
     1
102
RTVSPropertyOp5
 70
     1
102
RTVSPropertyOp6
 70
     1
102
RTVSPropertyOp7
 70
     1
102
RTVSPropertyOp8
 70
     1
102
RTVSPropertyOp9
 70
     1
102
RTVSPropertyOp10
 70
     1
102
RTVSPropertyOp11
 70
     1
102
RTVSPropertyOp12
 70
     1
102
RTVSPropertyOp13
 70
     1
102
RTVSPropertyOp14
 70
     1
102
RTVSPropertyOp15
 70
     1
102
RTVSPropertyOp16
 70
     1
102
RTVSPropertyOp17
 70
     1
102
RTVSPropertyOp18
 70
     1
102
RTVSPropertyOp19
 70
     1
102
RTVSPropertyOp20
 70
     1
102
RTVSPropertyOp21
 70
     1
102
RTVSPropertyOp22
 70
     1
102
RTVSPropertyOp23
 70
     1
102
RTVSPropertyOp24
 70
     1
102
RTVSPropertyOp25
 70
     1
102
RTVSPropertyOp26
 70
     1
102
RTVSPropertyOp27
 70
     1
102
RTVSPropertyOp28
 70
     1
102
RTVSPropertyOp29
 70
     1
102
RTVSPropertyOp30
 70
     1
102
RTVSPropertyOp31
 70
     1
102
RTVSPropertyOp32
 70
     1
  0
XRECORD
  5
379
102
{ACAD_REACTORS
330
378
102
}
330
378
100
AcDbXrecord
280
     1
102
RTVSPropertyOp0
 70
     1
102
RTVSPropertyOp1
 70
     1
102
RTVSPropertyOp2
 70
     1
102
RTVSPropertyOp3
 70
     1
102
RTVSPropertyOp4
 70
     1
102
RTVSPropertyOp5
 70
     1
102
RTVSPropertyOp6
 70
     1
102
RTVSPropertyOp7
 70
     1
102
RTVSPropertyOp8
 70
     1
102
RTVSPropertyOp9
 70
     1
102
RTVSPropertyOp10
 70
     1
102
RTVSPropertyOp11
 70
     1
102
RTVSPropertyOp12
 70
     1
102
RTVSPropertyOp13
 70
     1
102
RTVSPropertyOp14
 70
     1
102
RTVSPropertyOp15
 70
     1
102
RTVSPropertyOp16
 70
     1
102
RTVSPropertyOp17
 70
     1
102
RTVSPropertyOp18
 70
     1
102
RTVSPropertyOp19
 70
     1
102
RTVSPropertyOp20
 70
     1
102
RTVSPropertyOp21
 70
     1
102
RTVSPropertyOp22
 70
     1
102
RTVSPropertyOp23
 70
     1
102
RTVSPropertyOp24
 70
     1
102
RTVSPropertyOp25
 70
     1
102
RTVSPropertyOp26
 70
     1
102
RTVSPropertyOp27
 70
     1
102
RTVSPropertyOp28
 70
     1
102
RTVSPropertyOp29
 70
     1
102
RTVSPropertyOp30
 70
     1
102
RTVSPropertyOp31
 70
     1
102
RTVSPropertyOp32
 70
     1
  0
XRECORD
  5
36D
102
{ACAD_REACTORS
330
36C
102
}
330
36C
100
AcDbXrecord
280
     1
102
RTVSPropertyOp0
 70
     1
102
RTVSPropertyOp1
 70
     1
102
RTVSPropertyOp2
 70
     1
102
RTVSPropertyOp3
 70
     1
102
RTVSPropertyOp4
 70
     1
102
RTVSPropertyOp5
 70
     1
102
RTVSPropertyOp6
 70
     1
102
RTVSPropertyOp7
 70
     1
102
RTVSPropertyOp8
 70
     1
102
RTVSPropertyOp9
 70
     1
102
RTVSPropertyOp10
 70
     1
102
RTVSPropertyOp11
 70
     1
102
RTVSPropertyOp12
 70
     1
102
RTVSPropertyOp13
 70
     1
102
RTVSPropertyOp14
 70
     1
102
RTVSPropertyOp15
 70
     1
102
RTVSPropertyOp16
 70
     1
102
RTVSPropertyOp17
 70
     1
102
RTVSPropertyOp18
 70
     1
102
RTVSPropertyOp19
 70
     1
102
RTVSPropertyOp20
 70
     1
102
RTVSPropertyOp21
 70
     1
102
RTVSPropertyOp22
 70
     1
102
RTVSPropertyOp23
 70
     1
102
RTVSPropertyOp24
 70
     1
102
RTVSPropertyOp25
 70
     1
102
RTVSPropertyOp26
 70
     1
102
RTVSPropertyOp27
 70
     1
102
RTVSPropertyOp28
 70
     1
102
RTVSPropertyOp29
 70
     1
102
RTVSPropertyOp30
 70
     1
102
RTVSPropertyOp31
 70
     1
102
RTVSPropertyOp32
 70
     1
  0
XRECORD
  5
36F
102
{ACAD_REACTORS
330
36E
102
}
330
36E
100
AcDbXrecord
280
     1
102
RTVSPropertyOp0
 70
     1
102
RTVSPropertyOp1
 70
     1
102
RTVSPropertyOp2
 70
     1
102
RTVSPropertyOp3
 70
     1
102
RTVSPropertyOp4
 70
     1
102
RTVSPropertyOp5
 70
     1
102
RTVSPropertyOp6
 70
     1
102
RTVSPropertyOp7
 70
     1
102
RTVSPropertyOp8
 70
     1
102
RTVSPropertyOp9
 70
     1
102
RTVSPropertyOp10
 70
     1
102
RTVSPropertyOp11
 70
     1
102
RTVSPropertyOp12
 70
     1
102
RTVSPropertyOp13
 70
     1
102
RTVSPropertyOp14
 70
     1
102
RTVSPropertyOp15
 70
     1
102
RTVSPropertyOp16
 70
     1
102
RTVSPropertyOp17
 70
     1
102
RTVSPropertyOp18
 70
     1
102
RTVSPropertyOp19
 70
     1
102
RTVSPropertyOp20
 70
     1
102
RTVSPropertyOp21
 70
     1
102
RTVSPropertyOp22
 70
     1
102
RTVSPropertyOp23
 70
     1
102
RTVSPropertyOp24
 70
     1
102
RTVSPropertyOp25
 70
     1
102
RTVSPropertyOp26
 70
     1
102
RTVSPropertyOp27
 70
     1
102
RTVSPropertyOp28
 70
     1
102
RTVSPropertyOp29
 70
     1
102
RTVSPropertyOp30
 70
     1
102
RTVSPropertyOp31
 70
     1
102
RTVSPropertyOp32
 70
     1
  0
XRECORD
  5
377
102
{ACAD_REACTORS
330
376
102
}
330
376
100
AcDbXrecord
280
     1
102
RTVSPropertyOp0
 70
     1
102
RTVSPropertyOp1
 70
     1
102
RTVSPropertyOp2
 70
     1
102
RTVSPropertyOp3
 70
     1
102
RTVSPropertyOp4
 70
     1
102
RTVSPropertyOp5
 70
     1
102
RTVSPropertyOp6
 70
     1
102
RTVSPropertyOp7
 70
     1
102
RTVSPropertyOp8
 70
     1
102
RTVSPropertyOp9
 70
     1
102
RTVSPropertyOp10
 70
     1
102
RTVSPropertyOp11
 70
     1
102
RTVSPropertyOp12
 70
     1
102
RTVSPropertyOp13
 70
     1
102
RTVSPropertyOp14
 70
     1
102
RTVSPropertyOp15
 70
     1
102
RTVSPropertyOp16
 70
     1
102
RTVSPropertyOp17
 70
     1
102
RTVSPropertyOp18
 70
     1
102
RTVSPropertyOp19
 70
     1
102
RTVSPropertyOp20
 70
     1
102
RTVSPropertyOp21
 70
     1
102
RTVSPropertyOp22
 70
     1
102
RTVSPropertyOp23
 70
     1
102
RTVSPropertyOp24
 70
     1
102
RTVSPropertyOp25
 70
     1
102
RTVSPropertyOp26
 70
     1
102
RTVSPropertyOp27
 70
     1
102
RTVSPropertyOp28
 70
     1
102
RTVSPropertyOp29
 70
     1
102
RTVSPropertyOp30
 70
     1
102
RTVSPropertyOp31
 70
     1
102
RTVSPropertyOp32
 70
     1
  0
XRECORD
  5
35B
102
{ACAD_REACTORS
330
35A
102
}
330
35A
100
AcDbXrecord
280
     1
102
RTVSPropertyOp0
 70
     1
102
RTVSPropertyOp1
 70
     1
102
RTVSPropertyOp2
 70
     1
102
RTVSPropertyOp3
 70
     1
102
RTVSPropertyOp4
 70
     1
102
RTVSPropertyOp5
 70
     1
102
RTVSPropertyOp6
 70
     1
102
RTVSPropertyOp7
 70
     1
102
RTVSPropertyOp8
 70
     1
102
RTVSPropertyOp9
 70
     1
102
RTVSPropertyOp10
 70
     1
102
RTVSPropertyOp11
 70
     1
102
RTVSPropertyOp12
 70
     1
102
RTVSPropertyOp13
 70
     1
102
RTVSPropertyOp14
 70
     1
102
RTVSPropertyOp15
 70
     1
102
RTVSPropertyOp16
 70
     1
102
RTVSPropertyOp17
 70
     1
102
RTVSPropertyOp18
 70
     1
102
RTVSPropertyOp19
 70
     1
102
RTVSPropertyOp20
 70
     1
102
RTVSPropertyOp21
 70
     1
102
RTVSPropertyOp22
 70
     1
102
RTVSPropertyOp23
 70
     1
102
RTVSPropertyOp24
 70
     1
102
RTVSPropertyOp25
 70
     1
102
RTVSPropertyOp26
 70
     1
102
RTVSPropertyOp27
 70
     1
102
RTVSPropertyOp28
 70
     1
102
RTVSPropertyOp29
 70
     1
102
RTVSPropertyOp30
 70
     1
102
RTVSPropertyOp31
 70
     1
102
RTVSPropertyOp32
 70
     1
  0
XRECORD
  5
35D
102
{ACAD_REACTORS
330
35C
102
}
330
35C
100
AcDbXrecord
280
     1
102
RTVSPropertyOp0
 70
     1
102
RTVSPropertyOp1
 70
     1
102
RTVSPropertyOp2
 70
     1
102
RTVSPropertyOp3
 70
     1
102
RTVSPropertyOp4
 70
     1
102
RTVSPropertyOp5
 70
     1
102
RTVSPropertyOp6
 70
     1
102
RTVSPropertyOp7
 70
     1
102
RTVSPropertyOp8
 70
     1
102
RTVSPropertyOp9
 70
     1
102
RTVSPropertyOp10
 70
     1
102
RTVSPropertyOp11
 70
     1
102
RTVSPropertyOp12
 70
     1
102
RTVSPropertyOp13
 70
     1
102
RTVSPropertyOp14
 70
     1
102
RTVSPropertyOp15
 70
     1
102
RTVSPropertyOp16
 70
     1
102
RTVSPropertyOp17
 70
     1
102
RTVSPropertyOp18
 70
     1
102
RTVSPropertyOp19
 70
     1
102
RTVSPropertyOp20
 70
     1
102
RTVSPropertyOp21
 70
     1
102
RTVSPropertyOp22
 70
     1
102
RTVSPropertyOp23
 70
     1
102
RTVSPropertyOp24
 70
     1
102
RTVSPropertyOp25
 70
     1
102
RTVSPropertyOp26
 70
     1
102
RTVSPropertyOp27
 70
     1
102
RTVSPropertyOp28
 70
     1
102
RTVSPropertyOp29
 70
     1
102
RTVSPropertyOp30
 70
     1
102
RTVSPropertyOp31
 70
     1
102
RTVSPropertyOp32
 70
     1
  0
XRECORD
  5
35F
102
{ACAD_REACTORS
330
35E
102
}
330
35E
100
AcDbXrecord
280
     1
102
RTVSPropertyOp0
 70
     1
102
RTVSPropertyOp1
 70
     1
102
RTVSPropertyOp2
 70
     1
102
RTVSPropertyOp3
 70
     1
102
RTVSPropertyOp4
 70
     1
102
RTVSPropertyOp5
 70
     1
102
RTVSPropertyOp6
 70
     1
102
RTVSPropertyOp7
 70
     1
102
RTVSPropertyOp8
 70
     1
102
RTVSPropertyOp9
 70
     1
102
RTVSPropertyOp10
 70
     1
102
RTVSPropertyOp11
 70
     1
102
RTVSPropertyOp12
 70
     1
102
RTVSPropertyOp13
 70
     1
102
RTVSPropertyOp14
 70
     1
102
RTVSPropertyOp15
 70
     1
102
RTVSPropertyOp16
 70
     1
102
RTVSPropertyOp17
 70
     1
102
RTVSPropertyOp18
 70
     1
102
RTVSPropertyOp19
 70
     1
102
RTVSPropertyOp20
 70
     1
102
RTVSPropertyOp21
 70
     1
102
RTVSPropertyOp22
 70
     1
102
RTVSPropertyOp23
 70
     1
102
RTVSPropertyOp24
 70
     1
102
RTVSPropertyOp25
 70
     1
102
RTVSPropertyOp26
 70
     1
102
RTVSPropertyOp27
 70
     1
102
RTVSPropertyOp28
 70
     1
102
RTVSPropertyOp29
 70
     1
102
RTVSPropertyOp30
 70
     1
102
RTVSPropertyOp31
 70
     1
102
RTVSPropertyOp32
 70
     1
  0
XRECORD
  5
361
102
{ACAD_REACTORS
330
360
102
}
330
360
100
AcDbXrecord
280
     1
102
RTVSPropertyOp0
 70
     1
102
RTVSPropertyOp1
 70
     1
102
RTVSPropertyOp2
 70
     1
102
RTVSPropertyOp3
 70
     1
102
RTVSPropertyOp4
 70
     1
102
RTVSPropertyOp5
 70
     1
102
RTVSPropertyOp6
 70
     1
102
RTVSPropertyOp7
 70
     1
102
RTVSPropertyOp8
 70
     1
102
RTVSPropertyOp9
 70
     1
102
RTVSPropertyOp10
 70
     1
102
RTVSPropertyOp11
 70
     1
102
RTVSPropertyOp12
 70
     1
102
RTVSPropertyOp13
 70
     1
102
RTVSPropertyOp14
 70
     1
102
RTVSPropertyOp15
 70
     1
102
RTVSPropertyOp16
 70
     1
102
RTVSPropertyOp17
 70
     1
102
RTVSPropertyOp18
 70
     1
102
RTVSPropertyOp19
 70
     1
102
RTVSPropertyOp20
 70
     1
102
RTVSPropertyOp21
 70
     1
102
RTVSPropertyOp22
 70
     1
102
RTVSPropertyOp23
 70
     1
102
RTVSPropertyOp24
 70
     1
102
RTVSPropertyOp25
 70
     1
102
RTVSPropertyOp26
 70
     1
102
RTVSPropertyOp27
 70
     1
102
RTVSPropertyOp28
 70
     1
102
RTVSPropertyOp29
 70
     1
102
RTVSPropertyOp30
 70
     1
102
RTVSPropertyOp31
 70
     1
102
RTVSPropertyOp32
 70
     1
  0
XRECORD
  5
375
102
{ACAD_REACTORS
330
374
102
}
330
374
100
AcDbXrecord
280
     1
102
RTVSPropertyOp0
 70
     1
102
RTVSPropertyOp1
 70
     1
102
RTVSPropertyOp2
 70
     1
102
RTVSPropertyOp3
 70
     1
102
RTVSPropertyOp4
 70
     1
102
RTVSPropertyOp5
 70
     1
102
RTVSPropertyOp6
 70
     1
102
RTVSPropertyOp7
 70
     1
102
RTVSPropertyOp8
 70
     1
102
RTVSPropertyOp9
 70
     1
102
RTVSPropertyOp10
 70
     1
102
RTVSPropertyOp11
 70
     1
102
RTVSPropertyOp12
 70
     1
102
RTVSPropertyOp13
 70
     1
102
RTVSPropertyOp14
 70
     1
102
RTVSPropertyOp15
 70
     1
102
RTVSPropertyOp16
 70
     1
102
RTVSPropertyOp17
 70
     1
102
RTVSPropertyOp18
 70
     1
102
RTVSPropertyOp19
 70
     1
102
RTVSPropertyOp20
 70
     1
102
RTVSPropertyOp21
 70
     1
102
RTVSPropertyOp22
 70
     1
102
RTVSPropertyOp23
 70
     1
102
RTVSPropertyOp24
 70
     1
102
RTVSPropertyOp25
 70
     1
102
RTVSPropertyOp26
 70
     1
102
RTVSPropertyOp27
 70
     1
102
RTVSPropertyOp28
 70
     1
102
RTVSPropertyOp29
 70
     1
102
RTVSPropertyOp30
 70
     1
102
RTVSPropertyOp31
 70
     1
102
RTVSPropertyOp32
 70
     1
  0
XRECORD
  5
36B
102
{ACAD_REACTORS
330
36A
102
}
330
36A
100
AcDbXrecord
280
     1
102
RTVSPropertyOp0
 70
     1
102
RTVSPropertyOp1
 70
     1
102
RTVSPropertyOp2
 70
     1
102
RTVSPropertyOp3
 70
     1
102
RTVSPropertyOp4
 70
     1
102
RTVSPropertyOp5
 70
     1
102
RTVSPropertyOp6
 70
     1
102
RTVSPropertyOp7
 70
     1
102
RTVSPropertyOp8
 70
     1
102
RTVSPropertyOp9
 70
     1
102
RTVSPropertyOp10
 70
     1
102
RTVSPropertyOp11
 70
     1
102
RTVSPropertyOp12
 70
     1
102
RTVSPropertyOp13
 70
     1
102
RTVSPropertyOp14
 70
     1
102
RTVSPropertyOp15
 70
     1
102
RTVSPropertyOp16
 70
     1
102
RTVSPropertyOp17
 70
     1
102
RTVSPropertyOp18
 70
     1
102
RTVSPropertyOp19
 70
     1
102
RTVSPropertyOp20
 70
     1
102
RTVSPropertyOp21
 70
     1
102
RTVSPropertyOp22
 70
     1
102
RTVSPropertyOp23
 70
     1
102
RTVSPropertyOp24
 70
     1
102
RTVSPropertyOp25
 70
     1
102
RTVSPropertyOp26
 70
     1
102
RTVSPropertyOp27
 70
     1
102
RTVSPropertyOp28
 70
     1
102
RTVSPropertyOp29
 70
     1
102
RTVSPropertyOp30
 70
     1
102
RTVSPropertyOp31
 70
     1
102
RTVSPropertyOp32
 70
     1
  0
XRECORD
  5
373
102
{ACAD_REACTORS
330
372
102
}
330
372
100
AcDbXrecord
280
     1
102
RTVSPropertyOp0
 70
     1
102
RTVSPropertyOp1
 70
     1
102
RTVSPropertyOp2
 70
     1
102
RTVSPropertyOp3
 70
     1
102
RTVSPropertyOp4
 70
     1
102
RTVSPropertyOp5
 70
     1
102
RTVSPropertyOp6
 70
     1
102
RTVSPropertyOp7
 70
     1
102
RTVSPropertyOp8
 70
     1
102
RTVSPropertyOp9
 70
     1
102
RTVSPropertyOp10
 70
     1
102
RTVSPropertyOp11
 70
     1
102
RTVSPropertyOp12
 70
     1
102
RTVSPropertyOp13
 70
     1
102
RTVSPropertyOp14
 70
     1
102
RTVSPropertyOp15
 70
     1
102
RTVSPropertyOp16
 70
     1
102
RTVSPropertyOp17
 70
     1
102
RTVSPropertyOp18
 70
     1
102
RTVSPropertyOp19
 70
     1
102
RTVSPropertyOp20
 70
     1
102
RTVSPropertyOp21
 70
     1
102
RTVSPropertyOp22
 70
     1
102
RTVSPropertyOp23
 70
     1
102
RTVSPropertyOp24
 70
     1
102
RTVSPropertyOp25
 70
     1
102
RTVSPropertyOp26
 70
     1
102
RTVSPropertyOp27
 70
     1
102
RTVSPropertyOp28
 70
     1
102
RTVSPropertyOp29
 70
     1
102
RTVSPropertyOp30
 70
     1
102
RTVSPropertyOp31
 70
     1
102
RTVSPropertyOp32
 70
     1
  0
ENDSEC
  0
EOF
