  0
SECTION
  2
HEADER
  9
$ACADVER
  1
AC1015
  9
$ACADMAINTVER
 70
     6
  9
$DWGCODEPAGE
  3
ANSI_1252
  9
$INSBASE
 10
0.0
 20
0.0
 30
0.0
  9
$EXTMIN
 10
-28.16213144505005
 20
760.413149225704
 30
0.0
  9
$EXTMAX
 10
268.8378685549481
 20
970.413149225704
 30
0.0
  9
$LIMMIN
 10
0.0
 20
0.0
  9
$LIMMAX
 10
12.0
 20
9.0
  9
$ORTHOMODE
 70
     0
  9
$REGENMODE
 70
     1
  9
$FILLMODE
 70
     1
  9
$QTEXTMODE
 70
     0
  9
$MIRRTEXT
 70
     1
  9
$LTSCALE
 40
1.0
  9
$ATTMODE
 70
     1
  9
$TEXTSIZE
 40
0.2
  9
$TRACEWID
 40
0.05
  9
$TEXTSTYLE
  7
Standard
  9
$CLAYER
  8
0
  9
$CELTYPE
  6
ByLayer
  9
$CECOLOR
 62
   256
  9
$CELTSCALE
 40
1.0
  9
$DISPSILH
 70
     0
  9
$DIMSCALE
 40
1.0
  9
$DIMASZ
 40
0.18
  9
$DIMEXO
 40
0.0625
  9
$DIMDLI
 40
0.38
  9
$DIMRND
 40
0.0
  9
$DIMDLE
 40
0.0
  9
$DIMEXE
 40
0.18
  9
$DIMTP
 40
0.0
  9
$DIMTM
 40
0.0
  9
$DIMTXT
 40
0.18
  9
$DIMCEN
 40
0.09
  9
$DIMTSZ
 40
0.0
  9
$DIMTOL
 70
     0
  9
$DIMLIM
 70
     0
  9
$DIMTIH
 70
     1
  9
$DIMTOH
 70
     1
  9
$DIMSE1
 70
     0
  9
$DIMSE2
 70
     0
  9
$DIMTAD
 70
     0
  9
$DIMZIN
 70
     0
  9
$DIMBLK
  1

  9
$DIMASO
 70
     1
  9
$DIMSHO
 70
     1
  9
$DIMPOST
  1

  9
$DIMAPOST
  1

  9
$DIMALT
 70
     0
  9
$DIMALTD
 70
     2
  9
$DIMALTF
 40
25.4
  9
$DIMLFAC
 40
1.0
  9
$DIMTOFL
 70
     0
  9
$DIMTVP
 40
0.0
  9
$DIMTIX
 70
     0
  9
$DIMSOXD
 70
     0
  9
$DIMSAH
 70
     0
  9
$DIMBLK1
  1

  9
$DIMBLK2
  1

  9
$DIMSTYLE
  2
Standard
  9
$DIMCLRD
 70
     0
  9
$DIMCLRE
 70
     0
  9
$DIMCLRT
 70
     0
  9
$DIMTFAC
 40
1.0
  9
$DIMGAP
 40
0.09
  9
$DIMJUST
 70
     0
  9
$DIMSD1
 70
     0
  9
$DIMSD2
 70
     0
  9
$DIMTOLJ
 70
     1
  9
$DIMTZIN
 70
     0
  9
$DIMALTZ
 70
     0
  9
$DIMALTTZ
 70
     0
  9
$DIMUPT
 70
     0
  9
$DIMDEC
 70
     4
  9
$DIMTDEC
 70
     4
  9
$DIMALTU
 70
     2
  9
$DIMALTTD
 70
     2
  9
$DIMTXSTY
  7
Standard
  9
$DIMAUNIT
 70
     0
  9
$DIMADEC
 70
     0
  9
$DIMALTRND
 40
0.0
  9
$DIMAZIN
 70
     0
  9
$DIMDSEP
 70
    46
  9
$DIMATFIT
 70
     3
  9
$DIMFRAC
 70
     0
  9
$DIMLDRBLK
  1

  9
$DIMLUNIT
 70
     2
  9
$DIMLWD
 70
    -2
  9
$DIMLWE
 70
    -2
  9
$DIMTMOVE
 70
     0
  9
$LUNITS
 70
     2
  9
$LUPREC
 70
     4
  9
$SKETCHINC
 40
0.1
  9
$FILLETRAD
 40
0.5
  9
$AUNITS
 70
     0
  9
$AUPREC
 70
     0
  9
$MENU
  1
.
  9
$ELEVATION
 40
0.0
  9
$PELEVATION
 40
0.0
  9
$THICKNESS
 40
0.0
  9
$LIMCHECK
 70
     0
  9
$CHAMFERA
 40
0.5
  9
$CHAMFERB
 40
0.5
  9
$CHAMFERC
 40
1.0
  9
$CHAMFERD
 40
0.0
  9
$SKPOLY
 70
     0
  9
$TDCREATE
 40
2456773.456339907
  9
$TDUCREATE
 40
2456773.373006574
  9
$TDUPDATE
 40
2456773.456341597
  9
$TDUUPDATE
 40
2456773.373008264
  9
$TDINDWG
 40
0.0000000116
  9
$TDUSRTIMER
 40
0.0000000116
  9
$USRTIMER
 70
     1
  9
$ANGBASE
 50
0.0
  9
$ANGDIR
 70
     0
  9
$PDMODE
 70
     0
  9
$PDSIZE
 40
0.0
  9
$PLINEWID
 40
0.0
  9
$SPLFRAME
 70
     0
  9
$SPLINETYPE
 70
     6
  9
$SPLINESEGS
 70
     8
  9
$HANDSEED
  5
37F
  9
$SURFTAB1
 70
     6
  9
$SURFTAB2
 70
     6
  9
$SURFTYPE
 70
     6
  9
$SURFU
 70
     6
  9
$SURFV
 70
     6
  9
$UCSBASE
  2

  9
$UCSNAME
  2

  9
$UCSORG
 10
0.0
 20
0.0
 30
0.0
  9
$UCSXDIR
 10
1.0
 20
0.0
 30
0.0
  9
$UCSYDIR
 10
0.0
 20
1.0
 30
0.0
  9
$UCSORTHOREF
  2

  9
$UCSORTHOVIEW
 70
     0
  9
$UCSORGTOP
 10
0.0
 20
0.0
 30
0.0
  9
$UCSORGBOTTOM
 10
0.0
 20
0.0
 30
0.0
  9
$UCSORGLEFT
 10
0.0
 20
0.0
 30
0.0
  9
$UCSORGRIGHT
 10
0.0
 20
0.0
 30
0.0
  9
$UCSORGFRONT
 10
0.0
 20
0.0
 30
0.0
  9
$UCSORGBACK
 10
0.0
 20
0.0
 30
0.0
  9
$PUCSBASE
  2

  9
$PUCSNAME
  2

  9
$PUCSORG
 10
0.0
 20
0.0
 30
0.0
  9
$PUCSXDIR
 10
1.0
 20
0.0
 30
0.0
  9
$PUCSYDIR
 10
0.0
 20
1.0
 30
0.0
  9
$PUCSORTHOREF
  2

  9
$PUCSORTHOVIEW
 70
     0
  9
$PUCSORGTOP
 10
0.0
 20
0.0
 30
0.0
  9
$PUCSORGBOTTOM
 10
0.0
 20
0.0
 30
0.0
  9
$PUCSORGLEFT
 10
0.0
 20
0.0
 30
0.0
  9
$PUCSORGRIGHT
 10
0.0
 20
0.0
 30
0.0
  9
$PUCSORGFRONT
 10
0.0
 20
0.0
 30
0.0
  9
$PUCSORGBACK
 10
0.0
 20
0.0
 30
0.0
  9
$USERI1
 70
     0
  9
$USERI2
 70
     0
  9
$USERI3
 70
     0
  9
$USERI4
 70
     0
  9
$USERI5
 70
     0
  9
$USERR1
 40
18.1
  9
$USERR2
 40
0.0
  9
$USERR3
 40
0.0
  9
$USERR4
 40
0.0
  9
$USERR5
 40
0.0
  9
$WORLDVIEW
 70
     1
  9
$SHADEDGE
 70
     3
  9
$SHADEDIF
 70
    70
  9
$TILEMODE
 70
     1
  9
$MAXACTVP
 70
    64
  9
$PINSBASE
 10
0.0
 20
0.0
 30
0.0
  9
$PLIMCHECK
 70
     0
  9
$PEXTMIN
 10
1.00000000000000E+20
 20
1.00000000000000E+20
 30
1.00000000000000E+20
  9
$PEXTMAX
 10
-1.00000000000000E+20
 20
-1.00000000000000E+20
 30
-1.00000000000000E+20
  9
$PLIMMIN
 10
0.0
 20
0.0
  9
$PLIMMAX
 10
12.0
 20
9.0
  9
$UNITMODE
 70
     0
  9
$VISRETAIN
 70
     1
  9
$PLINEGEN
 70
     0
  9
$PSLTSCALE
 70
     1
  9
$TREEDEPTH
 70
  3020
  9
$CMLSTYLE
  2
Standard
  9
$CMLJUST
 70
     0
  9
$CMLSCALE
 40
1.0
  9
$PROXYGRAPHICS
 70
     1
  9
$MEASUREMENT
 70
     1
  9
$CELWEIGHT
370
    -1
  9
$ENDCAPS
280
     0
  9
$JOINSTYLE
280
     0
  9
$LWDISPLAY
290
     0
  9
$INSUNITS
 70
     4
  9
$HYPERLINKBASE
  1

  9
$STYLESHEET
  1

  9
$XEDIT
290
     1
  9
$CEPSNTYPE
380
     0
  9
$PSTYLEMODE
290
     1
  9
$FINGERPRINTGUID
  2
{C1317E2E-2539-4CDD-B308-CB90830EC325}
  9
$VERSIONGUID
  2
{FAEB1C32-E019-11D5-929B-00C0DF256EC4}
  9
$EXTNAMES
290
     1
  9
$PSVPSCALE
 40
0.0
  9
$OLESTARTUP
290
     0
  0
ENDSEC
  0
SECTION
  2
CLASSES
  0
CLASS
  1
ACDBDICTIONARYWDFLT
  2
AcDbDictionaryWithDefault
  3
ObjectDBX Classes
 90
        0
280
     0
281
     0
  0
CLASS
  1
VISUALSTYLE
  2
AcDbVisualStyle
  3
ObjectDBX Classes
 90
     4095
280
     0
281
     0
  0
CLASS
  1
MATERIAL
  2
AcDbMaterial
  3
ObjectDBX Classes
 90
     1153
280
     0
281
     0
  0
CLASS
  1
DICTIONARYVAR
  2
AcDbDictionaryVar
  3
ObjectDBX Classes
 90
        0
280
     0
281
     0
  0
CLASS
  1
ACDBPLACEHOLDER
  2
AcDbPlaceHolder
  3
ObjectDBX Classes
 90
        0
280
     0
281
     0
  0
CLASS
  1
LAYOUT
  2
AcDbLayout
  3
ObjectDBX Classes
 90
        0
280
     0
281
     0
  0
ENDSEC
  0
SECTION
  2
TABLES
  0
TABLE
  2
VPORT
  5
8
330
0
100
AcDbSymbolTable
 70
     1
  0
VPORT
  5
29
330
8
100
AcDbSymbolTableRecord
100
AcDbViewportTableRecord
  2
*Active
 70
     0
 10
0.0
 20
0.0
 11
1.0
 21
1.0
 12
120.337868554949
 22
865.413149225704
 13
0.0
 23
0.0
 14
0.5
 24
0.5
 15
0.5
 25
0.5
 16
0.0
 26
0.0
 36
1.0
 17
0.0
 27
0.0
 37
0.0
 40
231.0
 41
1.60267857142857
 42
50.0
 43
0.0
 44
0.0
 50
0.0
 51
0.0
 71
     0
 72
   100
 73
     1
 74
     3
 75
     0
 76
     0
 77
     0
 78
     0
281
     0
 65
     1
110
0.0
120
0.0
130
0.0
111
1.0
121
0.0
131
0.0
112
0.0
122
1.0
132
0.0
 79
     0
146
0.0
  0
ENDTAB
  0
TABLE
  2
LTYPE
  5
5
330
0
100
AcDbSymbolTable
 70
     8
  0
LTYPE
  5
14
330
5
100
AcDbSymbolTableRecord
100
AcDbLinetypeTableRecord
  2
ByBlock
 70
     0
  3

 72
    65
 73
     0
 40
0.0
  0
LTYPE
  5
15
330
5
100
AcDbSymbolTableRecord
100
AcDbLinetypeTableRecord
  2
ByLayer
 70
     0
  3

 72
    65
 73
     0
 40
0.0
  0
LTYPE
  5
16
330
5
100
AcDbSymbolTableRecord
100
AcDbLinetypeTableRecord
  2
Continuous
 70
     0
  3
Solid line
 72
    65
 73
     0
 40
0.0
  0
LTYPE
  5
3F
330
5
100
AcDbSymbolTableRecord
100
AcDbLinetypeTableRecord
  2
DASHED
 70
     0
  3
Dashed
 72
    65
 73
     2
 40
15.0
 49
7.0
 74
     0
 49
-8.0
 74
     0
  0
LTYPE
  5
40
330
5
100
AcDbSymbolTableRecord
100
AcDbLinetypeTableRecord
  2
DOTTED
 70
     0
  3
Dotted
 72
    65
 73
     2
 40
1.0
 49
0.0
 74
     0
 49
-1.0
 74
     0
  0
LTYPE
  5
41
330
5
100
AcDbSymbolTableRecord
100
AcDbLinetypeTableRecord
  2
DOT_CENTER
 70
     0
  3
Dot_Center
 72
    65
 73
     4
 40
14.0
 49
12.0
 74
     0
 49
-1.0
 74
     0
 49
0.0
 74
     0
 49
-1.0
 74
     0
  0
LTYPE
  5
42
330
5
100
AcDbSymbolTableRecord
100
AcDbLinetypeTableRecord
  2
LONG_DASHED
 70
     0
  3
Long_Dashed
 72
    65
 73
     2
 40
15.0
 49
10.0
 74
     0
 49
-5.0
 74
     0
  0
LTYPE
  5
43
330
5
100
AcDbSymbolTableRecord
100
AcDbLinetypeTableRecord
  2
DASH_CENTER
 70
     0
  3
Dash_Center
 72
    65
 73
     4
 40
14.0
 49
11.0
 74
     0
 49
-1.0
 74
     0
 49
1.0
 74
     0
 49
-1.0
 74
     0
  0
LTYPE
  5
44
330
5
100
AcDbSymbolTableRecord
100
AcDbLinetypeTableRecord
  2
PHANTOM
 70
     0
  3
Phantom
 72
    65
 73
     6
 40
13.0
 49
10.0
 74
     0
 49
-1.0
 74
     0
 49
0.0
 74
     0
 49
-1.0
 74
     0
 49
0.0
 74
     0
 49
-1.0
 74
     0
  0
LTYPE
  5
45
330
5
100
AcDbSymbolTableRecord
100
AcDbLinetypeTableRecord
  2
CENTER_DASH_DASH
 70
     0
  3
Center_Dash_Dash
 72
    65
 73
     6
 40
14.0
 49
9.0
 74
     0
 49
-1.0
 74
     0
 49
1.0
 74
     0
 49
-1.0
 74
     0
 49
1.0
 74
     0
 49
-1.0
 74
     0
  0
ENDTAB
  0
TABLE
  2
LAYER
  5
2
330
0
100
AcDbSymbolTable
 70
     2
  0
LAYER
  5
10
330
2
100
AcDbSymbolTableRecord
100
AcDbLayerTableRecord
  2
0
 70
     0
 62
     7
  6
Continuous
370
    -3
390
F
  0
LAYER
  5
46
330
2
100
AcDbSymbolTableRecord
100
AcDbLayerTableRecord
  2
1
 70
     0
 62
     7
  6
Continuous
370
    -3
390
F
  0
ENDTAB
  0
TABLE
  2
STYLE
  5
3
330
0
100
AcDbSymbolTable
 70
     9
  0
STYLE
  5
11
330
3
100
AcDbSymbolTableRecord
100
AcDbTextStyleTableRecord
  2
Standard
 70
     0
 40
0.0
 41
1.0
 50
0.0
 71
     0
 42
0.2
  3
txt
  4

  0
STYLE
  5
F3
330
3
100
AcDbSymbolTableRecord
100
AcDbTextStyleTableRecord
  2
CONVERTER_11
 70
     0
 40
0.0
 41
0.9
 50
0.0
 71
     0
 42
0.2
  3
txt.shx
  4

  0
STYLE
  5
2D5
330
3
100
AcDbSymbolTableRecord
100
AcDbTextStyleTableRecord
  2
CONVERTER_12
 70
     0
 40
0.0
 41
0.63
 50
0.0
 71
     0
 42
0.2
  3
txt.shx
  4

  0
STYLE
  5
2D8
330
3
100
AcDbSymbolTableRecord
100
AcDbTextStyleTableRecord
  2
CONVERTER_13
 70
     0
 40
0.0
 41
0.765
 50
0.0
 71
     0
 42
0.2
  3
txt.shx
  4

  0
STYLE
  5
2FD
330
3
100
AcDbSymbolTableRecord
100
AcDbTextStyleTableRecord
  2
CONVERTER_14
 70
     0
 40
0.0
 41
0.72
 50
0.0
 71
     0
 42
0.2
  3
txt.shx
  4

  0
STYLE
  5
311
330
3
100
AcDbSymbolTableRecord
100
AcDbTextStyleTableRecord
  2
CONVERTER_15
 70
     0
 40
0.0
 41
0.855
 50
0.0
 71
     0
 42
0.2
  3
txt.shx
  4

  0
STYLE
  5
32D
330
3
100
AcDbSymbolTableRecord
100
AcDbTextStyleTableRecord
  2
CONVERTER_16
 70
     0
 40
0.0
 41
0.54
 50
0.0
 71
     0
 42
0.2
  3
txt.shx
  4

  0
STYLE
  5
32F
330
3
100
AcDbSymbolTableRecord
100
AcDbTextStyleTableRecord
  2
CONVERTER_17
 70
     0
 40
0.0
 41
0.81
 50
0.0
 71
     0
 42
0.2
  3
txt.shx
  4

  0
STYLE
  5
336
330
3
100
AcDbSymbolTableRecord
100
AcDbTextStyleTableRecord
  2
CONVERTER_18
 70
     0
 40
0.0
 41
0.45
 50
0.0
 71
     0
 42
0.2
  3
txt.shx
  4

  0
ENDTAB
  0
TABLE
  2
VIEW
  5
6
330
0
100
AcDbSymbolTable
 70
     0
  0
ENDTAB
  0
TABLE
  2
UCS
  5
7
330
0
100
AcDbSymbolTable
 70
     0
  0
ENDTAB
  0
TABLE
  2
APPID
  5
9
330
0
100
AcDbSymbolTable
 70
     1
  0
APPID
  5
12
330
9
100
AcDbSymbolTableRecord
100
AcDbRegAppTableRecord
  2
ACAD
 70
     0
  0
ENDTAB
  0
TABLE
  2
DIMSTYLE
  5
A
330
0
100
AcDbSymbolTable
 70
     3
100
AcDbDimStyleTable
  0
DIMSTYLE
105
27
330
A
100
AcDbSymbolTableRecord
100
AcDbDimStyleTableRecord
  2
Standard
 70
     0
178
     0
340
11
  0
DIMSTYLE
105
14B
102
{ACAD_REACTORS
330
14C
102
}
330
A
100
AcDbSymbolTableRecord
100
AcDbDimStyleTableRecord
  2
ME10_DIM_10
 70
     0
  3
ø<>
 41
3.5
 42
0.0
 44
2.0
 73
     0
 74
     0
 77
     1
 78
     8
140
3.5
147
2.0
172
     1
173
     1
174
     1
175
     1
176
     2
177
     2
178
     3
340
F3
  0
DIMSTYLE
105
156
102
{ACAD_REACTORS
330
157
102
}
330
A
100
AcDbSymbolTableRecord
100
AcDbDimStyleTableRecord
  2
ME10_DIM_11
 70
     0
 41
3.5
 42
0.0
 44
2.0
 73
     0
 74
     0
 77
     1
 78
     8
140
3.5
147
2.0
172
     1
173
     1
174
     1
175
     1
176
     2
177
     2
178
     3
340
F3
  0
ENDTAB
  0
TABLE
  2
BLOCK_RECORD
  5
1
330
0
100
AcDbSymbolTable
 70
    18
  0
BLOCK_RECORD
  5
1F
330
1
100
AcDbSymbolTableRecord
100
AcDbBlockTableRecord
  2
*Model_Space
340
22
  0
BLOCK_RECORD
  5
1B
330
1
100
AcDbSymbolTableRecord
100
AcDbBlockTableRecord
  2
*Paper_Space
340
1E
  0
BLOCK_RECORD
  5
23
330
1
100
AcDbSymbolTableRecord
100
AcDbBlockTableRecord
  2
*Paper_Space0
340
26
  0
BLOCK_RECORD
  5
47
330
1
100
AcDbSymbolTableRecord
100
AcDbBlockTableRecord
  2
1411107_A_EXSH_M25_68L_N_S-select__1
340
0
102
{BLKREFS
331
4B
102
}
  0
BLOCK_RECORD
  5
4A
330
1
100
AcDbSymbolTableRecord
100
AcDbBlockTableRecord
  2
Allg1
340
0
102
{BLKREFS
331
7C
102
}
  0
BLOCK_RECORD
  5
4E
330
1
100
AcDbSymbolTableRecord
100
AcDbBlockTableRecord
  2
1411107_A_EXSH_M25_68L_N_S-select__2
340
0
102
{BLKREFS
331
52
102
}
  0
BLOCK_RECORD
  5
51
330
1
100
AcDbSymbolTableRecord
100
AcDbBlockTableRecord
  2
Drfsicht1
340
0
102
{BLKREFS
331
7D
102
}
  0
BLOCK_RECORD
  5
55
330
1
100
AcDbSymbolTableRecord
100
AcDbBlockTableRecord
  2
1411107_A_EXSH_M25_68L_N_S-select__3
340
0
102
{BLKREFS
331
59
102
}
  0
BLOCK_RECORD
  5
58
330
1
100
AcDbSymbolTableRecord
100
AcDbBlockTableRecord
  2
Rckans1
340
0
102
{BLKREFS
331
7E
102
}
  0
BLOCK_RECORD
  5
5C
330
1
100
AcDbSymbolTableRecord
100
AcDbBlockTableRecord
  2
1411107_A_EXSH_M25_68L_N_S-select__4
340
0
102
{BLKREFS
331
60
102
}
  0
BLOCK_RECORD
  5
5F
330
1
100
AcDbSymbolTableRecord
100
AcDbBlockTableRecord
  2
SA_Links1
340
0
102
{BLKREFS
331
7F
102
}
  0
BLOCK_RECORD
  5
63
330
1
100
AcDbSymbolTableRecord
100
AcDbBlockTableRecord
  2
1411107_A_EXSH_M25_68L_N_S-select__5
340
0
102
{BLKREFS
331
67
102
}
  0
BLOCK_RECORD
  5
66
330
1
100
AcDbSymbolTableRecord
100
AcDbBlockTableRecord
  2
SA_Rechts1
340
0
102
{BLKREFS
331
80
102
}
  0
BLOCK_RECORD
  5
6A
330
1
100
AcDbSymbolTableRecord
100
AcDbBlockTableRecord
  2
1411107_A_EXSH_M25_68L_N_S-select__6
340
0
102
{BLKREFS
331
6E
102
}
  0
BLOCK_RECORD
  5
6D
330
1
100
AcDbSymbolTableRecord
100
AcDbBlockTableRecord
  2
Vordans1
340
0
102
{BLKREFS
331
81
102
}
  0
BLOCK_RECORD
  5
71
330
1
100
AcDbSymbolTableRecord
100
AcDbBlockTableRecord
  2
_punkt
340
0
102
{BLKREFS
331
78
102
}
  0
BLOCK_RECORD
  5
74
330
1
100
AcDbSymbolTableRecord
100
AcDbBlockTableRecord
  2
_rahmen
340
0
102
{BLKREFS
331
79
102
}
  0
BLOCK_RECORD
  5
77
330
1
100
AcDbSymbolTableRecord
100
AcDbBlockTableRecord
  2
A4I
340
0
102
{BLKREFS
331
82
102
}
  0
BLOCK_RECORD
  5
142
330
1
100
AcDbSymbolTableRecord
100
AcDbBlockTableRecord
  2
*D16
340
0
  0
BLOCK_RECORD
  5
14D
330
1
100
AcDbSymbolTableRecord
100
AcDbBlockTableRecord
  2
*D17
340
0
  0
ENDTAB
  0
ENDSEC
  0
SECTION
  2
BLOCKS
  0
BLOCK
  5
20
330
1F
100
AcDbEntity
  8
0
100
AcDbBlockBegin
  2
*Model_Space
 70
     0
 10
0.0
 20
0.0
 30
0.0
  3
*Model_Space
  1

  0
ENDBLK
  5
21
330
1F
100
AcDbEntity
  8
0
100
AcDbBlockEnd
  0
BLOCK
  5
1C
330
1B
100
AcDbEntity
 67
     1
  8
0
100
AcDbBlockBegin
  2
*Paper_Space
 70
     0
 10
0.0
 20
0.0
 30
0.0
  3
*Paper_Space
  1

  0
ENDBLK
  5
1D
330
1B
100
AcDbEntity
 67
     1
  8
0
100
AcDbBlockEnd
  0
BLOCK
  5
24
330
23
100
AcDbEntity
  8
0
100
AcDbBlockBegin
  2
*Paper_Space0
 70
     0
 10
0.0
 20
0.0
 30
0.0
  3
*Paper_Space0
  1

  0
ENDBLK
  5
25
330
23
100
AcDbEntity
  8
0
100
AcDbBlockEnd
  0
BLOCK
  5
48
330
47
100
AcDbEntity
  8
0
100
AcDbBlockBegin
  2
1411107_A_EXSH_M25_68L_N_S-select__1
 70
     0
 10
210.8475681836926
 20
810.3791536574895
 30
0.0
  3
1411107_A_EXSH_M25_68L_N_S-select__1
  1

  0
LINE
  5
83
330
47
100
AcDbEntity
  8
0
  6
Continuous
 62
     7
100
AcDbLine
 10
238.9886193677643
 20
817.2249528727879
 30
0.0
 11
242.2571938216149
 21
818.1685090431863
 31
0.0
  0
LINE
  5
84
330
47
100
AcDbEntity
  8
0
  6
Continuous
 62
     7
100
AcDbLine
 10
242.2571938216149
 20
818.1685090431863
 30
0.0
 11
244.5629306571024
 21
820.16533571716
 31
0.0
  0
LINE
  5
85
330
47
100
AcDbEntity
  8
0
  6
Continuous
 62
     7
100
AcDbLine
 10
229.8560566148479
 20
812.2923917520543
 30
0.0
 11
237.3560566148478
 21
818.7875822804376
 31
0.0
  0
LINE
  5
86
330
47
100
AcDbEntity
  8
0
  6
Continuous
 62
     7
100
AcDbLine
 10
220.0885776403813
 20
841.768980783288
 30
0.0
 11
222.3943144758687
 21
843.7658074572616
 31
0.0
  0
LINE
  5
87
330
47
100
AcDbEntity
  8
0
  6
Continuous
 62
     7
100
AcDbLine
 10
244.1632667877647
 20
820.9196883934404
 30
0.0
 11
244.1632667877647
 21
831.5178014330339
 31
0.0
  0
LINE
  5
88
330
47
100
AcDbEntity
  8
0
  6
Continuous
 62
     7
100
AcDbLine
 10
244.1632667877647
 20
820.9196883934404
 30
0.0
 11
246.4690036232521
 21
822.9165150674141
 31
0.0
  0
LINE
  5
89
330
47
100
AcDbEntity
  8
0
  6
Continuous
 62
     7
100
AcDbLine
 10
229.2668127648483
 20
844.4185090431863
 30
0.0
 11
231.5725496003358
 21
846.41533571716
 31
0.0
  0
LINE
  5
8A
330
47
100
AcDbEntity
  8
0
  6
Continuous
 62
     7
100
AcDbLine
 10
229.2668127648483
 20
844.4185090431863
 30
0.0
 11
220.0885776403813
 21
841.768980783288
 31
0.0
  0
LINE
  5
8B
330
47
100
AcDbEntity
  8
0
  6
Continuous
 62
     7
100
AcDbLine
 10
233.0789586971479
 20
843.3180373030847
 30
0.0
 11
235.3846955326354
 21
845.3148639770584
 31
0.0
  0
LINE
  5
8C
330
47
100
AcDbEntity
  8
0
  6
Continuous
 62
     7
100
AcDbLine
 10
242.2571938216149
 20
835.3694525233897
 30
0.0
 11
244.5629306571024
 21
837.3662791973633
 31
0.0
  0
LINE
  5
8D
330
47
100
AcDbEntity
  8
0
  6
Continuous
 62
     7
100
AcDbLine
 10
242.2571938216149
 20
835.3694525233897
 30
0.0
 11
233.0789586971479
 21
843.3180373030847
 31
0.0
  0
LINE
  5
8E
330
47
100
AcDbEntity
  8
0
  6
Continuous
 62
     7
100
AcDbLine
 10
244.1632667877647
 20
831.5178014330339
 30
0.0
 11
246.4690036232521
 21
833.5146281070075
 31
0.0
  0
LINE
  5
8F
330
47
100
AcDbEntity
  8
0
  6
Continuous
 62
     7
100
AcDbLine
 10
213.4897148471484
 20
831.1906154025157
 30
0.0
 11
220.9897148471484
 21
837.6858059308989
 31
0.0
  0
LINE
  5
90
330
47
100
AcDbEntity
  8
0
  6
Continuous
 62
     7
100
AcDbLine
 10
238.8290273739408
 20
817.0867421518961
 30
0.0
 11
240.8290273739408
 21
818.818792959465
 31
0.0
  0
LINE
  5
91
330
47
100
AcDbEntity
  8
0
  6
Continuous
 62
     7
100
AcDbLine
 10
218.1825046742315
 20
839.0178014330339
 30
0.0
 11
218.1825046742315
 21
837.9195972284033
 31
0.0
  0
LINE
  5
92
330
47
100
AcDbEntity
  8
0
  6
Continuous
 62
     7
100
AcDbLine
 10
219.5167440880554
 20
839.3866460594405
 30
0.0
 11
221.5167440880554
 21
841.1186968670094
 31
0.0
  0
SPLINE
  5
93
330
47
100
AcDbEntity
  8
0
  6
Continuous
 62
     7
100
AcDbSpline
210
0.0
220
0.0
230
1.0
 70
     8
 71
     3
 72
     9
 73
     5
 74
     3
 42
0.000000001
 43
0.0000000001
 44
0.00000001
 40
0.0
 40
0.0
 40
0.0
 40
0.0
 40
1.696000435681765
 40
3.360047552799925
 40
3.360047552799925
 40
3.360047552799925
 40
3.360047552799925
 10
244.1632667877647
 20
820.9196883934404
 30
0.0
 10
243.9038157126536
 20
820.4142871896399
 30
0.0
 10
243.3898017064411
 20
819.4130067510891
 30
0.0
 10
242.6323286539931
 20
818.5807032670414
 30
0.0
 10
242.2571938216149
 20
818.1685090431863
 30
0.0
 11
244.1632667877647
 21
820.9196883934404
 31
0.0
 11
243.3228856665851
 21
819.4465363130396
 31
0.0
 11
242.2571938216149
 21
818.1685090431863
 31
0.0
  0
SPLINE
  5
94
330
47
100
AcDbEntity
  8
0
  6
Continuous
 62
     7
100
AcDbSpline
210
0.0
220
0.0
230
1.0
 70
     8
 71
     3
 72
     9
 73
     5
 74
     3
 42
0.000000001
 43
0.0000000001
 44
0.00000001
 40
0.0
 40
0.0
 40
0.0
 40
0.0
 40
1.696000435681765
 40
3.360047552799907
 40
3.360047552799907
 40
3.360047552799907
 40
3.360047552799907
 10
218.1825046742315
 20
839.0178014330339
 30
0.0
 10
218.4419557493427
 20
839.5232026368348
 30
0.0
 10
218.9559697555551
 20
840.524483075385
 30
0.0
 10
219.7134428080031
 20
841.3567865594329
 30
0.0
 10
220.0885776403813
 20
841.768980783288
 30
0.0
 11
218.1825046742315
 21
839.0178014330339
 31
0.0
 11
219.0228857954111
 21
840.4909535134348
 31
0.0
 11
220.0885776403813
 21
841.768980783288
 31
0.0
  0
SPLINE
  5
95
330
47
100
AcDbEntity
  8
0
  6
Continuous
 62
     7
100
AcDbSpline
210
0.0
220
0.0
230
1.0
 70
     8
 71
     3
 72
    11
 73
     7
 74
     5
 42
0.000000001
 43
0.0000000001
 44
0.00000001
 40
0.0
 40
0.0
 40
0.0
 40
0.0
 40
1.310809476550637
 40
2.61752479058465
 40
3.879733472852896
 40
5.16310477339977
 40
5.16310477339977
 40
5.16310477339977
 40
5.16310477339977
 10
246.6297731387108
 20
828.3548020717521
 30
0.0
 10
246.6278183512127
 20
828.791744490221
 30
0.0
 10
246.6239148667695
 20
829.6642645876732
 30
0.0
 10
246.5916523862261
 20
830.9571803083629
 30
0.0
 10
246.5422777917742
 20
832.240389533659
 30
0.0
 10
246.4935633465518
 20
833.0875343434554
 30
0.0
 10
246.4690036232521
 20
833.5146281070075
 30
0.0
 11
246.6297731387108
 21
828.3548020717521
 31
0.0
 11
246.619429060596
 21
829.6655707332916
 31
0.0
 11
246.5882903937804
 21
830.9719149818643
 31
0.0
 11
246.5385936548904
 21
832.2331449339816
 31
0.0
 11
246.4690036232521
 21
833.5146281070075
 31
0.0
  0
SPLINE
  5
96
330
47
100
AcDbEntity
  8
0
  6
Continuous
 62
     7
100
AcDbSpline
210
0.0
220
0.0
230
1.0
 70
     8
 71
     3
 72
     9
 73
     5
 74
     3
 42
0.000000001
 43
0.0000000001
 44
0.00000001
 40
0.0
 40
0.0
 40
0.0
 40
0.0
 40
1.696000435681822
 40
3.360047552799857
 40
3.360047552799857
 40
3.360047552799857
 40
3.360047552799857
 10
246.4690036232521
 20
822.9165150674141
 30
0.0
 10
246.209552548141
 20
822.4111138636134
 30
0.0
 10
245.6955385419286
 20
821.4098334250629
 30
0.0
 10
244.9380654894806
 20
820.577529941015
 30
0.0
 10
244.5629306571024
 20
820.16533571716
 30
0.0
 11
246.4690036232521
 21
822.9165150674141
 31
0.0
 11
245.6286225020726
 21
821.4433629870132
 31
0.0
 11
244.5629306571024
 21
820.16533571716
 31
0.0
  0
SPLINE
  5
97
330
47
100
AcDbEntity
  8
0
  6
Continuous
 62
     7
100
AcDbSpline
210
0.0
220
0.0
230
1.0
 70
     8
 71
     3
 72
    11
 73
     7
 74
     5
 42
0.000000001
 43
0.0000000001
 44
0.00000001
 40
0.0
 40
0.0
 40
0.0
 40
0.0
 40
1.328717706012016
 40
2.689359870260118
 40
4.037576847286426
 40
5.441325881971812
 40
5.441325881971812
 40
5.441325881971812
 40
5.441325881971812
 10
246.6297731387108
 20
828.3548020717521
 30
0.0
 10
246.6277563272808
 20
827.9118912934365
 30
0.0
 10
246.6236742323753
 20
827.0154281336963
 30
0.0
 10
246.591138798343
 20
825.6698919813673
 30
0.0
 10
246.5414608984629
 20
824.2998783842911
 30
0.0
 10
246.4934787977506
 20
823.3837980495233
 30
0.0
 10
246.4690036232521
 20
822.9165150674141
 30
0.0
 11
246.6297731387108
 21
828.3548020717521
 31
0.0
 11
246.6194291792063
 21
827.0261246296998
 31
0.0
 11
246.5882903902656
 21
825.6658388231957
 31
0.0
 11
246.5385939314445
 21
824.3185380848759
 31
0.0
 11
246.4690036232521
 21
822.9165150674141
 31
0.0
  0
SPLINE
  5
98
330
47
100
AcDbEntity
  8
0
  6
Continuous
 62
     7
100
AcDbSpline
210
0.0
220
0.0
230
1.0
 70
     8
 71
     3
 72
     9
 73
     5
 74
     3
 42
0.000000001
 43
0.0000000001
 44
0.00000001
 40
0.0
 40
0.0
 40
0.0
 40
0.0
 40
1.951830528010582
 40
3.975675432242073
 40
3.975675432242073
 40
3.975675432242073
 40
3.975675432242073
 10
229.2668127648483
 20
844.4185090431863
 30
0.0
 10
229.907720016827
 20
844.297765202034
 30
0.0
 10
231.2131813106972
 20
844.0518225580859
 30
0.0
 10
232.4495677072175
 20
843.5655683562806
 30
0.0
 10
233.0789586971479
 20
843.3180373030847
 30
0.0
 11
229.2668127648483
 21
844.4185090431863
 31
0.0
 11
231.1728857309982
 21
843.9983563801674
 31
0.0
 11
233.0789586971479
 21
843.3180373030847
 31
0.0
  0
SPLINE
  5
99
330
47
100
AcDbEntity
  8
0
  6
Continuous
 62
     7
100
AcDbSpline
210
0.0
220
0.0
230
1.0
 70
     8
 71
     3
 72
    11
 73
     7
 74
     5
 42
0.000000001
 43
0.0000000001
 44
0.00000001
 40
0.0
 40
0.0
 40
0.0
 40
0.0
 40
2.290324036525091
 40
4.584504345097106
 40
6.974123720243853
 40
9.55507390619156
 40
9.55507390619156
 40
9.55507390619156
 40
9.55507390619156
 10
231.5725496003358
 20
846.41533571716
 30
0.0
 10
230.8323469857897
 20
846.2282949397649
 30
0.0
 10
229.3506954640131
 20
845.8538984455864
 30
0.0
 10
227.1118019206568
 20
845.2273225334247
 30
0.0
 10
224.7910689310354
 20
844.535253920225
 30
0.0
 10
223.2134745989343
 20
844.0287880352612
 30
0.0
 10
222.3943144758687
 20
843.7658074572616
 30
0.0
 11
231.5725496003358
 21
846.41533571716
 31
0.0
 11
229.3544111651244
 21
845.8448569049692
 31
0.0
 11
227.1442132142587
 21
845.229805437905
 31
0.0
 11
224.8545611225634
 21
844.5458653397278
 31
0.0
 11
222.3943144758687
 21
843.7658074572616
 31
0.0
  0
SPLINE
  5
9A
330
47
100
AcDbEntity
  8
0
  6
Continuous
 62
     7
100
AcDbSpline
210
0.0
220
0.0
230
1.0
 70
     8
 71
     3
 72
     9
 73
     5
 74
     3
 42
0.000000001
 43
0.0000000001
 44
0.00000001
 40
0.0
 40
0.0
 40
0.0
 40
0.0
 40
1.951830528010499
 40
3.97567543224207
 40
3.97567543224207
 40
3.97567543224207
 40
3.97567543224207
 10
231.5725496003358
 20
846.41533571716
 30
0.0
 10
232.2134568523144
 20
846.2945918760076
 30
0.0
 10
233.5189181461848
 20
846.0486492320601
 30
0.0
 10
234.755304542705
 20
845.5623950302542
 30
0.0
 10
235.3846955326354
 20
845.3148639770584
 30
0.0
 11
231.5725496003358
 21
846.41533571716
 31
0.0
 11
233.4786225664856
 21
845.9951830541411
 31
0.0
 11
235.3846955326354
 21
845.3148639770584
 31
0.0
  0
SPLINE
  5
9B
330
47
100
AcDbEntity
  8
0
  6
Continuous
 62
     7
100
AcDbSpline
210
0.0
220
0.0
230
1.0
 70
     8
 71
     3
 72
    11
 73
     7
 74
     5
 42
0.000000001
 43
0.0000000001
 44
0.00000001
 40
0.0
 40
0.0
 40
0.0
 40
0.0
 40
3.075662261410727
 40
6.044972250041954
 40
9.029312094321185
 40
12.15067842473481
 40
12.15067842473481
 40
12.15067842473481
 40
12.15067842473481
 10
244.5629306571024
 20
837.3662791973633
 30
0.0
 10
243.8286580064409
 20
838.0819184138186
 30
0.0
 10
242.385502857585
 20
839.4884509924633
 30
0.0
 10
240.1410910945332
 20
841.4949592270201
 30
0.0
 10
237.8226120070337
 20
843.4391460391269
 30
0.0
 10
236.2094024398183
 20
844.6803395623784
 30
0.0
 10
235.3846955326354
 20
845.3148639770584
 30
0.0
 11
244.5629306571024
 21
837.3662791973633
 31
0.0
 11
242.3447250428628
 21
839.4968336323425
 31
0.0
 11
240.1345942710253
 21
841.4797919732898
 31
0.0
 11
237.8448791805066
 21
843.3938162971554
 31
0.0
 11
235.3846955326354
 21
845.3148639770584
 31
0.0
  0
SPLINE
  5
9C
330
47
100
AcDbEntity
  8
0
  6
Continuous
 62
     7
100
AcDbSpline
210
0.0
220
0.0
230
1.0
 70
     8
 71
     3
 72
     9
 73
     5
 74
     3
 42
0.000000001
 43
0.0000000001
 44
0.00000001
 40
0.0
 40
0.0
 40
0.0
 40
0.0
 40
2.172625590745473
 40
4.303672479273772
 40
4.303672479273772
 40
4.303672479273772
 40
4.303672479273772
 10
242.2571938216149
 20
835.3694525233897
 30
0.0
 10
242.6300021425377
 20
834.7470382995373
 30
0.0
 10
243.3684841337717
 20
833.5141213176453
 30
0.0
 10
243.900051103223
 20
832.1789415781168
 30
0.0
 10
244.1632667877647
 20
831.5178014330339
 30
0.0
 11
242.2571938216149
 21
835.3694525233897
 31
0.0
 11
243.3228856665851
 21
833.4761477799698
 31
0.0
 11
244.1632667877647
 21
831.5178014330339
 31
0.0
  0
SPLINE
  5
9D
330
47
100
AcDbEntity
  8
0
  6
Continuous
 62
     7
100
AcDbSpline
210
0.0
220
0.0
230
1.0
 70
     8
 71
     3
 72
     9
 73
     5
 74
     3
 42
0.000000001
 43
0.0000000001
 44
0.00000001
 40
0.0
 40
0.0
 40
0.0
 40
0.0
 40
2.172625590745432
 40
4.303672479273707
 40
4.303672479273707
 40
4.303672479273707
 40
4.303672479273707
 10
244.5629306571024
 20
837.3662791973633
 30
0.0
 10
244.9357389780253
 20
836.7438649735108
 30
0.0
 10
245.674220969259
 20
835.5109479916187
 30
0.0
 10
246.2057879387105
 20
834.1757682520906
 30
0.0
 10
246.4690036232521
 20
833.5146281070075
 30
0.0
 11
244.5629306571024
 21
837.3662791973633
 31
0.0
 11
245.6286225020726
 21
835.4729744539434
 31
0.0
 11
246.4690036232521
 21
833.5146281070075
 31
0.0
  0
SPLINE
  5
9E
330
47
100
AcDbEntity
  8
0
  6
Continuous
 62
     7
100
AcDbSpline
210
0.0
220
0.0
230
1.0
 70
     8
 71
     3
 72
    11
 73
     7
 74
     5
 42
0.000000001
 43
0.0000000001
 44
0.00000001
 40
0.0
 40
0.0
 40
0.0
 40
0.0
 40
1.879599833284989
 40
3.667011445590478
 40
5.38242105766274
 40
7.058143704571544
 40
7.058143704571544
 40
7.058143704571544
 40
7.058143704571544
 10
210.8475681836926
 20
824.866503577285
 30
0.0
 10
210.8786196383997
 20
825.4945124383501
 30
0.0
 10
210.9391995901539
 20
826.7197283793714
 30
0.0
 10
211.4678825973944
 20
828.4493710227596
 30
0.0
 10
212.2867407366575
 20
829.9930356463119
 30
0.0
 10
213.0918643034456
 20
830.7945488997757
 30
0.0
 10
213.4897148471484
 20
831.1906154025157
 30
0.0
 11
210.8475681836926
 21
824.866503577285
 31
0.0
 11
211.019438113299
 21
826.7382290546178
 31
0.0
 11
211.529589339747
 21
828.4512923941068
 31
0.0
 11
212.3618239839095
 21
829.9512976082184
 31
0.0
 11
213.4897148471484
 21
831.1906154025157
 31
0.0
  0
SPLINE
  5
9F
330
47
100
AcDbEntity
  8
0
  6
Continuous
 62
     7
100
AcDbSpline
210
0.0
220
0.0
230
1.0
 70
     8
 71
     3
 72
    11
 73
     7
 74
     5
 42
0.000000001
 43
0.0000000001
 44
0.00000001
 40
0.0
 40
0.0
 40
0.0
 40
0.0
 40
2.217927803368071
 40
4.327073506248162
 40
6.351256848919276
 40
8.32860957255497
 40
8.32860957255497
 40
8.32860957255497
 40
8.32860957255497
 10
241.9467604368186
 20
824.5491941056683
 30
0.0
 10
241.9101197202627
 20
823.8081436495812
 30
0.0
 10
241.8386353798097
 20
822.3623888387401
 30
0.0
 10
241.2147894299697
 20
820.3214105195602
 30
0.0
 10
240.2485368265512
 20
818.4998862626808
 30
0.0
 10
239.2984910155774
 20
817.5541006251964
 30
0.0
 10
238.8290273739408
 20
817.0867421518961
 30
0.0
 11
241.9467604368186
 21
824.5491941056683
 31
0.0
 11
241.743953919883
 21
822.3405580424155
 31
0.0
 11
241.1419754726745
 21
820.3191433018186
 31
0.0
 11
240.1599385925626
 21
818.5491371491669
 31
0.0
 11
238.8290273739408
 21
817.0867421518961
 31
0.0
  0
SPLINE
  5
A0
330
47
100
AcDbEntity
  8
0
  6
Continuous
 62
     7
100
AcDbSpline
210
0.0
220
0.0
230
1.0
 70
     8
 71
     3
 72
    23
 73
    19
 74
    17
 42
0.000000001
 43
0.0000000001
 44
0.00000001
 40
0.0
 40
0.0
 40
0.0
 40
0.0
 40
1.844675045653745
 40
3.741765608303941
 40
5.732079408432878
 40
7.837985499485278
 40
10.06224861053898
 40
12.39051788779186
 40
14.7953534835341
 40
17.24062664220443
 40
19.68589980087463
 40
22.09073539661694
 40
24.41900467386986
 40
26.6432677849236
 40
28.74917387597603
 40
30.73948767610485
 40
32.63657823875498
 40
34.48125328440887
 40
34.48125328440887
 40
34.48125328440887
 40
34.48125328440887
 10
220.9897148471484
 20
837.6858059308989
 30
0.0
 10
221.4869238277843
 20
838.0534554045622
 30
0.0
 10
222.495469740177
 20
838.7992009162758
 30
0.0
 10
224.3441809191041
 20
839.3922008965222
 30
0.0
 10
226.345253822695
 20
839.5762333462205
 30
0.0
 10
228.4516596142481
 20
839.3154525919628
 30
0.0
 10
230.5760568237294
 20
838.6355086834523
 30
0.0
 10
232.6432858426277
 20
837.5617346134713
 30
0.0
 10
234.5766626784119
 20
836.1364505662236
 30
0.0
 10
236.3048909586699
 20
834.4131918127555
 30
0.0
 10
237.7635850418299
 20
832.4565095974119
 30
0.0
 10
238.8980537138897
 20
830.339350785088
 30
0.0
 10
239.6654959940797
 20
828.1399283798834
 30
0.0
 10
240.0349806189178
 20
825.940185591651
 30
0.0
 10
239.9921715149878
 20
823.8181301397128
 30
0.0
 10
239.5241590698355
 20
821.8638719532878
 30
0.0
 10
238.6731397044605
 20
820.1188366987958
 30
0.0
 10
237.7909650793733
 20
819.2271701935948
 30
0.0
 10
237.3560566148478
 20
818.7875822804376
 30
0.0
 11
220.9897148471484
 21
837.6858059308989
 31
0.0
 11
222.5295251977558
 21
838.7015864825145
 31
0.0
 11
224.3246355499277
 21
839.3152080625055
 31
0.0
 11
226.3060618887022
 21
839.5030875333085
 31
0.0
 11
228.3976583932777
 21
839.2580068711627
 31
0.0
 11
230.5190465218152
 21
838.5893823148552
 31
0.0
 11
232.5887025713422
 21
837.5229107197224
 31
0.0
 11
234.5270903775042
 21
836.0995741639057
 31
0.0
 11
236.2597195999211
 21
834.3740722685556
 31
0.0
 11
237.7200051117487
 21
832.4127138012744
 31
0.0
 11
238.8518304142655
 21
830.2908736275608
 31
0.0
 11
239.6116984001041
 21
828.0900922957001
 31
0.0
 11
239.9704096404345
 21
825.8949447755415
 31
0.0
 11
239.9141770876605
 21
823.7897895867446
 31
0.0
 11
239.4451637311898
 21
821.8555260310236
 31
0.0
 11
238.5813915362137
 21
820.1664877795056
 31
0.0
 11
237.3560566148478
 21
818.7875822804376
 31
0.0
  0
SPLINE
  5
A1
330
47
100
AcDbEntity
  8
0
  6
Continuous
 62
     7
100
AcDbSpline
210
0.0
220
0.0
230
1.0
 70
     8
 71
     3
 72
    19
 73
    15
 74
    13
 42
0.000000001
 43
0.0000000001
 44
0.00000001
 40
0.0
 40
0.0
 40
0.0
 40
0.0
 40
1.520827085514718
 40
3.087386707984904
 40
4.73471591800794
 40
6.481066100605642
 40
8.327135501356278
 40
10.25859339208168
 40
12.24990358586324
 40
14.26841995606162
 40
16.27844154422154
 40
18.24521028527443
 40
20.13892777991965
 40
21.93884419470773
 40
21.93884419470773
 40
21.93884419470773
 40
21.93884419470773
 10
215.1263490239183
 20
829.3007930374696
 30
0.0
 10
215.5371467495395
 20
829.6030021221769
 30
0.0
 10
216.3710952376419
 20
830.2165079589784
 30
0.0
 10
217.9052811239791
 20
830.6884186851287
 30
0.0
 10
219.5641696855301
 20
830.8121793212786
 30
0.0
 10
221.3058642521884
 20
830.5586716531709
 30
0.0
 10
223.054270863295
 20
829.9516816471414
 30
0.0
 10
224.7438519386277
 20
829.0151283033258
 30
0.0
 10
226.3083890415493
 20
827.7879108275463
 30
0.0
 10
227.6859315264649
 20
826.3187942426316
 30
0.0
 10
228.8248801855169
 20
824.6660746765534
 30
0.0
 10
229.6694752207693
 20
822.8947697793368
 30
0.0
 10
230.2226972113547
 20
821.0746907201523
 30
0.0
 10
230.2969541814246
 20
819.8421322122704
 30
0.0
 10
230.3331397688425
 20
819.241503577285
 30
0.0
 11
215.1263490239183
 21
829.3007930374696
 31
0.0
 11
216.3991322028773
 21
830.1332220258319
 31
0.0
 11
217.8870569967634
 21
830.6233127063063
 31
0.0
 11
219.5294246831855
 21
830.7510699614901
 31
0.0
 11
221.2592343914808
 21
830.5112839381806
 31
0.0
 11
223.0059190071905
 21
829.913734703452
 31
0.0
 11
224.6982228236719
 21
828.9828010978637
 31
0.0
 11
226.2671080060076
 21
827.7564587420911
 31
0.0
 11
227.6485729013864
 21
826.2847376136908
 31
0.0
 11
228.7862596239336
 21
824.6276752415873
 31
0.0
 11
229.6337578234969
 21
822.852872131411
 31
0.0
 11
230.1564922264423
 21
821.0327307383322
 31
0.0
 11
230.3331397688425
 21
819.241503577285
 31
0.0
  0
SPLINE
  5
A2
330
47
100
AcDbEntity
  8
0
  6
Continuous
 62
     7
100
AcDbSpline
210
0.0
220
0.0
230
1.0
 70
     8
 71
     3
 72
    11
 73
     7
 74
     5
 42
0.000000001
 43
0.0000000001
 44
0.00000001
 40
0.0
 40
0.0
 40
0.0
 40
0.0
 40
1.503679866526145
 40
2.933609155971002
 40
4.305936845155608
 40
5.646514962367712
 40
5.646514962367712
 40
5.646514962367712
 40
5.646514962367712
 10
230.3331397688425
 20
819.241503577285
 30
0.0
 10
230.3082986050786
 20
818.7390964884673
 30
0.0
 10
230.2598346407674
 20
817.758923736134
 30
0.0
 10
229.8368882364153
 20
816.375209621403
 30
0.0
 10
229.1818017239916
 20
815.1402779237696
 30
0.0
 10
228.5377028729654
 20
814.4990673192184
 30
0.0
 10
228.2194224380779
 20
814.1822141171004
 30
0.0
 11
230.3331397688425
 21
819.241503577285
 31
0.0
 11
230.1956438251574
 21
817.7441231954188
 31
0.0
 11
229.7875228439991
 21
816.3736725238275
 31
0.0
 11
229.121735128669
 21
815.1736683525382
 31
0.0
 11
228.2194224380779
 21
814.1822141171004
 31
0.0
  0
SPLINE
  5
A3
330
47
100
AcDbEntity
  8
0
  6
Continuous
 62
     7
100
AcDbSpline
210
0.0
220
0.0
230
1.0
 70
     8
 71
     3
 72
    11
 73
     7
 74
     5
 42
0.000000001
 43
0.0000000001
 44
0.00000001
 40
0.0
 40
0.0
 40
0.0
 40
0.0
 40
1.549368573760227
 40
3.121684017407795
 40
4.737193197664931
 40
6.411383883934258
 40
6.411383883934258
 40
6.411383883934258
 40
6.411383883934258
 10
238.8290273739408
 20
817.0867421518961
 30
0.0
 10
238.4196491575647
 20
816.7692220394304
 30
0.0
 10
237.5948296343159
 20
816.1294792060175
 30
0.0
 10
236.143886536337
 20
815.4765381344569
 30
0.0
 10
234.5724814212745
 20
815.0435252980546
 30
0.0
 10
233.475174078412
 20
814.9769149779473
 30
0.0
 10
232.9167335486908
 20
814.9430157295394
 30
0.0
 11
238.8290273739408
 21
817.0867421518961
 31
0.0
 11
237.5685452525497
 21
816.1857827729136
 31
0.0
 11
236.1440002270642
 21
815.5203150197124
 31
0.0
 11
234.5832297240472
 21
815.1033433734725
 31
0.0
 11
232.9167335486908
 21
814.9430157295394
 31
0.0
  0
SPLINE
  5
A4
330
47
100
AcDbEntity
  8
0
  6
Continuous
 62
     7
100
AcDbSpline
210
0.0
220
0.0
230
1.0
 70
     8
 71
     3
 72
    13
 73
     9
 74
     7
 42
0.000000001
 43
0.0000000001
 44
0.00000001
 40
0.0
 40
0.0
 40
0.0
 40
0.0
 40
1.829772765666074
 40
3.717453229951464
 40
5.635648860317094
 40
7.553844490682671
 40
9.441524954968207
 40
11.27129772063421
 40
11.27129772063421
 40
11.27129772063421
 40
11.27129772063421
 10
229.9969323904318
 20
821.7281706434204
 30
0.0
 10
229.446941362381
 20
821.9947470604332
 30
0.0
 10
228.329553482612
 20
822.5363363795755
 30
0.0
 10
226.8244049482367
 20
823.6786361743073
 30
0.0
 10
225.4672188733885
 20
825.0274924690161
 30
0.0
 10
224.3260810929124
 20
826.563452075096
 30
0.0
 10
223.4105187224224
 20
828.2163484654725
 30
0.0
 10
223.0341111523378
 20
829.3996455565051
 30
0.0
 10
222.8488390715644
 20
829.9820778471018
 30
0.0
 11
229.9969323904318
 21
821.7281706434204
 31
0.0
 11
228.3771328449934
 21
822.579239271167
 31
0.0
 11
226.8606194395574
 21
823.7033053866799
 31
0.0
 11
225.5034188746797
 21
825.0588425897515
 31
0.0
 11
224.3556707797937
 21
826.5957709527214
 31
0.0
 11
223.4597786244932
 21
828.2573108369802
 31
0.0
 11
222.8488390715644
 21
829.9820778471018
 31
0.0
  0
SPLINE
  5
A5
330
47
100
AcDbEntity
  8
0
  6
Continuous
 62
     7
100
AcDbSpline
210
0.0
220
0.0
230
1.0
 70
     8
 71
     3
 72
    11
 73
     7
 74
     5
 42
0.000000001
 43
0.0000000001
 44
0.00000001
 40
0.0
 40
0.0
 40
0.0
 40
0.0
 40
1.674190686269376
 40
3.289699866526505
 40
4.862015310174026
 40
6.411383883934235
 40
6.411383883934235
 40
6.411383883934235
 40
6.411383883934235
 10
216.5503917809913
 20
833.8412393800007
 30
0.0
 10
216.6637205541405
 20
834.3891094133613
 30
0.0
 10
216.8864058652551
 20
835.4656462644066
 30
0.0
 10
217.5394638719656
 20
836.9590750012417
 30
0.0
 10
218.3929855204149
 20
838.3018589422136
 30
0.0
 10
219.1439980758785
 20
839.026826721064
 30
0.0
 10
219.5167440880554
 20
839.3866460594405
 30
0.0
 11
216.5503917809913
 21
833.8412393800007
 31
0.0
 11
216.9471458775566
 21
835.4677388859169
 31
0.0
 11
217.5828079931892
 21
836.9529336851285
 31
0.0
 11
218.4449566878833
 21
838.2678007842771
 31
0.0
 11
219.5167440880554
 21
839.3866460594405
 31
0.0
  0
SPLINE
  5
A6
330
47
100
AcDbEntity
  8
0
  6
Continuous
 62
     7
100
AcDbSpline
210
0.0
220
0.0
230
1.0
 70
     8
 71
     3
 72
    23
 73
    19
 74
    17
 42
0.000000001
 43
0.0000000001
 44
0.00000001
 40
0.0
 40
0.0
 40
0.0
 40
0.0
 40
1.475740035394395
 40
2.993412484617947
 40
4.585663524291243
 40
6.27038839691575
 40
8.049798885668581
 40
9.912414307506662
 40
11.83628278428135
 40
13.79250131151543
 40
15.74871983874943
 40
17.67258831552399
 40
19.53520373736204
 40
21.31461422611494
 40
22.99933909873952
 40
24.5915901384127
 40
26.10926258763635
 40
27.58500262303069
 40
27.58500262303069
 40
27.58500262303069
 40
27.58500262303069
 10
228.2194224380779
 20
814.1822141171004
 30
0.0
 10
227.8216552538734
 20
813.888094538395
 30
0.0
 10
227.0148185230843
 20
813.2914981316608
 30
0.0
 10
225.5358495816354
 20
812.8170981459854
 30
0.0
 10
223.9349912590984
 20
812.6698721861246
 30
0.0
 10
222.2498666261178
 20
812.8784967891811
 30
0.0
 10
220.5503488585712
 20
813.4224519159159
 30
0.0
 10
218.8965656434346
 20
814.2814711719525
 30
0.0
 10
217.3498641747279
 20
815.4216984099376
 30
0.0
 10
215.9672815503815
 20
816.8003054129323
 30
0.0
 10
214.8003262836557
 20
818.3656511853774
 30
0.0
 10
213.8927513458341
 20
820.0593782353415
 30
0.0
 10
213.2787975216333
 20
821.8189161595303
 30
0.0
 10
212.9832098218302
 20
823.5787103900678
 30
0.0
 10
213.0174571052831
 20
825.2763547513091
 30
0.0
 10
213.3918670614581
 20
826.8397613001024
 30
0.0
 10
214.0726825549791
 20
828.2357895018093
 30
0.0
 10
214.7784222525641
 20
828.949122707213
 30
0.0
 10
215.1263490239183
 20
829.3007930374696
 30
0.0
 11
228.2194224380779
 21
814.1822141171004
 31
0.0
 11
226.9875741575919
 21
813.369589675808
 31
0.0
 11
225.5514858758544
 21
812.8786924118152
 31
0.0
 11
223.9663448048348
 21
812.7283888351727
 31
0.0
 11
222.2930676011745
 21
812.9244533648895
 31
0.0
 11
220.5959570983445
 21
813.4593530099353
 31
0.0
 11
218.9402322587229
 21
814.3125302860417
 31
0.0
 11
217.3895220137932
 21
815.4511995306952
 31
0.0
 11
216.0034186358597
 21
816.8316010469753
 31
0.0
 11
214.8351902263977
 21
818.4006878208002
 31
0.0
 11
213.9297299843842
 21
820.098159959771
 31
0.0
 11
213.3218355957133
 21
821.8587850252596
 31
0.0
 11
213.034866603449
 21
823.6149030413865
 31
0.0
 11
213.0798526456682
 21
825.299027192424
 31
0.0
 11
213.4550633308448
 21
826.8464380370008
 31
0.0
 11
214.1460810868256
 21
828.1976686382153
 31
0.0
 11
215.1263490239183
 21
829.3007930374696
 31
0.0
  0
SPLINE
  5
A7
330
47
100
AcDbEntity
  8
0
  6
Continuous
 62
     7
100
AcDbSpline
210
0.0
220
0.0
230
1.0
 70
     8
 71
     3
 72
    23
 73
    19
 74
    17
 42
0.000000001
 43
0.0000000001
 44
0.00000001
 40
0.0
 40
0.0
 40
0.0
 40
0.0
 40
1.844675045653745
 40
3.741765608303941
 40
5.732079408432878
 40
7.83798549948529
 40
10.06224861053899
 40
12.39051788779187
 40
14.79535348353418
 40
17.24062664220434
 40
19.68589980087463
 40
22.09073539661695
 40
24.41900467386976
 40
26.64326778492361
 40
28.74917387597604
 40
30.73948767610486
 40
32.63657823875499
 40
34.48125328440883
 40
34.48125328440883
 40
34.48125328440883
 40
34.48125328440883
 10
213.4897148471484
 20
831.1906154025157
 30
0.0
 10
213.9869238277843
 20
831.558264876179
 30
0.0
 10
214.995469740177
 20
832.3040103878927
 30
0.0
 10
216.8441809191041
 20
832.8970103681389
 30
0.0
 10
218.845253822695
 20
833.0810428178374
 30
0.0
 10
220.9516596142481
 20
832.8202620635797
 30
0.0
 10
223.0760568237294
 20
832.1403181550689
 30
0.0
 10
225.1432858426277
 20
831.0665440850878
 30
0.0
 10
227.0766626784118
 20
829.6412600378404
 30
0.0
 10
228.8048909586701
 20
827.9180012843726
 30
0.0
 10
230.2635850418298
 20
825.9613190690284
 30
0.0
 10
231.3980537138896
 20
823.8441602567049
 30
0.0
 10
232.1654959940798
 20
821.6447378515002
 30
0.0
 10
232.5349806189177
 20
819.4449950632679
 30
0.0
 10
232.4921715149878
 20
817.3229396113295
 30
0.0
 10
232.0241590698354
 20
815.368681424904
 30
0.0
 10
231.1731397044605
 20
813.6236461704129
 30
0.0
 10
230.2909650793734
 20
812.7319796652116
 30
0.0
 10
229.8560566148479
 20
812.2923917520543
 30
0.0
 11
213.4897148471484
 21
831.1906154025157
 31
0.0
 11
215.0295251977558
 21
832.2063959541313
 31
0.0
 11
216.8246355499277
 21
832.8200175341223
 31
0.0
 11
218.8060618887022
 21
833.0078970049253
 31
0.0
 11
220.8976583932777
 21
832.7628163427794
 31
0.0
 11
223.0190465218152
 21
832.0941917864719
 31
0.0
 11
225.0887025713422
 21
831.0277201913391
 31
0.0
 11
227.0270903775042
 21
829.6043836355223
 31
0.0
 11
228.7597195999211
 21
827.8788817401723
 31
0.0
 11
230.2200051117487
 21
825.9175232728911
 31
0.0
 11
231.3518304142655
 21
823.7956830991775
 31
0.0
 11
232.1116984001041
 21
821.5949017673169
 31
0.0
 11
232.4704096404345
 21
819.3997542471582
 31
0.0
 11
232.4141770876605
 21
817.2945990583613
 31
0.0
 11
231.9451637311898
 21
815.3603355026403
 31
0.0
 11
231.0813915362137
 21
813.6712972511223
 31
0.0
 11
229.8560566148479
 21
812.2923917520543
 31
0.0
  0
SPLINE
  5
A8
330
47
100
AcDbEntity
  8
0
  6
Continuous
 62
     7
100
AcDbSpline
210
0.0
220
0.0
230
1.0
 70
     8
 71
     3
 72
    19
 73
    15
 74
    13
 42
0.000000001
 43
0.0000000001
 44
0.00000001
 40
0.0
 40
0.0
 40
0.0
 40
0.0
 40
1.901033858312964
 40
3.859233387724837
 40
5.918394900819786
 40
8.101332629326645
 40
10.40891938042021
 40
12.82324174393356
 40
15.31237948622677
 40
17.83552494898615
 40
20.34805193411349
 40
22.80651286026257
 40
25.17365972839053
 40
27.42355524663166
 40
27.42355524663166
 40
27.42355524663166
 40
27.42355524663166
 10
229.8560566148479
 20
812.2923917520543
 30
0.0
 10
229.342559457438
 20
811.9146303958878
 30
0.0
 10
228.3001238483569
 20
811.1477480964755
 30
0.0
 10
226.382391488102
 20
810.5578596909984
 30
0.0
 10
224.30878078567
 20
810.4031588962948
 30
0.0
 10
222.1316625770479
 20
810.7200434821416
 30
0.0
 10
219.9461543131506
 20
811.4787809900472
 30
0.0
 10
217.8341779690015
 20
812.6494726700752
 30
0.0
 10
215.8785065903696
 20
814.1834945149212
 30
0.0
 10
214.1565784842689
 20
816.0198902460746
 30
0.0
 10
212.7328926603099
 20
818.0857897035478
 30
0.0
 10
211.6771488666358
 20
820.299920824933
 30
0.0
 10
210.9856213768412
 20
822.5750196485569
 30
0.0
 10
210.8928001679601
 20
824.115717783635
 30
0.0
 10
210.8475681836926
 20
824.866503577285
 30
0.0
 11
229.8560566148479
 21
812.2923917520543
 31
0.0
 11
228.2650776411492
 21
811.2518555166014
 31
0.0
 11
226.4051716487916
 21
810.6392421660084
 31
0.0
 11
224.3522120407639
 21
810.4795455970286
 31
0.0
 11
222.1899499053947
 21
810.7792781261655
 31
0.0
 11
220.0065941357577
 21
811.5262146695762
 31
0.0
 11
217.8912143651559
 21
812.6898816765618
 31
0.0
 11
215.9301078872363
 21
814.2228096212774
 31
0.0
 11
214.2032767680128
 21
816.0624610317777
 31
0.0
 11
212.7811683648287
 21
818.1337889969071
 31
0.0
 11
211.7217956153747
 21
820.3522928846276
 31
0.0
 11
211.0683776116929
 21
822.6274696259759
 31
0.0
 11
210.8475681836926
 21
824.866503577285
 31
0.0
  0
SPLINE
  5
A9
330
47
100
AcDbEntity
  8
0
  6
Continuous
 62
     7
100
AcDbSpline
210
0.0
220
0.0
230
1.0
 70
     8
 71
     3
 72
    19
 73
    15
 74
    13
 42
0.000000001
 43
0.0000000001
 44
0.00000001
 40
0.0
 40
0.0
 40
0.0
 40
0.0
 40
2.243219953831368
 40
4.553895399490834
 40
6.983705985350468
 40
9.559572505175561
 40
12.2825248715778
 40
15.1314252606002
 40
18.06860779655384
 40
21.0459194426182
 40
24.01070128501618
 40
26.91168517775188
 40
29.7049184820144
 40
32.35979519336306
 40
32.35979519336306
 40
32.35979519336306
 40
32.35979519336306
 10
219.5167440880554
 20
839.3866460594405
 30
0.0
 10
220.1226707340751
 20
839.83240445992
 30
0.0
 10
221.3527447520371
 20
840.7373255756814
 30
0.0
 10
223.6156689388179
 20
841.4333938925542
 30
0.0
 10
226.0625295680428
 20
841.6159408299553
 30
0.0
 10
228.6315290544322
 20
841.2420170181432
 30
0.0
 10
231.2104288058413
 20
840.3467067585493
 30
0.0
 10
233.7025608919253
 20
838.9652905759306
 30
0.0
 10
236.0102531186962
 20
837.1551447989239
 30
0.0
 10
238.0421282838635
 20
834.9881978361564
 30
0.0
 10
239.7220775562389
 20
832.5504364764274
 30
0.0
 10
240.9678552324926
 20
829.9377617532908
 30
0.0
 10
241.7838576715751
 20
827.2531451416703
 30
0.0
 10
241.8933866953866
 20
825.4351213421171
 30
0.0
 10
241.9467604368186
 20
824.5491941056683
 30
0.0
 11
219.5167440880554
 21
839.3866460594405
 31
0.0
 11
221.3940992770198
 21
840.6144788172749
 31
0.0
 11
223.5887883480019
 21
841.3373625709746
 31
0.0
 11
226.0112806854746
 21
841.5258045223708
 31
0.0
 11
228.5627500052102
 21
841.1721201379892
 31
0.0
 11
231.1391098133819
 21
840.2907350167646
 31
0.0
 11
233.635257942692
 21
838.9176079485218
 31
0.0
 11
235.949363586637
 21
837.1087529737573
 31
0.0
 11
237.9870243073208
 21
834.9379643093669
 31
0.0
 11
239.665112223078
 21
832.4937973105142
 31
0.0
 11
240.9151720674338
 21
829.875962723004
 31
0.0
 11
241.6862053117783
 21
827.1912541682129
 31
0.0
 11
241.9467604368186
 21
824.5491941056683
 31
0.0
  0
SPLINE
  5
AA
330
47
100
AcDbEntity
  8
0
  6
Continuous
 62
     7
100
AcDbSpline
210
0.0
220
0.0
230
1.0
 70
     8
 71
     3
 72
    23
 73
    19
 74
    17
 42
0.000000001
 43
0.0000000001
 44
0.00000001
 40
0.0
 40
0.0
 40
0.0
 40
0.0
 40
2.176716554887335
 40
4.415283419621501
 40
6.763853704160474
 40
9.248822891797959
 40
11.87345336292233
 40
14.6208111100487
 40
17.45851711286199
 40
20.34393943982477
 40
23.22936176678747
 40
26.06706776960085
 40
28.81442551672714
 40
31.43905598785148
 40
33.92402517548919
 40
36.27259546002805
 40
38.51116232476217
 40
40.68787887964941
 40
40.68787887964941
 40
40.68787887964941
 40
40.68787887964941
 10
221.5167440880554
 20
841.1186968670094
 30
0.0
 10
222.1034506854795
 20
841.5525232461342
 30
0.0
 10
223.2935348613157
 20
842.4325029523293
 30
0.0
 10
225.4750140539732
 20
843.1322429276909
 30
0.0
 10
227.8362800805124
 20
843.3494012182423
 30
0.0
 10
230.3218389147808
 20
843.0416799279033
 30
0.0
 10
232.8286276220032
 20
842.2393461157947
 30
0.0
 10
235.2679578642871
 20
840.9722927132636
 30
0.0
 10
237.549342530441
 20
839.2904575376798
 30
0.0
 10
239.5886519010198
 20
837.2570122087857
 30
0.0
 10
241.3099109189702
 20
834.9481271948328
 30
0.0
 10
242.6485839518442
 20
832.4498797963853
 30
0.0
 10
243.5541658424248
 20
829.8545613582669
 30
0.0
 10
243.9901576997942
 20
827.2588648681087
 30
0.0
 10
243.939642957435
 20
824.7548394345436
 30
0.0
 10
243.3873882722031
 20
822.4488147742494
 30
0.0
 10
242.3831854221596
 20
820.3896731722516
 30
0.0
 10
241.3422193623204
 20
819.3375066972327
 30
0.0
 10
240.8290273739408
 20
818.818792959465
 30
0.0
 11
221.5167440880554
 21
841.1186968670094
 31
0.0
 11
223.3337203017723
 21
842.3173179179157
 31
0.0
 11
225.451950517335
 21
843.0413913823052
 31
0.0
 11
227.790033597089
 21
843.2630891578528
 31
0.0
 11
230.258117472488
 21
842.9738939765207
 31
0.0
 11
232.7613554641622
 21
842.1849170000779
 31
0.0
 11
235.2035496026041
 21
840.926480517821
 31
0.0
 11
237.4908472138754
 21
839.2469433819572
 31
0.0
 11
239.5353496963272
 21
837.2108511454442
 31
0.0
 11
241.2584866002838
 21
834.8964481540525
 31
0.0
 11
242.5940404572536
 21
832.3926767490702
 31
0.0
 11
243.4906846805432
 21
829.7957547774746
 31
0.0
 11
243.9139639441331
 21
827.2054807036876
 31
0.0
 11
243.8476095318597
 21
824.7213975809071
 31
0.0
 11
243.2941737712243
 21
822.4389665851563
 31
0.0
 11
242.2749225811525
 21
820.445901448365
 31
0.0
 11
240.8290273739408
 21
818.818792959465
 31
0.0
  0
ENDBLK
  5
49
330
47
100
AcDbEntity
  8
0
100
AcDbBlockEnd
  0
BLOCK
  5
4C
330
4A
100
AcDbEntity
  8
0
100
AcDbBlockBegin
  2
Allg1
 70
     0
 10
227.6728857310031
 20
826.937655999996
 30
0.0
  3
Allg1
  1

  0
INSERT
  5
4B
330
4A
100
AcDbEntity
  8
0
100
AcDbBlockReference
  2
1411107_A_EXSH_M25_68L_N_S-select__1
 10
210.8475681836926
 20
810.3791536574895
 30
0.0
  0
ENDBLK
  5
4D
330
4A
100
AcDbEntity
  8
0
100
AcDbBlockEnd
  0
BLOCK
  5
4F
330
4E
100
AcDbEntity
  8
0
100
AcDbBlockBegin
  2
1411107_A_EXSH_M25_68L_N_S-select__2
 70
     0
 10
77.02835699997999
 20
827.2000012370606
 30
0.0
  3
1411107_A_EXSH_M25_68L_N_S-select__2
  1

  0
LINE
  5
AB
330
4E
100
AcDbEntity
  8
0
  6
Continuous
 62
     7
100
AcDbLine
 10
77.02835699997999
 20
854.7000012370606
 30
0.0
 11
77.02835699997999
 21
829.7000012370606
 31
0.0
  0
LINE
  5
AC
330
4E
100
AcDbEntity
  8
0
  6
Continuous
 62
     7
100
AcDbLine
 10
77.02835699997999
 20
829.7000012370606
 30
0.0
 11
92.02835699997999
 21
829.7000012370606
 31
0.0
  0
LINE
  5
AD
330
4E
100
AcDbEntity
  8
0
  6
Continuous
 62
     7
100
AcDbLine
 10
92.02835699997999
 20
856.9500012370606
 30
0.0
 11
92.02835699997999
 21
854.7000012370606
 31
0.0
  0
LINE
  5
AE
330
4E
100
AcDbEntity
  8
0
  6
Continuous
 62
     7
100
AcDbLine
 10
92.02835699997999
 20
829.7000012370606
 30
0.0
 11
92.02835699997999
 21
827.4500012370606
 31
0.0
  0
LINE
  5
AF
330
4E
100
AcDbEntity
  8
0
  6
Continuous
 62
     7
100
AcDbLine
 10
92.02835699997999
 20
854.7000012370606
 30
0.0
 11
92.02835699997999
 21
829.7000012370606
 31
0.0
  0
LINE
  5
B0
330
4E
100
AcDbEntity
  8
0
  6
Continuous
 62
     7
100
AcDbLine
 10
96.02835699997998
 20
857.2000012370606
 30
0.0
 11
96.02835699997999
 21
856.9500012370606
 31
0.0
  0
LINE
  5
B1
330
4E
100
AcDbEntity
  8
0
  6
Continuous
 62
     7
100
AcDbLine
 10
92.02835699997999
 20
856.9500012370606
 30
0.0
 11
96.02835699997999
 21
856.9500012370606
 31
0.0
  0
LINE
  5
B2
330
4E
100
AcDbEntity
  8
0
  6
Continuous
 62
     7
100
AcDbLine
 10
100.6398306709549
 20
857.2000012370606
 30
0.0
 11
100.9613697018722
 21
857.2000012370606
 31
0.0
  0
LINE
  5
B3
330
4E
100
AcDbEntity
  8
0
  6
Continuous
 62
     7
100
AcDbLine
 10
96.02835699997998
 20
857.2000012370606
 30
0.0
 11
100.6398306709549
 21
857.2000012370606
 31
0.0
  0
LINE
  5
B4
330
4E
100
AcDbEntity
  8
0
  6
Continuous
 62
     7
100
AcDbLine
 10
77.02835699997999
 20
854.7000012370606
 30
0.0
 11
92.02835699997999
 21
854.7000012370606
 31
0.0
  0
LINE
  5
B5
330
4E
100
AcDbEntity
  8
0
  6
Continuous
 62
     7
100
AcDbLine
 10
96.02835699997998
 20
829.4009447172639
 30
0.0
 11
96.02835699997999
 21
827.4500012370606
 31
0.0
  0
LINE
  5
B6
330
4E
100
AcDbEntity
  8
0
  6
Continuous
 62
     7
100
AcDbLine
 10
96.02835699997998
 20
844.4009447172639
 30
0.0
 11
96.02835699997998
 21
839.9990577568574
 31
0.0
  0
LINE
  5
B7
330
4E
100
AcDbEntity
  8
0
  6
Continuous
 62
     7
100
AcDbLine
 10
92.02835699997999
 20
827.4500012370606
 30
0.0
 11
96.02835699997999
 21
827.4500012370606
 31
0.0
  0
LINE
  5
B8
330
4E
100
AcDbEntity
  8
0
  6
Continuous
 62
     7
100
AcDbLine
 10
96.02835699997998
 20
829.4009447172639
 30
0.0
 11
96.02835699997998
 21
839.9990577568574
 31
0.0
  0
LINE
  5
B9
330
4E
100
AcDbEntity
  8
0
  6
Continuous
 62
     7
100
AcDbLine
 10
100.6398306709549
 20
844.4009447172639
 30
0.0
 11
100.6398306709549
 21
839.9990577568574
 31
0.0
  0
LINE
  5
BA
330
4E
100
AcDbEntity
  8
0
  6
Continuous
 62
     7
100
AcDbLine
 10
101.02835699998
 20
856.9500012370606
 30
0.0
 11
100.9613697018722
 21
857.2000012370606
 31
0.0
  0
LINE
  5
BB
330
4E
100
AcDbEntity
  8
0
  6
Continuous
 62
     7
100
AcDbLine
 10
96.02835699997998
 20
827.2000012370606
 30
0.0
 11
100.6398306709549
 21
827.2000012370606
 31
0.0
  0
LINE
  5
BC
330
4E
100
AcDbEntity
  8
0
  6
Continuous
 62
     7
100
AcDbLine
 10
96.02835699997999
 20
827.4500012370606
 30
0.0
 11
96.02835699997998
 21
827.2000012370606
 31
0.0
  0
LINE
  5
BD
330
4E
100
AcDbEntity
  8
0
  6
Continuous
 62
     7
100
AcDbLine
 10
96.02835699997998
 20
829.4009447172639
 30
0.0
 11
100.6398306709549
 21
829.4009447172639
 31
0.0
  0
LINE
  5
BE
330
4E
100
AcDbEntity
  8
0
  6
Continuous
 62
     7
100
AcDbLine
 10
100.6398306709549
 20
829.4009447172639
 30
0.0
 11
100.6398306709549
 21
827.2000012370606
 31
0.0
  0
LINE
  5
BF
330
4E
100
AcDbEntity
  8
0
  6
Continuous
 62
     7
100
AcDbLine
 10
96.02835699997998
 20
839.9990577568574
 30
0.0
 11
100.6398306709549
 21
839.9990577568574
 31
0.0
  0
LINE
  5
C0
330
4E
100
AcDbEntity
  8
0
  6
Continuous
 62
     7
100
AcDbLine
 10
96.02835699997998
 20
844.4009447172639
 30
0.0
 11
100.6398306709549
 21
844.4009447172639
 31
0.0
  0
LINE
  5
C1
330
4E
100
AcDbEntity
  8
0
  6
Continuous
 62
     7
100
AcDbLine
 10
100.6398306709549
 20
857.2000012370606
 30
0.0
 11
100.6398306709549
 21
854.9990577568574
 31
0.0
  0
LINE
  5
C2
330
4E
100
AcDbEntity
  8
0
  6
Continuous
 62
     7
100
AcDbLine
 10
96.02835699997999
 20
856.9500012370606
 30
0.0
 11
96.02835699997998
 21
854.9990577568574
 31
0.0
  0
LINE
  5
C3
330
4E
100
AcDbEntity
  8
0
  6
Continuous
 62
     7
100
AcDbLine
 10
96.02835699997998
 20
854.9990577568574
 30
0.0
 11
100.6398306709549
 21
854.9990577568574
 31
0.0
  0
LINE
  5
C4
330
4E
100
AcDbEntity
  8
0
  6
Continuous
 62
     7
100
AcDbLine
 10
96.02835699997998
 20
844.4009447172639
 30
0.0
 11
96.02835699997998
 21
854.9990577568574
 31
0.0
  0
LINE
  5
C5
330
4E
100
AcDbEntity
  8
0
  6
Continuous
 62
     7
100
AcDbLine
 10
101.02835699998
 20
827.4500012370606
 30
0.0
 11
100.9613697018722
 21
827.2000012370606
 31
0.0
  0
LINE
  5
C6
330
4E
100
AcDbEntity
  8
0
  6
Continuous
 62
     7
100
AcDbLine
 10
101.02835699998
 20
856.9500012370606
 30
0.0
 11
101.02835699998
 21
827.4500012370606
 31
0.0
  0
LINE
  5
C7
330
4E
100
AcDbEntity
  8
0
  6
Continuous
 62
     7
100
AcDbLine
 10
100.9613697018722
 20
827.2000012370606
 30
0.0
 11
100.6398306709549
 21
827.2000012370606
 31
0.0
  0
LINE
  5
C8
330
4E
100
AcDbEntity
  8
1
  6
DOT_CENTER
 62
     2
100
AcDbLine
 10
77.02835699998002
 20
842.2000012370604
 30
0.0
 11
96.02835699997999
 21
842.2000012370606
 31
0.0
  0
LINE
  5
C9
330
4E
100
AcDbEntity
  8
1
  6
DOT_CENTER
 62
     2
100
AcDbLine
 10
101.02835699998
 20
842.2000012370606
 30
0.0
 11
100.9613697018722
 21
842.2000012370606
 31
0.0
  0
SPLINE
  5
CA
330
4E
100
AcDbEntity
  8
0
  6
Continuous
 62
     7
100
AcDbSpline
210
0.0
220
0.0
230
1.0
 70
     8
 71
     3
 72
    11
 73
     7
 74
     5
 42
0.000000001
 43
0.0000000001
 44
0.00000001
 40
0.0
 40
0.0
 40
0.0
 40
0.0
 40
2.711881464947609
 40
5.31107651008478
 40
7.91028471680527
 40
10.62217993727358
 40
10.62217993727358
 40
10.62217993727358
 40
10.62217993727358
 10
100.6398306709549
 20
829.4009447172639
 30
0.0
 10
100.7318621394642
 20
830.3004882427663
 30
0.0
 10
100.9121008914064
 20
832.0621966925099
 30
0.0
 10
100.9854811277774
 20
834.6999921502884
 30
0.0
 10
100.912102077084
 20
837.3377922624272
 30
0.0
 10
100.7318625404977
 20
839.099509659159
 30
0.0
 10
100.6398306709549
 20
839.9990577568574
 30
0.0
 11
100.6398306709549
 21
829.4009447172639
 31
0.0
 11
100.8817783607775
 21
832.1020116170388
 31
0.0
 11
100.9613697018701
 21
834.6999877724453
 31
0.0
 11
100.8817791942255
 21
837.2979771211433
 31
0.0
 11
100.6398306709549
 21
839.9990577568574
 31
0.0
  0
SPLINE
  5
CB
330
4E
100
AcDbEntity
  8
0
  6
Continuous
 62
     7
100
AcDbSpline
210
0.0
220
0.0
230
1.0
 70
     8
 71
     3
 72
    11
 73
     7
 74
     5
 42
0.000000001
 43
0.0000000001
 44
0.00000001
 40
0.0
 40
0.0
 40
0.0
 40
0.0
 40
2.711881464948517
 40
5.311076510084778
 40
7.910284716804357
 40
10.62217993727358
 40
10.62217993727358
 40
10.62217993727358
 40
10.62217993727358
 10
100.6398306709549
 20
844.4009447172639
 30
0.0
 10
100.7318621394642
 20
845.3004882427664
 30
0.0
 10
100.9121008914064
 20
847.06219669251
 30
0.0
 10
100.9854811277774
 20
849.6999921502888
 30
0.0
 10
100.912102077084
 20
852.3377922624265
 30
0.0
 10
100.7318625404977
 20
854.0995096591589
 30
0.0
 10
100.6398306709549
 20
854.9990577568574
 30
0.0
 11
100.6398306709549
 21
844.4009447172639
 31
0.0
 11
100.8817783607775
 21
847.1020116170397
 31
0.0
 11
100.9613697018701
 21
849.6999877724453
 31
0.0
 11
100.8817791942256
 21
852.2979771211424
 31
0.0
 11
100.6398306709549
 21
854.9990577568574
 31
0.0
  0
ENDBLK
  5
50
330
4E
100
AcDbEntity
  8
0
100
AcDbBlockEnd
  0
BLOCK
  5
53
330
51
100
AcDbEntity
  8
0
100
AcDbBlockBegin
  2
Drfsicht1
 70
     0
 10
89.02835699999
 20
842.2000012370606
 30
0.0
  3
Drfsicht1
  1

  0
INSERT
  5
52
330
51
100
AcDbEntity
  8
0
100
AcDbBlockReference
  2
1411107_A_EXSH_M25_68L_N_S-select__2
 10
77.02835699997999
 20
827.2000012370606
 30
0.0
  0
ENDBLK
  5
54
330
51
100
AcDbEntity
  8
0
100
AcDbBlockEnd
  0
BLOCK
  5
56
330
55
100
AcDbEntity
  8
0
100
AcDbBlockBegin
  2
1411107_A_EXSH_M25_68L_N_S-select__3
 70
     0
 10
200.99775100003
 20
889.7999999999955
 30
0.0
  3
1411107_A_EXSH_M25_68L_N_S-select__3
  1

  0
LINE
  5
CC
330
55
100
AcDbEntity
  8
0
  6
Continuous
 62
     7
100
AcDbLine
 10
205.99775100003
 20
912.1188234163069
 30
0.0
 11
205.99775100003
 21
915.9309693486064
 31
0.0
  0
LINE
  5
CD
330
55
100
AcDbEntity
  8
0
  6
Continuous
 62
     7
100
AcDbLine
 10
205.99775100003
 20
889.7999999999955
 30
0.0
 11
205.99775100003
 21
889.9502072350732
 31
0.0
  0
LINE
  5
CE
330
55
100
AcDbEntity
  8
0
  6
Continuous
 62
     7
100
AcDbLine
 10
205.99775100003
 20
891.2499999999955
 30
0.0
 11
205.99775100003
 21
889.9502072350732
 31
0.0
  0
LINE
  5
CF
330
55
100
AcDbEntity
  8
0
  6
Continuous
 62
     7
100
AcDbLine
 10
205.99775100003
 20
896.0690306513847
 30
0.0
 11
205.99775100003
 21
899.8811765836842
 31
0.0
  0
LINE
  5
D0
330
55
100
AcDbEntity
  8
0
  6
Continuous
 62
     7
100
AcDbLine
 10
205.99775100003
 20
912.1188234163069
 30
0.0
 11
205.99775100003
 21
899.8811765836842
 31
0.0
  0
LINE
  5
D1
330
55
100
AcDbEntity
  8
0
  6
Continuous
 62
     7
100
AcDbLine
 10
205.99775100003
 20
896.0690306513847
 30
0.0
 11
205.99775100003
 21
891.2499999999955
 31
0.0
  0
LINE
  5
D2
330
55
100
AcDbEntity
  8
0
  6
Continuous
 62
     7
100
AcDbLine
 10
205.99775100003
 20
920.7499999999955
 30
0.0
 11
205.99775100003
 21
915.9309693486064
 31
0.0
  0
LINE
  5
D3
330
55
100
AcDbEntity
  8
0
  6
Continuous
 62
     7
100
AcDbLine
 10
209.99775100003
 20
893.4999999999955
 30
0.0
 11
209.99775100003
 21
918.4999999999955
 31
0.0
  0
LINE
  5
D4
330
55
100
AcDbEntity
  8
0
  6
Continuous
 62
     7
100
AcDbLine
 10
209.99775100003
 20
918.4999999999955
 30
0.0
 11
209.99775100003
 21
920.7499999999955
 31
0.0
  0
LINE
  5
D5
330
55
100
AcDbEntity
  8
0
  6
Continuous
 62
     7
100
AcDbLine
 10
205.99775100003
 20
922.0497927649178
 30
0.0
 11
205.99775100003
 21
922.1999999999955
 31
0.0
  0
LINE
  5
D6
330
55
100
AcDbEntity
  8
0
  6
Continuous
 62
     7
100
AcDbLine
 10
201.3862773290551
 20
922.0497927649178
 30
0.0
 11
201.3862773290551
 21
922.1999999999955
 31
0.0
  0
LINE
  5
D7
330
55
100
AcDbEntity
  8
0
  6
Continuous
 62
     7
100
AcDbLine
 10
200.99775100003
 20
920.7499999999955
 30
0.0
 11
201.3862773290551
 21
922.1999999999955
 31
0.0
  0
LINE
  5
D8
330
55
100
AcDbEntity
  8
0
  6
Continuous
 62
     7
100
AcDbLine
 10
205.99775100003
 20
922.1999999999955
 30
0.0
 11
201.3862773290551
 21
922.1999999999955
 31
0.0
  0
LINE
  5
D9
330
55
100
AcDbEntity
  8
0
  6
Continuous
 62
     7
100
AcDbLine
 10
209.99775100003
 20
920.7499999999955
 30
0.0
 11
205.99775100003
 21
920.7499999999955
 31
0.0
  0
LINE
  5
DA
330
55
100
AcDbEntity
  8
0
  6
Continuous
 62
     7
100
AcDbLine
 10
205.99775100003
 20
889.9502072350732
 30
0.0
 11
201.3862773290551
 21
889.9502072350732
 31
0.0
  0
LINE
  5
DB
330
55
100
AcDbEntity
  8
0
  6
Continuous
 62
     7
100
AcDbLine
 10
205.99775100003
 20
889.7999999999955
 30
0.0
 11
201.3862773290551
 21
889.7999999999955
 31
0.0
  0
LINE
  5
DC
330
55
100
AcDbEntity
  8
0
  6
Continuous
 62
     7
100
AcDbLine
 10
200.99775100003
 20
891.2499999999955
 30
0.0
 11
201.3862773290551
 21
889.7999999999955
 31
0.0
  0
LINE
  5
DD
330
55
100
AcDbEntity
  8
0
  6
Continuous
 62
     7
100
AcDbLine
 10
209.99775100003
 20
891.2499999999955
 30
0.0
 11
205.99775100003
 21
891.2499999999955
 31
0.0
  0
LINE
  5
DE
330
55
100
AcDbEntity
  8
0
  6
Continuous
 62
     7
100
AcDbLine
 10
209.99775100003
 20
891.2499999999955
 30
0.0
 11
209.99775100003
 21
893.4999999999955
 31
0.0
  0
LINE
  5
DF
330
55
100
AcDbEntity
  8
0
  6
Continuous
 62
     7
100
AcDbLine
 10
205.99775100003
 20
896.0690306513847
 30
0.0
 11
201.3862773290551
 21
896.0690306513847
 31
0.0
  0
LINE
  5
E0
330
55
100
AcDbEntity
  8
0
  6
Continuous
 62
     7
100
AcDbLine
 10
201.3862773290551
 20
889.7999999999955
 30
0.0
 11
201.3862773290551
 21
889.9502072350732
 31
0.0
  0
LINE
  5
E1
330
55
100
AcDbEntity
  8
0
  6
Continuous
 62
     7
100
AcDbLine
 10
201.3862773290551
 20
912.1188234163069
 30
0.0
 11
201.3862773290551
 21
915.9309693486064
 31
0.0
  0
LINE
  5
E2
330
55
100
AcDbEntity
  8
0
  6
Continuous
 62
     7
100
AcDbLine
 10
200.99775100003
 20
891.2499999999955
 30
0.0
 11
200.99775100003
 21
920.7499999999955
 31
0.0
  0
LINE
  5
E3
330
55
100
AcDbEntity
  8
0
  6
Continuous
 62
     7
100
AcDbLine
 10
205.99775100003
 20
922.0497927649178
 30
0.0
 11
205.99775100003
 21
920.7499999999955
 31
0.0
  0
LINE
  5
E4
330
55
100
AcDbEntity
  8
0
  6
Continuous
 62
     7
100
AcDbLine
 10
201.3862773290551
 20
896.0690306513847
 30
0.0
 11
201.3862773290551
 21
899.8811765836842
 31
0.0
  0
LINE
  5
E5
330
55
100
AcDbEntity
  8
0
  6
Continuous
 62
     7
100
AcDbLine
 10
205.99775100003
 20
899.8811765836842
 30
0.0
 11
201.3862773290551
 21
899.8811765836842
 31
0.0
  0
LINE
  5
E6
330
55
100
AcDbEntity
  8
0
  6
Continuous
 62
     7
100
AcDbLine
 10
205.99775100003
 20
912.1188234163069
 30
0.0
 11
201.3862773290551
 21
912.1188234163069
 31
0.0
  0
LINE
  5
E7
330
55
100
AcDbEntity
  8
0
  6
Continuous
 62
     7
100
AcDbLine
 10
205.99775100003
 20
922.0497927649178
 30
0.0
 11
201.3862773290551
 21
922.0497927649178
 31
0.0
  0
LINE
  5
E8
330
55
100
AcDbEntity
  8
0
  6
Continuous
 62
     7
100
AcDbLine
 10
224.99775100003
 20
918.4999999999955
 30
0.0
 11
209.99775100003
 21
918.4999999999955
 31
0.0
  0
LINE
  5
E9
330
55
100
AcDbEntity
  8
0
  6
Continuous
 62
     7
100
AcDbLine
 10
205.99775100003
 20
915.9309693486064
 30
0.0
 11
201.3862773290551
 21
915.9309693486064
 31
0.0
  0
LINE
  5
EA
330
55
100
AcDbEntity
  8
0
  6
Continuous
 62
     7
100
AcDbLine
 10
224.99775100003
 20
893.4999999999955
 30
0.0
 11
209.99775100003
 21
893.4999999999955
 31
0.0
  0
LINE
  5
EB
330
55
100
AcDbEntity
  8
0
  6
Continuous
 62
     7
100
AcDbLine
 10
224.99775100003
 20
905.9999999999955
 30
0.0
 11
224.99775100003
 21
918.4999999999955
 31
0.0
  0
LINE
  5
EC
330
55
100
AcDbEntity
  8
0
  6
Continuous
 62
     7
100
AcDbLine
 10
224.99775100003
 20
893.4999999999955
 30
0.0
 11
224.99775100003
 21
905.9999999999955
 31
0.0
  0
LINE
  5
ED
330
55
100
AcDbEntity
  8
1
  6
DOT_CENTER
 62
     2
100
AcDbLine
 10
224.99775100003
 20
905.9999999999955
 30
0.0
 11
205.99775100003
 21
905.9999999999955
 31
0.0
  0
LINE
  5
EE
330
55
100
AcDbEntity
  8
1
  6
DOT_CENTER
 62
     2
100
AcDbLine
 10
200.9977510000299
 20
905.9999999999949
 30
0.0
 11
201.3862773290553
 21
905.9999999999949
 31
0.0
  0
SPLINE
  5
EF
330
55
100
AcDbEntity
  8
0
  6
Continuous
 62
     7
100
AcDbSpline
210
0.0
220
0.0
230
1.0
 70
     8
 71
     3
 72
    11
 73
     7
 74
     5
 42
0.000000001
 43
0.0000000001
 44
0.00000001
 40
0.0
 40
0.0
 40
0.0
 40
0.0
 40
1.555562364428954
 40
3.064874173053932
 40
4.605712943823355
 40
6.129738088069483
 40
6.129738088069483
 40
6.129738088069483
 40
6.129738088069483
 10
201.3862773290551
 20
899.8811765836842
 30
0.0
 10
201.3372544895568
 20
900.3974023084035
 30
0.0
 10
201.2406663905626
 20
901.4145051448833
 30
0.0
 10
201.141535456946
 20
902.94671754361
 30
0.0
 10
201.0767058430593
 20
904.4703143260648
 30
0.0
 10
201.0687128584754
 20
905.4919730243791
 30
0.0
 10
201.0647382981378
 20
905.9999999999955
 30
0.0
 11
201.3862773290551
 21
899.8811765836842
 31
0.0
 11
201.2470969465192
 21
901.4305000137766
 31
0.0
 11
201.1477037872261
 21
902.9365355831675
 31
0.0
 11
201.0854263288345
 21
904.476115277929
 31
0.0
 11
201.0647382981378
 21
905.9999999999955
 31
0.0
  0
SPLINE
  5
F0
330
55
100
AcDbEntity
  8
0
  6
Continuous
 62
     7
100
AcDbSpline
210
0.0
220
0.0
230
1.0
 70
     8
 71
     3
 72
    11
 73
     7
 74
     5
 42
0.000000001
 43
0.0000000001
 44
0.00000001
 40
0.0
 40
0.0
 40
0.0
 40
0.0
 40
1.555562299872709
 40
3.064874049676591
 40
4.605712883809785
 40
6.129738088068055
 40
6.129738088068055
 40
6.129738088068055
 40
6.129738088068055
 10
201.3862773290551
 20
912.1188234163069
 30
0.0
 10
201.337254491459
 20
911.6025977130257
 30
0.0
 10
201.2406663960926
 20
910.5854949175175
 30
0.0
 10
201.141535461371
 20
909.053282538935
 30
0.0
 10
201.0767058440117
 20
907.5296857350612
 30
0.0
 10
201.0687128587894
 20
906.5080269956173
 30
0.0
 10
201.0647382981378
 20
905.9999999999955
 30
0.0
 11
201.3862773290551
 21
912.1188234163069
 31
0.0
 11
201.2470969515451
 21
910.5695000505792
 31
0.0
 11
201.1477037938323
 21
909.0634645400331
 31
0.0
 11
201.0854263304593
 21
907.5238847820575
 31
0.0
 11
201.0647382981378
 21
905.9999999999955
 31
0.0
  0
SPLINE
  5
F1
330
55
100
AcDbEntity
  8
0
  6
Continuous
 62
     7
100
AcDbSpline
210
0.0
220
0.0
230
1.0
 70
     8
 71
     3
 72
    11
 73
     7
 74
     5
 42
0.000000001
 43
0.0000000001
 44
0.00000001
 40
0.0
 40
0.0
 40
0.0
 40
0.0
 40
1.578135438718631
 40
3.080186919860847
 40
4.582230839024945
 40
6.160358312965123
 40
6.160358312965123
 40
6.160358312965123
 40
6.160358312965123
 10
201.3862773290551
 20
889.9502072350732
 30
0.0
 10
201.2942965149751
 20
890.4686293959245
 30
0.0
 10
201.1147694157916
 20
891.4804799146052
 30
0.0
 10
201.0403403767099
 20
893.0096242127181
 30
0.0
 10
201.11477060039
 20
894.5387657356807
 30
0.0
 10
201.2942969166619
 20
895.5506111228377
 30
0.0
 10
201.3862773290551
 20
896.0690306513847
 30
0.0
 11
201.3862773290551
 21
889.9502072350732
 31
0.0
 11
201.1443279155151
 21
891.5096853355972
 31
0.0
 11
201.06473829814
 21
893.0096267170281
 31
0.0
 11
201.144328748991
 21
894.5095604816166
 31
0.0
 11
201.3862773290551
 21
896.0690306513847
 31
0.0
  0
SPLINE
  5
F2
330
55
100
AcDbEntity
  8
0
  6
Continuous
 62
     7
100
AcDbSpline
210
0.0
220
0.0
230
1.0
 70
     8
 71
     3
 72
    11
 73
     7
 74
     5
 42
0.000000001
 43
0.0000000001
 44
0.00000001
 40
0.0
 40
0.0
 40
0.0
 40
0.0
 40
1.578127473943143
 40
3.080171393104273
 40
4.582222874246147
 40
6.16035831296512
 40
6.16035831296512
 40
6.16035831296512
 40
6.16035831296512
 10
201.3862773290551
 20
922.0497927649178
 30
0.0
 10
201.2942969166618
 20
921.5313732363701
 30
0.0
 10
201.1147706003899
 20
920.5195278492133
 30
0.0
 10
201.0403403767099
 20
918.9903863262497
 30
0.0
 10
201.1147694157917
 20
917.4612420281389
 30
0.0
 10
201.2942965149751
 20
916.449391509458
 30
0.0
 10
201.3862773290551
 20
915.9309693486064
 30
0.0
 11
201.3862773290551
 21
922.0497927649178
 31
0.0
 11
201.1443287489907
 21
920.4903225951468
 31
0.0
 11
201.06473829814
 21
918.9903888305613
 31
0.0
 11
201.144327915515
 21
917.4904474491307
 31
0.0
 11
201.3862773290551
 21
915.9309693486064
 31
0.0
  0
ENDBLK
  5
57
330
55
100
AcDbEntity
  8
0
100
AcDbBlockEnd
  0
BLOCK
  5
5A
330
58
100
AcDbEntity
  8
0
100
AcDbBlockBegin
  2
Rckans1
 70
     0
 10
212.99775100002
 20
905.9999999999955
 30
0.0
  3
Rckans1
  1

  0
INSERT
  5
59
330
58
100
AcDbEntity
  8
0
100
AcDbBlockReference
  2
1411107_A_EXSH_M25_68L_N_S-select__3
 10
200.99775100003
 20
889.7999999999955
 30
0.0
  0
MTEXT
  5
F4
330
58
100
AcDbEntity
  8
1
 62
     6
100
AcDbMText
 10
213.00000000002
 20
863.2000007629395
 30
0.0
 40
5.0
 41
0.0
 71
     2
 72
     1
  1
 
  7
CONVERTER_11
 73
     1
 44
1.32052821128451
  0
ENDBLK
  5
5B
330
58
100
AcDbEntity
  8
0
100
AcDbBlockEnd
  0
BLOCK
  5
5D
330
5C
100
AcDbEntity
  8
0
100
AcDbBlockBegin
  2
1411107_A_EXSH_M25_68L_N_S-select__4
 70
     0
 10
141.0
 20
889.8
 30
0.0
  3
1411107_A_EXSH_M25_68L_N_S-select__4
  1

  0
LINE
  5
F5
330
5C
100
AcDbEntity
  8
0
  6
Continuous
 62
     7
100
AcDbLine
 10
171.0
 20
899.8811765836887
 30
0.0
 11
171.0
 21
912.1188234163113
 31
0.0
  0
LINE
  5
F6
330
5C
100
AcDbEntity
  8
0
  6
Continuous
 62
     7
100
AcDbLine
 10
141.0
 20
912.1188234163113
 30
0.0
 11
141.0
 21
899.8811765836887
 31
0.0
  0
LINE
  5
F7
330
5C
100
AcDbEntity
  8
0
  6
Continuous
 62
     7
100
AcDbLine
 10
153.7990565197967
 20
922.0497927649222
 30
0.0
 11
143.2009434802033
 21
915.9309693486109
 31
0.0
  0
LINE
  5
F8
330
5C
100
AcDbEntity
  8
0
  6
Continuous
 62
     7
100
AcDbLine
 10
168.7990565197967
 20
915.9309693486109
 30
0.0
 11
158.2009434802033
 21
922.0497927649222
 31
0.0
  0
LINE
  5
F9
330
5C
100
AcDbEntity
  8
0
  6
Continuous
 62
     7
100
AcDbLine
 10
143.2009434802033
 20
896.0690306513891
 30
0.0
 11
153.7990565197967
 21
889.9502072350778
 31
0.0
  0
LINE
  5
FA
330
5C
100
AcDbEntity
  8
0
  6
Continuous
 62
     7
100
AcDbLine
 10
158.2009434802033
 20
889.9502072350778
 30
0.0
 11
168.7990565197967
 21
896.0690306513891
 31
0.0
  0
LINE
  5
FB
330
5C
100
AcDbEntity
  8
1
  6
DOT_CENTER
 62
     2
100
AcDbLine
 10
172.225
 20
906.0
 30
0.0
 11
139.775
 21
906.0
 31
0.0
  0
LINE
  5
FC
330
5C
100
AcDbEntity
  8
1
  6
DOT_CENTER
 62
     2
100
AcDbLine
 10
156.0
 20
922.225
 30
0.0
 11
156.0
 21
889.775
 31
0.0
  0
ARC
  5
FD
330
5C
100
AcDbEntity
  8
0
  6
Continuous
 62
     7
100
AcDbCircle
 10
156.0
 20
906.0
 30
0.0
 40
16.19999999999999
100
AcDbArc
 50
322.1916065662727
 51
337.8083934337272
  0
ARC
  5
FE
330
5C
100
AcDbEntity
  8
0
  6
Continuous
 62
     7
100
AcDbCircle
 10
156.0
 20
906.0
 30
0.0
 40
16.19999999999999
100
AcDbArc
 50
142.1916065662728
 51
157.8083934337273
  0
ARC
  5
FF
330
5C
100
AcDbEntity
  8
0
  6
Continuous
 62
     7
100
AcDbCircle
 10
156.0
 20
906.0
 30
0.0
 40
16.2
100
AcDbArc
 50
82.19160656627272
 51
97.80839343372728
  0
ARC
  5
100
330
5C
100
AcDbEntity
  8
0
  6
Continuous
 62
     7
100
AcDbCircle
 10
156.0
 20
906.0
 30
0.0
 40
16.2
100
AcDbArc
 50
262.1916065662728
 51
277.8083934337272
  0
ARC
  5
101
330
5C
100
AcDbEntity
  8
0
  6
Continuous
 62
     7
100
AcDbCircle
 10
156.0
 20
906.0
 30
0.0
 40
16.2
100
AcDbArc
 50
22.19160656627274
 51
37.80839343372727
  0
ARC
  5
102
330
5C
100
AcDbEntity
  8
0
  6
Continuous
 62
     7
100
AcDbCircle
 10
156.0
 20
906.0
 30
0.0
 40
16.2
100
AcDbArc
 50
202.1916065662728
 51
217.8083934337272
  0
CIRCLE
  5
103
330
5C
100
AcDbEntity
  8
0
  6
Continuous
 62
     7
100
AcDbCircle
 10
156.0
 20
906.0
 30
0.0
 40
12.5
  0
CIRCLE
  5
104
330
5C
100
AcDbEntity
  8
0
  6
Continuous
 62
     7
100
AcDbCircle
 10
156.0
 20
906.0
 30
0.0
 40
10.0
  0
CIRCLE
  5
105
330
5C
100
AcDbEntity
  8
0
  6
Continuous
 62
     7
100
AcDbCircle
 10
156.0
 20
906.0
 30
0.0
 40
14.75
  0
ENDBLK
  5
5E
330
5C
100
AcDbEntity
  8
0
100
AcDbBlockEnd
  0
BLOCK
  5
61
330
5F
100
AcDbEntity
  8
0
100
AcDbBlockBegin
  2
SA_Links1
 70
     0
 10
156.0
 20
906.0
 30
0.0
  3
SA_Links1
  1

  0
INSERT
  5
60
330
5F
100
AcDbEntity
  8
0
100
AcDbBlockReference
  2
1411107_A_EXSH_M25_68L_N_S-select__4
 10
141.0
 20
889.8
 30
0.0
  0
MTEXT
  5
106
330
5F
100
AcDbEntity
  8
1
 62
     6
100
AcDbMText
 10
156.0
 20
863.2000007629395
 30
0.0
 40
5.0
 41
0.0
 71
     2
 72
     1
  1
 
  7
CONVERTER_11
 73
     1
 44
1.32052821128451
  0
ENDBLK
  5
62
330
5F
100
AcDbEntity
  8
0
100
AcDbBlockEnd
  0
BLOCK
  5
64
330
63
100
AcDbEntity
  8
0
100
AcDbBlockBegin
  2
1411107_A_EXSH_M25_68L_N_S-select__5
 70
     0
 10
21.99999999998987
 20
889.7999999999955
 30
0.0
  3
1411107_A_EXSH_M25_68L_N_S-select__5
  1

  0
LINE
  5
107
330
63
100
AcDbEntity
  8
0
  6
Continuous
 62
     7
100
AcDbLine
 10
39.20094348019318
 20
922.0497927649178
 30
0.0
 11
49.79905651978659
 21
915.9309693486064
 31
0.0
  0
LINE
  5
108
330
63
100
AcDbEntity
  8
0
  6
Continuous
 62
     7
100
AcDbLine
 10
21.99999999998987
 20
905.9999999999955
 30
0.0
 11
21.99999999998987
 21
912.1188234163069
 31
0.0
  0
LINE
  5
109
330
63
100
AcDbEntity
  8
0
  6
Continuous
 62
     7
100
AcDbLine
 10
24.20094348019318
 20
915.9309693486064
 30
0.0
 11
34.79905651978658
 21
922.0497927649178
 31
0.0
  0
LINE
  5
10A
330
63
100
AcDbEntity
  8
0
  6
Continuous
 62
     7
100
AcDbLine
 10
51.99999999998988
 20
912.1188234163069
 30
0.0
 11
51.99999999998988
 21
905.9999999999955
 31
0.0
  0
LINE
  5
10B
330
63
100
AcDbEntity
  8
0
  6
Continuous
 62
     7
100
AcDbLine
 10
51.99999999998988
 20
899.8811765836842
 30
0.0
 11
51.99999999998988
 21
905.9999999999955
 31
0.0
  0
LINE
  5
10C
330
63
100
AcDbEntity
  8
0
  6
Continuous
 62
     7
100
AcDbLine
 10
39.20094348019319
 20
889.9502072350732
 30
0.0
 11
49.79905651978658
 21
896.0690306513847
 31
0.0
  0
LINE
  5
10D
330
63
100
AcDbEntity
  8
0
  6
Continuous
 62
     7
100
AcDbLine
 10
24.20094348019317
 20
896.0690306513847
 30
0.0
 11
34.79905651978658
 21
889.9502072350732
 31
0.0
  0
LINE
  5
10E
330
63
100
AcDbEntity
  8
0
  6
Continuous
 62
     7
100
AcDbLine
 10
21.99999999998987
 20
905.9999999999955
 30
0.0
 11
21.99999999998988
 21
899.8811765836841
 31
0.0
  0
LINE
  5
10F
330
63
100
AcDbEntity
  8
1
  6
DOT_CENTER
 62
     2
100
AcDbLine
 10
53.22499999998989
 20
905.9999999999955
 30
0.0
 11
20.77499999998987
 21
905.9999999999955
 31
0.0
  0
LINE
  5
110
330
63
100
AcDbEntity
  8
1
  6
DOT_CENTER
 62
     2
100
AcDbLine
 10
36.99999999998988
 20
922.2249999999955
 30
0.0
 11
36.99999999998988
 21
889.7749999999954
 31
0.0
  0
ARC
  5
111
330
63
100
AcDbEntity
  8
0
  6
Continuous
 62
     7
100
AcDbCircle
 10
36.99999999998988
 20
905.9999999999955
 30
0.0
 40
16.20000000000004
100
AcDbArc
 50
22.19160656627312
 51
37.80839343372724
  0
ARC
  5
112
330
63
100
AcDbEntity
  8
0
  6
Continuous
 62
     7
100
AcDbCircle
 10
36.99999999998988
 20
905.9999999999955
 30
0.0
 40
16.2
100
AcDbArc
 50
142.1916065662728
 51
157.8083934337269
  0
ARC
  5
113
330
63
100
AcDbEntity
  8
0
  6
Continuous
 62
     7
100
AcDbCircle
 10
36.99999999998988
 20
905.9999999999955
 30
0.0
 40
16.19999999999993
100
AcDbArc
 50
322.1916065662731
 51
337.8083934337276
  0
ARC
  5
114
330
63
100
AcDbEntity
  8
0
  6
Continuous
 62
     7
100
AcDbCircle
 10
36.99999999998988
 20
905.9999999999955
 30
0.0
 40
16.2
100
AcDbArc
 50
202.1916065662728
 51
217.8083934337269
  0
ARC
  5
115
330
63
100
AcDbEntity
  8
0
  6
Continuous
 62
     7
100
AcDbCircle
 10
36.99999999998988
 20
905.9999999999955
 30
0.0
 40
16.2
100
AcDbArc
 50
262.1916065662728
 51
277.8083934337272
  0
ARC
  5
116
330
63
100
AcDbEntity
  8
0
  6
Continuous
 62
     7
100
AcDbCircle
 10
36.99999999998988
 20
905.9999999999955
 30
0.0
 40
16.20000000000011
100
AcDbArc
 50
82.19160656627282
 51
97.80839343372719
  0
CIRCLE
  5
117
330
63
100
AcDbEntity
  8
0
  6
Continuous
 62
     7
100
AcDbCircle
 10
36.99999999998988
 20
905.9999999999955
 30
0.0
 40
14.75
  0
ENDBLK
  5
65
330
63
100
AcDbEntity
  8
0
100
AcDbBlockEnd
  0
BLOCK
  5
68
330
66
100
AcDbEntity
  8
0
100
AcDbBlockBegin
  2
SA_Rechts1
 70
     0
 10
36.99999999998987
 20
905.9999999999955
 30
0.0
  3
SA_Rechts1
  1

  0
INSERT
  5
67
330
66
100
AcDbEntity
  8
0
100
AcDbBlockReference
  2
1411107_A_EXSH_M25_68L_N_S-select__5
 10
21.99999999998987
 20
889.7999999999955
 30
0.0
  0
MTEXT
  5
118
330
66
100
AcDbEntity
  8
1
 62
     6
100
AcDbMText
 10
36.99999999999
 20
863.2000007629395
 30
0.0
 40
5.0
 41
0.0
 71
     2
 72
     1
  1
 
  7
CONVERTER_11
 73
     1
 44
1.32052821128451
  0
ENDBLK
  5
69
330
66
100
AcDbEntity
  8
0
100
AcDbBlockEnd
  0
BLOCK
  5
6B
330
6A
100
AcDbEntity
  8
0
100
AcDbBlockBegin
  2
1411107_A_EXSH_M25_68L_N_S-select__6
 70
     0
 10
77.00224899998153
 20
889.7999999999955
 30
0.0
  3
1411107_A_EXSH_M25_68L_N_S-select__6
  1

  0
LINE
  5
119
330
6A
100
AcDbEntity
  8
0
  6
Continuous
 62
     7
100
AcDbLine
 10
77.00224899998153
 20
893.4999999999955
 30
0.0
 11
92.00224899998153
 21
893.4999999999955
 31
0.0
  0
LINE
  5
11A
330
6A
100
AcDbEntity
  8
0
  6
Continuous
 62
     7
100
AcDbLine
 10
77.00224899998153
 20
918.4999999999955
 30
0.0
 11
92.00224899998153
 21
918.4999999999955
 31
0.0
  0
LINE
  5
11B
330
6A
100
AcDbEntity
  8
0
  6
Continuous
 62
     7
100
AcDbLine
 10
77.00224899998153
 20
918.4999999999955
 30
0.0
 11
77.00224899998153
 21
893.4999999999955
 31
0.0
  0
LINE
  5
11C
330
6A
100
AcDbEntity
  8
0
  6
Continuous
 62
     7
100
AcDbLine
 10
96.00224899998153
 20
899.8811765836841
 30
0.0
 11
96.00224899998153
 21
912.1188234163069
 31
0.0
  0
LINE
  5
11D
330
6A
100
AcDbEntity
  8
0
  6
Continuous
 62
     7
100
AcDbLine
 10
96.00224899998153
 20
899.8811765836841
 30
0.0
 11
96.00224899998153
 21
896.0690306513847
 31
0.0
  0
LINE
  5
11E
330
6A
100
AcDbEntity
  8
0
  6
Continuous
 62
     7
100
AcDbLine
 10
100.6137226709564
 20
899.8811765836841
 30
0.0
 11
100.6137226709564
 21
896.0690306513847
 31
0.0
  0
LINE
  5
11F
330
6A
100
AcDbEntity
  8
0
  6
Continuous
 62
     7
100
AcDbLine
 10
96.00224899998153
 20
899.8811765836841
 30
0.0
 11
100.6137226709564
 21
899.8811765836841
 31
0.0
  0
LINE
  5
120
330
6A
100
AcDbEntity
  8
0
  6
Continuous
 62
     7
100
AcDbLine
 10
96.00224899998153
 20
891.2499999999955
 30
0.0
 11
96.00224899998153
 21
896.0690306513847
 31
0.0
  0
LINE
  5
121
330
6A
100
AcDbEntity
  8
0
  6
Continuous
 62
     7
100
AcDbLine
 10
92.00224899998153
 20
893.4999999999955
 30
0.0
 11
92.00224899998153
 21
891.2499999999955
 31
0.0
  0
LINE
  5
122
330
6A
100
AcDbEntity
  8
0
  6
Continuous
 62
     7
100
AcDbLine
 10
92.00224899998153
 20
905.9999999999955
 30
0.0
 11
92.00224899998153
 21
893.4999999999955
 31
0.0
  0
LINE
  5
123
330
6A
100
AcDbEntity
  8
0
  6
Continuous
 62
     7
100
AcDbLine
 10
101.0022489999815
 20
920.7499999999955
 30
0.0
 11
101.0022489999815
 21
905.9999999999955
 31
0.0
  0
LINE
  5
124
330
6A
100
AcDbEntity
  8
0
  6
Continuous
 62
     7
100
AcDbLine
 10
101.0022489999815
 20
905.9999999999955
 30
0.0
 11
101.0022489999815
 21
891.2499999999955
 31
0.0
  0
LINE
  5
125
330
6A
100
AcDbEntity
  8
0
  6
Continuous
 62
     7
100
AcDbLine
 10
96.00224899998153
 20
889.9502072350732
 30
0.0
 11
96.00224899998153
 21
889.7999999999955
 31
0.0
  0
LINE
  5
126
330
6A
100
AcDbEntity
  8
0
  6
Continuous
 62
     7
100
AcDbLine
 10
96.00224899998153
 20
889.7999999999955
 30
0.0
 11
100.6137226709564
 21
889.7999999999955
 31
0.0
  0
LINE
  5
127
330
6A
100
AcDbEntity
  8
0
  6
Continuous
 62
     7
100
AcDbLine
 10
96.00224899998153
 20
896.0690306513847
 30
0.0
 11
100.6137226709564
 21
896.0690306513847
 31
0.0
  0
LINE
  5
128
330
6A
100
AcDbEntity
  8
0
  6
Continuous
 62
     7
100
AcDbLine
 10
96.00224899998153
 20
889.9502072350732
 30
0.0
 11
96.00224899998153
 21
891.2499999999955
 31
0.0
  0
LINE
  5
129
330
6A
100
AcDbEntity
  8
0
  6
Continuous
 62
     7
100
AcDbLine
 10
92.00224899998153
 20
891.2499999999955
 30
0.0
 11
96.00224899998153
 21
891.2499999999955
 31
0.0
  0
LINE
  5
12A
330
6A
100
AcDbEntity
  8
0
  6
Continuous
 62
     7
100
AcDbLine
 10
100.6137226709564
 20
889.9502072350732
 30
0.0
 11
100.6137226709564
 21
889.7999999999955
 31
0.0
  0
LINE
  5
12B
330
6A
100
AcDbEntity
  8
0
  6
Continuous
 62
     7
100
AcDbLine
 10
101.0022489999815
 20
891.2499999999955
 30
0.0
 11
100.6137226709564
 21
889.7999999999955
 31
0.0
  0
LINE
  5
12C
330
6A
100
AcDbEntity
  8
0
  6
Continuous
 62
     7
100
AcDbLine
 10
96.00224899998153
 20
889.9502072350732
 30
0.0
 11
100.6137226709564
 21
889.9502072350732
 31
0.0
  0
LINE
  5
12D
330
6A
100
AcDbEntity
  8
0
  6
Continuous
 62
     7
100
AcDbLine
 10
92.00224899998153
 20
920.7499999999955
 30
0.0
 11
92.00224899998153
 21
918.4999999999955
 31
0.0
  0
LINE
  5
12E
330
6A
100
AcDbEntity
  8
0
  6
Continuous
 62
     7
100
AcDbLine
 10
92.00224899998153
 20
918.4999999999955
 30
0.0
 11
92.00224899998153
 21
905.9999999999955
 31
0.0
  0
LINE
  5
12F
330
6A
100
AcDbEntity
  8
0
  6
Continuous
 62
     7
100
AcDbLine
 10
96.00224899998153
 20
922.1999999999955
 30
0.0
 11
96.00224899998153
 21
922.0497927649178
 31
0.0
  0
LINE
  5
130
330
6A
100
AcDbEntity
  8
0
  6
Continuous
 62
     7
100
AcDbLine
 10
96.00224899998153
 20
920.7499999999955
 30
0.0
 11
96.00224899998153
 21
922.0497927649178
 31
0.0
  0
LINE
  5
131
330
6A
100
AcDbEntity
  8
0
  6
Continuous
 62
     7
100
AcDbLine
 10
96.00224899998153
 20
922.0497927649178
 30
0.0
 11
100.6137226709564
 21
922.0497927649178
 31
0.0
  0
LINE
  5
132
330
6A
100
AcDbEntity
  8
0
  6
Continuous
 62
     7
100
AcDbLine
 10
92.00224899998153
 20
920.7499999999955
 30
0.0
 11
96.00224899998153
 21
920.7499999999955
 31
0.0
  0
LINE
  5
133
330
6A
100
AcDbEntity
  8
0
  6
Continuous
 62
     7
100
AcDbLine
 10
100.6137226709564
 20
922.1999999999955
 30
0.0
 11
100.6137226709564
 21
922.0497927649178
 31
0.0
  0
LINE
  5
134
330
6A
100
AcDbEntity
  8
0
  6
Continuous
 62
     7
100
AcDbLine
 10
101.0022489999815
 20
920.7499999999955
 30
0.0
 11
100.6137226709564
 21
922.1999999999955
 31
0.0
  0
LINE
  5
135
330
6A
100
AcDbEntity
  8
0
  6
Continuous
 62
     7
100
AcDbLine
 10
96.00224899998153
 20
922.1999999999955
 30
0.0
 11
100.6137226709564
 21
922.1999999999955
 31
0.0
  0
LINE
  5
136
330
6A
100
AcDbEntity
  8
0
  6
Continuous
 62
     7
100
AcDbLine
 10
96.00224899998153
 20
915.9309693486064
 30
0.0
 11
100.6137226709564
 21
915.9309693486064
 31
0.0
  0
LINE
  5
137
330
6A
100
AcDbEntity
  8
0
  6
Continuous
 62
     7
100
AcDbLine
 10
96.00224899998153
 20
915.9309693486064
 30
0.0
 11
96.00224899998153
 21
912.1188234163069
 31
0.0
  0
LINE
  5
138
330
6A
100
AcDbEntity
  8
0
  6
Continuous
 62
     7
100
AcDbLine
 10
100.6137226709564
 20
915.9309693486064
 30
0.0
 11
100.6137226709564
 21
912.1188234163069
 31
0.0
  0
LINE
  5
139
330
6A
100
AcDbEntity
  8
0
  6
Continuous
 62
     7
100
AcDbLine
 10
96.00224899998153
 20
915.9309693486064
 30
0.0
 11
96.00224899998153
 21
920.7499999999955
 31
0.0
  0
LINE
  5
13A
330
6A
100
AcDbEntity
  8
0
  6
Continuous
 62
     7
100
AcDbLine
 10
96.00224899998153
 20
912.1188234163069
 30
0.0
 11
100.6137226709564
 21
912.1188234163069
 31
0.0
  0
LINE
  5
13B
330
6A
100
AcDbEntity
  8
1
  6
DOT_CENTER
 62
     2
100
AcDbLine
 10
77.00224899998153
 20
905.9999999999955
 30
0.0
 11
96.00224899998153
 21
905.9999999999955
 31
0.0
  0
LINE
  5
13C
330
6A
100
AcDbEntity
  8
1
  6
DOT_CENTER
 62
     2
100
AcDbLine
 10
101.0022489999815
 20
905.9999999999955
 30
0.0
 11
100.6137226709563
 21
905.9999999999949
 31
0.0
  0
SPLINE
  5
13D
330
6A
100
AcDbEntity
  8
0
  6
Continuous
 62
     7
100
AcDbSpline
210
0.0
220
0.0
230
1.0
 70
     8
 71
     3
 72
    11
 73
     7
 74
     5
 42
0.000000001
 43
0.0000000001
 44
0.00000001
 40
0.0
 40
0.0
 40
0.0
 40
0.0
 40
1.524025215236507
 40
3.064864060728726
 40
4.574175799663923
 40
6.129738088067645
 40
6.129738088067645
 40
6.129738088067645
 40
6.129738088067645
 10
100.9352617018737
 20
905.9999999999955
 30
0.0
 10
100.9312871411646
 20
905.4919730007139
 30
0.0
 10
100.9232941558262
 20
904.4703142538237
 30
0.0
 10
100.8584645378402
 20
902.9467174461452
 30
0.0
 10
100.7593336029234
 20
901.4145050712464
 30
0.0
 10
100.6627455082146
 20
900.3974022831566
 30
0.0
 10
100.6137226709564
 20
899.8811765836841
 30
0.0
 11
100.9352617018737
 21
905.9999999999955
 31
0.0
 11
100.9145736692549
 21
904.4761152069582
 31
0.0
 11
100.8522962049833
 21
902.9365354376506
 31
0.0
 11
100.7529030475735
 21
901.4304999379768
 31
0.0
 11
100.6137226709564
 21
899.8811765836841
 31
0.0
  0
SPLINE
  5
13E
330
6A
100
AcDbEntity
  8
0
  6
Continuous
 62
     7
100
AcDbSpline
210
0.0
220
0.0
230
1.0
 70
     8
 71
     3
 72
    11
 73
     7
 74
     5
 42
0.000000001
 43
0.0000000001
 44
0.00000001
 40
0.0
 40
0.0
 40
0.0
 40
0.0
 40
1.524025151330087
 40
3.064863929443429
 40
4.57417573102803
 40
6.129738088069516
 40
6.129738088069516
 40
6.129738088069516
 40
6.129738088069516
 10
100.9352617018737
 20
905.9999999999955
 30
0.0
 10
100.931287141499
 20
906.508026977973
 30
0.0
 10
100.9232941568402
 20
907.5296856810977
 30
0.0
 10
100.8584645425489
 20
909.0532824660028
 30
0.0
 10
100.7593336088063
 20
910.5854948623524
 30
0.0
 10
100.6627455102371
 20
911.6025976940408
 30
0.0
 10
100.6137226709564
 20
912.1188234163069
 30
0.0
 11
100.9352617018737
 21
905.9999999999955
 31
0.0
 11
100.9145736709851
 21
907.5238847291439
 31
0.0
 11
100.8522962120129
 21
909.0634644312319
 31
0.0
 11
100.7529030529171
 21
910.56949999358
 31
0.0
 11
100.6137226709564
 21
912.1188234163069
 31
0.0
  0
SPLINE
  5
13F
330
6A
100
AcDbEntity
  8
0
  6
Continuous
 62
     7
100
AcDbSpline
210
0.0
220
0.0
230
1.0
 70
     8
 71
     3
 72
    11
 73
     7
 74
     5
 42
0.000000001
 43
0.0000000001
 44
0.00000001
 40
0.0
 40
0.0
 40
0.0
 40
0.0
 40
1.578135438718413
 40
3.08018691986086
 40
4.582230839021995
 40
6.160358312965142
 40
6.160358312965142
 40
6.160358312965142
 40
6.160358312965142
 10
100.6137226709564
 20
896.0690306513847
 30
0.0
 10
100.7057034850364
 20
895.5506084905333
 30
0.0
 10
100.8852305842199
 20
894.5387579718526
 30
0.0
 10
100.9596596233017
 20
893.0096136737409
 30
0.0
 10
100.8852293996216
 20
891.480472150778
 30
0.0
 10
100.7057030833497
 20
890.468626763621
 30
0.0
 10
100.6137226709564
 20
889.9502072350732
 30
0.0
 11
100.6137226709564
 21
896.0690306513847
 31
0.0
 11
100.8556720844965
 21
894.5095525508609
 31
0.0
 11
100.9352617018716
 21
893.0096111694297
 31
0.0
 11
100.8556712510209
 21
891.5096774048442
 31
0.0
 11
100.6137226709564
 21
889.9502072350732
 31
0.0
  0
SPLINE
  5
140
330
6A
100
AcDbEntity
  8
0
  6
Continuous
 62
     7
100
AcDbSpline
210
0.0
220
0.0
230
1.0
 70
     8
 71
     3
 72
    11
 73
     7
 74
     5
 42
0.000000001
 43
0.0000000001
 44
0.00000001
 40
0.0
 40
0.0
 40
0.0
 40
0.0
 40
1.578127473943037
 40
3.080171393104284
 40
4.582222874246391
 40
6.16035831296514
 40
6.16035831296514
 40
6.16035831296514
 40
6.16035831296514
 10
100.6137226709564
 20
915.9309693486064
 30
0.0
 10
100.7057030833497
 20
916.4493888771543
 30
0.0
 10
100.8852293996217
 20
917.4612342643112
 30
0.0
 10
100.9596596233017
 20
918.9903757872739
 30
0.0
 10
100.8852305842198
 20
920.5195200853855
 30
0.0
 10
100.7057034850364
 20
921.5313706040666
 30
0.0
 10
100.6137226709564
 20
922.0497927649178
 30
0.0
 11
100.6137226709564
 21
915.9309693486064
 31
0.0
 11
100.8556712510209
 21
917.4904395183772
 31
0.0
 11
100.9352617018716
 21
918.9903732829629
 31
0.0
 11
100.8556720844965
 21
920.4903146643937
 31
0.0
 11
100.6137226709564
 21
922.0497927649178
 31
0.0
  0
ENDBLK
  5
6C
330
6A
100
AcDbEntity
  8
0
100
AcDbBlockEnd
  0
BLOCK
  5
6F
330
6D
100
AcDbEntity
  8
0
100
AcDbBlockBegin
  2
Vordans1
 70
     0
 10
89.00224899999154
 20
905.9999999999955
 30
0.0
  3
Vordans1
  1

  0
INSERT
  5
6E
330
6D
100
AcDbEntity
  8
0
100
AcDbBlockReference
  2
1411107_A_EXSH_M25_68L_N_S-select__6
 10
77.00224899998153
 20
889.7999999999955
 30
0.0
  0
MTEXT
  5
141
330
6D
100
AcDbEntity
  8
1
 62
     6
100
AcDbMText
 10
88.99999999999
 20
863.2000007629395
 30
0.0
 40
5.0
 41
0.0
 71
     2
 72
     1
  1
 
  7
CONVERTER_11
 73
     1
 44
1.32052821128451
  0
DIMENSION
  5
14C
330
6D
100
AcDbEntity
  8
1
100
AcDbDimension
  2
*D16
 10
111.0022489999815
 20
889.7999999999955
 30
0.0
 11
107.0772489999815
 21
905.9999999999955
 31
0.0
 70
    32
  1
<>
 71
     5
 42
-1.0
 53
90.0
  3
ME10_DIM_10
100
AcDbAlignedDimension
 13
100.6137226709564
 23
922.1999999999955
 33
0.0
 14
100.6137226709564
 24
889.7999999999955
 34
0.0
 50
90.0
100
AcDbRotatedDimension
  0
DIMENSION
  5
157
330
6D
100
AcDbEntity
  8
1
100
AcDbDimension
  2
*D17
 10
101.0022489999815
 20
879.7999999999955
 30
0.0
 11
89.00224899998153
 21
883.5499999999955
 31
0.0
 70
    32
  1
<>
 71
     5
 42
-1.0
 53
0.00013888888889
  3
ME10_DIM_11
100
AcDbAlignedDimension
 13
77.00224899998153
 23
893.4999999999955
 33
0.0
 14
101.0022489999815
 24
891.2499999999955
 34
0.0
100
AcDbRotatedDimension
  0
ENDBLK
  5
70
330
6D
100
AcDbEntity
  8
0
100
AcDbBlockEnd
  0
BLOCK
  5
72
330
71
100
AcDbEntity
  8
0
100
AcDbBlockBegin
  2
_punkt
 70
     0
 10
263.8378685549491
 20
765.4131492257042
 30
0.0
  3
_punkt
  1

  0
LINE
  5
158
330
71
100
AcDbEntity
  8
1
  6
Continuous
 62
     2
100
AcDbLine
 10
263.8378685549491
 20
765.4131492257042
 30
0.0
 11
263.8378685549491
 21
760.413149225704
 31
0.0
  0
LINE
  5
159
330
71
100
AcDbEntity
  8
1
  6
Continuous
 62
     2
100
AcDbLine
 10
263.8378685549491
 20
765.4131492257042
 30
0.0
 11
268.8378685549481
 21
765.4131492257042
 31
0.0
  0
ENDBLK
  5
73
330
71
100
AcDbEntity
  8
0
100
AcDbBlockEnd
  0
BLOCK
  5
75
330
74
100
AcDbEntity
  8
0
100
AcDbBlockBegin
  2
_rahmen
 70
     0
 10
263.8378685549491
 20
760.413149225704
 30
0.0
  3
_rahmen
  1

  0
POINT
  5
15A
330
74
100
AcDbEntity
  8
1
 62
     3
 60
     1
100
AcDbPoint
 10
200.3378685549514
 20
786.663149225704
 30
0.0
  0
LINE
  5
15B
102
{ACAD_REACTORS
330
33A
330
33B
102
}
330
74
100
AcDbEntity
  8
0
  6
Continuous
 62
     2
100
AcDbLine
 10
148.7801953850317
 20
772.9216526270711
 30
0.0
 11
148.7801953850317
 21
773.6427410624457
 31
0.0
  0
LINE
  5
15C
102
{ACAD_REACTORS
330
33A
330
33B
102
}
330
74
100
AcDbEntity
  8
0
  6
Continuous
 62
     2
100
AcDbLine
 10
148.7801953850317
 20
772.1284553481596
 30
0.0
 11
148.7801953850317
 21
771.407366912785
 31
0.0
  0
LINE
  5
15D
102
{ACAD_REACTORS
330
33C
330
33D
102
}
330
74
100
AcDbEntity
  8
0
  6
Continuous
 62
     2
100
AcDbLine
 10
161.452132687751
 20
773.137979157683
 30
0.0
 11
162.3642312824354
 21
773.137979157683
 31
0.0
  0
LINE
  5
15E
102
{ACAD_REACTORS
330
33C
330
33D
102
}
330
74
100
AcDbEntity
  8
0
  6
Continuous
 62
     2
100
AcDbLine
 10
162.0882131364795
 20
772.1284553481592
 30
0.0
 11
162.0882131364795
 21
771.4073669127846
 31
0.0
  0
LINE
  5
15F
102
{ACAD_REACTORS
330
346
330
347
102
}
330
74
100
AcDbEntity
  8
0
  6
Continuous
 62
     2
100
AcDbLine
 10
160.550397751868
 20
774.0393397018871
 30
0.0
 11
161.7057308485129
 21
775.3458347380647
 31
0.0
  0
LINE
  5
160
102
{ACAD_REACTORS
330
346
330
347
102
}
330
74
100
AcDbEntity
  8
0
  6
Continuous
 62
     2
100
AcDbLine
 10
160.6292600792835
 20
776.563149225698
 30
0.0
 11
161.7057308485129
 21
775.3458347380647
 31
0.0
  0
LINE
  5
161
102
{ACAD_REACTORS
330
346
330
347
102
}
330
74
100
AcDbEntity
  8
0
  6
Continuous
 62
     2
100
AcDbLine
 10
162.7822016177413
 20
776.563149225698
 30
0.0
 11
163.9414778307555
 21
776.563149225698
 31
0.0
  0
LINE
  5
162
102
{ACAD_REACTORS
330
346
330
347
102
}
330
74
100
AcDbEntity
  8
0
  6
Continuous
 62
     2
100
AcDbLine
 10
161.709673964883
 20
774.0393397018871
 30
0.0
 11
162.28536895502
 21
774.690357706262
 31
0.0
  0
LINE
  5
163
102
{ACAD_REACTORS
330
346
330
347
102
}
330
74
100
AcDbEntity
  8
0
  6
Continuous
 62
     2
100
AcDbLine
 10
161.709673964883
 20
774.0393397018871
 30
0.0
 11
160.550397751868
 21
774.0393397018871
 31
0.0
  0
LINE
  5
164
102
{ACAD_REACTORS
330
348
330
349
102
}
330
74
100
AcDbEntity
  8
0
  6
Continuous
 62
     2
100
AcDbLine
 10
160.4518198425978
 20
774.0393397018871
 30
0.0
 11
159.4266095861905
 21
774.0393397018871
 31
0.0
  0
LINE
  5
165
102
{ACAD_REACTORS
330
34A
330
34B
102
}
330
74
100
AcDbEntity
  8
0
  6
Continuous
 62
     2
100
AcDbLine
 10
158.709271067054
 20
772.2726730352343
 30
0.0
 11
158.4612006230952
 21
772.9072308583638
 31
0.0
  0
LINE
  5
166
102
{ACAD_REACTORS
330
34A
330
34B
102
}
330
74
100
AcDbEntity
  8
0
  6
Continuous
 62
     2
100
AcDbLine
 10
158.2131301791346
 20
772.2726730352343
 30
0.0
 11
158.709271067054
 21
772.2726730352343
 31
0.0
  0
LINE
  5
167
102
{ACAD_REACTORS
330
34A
330
34B
102
}
330
74
100
AcDbEntity
  8
0
  6
Continuous
 62
     2
100
AcDbLine
 10
156.7932623982472
 20
771.26314922571
 30
0.0
 11
157.8184726546546
 21
771.26314922571
 31
0.0
  0
LINE
  5
168
102
{ACAD_REACTORS
330
34A
330
34B
102
}
330
74
100
AcDbEntity
  8
0
  6
Continuous
 62
     2
100
AcDbLine
 10
157.9485954948912
 20
773.7869587495209
 30
0.0
 11
158.9738057512984
 21
773.7869587495209
 31
0.0
  0
LINE
  5
169
102
{ACAD_REACTORS
330
34A
330
34B
102
}
330
74
100
AcDbEntity
  8
0
  6
Continuous
 62
     2
100
AcDbLine
 10
158.9738057512984
 20
773.7869587495209
 30
0.0
 11
160.1291388479433
 21
771.26314922571
 31
0.0
  0
LINE
  5
16A
102
{ACAD_REACTORS
330
34A
330
34B
102
}
330
74
100
AcDbEntity
  8
0
  6
Continuous
 62
     2
100
AcDbLine
 10
159.1039285915351
 20
771.26314922571
 30
0.0
 11
158.9291516878361
 21
771.7102240556421
 31
0.0
  0
LINE
  5
16B
102
{ACAD_REACTORS
330
34C
330
34D
102
}
330
74
100
AcDbEntity
  8
0
  6
Continuous
 62
     2
100
AcDbLine
 10
155.6805242976624
 20
771.26314922571
 30
0.0
 11
156.6663033903619
 21
771.26314922571
 31
0.0
  0
LINE
  5
16C
102
{ACAD_REACTORS
330
34C
330
34D
102
}
330
74
100
AcDbEntity
  8
0
  6
Continuous
 62
     2
100
AcDbLine
 10
155.6805242976624
 20
773.137979157683
 30
0.0
 11
155.6805242976624
 21
771.26314922571
 31
0.0
  0
LINE
  5
16D
102
{ACAD_REACTORS
330
34C
330
34D
102
}
330
74
100
AcDbEntity
  8
0
  6
Continuous
 62
     2
100
AcDbLine
 10
155.0101945146255
 20
773.7869587495209
 30
0.0
 11
155.0101945146255
 21
773.137979157683
 31
0.0
  0
LINE
  5
16E
102
{ACAD_REACTORS
330
34E
330
34F
102
}
330
74
100
AcDbEntity
  8
0
  6
Continuous
 62
     2
100
AcDbLine
 10
156.2326853258426
 20
774.0393397018871
 30
0.0
 11
157.2184644185421
 21
774.0393397018871
 31
0.0
  0
LINE
  5
16F
102
{ACAD_REACTORS
330
34E
330
34F
102
}
330
74
100
AcDbEntity
  8
0
  6
Continuous
 62
     2
100
AcDbLine
 10
158.2436746749504
 20
775.4815165726359
 30
0.0
 11
157.2184644185421
 21
776.563149225698
 31
0.0
  0
LINE
  5
170
102
{ACAD_REACTORS
330
34E
330
34F
102
}
330
74
100
AcDbEntity
  8
0
  6
Continuous
 62
     2
100
AcDbLine
 10
159.2294537676501
 20
776.563149225698
 30
0.0
 11
158.2436746749504
 21
776.563149225698
 31
0.0
  0
LINE
  5
171
102
{ACAD_REACTORS
330
34E
330
34F
102
}
330
74
100
AcDbEntity
  8
0
  6
Continuous
 62
     2
100
AcDbLine
 10
159.2294537676501
 20
774.0393397018871
 30
0.0
 11
159.2294537676501
 21
776.563149225698
 31
0.0
  0
LINE
  5
172
102
{ACAD_REACTORS
330
34E
330
34F
102
}
330
74
100
AcDbEntity
  8
0
  6
Continuous
 62
     2
100
AcDbLine
 10
158.2436746749504
 20
774.0393397018871
 30
0.0
 11
159.2294537676501
 21
774.0393397018871
 31
0.0
  0
LINE
  5
173
102
{ACAD_REACTORS
330
34E
330
34F
102
}
330
74
100
AcDbEntity
  8
0
  6
Continuous
 62
     2
100
AcDbLine
 10
157.2184644185421
 20
775.1209723549488
 30
0.0
 11
158.2436746749504
 21
774.0393397018871
 31
0.0
  0
LINE
  5
174
102
{ACAD_REACTORS
330
350
330
351
102
}
330
74
100
AcDbEntity
  8
0
  6
Continuous
 62
     2
100
AcDbLine
 10
153.9061219308019
 20
772.7053260964587
 30
0.0
 11
152.8809116743945
 21
773.7869587495209
 31
0.0
  0
LINE
  5
175
102
{ACAD_REACTORS
330
350
330
351
102
}
330
74
100
AcDbEntity
  8
0
  6
Continuous
 62
     2
100
AcDbLine
 10
153.9061219308019
 20
773.7869587495209
 30
0.0
 11
153.9061219308019
 21
772.7053260964587
 31
0.0
  0
LINE
  5
176
102
{ACAD_REACTORS
330
350
330
351
102
}
330
74
100
AcDbEntity
  8
0
  6
Continuous
 62
     2
100
AcDbLine
 10
154.8919010235014
 20
773.7869587495209
 30
0.0
 11
153.9061219308019
 21
773.7869587495209
 31
0.0
  0
LINE
  5
177
102
{ACAD_REACTORS
330
350
330
351
102
}
330
74
100
AcDbEntity
  8
0
  6
Continuous
 62
     2
100
AcDbLine
 10
154.8919010235014
 20
771.26314922571
 30
0.0
 11
154.8919010235014
 21
773.7869587495209
 31
0.0
  0
LINE
  5
178
102
{ACAD_REACTORS
330
350
330
351
102
}
330
74
100
AcDbEntity
  8
0
  6
Continuous
 62
     2
100
AcDbLine
 10
152.8809116743945
 20
772.3447818787716
 30
0.0
 11
153.9061219308019
 21
771.26314922571
 31
0.0
  0
LINE
  5
179
102
{ACAD_REACTORS
330
350
330
351
102
}
330
74
100
AcDbEntity
  8
0
  6
Continuous
 62
     2
100
AcDbLine
 10
152.8809116743945
 20
771.26314922571
 30
0.0
 11
152.8809116743945
 21
772.3447818787716
 31
0.0
  0
LINE
  5
17A
102
{ACAD_REACTORS
330
340
330
341
102
}
330
74
100
AcDbEntity
  8
0
  6
Continuous
 62
     2
100
AcDbLine
 10
154.9314569234784
 20
775.9862784773981
 30
0.0
 11
156.035529507303
 21
775.9862784773981
 31
0.0
  0
LINE
  5
17B
102
{ACAD_REACTORS
330
340
330
341
102
}
330
74
100
AcDbEntity
  8
0
  6
Continuous
 62
     2
100
AcDbLine
 10
154.9314569234784
 20
774.6162104501866
 30
0.0
 11
154.9314569234784
 21
775.0128090896426
 31
0.0
  0
LINE
  5
17C
102
{ACAD_REACTORS
330
340
330
341
102
}
330
74
100
AcDbEntity
  8
0
  6
Continuous
 62
     2
100
AcDbLine
 10
156.035529507303
 20
774.6162104501866
 30
0.0
 11
154.9314569234784
 21
774.6162104501866
 31
0.0
  0
LINE
  5
17D
102
{ACAD_REACTORS
330
340
330
341
102
}
330
74
100
AcDbEntity
  8
0
  6
Continuous
 62
     2
100
AcDbLine
 10
156.035529507303
 20
774.0393397018871
 30
0.0
 11
156.035529507303
 21
774.6162104501866
 31
0.0
  0
LINE
  5
17E
102
{ACAD_REACTORS
330
340
330
341
102
}
330
74
100
AcDbEntity
  8
0
  6
Continuous
 62
     2
100
AcDbLine
 10
153.4319594876492
 20
774.0393397018871
 30
0.0
 11
156.035529507303
 21
774.0393397018871
 31
0.0
  0
LINE
  5
17F
102
{ACAD_REACTORS
330
340
330
341
102
}
330
74
100
AcDbEntity
  8
0
  6
Continuous
 62
     2
100
AcDbLine
 10
153.4319594876492
 20
776.563149225698
 30
0.0
 11
156.035529507303
 21
776.563149225698
 31
0.0
  0
LINE
  5
180
102
{ACAD_REACTORS
330
340
330
341
102
}
330
74
100
AcDbEntity
  8
0
  6
Continuous
 62
     2
100
AcDbLine
 10
156.035529507303
 20
775.9862784773981
 30
0.0
 11
156.035529507303
 21
776.563149225698
 31
0.0
  0
LINE
  5
181
102
{ACAD_REACTORS
330
352
330
353
102
}
330
74
100
AcDbEntity
  8
0
  6
Continuous
 62
     2
100
AcDbLine
 10
151.0672028800955
 20
775.6798158923636
 30
0.0
 11
151.0672028800955
 21
776.563149225698
 31
0.0
  0
LINE
  5
182
102
{ACAD_REACTORS
330
352
330
353
102
}
330
74
100
AcDbEntity
  8
0
  6
Continuous
 62
     2
100
AcDbLine
 10
151.0672028800955
 20
776.563149225698
 30
0.0
 11
152.052981972795
 21
776.563149225698
 31
0.0
  0
LINE
  5
183
102
{ACAD_REACTORS
330
352
330
353
102
}
330
74
100
AcDbEntity
  8
0
  6
Continuous
 62
     2
100
AcDbLine
 10
151.0672028800955
 20
774.9767546678737
 30
0.0
 11
150.1997172785191
 21
774.9767546678737
 31
0.0
  0
LINE
  5
184
102
{ACAD_REACTORS
330
352
330
353
102
}
330
74
100
AcDbEntity
  8
0
  6
Continuous
 62
     2
100
AcDbLine
 10
150.1997172785191
 20
774.9767546678737
 30
0.0
 11
150.1997172785191
 21
774.0393397018871
 31
0.0
  0
LINE
  5
185
102
{ACAD_REACTORS
330
352
330
353
102
}
330
74
100
AcDbEntity
  8
0
  6
Continuous
 62
     2
100
AcDbLine
 10
149.2139381858194
 20
776.563149225698
 30
0.0
 11
149.2139381858194
 21
774.0393397018871
 31
0.0
  0
LINE
  5
186
102
{ACAD_REACTORS
330
344
330
345
102
}
330
74
100
AcDbEntity
  8
0
  6
Continuous
 62
     2
100
AcDbLine
 10
147.5972604737916
 20
775.4318818746382
 30
0.0
 11
147.5972604737916
 21
776.0151278658301
 31
0.0
  0
LINE
  5
187
102
{ACAD_REACTORS
330
344
330
345
102
}
330
74
100
AcDbEntity
  8
0
  6
Continuous
 62
     2
100
AcDbLine
 10
146.5720502173833
 20
774.0393397018871
 30
0.0
 11
147.5972604737916
 21
774.0393397018871
 31
0.0
  0
LINE
  5
188
102
{ACAD_REACTORS
330
344
330
345
102
}
330
74
100
AcDbEntity
  8
0
  6
Continuous
 62
     2
100
AcDbLine
 10
147.5972604737916
 20
774.0393397018871
 30
0.0
 11
147.5972604737916
 21
774.8187432069645
 31
0.0
  0
LINE
  5
189
102
{ACAD_REACTORS
330
33E
330
33F
102
}
330
74
100
AcDbEntity
  8
0
  6
Continuous
 62
     2
100
AcDbLine
 10
143.0142437304316
 20
771.8520381146
 30
0.0
 11
141.7945468205064
 21
771.8520381146
 31
0.0
  0
LINE
  5
18A
102
{ACAD_REACTORS
330
33E
330
33F
102
}
330
74
100
AcDbEntity
  8
0
  6
Continuous
 62
     2
100
AcDbLine
 10
140.9531093889946
 20
776.2125338410682
 30
0.0
 11
140.9531093889946
 21
771.6137646103242
 31
0.0
  0
LINE
  5
18B
102
{ACAD_REACTORS
330
33E
330
33F
102
}
330
74
100
AcDbEntity
  8
0
  6
Continuous
 62
     2
100
AcDbLine
 10
141.3037247736085
 20
776.563149225683
 30
0.0
 11
145.8271231956885
 21
776.563149225683
 31
0.0
  0
LINE
  5
18C
102
{ACAD_REACTORS
330
33E
330
33F
102
}
330
74
100
AcDbEntity
  8
0
  6
Continuous
 62
     2
100
AcDbLine
 10
146.1777385803033
 20
776.2125338410682
 30
0.0
 11
146.1777385803033
 21
771.6137646103242
 31
0.0
  0
LINE
  5
18D
102
{ACAD_REACTORS
330
33E
330
33F
102
}
330
74
100
AcDbEntity
  8
0
  6
Continuous
 62
     2
100
AcDbLine
 10
145.8271231956885
 20
771.26314922571
 30
0.0
 11
141.3037247736085
 21
771.26314922571
 31
0.0
  0
LINE
  5
18E
102
{ACAD_REACTORS
330
33E
330
33F
102
}
330
74
100
AcDbEntity
  8
0
  6
Continuous
 62
     2
100
AcDbLine
 10
143.2751668073545
 20
772.1129611915229
 30
0.0
 11
143.2751668073545
 21
773.3780611349374
 31
0.0
  0
LINE
  5
18F
102
{ACAD_REACTORS
330
33E
330
33F
102
}
330
74
100
AcDbEntity
  8
0
  6
Continuous
 62
     2
100
AcDbLine
 10
143.2751668073545
 20
775.2141433598341
 30
0.0
 11
143.2751668073545
 21
775.7133372598842
 31
0.0
  0
LINE
  5
190
102
{ACAD_REACTORS
330
33E
330
33F
102
}
330
74
100
AcDbEntity
  8
0
  6
Continuous
 62
     2
100
AcDbLine
 10
141.7945468205064
 20
775.9742603368065
 30
0.0
 11
143.0142437304316
 21
775.9742603368065
 31
0.0
  0
LINE
  5
191
102
{ACAD_REACTORS
330
33E
330
33F
102
}
330
74
100
AcDbEntity
  8
0
  6
Continuous
 62
     2
100
AcDbLine
 10
141.5336237435844
 20
775.7133372598842
 30
0.0
 11
141.5336237435844
 21
772.1129611915229
 31
0.0
  0
LINE
  5
192
102
{ACAD_REACTORS
330
344
330
345
102
}
330
74
100
AcDbEntity
  8
0
  6
Continuous
 62
     2
100
AcDbLine
 10
147.5972604737916
 20
774.8187432069645
 30
0.0
 11
148.2243411248497
 21
774.8187432069645
 31
0.0
  0
LINE
  5
193
102
{ACAD_REACTORS
330
344
330
345
102
}
330
74
100
AcDbEntity
  8
0
  6
Continuous
 62
     2
100
AcDbLine
 10
146.5720502173833
 20
776.563149225698
 30
0.0
 11
148.2243411248497
 21
776.563149225698
 31
0.0
  0
LINE
  5
194
102
{ACAD_REACTORS
330
344
330
345
102
}
330
74
100
AcDbEntity
  8
0
  6
Continuous
 62
     2
100
AcDbLine
 10
146.5720502173833
 20
776.563149225698
 30
0.0
 11
146.5720502173833
 21
774.0393397018871
 31
0.0
  0
LINE
  5
195
102
{ACAD_REACTORS
330
344
330
345
102
}
330
74
100
AcDbEntity
  8
0
  6
Continuous
 62
     2
100
AcDbLine
 10
147.5972604737916
 20
775.4318818746382
 30
0.0
 11
147.85948779738
 21
775.4318818746382
 31
0.0
  0
LINE
  5
196
102
{ACAD_REACTORS
330
344
330
345
102
}
330
74
100
AcDbEntity
  8
0
  6
Continuous
 62
     2
100
AcDbLine
 10
147.5972604737916
 20
776.0151278658301
 30
0.0
 11
147.85948779738
 21
776.0151278658301
 31
0.0
  0
LINE
  5
197
102
{ACAD_REACTORS
330
352
330
353
102
}
330
74
100
AcDbEntity
  8
0
  6
Continuous
 62
     2
100
AcDbLine
 10
150.1997172785191
 20
775.6798158923636
 30
0.0
 11
151.0672028800955
 21
775.6798158923636
 31
0.0
  0
LINE
  5
198
102
{ACAD_REACTORS
330
352
330
353
102
}
330
74
100
AcDbEntity
  8
0
  6
Continuous
 62
     2
100
AcDbLine
 10
150.1997172785191
 20
776.563149225698
 30
0.0
 11
150.1997172785191
 21
775.6798158923636
 31
0.0
  0
LINE
  5
199
102
{ACAD_REACTORS
330
352
330
353
102
}
330
74
100
AcDbEntity
  8
0
  6
Continuous
 62
     2
100
AcDbLine
 10
149.2139381858194
 20
776.563149225698
 30
0.0
 11
150.1997172785191
 21
776.563149225698
 31
0.0
  0
LINE
  5
19A
102
{ACAD_REACTORS
330
352
330
353
102
}
330
74
100
AcDbEntity
  8
0
  6
Continuous
 62
     2
100
AcDbLine
 10
150.1997172785191
 20
774.0393397018871
 30
0.0
 11
149.2139381858194
 21
774.0393397018871
 31
0.0
  0
LINE
  5
19B
102
{ACAD_REACTORS
330
352
330
353
102
}
330
74
100
AcDbEntity
  8
0
  6
Continuous
 62
     2
100
AcDbLine
 10
151.0672028800955
 20
774.0393397018871
 30
0.0
 11
151.0672028800955
 21
774.9767546678737
 31
0.0
  0
LINE
  5
19C
102
{ACAD_REACTORS
330
352
330
353
102
}
330
74
100
AcDbEntity
  8
0
  6
Continuous
 62
     2
100
AcDbLine
 10
152.052981972795
 20
774.0393397018871
 30
0.0
 11
151.0672028800955
 21
774.0393397018871
 31
0.0
  0
LINE
  5
19D
102
{ACAD_REACTORS
330
352
330
353
102
}
330
74
100
AcDbEntity
  8
0
  6
Continuous
 62
     2
100
AcDbLine
 10
152.052981972795
 20
776.563149225698
 30
0.0
 11
152.052981972795
 21
774.0393397018871
 31
0.0
  0
LINE
  5
19E
102
{ACAD_REACTORS
330
340
330
341
102
}
330
74
100
AcDbEntity
  8
0
  6
Continuous
 62
     2
100
AcDbLine
 10
154.9314569234784
 20
775.0128090896426
 30
0.0
 11
156.035529507303
 21
775.0128090896426
 31
0.0
  0
LINE
  5
19F
102
{ACAD_REACTORS
330
340
330
341
102
}
330
74
100
AcDbEntity
  8
0
  6
Continuous
 62
     2
100
AcDbLine
 10
156.035529507303
 20
775.0128090896426
 30
0.0
 11
156.035529507303
 21
775.5896798379421
 31
0.0
  0
LINE
  5
1A0
102
{ACAD_REACTORS
330
340
330
341
102
}
330
74
100
AcDbEntity
  8
0
  6
Continuous
 62
     2
100
AcDbLine
 10
156.035529507303
 20
775.5896798379421
 30
0.0
 11
154.9314569234784
 21
775.5896798379421
 31
0.0
  0
LINE
  5
1A1
102
{ACAD_REACTORS
330
340
330
341
102
}
330
74
100
AcDbEntity
  8
0
  6
Continuous
 62
     2
100
AcDbLine
 10
154.9314569234784
 20
775.5896798379421
 30
0.0
 11
154.9314569234784
 21
775.9862784773981
 31
0.0
  0
LINE
  5
1A2
102
{ACAD_REACTORS
330
350
330
351
102
}
330
74
100
AcDbEntity
  8
0
  6
Continuous
 62
     2
100
AcDbLine
 10
151.895132581694
 20
771.26314922571
 30
0.0
 11
152.8809116743945
 21
771.26314922571
 31
0.0
  0
LINE
  5
1A3
102
{ACAD_REACTORS
330
350
330
351
102
}
330
74
100
AcDbEntity
  8
0
  6
Continuous
 62
     2
100
AcDbLine
 10
153.9061219308019
 20
771.26314922571
 30
0.0
 11
154.8919010235014
 21
771.26314922571
 31
0.0
  0
LINE
  5
1A4
102
{ACAD_REACTORS
330
350
330
351
102
}
330
74
100
AcDbEntity
  8
0
  6
Continuous
 62
     2
100
AcDbLine
 10
152.8809116743945
 20
773.7869587495209
 30
0.0
 11
151.895132581694
 21
773.7869587495209
 31
0.0
  0
LINE
  5
1A5
102
{ACAD_REACTORS
330
350
330
351
102
}
330
74
100
AcDbEntity
  8
0
  6
Continuous
 62
     2
100
AcDbLine
 10
151.895132581694
 20
773.7869587495209
 30
0.0
 11
151.895132581694
 21
771.26314922571
 31
0.0
  0
LINE
  5
1A6
102
{ACAD_REACTORS
330
34E
330
34F
102
}
330
74
100
AcDbEntity
  8
0
  6
Continuous
 62
     2
100
AcDbLine
 10
158.2436746749504
 20
776.563149225698
 30
0.0
 11
158.2436746749504
 21
775.4815165726359
 31
0.0
  0
LINE
  5
1A7
102
{ACAD_REACTORS
330
34E
330
34F
102
}
330
74
100
AcDbEntity
  8
0
  6
Continuous
 62
     2
100
AcDbLine
 10
157.2184644185421
 20
776.563149225698
 30
0.0
 11
156.2326853258426
 21
776.563149225698
 31
0.0
  0
LINE
  5
1A8
102
{ACAD_REACTORS
330
34E
330
34F
102
}
330
74
100
AcDbEntity
  8
0
  6
Continuous
 62
     2
100
AcDbLine
 10
156.2326853258426
 20
776.563149225698
 30
0.0
 11
156.2326853258426
 21
774.0393397018871
 31
0.0
  0
LINE
  5
1A9
102
{ACAD_REACTORS
330
34E
330
34F
102
}
330
74
100
AcDbEntity
  8
0
  6
Continuous
 62
     2
100
AcDbLine
 10
157.2184644185421
 20
774.0393397018871
 30
0.0
 11
157.2184644185421
 21
775.1209723549488
 31
0.0
  0
LINE
  5
1AA
102
{ACAD_REACTORS
330
34C
330
34D
102
}
330
74
100
AcDbEntity
  8
0
  6
Continuous
 62
     2
100
AcDbLine
 10
156.6663033903619
 20
771.26314922571
 30
0.0
 11
156.6663033903619
 21
773.137979157683
 31
0.0
  0
LINE
  5
1AB
102
{ACAD_REACTORS
330
34C
330
34D
102
}
330
74
100
AcDbEntity
  8
0
  6
Continuous
 62
     2
100
AcDbLine
 10
156.6663033903619
 20
773.137979157683
 30
0.0
 11
157.3366331733971
 21
773.137979157683
 31
0.0
  0
LINE
  5
1AC
102
{ACAD_REACTORS
330
34C
330
34D
102
}
330
74
100
AcDbEntity
  8
0
  6
Continuous
 62
     2
100
AcDbLine
 10
157.3366331733971
 20
773.137979157683
 30
0.0
 11
157.3366331733971
 21
773.7869587495209
 31
0.0
  0
LINE
  5
1AD
102
{ACAD_REACTORS
330
34C
330
34D
102
}
330
74
100
AcDbEntity
  8
0
  6
Continuous
 62
     2
100
AcDbLine
 10
157.3366331733971
 20
773.7869587495209
 30
0.0
 11
155.0101945146255
 21
773.7869587495209
 31
0.0
  0
LINE
  5
1AE
102
{ACAD_REACTORS
330
34C
330
34D
102
}
330
74
100
AcDbEntity
  8
0
  6
Continuous
 62
     2
100
AcDbLine
 10
155.0101945146255
 20
773.137979157683
 30
0.0
 11
155.6805242976624
 21
773.137979157683
 31
0.0
  0
LINE
  5
1AF
102
{ACAD_REACTORS
330
34A
330
34B
102
}
330
74
100
AcDbEntity
  8
0
  6
Continuous
 62
     2
100
AcDbLine
 10
157.9932495583536
 20
771.7102240556421
 30
0.0
 11
158.9291516878361
 21
771.7102240556421
 31
0.0
  0
LINE
  5
1B0
102
{ACAD_REACTORS
330
34A
330
34B
102
}
330
74
100
AcDbEntity
  8
0
  6
Continuous
 62
     2
100
AcDbLine
 10
160.1291388479433
 20
771.26314922571
 30
0.0
 11
159.1039285915351
 21
771.26314922571
 31
0.0
  0
LINE
  5
1B1
102
{ACAD_REACTORS
330
34A
330
34B
102
}
330
74
100
AcDbEntity
  8
0
  6
Continuous
 62
     2
100
AcDbLine
 10
157.9485954948912
 20
773.7869587495209
 30
0.0
 11
156.7932623982472
 21
771.26314922571
 31
0.0
  0
LINE
  5
1B2
102
{ACAD_REACTORS
330
34A
330
34B
102
}
330
74
100
AcDbEntity
  8
0
  6
Continuous
 62
     2
100
AcDbLine
 10
157.8184726546546
 20
771.26314922571
 30
0.0
 11
157.9932495583536
 21
771.7102240556421
 31
0.0
  0
LINE
  5
1B3
102
{ACAD_REACTORS
330
34A
330
34B
102
}
330
74
100
AcDbEntity
  8
0
  6
Continuous
 62
     2
100
AcDbLine
 10
158.2131301791346
 20
772.2726730352343
 30
0.0
 11
158.4612006230952
 21
772.9072308583638
 31
0.0
  0
LINE
  5
1B4
102
{ACAD_REACTORS
330
348
330
349
102
}
330
74
100
AcDbEntity
  8
0
  6
Continuous
 62
     2
100
AcDbLine
 10
159.4266095861905
 20
774.0393397018871
 30
0.0
 11
159.4266095861905
 21
776.563149225698
 31
0.0
  0
LINE
  5
1B5
102
{ACAD_REACTORS
330
348
330
349
102
}
330
74
100
AcDbEntity
  8
0
  6
Continuous
 62
     2
100
AcDbLine
 10
160.4518198425978
 20
776.563149225698
 30
0.0
 11
160.4518198425978
 21
774.0393397018871
 31
0.0
  0
LINE
  5
1B6
102
{ACAD_REACTORS
330
348
330
349
102
}
330
74
100
AcDbEntity
  8
0
  6
Continuous
 62
     2
100
AcDbLine
 10
159.4266095861905
 20
776.563149225698
 30
0.0
 11
160.4518198425978
 21
776.563149225698
 31
0.0
  0
LINE
  5
1B7
102
{ACAD_REACTORS
330
346
330
347
102
}
330
74
100
AcDbEntity
  8
0
  6
Continuous
 62
     2
100
AcDbLine
 10
162.28536895502
 20
774.690357706262
 30
0.0
 11
162.8610639451567
 21
774.0393397018871
 31
0.0
  0
LINE
  5
1B8
102
{ACAD_REACTORS
330
346
330
347
102
}
330
74
100
AcDbEntity
  8
0
  6
Continuous
 62
     2
100
AcDbLine
 10
162.8610639451567
 20
774.0393397018871
 30
0.0
 11
164.0203401581719
 21
774.0393397018871
 31
0.0
  0
LINE
  5
1B9
102
{ACAD_REACTORS
330
346
330
347
102
}
330
74
100
AcDbEntity
  8
0
  6
Continuous
 62
     2
100
AcDbLine
 10
162.865007061527
 20
775.3458347380647
 30
0.0
 11
164.0203401581719
 21
774.0393397018871
 31
0.0
  0
LINE
  5
1BA
102
{ACAD_REACTORS
330
346
330
347
102
}
330
74
100
AcDbEntity
  8
0
  6
Continuous
 62
     2
100
AcDbLine
 10
162.865007061527
 20
775.3458347380647
 30
0.0
 11
163.9414778307555
 21
776.563149225698
 31
0.0
  0
LINE
  5
1BB
102
{ACAD_REACTORS
330
346
330
347
102
}
330
74
100
AcDbEntity
  8
0
  6
Continuous
 62
     2
100
AcDbLine
 10
162.28536895502
 20
776.001311769867
 30
0.0
 11
162.7822016177413
 21
776.563149225698
 31
0.0
  0
LINE
  5
1BC
102
{ACAD_REACTORS
330
346
330
347
102
}
330
74
100
AcDbEntity
  8
0
  6
Continuous
 62
     2
100
AcDbLine
 10
161.7885362922995
 20
776.563149225698
 30
0.0
 11
162.28536895502
 21
776.001311769867
 31
0.0
  0
LINE
  5
1BD
102
{ACAD_REACTORS
330
346
330
347
102
}
330
74
100
AcDbEntity
  8
0
  6
Continuous
 62
     2
100
AcDbLine
 10
161.7885362922995
 20
776.563149225698
 30
0.0
 11
160.6292600792835
 21
776.563149225698
 31
0.0
  0
LINE
  5
1BE
102
{ACAD_REACTORS
330
33C
330
33D
102
}
330
74
100
AcDbEntity
  8
0
  6
Continuous
 62
     2
100
AcDbLine
 10
162.3642312824354
 20
771.26314922571
 30
0.0
 11
163.350010375136
 21
771.26314922571
 31
0.0
  0
LINE
  5
1BF
102
{ACAD_REACTORS
330
33C
330
33D
102
}
330
74
100
AcDbEntity
  8
0
  6
Continuous
 62
     2
100
AcDbLine
 10
163.350010375136
 20
771.26314922571
 30
0.0
 11
163.350010375136
 21
773.137979157683
 31
0.0
  0
LINE
  5
1C0
102
{ACAD_REACTORS
330
33C
330
33D
102
}
330
74
100
AcDbEntity
  8
0
  6
Continuous
 62
     2
100
AcDbLine
 10
163.350010375136
 20
773.137979157683
 30
0.0
 11
164.0203401581719
 21
773.137979157683
 31
0.0
  0
LINE
  5
1C1
102
{ACAD_REACTORS
330
33C
330
33D
102
}
330
74
100
AcDbEntity
  8
0
  6
Continuous
 62
     2
100
AcDbLine
 10
164.0203401581719
 20
773.137979157683
 30
0.0
 11
164.0203401581719
 21
773.7869587495209
 31
0.0
  0
LINE
  5
1C2
102
{ACAD_REACTORS
330
33C
330
33D
102
}
330
74
100
AcDbEntity
  8
0
  6
Continuous
 62
     2
100
AcDbLine
 10
161.2228645229416
 20
773.7869587495203
 30
0.0
 11
164.0203401581719
 21
773.7869587495209
 31
0.0
  0
LINE
  5
1C3
102
{ACAD_REACTORS
330
33C
330
33D
102
}
330
74
100
AcDbEntity
  8
0
  6
Continuous
 62
     2
100
AcDbLine
 10
162.3642312824354
 20
773.137979157683
 30
0.0
 11
162.3642312824354
 21
771.26314922571
 31
0.0
  0
LINE
  5
1C4
102
{ACAD_REACTORS
330
33E
330
33F
102
}
330
74
100
AcDbEntity
  8
0
  6
Continuous
 62
     2
100
AcDbLine
 10
143.6621763770808
 20
772.898587365846
 30
0.0
 11
143.6621763770808
 21
773.3794562969989
 31
0.0
  0
LINE
  5
1C5
102
{ACAD_REACTORS
330
33E
330
33F
102
}
330
74
100
AcDbEntity
  8
0
  6
Continuous
 62
     2
100
AcDbLine
 10
143.6621763770808
 20
775.2127481977726
 30
0.0
 11
143.6621763770808
 21
775.7131905849683
 31
0.0
  0
LINE
  5
1C6
330
74
100
AcDbEntity
  8
1
  6
Continuous
 62
     7
100
AcDbLine
 10
200.3378685549514
 20
782.413149225704
 30
0.0
 11
200.3378685549514
 21
786.663149225704
 31
0.0
  0
LINE
  5
1C7
330
74
100
AcDbEntity
  8
1
  6
Continuous
 62
     6
100
AcDbLine
 10
120.337868554949
 20
765.4131492257042
 30
0.0
 11
120.793064028199
 21
765.413149225704
 31
0.0
  0
LINE
  5
1C8
330
74
100
AcDbEntity
  8
1
  6
Continuous
 62
     6
100
AcDbLine
 10
70.33786855494893
 20
765.4131492257042
 30
0.0
 11
31.53786855494894
 21
765.4131492257042
 31
0.0
  0
LINE
  5
1C9
330
74
100
AcDbEntity
  8
1
  6
Continuous
 62
     6
100
AcDbLine
 10
20.33786855494904
 20
765.4131492257042
 30
0.0
 11
31.53786855494894
 21
765.4131492257042
 31
0.0
  0
LINE
  5
1CA
330
74
100
AcDbEntity
  8
1
  6
Continuous
 62
     6
100
AcDbLine
 10
220.337868554949
 20
765.4131492257042
 30
0.0
 11
263.8378685549491
 21
765.4131492257042
 31
0.0
  0
LINE
  5
1CB
330
74
100
AcDbEntity
  8
1
  6
Continuous
 62
     6
100
AcDbLine
 10
170.337868554949
 20
765.4131492257042
 30
0.0
 11
152.493064028199
 21
765.4131492257042
 31
0.0
  0
LINE
  5
1CC
330
74
100
AcDbEntity
  8
1
  6
PHANTOM
 62
     2
100
AcDbLine
 10
142.4123272429994
 20
780.288149225704
 30
0.0
 11
146.7279222121884
 21
780.288149225704
 31
0.0
  0
LINE
  5
1CD
330
74
100
AcDbEntity
  8
1
  6
PHANTOM
 62
     2
100
AcDbLine
 10
139.3853238533024
 20
781.938149225704
 30
0.0
 11
139.3853238533024
 21
778.6381492257041
 31
0.0
  0
LINE
  5
1CE
330
74
100
AcDbEntity
  8
1
  6
PHANTOM
 62
     2
100
AcDbLine
 10
141.0353238533024
 20
780.288149225704
 30
0.0
 11
137.7353238533024
 21
780.288149225704
 31
0.0
  0
LINE
  5
1CF
330
74
100
AcDbEntity
  8
1
  6
Continuous
 62
     2
100
AcDbLine
 10
263.8378685549491
 20
765.4131492257042
 30
0.0
 11
268.8378685549481
 21
765.4131492257042
 31
0.0
  0
LINE
  5
1D0
330
74
100
AcDbEntity
  8
1
  6
Continuous
 62
     2
100
AcDbLine
 10
263.8378685549491
 20
765.4131492257042
 30
0.0
 11
263.8378685549491
 21
760.413149225704
 31
0.0
  0
LINE
  5
1D1
330
74
100
AcDbEntity
  8
1
  6
Continuous
 62
     7
100
AcDbLine
 10
170.693064028199
 20
778.163149225704
 30
0.0
 11
170.693064028199
 21
782.413149225704
 31
0.0
  0
LINE
  5
1D2
330
74
100
AcDbEntity
  8
1
  6
Continuous
 62
     7
100
AcDbLine
 10
134.2930640281991
 20
778.163149225704
 30
0.0
 11
170.693064028199
 21
778.163149225704
 31
0.0
  0
LINE
  5
1D3
330
74
100
AcDbEntity
  8
1
  6
Continuous
 62
     2
100
AcDbLine
 10
268.8378685549481
 20
760.413149225704
 30
0.0
 11
268.8378685549481
 21
765.4131492257042
 31
0.0
  0
LINE
  5
1D4
330
74
100
AcDbEntity
  8
1
  6
Continuous
 62
     2
100
AcDbLine
 10
268.8378685549481
 20
760.413149225704
 30
0.0
 11
263.8378685549491
 21
760.413149225704
 31
0.0
  0
LINE
  5
1D5
330
74
100
AcDbEntity
  8
1
  6
Continuous
 62
     2
100
AcDbLine
 10
263.8378685549491
 20
760.413149225704
 30
0.0
 11
220.337868554949
 21
760.413149225704
 31
0.0
  0
LINE
  5
1D6
330
74
100
AcDbEntity
  8
1
  6
Continuous
 62
     6
100
AcDbLine
 10
263.8378685549508
 20
795.163149225704
 30
0.0
 11
263.83786855495
 21
815.4131492257042
 31
0.0
  0
LINE
  5
1D7
330
74
100
AcDbEntity
  8
1
  6
Continuous
 62
     2
100
AcDbLine
 10
268.8378685549481
 20
970.413149225704
 30
0.0
 11
120.337868554949
 21
970.413149225704
 31
0.0
  0
LINE
  5
1D8
330
74
100
AcDbEntity
  8
1
  6
Continuous
 62
     6
100
AcDbLine
 10
263.8378685549481
 20
950.413149225704
 30
0.0
 11
-23.16213144505005
 21
950.413149225704
 31
0.0
  0
LINE
  5
1D9
330
74
100
AcDbEntity
  8
1
  6
Continuous
 62
     2
100
AcDbLine
 10
263.83786855495
 20
815.4131492257042
 30
0.0
 11
268.8378685549481
 21
815.4131492257042
 31
0.0
  0
LINE
  5
1DA
330
74
100
AcDbEntity
  8
1
  6
Continuous
 62
     6
100
AcDbLine
 10
263.83786855495
 20
815.4131492257042
 30
0.0
 11
263.8378685549494
 21
865.4131492257039
 31
0.0
  0
LINE
  5
1DB
330
74
100
AcDbEntity
  8
1
  6
Continuous
 62
     2
100
AcDbLine
 10
268.8378685549481
 20
815.4131492257042
 30
0.0
 11
268.8378685549481
 21
865.4131492257039
 31
0.0
  0
LINE
  5
1DC
330
74
100
AcDbEntity
  8
1
  6
Continuous
 62
     2
100
AcDbLine
 10
263.8378685549494
 20
865.4131492257039
 30
0.0
 11
268.8378685549481
 21
865.4131492257039
 31
0.0
  0
LINE
  5
1DD
330
74
100
AcDbEntity
  8
1
  6
Continuous
 62
     6
100
AcDbLine
 10
263.8378685549494
 20
865.4131492257039
 30
0.0
 11
263.8378685549484
 21
915.413149225704
 31
0.0
  0
LINE
  5
1DE
330
74
100
AcDbEntity
  8
1
  6
Continuous
 62
     2
100
AcDbLine
 10
268.8378685549481
 20
865.4131492257039
 30
0.0
 11
268.8378685549481
 21
915.413149225704
 31
0.0
  0
LINE
  5
1DF
330
74
100
AcDbEntity
  8
1
  6
Continuous
 62
     2
100
AcDbLine
 10
263.8378685549484
 20
915.413149225704
 30
0.0
 11
268.8378685549481
 21
915.413149225704
 31
0.0
  0
LINE
  5
1E0
330
74
100
AcDbEntity
  8
1
  6
Continuous
 62
     6
100
AcDbLine
 10
263.8378685549484
 20
915.413149225704
 30
0.0
 11
263.8378685549481
 21
950.413149225704
 31
0.0
  0
LINE
  5
1E1
330
74
100
AcDbEntity
  8
1
  6
Continuous
 62
     2
100
AcDbLine
 10
268.8378685549481
 20
915.413149225704
 30
0.0
 11
268.8378685549481
 21
970.413149225704
 31
0.0
  0
LINE
  5
1E2
330
74
100
AcDbEntity
  8
1
  6
Continuous
 62
     2
100
AcDbLine
 10
268.8378685549481
 20
765.4131492257042
 30
0.0
 11
268.8378685549481
 21
815.4131492257042
 31
0.0
  0
LINE
  5
1E3
330
74
100
AcDbEntity
  8
1
  6
Continuous
 62
     2
100
AcDbLine
 10
120.337868554949
 20
970.413149225704
 30
0.0
 11
-28.16213144505005
 21
970.413149225704
 31
0.0
  0
LINE
  5
1E4
330
74
100
AcDbEntity
  8
1
  6
Continuous
 62
     2
100
AcDbLine
 10
120.337868554949
 20
970.413149225704
 30
0.0
 11
120.337868554949
 21
961.2044573810027
 31
0.0
  0
LINE
  5
1E5
330
74
100
AcDbEntity
  8
1
  6
Continuous
 62
     2
100
AcDbLine
 10
-28.16213144505005
 20
760.413149225704
 30
0.0
 11
-23.16213144504897
 21
760.413149225704
 31
0.0
  0
LINE
  5
1E6
330
74
100
AcDbEntity
  8
1
  6
Continuous
 62
     2
100
AcDbLine
 10
-28.16213144505005
 20
970.413149225704
 30
0.0
 11
-28.16213144505005
 21
915.413149225704
 31
0.0
  0
LINE
  5
1E7
330
74
100
AcDbEntity
  8
1
  6
Continuous
 62
     6
100
AcDbLine
 10
-23.16213144505005
 20
950.413149225704
 30
0.0
 11
-23.16213144504985
 21
915.413149225704
 31
0.0
  0
LINE
  5
1E8
330
74
100
AcDbEntity
  8
1
  6
Continuous
 62
     2
100
AcDbLine
 10
-28.16213144505005
 20
915.413149225704
 30
0.0
 11
-23.16213144504985
 21
915.413149225704
 31
0.0
  0
LINE
  5
1E9
330
74
100
AcDbEntity
  8
1
  6
Continuous
 62
     2
100
AcDbLine
 10
-28.16213144505005
 20
915.413149225704
 30
0.0
 11
-28.16213144505005
 21
865.4131492257039
 31
0.0
  0
LINE
  5
1EA
330
74
100
AcDbEntity
  8
1
  6
Continuous
 62
     6
100
AcDbLine
 10
-23.16213144504985
 20
915.413149225704
 30
0.0
 11
-23.16213144504945
 21
865.4131492257039
 31
0.0
  0
LINE
  5
1EB
330
74
100
AcDbEntity
  8
1
  6
Continuous
 62
     2
100
AcDbLine
 10
-28.16213144505005
 20
865.4131492257039
 30
0.0
 11
-23.16213144504945
 21
865.4131492257039
 31
0.0
  0
LINE
  5
1EC
330
74
100
AcDbEntity
  8
1
  6
Continuous
 62
     2
100
AcDbLine
 10
-28.16213144505005
 20
865.4131492257039
 30
0.0
 11
-28.16213144505005
 21
815.4131492257042
 31
0.0
  0
LINE
  5
1ED
330
74
100
AcDbEntity
  8
1
  6
Continuous
 62
     6
100
AcDbLine
 10
-23.16213144504945
 20
865.4131492257039
 30
0.0
 11
-23.16213144504917
 21
815.4131492257042
 31
0.0
  0
LINE
  5
1EE
330
74
100
AcDbEntity
  8
1
  6
Continuous
 62
     2
100
AcDbLine
 10
-28.16213144505005
 20
815.4131492257042
 30
0.0
 11
-23.16213144504917
 21
815.4131492257042
 31
0.0
  0
LINE
  5
1EF
330
74
100
AcDbEntity
  8
1
  6
Continuous
 62
     2
100
AcDbLine
 10
-28.16213144505005
 20
815.4131492257042
 30
0.0
 11
-28.16213144505005
 21
765.4131492257042
 31
0.0
  0
LINE
  5
1F0
330
74
100
AcDbEntity
  8
1
  6
Continuous
 62
     6
100
AcDbLine
 10
-23.16213144504917
 20
815.4131492257042
 30
0.0
 11
-23.16213144504897
 21
765.4131492257042
 31
0.0
  0
LINE
  5
1F1
330
74
100
AcDbEntity
  8
1
  6
Continuous
 62
     2
100
AcDbLine
 10
20.33786855494904
 20
760.413149225704
 30
0.0
 11
20.33786855494904
 21
765.4131492257042
 31
0.0
  0
LINE
  5
1F2
330
74
100
AcDbEntity
  8
1
  6
Continuous
 62
     2
100
AcDbLine
 10
20.33786855494904
 20
760.413149225704
 30
0.0
 11
70.33786855494893
 21
760.413149225704
 31
0.0
  0
LINE
  5
1F3
330
74
100
AcDbEntity
  8
1
  6
Continuous
 62
     2
100
AcDbLine
 10
70.33786855494893
 20
760.413149225704
 30
0.0
 11
70.33786855494893
 21
765.4131492257042
 31
0.0
  0
LINE
  5
1F4
330
74
100
AcDbEntity
  8
1
  6
Continuous
 62
     2
100
AcDbLine
 10
70.33786855494893
 20
760.413149225704
 30
0.0
 11
120.337868554949
 21
760.413149225704
 31
0.0
  0
LINE
  5
1F5
330
74
100
AcDbEntity
  8
1
  6
Continuous
 62
     2
100
AcDbLine
 10
120.337868554949
 20
760.413149225704
 30
0.0
 11
120.337868554949
 21
765.4131492257042
 31
0.0
  0
LINE
  5
1F6
330
74
100
AcDbEntity
  8
1
  6
Continuous
 62
     2
100
AcDbLine
 10
120.337868554949
 20
760.413149225704
 30
0.0
 11
170.337868554949
 21
760.413149225704
 31
0.0
  0
LINE
  5
1F7
330
74
100
AcDbEntity
  8
1
  6
Continuous
 62
     2
100
AcDbLine
 10
170.337868554949
 20
760.413149225704
 30
0.0
 11
170.337868554949
 21
765.4131492257042
 31
0.0
  0
LINE
  5
1F8
330
74
100
AcDbEntity
  8
1
  6
Continuous
 62
     2
100
AcDbLine
 10
220.337868554949
 20
760.413149225704
 30
0.0
 11
220.337868554949
 21
765.4131492257042
 31
0.0
  0
LINE
  5
1F9
330
74
100
AcDbEntity
  8
1
  6
Continuous
 62
     2
100
AcDbLine
 10
220.337868554949
 20
760.413149225704
 30
0.0
 11
170.337868554949
 21
760.413149225704
 31
0.0
  0
LINE
  5
1FA
330
74
100
AcDbEntity
  8
1
  6
Continuous
 62
     2
100
AcDbLine
 10
-23.16213144504897
 20
765.4131492257042
 30
0.0
 11
-23.16213144504897
 21
760.413149225704
 31
0.0
  0
LINE
  5
1FB
330
74
100
AcDbEntity
  8
1
  6
Continuous
 62
     2
100
AcDbLine
 10
-23.16213144504897
 20
760.413149225704
 30
0.0
 11
20.33786855494904
 21
760.413149225704
 31
0.0
  0
LINE
  5
1FC
330
74
100
AcDbEntity
  8
1
  6
Continuous
 62
     2
100
AcDbLine
 10
-23.16213144504897
 20
765.4131492257042
 30
0.0
 11
-28.16213144505005
 21
765.4131492257042
 31
0.0
  0
LINE
  5
1FD
330
74
100
AcDbEntity
  8
1
  6
Continuous
 62
     2
100
AcDbLine
 10
-28.16213144505005
 20
765.4131492257042
 30
0.0
 11
-28.16213144505005
 21
760.413149225704
 31
0.0
  0
LINE
  5
1FE
330
74
100
AcDbEntity
  8
1
  6
Continuous
 62
     7
100
AcDbLine
 10
31.53786855494894
 20
769.6631492257042
 30
0.0
 11
93.79306402819914
 21
769.6631492257042
 31
0.0
  0
LINE
  5
1FF
330
74
100
AcDbEntity
  8
1
  6
Continuous
 62
     2
100
AcDbLine
 10
31.53786855494894
 20
769.6631492257042
 30
0.0
 11
31.53786855494894
 21
765.4131492257042
 31
0.0
  0
LINE
  5
200
330
74
100
AcDbEntity
  8
1
  6
Continuous
 62
     2
100
AcDbLine
 10
31.53786855494894
 20
773.913149225704
 30
0.0
 11
18.03786855494894
 21
773.913149225704
 31
0.0
  0
LINE
  5
201
330
74
100
AcDbEntity
  8
1
  6
Continuous
 62
     2
100
AcDbLine
 10
31.53786855494894
 20
773.913149225704
 30
0.0
 11
31.53786855494894
 21
769.6631492257042
 31
0.0
  0
LINE
  5
202
330
74
100
AcDbEntity
  8
1
  6
Continuous
 62
     2
100
AcDbLine
 10
31.53786855494894
 20
782.413149225704
 30
0.0
 11
18.03786855494894
 21
782.413149225704
 31
0.0
  0
LINE
  5
203
330
74
100
AcDbEntity
  8
1
  6
Continuous
 62
     2
100
AcDbLine
 10
31.53786855494894
 20
782.413149225704
 30
0.0
 11
31.53786855494894
 21
778.163149225704
 31
0.0
  0
LINE
  5
204
330
74
100
AcDbEntity
  8
1
  6
Continuous
 62
     2
100
AcDbLine
 10
31.53786855494894
 20
778.163149225704
 30
0.0
 11
18.03786855494894
 21
778.163149225704
 31
0.0
  0
LINE
  5
205
330
74
100
AcDbEntity
  8
1
  6
Continuous
 62
     2
100
AcDbLine
 10
31.53786855494894
 20
778.163149225704
 30
0.0
 11
31.53786855494894
 21
773.913149225704
 31
0.0
  0
LINE
  5
206
330
74
100
AcDbEntity
  8
1
  6
Continuous
 62
     2
100
AcDbLine
 10
31.53786855494894
 20
790.913149225704
 30
0.0
 11
18.03786855494894
 21
790.913149225704
 31
0.0
  0
LINE
  5
207
330
74
100
AcDbEntity
  8
1
  6
Continuous
 62
     2
100
AcDbLine
 10
31.53786855494894
 20
786.663149225704
 30
0.0
 11
18.03786855494894
 21
786.663149225704
 31
0.0
  0
LINE
  5
208
330
74
100
AcDbEntity
  8
1
  6
Continuous
 62
     2
100
AcDbLine
 10
31.53786855494894
 20
786.663149225704
 30
0.0
 11
31.53786855494894
 21
782.413149225704
 31
0.0
  0
LINE
  5
209
330
74
100
AcDbEntity
  8
1
  6
Continuous
 62
     2
100
AcDbLine
 10
31.53786855494894
 20
790.913149225704
 30
0.0
 11
31.53786855494894
 21
786.663149225704
 31
0.0
  0
LINE
  5
20A
330
74
100
AcDbEntity
  8
1
  6
Continuous
 62
     6
100
AcDbLine
 10
31.53786855494894
 20
795.163149225704
 30
0.0
 11
18.03786855494894
 21
795.163149225704
 31
0.0
  0
LINE
  5
20B
330
74
100
AcDbEntity
  8
1
  6
Continuous
 62
     2
100
AcDbLine
 10
31.53786855494894
 20
795.163149225704
 30
0.0
 11
31.53786855494894
 21
790.913149225704
 31
0.0
  0
LINE
  5
20C
330
74
100
AcDbEntity
  8
1
  6
Continuous
 62
     6
100
AcDbLine
 10
263.8378685549491
 20
765.4131492257042
 30
0.0
 11
263.8378685549503
 21
773.913149225704
 31
0.0
  0
LINE
  5
20D
330
74
100
AcDbEntity
  8
1
  6
Continuous
 62
     6
100
AcDbLine
 10
263.8378685549499
 20
786.663149225704
 30
0.0
 11
263.8378685549509
 21
782.413149225704
 31
0.0
  0
LINE
  5
20E
330
74
100
AcDbEntity
  8
1
  6
Continuous
 62
     6
100
AcDbLine
 10
170.693064028199
 20
765.413149225704
 30
0.0
 11
220.337868554949
 21
765.4131492257042
 31
0.0
  0
LINE
  5
20F
330
74
100
AcDbEntity
  8
1
  6
Continuous
 62
     6
100
AcDbLine
 10
134.2930640281991
 20
765.413149225704
 30
0.0
 11
152.493064028199
 21
765.4131492257042
 31
0.0
  0
LINE
  5
210
330
74
100
AcDbEntity
  8
1
  6
Continuous
 62
     6
100
AcDbLine
 10
18.03786855494894
 20
765.413149225704
 30
0.0
 11
20.33786855494904
 21
765.4131492257042
 31
0.0
  0
LINE
  5
211
330
74
100
AcDbEntity
  8
1
  6
Continuous
 62
     6
100
AcDbLine
 10
93.79306402819914
 20
765.413149225704
 30
0.0
 11
70.33786855494893
 21
765.4131492257042
 31
0.0
  0
LINE
  5
212
330
74
100
AcDbEntity
  8
1
  6
Continuous
 62
     6
100
AcDbLine
 10
263.8378685549508
 20
795.163149225704
 30
0.0
 11
245.9562768366299
 21
795.163149225704
 31
0.0
  0
LINE
  5
213
330
74
100
AcDbEntity
  8
1
  6
Continuous
 62
     7
100
AcDbLine
 10
263.8378685549503
 20
773.913149225704
 30
0.0
 11
218.837868554951
 21
773.913149225704
 31
0.0
  0
LINE
  5
214
330
74
100
AcDbEntity
  8
1
  6
Continuous
 62
     7
100
AcDbLine
 10
263.8378685549499
 20
786.663149225704
 30
0.0
 11
245.9562768366299
 21
786.663149225704
 31
0.0
  0
LINE
  5
215
330
74
100
AcDbEntity
  8
1
  6
Continuous
 62
     7
100
AcDbLine
 10
218.837868554951
 20
782.413149225704
 30
0.0
 11
263.8378685549509
 21
782.413149225704
 31
0.0
  0
LINE
  5
216
330
74
100
AcDbEntity
  8
1
  6
Continuous
 62
     7
100
AcDbLine
 10
170.693064028199
 20
790.913149225704
 30
0.0
 11
170.693064028199
 21
786.663149225704
 31
0.0
  0
LINE
  5
217
330
74
100
AcDbEntity
  8
1
  6
Continuous
 62
     7
100
AcDbLine
 10
157.193064028199
 20
790.913149225704
 30
0.0
 11
170.693064028199
 21
790.913149225704
 31
0.0
  0
LINE
  5
218
330
74
100
AcDbEntity
  8
1
  6
Continuous
 62
     7
100
AcDbLine
 10
157.193064028199
 20
790.913149225704
 30
0.0
 11
143.6930640281991
 21
790.913149225704
 31
0.0
  0
LINE
  5
219
330
74
100
AcDbEntity
  8
1
  6
Continuous
 62
     7
100
AcDbLine
 10
245.9562768366299
 20
786.663149225704
 30
0.0
 11
245.9562768366299
 21
795.163149225704
 31
0.0
  0
LINE
  5
21A
330
74
100
AcDbEntity
  8
1
  6
Continuous
 62
     6
100
AcDbLine
 10
237.0378685549507
 20
795.163149225704
 30
0.0
 11
245.9562768366299
 21
795.163149225704
 31
0.0
  0
LINE
  5
21B
330
74
100
AcDbEntity
  8
1
  6
Continuous
 62
     7
100
AcDbLine
 10
237.0378685549507
 20
795.163149225704
 30
0.0
 11
237.0378685549511
 21
786.6631492257042
 31
0.0
  0
LINE
  5
21C
330
74
100
AcDbEntity
  8
1
  6
Continuous
 62
     7
100
AcDbLine
 10
218.837868554951
 20
773.913149225704
 30
0.0
 11
200.3378685549514
 21
773.913149225704
 31
0.0
  0
LINE
  5
21D
330
74
100
AcDbEntity
  8
1
  6
Continuous
 62
     7
100
AcDbLine
 10
218.837868554951
 20
782.413149225704
 30
0.0
 11
218.837868554951
 21
773.913149225704
 31
0.0
  0
LINE
  5
21E
330
74
100
AcDbEntity
  8
1
  6
Continuous
 62
     2
100
AcDbLine
 10
120.793064028199
 20
795.163149225704
 30
0.0
 11
120.793064028199
 21
790.913149225704
 31
0.0
  0
LINE
  5
21F
330
74
100
AcDbEntity
  8
1
  6
Continuous
 62
     2
100
AcDbLine
 10
107.2930640281991
 20
795.163149225704
 30
0.0
 11
107.2930640281991
 21
790.913149225704
 31
0.0
  0
LINE
  5
220
330
74
100
AcDbEntity
  8
1
  6
Continuous
 62
     6
100
AcDbLine
 10
120.793064028199
 20
795.163149225704
 30
0.0
 11
107.2930640281991
 21
795.163149225704
 31
0.0
  0
LINE
  5
221
330
74
100
AcDbEntity
  8
1
  6
Continuous
 62
     6
100
AcDbLine
 10
107.2930640281991
 20
795.163149225704
 30
0.0
 11
93.79306402819914
 21
795.163149225704
 31
0.0
  0
LINE
  5
222
330
74
100
AcDbEntity
  8
1
  6
Continuous
 62
     2
100
AcDbLine
 10
93.79306402819914
 20
795.163149225704
 30
0.0
 11
93.79306402819914
 21
790.913149225704
 31
0.0
  0
LINE
  5
223
330
74
100
AcDbEntity
  8
1
  6
Continuous
 62
     7
100
AcDbLine
 10
152.493064028199
 20
769.6631492257042
 30
0.0
 11
152.493064028199
 21
765.4131492257042
 31
0.0
  0
LINE
  5
224
330
74
100
AcDbEntity
  8
1
  6
Continuous
 62
     7
100
AcDbLine
 10
152.493064028199
 20
769.6631492257042
 30
0.0
 11
134.2930640281991
 21
769.6631492257042
 31
0.0
  0
LINE
  5
225
330
74
100
AcDbEntity
  8
1
  6
Continuous
 62
     7
100
AcDbLine
 10
157.193064028199
 20
782.413149225704
 30
0.0
 11
143.6930640281991
 21
782.4131492257042
 31
0.0
  0
LINE
  5
226
330
74
100
AcDbEntity
  8
1
  6
Continuous
 62
     7
100
AcDbLine
 10
170.693064028199
 20
769.6631492257042
 30
0.0
 11
152.493064028199
 21
769.6631492257042
 31
0.0
  0
LINE
  5
227
330
74
100
AcDbEntity
  8
1
  6
Continuous
 62
     6
100
AcDbLine
 10
170.693064028199
 20
795.163149225704
 30
0.0
 11
193.593064028199
 21
795.163149225704
 31
0.0
  0
LINE
  5
228
330
74
100
AcDbEntity
  8
1
  6
Continuous
 62
     6
100
AcDbLine
 10
237.0378685549507
 20
795.163149225704
 30
0.0
 11
193.593064028199
 21
795.163149225704
 31
0.0
  0
LINE
  5
229
330
74
100
AcDbEntity
  8
1
  6
Continuous
 62
     7
100
AcDbLine
 10
193.593064028199
 20
795.163149225704
 30
0.0
 11
193.593064028199
 21
786.6631492257039
 31
0.0
  0
LINE
  5
22A
330
74
100
AcDbEntity
  8
1
  6
Continuous
 62
     6
100
AcDbLine
 10
18.03786855494894
 20
795.163149225704
 30
0.0
 11
11.83786855495094
 21
795.163149225704
 31
0.0
  0
LINE
  5
22B
330
74
100
AcDbEntity
  8
1
  6
Continuous
 62
     6
100
AcDbLine
 10
11.83786855495094
 20
765.4131492257042
 30
0.0
 11
11.83786855495094
 21
769.6631492257042
 31
0.0
  0
LINE
  5
22C
330
74
100
AcDbEntity
  8
1
  6
Continuous
 62
     6
100
AcDbLine
 10
11.83786855495094
 20
769.6631492257042
 30
0.0
 11
11.83786855495094
 21
773.913149225704
 31
0.0
  0
LINE
  5
22D
330
74
100
AcDbEntity
  8
1
  6
Continuous
 62
     7
100
AcDbLine
 10
157.193064028199
 20
786.663149225704
 30
0.0
 11
157.193064028199
 21
782.413149225704
 31
0.0
  0
LINE
  5
22E
330
74
100
AcDbEntity
  8
1
  6
Continuous
 62
     7
100
AcDbLine
 10
143.6930640281991
 20
786.663149225704
 30
0.0
 11
143.6930640281991
 21
782.4131492257042
 31
0.0
  0
LINE
  5
22F
330
74
100
AcDbEntity
  8
1
  6
Continuous
 62
     7
100
AcDbLine
 10
157.193064028199
 20
786.663149225704
 30
0.0
 11
143.6930640281991
 21
786.663149225704
 31
0.0
  0
LINE
  5
230
330
74
100
AcDbEntity
  8
1
  6
Continuous
 62
     2
100
AcDbLine
 10
134.2930640281991
 20
782.413149225704
 30
0.0
 11
120.793064028199
 21
782.413149225704
 31
0.0
  0
LINE
  5
231
330
74
100
AcDbEntity
  8
1
  6
Continuous
 62
     2
100
AcDbLine
 10
18.03786855494894
 20
782.413149225704
 30
0.0
 11
18.03786855494894
 21
786.663149225704
 31
0.0
  0
LINE
  5
232
330
74
100
AcDbEntity
  8
1
  6
Continuous
 62
     2
100
AcDbLine
 10
18.03786855494894
 20
782.413149225704
 30
0.0
 11
11.83786855495094
 21
782.413149225704
 31
0.0
  0
LINE
  5
233
330
74
100
AcDbEntity
  8
1
  6
Continuous
 62
     2
100
AcDbLine
 10
134.2930640281991
 20
786.663149225704
 30
0.0
 11
120.793064028199
 21
786.663149225704
 31
0.0
  0
LINE
  5
234
330
74
100
AcDbEntity
  8
1
  6
Continuous
 62
     2
100
AcDbLine
 10
18.03786855494894
 20
786.663149225704
 30
0.0
 11
18.03786855494894
 21
790.913149225704
 31
0.0
  0
LINE
  5
235
330
74
100
AcDbEntity
  8
1
  6
Continuous
 62
     2
100
AcDbLine
 10
134.2930640281991
 20
790.913149225704
 30
0.0
 11
120.793064028199
 21
790.913149225704
 31
0.0
  0
LINE
  5
236
330
74
100
AcDbEntity
  8
1
  6
Continuous
 62
     2
100
AcDbLine
 10
18.03786855494894
 20
790.913149225704
 30
0.0
 11
18.03786855494894
 21
795.163149225704
 31
0.0
  0
LINE
  5
237
330
74
100
AcDbEntity
  8
1
  6
Continuous
 62
     2
100
AcDbLine
 10
18.03786855494894
 20
790.913149225704
 30
0.0
 11
11.83786855495094
 21
790.913149225704
 31
0.0
  0
LINE
  5
238
330
74
100
AcDbEntity
  8
1
  6
Continuous
 62
     6
100
AcDbLine
 10
134.2930640281991
 20
795.163149225704
 30
0.0
 11
120.793064028199
 21
795.163149225704
 31
0.0
  0
LINE
  5
239
330
74
100
AcDbEntity
  8
1
  6
Continuous
 62
     2
100
AcDbLine
 10
134.2930640281991
 20
773.913149225704
 30
0.0
 11
120.793064028199
 21
773.913149225704
 31
0.0
  0
LINE
  5
23A
330
74
100
AcDbEntity
  8
1
  6
Continuous
 62
     2
100
AcDbLine
 10
134.2930640281991
 20
778.163149225704
 30
0.0
 11
120.793064028199
 21
778.163149225704
 31
0.0
  0
LINE
  5
23B
330
74
100
AcDbEntity
  8
1
  6
Continuous
 62
     2
100
AcDbLine
 10
18.03786855494894
 20
773.913149225704
 30
0.0
 11
18.03786855494894
 21
778.163149225704
 31
0.0
  0
LINE
  5
23C
330
74
100
AcDbEntity
  8
1
  6
Continuous
 62
     2
100
AcDbLine
 10
18.03786855494894
 20
778.163149225704
 30
0.0
 11
18.03786855494894
 21
782.413149225704
 31
0.0
  0
LINE
  5
23D
330
74
100
AcDbEntity
  8
1
  6
Continuous
 62
     7
100
AcDbLine
 10
18.03786855494894
 20
769.6631492257042
 30
0.0
 11
31.53786855494894
 21
769.6631492257042
 31
0.0
  0
LINE
  5
23E
330
74
100
AcDbEntity
  8
1
  6
Continuous
 62
     2
100
AcDbLine
 10
18.03786855494894
 20
769.6631492257042
 30
0.0
 11
18.03786855494894
 21
773.913149225704
 31
0.0
  0
LINE
  5
23F
330
74
100
AcDbEntity
  8
1
  6
Continuous
 62
     7
100
AcDbLine
 10
170.693064028199
 20
773.913149225704
 30
0.0
 11
170.693064028199
 21
778.163149225704
 31
0.0
  0
LINE
  5
240
330
74
100
AcDbEntity
  8
1
  6
Continuous
 62
     6
100
AcDbLine
 10
157.193064028199
 20
795.163149225704
 30
0.0
 11
170.693064028199
 21
795.163149225704
 31
0.0
  0
LINE
  5
241
330
74
100
AcDbEntity
  8
1
  6
Continuous
 62
     7
100
AcDbLine
 10
170.693064028199
 20
795.163149225704
 30
0.0
 11
170.693064028199
 21
790.913149225704
 31
0.0
  0
LINE
  5
242
330
74
100
AcDbEntity
  8
1
  6
Continuous
 62
     6
100
AcDbLine
 10
143.6930640281991
 20
795.163149225704
 30
0.0
 11
157.193064028199
 21
795.163149225704
 31
0.0
  0
LINE
  5
243
330
74
100
AcDbEntity
  8
1
  6
Continuous
 62
     7
100
AcDbLine
 10
134.2930640281991
 20
782.413149225704
 30
0.0
 11
134.2930640281991
 21
778.163149225704
 31
0.0
  0
LINE
  5
244
330
74
100
AcDbEntity
  8
1
  6
Continuous
 62
     7
100
AcDbLine
 10
134.2930640281991
 20
786.663149225704
 30
0.0
 11
134.2930640281991
 21
782.413149225704
 31
0.0
  0
LINE
  5
245
330
74
100
AcDbEntity
  8
1
  6
Continuous
 62
     2
100
AcDbLine
 10
11.83786855495094
 20
786.663149225704
 30
0.0
 11
18.03786855494894
 21
786.663149225704
 31
0.0
  0
LINE
  5
246
330
74
100
AcDbEntity
  8
1
  6
Continuous
 62
     7
100
AcDbLine
 10
134.2930640281991
 20
790.913149225704
 30
0.0
 11
134.2930640281991
 21
786.663149225704
 31
0.0
  0
LINE
  5
247
330
74
100
AcDbEntity
  8
1
  6
Continuous
 62
     7
100
AcDbLine
 10
170.693064028199
 20
786.663149225704
 30
0.0
 11
170.693064028199
 21
782.413149225704
 31
0.0
  0
LINE
  5
248
330
74
100
AcDbEntity
  8
1
  6
Continuous
 62
     7
100
AcDbLine
 10
157.193064028199
 20
795.163149225704
 30
0.0
 11
157.193064028199
 21
790.913149225704
 31
0.0
  0
LINE
  5
249
330
74
100
AcDbEntity
  8
1
  6
Continuous
 62
     7
100
AcDbLine
 10
143.6930640281991
 20
795.163149225704
 30
0.0
 11
143.6930640281991
 21
790.913149225704
 31
0.0
  0
LINE
  5
24A
330
74
100
AcDbEntity
  8
1
  6
Continuous
 62
     2
100
AcDbLine
 10
18.03786855494894
 20
765.413149225704
 30
0.0
 11
18.03786855494894
 21
769.6631492257042
 31
0.0
  0
LINE
  5
24B
330
74
100
AcDbEntity
  8
1
  6
Continuous
 62
     2
100
AcDbLine
 10
11.83786855495094
 20
773.913149225704
 30
0.0
 11
18.03786855494894
 21
773.913149225704
 31
0.0
  0
LINE
  5
24C
330
74
100
AcDbEntity
  8
1
  6
Continuous
 62
     2
100
AcDbLine
 10
11.83786855495094
 20
778.163149225704
 30
0.0
 11
18.03786855494894
 21
778.163149225704
 31
0.0
  0
LINE
  5
24D
330
74
100
AcDbEntity
  8
1
  6
Continuous
 62
     7
100
AcDbLine
 10
11.83786855495094
 20
769.6631492257042
 30
0.0
 11
18.03786855494894
 21
769.6631492257042
 31
0.0
  0
LINE
  5
24E
330
74
100
AcDbEntity
  8
1
  6
Continuous
 62
     7
100
AcDbLine
 10
170.693064028199
 20
773.913149225704
 30
0.0
 11
170.693064028199
 21
769.6631492257042
 31
0.0
  0
LINE
  5
24F
330
74
100
AcDbEntity
  8
1
  6
Continuous
 62
     7
100
AcDbLine
 10
134.2930640281991
 20
778.163149225704
 30
0.0
 11
134.2930640281991
 21
773.913149225704
 31
0.0
  0
LINE
  5
250
330
74
100
AcDbEntity
  8
1
  6
Continuous
 62
     7
100
AcDbLine
 10
134.2930640281991
 20
773.913149225704
 30
0.0
 11
134.2930640281991
 21
769.6631492257042
 31
0.0
  0
LINE
  5
251
330
74
100
AcDbEntity
  8
1
  6
Continuous
 62
     7
100
AcDbLine
 10
157.193064028199
 20
790.913149225704
 30
0.0
 11
157.193064028199
 21
786.663149225704
 31
0.0
  0
LINE
  5
252
330
74
100
AcDbEntity
  8
1
  6
Continuous
 62
     7
100
AcDbLine
 10
143.6930640281991
 20
790.913149225704
 30
0.0
 11
143.6930640281991
 21
786.663149225704
 31
0.0
  0
LINE
  5
253
330
74
100
AcDbEntity
  8
1
  6
Continuous
 62
     7
100
AcDbLine
 10
134.2930640281991
 20
786.663149225704
 30
0.0
 11
143.6930640281991
 21
786.663149225704
 31
0.0
  0
LINE
  5
254
330
74
100
AcDbEntity
  8
1
  6
Continuous
 62
     7
100
AcDbLine
 10
170.693064028199
 20
782.413149225704
 30
0.0
 11
157.193064028199
 21
782.413149225704
 31
0.0
  0
LINE
  5
255
330
74
100
AcDbEntity
  8
1
  6
Continuous
 62
     7
100
AcDbLine
 10
170.693064028199
 20
769.6631492257042
 30
0.0
 11
170.693064028199
 21
765.413149225704
 31
0.0
  0
LINE
  5
256
330
74
100
AcDbEntity
  8
1
  6
Continuous
 62
     7
100
AcDbLine
 10
134.2930640281991
 20
769.6631492257042
 30
0.0
 11
134.2930640281991
 21
765.413149225704
 31
0.0
  0
LINE
  5
257
330
74
100
AcDbEntity
  8
1
  6
Continuous
 62
     7
100
AcDbLine
 10
134.2930640281991
 20
795.163149225704
 30
0.0
 11
134.2930640281991
 21
790.913149225704
 31
0.0
  0
LINE
  5
258
330
74
100
AcDbEntity
  8
1
  6
Continuous
 62
     7
100
AcDbLine
 10
170.693064028199
 20
773.913149225704
 30
0.0
 11
200.3378685549514
 21
773.913149225704
 31
0.0
  0
LINE
  5
259
330
74
100
AcDbEntity
  8
1
  6
Continuous
 62
     7
100
AcDbLine
 10
170.693064028199
 20
782.413149225704
 30
0.0
 11
200.3378685549514
 21
782.413149225704
 31
0.0
  0
LINE
  5
25A
330
74
100
AcDbEntity
  8
1
  6
Continuous
 62
     7
100
AcDbLine
 10
237.0378685549511
 20
786.6631492257042
 30
0.0
 11
245.9562768366299
 21
786.663149225704
 31
0.0
  0
LINE
  5
25B
330
74
100
AcDbEntity
  8
1
  6
Continuous
 62
     7
100
AcDbLine
 10
237.0378685549511
 20
786.6631492257042
 30
0.0
 11
200.3378685549514
 21
786.663149225704
 31
0.0
  0
LINE
  5
25C
330
74
100
AcDbEntity
  8
1
  6
Continuous
 62
     7
100
AcDbLine
 10
200.3378685549514
 20
782.413149225704
 30
0.0
 11
218.837868554951
 21
782.413149225704
 31
0.0
  0
LINE
  5
25D
330
74
100
AcDbEntity
  8
1
  6
Continuous
 62
     7
100
AcDbLine
 10
200.3378685549514
 20
782.413149225704
 30
0.0
 11
200.3378685549514
 21
773.913149225704
 31
0.0
  0
LINE
  5
25E
330
74
100
AcDbEntity
  8
1
  6
Continuous
 62
     6
100
AcDbLine
 10
18.03786855494894
 20
765.413149225704
 30
0.0
 11
11.83786855495094
 21
765.4131492257042
 31
0.0
  0
LINE
  5
25F
330
74
100
AcDbEntity
  8
1
  6
Continuous
 62
     6
100
AcDbLine
 10
11.83786855495094
 20
790.913149225704
 30
0.0
 11
11.83786855495094
 21
795.163149225704
 31
0.0
  0
LINE
  5
260
330
74
100
AcDbEntity
  8
1
  6
Continuous
 62
     6
100
AcDbLine
 10
11.83786855495094
 20
786.663149225704
 30
0.0
 11
11.83786855495094
 21
790.913149225704
 31
0.0
  0
LINE
  5
261
330
74
100
AcDbEntity
  8
1
  6
Continuous
 62
     6
100
AcDbLine
 10
11.83786855495094
 20
782.413149225704
 30
0.0
 11
11.83786855495094
 21
786.663149225704
 31
0.0
  0
LINE
  5
262
330
74
100
AcDbEntity
  8
1
  6
Continuous
 62
     6
100
AcDbLine
 10
11.83786855495094
 20
773.913149225704
 30
0.0
 11
11.83786855495094
 21
778.163149225704
 31
0.0
  0
LINE
  5
263
330
74
100
AcDbEntity
  8
1
  6
Continuous
 62
     6
100
AcDbLine
 10
93.79306402819914
 20
795.163149225704
 30
0.0
 11
31.53786855494894
 21
795.163149225704
 31
0.0
  0
LINE
  5
264
330
74
100
AcDbEntity
  8
1
  6
Continuous
 62
     2
100
AcDbLine
 10
31.53786855494894
 20
790.913149225704
 30
0.0
 11
93.79306402819914
 21
790.913149225704
 31
0.0
  0
LINE
  5
265
330
74
100
AcDbEntity
  8
1
  6
Continuous
 62
     2
100
AcDbLine
 10
31.53786855494894
 20
786.663149225704
 30
0.0
 11
93.79306402819914
 21
786.663149225704
 31
0.0
  0
LINE
  5
266
330
74
100
AcDbEntity
  8
1
  6
Continuous
 62
     6
100
AcDbLine
 10
170.693064028199
 20
765.413149225704
 30
0.0
 11
170.337868554949
 21
765.4131492257042
 31
0.0
  0
LINE
  5
267
330
74
100
AcDbEntity
  8
1
  6
Continuous
 62
     7
100
AcDbLine
 10
157.193064028199
 20
786.663149225704
 30
0.0
 11
170.693064028199
 21
786.663149225704
 31
0.0
  0
LINE
  5
268
330
74
100
AcDbEntity
  8
1
  6
Continuous
 62
     7
100
AcDbLine
 10
193.593064028199
 20
786.6631492257039
 30
0.0
 11
170.693064028199
 21
786.663149225704
 31
0.0
  0
LINE
  5
269
330
74
100
AcDbEntity
  8
1
  6
Continuous
 62
     6
100
AcDbLine
 10
263.8378685549509
 20
782.413149225704
 30
0.0
 11
263.8378685549503
 21
773.913149225704
 31
0.0
  0
LINE
  5
26A
330
74
100
AcDbEntity
  8
1
  6
Continuous
 62
     6
100
AcDbLine
 10
120.793064028199
 20
765.413149225704
 30
0.0
 11
134.2930640281991
 21
765.413149225704
 31
0.0
  0
LINE
  5
26B
330
74
100
AcDbEntity
  8
1
  6
Continuous
 62
     2
100
AcDbLine
 10
120.793064028199
 20
773.913149225704
 30
0.0
 11
120.793064028199
 21
769.6631492257042
 31
0.0
  0
LINE
  5
26C
330
74
100
AcDbEntity
  8
1
  6
Continuous
 62
     2
100
AcDbLine
 10
120.793064028199
 20
773.913149225704
 30
0.0
 11
107.2930640281991
 21
773.913149225704
 31
0.0
  0
LINE
  5
26D
330
74
100
AcDbEntity
  8
1
  6
Continuous
 62
     2
100
AcDbLine
 10
120.793064028199
 20
769.6631492257042
 30
0.0
 11
120.793064028199
 21
765.413149225704
 31
0.0
  0
LINE
  5
26E
330
74
100
AcDbEntity
  8
1
  6
Continuous
 62
     7
100
AcDbLine
 10
120.793064028199
 20
769.6631492257042
 30
0.0
 11
134.2930640281991
 21
769.6631492257042
 31
0.0
  0
LINE
  5
26F
330
74
100
AcDbEntity
  8
1
  6
Continuous
 62
     2
100
AcDbLine
 10
120.793064028199
 20
782.413149225704
 30
0.0
 11
120.793064028199
 21
778.163149225704
 31
0.0
  0
LINE
  5
270
330
74
100
AcDbEntity
  8
1
  6
Continuous
 62
     2
100
AcDbLine
 10
120.793064028199
 20
782.413149225704
 30
0.0
 11
107.2930640281991
 21
782.413149225704
 31
0.0
  0
LINE
  5
271
330
74
100
AcDbEntity
  8
1
  6
Continuous
 62
     2
100
AcDbLine
 10
120.793064028199
 20
786.663149225704
 30
0.0
 11
120.793064028199
 21
782.413149225704
 31
0.0
  0
LINE
  5
272
330
74
100
AcDbEntity
  8
1
  6
Continuous
 62
     2
100
AcDbLine
 10
120.793064028199
 20
786.663149225704
 30
0.0
 11
107.2930640281991
 21
786.663149225704
 31
0.0
  0
LINE
  5
273
330
74
100
AcDbEntity
  8
1
  6
Continuous
 62
     2
100
AcDbLine
 10
120.793064028199
 20
790.913149225704
 30
0.0
 11
120.793064028199
 21
786.663149225704
 31
0.0
  0
LINE
  5
274
330
74
100
AcDbEntity
  8
1
  6
Continuous
 62
     2
100
AcDbLine
 10
120.793064028199
 20
790.913149225704
 30
0.0
 11
107.2930640281991
 21
790.913149225704
 31
0.0
  0
LINE
  5
275
330
74
100
AcDbEntity
  8
1
  6
Continuous
 62
     2
100
AcDbLine
 10
120.793064028199
 20
778.163149225704
 30
0.0
 11
120.793064028199
 21
773.913149225704
 31
0.0
  0
LINE
  5
276
330
74
100
AcDbEntity
  8
1
  6
Continuous
 62
     2
100
AcDbLine
 10
120.793064028199
 20
778.163149225704
 30
0.0
 11
107.2930640281991
 21
778.163149225704
 31
0.0
  0
LINE
  5
277
330
74
100
AcDbEntity
  8
1
  6
Continuous
 62
     6
100
AcDbLine
 10
107.2930640281991
 20
765.413149225704
 30
0.0
 11
120.337868554949
 21
765.4131492257042
 31
0.0
  0
LINE
  5
278
330
74
100
AcDbEntity
  8
1
  6
Continuous
 62
     2
100
AcDbLine
 10
107.2930640281991
 20
773.913149225704
 30
0.0
 11
107.2930640281991
 21
769.6631492257042
 31
0.0
  0
LINE
  5
279
330
74
100
AcDbEntity
  8
1
  6
Continuous
 62
     2
100
AcDbLine
 10
107.2930640281991
 20
773.913149225704
 30
0.0
 11
93.79306402819914
 21
773.913149225704
 31
0.0
  0
LINE
  5
27A
330
74
100
AcDbEntity
  8
1
  6
Continuous
 62
     2
100
AcDbLine
 10
107.2930640281991
 20
769.6631492257042
 30
0.0
 11
107.2930640281991
 21
765.413149225704
 31
0.0
  0
LINE
  5
27B
330
74
100
AcDbEntity
  8
1
  6
Continuous
 62
     7
100
AcDbLine
 10
107.2930640281991
 20
769.6631492257042
 30
0.0
 11
120.793064028199
 21
769.6631492257042
 31
0.0
  0
LINE
  5
27C
330
74
100
AcDbEntity
  8
1
  6
Continuous
 62
     2
100
AcDbLine
 10
107.2930640281991
 20
782.413149225704
 30
0.0
 11
107.2930640281991
 21
778.163149225704
 31
0.0
  0
LINE
  5
27D
330
74
100
AcDbEntity
  8
1
  6
Continuous
 62
     2
100
AcDbLine
 10
107.2930640281991
 20
782.413149225704
 30
0.0
 11
93.79306402819914
 21
782.413149225704
 31
0.0
  0
LINE
  5
27E
330
74
100
AcDbEntity
  8
1
  6
Continuous
 62
     2
100
AcDbLine
 10
107.2930640281991
 20
786.663149225704
 30
0.0
 11
107.2930640281991
 21
782.413149225704
 31
0.0
  0
LINE
  5
27F
330
74
100
AcDbEntity
  8
1
  6
Continuous
 62
     2
100
AcDbLine
 10
107.2930640281991
 20
786.663149225704
 30
0.0
 11
93.79306402819914
 21
786.663149225704
 31
0.0
  0
LINE
  5
280
330
74
100
AcDbEntity
  8
1
  6
Continuous
 62
     2
100
AcDbLine
 10
107.2930640281991
 20
790.913149225704
 30
0.0
 11
107.2930640281991
 21
786.663149225704
 31
0.0
  0
LINE
  5
281
330
74
100
AcDbEntity
  8
1
  6
Continuous
 62
     2
100
AcDbLine
 10
107.2930640281991
 20
790.913149225704
 30
0.0
 11
93.79306402819914
 21
790.913149225704
 31
0.0
  0
LINE
  5
282
330
74
100
AcDbEntity
  8
1
  6
Continuous
 62
     2
100
AcDbLine
 10
107.2930640281991
 20
778.163149225704
 30
0.0
 11
107.2930640281991
 21
773.913149225704
 31
0.0
  0
LINE
  5
283
330
74
100
AcDbEntity
  8
1
  6
Continuous
 62
     2
100
AcDbLine
 10
107.2930640281991
 20
778.163149225704
 30
0.0
 11
93.79306402819914
 21
778.163149225704
 31
0.0
  0
LINE
  5
284
330
74
100
AcDbEntity
  8
1
  6
Continuous
 62
     6
100
AcDbLine
 10
93.79306402819914
 20
765.413149225704
 30
0.0
 11
107.2930640281991
 21
765.413149225704
 31
0.0
  0
LINE
  5
285
330
74
100
AcDbEntity
  8
1
  6
Continuous
 62
     2
100
AcDbLine
 10
93.79306402819914
 20
773.913149225704
 30
0.0
 11
93.79306402819914
 21
769.6631492257042
 31
0.0
  0
LINE
  5
286
330
74
100
AcDbEntity
  8
1
  6
Continuous
 62
     2
100
AcDbLine
 10
93.79306402819914
 20
773.913149225704
 30
0.0
 11
31.53786855494894
 21
773.913149225704
 31
0.0
  0
LINE
  5
287
330
74
100
AcDbEntity
  8
1
  6
Continuous
 62
     2
100
AcDbLine
 10
93.79306402819914
 20
769.6631492257042
 30
0.0
 11
93.79306402819914
 21
765.413149225704
 31
0.0
  0
LINE
  5
288
330
74
100
AcDbEntity
  8
1
  6
Continuous
 62
     7
100
AcDbLine
 10
93.79306402819914
 20
769.6631492257042
 30
0.0
 11
107.2930640281991
 21
769.6631492257042
 31
0.0
  0
LINE
  5
289
330
74
100
AcDbEntity
  8
1
  6
Continuous
 62
     2
100
AcDbLine
 10
93.79306402819914
 20
782.413149225704
 30
0.0
 11
93.79306402819914
 21
778.163149225704
 31
0.0
  0
LINE
  5
28A
330
74
100
AcDbEntity
  8
1
  6
Continuous
 62
     2
100
AcDbLine
 10
93.79306402819914
 20
782.413149225704
 30
0.0
 11
31.53786855494894
 21
782.413149225704
 31
0.0
  0
LINE
  5
28B
330
74
100
AcDbEntity
  8
1
  6
Continuous
 62
     2
100
AcDbLine
 10
93.79306402819914
 20
786.663149225704
 30
0.0
 11
93.79306402819914
 21
782.413149225704
 31
0.0
  0
LINE
  5
28C
330
74
100
AcDbEntity
  8
1
  6
Continuous
 62
     2
100
AcDbLine
 10
93.79306402819914
 20
790.913149225704
 30
0.0
 11
93.79306402819914
 21
786.663149225704
 31
0.0
  0
LINE
  5
28D
330
74
100
AcDbEntity
  8
1
  6
Continuous
 62
     2
100
AcDbLine
 10
93.79306402819914
 20
778.163149225704
 30
0.0
 11
93.79306402819914
 21
773.913149225704
 31
0.0
  0
LINE
  5
28E
330
74
100
AcDbEntity
  8
1
  6
Continuous
 62
     2
100
AcDbLine
 10
93.79306402819914
 20
778.163149225704
 30
0.0
 11
31.53786855494894
 21
778.163149225704
 31
0.0
  0
LINE
  5
28F
330
74
100
AcDbEntity
  8
1
  6
Continuous
 62
     7
100
AcDbLine
 10
143.6930640281991
 20
782.4131492257042
 30
0.0
 11
134.2930640281991
 21
782.413149225704
 31
0.0
  0
LINE
  5
290
330
74
100
AcDbEntity
  8
1
  6
Continuous
 62
     6
100
AcDbLine
 10
143.6930640281991
 20
795.163149225704
 30
0.0
 11
134.2930640281991
 21
795.163149225704
 31
0.0
  0
LINE
  5
291
330
74
100
AcDbEntity
  8
1
  6
Continuous
 62
     7
100
AcDbLine
 10
134.2930640281991
 20
790.913149225704
 30
0.0
 11
143.6930640281991
 21
790.913149225704
 31
0.0
  0
LINE
  5
292
330
74
100
AcDbEntity
  8
1
  6
Continuous
 62
     6
100
AcDbLine
 10
11.83786855495094
 20
778.163149225704
 30
0.0
 11
11.83786855495094
 21
782.413149225704
 31
0.0
  0
LINE
  5
293
330
74
100
AcDbEntity
  8
1
  6
Continuous
 62
     6
100
AcDbLine
 10
263.8378685549508
 20
795.163149225704
 30
0.0
 11
263.8378685549499
 21
786.663149225704
 31
0.0
  0
LINE
  5
294
330
74
100
AcDbEntity
  8
1
  6
Continuous
 62
     6
100
AcDbLine
 10
11.83786855495094
 20
765.4131492257042
 30
0.0
 11
-23.16213144504897
 21
765.4131492257042
 31
0.0
  0
LINE
  5
295
330
74
100
AcDbEntity
  8
1
  6
Continuous
 62
     2
100
AcDbLine
 10
142.5733331627144
 20
781.788149225704
 30
0.0
 11
146.5733331627144
 21
781.288149225704
 31
0.0
  0
LINE
  5
296
330
74
100
AcDbEntity
  8
1
  6
Continuous
 62
     2
100
AcDbLine
 10
146.5733331627144
 20
781.288149225704
 30
0.0
 11
146.5733331627144
 21
779.288149225704
 31
0.0
  0
LINE
  5
297
330
74
100
AcDbEntity
  8
1
  6
Continuous
 62
     2
100
AcDbLine
 10
146.5733331627144
 20
779.288149225704
 30
0.0
 11
142.5733331627144
 21
778.788149225704
 31
0.0
  0
LINE
  5
298
330
74
100
AcDbEntity
  8
1
  6
Continuous
 62
     2
100
AcDbLine
 10
142.5733331627144
 20
778.788149225704
 30
0.0
 11
142.5733331627144
 21
781.788149225704
 31
0.0
  0
LINE
  5
299
330
74
100
AcDbEntity
  8
1
  6
Continuous
 62
     7
100
AcDbLine
 10
200.3378685549514
 20
786.663149225704
 30
0.0
 11
193.593064028199
 21
786.6631492257039
 31
0.0
  0
LINE
  5
29A
330
74
100
AcDbEntity
  8
1
  6
Continuous
 62
     7
100
AcDbLine
 10
200.3378685549514
 20
782.413149225704
 30
0.0
 11
202.3378685549514
 21
782.413149225704
 31
0.0
  0
LINE
  5
29B
330
74
100
AcDbEntity
  8
1
  6
Continuous
 62
     2
100
AcDbLine
 10
235.272605239738
 20
780.8629299466712
 30
0.0
 11
235.272605239738
 21
778.8055339818178
 31
0.0
  0
ARC
  5
29C
102
{ACAD_REACTORS
330
342
330
343
102
}
330
74
100
AcDbEntity
  8
0
  6
Continuous
 62
     2
100
AcDbCircle
 10
150.1721119612239
 20
772.5250539876151
 30
0.0
 40
0.6378510567600251
100
AcDbArc
 50
321.8795802028467
 51
38.12041979716137
  0
ARC
  5
29D
102
{ACAD_REACTORS
330
342
330
343
102
}
330
74
100
AcDbEntity
  8
0
  6
Continuous
 62
     2
100
AcDbCircle
 10
150.3371863714275
 20
772.3955240883425
 30
0.0
 40
0.4280236140610111
100
AcDbArc
 50
218.1204197971943
 51
321.8795802027986
  0
ARC
  5
29E
102
{ACAD_REACTORS
330
342
330
343
102
}
330
74
100
AcDbEntity
  8
0
  6
Continuous
 62
     2
100
AcDbCircle
 10
150.5022607816309
 20
772.5250539876151
 30
0.0
 40
0.6378510567600058
100
AcDbArc
 50
141.8795802028323
 51
218.1204197971596
  0
ARC
  5
29F
102
{ACAD_REACTORS
330
342
330
343
102
}
330
74
100
AcDbEntity
  8
0
  6
Continuous
 62
     2
100
AcDbCircle
 10
150.3371863714275
 20
772.6545838868883
 30
0.0
 40
0.4280236140606632
100
AcDbArc
 50
38.12041979715347
 51
141.8795802028536
  0
ARC
  5
2A0
102
{ACAD_REACTORS
330
33A
330
33B
102
}
330
74
100
AcDbEntity
  8
0
  6
Continuous
 62
     2
100
AcDbCircle
 10
147.8065961767466
 20
771.3593793054597
 30
0.0
 40
1.840813230556584
100
AcDbArc
 50
58.069091050038
 51
71.55192388186704
  0
ARC
  5
2A1
102
{ACAD_REACTORS
330
33A
330
33B
102
}
330
74
100
AcDbEntity
  8
0
  6
Continuous
 62
     2
100
AcDbCircle
 10
148.0229000618365
 20
772.69453450773
 30
0.0
 40
0.422793438177582
100
AcDbArc
 50
113.3722778882059
 51
151.478526742308
  0
ARC
  5
2A2
102
{ACAD_REACTORS
330
33A
330
33B
102
}
330
74
100
AcDbEntity
  8
0
  6
Continuous
 62
     2
100
AcDbCircle
 10
148.3347655643822
 20
772.5250539876151
 30
0.0
 40
0.7777353184573039
100
AcDbArc
 50
151.4785267422654
 51
208.5214732576978
  0
ARC
  5
2A3
102
{ACAD_REACTORS
330
33A
330
33B
102
}
330
74
100
AcDbEntity
  8
0
  6
Continuous
 62
     2
100
AcDbCircle
 10
147.6761227262566
 20
775.2628068349345
 30
0.0
 40
4.010410630990195
100
AcDbArc
 50
275.1581447696242
 51
285.9799912583536
  0
ARC
  5
2A4
102
{ACAD_REACTORS
330
33A
330
33B
102
}
330
74
100
AcDbEntity
  8
0
  6
Continuous
 62
     2
100
AcDbCircle
 10
147.9148467714929
 20
772.6182691628505
 30
0.0
 40
1.355119937140075
100
AcDbArc
 50
195.06189177709
 51
275.1581447696369
  0
ARC
  5
2A5
102
{ACAD_REACTORS
330
33A
330
33B
102
}
330
74
100
AcDbEntity
  8
0
  6
Continuous
 62
     2
100
AcDbCircle
 10
147.568460124003
 20
772.5250539876151
 30
0.0
 40
0.9964100565215185
100
AcDbArc
 50
164.9381082228804
 51
195.0618917770943
  0
ARC
  5
2A6
102
{ACAD_REACTORS
330
33A
330
33B
102
}
330
74
100
AcDbEntity
  8
0
  6
Continuous
 62
     2
100
AcDbCircle
 10
147.9148467714929
 20
772.4318388123797
 30
0.0
 40
1.355119937140973
100
AcDbArc
 50
84.84185523036533
 51
164.9381082228915
  0
ARC
  5
2A7
102
{ACAD_REACTORS
330
33E
330
33F
102
}
330
74
100
AcDbEntity
  8
0
  6
Continuous
 62
     2
100
AcDbCircle
 10
143.9230994540037
 20
773.3794562969989
 30
0.0
 40
0.2609230769227379
100
AcDbArc
 50
115.3740086783514
 51
180.0
  0
ARC
  5
2A8
102
{ACAD_REACTORS
330
33E
330
33F
102
}
330
74
100
AcDbEntity
  8
0
  6
Continuous
 62
     2
100
AcDbCircle
 10
143.9230994540037
 20
775.2127481977726
 30
0.0
 40
0.260923076922893
100
AcDbArc
 50
180.0
 51
244.6259913216486
  0
ARC
  5
2A9
102
{ACAD_REACTORS
330
33E
330
33F
102
}
330
74
100
AcDbEntity
  8
0
  6
Continuous
 62
     2
100
AcDbCircle
 10
143.9277408881442
 20
774.3058889754071
 30
0.0
 40
1.668232340440729
100
AcDbArc
 50
269.8110329575842
 51
90.18896704241574
  0
ARC
  5
2AA
102
{ACAD_REACTORS
330
33E
330
33F
102
}
330
74
100
AcDbEntity
  8
0
  6
Continuous
 62
     2
100
AcDbCircle
 10
143.9230994540037
 20
772.898587365846
 30
0.0
 40
0.260923076922893
100
AcDbArc
 50
180.0
 51
269.8110329574403
  0
ARC
  5
2AB
102
{ACAD_REACTORS
330
33C
330
33D
102
}
330
74
100
AcDbEntity
  8
0
  6
Continuous
 62
     2
100
AcDbCircle
 10
161.3309178132852
 20
772.69453450773
 30
0.0
 40
0.4227934381772215
100
AcDbArc
 50
109.3371432194944
 51
151.4785267424192
  0
ARC
  5
2AC
102
{ACAD_REACTORS
330
33C
330
33D
102
}
330
74
100
AcDbEntity
  8
0
  6
Continuous
 62
     2
100
AcDbCircle
 10
161.3309178132852
 20
772.3555734675007
 30
0.0
 40
0.422793438178531
100
AcDbArc
 50
208.5214732576755
 51
246.6277221118326
  0
ARC
  5
2AD
102
{ACAD_REACTORS
330
33C
330
33D
102
}
330
74
100
AcDbEntity
  8
0
  6
Continuous
 62
     2
100
AcDbCircle
 10
160.8764778754526
 20
772.5250539876151
 30
0.0
 40
0.9964100565231652
100
AcDbArc
 50
164.938108222906
 51
195.0618917770941
  0
ARC
  5
2AE
102
{ACAD_REACTORS
330
33C
330
33D
102
}
330
74
100
AcDbEntity
  8
0
  6
Continuous
 62
     2
100
AcDbCircle
 10
161.2228645229416
 20
772.4318388123797
 30
0.0
 40
1.355119937140557
100
AcDbArc
 50
90.0
 51
164.9381082229002
  0
ARC
  5
2AF
102
{ACAD_REACTORS
330
340
330
341
102
}
330
74
100
AcDbEntity
  8
0
  6
Continuous
 62
     2
100
AcDbCircle
 10
153.4319594876492
 20
775.3012444637923
 30
0.0
 40
1.261904761905726
100
AcDbArc
 50
90.0
 51
270.0
  0
ARC
  5
2B0
102
{ACAD_REACTORS
330
344
330
345
102
}
330
74
100
AcDbEntity
  8
0
  6
Continuous
 62
     2
100
AcDbCircle
 10
147.85948779738
 20
775.7235048702341
 30
0.0
 40
0.2916229955959579
100
AcDbArc
 50
270.0
 51
90.0
  0
ARC
  5
2B1
102
{ACAD_REACTORS
330
33E
330
33F
102
}
330
74
100
AcDbEntity
  8
0
  6
Continuous
 62
     2
100
AcDbCircle
 10
141.7945468205064
 20
775.7133372598842
 30
0.0
 40
0.2609230769223814
100
AcDbArc
 50
90.0
 51
180.0
  0
ARC
  5
2B2
102
{ACAD_REACTORS
330
33E
330
33F
102
}
330
74
100
AcDbEntity
  8
0
  6
Continuous
 62
     2
100
AcDbCircle
 10
143.4461317036341
 20
774.296102247386
 30
0.0
 40
0.7536343169897189
100
AcDbArc
 50
115.1944106485204
 51
244.8055893514943
  0
ARC
  5
2B3
102
{ACAD_REACTORS
330
33E
330
33F
102
}
330
74
100
AcDbEntity
  8
0
  6
Continuous
 62
     2
100
AcDbCircle
 10
143.0142437304316
 20
773.3780611349374
 30
0.0
 40
0.2609230769229214
100
AcDbArc
 50
0.0
 51
64.80558935142966
  0
ARC
  5
2B4
102
{ACAD_REACTORS
330
33E
330
33F
102
}
330
74
100
AcDbEntity
  8
0
  6
Continuous
 62
     2
100
AcDbCircle
 10
141.3037247736085
 20
771.6137646103242
 30
0.0
 40
0.3506153846139171
100
AcDbArc
 50
180.0
 51
270.0
  0
ARC
  5
2B5
102
{ACAD_REACTORS
330
340
330
341
102
}
330
74
100
AcDbEntity
  8
0
  6
Continuous
 62
     2
100
AcDbCircle
 10
153.6106966861329
 20
775.4307743630654
 30
0.0
 40
0.4280236140607304
100
AcDbArc
 50
38.12041979714642
 51
141.8795802028536
  0
ARC
  5
2B6
102
{ACAD_REACTORS
330
340
330
341
102
}
330
74
100
AcDbEntity
  8
0
  6
Continuous
 62
     2
100
AcDbCircle
 10
153.7757710963364
 20
775.3012444637923
 30
0.0
 40
0.6378510567600729
100
AcDbArc
 50
141.8795802028371
 51
218.1204197971549
  0
ARC
  5
2B7
102
{ACAD_REACTORS
330
342
330
343
102
}
330
74
100
AcDbEntity
  8
0
  6
Continuous
 62
     2
100
AcDbCircle
 10
150.3371863714275
 20
772.9701573019154
 30
0.0
 40
1.707008076205438
100
AcDbArc
 50
242.451851824339
 51
297.5481481756881
  0
ARC
  5
2B8
102
{ACAD_REACTORS
330
342
330
343
102
}
330
74
100
AcDbEntity
  8
0
  6
Continuous
 62
     2
100
AcDbCircle
 10
150.3371863714275
 20
772.0799506733154
 30
0.0
 40
1.707008076205456
100
AcDbArc
 50
62.45185182430483
 51
117.5481481756681
  0
ARC
  5
2B9
102
{ACAD_REACTORS
330
342
330
343
102
}
330
74
100
AcDbEntity
  8
0
  6
Continuous
 62
     2
100
AcDbCircle
 10
150.1050046426396
 20
772.5250539876151
 30
0.0
 40
1.204986845993023
100
AcDbArc
 50
117.5481481756627
 51
242.4518518243372
  0
ARC
  5
2BA
102
{ACAD_REACTORS
330
342
330
343
102
}
330
74
100
AcDbEntity
  8
0
  6
Continuous
 62
     2
100
AcDbCircle
 10
150.5693681002153
 20
772.5250539876151
 30
0.0
 40
1.20498684599347
100
AcDbArc
 50
297.5481481757035
 51
62.45185182429652
  0
ARC
  5
2BB
102
{ACAD_REACTORS
330
340
330
341
102
}
330
74
100
AcDbEntity
  8
0
  6
Continuous
 62
     2
100
AcDbCircle
 10
153.6106966861329
 20
775.1717145645192
 30
0.0
 40
0.4280236140607304
100
AcDbArc
 50
218.1204197971464
 51
321.8795802028536
  0
ARC
  5
2BC
102
{ACAD_REACTORS
330
340
330
341
102
}
330
74
100
AcDbEntity
  8
0
  6
Continuous
 62
     2
100
AcDbCircle
 10
153.4456222759294
 20
775.3012444637923
 30
0.0
 40
0.6378510567600251
100
AcDbArc
 50
321.8795802028467
 51
38.12041979716137
  0
ARC
  5
2BD
102
{ACAD_REACTORS
330
33E
330
33F
102
}
330
74
100
AcDbEntity
  8
0
  6
Continuous
 62
     2
100
AcDbCircle
 10
145.8271231956885
 20
771.6137646103242
 30
0.0
 40
0.3506153846142297
100
AcDbArc
 50
270.0
 51
0.0
  0
ARC
  5
2BE
102
{ACAD_REACTORS
330
33E
330
33F
102
}
330
74
100
AcDbEntity
  8
0
  6
Continuous
 62
     2
100
AcDbCircle
 10
145.8271231956885
 20
776.2125338410682
 30
0.0
 40
0.3506153846147981
100
AcDbArc
 50
0.0
 51
90.0
  0
ARC
  5
2BF
102
{ACAD_REACTORS
330
33E
330
33F
102
}
330
74
100
AcDbEntity
  8
0
  6
Continuous
 62
     2
100
AcDbCircle
 10
141.3037247736085
 20
776.2125338410682
 30
0.0
 40
0.3506153846147981
100
AcDbArc
 50
90.0
 51
180.0
  0
ARC
  5
2C0
102
{ACAD_REACTORS
330
33E
330
33F
102
}
330
74
100
AcDbEntity
  8
0
  6
Continuous
 62
     2
100
AcDbCircle
 10
143.0142437304316
 20
772.1129611915229
 30
0.0
 40
0.2609230769229498
100
AcDbArc
 50
270.0
 51
0.0
  0
ARC
  5
2C1
102
{ACAD_REACTORS
330
33E
330
33F
102
}
330
74
100
AcDbEntity
  8
0
  6
Continuous
 62
     2
100
AcDbCircle
 10
143.0142437304316
 20
775.2141433598341
 30
0.0
 40
0.2609230769225071
100
AcDbArc
 50
295.1944106485704
 51
0.0
  0
ARC
  5
2C2
102
{ACAD_REACTORS
330
33E
330
33F
102
}
330
74
100
AcDbEntity
  8
0
  6
Continuous
 62
     2
100
AcDbCircle
 10
143.0142437304316
 20
775.7133372598842
 30
0.0
 40
0.2609230769229214
100
AcDbArc
 50
0.0
 51
90.0
  0
ARC
  5
2C3
102
{ACAD_REACTORS
330
33E
330
33F
102
}
330
74
100
AcDbEntity
  8
0
  6
Continuous
 62
     2
100
AcDbCircle
 10
141.7945468205064
 20
772.1129611915229
 30
0.0
 40
0.2609230769220119
100
AcDbArc
 50
180.0
 51
270.0
  0
ARC
  5
2C4
102
{ACAD_REACTORS
330
344
330
345
102
}
330
74
100
AcDbEntity
  8
0
  6
Continuous
 62
     2
100
AcDbCircle
 10
148.2243411248497
 20
775.6909462163312
 30
0.0
 40
0.8722030093666717
100
AcDbArc
 50
270.0
 51
90.0
  0
ARC
  5
2C5
102
{ACAD_REACTORS
330
33C
330
33D
102
}
330
74
100
AcDbEntity
  8
0
  6
Continuous
 62
     2
100
AcDbCircle
 10
161.2228645229416
 20
772.6182691628505
 30
0.0
 40
1.355119937140962
100
AcDbArc
 50
195.0618917770998
 51
275.1581447696746
  0
ARC
  5
2C6
102
{ACAD_REACTORS
330
33C
330
33D
102
}
330
74
100
AcDbEntity
  8
0
  6
Continuous
 62
     2
100
AcDbCircle
 10
160.9841404777053
 20
775.2628068349345
 30
0.0
 40
4.010410630990732
100
AcDbArc
 50
275.1581447696369
 51
285.9799912583396
  0
ARC
  5
2C7
102
{ACAD_REACTORS
330
33C
330
33D
102
}
330
74
100
AcDbEntity
  8
0
  6
Continuous
 62
     2
100
AcDbCircle
 10
161.1146139281952
 20
773.6907286697707
 30
0.0
 40
1.840813230556076
100
AcDbArc
 50
288.4480761181343
 51
301.9309089499391
  0
ARC
  5
2C8
102
{ACAD_REACTORS
330
33C
330
33D
102
}
330
74
100
AcDbEntity
  8
0
  6
Continuous
 62
     2
100
AcDbCircle
 10
161.4602070965109
 20
772.6547404251123
 30
0.0
 40
0.7487023016407762
100
AcDbArc
 50
246.6277221118129
 51
288.4480761180789
  0
ARC
  5
2C9
102
{ACAD_REACTORS
330
33C
330
33D
102
}
330
74
100
AcDbEntity
  8
0
  6
Continuous
 62
     2
100
AcDbCircle
 10
161.6427833158318
 20
772.5250539876151
 30
0.0
 40
0.7777353184586601
100
AcDbArc
 50
151.4785267423578
 51
208.5214732576642
  0
ARC
  5
2CA
102
{ACAD_REACTORS
330
33C
330
33D
102
}
330
74
100
AcDbEntity
  8
0
  6
Continuous
 62
     2
100
AcDbCircle
 10
161.452132687751
 20
772.3491171685706
 30
0.0
 40
0.7888619891124335
100
AcDbArc
 50
90.0
 51
109.3371432194318
  0
ARC
  5
2CB
102
{ACAD_REACTORS
330
33E
330
33F
102
}
330
74
100
AcDbEntity
  8
0
  6
Continuous
 62
     2
100
AcDbCircle
 10
143.9230994540037
 20
775.7131905849683
 30
0.0
 40
0.2609230769223542
100
AcDbArc
 50
90.18896704255982
 51
180.0
  0
ARC
  5
2CC
102
{ACAD_REACTORS
330
33E
330
33F
102
}
330
74
100
AcDbEntity
  8
0
  6
Continuous
 62
     2
100
AcDbCircle
 10
143.4883534225261
 20
774.296102247386
 30
0.0
 40
0.7535935125160714
100
AcDbArc
 50
295.3740086781789
 51
64.6259913218062
  0
ARC
  5
2CD
102
{ACAD_REACTORS
330
33A
330
33B
102
}
330
74
100
AcDbEntity
  8
0
  6
Continuous
 62
     2
100
AcDbCircle
 10
147.8065961767466
 20
773.6907286697711
 30
0.0
 40
1.840813230556049
100
AcDbArc
 50
288.4480761181319
 51
301.9309089499601
  0
ARC
  5
2CE
102
{ACAD_REACTORS
330
33A
330
33B
102
}
330
74
100
AcDbEntity
  8
0
  6
Continuous
 62
     2
100
AcDbCircle
 10
148.1521893450613
 20
772.6547404251123
 30
0.0
 40
0.7487023016404492
100
AcDbArc
 50
246.6277221118707
 51
288.448076118158
  0
ARC
  5
2CF
102
{ACAD_REACTORS
330
33A
330
33B
102
}
330
74
100
AcDbEntity
  8
0
  6
Continuous
 62
     2
100
AcDbCircle
 10
148.0229000618365
 20
772.3555734675007
 30
0.0
 40
0.4227934381775398
100
AcDbArc
 50
208.5214732576784
 51
246.6277221118185
  0
ARC
  5
2D0
102
{ACAD_REACTORS
330
33A
330
33B
102
}
330
74
100
AcDbEntity
  8
0
  6
Continuous
 62
     2
100
AcDbCircle
 10
148.1521893450613
 20
772.3953675501181
 30
0.0
 40
0.7487023016407015
100
AcDbArc
 50
71.55192388185023
 51
113.3722778881327
  0
ARC
  5
2D1
102
{ACAD_REACTORS
330
33A
330
33B
102
}
330
74
100
AcDbEntity
  8
0
  6
Continuous
 62
     2
100
AcDbCircle
 10
147.6761227262566
 20
769.7873011402962
 30
0.0
 40
4.010410630990114
100
AcDbArc
 50
74.02000874164648
 51
84.84185523037597
  0
CIRCLE
  5
2D2
102
{ACAD_REACTORS
330
33E
330
33F
102
}
330
74
100
AcDbEntity
  8
0
  6
Continuous
 62
     2
100
AcDbCircle
 10
143.468671592218
 20
774.296102247386
 30
0.0
 40
0.3892387874203109
  0
CIRCLE
  5
2D3
330
74
100
AcDbEntity
  8
1
  6
Continuous
 62
     2
100
AcDbCircle
 10
139.3853238533024
 20
780.288149225704
 30
0.0
 40
1.0
  0
CIRCLE
  5
2D4
330
74
100
AcDbEntity
  8
1
  6
Continuous
 62
     2
100
AcDbCircle
 10
139.3853238533024
 20
780.288149225704
 30
0.0
 40
1.5
  0
MTEXT
  5
2D6
330
74
100
AcDbEntity
  8
1
 62
     2
100
AcDbMText
 10
171.793064028199
 20
784.738149225704
 30
0.0
 40
1.4
 41
0.0
 71
     4
 72
     1
  1
SAP\Pchange-No.
  7
CONVERTER_12
 73
     1
 44
0.66026410564226
  0
MTEXT
  5
2D7
330
74
100
AcDbEntity
  8
1
 62
     3
100
AcDbMText
 10
181.0253008463139
 20
784.538149225704
 30
0.0
 40
2.5
 41
0.0
 71
     4
 72
     1
  1
N02-13035/01
  7
CONVERTER_12
 73
     1
 44
1.20048019207683
  0
MTEXT
  5
2D9
330
74
100
AcDbEntity
  8
1
 62
     2
100
AcDbMText
 10
32.53786855494894
 20
771.7881492257042
 30
0.0
 40
2.0
 41
0.0
 71
     4
 72
     1
  1
 
  7
CONVERTER_13
 73
     1
 44
1.20048019207683
  0
MTEXT
  5
2DA
330
74
100
AcDbEntity
  8
1
 62
     2
100
AcDbMText
 10
32.53786855494894
 20
776.038149225704
 30
0.0
 40
2.0
 41
0.0
 71
     4
 72
     1
  1
 
  7
CONVERTER_13
 73
     1
 44
1.20048019207683
  0
MTEXT
  5
2DB
330
74
100
AcDbEntity
  8
1
 62
     2
100
AcDbMText
 10
32.53786855494894
 20
780.288149225704
 30
0.0
 40
2.0
 41
0.0
 71
     4
 72
     1
  1
 
  7
CONVERTER_13
 73
     1
 44
1.20048019207683
  0
MTEXT
  5
2DC
330
74
100
AcDbEntity
  8
1
 62
     2
100
AcDbMText
 10
32.53786855494894
 20
784.538149225704
 30
0.0
 40
2.0
 41
0.0
 71
     4
 72
     1
  1
 
  7
CONVERTER_13
 73
     1
 44
1.20048019207683
  0
MTEXT
  5
2DD
330
74
100
AcDbEntity
  8
1
 62
     2
100
AcDbMText
 10
32.53786855494894
 20
788.788149225704
 30
0.0
 40
2.0
 41
0.0
 71
     4
 72
     1
  1
 
  7
CONVERTER_13
 73
     1
 44
1.20048019207683
  0
MTEXT
  5
2DE
330
74
100
AcDbEntity
  8
1
 62
     2
100
AcDbMText
 10
32.53786855494894
 20
793.038149225704
 30
0.0
 40
2.0
 41
0.0
 71
     4
 72
     1
  1
 
  7
CONVERTER_13
 73
     1
 44
1.20048019207683
  0
MTEXT
  5
2DF
330
74
100
AcDbEntity
  8
1
 62
     2
100
AcDbMText
 10
127.5430640281991
 20
771.7881492257042
 30
0.0
 40
2.0
 41
0.0
 71
     5
 72
     1
  1
 
  7
CONVERTER_11
 73
     1
 44
1.20048019207683
  0
MTEXT
  5
2E0
330
74
100
AcDbEntity
  8
1
 62
     2
100
AcDbMText
 10
127.5430640281991
 20
776.038149225704
 30
0.0
 40
2.0
 41
0.0
 71
     5
 72
     1
  1
 
  7
CONVERTER_11
 73
     1
 44
1.20048019207683
  0
MTEXT
  5
2E1
330
74
100
AcDbEntity
  8
1
 62
     2
100
AcDbMText
 10
127.5430640281991
 20
780.288149225704
 30
0.0
 40
2.0
 41
0.0
 71
     5
 72
     1
  1
 
  7
CONVERTER_11
 73
     1
 44
1.20048019207683
  0
MTEXT
  5
2E2
330
74
100
AcDbEntity
  8
1
 62
     2
100
AcDbMText
 10
127.5430640281991
 20
784.538149225704
 30
0.0
 40
2.0
 41
0.0
 71
     5
 72
     1
  1
 
  7
CONVERTER_11
 73
     1
 44
1.20048019207683
  0
MTEXT
  5
2E3
330
74
100
AcDbEntity
  8
1
 62
     2
100
AcDbMText
 10
127.5430640281991
 20
788.788149225704
 30
0.0
 40
2.0
 41
0.0
 71
     5
 72
     1
  1
 
  7
CONVERTER_11
 73
     1
 44
1.20048019207683
  0
MTEXT
  5
2E4
330
74
100
AcDbEntity
  8
1
 62
     2
100
AcDbMText
 10
127.5430640281991
 20
793.038149225704
 30
0.0
 40
2.0
 41
0.0
 71
     5
 72
     1
  1
 
  7
CONVERTER_11
 73
     1
 44
1.20048019207683
  0
MTEXT
  5
2E5
330
74
100
AcDbEntity
  8
1
 62
     2
100
AcDbMText
 10
114.043064028199
 20
771.7881492257042
 30
0.0
 40
2.0
 41
0.0
 71
     5
 72
     1
  1
 
  7
CONVERTER_11
 73
     1
 44
1.20048019207683
  0
MTEXT
  5
2E6
330
74
100
AcDbEntity
  8
1
 62
     2
100
AcDbMText
 10
114.043064028199
 20
776.038149225704
 30
0.0
 40
2.0
 41
0.0
 71
     5
 72
     1
  1
 
  7
CONVERTER_11
 73
     1
 44
1.20048019207683
  0
MTEXT
  5
2E7
330
74
100
AcDbEntity
  8
1
 62
     2
100
AcDbMText
 10
114.043064028199
 20
780.288149225704
 30
0.0
 40
2.0
 41
0.0
 71
     5
 72
     1
  1
 
  7
CONVERTER_11
 73
     1
 44
1.20048019207683
  0
MTEXT
  5
2E8
330
74
100
AcDbEntity
  8
1
 62
     2
100
AcDbMText
 10
114.043064028199
 20
784.538149225704
 30
0.0
 40
2.0
 41
0.0
 71
     5
 72
     1
  1
 
  7
CONVERTER_11
 73
     1
 44
1.20048019207683
  0
MTEXT
  5
2E9
330
74
100
AcDbEntity
  8
1
 62
     2
100
AcDbMText
 10
114.043064028199
 20
788.788149225704
 30
0.0
 40
2.0
 41
0.0
 71
     5
 72
     1
  1
 
  7
CONVERTER_11
 73
     1
 44
1.20048019207683
  0
MTEXT
  5
2EA
330
74
100
AcDbEntity
  8
1
 62
     2
100
AcDbMText
 10
114.043064028199
 20
793.038149225704
 30
0.0
 40
2.0
 41
0.0
 71
     5
 72
     1
  1
 
  7
CONVERTER_11
 73
     1
 44
1.20048019207683
  0
MTEXT
  5
2EB
330
74
100
AcDbEntity
  8
1
 62
     2
100
AcDbMText
 10
100.5430640281991
 20
793.038149225704
 30
0.0
 40
2.0
 41
0.0
 71
     5
 72
     1
  1
 
  7
CONVERTER_11
 73
     1
 44
1.20048019207683
  0
MTEXT
  5
2EC
330
74
100
AcDbEntity
  8
1
 62
     2
100
AcDbMText
 10
100.5430640281991
 20
788.788149225704
 30
0.0
 40
2.0
 41
0.0
 71
     5
 72
     1
  1
 
  7
CONVERTER_11
 73
     1
 44
1.20048019207683
  0
MTEXT
  5
2ED
330
74
100
AcDbEntity
  8
1
 62
     2
100
AcDbMText
 10
100.5430640281991
 20
784.538149225704
 30
0.0
 40
2.0
 41
0.0
 71
     5
 72
     1
  1
 
  7
CONVERTER_11
 73
     1
 44
1.20048019207683
  0
MTEXT
  5
2EE
330
74
100
AcDbEntity
  8
1
 62
     2
100
AcDbMText
 10
100.5430640281991
 20
780.288149225704
 30
0.0
 40
2.0
 41
0.0
 71
     5
 72
     1
  1
 
  7
CONVERTER_11
 73
     1
 44
1.20048019207683
  0
MTEXT
  5
2EF
330
74
100
AcDbEntity
  8
1
 62
     2
100
AcDbMText
 10
100.5430640281991
 20
776.038149225704
 30
0.0
 40
2.0
 41
0.0
 71
     5
 72
     1
  1
 
  7
CONVERTER_11
 73
     1
 44
1.20048019207683
  0
MTEXT
  5
2F0
330
74
100
AcDbEntity
  8
1
 62
     2
100
AcDbMText
 10
100.5430640281991
 20
771.7881492257042
 30
0.0
 40
2.0
 41
0.0
 71
     5
 72
     1
  1
 
  7
CONVERTER_11
 73
     1
 44
1.20048019207683
  0
MTEXT
  5
2F1
330
74
100
AcDbEntity
  8
1
 62
     2
100
AcDbMText
 10
24.78786855494894
 20
793.038149225704
 30
0.0
 40
2.0
 41
0.0
 71
     5
 72
     1
  1
 
  7
CONVERTER_11
 73
     1
 44
1.20048019207683
  0
MTEXT
  5
2F2
330
74
100
AcDbEntity
  8
1
 62
     2
100
AcDbMText
 10
24.78786855494894
 20
788.788149225704
 30
0.0
 40
2.0
 41
0.0
 71
     5
 72
     1
  1
 
  7
CONVERTER_11
 73
     1
 44
1.20048019207683
  0
MTEXT
  5
2F3
330
74
100
AcDbEntity
  8
1
 62
     2
100
AcDbMText
 10
24.78786855494894
 20
784.538149225704
 30
0.0
 40
2.0
 41
0.0
 71
     5
 72
     1
  1
 
  7
CONVERTER_11
 73
     1
 44
1.20048019207683
  0
MTEXT
  5
2F4
330
74
100
AcDbEntity
  8
1
 62
     2
100
AcDbMText
 10
24.78786855494894
 20
780.288149225704
 30
0.0
 40
2.0
 41
0.0
 71
     5
 72
     1
  1
 
  7
CONVERTER_11
 73
     1
 44
1.20048019207683
  0
MTEXT
  5
2F5
330
74
100
AcDbEntity
  8
1
 62
     2
100
AcDbMText
 10
24.78786855494894
 20
776.038149225704
 30
0.0
 40
2.0
 41
0.0
 71
     5
 72
     1
  1
 
  7
CONVERTER_11
 73
     1
 44
1.20048019207683
  0
MTEXT
  5
2F6
330
74
100
AcDbEntity
  8
1
 62
     2
100
AcDbMText
 10
24.78786855494894
 20
771.7881492257042
 30
0.0
 40
2.0
 41
0.0
 71
     5
 72
     1
  1
 
  7
CONVERTER_11
 73
     1
 44
1.20048019207683
  0
MTEXT
  5
2F7
330
74
100
AcDbEntity
  8
1
 62
     2
100
AcDbMText
 10
14.93786855494994
 20
771.7881492257042
 30
0.0
 40
2.0
 41
0.0
 71
     5
 72
     1
  1
 
  7
CONVERTER_11
 73
     1
 44
1.20048019207683
  0
MTEXT
  5
2F8
330
74
100
AcDbEntity
  8
1
 62
     2
100
AcDbMText
 10
14.93786855494994
 20
776.038149225704
 30
0.0
 40
2.0
 41
0.0
 71
     5
 72
     1
  1
 
  7
CONVERTER_11
 73
     1
 44
1.20048019207683
  0
MTEXT
  5
2F9
330
74
100
AcDbEntity
  8
1
 62
     2
100
AcDbMText
 10
14.93786855494994
 20
780.288149225704
 30
0.0
 40
2.0
 41
0.0
 71
     5
 72
     1
  1
 
  7
CONVERTER_11
 73
     1
 44
1.20048019207683
  0
MTEXT
  5
2FA
330
74
100
AcDbEntity
  8
1
 62
     2
100
AcDbMText
 10
14.93786855494994
 20
784.538149225704
 30
0.0
 40
2.0
 41
0.0
 71
     5
 72
     1
  1
 
  7
CONVERTER_11
 73
     1
 44
1.20048019207683
  0
MTEXT
  5
2FB
330
74
100
AcDbEntity
  8
1
 62
     2
100
AcDbMText
 10
14.93786855494994
 20
788.788149225704
 30
0.0
 40
2.0
 41
0.0
 71
     5
 72
     1
  1
 
  7
CONVERTER_11
 73
     1
 44
1.20048019207683
  0
MTEXT
  5
2FC
330
74
100
AcDbEntity
  8
1
 62
     2
100
AcDbMText
 10
14.93786855494994
 20
793.038149225704
 30
0.0
 40
2.0
 41
0.0
 71
     5
 72
     1
  1
 
  7
CONVERTER_11
 73
     1
 44
1.20048019207683
  0
MTEXT
  5
2FE
330
74
100
AcDbEntity
  8
1
 62
     2
100
AcDbMText
 10
201.3378685549514
 20
785.663149225704
 30
0.0
 40
1.8
 41
0.0
 71
     1
 72
     1
  1
part-rev.
  7
CONVERTER_14
 73
     1
 44
1.20048019207683
  0
MTEXT
  5
2FF
330
74
100
AcDbEntity
  8
1
 62
     2
100
AcDbMText
 10
219.837868554951
 20
781.413149225704
 30
0.0
 40
1.8
 41
0.0
 71
     1
 72
     1
  1
surface in um
  7
CONVERTER_11
 73
     1
 44
1.32052821128451
  0
MTEXT
  5
300
330
74
100
AcDbEntity
  8
1
 62
     7
100
AcDbMText
 10
266.3378685549482
 20
840.413149225706
 30
0.0
 40
3.5
 41
0.0
 71
     5
 72
     1
  1
C
  7
CONVERTER_11
 73
     1
 44
1.20048019207683
  0
MTEXT
  5
301
330
74
100
AcDbEntity
  8
1
 62
     7
100
AcDbMText
 10
266.3378685549482
 20
942.913149225704
 30
0.0
 40
3.5
 41
0.0
 71
     5
 72
     1
  1
A
  7
CONVERTER_11
 73
     1
 44
1.20048019207683
  0
MTEXT
  5
302
330
74
100
AcDbEntity
  8
1
 62
     7
100
AcDbMText
 10
266.3378685549482
 20
890.4131492257059
 30
0.0
 40
3.5
 41
0.0
 71
     5
 72
     1
  1
B
  7
CONVERTER_11
 73
     1
 44
1.20048019207683
  0
MTEXT
  5
303
330
74
100
AcDbEntity
  8
1
 62
     7
100
AcDbMText
 10
266.3378685549482
 20
787.913149225704
 30
0.0
 40
3.5
 41
0.0
 71
     5
 72
     1
  1
D
  7
CONVERTER_11
 73
     1
 44
1.20048019207683
  0
MTEXT
  5
304
330
74
100
AcDbEntity
  8
1
 62
     3
100
AcDbMText
 10
-23.15706365897907
 20
952.2044573810028
 30
0.0
 40
1.8
 41
0.0
 71
     7
 72
     1
  3
Weitergabe sowie Vervielf\U+00e4ltigung dieses Dokuments, Verwertung und\PMitteilung seines Inhalts gem\U+00e4\U+00df \U+00a718 UWG verboten, soweit nicht aus-\Pdr\U+00fccklich gestattet. Zuwiderhandlungen verpflichten zu Schadenersatz\P(\U+00a719 U
  1
WG). Alle Rechte vorbehalten, insbesondere das Recht, Patent-,\PGebrauchsmuster- oder Geschmacksmusteranmeldungen durchzuf\U+00fchren.\PPhoenix Contact GmbH & Co. KG
  7
CONVERTER_11
 73
     1
 44
0.99639855942377
  0
MTEXT
  5
305
330
74
100
AcDbEntity
  8
1
 62
     3
100
AcDbMText
 10
149.696046179809
 20
952.2044573810028
 30
0.0
 40
1.8
 41
0.0
 71
     7
 72
     1
  3
The copying, distribution and utilistion of this document as well as the communication\Pof the contents to others without expressed authorization is prohibited according to\P\U+00a718 UWG German Law. Offenders will be held liable for the payment of 
  1
damages\Paccording to (\U+00a719 UWG German Law). All rights reserved, in particular the right to\Pcarry out patent, utility model or ornamental design registrations.\PFlachsmarktstra\U+00dfe 8  D-32825 Blomberg
  7
CONVERTER_11
 73
     1
 44
0.99639855942377
  0
MTEXT
  5
306
330
74
100
AcDbEntity
  8
1
 62
     7
100
AcDbMText
 10
-3.91213144505056
 20
762.913149225704
 30
0.0
 40
3.5
 41
0.0
 71
     5
 72
     1
  1
1
  7
CONVERTER_11
 73
     1
 44
1.20048019207683
  0
MTEXT
  5
307
330
74
100
AcDbEntity
  8
1
 62
     7
100
AcDbMText
 10
45.33786855494904
 20
762.913149225704
 30
0.0
 40
3.5
 41
0.0
 71
     5
 72
     1
  1
2
  7
CONVERTER_11
 73
     1
 44
1.20048019207683
  0
MTEXT
  5
308
330
74
100
AcDbEntity
  8
1
 62
     7
100
AcDbMText
 10
95.33786855494904
 20
762.913149225704
 30
0.0
 40
3.5
 41
0.0
 71
     5
 72
     1
  1
3
  7
CONVERTER_11
 73
     1
 44
1.20048019207683
  0
MTEXT
  5
309
330
74
100
AcDbEntity
  8
1
 62
     7
100
AcDbMText
 10
145.337868554949
 20
762.913149225704
 30
0.0
 40
3.5
 41
0.0
 71
     5
 72
     1
  1
4
  7
CONVERTER_11
 73
     1
 44
1.20048019207683
  0
MTEXT
  5
30A
330
74
100
AcDbEntity
  8
1
 62
     7
100
AcDbMText
 10
195.337868554949
 20
762.913149225704
 30
0.0
 40
3.5
 41
0.0
 71
     5
 72
     1
  1
5
  7
CONVERTER_11
 73
     1
 44
1.20048019207683
  0
MTEXT
  5
30B
330
74
100
AcDbEntity
  8
1
 62
     7
100
AcDbMText
 10
244.5878685549483
 20
762.913149225704
 30
0.0
 40
3.5
 41
0.0
 71
     5
 72
     1
  1
6
  7
CONVERTER_11
 73
     1
 44
1.20048019207683
  0
MTEXT
  5
30C
330
74
100
AcDbEntity
  8
1
 62
     7
100
AcDbMText
 10
-25.66213144504997
 20
942.913149225704
 30
0.0
 40
3.5
 41
0.0
 71
     5
 72
     1
  1
A
  7
CONVERTER_11
 73
     1
 44
1.20048019207683
  0
MTEXT
  5
30D
330
74
100
AcDbEntity
  8
1
 62
     7
100
AcDbMText
 10
-25.66213144504997
 20
890.413149225704
 30
0.0
 40
3.5
 41
0.0
 71
     5
 72
     1
  1
B
  7
CONVERTER_11
 73
     1
 44
1.20048019207683
  0
MTEXT
  5
30E
330
74
100
AcDbEntity
  8
1
 62
     7
100
AcDbMText
 10
-25.66213144504997
 20
840.413149225704
 30
0.0
 40
3.5
 41
0.0
 71
     5
 72
     1
  1
C
  7
CONVERTER_11
 73
     1
 44
1.20048019207683
  0
MTEXT
  5
30F
330
74
100
AcDbEntity
  8
1
 62
     7
100
AcDbMText
 10
-25.66213144504997
 20
787.913149225704
 30
0.0
 40
3.5
 41
0.0
 71
     5
 72
     1
  1
D
  7
CONVERTER_11
 73
     1
 44
1.20048019207683
  0
MTEXT
  5
310
330
74
100
AcDbEntity
  8
1
 62
     2
100
AcDbMText
 10
247.2562768366298
 20
794.163149225704
 30
0.0
 40
1.8
 41
0.0
 71
     1
 72
     1
  1
dim.var.
  7
CONVERTER_11
 73
     1
 44
1.20048019207683
  0
MTEXT
  5
312
330
74
100
AcDbEntity
  8
1
 62
     2
100
AcDbMText
 10
201.3378685549514
 20
781.413149225704
 30
0.0
 40
1.8
 41
0.0
 71
     1
 72
     1
  1
document-No.
  7
CONVERTER_15
 73
     1
 44
1.32052821128451
  0
TEXT
  5
313
330
74
100
AcDbEntity
  8
1
 62
     2
100
AcDbText
 10
153.493064028199
 20
766.6541320107125
 30
0.0
 40
1.8
  1
of
 41
0.9
  7
CONVERTER_11
100
AcDbText
  0
TEXT
  5
314
330
74
100
AcDbEntity
  8
1
 62
     2
100
AcDbText
 10
135.2930640281991
 20
766.6541320107124
 30
0.0
 40
1.8
  1
page
 41
0.9
  7
CONVERTER_11
100
AcDbText
  0
MTEXT
  5
315
330
74
100
AcDbEntity
  8
1
 62
     2
100
AcDbMText
 10
127.543064028199
 20
766.663149225704
 30
0.0
 40
1.8
 41
0.0
 71
     8
 72
     1
  1
name
  7
CONVERTER_11
 73
     1
 44
1.32052821128451
  0
MTEXT
  5
316
330
74
100
AcDbEntity
  8
1
 62
     2
100
AcDbMText
 10
114.0430640281991
 20
766.663149225704
 30
0.0
 40
1.8
 41
0.0
 71
     8
 72
     1
  1
check.on
  7
CONVERTER_11
 73
     1
 44
1.32052821128451
  0
MTEXT
  5
317
330
74
100
AcDbEntity
  8
1
 62
     2
100
AcDbMText
 10
100.5430640281991
 20
766.663149225704
 30
0.0
 40
1.8
 41
0.0
 71
     8
 72
     1
  1
name
  7
CONVERTER_11
 73
     1
 44
1.32052821128451
  0
MTEXT
  5
318
330
74
100
AcDbEntity
  8
1
 62
     2
100
AcDbMText
 10
24.78786855494894
 20
766.663149225704
 30
0.0
 40
1.8
 41
0.0
 71
     8
 72
     1
  1
date
  7
CONVERTER_11
 73
     1
 44
1.32052821128451
  0
MTEXT
  5
319
330
74
100
AcDbEntity
  8
1
 62
     2
100
AcDbMText
 10
194.8182531857905
 20
794.1631492257038
 30
0.0
 40
1.8
 41
0.0
 71
     1
 72
     1
  1
material
  7
CONVERTER_11
 73
     1
 44
1.20048019207683
  0
MTEXT
  5
31A
330
74
100
AcDbEntity
  8
1
 62
     2
100
AcDbMText
 10
14.93786855494994
 20
766.663149225704
 30
0.0
 40
1.8
 41
0.0
 71
     8
 72
     1
  1
RI
  7
CONVERTER_11
 73
     1
 44
1.32052821128451
  0
MTEXT
  5
31B
330
74
100
AcDbEntity
  8
1
 62
     2
100
AcDbMText
 10
150.443064028199
 20
792.1131492257041
 30
0.0
 40
1.8
 41
0.0
 71
     8
 72
     1
  1
date
  7
CONVERTER_11
 73
     1
 44
1.32052821128451
  0
MTEXT
  5
31C
330
74
100
AcDbEntity
  8
1
 62
     2
100
AcDbMText
 10
163.943064028199
 20
792.1131492257041
 30
0.0
 40
1.8
 41
0.0
 71
     8
 72
     1
  1
name
  7
CONVERTER_11
 73
     1
 44
1.32052821128451
  0
MTEXT
  5
31D
330
74
100
AcDbEntity
  8
1
 62
     2
100
AcDbMText
 10
62.66546629157404
 20
766.663149225704
 30
0.0
 40
1.8
 41
0.0
 71
     8
 72
     1
  1
revision
  7
CONVERTER_11
 73
     1
 44
1.32052821128451
  0
MTEXT
  5
31E
330
74
100
AcDbEntity
  8
1
 62
     2
100
AcDbMText
 10
238.1378685549509
 20
794.163149225704
 30
0.0
 40
1.8
 41
0.0
 71
     1
 72
     1
  1
scale
  7
CONVERTER_11
 73
     1
 44
1.20048019207683
  0
MTEXT
  5
31F
330
74
100
AcDbEntity
  8
1
 62
     2
100
AcDbMText
 10
138.9930640281991
 20
788.788149225704
 30
0.0
 40
1.8
 41
0.0
 71
     5
 72
     1
  1
creat.
  7
CONVERTER_11
 73
     1
 44
1.20048019207683
  0
MTEXT
  5
320
330
74
100
AcDbEntity
  8
1
 62
     2
100
AcDbMText
 10
138.9930640281991
 20
784.538149225704
 30
0.0
 40
1.8
 41
0.0
 71
     5
 72
     1
  1
check.
  7
CONVERTER_11
 73
     1
 44
1.20048019207683
  0
MTEXT
  5
321
330
74
100
AcDbEntity
  8
1
 62
     3
100
AcDbMText
 10
160.493064028199
 20
780.2881492257042
 30
0.0
 40
2.5
 41
0.0
 71
     5
 72
     1
  1
DIN A4
  7
CONVERTER_11
 73
     1
 44
1.20048019207683
  0
MTEXT
  5
322
330
74
100
AcDbEntity
  8
1
 62
     2
100
AcDbMText
 10
171.793064028199
 20
794.163149225704
 30
0.0
 40
1.8
 41
0.0
 71
     1
 72
     1
  1
ident.-No. / RI
  7
CONVERTER_11
 73
     1
 44
1.20048019207683
  0
TEXT
  5
323
330
74
100
AcDbEntity
  8
1
 62
     2
100
AcDbText
 10
143.9393289985412
 20
766.613900571902
 30
0.0
 40
1.8
  1
 
 41
0.9
  7
CONVERTER_11
100
AcDbText
  0
TEXT
  5
324
330
74
100
AcDbEntity
  8
1
 62
     2
100
AcDbText
 10
158.7283728380127
 20
766.663149225704
 30
0.0
 40
1.8
  1
1
 41
0.9
  7
CONVERTER_11
100
AcDbText
  0
MTEXT
  5
325
330
74
100
AcDbEntity
  8
1
 62
     2
100
AcDbMText
 10
171.693064028199
 20
772.913149225704
 30
0.0
 40
1.8
 41
0.0
 71
     1
 72
     1
  1
description
  7
CONVERTER_11
 73
     1
 44
1.20048019207683
  0
MTEXT
  5
326
330
74
100
AcDbEntity
  8
1
 62
     2
100
AcDbMText
 10
138.9930640281991
 20
792.1131492257041
 30
0.0
 40
1.8
 41
0.0
 71
     8
 72
     1
  1
00
  7
CONVERTER_11
 73
     1
 44
1.20048019207683
  0
MTEXT
  5
327
330
74
100
AcDbEntity
  8
1
 62
     2
100
AcDbMText
 10
171.693064028199
 20
781.4131492257039
 30
0.0
 40
1.8
 41
0.0
 71
     1
 72
     1
  1
document-type
  7
CONVERTER_11
 73
     1
 44
1.20048019207683
  0
MTEXT
  5
328
330
74
100
AcDbEntity
  8
1
 62
     2
100
AcDbMText
 10
163.943064028199
 20
784.538149225704
 30
0.0
 40
1.8
 41
0.0
 71
     5
 72
     1
  1
Angenent
  7
CONVERTER_11
 73
     1
 44
1.32052821128451
  0
MTEXT
  5
329
330
74
100
AcDbEntity
  8
1
 62
     2
100
AcDbMText
 10
163.943064028199
 20
788.788149225704
 30
0.0
 40
1.8
 41
0.0
 71
     5
 72
     1
  1
Schr\U+00f6der
  7
CONVERTER_11
 73
     1
 44
1.32052821128451
  0
MTEXT
  5
32A
330
74
100
AcDbEntity
  8
1
 62
     2
100
AcDbMText
 10
150.4430640281991
 20
784.538149225704
 30
0.0
 40
1.8
 41
0.0
 71
     5
 72
     1
  1
25.04.14
  7
CONVERTER_11
 73
     1
 44
1.32052821128451
  0
MTEXT
  5
32B
330
74
100
AcDbEntity
  8
1
 62
     2
100
AcDbMText
 10
150.4430640281991
 20
788.788149225704
 30
0.0
 40
1.8
 41
0.0
 71
     5
 72
     1
  1
25.03.14
  7
CONVERTER_11
 73
     1
 44
1.32052821128451
  0
TEXT
  5
32C
330
74
100
AcDbEntity
  8
1
 62
     7
100
AcDbText
 10
186.6666117502128
 20
787.963149225704
 30
0.0
 40
2.5
  1
/
 41
0.9
  7
CONVERTER_11
100
AcDbText
  0
TEXT
  5
32E
330
74
100
AcDbEntity
  8
1
 62
     3
100
AcDbText
 10
219.837868554951
 20
775.213149225704
 30
0.0
 40
2.5
  1
 
 41
0.54
  7
CONVERTER_16
100
AcDbText
  0
MTEXT
  5
330
330
74
100
AcDbEntity
  8
1
 62
     7
100
AcDbMText
 10
217.2654662915745
 20
768.6631492257043
 30
0.0
 40
3.0
 41
0.0
 71
     5
 72
     1
  1
A-EXSH-M25-68L-N-S
  7
CONVERTER_17
 73
     1
 44
1.20048019207683
  0
MTEXT
  5
331
330
74
100
AcDbEntity
  8
1
 62
     3
100
AcDbMText
 10
241.4970726957905
 20
787.9631492257041
 30
0.0
 40
2.5
 41
0.0
 71
     8
 72
     1
  1
1:1
  7
CONVERTER_14
 73
     1
 44
1.32052821128451
  0
TEXT
  5
332
330
74
100
AcDbEntity
  8
1
 62
     3
100
AcDbText
 10
194.593064028199
 20
787.963149225704
 30
0.0
 40
2.5
  1
 
 41
0.54
  7
CONVERTER_16
100
AcDbText
  0
TEXT
  5
333
330
74
100
AcDbEntity
  8
1
 62
     7
100
AcDbText
 10
172.1930640281988
 20
787.963149225704
 30
0.0
 40
2.5
  1
1411107
 41
0.81
  7
CONVERTER_17
100
AcDbText
  0
TEXT
  5
334
330
74
100
AcDbEntity
  8
1
 62
     7
100
AcDbText
 10
201.3378685549514
 20
775.213149225704
 30
0.0
 40
2.5
  1
00783912
 41
0.81
  7
CONVERTER_17
100
AcDbText
  0
TEXT
  5
335
330
74
100
AcDbEntity
  8
1
 62
     3
100
AcDbText
 10
246.9562768366299
 20
787.963149225704
 30
0.0
 40
2.5
  1
 
 41
0.54
  7
CONVERTER_16
100
AcDbText
  0
TEXT
  5
337
330
74
100
AcDbEntity
  8
1
 62
     3
100
AcDbText
 10
171.693064028199
 20
775.213149225704
 30
0.0
 40
2.5
  1
KUNDENZCHNG-SELECT
 41
0.45
  7
CONVERTER_18
100
AcDbText
  0
TEXT
  5
338
330
74
100
AcDbEntity
  8
1
 62
     7
100
AcDbText
 10
188.8229762472548
 20
787.963149225704
 30
0.0
 40
2.5
  1
00
 41
0.81
  7
CONVERTER_17
100
AcDbText
  0
MTEXT
  5
339
330
74
100
AcDbEntity
  8
1
 62
     3
100
AcDbMText
 10
211.5448884415594
 20
785.7631492257041
 30
0.0
 40
2.0
 41
0.0
 71
     1
 72
     1
  1
 
  7
CONVERTER_14
 73
     1
 44
1.20048019207683
  0
HATCH
  5
33A
330
74
100
AcDbEntity
  8
1
  6
Continuous
 62
     2
100
AcDbHatch
 10
0.0
 20
0.0
 30
0.0
210
0.0
220
0.0
230
1.0
  2
_USER
 70
     0
 71
     1
 91
        1
 92
        1
 93
       14
 72
     2
 10
147.568460124003
 20
772.5250539876151
 40
0.9964100565215185
 50
164.9381082228804
 51
195.0618917770943
 73
     1
 72
     2
 10
147.9148467714929
 20
772.6182691628505
 40
1.355119937140075
 50
195.06189177709
 51
275.1581447696369
 73
     1
 72
     2
 10
147.6761227262566
 20
775.2628068349345
 40
4.010410630990195
 50
275.1581447696242
 51
285.9799912583536
 73
     1
 72
     1
 10
148.7801953850317
 20
771.407366912785
 11
148.7801953850317
 21
772.1284553481596
 72
     2
 10
147.8065961767466
 20
773.6907286697711
 40
1.840813230556049
 50
58.06909105003989
 51
71.55192388186815
 73
     0
 72
     2
 10
148.1521893450613
 20
772.6547404251123
 40
0.7487023016404492
 50
71.55192388184199
 51
113.3722778881293
 73
     0
 72
     2
 10
148.0229000618365
 20
772.3555734675007
 40
0.4227934381775398
 50
113.3722778881815
 51
151.4785267423216
 73
     0
 72
     2
 10
148.3347655643822
 20
772.5250539876151
 40
0.7777353184573039
 50
151.4785267423022
 51
208.5214732577346
 73
     0
 72
     2
 10
148.0229000618365
 20
772.69453450773
 40
0.422793438177582
 50
208.521473257692
 51
246.6277221117941
 73
     0
 72
     2
 10
148.1521893450613
 20
772.3953675501181
 40
0.7487023016407015
 50
246.6277221118673
 51
288.4480761181498
 73
     0
 72
     2
 10
147.8065961767466
 20
771.3593793054597
 40
1.840813230556584
 50
288.448076118133
 51
301.930908949962
 73
     0
 72
     1
 10
148.7801953850317
 20
772.9216526270711
 11
148.7801953850317
 21
773.6427410624457
 72
     2
 10
147.6761227262566
 20
769.7873011402962
 40
4.010410630990114
 50
74.02000874164648
 51
84.84185523037597
 73
     1
 72
     2
 10
147.9148467714929
 20
772.4318388123797
 40
1.355119937140973
 50
84.84185523036533
 51
164.9381082228915
 73
     1
 97
       14
330
2D1
330
15B
330
2A0
330
2D0
330
2A1
330
2A2
330
2CF
330
2CE
330
2CD
330
15C
330
2A3
330
2A4
330
2A5
330
2A6
 75
     1
 76
     0
 52
44.99999999999998
 41
0.1
 77
     0
 78
     1
 53
44.99999999999998
 43
0.0
 44
0.0
 45
-0.0707106781186547
 46
0.0707106781186548
 79
     0
 98
        1
 10
0.0
 20
0.0
  0
HATCH
  5
33B
330
74
100
AcDbEntity
  8
1
  6
Continuous
 62
     2
100
AcDbHatch
 10
0.0
 20
0.0
 30
0.0
210
0.0
220
0.0
230
1.0
  2
_USER
 70
     0
 71
     1
 91
        1
 92
        1
 93
       14
 72
     2
 10
147.568460124003
 20
772.5250539876151
 40
0.9964100565215185
 50
164.9381082228804
 51
195.0618917770943
 73
     1
 72
     2
 10
147.9148467714929
 20
772.6182691628505
 40
1.355119937140075
 50
195.06189177709
 51
275.1581447696369
 73
     1
 72
     2
 10
147.6761227262566
 20
775.2628068349345
 40
4.010410630990195
 50
275.1581447696242
 51
285.9799912583536
 73
     1
 72
     1
 10
148.7801953850317
 20
771.407366912785
 11
148.7801953850317
 21
772.1284553481596
 72
     2
 10
147.8065961767466
 20
773.6907286697711
 40
1.840813230556049
 50
58.06909105003989
 51
71.55192388186815
 73
     0
 72
     2
 10
148.1521893450613
 20
772.6547404251123
 40
0.7487023016404492
 50
71.55192388184199
 51
113.3722778881293
 73
     0
 72
     2
 10
148.0229000618365
 20
772.3555734675007
 40
0.4227934381775398
 50
113.3722778881815
 51
151.4785267423216
 73
     0
 72
     2
 10
148.3347655643822
 20
772.5250539876151
 40
0.7777353184573039
 50
151.4785267423022
 51
208.5214732577346
 73
     0
 72
     2
 10
148.0229000618365
 20
772.69453450773
 40
0.422793438177582
 50
208.521473257692
 51
246.6277221117941
 73
     0
 72
     2
 10
148.1521893450613
 20
772.3953675501181
 40
0.7487023016407015
 50
246.6277221118673
 51
288.4480761181498
 73
     0
 72
     2
 10
147.8065961767466
 20
771.3593793054597
 40
1.840813230556584
 50
288.448076118133
 51
301.930908949962
 73
     0
 72
     1
 10
148.7801953850317
 20
772.9216526270711
 11
148.7801953850317
 21
773.6427410624457
 72
     2
 10
147.6761227262566
 20
769.7873011402962
 40
4.010410630990114
 50
74.02000874164648
 51
84.84185523037597
 73
     1
 72
     2
 10
147.9148467714929
 20
772.4318388123797
 40
1.355119937140973
 50
84.84185523036533
 51
164.9381082228915
 73
     1
 97
       14
330
2D1
330
15B
330
2A0
330
2D0
330
2A1
330
2A2
330
2CF
330
2CE
330
2CD
330
15C
330
2A3
330
2A4
330
2A5
330
2A6
 75
     1
 76
     0
 52
44.99999999999998
 41
0.1
 77
     0
 78
     1
 53
44.99999999999998
 43
0.0
 44
0.0
 45
-0.0707106781186547
 46
0.0707106781186548
 79
     0
 98
        1
 10
0.0
 20
0.0
  0
HATCH
  5
33C
330
74
100
AcDbEntity
  8
1
  6
Continuous
 62
     2
100
AcDbHatch
 10
0.0
 20
0.0
 30
0.0
210
0.0
220
0.0
230
1.0
  2
_USER
 70
     0
 71
     1
 91
        1
 92
        1
 93
       18
 72
     2
 10
161.2228645229416
 20
772.4318388123797
 40
1.355119937140557
 50
90.0
 51
164.9381082229002
 73
     1
 72
     2
 10
160.8764778754526
 20
772.5250539876151
 40
0.9964100565231652
 50
164.938108222906
 51
195.0618917770941
 73
     1
 72
     2
 10
161.2228645229416
 20
772.6182691628505
 40
1.355119937140962
 50
195.0618917770998
 51
275.1581447696746
 73
     1
 72
     2
 10
160.9841404777053
 20
775.2628068349345
 40
4.010410630990732
 50
275.1581447696369
 51
285.9799912583396
 73
     1
 72
     1
 10
162.0882131364795
 20
771.4073669127846
 11
162.0882131364795
 21
772.1284553481592
 72
     2
 10
161.1146139281952
 20
773.6907286697707
 40
1.840813230556076
 50
58.0690910500609
 51
71.55192388186565
 73
     0
 72
     2
 10
161.4602070965109
 20
772.6547404251123
 40
0.7487023016407762
 50
71.55192388192107
 51
113.3722778881871
 73
     0
 72
     2
 10
161.3309178132852
 20
772.3555734675007
 40
0.422793438178531
 50
113.3722778881673
 51
151.4785267423244
 73
     0
 72
     2
 10
161.6427833158318
 20
772.5250539876151
 40
0.7777353184586601
 50
151.4785267423357
 51
208.5214732576422
 73
     0
 72
     2
 10
161.3309178132852
 20
772.69453450773
 40
0.4227934381772215
 50
208.5214732575808
 51
250.6628567805056
 73
     0
 72
     2
 10
161.452132687751
 20
772.3491171685706
 40
0.7888619891124335
 50
250.6628567805682
 51
270.0
 73
     0
 72
     1
 10
161.452132687751
 20
773.137979157683
 11
162.3642312824354
 21
773.137979157683
 72
     1
 10
162.3642312824354
 20
773.137979157683
 11
162.3642312824354
 21
771.26314922571
 72
     1
 10
162.3642312824354
 20
771.26314922571
 11
163.350010375136
 21
771.26314922571
 72
     1
 10
163.350010375136
 20
771.26314922571
 11
163.350010375136
 21
773.137979157683
 72
     1
 10
163.350010375136
 20
773.137979157683
 11
164.0203401581719
 21
773.137979157683
 72
     1
 10
164.0203401581719
 20
773.137979157683
 11
164.0203401581719
 21
773.7869587495209
 72
     1
 10
164.0203401581719
 20
773.7869587495209
 11
161.2228645229416
 21
773.7869587495203
 97
       18
330
1C1
330
1C0
330
1BF
330
1BE
330
1C3
330
15D
330
2CA
330
2AB
330
2C9
330
2AC
330
2C8
330
2C7
330
15E
330
2C6
330
2C5
330
2AD
330
2AE
330
1C2
 75
     1
 76
     0
 52
44.99999999999998
 41
0.1
 77
     0
 78
     1
 53
44.99999999999998
 43
0.0
 44
0.0
 45
-0.0707106781186547
 46
0.0707106781186548
 79
     0
 98
        1
 10
0.0
 20
0.0
  0
HATCH
  5
33D
330
74
100
AcDbEntity
  8
1
  6
Continuous
 62
     2
100
AcDbHatch
 10
0.0
 20
0.0
 30
0.0
210
0.0
220
0.0
230
1.0
  2
_USER
 70
     0
 71
     1
 91
        1
 92
        1
 93
       18
 72
     2
 10
161.2228645229416
 20
772.4318388123797
 40
1.355119937140557
 50
90.0
 51
164.9381082229002
 73
     1
 72
     2
 10
160.8764778754526
 20
772.5250539876151
 40
0.9964100565231652
 50
164.938108222906
 51
195.0618917770941
 73
     1
 72
     2
 10
161.2228645229416
 20
772.6182691628505
 40
1.355119937140962
 50
195.0618917770998
 51
275.1581447696746
 73
     1
 72
     2
 10
160.9841404777053
 20
775.2628068349345
 40
4.010410630990732
 50
275.1581447696369
 51
285.9799912583396
 73
     1
 72
     1
 10
162.0882131364795
 20
771.4073669127846
 11
162.0882131364795
 21
772.1284553481592
 72
     2
 10
161.1146139281952
 20
773.6907286697707
 40
1.840813230556076
 50
58.0690910500609
 51
71.55192388186565
 73
     0
 72
     2
 10
161.4602070965109
 20
772.6547404251123
 40
0.7487023016407762
 50
71.55192388192107
 51
113.3722778881871
 73
     0
 72
     2
 10
161.3309178132852
 20
772.3555734675007
 40
0.422793438178531
 50
113.3722778881673
 51
151.4785267423244
 73
     0
 72
     2
 10
161.6427833158318
 20
772.5250539876151
 40
0.7777353184586601
 50
151.4785267423357
 51
208.5214732576422
 73
     0
 72
     2
 10
161.3309178132852
 20
772.69453450773
 40
0.4227934381772215
 50
208.5214732575808
 51
250.6628567805056
 73
     0
 72
     2
 10
161.452132687751
 20
772.3491171685706
 40
0.7888619891124335
 50
250.6628567805682
 51
270.0
 73
     0
 72
     1
 10
161.452132687751
 20
773.137979157683
 11
162.3642312824354
 21
773.137979157683
 72
     1
 10
162.3642312824354
 20
773.137979157683
 11
162.3642312824354
 21
771.26314922571
 72
     1
 10
162.3642312824354
 20
771.26314922571
 11
163.350010375136
 21
771.26314922571
 72
     1
 10
163.350010375136
 20
771.26314922571
 11
163.350010375136
 21
773.137979157683
 72
     1
 10
163.350010375136
 20
773.137979157683
 11
164.0203401581719
 21
773.137979157683
 72
     1
 10
164.0203401581719
 20
773.137979157683
 11
164.0203401581719
 21
773.7869587495209
 72
     1
 10
164.0203401581719
 20
773.7869587495209
 11
161.2228645229416
 21
773.7869587495203
 97
       18
330
1C1
330
1C0
330
1BF
330
1BE
330
1C3
330
15D
330
2CA
330
2AB
330
2C9
330
2AC
330
2C8
330
2C7
330
15E
330
2C6
330
2C5
330
2AD
330
2AE
330
1C2
 75
     1
 76
     0
 52
44.99999999999998
 41
0.1
 77
     0
 78
     1
 53
44.99999999999998
 43
0.0
 44
0.0
 45
-0.0707106781186547
 46
0.0707106781186548
 79
     0
 98
        1
 10
0.0
 20
0.0
  0
HATCH
  5
33E
330
74
100
AcDbEntity
  8
1
  6
Continuous
 62
     2
100
AcDbHatch
 10
0.0
 20
0.0
 30
0.0
210
0.0
220
0.0
230
1.0
  2
_USER
 70
     0
 71
     1
 91
        4
 92
        1
 93
        8
 72
     2
 10
141.3037247736085
 20
776.2125338410682
 40
0.3506153846147981
 50
90.0
 51
180.0
 73
     1
 72
     1
 10
140.9531093889946
 20
776.2125338410682
 11
140.9531093889946
 21
771.6137646103242
 72
     2
 10
141.3037247736085
 20
771.6137646103242
 40
0.3506153846139171
 50
180.0
 51
270.0
 73
     1
 72
     1
 10
141.3037247736085
 20
771.26314922571
 11
145.8271231956885
 21
771.26314922571
 72
     2
 10
145.8271231956885
 20
771.6137646103242
 40
0.3506153846142297
 50
270.0
 51
360.0
 73
     1
 72
     1
 10
146.1777385803033
 20
771.6137646103242
 11
146.1777385803033
 21
776.2125338410682
 72
     2
 10
145.8271231956885
 20
776.2125338410682
 40
0.3506153846147981
 50
0.0
 51
90.0
 73
     1
 72
     1
 10
145.8271231956885
 20
776.563149225683
 11
141.3037247736085
 21
776.563149225683
 97
        8
330
2BE
330
18C
330
2BD
330
18D
330
2B4
330
18A
330
2BF
330
18B
 92
       16
 93
        1
 72
     2
 10
143.468671592218
 20
774.296102247386
 40
0.3892387874203109
 50
0.0
 51
360.0
 73
     1
 97
        1
330
2D2
 92
       16
 93
        8
 72
     2
 10
143.4883534225261
 20
774.296102247386
 40
0.7535935125160714
 50
295.3740086781789
 51
424.6259913218062
 73
     1
 72
     2
 10
143.9230994540037
 20
775.2127481977726
 40
0.260923076922893
 50
115.3740086783514
 51
180.0
 73
     0
 72
     1
 10
143.6621763770808
 20
775.2127481977726
 11
143.6621763770808
 21
775.7131905849683
 72
     2
 10
143.9230994540037
 20
775.7131905849683
 40
0.2609230769223542
 50
180.0
 51
269.8110329574402
 73
     0
 72
     2
 10
143.9277408881442
 20
774.3058889754071
 40
1.668232340440729
 50
269.8110329575842
 51
450.1889670424157
 73
     0
 72
     2
 10
143.9230994540037
 20
772.898587365846
 40
0.260923076922893
 50
90.18896704255974
 51
180.0
 73
     0
 72
     1
 10
143.6621763770808
 20
772.898587365846
 11
143.6621763770808
 21
773.3794562969989
 72
     2
 10
143.9230994540037
 20
773.3794562969989
 40
0.2609230769227379
 50
180.0
 51
244.6259913216486
 73
     0
 97
        8
330
2CC
330
2A8
330
1C5
330
2CB
330
2A9
330
2AA
330
1C4
330
2A7
 92
       16
 93
       12
 72
     1
 10
141.7945468205064
 20
771.8520381146
 11
143.0142437304316
 21
771.8520381146
 72
     2
 10
143.0142437304316
 20
772.1129611915229
 40
0.2609230769229498
 50
270.0
 51
360.0
 73
     1
 72
     1
 10
143.2751668073545
 20
772.1129611915229
 11
143.2751668073545
 21
773.3780611349374
 72
     2
 10
143.0142437304316
 20
773.3780611349374
 40
0.2609230769229214
 50
0.0
 51
64.80558935142966
 73
     1
 72
     2
 10
143.4461317036341
 20
774.296102247386
 40
0.7536343169897189
 50
115.1944106485057
 51
244.8055893514796
 73
     0
 72
     2
 10
143.0142437304316
 20
775.2141433598341
 40
0.2609230769225071
 50
295.1944106485704
 51
360.0
 73
     1
 72
     1
 10
143.2751668073545
 20
775.2141433598341
 11
143.2751668073545
 21
775.7133372598842
 72
     2
 10
143.0142437304316
 20
775.7133372598842
 40
0.2609230769229214
 50
0.0
 51
90.0
 73
     1
 72
     1
 10
143.0142437304316
 20
775.9742603368065
 11
141.7945468205064
 21
775.9742603368065
 72
     2
 10
141.7945468205064
 20
775.7133372598842
 40
0.2609230769223814
 50
90.0
 51
180.0
 73
     1
 72
     1
 10
141.5336237435844
 20
775.7133372598842
 11
141.5336237435844
 21
772.1129611915229
 72
     2
 10
141.7945468205064
 20
772.1129611915229
 40
0.2609230769220119
 50
180.0
 51
270.0
 73
     1
 97
       12
330
191
330
2B1
330
190
330
2C2
330
18F
330
2C1
330
2B2
330
2B3
330
18E
330
2C0
330
189
330
2C3
 75
     1
 76
     0
 52
44.99999999999998
 41
0.1
 77
     0
 78
     1
 53
44.99999999999998
 43
0.0
 44
0.0
 45
-0.0707106781186547
 46
0.0707106781186548
 79
     0
 98
        1
 10
0.0
 20
0.0
  0
HATCH
  5
33F
330
74
100
AcDbEntity
  8
1
  6
Continuous
 62
     2
100
AcDbHatch
 10
0.0
 20
0.0
 30
0.0
210
0.0
220
0.0
230
1.0
  2
_USER
 70
     0
 71
     1
 91
        4
 92
        1
 93
        8
 72
     2
 10
141.3037247736085
 20
776.2125338410682
 40
0.3506153846147981
 50
90.0
 51
180.0
 73
     1
 72
     1
 10
140.9531093889946
 20
776.2125338410682
 11
140.9531093889946
 21
771.6137646103242
 72
     2
 10
141.3037247736085
 20
771.6137646103242
 40
0.3506153846139171
 50
180.0
 51
270.0
 73
     1
 72
     1
 10
141.3037247736085
 20
771.26314922571
 11
145.8271231956885
 21
771.26314922571
 72
     2
 10
145.8271231956885
 20
771.6137646103242
 40
0.3506153846142297
 50
270.0
 51
360.0
 73
     1
 72
     1
 10
146.1777385803033
 20
771.6137646103242
 11
146.1777385803033
 21
776.2125338410682
 72
     2
 10
145.8271231956885
 20
776.2125338410682
 40
0.3506153846147981
 50
0.0
 51
90.0
 73
     1
 72
     1
 10
145.8271231956885
 20
776.563149225683
 11
141.3037247736085
 21
776.563149225683
 97
        8
330
2BE
330
18C
330
2BD
330
18D
330
2B4
330
18A
330
2BF
330
18B
 92
       16
 93
        1
 72
     2
 10
143.468671592218
 20
774.296102247386
 40
0.3892387874203109
 50
0.0
 51
360.0
 73
     1
 97
        1
330
2D2
 92
       16
 93
        8
 72
     2
 10
143.4883534225261
 20
774.296102247386
 40
0.7535935125160714
 50
295.3740086781789
 51
424.6259913218062
 73
     1
 72
     2
 10
143.9230994540037
 20
775.2127481977726
 40
0.260923076922893
 50
115.3740086783514
 51
180.0
 73
     0
 72
     1
 10
143.6621763770808
 20
775.2127481977726
 11
143.6621763770808
 21
775.7131905849683
 72
     2
 10
143.9230994540037
 20
775.7131905849683
 40
0.2609230769223542
 50
180.0
 51
269.8110329574402
 73
     0
 72
     2
 10
143.9277408881442
 20
774.3058889754071
 40
1.668232340440729
 50
269.8110329575842
 51
450.1889670424157
 73
     0
 72
     2
 10
143.9230994540037
 20
772.898587365846
 40
0.260923076922893
 50
90.18896704255974
 51
180.0
 73
     0
 72
     1
 10
143.6621763770808
 20
772.898587365846
 11
143.6621763770808
 21
773.3794562969989
 72
     2
 10
143.9230994540037
 20
773.3794562969989
 40
0.2609230769227379
 50
180.0
 51
244.6259913216486
 73
     0
 97
        8
330
2CC
330
2A8
330
1C5
330
2CB
330
2A9
330
2AA
330
1C4
330
2A7
 92
       16
 93
       12
 72
     1
 10
141.7945468205064
 20
771.8520381146
 11
143.0142437304316
 21
771.8520381146
 72
     2
 10
143.0142437304316
 20
772.1129611915229
 40
0.2609230769229498
 50
270.0
 51
360.0
 73
     1
 72
     1
 10
143.2751668073545
 20
772.1129611915229
 11
143.2751668073545
 21
773.3780611349374
 72
     2
 10
143.0142437304316
 20
773.3780611349374
 40
0.2609230769229214
 50
0.0
 51
64.80558935142966
 73
     1
 72
     2
 10
143.4461317036341
 20
774.296102247386
 40
0.7536343169897189
 50
115.1944106485057
 51
244.8055893514796
 73
     0
 72
     2
 10
143.0142437304316
 20
775.2141433598341
 40
0.2609230769225071
 50
295.1944106485704
 51
360.0
 73
     1
 72
     1
 10
143.2751668073545
 20
775.2141433598341
 11
143.2751668073545
 21
775.7133372598842
 72
     2
 10
143.0142437304316
 20
775.7133372598842
 40
0.2609230769229214
 50
0.0
 51
90.0
 73
     1
 72
     1
 10
143.0142437304316
 20
775.9742603368065
 11
141.7945468205064
 21
775.9742603368065
 72
     2
 10
141.7945468205064
 20
775.7133372598842
 40
0.2609230769223814
 50
90.0
 51
180.0
 73
     1
 72
     1
 10
141.5336237435844
 20
775.7133372598842
 11
141.5336237435844
 21
772.1129611915229
 72
     2
 10
141.7945468205064
 20
772.1129611915229
 40
0.2609230769220119
 50
180.0
 51
270.0
 73
     1
 97
       12
330
191
330
2B1
330
190
330
2C2
330
18F
330
2C1
330
2B2
330
2B3
330
18E
330
2C0
330
189
330
2C3
 75
     1
 76
     0
 52
44.99999999999998
 41
0.1
 77
     0
 78
     1
 53
44.99999999999998
 43
0.0
 44
0.0
 45
-0.0707106781186547
 46
0.0707106781186548
 79
     0
 98
        1
 10
0.0
 20
0.0
  0
HATCH
  5
340
330
74
100
AcDbEntity
  8
1
  6
Continuous
 62
     2
100
AcDbHatch
 10
0.0
 20
0.0
 30
0.0
210
0.0
220
0.0
230
1.0
  2
_USER
 70
     0
 71
     1
 91
        2
 92
        1
 93
       12
 72
     2
 10
153.4319594876492
 20
775.3012444637923
 40
1.261904761905726
 50
90.0
 51
270.0
 73
     1
 72
     1
 10
153.4319594876492
 20
774.0393397018871
 11
156.035529507303
 21
774.0393397018871
 72
     1
 10
156.035529507303
 20
774.0393397018871
 11
156.035529507303
 21
774.6162104501866
 72
     1
 10
156.035529507303
 20
774.6162104501866
 11
154.9314569234784
 21
774.6162104501866
 72
     1
 10
154.9314569234784
 20
774.6162104501866
 11
154.9314569234784
 21
775.0128090896426
 72
     1
 10
154.9314569234784
 20
775.0128090896426
 11
156.035529507303
 21
775.0128090896426
 72
     1
 10
156.035529507303
 20
775.0128090896426
 11
156.035529507303
 21
775.5896798379421
 72
     1
 10
156.035529507303
 20
775.5896798379421
 11
154.9314569234784
 21
775.5896798379421
 72
     1
 10
154.9314569234784
 20
775.5896798379421
 11
154.9314569234784
 21
775.9862784773981
 72
     1
 10
154.9314569234784
 20
775.9862784773981
 11
156.035529507303
 21
775.9862784773981
 72
     1
 10
156.035529507303
 20
775.9862784773981
 11
156.035529507303
 21
776.563149225698
 72
     1
 10
156.035529507303
 20
776.563149225698
 11
153.4319594876492
 21
776.563149225698
 97
       12
330
180
330
17A
330
1A1
330
1A0
330
19F
330
19E
330
17B
330
17C
330
17D
330
17E
330
2AF
330
17F
 92
       16
 93
        4
 72
     2
 10
153.7757710963364
 20
775.3012444637923
 40
0.6378510567600729
 50
141.8795802028371
 51
218.1204197971549
 73
     1
 72
     2
 10
153.6106966861329
 20
775.1717145645192
 40
0.4280236140607304
 50
218.1204197971464
 51
321.8795802028536
 73
     1
 72
     2
 10
153.4456222759294
 20
775.3012444637923
 40
0.6378510567600251
 50
321.8795802028467
 51
398.1204197971614
 73
     1
 72
     2
 10
153.6106966861329
 20
775.4307743630654
 40
0.4280236140607304
 50
38.12041979714642
 51
141.8795802028536
 73
     1
 97
        4
330
2BC
330
2BB
330
2B6
330
2B5
 75
     1
 76
     0
 52
44.99999999999998
 41
0.1
 77
     0
 78
     1
 53
44.99999999999998
 43
0.0
 44
0.0
 45
-0.0707106781186547
 46
0.0707106781186548
 79
     0
 98
        1
 10
0.0
 20
0.0
  0
HATCH
  5
341
330
74
100
AcDbEntity
  8
1
  6
Continuous
 62
     2
100
AcDbHatch
 10
0.0
 20
0.0
 30
0.0
210
0.0
220
0.0
230
1.0
  2
_USER
 70
     0
 71
     1
 91
        2
 92
        1
 93
       12
 72
     2
 10
153.4319594876492
 20
775.3012444637923
 40
1.261904761905726
 50
90.0
 51
270.0
 73
     1
 72
     1
 10
153.4319594876492
 20
774.0393397018871
 11
156.035529507303
 21
774.0393397018871
 72
     1
 10
156.035529507303
 20
774.0393397018871
 11
156.035529507303
 21
774.6162104501866
 72
     1
 10
156.035529507303
 20
774.6162104501866
 11
154.9314569234784
 21
774.6162104501866
 72
     1
 10
154.9314569234784
 20
774.6162104501866
 11
154.9314569234784
 21
775.0128090896426
 72
     1
 10
154.9314569234784
 20
775.0128090896426
 11
156.035529507303
 21
775.0128090896426
 72
     1
 10
156.035529507303
 20
775.0128090896426
 11
156.035529507303
 21
775.5896798379421
 72
     1
 10
156.035529507303
 20
775.5896798379421
 11
154.9314569234784
 21
775.5896798379421
 72
     1
 10
154.9314569234784
 20
775.5896798379421
 11
154.9314569234784
 21
775.9862784773981
 72
     1
 10
154.9314569234784
 20
775.9862784773981
 11
156.035529507303
 21
775.9862784773981
 72
     1
 10
156.035529507303
 20
775.9862784773981
 11
156.035529507303
 21
776.563149225698
 72
     1
 10
156.035529507303
 20
776.563149225698
 11
153.4319594876492
 21
776.563149225698
 97
       12
330
180
330
17A
330
1A1
330
1A0
330
19F
330
19E
330
17B
330
17C
330
17D
330
17E
330
2AF
330
17F
 92
       16
 93
        4
 72
     2
 10
153.7757710963364
 20
775.3012444637923
 40
0.6378510567600729
 50
141.8795802028371
 51
218.1204197971549
 73
     1
 72
     2
 10
153.6106966861329
 20
775.1717145645192
 40
0.4280236140607304
 50
218.1204197971464
 51
321.8795802028536
 73
     1
 72
     2
 10
153.4456222759294
 20
775.3012444637923
 40
0.6378510567600251
 50
321.8795802028467
 51
398.1204197971614
 73
     1
 72
     2
 10
153.6106966861329
 20
775.4307743630654
 40
0.4280236140607304
 50
38.12041979714642
 51
141.8795802028536
 73
     1
 97
        4
330
2BC
330
2BB
330
2B6
330
2B5
 75
     1
 76
     0
 52
44.99999999999998
 41
0.1
 77
     0
 78
     1
 53
44.99999999999998
 43
0.0
 44
0.0
 45
-0.0707106781186547
 46
0.0707106781186548
 79
     0
 98
        1
 10
0.0
 20
0.0
  0
HATCH
  5
342
330
74
100
AcDbEntity
  8
1
  6
Continuous
 62
     2
100
AcDbHatch
 10
0.0
 20
0.0
 30
0.0
210
0.0
220
0.0
230
1.0
  2
_USER
 70
     0
 71
     1
 91
        2
 92
        1
 93
        4
 72
     2
 10
150.1050046426396
 20
772.5250539876151
 40
1.204986845993023
 50
117.5481481756627
 51
242.4518518243372
 73
     1
 72
     2
 10
150.3371863714275
 20
772.9701573019154
 40
1.707008076205438
 50
242.451851824339
 51
297.5481481756881
 73
     1
 72
     2
 10
150.5693681002153
 20
772.5250539876151
 40
1.20498684599347
 50
297.5481481757035
 51
422.4518518242966
 73
     1
 72
     2
 10
150.3371863714275
 20
772.0799506733154
 40
1.707008076205456
 50
62.45185182430483
 51
117.5481481756681
 73
     1
 97
        4
330
2BA
330
2B7
330
2B9
330
2B8
 92
       16
 93
        4
 72
     2
 10
150.3371863714275
 20
772.6545838868883
 40
0.4280236140606632
 50
38.12041979715347
 51
141.8795802028536
 73
     1
 72
     2
 10
150.5022607816309
 20
772.5250539876151
 40
0.6378510567600058
 50
141.8795802028323
 51
218.1204197971596
 73
     1
 72
     2
 10
150.3371863714275
 20
772.3955240883425
 40
0.4280236140610111
 50
218.1204197971943
 51
321.8795802027986
 73
     1
 72
     2
 10
150.1721119612239
 20
772.5250539876151
 40
0.6378510567600251
 50
321.8795802028467
 51
398.1204197971614
 73
     1
 97
        4
330
29D
330
29E
330
29F
330
29C
 75
     1
 76
     0
 52
44.99999999999998
 41
0.1
 77
     0
 78
     1
 53
44.99999999999998
 43
0.0
 44
0.0
 45
-0.0707106781186547
 46
0.0707106781186548
 79
     0
 98
        1
 10
0.0
 20
0.0
  0
HATCH
  5
343
330
74
100
AcDbEntity
  8
1
  6
Continuous
 62
     2
100
AcDbHatch
 10
0.0
 20
0.0
 30
0.0
210
0.0
220
0.0
230
1.0
  2
_USER
 70
     0
 71
     1
 91
        2
 92
        1
 93
        4
 72
     2
 10
150.1050046426396
 20
772.5250539876151
 40
1.204986845993023
 50
117.5481481756627
 51
242.4518518243372
 73
     1
 72
     2
 10
150.3371863714275
 20
772.9701573019154
 40
1.707008076205438
 50
242.451851824339
 51
297.5481481756881
 73
     1
 72
     2
 10
150.5693681002153
 20
772.5250539876151
 40
1.20498684599347
 50
297.5481481757035
 51
422.4518518242966
 73
     1
 72
     2
 10
150.3371863714275
 20
772.0799506733154
 40
1.707008076205456
 50
62.45185182430483
 51
117.5481481756681
 73
     1
 97
        4
330
2BA
330
2B7
330
2B9
330
2B8
 92
       16
 93
        4
 72
     2
 10
150.3371863714275
 20
772.6545838868883
 40
0.4280236140606632
 50
38.12041979715347
 51
141.8795802028536
 73
     1
 72
     2
 10
150.5022607816309
 20
772.5250539876151
 40
0.6378510567600058
 50
141.8795802028323
 51
218.1204197971596
 73
     1
 72
     2
 10
150.3371863714275
 20
772.3955240883425
 40
0.4280236140610111
 50
218.1204197971943
 51
321.8795802027986
 73
     1
 72
     2
 10
150.1721119612239
 20
772.5250539876151
 40
0.6378510567600251
 50
321.8795802028467
 51
398.1204197971614
 73
     1
 97
        4
330
29D
330
29E
330
29F
330
29C
 75
     1
 76
     0
 52
44.99999999999998
 41
0.1
 77
     0
 78
     1
 53
44.99999999999998
 43
0.0
 44
0.0
 45
-0.0707106781186547
 46
0.0707106781186548
 79
     0
 98
        1
 10
0.0
 20
0.0
  0
HATCH
  5
344
330
74
100
AcDbEntity
  8
1
  6
Continuous
 62
     2
100
AcDbHatch
 10
0.0
 20
0.0
 30
0.0
210
0.0
220
0.0
230
1.0
  2
_USER
 70
     0
 71
     1
 91
        2
 92
        1
 93
        6
 72
     1
 10
146.5720502173833
 20
776.563149225698
 11
146.5720502173833
 21
774.0393397018871
 72
     1
 10
146.5720502173833
 20
774.0393397018871
 11
147.5972604737916
 21
774.0393397018871
 72
     1
 10
147.5972604737916
 20
774.0393397018871
 11
147.5972604737916
 21
774.8187432069645
 72
     1
 10
147.5972604737916
 20
774.8187432069645
 11
148.2243411248497
 21
774.8187432069645
 72
     2
 10
148.2243411248497
 20
775.6909462163312
 40
0.8722030093666717
 50
270.0
 51
450.0
 73
     1
 72
     1
 10
148.2243411248497
 20
776.563149225698
 11
146.5720502173833
 21
776.563149225698
 97
        6
330
2C4
330
192
330
188
330
187
330
194
330
193
 92
       16
 93
        4
 72
     1
 10
147.85948779738
 20
776.0151278658301
 11
147.5972604737916
 21
776.0151278658301
 72
     1
 10
147.5972604737916
 20
776.0151278658301
 11
147.5972604737916
 21
775.4318818746382
 72
     1
 10
147.5972604737916
 20
775.4318818746382
 11
147.85948779738
 21
775.4318818746382
 72
     2
 10
147.85948779738
 20
775.7235048702341
 40
0.2916229955959579
 50
270.0
 51
450.0
 73
     1
 97
        4
330
195
330
186
330
196
330
2B0
 75
     1
 76
     0
 52
44.99999999999998
 41
0.1
 77
     0
 78
     1
 53
44.99999999999998
 43
0.0
 44
0.0
 45
-0.0707106781186547
 46
0.0707106781186548
 79
     0
 98
        1
 10
0.0
 20
0.0
  0
HATCH
  5
345
330
74
100
AcDbEntity
  8
1
  6
Continuous
 62
     2
100
AcDbHatch
 10
0.0
 20
0.0
 30
0.0
210
0.0
220
0.0
230
1.0
  2
_USER
 70
     0
 71
     1
 91
        2
 92
        1
 93
        6
 72
     1
 10
146.5720502173833
 20
776.563149225698
 11
146.5720502173833
 21
774.0393397018871
 72
     1
 10
146.5720502173833
 20
774.0393397018871
 11
147.5972604737916
 21
774.0393397018871
 72
     1
 10
147.5972604737916
 20
774.0393397018871
 11
147.5972604737916
 21
774.8187432069645
 72
     1
 10
147.5972604737916
 20
774.8187432069645
 11
148.2243411248497
 21
774.8187432069645
 72
     2
 10
148.2243411248497
 20
775.6909462163312
 40
0.8722030093666717
 50
270.0
 51
450.0
 73
     1
 72
     1
 10
148.2243411248497
 20
776.563149225698
 11
146.5720502173833
 21
776.563149225698
 97
        6
330
2C4
330
192
330
188
330
187
330
194
330
193
 92
       16
 93
        4
 72
     1
 10
147.85948779738
 20
776.0151278658301
 11
147.5972604737916
 21
776.0151278658301
 72
     1
 10
147.5972604737916
 20
776.0151278658301
 11
147.5972604737916
 21
775.4318818746382
 72
     1
 10
147.5972604737916
 20
775.4318818746382
 11
147.85948779738
 21
775.4318818746382
 72
     2
 10
147.85948779738
 20
775.7235048702341
 40
0.2916229955959579
 50
270.0
 51
450.0
 73
     1
 97
        4
330
195
330
186
330
196
330
2B0
 75
     1
 76
     0
 52
44.99999999999998
 41
0.1
 77
     0
 78
     1
 53
44.99999999999998
 43
0.0
 44
0.0
 45
-0.0707106781186547
 46
0.0707106781186548
 79
     0
 98
        1
 10
0.0
 20
0.0
  0
HATCH
  5
346
330
74
100
AcDbEntity
  8
1
  6
Continuous
 62
     2
100
AcDbHatch
 10
0.0
 20
0.0
 30
0.0
210
0.0
220
0.0
230
1.0
  2
_USER
 70
     0
 71
     1
 91
        1
 92
        1
 93
       12
 72
     1
 10
162.7822016177413
 20
776.563149225698
 11
163.9414778307555
 21
776.563149225698
 72
     1
 10
163.9414778307555
 20
776.563149225698
 11
162.865007061527
 21
775.3458347380647
 72
     1
 10
162.865007061527
 20
775.3458347380647
 11
164.0203401581719
 21
774.0393397018871
 72
     1
 10
164.0203401581719
 20
774.0393397018871
 11
162.8610639451567
 21
774.0393397018871
 72
     1
 10
162.8610639451567
 20
774.0393397018871
 11
162.28536895502
 21
774.690357706262
 72
     1
 10
162.28536895502
 20
774.690357706262
 11
161.709673964883
 21
774.0393397018871
 72
     1
 10
161.709673964883
 20
774.0393397018871
 11
160.550397751868
 21
774.0393397018871
 72
     1
 10
160.550397751868
 20
774.0393397018871
 11
161.7057308485129
 21
775.3458347380647
 72
     1
 10
161.7057308485129
 20
775.3458347380647
 11
160.6292600792835
 21
776.563149225698
 72
     1
 10
160.6292600792835
 20
776.563149225698
 11
161.7885362922995
 21
776.563149225698
 72
     1
 10
161.7885362922995
 20
776.563149225698
 11
162.28536895502
 21
776.001311769867
 72
     1
 10
162.28536895502
 20
776.001311769867
 11
162.7822016177413
 21
776.563149225698
 97
       12
330
161
330
1BA
330
1B9
330
1B8
330
1B7
330
162
330
163
330
15F
330
160
330
1BD
330
1BC
330
1BB
 75
     1
 76
     0
 52
44.99999999999998
 41
0.1
 77
     0
 78
     1
 53
44.99999999999998
 43
0.0
 44
0.0
 45
-0.0707106781186547
 46
0.0707106781186548
 79
     0
 98
        1
 10
0.0
 20
0.0
  0
HATCH
  5
347
330
74
100
AcDbEntity
  8
1
  6
Continuous
 62
     2
100
AcDbHatch
 10
0.0
 20
0.0
 30
0.0
210
0.0
220
0.0
230
1.0
  2
_USER
 70
     0
 71
     1
 91
        1
 92
        1
 93
       12
 72
     1
 10
162.7822016177413
 20
776.563149225698
 11
163.9414778307555
 21
776.563149225698
 72
     1
 10
163.9414778307555
 20
776.563149225698
 11
162.865007061527
 21
775.3458347380647
 72
     1
 10
162.865007061527
 20
775.3458347380647
 11
164.0203401581719
 21
774.0393397018871
 72
     1
 10
164.0203401581719
 20
774.0393397018871
 11
162.8610639451567
 21
774.0393397018871
 72
     1
 10
162.8610639451567
 20
774.0393397018871
 11
162.28536895502
 21
774.690357706262
 72
     1
 10
162.28536895502
 20
774.690357706262
 11
161.709673964883
 21
774.0393397018871
 72
     1
 10
161.709673964883
 20
774.0393397018871
 11
160.550397751868
 21
774.0393397018871
 72
     1
 10
160.550397751868
 20
774.0393397018871
 11
161.7057308485129
 21
775.3458347380647
 72
     1
 10
161.7057308485129
 20
775.3458347380647
 11
160.6292600792835
 21
776.563149225698
 72
     1
 10
160.6292600792835
 20
776.563149225698
 11
161.7885362922995
 21
776.563149225698
 72
     1
 10
161.7885362922995
 20
776.563149225698
 11
162.28536895502
 21
776.001311769867
 72
     1
 10
162.28536895502
 20
776.001311769867
 11
162.7822016177413
 21
776.563149225698
 97
       12
330
161
330
1BA
330
1B9
330
1B8
330
1B7
330
162
330
163
330
15F
330
160
330
1BD
330
1BC
330
1BB
 75
     1
 76
     0
 52
44.99999999999998
 41
0.1
 77
     0
 78
     1
 53
44.99999999999998
 43
0.0
 44
0.0
 45
-0.0707106781186547
 46
0.0707106781186548
 79
     0
 98
        1
 10
0.0
 20
0.0
  0
HATCH
  5
348
330
74
100
AcDbEntity
  8
1
  6
Continuous
 62
     2
100
AcDbHatch
 10
0.0
 20
0.0
 30
0.0
210
0.0
220
0.0
230
1.0
  2
_USER
 70
     0
 71
     1
 91
        1
 92
        1
 93
        4
 72
     1
 10
160.4518198425978
 20
776.563149225698
 11
160.4518198425978
 21
774.0393397018871
 72
     1
 10
160.4518198425978
 20
774.0393397018871
 11
159.4266095861905
 21
774.0393397018871
 72
     1
 10
159.4266095861905
 20
774.0393397018871
 11
159.4266095861905
 21
776.563149225698
 72
     1
 10
159.4266095861905
 20
776.563149225698
 11
160.4518198425978
 21
776.563149225698
 97
        4
330
1B5
330
164
330
1B4
330
1B6
 75
     1
 76
     0
 52
44.99999999999998
 41
0.1
 77
     0
 78
     1
 53
44.99999999999998
 43
0.0
 44
0.0
 45
-0.0707106781186547
 46
0.0707106781186548
 79
     0
 98
        1
 10
0.0
 20
0.0
  0
HATCH
  5
349
330
74
100
AcDbEntity
  8
1
  6
Continuous
 62
     2
100
AcDbHatch
 10
0.0
 20
0.0
 30
0.0
210
0.0
220
0.0
230
1.0
  2
_USER
 70
     0
 71
     1
 91
        1
 92
        1
 93
        4
 72
     1
 10
160.4518198425978
 20
776.563149225698
 11
160.4518198425978
 21
774.0393397018871
 72
     1
 10
160.4518198425978
 20
774.0393397018871
 11
159.4266095861905
 21
774.0393397018871
 72
     1
 10
159.4266095861905
 20
774.0393397018871
 11
159.4266095861905
 21
776.563149225698
 72
     1
 10
159.4266095861905
 20
776.563149225698
 11
160.4518198425978
 21
776.563149225698
 97
        4
330
1B5
330
164
330
1B4
330
1B6
 75
     1
 76
     0
 52
44.99999999999998
 41
0.1
 77
     0
 78
     1
 53
44.99999999999998
 43
0.0
 44
0.0
 45
-0.0707106781186547
 46
0.0707106781186548
 79
     0
 98
        1
 10
0.0
 20
0.0
  0
HATCH
  5
34A
330
74
100
AcDbEntity
  8
1
  6
Continuous
 62
     2
100
AcDbHatch
 10
0.0
 20
0.0
 30
0.0
210
0.0
220
0.0
230
1.0
  2
_USER
 70
     0
 71
     1
 91
        2
 92
        1
 93
        8
 72
     1
 10
160.1291388479433
 20
771.26314922571
 11
159.1039285915351
 21
771.26314922571
 72
     1
 10
159.1039285915351
 20
771.26314922571
 11
158.9291516878361
 21
771.7102240556421
 72
     1
 10
158.9291516878361
 20
771.7102240556421
 11
157.9932495583536
 21
771.7102240556421
 72
     1
 10
157.9932495583536
 20
771.7102240556421
 11
157.8184726546546
 21
771.26314922571
 72
     1
 10
157.8184726546546
 20
771.26314922571
 11
156.7932623982472
 21
771.26314922571
 72
     1
 10
156.7932623982472
 20
771.26314922571
 11
157.9485954948912
 21
773.7869587495209
 72
     1
 10
157.9485954948912
 20
773.7869587495209
 11
158.9738057512984
 21
773.7869587495209
 72
     1
 10
158.9738057512984
 20
773.7869587495209
 11
160.1291388479433
 21
771.26314922571
 97
        8
330
1B0
330
16A
330
1AF
330
1B2
330
167
330
1B1
330
168
330
169
 92
       16
 93
        3
 72
     1
 10
158.2131301791346
 20
772.2726730352343
 11
158.709271067054
 21
772.2726730352343
 72
     1
 10
158.709271067054
 20
772.2726730352343
 11
158.4612006230952
 21
772.9072308583638
 72
     1
 10
158.4612006230952
 20
772.9072308583638
 11
158.2131301791346
 21
772.2726730352343
 97
        3
330
166
330
165
330
1B3
 75
     1
 76
     0
 52
44.99999999999998
 41
0.1
 77
     0
 78
     1
 53
44.99999999999998
 43
0.0
 44
0.0
 45
-0.0707106781186547
 46
0.0707106781186548
 79
     0
 98
        1
 10
0.0
 20
0.0
  0
HATCH
  5
34B
330
74
100
AcDbEntity
  8
1
  6
Continuous
 62
     2
100
AcDbHatch
 10
0.0
 20
0.0
 30
0.0
210
0.0
220
0.0
230
1.0
  2
_USER
 70
     0
 71
     1
 91
        2
 92
        1
 93
        8
 72
     1
 10
160.1291388479433
 20
771.26314922571
 11
159.1039285915351
 21
771.26314922571
 72
     1
 10
159.1039285915351
 20
771.26314922571
 11
158.9291516878361
 21
771.7102240556421
 72
     1
 10
158.9291516878361
 20
771.7102240556421
 11
157.9932495583536
 21
771.7102240556421
 72
     1
 10
157.9932495583536
 20
771.7102240556421
 11
157.8184726546546
 21
771.26314922571
 72
     1
 10
157.8184726546546
 20
771.26314922571
 11
156.7932623982472
 21
771.26314922571
 72
     1
 10
156.7932623982472
 20
771.26314922571
 11
157.9485954948912
 21
773.7869587495209
 72
     1
 10
157.9485954948912
 20
773.7869587495209
 11
158.9738057512984
 21
773.7869587495209
 72
     1
 10
158.9738057512984
 20
773.7869587495209
 11
160.1291388479433
 21
771.26314922571
 97
        8
330
1B0
330
16A
330
1AF
330
1B2
330
167
330
1B1
330
168
330
169
 92
       16
 93
        3
 72
     1
 10
158.2131301791346
 20
772.2726730352343
 11
158.709271067054
 21
772.2726730352343
 72
     1
 10
158.709271067054
 20
772.2726730352343
 11
158.4612006230952
 21
772.9072308583638
 72
     1
 10
158.4612006230952
 20
772.9072308583638
 11
158.2131301791346
 21
772.2726730352343
 97
        3
330
166
330
165
330
1B3
 75
     1
 76
     0
 52
44.99999999999998
 41
0.1
 77
     0
 78
     1
 53
44.99999999999998
 43
0.0
 44
0.0
 45
-0.0707106781186547
 46
0.0707106781186548
 79
     0
 98
        1
 10
0.0
 20
0.0
  0
HATCH
  5
34C
330
74
100
AcDbEntity
  8
1
  6
Continuous
 62
     2
100
AcDbHatch
 10
0.0
 20
0.0
 30
0.0
210
0.0
220
0.0
230
1.0
  2
_USER
 70
     0
 71
     1
 91
        1
 92
        1
 93
        8
 72
     1
 10
155.0101945146255
 20
773.7869587495209
 11
155.0101945146255
 21
773.137979157683
 72
     1
 10
155.0101945146255
 20
773.137979157683
 11
155.6805242976624
 21
773.137979157683
 72
     1
 10
155.6805242976624
 20
773.137979157683
 11
155.6805242976624
 21
771.26314922571
 72
     1
 10
155.6805242976624
 20
771.26314922571
 11
156.6663033903619
 21
771.26314922571
 72
     1
 10
156.6663033903619
 20
771.26314922571
 11
156.6663033903619
 21
773.137979157683
 72
     1
 10
156.6663033903619
 20
773.137979157683
 11
157.3366331733971
 21
773.137979157683
 72
     1
 10
157.3366331733971
 20
773.137979157683
 11
157.3366331733971
 21
773.7869587495209
 72
     1
 10
157.3366331733971
 20
773.7869587495209
 11
155.0101945146255
 21
773.7869587495209
 97
        8
330
1AC
330
1AB
330
1AA
330
16B
330
16C
330
1AE
330
16D
330
1AD
 75
     1
 76
     0
 52
44.99999999999998
 41
0.1
 77
     0
 78
     1
 53
44.99999999999998
 43
0.0
 44
0.0
 45
-0.0707106781186547
 46
0.0707106781186548
 79
     0
 98
        1
 10
0.0
 20
0.0
  0
HATCH
  5
34D
330
74
100
AcDbEntity
  8
1
  6
Continuous
 62
     2
100
AcDbHatch
 10
0.0
 20
0.0
 30
0.0
210
0.0
220
0.0
230
1.0
  2
_USER
 70
     0
 71
     1
 91
        1
 92
        1
 93
        8
 72
     1
 10
155.0101945146255
 20
773.7869587495209
 11
155.0101945146255
 21
773.137979157683
 72
     1
 10
155.0101945146255
 20
773.137979157683
 11
155.6805242976624
 21
773.137979157683
 72
     1
 10
155.6805242976624
 20
773.137979157683
 11
155.6805242976624
 21
771.26314922571
 72
     1
 10
155.6805242976624
 20
771.26314922571
 11
156.6663033903619
 21
771.26314922571
 72
     1
 10
156.6663033903619
 20
771.26314922571
 11
156.6663033903619
 21
773.137979157683
 72
     1
 10
156.6663033903619
 20
773.137979157683
 11
157.3366331733971
 21
773.137979157683
 72
     1
 10
157.3366331733971
 20
773.137979157683
 11
157.3366331733971
 21
773.7869587495209
 72
     1
 10
157.3366331733971
 20
773.7869587495209
 11
155.0101945146255
 21
773.7869587495209
 97
        8
330
1AC
330
1AB
330
1AA
330
16B
330
16C
330
1AE
330
16D
330
1AD
 75
     1
 76
     0
 52
44.99999999999998
 41
0.1
 77
     0
 78
     1
 53
44.99999999999998
 43
0.0
 44
0.0
 45
-0.0707106781186547
 46
0.0707106781186548
 79
     0
 98
        1
 10
0.0
 20
0.0
  0
HATCH
  5
34E
330
74
100
AcDbEntity
  8
1
  6
Continuous
 62
     2
100
AcDbHatch
 10
0.0
 20
0.0
 30
0.0
210
0.0
220
0.0
230
1.0
  2
_USER
 70
     0
 71
     1
 91
        1
 92
        1
 93
       10
 72
     1
 10
157.2184644185421
 20
776.563149225698
 11
156.2326853258426
 21
776.563149225698
 72
     1
 10
156.2326853258426
 20
776.563149225698
 11
156.2326853258426
 21
774.0393397018871
 72
     1
 10
156.2326853258426
 20
774.0393397018871
 11
157.2184644185421
 21
774.0393397018871
 72
     1
 10
157.2184644185421
 20
774.0393397018871
 11
157.2184644185421
 21
775.1209723549488
 72
     1
 10
157.2184644185421
 20
775.1209723549488
 11
158.2436746749504
 21
774.0393397018871
 72
     1
 10
158.2436746749504
 20
774.0393397018871
 11
159.2294537676501
 21
774.0393397018871
 72
     1
 10
159.2294537676501
 20
774.0393397018871
 11
159.2294537676501
 21
776.563149225698
 72
     1
 10
159.2294537676501
 20
776.563149225698
 11
158.2436746749504
 21
776.563149225698
 72
     1
 10
158.2436746749504
 20
776.563149225698
 11
158.2436746749504
 21
775.4815165726359
 72
     1
 10
158.2436746749504
 20
775.4815165726359
 11
157.2184644185421
 21
776.563149225698
 97
       10
330
1A6
330
170
330
171
330
172
330
173
330
1A9
330
16E
330
1A8
330
1A7
330
16F
 75
     1
 76
     0
 52
44.99999999999998
 41
0.1
 77
     0
 78
     1
 53
44.99999999999998
 43
0.0
 44
0.0
 45
-0.0707106781186547
 46
0.0707106781186548
 79
     0
 98
        1
 10
0.0
 20
0.0
  0
HATCH
  5
34F
330
74
100
AcDbEntity
  8
1
  6
Continuous
 62
     2
100
AcDbHatch
 10
0.0
 20
0.0
 30
0.0
210
0.0
220
0.0
230
1.0
  2
_USER
 70
     0
 71
     1
 91
        1
 92
        1
 93
       10
 72
     1
 10
157.2184644185421
 20
776.563149225698
 11
156.2326853258426
 21
776.563149225698
 72
     1
 10
156.2326853258426
 20
776.563149225698
 11
156.2326853258426
 21
774.0393397018871
 72
     1
 10
156.2326853258426
 20
774.0393397018871
 11
157.2184644185421
 21
774.0393397018871
 72
     1
 10
157.2184644185421
 20
774.0393397018871
 11
157.2184644185421
 21
775.1209723549488
 72
     1
 10
157.2184644185421
 20
775.1209723549488
 11
158.2436746749504
 21
774.0393397018871
 72
     1
 10
158.2436746749504
 20
774.0393397018871
 11
159.2294537676501
 21
774.0393397018871
 72
     1
 10
159.2294537676501
 20
774.0393397018871
 11
159.2294537676501
 21
776.563149225698
 72
     1
 10
159.2294537676501
 20
776.563149225698
 11
158.2436746749504
 21
776.563149225698
 72
     1
 10
158.2436746749504
 20
776.563149225698
 11
158.2436746749504
 21
775.4815165726359
 72
     1
 10
158.2436746749504
 20
775.4815165726359
 11
157.2184644185421
 21
776.563149225698
 97
       10
330
1A6
330
170
330
171
330
172
330
173
330
1A9
330
16E
330
1A8
330
1A7
330
16F
 75
     1
 76
     0
 52
44.99999999999998
 41
0.1
 77
     0
 78
     1
 53
44.99999999999998
 43
0.0
 44
0.0
 45
-0.0707106781186547
 46
0.0707106781186548
 79
     0
 98
        1
 10
0.0
 20
0.0
  0
HATCH
  5
350
330
74
100
AcDbEntity
  8
1
  6
Continuous
 62
     2
100
AcDbHatch
 10
0.0
 20
0.0
 30
0.0
210
0.0
220
0.0
230
1.0
  2
_USER
 70
     0
 71
     1
 91
        1
 92
        1
 93
       10
 72
     1
 10
152.8809116743945
 20
773.7869587495209
 11
151.895132581694
 21
773.7869587495209
 72
     1
 10
151.895132581694
 20
773.7869587495209
 11
151.895132581694
 21
771.26314922571
 72
     1
 10
151.895132581694
 20
771.26314922571
 11
152.8809116743945
 21
771.26314922571
 72
     1
 10
152.8809116743945
 20
771.26314922571
 11
152.8809116743945
 21
772.3447818787716
 72
     1
 10
152.8809116743945
 20
772.3447818787716
 11
153.9061219308019
 21
771.26314922571
 72
     1
 10
153.9061219308019
 20
771.26314922571
 11
154.8919010235014
 21
771.26314922571
 72
     1
 10
154.8919010235014
 20
771.26314922571
 11
154.8919010235014
 21
773.7869587495209
 72
     1
 10
154.8919010235014
 20
773.7869587495209
 11
153.9061219308019
 21
773.7869587495209
 72
     1
 10
153.9061219308019
 20
773.7869587495209
 11
153.9061219308019
 21
772.7053260964587
 72
     1
 10
153.9061219308019
 20
772.7053260964587
 11
152.8809116743945
 21
773.7869587495209
 97
       10
330
175
330
176
330
177
330
1A3
330
178
330
179
330
1A2
330
1A5
330
1A4
330
174
 75
     1
 76
     0
 52
44.99999999999998
 41
0.1
 77
     0
 78
     1
 53
44.99999999999998
 43
0.0
 44
0.0
 45
-0.0707106781186547
 46
0.0707106781186548
 79
     0
 98
        1
 10
0.0
 20
0.0
  0
HATCH
  5
351
330
74
100
AcDbEntity
  8
1
  6
Continuous
 62
     2
100
AcDbHatch
 10
0.0
 20
0.0
 30
0.0
210
0.0
220
0.0
230
1.0
  2
_USER
 70
     0
 71
     1
 91
        1
 92
        1
 93
       10
 72
     1
 10
152.8809116743945
 20
773.7869587495209
 11
151.895132581694
 21
773.7869587495209
 72
     1
 10
151.895132581694
 20
773.7869587495209
 11
151.895132581694
 21
771.26314922571
 72
     1
 10
151.895132581694
 20
771.26314922571
 11
152.8809116743945
 21
771.26314922571
 72
     1
 10
152.8809116743945
 20
771.26314922571
 11
152.8809116743945
 21
772.3447818787716
 72
     1
 10
152.8809116743945
 20
772.3447818787716
 11
153.9061219308019
 21
771.26314922571
 72
     1
 10
153.9061219308019
 20
771.26314922571
 11
154.8919010235014
 21
771.26314922571
 72
     1
 10
154.8919010235014
 20
771.26314922571
 11
154.8919010235014
 21
773.7869587495209
 72
     1
 10
154.8919010235014
 20
773.7869587495209
 11
153.9061219308019
 21
773.7869587495209
 72
     1
 10
153.9061219308019
 20
773.7869587495209
 11
153.9061219308019
 21
772.7053260964587
 72
     1
 10
153.9061219308019
 20
772.7053260964587
 11
152.8809116743945
 21
773.7869587495209
 97
       10
330
175
330
176
330
177
330
1A3
330
178
330
179
330
1A2
330
1A5
330
1A4
330
174
 75
     1
 76
     0
 52
44.99999999999998
 41
0.1
 77
     0
 78
     1
 53
44.99999999999998
 43
0.0
 44
0.0
 45
-0.0707106781186547
 46
0.0707106781186548
 79
     0
 98
        1
 10
0.0
 20
0.0
  0
HATCH
  5
352
330
74
100
AcDbEntity
  8
1
  6
Continuous
 62
     2
100
AcDbHatch
 10
0.0
 20
0.0
 30
0.0
210
0.0
220
0.0
230
1.0
  2
_USER
 70
     0
 71
     1
 91
        1
 92
        1
 93
       12
 72
     1
 10
152.052981972795
 20
776.563149225698
 11
152.052981972795
 21
774.0393397018871
 72
     1
 10
152.052981972795
 20
774.0393397018871
 11
151.0672028800955
 21
774.0393397018871
 72
     1
 10
151.0672028800955
 20
774.0393397018871
 11
151.0672028800955
 21
774.9767546678737
 72
     1
 10
151.0672028800955
 20
774.9767546678737
 11
150.1997172785191
 21
774.9767546678737
 72
     1
 10
150.1997172785191
 20
774.9767546678737
 11
150.1997172785191
 21
774.0393397018871
 72
     1
 10
150.1997172785191
 20
774.0393397018871
 11
149.2139381858194
 21
774.0393397018871
 72
     1
 10
149.2139381858194
 20
774.0393397018871
 11
149.2139381858194
 21
776.563149225698
 72
     1
 10
149.2139381858194
 20
776.563149225698
 11
150.1997172785191
 21
776.563149225698
 72
     1
 10
150.1997172785191
 20
776.563149225698
 11
150.1997172785191
 21
775.6798158923636
 72
     1
 10
150.1997172785191
 20
775.6798158923636
 11
151.0672028800955
 21
775.6798158923636
 72
     1
 10
151.0672028800955
 20
775.6798158923636
 11
151.0672028800955
 21
776.563149225698
 72
     1
 10
151.0672028800955
 20
776.563149225698
 11
152.052981972795
 21
776.563149225698
 97
       12
330
19D
330
19C
330
19B
330
183
330
184
330
19A
330
185
330
199
330
198
330
197
330
181
330
182
 75
     1
 76
     0
 52
44.99999999999998
 41
0.1
 77
     0
 78
     1
 53
44.99999999999998
 43
0.0
 44
0.0
 45
-0.0707106781186547
 46
0.0707106781186548
 79
     0
 98
        1
 10
0.0
 20
0.0
  0
HATCH
  5
353
330
74
100
AcDbEntity
  8
1
  6
Continuous
 62
     2
100
AcDbHatch
 10
0.0
 20
0.0
 30
0.0
210
0.0
220
0.0
230
1.0
  2
_USER
 70
     0
 71
     1
 91
        1
 92
        1
 93
       12
 72
     1
 10
152.052981972795
 20
776.563149225698
 11
152.052981972795
 21
774.0393397018871
 72
     1
 10
152.052981972795
 20
774.0393397018871
 11
151.0672028800955
 21
774.0393397018871
 72
     1
 10
151.0672028800955
 20
774.0393397018871
 11
151.0672028800955
 21
774.9767546678737
 72
     1
 10
151.0672028800955
 20
774.9767546678737
 11
150.1997172785191
 21
774.9767546678737
 72
     1
 10
150.1997172785191
 20
774.9767546678737
 11
150.1997172785191
 21
774.0393397018871
 72
     1
 10
150.1997172785191
 20
774.0393397018871
 11
149.2139381858194
 21
774.0393397018871
 72
     1
 10
149.2139381858194
 20
774.0393397018871
 11
149.2139381858194
 21
776.563149225698
 72
     1
 10
149.2139381858194
 20
776.563149225698
 11
150.1997172785191
 21
776.563149225698
 72
     1
 10
150.1997172785191
 20
776.563149225698
 11
150.1997172785191
 21
775.6798158923636
 72
     1
 10
150.1997172785191
 20
775.6798158923636
 11
151.0672028800955
 21
775.6798158923636
 72
     1
 10
151.0672028800955
 20
775.6798158923636
 11
151.0672028800955
 21
776.563149225698
 72
     1
 10
151.0672028800955
 20
776.563149225698
 11
152.052981972795
 21
776.563149225698
 97
       12
330
19D
330
19C
330
19B
330
183
330
184
330
19A
330
185
330
199
330
198
330
197
330
181
330
182
 75
     1
 76
     0
 52
44.99999999999998
 41
0.1
 77
     0
 78
     1
 53
44.99999999999998
 43
0.0
 44
0.0
 45
-0.0707106781186547
 46
0.0707106781186548
 79
     0
 98
        1
 10
0.0
 20
0.0
  0
ENDBLK
  5
76
330
74
100
AcDbEntity
  8
0
100
AcDbBlockEnd
  0
BLOCK
  5
7A
330
77
100
AcDbEntity
  8
0
100
AcDbBlockBegin
  2
A4I
 70
     0
 10
263.8378685549491
 20
760.413149225704
 30
0.0
  3
A4I
  1

  0
INSERT
  5
78
330
77
100
AcDbEntity
  8
1
100
AcDbBlockReference
  2
_punkt
 10
263.8378685549491
 20
765.4131492257042
 30
0.0
  0
INSERT
  5
79
330
77
100
AcDbEntity
  8
1
100
AcDbBlockReference
  2
_rahmen
 10
263.8378685549491
 20
760.413149225704
 30
0.0
  0
ENDBLK
  5
7B
330
77
100
AcDbEntity
  8
0
100
AcDbBlockEnd
  0
BLOCK
  5
149
330
142
100
AcDbEntity
  8
0
100
AcDbBlockBegin
  2
*D16
 70
     1
 10
0.0
 20
0.0
 30
0.0
  3
*D16
  1

  0
LINE
  5
143
330
142
100
AcDbEntity
  8
1
  6
Continuous
 62
     2
100
AcDbLine
 10
111.0022489999815
 20
889.7999999999955
 30
0.0
 11
111.0022489999815
 21
922.1999999999955
 31
0.0
  0
LINE
  5
144
330
142
100
AcDbEntity
  8
1
  6
Continuous
 62
     2
100
AcDbLine
 10
100.6137226709564
 20
889.7999999999955
 30
0.0
 11
113.0022489999815
 21
889.7999999999955
 31
0.0
  0
LINE
  5
145
330
142
100
AcDbEntity
  8
1
  6
Continuous
 62
     2
100
AcDbLine
 10
100.6137226709564
 20
922.1999999999955
 30
0.0
 11
113.0022489999815
 21
922.1999999999955
 31
0.0
  0
SOLID
  5
146
330
142
100
AcDbEntity
  8
1
 62
     2
100
AcDbTrace
 10
110.5414652584256
 20
893.2999999999955
 30
0.0
 11
111.4630327415374
 21
893.2999999999955
 31
0.0
 12
111.0022489999815
 22
889.7999999999955
 32
0.0
 13
111.0022489999815
 23
889.7999999999955
 33
0.0
  0
SOLID
  5
147
330
142
100
AcDbEntity
  8
1
 62
     2
100
AcDbTrace
 10
111.4630327415374
 20
918.6999999999955
 30
0.0
 11
110.5414652584256
 21
918.6999999999955
 31
0.0
 12
111.0022489999815
 22
922.1999999999955
 32
0.0
 13
111.0022489999815
 23
922.1999999999955
 33
0.0
  0
MTEXT
  5
148
330
142
100
AcDbEntity
  8
1
 62
     3
100
AcDbMText
 10
108.6522489999815
 20
900.2424999999954
 30
0.0
 40
3.5
 41
0.0
 71
     7
 72
     1
  1
\C3;\U+00f8\C3;32,4
  7
CONVERTER_11
 11
0.0
 21
1.0
 31
0.0
 73
     1
 44
0.60024009603842
  0
ENDBLK
  5
14A
330
142
100
AcDbEntity
  8
0
100
AcDbBlockEnd
  0
BLOCK
  5
154
330
14D
100
AcDbEntity
  8
0
100
AcDbBlockBegin
  2
*D17
 70
     1
 10
0.0
 20
0.0
 30
0.0
  3
*D17
  1

  0
LINE
  5
14E
330
14D
100
AcDbEntity
  8
1
  6
Continuous
 62
     2
100
AcDbLine
 10
101.0022489999815
 20
879.7999999999955
 30
0.0
 11
77.00224899998153
 21
879.7999999999955
 31
0.0
  0
LINE
  5
14F
330
14D
100
AcDbEntity
  8
1
  6
Continuous
 62
     2
100
AcDbLine
 10
101.0022489999815
 20
891.2499999999955
 30
0.0
 11
101.0022489999815
 21
877.7999999999955
 31
0.0
  0
LINE
  5
150
330
14D
100
AcDbEntity
  8
1
  6
Continuous
 62
     2
100
AcDbLine
 10
77.00224899998153
 20
893.4999999999955
 30
0.0
 11
77.00224899998153
 21
877.7999999999955
 31
0.0
  0
SOLID
  5
151
330
14D
100
AcDbEntity
  8
1
 62
     2
100
AcDbTrace
 10
97.50224899998153
 20
879.3392162584396
 30
0.0
 11
97.50224899998153
 21
880.2607837415514
 31
0.0
 12
101.0022489999815
 22
879.7999999999955
 32
0.0
 13
101.0022489999815
 23
879.7999999999955
 33
0.0
  0
SOLID
  5
152
330
14D
100
AcDbEntity
  8
1
 62
     2
100
AcDbTrace
 10
80.50224899998153
 20
880.2607837415514
 30
0.0
 11
80.50224899998153
 21
879.3392162584396
 31
0.0
 12
77.00224899998153
 22
879.7999999999955
 32
0.0
 13
77.00224899998153
 23
879.7999999999955
 33
0.0
  0
MTEXT
  5
153
330
14D
100
AcDbEntity
  8
1
 62
     3
100
AcDbMText
 10
86.37724899998153
 20
881.7999999999955
 30
0.0
 40
3.5
 41
0.0
 71
     7
 72
     1
  1
24
  7
CONVERTER_11
 11
0.9999999999970619
 21
2.424068405545306E-6
 31
0.0
 73
     1
 44
0.60024009603842
  0
ENDBLK
  5
155
330
14D
100
AcDbEntity
  8
0
100
AcDbBlockEnd
  0
ENDSEC
  0
SECTION
  2
ENTITIES
  0
INSERT
  5
7C
330
1F
100
AcDbEntity
  8
0
100
AcDbBlockReference
  2
Allg1
 10
227.6728857310031
 20
826.937655999996
 30
0.0
  0
INSERT
  5
7D
330
1F
100
AcDbEntity
  8
0
100
AcDbBlockReference
  2
Drfsicht1
 10
89.02835699999
 20
842.2000012370606
 30
0.0
  0
INSERT
  5
7E
330
1F
100
AcDbEntity
  8
0
100
AcDbBlockReference
  2
Rckans1
 10
212.99775100002
 20
905.9999999999955
 30
0.0
  0
INSERT
  5
7F
330
1F
100
AcDbEntity
  8
0
100
AcDbBlockReference
  2
SA_Links1
 10
156.0
 20
906.0
 30
0.0
  0
INSERT
  5
80
330
1F
100
AcDbEntity
  8
0
100
AcDbBlockReference
  2
SA_Rechts1
 10
36.99999999998987
 20
905.9999999999955
 30
0.0
  0
INSERT
  5
81
330
1F
100
AcDbEntity
  8
0
100
AcDbBlockReference
  2
Vordans1
 10
89.00224899999154
 20
905.9999999999955
 30
0.0
  0
INSERT
  5
82
330
1F
100
AcDbEntity
  8
0
100
AcDbBlockReference
  2
A4I
 10
263.8378685549491
 20
760.413149225704
 30
0.0
  0
ENDSEC
  0
SECTION
  2
OBJECTS
  0
DICTIONARY
  5
C
330
0
100
AcDbDictionary
281
     1
  3
ACAD_GROUP
350
D
  3
ACAD_LAYOUT
350
1A
  3
ACAD_MATERIAL
350
3B
  3
ACAD_MLEADERSTYLE
350
356
  3
ACAD_MLINESTYLE
350
17
  3
ACAD_PLOTSETTINGS
350
19
  3
ACAD_PLOTSTYLENAME
350
E
  3
ACAD_VISUALSTYLE
350
2A
  3
AcDbVariableDictionary
350
354
  0
DICTIONARY
  5
D
102
{ACAD_REACTORS
330
C
102
}
330
C
100
AcDbDictionary
281
     1
  0
DICTIONARY
  5
1A
102
{ACAD_REACTORS
330
C
102
}
330
C
100
AcDbDictionary
281
     1
  3
Layout1
350
1E
  3
Layout2
350
26
  3
Model
350
22
  0
DICTIONARY
  5
3B
102
{ACAD_REACTORS
330
C
102
}
330
C
100
AcDbDictionary
281
     1
  3
ByBlock
350
3D
  3
ByLayer
350
3C
  3
Global
350
3E
  0
DICTIONARY
  5
356
102
{ACAD_REACTORS
330
C
102
}
330
C
100
AcDbDictionary
281
     1
  0
DICTIONARY
  5
17
102
{ACAD_REACTORS
330
C
102
}
330
C
100
AcDbDictionary
281
     1
  3
Standard
350
18
  0
DICTIONARY
  5
19
102
{ACAD_REACTORS
330
C
102
}
330
C
100
AcDbDictionary
281
     1
  0
ACDBDICTIONARYWDFLT
  5
E
102
{ACAD_REACTORS
330
C
102
}
330
C
100
AcDbDictionary
281
     1
  3
Normal
350
F
100
AcDbDictionaryWithDefault
340
F
  0
DICTIONARY
  5
2A
102
{ACAD_REACTORS
330
C
102
}
330
C
100
AcDbDictionary
281
     1
  3
2dWireframe
350
2F
  3
3D Hidden
350
31
  3
3dWireframe
350
30
  3
Basic
350
32
  3
Brighten
350
36
  3
ColorChange
350
3A
  3
Conceptual
350
34
  3
Dim
350
35
  3
Facepattern
350
39
  3
Flat
350
2B
  3
FlatWithEdges
350
2C
  3
Gouraud
350
2D
  3
GouraudWithEdges
350
2E
  3
Linepattern
350
38
  3
Realistic
350
33
  3
Thicken
350
37
  0
DICTIONARY
  5
354
102
{ACAD_REACTORS
330
C
102
}
330
C
100
AcDbDictionary
281
     1
  3
DIMASSOC
350
357
  3
HIDETEXT
350
358
  0
LAYOUT
  5
1E
102
{ACAD_REACTORS
330
1A
102
}
330
1A
100
AcDbPlotSettings
  1

  2
none_device
  4

  6

 40
0.0
 41
0.0
 42
0.0
 43
0.0
 44
0.0
 45
0.0
 46
0.0
 47
0.0
 48
0.0
 49
0.0
140
0.0
141
0.0
142
1.0
143
1.0
 70
   688
 72
     0
 73
     0
 74
     5
  7

 75
    16
147
1.0
148
0.0
149
0.0
100
AcDbLayout
  1
Layout1
 70
     1
 71
     1
 10
0.0
 20
0.0
 11
12.0
 21
9.0
 12
0.0
 22
0.0
 32
0.0
 14
1.00000000000000E+20
 24
1.00000000000000E+20
 34
1.00000000000000E+20
 15
-1.00000000000000E+20
 25
-1.00000000000000E+20
 35
-1.00000000000000E+20
146
0.0
 13
0.0
 23
0.0
 33
0.0
 16
1.0
 26
0.0
 36
0.0
 17
0.0
 27
1.0
 37
0.0
 76
     0
330
1B
  0
LAYOUT
  5
26
102
{ACAD_REACTORS
330
1A
102
}
330
1A
100
AcDbPlotSettings
  1

  2
none_device
  4

  6

 40
0.0
 41
0.0
 42
0.0
 43
0.0
 44
0.0
 45
0.0
 46
0.0
 47
0.0
 48
0.0
 49
0.0
140
0.0
141
0.0
142
1.0
143
1.0
 70
   688
 72
     0
 73
     0
 74
     5
  7

 75
    16
147
1.0
148
0.0
149
0.0
100
AcDbLayout
  1
Layout2
 70
     1
 71
     2
 10
0.0
 20
0.0
 11
0.0
 21
0.0
 12
0.0
 22
0.0
 32
0.0
 14
0.0
 24
0.0
 34
0.0
 15
0.0
 25
0.0
 35
0.0
146
0.0
 13
0.0
 23
0.0
 33
0.0
 16
1.0
 26
0.0
 36
0.0
 17
0.0
 27
1.0
 37
0.0
 76
     0
330
23
  0
LAYOUT
  5
22
102
{ACAD_REACTORS
330
1A
102
}
330
1A
100
AcDbPlotSettings
  1

  2
none_device
  4

  6

 40
0.0
 41
0.0
 42
0.0
 43
0.0
 44
0.0
 45
0.0
 46
0.0
 47
0.0
 48
0.0
 49
0.0
140
0.0
141
0.0
142
1.0
143
1.0
 70
  1712
 72
     0
 73
     0
 74
     0
  7

 75
     0
147
1.0
148
0.0
149
0.0
100
AcDbLayout
  1
Model
 70
     1
 71
     0
 10
0.0
 20
0.0
 11
12.0
 21
9.0
 12
0.0
 22
0.0
 32
0.0
 14
-28.16213144505005
 24
760.413149225704
 34
0.0
 15
268.8378685549481
 25
970.413149225704
 35
0.0
146
0.0
 13
0.0
 23
0.0
 33
0.0
 16
1.0
 26
0.0
 36
0.0
 17
0.0
 27
1.0
 37
0.0
 76
     0
330
1F
331
29
  0
MATERIAL
  5
3D
102
{ACAD_REACTORS
330
3B
102
}
102
{ACAD_XDICTIONARY
360
37B
102
}
330
3B
100
AcDbMaterial
  1
ByBlock
  0
MATERIAL
  5
3C
102
{ACAD_REACTORS
330
3B
102
}
102
{ACAD_XDICTIONARY
360
379
102
}
330
3B
100
AcDbMaterial
  1
ByLayer
  0
MATERIAL
  5
3E
102
{ACAD_REACTORS
330
3B
102
}
102
{ACAD_XDICTIONARY
360
37D
102
}
330
3B
100
AcDbMaterial
  1
Global
  0
MLINESTYLE
  5
18
102
{ACAD_REACTORS
330
17
102
}
330
17
100
AcDbMlineStyle
  2
Standard
 70
     0
  3

 62
   256
 51
90.0
 52
90.0
 71
     2
 49
0.5
 62
   256
  6
BYLAYER
 49
-0.5
 62
   256
  6
BYLAYER
  0
ACDBPLACEHOLDER
  5
F
102
{ACAD_REACTORS
330
E
102
}
330
E
  0
VISUALSTYLE
  5
2F
102
{ACAD_REACTORS
330
2A
102
}
102
{ACAD_XDICTIONARY
360
361
102
}
330
2A
100
AcDbVisualStyle
  2
2dWireframe
 70
     4
 71
     0
 72
     2
 73
     0
 90
        0
 40
-0.6
 41
-30.0
 62
     5
 63
     7
 74
     1
 91
        4
 64
     7
 65
   257
 75
     1
175
     1
 42
1.0
 92
        0
 66
   257
 43
1.0
 76
     1
 77
     6
 78
     2
 67
     7
 79
     5
170
     0
171
     0
290
     0
174
     0
 93
        1
 44
0.0
173
     0
291
     0
 45
0.0
1001
ACAD
1000
AcDbSavedByObjectVersion
1070
     0
  0
VISUALSTYLE
  5
31
102
{ACAD_REACTORS
330
2A
102
}
102
{ACAD_XDICTIONARY
360
365
102
}
330
2A
100
AcDbVisualStyle
  2
3D Hidden
 70
     6
 71
     1
 72
     2
 73
     2
 90
        0
 40
-0.6
 41
-30.0
 62
     5
 63
     7
 74
     2
 91
        2
 64
     7
 65
   257
 75
     2
175
     1
 42
40.0
 92
        0
 66
   257
 43
1.0
 76
     1
 77
     6
 78
     2
 67
     7
 79
     3
170
     0
171
     0
290
     0
174
     0
 93
        1
 44
0.0
173
     0
291
     0
 45
0.0
1001
ACAD
1000
AcDbSavedByObjectVersion
1070
     0
  0
VISUALSTYLE
  5
30
102
{ACAD_REACTORS
330
2A
102
}
102
{ACAD_XDICTIONARY
360
363
102
}
330
2A
100
AcDbVisualStyle
  2
3dWireframe
 70
     5
 71
     0
 72
     2
 73
     0
 90
        0
 40
-0.6
 41
-30.0
 62
     5
 63
     7
 74
     1
 91
        4
 64
     7
 65
   257
 75
     1
175
     1
 42
1.0
 92
        0
 66
   257
 43
1.0
 76
     1
 77
     6
 78
     2
 67
     7
 79
     5
170
     0
171
     0
290
     0
174
     0
 93
        1
 44
0.0
173
     0
291
     0
 45
0.0
1001
ACAD
1000
AcDbSavedByObjectVersion
1070
     0
  0
VISUALSTYLE
  5
32
102
{ACAD_REACTORS
330
2A
102
}
102
{ACAD_XDICTIONARY
360
367
102
}
330
2A
100
AcDbVisualStyle
  2
Basic
 70
     7
 71
     1
 72
     0
 73
     1
 90
        0
 40
-0.6
 41
-30.0
 62
     5
 63
     7
 74
     0
 91
        4
 64
     7
 65
   257
 75
     1
175
     1
 42
1.0
 92
        8
 66
     7
 43
1.0
 76
     1
 77
     6
 78
     2
 67
     7
 79
     5
170
     0
171
     0
290
     0
174
     0
 93
        1
 44
0.0
173
     0
291
     1
 45
0.0
1001
ACAD
1000
AcDbSavedByObjectVersion
1070
     0
  0
VISUALSTYLE
  5
36
102
{ACAD_REACTORS
330
2A
102
}
102
{ACAD_XDICTIONARY
360
36F
102
}
330
2A
100
AcDbVisualStyle
  2
Brighten
 70
    12
 71
     2
 72
     2
 73
     0
 90
        0
 40
-0.6
 41
-30.0
 62
     5
 63
     7
 74
     1
 91
        4
 64
     7
 65
   257
 75
     1
175
     1
 42
1.0
 92
        8
 66
     7
 43
1.0
 76
     1
 77
     6
 78
     2
 67
     7
 79
     5
170
     0
171
     0
290
     0
174
     0
 93
        1
 44
50.0
173
     0
291
     1
 45
0.0
1001
ACAD
1000
AcDbSavedByObjectVersion
1070
     0
  0
VISUALSTYLE
  5
3A
102
{ACAD_REACTORS
330
2A
102
}
102
{ACAD_XDICTIONARY
360
377
102
}
330
2A
100
AcDbVisualStyle
  2
ColorChange
 70
    16
 71
     2
 72
     2
 73
     3
 90
        0
 40
-0.6
 41
-30.0
 62
     5
 63
     8
 74
     1
 91
        4
 64
     7
 65
   257
 75
     1
175
     1
 42
1.0
 92
        8
 66
     8
 43
1.0
 76
     1
 77
     6
 78
     2
 67
     7
 79
     5
170
     0
171
     0
290
     0
174
     0
 93
        1
 44
0.0
173
     0
291
     1
 45
0.0
1001
ACAD
1000
AcDbSavedByObjectVersion
1070
     0
  0
VISUALSTYLE
  5
34
102
{ACAD_REACTORS
330
2A
102
}
102
{ACAD_XDICTIONARY
360
36B
102
}
330
2A
100
AcDbVisualStyle
  2
Conceptual
 70
     9
 71
     3
 72
     2
 73
     0
 90
        0
 40
-0.6
 41
-30.0
 62
     5
 63
     7
 74
     2
 91
        2
 64
     7
 65
   257
 75
     1
175
     1
 42
40.0
 92
        8
 66
     7
 43
1.0
 76
     1
 77
     6
 78
     2
 67
     7
 79
     3
170
     0
171
     0
290
     0
174
     0
 93
        1
 44
0.0
173
     0
291
     0
 45
0.0
1001
ACAD
1000
AcDbSavedByObjectVersion
1070
     0
  0
VISUALSTYLE
  5
35
102
{ACAD_REACTORS
330
2A
102
}
102
{ACAD_XDICTIONARY
360
36D
102
}
330
2A
100
AcDbVisualStyle
  2
Dim
 70
    11
 71
     2
 72
     2
 73
     0
 90
        0
 40
-0.6
 41
-30.0
 62
     5
 63
     7
 74
     1
 91
        4
 64
     7
 65
   257
 75
     1
175
     1
 42
1.0
 92
        8
 66
     7
 43
1.0
 76
     1
 77
     6
 78
     2
 67
     7
 79
     5
170
     0
171
     0
290
     0
174
     0
 93
        1
 44
-50.0
173
     0
291
     1
 45
0.0
1001
ACAD
1000
AcDbSavedByObjectVersion
1070
     0
  0
VISUALSTYLE
  5
39
102
{ACAD_REACTORS
330
2A
102
}
102
{ACAD_XDICTIONARY
360
375
102
}
330
2A
100
AcDbVisualStyle
  2
Facepattern
 70
    15
 71
     2
 72
     2
 73
     0
 90
        0
 40
-0.6
 41
-30.0
 62
     5
 63
     7
 74
     1
 91
        4
 64
     7
 65
   257
 75
     1
175
     1
 42
1.0
 92
        8
 66
     7
 43
1.0
 76
     1
 77
     6
 78
     2
 67
     7
 79
     5
170
     0
171
     0
290
     0
174
     0
 93
        1
 44
0.0
173
     0
291
     1
 45
0.0
1001
ACAD
1000
AcDbSavedByObjectVersion
1070
     0
  0
VISUALSTYLE
  5
2B
102
{ACAD_REACTORS
330
2A
102
}
102
{ACAD_XDICTIONARY
360
359
102
}
330
2A
100
AcDbVisualStyle
  2
Flat
 70
     0
 71
     2
 72
     1
 73
     1
 90
        2
 40
-0.6
 41
30.0
 62
     5
 63
     7
 74
     0
 91
        4
 64
     7
 65
   257
 75
     1
175
     1
 42
1.0
 92
        8
 66
     7
 43
1.0
 76
     1
 77
     6
 78
     2
 67
     7
 79
     5
170
     0
171
     0
290
     0
174
     0
 93
       13
 44
0.0
173
     0
291
     1
 45
0.0
1001
ACAD
1000
AcDbSavedByObjectVersion
1070
     0
  0
VISUALSTYLE
  5
2C
102
{ACAD_REACTORS
330
2A
102
}
102
{ACAD_XDICTIONARY
360
35B
102
}
330
2A
100
AcDbVisualStyle
  2
FlatWithEdges
 70
     1
 71
     2
 72
     1
 73
     1
 90
        2
 40
-0.6
 41
30.0
 62
     5
 63
     7
 74
     1
 91
        4
 64
     7
 65
   257
 75
     1
175
     1
 42
1.0
 92
        0
 66
   257
 43
1.0
 76
     1
 77
     6
 78
     2
 67
     7
 79
     5
170
     0
171
     0
290
     0
174
     0
 93
       13
 44
0.0
173
     0
291
     1
 45
0.0
1001
ACAD
1000
AcDbSavedByObjectVersion
1070
     0
  0
VISUALSTYLE
  5
2D
102
{ACAD_REACTORS
330
2A
102
}
102
{ACAD_XDICTIONARY
360
35D
102
}
330
2A
100
AcDbVisualStyle
  2
Gouraud
 70
     2
 71
     2
 72
     2
 73
     1
 90
        2
 40
-0.6
 41
30.0
 62
     5
 63
     7
 74
     0
 91
        4
 64
     7
 65
   257
 75
     1
175
     1
 42
1.0
 92
        0
 66
     7
 43
1.0
 76
     1
 77
     6
 78
     2
 67
     7
 79
     5
170
     0
171
     0
290
     0
174
     0
 93
       13
 44
0.0
173
     0
291
     1
 45
0.0
1001
ACAD
1000
AcDbSavedByObjectVersion
1070
     0
  0
VISUALSTYLE
  5
2E
102
{ACAD_REACTORS
330
2A
102
}
102
{ACAD_XDICTIONARY
360
35F
102
}
330
2A
100
AcDbVisualStyle
  2
GouraudWithEdges
 70
     3
 71
     2
 72
     2
 73
     1
 90
        2
 40
-0.6
 41
30.0
 62
     5
 63
     7
 74
     1
 91
        4
 64
     7
 65
   257
 75
     1
175
     1
 42
1.0
 92
        0
 66
   257
 43
1.0
 76
     1
 77
     6
 78
     2
 67
     7
 79
     5
170
     0
171
     0
290
     0
174
     0
 93
       13
 44
0.0
173
     0
291
     1
 45
0.0
1001
ACAD
1000
AcDbSavedByObjectVersion
1070
     0
  0
VISUALSTYLE
  5
38
102
{ACAD_REACTORS
330
2A
102
}
102
{ACAD_XDICTIONARY
360
373
102
}
330
2A
100
AcDbVisualStyle
  2
Linepattern
 70
    14
 71
     2
 72
     2
 73
     0
 90
        0
 40
-0.6
 41
-30.0
 62
     5
 63
     7
 74
     1
 91
        4
 64
     7
 65
   257
 75
     7
175
     7
 42
1.0
 92
        8
 66
     7
 43
1.0
 76
     1
 77
     6
 78
     2
 67
     7
 79
     5
170
     0
171
     0
290
     0
174
     0
 93
        1
 44
0.0
173
     0
291
     1
 45
0.0
1001
ACAD
1000
AcDbSavedByObjectVersion
1070
     0
  0
VISUALSTYLE
  5
33
102
{ACAD_REACTORS
330
2A
102
}
102
{ACAD_XDICTIONARY
360
369
102
}
330
2A
100
AcDbVisualStyle
  2
Realistic
 70
     8
 71
     2
 72
     2
 73
     0
 90
        0
 40
-0.6
 41
-30.0
 62
     5
 63
     7
 74
     1
 91
        0
 64
     7
 65
   257
 75
     1
175
     1
 42
1.0
 92
        8
 66
     8
 43
1.0
 76
     1
 77
     6
 78
     2
 67
     7
 79
     5
170
     0
171
     0
290
     0
174
     0
 93
       13
 44
0.0
173
     0
291
     0
 45
0.0
1001
ACAD
1000
AcDbSavedByObjectVersion
1070
     0
  0
VISUALSTYLE
  5
37
102
{ACAD_REACTORS
330
2A
102
}
102
{ACAD_XDICTIONARY
360
371
102
}
330
2A
100
AcDbVisualStyle
  2
Thicken
 70
    13
 71
     2
 72
     2
 73
     0
 90
        0
 40
-0.6
 41
-30.0
 62
     5
 63
     7
 74
     1
 91
        4
 64
     7
 65
   257
 75
     1
175
     1
 42
1.0
 92
       12
 66
     7
 43
1.0
 76
     1
 77
     6
 78
     2
 67
     7
 79
     5
170
     0
171
     0
290
     0
174
     0
 93
        1
 44
0.0
173
     0
291
     1
 45
0.0
1001
ACAD
1000
AcDbSavedByObjectVersion
1070
     0
  0
DICTIONARYVAR
  5
357
102
{ACAD_REACTORS
330
354
102
}
330
354
100
DictionaryVariables
280
     0
  1
2
  0
DICTIONARYVAR
  5
358
102
{ACAD_REACTORS
330
354
102
}
330
354
100
DictionaryVariables
280
     0
  1
1
  0
DICTIONARY
  5
37B
330
3D
100
AcDbDictionary
280
     1
281
     1
  3
ACAD_XREC_ROUNDTRIP
360
37C
  0
DICTIONARY
  5
379
330
3C
100
AcDbDictionary
280
     1
281
     1
  3
ACAD_XREC_ROUNDTRIP
360
37A
  0
DICTIONARY
  5
37D
330
3E
100
AcDbDictionary
280
     1
281
     1
  3
ACAD_XREC_ROUNDTRIP
360
37E
  0
DICTIONARY
  5
361
330
2F
100
AcDbDictionary
280
     1
281
     1
  3
ACAD_XREC_ROUNDTRIP
360
362
  0
DICTIONARY
  5
365
330
31
100
AcDbDictionary
280
     1
281
     1
  3
ACAD_XREC_ROUNDTRIP
360
366
  0
DICTIONARY
  5
363
330
30
100
AcDbDictionary
280
     1
281
     1
  3
ACAD_XREC_ROUNDTRIP
360
364
  0
DICTIONARY
  5
367
330
32
100
AcDbDictionary
280
     1
281
     1
  3
ACAD_XREC_ROUNDTRIP
360
368
  0
DICTIONARY
  5
36F
330
36
100
AcDbDictionary
280
     1
281
     1
  3
ACAD_XREC_ROUNDTRIP
360
370
  0
DICTIONARY
  5
377
330
3A
100
AcDbDictionary
280
     1
281
     1
  3
ACAD_XREC_ROUNDTRIP
360
378
  0
DICTIONARY
  5
36B
330
34
100
AcDbDictionary
280
     1
281
     1
  3
ACAD_XREC_ROUNDTRIP
360
36C
  0
DICTIONARY
  5
36D
330
35
100
AcDbDictionary
280
     1
281
     1
  3
ACAD_XREC_ROUNDTRIP
360
36E
  0
DICTIONARY
  5
375
330
39
100
AcDbDictionary
280
     1
281
     1
  3
ACAD_XREC_ROUNDTRIP
360
376
  0
DICTIONARY
  5
359
330
2B
100
AcDbDictionary
280
     1
281
     1
  3
ACAD_XREC_ROUNDTRIP
360
35A
  0
DICTIONARY
  5
35B
330
2C
100
AcDbDictionary
280
     1
281
     1
  3
ACAD_XREC_ROUNDTRIP
360
35C
  0
DICTIONARY
  5
35D
330
2D
100
AcDbDictionary
280
     1
281
     1
  3
ACAD_XREC_ROUNDTRIP
360
35E
  0
DICTIONARY
  5
35F
330
2E
100
AcDbDictionary
280
     1
281
     1
  3
ACAD_XREC_ROUNDTRIP
360
360
  0
DICTIONARY
  5
373
330
38
100
AcDbDictionary
280
     1
281
     1
  3
ACAD_XREC_ROUNDTRIP
360
374
  0
DICTIONARY
  5
369
330
33
100
AcDbDictionary
280
     1
281
     1
  3
ACAD_XREC_ROUNDTRIP
360
36A
  0
DICTIONARY
  5
371
330
37
100
AcDbDictionary
280
     1
281
     1
  3
ACAD_XREC_ROUNDTRIP
360
372
  0
XRECORD
  5
37C
102
{ACAD_REACTORS
330
37B
102
}
330
37B
100
AcDbXrecord
280
     1
102
MATERIAL
148
0.0
149
0.0
149
0.0
 93
        0
 94
      127
282
     0
 72
     1
 77
     1
171
     1
175
     1
179
     1
273
     0
  0
XRECORD
  5
37A
102
{ACAD_REACTORS
330
379
102
}
330
379
100
AcDbXrecord
280
     1
102
MATERIAL
148
0.0
149
0.0
149
0.0
 93
        0
 94
      127
282
     0
 72
     1
 77
     1
171
     1
175
     1
179
     1
273
     0
  0
XRECORD
  5
37E
102
{ACAD_REACTORS
330
37D
102
}
330
37D
100
AcDbXrecord
280
     1
102
MATERIAL
148
0.0
149
0.0
149
0.0
 93
        0
 94
      127
282
     0
 72
     1
 77
     1
171
     1
175
     1
179
     1
273
     0
  0
XRECORD
  5
362
102
{ACAD_REACTORS
330
361
102
}
330
361
100
AcDbXrecord
280
     1
102
RTVSPropertyOp0
 70
     1
102
RTVSPropertyOp1
 70
     1
102
RTVSPropertyOp2
 70
     1
102
RTVSPropertyOp3
 70
     1
102
RTVSPropertyOp4
 70
     1
102
RTVSPropertyOp5
 70
     1
102
RTVSPropertyOp6
 70
     1
102
RTVSPropertyOp7
 70
     1
102
RTVSPropertyOp8
 70
     1
102
RTVSPropertyOp9
 70
     1
102
RTVSPropertyOp10
 70
     1
102
RTVSPropertyOp11
 70
     1
102
RTVSPropertyOp12
 70
     1
102
RTVSPropertyOp13
 70
     1
102
RTVSPropertyOp14
 70
     1
102
RTVSPropertyOp15
 70
     1
102
RTVSPropertyOp16
 70
     1
102
RTVSPropertyOp17
 70
     1
102
RTVSPropertyOp18
 70
     1
102
RTVSPropertyOp19
 70
     1
102
RTVSPropertyOp20
 70
     1
102
RTVSPropertyOp21
 70
     1
102
RTVSPropertyOp22
 70
     1
102
RTVSPropertyOp23
 70
     1
102
RTVSPropertyOp24
 70
     1
102
RTVSPropertyOp25
 70
     1
102
RTVSPropertyOp26
 70
     1
102
RTVSPropertyOp27
 70
     1
102
RTVSPropertyOp28
 70
     1
102
RTVSPropertyOp29
 70
     1
102
RTVSPropertyOp30
 70
     1
102
RTVSPropertyOp31
 70
     1
102
RTVSPropertyOp32
 70
     1
  0
XRECORD
  5
366
102
{ACAD_REACTORS
330
365
102
}
330
365
100
AcDbXrecord
280
     1
102
RTVSPropertyOp0
 70
     1
102
RTVSPropertyOp1
 70
     1
102
RTVSPropertyOp2
 70
     1
102
RTVSPropertyOp3
 70
     1
102
RTVSPropertyOp4
 70
     1
102
RTVSPropertyOp5
 70
     1
102
RTVSPropertyOp6
 70
     1
102
RTVSPropertyOp7
 70
     1
102
RTVSPropertyOp8
 70
     1
102
RTVSPropertyOp9
 70
     1
102
RTVSPropertyOp10
 70
     1
102
RTVSPropertyOp11
 70
     1
102
RTVSPropertyOp12
 70
     1
102
RTVSPropertyOp13
 70
     1
102
RTVSPropertyOp14
 70
     1
102
RTVSPropertyOp15
 70
     1
102
RTVSPropertyOp16
 70
     1
102
RTVSPropertyOp17
 70
     1
102
RTVSPropertyOp18
 70
     1
102
RTVSPropertyOp19
 70
     1
102
RTVSPropertyOp20
 70
     1
102
RTVSPropertyOp21
 70
     1
102
RTVSPropertyOp22
 70
     1
102
RTVSPropertyOp23
 70
     1
102
RTVSPropertyOp24
 70
     1
102
RTVSPropertyOp25
 70
     1
102
RTVSPropertyOp26
 70
     1
102
RTVSPropertyOp27
 70
     1
102
RTVSPropertyOp28
 70
     1
102
RTVSPropertyOp29
 70
     1
102
RTVSPropertyOp30
 70
     1
102
RTVSPropertyOp31
 70
     1
102
RTVSPropertyOp32
 70
     1
  0
XRECORD
  5
364
102
{ACAD_REACTORS
330
363
102
}
330
363
100
AcDbXrecord
280
     1
102
RTVSPropertyOp0
 70
     1
102
RTVSPropertyOp1
 70
     1
102
RTVSPropertyOp2
 70
     1
102
RTVSPropertyOp3
 70
     1
102
RTVSPropertyOp4
 70
     1
102
RTVSPropertyOp5
 70
     1
102
RTVSPropertyOp6
 70
     1
102
RTVSPropertyOp7
 70
     1
102
RTVSPropertyOp8
 70
     1
102
RTVSPropertyOp9
 70
     1
102
RTVSPropertyOp10
 70
     1
102
RTVSPropertyOp11
 70
     1
102
RTVSPropertyOp12
 70
     1
102
RTVSPropertyOp13
 70
     1
102
RTVSPropertyOp14
 70
     1
102
RTVSPropertyOp15
 70
     1
102
RTVSPropertyOp16
 70
     1
102
RTVSPropertyOp17
 70
     1
102
RTVSPropertyOp18
 70
     1
102
RTVSPropertyOp19
 70
     1
102
RTVSPropertyOp20
 70
     1
102
RTVSPropertyOp21
 70
     1
102
RTVSPropertyOp22
 70
     1
102
RTVSPropertyOp23
 70
     1
102
RTVSPropertyOp24
 70
     1
102
RTVSPropertyOp25
 70
     1
102
RTVSPropertyOp26
 70
     1
102
RTVSPropertyOp27
 70
     1
102
RTVSPropertyOp28
 70
     1
102
RTVSPropertyOp29
 70
     1
102
RTVSPropertyOp30
 70
     1
102
RTVSPropertyOp31
 70
     1
102
RTVSPropertyOp32
 70
     1
  0
XRECORD
  5
368
102
{ACAD_REACTORS
330
367
102
}
330
367
100
AcDbXrecord
280
     1
102
RTVSPropertyOp0
 70
     1
102
RTVSPropertyOp1
 70
     1
102
RTVSPropertyOp2
 70
     1
102
RTVSPropertyOp3
 70
     1
102
RTVSPropertyOp4
 70
     1
102
RTVSPropertyOp5
 70
     1
102
RTVSPropertyOp6
 70
     1
102
RTVSPropertyOp7
 70
     1
102
RTVSPropertyOp8
 70
     1
102
RTVSPropertyOp9
 70
     1
102
RTVSPropertyOp10
 70
     1
102
RTVSPropertyOp11
 70
     1
102
RTVSPropertyOp12
 70
     1
102
RTVSPropertyOp13
 70
     1
102
RTVSPropertyOp14
 70
     1
102
RTVSPropertyOp15
 70
     1
102
RTVSPropertyOp16
 70
     1
102
RTVSPropertyOp17
 70
     1
102
RTVSPropertyOp18
 70
     1
102
RTVSPropertyOp19
 70
     1
102
RTVSPropertyOp20
 70
     1
102
RTVSPropertyOp21
 70
     1
102
RTVSPropertyOp22
 70
     1
102
RTVSPropertyOp23
 70
     1
102
RTVSPropertyOp24
 70
     1
102
RTVSPropertyOp25
 70
     1
102
RTVSPropertyOp26
 70
     1
102
RTVSPropertyOp27
 70
     1
102
RTVSPropertyOp28
 70
     1
102
RTVSPropertyOp29
 70
     1
102
RTVSPropertyOp30
 70
     1
102
RTVSPropertyOp31
 70
     1
102
RTVSPropertyOp32
 70
     1
  0
XRECORD
  5
370
102
{ACAD_REACTORS
330
36F
102
}
330
36F
100
AcDbXrecord
280
     1
102
RTVSPropertyOp0
 70
     1
102
RTVSPropertyOp1
 70
     1
102
RTVSPropertyOp2
 70
     1
102
RTVSPropertyOp3
 70
     1
102
RTVSPropertyOp4
 70
     1
102
RTVSPropertyOp5
 70
     1
102
RTVSPropertyOp6
 70
     1
102
RTVSPropertyOp7
 70
     1
102
RTVSPropertyOp8
 70
     1
102
RTVSPropertyOp9
 70
     1
102
RTVSPropertyOp10
 70
     1
102
RTVSPropertyOp11
 70
     1
102
RTVSPropertyOp12
 70
     1
102
RTVSPropertyOp13
 70
     1
102
RTVSPropertyOp14
 70
     1
102
RTVSPropertyOp15
 70
     1
102
RTVSPropertyOp16
 70
     1
102
RTVSPropertyOp17
 70
     1
102
RTVSPropertyOp18
 70
     1
102
RTVSPropertyOp19
 70
     1
102
RTVSPropertyOp20
 70
     1
102
RTVSPropertyOp21
 70
     1
102
RTVSPropertyOp22
 70
     1
102
RTVSPropertyOp23
 70
     1
102
RTVSPropertyOp24
 70
     1
102
RTVSPropertyOp25
 70
     1
102
RTVSPropertyOp26
 70
     1
102
RTVSPropertyOp27
 70
     1
102
RTVSPropertyOp28
 70
     1
102
RTVSPropertyOp29
 70
     1
102
RTVSPropertyOp30
 70
     1
102
RTVSPropertyOp31
 70
     1
102
RTVSPropertyOp32
 70
     1
  0
XRECORD
  5
378
102
{ACAD_REACTORS
330
377
102
}
330
377
100
AcDbXrecord
280
     1
102
RTVSPropertyOp0
 70
     1
102
RTVSPropertyOp1
 70
     1
102
RTVSPropertyOp2
 70
     1
102
RTVSPropertyOp3
 70
     1
102
RTVSPropertyOp4
 70
     1
102
RTVSPropertyOp5
 70
     1
102
RTVSPropertyOp6
 70
     1
102
RTVSPropertyOp7
 70
     1
102
RTVSPropertyOp8
 70
     1
102
RTVSPropertyOp9
 70
     1
102
RTVSPropertyOp10
 70
     1
102
RTVSPropertyOp11
 70
     1
102
RTVSPropertyOp12
 70
     1
102
RTVSPropertyOp13
 70
     1
102
RTVSPropertyOp14
 70
     1
102
RTVSPropertyOp15
 70
     1
102
RTVSPropertyOp16
 70
     1
102
RTVSPropertyOp17
 70
     1
102
RTVSPropertyOp18
 70
     1
102
RTVSPropertyOp19
 70
     1
102
RTVSPropertyOp20
 70
     1
102
RTVSPropertyOp21
 70
     1
102
RTVSPropertyOp22
 70
     1
102
RTVSPropertyOp23
 70
     1
102
RTVSPropertyOp24
 70
     1
102
RTVSPropertyOp25
 70
     1
102
RTVSPropertyOp26
 70
     1
102
RTVSPropertyOp27
 70
     1
102
RTVSPropertyOp28
 70
     1
102
RTVSPropertyOp29
 70
     1
102
RTVSPropertyOp30
 70
     1
102
RTVSPropertyOp31
 70
     1
102
RTVSPropertyOp32
 70
     1
  0
XRECORD
  5
36C
102
{ACAD_REACTORS
330
36B
102
}
330
36B
100
AcDbXrecord
280
     1
102
RTVSPropertyOp0
 70
     1
102
RTVSPropertyOp1
 70
     1
102
RTVSPropertyOp2
 70
     1
102
RTVSPropertyOp3
 70
     1
102
RTVSPropertyOp4
 70
     1
102
RTVSPropertyOp5
 70
     1
102
RTVSPropertyOp6
 70
     1
102
RTVSPropertyOp7
 70
     1
102
RTVSPropertyOp8
 70
     1
102
RTVSPropertyOp9
 70
     1
102
RTVSPropertyOp10
 70
     1
102
RTVSPropertyOp11
 70
     1
102
RTVSPropertyOp12
 70
     1
102
RTVSPropertyOp13
 70
     1
102
RTVSPropertyOp14
 70
     1
102
RTVSPropertyOp15
 70
     1
102
RTVSPropertyOp16
 70
     1
102
RTVSPropertyOp17
 70
     1
102
RTVSPropertyOp18
 70
     1
102
RTVSPropertyOp19
 70
     1
102
RTVSPropertyOp20
 70
     1
102
RTVSPropertyOp21
 70
     1
102
RTVSPropertyOp22
 70
     1
102
RTVSPropertyOp23
 70
     1
102
RTVSPropertyOp24
 70
     1
102
RTVSPropertyOp25
 70
     1
102
RTVSPropertyOp26
 70
     1
102
RTVSPropertyOp27
 70
     1
102
RTVSPropertyOp28
 70
     1
102
RTVSPropertyOp29
 70
     1
102
RTVSPropertyOp30
 70
     1
102
RTVSPropertyOp31
 70
     1
102
RTVSPropertyOp32
 70
     1
  0
XRECORD
  5
36E
102
{ACAD_REACTORS
330
36D
102
}
330
36D
100
AcDbXrecord
280
     1
102
RTVSPropertyOp0
 70
     1
102
RTVSPropertyOp1
 70
     1
102
RTVSPropertyOp2
 70
     1
102
RTVSPropertyOp3
 70
     1
102
RTVSPropertyOp4
 70
     1
102
RTVSPropertyOp5
 70
     1
102
RTVSPropertyOp6
 70
     1
102
RTVSPropertyOp7
 70
     1
102
RTVSPropertyOp8
 70
     1
102
RTVSPropertyOp9
 70
     1
102
RTVSPropertyOp10
 70
     1
102
RTVSPropertyOp11
 70
     1
102
RTVSPropertyOp12
 70
     1
102
RTVSPropertyOp13
 70
     1
102
RTVSPropertyOp14
 70
     1
102
RTVSPropertyOp15
 70
     1
102
RTVSPropertyOp16
 70
     1
102
RTVSPropertyOp17
 70
     1
102
RTVSPropertyOp18
 70
     1
102
RTVSPropertyOp19
 70
     1
102
RTVSPropertyOp20
 70
     1
102
RTVSPropertyOp21
 70
     1
102
RTVSPropertyOp22
 70
     1
102
RTVSPropertyOp23
 70
     1
102
RTVSPropertyOp24
 70
     1
102
RTVSPropertyOp25
 70
     1
102
RTVSPropertyOp26
 70
     1
102
RTVSPropertyOp27
 70
     1
102
RTVSPropertyOp28
 70
     1
102
RTVSPropertyOp29
 70
     1
102
RTVSPropertyOp30
 70
     1
102
RTVSPropertyOp31
 70
     1
102
RTVSPropertyOp32
 70
     1
  0
XRECORD
  5
376
102
{ACAD_REACTORS
330
375
102
}
330
375
100
AcDbXrecord
280
     1
102
RTVSPropertyOp0
 70
     1
102
RTVSPropertyOp1
 70
     1
102
RTVSPropertyOp2
 70
     1
102
RTVSPropertyOp3
 70
     1
102
RTVSPropertyOp4
 70
     1
102
RTVSPropertyOp5
 70
     1
102
RTVSPropertyOp6
 70
     1
102
RTVSPropertyOp7
 70
     1
102
RTVSPropertyOp8
 70
     1
102
RTVSPropertyOp9
 70
     1
102
RTVSPropertyOp10
 70
     1
102
RTVSPropertyOp11
 70
     1
102
RTVSPropertyOp12
 70
     1
102
RTVSPropertyOp13
 70
     1
102
RTVSPropertyOp14
 70
     1
102
RTVSPropertyOp15
 70
     1
102
RTVSPropertyOp16
 70
     1
102
RTVSPropertyOp17
 70
     1
102
RTVSPropertyOp18
 70
     1
102
RTVSPropertyOp19
 70
     1
102
RTVSPropertyOp20
 70
     1
102
RTVSPropertyOp21
 70
     1
102
RTVSPropertyOp22
 70
     1
102
RTVSPropertyOp23
 70
     1
102
RTVSPropertyOp24
 70
     1
102
RTVSPropertyOp25
 70
     1
102
RTVSPropertyOp26
 70
     1
102
RTVSPropertyOp27
 70
     1
102
RTVSPropertyOp28
 70
     1
102
RTVSPropertyOp29
 70
     1
102
RTVSPropertyOp30
 70
     1
102
RTVSPropertyOp31
 70
     1
102
RTVSPropertyOp32
 70
     1
  0
XRECORD
  5
35A
102
{ACAD_REACTORS
330
359
102
}
330
359
100
AcDbXrecord
280
     1
102
RTVSPropertyOp0
 70
     1
102
RTVSPropertyOp1
 70
     1
102
RTVSPropertyOp2
 70
     1
102
RTVSPropertyOp3
 70
     1
102
RTVSPropertyOp4
 70
     1
102
RTVSPropertyOp5
 70
     1
102
RTVSPropertyOp6
 70
     1
102
RTVSPropertyOp7
 70
     1
102
RTVSPropertyOp8
 70
     1
102
RTVSPropertyOp9
 70
     1
102
RTVSPropertyOp10
 70
     1
102
RTVSPropertyOp11
 70
     1
102
RTVSPropertyOp12
 70
     1
102
RTVSPropertyOp13
 70
     1
102
RTVSPropertyOp14
 70
     1
102
RTVSPropertyOp15
 70
     1
102
RTVSPropertyOp16
 70
     1
102
RTVSPropertyOp17
 70
     1
102
RTVSPropertyOp18
 70
     1
102
RTVSPropertyOp19
 70
     1
102
RTVSPropertyOp20
 70
     1
102
RTVSPropertyOp21
 70
     1
102
RTVSPropertyOp22
 70
     1
102
RTVSPropertyOp23
 70
     1
102
RTVSPropertyOp24
 70
     1
102
RTVSPropertyOp25
 70
     1
102
RTVSPropertyOp26
 70
     1
102
RTVSPropertyOp27
 70
     1
102
RTVSPropertyOp28
 70
     1
102
RTVSPropertyOp29
 70
     1
102
RTVSPropertyOp30
 70
     1
102
RTVSPropertyOp31
 70
     1
102
RTVSPropertyOp32
 70
     1
  0
XRECORD
  5
35C
102
{ACAD_REACTORS
330
35B
102
}
330
35B
100
AcDbXrecord
280
     1
102
RTVSPropertyOp0
 70
     1
102
RTVSPropertyOp1
 70
     1
102
RTVSPropertyOp2
 70
     1
102
RTVSPropertyOp3
 70
     1
102
RTVSPropertyOp4
 70
     1
102
RTVSPropertyOp5
 70
     1
102
RTVSPropertyOp6
 70
     1
102
RTVSPropertyOp7
 70
     1
102
RTVSPropertyOp8
 70
     1
102
RTVSPropertyOp9
 70
     1
102
RTVSPropertyOp10
 70
     1
102
RTVSPropertyOp11
 70
     1
102
RTVSPropertyOp12
 70
     1
102
RTVSPropertyOp13
 70
     1
102
RTVSPropertyOp14
 70
     1
102
RTVSPropertyOp15
 70
     1
102
RTVSPropertyOp16
 70
     1
102
RTVSPropertyOp17
 70
     1
102
RTVSPropertyOp18
 70
     1
102
RTVSPropertyOp19
 70
     1
102
RTVSPropertyOp20
 70
     1
102
RTVSPropertyOp21
 70
     1
102
RTVSPropertyOp22
 70
     1
102
RTVSPropertyOp23
 70
     1
102
RTVSPropertyOp24
 70
     1
102
RTVSPropertyOp25
 70
     1
102
RTVSPropertyOp26
 70
     1
102
RTVSPropertyOp27
 70
     1
102
RTVSPropertyOp28
 70
     1
102
RTVSPropertyOp29
 70
     1
102
RTVSPropertyOp30
 70
     1
102
RTVSPropertyOp31
 70
     1
102
RTVSPropertyOp32
 70
     1
  0
XRECORD
  5
35E
102
{ACAD_REACTORS
330
35D
102
}
330
35D
100
AcDbXrecord
280
     1
102
RTVSPropertyOp0
 70
     1
102
RTVSPropertyOp1
 70
     1
102
RTVSPropertyOp2
 70
     1
102
RTVSPropertyOp3
 70
     1
102
RTVSPropertyOp4
 70
     1
102
RTVSPropertyOp5
 70
     1
102
RTVSPropertyOp6
 70
     1
102
RTVSPropertyOp7
 70
     1
102
RTVSPropertyOp8
 70
     1
102
RTVSPropertyOp9
 70
     1
102
RTVSPropertyOp10
 70
     1
102
RTVSPropertyOp11
 70
     1
102
RTVSPropertyOp12
 70
     1
102
RTVSPropertyOp13
 70
     1
102
RTVSPropertyOp14
 70
     1
102
RTVSPropertyOp15
 70
     1
102
RTVSPropertyOp16
 70
     1
102
RTVSPropertyOp17
 70
     1
102
RTVSPropertyOp18
 70
     1
102
RTVSPropertyOp19
 70
     1
102
RTVSPropertyOp20
 70
     1
102
RTVSPropertyOp21
 70
     1
102
RTVSPropertyOp22
 70
     1
102
RTVSPropertyOp23
 70
     1
102
RTVSPropertyOp24
 70
     1
102
RTVSPropertyOp25
 70
     1
102
RTVSPropertyOp26
 70
     1
102
RTVSPropertyOp27
 70
     1
102
RTVSPropertyOp28
 70
     1
102
RTVSPropertyOp29
 70
     1
102
RTVSPropertyOp30
 70
     1
102
RTVSPropertyOp31
 70
     1
102
RTVSPropertyOp32
 70
     1
  0
XRECORD
  5
360
102
{ACAD_REACTORS
330
35F
102
}
330
35F
100
AcDbXrecord
280
     1
102
RTVSPropertyOp0
 70
     1
102
RTVSPropertyOp1
 70
     1
102
RTVSPropertyOp2
 70
     1
102
RTVSPropertyOp3
 70
     1
102
RTVSPropertyOp4
 70
     1
102
RTVSPropertyOp5
 70
     1
102
RTVSPropertyOp6
 70
     1
102
RTVSPropertyOp7
 70
     1
102
RTVSPropertyOp8
 70
     1
102
RTVSPropertyOp9
 70
     1
102
RTVSPropertyOp10
 70
     1
102
RTVSPropertyOp11
 70
     1
102
RTVSPropertyOp12
 70
     1
102
RTVSPropertyOp13
 70
     1
102
RTVSPropertyOp14
 70
     1
102
RTVSPropertyOp15
 70
     1
102
RTVSPropertyOp16
 70
     1
102
RTVSPropertyOp17
 70
     1
102
RTVSPropertyOp18
 70
     1
102
RTVSPropertyOp19
 70
     1
102
RTVSPropertyOp20
 70
     1
102
RTVSPropertyOp21
 70
     1
102
RTVSPropertyOp22
 70
     1
102
RTVSPropertyOp23
 70
     1
102
RTVSPropertyOp24
 70
     1
102
RTVSPropertyOp25
 70
     1
102
RTVSPropertyOp26
 70
     1
102
RTVSPropertyOp27
 70
     1
102
RTVSPropertyOp28
 70
     1
102
RTVSPropertyOp29
 70
     1
102
RTVSPropertyOp30
 70
     1
102
RTVSPropertyOp31
 70
     1
102
RTVSPropertyOp32
 70
     1
  0
XRECORD
  5
374
102
{ACAD_REACTORS
330
373
102
}
330
373
100
AcDbXrecord
280
     1
102
RTVSPropertyOp0
 70
     1
102
RTVSPropertyOp1
 70
     1
102
RTVSPropertyOp2
 70
     1
102
RTVSPropertyOp3
 70
     1
102
RTVSPropertyOp4
 70
     1
102
RTVSPropertyOp5
 70
     1
102
RTVSPropertyOp6
 70
     1
102
RTVSPropertyOp7
 70
     1
102
RTVSPropertyOp8
 70
     1
102
RTVSPropertyOp9
 70
     1
102
RTVSPropertyOp10
 70
     1
102
RTVSPropertyOp11
 70
     1
102
RTVSPropertyOp12
 70
     1
102
RTVSPropertyOp13
 70
     1
102
RTVSPropertyOp14
 70
     1
102
RTVSPropertyOp15
 70
     1
102
RTVSPropertyOp16
 70
     1
102
RTVSPropertyOp17
 70
     1
102
RTVSPropertyOp18
 70
     1
102
RTVSPropertyOp19
 70
     1
102
RTVSPropertyOp20
 70
     1
102
RTVSPropertyOp21
 70
     1
102
RTVSPropertyOp22
 70
     1
102
RTVSPropertyOp23
 70
     1
102
RTVSPropertyOp24
 70
     1
102
RTVSPropertyOp25
 70
     1
102
RTVSPropertyOp26
 70
     1
102
RTVSPropertyOp27
 70
     1
102
RTVSPropertyOp28
 70
     1
102
RTVSPropertyOp29
 70
     1
102
RTVSPropertyOp30
 70
     1
102
RTVSPropertyOp31
 70
     1
102
RTVSPropertyOp32
 70
     1
  0
XRECORD
  5
36A
102
{ACAD_REACTORS
330
369
102
}
330
369
100
AcDbXrecord
280
     1
102
RTVSPropertyOp0
 70
     1
102
RTVSPropertyOp1
 70
     1
102
RTVSPropertyOp2
 70
     1
102
RTVSPropertyOp3
 70
     1
102
RTVSPropertyOp4
 70
     1
102
RTVSPropertyOp5
 70
     1
102
RTVSPropertyOp6
 70
     1
102
RTVSPropertyOp7
 70
     1
102
RTVSPropertyOp8
 70
     1
102
RTVSPropertyOp9
 70
     1
102
RTVSPropertyOp10
 70
     1
102
RTVSPropertyOp11
 70
     1
102
RTVSPropertyOp12
 70
     1
102
RTVSPropertyOp13
 70
     1
102
RTVSPropertyOp14
 70
     1
102
RTVSPropertyOp15
 70
     1
102
RTVSPropertyOp16
 70
     1
102
RTVSPropertyOp17
 70
     1
102
RTVSPropertyOp18
 70
     1
102
RTVSPropertyOp19
 70
     1
102
RTVSPropertyOp20
 70
     1
102
RTVSPropertyOp21
 70
     1
102
RTVSPropertyOp22
 70
     1
102
RTVSPropertyOp23
 70
     1
102
RTVSPropertyOp24
 70
     1
102
RTVSPropertyOp25
 70
     1
102
RTVSPropertyOp26
 70
     1
102
RTVSPropertyOp27
 70
     1
102
RTVSPropertyOp28
 70
     1
102
RTVSPropertyOp29
 70
     1
102
RTVSPropertyOp30
 70
     1
102
RTVSPropertyOp31
 70
     1
102
RTVSPropertyOp32
 70
     1
  0
XRECORD
  5
372
102
{ACAD_REACTORS
330
371
102
}
330
371
100
AcDbXrecord
280
     1
102
RTVSPropertyOp0
 70
     1
102
RTVSPropertyOp1
 70
     1
102
RTVSPropertyOp2
 70
     1
102
RTVSPropertyOp3
 70
     1
102
RTVSPropertyOp4
 70
     1
102
RTVSPropertyOp5
 70
     1
102
RTVSPropertyOp6
 70
     1
102
RTVSPropertyOp7
 70
     1
102
RTVSPropertyOp8
 70
     1
102
RTVSPropertyOp9
 70
     1
102
RTVSPropertyOp10
 70
     1
102
RTVSPropertyOp11
 70
     1
102
RTVSPropertyOp12
 70
     1
102
RTVSPropertyOp13
 70
     1
102
RTVSPropertyOp14
 70
     1
102
RTVSPropertyOp15
 70
     1
102
RTVSPropertyOp16
 70
     1
102
RTVSPropertyOp17
 70
     1
102
RTVSPropertyOp18
 70
     1
102
RTVSPropertyOp19
 70
     1
102
RTVSPropertyOp20
 70
     1
102
RTVSPropertyOp21
 70
     1
102
RTVSPropertyOp22
 70
     1
102
RTVSPropertyOp23
 70
     1
102
RTVSPropertyOp24
 70
     1
102
RTVSPropertyOp25
 70
     1
102
RTVSPropertyOp26
 70
     1
102
RTVSPropertyOp27
 70
     1
102
RTVSPropertyOp28
 70
     1
102
RTVSPropertyOp29
 70
     1
102
RTVSPropertyOp30
 70
     1
102
RTVSPropertyOp31
 70
     1
102
RTVSPropertyOp32
 70
     1
  0
ENDSEC
  0
EOF
