  0
SECTION
  2
HEADER
  9
$ACADVER
  1
AC1015
  9
$ACADMAINTVER
 70
     6
  9
$DWGCODEPAGE
  3
ANSI_1252
  9
$INSBASE
 10
0.0
 20
0.0
 30
0.0
  9
$EXTMIN
 10
-221.9720687412947
 20
-52.4589762915689
 30
0.0
  9
$EXTMAX
 10
198.0279312587037
 20
244.5410237084311
 30
0.0
  9
$LIMMIN
 10
0.0
 20
0.0
  9
$LIMMAX
 10
12.0
 20
9.0
  9
$ORTHOMODE
 70
     0
  9
$REGENMODE
 70
     1
  9
$FILLMODE
 70
     1
  9
$QTEXTMODE
 70
     0
  9
$MIRRTEXT
 70
     1
  9
$LTSCALE
 40
1.0
  9
$ATTMODE
 70
     1
  9
$TEXTSIZE
 40
0.2
  9
$TRACEWID
 40
0.05
  9
$TEXTSTYLE
  7
Standard
  9
$CLAYER
  8
0
  9
$CELTYPE
  6
ByLayer
  9
$CECOLOR
 62
   256
  9
$CELTSCALE
 40
1.0
  9
$DISPSILH
 70
     0
  9
$DIMSCALE
 40
1.0
  9
$DIMASZ
 40
0.18
  9
$DIMEXO
 40
0.0625
  9
$DIMDLI
 40
0.38
  9
$DIMRND
 40
0.0
  9
$DIMDLE
 40
0.0
  9
$DIMEXE
 40
0.18
  9
$DIMTP
 40
0.0
  9
$DIMTM
 40
0.0
  9
$DIMTXT
 40
0.18
  9
$DIMCEN
 40
0.09
  9
$DIMTSZ
 40
0.0
  9
$DIMTOL
 70
     0
  9
$DIMLIM
 70
     0
  9
$DIMTIH
 70
     1
  9
$DIMTOH
 70
     1
  9
$DIMSE1
 70
     0
  9
$DIMSE2
 70
     0
  9
$DIMTAD
 70
     0
  9
$DIMZIN
 70
     0
  9
$DIMBLK
  1

  9
$DIMASO
 70
     1
  9
$DIMSHO
 70
     1
  9
$DIMPOST
  1

  9
$DIMAPOST
  1

  9
$DIMALT
 70
     0
  9
$DIMALTD
 70
     2
  9
$DIMALTF
 40
25.4
  9
$DIMLFAC
 40
1.0
  9
$DIMTOFL
 70
     0
  9
$DIMTVP
 40
0.0
  9
$DIMTIX
 70
     0
  9
$DIMSOXD
 70
     0
  9
$DIMSAH
 70
     0
  9
$DIMBLK1
  1

  9
$DIMBLK2
  1

  9
$DIMSTYLE
  2
Standard
  9
$DIMCLRD
 70
     0
  9
$DIMCLRE
 70
     0
  9
$DIMCLRT
 70
     0
  9
$DIMTFAC
 40
1.0
  9
$DIMGAP
 40
0.09
  9
$DIMJUST
 70
     0
  9
$DIMSD1
 70
     0
  9
$DIMSD2
 70
     0
  9
$DIMTOLJ
 70
     1
  9
$DIMTZIN
 70
     0
  9
$DIMALTZ
 70
     0
  9
$DIMALTTZ
 70
     0
  9
$DIMUPT
 70
     0
  9
$DIMDEC
 70
     4
  9
$DIMTDEC
 70
     4
  9
$DIMALTU
 70
     2
  9
$DIMALTTD
 70
     2
  9
$DIMTXSTY
  7
Standard
  9
$DIMAUNIT
 70
     0
  9
$DIMADEC
 70
     0
  9
$DIMALTRND
 40
0.0
  9
$DIMAZIN
 70
     0
  9
$DIMDSEP
 70
    46
  9
$DIMATFIT
 70
     3
  9
$DIMFRAC
 70
     0
  9
$DIMLDRBLK
  1

  9
$DIMLUNIT
 70
     2
  9
$DIMLWD
 70
    -2
  9
$DIMLWE
 70
    -2
  9
$DIMTMOVE
 70
     0
  9
$LUNITS
 70
     2
  9
$LUPREC
 70
     4
  9
$SKETCHINC
 40
0.1
  9
$FILLETRAD
 40
0.5
  9
$AUNITS
 70
     0
  9
$AUPREC
 70
     0
  9
$MENU
  1
.
  9
$ELEVATION
 40
0.0
  9
$PELEVATION
 40
0.0
  9
$THICKNESS
 40
0.0
  9
$LIMCHECK
 70
     0
  9
$CHAMFERA
 40
0.5
  9
$CHAMFERB
 40
0.5
  9
$CHAMFERC
 40
1.0
  9
$CHAMFERD
 40
0.0
  9
$SKPOLY
 70
     0
  9
$TDCREATE
 40
2456392.490383368
  9
$TDUCREATE
 40
2456392.407050034
  9
$TDUPDATE
 40
2456392.490385174
  9
$TDUUPDATE
 40
2456392.40705184
  9
$TDINDWG
 40
0.0000000116
  9
$TDUSRTIMER
 40
0.0000000116
  9
$USRTIMER
 70
     1
  9
$ANGBASE
 50
0.0
  9
$ANGDIR
 70
     0
  9
$PDMODE
 70
     0
  9
$PDSIZE
 40
0.0
  9
$PLINEWID
 40
0.0
  9
$SPLFRAME
 70
     0
  9
$SPLINETYPE
 70
     6
  9
$SPLINESEGS
 70
     8
  9
$HANDSEED
  5
3D4
  9
$SURFTAB1
 70
     6
  9
$SURFTAB2
 70
     6
  9
$SURFTYPE
 70
     6
  9
$SURFU
 70
     6
  9
$SURFV
 70
     6
  9
$UCSBASE
  2

  9
$UCSNAME
  2

  9
$UCSORG
 10
0.0
 20
0.0
 30
0.0
  9
$UCSXDIR
 10
1.0
 20
0.0
 30
0.0
  9
$UCSYDIR
 10
0.0
 20
1.0
 30
0.0
  9
$UCSORTHOREF
  2

  9
$UCSORTHOVIEW
 70
     0
  9
$UCSORGTOP
 10
0.0
 20
0.0
 30
0.0
  9
$UCSORGBOTTOM
 10
0.0
 20
0.0
 30
0.0
  9
$UCSORGLEFT
 10
0.0
 20
0.0
 30
0.0
  9
$UCSORGRIGHT
 10
0.0
 20
0.0
 30
0.0
  9
$UCSORGFRONT
 10
0.0
 20
0.0
 30
0.0
  9
$UCSORGBACK
 10
0.0
 20
0.0
 30
0.0
  9
$PUCSBASE
  2

  9
$PUCSNAME
  2

  9
$PUCSORG
 10
0.0
 20
0.0
 30
0.0
  9
$PUCSXDIR
 10
1.0
 20
0.0
 30
0.0
  9
$PUCSYDIR
 10
0.0
 20
1.0
 30
0.0
  9
$PUCSORTHOREF
  2

  9
$PUCSORTHOVIEW
 70
     0
  9
$PUCSORGTOP
 10
0.0
 20
0.0
 30
0.0
  9
$PUCSORGBOTTOM
 10
0.0
 20
0.0
 30
0.0
  9
$PUCSORGLEFT
 10
0.0
 20
0.0
 30
0.0
  9
$PUCSORGRIGHT
 10
0.0
 20
0.0
 30
0.0
  9
$PUCSORGFRONT
 10
0.0
 20
0.0
 30
0.0
  9
$PUCSORGBACK
 10
0.0
 20
0.0
 30
0.0
  9
$USERI1
 70
     0
  9
$USERI2
 70
     0
  9
$USERI3
 70
     0
  9
$USERI4
 70
     0
  9
$USERI5
 70
     0
  9
$USERR1
 40
18.1
  9
$USERR2
 40
0.0
  9
$USERR3
 40
0.0
  9
$USERR4
 40
0.0
  9
$USERR5
 40
0.0
  9
$WORLDVIEW
 70
     1
  9
$SHADEDGE
 70
     3
  9
$SHADEDIF
 70
    70
  9
$TILEMODE
 70
     1
  9
$MAXACTVP
 70
    64
  9
$PINSBASE
 10
0.0
 20
0.0
 30
0.0
  9
$PLIMCHECK
 70
     0
  9
$PEXTMIN
 10
1.00000000000000E+20
 20
1.00000000000000E+20
 30
1.00000000000000E+20
  9
$PEXTMAX
 10
-1.00000000000000E+20
 20
-1.00000000000000E+20
 30
-1.00000000000000E+20
  9
$PLIMMIN
 10
0.0
 20
0.0
  9
$PLIMMAX
 10
12.0
 20
9.0
  9
$UNITMODE
 70
     0
  9
$VISRETAIN
 70
     1
  9
$PLINEGEN
 70
     0
  9
$PSLTSCALE
 70
     1
  9
$TREEDEPTH
 70
  3020
  9
$CMLSTYLE
  2
Standard
  9
$CMLJUST
 70
     0
  9
$CMLSCALE
 40
1.0
  9
$PROXYGRAPHICS
 70
     1
  9
$MEASUREMENT
 70
     1
  9
$CELWEIGHT
370
    -1
  9
$ENDCAPS
280
     0
  9
$JOINSTYLE
280
     0
  9
$LWDISPLAY
290
     0
  9
$INSUNITS
 70
     4
  9
$HYPERLINKBASE
  1

  9
$STYLESHEET
  1

  9
$XEDIT
290
     1
  9
$CEPSNTYPE
380
     0
  9
$PSTYLEMODE
290
     1
  9
$FINGERPRINTGUID
  2
{AE2DC990-43A0-4665-A397-4C45F788D633}
  9
$VERSIONGUID
  2
{FAEB1C32-E019-11D5-929B-00C0DF256EC4}
  9
$EXTNAMES
290
     1
  9
$PSVPSCALE
 40
0.0
  9
$OLESTARTUP
290
     0
  0
ENDSEC
  0
SECTION
  2
CLASSES
  0
CLASS
  1
ACDBDICTIONARYWDFLT
  2
AcDbDictionaryWithDefault
  3
ObjectDBX Classes
 90
        0
280
     0
281
     0
  0
CLASS
  1
VISUALSTYLE
  2
AcDbVisualStyle
  3
ObjectDBX Classes
 90
     4095
280
     0
281
     0
  0
CLASS
  1
MATERIAL
  2
AcDbMaterial
  3
ObjectDBX Classes
 90
     1153
280
     0
281
     0
  0
CLASS
  1
DICTIONARYVAR
  2
AcDbDictionaryVar
  3
ObjectDBX Classes
 90
        0
280
     0
281
     0
  0
CLASS
  1
ACDBPLACEHOLDER
  2
AcDbPlaceHolder
  3
ObjectDBX Classes
 90
        0
280
     0
281
     0
  0
CLASS
  1
LAYOUT
  2
AcDbLayout
  3
ObjectDBX Classes
 90
        0
280
     0
281
     0
  0
ENDSEC
  0
SECTION
  2
TABLES
  0
TABLE
  2
VPORT
  5
8
330
0
100
AcDbSymbolTable
 70
     1
  0
VPORT
  5
29
330
8
100
AcDbSymbolTableRecord
100
AcDbViewportTableRecord
  2
*Active
 70
     0
 10
0.0
 20
0.0
 11
1.0
 21
1.0
 12
-11.9720687412955
 22
96.04102370843111
 13
0.0
 23
0.0
 14
0.5
 24
0.5
 15
0.5
 25
0.5
 16
0.0
 26
0.0
 36
1.0
 17
0.0
 27
0.0
 37
0.0
 40
326.7
 41
1.60267857142857
 42
50.0
 43
0.0
 44
0.0
 50
0.0
 51
0.0
 71
     0
 72
   100
 73
     1
 74
     3
 75
     0
 76
     0
 77
     0
 78
     0
281
     0
 65
     1
110
0.0
120
0.0
130
0.0
111
1.0
121
0.0
131
0.0
112
0.0
122
1.0
132
0.0
 79
     0
146
0.0
  0
ENDTAB
  0
TABLE
  2
LTYPE
  5
5
330
0
100
AcDbSymbolTable
 70
     8
  0
LTYPE
  5
14
330
5
100
AcDbSymbolTableRecord
100
AcDbLinetypeTableRecord
  2
ByBlock
 70
     0
  3

 72
    65
 73
     0
 40
0.0
  0
LTYPE
  5
15
330
5
100
AcDbSymbolTableRecord
100
AcDbLinetypeTableRecord
  2
ByLayer
 70
     0
  3

 72
    65
 73
     0
 40
0.0
  0
LTYPE
  5
16
330
5
100
AcDbSymbolTableRecord
100
AcDbLinetypeTableRecord
  2
Continuous
 70
     0
  3
Solid line
 72
    65
 73
     0
 40
0.0
  0
LTYPE
  5
3F
330
5
100
AcDbSymbolTableRecord
100
AcDbLinetypeTableRecord
  2
DASHED
 70
     0
  3
Dashed
 72
    65
 73
     2
 40
15.0
 49
7.0
 74
     0
 49
-8.0
 74
     0
  0
LTYPE
  5
40
330
5
100
AcDbSymbolTableRecord
100
AcDbLinetypeTableRecord
  2
DOTTED
 70
     0
  3
Dotted
 72
    65
 73
     2
 40
1.0
 49
0.0
 74
     0
 49
-1.0
 74
     0
  0
LTYPE
  5
41
330
5
100
AcDbSymbolTableRecord
100
AcDbLinetypeTableRecord
  2
DOT_CENTER
 70
     0
  3
Dot_Center
 72
    65
 73
     4
 40
14.0
 49
12.0
 74
     0
 49
-1.0
 74
     0
 49
0.0
 74
     0
 49
-1.0
 74
     0
  0
LTYPE
  5
42
330
5
100
AcDbSymbolTableRecord
100
AcDbLinetypeTableRecord
  2
LONG_DASHED
 70
     0
  3
Long_Dashed
 72
    65
 73
     2
 40
15.0
 49
10.0
 74
     0
 49
-5.0
 74
     0
  0
LTYPE
  5
43
330
5
100
AcDbSymbolTableRecord
100
AcDbLinetypeTableRecord
  2
DASH_CENTER
 70
     0
  3
Dash_Center
 72
    65
 73
     4
 40
14.0
 49
11.0
 74
     0
 49
-1.0
 74
     0
 49
1.0
 74
     0
 49
-1.0
 74
     0
  0
LTYPE
  5
44
330
5
100
AcDbSymbolTableRecord
100
AcDbLinetypeTableRecord
  2
PHANTOM
 70
     0
  3
Phantom
 72
    65
 73
     6
 40
13.0
 49
10.0
 74
     0
 49
-1.0
 74
     0
 49
0.0
 74
     0
 49
-1.0
 74
     0
 49
0.0
 74
     0
 49
-1.0
 74
     0
  0
LTYPE
  5
45
330
5
100
AcDbSymbolTableRecord
100
AcDbLinetypeTableRecord
  2
CENTER_DASH_DASH
 70
     0
  3
Center_Dash_Dash
 72
    65
 73
     6
 40
14.0
 49
9.0
 74
     0
 49
-1.0
 74
     0
 49
1.0
 74
     0
 49
-1.0
 74
     0
 49
1.0
 74
     0
 49
-1.0
 74
     0
  0
ENDTAB
  0
TABLE
  2
LAYER
  5
2
330
0
100
AcDbSymbolTable
 70
     2
  0
LAYER
  5
10
330
2
100
AcDbSymbolTableRecord
100
AcDbLayerTableRecord
  2
0
 70
     0
 62
     7
  6
Continuous
370
    -3
390
F
  0
LAYER
  5
46
330
2
100
AcDbSymbolTableRecord
100
AcDbLayerTableRecord
  2
1
 70
     0
 62
     7
  6
Continuous
370
    -3
390
F
  0
ENDTAB
  0
TABLE
  2
STYLE
  5
3
330
0
100
AcDbSymbolTable
 70
     9
  0
STYLE
  5
11
330
3
100
AcDbSymbolTableRecord
100
AcDbTextStyleTableRecord
  2
Standard
 70
     0
 40
0.0
 41
1.0
 50
0.0
 71
     0
 42
0.2
  3
txt
  4

  0
STYLE
  5
20C
330
3
100
AcDbSymbolTableRecord
100
AcDbTextStyleTableRecord
  2
CONVERTER_11
 70
     0
 40
0.0
 41
0.765
 50
0.0
 71
     0
 42
0.2
  3
txt.shx
  4

  0
STYLE
  5
213
330
3
100
AcDbSymbolTableRecord
100
AcDbTextStyleTableRecord
  2
CONVERTER_12
 70
     0
 40
0.0
 41
0.9
 50
0.0
 71
     0
 42
0.2
  3
txt.shx
  4

  0
STYLE
  5
234
330
3
100
AcDbSymbolTableRecord
100
AcDbTextStyleTableRecord
  2
CONVERTER_13
 70
     0
 40
0.0
 41
0.855
 50
0.0
 71
     0
 42
0.2
  3
txt.shx
  4

  0
STYLE
  5
250
330
3
100
AcDbSymbolTableRecord
100
AcDbTextStyleTableRecord
  2
CONVERTER_14
 70
     0
 40
0.0
 41
0.72
 50
0.0
 71
     0
 42
0.2
  3
txt.shx
  4

  0
STYLE
  5
252
330
3
100
AcDbSymbolTableRecord
100
AcDbTextStyleTableRecord
  2
CONVERTER_15
 70
     0
 40
0.0
 41
0.54
 50
0.0
 71
     0
 42
0.2
  3
txt.shx
  4

  0
STYLE
  5
254
330
3
100
AcDbSymbolTableRecord
100
AcDbTextStyleTableRecord
  2
CONVERTER_16
 70
     0
 40
0.0
 41
0.81
 50
0.0
 71
     0
 42
0.2
  3
txt.shx
  4

  0
STYLE
  5
26C
330
3
100
AcDbSymbolTableRecord
100
AcDbTextStyleTableRecord
  2
CONVERTER_17
 70
     0
 40
0.0
 41
0.45
 50
0.0
 71
     0
 42
0.2
  3
txt.shx
  4

  0
STYLE
  5
26F
330
3
100
AcDbSymbolTableRecord
100
AcDbTextStyleTableRecord
  2
CONVERTER_18
 70
     0
 40
0.0
 41
0.63
 50
0.0
 71
     0
 42
0.2
  3
txt.shx
  4

  0
ENDTAB
  0
TABLE
  2
VIEW
  5
6
330
0
100
AcDbSymbolTable
 70
     0
  0
ENDTAB
  0
TABLE
  2
UCS
  5
7
330
0
100
AcDbSymbolTable
 70
     0
  0
ENDTAB
  0
TABLE
  2
APPID
  5
9
330
0
100
AcDbSymbolTable
 70
     1
  0
APPID
  5
12
330
9
100
AcDbSymbolTableRecord
100
AcDbRegAppTableRecord
  2
ACAD
 70
     0
  0
ENDTAB
  0
TABLE
  2
DIMSTYLE
  5
A
330
0
100
AcDbSymbolTable
 70
     4
100
AcDbDimStyleTable
  0
DIMSTYLE
105
27
330
A
100
AcDbSymbolTableRecord
100
AcDbDimStyleTableRecord
  2
Standard
 70
     0
178
     0
340
11
  0
DIMSTYLE
105
358
102
{ACAD_REACTORS
330
359
102
}
330
A
100
AcDbSymbolTableRecord
100
AcDbDimStyleTableRecord
  2
ME10_DIM_10
 70
     0
 41
3.5
 42
0.0
 44
2.0
 73
     0
 74
     0
 77
     1
 78
     8
140
3.5
147
2.0
172
     1
173
     1
174
     1
175
     1
176
     2
177
     2
178
     3
340
213
  0
DIMSTYLE
105
39C
102
{ACAD_REACTORS
330
39D
102
}
330
A
100
AcDbSymbolTableRecord
100
AcDbDimStyleTableRecord
  2
ME10_DIM_11
 70
     0
 41
3.5
 42
0.0
 44
2.0
 73
     0
 74
     0
 77
     1
 78
     8
140
3.5
147
2.0
172
     1
173
     1
174
     1
175
     1
176
     2
177
     2
271
     1
178
     3
271
     1
340
213
  0
DIMSTYLE
105
3A7
102
{ACAD_REACTORS
330
3A8
102
}
330
A
100
AcDbSymbolTableRecord
100
AcDbDimStyleTableRecord
  2
ME10_DIM_12
 70
     0
 41
3.5
 42
0.0
 44
2.0
 73
     0
 74
     0
 77
     1
 78
     8
140
3.5
147
2.0
172
     1
173
     1
174
     1
175
     1
176
     2
177
     2
271
     0
178
     3
271
     0
340
213
  0
ENDTAB
  0
TABLE
  2
BLOCK_RECORD
  5
1
330
0
100
AcDbSymbolTable
 70
    19
  0
BLOCK_RECORD
  5
1F
330
1
100
AcDbSymbolTableRecord
100
AcDbBlockTableRecord
  2
*Model_Space
340
22
  0
BLOCK_RECORD
  5
1B
330
1
100
AcDbSymbolTableRecord
100
AcDbBlockTableRecord
  2
*Paper_Space
340
1E
  0
BLOCK_RECORD
  5
23
330
1
100
AcDbSymbolTableRecord
100
AcDbBlockTableRecord
  2
*Paper_Space0
340
26
  0
BLOCK_RECORD
  5
47
330
1
100
AcDbSymbolTableRecord
100
AcDbBlockTableRecord
  2
_rahmen
340
0
102
{BLKREFS
331
4E
102
}
  0
BLOCK_RECORD
  5
4A
330
1
100
AcDbSymbolTableRecord
100
AcDbBlockTableRecord
  2
_punkt
340
0
102
{BLKREFS
331
4F
102
}
  0
BLOCK_RECORD
  5
4D
330
1
100
AcDbSymbolTableRecord
100
AcDbBlockTableRecord
  2
A3I
340
0
102
{BLKREFS
331
7C
102
}
  0
BLOCK_RECORD
  5
52
330
1
100
AcDbSymbolTableRecord
100
AcDbBlockTableRecord
  2
1409820_HC_B24_TMS_EEE_PR_DI-select__1
340
0
102
{BLKREFS
331
56
102
}
  0
BLOCK_RECORD
  5
55
330
1
100
AcDbSymbolTableRecord
100
AcDbBlockTableRecord
  2
Drfsicht1
340
0
102
{BLKREFS
331
7D
102
}
  0
BLOCK_RECORD
  5
59
330
1
100
AcDbSymbolTableRecord
100
AcDbBlockTableRecord
  2
1409820_HC_B24_TMS_EEE_PR_DI-select__2
340
0
102
{BLKREFS
331
5D
102
}
  0
BLOCK_RECORD
  5
5C
330
1
100
AcDbSymbolTableRecord
100
AcDbBlockTableRecord
  2
Rckans1
340
0
102
{BLKREFS
331
7E
102
}
  0
BLOCK_RECORD
  5
60
330
1
100
AcDbSymbolTableRecord
100
AcDbBlockTableRecord
  2
1409820_HC_B24_TMS_EEE_PR_DI-select__3
340
0
102
{BLKREFS
331
64
102
}
  0
BLOCK_RECORD
  5
63
330
1
100
AcDbSymbolTableRecord
100
AcDbBlockTableRecord
  2
SA_Links1
340
0
102
{BLKREFS
331
7F
102
}
  0
BLOCK_RECORD
  5
67
330
1
100
AcDbSymbolTableRecord
100
AcDbBlockTableRecord
  2
1409820_HC_B24_TMS_EEE_PR_DI-select__4
340
0
102
{BLKREFS
331
6B
102
}
  0
BLOCK_RECORD
  5
6A
330
1
100
AcDbSymbolTableRecord
100
AcDbBlockTableRecord
  2
Allg1
340
0
102
{BLKREFS
331
80
102
}
  0
BLOCK_RECORD
  5
6E
330
1
100
AcDbSymbolTableRecord
100
AcDbBlockTableRecord
  2
1409820_HC_B24_TMS_EEE_PR_DI-select__5
340
0
102
{BLKREFS
331
72
102
}
  0
BLOCK_RECORD
  5
71
330
1
100
AcDbSymbolTableRecord
100
AcDbBlockTableRecord
  2
SA_Rechts1
340
0
102
{BLKREFS
331
81
102
}
  0
BLOCK_RECORD
  5
75
330
1
100
AcDbSymbolTableRecord
100
AcDbBlockTableRecord
  2
1409820_HC_B24_TMS_EEE_PR_DI-select__6
340
0
102
{BLKREFS
331
79
102
}
  0
BLOCK_RECORD
  5
78
330
1
100
AcDbSymbolTableRecord
100
AcDbBlockTableRecord
  2
Vordans1
340
0
102
{BLKREFS
331
82
102
}
  0
BLOCK_RECORD
  5
34D
330
1
100
AcDbSymbolTableRecord
100
AcDbBlockTableRecord
  2
*D16
340
0
  0
BLOCK_RECORD
  5
393
330
1
100
AcDbSymbolTableRecord
100
AcDbBlockTableRecord
  2
*D17
340
0
  0
BLOCK_RECORD
  5
39E
330
1
100
AcDbSymbolTableRecord
100
AcDbBlockTableRecord
  2
*D18
340
0
  0
ENDTAB
  0
ENDSEC
  0
SECTION
  2
BLOCKS
  0
BLOCK
  5
20
330
1F
100
AcDbEntity
  8
0
100
AcDbBlockBegin
  2
*Model_Space
 70
     0
 10
0.0
 20
0.0
 30
0.0
  3
*Model_Space
  1

  0
ENDBLK
  5
21
330
1F
100
AcDbEntity
  8
0
100
AcDbBlockEnd
  0
BLOCK
  5
1C
330
1B
100
AcDbEntity
 67
     1
  8
0
100
AcDbBlockBegin
  2
*Paper_Space
 70
     0
 10
0.0
 20
0.0
 30
0.0
  3
*Paper_Space
  1

  0
ENDBLK
  5
1D
330
1B
100
AcDbEntity
 67
     1
  8
0
100
AcDbBlockEnd
  0
BLOCK
  5
24
330
23
100
AcDbEntity
  8
0
100
AcDbBlockBegin
  2
*Paper_Space0
 70
     0
 10
0.0
 20
0.0
 30
0.0
  3
*Paper_Space0
  1

  0
ENDBLK
  5
25
330
23
100
AcDbEntity
  8
0
100
AcDbBlockEnd
  0
BLOCK
  5
48
330
47
100
AcDbEntity
  8
0
100
AcDbBlockBegin
  2
_rahmen
 70
     0
 10
193.0279312587061
 20
-52.4589762915689
 30
0.0
  3
_rahmen
  1

  0
POINT
  5
83
330
47
100
AcDbEntity
  8
1
 62
     3
 60
     1
100
AcDbPoint
 10
129.5279312587084
 20
-26.20897629156947
 30
0.0
  0
LINE
  5
84
102
{ACAD_REACTORS
330
275
330
276
102
}
330
47
100
AcDbEntity
  8
0
  6
Continuous
 62
     2
100
AcDbLine
 10
77.970258088787
 20
-39.95047289020239
 30
0.0
 11
77.970258088787
 21
-39.22938445482784
 31
0.0
  0
LINE
  5
85
102
{ACAD_REACTORS
330
275
330
276
102
}
330
47
100
AcDbEntity
  8
0
  6
Continuous
 62
     2
100
AcDbLine
 10
77.970258088787
 20
-40.7436701691138
 30
0.0
 11
77.970258088787
 21
-41.46475860448847
 31
0.0
  0
LINE
  5
86
102
{ACAD_REACTORS
330
277
330
278
102
}
330
47
100
AcDbEntity
  8
0
  6
Continuous
 62
     2
100
AcDbLine
 10
90.64219539150639
 20
-39.73414635959036
 30
0.0
 11
91.5542939861908
 21
-39.73414635959036
 31
0.0
  0
LINE
  5
87
102
{ACAD_REACTORS
330
277
330
278
102
}
330
47
100
AcDbEntity
  8
0
  6
Continuous
 62
     2
100
AcDbLine
 10
91.27827584023481
 20
-40.74367016911425
 30
0.0
 11
91.27827584023481
 21
-41.46475860448892
 31
0.0
  0
LINE
  5
88
102
{ACAD_REACTORS
330
281
330
282
102
}
330
47
100
AcDbEntity
  8
0
  6
Continuous
 62
     2
100
AcDbLine
 10
89.7404604556234
 20
-38.8327858153864
 30
0.0
 11
90.8957935522682
 21
-37.52629077920871
 31
0.0
  0
LINE
  5
89
102
{ACAD_REACTORS
330
281
330
282
102
}
330
47
100
AcDbEntity
  8
0
  6
Continuous
 62
     2
100
AcDbLine
 10
89.8193227830389
 20
-36.30897629157552
 30
0.0
 11
90.8957935522682
 21
-37.52629077920871
 31
0.0
  0
LINE
  5
8A
102
{ACAD_REACTORS
330
281
330
282
102
}
330
47
100
AcDbEntity
  8
0
  6
Continuous
 62
     2
100
AcDbLine
 10
91.97226432149671
 20
-36.30897629157552
 30
0.0
 11
93.13154053451089
 21
-36.30897629157552
 31
0.0
  0
LINE
  5
8B
102
{ACAD_REACTORS
330
281
330
282
102
}
330
47
100
AcDbEntity
  8
0
  6
Continuous
 62
     2
100
AcDbLine
 10
90.89973666863841
 20
-38.8327858153864
 30
0.0
 11
91.4754316587753
 21
-38.18176781101137
 31
0.0
  0
LINE
  5
8C
102
{ACAD_REACTORS
330
281
330
282
102
}
330
47
100
AcDbEntity
  8
0
  6
Continuous
 62
     2
100
AcDbLine
 10
90.89973666863841
 20
-38.8327858153864
 30
0.0
 11
89.7404604556234
 21
-38.8327858153864
 31
0.0
  0
LINE
  5
8D
102
{ACAD_REACTORS
330
283
330
284
102
}
330
47
100
AcDbEntity
  8
0
  6
Continuous
 62
     2
100
AcDbLine
 10
89.6418825463532
 20
-38.8327858153864
 30
0.0
 11
88.6166722899458
 21
-38.8327858153864
 31
0.0
  0
LINE
  5
8E
102
{ACAD_REACTORS
330
285
330
286
102
}
330
47
100
AcDbEntity
  8
0
  6
Continuous
 62
     2
100
AcDbLine
 10
87.89933377080939
 20
-40.59945248203918
 30
0.0
 11
87.6512633268506
 21
-39.96489465890967
 31
0.0
  0
LINE
  5
8F
102
{ACAD_REACTORS
330
285
330
286
102
}
330
47
100
AcDbEntity
  8
0
  6
Continuous
 62
     2
100
AcDbLine
 10
87.40319288289001
 20
-40.59945248203918
 30
0.0
 11
87.89933377080939
 21
-40.59945248203918
 31
0.0
  0
LINE
  5
90
102
{ACAD_REACTORS
330
285
330
286
102
}
330
47
100
AcDbEntity
  8
0
  6
Continuous
 62
     2
100
AcDbLine
 10
85.98332510200251
 20
-41.60897629156354
 30
0.0
 11
87.00853535840992
 21
-41.60897629156354
 31
0.0
  0
LINE
  5
91
102
{ACAD_REACTORS
330
285
330
286
102
}
330
47
100
AcDbEntity
  8
0
  6
Continuous
 62
     2
100
AcDbLine
 10
87.13865819864651
 20
-39.08516676775265
 30
0.0
 11
88.1638684550538
 21
-39.08516676775265
 31
0.0
  0
LINE
  5
92
102
{ACAD_REACTORS
330
285
330
286
102
}
330
47
100
AcDbEntity
  8
0
  6
Continuous
 62
     2
100
AcDbLine
 10
88.1638684550538
 20
-39.08516676775265
 30
0.0
 11
89.31920155169871
 21
-41.60897629156354
 31
0.0
  0
LINE
  5
93
102
{ACAD_REACTORS
330
285
330
286
102
}
330
47
100
AcDbEntity
  8
0
  6
Continuous
 62
     2
100
AcDbLine
 10
88.29399129529051
 20
-41.60897629156354
 30
0.0
 11
88.1192143915915
 21
-41.16190146163139
 31
0.0
  0
LINE
  5
94
102
{ACAD_REACTORS
330
287
330
288
102
}
330
47
100
AcDbEntity
  8
0
  6
Continuous
 62
     2
100
AcDbLine
 10
84.8705870014177
 20
-41.60897629156354
 30
0.0
 11
85.8563660941173
 21
-41.60897629156354
 31
0.0
  0
LINE
  5
95
102
{ACAD_REACTORS
330
287
330
288
102
}
330
47
100
AcDbEntity
  8
0
  6
Continuous
 62
     2
100
AcDbLine
 10
84.8705870014177
 20
-39.73414635959036
 30
0.0
 11
84.8705870014177
 21
-41.60897629156354
 31
0.0
  0
LINE
  5
96
102
{ACAD_REACTORS
330
287
330
288
102
}
330
47
100
AcDbEntity
  8
0
  6
Continuous
 62
     2
100
AcDbLine
 10
84.20025721838081
 20
-39.08516676775265
 30
0.0
 11
84.20025721838081
 21
-39.73414635959036
 31
0.0
  0
LINE
  5
97
102
{ACAD_REACTORS
330
289
330
28A
102
}
330
47
100
AcDbEntity
  8
0
  6
Continuous
 62
     2
100
AcDbLine
 10
85.4227480295979
 20
-38.8327858153864
 30
0.0
 11
86.4085271222975
 21
-38.8327858153864
 31
0.0
  0
LINE
  5
98
102
{ACAD_REACTORS
330
289
330
28A
102
}
330
47
100
AcDbEntity
  8
0
  6
Continuous
 62
     2
100
AcDbLine
 10
87.43373737870581
 20
-37.39060894463763
 30
0.0
 11
86.4085271222975
 21
-36.30897629157552
 31
0.0
  0
LINE
  5
99
102
{ACAD_REACTORS
330
289
330
28A
102
}
330
47
100
AcDbEntity
  8
0
  6
Continuous
 62
     2
100
AcDbLine
 10
88.41951647140539
 20
-36.30897629157552
 30
0.0
 11
87.43373737870581
 21
-36.30897629157552
 31
0.0
  0
LINE
  5
9A
102
{ACAD_REACTORS
330
289
330
28A
102
}
330
47
100
AcDbEntity
  8
0
  6
Continuous
 62
     2
100
AcDbLine
 10
88.41951647140539
 20
-38.8327858153864
 30
0.0
 11
88.41951647140539
 21
-36.30897629157552
 31
0.0
  0
LINE
  5
9B
102
{ACAD_REACTORS
330
289
330
28A
102
}
330
47
100
AcDbEntity
  8
0
  6
Continuous
 62
     2
100
AcDbLine
 10
87.43373737870581
 20
-38.8327858153864
 30
0.0
 11
88.41951647140539
 21
-38.8327858153864
 31
0.0
  0
LINE
  5
9C
102
{ACAD_REACTORS
330
289
330
28A
102
}
330
47
100
AcDbEntity
  8
0
  6
Continuous
 62
     2
100
AcDbLine
 10
86.4085271222975
 20
-37.75115316232474
 30
0.0
 11
87.43373737870581
 21
-38.8327858153864
 31
0.0
  0
LINE
  5
9D
102
{ACAD_REACTORS
330
28B
330
28C
102
}
330
47
100
AcDbEntity
  8
0
  6
Continuous
 62
     2
100
AcDbLine
 10
83.0961846345572
 20
-40.16679942081477
 30
0.0
 11
82.07097437814991
 21
-39.08516676775265
 31
0.0
  0
LINE
  5
9E
102
{ACAD_REACTORS
330
28B
330
28C
102
}
330
47
100
AcDbEntity
  8
0
  6
Continuous
 62
     2
100
AcDbLine
 10
83.0961846345572
 20
-39.08516676775265
 30
0.0
 11
83.0961846345572
 21
-40.16679942081477
 31
0.0
  0
LINE
  5
9F
102
{ACAD_REACTORS
330
28B
330
28C
102
}
330
47
100
AcDbEntity
  8
0
  6
Continuous
 62
     2
100
AcDbLine
 10
84.0819637272568
 20
-39.08516676775265
 30
0.0
 11
83.0961846345572
 21
-39.08516676775265
 31
0.0
  0
LINE
  5
A0
102
{ACAD_REACTORS
330
28B
330
28C
102
}
330
47
100
AcDbEntity
  8
0
  6
Continuous
 62
     2
100
AcDbLine
 10
84.0819637272568
 20
-41.60897629156354
 30
0.0
 11
84.0819637272568
 21
-39.08516676775265
 31
0.0
  0
LINE
  5
A1
102
{ACAD_REACTORS
330
28B
330
28C
102
}
330
47
100
AcDbEntity
  8
0
  6
Continuous
 62
     2
100
AcDbLine
 10
82.07097437814991
 20
-40.52734363850188
 30
0.0
 11
83.0961846345572
 21
-41.60897629156354
 31
0.0
  0
LINE
  5
A2
102
{ACAD_REACTORS
330
28B
330
28C
102
}
330
47
100
AcDbEntity
  8
0
  6
Continuous
 62
     2
100
AcDbLine
 10
82.07097437814991
 20
-41.60897629156354
 30
0.0
 11
82.07097437814991
 21
-40.52734363850188
 31
0.0
  0
LINE
  5
A3
102
{ACAD_REACTORS
330
27B
330
27C
102
}
330
47
100
AcDbEntity
  8
0
  6
Continuous
 62
     2
100
AcDbLine
 10
84.1215196272338
 20
-36.88584703987546
 30
0.0
 11
85.22559221105831
 21
-36.88584703987546
 31
0.0
  0
LINE
  5
A4
102
{ACAD_REACTORS
330
27B
330
27C
102
}
330
47
100
AcDbEntity
  8
0
  6
Continuous
 62
     2
100
AcDbLine
 10
84.1215196272338
 20
-38.25591506708692
 30
0.0
 11
84.1215196272338
 21
-37.85931642763093
 31
0.0
  0
LINE
  5
A5
102
{ACAD_REACTORS
330
27B
330
27C
102
}
330
47
100
AcDbEntity
  8
0
  6
Continuous
 62
     2
100
AcDbLine
 10
85.22559221105831
 20
-38.25591506708692
 30
0.0
 11
84.1215196272338
 21
-38.25591506708692
 31
0.0
  0
LINE
  5
A6
102
{ACAD_REACTORS
330
27B
330
27C
102
}
330
47
100
AcDbEntity
  8
0
  6
Continuous
 62
     2
100
AcDbLine
 10
85.22559221105831
 20
-38.8327858153864
 30
0.0
 11
85.22559221105831
 21
-38.25591506708692
 31
0.0
  0
LINE
  5
A7
102
{ACAD_REACTORS
330
27B
330
27C
102
}
330
47
100
AcDbEntity
  8
0
  6
Continuous
 62
     2
100
AcDbLine
 10
82.6220221914046
 20
-38.8327858153864
 30
0.0
 11
85.22559221105831
 21
-38.8327858153864
 31
0.0
  0
LINE
  5
A8
102
{ACAD_REACTORS
330
27B
330
27C
102
}
330
47
100
AcDbEntity
  8
0
  6
Continuous
 62
     2
100
AcDbLine
 10
82.6220221914046
 20
-36.30897629157552
 30
0.0
 11
85.22559221105831
 21
-36.30897629157552
 31
0.0
  0
LINE
  5
A9
102
{ACAD_REACTORS
330
27B
330
27C
102
}
330
47
100
AcDbEntity
  8
0
  6
Continuous
 62
     2
100
AcDbLine
 10
85.22559221105831
 20
-36.88584703987546
 30
0.0
 11
85.22559221105831
 21
-36.30897629157552
 31
0.0
  0
LINE
  5
AA
102
{ACAD_REACTORS
330
28D
330
28E
102
}
330
47
100
AcDbEntity
  8
0
  6
Continuous
 62
     2
100
AcDbLine
 10
80.2572655838508
 20
-37.19230962490987
 30
0.0
 11
80.2572655838508
 21
-36.30897629157552
 31
0.0
  0
LINE
  5
AB
102
{ACAD_REACTORS
330
28D
330
28E
102
}
330
47
100
AcDbEntity
  8
0
  6
Continuous
 62
     2
100
AcDbLine
 10
80.2572655838508
 20
-36.30897629157552
 30
0.0
 11
81.2430446765504
 21
-36.30897629157552
 31
0.0
  0
LINE
  5
AC
102
{ACAD_REACTORS
330
28D
330
28E
102
}
330
47
100
AcDbEntity
  8
0
  6
Continuous
 62
     2
100
AcDbLine
 10
80.2572655838508
 20
-37.89537084939981
 30
0.0
 11
79.3897799822744
 21
-37.89537084939981
 31
0.0
  0
LINE
  5
AD
102
{ACAD_REACTORS
330
28D
330
28E
102
}
330
47
100
AcDbEntity
  8
0
  6
Continuous
 62
     2
100
AcDbLine
 10
79.3897799822744
 20
-37.89537084939981
 30
0.0
 11
79.3897799822744
 21
-38.8327858153864
 31
0.0
  0
LINE
  5
AE
102
{ACAD_REACTORS
330
28D
330
28E
102
}
330
47
100
AcDbEntity
  8
0
  6
Continuous
 62
     2
100
AcDbLine
 10
78.4040008895748
 20
-36.30897629157552
 30
0.0
 11
78.4040008895748
 21
-38.8327858153864
 31
0.0
  0
LINE
  5
AF
102
{ACAD_REACTORS
330
27F
330
280
102
}
330
47
100
AcDbEntity
  8
0
  6
Continuous
 62
     2
100
AcDbLine
 10
76.787323177547
 20
-37.44024364263534
 30
0.0
 11
76.787323177547
 21
-36.85699765144331
 31
0.0
  0
LINE
  5
B0
102
{ACAD_REACTORS
330
27F
330
280
102
}
330
47
100
AcDbEntity
  8
0
  6
Continuous
 62
     2
100
AcDbLine
 10
75.76211292113871
 20
-38.8327858153864
 30
0.0
 11
76.787323177547
 21
-38.8327858153864
 31
0.0
  0
LINE
  5
B1
102
{ACAD_REACTORS
330
27F
330
280
102
}
330
47
100
AcDbEntity
  8
0
  6
Continuous
 62
     2
100
AcDbLine
 10
76.787323177547
 20
-38.8327858153864
 30
0.0
 11
76.787323177547
 21
-38.05338231030886
 31
0.0
  0
LINE
  5
B2
102
{ACAD_REACTORS
330
279
330
27A
102
}
330
47
100
AcDbEntity
  8
0
  6
Continuous
 62
     2
100
AcDbLine
 10
72.204306434187
 20
-41.02008740267344
 30
0.0
 11
70.9846095242618
 21
-41.02008740267344
 31
0.0
  0
LINE
  5
B3
102
{ACAD_REACTORS
330
279
330
27A
102
}
330
47
100
AcDbEntity
  8
0
  6
Continuous
 62
     2
100
AcDbLine
 10
70.1431720927499
 20
-36.65959167620521
 30
0.0
 11
70.1431720927499
 21
-41.25836090694919
 31
0.0
  0
LINE
  5
B4
102
{ACAD_REACTORS
330
279
330
27A
102
}
330
47
100
AcDbEntity
  8
0
  6
Continuous
 62
     2
100
AcDbLine
 10
70.49378747736381
 20
-36.30897629159053
 30
0.0
 11
75.01718589944389
 21
-36.30897629159053
 31
0.0
  0
LINE
  5
B5
102
{ACAD_REACTORS
330
279
330
27A
102
}
330
47
100
AcDbEntity
  8
0
  6
Continuous
 62
     2
100
AcDbLine
 10
75.36780128405871
 20
-36.65959167620521
 30
0.0
 11
75.36780128405871
 21
-41.25836090694919
 31
0.0
  0
LINE
  5
B6
102
{ACAD_REACTORS
330
279
330
27A
102
}
330
47
100
AcDbEntity
  8
0
  6
Continuous
 62
     2
100
AcDbLine
 10
75.01718589944389
 20
-41.60897629156354
 30
0.0
 11
70.49378747736381
 21
-41.60897629156354
 31
0.0
  0
LINE
  5
B7
102
{ACAD_REACTORS
330
279
330
27A
102
}
330
47
100
AcDbEntity
  8
0
  6
Continuous
 62
     2
100
AcDbLine
 10
72.46522951110981
 20
-40.7591643257506
 30
0.0
 11
72.46522951110981
 21
-39.49406438233599
 31
0.0
  0
LINE
  5
B8
102
{ACAD_REACTORS
330
279
330
27A
102
}
330
47
100
AcDbEntity
  8
0
  6
Continuous
 62
     2
100
AcDbLine
 10
72.46522951110981
 20
-37.65798215743941
 30
0.0
 11
72.46522951110981
 21
-37.15878825738936
 31
0.0
  0
LINE
  5
B9
102
{ACAD_REACTORS
330
279
330
27A
102
}
330
47
100
AcDbEntity
  8
0
  6
Continuous
 62
     2
100
AcDbLine
 10
70.9846095242618
 20
-36.89786518046687
 30
0.0
 11
72.204306434187
 21
-36.89786518046687
 31
0.0
  0
LINE
  5
BA
102
{ACAD_REACTORS
330
279
330
27A
102
}
330
47
100
AcDbEntity
  8
0
  6
Continuous
 62
     2
100
AcDbLine
 10
70.7236864473397
 20
-37.15878825738936
 30
0.0
 11
70.7236864473397
 21
-40.7591643257506
 31
0.0
  0
LINE
  5
BB
102
{ACAD_REACTORS
330
27F
330
280
102
}
330
47
100
AcDbEntity
  8
0
  6
Continuous
 62
     2
100
AcDbLine
 10
76.787323177547
 20
-38.05338231030886
 30
0.0
 11
77.41440382860509
 21
-38.05338231030886
 31
0.0
  0
LINE
  5
BC
102
{ACAD_REACTORS
330
27F
330
280
102
}
330
47
100
AcDbEntity
  8
0
  6
Continuous
 62
     2
100
AcDbLine
 10
75.76211292113871
 20
-36.30897629157552
 30
0.0
 11
77.41440382860509
 21
-36.30897629157552
 31
0.0
  0
LINE
  5
BD
102
{ACAD_REACTORS
330
27F
330
280
102
}
330
47
100
AcDbEntity
  8
0
  6
Continuous
 62
     2
100
AcDbLine
 10
75.76211292113871
 20
-36.30897629157552
 30
0.0
 11
75.76211292113871
 21
-38.8327858153864
 31
0.0
  0
LINE
  5
BE
102
{ACAD_REACTORS
330
27F
330
280
102
}
330
47
100
AcDbEntity
  8
0
  6
Continuous
 62
     2
100
AcDbLine
 10
76.787323177547
 20
-37.44024364263534
 30
0.0
 11
77.04955050113531
 21
-37.44024364263534
 31
0.0
  0
LINE
  5
BF
102
{ACAD_REACTORS
330
27F
330
280
102
}
330
47
100
AcDbEntity
  8
0
  6
Continuous
 62
     2
100
AcDbLine
 10
76.787323177547
 20
-36.85699765144331
 30
0.0
 11
77.04955050113531
 21
-36.85699765144331
 31
0.0
  0
LINE
  5
C0
102
{ACAD_REACTORS
330
28D
330
28E
102
}
330
47
100
AcDbEntity
  8
0
  6
Continuous
 62
     2
100
AcDbLine
 10
79.3897799822744
 20
-37.19230962490987
 30
0.0
 11
80.2572655838508
 21
-37.19230962490987
 31
0.0
  0
LINE
  5
C1
102
{ACAD_REACTORS
330
28D
330
28E
102
}
330
47
100
AcDbEntity
  8
0
  6
Continuous
 62
     2
100
AcDbLine
 10
79.3897799822744
 20
-36.30897629157552
 30
0.0
 11
79.3897799822744
 21
-37.19230962490987
 31
0.0
  0
LINE
  5
C2
102
{ACAD_REACTORS
330
28D
330
28E
102
}
330
47
100
AcDbEntity
  8
0
  6
Continuous
 62
     2
100
AcDbLine
 10
78.4040008895748
 20
-36.30897629157552
 30
0.0
 11
79.3897799822744
 21
-36.30897629157552
 31
0.0
  0
LINE
  5
C3
102
{ACAD_REACTORS
330
28D
330
28E
102
}
330
47
100
AcDbEntity
  8
0
  6
Continuous
 62
     2
100
AcDbLine
 10
79.3897799822744
 20
-38.8327858153864
 30
0.0
 11
78.4040008895748
 21
-38.8327858153864
 31
0.0
  0
LINE
  5
C4
102
{ACAD_REACTORS
330
28D
330
28E
102
}
330
47
100
AcDbEntity
  8
0
  6
Continuous
 62
     2
100
AcDbLine
 10
80.2572655838508
 20
-38.8327858153864
 30
0.0
 11
80.2572655838508
 21
-37.89537084939981
 31
0.0
  0
LINE
  5
C5
102
{ACAD_REACTORS
330
28D
330
28E
102
}
330
47
100
AcDbEntity
  8
0
  6
Continuous
 62
     2
100
AcDbLine
 10
81.2430446765504
 20
-38.8327858153864
 30
0.0
 11
80.2572655838508
 21
-38.8327858153864
 31
0.0
  0
LINE
  5
C6
102
{ACAD_REACTORS
330
28D
330
28E
102
}
330
47
100
AcDbEntity
  8
0
  6
Continuous
 62
     2
100
AcDbLine
 10
81.2430446765504
 20
-36.30897629157552
 30
0.0
 11
81.2430446765504
 21
-38.8327858153864
 31
0.0
  0
LINE
  5
C7
102
{ACAD_REACTORS
330
27B
330
27C
102
}
330
47
100
AcDbEntity
  8
0
  6
Continuous
 62
     2
100
AcDbLine
 10
84.1215196272338
 20
-37.85931642763093
 30
0.0
 11
85.22559221105831
 21
-37.85931642763093
 31
0.0
  0
LINE
  5
C8
102
{ACAD_REACTORS
330
27B
330
27C
102
}
330
47
100
AcDbEntity
  8
0
  6
Continuous
 62
     2
100
AcDbLine
 10
85.22559221105831
 20
-37.85931642763093
 30
0.0
 11
85.22559221105831
 21
-37.28244567933145
 31
0.0
  0
LINE
  5
C9
102
{ACAD_REACTORS
330
27B
330
27C
102
}
330
47
100
AcDbEntity
  8
0
  6
Continuous
 62
     2
100
AcDbLine
 10
85.22559221105831
 20
-37.28244567933145
 30
0.0
 11
84.1215196272338
 21
-37.28244567933145
 31
0.0
  0
LINE
  5
CA
102
{ACAD_REACTORS
330
27B
330
27C
102
}
330
47
100
AcDbEntity
  8
0
  6
Continuous
 62
     2
100
AcDbLine
 10
84.1215196272338
 20
-37.28244567933145
 30
0.0
 11
84.1215196272338
 21
-36.88584703987546
 31
0.0
  0
LINE
  5
CB
102
{ACAD_REACTORS
330
28B
330
28C
102
}
330
47
100
AcDbEntity
  8
0
  6
Continuous
 62
     2
100
AcDbLine
 10
81.0851952854494
 20
-41.60897629156354
 30
0.0
 11
82.07097437814991
 21
-41.60897629156354
 31
0.0
  0
LINE
  5
CC
102
{ACAD_REACTORS
330
28B
330
28C
102
}
330
47
100
AcDbEntity
  8
0
  6
Continuous
 62
     2
100
AcDbLine
 10
83.0961846345572
 20
-41.60897629156354
 30
0.0
 11
84.0819637272568
 21
-41.60897629156354
 31
0.0
  0
LINE
  5
CD
102
{ACAD_REACTORS
330
28B
330
28C
102
}
330
47
100
AcDbEntity
  8
0
  6
Continuous
 62
     2
100
AcDbLine
 10
82.07097437814991
 20
-39.08516676775265
 30
0.0
 11
81.0851952854494
 21
-39.08516676775265
 31
0.0
  0
LINE
  5
CE
102
{ACAD_REACTORS
330
28B
330
28C
102
}
330
47
100
AcDbEntity
  8
0
  6
Continuous
 62
     2
100
AcDbLine
 10
81.0851952854494
 20
-39.08516676775265
 30
0.0
 11
81.0851952854494
 21
-41.60897629156354
 31
0.0
  0
LINE
  5
CF
102
{ACAD_REACTORS
330
289
330
28A
102
}
330
47
100
AcDbEntity
  8
0
  6
Continuous
 62
     2
100
AcDbLine
 10
87.43373737870581
 20
-36.30897629157552
 30
0.0
 11
87.43373737870581
 21
-37.39060894463763
 31
0.0
  0
LINE
  5
D0
102
{ACAD_REACTORS
330
289
330
28A
102
}
330
47
100
AcDbEntity
  8
0
  6
Continuous
 62
     2
100
AcDbLine
 10
86.4085271222975
 20
-36.30897629157552
 30
0.0
 11
85.4227480295979
 21
-36.30897629157552
 31
0.0
  0
LINE
  5
D1
102
{ACAD_REACTORS
330
289
330
28A
102
}
330
47
100
AcDbEntity
  8
0
  6
Continuous
 62
     2
100
AcDbLine
 10
85.4227480295979
 20
-36.30897629157552
 30
0.0
 11
85.4227480295979
 21
-38.8327858153864
 31
0.0
  0
LINE
  5
D2
102
{ACAD_REACTORS
330
289
330
28A
102
}
330
47
100
AcDbEntity
  8
0
  6
Continuous
 62
     2
100
AcDbLine
 10
86.4085271222975
 20
-38.8327858153864
 30
0.0
 11
86.4085271222975
 21
-37.75115316232474
 31
0.0
  0
LINE
  5
D3
102
{ACAD_REACTORS
330
287
330
288
102
}
330
47
100
AcDbEntity
  8
0
  6
Continuous
 62
     2
100
AcDbLine
 10
85.8563660941173
 20
-41.60897629156354
 30
0.0
 11
85.8563660941173
 21
-39.73414635959036
 31
0.0
  0
LINE
  5
D4
102
{ACAD_REACTORS
330
287
330
288
102
}
330
47
100
AcDbEntity
  8
0
  6
Continuous
 62
     2
100
AcDbLine
 10
85.8563660941173
 20
-39.73414635959036
 30
0.0
 11
86.52669587715249
 21
-39.73414635959036
 31
0.0
  0
LINE
  5
D5
102
{ACAD_REACTORS
330
287
330
288
102
}
330
47
100
AcDbEntity
  8
0
  6
Continuous
 62
     2
100
AcDbLine
 10
86.52669587715249
 20
-39.73414635959036
 30
0.0
 11
86.52669587715249
 21
-39.08516676775265
 31
0.0
  0
LINE
  5
D6
102
{ACAD_REACTORS
330
287
330
288
102
}
330
47
100
AcDbEntity
  8
0
  6
Continuous
 62
     2
100
AcDbLine
 10
86.52669587715249
 20
-39.08516676775265
 30
0.0
 11
84.20025721838081
 21
-39.08516676775265
 31
0.0
  0
LINE
  5
D7
102
{ACAD_REACTORS
330
287
330
288
102
}
330
47
100
AcDbEntity
  8
0
  6
Continuous
 62
     2
100
AcDbLine
 10
84.20025721838081
 20
-39.73414635959036
 30
0.0
 11
84.8705870014177
 21
-39.73414635959036
 31
0.0
  0
LINE
  5
D8
102
{ACAD_REACTORS
330
285
330
286
102
}
330
47
100
AcDbEntity
  8
0
  6
Continuous
 62
     2
100
AcDbLine
 10
87.1833122621089
 20
-41.16190146163139
 30
0.0
 11
88.1192143915915
 21
-41.16190146163139
 31
0.0
  0
LINE
  5
D9
102
{ACAD_REACTORS
330
285
330
286
102
}
330
47
100
AcDbEntity
  8
0
  6
Continuous
 62
     2
100
AcDbLine
 10
89.31920155169871
 20
-41.60897629156354
 30
0.0
 11
88.29399129529051
 21
-41.60897629156354
 31
0.0
  0
LINE
  5
DA
102
{ACAD_REACTORS
330
285
330
286
102
}
330
47
100
AcDbEntity
  8
0
  6
Continuous
 62
     2
100
AcDbLine
 10
87.13865819864651
 20
-39.08516676775265
 30
0.0
 11
85.98332510200251
 21
-41.60897629156354
 31
0.0
  0
LINE
  5
DB
102
{ACAD_REACTORS
330
285
330
286
102
}
330
47
100
AcDbEntity
  8
0
  6
Continuous
 62
     2
100
AcDbLine
 10
87.00853535840992
 20
-41.60897629156354
 30
0.0
 11
87.1833122621089
 21
-41.16190146163139
 31
0.0
  0
LINE
  5
DC
102
{ACAD_REACTORS
330
285
330
286
102
}
330
47
100
AcDbEntity
  8
0
  6
Continuous
 62
     2
100
AcDbLine
 10
87.40319288289001
 20
-40.59945248203918
 30
0.0
 11
87.6512633268506
 21
-39.96489465890967
 31
0.0
  0
LINE
  5
DD
102
{ACAD_REACTORS
330
283
330
284
102
}
330
47
100
AcDbEntity
  8
0
  6
Continuous
 62
     2
100
AcDbLine
 10
88.6166722899458
 20
-38.8327858153864
 30
0.0
 11
88.6166722899458
 21
-36.30897629157552
 31
0.0
  0
LINE
  5
DE
102
{ACAD_REACTORS
330
283
330
284
102
}
330
47
100
AcDbEntity
  8
0
  6
Continuous
 62
     2
100
AcDbLine
 10
89.6418825463532
 20
-36.30897629157552
 30
0.0
 11
89.6418825463532
 21
-38.8327858153864
 31
0.0
  0
LINE
  5
DF
102
{ACAD_REACTORS
330
283
330
284
102
}
330
47
100
AcDbEntity
  8
0
  6
Continuous
 62
     2
100
AcDbLine
 10
88.6166722899458
 20
-36.30897629157552
 30
0.0
 11
89.6418825463532
 21
-36.30897629157552
 31
0.0
  0
LINE
  5
E0
102
{ACAD_REACTORS
330
281
330
282
102
}
330
47
100
AcDbEntity
  8
0
  6
Continuous
 62
     2
100
AcDbLine
 10
91.4754316587753
 20
-38.18176781101137
 30
0.0
 11
92.05112664891209
 21
-38.8327858153864
 31
0.0
  0
LINE
  5
E1
102
{ACAD_REACTORS
330
281
330
282
102
}
330
47
100
AcDbEntity
  8
0
  6
Continuous
 62
     2
100
AcDbLine
 10
92.05112664891209
 20
-38.8327858153864
 30
0.0
 11
93.21040286192721
 21
-38.8327858153864
 31
0.0
  0
LINE
  5
E2
102
{ACAD_REACTORS
330
281
330
282
102
}
330
47
100
AcDbEntity
  8
0
  6
Continuous
 62
     2
100
AcDbLine
 10
92.0550697652823
 20
-37.52629077920871
 30
0.0
 11
93.21040286192721
 21
-38.8327858153864
 31
0.0
  0
LINE
  5
E3
102
{ACAD_REACTORS
330
281
330
282
102
}
330
47
100
AcDbEntity
  8
0
  6
Continuous
 62
     2
100
AcDbLine
 10
92.0550697652823
 20
-37.52629077920871
 30
0.0
 11
93.13154053451089
 21
-36.30897629157552
 31
0.0
  0
LINE
  5
E4
102
{ACAD_REACTORS
330
281
330
282
102
}
330
47
100
AcDbEntity
  8
0
  6
Continuous
 62
     2
100
AcDbLine
 10
91.4754316587753
 20
-36.8708137474065
 30
0.0
 11
91.97226432149671
 21
-36.30897629157552
 31
0.0
  0
LINE
  5
E5
102
{ACAD_REACTORS
330
281
330
282
102
}
330
47
100
AcDbEntity
  8
0
  6
Continuous
 62
     2
100
AcDbLine
 10
90.97859899605481
 20
-36.30897629157552
 30
0.0
 11
91.4754316587753
 21
-36.8708137474065
 31
0.0
  0
LINE
  5
E6
102
{ACAD_REACTORS
330
281
330
282
102
}
330
47
100
AcDbEntity
  8
0
  6
Continuous
 62
     2
100
AcDbLine
 10
90.97859899605481
 20
-36.30897629157552
 30
0.0
 11
89.8193227830389
 21
-36.30897629157552
 31
0.0
  0
LINE
  5
E7
102
{ACAD_REACTORS
330
277
330
278
102
}
330
47
100
AcDbEntity
  8
0
  6
Continuous
 62
     2
100
AcDbLine
 10
91.5542939861908
 20
-41.60897629156354
 30
0.0
 11
92.54007307889131
 21
-41.60897629156354
 31
0.0
  0
LINE
  5
E8
102
{ACAD_REACTORS
330
277
330
278
102
}
330
47
100
AcDbEntity
  8
0
  6
Continuous
 62
     2
100
AcDbLine
 10
92.54007307889131
 20
-41.60897629156354
 30
0.0
 11
92.54007307889131
 21
-39.73414635959036
 31
0.0
  0
LINE
  5
E9
102
{ACAD_REACTORS
330
277
330
278
102
}
330
47
100
AcDbEntity
  8
0
  6
Continuous
 62
     2
100
AcDbLine
 10
92.54007307889131
 20
-39.73414635959036
 30
0.0
 11
93.21040286192721
 21
-39.73414635959036
 31
0.0
  0
LINE
  5
EA
102
{ACAD_REACTORS
330
277
330
278
102
}
330
47
100
AcDbEntity
  8
0
  6
Continuous
 62
     2
100
AcDbLine
 10
93.21040286192721
 20
-39.73414635959036
 30
0.0
 11
93.21040286192721
 21
-39.08516676775265
 31
0.0
  0
LINE
  5
EB
102
{ACAD_REACTORS
330
277
330
278
102
}
330
47
100
AcDbEntity
  8
0
  6
Continuous
 62
     2
100
AcDbLine
 10
90.4129272266969
 20
-39.08516676775311
 30
0.0
 11
93.21040286192721
 21
-39.08516676775265
 31
0.0
  0
LINE
  5
EC
102
{ACAD_REACTORS
330
277
330
278
102
}
330
47
100
AcDbEntity
  8
0
  6
Continuous
 62
     2
100
AcDbLine
 10
91.5542939861908
 20
-39.73414635959036
 30
0.0
 11
91.5542939861908
 21
-41.60897629156354
 31
0.0
  0
LINE
  5
ED
102
{ACAD_REACTORS
330
279
330
27A
102
}
330
47
100
AcDbEntity
  8
0
  6
Continuous
 62
     2
100
AcDbLine
 10
72.85223908083611
 20
-39.97353815142755
 30
0.0
 11
72.85223908083611
 21
-39.49266922027461
 31
0.0
  0
LINE
  5
EE
102
{ACAD_REACTORS
330
279
330
27A
102
}
330
47
100
AcDbEntity
  8
0
  6
Continuous
 62
     2
100
AcDbLine
 10
72.85223908083611
 20
-37.65937731950091
 30
0.0
 11
72.85223908083611
 21
-37.15893493230523
 31
0.0
  0
LINE
  5
EF
330
47
100
AcDbEntity
  8
1
  6
Continuous
 62
     6
100
AcDbLine
 10
-58.97206874129381
 20
-47.45897629156936
 30
0.0
 11
-52.77206874129581
 21
-47.45897629156947
 31
0.0
  0
LINE
  5
F0
330
47
100
AcDbEntity
  8
1
  6
Continuous
 62
     6
100
AcDbLine
 10
-52.77206874129581
 20
-47.45897629156947
 30
0.0
 11
-39.27206874129581
 21
-47.45897629156936
 31
0.0
  0
LINE
  5
F1
330
47
100
AcDbEntity
  8
1
  6
Continuous
 62
     6
100
AcDbLine
 10
-39.27206874129581
 20
-47.45897629156936
 30
0.0
 11
-11.97206874129389
 21
-47.4589762915689
 31
0.0
  0
LINE
  5
F2
330
47
100
AcDbEntity
  8
1
  6
Continuous
 62
     6
100
AcDbLine
 10
-11.97206874129389
 20
-47.4589762915689
 30
0.0
 11
22.9831267319544
 21
-47.45897629156947
 31
0.0
  0
LINE
  5
F3
330
47
100
AcDbEntity
  8
1
  6
Continuous
 62
     6
100
AcDbLine
 10
49.98312673195431
 20
-47.45897629156947
 30
0.0
 11
56.3612645920395
 21
-47.4589762915689
 31
0.0
  0
LINE
  5
F4
330
47
100
AcDbEntity
  8
1
  6
Continuous
 62
     6
100
AcDbLine
 10
36.4831267319544
 20
-47.45897629156947
 30
0.0
 11
49.98312673195431
 21
-47.45897629156947
 31
0.0
  0
LINE
  5
F5
330
47
100
AcDbEntity
  8
1
  6
Continuous
 62
     6
100
AcDbLine
 10
22.9831267319544
 20
-47.45897629156947
 30
0.0
 11
36.4831267319544
 21
-47.45897629156947
 31
0.0
  0
LINE
  5
F6
330
47
100
AcDbEntity
  8
1
  6
Continuous
 62
     6
100
AcDbLine
 10
56.3612645920395
 20
-47.4589762915689
 30
0.0
 11
63.4831267319544
 21
-47.45897629156947
 31
0.0
  0
LINE
  5
F7
330
47
100
AcDbEntity
  8
1
  6
Continuous
 62
     6
100
AcDbLine
 10
63.4831267319544
 20
-47.45897629156947
 30
0.0
 11
81.6831267319543
 21
-47.45897629156936
 31
0.0
  0
LINE
  5
F8
330
47
100
AcDbEntity
  8
1
  6
Continuous
 62
     6
100
AcDbLine
 10
81.6831267319543
 20
-47.45897629156936
 30
0.0
 11
99.88312673195429
 21
-47.45897629156947
 31
0.0
  0
LINE
  5
F9
330
47
100
AcDbEntity
  8
1
  6
Continuous
 62
     6
100
AcDbLine
 10
99.88312673195429
 20
-47.45897629156947
 30
0.0
 11
124.6945979253727
 21
-47.4589762915689
 31
0.0
  0
LINE
  5
FA
330
47
100
AcDbEntity
  8
1
  6
Continuous
 62
     6
100
AcDbLine
 10
124.6945979253727
 20
-47.4589762915689
 30
0.0
 11
193.0279312587061
 21
-47.45897629156936
 31
0.0
  0
LINE
  5
FB
330
47
100
AcDbEntity
  8
1
  6
Continuous
 62
     6
100
AcDbLine
 10
193.0279312587057
 20
-38.95897629156947
 30
0.0
 11
193.0279312587061
 21
-30.45897629156947
 31
0.0
  0
LINE
  5
FC
330
47
100
AcDbEntity
  8
1
  6
Continuous
 62
     6
100
AcDbLine
 10
193.0279312587061
 20
-30.45897629156947
 30
0.0
 11
193.0279312587051
 21
-26.20897629156947
 31
0.0
  0
LINE
  5
FD
330
47
100
AcDbEntity
  8
1
  6
Continuous
 62
     6
100
AcDbLine
 10
193.0279312587051
 20
-26.20897629156947
 30
0.0
 11
193.0279312587061
 21
-17.70897629156947
 31
0.0
  0
LINE
  5
FE
330
47
100
AcDbEntity
  8
1
  6
Continuous
 62
     6
100
AcDbLine
 10
193.0279312587061
 20
-17.70897629156947
 30
0.0
 11
193.0279312587061
 21
9.94102370843119
 31
0.0
  0
LINE
  5
FF
330
47
100
AcDbEntity
  8
1
  6
PHANTOM
 62
     2
100
AcDbLine
 10
71.6023899467547
 20
-32.58397629156947
 30
0.0
 11
75.91798491594369
 21
-32.58397629156947
 31
0.0
  0
LINE
  5
100
330
47
100
AcDbEntity
  8
1
  6
PHANTOM
 62
     2
100
AcDbLine
 10
68.5753865570577
 20
-30.93397629156938
 30
0.0
 11
68.5753865570577
 21
-34.23397629156945
 31
0.0
  0
LINE
  5
101
330
47
100
AcDbEntity
  8
1
  6
PHANTOM
 62
     2
100
AcDbLine
 10
70.2253865570577
 20
-32.58397629156947
 30
0.0
 11
66.92538655705769
 21
-32.58397629156947
 31
0.0
  0
LINE
  5
102
330
47
100
AcDbEntity
  8
1
  6
Continuous
 62
     7
100
AcDbLine
 10
99.88312673195429
 20
-34.70897629156947
 30
0.0
 11
99.88312673195429
 21
-30.45897629156947
 31
0.0
  0
LINE
  5
103
330
47
100
AcDbEntity
  8
1
  6
Continuous
 62
     7
100
AcDbLine
 10
63.4831267319544
 20
-34.70897629156947
 30
0.0
 11
99.88312673195429
 21
-34.70897629156947
 31
0.0
  0
LINE
  5
104
330
47
100
AcDbEntity
  8
1
  6
Continuous
 62
     7
100
AcDbLine
 10
-39.27206874129581
 20
-43.20897629156936
 30
0.0
 11
22.9831267319544
 21
-43.20897629156936
 31
0.0
  0
LINE
  5
105
330
47
100
AcDbEntity
  8
1
  6
Continuous
 62
     2
100
AcDbLine
 10
-39.27206874129581
 20
-43.20897629156936
 30
0.0
 11
-39.27206874129581
 21
-47.45897629156936
 31
0.0
  0
LINE
  5
106
330
47
100
AcDbEntity
  8
1
  6
Continuous
 62
     2
100
AcDbLine
 10
-39.27206874129581
 20
-38.95897629156947
 30
0.0
 11
-52.77206874129581
 21
-38.95897629156947
 31
0.0
  0
LINE
  5
107
330
47
100
AcDbEntity
  8
1
  6
Continuous
 62
     2
100
AcDbLine
 10
-39.27206874129581
 20
-38.95897629156947
 30
0.0
 11
-39.27206874129581
 21
-43.20897629156936
 31
0.0
  0
LINE
  5
108
330
47
100
AcDbEntity
  8
1
  6
Continuous
 62
     2
100
AcDbLine
 10
-39.27206874129581
 20
-30.45897629156947
 30
0.0
 11
-52.77206874129581
 21
-30.45897629156947
 31
0.0
  0
LINE
  5
109
330
47
100
AcDbEntity
  8
1
  6
Continuous
 62
     2
100
AcDbLine
 10
-39.27206874129581
 20
-30.45897629156947
 30
0.0
 11
-39.27206874129581
 21
-34.70897629156947
 31
0.0
  0
LINE
  5
10A
330
47
100
AcDbEntity
  8
1
  6
Continuous
 62
     2
100
AcDbLine
 10
-39.27206874129581
 20
-34.70897629156947
 30
0.0
 11
-52.77206874129581
 21
-34.70897629156947
 31
0.0
  0
LINE
  5
10B
330
47
100
AcDbEntity
  8
1
  6
Continuous
 62
     2
100
AcDbLine
 10
-39.27206874129581
 20
-34.70897629156947
 30
0.0
 11
-39.27206874129581
 21
-38.95897629156947
 31
0.0
  0
LINE
  5
10C
330
47
100
AcDbEntity
  8
1
  6
Continuous
 62
     2
100
AcDbLine
 10
-39.27206874129581
 20
-21.95897629156947
 30
0.0
 11
-52.77206874129581
 21
-21.95897629156947
 31
0.0
  0
LINE
  5
10D
330
47
100
AcDbEntity
  8
1
  6
Continuous
 62
     2
100
AcDbLine
 10
-39.27206874129581
 20
-26.20897629156947
 30
0.0
 11
-52.77206874129581
 21
-26.20897629156947
 31
0.0
  0
LINE
  5
10E
330
47
100
AcDbEntity
  8
1
  6
Continuous
 62
     2
100
AcDbLine
 10
-39.27206874129581
 20
-26.20897629156947
 30
0.0
 11
-39.27206874129581
 21
-30.45897629156947
 31
0.0
  0
LINE
  5
10F
330
47
100
AcDbEntity
  8
1
  6
Continuous
 62
     2
100
AcDbLine
 10
-39.27206874129581
 20
-21.95897629156947
 30
0.0
 11
-39.27206874129581
 21
-26.20897629156947
 31
0.0
  0
LINE
  5
110
330
47
100
AcDbEntity
  8
1
  6
Continuous
 62
     6
100
AcDbLine
 10
-39.27206874129581
 20
-17.70897629156947
 30
0.0
 11
-52.77206874129581
 21
-17.70897629156947
 31
0.0
  0
LINE
  5
111
330
47
100
AcDbEntity
  8
1
  6
Continuous
 62
     2
100
AcDbLine
 10
-39.27206874129581
 20
-17.70897629156947
 30
0.0
 11
-39.27206874129581
 21
-21.95897629156947
 31
0.0
  0
LINE
  5
112
330
47
100
AcDbEntity
  8
1
  6
Continuous
 62
     6
100
AcDbLine
 10
193.0279312587061
 20
-17.70897629156947
 30
0.0
 11
175.1463395403852
 21
-17.70897629156947
 31
0.0
  0
LINE
  5
113
330
47
100
AcDbEntity
  8
1
  6
Continuous
 62
     7
100
AcDbLine
 10
193.0279312587057
 20
-38.95897629156947
 30
0.0
 11
148.027931258708
 21
-38.95897629156947
 31
0.0
  0
LINE
  5
114
330
47
100
AcDbEntity
  8
1
  6
Continuous
 62
     7
100
AcDbLine
 10
193.0279312587051
 20
-26.20897629156947
 30
0.0
 11
175.1463395403852
 21
-26.20897629156947
 31
0.0
  0
LINE
  5
115
330
47
100
AcDbEntity
  8
1
  6
Continuous
 62
     7
100
AcDbLine
 10
148.027931258708
 20
-30.45897629156947
 30
0.0
 11
193.0279312587061
 21
-30.45897629156947
 31
0.0
  0
LINE
  5
116
330
47
100
AcDbEntity
  8
1
  6
Continuous
 62
     7
100
AcDbLine
 10
99.88312673195429
 20
-21.95897629156947
 30
0.0
 11
99.88312673195429
 21
-26.20897629156947
 31
0.0
  0
LINE
  5
117
330
47
100
AcDbEntity
  8
1
  6
Continuous
 62
     7
100
AcDbLine
 10
86.38312673195429
 20
-21.95897629156947
 30
0.0
 11
99.88312673195429
 21
-21.95897629156947
 31
0.0
  0
LINE
  5
118
330
47
100
AcDbEntity
  8
1
  6
Continuous
 62
     7
100
AcDbLine
 10
86.38312673195429
 20
-21.95897629156947
 30
0.0
 11
72.8831267319544
 21
-21.95897629156947
 31
0.0
  0
LINE
  5
119
330
47
100
AcDbEntity
  8
1
  6
Continuous
 62
     7
100
AcDbLine
 10
175.1463395403852
 20
-26.20897629156947
 30
0.0
 11
175.1463395403852
 21
-17.70897629156947
 31
0.0
  0
LINE
  5
11A
330
47
100
AcDbEntity
  8
1
  6
Continuous
 62
     6
100
AcDbLine
 10
166.227931258706
 20
-17.70897629156947
 30
0.0
 11
175.1463395403852
 21
-17.70897629156947
 31
0.0
  0
LINE
  5
11B
330
47
100
AcDbEntity
  8
1
  6
Continuous
 62
     7
100
AcDbLine
 10
166.227931258706
 20
-17.70897629156947
 30
0.0
 11
166.2279312587063
 21
-26.20897629156936
 31
0.0
  0
LINE
  5
11C
330
47
100
AcDbEntity
  8
1
  6
Continuous
 62
     7
100
AcDbLine
 10
148.027931258708
 20
-38.95897629156947
 30
0.0
 11
129.5279312587084
 21
-38.95897629156947
 31
0.0
  0
LINE
  5
11D
330
47
100
AcDbEntity
  8
1
  6
Continuous
 62
     7
100
AcDbLine
 10
148.027931258708
 20
-30.45897629156947
 30
0.0
 11
148.027931258708
 21
-38.95897629156947
 31
0.0
  0
LINE
  5
11E
330
47
100
AcDbEntity
  8
1
  6
Continuous
 62
     2
100
AcDbLine
 10
49.98312673195431
 20
-17.70897629156947
 30
0.0
 11
49.98312673195431
 21
-21.95897629156947
 31
0.0
  0
LINE
  5
11F
330
47
100
AcDbEntity
  8
1
  6
Continuous
 62
     2
100
AcDbLine
 10
36.4831267319544
 20
-17.70897629156947
 30
0.0
 11
36.4831267319544
 21
-21.95897629156947
 31
0.0
  0
LINE
  5
120
330
47
100
AcDbEntity
  8
1
  6
Continuous
 62
     6
100
AcDbLine
 10
49.98312673195431
 20
-17.70897629156947
 30
0.0
 11
36.4831267319544
 21
-17.70897629156947
 31
0.0
  0
LINE
  5
121
330
47
100
AcDbEntity
  8
1
  6
Continuous
 62
     6
100
AcDbLine
 10
36.4831267319544
 20
-17.70897629156947
 30
0.0
 11
22.9831267319544
 21
-17.70897629156947
 31
0.0
  0
LINE
  5
122
330
47
100
AcDbEntity
  8
1
  6
Continuous
 62
     2
100
AcDbLine
 10
22.9831267319544
 20
-17.70897629156947
 30
0.0
 11
22.9831267319544
 21
-21.95897629156947
 31
0.0
  0
LINE
  5
123
330
47
100
AcDbEntity
  8
1
  6
Continuous
 62
     7
100
AcDbLine
 10
81.6831267319543
 20
-43.20897629156936
 30
0.0
 11
81.6831267319543
 21
-47.45897629156936
 31
0.0
  0
LINE
  5
124
330
47
100
AcDbEntity
  8
1
  6
Continuous
 62
     7
100
AcDbLine
 10
81.6831267319543
 20
-43.20897629156936
 30
0.0
 11
63.4831267319544
 21
-43.20897629156936
 31
0.0
  0
LINE
  5
125
330
47
100
AcDbEntity
  8
1
  6
Continuous
 62
     7
100
AcDbLine
 10
86.38312673195429
 20
-30.45897629156947
 30
0.0
 11
72.8831267319544
 21
-30.45897629156936
 31
0.0
  0
LINE
  5
126
330
47
100
AcDbEntity
  8
1
  6
Continuous
 62
     7
100
AcDbLine
 10
99.88312673195429
 20
-43.20897629156936
 30
0.0
 11
81.6831267319543
 21
-43.20897629156936
 31
0.0
  0
LINE
  5
127
330
47
100
AcDbEntity
  8
1
  6
Continuous
 62
     6
100
AcDbLine
 10
99.88312673195429
 20
-17.70897629156947
 30
0.0
 11
122.7831267319543
 21
-17.70897629156947
 31
0.0
  0
LINE
  5
128
330
47
100
AcDbEntity
  8
1
  6
Continuous
 62
     6
100
AcDbLine
 10
166.227931258706
 20
-17.70897629156947
 30
0.0
 11
122.7831267319543
 21
-17.70897629156947
 31
0.0
  0
LINE
  5
129
330
47
100
AcDbEntity
  8
1
  6
Continuous
 62
     7
100
AcDbLine
 10
122.7831267319543
 20
-17.70897629156947
 30
0.0
 11
122.7831267319543
 21
-26.20897629156947
 31
0.0
  0
LINE
  5
12A
330
47
100
AcDbEntity
  8
1
  6
Continuous
 62
     6
100
AcDbLine
 10
-52.77206874129581
 20
-17.70897629156947
 30
0.0
 11
-58.97206874129381
 21
-17.70897629156947
 31
0.0
  0
LINE
  5
12B
330
47
100
AcDbEntity
  8
1
  6
Continuous
 62
     6
100
AcDbLine
 10
-58.97206874129381
 20
-47.45897629156936
 30
0.0
 11
-58.97206874129381
 21
-43.20897629156936
 31
0.0
  0
LINE
  5
12C
330
47
100
AcDbEntity
  8
1
  6
Continuous
 62
     6
100
AcDbLine
 10
-58.97206874129381
 20
-43.20897629156936
 30
0.0
 11
-58.97206874129381
 21
-38.95897629156947
 31
0.0
  0
LINE
  5
12D
330
47
100
AcDbEntity
  8
1
  6
Continuous
 62
     7
100
AcDbLine
 10
86.38312673195429
 20
-26.20897629156947
 30
0.0
 11
86.38312673195429
 21
-30.45897629156947
 31
0.0
  0
LINE
  5
12E
330
47
100
AcDbEntity
  8
1
  6
Continuous
 62
     7
100
AcDbLine
 10
72.8831267319544
 20
-26.20897629156947
 30
0.0
 11
72.8831267319544
 21
-30.45897629156936
 31
0.0
  0
LINE
  5
12F
330
47
100
AcDbEntity
  8
1
  6
Continuous
 62
     7
100
AcDbLine
 10
86.38312673195429
 20
-26.20897629156947
 30
0.0
 11
72.8831267319544
 21
-26.20897629156947
 31
0.0
  0
LINE
  5
130
330
47
100
AcDbEntity
  8
1
  6
Continuous
 62
     2
100
AcDbLine
 10
63.4831267319544
 20
-30.45897629156947
 30
0.0
 11
49.98312673195431
 21
-30.45897629156947
 31
0.0
  0
LINE
  5
131
330
47
100
AcDbEntity
  8
1
  6
Continuous
 62
     2
100
AcDbLine
 10
-52.77206874129581
 20
-30.45897629156947
 30
0.0
 11
-52.77206874129581
 21
-26.20897629156947
 31
0.0
  0
LINE
  5
132
330
47
100
AcDbEntity
  8
1
  6
Continuous
 62
     2
100
AcDbLine
 10
-52.77206874129581
 20
-30.45897629156947
 30
0.0
 11
-58.97206874129381
 21
-30.45897629156947
 31
0.0
  0
LINE
  5
133
330
47
100
AcDbEntity
  8
1
  6
Continuous
 62
     2
100
AcDbLine
 10
63.4831267319544
 20
-26.20897629156947
 30
0.0
 11
49.98312673195431
 21
-26.20897629156947
 31
0.0
  0
LINE
  5
134
330
47
100
AcDbEntity
  8
1
  6
Continuous
 62
     2
100
AcDbLine
 10
-52.77206874129581
 20
-26.20897629156947
 30
0.0
 11
-52.77206874129581
 21
-21.95897629156947
 31
0.0
  0
LINE
  5
135
330
47
100
AcDbEntity
  8
1
  6
Continuous
 62
     2
100
AcDbLine
 10
63.4831267319544
 20
-21.95897629156947
 30
0.0
 11
49.98312673195431
 21
-21.95897629156947
 31
0.0
  0
LINE
  5
136
330
47
100
AcDbEntity
  8
1
  6
Continuous
 62
     2
100
AcDbLine
 10
-52.77206874129581
 20
-21.95897629156947
 30
0.0
 11
-52.77206874129581
 21
-17.70897629156947
 31
0.0
  0
LINE
  5
137
330
47
100
AcDbEntity
  8
1
  6
Continuous
 62
     2
100
AcDbLine
 10
-52.77206874129581
 20
-21.95897629156947
 30
0.0
 11
-58.97206874129381
 21
-21.95897629156947
 31
0.0
  0
LINE
  5
138
330
47
100
AcDbEntity
  8
1
  6
Continuous
 62
     6
100
AcDbLine
 10
63.4831267319544
 20
-17.70897629156947
 30
0.0
 11
49.98312673195431
 21
-17.70897629156947
 31
0.0
  0
LINE
  5
139
330
47
100
AcDbEntity
  8
1
  6
Continuous
 62
     2
100
AcDbLine
 10
63.4831267319544
 20
-38.95897629156947
 30
0.0
 11
49.98312673195431
 21
-38.95897629156947
 31
0.0
  0
LINE
  5
13A
330
47
100
AcDbEntity
  8
1
  6
Continuous
 62
     2
100
AcDbLine
 10
63.4831267319544
 20
-34.70897629156947
 30
0.0
 11
49.98312673195431
 21
-34.70897629156947
 31
0.0
  0
LINE
  5
13B
330
47
100
AcDbEntity
  8
1
  6
Continuous
 62
     2
100
AcDbLine
 10
-52.77206874129581
 20
-38.95897629156947
 30
0.0
 11
-52.77206874129581
 21
-34.70897629156947
 31
0.0
  0
LINE
  5
13C
330
47
100
AcDbEntity
  8
1
  6
Continuous
 62
     2
100
AcDbLine
 10
-52.77206874129581
 20
-34.70897629156947
 30
0.0
 11
-52.77206874129581
 21
-30.45897629156947
 31
0.0
  0
LINE
  5
13D
330
47
100
AcDbEntity
  8
1
  6
Continuous
 62
     7
100
AcDbLine
 10
-52.77206874129581
 20
-43.20897629156936
 30
0.0
 11
-39.27206874129581
 21
-43.20897629156936
 31
0.0
  0
LINE
  5
13E
330
47
100
AcDbEntity
  8
1
  6
Continuous
 62
     2
100
AcDbLine
 10
-52.77206874129581
 20
-43.20897629156936
 30
0.0
 11
-52.77206874129581
 21
-38.95897629156947
 31
0.0
  0
LINE
  5
13F
330
47
100
AcDbEntity
  8
1
  6
Continuous
 62
     7
100
AcDbLine
 10
99.88312673195429
 20
-38.95897629156947
 30
0.0
 11
99.88312673195429
 21
-34.70897629156947
 31
0.0
  0
LINE
  5
140
330
47
100
AcDbEntity
  8
1
  6
Continuous
 62
     6
100
AcDbLine
 10
86.38312673195429
 20
-17.70897629156947
 30
0.0
 11
99.88312673195429
 21
-17.70897629156947
 31
0.0
  0
LINE
  5
141
330
47
100
AcDbEntity
  8
1
  6
Continuous
 62
     7
100
AcDbLine
 10
99.88312673195429
 20
-17.70897629156947
 30
0.0
 11
99.88312673195429
 21
-21.95897629156947
 31
0.0
  0
LINE
  5
142
330
47
100
AcDbEntity
  8
1
  6
Continuous
 62
     6
100
AcDbLine
 10
72.8831267319544
 20
-17.70897629156947
 30
0.0
 11
86.38312673195429
 21
-17.70897629156947
 31
0.0
  0
LINE
  5
143
330
47
100
AcDbEntity
  8
1
  6
Continuous
 62
     7
100
AcDbLine
 10
63.4831267319544
 20
-30.45897629156947
 30
0.0
 11
63.4831267319544
 21
-34.70897629156947
 31
0.0
  0
LINE
  5
144
330
47
100
AcDbEntity
  8
1
  6
Continuous
 62
     7
100
AcDbLine
 10
63.4831267319544
 20
-26.20897629156947
 30
0.0
 11
63.4831267319544
 21
-30.45897629156947
 31
0.0
  0
LINE
  5
145
330
47
100
AcDbEntity
  8
1
  6
Continuous
 62
     2
100
AcDbLine
 10
-58.97206874129381
 20
-26.20897629156947
 30
0.0
 11
-52.77206874129581
 21
-26.20897629156947
 31
0.0
  0
LINE
  5
146
330
47
100
AcDbEntity
  8
1
  6
Continuous
 62
     7
100
AcDbLine
 10
63.4831267319544
 20
-21.95897629156947
 30
0.0
 11
63.4831267319544
 21
-26.20897629156947
 31
0.0
  0
LINE
  5
147
330
47
100
AcDbEntity
  8
1
  6
Continuous
 62
     7
100
AcDbLine
 10
99.88312673195429
 20
-26.20897629156947
 30
0.0
 11
99.88312673195429
 21
-30.45897629156947
 31
0.0
  0
LINE
  5
148
330
47
100
AcDbEntity
  8
1
  6
Continuous
 62
     7
100
AcDbLine
 10
86.38312673195429
 20
-17.70897629156947
 30
0.0
 11
86.38312673195429
 21
-21.95897629156947
 31
0.0
  0
LINE
  5
149
330
47
100
AcDbEntity
  8
1
  6
Continuous
 62
     7
100
AcDbLine
 10
72.8831267319544
 20
-17.70897629156947
 30
0.0
 11
72.8831267319544
 21
-21.95897629156947
 31
0.0
  0
LINE
  5
14A
330
47
100
AcDbEntity
  8
1
  6
Continuous
 62
     2
100
AcDbLine
 10
-52.77206874129581
 20
-47.45897629156947
 30
0.0
 11
-52.77206874129581
 21
-43.20897629156936
 31
0.0
  0
LINE
  5
14B
330
47
100
AcDbEntity
  8
1
  6
Continuous
 62
     2
100
AcDbLine
 10
-58.97206874129381
 20
-38.95897629156947
 30
0.0
 11
-52.77206874129581
 21
-38.95897629156947
 31
0.0
  0
LINE
  5
14C
330
47
100
AcDbEntity
  8
1
  6
Continuous
 62
     2
100
AcDbLine
 10
-58.97206874129381
 20
-34.70897629156947
 30
0.0
 11
-52.77206874129581
 21
-34.70897629156947
 31
0.0
  0
LINE
  5
14D
330
47
100
AcDbEntity
  8
1
  6
Continuous
 62
     7
100
AcDbLine
 10
-58.97206874129381
 20
-43.20897629156936
 30
0.0
 11
-52.77206874129581
 21
-43.20897629156936
 31
0.0
  0
LINE
  5
14E
330
47
100
AcDbEntity
  8
1
  6
Continuous
 62
     7
100
AcDbLine
 10
99.88312673195429
 20
-38.95897629156947
 30
0.0
 11
99.88312673195429
 21
-43.20897629156936
 31
0.0
  0
LINE
  5
14F
330
47
100
AcDbEntity
  8
1
  6
Continuous
 62
     7
100
AcDbLine
 10
63.4831267319544
 20
-34.70897629156947
 30
0.0
 11
63.4831267319544
 21
-38.95897629156947
 31
0.0
  0
LINE
  5
150
330
47
100
AcDbEntity
  8
1
  6
Continuous
 62
     7
100
AcDbLine
 10
63.4831267319544
 20
-38.95897629156947
 30
0.0
 11
63.4831267319544
 21
-43.20897629156936
 31
0.0
  0
LINE
  5
151
330
47
100
AcDbEntity
  8
1
  6
Continuous
 62
     7
100
AcDbLine
 10
86.38312673195429
 20
-21.95897629156947
 30
0.0
 11
86.38312673195429
 21
-26.20897629156947
 31
0.0
  0
LINE
  5
152
330
47
100
AcDbEntity
  8
1
  6
Continuous
 62
     7
100
AcDbLine
 10
72.8831267319544
 20
-21.95897629156947
 30
0.0
 11
72.8831267319544
 21
-26.20897629156947
 31
0.0
  0
LINE
  5
153
330
47
100
AcDbEntity
  8
1
  6
Continuous
 62
     7
100
AcDbLine
 10
63.4831267319544
 20
-26.20897629156947
 30
0.0
 11
72.8831267319544
 21
-26.20897629156947
 31
0.0
  0
LINE
  5
154
330
47
100
AcDbEntity
  8
1
  6
Continuous
 62
     7
100
AcDbLine
 10
99.88312673195429
 20
-30.45897629156947
 30
0.0
 11
86.38312673195429
 21
-30.45897629156947
 31
0.0
  0
LINE
  5
155
330
47
100
AcDbEntity
  8
1
  6
Continuous
 62
     7
100
AcDbLine
 10
99.88312673195429
 20
-43.20897629156936
 30
0.0
 11
99.88312673195429
 21
-47.45897629156947
 31
0.0
  0
LINE
  5
156
330
47
100
AcDbEntity
  8
1
  6
Continuous
 62
     7
100
AcDbLine
 10
63.4831267319544
 20
-43.20897629156936
 30
0.0
 11
63.4831267319544
 21
-47.45897629156947
 31
0.0
  0
LINE
  5
157
330
47
100
AcDbEntity
  8
1
  6
Continuous
 62
     7
100
AcDbLine
 10
63.4831267319544
 20
-17.70897629156947
 30
0.0
 11
63.4831267319544
 21
-21.95897629156947
 31
0.0
  0
LINE
  5
158
330
47
100
AcDbEntity
  8
1
  6
Continuous
 62
     7
100
AcDbLine
 10
99.88312673195429
 20
-38.95897629156947
 30
0.0
 11
129.5279312587084
 21
-38.95897629156947
 31
0.0
  0
LINE
  5
159
330
47
100
AcDbEntity
  8
1
  6
Continuous
 62
     7
100
AcDbLine
 10
99.88312673195429
 20
-30.45897629156947
 30
0.0
 11
129.5279312587084
 21
-30.45897629156947
 31
0.0
  0
LINE
  5
15A
330
47
100
AcDbEntity
  8
1
  6
Continuous
 62
     7
100
AcDbLine
 10
166.2279312587063
 20
-26.20897629156936
 30
0.0
 11
175.1463395403852
 21
-26.20897629156947
 31
0.0
  0
LINE
  5
15B
330
47
100
AcDbEntity
  8
1
  6
Continuous
 62
     7
100
AcDbLine
 10
166.2279312587063
 20
-26.20897629156936
 30
0.0
 11
129.5279312587084
 21
-26.20897629156947
 31
0.0
  0
LINE
  5
15C
330
47
100
AcDbEntity
  8
1
  6
Continuous
 62
     7
100
AcDbLine
 10
129.5279312587084
 20
-30.45897629156947
 30
0.0
 11
148.027931258708
 21
-30.45897629156947
 31
0.0
  0
LINE
  5
15D
330
47
100
AcDbEntity
  8
1
  6
Continuous
 62
     7
100
AcDbLine
 10
129.5279312587084
 20
-30.45897629156947
 30
0.0
 11
129.5279312587084
 21
-38.95897629156947
 31
0.0
  0
LINE
  5
15E
330
47
100
AcDbEntity
  8
1
  6
Continuous
 62
     6
100
AcDbLine
 10
-58.97206874129381
 20
-21.95897629156947
 30
0.0
 11
-58.97206874129381
 21
-17.70897629156947
 31
0.0
  0
LINE
  5
15F
330
47
100
AcDbEntity
  8
1
  6
Continuous
 62
     6
100
AcDbLine
 10
-58.97206874129381
 20
-26.20897629156947
 30
0.0
 11
-58.97206874129381
 21
-21.95897629156947
 31
0.0
  0
LINE
  5
160
330
47
100
AcDbEntity
  8
1
  6
Continuous
 62
     6
100
AcDbLine
 10
-58.97206874129381
 20
-30.45897629156947
 30
0.0
 11
-58.97206874129381
 21
-26.20897629156947
 31
0.0
  0
LINE
  5
161
330
47
100
AcDbEntity
  8
1
  6
Continuous
 62
     6
100
AcDbLine
 10
-58.97206874129381
 20
-38.95897629156947
 30
0.0
 11
-58.97206874129381
 21
-34.70897629156947
 31
0.0
  0
LINE
  5
162
330
47
100
AcDbEntity
  8
1
  6
Continuous
 62
     6
100
AcDbLine
 10
22.9831267319544
 20
-17.70897629156947
 30
0.0
 11
-39.27206874129581
 21
-17.70897629156947
 31
0.0
  0
LINE
  5
163
330
47
100
AcDbEntity
  8
1
  6
Continuous
 62
     2
100
AcDbLine
 10
-39.27206874129581
 20
-21.95897629156947
 30
0.0
 11
22.9831267319544
 21
-21.95897629156947
 31
0.0
  0
LINE
  5
164
330
47
100
AcDbEntity
  8
1
  6
Continuous
 62
     2
100
AcDbLine
 10
-39.27206874129581
 20
-26.20897629156947
 30
0.0
 11
22.9831267319544
 21
-26.20897629156947
 31
0.0
  0
LINE
  5
165
330
47
100
AcDbEntity
  8
1
  6
Continuous
 62
     7
100
AcDbLine
 10
86.38312673195429
 20
-26.20897629156947
 30
0.0
 11
99.88312673195429
 21
-26.20897629156947
 31
0.0
  0
LINE
  5
166
330
47
100
AcDbEntity
  8
1
  6
Continuous
 62
     7
100
AcDbLine
 10
122.7831267319543
 20
-26.20897629156947
 30
0.0
 11
99.88312673195429
 21
-26.20897629156947
 31
0.0
  0
LINE
  5
167
330
47
100
AcDbEntity
  8
1
  6
Continuous
 62
     2
100
AcDbLine
 10
49.98312673195431
 20
-38.95897629156947
 30
0.0
 11
49.98312673195431
 21
-43.20897629156936
 31
0.0
  0
LINE
  5
168
330
47
100
AcDbEntity
  8
1
  6
Continuous
 62
     2
100
AcDbLine
 10
49.98312673195431
 20
-38.95897629156947
 30
0.0
 11
36.4831267319544
 21
-38.95897629156947
 31
0.0
  0
LINE
  5
169
330
47
100
AcDbEntity
  8
1
  6
Continuous
 62
     2
100
AcDbLine
 10
49.98312673195431
 20
-43.20897629156936
 30
0.0
 11
49.98312673195431
 21
-47.45897629156947
 31
0.0
  0
LINE
  5
16A
330
47
100
AcDbEntity
  8
1
  6
Continuous
 62
     7
100
AcDbLine
 10
49.98312673195431
 20
-43.20897629156936
 30
0.0
 11
63.4831267319544
 21
-43.20897629156936
 31
0.0
  0
LINE
  5
16B
330
47
100
AcDbEntity
  8
1
  6
Continuous
 62
     2
100
AcDbLine
 10
49.98312673195431
 20
-30.45897629156947
 30
0.0
 11
49.98312673195431
 21
-34.70897629156947
 31
0.0
  0
LINE
  5
16C
330
47
100
AcDbEntity
  8
1
  6
Continuous
 62
     2
100
AcDbLine
 10
49.98312673195431
 20
-30.45897629156947
 30
0.0
 11
36.4831267319544
 21
-30.45897629156947
 31
0.0
  0
LINE
  5
16D
330
47
100
AcDbEntity
  8
1
  6
Continuous
 62
     2
100
AcDbLine
 10
49.98312673195431
 20
-26.20897629156947
 30
0.0
 11
49.98312673195431
 21
-30.45897629156947
 31
0.0
  0
LINE
  5
16E
330
47
100
AcDbEntity
  8
1
  6
Continuous
 62
     2
100
AcDbLine
 10
49.98312673195431
 20
-26.20897629156947
 30
0.0
 11
36.4831267319544
 21
-26.20897629156947
 31
0.0
  0
LINE
  5
16F
330
47
100
AcDbEntity
  8
1
  6
Continuous
 62
     2
100
AcDbLine
 10
49.98312673195431
 20
-21.95897629156947
 30
0.0
 11
49.98312673195431
 21
-26.20897629156947
 31
0.0
  0
LINE
  5
170
330
47
100
AcDbEntity
  8
1
  6
Continuous
 62
     2
100
AcDbLine
 10
49.98312673195431
 20
-21.95897629156947
 30
0.0
 11
36.4831267319544
 21
-21.95897629156947
 31
0.0
  0
LINE
  5
171
330
47
100
AcDbEntity
  8
1
  6
Continuous
 62
     2
100
AcDbLine
 10
49.98312673195431
 20
-34.70897629156947
 30
0.0
 11
49.98312673195431
 21
-38.95897629156947
 31
0.0
  0
LINE
  5
172
330
47
100
AcDbEntity
  8
1
  6
Continuous
 62
     2
100
AcDbLine
 10
49.98312673195431
 20
-34.70897629156947
 30
0.0
 11
36.4831267319544
 21
-34.70897629156947
 31
0.0
  0
LINE
  5
173
330
47
100
AcDbEntity
  8
1
  6
Continuous
 62
     2
100
AcDbLine
 10
36.4831267319544
 20
-38.95897629156947
 30
0.0
 11
36.4831267319544
 21
-43.20897629156936
 31
0.0
  0
LINE
  5
174
330
47
100
AcDbEntity
  8
1
  6
Continuous
 62
     2
100
AcDbLine
 10
36.4831267319544
 20
-38.95897629156947
 30
0.0
 11
22.9831267319544
 21
-38.95897629156947
 31
0.0
  0
LINE
  5
175
330
47
100
AcDbEntity
  8
1
  6
Continuous
 62
     2
100
AcDbLine
 10
36.4831267319544
 20
-43.20897629156936
 30
0.0
 11
36.4831267319544
 21
-47.45897629156947
 31
0.0
  0
LINE
  5
176
330
47
100
AcDbEntity
  8
1
  6
Continuous
 62
     7
100
AcDbLine
 10
36.4831267319544
 20
-43.20897629156936
 30
0.0
 11
49.98312673195431
 21
-43.20897629156936
 31
0.0
  0
LINE
  5
177
330
47
100
AcDbEntity
  8
1
  6
Continuous
 62
     2
100
AcDbLine
 10
36.4831267319544
 20
-30.45897629156947
 30
0.0
 11
36.4831267319544
 21
-34.70897629156947
 31
0.0
  0
LINE
  5
178
330
47
100
AcDbEntity
  8
1
  6
Continuous
 62
     2
100
AcDbLine
 10
36.4831267319544
 20
-30.45897629156947
 30
0.0
 11
22.9831267319544
 21
-30.45897629156947
 31
0.0
  0
LINE
  5
179
330
47
100
AcDbEntity
  8
1
  6
Continuous
 62
     2
100
AcDbLine
 10
36.4831267319544
 20
-26.20897629156947
 30
0.0
 11
36.4831267319544
 21
-30.45897629156947
 31
0.0
  0
LINE
  5
17A
330
47
100
AcDbEntity
  8
1
  6
Continuous
 62
     2
100
AcDbLine
 10
36.4831267319544
 20
-26.20897629156947
 30
0.0
 11
22.9831267319544
 21
-26.20897629156947
 31
0.0
  0
LINE
  5
17B
330
47
100
AcDbEntity
  8
1
  6
Continuous
 62
     2
100
AcDbLine
 10
36.4831267319544
 20
-21.95897629156947
 30
0.0
 11
36.4831267319544
 21
-26.20897629156947
 31
0.0
  0
LINE
  5
17C
330
47
100
AcDbEntity
  8
1
  6
Continuous
 62
     2
100
AcDbLine
 10
36.4831267319544
 20
-21.95897629156947
 30
0.0
 11
22.9831267319544
 21
-21.95897629156947
 31
0.0
  0
LINE
  5
17D
330
47
100
AcDbEntity
  8
1
  6
Continuous
 62
     2
100
AcDbLine
 10
36.4831267319544
 20
-34.70897629156947
 30
0.0
 11
36.4831267319544
 21
-38.95897629156947
 31
0.0
  0
LINE
  5
17E
330
47
100
AcDbEntity
  8
1
  6
Continuous
 62
     2
100
AcDbLine
 10
36.4831267319544
 20
-34.70897629156947
 30
0.0
 11
22.9831267319544
 21
-34.70897629156947
 31
0.0
  0
LINE
  5
17F
330
47
100
AcDbEntity
  8
1
  6
Continuous
 62
     2
100
AcDbLine
 10
22.9831267319544
 20
-38.95897629156947
 30
0.0
 11
22.9831267319544
 21
-43.20897629156936
 31
0.0
  0
LINE
  5
180
330
47
100
AcDbEntity
  8
1
  6
Continuous
 62
     2
100
AcDbLine
 10
22.9831267319544
 20
-38.95897629156947
 30
0.0
 11
-39.27206874129581
 21
-38.95897629156947
 31
0.0
  0
LINE
  5
181
330
47
100
AcDbEntity
  8
1
  6
Continuous
 62
     2
100
AcDbLine
 10
22.9831267319544
 20
-43.20897629156936
 30
0.0
 11
22.9831267319544
 21
-47.45897629156947
 31
0.0
  0
LINE
  5
182
330
47
100
AcDbEntity
  8
1
  6
Continuous
 62
     7
100
AcDbLine
 10
22.9831267319544
 20
-43.20897629156936
 30
0.0
 11
36.4831267319544
 21
-43.20897629156936
 31
0.0
  0
LINE
  5
183
330
47
100
AcDbEntity
  8
1
  6
Continuous
 62
     2
100
AcDbLine
 10
22.9831267319544
 20
-30.45897629156947
 30
0.0
 11
22.9831267319544
 21
-34.70897629156947
 31
0.0
  0
LINE
  5
184
330
47
100
AcDbEntity
  8
1
  6
Continuous
 62
     2
100
AcDbLine
 10
22.9831267319544
 20
-30.45897629156947
 30
0.0
 11
-39.27206874129581
 21
-30.45897629156947
 31
0.0
  0
LINE
  5
185
330
47
100
AcDbEntity
  8
1
  6
Continuous
 62
     2
100
AcDbLine
 10
22.9831267319544
 20
-26.20897629156947
 30
0.0
 11
22.9831267319544
 21
-30.45897629156947
 31
0.0
  0
LINE
  5
186
330
47
100
AcDbEntity
  8
1
  6
Continuous
 62
     2
100
AcDbLine
 10
22.9831267319544
 20
-21.95897629156947
 30
0.0
 11
22.9831267319544
 21
-26.20897629156947
 31
0.0
  0
LINE
  5
187
330
47
100
AcDbEntity
  8
1
  6
Continuous
 62
     2
100
AcDbLine
 10
22.9831267319544
 20
-34.70897629156947
 30
0.0
 11
22.9831267319544
 21
-38.95897629156947
 31
0.0
  0
LINE
  5
188
330
47
100
AcDbEntity
  8
1
  6
Continuous
 62
     2
100
AcDbLine
 10
22.9831267319544
 20
-34.70897629156947
 30
0.0
 11
-39.27206874129581
 21
-34.70897629156947
 31
0.0
  0
LINE
  5
189
330
47
100
AcDbEntity
  8
1
  6
Continuous
 62
     7
100
AcDbLine
 10
72.8831267319544
 20
-30.45897629156936
 30
0.0
 11
63.4831267319544
 21
-30.45897629156947
 31
0.0
  0
LINE
  5
18A
330
47
100
AcDbEntity
  8
1
  6
Continuous
 62
     6
100
AcDbLine
 10
72.8831267319544
 20
-17.70897629156947
 30
0.0
 11
63.4831267319544
 21
-17.70897629156947
 31
0.0
  0
LINE
  5
18B
330
47
100
AcDbEntity
  8
1
  6
Continuous
 62
     7
100
AcDbLine
 10
63.4831267319544
 20
-21.95897629156947
 30
0.0
 11
72.8831267319544
 21
-21.95897629156947
 31
0.0
  0
LINE
  5
18C
330
47
100
AcDbEntity
  8
1
  6
Continuous
 62
     6
100
AcDbLine
 10
-58.97206874129381
 20
-34.70897629156947
 30
0.0
 11
-58.97206874129381
 21
-30.45897629156947
 31
0.0
  0
LINE
  5
18D
330
47
100
AcDbEntity
  8
1
  6
Continuous
 62
     2
100
AcDbLine
 10
71.7633958664697
 20
-31.08397629156947
 30
0.0
 11
75.7633958664697
 21
-31.58397629156947
 31
0.0
  0
LINE
  5
18E
330
47
100
AcDbEntity
  8
1
  6
Continuous
 62
     2
100
AcDbLine
 10
75.7633958664697
 20
-31.58397629156947
 30
0.0
 11
75.7633958664697
 21
-33.58397629156947
 31
0.0
  0
LINE
  5
18F
330
47
100
AcDbEntity
  8
1
  6
Continuous
 62
     2
100
AcDbLine
 10
75.7633958664697
 20
-33.58397629156947
 30
0.0
 11
71.7633958664697
 21
-34.08397629156947
 31
0.0
  0
LINE
  5
190
330
47
100
AcDbEntity
  8
1
  6
Continuous
 62
     2
100
AcDbLine
 10
71.7633958664697
 20
-34.08397629156947
 30
0.0
 11
71.7633958664697
 21
-31.08397629156947
 31
0.0
  0
LINE
  5
191
330
47
100
AcDbEntity
  8
1
  6
Continuous
 62
     2
100
AcDbLine
 10
-11.97206874129389
 20
-52.4589762915689
 30
0.0
 11
-80.30540207462707
 21
-52.4589762915689
 31
0.0
  0
LINE
  5
192
330
47
100
AcDbEntity
  8
1
  6
Continuous
 62
     2
100
AcDbLine
 10
124.6945979253727
 20
-52.4589762915689
 30
0.0
 11
193.0279312587061
 21
-52.4589762915689
 31
0.0
  0
LINE
  5
193
330
47
100
AcDbEntity
  8
1
  6
Continuous
 62
     2
100
AcDbLine
 10
124.6945979253727
 20
-52.4589762915689
 30
0.0
 11
124.6945979253727
 21
-47.4589762915689
 31
0.0
  0
LINE
  5
194
330
47
100
AcDbEntity
  8
1
  6
Continuous
 62
     2
100
AcDbLine
 10
56.3612645920395
 20
-52.4589762915689
 30
0.0
 11
56.3612645920395
 21
-47.4589762915689
 31
0.0
  0
LINE
  5
195
330
47
100
AcDbEntity
  8
1
  6
Continuous
 62
     2
100
AcDbLine
 10
-11.97206874129389
 20
-52.4589762915689
 30
0.0
 11
-11.97206874129389
 21
-47.4589762915689
 31
0.0
  0
LINE
  5
196
330
47
100
AcDbEntity
  8
1
  6
Continuous
 62
     2
100
AcDbLine
 10
198.0279312587036
 20
9.94102370843119
 30
0.0
 11
198.0279312587036
 21
67.34102370843128
 31
0.0
  0
LINE
  5
197
330
47
100
AcDbEntity
  8
1
  6
Continuous
 62
     2
100
AcDbLine
 10
198.0279312587036
 20
9.94102370843119
 30
0.0
 11
193.0279312587061
 21
9.94102370843119
 31
0.0
  0
LINE
  5
198
330
47
100
AcDbEntity
  8
1
  6
Continuous
 62
     2
100
AcDbLine
 10
-201.9720687412946
 20
-52.4589762915689
 30
0.0
 11
-221.9720687412947
 21
-52.4589762915689
 31
0.0
  0
LINE
  5
199
330
47
100
AcDbEntity
  8
1
  6
Continuous
 62
     2
100
AcDbLine
 10
-148.6387354079605
 20
-52.4589762915689
 30
0.0
 11
-148.6387354079605
 21
-47.4589762915689
 31
0.0
  0
LINE
  5
19A
330
47
100
AcDbEntity
  8
1
  6
Continuous
 62
     2
100
AcDbLine
 10
-148.6387354079605
 20
-52.4589762915689
 30
0.0
 11
-80.30540207462707
 21
-52.4589762915689
 31
0.0
  0
LINE
  5
19B
330
47
100
AcDbEntity
  8
1
  6
Continuous
 62
     6
100
AcDbLine
 10
-148.6387354079605
 20
-47.4589762915689
 30
0.0
 11
-80.30540207462707
 21
-47.4589762915689
 31
0.0
  0
LINE
  5
19C
330
47
100
AcDbEntity
  8
1
  6
Continuous
 62
     6
100
AcDbLine
 10
-148.6387354079605
 20
-47.4589762915689
 30
0.0
 11
-201.9720687412937
 21
-47.4589762915689
 31
0.0
  0
LINE
  5
19D
330
47
100
AcDbEntity
  8
1
  6
Continuous
 62
     2
100
AcDbLine
 10
-80.30540207462707
 20
-52.4589762915689
 30
0.0
 11
-80.30540207462707
 21
-47.4589762915689
 31
0.0
  0
LINE
  5
19E
330
47
100
AcDbEntity
  8
1
  6
Continuous
 62
     2
100
AcDbLine
 10
-201.9720687412946
 20
-52.4589762915689
 30
0.0
 11
-201.9720687412946
 21
-48.4589762915689
 31
0.0
  0
LINE
  5
19F
330
47
100
AcDbEntity
  8
1
  6
Continuous
 62
     2
100
AcDbLine
 10
-201.9720687412946
 20
-52.4589762915689
 30
0.0
 11
-148.6387354079605
 21
-52.4589762915689
 31
0.0
  0
LINE
  5
1A0
330
47
100
AcDbEntity
  8
1
  6
Continuous
 62
     2
100
AcDbLine
 10
8.02793125870331
 20
-52.4589762915689
 30
0.0
 11
-11.97206874129389
 21
-52.4589762915689
 31
0.0
  0
LINE
  5
1A1
330
47
100
AcDbEntity
  8
1
  6
Continuous
 62
     2
100
AcDbLine
 10
8.02793125870331
 20
-52.4589762915689
 30
0.0
 11
8.02793125870331
 21
-48.4589762915689
 31
0.0
  0
LINE
  5
1A2
330
47
100
AcDbEntity
  8
1
  6
Continuous
 62
     2
100
AcDbLine
 10
8.02793125870331
 20
-52.4589762915689
 30
0.0
 11
56.3612645920395
 21
-52.4589762915689
 31
0.0
  0
LINE
  5
1A3
330
47
100
AcDbEntity
  8
1
  6
Continuous
 62
     2
100
AcDbLine
 10
56.3612645920395
 20
-52.4589762915689
 30
0.0
 11
124.6945979253727
 21
-52.4589762915689
 31
0.0
  0
LINE
  5
1A4
330
47
100
AcDbEntity
  8
1
  6
Continuous
 62
     2
100
AcDbLine
 10
198.0279312587036
 20
-52.4589762915689
 30
0.0
 11
193.0279312587061
 21
-52.4589762915689
 31
0.0
  0
LINE
  5
1A5
330
47
100
AcDbEntity
  8
1
  6
Continuous
 62
     2
100
AcDbLine
 10
198.0279312587036
 20
-47.4589762915689
 30
0.0
 11
198.0279312587036
 21
-52.4589762915689
 31
0.0
  0
LINE
  5
1A6
330
47
100
AcDbEntity
  8
1
  6
Continuous
 62
     2
100
AcDbLine
 10
198.0279312587036
 20
-47.4589762915689
 30
0.0
 11
198.0279312587036
 21
9.94102370843119
 31
0.0
  0
LINE
  5
1A7
330
47
100
AcDbEntity
  8
1
  6
Continuous
 62
     2
100
AcDbLine
 10
198.0279312587036
 20
244.5410237084311
 30
0.0
 11
193.0279312587036
 21
244.5410237084311
 31
0.0
  0
LINE
  5
1A8
330
47
100
AcDbEntity
  8
1
  6
Continuous
 62
     6
100
AcDbLine
 10
193.0279312587036
 20
239.5410237084311
 30
0.0
 11
193.0279312587041
 21
182.141023708431
 31
0.0
  0
LINE
  5
1A9
330
47
100
AcDbEntity
  8
1
  6
Continuous
 62
     2
100
AcDbLine
 10
198.0279312587036
 20
244.5410237084311
 30
0.0
 11
198.0279312587036
 21
239.5410237084311
 31
0.0
  0
LINE
  5
1AA
330
47
100
AcDbEntity
  8
1
  6
Continuous
 62
     2
100
AcDbLine
 10
193.0279312587036
 20
239.5410237084311
 30
0.0
 11
193.0279312587036
 21
244.5410237084311
 31
0.0
  0
LINE
  5
1AB
330
47
100
AcDbEntity
  8
1
  6
Continuous
 62
     2
100
AcDbLine
 10
193.0279312587036
 20
239.5410237084311
 30
0.0
 11
198.0279312587036
 21
239.5410237084311
 31
0.0
  0
LINE
  5
1AC
330
47
100
AcDbEntity
  8
1
  6
Continuous
 62
     2
100
AcDbLine
 10
198.0279312587036
 20
239.5410237084311
 30
0.0
 11
198.0279312587036
 21
182.141023708431
 31
0.0
  0
LINE
  5
1AD
330
47
100
AcDbEntity
  8
1
  6
Continuous
 62
     2
100
AcDbLine
 10
193.0279312587041
 20
182.141023708431
 30
0.0
 11
198.0279312587036
 21
182.141023708431
 31
0.0
  0
LINE
  5
1AE
330
47
100
AcDbEntity
  8
1
  6
Continuous
 62
     6
100
AcDbLine
 10
193.0279312587041
 20
182.141023708431
 30
0.0
 11
193.0279312587061
 21
124.7410237084311
 31
0.0
  0
LINE
  5
1AF
330
47
100
AcDbEntity
  8
1
  6
Continuous
 62
     2
100
AcDbLine
 10
198.0279312587036
 20
182.141023708431
 30
0.0
 11
198.0279312587036
 21
124.7410237084311
 31
0.0
  0
LINE
  5
1B0
330
47
100
AcDbEntity
  8
1
  6
Continuous
 62
     2
100
AcDbLine
 10
193.0279312587061
 20
124.7410237084311
 30
0.0
 11
198.0279312587036
 21
124.7410237084311
 31
0.0
  0
LINE
  5
1B1
330
47
100
AcDbEntity
  8
1
  6
Continuous
 62
     6
100
AcDbLine
 10
193.0279312587061
 20
124.7410237084311
 30
0.0
 11
193.0279312587061
 21
67.34102370843128
 31
0.0
  0
LINE
  5
1B2
330
47
100
AcDbEntity
  8
1
  6
Continuous
 62
     2
100
AcDbLine
 10
198.0279312587036
 20
124.7410237084311
 30
0.0
 11
198.0279312587036
 21
67.34102370843128
 31
0.0
  0
LINE
  5
1B3
330
47
100
AcDbEntity
  8
1
  6
Continuous
 62
     2
100
AcDbLine
 10
193.0279312587061
 20
67.34102370843128
 30
0.0
 11
198.0279312587036
 21
67.34102370843128
 31
0.0
  0
LINE
  5
1B4
330
47
100
AcDbEntity
  8
1
  6
Continuous
 62
     6
100
AcDbLine
 10
193.0279312587061
 20
67.34102370843128
 30
0.0
 11
193.0279312587061
 21
9.94102370843119
 31
0.0
  0
LINE
  5
1B5
330
47
100
AcDbEntity
  8
1
  6
Continuous
 62
     6
100
AcDbLine
 10
-201.9720687412946
 20
239.5410237084313
 30
0.0
 11
-148.6387354079605
 21
239.5410237084313
 31
0.0
  0
LINE
  5
1B6
330
47
100
AcDbEntity
  8
1
  6
Continuous
 62
     2
100
AcDbLine
 10
193.0279312587036
 20
244.5410237084311
 30
0.0
 11
124.6945979253727
 21
244.5410237084311
 31
0.0
  0
LINE
  5
1B7
330
47
100
AcDbEntity
  8
1
  6
Continuous
 62
     2
100
AcDbLine
 10
124.6945979253727
 20
239.5410237084311
 30
0.0
 11
124.6945979253727
 21
244.5410237084311
 31
0.0
  0
LINE
  5
1B8
330
47
100
AcDbEntity
  8
1
  6
Continuous
 62
     6
100
AcDbLine
 10
124.6945979253727
 20
239.5410237084311
 30
0.0
 11
193.0279312587036
 21
239.5410237084311
 31
0.0
  0
LINE
  5
1B9
330
47
100
AcDbEntity
  8
1
  6
Continuous
 62
     2
100
AcDbLine
 10
124.6945979253727
 20
244.5410237084311
 30
0.0
 11
56.3612645920395
 21
244.5410237084311
 31
0.0
  0
LINE
  5
1BA
330
47
100
AcDbEntity
  8
1
  6
Continuous
 62
     2
100
AcDbLine
 10
56.3612645920395
 20
239.5410237084311
 30
0.0
 11
56.3612645920395
 21
244.5410237084311
 31
0.0
  0
LINE
  5
1BB
330
47
100
AcDbEntity
  8
1
  6
Continuous
 62
     6
100
AcDbLine
 10
56.3612645920395
 20
239.5410237084311
 30
0.0
 11
124.6945979253727
 21
239.5410237084311
 31
0.0
  0
LINE
  5
1BC
330
47
100
AcDbEntity
  8
1
  6
Continuous
 62
     2
100
AcDbLine
 10
56.3612645920395
 20
244.5410237084311
 30
0.0
 11
8.02793125870331
 21
244.5410237084311
 31
0.0
  0
LINE
  5
1BD
330
47
100
AcDbEntity
  8
1
  6
Continuous
 62
     2
100
AcDbLine
 10
-11.97206874129389
 20
239.5410237084311
 30
0.0
 11
-11.97206874129389
 21
244.5410237084311
 31
0.0
  0
LINE
  5
1BE
330
47
100
AcDbEntity
  8
1
  6
Continuous
 62
     6
100
AcDbLine
 10
-11.97206874129389
 20
239.5410237084311
 30
0.0
 11
56.3612645920395
 21
239.5410237084311
 31
0.0
  0
LINE
  5
1BF
330
47
100
AcDbEntity
  8
1
  6
Continuous
 62
     2
100
AcDbLine
 10
-11.97206874129389
 20
244.5410237084311
 30
0.0
 11
-80.30540207462707
 21
244.5410237084311
 31
0.0
  0
LINE
  5
1C0
330
47
100
AcDbEntity
  8
1
  6
Continuous
 62
     2
100
AcDbLine
 10
-80.30540207462707
 20
239.5410237084311
 30
0.0
 11
-80.30540207462707
 21
244.5410237084311
 31
0.0
  0
LINE
  5
1C1
330
47
100
AcDbEntity
  8
1
  6
Continuous
 62
     6
100
AcDbLine
 10
-80.30540207462707
 20
239.5410237084311
 30
0.0
 11
-11.97206874129389
 21
239.5410237084311
 31
0.0
  0
LINE
  5
1C2
330
47
100
AcDbEntity
  8
1
  6
Continuous
 62
     2
100
AcDbLine
 10
-80.30540207462707
 20
244.5410237084311
 30
0.0
 11
-148.6387354079605
 21
244.5410237084311
 31
0.0
  0
LINE
  5
1C3
330
47
100
AcDbEntity
  8
1
  6
Continuous
 62
     2
100
AcDbLine
 10
-148.6387354079605
 20
239.5410237084313
 30
0.0
 11
-148.6387354079605
 21
244.5410237084311
 31
0.0
  0
LINE
  5
1C4
330
47
100
AcDbEntity
  8
1
  6
Continuous
 62
     6
100
AcDbLine
 10
-148.6387354079605
 20
239.5410237084313
 30
0.0
 11
-80.30540207462707
 21
239.5410237084311
 31
0.0
  0
LINE
  5
1C5
330
47
100
AcDbEntity
  8
1
  6
Continuous
 62
     2
100
AcDbLine
 10
-148.6387354079605
 20
244.5410237084311
 30
0.0
 11
-201.9720687412946
 21
244.5410237084311
 31
0.0
  0
LINE
  5
1C6
330
47
100
AcDbEntity
  8
1
  6
Continuous
 62
     2
100
AcDbLine
 10
-201.9720687412946
 20
244.5410237084311
 30
0.0
 11
-201.9720687412946
 21
240.5410237084313
 31
0.0
  0
LINE
  5
1C7
330
47
100
AcDbEntity
  8
1
  6
Continuous
 62
     2
100
AcDbLine
 10
-201.9720687412946
 20
244.5410237084311
 30
0.0
 11
-221.9720687412947
 21
244.5410237084311
 31
0.0
  0
LINE
  5
1C8
330
47
100
AcDbEntity
  8
1
  6
Continuous
 62
     2
100
AcDbLine
 10
8.02793125870331
 20
244.5410237084311
 30
0.0
 11
8.02793125870331
 21
240.5410237084313
 31
0.0
  0
LINE
  5
1C9
330
47
100
AcDbEntity
  8
1
  6
Continuous
 62
     2
100
AcDbLine
 10
8.02793125870331
 20
244.5410237084311
 30
0.0
 11
-11.97206874129389
 21
244.5410237084311
 31
0.0
  0
LINE
  5
1CA
330
47
100
AcDbEntity
  8
1
  6
Continuous
 62
     2
100
AcDbLine
 10
-221.9720687412947
 20
244.5410237084311
 30
0.0
 11
-221.9720687412947
 21
96.0410237084311
 31
0.0
  0
LINE
  5
1CB
330
47
100
AcDbEntity
  8
1
  6
Continuous
 62
     2
100
AcDbLine
 10
-221.9720687412947
 20
96.0410237084311
 30
0.0
 11
-211.9720687412946
 21
96.0410237084311
 31
0.0
  0
LINE
  5
1CC
330
47
100
AcDbEntity
  8
1
  6
Continuous
 62
     2
100
AcDbLine
 10
-221.9720687412947
 20
96.0410237084311
 30
0.0
 11
-221.9720687412947
 21
-52.4589762915689
 31
0.0
  0
LINE
  5
1CD
330
47
100
AcDbEntity
  8
1
  6
Continuous
 62
     6
100
AcDbLine
 10
-201.9720687412937
 20
-47.4589762915689
 30
0.0
 11
-201.9720687412946
 21
239.5410237084313
 31
0.0
  0
LINE
  5
1CE
330
47
100
AcDbEntity
  8
1
  6
Continuous
 62
     6
100
AcDbLine
 10
193.0279312587061
 20
-47.45897629156936
 30
0.0
 11
193.0279312587057
 21
-38.95897629156947
 31
0.0
  0
LINE
  5
1CF
330
47
100
AcDbEntity
  8
1
  6
Continuous
 62
     6
100
AcDbLine
 10
-80.30540207462707
 20
-47.4589762915689
 30
0.0
 11
-58.97206874129381
 21
-47.45897629156936
 31
0.0
  0
LINE
  5
1D0
330
47
100
AcDbEntity
  8
1
  6
Continuous
 62
     2
100
AcDbLine
 10
164.4686679434969
 20
-32.00919557060162
 30
0.0
 11
164.4686679434969
 21
-34.06659153545526
 31
0.0
  0
LINE
  5
1D1
330
47
100
AcDbEntity
  8
1
  6
Continuous
 62
     7
100
AcDbLine
 10
129.5279312587084
 20
-30.45897629156947
 30
0.0
 11
129.5279312587084
 21
-26.20897629156947
 31
0.0
  0
LINE
  5
1D2
330
47
100
AcDbEntity
  8
1
  6
Continuous
 62
     7
100
AcDbLine
 10
129.5279312587084
 20
-26.20897629156947
 30
0.0
 11
122.7831267319543
 21
-26.20897629156947
 31
0.0
  0
ARC
  5
1D3
102
{ACAD_REACTORS
330
27D
330
27E
102
}
330
47
100
AcDbEntity
  8
0
  6
Continuous
 62
     2
100
AcDbCircle
 10
79.3621746649793
 20
-40.34707152965827
 30
0.0
 40
0.6378510567600014
100
AcDbArc
 50
321.8795802028328
 51
38.12041979716014
  0
ARC
  5
1D4
102
{ACAD_REACTORS
330
27D
330
27E
102
}
330
47
100
AcDbEntity
  8
0
  6
Continuous
 62
     2
100
AcDbCircle
 10
79.52724907518291
 20
-40.47660142893098
 30
0.0
 40
0.4280236140610111
100
AcDbArc
 50
218.1204197971943
 51
321.8795802027893
  0
ARC
  5
1D5
102
{ACAD_REACTORS
330
27D
330
27E
102
}
330
47
100
AcDbEntity
  8
0
  6
Continuous
 62
     2
100
AcDbCircle
 10
79.6923234853862
 20
-40.34707152965827
 30
0.0
 40
0.6378510567598505
100
AcDbArc
 50
141.8795802028336
 51
218.1204197971735
  0
ARC
  5
1D6
102
{ACAD_REACTORS
330
27D
330
27E
102
}
330
47
100
AcDbEntity
  8
0
  6
Continuous
 62
     2
100
AcDbCircle
 10
79.52724907518291
 20
-40.21754163038521
 30
0.0
 40
0.4280236140605738
100
AcDbArc
 50
38.12041979716286
 51
141.8795802028536
  0
ARC
  5
1D7
102
{ACAD_REACTORS
330
275
330
276
102
}
330
47
100
AcDbEntity
  8
0
  6
Continuous
 62
     2
100
AcDbCircle
 10
76.99665888050191
 20
-41.51274621181382
 30
0.0
 40
1.840813230556584
100
AcDbArc
 50
58.069091050038
 51
71.551923881869
  0
ARC
  5
1D8
102
{ACAD_REACTORS
330
275
330
276
102
}
330
47
100
AcDbEntity
  8
0
  6
Continuous
 62
     2
100
AcDbCircle
 10
77.21296276559181
 20
-40.17759100954346
 30
0.0
 40
0.4227934381776413
100
AcDbArc
 50
113.3722778881857
 51
151.4785267423007
  0
ARC
  5
1D9
102
{ACAD_REACTORS
330
275
330
276
102
}
330
47
100
AcDbEntity
  8
0
  6
Continuous
 62
     2
100
AcDbCircle
 10
77.52482826813761
 20
-40.34707152965827
 30
0.0
 40
0.7777353184572531
100
AcDbArc
 50
151.4785267422723
 51
208.5214732577047
  0
ARC
  5
1DA
102
{ACAD_REACTORS
330
275
330
276
102
}
330
47
100
AcDbEntity
  8
0
  6
Continuous
 62
     2
100
AcDbCircle
 10
76.866185430012
 20
-37.60931868233901
 30
0.0
 40
4.010410630990197
100
AcDbArc
 50
275.1581447696246
 51
285.9799912583524
  0
ARC
  5
1DB
102
{ACAD_REACTORS
330
275
330
276
102
}
330
47
100
AcDbEntity
  8
0
  6
Continuous
 62
     2
100
AcDbCircle
 10
77.1049094752482
 20
-40.25385635442298
 30
0.0
 40
1.355119937139993
100
AcDbArc
 50
195.0618917770909
 51
275.1581447696416
  0
ARC
  5
1DC
102
{ACAD_REACTORS
330
275
330
276
102
}
330
47
100
AcDbEntity
  8
0
  6
Continuous
 62
     2
100
AcDbCircle
 10
76.7585228277583
 20
-40.34707152965827
 30
0.0
 40
0.9964100565214103
100
AcDbArc
 50
164.9381082228847
 51
195.0618917771015
  0
ARC
  5
1DD
102
{ACAD_REACTORS
330
275
330
276
102
}
330
47
100
AcDbEntity
  8
0
  6
Continuous
 62
     2
100
AcDbCircle
 10
77.1049094752482
 20
-40.44028670489378
 30
0.0
 40
1.355119937140984
100
AcDbArc
 50
84.84185523036052
 51
164.9381082228902
  0
ARC
  5
1DE
102
{ACAD_REACTORS
330
279
330
27A
102
}
330
47
100
AcDbEntity
  8
0
  6
Continuous
 62
     2
100
AcDbCircle
 10
73.11316215775909
 20
-39.49266922027461
 30
0.0
 40
0.2609230769227745
100
AcDbArc
 50
115.3740086783684
 51
180.0
  0
ARC
  5
1DF
102
{ACAD_REACTORS
330
279
330
27A
102
}
330
47
100
AcDbEntity
  8
0
  6
Continuous
 62
     2
100
AcDbCircle
 10
73.11316215775909
 20
-37.65937731950091
 30
0.0
 40
0.2609230769229782
100
AcDbArc
 50
180.0
 51
244.6259913216317
  0
ARC
  5
1E0
102
{ACAD_REACTORS
330
279
330
27A
102
}
330
47
100
AcDbEntity
  8
0
  6
Continuous
 62
     2
100
AcDbCircle
 10
73.1178035918995
 20
-38.56623654186639
 30
0.0
 40
1.668232340440736
100
AcDbArc
 50
269.8110329575882
 51
90.18896704241182
  0
ARC
  5
1E1
102
{ACAD_REACTORS
330
279
330
27A
102
}
330
47
100
AcDbEntity
  8
0
  6
Continuous
 62
     2
100
AcDbCircle
 10
73.11316215775909
 20
-39.97353815142755
 30
0.0
 40
0.2609230769229782
100
AcDbArc
 50
180.0
 51
269.8110329574465
  0
ARC
  5
1E2
102
{ACAD_REACTORS
330
277
330
278
102
}
330
47
100
AcDbEntity
  8
0
  6
Continuous
 62
     2
100
AcDbCircle
 10
90.5209805170405
 20
-40.17759100954346
 30
0.0
 40
0.4227934381773005
100
AcDbArc
 50
109.3371432194784
 51
151.4785267424119
  0
ARC
  5
1E3
102
{ACAD_REACTORS
330
277
330
278
102
}
330
47
100
AcDbEntity
  8
0
  6
Continuous
 62
     2
100
AcDbCircle
 10
90.5209805170405
 20
-40.51655204977284
 30
0.0
 40
0.4227934381784345
100
AcDbArc
 50
208.5214732576838
 51
246.6277221118472
  0
ARC
  5
1E4
102
{ACAD_REACTORS
330
277
330
278
102
}
330
47
100
AcDbEntity
  8
0
  6
Continuous
 62
     2
100
AcDbCircle
 10
90.0665405792079
 20
-40.34707152965827
 30
0.0
 40
0.9964100565230296
100
AcDbArc
 50
164.9381082229098
 51
195.0618917771013
  0
ARC
  5
1E5
102
{ACAD_REACTORS
330
277
330
278
102
}
330
47
100
AcDbEntity
  8
0
  6
Continuous
 62
     2
100
AcDbCircle
 10
90.4129272266969
 20
-40.44028670489378
 30
0.0
 40
1.355119937140671
100
AcDbArc
 50
90.0
 51
164.9381082228987
  0
ARC
  5
1E6
102
{ACAD_REACTORS
330
27B
330
27C
102
}
330
47
100
AcDbEntity
  8
0
  6
Continuous
 62
     2
100
AcDbCircle
 10
82.6220221914046
 20
-37.57088105348113
 30
0.0
 40
1.261904761905612
100
AcDbArc
 50
90.0
 51
270.0
  0
ARC
  5
1E7
102
{ACAD_REACTORS
330
27F
330
280
102
}
330
47
100
AcDbEntity
  8
0
  6
Continuous
 62
     2
100
AcDbCircle
 10
77.04955050113531
 20
-37.14862064703927
 30
0.0
 40
0.2916229955960645
100
AcDbArc
 50
270.0
 51
90.0
  0
ARC
  5
1E8
102
{ACAD_REACTORS
330
279
330
27A
102
}
330
47
100
AcDbEntity
  8
0
  6
Continuous
 62
     2
100
AcDbCircle
 10
70.9846095242618
 20
-37.15878825738936
 30
0.0
 40
0.260923076922488
100
AcDbArc
 50
90.0
 51
180.0
  0
ARC
  5
1E9
102
{ACAD_REACTORS
330
279
330
27A
102
}
330
47
100
AcDbEntity
  8
0
  6
Continuous
 62
     2
100
AcDbCircle
 10
72.6361944073895
 20
-38.57602326988753
 30
0.0
 40
0.753634316989858
100
AcDbArc
 50
115.1944106485226
 51
244.8055893514885
  0
ARC
  5
1EA
102
{ACAD_REACTORS
330
279
330
27A
102
}
330
47
100
AcDbEntity
  8
0
  6
Continuous
 62
     2
100
AcDbCircle
 10
72.204306434187
 20
-39.49406438233599
 30
0.0
 40
0.2609230769228077
100
AcDbArc
 50
0.0
 51
64.80558935144161
  0
ARC
  5
1EB
102
{ACAD_REACTORS
330
279
330
27A
102
}
330
47
100
AcDbEntity
  8
0
  6
Continuous
 62
     2
100
AcDbCircle
 10
70.49378747736381
 20
-41.25836090694919
 30
0.0
 40
0.3506153846139171
100
AcDbArc
 50
180.0
 51
270.0
  0
ARC
  5
1EC
102
{ACAD_REACTORS
330
27B
330
27C
102
}
330
47
100
AcDbEntity
  8
0
  6
Continuous
 62
     2
100
AcDbCircle
 10
82.80075938988821
 20
-37.44135115420808
 30
0.0
 40
0.4280236140607304
100
AcDbArc
 50
38.12041979714642
 51
141.8795802028465
  0
ARC
  5
1ED
102
{ACAD_REACTORS
330
27B
330
27C
102
}
330
47
100
AcDbEntity
  8
0
  6
Continuous
 62
     2
100
AcDbCircle
 10
82.9658338000917
 20
-37.57088105348113
 30
0.0
 40
0.6378510567599356
100
AcDbArc
 50
141.8795802028404
 51
218.1204197971676
  0
ARC
  5
1EE
102
{ACAD_REACTORS
330
27D
330
27E
102
}
330
47
100
AcDbEntity
  8
0
  6
Continuous
 62
     2
100
AcDbCircle
 10
79.52724907518291
 20
-39.90196821535803
 30
0.0
 40
1.707008076205432
100
AcDbArc
 50
242.4518518243388
 51
297.5481481756848
  0
ARC
  5
1EF
102
{ACAD_REACTORS
330
27D
330
27E
102
}
330
47
100
AcDbEntity
  8
0
  6
Continuous
 62
     2
100
AcDbCircle
 10
79.52724907518291
 20
-40.79217484395817
 30
0.0
 40
1.70700807620541
100
AcDbArc
 50
62.45185182430831
 51
117.548148175668
  0
ARC
  5
1F0
102
{ACAD_REACTORS
330
27D
330
27E
102
}
330
47
100
AcDbEntity
  8
0
  6
Continuous
 62
     2
100
AcDbCircle
 10
79.295067346395
 20
-40.34707152965827
 30
0.0
 40
1.204986845992916
100
AcDbArc
 50
117.5481481756639
 51
242.4518518243383
  0
ARC
  5
1F1
102
{ACAD_REACTORS
330
27D
330
27E
102
}
330
47
100
AcDbEntity
  8
0
  6
Continuous
 62
     2
100
AcDbCircle
 10
79.7594308039707
 20
-40.34707152965827
 30
0.0
 40
1.204986845993425
100
AcDbArc
 50
297.5481481757
 51
62.45185182429776
  0
ARC
  5
1F2
102
{ACAD_REACTORS
330
27B
330
27C
102
}
330
47
100
AcDbEntity
  8
0
  6
Continuous
 62
     2
100
AcDbCircle
 10
82.80075938988821
 20
-37.7004109527543
 30
0.0
 40
0.4280236140606632
100
AcDbArc
 50
218.1204197971535
 51
321.8795802028536
  0
ARC
  5
1F3
102
{ACAD_REACTORS
330
27B
330
27C
102
}
330
47
100
AcDbEntity
  8
0
  6
Continuous
 62
     2
100
AcDbCircle
 10
82.63568497968481
 20
-37.57088105348113
 30
0.0
 40
0.6378510567600058
100
AcDbArc
 50
321.8795802028323
 51
38.12041979715963
  0
ARC
  5
1F4
102
{ACAD_REACTORS
330
279
330
27A
102
}
330
47
100
AcDbEntity
  8
0
  6
Continuous
 62
     2
100
AcDbCircle
 10
75.01718589944389
 20
-41.25836090694919
 30
0.0
 40
0.3506153846143505
100
AcDbArc
 50
270.0
 51
0.0
  0
ARC
  5
1F5
102
{ACAD_REACTORS
330
279
330
27A
102
}
330
47
100
AcDbEntity
  8
0
  6
Continuous
 62
     2
100
AcDbCircle
 10
75.01718589944389
 20
-36.65959167620521
 30
0.0
 40
0.3506153846148266
100
AcDbArc
 50
0.0
 51
90.0
  0
ARC
  5
1F6
102
{ACAD_REACTORS
330
279
330
27A
102
}
330
47
100
AcDbEntity
  8
0
  6
Continuous
 62
     2
100
AcDbCircle
 10
70.49378747736381
 20
-36.65959167620521
 30
0.0
 40
0.3506153846146773
100
AcDbArc
 50
90.0
 51
180.0
  0
ARC
  5
1F7
102
{ACAD_REACTORS
330
279
330
27A
102
}
330
47
100
AcDbEntity
  8
0
  6
Continuous
 62
     2
100
AcDbCircle
 10
72.204306434187
 20
-40.7591643257506
 30
0.0
 40
0.2609230769228361
100
AcDbArc
 50
270.0
 51
0.0
  0
ARC
  5
1F8
102
{ACAD_REACTORS
330
279
330
27A
102
}
330
47
100
AcDbEntity
  8
0
  6
Continuous
 62
     2
100
AcDbCircle
 10
72.204306434187
 20
-37.65798215743941
 30
0.0
 40
0.2609230769223494
100
AcDbArc
 50
295.1944106485591
 51
0.0
  0
ARC
  5
1F9
102
{ACAD_REACTORS
330
279
330
27A
102
}
330
47
100
AcDbEntity
  8
0
  6
Continuous
 62
     2
100
AcDbCircle
 10
72.204306434187
 20
-37.15878825738936
 30
0.0
 40
0.2609230769228077
100
AcDbArc
 50
0.0
 51
90.0
  0
ARC
  5
1FA
102
{ACAD_REACTORS
330
279
330
27A
102
}
330
47
100
AcDbEntity
  8
0
  6
Continuous
 62
     2
100
AcDbCircle
 10
70.9846095242618
 20
-40.7591643257506
 30
0.0
 40
0.2609230769220972
100
AcDbArc
 50
180.0
 51
270.0
  0
ARC
  5
1FB
102
{ACAD_REACTORS
330
27F
330
280
102
}
330
47
100
AcDbEntity
  8
0
  6
Continuous
 62
     2
100
AcDbCircle
 10
77.41440382860509
 20
-37.18117930094219
 30
0.0
 40
0.8722030093666717
100
AcDbArc
 50
270.0
 51
90.0
  0
ARC
  5
1FC
102
{ACAD_REACTORS
330
277
330
278
102
}
330
47
100
AcDbEntity
  8
0
  6
Continuous
 62
     2
100
AcDbCircle
 10
90.4129272266969
 20
-40.25385635442298
 30
0.0
 40
1.35511993714085
100
AcDbArc
 50
195.0618917771008
 51
275.1581447696782
  0
ARC
  5
1FD
102
{ACAD_REACTORS
330
277
330
278
102
}
330
47
100
AcDbEntity
  8
0
  6
Continuous
 62
     2
100
AcDbCircle
 10
90.17420318146071
 20
-37.60931868233901
 30
0.0
 40
4.010410630990729
100
AcDbArc
 50
275.1581447696365
 51
285.979991258338
  0
ARC
  5
1FE
102
{ACAD_REACTORS
330
277
330
278
102
}
330
47
100
AcDbEntity
  8
0
  6
Continuous
 62
     2
100
AcDbCircle
 10
90.3046766319506
 20
-39.18139684750283
 30
0.0
 40
1.840813230556036
100
AcDbArc
 50
288.448076118132
 51
301.9309089499388
  0
ARC
  5
1FF
102
{ACAD_REACTORS
330
277
330
278
102
}
330
47
100
AcDbEntity
  8
0
  6
Continuous
 62
     2
100
AcDbCircle
 10
90.65026980026619
 20
-40.21738509216119
 30
0.0
 40
0.7487023016407329
100
AcDbArc
 50
246.6277221118233
 51
288.448076118081
  0
ARC
  5
200
102
{ACAD_REACTORS
330
277
330
278
102
}
330
47
100
AcDbEntity
  8
0
  6
Continuous
 62
     2
100
AcDbCircle
 10
90.83284601958721
 20
-40.34707152965827
 30
0.0
 40
0.7777353184586091
100
AcDbArc
 50
151.4785267423647
 51
208.5214732576716
  0
ARC
  5
201
102
{ACAD_REACTORS
330
277
330
278
102
}
330
47
100
AcDbEntity
  8
0
  6
Continuous
 62
     2
100
AcDbCircle
 10
90.64219539150639
 20
-40.5230083487029
 30
0.0
 40
0.7888619891125401
100
AcDbArc
 50
90.0
 51
109.3371432194291
  0
ARC
  5
202
102
{ACAD_REACTORS
330
279
330
27A
102
}
330
47
100
AcDbEntity
  8
0
  6
Continuous
 62
     2
100
AcDbCircle
 10
73.11316215775909
 20
-37.15893493230523
 30
0.0
 40
0.2609230769224678
100
AcDbArc
 50
90.18896704255349
 51
180.0
  0
ARC
  5
203
102
{ACAD_REACTORS
330
279
330
27A
102
}
330
47
100
AcDbEntity
  8
0
  6
Continuous
 62
     2
100
AcDbCircle
 10
72.6784161262814
 20
-38.57602326988753
 30
0.0
 40
0.7535935125160714
100
AcDbArc
 50
295.3740086781789
 51
64.62599132180598
  0
ARC
  5
204
102
{ACAD_REACTORS
330
275
330
276
102
}
330
47
100
AcDbEntity
  8
0
  6
Continuous
 62
     2
100
AcDbCircle
 10
76.99665888050191
 20
-39.18139684750237
 30
0.0
 40
1.84081323055604
100
AcDbArc
 50
288.448076118131
 51
301.930908949962
  0
ARC
  5
205
102
{ACAD_REACTORS
330
275
330
276
102
}
330
47
100
AcDbEntity
  8
0
  6
Continuous
 62
     2
100
AcDbCircle
 10
77.3422520488167
 20
-40.21738509216119
 30
0.0
 40
0.7487023016404623
100
AcDbArc
 50
246.6277221118712
 51
288.4480761181475
  0
ARC
  5
206
102
{ACAD_REACTORS
330
275
330
276
102
}
330
47
100
AcDbEntity
  8
0
  6
Continuous
 62
     2
100
AcDbCircle
 10
77.21296276559181
 20
-40.51655204977284
 30
0.0
 40
0.4227934381774399
100
AcDbArc
 50
208.5214732576858
 51
246.627722111833
  0
ARC
  5
207
102
{ACAD_REACTORS
330
275
330
276
102
}
330
47
100
AcDbEntity
  8
0
  6
Continuous
 62
     2
100
AcDbCircle
 10
77.3422520488167
 20
-40.47675796715545
 30
0.0
 40
0.7487023016407643
100
AcDbArc
 50
71.5519238818633
 51
113.3722778881292
  0
ARC
  5
208
102
{ACAD_REACTORS
330
275
330
276
102
}
330
47
100
AcDbEntity
  8
0
  6
Continuous
 62
     2
100
AcDbCircle
 10
76.866185430012
 20
-43.08482437697718
 30
0.0
 40
4.010410630989981
100
AcDbArc
 50
74.0200087416472
 51
84.84185523037543
  0
CIRCLE
  5
209
102
{ACAD_REACTORS
330
279
330
27A
102
}
330
47
100
AcDbEntity
  8
0
  6
Continuous
 62
     2
100
AcDbCircle
 10
72.6587342959734
 20
-38.57602326988753
 30
0.0
 40
0.3892387874201972
  0
CIRCLE
  5
20A
330
47
100
AcDbEntity
  8
1
  6
Continuous
 62
     2
100
AcDbCircle
 10
68.5753865570577
 20
-32.58397629156947
 30
0.0
 40
1.0
  0
CIRCLE
  5
20B
330
47
100
AcDbEntity
  8
1
  6
Continuous
 62
     2
100
AcDbCircle
 10
68.5753865570577
 20
-32.58397629156947
 30
0.0
 40
1.5
  0
MTEXT
  5
20D
330
47
100
AcDbEntity
  8
1
 62
     2
100
AcDbMText
 10
-38.27206874129581
 20
-41.08397629156936
 30
0.0
 40
2.0
 41
0.0
 71
     4
 72
     1
  1
 
  7
CONVERTER_11
 73
     1
 44
1.20048019207683
  0
MTEXT
  5
20E
330
47
100
AcDbEntity
  8
1
 62
     2
100
AcDbMText
 10
-38.27206874129581
 20
-36.83397629156947
 30
0.0
 40
2.0
 41
0.0
 71
     4
 72
     1
  1
 
  7
CONVERTER_11
 73
     1
 44
1.20048019207683
  0
MTEXT
  5
20F
330
47
100
AcDbEntity
  8
1
 62
     2
100
AcDbMText
 10
-38.27206874129581
 20
-32.58397629156947
 30
0.0
 40
2.0
 41
0.0
 71
     4
 72
     1
  1
 
  7
CONVERTER_11
 73
     1
 44
1.20048019207683
  0
MTEXT
  5
210
330
47
100
AcDbEntity
  8
1
 62
     2
100
AcDbMText
 10
-38.27206874129581
 20
-28.33397629156947
 30
0.0
 40
2.0
 41
0.0
 71
     4
 72
     1
  1
 
  7
CONVERTER_11
 73
     1
 44
1.20048019207683
  0
MTEXT
  5
211
330
47
100
AcDbEntity
  8
1
 62
     2
100
AcDbMText
 10
-38.27206874129581
 20
-24.08397629156947
 30
0.0
 40
2.0
 41
0.0
 71
     4
 72
     1
  1
 
  7
CONVERTER_11
 73
     1
 44
1.20048019207683
  0
MTEXT
  5
212
330
47
100
AcDbEntity
  8
1
 62
     2
100
AcDbMText
 10
-38.27206874129581
 20
-19.83397629156947
 30
0.0
 40
2.0
 41
0.0
 71
     4
 72
     1
  1
 
  7
CONVERTER_11
 73
     1
 44
1.20048019207683
  0
MTEXT
  5
214
330
47
100
AcDbEntity
  8
1
 62
     2
100
AcDbMText
 10
56.73312673195431
 20
-41.08397629156936
 30
0.0
 40
2.0
 41
0.0
 71
     5
 72
     1
  1
 
  7
CONVERTER_12
 73
     1
 44
1.20048019207683
  0
MTEXT
  5
215
330
47
100
AcDbEntity
  8
1
 62
     2
100
AcDbMText
 10
56.73312673195431
 20
-36.83397629156947
 30
0.0
 40
2.0
 41
0.0
 71
     5
 72
     1
  1
 
  7
CONVERTER_12
 73
     1
 44
1.20048019207683
  0
MTEXT
  5
216
330
47
100
AcDbEntity
  8
1
 62
     2
100
AcDbMText
 10
56.73312673195431
 20
-32.58397629156947
 30
0.0
 40
2.0
 41
0.0
 71
     5
 72
     1
  1
 
  7
CONVERTER_12
 73
     1
 44
1.20048019207683
  0
MTEXT
  5
217
330
47
100
AcDbEntity
  8
1
 62
     2
100
AcDbMText
 10
56.73312673195431
 20
-28.33397629156947
 30
0.0
 40
2.0
 41
0.0
 71
     5
 72
     1
  1
 
  7
CONVERTER_12
 73
     1
 44
1.20048019207683
  0
MTEXT
  5
218
330
47
100
AcDbEntity
  8
1
 62
     2
100
AcDbMText
 10
56.73312673195431
 20
-24.08397629156947
 30
0.0
 40
2.0
 41
0.0
 71
     5
 72
     1
  1
 
  7
CONVERTER_12
 73
     1
 44
1.20048019207683
  0
MTEXT
  5
219
330
47
100
AcDbEntity
  8
1
 62
     2
100
AcDbMText
 10
56.73312673195431
 20
-19.83397629156947
 30
0.0
 40
2.0
 41
0.0
 71
     5
 72
     1
  1
 
  7
CONVERTER_12
 73
     1
 44
1.20048019207683
  0
MTEXT
  5
21A
330
47
100
AcDbEntity
  8
1
 62
     2
100
AcDbMText
 10
43.23312673195431
 20
-41.08397629156936
 30
0.0
 40
2.0
 41
0.0
 71
     5
 72
     1
  1
 
  7
CONVERTER_12
 73
     1
 44
1.20048019207683
  0
MTEXT
  5
21B
330
47
100
AcDbEntity
  8
1
 62
     2
100
AcDbMText
 10
43.2331267319544
 20
-36.83397629156947
 30
0.0
 40
2.0
 41
0.0
 71
     5
 72
     1
  1
 
  7
CONVERTER_12
 73
     1
 44
1.20048019207683
  0
MTEXT
  5
21C
330
47
100
AcDbEntity
  8
1
 62
     2
100
AcDbMText
 10
43.2331267319544
 20
-32.58397629156947
 30
0.0
 40
2.0
 41
0.0
 71
     5
 72
     1
  1
 
  7
CONVERTER_12
 73
     1
 44
1.20048019207683
  0
MTEXT
  5
21D
330
47
100
AcDbEntity
  8
1
 62
     2
100
AcDbMText
 10
43.2331267319544
 20
-28.33397629156947
 30
0.0
 40
2.0
 41
0.0
 71
     5
 72
     1
  1
 
  7
CONVERTER_12
 73
     1
 44
1.20048019207683
  0
MTEXT
  5
21E
330
47
100
AcDbEntity
  8
1
 62
     2
100
AcDbMText
 10
43.2331267319544
 20
-24.08397629156947
 30
0.0
 40
2.0
 41
0.0
 71
     5
 72
     1
  1
 
  7
CONVERTER_12
 73
     1
 44
1.20048019207683
  0
MTEXT
  5
21F
330
47
100
AcDbEntity
  8
1
 62
     2
100
AcDbMText
 10
43.2331267319544
 20
-19.83397629156947
 30
0.0
 40
2.0
 41
0.0
 71
     5
 72
     1
  1
 
  7
CONVERTER_12
 73
     1
 44
1.20048019207683
  0
MTEXT
  5
220
330
47
100
AcDbEntity
  8
1
 62
     2
100
AcDbMText
 10
29.7331267319544
 20
-19.83397629156947
 30
0.0
 40
2.0
 41
0.0
 71
     5
 72
     1
  1
 
  7
CONVERTER_12
 73
     1
 44
1.20048019207683
  0
MTEXT
  5
221
330
47
100
AcDbEntity
  8
1
 62
     2
100
AcDbMText
 10
29.7331267319544
 20
-24.08397629156947
 30
0.0
 40
2.0
 41
0.0
 71
     5
 72
     1
  1
 
  7
CONVERTER_12
 73
     1
 44
1.20048019207683
  0
MTEXT
  5
222
330
47
100
AcDbEntity
  8
1
 62
     2
100
AcDbMText
 10
29.7331267319544
 20
-28.33397629156947
 30
0.0
 40
2.0
 41
0.0
 71
     5
 72
     1
  1
 
  7
CONVERTER_12
 73
     1
 44
1.20048019207683
  0
MTEXT
  5
223
330
47
100
AcDbEntity
  8
1
 62
     2
100
AcDbMText
 10
29.7331267319544
 20
-32.58397629156947
 30
0.0
 40
2.0
 41
0.0
 71
     5
 72
     1
  1
 
  7
CONVERTER_12
 73
     1
 44
1.20048019207683
  0
MTEXT
  5
224
330
47
100
AcDbEntity
  8
1
 62
     2
100
AcDbMText
 10
29.7331267319544
 20
-36.83397629156947
 30
0.0
 40
2.0
 41
0.0
 71
     5
 72
     1
  1
 
  7
CONVERTER_12
 73
     1
 44
1.20048019207683
  0
MTEXT
  5
225
330
47
100
AcDbEntity
  8
1
 62
     2
100
AcDbMText
 10
29.7331267319544
 20
-41.08397629156936
 30
0.0
 40
2.0
 41
0.0
 71
     5
 72
     1
  1
 
  7
CONVERTER_12
 73
     1
 44
1.20048019207683
  0
MTEXT
  5
226
330
47
100
AcDbEntity
  8
1
 62
     2
100
AcDbMText
 10
-46.02206874129581
 20
-19.83397629156947
 30
0.0
 40
2.0
 41
0.0
 71
     5
 72
     1
  1
 
  7
CONVERTER_12
 73
     1
 44
1.20048019207683
  0
MTEXT
  5
227
330
47
100
AcDbEntity
  8
1
 62
     2
100
AcDbMText
 10
-46.02206874129581
 20
-24.08397629156947
 30
0.0
 40
2.0
 41
0.0
 71
     5
 72
     1
  1
 
  7
CONVERTER_12
 73
     1
 44
1.20048019207683
  0
MTEXT
  5
228
330
47
100
AcDbEntity
  8
1
 62
     2
100
AcDbMText
 10
-46.02206874129581
 20
-28.33397629156947
 30
0.0
 40
2.0
 41
0.0
 71
     5
 72
     1
  1
 
  7
CONVERTER_12
 73
     1
 44
1.20048019207683
  0
MTEXT
  5
229
330
47
100
AcDbEntity
  8
1
 62
     2
100
AcDbMText
 10
-46.02206874129581
 20
-32.58397629156947
 30
0.0
 40
2.0
 41
0.0
 71
     5
 72
     1
  1
 
  7
CONVERTER_12
 73
     1
 44
1.20048019207683
  0
MTEXT
  5
22A
330
47
100
AcDbEntity
  8
1
 62
     2
100
AcDbMText
 10
-46.02206874129581
 20
-36.83397629156947
 30
0.0
 40
2.0
 41
0.0
 71
     5
 72
     1
  1
 
  7
CONVERTER_12
 73
     1
 44
1.20048019207683
  0
MTEXT
  5
22B
330
47
100
AcDbEntity
  8
1
 62
     2
100
AcDbMText
 10
-46.02206874129581
 20
-41.08397629156936
 30
0.0
 40
2.0
 41
0.0
 71
     5
 72
     1
  1
 
  7
CONVERTER_12
 73
     1
 44
1.20048019207683
  0
MTEXT
  5
22C
330
47
100
AcDbEntity
  8
1
 62
     2
100
AcDbMText
 10
-55.87206874129481
 20
-41.08397629156936
 30
0.0
 40
2.0
 41
0.0
 71
     5
 72
     1
  1
 
  7
CONVERTER_12
 73
     1
 44
1.20048019207683
  0
MTEXT
  5
22D
330
47
100
AcDbEntity
  8
1
 62
     2
100
AcDbMText
 10
-55.87206874129481
 20
-36.83397629156947
 30
0.0
 40
2.0
 41
0.0
 71
     5
 72
     1
  1
 
  7
CONVERTER_12
 73
     1
 44
1.20048019207683
  0
MTEXT
  5
22E
330
47
100
AcDbEntity
  8
1
 62
     2
100
AcDbMText
 10
-55.87206874129481
 20
-32.58397629156947
 30
0.0
 40
2.0
 41
0.0
 71
     5
 72
     1
  1
 
  7
CONVERTER_12
 73
     1
 44
1.20048019207683
  0
MTEXT
  5
22F
330
47
100
AcDbEntity
  8
1
 62
     2
100
AcDbMText
 10
-55.87206874129481
 20
-28.33397629156947
 30
0.0
 40
2.0
 41
0.0
 71
     5
 72
     1
  1
 
  7
CONVERTER_12
 73
     1
 44
1.20048019207683
  0
MTEXT
  5
230
330
47
100
AcDbEntity
  8
1
 62
     2
100
AcDbMText
 10
-55.87206874129481
 20
-24.08397629156947
 30
0.0
 40
2.0
 41
0.0
 71
     5
 72
     1
  1
 
  7
CONVERTER_12
 73
     1
 44
1.20048019207683
  0
MTEXT
  5
231
330
47
100
AcDbEntity
  8
1
 62
     2
100
AcDbMText
 10
-55.87206874129481
 20
-19.83397629156947
 30
0.0
 40
2.0
 41
0.0
 71
     5
 72
     1
  1
 
  7
CONVERTER_12
 73
     1
 44
1.20048019207683
  0
MTEXT
  5
232
330
47
100
AcDbEntity
  8
1
 62
     2
100
AcDbMText
 10
149.027931258708
 20
-31.45897629156947
 30
0.0
 40
1.8
 41
0.0
 71
     1
 72
     1
  1
surface in um
  7
CONVERTER_12
 73
     1
 44
1.32052821128451
  0
MTEXT
  5
233
330
47
100
AcDbEntity
  8
1
 62
     2
100
AcDbMText
 10
176.4463395403851
 20
-18.70897629156947
 30
0.0
 40
1.8
 41
0.0
 71
     1
 72
     1
  1
dim.var.
  7
CONVERTER_12
 73
     1
 44
1.20048019207683
  0
MTEXT
  5
235
330
47
100
AcDbEntity
  8
1
 62
     2
100
AcDbMText
 10
130.5279312587084
 20
-31.45897629156947
 30
0.0
 40
1.8
 41
0.0
 71
     1
 72
     1
  1
document-No.
  7
CONVERTER_13
 73
     1
 44
1.32052821128451
  0
TEXT
  5
236
330
47
100
AcDbEntity
  8
1
 62
     2
100
AcDbText
 10
82.6831267319543
 20
-46.21799350656103
 30
0.0
 40
1.8
  1
of
 41
0.9
  7
CONVERTER_12
100
AcDbText
  0
TEXT
  5
237
330
47
100
AcDbEntity
  8
1
 62
     2
100
AcDbText
 10
64.4831267319544
 20
-46.21799350656114
 30
0.0
 40
1.8
  1
page
 41
0.9
  7
CONVERTER_12
100
AcDbText
  0
MTEXT
  5
238
330
47
100
AcDbEntity
  8
1
 62
     2
100
AcDbMText
 10
56.73312673195431
 20
-46.20897629156947
 30
0.0
 40
1.8
 41
0.0
 71
     8
 72
     1
  1
name
  7
CONVERTER_12
 73
     1
 44
1.32052821128451
  0
MTEXT
  5
239
330
47
100
AcDbEntity
  8
1
 62
     2
100
AcDbMText
 10
43.2331267319544
 20
-46.20897629156947
 30
0.0
 40
1.8
 41
0.0
 71
     8
 72
     1
  1
check.on
  7
CONVERTER_12
 73
     1
 44
1.32052821128451
  0
MTEXT
  5
23A
330
47
100
AcDbEntity
  8
1
 62
     2
100
AcDbMText
 10
29.7331267319544
 20
-46.20897629156947
 30
0.0
 40
1.8
 41
0.0
 71
     8
 72
     1
  1
name
  7
CONVERTER_12
 73
     1
 44
1.32052821128451
  0
MTEXT
  5
23B
330
47
100
AcDbEntity
  8
1
 62
     2
100
AcDbMText
 10
-46.02206874129581
 20
-46.20897629156947
 30
0.0
 40
1.8
 41
0.0
 71
     8
 72
     1
  1
date
  7
CONVERTER_12
 73
     1
 44
1.32052821128451
  0
MTEXT
  5
23C
330
47
100
AcDbEntity
  8
1
 62
     2
100
AcDbMText
 10
124.0083158895458
 20
-18.7089762915697
 30
0.0
 40
1.8
 41
0.0
 71
     1
 72
     1
  1
material
  7
CONVERTER_12
 73
     1
 44
1.20048019207683
  0
MTEXT
  5
23D
330
47
100
AcDbEntity
  8
1
 62
     2
100
AcDbMText
 10
-55.87206874129481
 20
-46.20897629156947
 30
0.0
 40
1.8
 41
0.0
 71
     8
 72
     1
  1
RI
  7
CONVERTER_12
 73
     1
 44
1.32052821128451
  0
MTEXT
  5
23E
330
47
100
AcDbEntity
  8
1
 62
     2
100
AcDbMText
 10
79.63312673195429
 20
-20.75897629156943
 30
0.0
 40
1.8
 41
0.0
 71
     8
 72
     1
  1
date
  7
CONVERTER_12
 73
     1
 44
1.32052821128451
  0
MTEXT
  5
23F
330
47
100
AcDbEntity
  8
1
 62
     2
100
AcDbMText
 10
93.13312673195429
 20
-20.75897629156943
 30
0.0
 40
1.8
 41
0.0
 71
     8
 72
     1
  1
name
  7
CONVERTER_12
 73
     1
 44
1.32052821128451
  0
MTEXT
  5
240
330
47
100
AcDbEntity
  8
1
 62
     2
100
AcDbMText
 10
-8.1444710046707
 20
-46.20897629156947
 30
0.0
 40
1.8
 41
0.0
 71
     8
 72
     1
  1
revision
  7
CONVERTER_12
 73
     1
 44
1.32052821128451
  0
MTEXT
  5
241
330
47
100
AcDbEntity
  8
1
 62
     2
100
AcDbMText
 10
167.3279312587062
 20
-18.70897629156947
 30
0.0
 40
1.8
 41
0.0
 71
     1
 72
     1
  1
scale
  7
CONVERTER_12
 73
     1
 44
1.20048019207683
  0
MTEXT
  5
242
330
47
100
AcDbEntity
  8
1
 62
     2
100
AcDbMText
 10
68.18312673195439
 20
-24.08397629156947
 30
0.0
 40
1.8
 41
0.0
 71
     5
 72
     1
  1
creat.
  7
CONVERTER_12
 73
     1
 44
1.20048019207683
  0
MTEXT
  5
243
330
47
100
AcDbEntity
  8
1
 62
     2
100
AcDbMText
 10
68.18312673195439
 20
-28.33397629156947
 30
0.0
 40
1.8
 41
0.0
 71
     5
 72
     1
  1
check.
  7
CONVERTER_12
 73
     1
 44
1.20048019207683
  0
MTEXT
  5
244
330
47
100
AcDbEntity
  8
1
 62
     3
100
AcDbMText
 10
89.6831267319543
 20
-32.58397629156936
 30
0.0
 40
2.5
 41
0.0
 71
     5
 72
     1
  1
DIN A3
  7
CONVERTER_12
 73
     1
 44
1.20048019207683
  0
MTEXT
  5
245
330
47
100
AcDbEntity
  8
1
 62
     2
100
AcDbMText
 10
100.9831267319543
 20
-18.70897629156947
 30
0.0
 40
1.8
 41
0.0
 71
     1
 72
     1
  1
ident.-No. / RI
  7
CONVERTER_12
 73
     1
 44
1.20048019207683
  0
TEXT
  5
246
330
47
100
AcDbEntity
  8
1
 62
     2
100
AcDbText
 10
73.12939170229649
 20
-46.25822494537137
 30
0.0
 40
1.8
  1
 
 41
0.9
  7
CONVERTER_12
100
AcDbText
  0
TEXT
  5
247
330
47
100
AcDbEntity
  8
1
 62
     2
100
AcDbText
 10
87.91843554176799
 20
-46.20897629156947
 30
0.0
 40
1.8
  1
1
 41
0.9
  7
CONVERTER_12
100
AcDbText
  0
MTEXT
  5
248
330
47
100
AcDbEntity
  8
1
 62
     2
100
AcDbMText
 10
100.8831267319543
 20
-39.95897629156947
 30
0.0
 40
1.8
 41
0.0
 71
     1
 72
     1
  1
description
  7
CONVERTER_12
 73
     1
 44
1.20048019207683
  0
MTEXT
  5
249
330
47
100
AcDbEntity
  8
1
 62
     2
100
AcDbMText
 10
68.18312673195439
 20
-20.75897629156943
 30
0.0
 40
1.8
 41
0.0
 71
     8
 72
     1
  1
00
  7
CONVERTER_12
 73
     1
 44
1.20048019207683
  0
MTEXT
  5
24A
330
47
100
AcDbEntity
  8
1
 62
     2
100
AcDbMText
 10
100.8831267319543
 20
-31.45897629156947
 30
0.0
 40
1.8
 41
0.0
 71
     1
 72
     1
  1
document-type
  7
CONVERTER_12
 73
     1
 44
1.20048019207683
  0
MTEXT
  5
24B
330
47
100
AcDbEntity
  8
1
 62
     2
100
AcDbMText
 10
93.13312673195429
 20
-28.33397629156947
 30
0.0
 40
1.8
 41
0.0
 71
     5
 72
     1
  1
Angenent
  7
CONVERTER_12
 73
     1
 44
1.32052821128451
  0
MTEXT
  5
24C
330
47
100
AcDbEntity
  8
1
 62
     2
100
AcDbMText
 10
93.13312673195429
 20
-24.08397629156947
 30
0.0
 40
1.8
 41
0.0
 71
     5
 72
     1
  1
Schr\U+00f6der
  7
CONVERTER_12
 73
     1
 44
1.32052821128451
  0
MTEXT
  5
24D
330
47
100
AcDbEntity
  8
1
 62
     2
100
AcDbMText
 10
79.63312673195429
 20
-28.33397629156947
 30
0.0
 40
1.8
 41
0.0
 71
     5
 72
     1
  1
09.04.13
  7
CONVERTER_12
 73
     1
 44
1.32052821128451
  0
MTEXT
  5
24E
330
47
100
AcDbEntity
  8
1
 62
     2
100
AcDbMText
 10
79.63312673195429
 20
-24.08397629156947
 30
0.0
 40
1.8
 41
0.0
 71
     5
 72
     1
  1
04.04.13
  7
CONVERTER_12
 73
     1
 44
1.32052821128451
  0
TEXT
  5
24F
330
47
100
AcDbEntity
  8
1
 62
     7
100
AcDbText
 10
115.8566744539681
 20
-24.90897629156952
 30
0.0
 40
2.5
  1
/
 41
0.9
  7
CONVERTER_12
100
AcDbText
  0
MTEXT
  5
251
330
47
100
AcDbEntity
  8
1
 62
     3
100
AcDbMText
 10
170.6871353995458
 20
-24.9089762915694
 30
0.0
 40
2.5
 41
0.0
 71
     8
 72
     1
  1
1:1
  7
CONVERTER_14
 73
     1
 44
1.32052821128451
  0
TEXT
  5
253
330
47
100
AcDbEntity
  8
1
 62
     3
100
AcDbText
 10
123.7831267319543
 20
-24.90897629156952
 30
0.0
 40
2.5
  1
 
 41
0.54
  7
CONVERTER_15
100
AcDbText
  0
TEXT
  5
255
330
47
100
AcDbEntity
  8
1
 62
     7
100
AcDbText
 10
101.3831267319541
 20
-24.90897629156952
 30
0.0
 40
2.5
  1
1409820
 41
0.81
  7
CONVERTER_16
100
AcDbText
  0
TEXT
  5
256
330
47
100
AcDbEntity
  8
1
 62
     7
100
AcDbText
 10
130.5279312587084
 20
-37.65897629156952
 30
0.0
 40
2.5
  1
00718791
 41
0.81
  7
CONVERTER_16
100
AcDbText
  0
TEXT
  5
257
330
47
100
AcDbEntity
  8
1
 62
     3
100
AcDbText
 10
176.1463395403852
 20
-24.90897629156952
 30
0.0
 40
2.5
  1
 
 41
0.54
  7
CONVERTER_15
100
AcDbText
  0
TEXT
  5
258
330
47
100
AcDbEntity
  8
1
 62
     7
100
AcDbText
 10
118.0130389510101
 20
-24.90897629156952
 30
0.0
 40
2.5
  1
00
 41
0.81
  7
CONVERTER_16
100
AcDbText
  0
TEXT
  5
259
330
47
100
AcDbEntity
  8
1
 62
     7
100
AcDbText
 10
157.6945979253727
 20
-51.4589762915689
 30
0.0
 40
2.5
  1
6
 41
0.9
  7
CONVERTER_12
100
AcDbText
  0
TEXT
  5
25A
330
47
100
AcDbEntity
  8
1
 62
     7
100
AcDbText
 10
89.3612645920393
 20
-51.4589762915689
 30
0.0
 40
2.5
  1
5
 41
0.9
  7
CONVERTER_12
100
AcDbText
  0
TEXT
  5
25B
330
47
100
AcDbEntity
  8
1
 62
     7
100
AcDbText
 10
21.0279312587061
 20
-51.4589762915689
 30
0.0
 40
2.5
  1
4
 41
0.9
  7
CONVERTER_12
100
AcDbText
  0
TEXT
  5
25C
330
47
100
AcDbEntity
  8
1
 62
     7
100
AcDbText
 10
-47.30540207462707
 20
-51.4589762915689
 30
0.0
 40
2.5
  1
3
 41
0.9
  7
CONVERTER_12
100
AcDbText
  0
TEXT
  5
25D
330
47
100
AcDbEntity
  8
1
 62
     7
100
AcDbText
 10
194.0279312587061
 20
-19.9589762915689
 30
0.0
 40
2.5
  1
E
 41
0.9
  7
CONVERTER_12
100
AcDbText
  0
TEXT
  5
25E
330
47
100
AcDbEntity
  8
1
 62
     7
100
AcDbText
 10
-183.9720687412937
 20
-51.4589762915689
 30
0.0
 40
2.5
  1
1
 41
0.9
  7
CONVERTER_12
100
AcDbText
  0
TEXT
  5
25F
330
47
100
AcDbEntity
  8
1
 62
     7
100
AcDbText
 10
-115.6387354079605
 20
-51.4589762915689
 30
0.0
 40
2.5
  1
2
 41
0.9
  7
CONVERTER_12
100
AcDbText
  0
TEXT
  5
260
330
47
100
AcDbEntity
  8
1
 62
     7
100
AcDbText
 10
194.0279312587061
 20
37.44102370843119
 30
0.0
 40
2.5
  1
D
 41
0.9
  7
CONVERTER_12
100
AcDbText
  0
TEXT
  5
261
330
47
100
AcDbEntity
  8
1
 62
     7
100
AcDbText
 10
194.0279312587061
 20
94.84102370843128
 30
0.0
 40
2.5
  1
C
 41
0.9
  7
CONVERTER_12
100
AcDbText
  0
TEXT
  5
262
330
47
100
AcDbEntity
  8
1
 62
     7
100
AcDbText
 10
194.0279312587061
 20
152.2410237084312
 30
0.0
 40
2.5
  1
B
 41
0.9
  7
CONVERTER_12
100
AcDbText
  0
TEXT
  5
263
330
47
100
AcDbEntity
  8
1
 62
     7
100
AcDbText
 10
194.0279312587061
 20
209.641023708431
 30
0.0
 40
2.5
  1
A
 41
0.9
  7
CONVERTER_12
100
AcDbText
  0
TEXT
  5
264
330
47
100
AcDbEntity
  8
1
 62
     7
100
AcDbText
 10
157.6945979253727
 20
240.5410237084313
 30
0.0
 40
2.5
  1
6
 41
0.9
  7
CONVERTER_12
100
AcDbText
  0
TEXT
  5
265
330
47
100
AcDbEntity
  8
1
 62
     7
100
AcDbText
 10
89.3612645920395
 20
240.5410237084313
 30
0.0
 40
2.5
  1
5
 41
0.9
  7
CONVERTER_12
100
AcDbText
  0
TEXT
  5
266
330
47
100
AcDbEntity
  8
1
 62
     7
100
AcDbText
 10
21.0279312587061
 20
240.5410237084313
 30
0.0
 40
2.5
  1
4
 41
0.9
  7
CONVERTER_12
100
AcDbText
  0
TEXT
  5
267
330
47
100
AcDbEntity
  8
1
 62
     7
100
AcDbText
 10
-47.30540207462707
 20
240.5410237084313
 30
0.0
 40
2.5
  1
3
 41
0.9
  7
CONVERTER_12
100
AcDbText
  0
TEXT
  5
268
330
47
100
AcDbEntity
  8
1
 62
     7
100
AcDbText
 10
-115.6387354079605
 20
240.5410237084313
 30
0.0
 40
2.5
  1
2
 41
0.9
  7
CONVERTER_12
100
AcDbText
  0
TEXT
  5
269
330
47
100
AcDbEntity
  8
1
 62
     7
100
AcDbText
 10
-183.9720687412937
 20
240.5410237084313
 30
0.0
 40
2.5
  1
1
 41
0.9
  7
CONVERTER_12
100
AcDbText
  0
MTEXT
  5
26A
330
47
100
AcDbEntity
  8
1
 62
     3
100
AcDbMText
 10
-203.5493954299406
 20
-47.43206219206833
 30
0.0
 40
1.8
 41
0.0
 71
     7
 72
     1
  3
Weitergabe sowie Vervielf\U+00e4ltigung dieses Dokuments, Verwertung und\PMitteilung seines Inhalts gem\U+00e4\U+00df \U+00a718 UWG verboten, soweit nicht aus-\Pdr\U+00fccklich gestattet. Zuwiderhandlungen verpflichten zu Schadenersatz\P(\U+00a719 U
  1
WG). Alle Rechte vorbehalten, insbesondere das Recht, Patent-,\PGebrauchsmuster- oder Geschmacksmusteranmeldungen durchzuf\U+00fchren.\PPhoenix Contact GmbH & Co. KG
  7
CONVERTER_12
 11
6.123233764940082E-17
 21
1.0
 31
0.0
 73
     1
 44
0.99639855942377
  0
MTEXT
  5
26B
330
47
100
AcDbEntity
  8
1
 62
     3
100
AcDbMText
 10
-203.7036017410347
 20
125.5273078220848
 30
0.0
 40
1.8
 41
0.0
 71
     7
 72
     1
  3
The copying, distribution and utilistion of this document as well as the communication\Pof the contents to others without expressed authorization is prohibited according to\P\U+00a718 UWG German Law. Offenders will be held liable for the payment of 
  1
damages\Paccording to (\U+00a719 UWG German Law). All rights reserved, in particular the right to\Pcarry out patent, utility model or ornamental design registrations.\PFlachsmarktstra\U+00dfe 8  D-32825 Blomberg
  7
CONVERTER_12
 11
6.123233764940082E-17
 21
1.0
 31
0.0
 73
     1
 44
0.99639855942377
  0
TEXT
  5
26D
330
47
100
AcDbEntity
  8
1
 62
     3
100
AcDbText
 10
100.8831267319543
 20
-37.65897629156952
 30
0.0
 40
2.5
  1
KUNDENZCHNG-SELECT
 41
0.45
  7
CONVERTER_17
100
AcDbText
  0
MTEXT
  5
26E
330
47
100
AcDbEntity
  8
1
 62
     3
100
AcDbMText
 10
140.7349511453147
 20
-27.10897629156945
 30
0.0
 40
2.0
 41
0.0
 71
     1
 72
     1
  1
 
  7
CONVERTER_14
 73
     1
 44
1.20048019207683
  0
MTEXT
  5
270
330
47
100
AcDbEntity
  8
1
 62
     3
100
AcDbMText
 10
110.2153635500692
 20
-28.33397629156947
 30
0.0
 40
2.5
 41
0.0
 71
     4
 72
     1
  1
 
  7
CONVERTER_18
 73
     1
 44
1.20048019207683
  0
MTEXT
  5
271
330
47
100
AcDbEntity
  8
1
 62
     2
100
AcDbMText
 10
100.9831267319543
 20
-28.13397629156954
 30
0.0
 40
1.4
 41
0.0
 71
     4
 72
     1
  1
SAP\Pchange-No.
  7
CONVERTER_18
 73
     1
 44
0.66026410564226
  0
MTEXT
  5
272
330
47
100
AcDbEntity
  8
1
 62
     2
100
AcDbMText
 10
130.5279312587067
 20
-27.20897629156947
 30
0.0
 40
1.8
 41
0.0
 71
     1
 72
     1
  1
part-rev.
  7
CONVERTER_14
 73
     1
 44
1.20048019207683
  0
TEXT
  5
273
330
47
100
AcDbEntity
  8
1
 62
     3
100
AcDbText
 10
149.0279312587063
 20
-37.65897629156952
 30
0.0
 40
2.5
  1
 
 41
0.54
  7
CONVERTER_15
100
AcDbText
  0
MTEXT
  5
274
330
47
100
AcDbEntity
  8
1
 62
     7
100
AcDbMText
 10
146.4555289953298
 20
-44.20897629156924
 30
0.0
 40
3.0
 41
0.0
 71
     5
 72
     1
  1
HC-B 24-TMS-EEE-PR-DI
  7
CONVERTER_16
 73
     1
 44
1.20048019207683
  0
HATCH
  5
275
330
47
100
AcDbEntity
  8
1
  6
Continuous
 62
     2
100
AcDbHatch
 10
0.0
 20
0.0
 30
0.0
210
0.0
220
0.0
230
1.0
  2
_USER
 70
     0
 71
     1
 91
        1
 92
        1
 93
       14
 72
     2
 10
76.7585228277583
 20
-40.34707152965827
 40
0.9964100565214103
 50
164.9381082228847
 51
195.0618917771015
 73
     1
 72
     2
 10
77.1049094752482
 20
-40.25385635442298
 40
1.355119937139993
 50
195.0618917770909
 51
275.1581447696416
 73
     1
 72
     2
 10
76.866185430012
 20
-37.60931868233901
 40
4.010410630990197
 50
275.1581447696246
 51
285.9799912583524
 73
     1
 72
     1
 10
77.970258088787
 20
-41.46475860448847
 11
77.970258088787
 21
-40.7436701691138
 72
     2
 10
76.99665888050191
 20
-39.18139684750237
 40
1.84081323055604
 50
58.069091050038
 51
71.55192388186902
 73
     0
 72
     2
 10
77.3422520488167
 20
-40.21738509216119
 40
0.7487023016404623
 50
71.55192388185247
 51
113.3722778881288
 73
     0
 72
     2
 10
77.21296276559181
 20
-40.51655204977284
 40
0.4227934381774399
 50
113.3722778881669
 51
151.4785267423142
 73
     0
 72
     2
 10
77.52482826813761
 20
-40.34707152965827
 40
0.7777353184572531
 50
151.4785267422953
 51
208.5214732577277
 73
     0
 72
     2
 10
77.21296276559181
 20
-40.17759100954346
 40
0.4227934381776413
 50
208.5214732576993
 51
246.6277221118143
 73
     0
 72
     2
 10
77.3422520488167
 20
-40.47675796715545
 40
0.7487023016407643
 50
246.6277221118707
 51
288.4480761181367
 73
     0
 72
     2
 10
76.99665888050191
 20
-41.51274621181382
 40
1.840813230556584
 50
288.448076118131
 51
301.930908949962
 73
     0
 72
     1
 10
77.970258088787
 20
-39.95047289020239
 11
77.970258088787
 21
-39.22938445482784
 72
     2
 10
76.866185430012
 20
-43.08482437697718
 40
4.010410630989981
 50
74.0200087416472
 51
84.84185523037543
 73
     1
 72
     2
 10
77.1049094752482
 20
-40.44028670489378
 40
1.355119937140984
 50
84.84185523036052
 51
164.9381082228902
 73
     1
 97
       14
330
208
330
84
330
1D7
330
207
330
1D8
330
1D9
330
206
330
205
330
204
330
85
330
1DA
330
1DB
330
1DC
330
1DD
 75
     1
 76
     0
 52
45.0
 41
0.1
 77
     0
 78
     1
 53
45.0
 43
0.0
 44
0.0
 45
-0.0707106781186548
 46
0.0707106781186548
 79
     0
 98
        1
 10
0.0
 20
0.0
  0
HATCH
  5
276
330
47
100
AcDbEntity
  8
1
  6
Continuous
 62
     2
100
AcDbHatch
 10
0.0
 20
0.0
 30
0.0
210
0.0
220
0.0
230
1.0
  2
_USER
 70
     0
 71
     1
 91
        1
 92
        1
 93
       14
 72
     2
 10
76.7585228277583
 20
-40.34707152965827
 40
0.9964100565214103
 50
164.9381082228847
 51
195.0618917771015
 73
     1
 72
     2
 10
77.1049094752482
 20
-40.25385635442298
 40
1.355119937139993
 50
195.0618917770909
 51
275.1581447696416
 73
     1
 72
     2
 10
76.866185430012
 20
-37.60931868233901
 40
4.010410630990197
 50
275.1581447696246
 51
285.9799912583524
 73
     1
 72
     1
 10
77.970258088787
 20
-41.46475860448847
 11
77.970258088787
 21
-40.7436701691138
 72
     2
 10
76.99665888050191
 20
-39.18139684750237
 40
1.84081323055604
 50
58.069091050038
 51
71.55192388186902
 73
     0
 72
     2
 10
77.3422520488167
 20
-40.21738509216119
 40
0.7487023016404623
 50
71.55192388185247
 51
113.3722778881288
 73
     0
 72
     2
 10
77.21296276559181
 20
-40.51655204977284
 40
0.4227934381774399
 50
113.3722778881669
 51
151.4785267423142
 73
     0
 72
     2
 10
77.52482826813761
 20
-40.34707152965827
 40
0.7777353184572531
 50
151.4785267422953
 51
208.5214732577277
 73
     0
 72
     2
 10
77.21296276559181
 20
-40.17759100954346
 40
0.4227934381776413
 50
208.5214732576993
 51
246.6277221118143
 73
     0
 72
     2
 10
77.3422520488167
 20
-40.47675796715545
 40
0.7487023016407643
 50
246.6277221118707
 51
288.4480761181367
 73
     0
 72
     2
 10
76.99665888050191
 20
-41.51274621181382
 40
1.840813230556584
 50
288.448076118131
 51
301.930908949962
 73
     0
 72
     1
 10
77.970258088787
 20
-39.95047289020239
 11
77.970258088787
 21
-39.22938445482784
 72
     2
 10
76.866185430012
 20
-43.08482437697718
 40
4.010410630989981
 50
74.0200087416472
 51
84.84185523037543
 73
     1
 72
     2
 10
77.1049094752482
 20
-40.44028670489378
 40
1.355119937140984
 50
84.84185523036052
 51
164.9381082228902
 73
     1
 97
       14
330
208
330
84
330
1D7
330
207
330
1D8
330
1D9
330
206
330
205
330
204
330
85
330
1DA
330
1DB
330
1DC
330
1DD
 75
     1
 76
     0
 52
45.0
 41
0.1
 77
     0
 78
     1
 53
45.0
 43
0.0
 44
0.0
 45
-0.0707106781186548
 46
0.0707106781186548
 79
     0
 98
        1
 10
0.0
 20
0.0
  0
HATCH
  5
277
330
47
100
AcDbEntity
  8
1
  6
Continuous
 62
     2
100
AcDbHatch
 10
0.0
 20
0.0
 30
0.0
210
0.0
220
0.0
230
1.0
  2
_USER
 70
     0
 71
     1
 91
        1
 92
        1
 93
       18
 72
     2
 10
90.4129272266969
 20
-40.44028670489378
 40
1.355119937140671
 50
90.0
 51
164.9381082228987
 73
     1
 72
     2
 10
90.0665405792079
 20
-40.34707152965827
 40
0.9964100565230296
 50
164.9381082229098
 51
195.0618917771013
 73
     1
 72
     2
 10
90.4129272266969
 20
-40.25385635442298
 40
1.35511993714085
 50
195.0618917771008
 51
275.1581447696782
 73
     1
 72
     2
 10
90.17420318146071
 20
-37.60931868233901
 40
4.010410630990729
 50
275.1581447696365
 51
285.979991258338
 73
     1
 72
     1
 10
91.27827584023481
 20
-41.46475860448892
 11
91.27827584023481
 21
-40.74367016911425
 72
     2
 10
90.3046766319506
 20
-39.18139684750283
 40
1.840813230556036
 50
58.06909105006117
 51
71.55192388186803
 73
     0
 72
     2
 10
90.65026980026619
 20
-40.21738509216119
 40
0.7487023016407329
 50
71.55192388191904
 51
113.3722778881768
 73
     0
 72
     2
 10
90.5209805170405
 20
-40.51655204977284
 40
0.4227934381784345
 50
113.3722778881528
 51
151.4785267423162
 73
     0
 72
     2
 10
90.83284601958721
 20
-40.34707152965827
 40
0.7777353184586091
 50
151.4785267423284
 51
208.5214732576353
 73
     0
 72
     2
 10
90.5209805170405
 20
-40.17759100954346
 40
0.4227934381773005
 50
208.5214732575882
 51
250.6628567805216
 73
     0
 72
     2
 10
90.64219539150639
 20
-40.5230083487029
 40
0.7888619891125401
 50
250.6628567805709
 51
270.0
 73
     0
 72
     1
 10
90.64219539150639
 20
-39.73414635959036
 11
91.5542939861908
 21
-39.73414635959036
 72
     1
 10
91.5542939861908
 20
-39.73414635959036
 11
91.5542939861908
 21
-41.60897629156354
 72
     1
 10
91.5542939861908
 20
-41.60897629156354
 11
92.54007307889131
 21
-41.60897629156354
 72
     1
 10
92.54007307889131
 20
-41.60897629156354
 11
92.54007307889131
 21
-39.73414635959036
 72
     1
 10
92.54007307889131
 20
-39.73414635959036
 11
93.21040286192721
 21
-39.73414635959036
 72
     1
 10
93.21040286192721
 20
-39.73414635959036
 11
93.21040286192721
 21
-39.08516676775265
 72
     1
 10
93.21040286192721
 20
-39.08516676775265
 11
90.4129272266969
 21
-39.08516676775311
 97
       18
330
EA
330
E9
330
E8
330
E7
330
EC
330
86
330
201
330
1E2
330
200
330
1E3
330
1FF
330
1FE
330
87
330
1FD
330
1FC
330
1E4
330
1E5
330
EB
 75
     1
 76
     0
 52
45.0
 41
0.1
 77
     0
 78
     1
 53
45.0
 43
0.0
 44
0.0
 45
-0.0707106781186548
 46
0.0707106781186548
 79
     0
 98
        1
 10
0.0
 20
0.0
  0
HATCH
  5
278
330
47
100
AcDbEntity
  8
1
  6
Continuous
 62
     2
100
AcDbHatch
 10
0.0
 20
0.0
 30
0.0
210
0.0
220
0.0
230
1.0
  2
_USER
 70
     0
 71
     1
 91
        1
 92
        1
 93
       18
 72
     2
 10
90.4129272266969
 20
-40.44028670489378
 40
1.355119937140671
 50
90.0
 51
164.9381082228987
 73
     1
 72
     2
 10
90.0665405792079
 20
-40.34707152965827
 40
0.9964100565230296
 50
164.9381082229098
 51
195.0618917771013
 73
     1
 72
     2
 10
90.4129272266969
 20
-40.25385635442298
 40
1.35511993714085
 50
195.0618917771008
 51
275.1581447696782
 73
     1
 72
     2
 10
90.17420318146071
 20
-37.60931868233901
 40
4.010410630990729
 50
275.1581447696365
 51
285.979991258338
 73
     1
 72
     1
 10
91.27827584023481
 20
-41.46475860448892
 11
91.27827584023481
 21
-40.74367016911425
 72
     2
 10
90.3046766319506
 20
-39.18139684750283
 40
1.840813230556036
 50
58.06909105006117
 51
71.55192388186803
 73
     0
 72
     2
 10
90.65026980026619
 20
-40.21738509216119
 40
0.7487023016407329
 50
71.55192388191904
 51
113.3722778881768
 73
     0
 72
     2
 10
90.5209805170405
 20
-40.51655204977284
 40
0.4227934381784345
 50
113.3722778881528
 51
151.4785267423162
 73
     0
 72
     2
 10
90.83284601958721
 20
-40.34707152965827
 40
0.7777353184586091
 50
151.4785267423284
 51
208.5214732576353
 73
     0
 72
     2
 10
90.5209805170405
 20
-40.17759100954346
 40
0.4227934381773005
 50
208.5214732575882
 51
250.6628567805216
 73
     0
 72
     2
 10
90.64219539150639
 20
-40.5230083487029
 40
0.7888619891125401
 50
250.6628567805709
 51
270.0
 73
     0
 72
     1
 10
90.64219539150639
 20
-39.73414635959036
 11
91.5542939861908
 21
-39.73414635959036
 72
     1
 10
91.5542939861908
 20
-39.73414635959036
 11
91.5542939861908
 21
-41.60897629156354
 72
     1
 10
91.5542939861908
 20
-41.60897629156354
 11
92.54007307889131
 21
-41.60897629156354
 72
     1
 10
92.54007307889131
 20
-41.60897629156354
 11
92.54007307889131
 21
-39.73414635959036
 72
     1
 10
92.54007307889131
 20
-39.73414635959036
 11
93.21040286192721
 21
-39.73414635959036
 72
     1
 10
93.21040286192721
 20
-39.73414635959036
 11
93.21040286192721
 21
-39.08516676775265
 72
     1
 10
93.21040286192721
 20
-39.08516676775265
 11
90.4129272266969
 21
-39.08516676775311
 97
       18
330
EA
330
E9
330
E8
330
E7
330
EC
330
86
330
201
330
1E2
330
200
330
1E3
330
1FF
330
1FE
330
87
330
1FD
330
1FC
330
1E4
330
1E5
330
EB
 75
     1
 76
     0
 52
45.0
 41
0.1
 77
     0
 78
     1
 53
45.0
 43
0.0
 44
0.0
 45
-0.0707106781186548
 46
0.0707106781186548
 79
     0
 98
        1
 10
0.0
 20
0.0
  0
HATCH
  5
279
330
47
100
AcDbEntity
  8
1
  6
Continuous
 62
     2
100
AcDbHatch
 10
0.0
 20
0.0
 30
0.0
210
0.0
220
0.0
230
1.0
  2
_USER
 70
     0
 71
     1
 91
        4
 92
        1
 93
        8
 72
     2
 10
70.49378747736381
 20
-36.65959167620521
 40
0.3506153846146773
 50
90.0
 51
180.0
 73
     1
 72
     1
 10
70.1431720927499
 20
-36.65959167620521
 11
70.1431720927499
 21
-41.25836090694919
 72
     2
 10
70.49378747736381
 20
-41.25836090694919
 40
0.3506153846139171
 50
180.0
 51
270.0
 73
     1
 72
     1
 10
70.49378747736381
 20
-41.60897629156354
 11
75.01718589944389
 21
-41.60897629156354
 72
     2
 10
75.01718589944389
 20
-41.25836090694919
 40
0.3506153846143505
 50
270.0
 51
360.0
 73
     1
 72
     1
 10
75.36780128405871
 20
-41.25836090694919
 11
75.36780128405871
 21
-36.65959167620521
 72
     2
 10
75.01718589944389
 20
-36.65959167620521
 40
0.3506153846148266
 50
0.0
 51
90.0
 73
     1
 72
     1
 10
75.01718589944389
 20
-36.30897629159053
 11
70.49378747736381
 21
-36.30897629159053
 97
        8
330
1F5
330
B5
330
1F4
330
B6
330
1EB
330
B3
330
1F6
330
B4
 92
       16
 93
        1
 72
     2
 10
72.6587342959734
 20
-38.57602326988753
 40
0.3892387874201972
 50
0.0
 51
360.0
 73
     1
 97
        1
330
209
 92
       16
 93
        8
 72
     2
 10
72.6784161262814
 20
-38.57602326988753
 40
0.7535935125160714
 50
295.3740086781789
 51
424.6259913218059
 73
     1
 72
     2
 10
73.11316215775909
 20
-37.65937731950091
 40
0.2609230769229782
 50
115.3740086783684
 51
180.0
 73
     0
 72
     1
 10
72.85223908083611
 20
-37.65937731950091
 11
72.85223908083611
 21
-37.15893493230523
 72
     2
 10
73.11316215775909
 20
-37.15893493230523
 40
0.2609230769224678
 50
180.0
 51
269.8110329574465
 73
     0
 72
     2
 10
73.1178035918995
 20
-38.56623654186639
 40
1.668232340440736
 50
269.8110329575882
 51
450.1889670424118
 73
     0
 72
     2
 10
73.11316215775909
 20
-39.97353815142755
 40
0.2609230769229782
 50
90.18896704255349
 51
180.0
 73
     0
 72
     1
 10
72.85223908083611
 20
-39.97353815142755
 11
72.85223908083611
 21
-39.49266922027461
 72
     2
 10
73.11316215775909
 20
-39.49266922027461
 40
0.2609230769227745
 50
180.0
 51
244.6259913216317
 73
     0
 97
        8
330
203
330
1DF
330
EE
330
202
330
1E0
330
1E1
330
ED
330
1DE
 92
       16
 93
       12
 72
     1
 10
70.9846095242618
 20
-41.02008740267344
 11
72.204306434187
 21
-41.02008740267344
 72
     2
 10
72.204306434187
 20
-40.7591643257506
 40
0.2609230769228361
 50
270.0
 51
360.0
 73
     1
 72
     1
 10
72.46522951110981
 20
-40.7591643257506
 11
72.46522951110981
 21
-39.49406438233599
 72
     2
 10
72.204306434187
 20
-39.49406438233599
 40
0.2609230769228077
 50
0.0
 51
64.80558935144161
 73
     1
 72
     2
 10
72.6361944073895
 20
-38.57602326988753
 40
0.753634316989858
 50
115.1944106485115
 51
244.8055893514774
 73
     0
 72
     2
 10
72.204306434187
 20
-37.65798215743941
 40
0.2609230769223494
 50
295.1944106485591
 51
360.0
 73
     1
 72
     1
 10
72.46522951110981
 20
-37.65798215743941
 11
72.46522951110981
 21
-37.15878825738936
 72
     2
 10
72.204306434187
 20
-37.15878825738936
 40
0.2609230769228077
 50
0.0
 51
90.0
 73
     1
 72
     1
 10
72.204306434187
 20
-36.89786518046687
 11
70.9846095242618
 21
-36.89786518046687
 72
     2
 10
70.9846095242618
 20
-37.15878825738936
 40
0.260923076922488
 50
90.0
 51
180.0
 73
     1
 72
     1
 10
70.7236864473397
 20
-37.15878825738936
 11
70.7236864473397
 21
-40.7591643257506
 72
     2
 10
70.9846095242618
 20
-40.7591643257506
 40
0.2609230769220972
 50
180.0
 51
270.0
 73
     1
 97
       12
330
BA
330
1E8
330
B9
330
1F9
330
B8
330
1F8
330
1E9
330
1EA
330
B7
330
1F7
330
B2
330
1FA
 75
     1
 76
     0
 52
45.0
 41
0.1
 77
     0
 78
     1
 53
45.0
 43
0.0
 44
0.0
 45
-0.0707106781186548
 46
0.0707106781186548
 79
     0
 98
        1
 10
0.0
 20
0.0
  0
HATCH
  5
27A
330
47
100
AcDbEntity
  8
1
  6
Continuous
 62
     2
100
AcDbHatch
 10
0.0
 20
0.0
 30
0.0
210
0.0
220
0.0
230
1.0
  2
_USER
 70
     0
 71
     1
 91
        4
 92
        1
 93
        8
 72
     2
 10
70.49378747736381
 20
-36.65959167620521
 40
0.3506153846146773
 50
90.0
 51
180.0
 73
     1
 72
     1
 10
70.1431720927499
 20
-36.65959167620521
 11
70.1431720927499
 21
-41.25836090694919
 72
     2
 10
70.49378747736381
 20
-41.25836090694919
 40
0.3506153846139171
 50
180.0
 51
270.0
 73
     1
 72
     1
 10
70.49378747736381
 20
-41.60897629156354
 11
75.01718589944389
 21
-41.60897629156354
 72
     2
 10
75.01718589944389
 20
-41.25836090694919
 40
0.3506153846143505
 50
270.0
 51
360.0
 73
     1
 72
     1
 10
75.36780128405871
 20
-41.25836090694919
 11
75.36780128405871
 21
-36.65959167620521
 72
     2
 10
75.01718589944389
 20
-36.65959167620521
 40
0.3506153846148266
 50
0.0
 51
90.0
 73
     1
 72
     1
 10
75.01718589944389
 20
-36.30897629159053
 11
70.49378747736381
 21
-36.30897629159053
 97
        8
330
1F5
330
B5
330
1F4
330
B6
330
1EB
330
B3
330
1F6
330
B4
 92
       16
 93
        1
 72
     2
 10
72.6587342959734
 20
-38.57602326988753
 40
0.3892387874201972
 50
0.0
 51
360.0
 73
     1
 97
        1
330
209
 92
       16
 93
        8
 72
     2
 10
72.6784161262814
 20
-38.57602326988753
 40
0.7535935125160714
 50
295.3740086781789
 51
424.6259913218059
 73
     1
 72
     2
 10
73.11316215775909
 20
-37.65937731950091
 40
0.2609230769229782
 50
115.3740086783684
 51
180.0
 73
     0
 72
     1
 10
72.85223908083611
 20
-37.65937731950091
 11
72.85223908083611
 21
-37.15893493230523
 72
     2
 10
73.11316215775909
 20
-37.15893493230523
 40
0.2609230769224678
 50
180.0
 51
269.8110329574465
 73
     0
 72
     2
 10
73.1178035918995
 20
-38.56623654186639
 40
1.668232340440736
 50
269.8110329575882
 51
450.1889670424118
 73
     0
 72
     2
 10
73.11316215775909
 20
-39.97353815142755
 40
0.2609230769229782
 50
90.18896704255349
 51
180.0
 73
     0
 72
     1
 10
72.85223908083611
 20
-39.97353815142755
 11
72.85223908083611
 21
-39.49266922027461
 72
     2
 10
73.11316215775909
 20
-39.49266922027461
 40
0.2609230769227745
 50
180.0
 51
244.6259913216317
 73
     0
 97
        8
330
203
330
1DF
330
EE
330
202
330
1E0
330
1E1
330
ED
330
1DE
 92
       16
 93
       12
 72
     1
 10
70.9846095242618
 20
-41.02008740267344
 11
72.204306434187
 21
-41.02008740267344
 72
     2
 10
72.204306434187
 20
-40.7591643257506
 40
0.2609230769228361
 50
270.0
 51
360.0
 73
     1
 72
     1
 10
72.46522951110981
 20
-40.7591643257506
 11
72.46522951110981
 21
-39.49406438233599
 72
     2
 10
72.204306434187
 20
-39.49406438233599
 40
0.2609230769228077
 50
0.0
 51
64.80558935144161
 73
     1
 72
     2
 10
72.6361944073895
 20
-38.57602326988753
 40
0.753634316989858
 50
115.1944106485115
 51
244.8055893514774
 73
     0
 72
     2
 10
72.204306434187
 20
-37.65798215743941
 40
0.2609230769223494
 50
295.1944106485591
 51
360.0
 73
     1
 72
     1
 10
72.46522951110981
 20
-37.65798215743941
 11
72.46522951110981
 21
-37.15878825738936
 72
     2
 10
72.204306434187
 20
-37.15878825738936
 40
0.2609230769228077
 50
0.0
 51
90.0
 73
     1
 72
     1
 10
72.204306434187
 20
-36.89786518046687
 11
70.9846095242618
 21
-36.89786518046687
 72
     2
 10
70.9846095242618
 20
-37.15878825738936
 40
0.260923076922488
 50
90.0
 51
180.0
 73
     1
 72
     1
 10
70.7236864473397
 20
-37.15878825738936
 11
70.7236864473397
 21
-40.7591643257506
 72
     2
 10
70.9846095242618
 20
-40.7591643257506
 40
0.2609230769220972
 50
180.0
 51
270.0
 73
     1
 97
       12
330
BA
330
1E8
330
B9
330
1F9
330
B8
330
1F8
330
1E9
330
1EA
330
B7
330
1F7
330
B2
330
1FA
 75
     1
 76
     0
 52
45.0
 41
0.1
 77
     0
 78
     1
 53
45.0
 43
0.0
 44
0.0
 45
-0.0707106781186548
 46
0.0707106781186548
 79
     0
 98
        1
 10
0.0
 20
0.0
  0
HATCH
  5
27B
330
47
100
AcDbEntity
  8
1
  6
Continuous
 62
     2
100
AcDbHatch
 10
0.0
 20
0.0
 30
0.0
210
0.0
220
0.0
230
1.0
  2
_USER
 70
     0
 71
     1
 91
        2
 92
        1
 93
       12
 72
     2
 10
82.6220221914046
 20
-37.57088105348113
 40
1.261904761905612
 50
90.0
 51
270.0
 73
     1
 72
     1
 10
82.6220221914046
 20
-38.8327858153864
 11
85.22559221105831
 21
-38.8327858153864
 72
     1
 10
85.22559221105831
 20
-38.8327858153864
 11
85.22559221105831
 21
-38.25591506708692
 72
     1
 10
85.22559221105831
 20
-38.25591506708692
 11
84.1215196272338
 21
-38.25591506708692
 72
     1
 10
84.1215196272338
 20
-38.25591506708692
 11
84.1215196272338
 21
-37.85931642763093
 72
     1
 10
84.1215196272338
 20
-37.85931642763093
 11
85.22559221105831
 21
-37.85931642763093
 72
     1
 10
85.22559221105831
 20
-37.85931642763093
 11
85.22559221105831
 21
-37.28244567933145
 72
     1
 10
85.22559221105831
 20
-37.28244567933145
 11
84.1215196272338
 21
-37.28244567933145
 72
     1
 10
84.1215196272338
 20
-37.28244567933145
 11
84.1215196272338
 21
-36.88584703987546
 72
     1
 10
84.1215196272338
 20
-36.88584703987546
 11
85.22559221105831
 21
-36.88584703987546
 72
     1
 10
85.22559221105831
 20
-36.88584703987546
 11
85.22559221105831
 21
-36.30897629157552
 72
     1
 10
85.22559221105831
 20
-36.30897629157552
 11
82.6220221914046
 21
-36.30897629157552
 97
       12
330
A9
330
A3
330
CA
330
C9
330
C8
330
C7
330
A4
330
A5
330
A6
330
A7
330
1E6
330
A8
 92
       16
 93
        4
 72
     2
 10
82.9658338000917
 20
-37.57088105348113
 40
0.6378510567599356
 50
141.8795802028404
 51
218.1204197971676
 73
     1
 72
     2
 10
82.80075938988821
 20
-37.7004109527543
 40
0.4280236140606632
 50
218.1204197971535
 51
321.8795802028536
 73
     1
 72
     2
 10
82.63568497968481
 20
-37.57088105348113
 40
0.6378510567600058
 50
321.8795802028323
 51
398.1204197971596
 73
     1
 72
     2
 10
82.80075938988821
 20
-37.44135115420808
 40
0.4280236140607304
 50
38.12041979714642
 51
141.8795802028465
 73
     1
 97
        4
330
1F3
330
1F2
330
1ED
330
1EC
 75
     1
 76
     0
 52
45.0
 41
0.1
 77
     0
 78
     1
 53
45.0
 43
0.0
 44
0.0
 45
-0.0707106781186548
 46
0.0707106781186548
 79
     0
 98
        1
 10
0.0
 20
0.0
  0
HATCH
  5
27C
330
47
100
AcDbEntity
  8
1
  6
Continuous
 62
     2
100
AcDbHatch
 10
0.0
 20
0.0
 30
0.0
210
0.0
220
0.0
230
1.0
  2
_USER
 70
     0
 71
     1
 91
        2
 92
        1
 93
       12
 72
     2
 10
82.6220221914046
 20
-37.57088105348113
 40
1.261904761905612
 50
90.0
 51
270.0
 73
     1
 72
     1
 10
82.6220221914046
 20
-38.8327858153864
 11
85.22559221105831
 21
-38.8327858153864
 72
     1
 10
85.22559221105831
 20
-38.8327858153864
 11
85.22559221105831
 21
-38.25591506708692
 72
     1
 10
85.22559221105831
 20
-38.25591506708692
 11
84.1215196272338
 21
-38.25591506708692
 72
     1
 10
84.1215196272338
 20
-38.25591506708692
 11
84.1215196272338
 21
-37.85931642763093
 72
     1
 10
84.1215196272338
 20
-37.85931642763093
 11
85.22559221105831
 21
-37.85931642763093
 72
     1
 10
85.22559221105831
 20
-37.85931642763093
 11
85.22559221105831
 21
-37.28244567933145
 72
     1
 10
85.22559221105831
 20
-37.28244567933145
 11
84.1215196272338
 21
-37.28244567933145
 72
     1
 10
84.1215196272338
 20
-37.28244567933145
 11
84.1215196272338
 21
-36.88584703987546
 72
     1
 10
84.1215196272338
 20
-36.88584703987546
 11
85.22559221105831
 21
-36.88584703987546
 72
     1
 10
85.22559221105831
 20
-36.88584703987546
 11
85.22559221105831
 21
-36.30897629157552
 72
     1
 10
85.22559221105831
 20
-36.30897629157552
 11
82.6220221914046
 21
-36.30897629157552
 97
       12
330
A9
330
A3
330
CA
330
C9
330
C8
330
C7
330
A4
330
A5
330
A6
330
A7
330
1E6
330
A8
 92
       16
 93
        4
 72
     2
 10
82.9658338000917
 20
-37.57088105348113
 40
0.6378510567599356
 50
141.8795802028404
 51
218.1204197971676
 73
     1
 72
     2
 10
82.80075938988821
 20
-37.7004109527543
 40
0.4280236140606632
 50
218.1204197971535
 51
321.8795802028536
 73
     1
 72
     2
 10
82.63568497968481
 20
-37.57088105348113
 40
0.6378510567600058
 50
321.8795802028323
 51
398.1204197971596
 73
     1
 72
     2
 10
82.80075938988821
 20
-37.44135115420808
 40
0.4280236140607304
 50
38.12041979714642
 51
141.8795802028465
 73
     1
 97
        4
330
1F3
330
1F2
330
1ED
330
1EC
 75
     1
 76
     0
 52
45.0
 41
0.1
 77
     0
 78
     1
 53
45.0
 43
0.0
 44
0.0
 45
-0.0707106781186548
 46
0.0707106781186548
 79
     0
 98
        1
 10
0.0
 20
0.0
  0
HATCH
  5
27D
330
47
100
AcDbEntity
  8
1
  6
Continuous
 62
     2
100
AcDbHatch
 10
0.0
 20
0.0
 30
0.0
210
0.0
220
0.0
230
1.0
  2
_USER
 70
     0
 71
     1
 91
        2
 92
        1
 93
        4
 72
     2
 10
79.295067346395
 20
-40.34707152965827
 40
1.204986845992916
 50
117.5481481756639
 51
242.4518518243383
 73
     1
 72
     2
 10
79.52724907518291
 20
-39.90196821535803
 40
1.707008076205432
 50
242.4518518243388
 51
297.5481481756848
 73
     1
 72
     2
 10
79.7594308039707
 20
-40.34707152965827
 40
1.204986845993425
 50
297.5481481757
 51
422.4518518242978
 73
     1
 72
     2
 10
79.52724907518291
 20
-40.79217484395817
 40
1.70700807620541
 50
62.45185182430831
 51
117.548148175668
 73
     1
 97
        4
330
1F1
330
1EE
330
1F0
330
1EF
 92
       16
 93
        4
 72
     2
 10
79.52724907518291
 20
-40.21754163038521
 40
0.4280236140605738
 50
38.12041979716286
 51
141.8795802028536
 73
     1
 72
     2
 10
79.6923234853862
 20
-40.34707152965827
 40
0.6378510567598505
 50
141.8795802028336
 51
218.1204197971735
 73
     1
 72
     2
 10
79.52724907518291
 20
-40.47660142893098
 40
0.4280236140610111
 50
218.1204197971943
 51
321.8795802027893
 73
     1
 72
     2
 10
79.3621746649793
 20
-40.34707152965827
 40
0.6378510567600014
 50
321.8795802028328
 51
398.1204197971601
 73
     1
 97
        4
330
1D4
330
1D5
330
1D6
330
1D3
 75
     1
 76
     0
 52
45.0
 41
0.1
 77
     0
 78
     1
 53
45.0
 43
0.0
 44
0.0
 45
-0.0707106781186548
 46
0.0707106781186548
 79
     0
 98
        1
 10
0.0
 20
0.0
  0
HATCH
  5
27E
330
47
100
AcDbEntity
  8
1
  6
Continuous
 62
     2
100
AcDbHatch
 10
0.0
 20
0.0
 30
0.0
210
0.0
220
0.0
230
1.0
  2
_USER
 70
     0
 71
     1
 91
        2
 92
        1
 93
        4
 72
     2
 10
79.295067346395
 20
-40.34707152965827
 40
1.204986845992916
 50
117.5481481756639
 51
242.4518518243383
 73
     1
 72
     2
 10
79.52724907518291
 20
-39.90196821535803
 40
1.707008076205432
 50
242.4518518243388
 51
297.5481481756848
 73
     1
 72
     2
 10
79.7594308039707
 20
-40.34707152965827
 40
1.204986845993425
 50
297.5481481757
 51
422.4518518242978
 73
     1
 72
     2
 10
79.52724907518291
 20
-40.79217484395817
 40
1.70700807620541
 50
62.45185182430831
 51
117.548148175668
 73
     1
 97
        4
330
1F1
330
1EE
330
1F0
330
1EF
 92
       16
 93
        4
 72
     2
 10
79.52724907518291
 20
-40.21754163038521
 40
0.4280236140605738
 50
38.12041979716286
 51
141.8795802028536
 73
     1
 72
     2
 10
79.6923234853862
 20
-40.34707152965827
 40
0.6378510567598505
 50
141.8795802028336
 51
218.1204197971735
 73
     1
 72
     2
 10
79.52724907518291
 20
-40.47660142893098
 40
0.4280236140610111
 50
218.1204197971943
 51
321.8795802027893
 73
     1
 72
     2
 10
79.3621746649793
 20
-40.34707152965827
 40
0.6378510567600014
 50
321.8795802028328
 51
398.1204197971601
 73
     1
 97
        4
330
1D4
330
1D5
330
1D6
330
1D3
 75
     1
 76
     0
 52
45.0
 41
0.1
 77
     0
 78
     1
 53
45.0
 43
0.0
 44
0.0
 45
-0.0707106781186548
 46
0.0707106781186548
 79
     0
 98
        1
 10
0.0
 20
0.0
  0
HATCH
  5
27F
330
47
100
AcDbEntity
  8
1
  6
Continuous
 62
     2
100
AcDbHatch
 10
0.0
 20
0.0
 30
0.0
210
0.0
220
0.0
230
1.0
  2
_USER
 70
     0
 71
     1
 91
        2
 92
        1
 93
        6
 72
     1
 10
75.76211292113871
 20
-36.30897629157552
 11
75.76211292113871
 21
-38.8327858153864
 72
     1
 10
75.76211292113871
 20
-38.8327858153864
 11
76.787323177547
 21
-38.8327858153864
 72
     1
 10
76.787323177547
 20
-38.8327858153864
 11
76.787323177547
 21
-38.05338231030886
 72
     1
 10
76.787323177547
 20
-38.05338231030886
 11
77.41440382860509
 21
-38.05338231030886
 72
     2
 10
77.41440382860509
 20
-37.18117930094219
 40
0.8722030093666717
 50
270.0
 51
450.0
 73
     1
 72
     1
 10
77.41440382860509
 20
-36.30897629157552
 11
75.76211292113871
 21
-36.30897629157552
 97
        6
330
1FB
330
BB
330
B1
330
B0
330
BD
330
BC
 92
       16
 93
        4
 72
     1
 10
77.04955050113531
 20
-36.85699765144331
 11
76.787323177547
 21
-36.85699765144331
 72
     1
 10
76.787323177547
 20
-36.85699765144331
 11
76.787323177547
 21
-37.44024364263534
 72
     1
 10
76.787323177547
 20
-37.44024364263534
 11
77.04955050113531
 21
-37.44024364263534
 72
     2
 10
77.04955050113531
 20
-37.14862064703927
 40
0.2916229955960645
 50
270.0
 51
450.0
 73
     1
 97
        4
330
BE
330
AF
330
BF
330
1E7
 75
     1
 76
     0
 52
45.0
 41
0.1
 77
     0
 78
     1
 53
45.0
 43
0.0
 44
0.0
 45
-0.0707106781186548
 46
0.0707106781186548
 79
     0
 98
        1
 10
0.0
 20
0.0
  0
HATCH
  5
280
330
47
100
AcDbEntity
  8
1
  6
Continuous
 62
     2
100
AcDbHatch
 10
0.0
 20
0.0
 30
0.0
210
0.0
220
0.0
230
1.0
  2
_USER
 70
     0
 71
     1
 91
        2
 92
        1
 93
        6
 72
     1
 10
75.76211292113871
 20
-36.30897629157552
 11
75.76211292113871
 21
-38.8327858153864
 72
     1
 10
75.76211292113871
 20
-38.8327858153864
 11
76.787323177547
 21
-38.8327858153864
 72
     1
 10
76.787323177547
 20
-38.8327858153864
 11
76.787323177547
 21
-38.05338231030886
 72
     1
 10
76.787323177547
 20
-38.05338231030886
 11
77.41440382860509
 21
-38.05338231030886
 72
     2
 10
77.41440382860509
 20
-37.18117930094219
 40
0.8722030093666717
 50
270.0
 51
450.0
 73
     1
 72
     1
 10
77.41440382860509
 20
-36.30897629157552
 11
75.76211292113871
 21
-36.30897629157552
 97
        6
330
1FB
330
BB
330
B1
330
B0
330
BD
330
BC
 92
       16
 93
        4
 72
     1
 10
77.04955050113531
 20
-36.85699765144331
 11
76.787323177547
 21
-36.85699765144331
 72
     1
 10
76.787323177547
 20
-36.85699765144331
 11
76.787323177547
 21
-37.44024364263534
 72
     1
 10
76.787323177547
 20
-37.44024364263534
 11
77.04955050113531
 21
-37.44024364263534
 72
     2
 10
77.04955050113531
 20
-37.14862064703927
 40
0.2916229955960645
 50
270.0
 51
450.0
 73
     1
 97
        4
330
BE
330
AF
330
BF
330
1E7
 75
     1
 76
     0
 52
45.0
 41
0.1
 77
     0
 78
     1
 53
45.0
 43
0.0
 44
0.0
 45
-0.0707106781186548
 46
0.0707106781186548
 79
     0
 98
        1
 10
0.0
 20
0.0
  0
HATCH
  5
281
330
47
100
AcDbEntity
  8
1
  6
Continuous
 62
     2
100
AcDbHatch
 10
0.0
 20
0.0
 30
0.0
210
0.0
220
0.0
230
1.0
  2
_USER
 70
     0
 71
     1
 91
        1
 92
        1
 93
       12
 72
     1
 10
91.97226432149671
 20
-36.30897629157552
 11
93.13154053451089
 21
-36.30897629157552
 72
     1
 10
93.13154053451089
 20
-36.30897629157552
 11
92.0550697652823
 21
-37.52629077920871
 72
     1
 10
92.0550697652823
 20
-37.52629077920871
 11
93.21040286192721
 21
-38.8327858153864
 72
     1
 10
93.21040286192721
 20
-38.8327858153864
 11
92.05112664891209
 21
-38.8327858153864
 72
     1
 10
92.05112664891209
 20
-38.8327858153864
 11
91.4754316587753
 21
-38.18176781101137
 72
     1
 10
91.4754316587753
 20
-38.18176781101137
 11
90.89973666863841
 21
-38.8327858153864
 72
     1
 10
90.89973666863841
 20
-38.8327858153864
 11
89.7404604556234
 21
-38.8327858153864
 72
     1
 10
89.7404604556234
 20
-38.8327858153864
 11
90.8957935522682
 21
-37.52629077920871
 72
     1
 10
90.8957935522682
 20
-37.52629077920871
 11
89.8193227830389
 21
-36.30897629157552
 72
     1
 10
89.8193227830389
 20
-36.30897629157552
 11
90.97859899605481
 21
-36.30897629157552
 72
     1
 10
90.97859899605481
 20
-36.30897629157552
 11
91.4754316587753
 21
-36.8708137474065
 72
     1
 10
91.4754316587753
 20
-36.8708137474065
 11
91.97226432149671
 21
-36.30897629157552
 97
       12
330
8A
330
E3
330
E2
330
E1
330
E0
330
8B
330
8C
330
88
330
89
330
E6
330
E5
330
E4
 75
     1
 76
     0
 52
45.0
 41
0.1
 77
     0
 78
     1
 53
45.0
 43
0.0
 44
0.0
 45
-0.0707106781186548
 46
0.0707106781186548
 79
     0
 98
        1
 10
0.0
 20
0.0
  0
HATCH
  5
282
330
47
100
AcDbEntity
  8
1
  6
Continuous
 62
     2
100
AcDbHatch
 10
0.0
 20
0.0
 30
0.0
210
0.0
220
0.0
230
1.0
  2
_USER
 70
     0
 71
     1
 91
        1
 92
        1
 93
       12
 72
     1
 10
91.97226432149671
 20
-36.30897629157552
 11
93.13154053451089
 21
-36.30897629157552
 72
     1
 10
93.13154053451089
 20
-36.30897629157552
 11
92.0550697652823
 21
-37.52629077920871
 72
     1
 10
92.0550697652823
 20
-37.52629077920871
 11
93.21040286192721
 21
-38.8327858153864
 72
     1
 10
93.21040286192721
 20
-38.8327858153864
 11
92.05112664891209
 21
-38.8327858153864
 72
     1
 10
92.05112664891209
 20
-38.8327858153864
 11
91.4754316587753
 21
-38.18176781101137
 72
     1
 10
91.4754316587753
 20
-38.18176781101137
 11
90.89973666863841
 21
-38.8327858153864
 72
     1
 10
90.89973666863841
 20
-38.8327858153864
 11
89.7404604556234
 21
-38.8327858153864
 72
     1
 10
89.7404604556234
 20
-38.8327858153864
 11
90.8957935522682
 21
-37.52629077920871
 72
     1
 10
90.8957935522682
 20
-37.52629077920871
 11
89.8193227830389
 21
-36.30897629157552
 72
     1
 10
89.8193227830389
 20
-36.30897629157552
 11
90.97859899605481
 21
-36.30897629157552
 72
     1
 10
90.97859899605481
 20
-36.30897629157552
 11
91.4754316587753
 21
-36.8708137474065
 72
     1
 10
91.4754316587753
 20
-36.8708137474065
 11
91.97226432149671
 21
-36.30897629157552
 97
       12
330
8A
330
E3
330
E2
330
E1
330
E0
330
8B
330
8C
330
88
330
89
330
E6
330
E5
330
E4
 75
     1
 76
     0
 52
45.0
 41
0.1
 77
     0
 78
     1
 53
45.0
 43
0.0
 44
0.0
 45
-0.0707106781186548
 46
0.0707106781186548
 79
     0
 98
        1
 10
0.0
 20
0.0
  0
HATCH
  5
283
330
47
100
AcDbEntity
  8
1
  6
Continuous
 62
     2
100
AcDbHatch
 10
0.0
 20
0.0
 30
0.0
210
0.0
220
0.0
230
1.0
  2
_USER
 70
     0
 71
     1
 91
        1
 92
        1
 93
        4
 72
     1
 10
89.6418825463532
 20
-36.30897629157552
 11
89.6418825463532
 21
-38.8327858153864
 72
     1
 10
89.6418825463532
 20
-38.8327858153864
 11
88.6166722899458
 21
-38.8327858153864
 72
     1
 10
88.6166722899458
 20
-38.8327858153864
 11
88.6166722899458
 21
-36.30897629157552
 72
     1
 10
88.6166722899458
 20
-36.30897629157552
 11
89.6418825463532
 21
-36.30897629157552
 97
        4
330
DE
330
8D
330
DD
330
DF
 75
     1
 76
     0
 52
45.0
 41
0.1
 77
     0
 78
     1
 53
45.0
 43
0.0
 44
0.0
 45
-0.0707106781186548
 46
0.0707106781186548
 79
     0
 98
        1
 10
0.0
 20
0.0
  0
HATCH
  5
284
330
47
100
AcDbEntity
  8
1
  6
Continuous
 62
     2
100
AcDbHatch
 10
0.0
 20
0.0
 30
0.0
210
0.0
220
0.0
230
1.0
  2
_USER
 70
     0
 71
     1
 91
        1
 92
        1
 93
        4
 72
     1
 10
89.6418825463532
 20
-36.30897629157552
 11
89.6418825463532
 21
-38.8327858153864
 72
     1
 10
89.6418825463532
 20
-38.8327858153864
 11
88.6166722899458
 21
-38.8327858153864
 72
     1
 10
88.6166722899458
 20
-38.8327858153864
 11
88.6166722899458
 21
-36.30897629157552
 72
     1
 10
88.6166722899458
 20
-36.30897629157552
 11
89.6418825463532
 21
-36.30897629157552
 97
        4
330
DE
330
8D
330
DD
330
DF
 75
     1
 76
     0
 52
45.0
 41
0.1
 77
     0
 78
     1
 53
45.0
 43
0.0
 44
0.0
 45
-0.0707106781186548
 46
0.0707106781186548
 79
     0
 98
        1
 10
0.0
 20
0.0
  0
HATCH
  5
285
330
47
100
AcDbEntity
  8
1
  6
Continuous
 62
     2
100
AcDbHatch
 10
0.0
 20
0.0
 30
0.0
210
0.0
220
0.0
230
1.0
  2
_USER
 70
     0
 71
     1
 91
        2
 92
        1
 93
        8
 72
     1
 10
89.31920155169871
 20
-41.60897629156354
 11
88.29399129529051
 21
-41.60897629156354
 72
     1
 10
88.29399129529051
 20
-41.60897629156354
 11
88.1192143915915
 21
-41.16190146163139
 72
     1
 10
88.1192143915915
 20
-41.16190146163139
 11
87.1833122621089
 21
-41.16190146163139
 72
     1
 10
87.1833122621089
 20
-41.16190146163139
 11
87.00853535840992
 21
-41.60897629156354
 72
     1
 10
87.00853535840992
 20
-41.60897629156354
 11
85.98332510200251
 21
-41.60897629156354
 72
     1
 10
85.98332510200251
 20
-41.60897629156354
 11
87.13865819864651
 21
-39.08516676775265
 72
     1
 10
87.13865819864651
 20
-39.08516676775265
 11
88.1638684550538
 21
-39.08516676775265
 72
     1
 10
88.1638684550538
 20
-39.08516676775265
 11
89.31920155169871
 21
-41.60897629156354
 97
        8
330
D9
330
93
330
D8
330
DB
330
90
330
DA
330
91
330
92
 92
       16
 93
        3
 72
     1
 10
87.40319288289001
 20
-40.59945248203918
 11
87.89933377080939
 21
-40.59945248203918
 72
     1
 10
87.89933377080939
 20
-40.59945248203918
 11
87.6512633268506
 21
-39.96489465890967
 72
     1
 10
87.6512633268506
 20
-39.96489465890967
 11
87.40319288289001
 21
-40.59945248203918
 97
        3
330
8F
330
8E
330
DC
 75
     1
 76
     0
 52
45.0
 41
0.1
 77
     0
 78
     1
 53
45.0
 43
0.0
 44
0.0
 45
-0.0707106781186548
 46
0.0707106781186548
 79
     0
 98
        1
 10
0.0
 20
0.0
  0
HATCH
  5
286
330
47
100
AcDbEntity
  8
1
  6
Continuous
 62
     2
100
AcDbHatch
 10
0.0
 20
0.0
 30
0.0
210
0.0
220
0.0
230
1.0
  2
_USER
 70
     0
 71
     1
 91
        2
 92
        1
 93
        8
 72
     1
 10
89.31920155169871
 20
-41.60897629156354
 11
88.29399129529051
 21
-41.60897629156354
 72
     1
 10
88.29399129529051
 20
-41.60897629156354
 11
88.1192143915915
 21
-41.16190146163139
 72
     1
 10
88.1192143915915
 20
-41.16190146163139
 11
87.1833122621089
 21
-41.16190146163139
 72
     1
 10
87.1833122621089
 20
-41.16190146163139
 11
87.00853535840992
 21
-41.60897629156354
 72
     1
 10
87.00853535840992
 20
-41.60897629156354
 11
85.98332510200251
 21
-41.60897629156354
 72
     1
 10
85.98332510200251
 20
-41.60897629156354
 11
87.13865819864651
 21
-39.08516676775265
 72
     1
 10
87.13865819864651
 20
-39.08516676775265
 11
88.1638684550538
 21
-39.08516676775265
 72
     1
 10
88.1638684550538
 20
-39.08516676775265
 11
89.31920155169871
 21
-41.60897629156354
 97
        8
330
D9
330
93
330
D8
330
DB
330
90
330
DA
330
91
330
92
 92
       16
 93
        3
 72
     1
 10
87.40319288289001
 20
-40.59945248203918
 11
87.89933377080939
 21
-40.59945248203918
 72
     1
 10
87.89933377080939
 20
-40.59945248203918
 11
87.6512633268506
 21
-39.96489465890967
 72
     1
 10
87.6512633268506
 20
-39.96489465890967
 11
87.40319288289001
 21
-40.59945248203918
 97
        3
330
8F
330
8E
330
DC
 75
     1
 76
     0
 52
45.0
 41
0.1
 77
     0
 78
     1
 53
45.0
 43
0.0
 44
0.0
 45
-0.0707106781186548
 46
0.0707106781186548
 79
     0
 98
        1
 10
0.0
 20
0.0
  0
HATCH
  5
287
330
47
100
AcDbEntity
  8
1
  6
Continuous
 62
     2
100
AcDbHatch
 10
0.0
 20
0.0
 30
0.0
210
0.0
220
0.0
230
1.0
  2
_USER
 70
     0
 71
     1
 91
        1
 92
        1
 93
        8
 72
     1
 10
84.20025721838081
 20
-39.08516676775265
 11
84.20025721838081
 21
-39.73414635959036
 72
     1
 10
84.20025721838081
 20
-39.73414635959036
 11
84.8705870014177
 21
-39.73414635959036
 72
     1
 10
84.8705870014177
 20
-39.73414635959036
 11
84.8705870014177
 21
-41.60897629156354
 72
     1
 10
84.8705870014177
 20
-41.60897629156354
 11
85.8563660941173
 21
-41.60897629156354
 72
     1
 10
85.8563660941173
 20
-41.60897629156354
 11
85.8563660941173
 21
-39.73414635959036
 72
     1
 10
85.8563660941173
 20
-39.73414635959036
 11
86.52669587715249
 21
-39.73414635959036
 72
     1
 10
86.52669587715249
 20
-39.73414635959036
 11
86.52669587715249
 21
-39.08516676775265
 72
     1
 10
86.52669587715249
 20
-39.08516676775265
 11
84.20025721838081
 21
-39.08516676775265
 97
        8
330
D5
330
D4
330
D3
330
94
330
95
330
D7
330
96
330
D6
 75
     1
 76
     0
 52
45.0
 41
0.1
 77
     0
 78
     1
 53
45.0
 43
0.0
 44
0.0
 45
-0.0707106781186548
 46
0.0707106781186548
 79
     0
 98
        1
 10
0.0
 20
0.0
  0
HATCH
  5
288
330
47
100
AcDbEntity
  8
1
  6
Continuous
 62
     2
100
AcDbHatch
 10
0.0
 20
0.0
 30
0.0
210
0.0
220
0.0
230
1.0
  2
_USER
 70
     0
 71
     1
 91
        1
 92
        1
 93
        8
 72
     1
 10
84.20025721838081
 20
-39.08516676775265
 11
84.20025721838081
 21
-39.73414635959036
 72
     1
 10
84.20025721838081
 20
-39.73414635959036
 11
84.8705870014177
 21
-39.73414635959036
 72
     1
 10
84.8705870014177
 20
-39.73414635959036
 11
84.8705870014177
 21
-41.60897629156354
 72
     1
 10
84.8705870014177
 20
-41.60897629156354
 11
85.8563660941173
 21
-41.60897629156354
 72
     1
 10
85.8563660941173
 20
-41.60897629156354
 11
85.8563660941173
 21
-39.73414635959036
 72
     1
 10
85.8563660941173
 20
-39.73414635959036
 11
86.52669587715249
 21
-39.73414635959036
 72
     1
 10
86.52669587715249
 20
-39.73414635959036
 11
86.52669587715249
 21
-39.08516676775265
 72
     1
 10
86.52669587715249
 20
-39.08516676775265
 11
84.20025721838081
 21
-39.08516676775265
 97
        8
330
D5
330
D4
330
D3
330
94
330
95
330
D7
330
96
330
D6
 75
     1
 76
     0
 52
45.0
 41
0.1
 77
     0
 78
     1
 53
45.0
 43
0.0
 44
0.0
 45
-0.0707106781186548
 46
0.0707106781186548
 79
     0
 98
        1
 10
0.0
 20
0.0
  0
HATCH
  5
289
330
47
100
AcDbEntity
  8
1
  6
Continuous
 62
     2
100
AcDbHatch
 10
0.0
 20
0.0
 30
0.0
210
0.0
220
0.0
230
1.0
  2
_USER
 70
     0
 71
     1
 91
        1
 92
        1
 93
       10
 72
     1
 10
86.4085271222975
 20
-36.30897629157552
 11
85.4227480295979
 21
-36.30897629157552
 72
     1
 10
85.4227480295979
 20
-36.30897629157552
 11
85.4227480295979
 21
-38.8327858153864
 72
     1
 10
85.4227480295979
 20
-38.8327858153864
 11
86.4085271222975
 21
-38.8327858153864
 72
     1
 10
86.4085271222975
 20
-38.8327858153864
 11
86.4085271222975
 21
-37.75115316232474
 72
     1
 10
86.4085271222975
 20
-37.75115316232474
 11
87.43373737870581
 21
-38.8327858153864
 72
     1
 10
87.43373737870581
 20
-38.8327858153864
 11
88.41951647140539
 21
-38.8327858153864
 72
     1
 10
88.41951647140539
 20
-38.8327858153864
 11
88.41951647140539
 21
-36.30897629157552
 72
     1
 10
88.41951647140539
 20
-36.30897629157552
 11
87.43373737870581
 21
-36.30897629157552
 72
     1
 10
87.43373737870581
 20
-36.30897629157552
 11
87.43373737870581
 21
-37.39060894463763
 72
     1
 10
87.43373737870581
 20
-37.39060894463763
 11
86.4085271222975
 21
-36.30897629157552
 97
       10
330
CF
330
99
330
9A
330
9B
330
9C
330
D2
330
97
330
D1
330
D0
330
98
 75
     1
 76
     0
 52
45.0
 41
0.1
 77
     0
 78
     1
 53
45.0
 43
0.0
 44
0.0
 45
-0.0707106781186548
 46
0.0707106781186548
 79
     0
 98
        1
 10
0.0
 20
0.0
  0
HATCH
  5
28A
330
47
100
AcDbEntity
  8
1
  6
Continuous
 62
     2
100
AcDbHatch
 10
0.0
 20
0.0
 30
0.0
210
0.0
220
0.0
230
1.0
  2
_USER
 70
     0
 71
     1
 91
        1
 92
        1
 93
       10
 72
     1
 10
86.4085271222975
 20
-36.30897629157552
 11
85.4227480295979
 21
-36.30897629157552
 72
     1
 10
85.4227480295979
 20
-36.30897629157552
 11
85.4227480295979
 21
-38.8327858153864
 72
     1
 10
85.4227480295979
 20
-38.8327858153864
 11
86.4085271222975
 21
-38.8327858153864
 72
     1
 10
86.4085271222975
 20
-38.8327858153864
 11
86.4085271222975
 21
-37.75115316232474
 72
     1
 10
86.4085271222975
 20
-37.75115316232474
 11
87.43373737870581
 21
-38.8327858153864
 72
     1
 10
87.43373737870581
 20
-38.8327858153864
 11
88.41951647140539
 21
-38.8327858153864
 72
     1
 10
88.41951647140539
 20
-38.8327858153864
 11
88.41951647140539
 21
-36.30897629157552
 72
     1
 10
88.41951647140539
 20
-36.30897629157552
 11
87.43373737870581
 21
-36.30897629157552
 72
     1
 10
87.43373737870581
 20
-36.30897629157552
 11
87.43373737870581
 21
-37.39060894463763
 72
     1
 10
87.43373737870581
 20
-37.39060894463763
 11
86.4085271222975
 21
-36.30897629157552
 97
       10
330
CF
330
99
330
9A
330
9B
330
9C
330
D2
330
97
330
D1
330
D0
330
98
 75
     1
 76
     0
 52
45.0
 41
0.1
 77
     0
 78
     1
 53
45.0
 43
0.0
 44
0.0
 45
-0.0707106781186548
 46
0.0707106781186548
 79
     0
 98
        1
 10
0.0
 20
0.0
  0
HATCH
  5
28B
330
47
100
AcDbEntity
  8
1
  6
Continuous
 62
     2
100
AcDbHatch
 10
0.0
 20
0.0
 30
0.0
210
0.0
220
0.0
230
1.0
  2
_USER
 70
     0
 71
     1
 91
        1
 92
        1
 93
       10
 72
     1
 10
82.07097437814991
 20
-39.08516676775265
 11
81.0851952854494
 21
-39.08516676775265
 72
     1
 10
81.0851952854494
 20
-39.08516676775265
 11
81.0851952854494
 21
-41.60897629156354
 72
     1
 10
81.0851952854494
 20
-41.60897629156354
 11
82.07097437814991
 21
-41.60897629156354
 72
     1
 10
82.07097437814991
 20
-41.60897629156354
 11
82.07097437814991
 21
-40.52734363850188
 72
     1
 10
82.07097437814991
 20
-40.52734363850188
 11
83.0961846345572
 21
-41.60897629156354
 72
     1
 10
83.0961846345572
 20
-41.60897629156354
 11
84.0819637272568
 21
-41.60897629156354
 72
     1
 10
84.0819637272568
 20
-41.60897629156354
 11
84.0819637272568
 21
-39.08516676775265
 72
     1
 10
84.0819637272568
 20
-39.08516676775265
 11
83.0961846345572
 21
-39.08516676775265
 72
     1
 10
83.0961846345572
 20
-39.08516676775265
 11
83.0961846345572
 21
-40.16679942081477
 72
     1
 10
83.0961846345572
 20
-40.16679942081477
 11
82.07097437814991
 21
-39.08516676775265
 97
       10
330
9E
330
9F
330
A0
330
CC
330
A1
330
A2
330
CB
330
CE
330
CD
330
9D
 75
     1
 76
     0
 52
45.0
 41
0.1
 77
     0
 78
     1
 53
45.0
 43
0.0
 44
0.0
 45
-0.0707106781186548
 46
0.0707106781186548
 79
     0
 98
        1
 10
0.0
 20
0.0
  0
HATCH
  5
28C
330
47
100
AcDbEntity
  8
1
  6
Continuous
 62
     2
100
AcDbHatch
 10
0.0
 20
0.0
 30
0.0
210
0.0
220
0.0
230
1.0
  2
_USER
 70
     0
 71
     1
 91
        1
 92
        1
 93
       10
 72
     1
 10
82.07097437814991
 20
-39.08516676775265
 11
81.0851952854494
 21
-39.08516676775265
 72
     1
 10
81.0851952854494
 20
-39.08516676775265
 11
81.0851952854494
 21
-41.60897629156354
 72
     1
 10
81.0851952854494
 20
-41.60897629156354
 11
82.07097437814991
 21
-41.60897629156354
 72
     1
 10
82.07097437814991
 20
-41.60897629156354
 11
82.07097437814991
 21
-40.52734363850188
 72
     1
 10
82.07097437814991
 20
-40.52734363850188
 11
83.0961846345572
 21
-41.60897629156354
 72
     1
 10
83.0961846345572
 20
-41.60897629156354
 11
84.0819637272568
 21
-41.60897629156354
 72
     1
 10
84.0819637272568
 20
-41.60897629156354
 11
84.0819637272568
 21
-39.08516676775265
 72
     1
 10
84.0819637272568
 20
-39.08516676775265
 11
83.0961846345572
 21
-39.08516676775265
 72
     1
 10
83.0961846345572
 20
-39.08516676775265
 11
83.0961846345572
 21
-40.16679942081477
 72
     1
 10
83.0961846345572
 20
-40.16679942081477
 11
82.07097437814991
 21
-39.08516676775265
 97
       10
330
9E
330
9F
330
A0
330
CC
330
A1
330
A2
330
CB
330
CE
330
CD
330
9D
 75
     1
 76
     0
 52
45.0
 41
0.1
 77
     0
 78
     1
 53
45.0
 43
0.0
 44
0.0
 45
-0.0707106781186548
 46
0.0707106781186548
 79
     0
 98
        1
 10
0.0
 20
0.0
  0
HATCH
  5
28D
330
47
100
AcDbEntity
  8
1
  6
Continuous
 62
     2
100
AcDbHatch
 10
0.0
 20
0.0
 30
0.0
210
0.0
220
0.0
230
1.0
  2
_USER
 70
     0
 71
     1
 91
        1
 92
        1
 93
       12
 72
     1
 10
81.2430446765504
 20
-36.30897629157552
 11
81.2430446765504
 21
-38.8327858153864
 72
     1
 10
81.2430446765504
 20
-38.8327858153864
 11
80.2572655838508
 21
-38.8327858153864
 72
     1
 10
80.2572655838508
 20
-38.8327858153864
 11
80.2572655838508
 21
-37.89537084939981
 72
     1
 10
80.2572655838508
 20
-37.89537084939981
 11
79.3897799822744
 21
-37.89537084939981
 72
     1
 10
79.3897799822744
 20
-37.89537084939981
 11
79.3897799822744
 21
-38.8327858153864
 72
     1
 10
79.3897799822744
 20
-38.8327858153864
 11
78.4040008895748
 21
-38.8327858153864
 72
     1
 10
78.4040008895748
 20
-38.8327858153864
 11
78.4040008895748
 21
-36.30897629157552
 72
     1
 10
78.4040008895748
 20
-36.30897629157552
 11
79.3897799822744
 21
-36.30897629157552
 72
     1
 10
79.3897799822744
 20
-36.30897629157552
 11
79.3897799822744
 21
-37.19230962490987
 72
     1
 10
79.3897799822744
 20
-37.19230962490987
 11
80.2572655838508
 21
-37.19230962490987
 72
     1
 10
80.2572655838508
 20
-37.19230962490987
 11
80.2572655838508
 21
-36.30897629157552
 72
     1
 10
80.2572655838508
 20
-36.30897629157552
 11
81.2430446765504
 21
-36.30897629157552
 97
       12
330
C6
330
C5
330
C4
330
AC
330
AD
330
C3
330
AE
330
C2
330
C1
330
C0
330
AA
330
AB
 75
     1
 76
     0
 52
45.0
 41
0.1
 77
     0
 78
     1
 53
45.0
 43
0.0
 44
0.0
 45
-0.0707106781186548
 46
0.0707106781186548
 79
     0
 98
        1
 10
0.0
 20
0.0
  0
HATCH
  5
28E
330
47
100
AcDbEntity
  8
1
  6
Continuous
 62
     2
100
AcDbHatch
 10
0.0
 20
0.0
 30
0.0
210
0.0
220
0.0
230
1.0
  2
_USER
 70
     0
 71
     1
 91
        1
 92
        1
 93
       12
 72
     1
 10
81.2430446765504
 20
-36.30897629157552
 11
81.2430446765504
 21
-38.8327858153864
 72
     1
 10
81.2430446765504
 20
-38.8327858153864
 11
80.2572655838508
 21
-38.8327858153864
 72
     1
 10
80.2572655838508
 20
-38.8327858153864
 11
80.2572655838508
 21
-37.89537084939981
 72
     1
 10
80.2572655838508
 20
-37.89537084939981
 11
79.3897799822744
 21
-37.89537084939981
 72
     1
 10
79.3897799822744
 20
-37.89537084939981
 11
79.3897799822744
 21
-38.8327858153864
 72
     1
 10
79.3897799822744
 20
-38.8327858153864
 11
78.4040008895748
 21
-38.8327858153864
 72
     1
 10
78.4040008895748
 20
-38.8327858153864
 11
78.4040008895748
 21
-36.30897629157552
 72
     1
 10
78.4040008895748
 20
-36.30897629157552
 11
79.3897799822744
 21
-36.30897629157552
 72
     1
 10
79.3897799822744
 20
-36.30897629157552
 11
79.3897799822744
 21
-37.19230962490987
 72
     1
 10
79.3897799822744
 20
-37.19230962490987
 11
80.2572655838508
 21
-37.19230962490987
 72
     1
 10
80.2572655838508
 20
-37.19230962490987
 11
80.2572655838508
 21
-36.30897629157552
 72
     1
 10
80.2572655838508
 20
-36.30897629157552
 11
81.2430446765504
 21
-36.30897629157552
 97
       12
330
C6
330
C5
330
C4
330
AC
330
AD
330
C3
330
AE
330
C2
330
C1
330
C0
330
AA
330
AB
 75
     1
 76
     0
 52
45.0
 41
0.1
 77
     0
 78
     1
 53
45.0
 43
0.0
 44
0.0
 45
-0.0707106781186548
 46
0.0707106781186548
 79
     0
 98
        1
 10
0.0
 20
0.0
  0
ENDBLK
  5
49
330
47
100
AcDbEntity
  8
0
100
AcDbBlockEnd
  0
BLOCK
  5
4B
330
4A
100
AcDbEntity
  8
0
100
AcDbBlockBegin
  2
_punkt
 70
     0
 10
193.0279312587061
 20
-47.45897629156936
 30
0.0
  3
_punkt
  1

  0
LINE
  5
28F
330
4A
100
AcDbEntity
  8
1
  6
Continuous
 62
     2
100
AcDbLine
 10
193.0279312587061
 20
-47.45897629156936
 30
0.0
 11
193.0279312587061
 21
-52.4589762915689
 31
0.0
  0
LINE
  5
290
330
4A
100
AcDbEntity
  8
1
  6
Continuous
 62
     2
100
AcDbLine
 10
193.0279312587061
 20
-47.45897629156936
 30
0.0
 11
198.0279312587037
 21
-47.45897629156936
 31
0.0
  0
ENDBLK
  5
4C
330
4A
100
AcDbEntity
  8
0
100
AcDbBlockEnd
  0
BLOCK
  5
50
330
4D
100
AcDbEntity
  8
0
100
AcDbBlockBegin
  2
A3I
 70
     0
 10
193.0279312587061
 20
-52.4589762915689
 30
0.0
  3
A3I
  1

  0
INSERT
  5
4E
330
4D
100
AcDbEntity
  8
1
100
AcDbBlockReference
  2
_rahmen
 10
193.0279312587061
 20
-52.4589762915689
 30
0.0
  0
INSERT
  5
4F
330
4D
100
AcDbEntity
  8
1
100
AcDbBlockReference
  2
_punkt
 10
193.0279312587061
 20
-47.45897629156936
 30
0.0
  0
ENDBLK
  5
51
330
4D
100
AcDbEntity
  8
0
100
AcDbBlockEnd
  0
BLOCK
  5
53
330
52
100
AcDbEntity
  8
0
100
AcDbBlockBegin
  2
1409820_HC_B24_TMS_EEE_PR_DI-select__1
 70
     0
 10
-166.0999979999852
 20
83.54774490484756
 30
0.0
  3
1409820_HC_B24_TMS_EEE_PR_DI-select__1
  1

  0
LINE
  5
291
330
52
100
AcDbEntity
  8
0
  6
Continuous
 62
     2
100
AcDbLine
 10
-22.32839799998521
 20
90.51189755857256
 30
0.0
 11
-16.59999799998519
 21
90.51189755857256
 31
0.0
  0
LINE
  5
292
330
52
100
AcDbEntity
  8
0
  6
Continuous
 62
     7
100
AcDbLine
 10
-16.59999799998519
 20
90.51189755857256
 30
0.0
 11
-16.59999799998519
 21
91.34774490484756
 31
0.0
  0
LINE
  5
293
330
52
100
AcDbEntity
  8
0
  6
Continuous
 62
     7
100
AcDbLine
 10
-22.32839799998521
 20
91.34774490484756
 30
0.0
 11
-16.59999799998519
 21
91.34774490484756
 31
0.0
  0
LINE
  5
294
330
52
100
AcDbEntity
  8
0
  6
Continuous
 62
     2
100
AcDbLine
 10
-22.32839799998521
 20
88.13395024208297
 30
0.0
 11
-22.32839799998521
 21
90.51189755857256
 31
0.0
  0
LINE
  5
295
330
52
100
AcDbEntity
  8
0
  6
Continuous
 62
     7
100
AcDbLine
 10
-164.3715979999852
 20
88.13395024208297
 30
0.0
 11
-160.3715979999852
 21
88.13395024208297
 31
0.0
  0
LINE
  5
296
330
52
100
AcDbEntity
  8
0
  6
Continuous
 62
     7
100
AcDbLine
 10
-164.3715979999852
 20
83.54774490484756
 30
0.0
 11
-164.3715979999852
 21
88.13395024208297
 31
0.0
  0
LINE
  5
297
330
52
100
AcDbEntity
  8
0
  6
Continuous
 62
     7
100
AcDbLine
 10
-22.32839799998521
 20
88.13395024208297
 30
0.0
 11
-18.32839799998521
 21
88.13395024208299
 31
0.0
  0
LINE
  5
298
330
52
100
AcDbEntity
  8
0
  6
Continuous
 62
     7
100
AcDbLine
 10
-22.32839799998521
 20
83.54774490484756
 30
0.0
 11
-18.32839799998521
 21
83.54774490484756
 31
0.0
  0
LINE
  5
299
330
52
100
AcDbEntity
  8
0
  6
Continuous
 62
     2
100
AcDbLine
 10
-22.32839799998521
 20
83.54774490484756
 30
0.0
 11
-22.32839799998521
 21
88.13395024208297
 31
0.0
  0
LINE
  5
29A
330
52
100
AcDbEntity
  8
0
  6
Continuous
 62
     7
100
AcDbLine
 10
-18.32839799998521
 20
83.54774490484756
 30
0.0
 11
-18.32839799998521
 21
88.13395024208299
 31
0.0
  0
LINE
  5
29B
330
52
100
AcDbEntity
  8
0
  6
Continuous
 62
     2
100
AcDbLine
 10
-160.3715979999852
 20
90.51189755857256
 30
0.0
 11
-160.3715979999852
 21
88.13395024208297
 31
0.0
  0
LINE
  5
29C
330
52
100
AcDbEntity
  8
0
  6
Continuous
 62
     7
100
AcDbLine
 10
-160.3715979999852
 20
88.13395024208297
 30
0.0
 11
-22.32839799998521
 21
88.13395024208297
 31
0.0
  0
LINE
  5
29D
330
52
100
AcDbEntity
  8
0
  6
Continuous
 62
     2
100
AcDbLine
 10
-160.3715979999852
 20
88.13395024208297
 30
0.0
 11
-160.3715979999852
 21
83.54774490484756
 31
0.0
  0
LINE
  5
29E
330
52
100
AcDbEntity
  8
0
  6
Continuous
 62
     2
100
AcDbLine
 10
-22.32839799998521
 20
90.51189755857256
 30
0.0
 11
-22.32839799998521
 21
91.34774490484756
 31
0.0
  0
LINE
  5
29F
330
52
100
AcDbEntity
  8
0
  6
Continuous
 62
     7
100
AcDbLine
 10
-166.0999979999852
 20
90.51189755857256
 30
0.0
 11
-166.0999979999852
 21
91.34774490484756
 31
0.0
  0
LINE
  5
2A0
330
52
100
AcDbEntity
  8
0
  6
Continuous
 62
     7
100
AcDbLine
 10
-166.0999979999852
 20
91.34774490484756
 30
0.0
 11
-160.3715979999852
 21
91.34774490484756
 31
0.0
  0
LINE
  5
2A1
330
52
100
AcDbEntity
  8
0
  6
Continuous
 62
     2
100
AcDbLine
 10
-160.3715979999852
 20
90.51189755857256
 30
0.0
 11
-160.3715979999852
 21
91.34774490484756
 31
0.0
  0
LINE
  5
2A2
330
52
100
AcDbEntity
  8
0
  6
Continuous
 62
     2
100
AcDbLine
 10
-166.0999979999852
 20
90.51189755857256
 30
0.0
 11
-160.3715979999852
 21
90.51189755857256
 31
0.0
  0
LINE
  5
2A3
330
52
100
AcDbEntity
  8
0
  6
Continuous
 62
     2
100
AcDbLine
 10
-160.3715979999852
 20
90.51189755857256
 30
0.0
 11
-22.32839799998521
 21
90.51189755857256
 31
0.0
  0
LINE
  5
2A4
330
52
100
AcDbEntity
  8
0
  6
Continuous
 62
     7
100
AcDbLine
 10
-160.3715979999852
 20
91.34774490484756
 30
0.0
 11
-22.32839799998521
 21
91.34774490484756
 31
0.0
  0
LINE
  5
2A5
330
52
100
AcDbEntity
  8
0
  6
Continuous
 62
     7
100
AcDbLine
 10
-22.32839799998521
 20
83.54774490484756
 30
0.0
 11
-160.3715979999852
 21
83.54774490484756
 31
0.0
  0
LINE
  5
2A6
330
52
100
AcDbEntity
  8
0
  6
Continuous
 62
     7
100
AcDbLine
 10
-164.3715979999852
 20
83.54774490484756
 30
0.0
 11
-160.3715979999852
 21
83.54774490484756
 31
0.0
  0
ARC
  5
2A7
330
52
100
AcDbEntity
  8
0
  6
Continuous
 62
     7
100
AcDbCircle
 10
-19.09999799998519
 20
90.51189755857256
 30
0.0
 40
2.499999999999982
100
AcDbArc
 50
287.9772896815871
 51
0.0
  0
ARC
  5
2A8
330
52
100
AcDbEntity
  8
0
  6
Continuous
 62
     7
100
AcDbCircle
 10
-163.5999979999852
 20
90.51189755857256
 30
0.0
 40
2.5
100
AcDbArc
 50
180.0
 51
252.0227103184124
  0
ENDBLK
  5
54
330
52
100
AcDbEntity
  8
0
100
AcDbBlockEnd
  0
BLOCK
  5
57
330
55
100
AcDbEntity
  8
0
100
AcDbBlockBegin
  2
Drfsicht1
 70
     0
 10
-91.37159800000012
 20
87.447745
 30
0.0
  3
Drfsicht1
  1

  0
INSERT
  5
56
330
55
100
AcDbEntity
  8
0
100
AcDbBlockReference
  2
1409820_HC_B24_TMS_EEE_PR_DI-select__1
 10
-166.0999979999852
 20
83.54774490484756
 30
0.0
  0
MTEXT
  5
2A9
330
55
100
AcDbEntity
  8
1
 62
     6
100
AcDbMText
 10
-91.34999918351906
 20
78.54774468116716
 30
0.0
 40
5.0
 41
0.0
 71
     2
 72
     1
  1
 
  7
CONVERTER_12
 73
     1
 44
1.32052821128451
  0
ENDBLK
  5
58
330
55
100
AcDbEntity
  8
0
100
AcDbBlockEnd
  0
BLOCK
  5
5A
330
59
100
AcDbEntity
  8
0
100
AcDbBlockBegin
  2
1409820_HC_B24_TMS_EEE_PR_DI-select__2
 70
     0
 10
30.60235299998512
 20
116.5215999999851
 30
0.0
  3
1409820_HC_B24_TMS_EEE_PR_DI-select__2
  1

  0
LINE
  5
2AA
330
59
100
AcDbEntity
  8
0
  6
Continuous
 62
     7
100
AcDbLine
 10
174.3739529999851
 20
166.4499999999851
 30
0.0
 11
36.33075299998511
 21
166.4499999999851
 31
0.0
  0
LINE
  5
2AB
330
59
100
AcDbEntity
  8
0
  6
Continuous
 62
     2
100
AcDbLine
 10
174.37395299997
 20
168.2797940154211
 30
0.0
 11
36.33075299998511
 21
168.2797940154211
 31
0.0
  0
LINE
  5
2AC
330
59
100
AcDbEntity
  8
0
  6
Continuous
 62
     7
100
AcDbLine
 10
36.33075299998511
 20
170.3530833543654
 30
0.0
 11
174.3739529999851
 21
170.3530833543694
 31
0.0
  0
LINE
  5
2AD
330
59
100
AcDbEntity
  8
0
  6
Continuous
 62
     7
100
AcDbLine
 10
174.3739529999851
 20
171.4783999999851
 30
0.0
 11
36.33075299998511
 21
171.4783999999851
 31
0.0
  0
LINE
  5
2AE
330
59
100
AcDbEntity
  8
0
  6
Continuous
 62
     2
100
AcDbLine
 10
178.9770363543694
 20
165.7499999999851
 30
0.0
 11
176.9037470154211
 21
165.74999999997
 31
0.0
  0
LINE
  5
2AF
330
59
100
AcDbEntity
  8
0
  6
Continuous
 62
     2
100
AcDbLine
 10
174.37395299997
 20
168.2797940154211
 30
0.0
 11
174.3739529999851
 21
170.3530833543694
 31
0.0
  0
LINE
  5
2B0
330
59
100
AcDbEntity
  8
0
  6
Continuous
 62
     2
100
AcDbLine
 10
36.33075299998511
 20
119.7202059845491
 30
0.0
 11
36.33075299998511
 21
117.6469166456048
 31
0.0
  0
LINE
  5
2B1
330
59
100
AcDbEntity
  8
0
  6
Continuous
 62
     2
100
AcDbLine
 10
36.33075299998511
 20
170.3530833543654
 30
0.0
 11
36.33075299998511
 21
168.2797940154211
 31
0.0
  0
LINE
  5
2B2
330
59
100
AcDbEntity
  8
0
  6
Continuous
 62
     2
100
AcDbLine
 10
174.3739529999851
 20
117.6469166456048
 30
0.0
 11
174.3739529999851
 21
119.7202059845491
 31
0.0
  0
LINE
  5
2B3
330
59
100
AcDbEntity
  8
0
  6
Continuous
 62
     7
100
AcDbLine
 10
174.3739529999851
 20
121.5499999999851
 30
0.0
 11
36.33075299998511
 21
121.5499999999851
 31
0.0
  0
LINE
  5
2B4
330
59
100
AcDbEntity
  8
0
  6
Continuous
 62
     2
100
AcDbLine
 10
36.33075299998511
 20
119.7202059845491
 30
0.0
 11
174.3739529999851
 21
119.7202059845491
 31
0.0
  0
LINE
  5
2B5
330
59
100
AcDbEntity
  8
0
  6
Continuous
 62
     7
100
AcDbLine
 10
174.3739529999851
 20
117.6469166456048
 30
0.0
 11
36.33075299998511
 21
117.6469166456048
 31
0.0
  0
LINE
  5
2B6
330
59
100
AcDbEntity
  8
0
  6
Continuous
 62
     7
100
AcDbLine
 10
36.33075299998511
 20
116.5215999999851
 30
0.0
 11
174.3739529999851
 21
116.5215999999851
 31
0.0
  0
LINE
  5
2B7
330
59
100
AcDbEntity
  8
0
  6
Continuous
 62
     7
100
AcDbLine
 10
35.63075299998511
 20
165.7499999999851
 30
0.0
 11
35.63075299998511
 21
122.2499999999851
 31
0.0
  0
LINE
  5
2B8
330
59
100
AcDbEntity
  8
0
  6
Continuous
 62
     2
100
AcDbLine
 10
33.80095898454911
 20
165.7499999999699
 30
0.0
 11
33.80095898454911
 21
122.2500000000002
 31
0.0
  0
LINE
  5
2B9
330
59
100
AcDbEntity
  8
0
  6
Continuous
 62
     7
100
AcDbLine
 10
31.72766964560482
 20
122.2499999999851
 30
0.0
 11
31.72766964560482
 21
165.7499999999851
 31
0.0
  0
LINE
  5
2BA
330
59
100
AcDbEntity
  8
0
  6
Continuous
 62
     7
100
AcDbLine
 10
30.60235299998512
 20
165.7499999999851
 30
0.0
 11
30.60235299998512
 21
122.2499999999851
 31
0.0
  0
LINE
  5
2BB
330
59
100
AcDbEntity
  8
0
  6
Continuous
 62
     2
100
AcDbLine
 10
33.80095898454911
 20
165.7499999999699
 30
0.0
 11
31.72766964560482
 21
165.7499999999851
 31
0.0
  0
LINE
  5
2BC
330
59
100
AcDbEntity
  8
0
  6
Continuous
 62
     2
100
AcDbLine
 10
31.72766964560482
 20
122.2499999999851
 30
0.0
 11
33.80095898454911
 21
122.2500000000002
 31
0.0
  0
LINE
  5
2BD
330
59
100
AcDbEntity
  8
0
  6
Continuous
 62
     2
100
AcDbLine
 10
176.9037470154211
 20
122.2500000000002
 30
0.0
 11
178.9770363543654
 21
122.2499999999851
 31
0.0
  0
LINE
  5
2BE
330
59
100
AcDbEntity
  8
0
  6
Continuous
 62
     7
100
AcDbLine
 10
175.0739529999851
 20
122.2499999999851
 30
0.0
 11
175.0739529999851
 21
165.7499999999851
 31
0.0
  0
LINE
  5
2BF
330
59
100
AcDbEntity
  8
0
  6
Continuous
 62
     2
100
AcDbLine
 10
176.9037470154211
 20
122.2500000000002
 30
0.0
 11
176.9037470154211
 21
165.74999999997
 31
0.0
  0
LINE
  5
2C0
330
59
100
AcDbEntity
  8
0
  6
Continuous
 62
     7
100
AcDbLine
 10
178.9770363543694
 20
165.7499999999851
 30
0.0
 11
178.9770363543654
 21
122.2499999999851
 31
0.0
  0
LINE
  5
2C1
330
59
100
AcDbEntity
  8
0
  6
Continuous
 62
     7
100
AcDbLine
 10
180.1023529999851
 20
122.2499999999851
 30
0.0
 11
180.1023529999851
 21
165.7499999999851
 31
0.0
  0
ARC
  5
2C2
330
59
100
AcDbEntity
  8
0
  6
Continuous
 62
     7
100
AcDbCircle
 10
36.33075299998511
 20
122.2499999999851
 30
0.0
 40
0.6999999999999957
100
AcDbArc
 50
180.0
 51
270.0
  0
ARC
  5
2C3
330
59
100
AcDbEntity
  8
0
  6
Continuous
 62
     2
100
AcDbCircle
 10
36.33075299998511
 20
122.2499999999851
 30
0.0
 40
2.529794015435996
100
AcDbArc
 50
179.9999999996582
 51
270.0
  0
ARC
  5
2C4
330
59
100
AcDbEntity
  8
0
  6
Continuous
 62
     7
100
AcDbCircle
 10
36.33075299998511
 20
122.2499999999851
 30
0.0
 40
4.603083354380288
100
AcDbArc
 50
180.0
 51
270.0
  0
ARC
  5
2C5
330
59
100
AcDbEntity
  8
0
  6
Continuous
 62
     2
100
AcDbCircle
 10
174.3739529999851
 20
165.7499999999851
 30
0.0
 40
2.529794015435982
100
AcDbArc
 50
359.9999999996576
 51
90.00000000034247
  0
ARC
  5
2C6
330
59
100
AcDbEntity
  8
0
  6
Continuous
 62
     7
100
AcDbCircle
 10
174.3739529999851
 20
165.7499999999851
 30
0.0
 40
0.6999999999999886
100
AcDbArc
 50
0.0
 51
90.0
  0
ARC
  5
2C7
330
59
100
AcDbEntity
  8
0
  6
Continuous
 62
     7
100
AcDbCircle
 10
174.3739529999851
 20
165.7499999999851
 30
0.0
 40
4.603083354384296
100
AcDbArc
 50
0.0
 51
90.0
  0
ARC
  5
2C8
330
59
100
AcDbEntity
  8
0
  6
Continuous
 62
     7
100
AcDbCircle
 10
174.3739529999851
 20
165.7499999999851
 30
0.0
 40
5.728399999999993
100
AcDbArc
 50
0.0
 51
90.0
  0
ARC
  5
2C9
330
59
100
AcDbEntity
  8
0
  6
Continuous
 62
     7
100
AcDbCircle
 10
174.3739529999851
 20
122.2499999999851
 30
0.0
 40
0.7000000000000028
100
AcDbArc
 50
270.0
 51
0.0
  0
ARC
  5
2CA
330
59
100
AcDbEntity
  8
0
  6
Continuous
 62
     2
100
AcDbCircle
 10
174.3739529999851
 20
122.2499999999851
 30
0.0
 40
2.529794015436011
100
AcDbArc
 50
270.0
 51
0.00000000034181
  0
ARC
  5
2CB
330
59
100
AcDbEntity
  8
0
  6
Continuous
 62
     7
100
AcDbCircle
 10
174.3739529999851
 20
122.2499999999851
 30
0.0
 40
4.603083354380303
100
AcDbArc
 50
270.0
 51
0.0
  0
ARC
  5
2CC
330
59
100
AcDbEntity
  8
0
  6
Continuous
 62
     7
100
AcDbCircle
 10
174.3739529999851
 20
122.2499999999851
 30
0.0
 40
5.728400000000008
100
AcDbArc
 50
270.0
 51
0.0
  0
ARC
  5
2CD
330
59
100
AcDbEntity
  8
0
  6
Continuous
 62
     7
100
AcDbCircle
 10
36.33075299998511
 20
165.7499999999851
 30
0.0
 40
0.6999999999999886
100
AcDbArc
 50
90.0
 51
180.0
  0
ARC
  5
2CE
330
59
100
AcDbEntity
  8
0
  6
Continuous
 62
     2
100
AcDbCircle
 10
36.33075299998511
 20
165.7499999999851
 30
0.0
 40
2.529794015435982
100
AcDbArc
 50
90.0
 51
180.0000000003444
  0
ARC
  5
2CF
330
59
100
AcDbEntity
  8
0
  6
Continuous
 62
     7
100
AcDbCircle
 10
36.33075299998511
 20
165.7499999999851
 30
0.0
 40
4.603083354380288
100
AcDbArc
 50
90.0
 51
180.0
  0
ARC
  5
2D0
330
59
100
AcDbEntity
  8
0
  6
Continuous
 62
     7
100
AcDbCircle
 10
36.33075299998511
 20
165.7499999999851
 30
0.0
 40
5.728399999999993
100
AcDbArc
 50
90.0
 51
180.0
  0
ARC
  5
2D1
330
59
100
AcDbEntity
  8
0
  6
Continuous
 62
     7
100
AcDbCircle
 10
36.33075299998511
 20
122.2499999999851
 30
0.0
 40
5.72839999999999
100
AcDbArc
 50
180.0
 51
270.0
  0
ENDBLK
  5
5B
330
59
100
AcDbEntity
  8
0
100
AcDbBlockEnd
  0
BLOCK
  5
5E
330
5C
100
AcDbEntity
  8
0
100
AcDbBlockBegin
  2
Rckans1
 70
     0
 10
105.373953
 20
144.0
 30
0.0
  3
Rckans1
  1

  0
INSERT
  5
5D
330
5C
100
AcDbEntity
  8
0
100
AcDbBlockReference
  2
1409820_HC_B24_TMS_EEE_PR_DI-select__2
 10
30.60235299998512
 20
116.5215999999851
 30
0.0
  0
MTEXT
  5
2D2
330
5C
100
AcDbEntity
  8
1
 62
     6
100
AcDbMText
 10
105.3523543753527
 20
111.521600871667
 30
0.0
 40
5.0
 41
0.0
 71
     2
 72
     1
  1
 
  7
CONVERTER_12
 73
     1
 44
1.32052821128451
  0
ENDBLK
  5
5F
330
5C
100
AcDbEntity
  8
0
100
AcDbBlockEnd
  0
BLOCK
  5
61
330
60
100
AcDbEntity
  8
0
100
AcDbBlockBegin
  2
1409820_HC_B24_TMS_EEE_PR_DI-select__3
 70
     0
 10
7.8023541908556
 20
116.5216001483855
 30
0.0
  3
1409820_HC_B24_TMS_EEE_PR_DI-select__3
  1

  0
LINE
  5
2D3
330
60
100
AcDbEntity
  8
0
  6
Continuous
 62
     7
100
AcDbLine
 10
7.8023541908556
 20
165.7500001483855
 30
0.0
 11
7.8023541908556
 21
171.4784001483855
 31
0.0
  0
LINE
  5
2D4
330
60
100
AcDbEntity
  8
0
  6
Continuous
 62
     7
100
AcDbLine
 10
8.63820153713058
 20
171.4784001483855
 30
0.0
 11
7.8023541908556
 21
171.4784001483855
 31
0.0
  0
LINE
  5
2D5
330
60
100
AcDbEntity
  8
0
  6
Continuous
 62
     2
100
AcDbLine
 10
8.63820153713058
 20
165.7500001483855
 30
0.0
 11
8.63820153713058
 21
171.4784001483855
 31
0.0
  0
LINE
  5
2D6
330
60
100
AcDbEntity
  8
0
  6
Continuous
 62
     2
100
AcDbLine
 10
8.63820153713058
 20
122.2500001483855
 30
0.0
 11
8.63820153713058
 21
116.5216001483855
 31
0.0
  0
LINE
  5
2D7
330
60
100
AcDbEntity
  8
0
  6
Continuous
 62
     2
100
AcDbLine
 10
8.63820153713058
 20
122.2500001483855
 30
0.0
 11
8.63820153713058
 21
165.7500001483855
 31
0.0
  0
LINE
  5
2D8
330
60
100
AcDbEntity
  8
0
  6
Continuous
 62
     7
100
AcDbLine
 10
7.8023541908556
 20
122.2500001483855
 30
0.0
 11
7.8023541908556
 21
165.7500001483855
 31
0.0
  0
LINE
  5
2D9
330
60
100
AcDbEntity
  8
0
  6
Continuous
 62
     2
100
AcDbLine
 10
11.01614885362019
 20
165.7500001483855
 30
0.0
 11
8.63820153713058
 21
165.7500001483855
 31
0.0
  0
LINE
  5
2DA
330
60
100
AcDbEntity
  8
0
  6
Continuous
 62
     2
100
AcDbLine
 10
8.63820153713058
 20
165.7500001483855
 30
0.0
 11
7.8023541908556
 21
165.7500001483855
 31
0.0
  0
LINE
  5
2DB
330
60
100
AcDbEntity
  8
0
  6
Continuous
 62
     2
100
AcDbLine
 10
11.01614885362019
 20
122.2500001483855
 30
0.0
 11
15.60235419085558
 21
122.2500001483855
 31
0.0
  0
LINE
  5
2DC
330
60
100
AcDbEntity
  8
0
  6
Continuous
 62
     2
100
AcDbLine
 10
15.60235419085558
 20
165.7500001483855
 30
0.0
 11
11.01614885362019
 21
165.7500001483855
 31
0.0
  0
LINE
  5
2DD
330
60
100
AcDbEntity
  8
0
  6
Continuous
 62
     7
100
AcDbLine
 10
15.60235419085558
 20
118.2500001483855
 30
0.0
 11
11.01614885362019
 21
118.2500001483855
 31
0.0
  0
LINE
  5
2DE
330
60
100
AcDbEntity
  8
0
  6
Continuous
 62
     2
100
AcDbLine
 10
8.63820153713058
 20
122.2500001483855
 30
0.0
 11
11.01614885362019
 21
122.2500001483855
 31
0.0
  0
LINE
  5
2DF
330
60
100
AcDbEntity
  8
0
  6
Continuous
 62
     7
100
AcDbLine
 10
15.60235419085558
 20
165.7500001483855
 30
0.0
 11
15.60235419085558
 21
169.7500001483855
 31
0.0
  0
LINE
  5
2E0
330
60
100
AcDbEntity
  8
0
  6
Continuous
 62
     7
100
AcDbLine
 10
15.60235419085558
 20
118.2500001483855
 30
0.0
 11
15.60235419085558
 21
122.2500001483855
 31
0.0
  0
LINE
  5
2E1
330
60
100
AcDbEntity
  8
0
  6
Continuous
 62
     7
100
AcDbLine
 10
15.60235419085558
 20
165.7500001483855
 30
0.0
 11
15.60235419085558
 21
122.2500001483855
 31
0.0
  0
LINE
  5
2E2
330
60
100
AcDbEntity
  8
0
  6
Continuous
 62
     2
100
AcDbLine
 10
8.63820153713058
 20
122.2500001483855
 30
0.0
 11
7.8023541908556
 21
122.2500001483855
 31
0.0
  0
LINE
  5
2E3
330
60
100
AcDbEntity
  8
0
  6
Continuous
 62
     7
100
AcDbLine
 10
8.63820153713058
 20
116.5216001483855
 30
0.0
 11
7.8023541908556
 21
116.5216001483855
 31
0.0
  0
LINE
  5
2E4
330
60
100
AcDbEntity
  8
0
  6
Continuous
 62
     7
100
AcDbLine
 10
7.8023541908556
 20
116.5216001483855
 30
0.0
 11
7.8023541908556
 21
122.2500001483855
 31
0.0
  0
LINE
  5
2E5
330
60
100
AcDbEntity
  8
0
  6
Continuous
 62
     7
100
AcDbLine
 10
11.01614885362019
 20
118.2500001483855
 30
0.0
 11
11.01614885362019
 21
122.2500001483855
 31
0.0
  0
LINE
  5
2E6
330
60
100
AcDbEntity
  8
0
  6
Continuous
 62
     7
100
AcDbLine
 10
11.01614885362019
 20
122.2500001483855
 30
0.0
 11
11.01614885362019
 21
165.7500001483855
 31
0.0
  0
LINE
  5
2E7
330
60
100
AcDbEntity
  8
0
  6
Continuous
 62
     7
100
AcDbLine
 10
11.01614885362019
 20
165.7500001483855
 30
0.0
 11
11.01614885362019
 21
169.7500001483855
 31
0.0
  0
LINE
  5
2E8
330
60
100
AcDbEntity
  8
0
  6
Continuous
 62
     7
100
AcDbLine
 10
15.60235419085558
 20
169.7500001483855
 30
0.0
 11
11.01614885362019
 21
169.7500001483855
 31
0.0
  0
ARC
  5
2E9
330
60
100
AcDbEntity
  8
0
  6
Continuous
 62
     7
100
AcDbCircle
 10
8.63820153713058
 20
119.0216001483855
 30
0.0
 40
2.5
100
AcDbArc
 50
270.0
 51
342.0227103184126
  0
ARC
  5
2EA
330
60
100
AcDbEntity
  8
0
  6
Continuous
 62
     7
100
AcDbCircle
 10
8.63820153713058
 20
168.9784001483855
 30
0.0
 40
2.500000000000027
100
AcDbArc
 50
17.9772896815874
 51
90.0
  0
ENDBLK
  5
62
330
60
100
AcDbEntity
  8
0
100
AcDbBlockEnd
  0
BLOCK
  5
65
330
63
100
AcDbEntity
  8
0
100
AcDbBlockBegin
  2
SA_Links1
 70
     0
 10
11.70235409570319
 20
144.0000001484004
 30
0.0
  3
SA_Links1
  1

  0
INSERT
  5
64
330
63
100
AcDbEntity
  8
0
100
AcDbBlockReference
  2
1409820_HC_B24_TMS_EEE_PR_DI-select__3
 10
7.8023541908556
 20
116.5216001483855
 30
0.0
  0
MTEXT
  5
2EB
330
63
100
AcDbEntity
  8
1
 62
     6
100
AcDbMText
 10
11.7023540957033
 20
111.521600871667
 30
0.0
 40
5.0
 41
0.0
 71
     2
 72
     1
  1
 
  7
CONVERTER_12
 73
     1
 44
1.32052821128451
  0
ENDBLK
  5
66
330
63
100
AcDbEntity
  8
0
100
AcDbBlockEnd
  0
BLOCK
  5
68
330
67
100
AcDbEntity
  8
0
100
AcDbBlockBegin
  2
1409820_HC_B24_TMS_EEE_PR_DI-select__4
 70
     0
 10
22.64084713887981
 20
1.98047033709754
 30
0.0
  3
1409820_HC_B24_TMS_EEE_PR_DI-select__4
  1

  0
LINE
  5
2EC
330
67
100
AcDbEntity
  8
0
  6
Continuous
 62
     7
100
AcDbLine
 10
51.39258075481266
 20
66.14826468219991
 30
0.0
 11
170.9414987745087
 21
31.63746468219991
 31
0.0
  0
LINE
  5
2ED
330
67
100
AcDbEntity
  8
0
  6
Continuous
 62
     7
100
AcDbLine
 10
46.65514552374201
 20
66.04552542330933
 30
0.0
 11
24.90514552374199
 21
47.2094728909978
 31
0.0
  0
LINE
  5
2EE
330
67
100
AcDbEntity
  8
0
  6
Continuous
 62
     7
100
AcDbLine
 10
26.1637686210986
 20
46.84613969896424
 30
0.0
 11
47.91376862109482
 21
65.68219223127687
 31
0.0
  0
LINE
  5
2EF
330
67
100
AcDbEntity
  8
0
  6
Continuous
 62
     2
100
AcDbLine
 10
49.51302935623066
 20
60.45738570249493
 30
0.0
 11
49.51302935623066
 21
61.5832187274147
 31
0.0
  0
LINE
  5
2F0
330
67
100
AcDbEntity
  8
0
  6
Continuous
 62
     7
100
AcDbLine
 10
48.04078616979297
 20
62.00821872741589
 30
0.0
 11
28.167452553858
 21
44.79740695813283
 31
0.0
  0
LINE
  5
2F1
330
67
100
AcDbEntity
  8
0
  6
Continuous
 62
     2
100
AcDbLine
 10
48.04078616979297
 20
62.00821872741589
 30
0.0
 11
47.91376862109482
 21
65.68219223127687
 31
0.0
  0
LINE
  5
2F2
330
67
100
AcDbEntity
  8
0
  6
Continuous
 62
     2
100
AcDbLine
 10
51.39258075481266
 20
66.14826468219991
 30
0.0
 11
51.31924713887997
 21
62.44744921195617
 31
0.0
  0
LINE
  5
2F3
330
67
100
AcDbEntity
  8
0
  6
Continuous
 62
     2
100
AcDbLine
 10
26.1637686210986
 20
46.84613969896424
 30
0.0
 11
26.2090938630914
 21
45.53511031881611
 31
0.0
  0
LINE
  5
2F4
330
67
100
AcDbEntity
  8
0
  6
Continuous
 62
     7
100
AcDbLine
 10
175.3965651585758
 20
24.50359230935068
 30
0.0
 11
175.3965651585758
 21
23.77972727379071
 31
0.0
  0
LINE
  5
2F5
330
67
100
AcDbEntity
  8
0
  6
Continuous
 62
     7
100
AcDbLine
 10
24.3692471388798
 20
46.2094728909978
 30
0.0
 11
24.3692471388798
 21
42.23770256198014
 31
0.0
  0
LINE
  5
2F6
330
67
100
AcDbEntity
  8
0
  6
Continuous
 62
     7
100
AcDbLine
 10
145.0539651585758
 20
2.4632047799598
 30
0.0
 11
25.5050471388798
 21
36.97400477995979
 31
0.0
  0
LINE
  5
2F7
330
67
100
AcDbEntity
  8
0
  6
Continuous
 62
     7
100
AcDbLine
 10
173.6681651585758
 20
30.53472542330933
 30
0.0
 11
173.6681651585758
 21
26.56295509429168
 31
0.0
  0
LINE
  5
2F8
330
67
100
AcDbEntity
  8
0
  6
Continuous
 62
     7
100
AcDbLine
 10
174.6291050816146
 20
22.34762727379072
 30
0.0
 11
152.8791050816146
 21
3.51157474147918
 31
0.0
  0
LINE
  5
2F9
330
67
100
AcDbEntity
  8
0
  6
Continuous
 62
     2
100
AcDbLine
 10
174.6291050816146
 20
23.07149230935067
 30
0.0
 11
152.8791050816146
 21
4.23543977703914
 31
0.0
  0
LINE
  5
2FA
330
67
100
AcDbEntity
  8
0
  6
Continuous
 62
     7
100
AcDbLine
 10
173.1322667737136
 20
25.56295509429168
 30
0.0
 11
151.3822667737136
 21
6.72690256198015
 31
0.0
  0
LINE
  5
2FB
330
67
100
AcDbEntity
  8
0
  6
Continuous
 62
     7
100
AcDbLine
 10
151.3822667737136
 20
10.6986728909978
 30
0.0
 11
173.1322667737136
 21
29.53472542330933
 31
0.0
  0
LINE
  5
2FC
330
67
100
AcDbEntity
  8
0
  6
Continuous
 62
     7
100
AcDbLine
 10
171.873643676357
 20
29.8980586153429
 30
0.0
 11
150.123643676357
 21
11.06200608303136
 31
0.0
  0
LINE
  5
2FD
330
67
100
AcDbEntity
  8
0
  6
Continuous
 62
     2
100
AcDbLine
 10
173.1322667737136
 20
25.56295509429168
 30
0.0
 11
173.1322667737136
 21
29.53472542330933
 31
0.0
  0
LINE
  5
2FE
330
67
100
AcDbEntity
  8
0
  6
Continuous
 62
     2
100
AcDbLine
 10
174.6291050816146
 20
23.07149230935067
 30
0.0
 11
174.6291050816146
 21
22.34762727379072
 31
0.0
  0
LINE
  5
2FF
330
67
100
AcDbEntity
  8
0
  6
Continuous
 62
     2
100
AcDbLine
 10
145.0539651585758
 20
3.18706981551975
 30
0.0
 11
145.0539651585758
 21
2.4632047799598
 31
0.0
  0
LINE
  5
300
330
67
100
AcDbEntity
  8
0
  6
Continuous
 62
     2
100
AcDbLine
 10
145.0539651585758
 20
3.18706981551975
 30
0.0
 11
25.5050471388798
 21
37.69786981551974
 31
0.0
  0
LINE
  5
301
330
67
100
AcDbEntity
  8
0
  6
Continuous
 62
     7
100
AcDbLine
 10
169.0736436763608
 20
27.47318748474537
 30
0.0
 11
50.46924713887975
 21
61.71132761873923
 31
0.0
  0
LINE
  5
302
330
67
100
AcDbEntity
  8
0
  6
Continuous
 62
     7
100
AcDbLine
 10
169.9236436763631
 20
28.20930907796411
 30
0.0
 11
51.31924713887997
 21
62.44744921195617
 31
0.0
  0
LINE
  5
303
330
67
100
AcDbEntity
  8
0
  6
Continuous
 62
     7
100
AcDbLine
 10
50.46924713887975
 20
60.58549459381946
 30
0.0
 11
168.0986436763608
 21
26.62881271605554
 31
0.0
  0
LINE
  5
304
330
67
100
AcDbEntity
  8
0
  6
Continuous
 62
     7
100
AcDbLine
 10
49.51302935623066
 20
61.5832187274147
 30
0.0
 11
29.63969574029559
 21
44.37240695813168
 31
0.0
  0
LINE
  5
305
330
67
100
AcDbEntity
  8
0
  6
Continuous
 62
     7
100
AcDbLine
 10
30.6146957402956
 20
44.09094870190172
 30
0.0
 11
49.51302935623066
 21
60.45738570249493
 31
0.0
  0
LINE
  5
306
330
67
100
AcDbEntity
  8
0
  6
Continuous
 62
     7
100
AcDbLine
 10
171.6681651585758
 20
32.26677623087821
 30
0.0
 11
52.11924713887976
 21
66.77757623087821
 31
0.0
  0
LINE
  5
307
330
67
100
AcDbEntity
  8
0
  6
Continuous
 62
     2
100
AcDbLine
 10
50.46924713887975
 20
61.71132761873923
 30
0.0
 11
50.46924713887975
 21
60.58549459381946
 31
0.0
  0
LINE
  5
308
330
67
100
AcDbEntity
  8
0
  6
Continuous
 62
     2
100
AcDbLine
 10
170.8901541032163
 20
29.04633166064159
 30
0.0
 11
170.9414987745087
 21
31.63746468219991
 31
0.0
  0
LINE
  5
309
330
67
100
AcDbEntity
  8
0
  6
Continuous
 62
     7
100
AcDbLine
 10
146.6448315426429
 20
10.59593363210723
 30
0.0
 11
27.0959135229469
 21
45.10673363210722
 31
0.0
  0
LINE
  5
30A
330
67
100
AcDbEntity
  8
0
  6
Continuous
 62
     7
100
AcDbLine
 10
145.9181651585758
 20
5.99485175441127
 30
0.0
 11
26.3692471388798
 21
40.50565175441128
 31
0.0
  0
LINE
  5
30B
330
67
100
AcDbEntity
  8
0
  6
Continuous
 62
     2
100
AcDbLine
 10
152.8791050816146
 20
4.23543977703914
 30
0.0
 11
152.8791050816146
 21
3.51157474147918
 31
0.0
  0
LINE
  5
30C
330
67
100
AcDbEntity
  8
0
  6
Continuous
 62
     7
100
AcDbLine
 10
26.3692471388798
 20
44.47742208342892
 30
0.0
 11
145.9181651585758
 21
9.96662208342892
 31
0.0
  0
LINE
  5
30D
330
67
100
AcDbEntity
  8
0
  6
Continuous
 62
     2
100
AcDbLine
 10
26.3692471388798
 20
44.47742208342892
 30
0.0
 11
26.3692471388798
 21
40.50565175441128
 31
0.0
  0
LINE
  5
30E
330
67
100
AcDbEntity
  8
0
  6
Continuous
 62
     2
100
AcDbLine
 10
145.9181651585758
 20
5.99485175441127
 30
0.0
 11
145.9181651585758
 21
9.96662208342892
 31
0.0
  0
LINE
  5
30F
330
67
100
AcDbEntity
  8
0
  6
Continuous
 62
     2
100
AcDbLine
 10
151.3822667737136
 20
10.6986728909978
 30
0.0
 11
151.3822667737136
 21
6.72690256198015
 31
0.0
  0
LINE
  5
310
330
67
100
AcDbEntity
  8
0
  6
Continuous
 62
     2
100
AcDbLine
 10
25.5050471388798
 20
37.69786981551974
 30
0.0
 11
25.5050471388798
 21
36.97400477995979
 31
0.0
  0
LINE
  5
311
330
67
100
AcDbEntity
  8
0
  6
Continuous
 62
     7
100
AcDbLine
 10
23.9367365485321
 20
42.87526214208526
 30
0.0
 11
24.3692471388797
 21
43.24982730073211
 31
0.0
  0
LINE
  5
312
330
67
100
AcDbEntity
  8
0
  6
Continuous
 62
     7
100
AcDbLine
 10
22.64084713887981
 20
40.17833977703914
 30
0.0
 11
22.64084713887981
 21
39.45447474147917
 31
0.0
  0
SPLINE
  5
313
330
67
100
AcDbEntity
  8
0
  6
Continuous
 62
     7
100
AcDbSpline
210
0.0
220
0.0
230
1.0
 70
     8
 71
     3
 72
     9
 73
     5
 74
     3
 42
0.000000001
 43
0.0000000001
 44
0.00000001
 40
0.0
 40
0.0
 40
0.0
 40
0.0
 40
0.4125271632306675
 40
0.7644976197739175
 40
0.7644976197739175
 40
0.7644976197739175
 40
0.7644976197739175
 10
26.1637686210986
 20
46.84613969896424
 30
0.0
 10
26.06172958929828
 20
46.74703290011075
 30
0.0
 10
25.87263030769426
 20
46.56336762243695
 30
0.0
 10
25.83871292085579
 20
46.30346039953788
 30
0.0
 10
25.8230975528207
 20
46.18380055535165
 30
0.0
 11
26.1637686210986
 21
46.84613969896424
 31
0.0
 11
25.90283649157553
 21
46.52661961187791
 31
0.0
 11
25.8230975528207
 21
46.18380055535165
 31
0.0
  0
SPLINE
  5
314
330
67
100
AcDbEntity
  8
0
  6
Continuous
 62
     7
100
AcDbSpline
210
0.0
220
0.0
230
1.0
 70
     8
 71
     3
 72
    11
 73
     7
 74
     5
 42
0.000000001
 43
0.0000000001
 44
0.00000001
 40
0.0
 40
0.0
 40
0.0
 40
0.0
 40
1.184563356297206
 40
2.626250699451481
 40
4.184465941359612
 40
5.68349767777507
 40
5.68349767777507
 40
5.68349767777507
 40
5.68349767777507
 10
46.65514552374201
 20
66.04552542330933
 30
0.0
 10
46.98916400424642
 20
66.26177239333659
 30
0.0
 10
47.72970377563343
 20
66.74120537342903
 30
0.0
 10
49.1211420969283
 20
67.01922177328476
 30
0.0
 10
50.62739080392491
 20
67.09668853048511
 30
0.0
 10
51.62842115368749
 20
66.8825653056788
 30
0.0
 10
52.11924713887976
 20
66.77757623087821
 30
0.0
 11
46.65514552374201
 21
66.04552542330933
 31
0.0
 11
47.68420882658899
 21
66.6322272795182
 31
0.0
 11
49.08397095846966
 21
66.97737707588746
 31
0.0
 11
50.64135032030305
 21
67.02840911709083
 31
0.0
 11
52.11924713887976
 21
66.77757623087821
 31
0.0
  0
SPLINE
  5
315
330
67
100
AcDbEntity
  8
0
  6
Continuous
 62
     7
100
AcDbSpline
210
0.0
220
0.0
230
1.0
 70
     8
 71
     3
 72
     9
 73
     5
 74
     3
 42
0.000000001
 43
0.0000000001
 44
0.00000001
 40
0.0
 40
0.0
 40
0.0
 40
0.0
 40
1.936497027090416
 40
3.592788000341477
 40
3.592788000341477
 40
3.592788000341477
 40
3.592788000341477
 10
51.39258075481266
 20
66.14826468219991
 30
0.0
 10
50.73731166688948
 20
66.2642789816361
 30
0.0
 10
49.52158921497382
 20
66.47952059565063
 30
0.0
 10
48.42109928632512
 20
65.93378071187371
 30
0.0
 10
47.91376862109482
 20
65.68219223127687
 30
0.0
 11
51.39258075481266
 21
66.14826468219991
 31
0.0
 11
49.4602504156519
 21
66.27523004986247
 31
0.0
 11
47.91376862109482
 21
65.68219223127687
 31
0.0
  0
SPLINE
  5
316
330
67
100
AcDbEntity
  8
0
  6
Continuous
 62
     7
100
AcDbSpline
210
0.0
220
0.0
230
1.0
 70
     8
 71
     3
 72
     9
 73
     5
 74
     3
 42
0.000000001
 43
0.0000000001
 44
0.00000001
 40
0.0
 40
0.0
 40
0.0
 40
0.0
 40
0.5322830945658577
 40
0.9875462176038652
 40
0.9875462176038652
 40
0.9875462176038652
 40
0.9875462176038652
 10
50.46924713887975
 20
61.71132761873923
 30
0.0
 10
50.2891339484055
 20
61.74321635879615
 30
0.0
 10
49.95496947613663
 20
61.80237960240393
 30
0.0
 10
49.65247885320655
 20
61.65237261356576
 30
0.0
 10
49.51302935623066
 20
61.5832187274147
 30
0.0
 11
50.46924713887975
 21
61.71132761873923
 31
0.0
 11
49.93810933630897
 21
61.74622646859745
 31
0.0
 11
49.51302935623066
 21
61.5832187274147
 31
0.0
  0
SPLINE
  5
317
330
67
100
AcDbEntity
  8
0
  6
Continuous
 62
     7
100
AcDbSpline
210
0.0
220
0.0
230
1.0
 70
     8
 71
     3
 72
     9
 73
     5
 74
     3
 42
0.000000001
 43
0.0000000001
 44
0.00000001
 40
0.0
 40
0.0
 40
0.0
 40
0.0
 40
1.560902141335949
 40
3.385872756479372
 40
3.385872756479372
 40
3.385872756479372
 40
3.385872756479372
 10
48.04078616979297
 20
62.00821872741589
 30
0.0
 10
48.51889873244798
 20
62.24531776643811
 30
0.0
 10
49.55600943002548
 20
62.75962748929737
 30
0.0
 10
50.7017161983505
 20
62.55678203531998
 30
0.0
 10
51.31924713887997
 20
62.44744921195617
 30
0.0
 11
48.04078616979297
 21
62.00821872741589
 31
0.0
 11
49.49820324435079
 21
62.56710241147019
 31
0.0
 11
51.31924713887997
 21
62.44744921195617
 31
0.0
  0
SPLINE
  5
318
330
67
100
AcDbEntity
  8
0
  6
Continuous
 62
     7
100
AcDbSpline
210
0.0
220
0.0
230
1.0
 70
     8
 71
     3
 72
     9
 73
     5
 74
     3
 42
0.000000001
 43
0.0000000001
 44
0.00000001
 40
0.0
 40
0.0
 40
0.0
 40
0.0
 40
0.45526312303801
 40
0.9875462176038681
 40
0.9875462176038681
 40
0.9875462176038681
 40
0.9875462176038681
 10
49.51302935623066
 20
60.45738570249493
 30
0.0
 10
49.65247885320654
 20
60.526539588646
 30
0.0
 10
49.95496947613665
 20
60.67654657748416
 30
0.0
 10
50.2891339484055
 20
60.61738333387638
 30
0.0
 10
50.46924713887975
 20
60.58549459381946
 30
0.0
 11
49.51302935623066
 21
60.45738570249493
 31
0.0
 11
49.93810933630897
 21
60.62039344367768
 31
0.0
 11
50.46924713887975
 21
60.58549459381946
 31
0.0
  0
SPLINE
  5
319
330
67
100
AcDbEntity
  8
0
  6
Continuous
 62
     7
100
AcDbSpline
210
0.0
220
0.0
230
1.0
 70
     8
 71
     3
 72
     9
 73
     5
 74
     3
 42
0.000000001
 43
0.0000000001
 44
0.00000001
 40
0.0
 40
0.0
 40
0.0
 40
0.0
 40
0.3506545524838374
 40
0.7004785562155298
 40
0.7004785562155298
 40
0.7004785562155298
 40
0.7004785562155298
 10
49.76889426867967
 20
60.58539868942637
 30
0.0
 10
49.88575776691074
 20
60.58873447005278
 30
0.0
 10
50.11920796455512
 20
60.59539811029332
 30
0.0
 10
50.35265968110402
 20
60.58879316216537
 30
0.0
 10
50.46924713887975
 20
60.58549459381946
 30
0.0
 11
49.76889426867967
 21
60.58539868942637
 31
0.0
 11
50.11948514419034
 21
60.59208100333302
 31
0.0
 11
50.46924713887975
 21
60.58549459381946
 31
0.0
  0
SPLINE
  5
31A
330
67
100
AcDbEntity
  8
0
  6
Continuous
 62
     7
100
AcDbSpline
210
0.0
220
0.0
230
1.0
 70
     8
 71
     3
 72
     9
 73
     5
 74
     3
 42
0.000000001
 43
0.0000000001
 44
0.00000001
 40
0.0
 40
0.0
 40
0.0
 40
0.0
 40
0.7155703056779463
 40
1.741183673318272
 40
1.741183673318272
 40
1.741183673318272
 40
1.741183673318272
 10
25.8230975528207
 20
46.18380055535165
 30
0.0
 10
25.92127977965601
 20
45.95557947570412
 30
0.0
 10
26.16018474863876
 20
45.40025345581152
 30
0.0
 10
26.74905181349245
 20
45.2155373626052
 30
0.0
 10
27.0959135229469
 20
45.10673363210722
 30
0.0
 11
25.8230975528207
 21
46.18380055535165
 31
0.0
 11
26.17675090458765
 21
45.56173128803354
 31
0.0
 11
27.0959135229469
 21
45.10673363210722
 31
0.0
  0
SPLINE
  5
31B
330
67
100
AcDbEntity
  8
0
  6
Continuous
 62
     7
100
AcDbSpline
210
0.0
220
0.0
230
1.0
 70
     8
 71
     3
 72
     9
 73
     5
 74
     3
 42
0.000000001
 43
0.0000000001
 44
0.00000001
 40
0.0
 40
0.0
 40
0.0
 40
0.0
 40
1.636869992921869
 40
2.771425584172493
 40
2.771425584172493
 40
2.771425584172493
 40
2.771425584172493
 10
26.3692471388798
 20
44.47742208342892
 30
0.0
 10
25.8132331143793
 20
44.65149040114939
 30
0.0
 10
24.87183185459486
 20
44.94620984448844
 30
0.0
 10
24.51523101733065
 20
45.84253764464591
 30
0.0
 10
24.3692471388798
 20
46.2094728909978
 30
0.0
 11
26.3692471388798
 21
44.47742208342892
 31
0.0
 11
24.90520480983603
 21
45.20949000541896
 31
0.0
 11
24.3692471388798
 21
46.2094728909978
 31
0.0
  0
SPLINE
  5
31C
330
67
100
AcDbEntity
  8
0
  6
Continuous
 62
     7
100
AcDbSpline
210
0.0
220
0.0
230
1.0
 70
     8
 71
     3
 72
     9
 73
     5
 74
     3
 42
0.000000001
 43
0.0000000001
 44
0.00000001
 40
0.0
 40
0.0
 40
0.0
 40
0.0
 40
0.7665764134556171
 40
1.663617413504897
 40
1.663617413504897
 40
1.663617413504897
 40
1.663617413504897
 10
175.3965651585758
 20
23.77972727379071
 30
0.0
 10
175.3540680068438
 20
23.52102869439834
 30
0.0
 10
175.2618410424415
 20
22.95960331148329
 30
0.0
 10
174.8507629609446
 20
22.56201259932987
 30
0.0
 10
174.6291050816146
 20
22.34762727379072
 30
0.0
 11
175.3965651585758
 21
23.77972727379071
 31
0.0
 11
175.2013731867046
 21
23.03841796244547
 31
0.0
 11
174.6291050816146
 21
22.34762727379072
 31
0.0
  0
SPLINE
  5
31D
330
67
100
AcDbEntity
  8
0
  6
Continuous
 62
     7
100
AcDbSpline
210
0.0
220
0.0
230
1.0
 70
     8
 71
     3
 72
    13
 73
     9
 74
     7
 42
0.000000001
 43
0.0000000001
 44
0.00000001
 40
0.0
 40
0.0
 40
0.0
 40
0.0
 40
0.6182998470598974
 40
1.129520843091271
 40
1.775258529525929
 40
2.386105272816321
 40
3.099629468003101
 40
3.628335647507273
 40
3.628335647507273
 40
3.628335647507273
 40
3.628335647507273
 10
173.6681651585758
 20
27.53172000894935
 30
0.0
 10
173.8347762445578
 20
27.40980972581335
 30
0.0
 10
174.1391442465332
 20
27.18710190347299
 30
0.0
 10
174.554438705711
 20
26.76265254751411
 30
0.0
 10
174.9063220886264
 20
26.28633253886959
 30
0.0
 10
175.1975604480617
 20
25.6949351222135
 30
0.0
 10
175.368679361384
 20
25.09442292639486
 30
0.0
 10
175.3882399677521
 20
24.67998247885154
 30
0.0
 10
175.3965651585758
 20
24.50359230935068
 30
0.0
 11
173.6681651585758
 21
27.53172000894935
 31
0.0
 11
174.1559723988912
 21
27.15180054732921
 31
0.0
 11
174.5150906822667
 21
26.78795859507689
 31
0.0
 11
174.8962698534558
 21
26.26672966174164
 31
0.0
 11
175.1667490907697
 21
25.71903017485847
 31
0.0
 11
175.3543535615783
 21
25.03061072182418
 31
0.0
 11
175.3965651585758
 21
24.50359230935068
 31
0.0
  0
SPLINE
  5
31E
330
67
100
AcDbEntity
  8
0
  6
Continuous
 62
     2
100
AcDbSpline
210
0.0
220
0.0
230
1.0
 70
     8
 71
     3
 72
     9
 73
     5
 74
     3
 42
0.000000001
 43
0.0000000001
 44
0.00000001
 40
0.0
 40
0.0
 40
0.0
 40
0.0
 40
1.452535897765172
 40
2.995577855628268
 40
2.995577855628268
 40
2.995577855628268
 40
2.995577855628268
 10
174.6291050816146
 20
23.07149230935067
 30
0.0
 10
174.5401069278866
 20
23.56451089351257
 30
0.0
 10
174.3565652169171
 20
24.58126754964119
 30
0.0
 10
173.5485043013621
 20
25.22920053553964
 30
0.0
 10
173.1322667737136
 20
25.56295509429168
 30
0.0
 11
174.6291050816146
 21
23.07149230935067
 31
0.0
 11
174.2152726584045
 21
24.46382964880199
 31
0.0
 11
173.1322667737136
 21
25.56295509429168
 31
0.0
  0
SPLINE
  5
31F
330
67
100
AcDbEntity
  8
0
  6
Continuous
 62
     7
100
AcDbSpline
210
0.0
220
0.0
230
1.0
 70
     8
 71
     3
 72
     9
 73
     5
 74
     3
 42
0.000000001
 43
0.0000000001
 44
0.00000001
 40
0.0
 40
0.0
 40
0.0
 40
0.0
 40
0.5352813438478643
 40
1.161662880834194
 40
1.161662880834194
 40
1.161662880834194
 40
1.161662880834194
 10
173.6681651585758
 20
30.53472542330933
 30
0.0
 10
173.6384904489324
 20
30.35408260571409
 30
0.0
 10
173.5740906359568
 20
29.96205315286178
 30
0.0
 10
173.287044986897
 20
29.68442539210804
 30
0.0
 10
173.1322667737136
 20
29.53472542330933
 30
0.0
 11
173.6681651585758
 21
30.53472542330933
 31
0.0
 11
173.5318674336465
 21
30.01708747110959
 31
0.0
 11
173.1322667737136
 21
29.53472542330933
 31
0.0
  0
SPLINE
  5
320
330
67
100
AcDbEntity
  8
0
  6
Continuous
 62
     7
100
AcDbSpline
210
0.0
220
0.0
230
1.0
 70
     8
 71
     3
 72
     9
 73
     5
 74
     3
 42
0.000000001
 43
0.0000000001
 44
0.00000001
 40
0.0
 40
0.0
 40
0.0
 40
0.0
 40
0.5352813438478643
 40
1.161662880834194
 40
1.161662880834194
 40
1.161662880834194
 40
1.161662880834194
 10
173.6681651585758
 20
26.56295509429168
 30
0.0
 10
173.6384904489324
 20
26.38231227669645
 30
0.0
 10
173.5740906359568
 20
25.99028282384413
 30
0.0
 10
173.287044986897
 20
25.71265506309038
 30
0.0
 10
173.1322667737136
 20
25.56295509429168
 30
0.0
 11
173.6681651585758
 21
26.56295509429168
 31
0.0
 11
173.5318674336465
 21
26.04531714209194
 31
0.0
 11
173.1322667737136
 21
25.56295509429168
 31
0.0
  0
SPLINE
  5
321
330
67
100
AcDbEntity
  8
0
  6
Continuous
 62
     2
100
AcDbSpline
210
0.0
220
0.0
230
1.0
 70
     8
 71
     3
 72
     9
 73
     5
 74
     3
 42
0.000000001
 43
0.0000000001
 44
0.00000001
 40
0.0
 40
0.0
 40
0.0
 40
0.0
 40
0.7665764134556377
 40
1.663617413504918
 40
1.663617413504918
 40
1.663617413504918
 40
1.663617413504918
 10
175.3965651585758
 20
24.50359230935068
 30
0.0
 10
175.3540680068439
 20
24.24489372995831
 30
0.0
 10
175.2618410424415
 20
23.68346834704325
 30
0.0
 10
174.8507629609446
 20
23.28587763488981
 30
0.0
 10
174.6291050816146
 20
23.07149230935067
 30
0.0
 11
175.3965651585758
 21
24.50359230935068
 31
0.0
 11
175.2013731867046
 21
23.76228299800542
 31
0.0
 11
174.6291050816146
 21
23.07149230935067
 31
0.0
  0
SPLINE
  5
322
330
67
100
AcDbEntity
  8
0
  6
Continuous
 62
     7
100
AcDbSpline
210
0.0
220
0.0
230
1.0
 70
     8
 71
     3
 72
     9
 73
     5
 74
     3
 42
0.000000001
 43
0.0000000001
 44
0.00000001
 40
0.0
 40
0.0
 40
0.0
 40
0.0
 40
1.636869992921858
 40
2.771425584172487
 40
2.771425584172487
 40
2.771425584172487
 40
2.771425584172487
 10
171.6681651585758
 20
32.26677623087821
 30
0.0
 10
172.2241791830763
 20
32.09270791315773
 30
0.0
 10
173.1655804428607
 20
31.79798846981869
 30
0.0
 10
173.5221812801249
 20
30.90166066966122
 30
0.0
 10
173.6681651585758
 20
30.53472542330933
 30
0.0
 11
171.6681651585758
 21
32.26677623087821
 31
0.0
 11
173.1322074876196
 21
31.53470830888816
 31
0.0
 11
173.6681651585758
 21
30.53472542330933
 31
0.0
  0
SPLINE
  5
323
330
67
100
AcDbEntity
  8
0
  6
Continuous
 62
     7
100
AcDbSpline
210
0.0
220
0.0
230
1.0
 70
     8
 71
     3
 72
     9
 73
     5
 74
     3
 42
0.000000001
 43
0.0000000001
 44
0.00000001
 40
0.0
 40
0.0
 40
0.0
 40
0.0
 40
0.7291153567166028
 40
1.787628612189901
 40
1.787628612189901
 40
1.787628612189901
 40
1.787628612189901
 10
172.2143147446349
 20
30.50905308766319
 30
0.0
 10
172.1269296129497
 20
30.74803208507833
 30
0.0
 10
171.9126806987861
 20
31.33395539886475
 30
0.0
 10
171.3026926294418
 20
31.5245860558954
 30
0.0
 10
170.9414987745087
 20
31.63746468219991
 30
0.0
 11
172.2143147446349
 21
30.50905308766319
 31
0.0
 11
171.8863258473763
 21
31.16023086004017
 31
0.0
 11
170.9414987745087
 21
31.63746468219991
 31
0.0
  0
SPLINE
  5
324
330
67
100
AcDbEntity
  8
0
  6
Continuous
 62
     7
100
AcDbSpline
210
0.0
220
0.0
230
1.0
 70
     8
 71
     3
 72
    11
 73
     7
 74
     5
 42
0.000000001
 43
0.0000000001
 44
0.00000001
 40
0.0
 40
0.0
 40
0.0
 40
0.0
 40
1.696413183330842
 40
3.761053629315731
 40
5.992573678053645
 40
8.139337027253095
 40
8.139337027253095
 40
8.139337027253095
 40
8.139337027253095
 10
152.8791050816146
 20
3.51157474147918
 30
0.0
 10
152.400757215465
 20
3.201887455561191
 30
0.0
 10
151.3402302114068
 20
2.515291478355422
 30
0.0
 10
149.3475513887674
 20
2.117144195617834
 30
0.0
 10
147.1904526148352
 20
2.006204049309606
 30
0.0
 10
145.756877051799
 20
2.312849925974369
 30
0.0
 10
145.0539651585758
 20
2.463204779959803
 30
0.0
 11
152.8791050816146
 21
3.51157474147918
 31
0.0
 11
151.4053835256074
 21
2.671359013202458
 31
0.0
 11
149.4007841765411
 21
2.17706998982203
 31
0.0
 11
147.1704611924595
 21
2.103987003614698
 31
0.0
 11
145.0539651585758
 21
2.463204779959803
 31
0.0
  0
SPLINE
  5
325
330
67
100
AcDbEntity
  8
0
  6
Continuous
 62
     7
100
AcDbSpline
210
0.0
220
0.0
230
1.0
 70
     8
 71
     3
 72
     9
 73
     5
 74
     3
 42
0.000000001
 43
0.0000000001
 44
0.00000001
 40
0.0
 40
0.0
 40
0.0
 40
0.0
 40
0.3849513536828984
 40
0.7146224473781975
 40
0.7146224473781975
 40
0.7146224473781975
 40
0.7146224473781975
 10
171.873643676357
 20
29.8980586153429
 30
0.0
 10
171.9686720102977
 20
29.9896027432313
 30
0.0
 10
172.145082285769
 20
30.1595449766289
 30
0.0
 10
172.1924588836434
 20
30.39871751723042
 30
0.0
 10
172.2143147446349
 20
30.50905308766319
 30
0.0
 11
171.873643676357
 21
29.8980586153429
 31
0.0
 11
172.1212864599987
 21
30.19277983614331
 31
0.0
 11
172.2143147446349
 21
30.50905308766319
 31
0.0
  0
SPLINE
  5
326
330
67
100
AcDbEntity
  8
0
  6
Continuous
 62
     2
100
AcDbSpline
210
0.0
220
0.0
230
1.0
 70
     8
 71
     3
 72
     9
 73
     5
 74
     3
 42
0.000000001
 43
0.0000000001
 44
0.00000001
 40
0.0
 40
0.0
 40
0.0
 40
0.0
 40
1.543041957863096
 40
2.995577855628264
 40
2.995577855628264
 40
2.995577855628264
 40
2.995577855628264
 10
151.3822667737136
 20
6.726902561980147
 30
0.0
 10
151.798504301362
 20
6.393148003228096
 30
0.0
 10
152.6065652169172
 20
5.745215017329664
 30
0.0
 10
152.7901069278865
 20
4.728458361201037
 30
0.0
 10
152.8791050816146
 20
4.23543977703914
 30
0.0
 11
151.3822667737136
 21
6.726902561980147
 31
0.0
 11
152.4652726584045
 21
5.627777116490462
 31
0.0
 11
152.8791050816146
 21
4.23543977703914
 31
0.0
  0
SPLINE
  5
327
330
67
100
AcDbEntity
  8
0
  6
Continuous
 62
     2
100
AcDbSpline
210
0.0
220
0.0
230
1.0
 70
     8
 71
     3
 72
    11
 73
     7
 74
     5
 42
0.000000001
 43
0.0000000001
 44
0.00000001
 40
0.0
 40
0.0
 40
0.0
 40
0.0
 40
1.696413183330846
 40
3.761053629315733
 40
5.992573678053648
 40
8.139337027253097
 40
8.139337027253097
 40
8.139337027253097
 40
8.139337027253097
 10
152.8791050816146
 20
4.23543977703914
 30
0.0
 10
152.4007572154649
 20
3.925752491121146
 30
0.0
 10
151.3402302114068
 20
3.239156513915372
 30
0.0
 10
149.3475513887674
 20
2.841009231177792
 30
0.0
 10
147.1904526148353
 20
2.730069084869569
 30
0.0
 10
145.756877051799
 20
3.03671496153432
 30
0.0
 10
145.0539651585758
 20
3.187069815519749
 30
0.0
 11
152.8791050816146
 21
4.23543977703914
 31
0.0
 11
151.4053835256074
 21
3.39522404876241
 31
0.0
 11
149.4007841765411
 21
2.900935025381987
 31
0.0
 11
147.1704611924595
 21
2.827852039174656
 31
0.0
 11
145.0539651585758
 21
3.187069815519749
 31
0.0
  0
SPLINE
  5
328
330
67
100
AcDbEntity
  8
0
  6
Continuous
 62
     2
100
AcDbSpline
210
0.0
220
0.0
230
1.0
 70
     8
 71
     3
 72
     9
 73
     5
 74
     3
 42
0.000000001
 43
0.0000000001
 44
0.00000001
 40
0.0
 40
0.0
 40
0.0
 40
0.0
 40
1.498954783455197
 40
2.966786080761675
 40
2.966786080761675
 40
2.966786080761675
 40
2.966786080761675
 10
145.0539651585758
 20
3.187069815519749
 30
0.0
 10
145.0999574349173
 20
3.690744755942244
 30
0.0
 10
145.1909870479928
 20
4.687636598321367
 30
0.0
 10
145.6774736342969
 20
5.562171515204202
 30
0.0
 10
145.9181651585758
 20
5.994851754411272
 30
0.0
 11
145.0539651585758
 21
3.187069815519749
 31
0.0
 11
145.2928914195155
 21
4.666860236106245
 31
0.0
 11
145.9181651585758
 21
5.994851754411272
 31
0.0
  0
SPLINE
  5
329
330
67
100
AcDbEntity
  8
0
  6
Continuous
 62
     7
100
AcDbSpline
210
0.0
220
0.0
230
1.0
 70
     8
 71
     3
 72
     9
 73
     5
 74
     3
 42
0.000000001
 43
0.0000000001
 44
0.00000001
 40
0.0
 40
0.0
 40
0.0
 40
0.0
 40
1.636869992921866
 40
2.771425584172477
 40
2.771425584172477
 40
2.771425584172477
 40
2.771425584172477
 10
26.3692471388798
 20
40.50565175441128
 30
0.0
 10
25.8132331143793
 20
40.67972007213176
 30
0.0
 10
24.87183185459486
 20
40.97443951547077
 30
0.0
 10
24.51523101733065
 20
41.87076731562826
 30
0.0
 10
24.3692471388798
 20
42.23770256198014
 30
0.0
 11
26.3692471388798
 21
40.50565175441128
 31
0.0
 11
24.90520480983603
 21
41.23771967640132
 31
0.0
 11
24.3692471388798
 21
42.23770256198014
 31
0.0
  0
SPLINE
  5
32A
330
67
100
AcDbEntity
  8
0
  6
Continuous
 62
     7
100
AcDbSpline
210
0.0
220
0.0
230
1.0
 70
     8
 71
     3
 72
    11
 73
     7
 74
     5
 42
0.000000001
 43
0.0000000001
 44
0.00000001
 40
0.0
 40
0.0
 40
0.0
 40
0.0
 40
1.184563356297243
 40
2.626250699451526
 40
4.184465941359685
 40
5.683497677775136
 40
5.683497677775136
 40
5.683497677775136
 40
5.683497677775136
 10
151.3822667737136
 20
6.726902561980147
 30
0.0
 10
151.0482482932092
 20
6.510655591952879
 30
0.0
 10
150.3077085218222
 20
6.031222611860462
 30
0.0
 10
148.9162702005272
 20
5.753206212004698
 30
0.0
 10
147.4100214935307
 20
5.675739454804376
 30
0.0
 10
146.408991143768
 20
5.889862679610678
 30
0.0
 10
145.9181651585758
 20
5.994851754411272
 30
0.0
 11
151.3822667737136
 21
6.726902561980147
 31
0.0
 11
150.3532034708666
 21
6.140200705771273
 31
0.0
 11
148.9534413389859
 21
5.795050909402008
 31
0.0
 11
147.3960619771525
 21
5.744018868198651
 31
0.0
 11
145.9181651585758
 21
5.994851754411272
 31
0.0
  0
SPLINE
  5
32B
330
67
100
AcDbEntity
  8
0
  6
Continuous
 62
     7
100
AcDbSpline
210
0.0
220
0.0
230
1.0
 70
     8
 71
     3
 72
    11
 73
     7
 74
     5
 42
0.000000001
 43
0.0000000001
 44
0.00000001
 40
0.0
 40
0.0
 40
0.0
 40
0.0
 40
1.184563356297238
 40
2.626250699451522
 40
4.184465941359681
 40
5.683497677775133
 40
5.683497677775133
 40
5.683497677775133
 40
5.683497677775133
 10
151.3822667737136
 20
10.6986728909978
 30
0.0
 10
151.0482482932092
 20
10.48242592097054
 30
0.0
 10
150.3077085218221
 20
10.00299294087813
 30
0.0
 10
148.9162702005273
 20
9.724976541022356
 30
0.0
 10
147.4100214935307
 20
9.647509783822025
 30
0.0
 10
146.408991143768
 20
9.861633008628326
 30
0.0
 10
145.9181651585758
 20
9.966622083428923
 30
0.0
 11
151.3822667737136
 21
10.6986728909978
 31
0.0
 11
150.3532034708666
 21
10.11197103478893
 31
0.0
 11
148.9534413389859
 21
9.766821238419666
 31
0.0
 11
147.3960619771525
 21
9.715789197216303
 31
0.0
 11
145.9181651585758
 21
9.966622083428923
 31
0.0
  0
SPLINE
  5
32C
330
67
100
AcDbEntity
  8
0
  6
Continuous
 62
     7
100
AcDbSpline
210
0.0
220
0.0
230
1.0
 70
     8
 71
     3
 72
     9
 73
     5
 74
     3
 42
0.000000001
 43
0.0000000001
 44
0.00000001
 40
0.0
 40
0.0
 40
0.0
 40
0.0
 40
1.936497027089996
 40
3.592788000338305
 40
3.592788000338305
 40
3.592788000338305
 40
3.592788000338305
 10
146.6448315426429
 20
10.59593363210723
 30
0.0
 10
147.3001006305661
 20
10.47991933267089
 30
0.0
 10
148.5158230824807
 20
10.2646777186561
 30
0.0
 10
149.6163130111279
 20
10.8104176024342
 30
0.0
 10
150.123643676357
 20
11.06200608303136
 30
0.0
 11
146.6448315426429
 21
10.59593363210723
 31
0.0
 11
148.5771618818032
 21
10.4689682644448
 31
0.0
 11
150.123643676357
 21
11.06200608303136
 31
0.0
  0
SPLINE
  5
32D
330
67
100
AcDbEntity
  8
0
  6
Continuous
 62
     2
100
AcDbSpline
210
0.0
220
0.0
230
1.0
 70
     8
 71
     3
 72
     9
 73
     5
 74
     3
 42
0.000000001
 43
0.0000000001
 44
0.00000001
 40
0.0
 40
0.0
 40
0.0
 40
0.0
 40
1.467831297306478
 40
2.966786080761695
 40
2.966786080761695
 40
2.966786080761695
 40
2.966786080761695
 10
26.3692471388798
 20
40.50565175441128
 30
0.0
 10
26.12855561460085
 20
40.07297151520421
 30
0.0
 10
25.64206902829688
 20
39.19843659832136
 30
0.0
 10
25.55103941522137
 20
38.20154475594224
 30
0.0
 10
25.5050471388798
 20
37.69786981551974
 30
0.0
 11
26.3692471388798
 21
40.50565175441128
 31
0.0
 11
25.74397339981953
 21
39.17766023610625
 31
0.0
 11
25.5050471388798
 21
37.69786981551974
 31
0.0
  0
SPLINE
  5
32E
330
67
100
AcDbEntity
  8
0
  6
Continuous
 62
     7
100
AcDbSpline
210
0.0
220
0.0
230
1.0
 70
     8
 71
     3
 72
     9
 73
     5
 74
     3
 42
0.000000001
 43
0.0000000001
 44
0.00000001
 40
0.0
 40
0.0
 40
0.0
 40
0.0
 40
0.5352813438478564
 40
1.161662880834207
 40
1.161662880834207
 40
1.161662880834207
 40
1.161662880834207
 10
24.3692471388798
 20
46.2094728909978
 30
0.0
 10
24.39892184852318
 20
46.39011570859304
 30
0.0
 10
24.46332166149878
 20
46.78214516144536
 30
0.0
 10
24.75036731055861
 20
47.0597729221991
 30
0.0
 10
24.90514552374199
 20
47.2094728909978
 30
0.0
 11
24.3692471388798
 21
46.2094728909978
 31
0.0
 11
24.5055448638091
 21
46.72711084319754
 31
0.0
 11
24.90514552374199
 21
47.2094728909978
 31
0.0
  0
SPLINE
  5
32F
330
67
100
AcDbEntity
  8
0
  6
Continuous
 62
     7
100
AcDbSpline
210
0.0
220
0.0
230
1.0
 70
     8
 71
     3
 72
     9
 73
     5
 74
     3
 42
0.000000001
 43
0.0000000001
 44
0.00000001
 40
0.0
 40
0.0
 40
0.0
 40
0.0
 40
2.344161518171485
 40
3.968958581709604
 40
3.968958581709604
 40
3.968958581709604
 40
3.968958581709604
 10
25.5050471388798
 20
36.97400477995979
 30
0.0
 10
24.70877945394832
 20
37.22328801790639
 30
0.0
 10
23.36059870384885
 20
37.64535572665285
 30
0.0
 10
22.8499106513776
 20
38.92898677475556
 30
0.0
 10
22.64084713887981
 20
39.45447474147917
 30
0.0
 11
25.5050471388798
 21
36.97400477995979
 31
0.0
 11
23.40839211945626
 21
38.02239925104174
 31
0.0
 11
22.64084713887981
 21
39.45447474147917
 31
0.0
  0
SPLINE
  5
330
330
67
100
AcDbEntity
  8
0
  6
Continuous
 62
     2
100
AcDbSpline
210
0.0
220
0.0
230
1.0
 70
     8
 71
     3
 72
     9
 73
     5
 74
     3
 42
0.000000001
 43
0.0000000001
 44
0.00000001
 40
0.0
 40
0.0
 40
0.0
 40
0.0
 40
2.344161518171485
 40
3.968958581709629
 40
3.968958581709629
 40
3.968958581709629
 40
3.968958581709629
 10
25.5050471388798
 20
37.69786981551974
 30
0.0
 10
24.70877945394832
 20
37.94715305346634
 30
0.0
 10
23.36059870384884
 20
38.36922076221282
 30
0.0
 10
22.84991065137759
 20
39.65285181031552
 30
0.0
 10
22.64084713887981
 20
40.17833977703914
 30
0.0
 11
25.5050471388798
 21
37.69786981551974
 31
0.0
 11
23.40839211945626
 21
38.74626428660169
 31
0.0
 11
22.64084713887981
 21
40.17833977703914
 31
0.0
  0
SPLINE
  5
331
330
67
100
AcDbEntity
  8
0
  6
Continuous
 62
     7
100
AcDbSpline
210
0.0
220
0.0
230
1.0
 70
     8
 71
     3
 72
    11
 73
     7
 74
     5
 42
0.000000001
 43
0.0000000001
 44
0.00000001
 40
0.0
 40
0.0
 40
0.0
 40
0.0
 40
0.6202467258328922
 40
1.516601119666932
 40
2.26559647186568
 40
3.081308377111721
 40
3.081308377111721
 40
3.081308377111721
 40
3.081308377111721
 10
22.64084713887981
 20
40.17833977703914
 30
0.0
 10
22.6522999325922
 20
40.38540002189371
 30
0.0
 10
22.68030383728917
 20
40.89169499293226
 30
0.0
 10
22.93387777682093
 20
41.61536013486319
 30
0.0
 10
23.36328194313911
 20
42.32218838671508
 30
0.0
 10
23.74022756186214
 20
42.68573718537728
 30
0.0
 10
23.9367365485321
 20
42.87526214208526
 30
0.0
 11
22.64084713887981
 21
40.17833977703914
 31
0.0
 11
22.69891258615476
 21
40.79586257545136
 31
0.0
 11
22.9809176310084
 21
41.64670002131523
 31
0.0
 11
23.37545684858394
 21
42.28335757924462
 31
0.0
 11
23.9367365485321
 21
42.87526214208526
 31
0.0
  0
SPLINE
  5
332
330
67
100
AcDbEntity
  8
0
  6
Continuous
 62
     2
100
AcDbSpline
210
0.0
220
0.0
230
1.0
 70
     8
 71
     3
 72
     9
 73
     5
 74
     3
 42
0.000000001
 43
0.0000000001
 44
0.00000001
 40
0.0
 40
0.0
 40
0.0
 40
0.0
 40
0.2514263998270146
 40
0.5051049241549838
 40
0.5051049241549838
 40
0.5051049241549838
 40
0.5051049241549838
 10
23.9367365485321
 20
42.87526214208526
 30
0.0
 10
24.00285529531474
 20
42.92740977149861
 30
0.0
 10
24.13568505123444
 20
43.03217212041169
 30
0.0
 10
24.29116203009557
 20
43.09887083453015
 30
0.0
 10
24.3692471388797
 20
43.13236887844938
 30
0.0
 11
23.9367365485321
 21
42.87526214208526
 31
0.0
 11
24.14070422403521
 21
43.02227378217125
 31
0.0
 11
24.3692471388797
 21
43.13236887844938
 31
0.0
  0
ENDBLK
  5
69
330
67
100
AcDbEntity
  8
0
100
AcDbBlockEnd
  0
BLOCK
  5
6C
330
6A
100
AcDbEntity
  8
0
100
AcDbBlockBegin
  2
Allg1
 70
     0
 10
99.0000000000006
 20
35.0
 30
0.0
  3
Allg1
  1

  0
INSERT
  5
6B
330
6A
100
AcDbEntity
  8
0
100
AcDbBlockReference
  2
1409820_HC_B24_TMS_EEE_PR_DI-select__4
 10
22.64084713887981
 20
1.98047033709754
 30
0.0
  0
MTEXT
  5
333
330
6A
100
AcDbEntity
  8
1
 62
     6
100
AcDbMText
 10
99.01870512328003
 20
-3.96889477601735
 30
0.0
 40
5.0
 41
0.0
 71
     2
 72
     1
  1
 
  7
CONVERTER_12
 73
     1
 44
1.32052821128451
  0
ENDBLK
  5
6D
330
6A
100
AcDbEntity
  8
0
100
AcDbBlockEnd
  0
BLOCK
  5
6F
330
6E
100
AcDbEntity
  8
0
100
AcDbBlockBegin
  2
1409820_HC_B24_TMS_EEE_PR_DI-select__5
 70
     0
 10
-187.9000000949324
 20
116.5215999999701
 30
0.0
  3
1409820_HC_B24_TMS_EEE_PR_DI-select__5
  1

  0
LINE
  5
334
330
6E
100
AcDbEntity
  8
0
  6
Continuous
 62
     7
100
AcDbLine
 10
-183.313794757697
 20
165.7499999999701
 30
0.0
 11
-183.313794757697
 21
122.2499999999701
 31
0.0
  0
LINE
  5
335
330
6E
100
AcDbEntity
  8
0
  6
Continuous
 62
     7
100
AcDbLine
 10
-183.313794757697
 20
122.2499999999701
 30
0.0
 11
-183.313794757697
 21
118.2499999999701
 31
0.0
  0
LINE
  5
336
330
6E
100
AcDbEntity
  8
0
  6
Continuous
 62
     7
100
AcDbLine
 10
-183.313794757697
 20
169.7499999999701
 30
0.0
 11
-183.313794757697
 21
165.7499999999701
 31
0.0
  0
LINE
  5
337
330
6E
100
AcDbEntity
  8
0
  6
Continuous
 62
     7
100
AcDbLine
 10
-180.1000000949324
 20
165.7499999999701
 30
0.0
 11
-180.1000000949324
 21
122.2499999999701
 31
0.0
  0
LINE
  5
338
330
6E
100
AcDbEntity
  8
0
  6
Continuous
 62
     7
100
AcDbLine
 10
-180.9358474412074
 20
171.4783999999701
 30
0.0
 11
-180.1000000949324
 21
171.4783999999701
 31
0.0
  0
LINE
  5
339
330
6E
100
AcDbEntity
  8
0
  6
Continuous
 62
     7
100
AcDbLine
 10
-180.1000000949324
 20
171.4783999999701
 30
0.0
 11
-180.1000000949324
 21
165.7499999999701
 31
0.0
  0
LINE
  5
33A
330
6E
100
AcDbEntity
  8
0
  6
Continuous
 62
     2
100
AcDbLine
 10
-180.9358474412074
 20
171.4783999999701
 30
0.0
 11
-180.9358474412074
 21
165.7499999999701
 31
0.0
  0
LINE
  5
33B
330
6E
100
AcDbEntity
  8
0
  6
Continuous
 62
     7
100
AcDbLine
 10
-180.9358474412074
 20
116.5215999999701
 30
0.0
 11
-180.1000000949324
 21
116.5215999999701
 31
0.0
  0
LINE
  5
33C
330
6E
100
AcDbEntity
  8
0
  6
Continuous
 62
     7
100
AcDbLine
 10
-187.9000000949324
 20
118.2499999999701
 30
0.0
 11
-183.313794757697
 21
118.2499999999701
 31
0.0
  0
LINE
  5
33D
330
6E
100
AcDbEntity
  8
0
  6
Continuous
 62
     2
100
AcDbLine
 10
-180.9358474412074
 20
122.2499999999701
 30
0.0
 11
-180.9358474412074
 21
165.7499999999701
 31
0.0
  0
LINE
  5
33E
330
6E
100
AcDbEntity
  8
0
  6
Continuous
 62
     2
100
AcDbLine
 10
-180.9358474412074
 20
122.2499999999701
 30
0.0
 11
-180.9358474412074
 21
116.5215999999701
 31
0.0
  0
LINE
  5
33F
330
6E
100
AcDbEntity
  8
0
  6
Continuous
 62
     7
100
AcDbLine
 10
-187.9000000949324
 20
122.2499999999701
 30
0.0
 11
-187.9000000949324
 21
118.2499999999701
 31
0.0
  0
LINE
  5
340
330
6E
100
AcDbEntity
  8
0
  6
Continuous
 62
     7
100
AcDbLine
 10
-187.9000000949324
 20
122.2499999999701
 30
0.0
 11
-187.9000000949324
 21
165.7499999999701
 31
0.0
  0
LINE
  5
341
330
6E
100
AcDbEntity
  8
0
  6
Continuous
 62
     7
100
AcDbLine
 10
-187.9000000949324
 20
169.7499999999701
 30
0.0
 11
-187.9000000949324
 21
165.7499999999701
 31
0.0
  0
LINE
  5
342
330
6E
100
AcDbEntity
  8
0
  6
Continuous
 62
     7
100
AcDbLine
 10
-187.9000000949324
 20
169.7499999999701
 30
0.0
 11
-183.313794757697
 21
169.7499999999701
 31
0.0
  0
LINE
  5
343
330
6E
100
AcDbEntity
  8
0
  6
Continuous
 62
     2
100
AcDbLine
 10
-183.313794757697
 20
165.7499999999701
 30
0.0
 11
-187.9000000949324
 21
165.7499999999701
 31
0.0
  0
LINE
  5
344
330
6E
100
AcDbEntity
  8
0
  6
Continuous
 62
     2
100
AcDbLine
 10
-187.9000000949324
 20
122.2499999999701
 30
0.0
 11
-183.313794757697
 21
122.2499999999701
 31
0.0
  0
LINE
  5
345
330
6E
100
AcDbEntity
  8
0
  6
Continuous
 62
     2
100
AcDbLine
 10
-180.9358474412074
 20
165.7499999999701
 30
0.0
 11
-180.1000000949324
 21
165.7499999999701
 31
0.0
  0
LINE
  5
346
330
6E
100
AcDbEntity
  8
0
  6
Continuous
 62
     2
100
AcDbLine
 10
-180.9358474412074
 20
165.7499999999701
 30
0.0
 11
-183.313794757697
 21
165.7499999999701
 31
0.0
  0
LINE
  5
347
330
6E
100
AcDbEntity
  8
0
  6
Continuous
 62
     7
100
AcDbLine
 10
-180.1000000949324
 20
122.2499999999701
 30
0.0
 11
-180.1000000949324
 21
116.5215999999701
 31
0.0
  0
LINE
  5
348
330
6E
100
AcDbEntity
  8
0
  6
Continuous
 62
     2
100
AcDbLine
 10
-180.9358474412074
 20
122.2499999999701
 30
0.0
 11
-180.1000000949324
 21
122.2499999999701
 31
0.0
  0
LINE
  5
349
330
6E
100
AcDbEntity
  8
0
  6
Continuous
 62
     2
100
AcDbLine
 10
-183.313794757697
 20
122.2499999999701
 30
0.0
 11
-180.9358474412074
 21
122.2499999999701
 31
0.0
  0
ARC
  5
34A
330
6E
100
AcDbEntity
  8
0
  6
Continuous
 62
     7
100
AcDbCircle
 10
-180.9358474412074
 20
168.9783999999701
 30
0.0
 40
2.5
100
AcDbArc
 50
90.0
 51
162.0227103184126
  0
ARC
  5
34B
330
6E
100
AcDbEntity
  8
0
  6
Continuous
 62
     7
100
AcDbCircle
 10
-180.9358474412074
 20
119.0215999999701
 30
0.0
 40
2.50000000000003
100
AcDbArc
 50
197.9772896815874
 51
270.0
  0
ENDBLK
  5
70
330
6E
100
AcDbEntity
  8
0
100
AcDbBlockEnd
  0
BLOCK
  5
73
330
71
100
AcDbEntity
  8
0
100
AcDbBlockBegin
  2
SA_Rechts1
 70
     0
 10
-183.99999999978
 20
143.999999999985
 30
0.0
  3
SA_Rechts1
  1

  0
INSERT
  5
72
330
71
100
AcDbEntity
  8
0
100
AcDbBlockReference
  2
1409820_HC_B24_TMS_EEE_PR_DI-select__5
 10
-187.9000000949324
 20
116.5215999999701
 30
0.0
  0
MTEXT
  5
34C
330
71
100
AcDbEntity
  8
1
 62
     6
100
AcDbMText
 10
-183.99999999978
 20
111.5216007232516
 30
0.0
 40
5.0
 41
0.0
 71
     2
 72
     1
  1
 
  7
CONVERTER_12
 73
     1
 44
1.32052821128451
  0
DIMENSION
  5
359
330
71
100
AcDbEntity
  8
1
100
AcDbDimension
  2
*D16
 10
-180.1000000949324
 20
106.5215999999701
 30
0.0
 11
-184.0000000949324
 21
110.4465999999701
 31
0.0
 70
    32
  1
<>
 71
     5
 42
-1.0
 53
0.00013888888889
  3
ME10_DIM_10
100
AcDbAlignedDimension
 13
-187.9000000949324
 23
118.2499999999701
 33
0.0
 14
-180.1000000949324
 24
116.5215999999701
 34
0.0
100
AcDbRotatedDimension
  0
ENDBLK
  5
74
330
71
100
AcDbEntity
  8
0
100
AcDbBlockEnd
  0
BLOCK
  5
76
330
75
100
AcDbEntity
  8
0
100
AcDbBlockBegin
  2
1409820_HC_B24_TMS_EEE_PR_DI-select__6
 70
     0
 10
-166.0999983125759
 20
116.5215999999751
 30
0.0
  3
1409820_HC_B24_TMS_EEE_PR_DI-select__6
  1

  0
LINE
  5
35A
330
75
100
AcDbEntity
  8
0
  6
Continuous
 62
     7
100
AcDbLine
 10
-22.32839831257581
 20
166.4499999999751
 30
0.0
 11
-160.3715983125758
 21
166.4499999999751
 31
0.0
  0
LINE
  5
35B
330
75
100
AcDbEntity
  8
0
  6
Continuous
 62
     7
100
AcDbLine
 10
-160.3715983125758
 20
171.4783999999751
 30
0.0
 11
-22.32839831257581
 21
171.4783999999751
 31
0.0
  0
LINE
  5
35C
330
75
100
AcDbEntity
  8
0
  6
Continuous
 62
     7
100
AcDbLine
 10
-22.32839831257581
 20
169.7499999999751
 30
0.0
 11
-160.3715983125758
 21
169.7499999999751
 31
0.0
  0
LINE
  5
35D
330
75
100
AcDbEntity
  8
0
  6
Continuous
 62
     7
100
AcDbLine
 10
-160.3715983125758
 20
168.2966672318408
 30
0.0
 11
-22.32839831257581
 21
168.2966672318408
 31
0.0
  0
LINE
  5
35E
330
75
100
AcDbEntity
  8
0
  6
Continuous
 62
     7
100
AcDbLine
 10
-22.32839831257581
 20
168.1499999999755
 30
0.0
 11
-160.3715983125758
 21
168.1499999999755
 31
0.0
  0
LINE
  5
35F
330
75
100
AcDbEntity
  8
0
  6
Continuous
 62
     2
100
AcDbLine
 10
-160.3715983125758
 20
168.2966672318408
 30
0.0
 11
-160.3715983125758
 21
168.1499999999755
 31
0.0
  0
LINE
  5
360
330
75
100
AcDbEntity
  8
0
  6
Continuous
 62
     7
100
AcDbLine
 10
-16.59999831257591
 20
165.7499999999751
 30
0.0
 11
-16.59999831257591
 21
122.2499999999751
 31
0.0
  0
LINE
  5
361
330
75
100
AcDbEntity
  8
0
  6
Continuous
 62
     7
100
AcDbLine
 10
-18.32839831257581
 20
122.2499999999751
 30
0.0
 11
-18.32839831257581
 21
165.7499999999751
 31
0.0
  0
LINE
  5
362
330
75
100
AcDbEntity
  8
0
  6
Continuous
 62
     7
100
AcDbLine
 10
-19.78173108071007
 20
165.7499999999751
 30
0.0
 11
-19.78173108071007
 21
122.2499999999751
 31
0.0
  0
LINE
  5
363
330
75
100
AcDbEntity
  8
0
  6
Continuous
 62
     2
100
AcDbLine
 10
-18.32839831257581
 20
122.2499999999751
 30
0.0
 11
-16.59999831257591
 21
122.2499999999751
 31
0.0
  0
LINE
  5
364
330
75
100
AcDbEntity
  8
0
  6
Continuous
 62
     2
100
AcDbLine
 10
-19.92839831257538
 20
122.2499999999751
 30
0.0
 11
-19.78173108071007
 21
122.2499999999751
 31
0.0
  0
LINE
  5
365
330
75
100
AcDbEntity
  8
0
  6
Continuous
 62
     7
100
AcDbLine
 10
-166.0999983125759
 20
122.2499999999751
 30
0.0
 11
-166.0999983125759
 21
165.7499999999751
 31
0.0
  0
LINE
  5
366
330
75
100
AcDbEntity
  8
0
  6
Continuous
 62
     7
100
AcDbLine
 10
-164.3715983125758
 20
165.7499999999751
 30
0.0
 11
-164.3715983125758
 21
122.2499999999751
 31
0.0
  0
LINE
  5
367
330
75
100
AcDbEntity
  8
0
  6
Continuous
 62
     2
100
AcDbLine
 10
-160.3715983125758
 20
119.8499999999747
 30
0.0
 11
-160.3715983125758
 21
119.7033327681093
 31
0.0
  0
LINE
  5
368
330
75
100
AcDbEntity
  8
0
  6
Continuous
 62
     2
100
AcDbLine
 10
-166.0999983125759
 20
122.2499999999751
 30
0.0
 11
-164.3715983125758
 21
122.2499999999751
 31
0.0
  0
LINE
  5
369
330
75
100
AcDbEntity
  8
0
  6
Continuous
 62
     2
100
AcDbLine
 10
-160.3715983125758
 20
118.2499999999751
 30
0.0
 11
-160.3715983125758
 21
116.5215999999751
 31
0.0
  0
LINE
  5
36A
330
75
100
AcDbEntity
  8
0
  6
Continuous
 62
     2
100
AcDbLine
 10
-19.78173108071007
 20
165.7499999999751
 30
0.0
 11
-19.92839831257538
 21
165.7499999999751
 31
0.0
  0
LINE
  5
36B
330
75
100
AcDbEntity
  8
0
  6
Continuous
 62
     2
100
AcDbLine
 10
-16.59999831257591
 20
165.7499999999751
 30
0.0
 11
-18.32839831257581
 21
165.7499999999751
 31
0.0
  0
LINE
  5
36C
330
75
100
AcDbEntity
  8
0
  6
Continuous
 62
     2
100
AcDbLine
 10
-164.3715983125758
 20
165.7499999999751
 30
0.0
 11
-166.0999983125759
 21
165.7499999999751
 31
0.0
  0
LINE
  5
36D
330
75
100
AcDbEntity
  8
0
  6
Continuous
 62
     2
100
AcDbLine
 10
-160.3715983125758
 20
171.4783999999751
 30
0.0
 11
-160.3715983125758
 21
169.7499999999751
 31
0.0
  0
LINE
  5
36E
330
75
100
AcDbEntity
  8
0
  6
Continuous
 62
     2
100
AcDbLine
 10
-162.7715983125806
 20
165.7499999999751
 30
0.0
 11
-162.918265544446
 21
165.7499999999751
 31
0.0
  0
LINE
  5
36F
330
75
100
AcDbEntity
  8
0
  6
Continuous
 62
     7
100
AcDbLine
 10
-160.3715983125758
 20
121.5499999999751
 30
0.0
 11
-22.32839831257581
 21
121.5499999999751
 31
0.0
  0
LINE
  5
370
330
75
100
AcDbEntity
  8
0
  6
Continuous
 62
     7
100
AcDbLine
 10
-160.3715983125758
 20
119.8499999999747
 30
0.0
 11
-22.32839831257581
 21
119.8499999999747
 31
0.0
  0
LINE
  5
371
330
75
100
AcDbEntity
  8
0
  6
Continuous
 62
     7
100
AcDbLine
 10
-22.32839831257581
 20
116.5215999999751
 30
0.0
 11
-160.3715983125758
 21
116.5215999999751
 31
0.0
  0
LINE
  5
372
330
75
100
AcDbEntity
  8
0
  6
Continuous
 62
     7
100
AcDbLine
 10
-160.3715983125758
 20
118.2499999999751
 30
0.0
 11
-22.32839831257581
 21
118.2499999999751
 31
0.0
  0
LINE
  5
373
330
75
100
AcDbEntity
  8
0
  6
Continuous
 62
     7
100
AcDbLine
 10
-22.32839831257581
 20
119.7033327681093
 30
0.0
 11
-160.3715983125758
 21
119.7033327681093
 31
0.0
  0
LINE
  5
374
330
75
100
AcDbEntity
  8
0
  6
Continuous
 62
     7
100
AcDbLine
 10
-19.92839831257538
 20
122.2499999999751
 30
0.0
 11
-19.92839831257538
 21
165.7499999999751
 31
0.0
  0
LINE
  5
375
330
75
100
AcDbEntity
  8
0
  6
Continuous
 62
     2
100
AcDbLine
 10
-22.32839831257581
 20
169.7499999999751
 30
0.0
 11
-22.32839831257581
 21
171.4783999999751
 31
0.0
  0
LINE
  5
376
330
75
100
AcDbEntity
  8
0
  6
Continuous
 62
     2
100
AcDbLine
 10
-22.32839831257581
 20
116.5215999999751
 30
0.0
 11
-22.32839831257581
 21
118.2499999999751
 31
0.0
  0
LINE
  5
377
330
75
100
AcDbEntity
  8
0
  6
Continuous
 62
     2
100
AcDbLine
 10
-22.32839831257581
 20
119.7033327681093
 30
0.0
 11
-22.32839831257581
 21
119.8499999999747
 31
0.0
  0
LINE
  5
378
330
75
100
AcDbEntity
  8
0
  6
Continuous
 62
     2
100
AcDbLine
 10
-22.32839831257581
 20
168.1499999999755
 30
0.0
 11
-22.32839831257581
 21
168.2966672318408
 31
0.0
  0
LINE
  5
379
330
75
100
AcDbEntity
  8
0
  6
Continuous
 62
     7
100
AcDbLine
 10
-21.62839831257577
 20
122.2499999999751
 30
0.0
 11
-21.62839831257577
 21
165.7499999999751
 31
0.0
  0
LINE
  5
37A
330
75
100
AcDbEntity
  8
0
  6
Continuous
 62
     7
100
AcDbLine
 10
-162.7715983125806
 20
165.7499999999751
 30
0.0
 11
-162.7715983125806
 21
122.2499999999751
 31
0.0
  0
LINE
  5
37B
330
75
100
AcDbEntity
  8
0
  6
Continuous
 62
     7
100
AcDbLine
 10
-162.918265544446
 20
122.2499999999751
 30
0.0
 11
-162.918265544446
 21
165.7499999999751
 31
0.0
  0
LINE
  5
37C
330
75
100
AcDbEntity
  8
0
  6
Continuous
 62
     2
100
AcDbLine
 10
-162.918265544446
 20
122.2499999999751
 30
0.0
 11
-162.7715983125806
 21
122.2499999999751
 31
0.0
  0
LINE
  5
37D
330
75
100
AcDbEntity
  8
0
  6
Continuous
 62
     7
100
AcDbLine
 10
-161.0715983125759
 20
165.7499999999751
 30
0.0
 11
-161.0715983125759
 21
122.2499999999751
 31
0.0
  0
ARC
  5
37E
330
75
100
AcDbEntity
  8
0
  6
Continuous
 62
     7
100
AcDbCircle
 10
-160.3715983125758
 20
165.7499999999751
 30
0.0
 40
5.728399999999993
100
AcDbArc
 50
90.0
 51
180.0
  0
ARC
  5
37F
330
75
100
AcDbEntity
  8
0
  6
Continuous
 62
     7
100
AcDbCircle
 10
-22.32839831257581
 20
122.2499999999751
 30
0.0
 40
5.728400000000008
100
AcDbArc
 50
270.0
 51
0.0
  0
ARC
  5
380
330
75
100
AcDbEntity
  8
0
  6
Continuous
 62
     7
100
AcDbCircle
 10
-22.32839831257581
 20
122.2499999999751
 30
0.0
 40
4.0
100
AcDbArc
 50
270.0
 51
0.0
  0
ARC
  5
381
330
75
100
AcDbEntity
  8
0
  6
Continuous
 62
     7
100
AcDbCircle
 10
-22.32839831257581
 20
122.2499999999751
 30
0.0
 40
2.546667231865797
100
AcDbArc
 50
270.0
 51
0.0
  0
ARC
  5
382
330
75
100
AcDbEntity
  8
0
  6
Continuous
 62
     7
100
AcDbCircle
 10
-22.32839831257581
 20
122.2499999999751
 30
0.0
 40
2.400000000000404
100
AcDbArc
 50
270.0
 51
0.0
  0
ARC
  5
383
330
75
100
AcDbEntity
  8
0
  6
Continuous
 62
     7
100
AcDbCircle
 10
-22.32839831257581
 20
122.2499999999751
 30
0.0
 40
0.7000000000000028
100
AcDbArc
 50
270.0
 51
0.0
  0
ARC
  5
384
330
75
100
AcDbEntity
  8
0
  6
Continuous
 62
     7
100
AcDbCircle
 10
-160.371598312578
 20
122.2499999999773
 30
0.0
 40
2.40000000000262
100
AcDbArc
 50
180.0000000000526
 51
270.0000000000522
  0
ARC
  5
385
330
75
100
AcDbEntity
  8
0
  6
Continuous
 62
     7
100
AcDbCircle
 10
-160.3715983125758
 20
122.2499999999751
 30
0.0
 40
5.728400000000107
100
AcDbArc
 50
180.0
 51
270.0
  0
ARC
  5
386
330
75
100
AcDbEntity
  8
0
  6
Continuous
 62
     7
100
AcDbCircle
 10
-160.3715983125758
 20
122.2499999999751
 30
0.0
 40
0.7000000000001023
100
AcDbArc
 50
180.0
 51
270.0
  0
ARC
  5
387
330
75
100
AcDbEntity
  8
0
  6
Continuous
 62
     7
100
AcDbCircle
 10
-160.3715983125758
 20
122.2499999999751
 30
0.0
 40
4.0
100
AcDbArc
 50
180.0
 51
270.0
  0
ARC
  5
388
330
75
100
AcDbEntity
  8
0
  6
Continuous
 62
     7
100
AcDbCircle
 10
-22.32839831257581
 20
165.7499999999751
 30
0.0
 40
5.728399999999901
100
AcDbArc
 50
0.0
 51
90.0
  0
ARC
  5
389
330
75
100
AcDbEntity
  8
0
  6
Continuous
 62
     7
100
AcDbCircle
 10
-22.32839831257581
 20
165.7499999999751
 30
0.0
 40
4.0
100
AcDbArc
 50
0.0
 51
90.0
  0
ARC
  5
38A
330
75
100
AcDbEntity
  8
0
  6
Continuous
 62
     7
100
AcDbCircle
 10
-22.32839831257581
 20
165.7499999999751
 30
0.0
 40
2.54666723186574
100
AcDbArc
 50
0.0
 51
90.0
  0
ARC
  5
38B
330
75
100
AcDbEntity
  8
0
  6
Continuous
 62
     7
100
AcDbCircle
 10
-22.32839831257581
 20
165.7499999999751
 30
0.0
 40
2.400000000000432
100
AcDbArc
 50
0.0
 51
90.0
  0
ARC
  5
38C
330
75
100
AcDbEntity
  8
0
  6
Continuous
 62
     7
100
AcDbCircle
 10
-22.32839831257581
 20
165.7499999999751
 30
0.0
 40
0.7000000000000419
100
AcDbArc
 50
0.0
 51
90.0
  0
ARC
  5
38D
330
75
100
AcDbEntity
  8
0
  6
Continuous
 62
     7
100
AcDbCircle
 10
-160.371598312578
 20
165.7499999999729
 30
0.0
 40
2.400000000002592
100
AcDbArc
 50
89.99999999994776
 51
179.9999999999478
  0
ARC
  5
38E
330
75
100
AcDbEntity
  8
0
  6
Continuous
 62
     7
100
AcDbCircle
 10
-160.3715983125758
 20
165.7499999999751
 30
0.0
 40
4.0
100
AcDbArc
 50
90.0
 51
180.0
  0
ARC
  5
38F
330
75
100
AcDbEntity
  8
0
  6
Continuous
 62
     7
100
AcDbCircle
 10
-160.371598312578
 20
165.7499999999729
 30
0.0
 40
2.546667231867872
100
AcDbArc
 50
89.99999999995077
 51
179.9999999999508
  0
ARC
  5
390
330
75
100
AcDbEntity
  8
0
  6
Continuous
 62
     7
100
AcDbCircle
 10
-160.3715983125758
 20
165.7499999999751
 30
0.0
 40
0.6999999999999886
100
AcDbArc
 50
90.0
 51
180.0
  0
ARC
  5
391
330
75
100
AcDbEntity
  8
0
  6
Continuous
 62
     7
100
AcDbCircle
 10
-160.371598312578
 20
122.2499999999773
 30
0.0
 40
2.546667231868014
100
AcDbArc
 50
180.0000000000495
 51
270.0000000000492
  0
ENDBLK
  5
77
330
75
100
AcDbEntity
  8
0
100
AcDbBlockEnd
  0
BLOCK
  5
7A
330
78
100
AcDbEntity
  8
0
100
AcDbBlockBegin
  2
Vordans1
 70
     0
 10
-91.37159831259066
 20
143.99999999999
 30
0.0
  3
Vordans1
  1

  0
INSERT
  5
79
330
78
100
AcDbEntity
  8
0
100
AcDbBlockReference
  2
1409820_HC_B24_TMS_EEE_PR_DI-select__6
 10
-166.0999983125759
 20
116.5215999999751
 30
0.0
  0
MTEXT
  5
392
330
78
100
AcDbEntity
  8
1
 62
     6
100
AcDbMText
 10
-91.37159831259157
 20
111.5216007232566
 30
0.0
 40
5.0
 41
0.0
 71
     2
 72
     1
  1
 
  7
CONVERTER_12
 73
     1
 44
1.32052821128451
  0
DIMENSION
  5
39D
330
78
100
AcDbEntity
  8
1
100
AcDbDimension
  2
*D17
 10
-166.0999983125759
 20
106.5215999999752
 30
0.0
 11
-91.34999831257589
 21
110.4465999999752
 31
0.0
 70
    32
  1
<>
 71
     5
 42
-1.0
 53
0.00013888888889
  3
ME10_DIM_11
100
AcDbAlignedDimension
 13
-16.59999831257591
 23
122.2499999999751
 33
0.0
 14
-166.0999983125759
 24
122.2499999999751
 34
0.0
100
AcDbRotatedDimension
  0
DIMENSION
  5
3A8
330
78
100
AcDbEntity
  8
1
100
AcDbDimension
  2
*D18
 10
-6.59999831257585
 20
116.5215999999751
 30
0.0
 11
-10.34999831257585
 21
143.9999999999751
 31
0.0
 70
    32
  1
<>
 71
     5
 42
-1.0
 53
90.0
  3
ME10_DIM_12
100
AcDbAlignedDimension
 13
-22.32839831257581
 23
171.4783999999751
 33
0.0
 14
-22.32839831257581
 24
116.5215999999751
 34
0.0
 50
90.0
100
AcDbRotatedDimension
  0
ENDBLK
  5
7B
330
78
100
AcDbEntity
  8
0
100
AcDbBlockEnd
  0
BLOCK
  5
356
330
34D
100
AcDbEntity
  8
0
100
AcDbBlockBegin
  2
*D16
 70
     1
 10
0.0
 20
0.0
 30
0.0
  3
*D16
  1

  0
LINE
  5
34E
330
34D
100
AcDbEntity
  8
1
  6
Continuous
 62
     2
100
AcDbLine
 10
-187.9000000949324
 20
106.5215999999701
 30
0.0
 11
-194.9000000949324
 21
106.5215999999701
 31
0.0
  0
LINE
  5
34F
330
34D
100
AcDbEntity
  8
1
  6
Continuous
 62
     2
100
AcDbLine
 10
-180.1000000949324
 20
106.5215999999701
 30
0.0
 11
-187.9000000949324
 21
106.5215999999701
 31
0.0
  0
LINE
  5
350
330
34D
100
AcDbEntity
  8
1
  6
Continuous
 62
     2
100
AcDbLine
 10
-173.1000000949324
 20
106.5215999999701
 30
0.0
 11
-180.1000000949324
 21
106.5215999999701
 31
0.0
  0
LINE
  5
351
330
34D
100
AcDbEntity
  8
1
  6
Continuous
 62
     2
100
AcDbLine
 10
-187.9000000949324
 20
118.2499999999701
 30
0.0
 11
-187.9000000949324
 21
104.5215999999701
 31
0.0
  0
LINE
  5
352
330
34D
100
AcDbEntity
  8
1
  6
Continuous
 62
     2
100
AcDbLine
 10
-180.1000000949324
 20
116.5215999999701
 30
0.0
 11
-180.1000000949324
 21
104.5215999999701
 31
0.0
  0
SOLID
  5
353
330
34D
100
AcDbEntity
  8
1
 62
     2
100
AcDbTrace
 10
-176.6000000949324
 20
106.982383741526
 30
0.0
 11
-176.6000000949324
 21
106.0608162584142
 31
0.0
 12
-180.1000000949324
 22
106.5215999999701
 32
0.0
 13
-180.1000000949324
 23
106.5215999999701
 33
0.0
  0
SOLID
  5
354
330
34D
100
AcDbEntity
  8
1
 62
     2
100
AcDbTrace
 10
-191.4000000949324
 20
106.0608162584142
 30
0.0
 11
-191.4000000949324
 21
106.982383741526
 31
0.0
 12
-187.9000000949324
 22
106.5215999999701
 32
0.0
 13
-187.9000000949324
 23
106.5215999999701
 33
0.0
  0
MTEXT
  5
355
330
34D
100
AcDbEntity
  8
1
 62
     3
100
AcDbMText
 10
-187.2375000949324
 20
108.8715999999701
 30
0.0
 40
3.5
 41
0.0
 71
     7
 72
     1
  1
7,8
  7
CONVERTER_12
 11
0.9999999999970619
 21
2.424068405545306E-6
 31
0.0
 73
     1
 44
0.60024009603842
  0
ENDBLK
  5
357
330
34D
100
AcDbEntity
  8
0
100
AcDbBlockEnd
  0
BLOCK
  5
39A
330
393
100
AcDbEntity
  8
0
100
AcDbBlockBegin
  2
*D17
 70
     1
 10
0.0
 20
0.0
 30
0.0
  3
*D17
  1

  0
LINE
  5
394
330
393
100
AcDbEntity
  8
1
  6
Continuous
 62
     2
100
AcDbLine
 10
-166.0999983125759
 20
106.5215999999752
 30
0.0
 11
-16.59999831257591
 21
106.5215999999752
 31
0.0
  0
LINE
  5
395
330
393
100
AcDbEntity
  8
1
  6
Continuous
 62
     2
100
AcDbLine
 10
-16.59999831257591
 20
122.2499999999751
 30
0.0
 11
-16.59999831257591
 21
104.5215999999752
 31
0.0
  0
LINE
  5
396
330
393
100
AcDbEntity
  8
1
  6
Continuous
 62
     2
100
AcDbLine
 10
-166.0999983125759
 20
122.2499999999751
 30
0.0
 11
-166.0999983125759
 21
104.5215999999752
 31
0.0
  0
SOLID
  5
397
330
393
100
AcDbEntity
  8
1
 62
     2
100
AcDbTrace
 10
-162.5999983125759
 20
106.9823837415311
 30
0.0
 11
-162.5999983125759
 21
106.0608162584193
 31
0.0
 12
-166.0999983125759
 22
106.5215999999752
 32
0.0
 13
-166.0999983125759
 23
106.5215999999752
 33
0.0
  0
SOLID
  5
398
330
393
100
AcDbEntity
  8
1
 62
     2
100
AcDbTrace
 10
-20.09999831257591
 20
106.0608162584193
 30
0.0
 11
-20.09999831257591
 21
106.9823837415311
 31
0.0
 12
-16.59999831257591
 22
106.5215999999752
 32
0.0
 13
-16.59999831257591
 23
106.5215999999752
 33
0.0
  0
MTEXT
  5
399
330
393
100
AcDbEntity
  8
1
 62
     3
100
AcDbMText
 10
-97.21249831257589
 20
108.8715999999752
 30
0.0
 40
3.5
 41
0.0
 71
     7
 72
     1
  1
149,5
  7
CONVERTER_12
 11
0.9999999999970619
 21
2.424068405545306E-6
 31
0.0
 73
     1
 44
0.60024009603842
  0
ENDBLK
  5
39B
330
393
100
AcDbEntity
  8
0
100
AcDbBlockEnd
  0
BLOCK
  5
3A5
330
39E
100
AcDbEntity
  8
0
100
AcDbBlockBegin
  2
*D18
 70
     1
 10
0.0
 20
0.0
 30
0.0
  3
*D18
  1

  0
LINE
  5
39F
330
39E
100
AcDbEntity
  8
1
  6
Continuous
 62
     2
100
AcDbLine
 10
-6.59999831257585
 20
116.5215999999751
 30
0.0
 11
-6.59999831257585
 21
171.4783999999751
 31
0.0
  0
LINE
  5
3A0
330
39E
100
AcDbEntity
  8
1
  6
Continuous
 62
     2
100
AcDbLine
 10
-22.32839831257582
 20
171.4783999999751
 30
0.0
 11
-4.59999831257585
 21
171.4783999999751
 31
0.0
  0
LINE
  5
3A1
330
39E
100
AcDbEntity
  8
1
  6
Continuous
 62
     2
100
AcDbLine
 10
-22.32839831257582
 20
116.5215999999751
 30
0.0
 11
-4.59999831257585
 21
116.5215999999751
 31
0.0
  0
SOLID
  5
3A2
330
39E
100
AcDbEntity
  8
1
 62
     2
100
AcDbTrace
 10
-7.06078205413174
 20
120.0215999999751
 30
0.0
 11
-6.13921457101996
 21
120.0215999999751
 31
0.0
 12
-6.59999831257585
 22
116.5215999999751
 32
0.0
 13
-6.59999831257585
 23
116.5215999999751
 33
0.0
  0
SOLID
  5
3A3
330
39E
100
AcDbEntity
  8
1
 62
     2
100
AcDbTrace
 10
-6.13921457101997
 20
167.9783999999751
 30
0.0
 11
-7.06078205413174
 21
167.9783999999751
 31
0.0
 12
-6.59999831257585
 22
171.4783999999751
 32
0.0
 13
-6.59999831257585
 23
171.4783999999751
 33
0.0
  0
MTEXT
  5
3A4
330
39E
100
AcDbEntity
  8
1
 62
     3
100
AcDbMText
 10
-8.59999831257585
 20
141.3749999999751
 30
0.0
 40
3.5
 41
0.0
 71
     7
 72
     1
  1
55
  7
CONVERTER_12
 11
0.0
 21
1.0
 31
0.0
 73
     1
 44
0.60024009603842
  0
ENDBLK
  5
3A6
330
39E
100
AcDbEntity
  8
0
100
AcDbBlockEnd
  0
ENDSEC
  0
SECTION
  2
ENTITIES
  0
INSERT
  5
7C
330
1F
100
AcDbEntity
  8
0
100
AcDbBlockReference
  2
A3I
 10
193.0279312587061
 20
-52.4589762915689
 30
0.0
  0
INSERT
  5
7D
330
1F
100
AcDbEntity
  8
0
100
AcDbBlockReference
  2
Drfsicht1
 10
-91.37159800000012
 20
87.447745
 30
0.0
  0
INSERT
  5
7E
330
1F
100
AcDbEntity
  8
0
100
AcDbBlockReference
  2
Rckans1
 10
105.373953
 20
144.0
 30
0.0
  0
INSERT
  5
7F
330
1F
100
AcDbEntity
  8
0
100
AcDbBlockReference
  2
SA_Links1
 10
11.70235409570319
 20
144.0000001484004
 30
0.0
  0
INSERT
  5
80
330
1F
100
AcDbEntity
  8
0
100
AcDbBlockReference
  2
Allg1
 10
99.0000000000006
 20
35.0
 30
0.0
  0
INSERT
  5
81
330
1F
100
AcDbEntity
  8
0
100
AcDbBlockReference
  2
SA_Rechts1
 10
-183.99999999978
 20
143.999999999985
 30
0.0
  0
INSERT
  5
82
330
1F
100
AcDbEntity
  8
0
100
AcDbBlockReference
  2
Vordans1
 10
-91.37159831259066
 20
143.99999999999
 30
0.0
  0
ENDSEC
  0
SECTION
  2
OBJECTS
  0
DICTIONARY
  5
C
330
0
100
AcDbDictionary
281
     1
  3
ACAD_GROUP
350
D
  3
ACAD_LAYOUT
350
1A
  3
ACAD_MATERIAL
350
3B
  3
ACAD_MLEADERSTYLE
350
3AB
  3
ACAD_MLINESTYLE
350
17
  3
ACAD_PLOTSETTINGS
350
19
  3
ACAD_PLOTSTYLENAME
350
E
  3
ACAD_VISUALSTYLE
350
2A
  3
AcDbVariableDictionary
350
3A9
  0
DICTIONARY
  5
D
102
{ACAD_REACTORS
330
C
102
}
330
C
100
AcDbDictionary
281
     1
  0
DICTIONARY
  5
1A
102
{ACAD_REACTORS
330
C
102
}
330
C
100
AcDbDictionary
281
     1
  3
Layout1
350
1E
  3
Layout2
350
26
  3
Model
350
22
  0
DICTIONARY
  5
3B
102
{ACAD_REACTORS
330
C
102
}
330
C
100
AcDbDictionary
281
     1
  3
ByBlock
350
3D
  3
ByLayer
350
3C
  3
Global
350
3E
  0
DICTIONARY
  5
3AB
102
{ACAD_REACTORS
330
C
102
}
330
C
100
AcDbDictionary
281
     1
  0
DICTIONARY
  5
17
102
{ACAD_REACTORS
330
C
102
}
330
C
100
AcDbDictionary
281
     1
  3
Standard
350
18
  0
DICTIONARY
  5
19
102
{ACAD_REACTORS
330
C
102
}
330
C
100
AcDbDictionary
281
     1
  0
ACDBDICTIONARYWDFLT
  5
E
102
{ACAD_REACTORS
330
C
102
}
330
C
100
AcDbDictionary
281
     1
  3
Normal
350
F
100
AcDbDictionaryWithDefault
340
F
  0
DICTIONARY
  5
2A
102
{ACAD_REACTORS
330
C
102
}
330
C
100
AcDbDictionary
281
     1
  3
2dWireframe
350
2F
  3
3D Hidden
350
31
  3
3dWireframe
350
30
  3
Basic
350
32
  3
Brighten
350
36
  3
ColorChange
350
3A
  3
Conceptual
350
34
  3
Dim
350
35
  3
Facepattern
350
39
  3
Flat
350
2B
  3
FlatWithEdges
350
2C
  3
Gouraud
350
2D
  3
GouraudWithEdges
350
2E
  3
Linepattern
350
38
  3
Realistic
350
33
  3
Thicken
350
37
  0
DICTIONARY
  5
3A9
102
{ACAD_REACTORS
330
C
102
}
330
C
100
AcDbDictionary
281
     1
  3
DIMASSOC
350
3AC
  3
HIDETEXT
350
3AD
  0
LAYOUT
  5
1E
102
{ACAD_REACTORS
330
1A
102
}
330
1A
100
AcDbPlotSettings
  1

  2
none_device
  4

  6

 40
0.0
 41
0.0
 42
0.0
 43
0.0
 44
0.0
 45
0.0
 46
0.0
 47
0.0
 48
0.0
 49
0.0
140
0.0
141
0.0
142
1.0
143
1.0
 70
   688
 72
     0
 73
     0
 74
     5
  7

 75
    16
147
1.0
148
0.0
149
0.0
100
AcDbLayout
  1
Layout1
 70
     1
 71
     1
 10
0.0
 20
0.0
 11
12.0
 21
9.0
 12
0.0
 22
0.0
 32
0.0
 14
1.00000000000000E+20
 24
1.00000000000000E+20
 34
1.00000000000000E+20
 15
-1.00000000000000E+20
 25
-1.00000000000000E+20
 35
-1.00000000000000E+20
146
0.0
 13
0.0
 23
0.0
 33
0.0
 16
1.0
 26
0.0
 36
0.0
 17
0.0
 27
1.0
 37
0.0
 76
     0
330
1B
  0
LAYOUT
  5
26
102
{ACAD_REACTORS
330
1A
102
}
330
1A
100
AcDbPlotSettings
  1

  2
none_device
  4

  6

 40
0.0
 41
0.0
 42
0.0
 43
0.0
 44
0.0
 45
0.0
 46
0.0
 47
0.0
 48
0.0
 49
0.0
140
0.0
141
0.0
142
1.0
143
1.0
 70
   688
 72
     0
 73
     0
 74
     5
  7

 75
    16
147
1.0
148
0.0
149
0.0
100
AcDbLayout
  1
Layout2
 70
     1
 71
     2
 10
0.0
 20
0.0
 11
0.0
 21
0.0
 12
0.0
 22
0.0
 32
0.0
 14
0.0
 24
0.0
 34
0.0
 15
0.0
 25
0.0
 35
0.0
146
0.0
 13
0.0
 23
0.0
 33
0.0
 16
1.0
 26
0.0
 36
0.0
 17
0.0
 27
1.0
 37
0.0
 76
     0
330
23
  0
LAYOUT
  5
22
102
{ACAD_REACTORS
330
1A
102
}
330
1A
100
AcDbPlotSettings
  1

  2
none_device
  4

  6

 40
0.0
 41
0.0
 42
0.0
 43
0.0
 44
0.0
 45
0.0
 46
0.0
 47
0.0
 48
0.0
 49
0.0
140
0.0
141
0.0
142
1.0
143
1.0
 70
  1712
 72
     0
 73
     0
 74
     0
  7

 75
     0
147
1.0
148
0.0
149
0.0
100
AcDbLayout
  1
Model
 70
     1
 71
     0
 10
0.0
 20
0.0
 11
12.0
 21
9.0
 12
0.0
 22
0.0
 32
0.0
 14
-221.9720687412947
 24
-52.4589762915689
 34
0.0
 15
198.0279312587037
 25
244.5410237084311
 35
0.0
146
0.0
 13
0.0
 23
0.0
 33
0.0
 16
1.0
 26
0.0
 36
0.0
 17
0.0
 27
1.0
 37
0.0
 76
     0
330
1F
331
29
  0
MATERIAL
  5
3D
102
{ACAD_REACTORS
330
3B
102
}
102
{ACAD_XDICTIONARY
360
3D0
102
}
330
3B
100
AcDbMaterial
  1
ByBlock
  0
MATERIAL
  5
3C
102
{ACAD_REACTORS
330
3B
102
}
102
{ACAD_XDICTIONARY
360
3CE
102
}
330
3B
100
AcDbMaterial
  1
ByLayer
  0
MATERIAL
  5
3E
102
{ACAD_REACTORS
330
3B
102
}
102
{ACAD_XDICTIONARY
360
3D2
102
}
330
3B
100
AcDbMaterial
  1
Global
  0
MLINESTYLE
  5
18
102
{ACAD_REACTORS
330
17
102
}
330
17
100
AcDbMlineStyle
  2
Standard
 70
     0
  3

 62
   256
 51
90.0
 52
90.0
 71
     2
 49
0.5
 62
   256
  6
BYLAYER
 49
-0.5
 62
   256
  6
BYLAYER
  0
ACDBPLACEHOLDER
  5
F
102
{ACAD_REACTORS
330
E
102
}
330
E
  0
VISUALSTYLE
  5
2F
102
{ACAD_REACTORS
330
2A
102
}
102
{ACAD_XDICTIONARY
360
3B6
102
}
330
2A
100
AcDbVisualStyle
  2
2dWireframe
 70
     4
 71
     0
 72
     2
 73
     0
 90
        0
 40
-0.6
 41
-30.0
 62
     5
 63
     7
 74
     1
 91
        4
 64
     7
 65
   257
 75
     1
175
     1
 42
1.0
 92
        0
 66
   257
 43
1.0
 76
     1
 77
     6
 78
     2
 67
     7
 79
     5
170
     0
171
     0
290
     0
174
     0
 93
        1
 44
0.0
173
     0
291
     0
 45
0.0
1001
ACAD
1000
AcDbSavedByObjectVersion
1070
     0
  0
VISUALSTYLE
  5
31
102
{ACAD_REACTORS
330
2A
102
}
102
{ACAD_XDICTIONARY
360
3BA
102
}
330
2A
100
AcDbVisualStyle
  2
3D Hidden
 70
     6
 71
     1
 72
     2
 73
     2
 90
        0
 40
-0.6
 41
-30.0
 62
     5
 63
     7
 74
     2
 91
        2
 64
     7
 65
   257
 75
     2
175
     1
 42
40.0
 92
        0
 66
   257
 43
1.0
 76
     1
 77
     6
 78
     2
 67
     7
 79
     3
170
     0
171
     0
290
     0
174
     0
 93
        1
 44
0.0
173
     0
291
     0
 45
0.0
1001
ACAD
1000
AcDbSavedByObjectVersion
1070
     0
  0
VISUALSTYLE
  5
30
102
{ACAD_REACTORS
330
2A
102
}
102
{ACAD_XDICTIONARY
360
3B8
102
}
330
2A
100
AcDbVisualStyle
  2
3dWireframe
 70
     5
 71
     0
 72
     2
 73
     0
 90
        0
 40
-0.6
 41
-30.0
 62
     5
 63
     7
 74
     1
 91
        4
 64
     7
 65
   257
 75
     1
175
     1
 42
1.0
 92
        0
 66
   257
 43
1.0
 76
     1
 77
     6
 78
     2
 67
     7
 79
     5
170
     0
171
     0
290
     0
174
     0
 93
        1
 44
0.0
173
     0
291
     0
 45
0.0
1001
ACAD
1000
AcDbSavedByObjectVersion
1070
     0
  0
VISUALSTYLE
  5
32
102
{ACAD_REACTORS
330
2A
102
}
102
{ACAD_XDICTIONARY
360
3BC
102
}
330
2A
100
AcDbVisualStyle
  2
Basic
 70
     7
 71
     1
 72
     0
 73
     1
 90
        0
 40
-0.6
 41
-30.0
 62
     5
 63
     7
 74
     0
 91
        4
 64
     7
 65
   257
 75
     1
175
     1
 42
1.0
 92
        8
 66
     7
 43
1.0
 76
     1
 77
     6
 78
     2
 67
     7
 79
     5
170
     0
171
     0
290
     0
174
     0
 93
        1
 44
0.0
173
     0
291
     1
 45
0.0
1001
ACAD
1000
AcDbSavedByObjectVersion
1070
     0
  0
VISUALSTYLE
  5
36
102
{ACAD_REACTORS
330
2A
102
}
102
{ACAD_XDICTIONARY
360
3C4
102
}
330
2A
100
AcDbVisualStyle
  2
Brighten
 70
    12
 71
     2
 72
     2
 73
     0
 90
        0
 40
-0.6
 41
-30.0
 62
     5
 63
     7
 74
     1
 91
        4
 64
     7
 65
   257
 75
     1
175
     1
 42
1.0
 92
        8
 66
     7
 43
1.0
 76
     1
 77
     6
 78
     2
 67
     7
 79
     5
170
     0
171
     0
290
     0
174
     0
 93
        1
 44
50.0
173
     0
291
     1
 45
0.0
1001
ACAD
1000
AcDbSavedByObjectVersion
1070
     0
  0
VISUALSTYLE
  5
3A
102
{ACAD_REACTORS
330
2A
102
}
102
{ACAD_XDICTIONARY
360
3CC
102
}
330
2A
100
AcDbVisualStyle
  2
ColorChange
 70
    16
 71
     2
 72
     2
 73
     3
 90
        0
 40
-0.6
 41
-30.0
 62
     5
 63
     8
 74
     1
 91
        4
 64
     7
 65
   257
 75
     1
175
     1
 42
1.0
 92
        8
 66
     8
 43
1.0
 76
     1
 77
     6
 78
     2
 67
     7
 79
     5
170
     0
171
     0
290
     0
174
     0
 93
        1
 44
0.0
173
     0
291
     1
 45
0.0
1001
ACAD
1000
AcDbSavedByObjectVersion
1070
     0
  0
VISUALSTYLE
  5
34
102
{ACAD_REACTORS
330
2A
102
}
102
{ACAD_XDICTIONARY
360
3C0
102
}
330
2A
100
AcDbVisualStyle
  2
Conceptual
 70
     9
 71
     3
 72
     2
 73
     0
 90
        0
 40
-0.6
 41
-30.0
 62
     5
 63
     7
 74
     2
 91
        2
 64
     7
 65
   257
 75
     1
175
     1
 42
40.0
 92
        8
 66
     7
 43
1.0
 76
     1
 77
     6
 78
     2
 67
     7
 79
     3
170
     0
171
     0
290
     0
174
     0
 93
        1
 44
0.0
173
     0
291
     0
 45
0.0
1001
ACAD
1000
AcDbSavedByObjectVersion
1070
     0
  0
VISUALSTYLE
  5
35
102
{ACAD_REACTORS
330
2A
102
}
102
{ACAD_XDICTIONARY
360
3C2
102
}
330
2A
100
AcDbVisualStyle
  2
Dim
 70
    11
 71
     2
 72
     2
 73
     0
 90
        0
 40
-0.6
 41
-30.0
 62
     5
 63
     7
 74
     1
 91
        4
 64
     7
 65
   257
 75
     1
175
     1
 42
1.0
 92
        8
 66
     7
 43
1.0
 76
     1
 77
     6
 78
     2
 67
     7
 79
     5
170
     0
171
     0
290
     0
174
     0
 93
        1
 44
-50.0
173
     0
291
     1
 45
0.0
1001
ACAD
1000
AcDbSavedByObjectVersion
1070
     0
  0
VISUALSTYLE
  5
39
102
{ACAD_REACTORS
330
2A
102
}
102
{ACAD_XDICTIONARY
360
3CA
102
}
330
2A
100
AcDbVisualStyle
  2
Facepattern
 70
    15
 71
     2
 72
     2
 73
     0
 90
        0
 40
-0.6
 41
-30.0
 62
     5
 63
     7
 74
     1
 91
        4
 64
     7
 65
   257
 75
     1
175
     1
 42
1.0
 92
        8
 66
     7
 43
1.0
 76
     1
 77
     6
 78
     2
 67
     7
 79
     5
170
     0
171
     0
290
     0
174
     0
 93
        1
 44
0.0
173
     0
291
     1
 45
0.0
1001
ACAD
1000
AcDbSavedByObjectVersion
1070
     0
  0
VISUALSTYLE
  5
2B
102
{ACAD_REACTORS
330
2A
102
}
102
{ACAD_XDICTIONARY
360
3AE
102
}
330
2A
100
AcDbVisualStyle
  2
Flat
 70
     0
 71
     2
 72
     1
 73
     1
 90
        2
 40
-0.6
 41
30.0
 62
     5
 63
     7
 74
     0
 91
        4
 64
     7
 65
   257
 75
     1
175
     1
 42
1.0
 92
        8
 66
     7
 43
1.0
 76
     1
 77
     6
 78
     2
 67
     7
 79
     5
170
     0
171
     0
290
     0
174
     0
 93
       13
 44
0.0
173
     0
291
     1
 45
0.0
1001
ACAD
1000
AcDbSavedByObjectVersion
1070
     0
  0
VISUALSTYLE
  5
2C
102
{ACAD_REACTORS
330
2A
102
}
102
{ACAD_XDICTIONARY
360
3B0
102
}
330
2A
100
AcDbVisualStyle
  2
FlatWithEdges
 70
     1
 71
     2
 72
     1
 73
     1
 90
        2
 40
-0.6
 41
30.0
 62
     5
 63
     7
 74
     1
 91
        4
 64
     7
 65
   257
 75
     1
175
     1
 42
1.0
 92
        0
 66
   257
 43
1.0
 76
     1
 77
     6
 78
     2
 67
     7
 79
     5
170
     0
171
     0
290
     0
174
     0
 93
       13
 44
0.0
173
     0
291
     1
 45
0.0
1001
ACAD
1000
AcDbSavedByObjectVersion
1070
     0
  0
VISUALSTYLE
  5
2D
102
{ACAD_REACTORS
330
2A
102
}
102
{ACAD_XDICTIONARY
360
3B2
102
}
330
2A
100
AcDbVisualStyle
  2
Gouraud
 70
     2
 71
     2
 72
     2
 73
     1
 90
        2
 40
-0.6
 41
30.0
 62
     5
 63
     7
 74
     0
 91
        4
 64
     7
 65
   257
 75
     1
175
     1
 42
1.0
 92
        0
 66
     7
 43
1.0
 76
     1
 77
     6
 78
     2
 67
     7
 79
     5
170
     0
171
     0
290
     0
174
     0
 93
       13
 44
0.0
173
     0
291
     1
 45
0.0
1001
ACAD
1000
AcDbSavedByObjectVersion
1070
     0
  0
VISUALSTYLE
  5
2E
102
{ACAD_REACTORS
330
2A
102
}
102
{ACAD_XDICTIONARY
360
3B4
102
}
330
2A
100
AcDbVisualStyle
  2
GouraudWithEdges
 70
     3
 71
     2
 72
     2
 73
     1
 90
        2
 40
-0.6
 41
30.0
 62
     5
 63
     7
 74
     1
 91
        4
 64
     7
 65
   257
 75
     1
175
     1
 42
1.0
 92
        0
 66
   257
 43
1.0
 76
     1
 77
     6
 78
     2
 67
     7
 79
     5
170
     0
171
     0
290
     0
174
     0
 93
       13
 44
0.0
173
     0
291
     1
 45
0.0
1001
ACAD
1000
AcDbSavedByObjectVersion
1070
     0
  0
VISUALSTYLE
  5
38
102
{ACAD_REACTORS
330
2A
102
}
102
{ACAD_XDICTIONARY
360
3C8
102
}
330
2A
100
AcDbVisualStyle
  2
Linepattern
 70
    14
 71
     2
 72
     2
 73
     0
 90
        0
 40
-0.6
 41
-30.0
 62
     5
 63
     7
 74
     1
 91
        4
 64
     7
 65
   257
 75
     7
175
     7
 42
1.0
 92
        8
 66
     7
 43
1.0
 76
     1
 77
     6
 78
     2
 67
     7
 79
     5
170
     0
171
     0
290
     0
174
     0
 93
        1
 44
0.0
173
     0
291
     1
 45
0.0
1001
ACAD
1000
AcDbSavedByObjectVersion
1070
     0
  0
VISUALSTYLE
  5
33
102
{ACAD_REACTORS
330
2A
102
}
102
{ACAD_XDICTIONARY
360
3BE
102
}
330
2A
100
AcDbVisualStyle
  2
Realistic
 70
     8
 71
     2
 72
     2
 73
     0
 90
        0
 40
-0.6
 41
-30.0
 62
     5
 63
     7
 74
     1
 91
        0
 64
     7
 65
   257
 75
     1
175
     1
 42
1.0
 92
        8
 66
     8
 43
1.0
 76
     1
 77
     6
 78
     2
 67
     7
 79
     5
170
     0
171
     0
290
     0
174
     0
 93
       13
 44
0.0
173
     0
291
     0
 45
0.0
1001
ACAD
1000
AcDbSavedByObjectVersion
1070
     0
  0
VISUALSTYLE
  5
37
102
{ACAD_REACTORS
330
2A
102
}
102
{ACAD_XDICTIONARY
360
3C6
102
}
330
2A
100
AcDbVisualStyle
  2
Thicken
 70
    13
 71
     2
 72
     2
 73
     0
 90
        0
 40
-0.6
 41
-30.0
 62
     5
 63
     7
 74
     1
 91
        4
 64
     7
 65
   257
 75
     1
175
     1
 42
1.0
 92
       12
 66
     7
 43
1.0
 76
     1
 77
     6
 78
     2
 67
     7
 79
     5
170
     0
171
     0
290
     0
174
     0
 93
        1
 44
0.0
173
     0
291
     1
 45
0.0
1001
ACAD
1000
AcDbSavedByObjectVersion
1070
     0
  0
DICTIONARYVAR
  5
3AC
102
{ACAD_REACTORS
330
3A9
102
}
330
3A9
100
DictionaryVariables
280
     0
  1
2
  0
DICTIONARYVAR
  5
3AD
102
{ACAD_REACTORS
330
3A9
102
}
330
3A9
100
DictionaryVariables
280
     0
  1
1
  0
DICTIONARY
  5
3D0
330
3D
100
AcDbDictionary
280
     1
281
     1
  3
ACAD_XREC_ROUNDTRIP
360
3D1
  0
DICTIONARY
  5
3CE
330
3C
100
AcDbDictionary
280
     1
281
     1
  3
ACAD_XREC_ROUNDTRIP
360
3CF
  0
DICTIONARY
  5
3D2
330
3E
100
AcDbDictionary
280
     1
281
     1
  3
ACAD_XREC_ROUNDTRIP
360
3D3
  0
DICTIONARY
  5
3B6
330
2F
100
AcDbDictionary
280
     1
281
     1
  3
ACAD_XREC_ROUNDTRIP
360
3B7
  0
DICTIONARY
  5
3BA
330
31
100
AcDbDictionary
280
     1
281
     1
  3
ACAD_XREC_ROUNDTRIP
360
3BB
  0
DICTIONARY
  5
3B8
330
30
100
AcDbDictionary
280
     1
281
     1
  3
ACAD_XREC_ROUNDTRIP
360
3B9
  0
DICTIONARY
  5
3BC
330
32
100
AcDbDictionary
280
     1
281
     1
  3
ACAD_XREC_ROUNDTRIP
360
3BD
  0
DICTIONARY
  5
3C4
330
36
100
AcDbDictionary
280
     1
281
     1
  3
ACAD_XREC_ROUNDTRIP
360
3C5
  0
DICTIONARY
  5
3CC
330
3A
100
AcDbDictionary
280
     1
281
     1
  3
ACAD_XREC_ROUNDTRIP
360
3CD
  0
DICTIONARY
  5
3C0
330
34
100
AcDbDictionary
280
     1
281
     1
  3
ACAD_XREC_ROUNDTRIP
360
3C1
  0
DICTIONARY
  5
3C2
330
35
100
AcDbDictionary
280
     1
281
     1
  3
ACAD_XREC_ROUNDTRIP
360
3C3
  0
DICTIONARY
  5
3CA
330
39
100
AcDbDictionary
280
     1
281
     1
  3
ACAD_XREC_ROUNDTRIP
360
3CB
  0
DICTIONARY
  5
3AE
330
2B
100
AcDbDictionary
280
     1
281
     1
  3
ACAD_XREC_ROUNDTRIP
360
3AF
  0
DICTIONARY
  5
3B0
330
2C
100
AcDbDictionary
280
     1
281
     1
  3
ACAD_XREC_ROUNDTRIP
360
3B1
  0
DICTIONARY
  5
3B2
330
2D
100
AcDbDictionary
280
     1
281
     1
  3
ACAD_XREC_ROUNDTRIP
360
3B3
  0
DICTIONARY
  5
3B4
330
2E
100
AcDbDictionary
280
     1
281
     1
  3
ACAD_XREC_ROUNDTRIP
360
3B5
  0
DICTIONARY
  5
3C8
330
38
100
AcDbDictionary
280
     1
281
     1
  3
ACAD_XREC_ROUNDTRIP
360
3C9
  0
DICTIONARY
  5
3BE
330
33
100
AcDbDictionary
280
     1
281
     1
  3
ACAD_XREC_ROUNDTRIP
360
3BF
  0
DICTIONARY
  5
3C6
330
37
100
AcDbDictionary
280
     1
281
     1
  3
ACAD_XREC_ROUNDTRIP
360
3C7
  0
XRECORD
  5
3D1
102
{ACAD_REACTORS
330
3D0
102
}
330
3D0
100
AcDbXrecord
280
     1
102
MATERIAL
148
0.0
149
0.0
149
0.0
 93
        0
 94
      127
282
     0
 72
     1
 77
     1
171
     1
175
     1
179
     1
273
     0
  0
XRECORD
  5
3CF
102
{ACAD_REACTORS
330
3CE
102
}
330
3CE
100
AcDbXrecord
280
     1
102
MATERIAL
148
0.0
149
0.0
149
0.0
 93
        0
 94
      127
282
     0
 72
     1
 77
     1
171
     1
175
     1
179
     1
273
     0
  0
XRECORD
  5
3D3
102
{ACAD_REACTORS
330
3D2
102
}
330
3D2
100
AcDbXrecord
280
     1
102
MATERIAL
148
0.0
149
0.0
149
0.0
 93
        0
 94
      127
282
     0
 72
     1
 77
     1
171
     1
175
     1
179
     1
273
     0
  0
XRECORD
  5
3B7
102
{ACAD_REACTORS
330
3B6
102
}
330
3B6
100
AcDbXrecord
280
     1
102
RTVSPropertyOp0
 70
     1
102
RTVSPropertyOp1
 70
     1
102
RTVSPropertyOp2
 70
     1
102
RTVSPropertyOp3
 70
     1
102
RTVSPropertyOp4
 70
     1
102
RTVSPropertyOp5
 70
     1
102
RTVSPropertyOp6
 70
     1
102
RTVSPropertyOp7
 70
     1
102
RTVSPropertyOp8
 70
     1
102
RTVSPropertyOp9
 70
     1
102
RTVSPropertyOp10
 70
     1
102
RTVSPropertyOp11
 70
     1
102
RTVSPropertyOp12
 70
     1
102
RTVSPropertyOp13
 70
     1
102
RTVSPropertyOp14
 70
     1
102
RTVSPropertyOp15
 70
     1
102
RTVSPropertyOp16
 70
     1
102
RTVSPropertyOp17
 70
     1
102
RTVSPropertyOp18
 70
     1
102
RTVSPropertyOp19
 70
     1
102
RTVSPropertyOp20
 70
     1
102
RTVSPropertyOp21
 70
     1
102
RTVSPropertyOp22
 70
     1
102
RTVSPropertyOp23
 70
     1
102
RTVSPropertyOp24
 70
     1
102
RTVSPropertyOp25
 70
     1
102
RTVSPropertyOp26
 70
     1
102
RTVSPropertyOp27
 70
     1
102
RTVSPropertyOp28
 70
     1
102
RTVSPropertyOp29
 70
     1
102
RTVSPropertyOp30
 70
     1
102
RTVSPropertyOp31
 70
     1
102
RTVSPropertyOp32
 70
     1
  0
XRECORD
  5
3BB
102
{ACAD_REACTORS
330
3BA
102
}
330
3BA
100
AcDbXrecord
280
     1
102
RTVSPropertyOp0
 70
     1
102
RTVSPropertyOp1
 70
     1
102
RTVSPropertyOp2
 70
     1
102
RTVSPropertyOp3
 70
     1
102
RTVSPropertyOp4
 70
     1
102
RTVSPropertyOp5
 70
     1
102
RTVSPropertyOp6
 70
     1
102
RTVSPropertyOp7
 70
     1
102
RTVSPropertyOp8
 70
     1
102
RTVSPropertyOp9
 70
     1
102
RTVSPropertyOp10
 70
     1
102
RTVSPropertyOp11
 70
     1
102
RTVSPropertyOp12
 70
     1
102
RTVSPropertyOp13
 70
     1
102
RTVSPropertyOp14
 70
     1
102
RTVSPropertyOp15
 70
     1
102
RTVSPropertyOp16
 70
     1
102
RTVSPropertyOp17
 70
     1
102
RTVSPropertyOp18
 70
     1
102
RTVSPropertyOp19
 70
     1
102
RTVSPropertyOp20
 70
     1
102
RTVSPropertyOp21
 70
     1
102
RTVSPropertyOp22
 70
     1
102
RTVSPropertyOp23
 70
     1
102
RTVSPropertyOp24
 70
     1
102
RTVSPropertyOp25
 70
     1
102
RTVSPropertyOp26
 70
     1
102
RTVSPropertyOp27
 70
     1
102
RTVSPropertyOp28
 70
     1
102
RTVSPropertyOp29
 70
     1
102
RTVSPropertyOp30
 70
     1
102
RTVSPropertyOp31
 70
     1
102
RTVSPropertyOp32
 70
     1
  0
XRECORD
  5
3B9
102
{ACAD_REACTORS
330
3B8
102
}
330
3B8
100
AcDbXrecord
280
     1
102
RTVSPropertyOp0
 70
     1
102
RTVSPropertyOp1
 70
     1
102
RTVSPropertyOp2
 70
     1
102
RTVSPropertyOp3
 70
     1
102
RTVSPropertyOp4
 70
     1
102
RTVSPropertyOp5
 70
     1
102
RTVSPropertyOp6
 70
     1
102
RTVSPropertyOp7
 70
     1
102
RTVSPropertyOp8
 70
     1
102
RTVSPropertyOp9
 70
     1
102
RTVSPropertyOp10
 70
     1
102
RTVSPropertyOp11
 70
     1
102
RTVSPropertyOp12
 70
     1
102
RTVSPropertyOp13
 70
     1
102
RTVSPropertyOp14
 70
     1
102
RTVSPropertyOp15
 70
     1
102
RTVSPropertyOp16
 70
     1
102
RTVSPropertyOp17
 70
     1
102
RTVSPropertyOp18
 70
     1
102
RTVSPropertyOp19
 70
     1
102
RTVSPropertyOp20
 70
     1
102
RTVSPropertyOp21
 70
     1
102
RTVSPropertyOp22
 70
     1
102
RTVSPropertyOp23
 70
     1
102
RTVSPropertyOp24
 70
     1
102
RTVSPropertyOp25
 70
     1
102
RTVSPropertyOp26
 70
     1
102
RTVSPropertyOp27
 70
     1
102
RTVSPropertyOp28
 70
     1
102
RTVSPropertyOp29
 70
     1
102
RTVSPropertyOp30
 70
     1
102
RTVSPropertyOp31
 70
     1
102
RTVSPropertyOp32
 70
     1
  0
XRECORD
  5
3BD
102
{ACAD_REACTORS
330
3BC
102
}
330
3BC
100
AcDbXrecord
280
     1
102
RTVSPropertyOp0
 70
     1
102
RTVSPropertyOp1
 70
     1
102
RTVSPropertyOp2
 70
     1
102
RTVSPropertyOp3
 70
     1
102
RTVSPropertyOp4
 70
     1
102
RTVSPropertyOp5
 70
     1
102
RTVSPropertyOp6
 70
     1
102
RTVSPropertyOp7
 70
     1
102
RTVSPropertyOp8
 70
     1
102
RTVSPropertyOp9
 70
     1
102
RTVSPropertyOp10
 70
     1
102
RTVSPropertyOp11
 70
     1
102
RTVSPropertyOp12
 70
     1
102
RTVSPropertyOp13
 70
     1
102
RTVSPropertyOp14
 70
     1
102
RTVSPropertyOp15
 70
     1
102
RTVSPropertyOp16
 70
     1
102
RTVSPropertyOp17
 70
     1
102
RTVSPropertyOp18
 70
     1
102
RTVSPropertyOp19
 70
     1
102
RTVSPropertyOp20
 70
     1
102
RTVSPropertyOp21
 70
     1
102
RTVSPropertyOp22
 70
     1
102
RTVSPropertyOp23
 70
     1
102
RTVSPropertyOp24
 70
     1
102
RTVSPropertyOp25
 70
     1
102
RTVSPropertyOp26
 70
     1
102
RTVSPropertyOp27
 70
     1
102
RTVSPropertyOp28
 70
     1
102
RTVSPropertyOp29
 70
     1
102
RTVSPropertyOp30
 70
     1
102
RTVSPropertyOp31
 70
     1
102
RTVSPropertyOp32
 70
     1
  0
XRECORD
  5
3C5
102
{ACAD_REACTORS
330
3C4
102
}
330
3C4
100
AcDbXrecord
280
     1
102
RTVSPropertyOp0
 70
     1
102
RTVSPropertyOp1
 70
     1
102
RTVSPropertyOp2
 70
     1
102
RTVSPropertyOp3
 70
     1
102
RTVSPropertyOp4
 70
     1
102
RTVSPropertyOp5
 70
     1
102
RTVSPropertyOp6
 70
     1
102
RTVSPropertyOp7
 70
     1
102
RTVSPropertyOp8
 70
     1
102
RTVSPropertyOp9
 70
     1
102
RTVSPropertyOp10
 70
     1
102
RTVSPropertyOp11
 70
     1
102
RTVSPropertyOp12
 70
     1
102
RTVSPropertyOp13
 70
     1
102
RTVSPropertyOp14
 70
     1
102
RTVSPropertyOp15
 70
     1
102
RTVSPropertyOp16
 70
     1
102
RTVSPropertyOp17
 70
     1
102
RTVSPropertyOp18
 70
     1
102
RTVSPropertyOp19
 70
     1
102
RTVSPropertyOp20
 70
     1
102
RTVSPropertyOp21
 70
     1
102
RTVSPropertyOp22
 70
     1
102
RTVSPropertyOp23
 70
     1
102
RTVSPropertyOp24
 70
     1
102
RTVSPropertyOp25
 70
     1
102
RTVSPropertyOp26
 70
     1
102
RTVSPropertyOp27
 70
     1
102
RTVSPropertyOp28
 70
     1
102
RTVSPropertyOp29
 70
     1
102
RTVSPropertyOp30
 70
     1
102
RTVSPropertyOp31
 70
     1
102
RTVSPropertyOp32
 70
     1
  0
XRECORD
  5
3CD
102
{ACAD_REACTORS
330
3CC
102
}
330
3CC
100
AcDbXrecord
280
     1
102
RTVSPropertyOp0
 70
     1
102
RTVSPropertyOp1
 70
     1
102
RTVSPropertyOp2
 70
     1
102
RTVSPropertyOp3
 70
     1
102
RTVSPropertyOp4
 70
     1
102
RTVSPropertyOp5
 70
     1
102
RTVSPropertyOp6
 70
     1
102
RTVSPropertyOp7
 70
     1
102
RTVSPropertyOp8
 70
     1
102
RTVSPropertyOp9
 70
     1
102
RTVSPropertyOp10
 70
     1
102
RTVSPropertyOp11
 70
     1
102
RTVSPropertyOp12
 70
     1
102
RTVSPropertyOp13
 70
     1
102
RTVSPropertyOp14
 70
     1
102
RTVSPropertyOp15
 70
     1
102
RTVSPropertyOp16
 70
     1
102
RTVSPropertyOp17
 70
     1
102
RTVSPropertyOp18
 70
     1
102
RTVSPropertyOp19
 70
     1
102
RTVSPropertyOp20
 70
     1
102
RTVSPropertyOp21
 70
     1
102
RTVSPropertyOp22
 70
     1
102
RTVSPropertyOp23
 70
     1
102
RTVSPropertyOp24
 70
     1
102
RTVSPropertyOp25
 70
     1
102
RTVSPropertyOp26
 70
     1
102
RTVSPropertyOp27
 70
     1
102
RTVSPropertyOp28
 70
     1
102
RTVSPropertyOp29
 70
     1
102
RTVSPropertyOp30
 70
     1
102
RTVSPropertyOp31
 70
     1
102
RTVSPropertyOp32
 70
     1
  0
XRECORD
  5
3C1
102
{ACAD_REACTORS
330
3C0
102
}
330
3C0
100
AcDbXrecord
280
     1
102
RTVSPropertyOp0
 70
     1
102
RTVSPropertyOp1
 70
     1
102
RTVSPropertyOp2
 70
     1
102
RTVSPropertyOp3
 70
     1
102
RTVSPropertyOp4
 70
     1
102
RTVSPropertyOp5
 70
     1
102
RTVSPropertyOp6
 70
     1
102
RTVSPropertyOp7
 70
     1
102
RTVSPropertyOp8
 70
     1
102
RTVSPropertyOp9
 70
     1
102
RTVSPropertyOp10
 70
     1
102
RTVSPropertyOp11
 70
     1
102
RTVSPropertyOp12
 70
     1
102
RTVSPropertyOp13
 70
     1
102
RTVSPropertyOp14
 70
     1
102
RTVSPropertyOp15
 70
     1
102
RTVSPropertyOp16
 70
     1
102
RTVSPropertyOp17
 70
     1
102
RTVSPropertyOp18
 70
     1
102
RTVSPropertyOp19
 70
     1
102
RTVSPropertyOp20
 70
     1
102
RTVSPropertyOp21
 70
     1
102
RTVSPropertyOp22
 70
     1
102
RTVSPropertyOp23
 70
     1
102
RTVSPropertyOp24
 70
     1
102
RTVSPropertyOp25
 70
     1
102
RTVSPropertyOp26
 70
     1
102
RTVSPropertyOp27
 70
     1
102
RTVSPropertyOp28
 70
     1
102
RTVSPropertyOp29
 70
     1
102
RTVSPropertyOp30
 70
     1
102
RTVSPropertyOp31
 70
     1
102
RTVSPropertyOp32
 70
     1
  0
XRECORD
  5
3C3
102
{ACAD_REACTORS
330
3C2
102
}
330
3C2
100
AcDbXrecord
280
     1
102
RTVSPropertyOp0
 70
     1
102
RTVSPropertyOp1
 70
     1
102
RTVSPropertyOp2
 70
     1
102
RTVSPropertyOp3
 70
     1
102
RTVSPropertyOp4
 70
     1
102
RTVSPropertyOp5
 70
     1
102
RTVSPropertyOp6
 70
     1
102
RTVSPropertyOp7
 70
     1
102
RTVSPropertyOp8
 70
     1
102
RTVSPropertyOp9
 70
     1
102
RTVSPropertyOp10
 70
     1
102
RTVSPropertyOp11
 70
     1
102
RTVSPropertyOp12
 70
     1
102
RTVSPropertyOp13
 70
     1
102
RTVSPropertyOp14
 70
     1
102
RTVSPropertyOp15
 70
     1
102
RTVSPropertyOp16
 70
     1
102
RTVSPropertyOp17
 70
     1
102
RTVSPropertyOp18
 70
     1
102
RTVSPropertyOp19
 70
     1
102
RTVSPropertyOp20
 70
     1
102
RTVSPropertyOp21
 70
     1
102
RTVSPropertyOp22
 70
     1
102
RTVSPropertyOp23
 70
     1
102
RTVSPropertyOp24
 70
     1
102
RTVSPropertyOp25
 70
     1
102
RTVSPropertyOp26
 70
     1
102
RTVSPropertyOp27
 70
     1
102
RTVSPropertyOp28
 70
     1
102
RTVSPropertyOp29
 70
     1
102
RTVSPropertyOp30
 70
     1
102
RTVSPropertyOp31
 70
     1
102
RTVSPropertyOp32
 70
     1
  0
XRECORD
  5
3CB
102
{ACAD_REACTORS
330
3CA
102
}
330
3CA
100
AcDbXrecord
280
     1
102
RTVSPropertyOp0
 70
     1
102
RTVSPropertyOp1
 70
     1
102
RTVSPropertyOp2
 70
     1
102
RTVSPropertyOp3
 70
     1
102
RTVSPropertyOp4
 70
     1
102
RTVSPropertyOp5
 70
     1
102
RTVSPropertyOp6
 70
     1
102
RTVSPropertyOp7
 70
     1
102
RTVSPropertyOp8
 70
     1
102
RTVSPropertyOp9
 70
     1
102
RTVSPropertyOp10
 70
     1
102
RTVSPropertyOp11
 70
     1
102
RTVSPropertyOp12
 70
     1
102
RTVSPropertyOp13
 70
     1
102
RTVSPropertyOp14
 70
     1
102
RTVSPropertyOp15
 70
     1
102
RTVSPropertyOp16
 70
     1
102
RTVSPropertyOp17
 70
     1
102
RTVSPropertyOp18
 70
     1
102
RTVSPropertyOp19
 70
     1
102
RTVSPropertyOp20
 70
     1
102
RTVSPropertyOp21
 70
     1
102
RTVSPropertyOp22
 70
     1
102
RTVSPropertyOp23
 70
     1
102
RTVSPropertyOp24
 70
     1
102
RTVSPropertyOp25
 70
     1
102
RTVSPropertyOp26
 70
     1
102
RTVSPropertyOp27
 70
     1
102
RTVSPropertyOp28
 70
     1
102
RTVSPropertyOp29
 70
     1
102
RTVSPropertyOp30
 70
     1
102
RTVSPropertyOp31
 70
     1
102
RTVSPropertyOp32
 70
     1
  0
XRECORD
  5
3AF
102
{ACAD_REACTORS
330
3AE
102
}
330
3AE
100
AcDbXrecord
280
     1
102
RTVSPropertyOp0
 70
     1
102
RTVSPropertyOp1
 70
     1
102
RTVSPropertyOp2
 70
     1
102
RTVSPropertyOp3
 70
     1
102
RTVSPropertyOp4
 70
     1
102
RTVSPropertyOp5
 70
     1
102
RTVSPropertyOp6
 70
     1
102
RTVSPropertyOp7
 70
     1
102
RTVSPropertyOp8
 70
     1
102
RTVSPropertyOp9
 70
     1
102
RTVSPropertyOp10
 70
     1
102
RTVSPropertyOp11
 70
     1
102
RTVSPropertyOp12
 70
     1
102
RTVSPropertyOp13
 70
     1
102
RTVSPropertyOp14
 70
     1
102
RTVSPropertyOp15
 70
     1
102
RTVSPropertyOp16
 70
     1
102
RTVSPropertyOp17
 70
     1
102
RTVSPropertyOp18
 70
     1
102
RTVSPropertyOp19
 70
     1
102
RTVSPropertyOp20
 70
     1
102
RTVSPropertyOp21
 70
     1
102
RTVSPropertyOp22
 70
     1
102
RTVSPropertyOp23
 70
     1
102
RTVSPropertyOp24
 70
     1
102
RTVSPropertyOp25
 70
     1
102
RTVSPropertyOp26
 70
     1
102
RTVSPropertyOp27
 70
     1
102
RTVSPropertyOp28
 70
     1
102
RTVSPropertyOp29
 70
     1
102
RTVSPropertyOp30
 70
     1
102
RTVSPropertyOp31
 70
     1
102
RTVSPropertyOp32
 70
     1
  0
XRECORD
  5
3B1
102
{ACAD_REACTORS
330
3B0
102
}
330
3B0
100
AcDbXrecord
280
     1
102
RTVSPropertyOp0
 70
     1
102
RTVSPropertyOp1
 70
     1
102
RTVSPropertyOp2
 70
     1
102
RTVSPropertyOp3
 70
     1
102
RTVSPropertyOp4
 70
     1
102
RTVSPropertyOp5
 70
     1
102
RTVSPropertyOp6
 70
     1
102
RTVSPropertyOp7
 70
     1
102
RTVSPropertyOp8
 70
     1
102
RTVSPropertyOp9
 70
     1
102
RTVSPropertyOp10
 70
     1
102
RTVSPropertyOp11
 70
     1
102
RTVSPropertyOp12
 70
     1
102
RTVSPropertyOp13
 70
     1
102
RTVSPropertyOp14
 70
     1
102
RTVSPropertyOp15
 70
     1
102
RTVSPropertyOp16
 70
     1
102
RTVSPropertyOp17
 70
     1
102
RTVSPropertyOp18
 70
     1
102
RTVSPropertyOp19
 70
     1
102
RTVSPropertyOp20
 70
     1
102
RTVSPropertyOp21
 70
     1
102
RTVSPropertyOp22
 70
     1
102
RTVSPropertyOp23
 70
     1
102
RTVSPropertyOp24
 70
     1
102
RTVSPropertyOp25
 70
     1
102
RTVSPropertyOp26
 70
     1
102
RTVSPropertyOp27
 70
     1
102
RTVSPropertyOp28
 70
     1
102
RTVSPropertyOp29
 70
     1
102
RTVSPropertyOp30
 70
     1
102
RTVSPropertyOp31
 70
     1
102
RTVSPropertyOp32
 70
     1
  0
XRECORD
  5
3B3
102
{ACAD_REACTORS
330
3B2
102
}
330
3B2
100
AcDbXrecord
280
     1
102
RTVSPropertyOp0
 70
     1
102
RTVSPropertyOp1
 70
     1
102
RTVSPropertyOp2
 70
     1
102
RTVSPropertyOp3
 70
     1
102
RTVSPropertyOp4
 70
     1
102
RTVSPropertyOp5
 70
     1
102
RTVSPropertyOp6
 70
     1
102
RTVSPropertyOp7
 70
     1
102
RTVSPropertyOp8
 70
     1
102
RTVSPropertyOp9
 70
     1
102
RTVSPropertyOp10
 70
     1
102
RTVSPropertyOp11
 70
     1
102
RTVSPropertyOp12
 70
     1
102
RTVSPropertyOp13
 70
     1
102
RTVSPropertyOp14
 70
     1
102
RTVSPropertyOp15
 70
     1
102
RTVSPropertyOp16
 70
     1
102
RTVSPropertyOp17
 70
     1
102
RTVSPropertyOp18
 70
     1
102
RTVSPropertyOp19
 70
     1
102
RTVSPropertyOp20
 70
     1
102
RTVSPropertyOp21
 70
     1
102
RTVSPropertyOp22
 70
     1
102
RTVSPropertyOp23
 70
     1
102
RTVSPropertyOp24
 70
     1
102
RTVSPropertyOp25
 70
     1
102
RTVSPropertyOp26
 70
     1
102
RTVSPropertyOp27
 70
     1
102
RTVSPropertyOp28
 70
     1
102
RTVSPropertyOp29
 70
     1
102
RTVSPropertyOp30
 70
     1
102
RTVSPropertyOp31
 70
     1
102
RTVSPropertyOp32
 70
     1
  0
XRECORD
  5
3B5
102
{ACAD_REACTORS
330
3B4
102
}
330
3B4
100
AcDbXrecord
280
     1
102
RTVSPropertyOp0
 70
     1
102
RTVSPropertyOp1
 70
     1
102
RTVSPropertyOp2
 70
     1
102
RTVSPropertyOp3
 70
     1
102
RTVSPropertyOp4
 70
     1
102
RTVSPropertyOp5
 70
     1
102
RTVSPropertyOp6
 70
     1
102
RTVSPropertyOp7
 70
     1
102
RTVSPropertyOp8
 70
     1
102
RTVSPropertyOp9
 70
     1
102
RTVSPropertyOp10
 70
     1
102
RTVSPropertyOp11
 70
     1
102
RTVSPropertyOp12
 70
     1
102
RTVSPropertyOp13
 70
     1
102
RTVSPropertyOp14
 70
     1
102
RTVSPropertyOp15
 70
     1
102
RTVSPropertyOp16
 70
     1
102
RTVSPropertyOp17
 70
     1
102
RTVSPropertyOp18
 70
     1
102
RTVSPropertyOp19
 70
     1
102
RTVSPropertyOp20
 70
     1
102
RTVSPropertyOp21
 70
     1
102
RTVSPropertyOp22
 70
     1
102
RTVSPropertyOp23
 70
     1
102
RTVSPropertyOp24
 70
     1
102
RTVSPropertyOp25
 70
     1
102
RTVSPropertyOp26
 70
     1
102
RTVSPropertyOp27
 70
     1
102
RTVSPropertyOp28
 70
     1
102
RTVSPropertyOp29
 70
     1
102
RTVSPropertyOp30
 70
     1
102
RTVSPropertyOp31
 70
     1
102
RTVSPropertyOp32
 70
     1
  0
XRECORD
  5
3C9
102
{ACAD_REACTORS
330
3C8
102
}
330
3C8
100
AcDbXrecord
280
     1
102
RTVSPropertyOp0
 70
     1
102
RTVSPropertyOp1
 70
     1
102
RTVSPropertyOp2
 70
     1
102
RTVSPropertyOp3
 70
     1
102
RTVSPropertyOp4
 70
     1
102
RTVSPropertyOp5
 70
     1
102
RTVSPropertyOp6
 70
     1
102
RTVSPropertyOp7
 70
     1
102
RTVSPropertyOp8
 70
     1
102
RTVSPropertyOp9
 70
     1
102
RTVSPropertyOp10
 70
     1
102
RTVSPropertyOp11
 70
     1
102
RTVSPropertyOp12
 70
     1
102
RTVSPropertyOp13
 70
     1
102
RTVSPropertyOp14
 70
     1
102
RTVSPropertyOp15
 70
     1
102
RTVSPropertyOp16
 70
     1
102
RTVSPropertyOp17
 70
     1
102
RTVSPropertyOp18
 70
     1
102
RTVSPropertyOp19
 70
     1
102
RTVSPropertyOp20
 70
     1
102
RTVSPropertyOp21
 70
     1
102
RTVSPropertyOp22
 70
     1
102
RTVSPropertyOp23
 70
     1
102
RTVSPropertyOp24
 70
     1
102
RTVSPropertyOp25
 70
     1
102
RTVSPropertyOp26
 70
     1
102
RTVSPropertyOp27
 70
     1
102
RTVSPropertyOp28
 70
     1
102
RTVSPropertyOp29
 70
     1
102
RTVSPropertyOp30
 70
     1
102
RTVSPropertyOp31
 70
     1
102
RTVSPropertyOp32
 70
     1
  0
XRECORD
  5
3BF
102
{ACAD_REACTORS
330
3BE
102
}
330
3BE
100
AcDbXrecord
280
     1
102
RTVSPropertyOp0
 70
     1
102
RTVSPropertyOp1
 70
     1
102
RTVSPropertyOp2
 70
     1
102
RTVSPropertyOp3
 70
     1
102
RTVSPropertyOp4
 70
     1
102
RTVSPropertyOp5
 70
     1
102
RTVSPropertyOp6
 70
     1
102
RTVSPropertyOp7
 70
     1
102
RTVSPropertyOp8
 70
     1
102
RTVSPropertyOp9
 70
     1
102
RTVSPropertyOp10
 70
     1
102
RTVSPropertyOp11
 70
     1
102
RTVSPropertyOp12
 70
     1
102
RTVSPropertyOp13
 70
     1
102
RTVSPropertyOp14
 70
     1
102
RTVSPropertyOp15
 70
     1
102
RTVSPropertyOp16
 70
     1
102
RTVSPropertyOp17
 70
     1
102
RTVSPropertyOp18
 70
     1
102
RTVSPropertyOp19
 70
     1
102
RTVSPropertyOp20
 70
     1
102
RTVSPropertyOp21
 70
     1
102
RTVSPropertyOp22
 70
     1
102
RTVSPropertyOp23
 70
     1
102
RTVSPropertyOp24
 70
     1
102
RTVSPropertyOp25
 70
     1
102
RTVSPropertyOp26
 70
     1
102
RTVSPropertyOp27
 70
     1
102
RTVSPropertyOp28
 70
     1
102
RTVSPropertyOp29
 70
     1
102
RTVSPropertyOp30
 70
     1
102
RTVSPropertyOp31
 70
     1
102
RTVSPropertyOp32
 70
     1
  0
XRECORD
  5
3C7
102
{ACAD_REACTORS
330
3C6
102
}
330
3C6
100
AcDbXrecord
280
     1
102
RTVSPropertyOp0
 70
     1
102
RTVSPropertyOp1
 70
     1
102
RTVSPropertyOp2
 70
     1
102
RTVSPropertyOp3
 70
     1
102
RTVSPropertyOp4
 70
     1
102
RTVSPropertyOp5
 70
     1
102
RTVSPropertyOp6
 70
     1
102
RTVSPropertyOp7
 70
     1
102
RTVSPropertyOp8
 70
     1
102
RTVSPropertyOp9
 70
     1
102
RTVSPropertyOp10
 70
     1
102
RTVSPropertyOp11
 70
     1
102
RTVSPropertyOp12
 70
     1
102
RTVSPropertyOp13
 70
     1
102
RTVSPropertyOp14
 70
     1
102
RTVSPropertyOp15
 70
     1
102
RTVSPropertyOp16
 70
     1
102
RTVSPropertyOp17
 70
     1
102
RTVSPropertyOp18
 70
     1
102
RTVSPropertyOp19
 70
     1
102
RTVSPropertyOp20
 70
     1
102
RTVSPropertyOp21
 70
     1
102
RTVSPropertyOp22
 70
     1
102
RTVSPropertyOp23
 70
     1
102
RTVSPropertyOp24
 70
     1
102
RTVSPropertyOp25
 70
     1
102
RTVSPropertyOp26
 70
     1
102
RTVSPropertyOp27
 70
     1
102
RTVSPropertyOp28
 70
     1
102
RTVSPropertyOp29
 70
     1
102
RTVSPropertyOp30
 70
     1
102
RTVSPropertyOp31
 70
     1
102
RTVSPropertyOp32
 70
     1
  0
ENDSEC
  0
EOF
