  0
SECTION
  2
HEADER
  9
$ACADVER
  1
AC1015
  9
$ACADMAINTVER
 70
     6
  9
$DWGCODEPAGE
  3
ANSI_1252
  9
$INSBASE
 10
0.0
 20
0.0
 30
0.0
  9
$EXTMIN
 10
-284.0252818251167
 20
-55.4007317048217
 30
0.0
  9
$EXTMAX
 10
135.9747181748817
 20
241.5992682951783
 30
0.0
  9
$LIMMIN
 10
0.0
 20
0.0
  9
$LIMMAX
 10
12.0
 20
9.0
  9
$ORTHOMODE
 70
     0
  9
$REGENMODE
 70
     1
  9
$FILLMODE
 70
     1
  9
$QTEXTMODE
 70
     0
  9
$MIRRTEXT
 70
     1
  9
$LTSCALE
 40
1.0
  9
$ATTMODE
 70
     1
  9
$TEXTSIZE
 40
0.2
  9
$TRACEWID
 40
0.05
  9
$TEXTSTYLE
  7
Standard
  9
$CLAYER
  8
0
  9
$CELTYPE
  6
ByLayer
  9
$CECOLOR
 62
   256
  9
$CELTSCALE
 40
1.0
  9
$DISPSILH
 70
     0
  9
$DIMSCALE
 40
1.0
  9
$DIMASZ
 40
0.18
  9
$DIMEXO
 40
0.0625
  9
$DIMDLI
 40
0.38
  9
$DIMRND
 40
0.0
  9
$DIMDLE
 40
0.0
  9
$DIMEXE
 40
0.18
  9
$DIMTP
 40
0.0
  9
$DIMTM
 40
0.0
  9
$DIMTXT
 40
0.18
  9
$DIMCEN
 40
0.09
  9
$DIMTSZ
 40
0.0
  9
$DIMTOL
 70
     0
  9
$DIMLIM
 70
     0
  9
$DIMTIH
 70
     1
  9
$DIMTOH
 70
     1
  9
$DIMSE1
 70
     0
  9
$DIMSE2
 70
     0
  9
$DIMTAD
 70
     0
  9
$DIMZIN
 70
     0
  9
$DIMBLK
  1

  9
$DIMASO
 70
     1
  9
$DIMSHO
 70
     1
  9
$DIMPOST
  1

  9
$DIMAPOST
  1

  9
$DIMALT
 70
     0
  9
$DIMALTD
 70
     2
  9
$DIMALTF
 40
25.4
  9
$DIMLFAC
 40
1.0
  9
$DIMTOFL
 70
     0
  9
$DIMTVP
 40
0.0
  9
$DIMTIX
 70
     0
  9
$DIMSOXD
 70
     0
  9
$DIMSAH
 70
     0
  9
$DIMBLK1
  1

  9
$DIMBLK2
  1

  9
$DIMSTYLE
  2
Standard
  9
$DIMCLRD
 70
     0
  9
$DIMCLRE
 70
     0
  9
$DIMCLRT
 70
     0
  9
$DIMTFAC
 40
1.0
  9
$DIMGAP
 40
0.09
  9
$DIMJUST
 70
     0
  9
$DIMSD1
 70
     0
  9
$DIMSD2
 70
     0
  9
$DIMTOLJ
 70
     1
  9
$DIMTZIN
 70
     0
  9
$DIMALTZ
 70
     0
  9
$DIMALTTZ
 70
     0
  9
$DIMUPT
 70
     0
  9
$DIMDEC
 70
     4
  9
$DIMTDEC
 70
     4
  9
$DIMALTU
 70
     2
  9
$DIMALTTD
 70
     2
  9
$DIMTXSTY
  7
Standard
  9
$DIMAUNIT
 70
     0
  9
$DIMADEC
 70
     0
  9
$DIMALTRND
 40
0.0
  9
$DIMAZIN
 70
     0
  9
$DIMDSEP
 70
    46
  9
$DIMATFIT
 70
     3
  9
$DIMFRAC
 70
     0
  9
$DIMLDRBLK
  1

  9
$DIMLUNIT
 70
     2
  9
$DIMLWD
 70
    -2
  9
$DIMLWE
 70
    -2
  9
$DIMTMOVE
 70
     0
  9
$LUNITS
 70
     2
  9
$LUPREC
 70
     4
  9
$SKETCHINC
 40
0.1
  9
$FILLETRAD
 40
0.5
  9
$AUNITS
 70
     0
  9
$AUPREC
 70
     0
  9
$MENU
  1
.
  9
$ELEVATION
 40
0.0
  9
$PELEVATION
 40
0.0
  9
$THICKNESS
 40
0.0
  9
$LIMCHECK
 70
     0
  9
$CHAMFERA
 40
0.5
  9
$CHAMFERB
 40
0.5
  9
$CHAMFERC
 40
1.0
  9
$CHAMFERD
 40
0.0
  9
$SKPOLY
 70
     0
  9
$TDCREATE
 40
2456392.489980833
  9
$TDUCREATE
 40
2456392.4066475
  9
$TDUPDATE
 40
2456392.489982581
  9
$TDUUPDATE
 40
2456392.406649248
  9
$TDINDWG
 40
0.0000000116
  9
$TDUSRTIMER
 40
0.0000000116
  9
$USRTIMER
 70
     1
  9
$ANGBASE
 50
0.0
  9
$ANGDIR
 70
     0
  9
$PDMODE
 70
     0
  9
$PDSIZE
 40
0.0
  9
$PLINEWID
 40
0.0
  9
$SPLFRAME
 70
     0
  9
$SPLINETYPE
 70
     6
  9
$SPLINESEGS
 70
     8
  9
$HANDSEED
  5
3D4
  9
$SURFTAB1
 70
     6
  9
$SURFTAB2
 70
     6
  9
$SURFTYPE
 70
     6
  9
$SURFU
 70
     6
  9
$SURFV
 70
     6
  9
$UCSBASE
  2

  9
$UCSNAME
  2

  9
$UCSORG
 10
0.0
 20
0.0
 30
0.0
  9
$UCSXDIR
 10
1.0
 20
0.0
 30
0.0
  9
$UCSYDIR
 10
0.0
 20
1.0
 30
0.0
  9
$UCSORTHOREF
  2

  9
$UCSORTHOVIEW
 70
     0
  9
$UCSORGTOP
 10
0.0
 20
0.0
 30
0.0
  9
$UCSORGBOTTOM
 10
0.0
 20
0.0
 30
0.0
  9
$UCSORGLEFT
 10
0.0
 20
0.0
 30
0.0
  9
$UCSORGRIGHT
 10
0.0
 20
0.0
 30
0.0
  9
$UCSORGFRONT
 10
0.0
 20
0.0
 30
0.0
  9
$UCSORGBACK
 10
0.0
 20
0.0
 30
0.0
  9
$PUCSBASE
  2

  9
$PUCSNAME
  2

  9
$PUCSORG
 10
0.0
 20
0.0
 30
0.0
  9
$PUCSXDIR
 10
1.0
 20
0.0
 30
0.0
  9
$PUCSYDIR
 10
0.0
 20
1.0
 30
0.0
  9
$PUCSORTHOREF
  2

  9
$PUCSORTHOVIEW
 70
     0
  9
$PUCSORGTOP
 10
0.0
 20
0.0
 30
0.0
  9
$PUCSORGBOTTOM
 10
0.0
 20
0.0
 30
0.0
  9
$PUCSORGLEFT
 10
0.0
 20
0.0
 30
0.0
  9
$PUCSORGRIGHT
 10
0.0
 20
0.0
 30
0.0
  9
$PUCSORGFRONT
 10
0.0
 20
0.0
 30
0.0
  9
$PUCSORGBACK
 10
0.0
 20
0.0
 30
0.0
  9
$USERI1
 70
     0
  9
$USERI2
 70
     0
  9
$USERI3
 70
     0
  9
$USERI4
 70
     0
  9
$USERI5
 70
     0
  9
$USERR1
 40
18.1
  9
$USERR2
 40
0.0
  9
$USERR3
 40
0.0
  9
$USERR4
 40
0.0
  9
$USERR5
 40
0.0
  9
$WORLDVIEW
 70
     1
  9
$SHADEDGE
 70
     3
  9
$SHADEDIF
 70
    70
  9
$TILEMODE
 70
     1
  9
$MAXACTVP
 70
    64
  9
$PINSBASE
 10
0.0
 20
0.0
 30
0.0
  9
$PLIMCHECK
 70
     0
  9
$PEXTMIN
 10
1.00000000000000E+20
 20
1.00000000000000E+20
 30
1.00000000000000E+20
  9
$PEXTMAX
 10
-1.00000000000000E+20
 20
-1.00000000000000E+20
 30
-1.00000000000000E+20
  9
$PLIMMIN
 10
0.0
 20
0.0
  9
$PLIMMAX
 10
12.0
 20
9.0
  9
$UNITMODE
 70
     0
  9
$VISRETAIN
 70
     1
  9
$PLINEGEN
 70
     0
  9
$PSLTSCALE
 70
     1
  9
$TREEDEPTH
 70
  3020
  9
$CMLSTYLE
  2
Standard
  9
$CMLJUST
 70
     0
  9
$CMLSCALE
 40
1.0
  9
$PROXYGRAPHICS
 70
     1
  9
$MEASUREMENT
 70
     1
  9
$CELWEIGHT
370
    -1
  9
$ENDCAPS
280
     0
  9
$JOINSTYLE
280
     0
  9
$LWDISPLAY
290
     0
  9
$INSUNITS
 70
     4
  9
$HYPERLINKBASE
  1

  9
$STYLESHEET
  1

  9
$XEDIT
290
     1
  9
$CEPSNTYPE
380
     0
  9
$PSTYLEMODE
290
     1
  9
$FINGERPRINTGUID
  2
{DC9C41B7-AE48-4217-81A8-9042914F43A9}
  9
$VERSIONGUID
  2
{FAEB1C32-E019-11D5-929B-00C0DF256EC4}
  9
$EXTNAMES
290
     1
  9
$PSVPSCALE
 40
0.0
  9
$OLESTARTUP
290
     0
  0
ENDSEC
  0
SECTION
  2
CLASSES
  0
CLASS
  1
ACDBDICTIONARYWDFLT
  2
AcDbDictionaryWithDefault
  3
ObjectDBX Classes
 90
        0
280
     0
281
     0
  0
CLASS
  1
VISUALSTYLE
  2
AcDbVisualStyle
  3
ObjectDBX Classes
 90
     4095
280
     0
281
     0
  0
CLASS
  1
MATERIAL
  2
AcDbMaterial
  3
ObjectDBX Classes
 90
     1153
280
     0
281
     0
  0
CLASS
  1
DICTIONARYVAR
  2
AcDbDictionaryVar
  3
ObjectDBX Classes
 90
        0
280
     0
281
     0
  0
CLASS
  1
ACDBPLACEHOLDER
  2
AcDbPlaceHolder
  3
ObjectDBX Classes
 90
        0
280
     0
281
     0
  0
CLASS
  1
LAYOUT
  2
AcDbLayout
  3
ObjectDBX Classes
 90
        0
280
     0
281
     0
  0
ENDSEC
  0
SECTION
  2
TABLES
  0
TABLE
  2
VPORT
  5
8
330
0
100
AcDbSymbolTable
 70
     1
  0
VPORT
  5
29
330
8
100
AcDbSymbolTableRecord
100
AcDbViewportTableRecord
  2
*Active
 70
     0
 10
0.0
 20
0.0
 11
1.0
 21
1.0
 12
-74.02528182511749
 22
93.09926829517829
 13
0.0
 23
0.0
 14
0.5
 24
0.5
 15
0.5
 25
0.5
 16
0.0
 26
0.0
 36
1.0
 17
0.0
 27
0.0
 37
0.0
 40
326.7
 41
1.60267857142857
 42
50.0
 43
0.0
 44
0.0
 50
0.0
 51
0.0
 71
     0
 72
   100
 73
     1
 74
     3
 75
     0
 76
     0
 77
     0
 78
     0
281
     0
 65
     1
110
0.0
120
0.0
130
0.0
111
1.0
121
0.0
131
0.0
112
0.0
122
1.0
132
0.0
 79
     0
146
0.0
  0
ENDTAB
  0
TABLE
  2
LTYPE
  5
5
330
0
100
AcDbSymbolTable
 70
     8
  0
LTYPE
  5
14
330
5
100
AcDbSymbolTableRecord
100
AcDbLinetypeTableRecord
  2
ByBlock
 70
     0
  3

 72
    65
 73
     0
 40
0.0
  0
LTYPE
  5
15
330
5
100
AcDbSymbolTableRecord
100
AcDbLinetypeTableRecord
  2
ByLayer
 70
     0
  3

 72
    65
 73
     0
 40
0.0
  0
LTYPE
  5
16
330
5
100
AcDbSymbolTableRecord
100
AcDbLinetypeTableRecord
  2
Continuous
 70
     0
  3
Solid line
 72
    65
 73
     0
 40
0.0
  0
LTYPE
  5
3F
330
5
100
AcDbSymbolTableRecord
100
AcDbLinetypeTableRecord
  2
DASHED
 70
     0
  3
Dashed
 72
    65
 73
     2
 40
15.0
 49
7.0
 74
     0
 49
-8.0
 74
     0
  0
LTYPE
  5
40
330
5
100
AcDbSymbolTableRecord
100
AcDbLinetypeTableRecord
  2
DOTTED
 70
     0
  3
Dotted
 72
    65
 73
     2
 40
1.0
 49
0.0
 74
     0
 49
-1.0
 74
     0
  0
LTYPE
  5
41
330
5
100
AcDbSymbolTableRecord
100
AcDbLinetypeTableRecord
  2
DOT_CENTER
 70
     0
  3
Dot_Center
 72
    65
 73
     4
 40
14.0
 49
12.0
 74
     0
 49
-1.0
 74
     0
 49
0.0
 74
     0
 49
-1.0
 74
     0
  0
LTYPE
  5
42
330
5
100
AcDbSymbolTableRecord
100
AcDbLinetypeTableRecord
  2
LONG_DASHED
 70
     0
  3
Long_Dashed
 72
    65
 73
     2
 40
15.0
 49
10.0
 74
     0
 49
-5.0
 74
     0
  0
LTYPE
  5
43
330
5
100
AcDbSymbolTableRecord
100
AcDbLinetypeTableRecord
  2
DASH_CENTER
 70
     0
  3
Dash_Center
 72
    65
 73
     4
 40
14.0
 49
11.0
 74
     0
 49
-1.0
 74
     0
 49
1.0
 74
     0
 49
-1.0
 74
     0
  0
LTYPE
  5
44
330
5
100
AcDbSymbolTableRecord
100
AcDbLinetypeTableRecord
  2
PHANTOM
 70
     0
  3
Phantom
 72
    65
 73
     6
 40
13.0
 49
10.0
 74
     0
 49
-1.0
 74
     0
 49
0.0
 74
     0
 49
-1.0
 74
     0
 49
0.0
 74
     0
 49
-1.0
 74
     0
  0
LTYPE
  5
45
330
5
100
AcDbSymbolTableRecord
100
AcDbLinetypeTableRecord
  2
CENTER_DASH_DASH
 70
     0
  3
Center_Dash_Dash
 72
    65
 73
     6
 40
14.0
 49
9.0
 74
     0
 49
-1.0
 74
     0
 49
1.0
 74
     0
 49
-1.0
 74
     0
 49
1.0
 74
     0
 49
-1.0
 74
     0
  0
ENDTAB
  0
TABLE
  2
LAYER
  5
2
330
0
100
AcDbSymbolTable
 70
     2
  0
LAYER
  5
10
330
2
100
AcDbSymbolTableRecord
100
AcDbLayerTableRecord
  2
0
 70
     0
 62
     7
  6
Continuous
370
    -3
390
F
  0
LAYER
  5
46
330
2
100
AcDbSymbolTableRecord
100
AcDbLayerTableRecord
  2
1
 70
     0
 62
     7
  6
Continuous
370
    -3
390
F
  0
ENDTAB
  0
TABLE
  2
STYLE
  5
3
330
0
100
AcDbSymbolTable
 70
     9
  0
STYLE
  5
11
330
3
100
AcDbSymbolTableRecord
100
AcDbTextStyleTableRecord
  2
Standard
 70
     0
 40
0.0
 41
1.0
 50
0.0
 71
     0
 42
0.2
  3
txt
  4

  0
STYLE
  5
20C
330
3
100
AcDbSymbolTableRecord
100
AcDbTextStyleTableRecord
  2
CONVERTER_11
 70
     0
 40
0.0
 41
0.765
 50
0.0
 71
     0
 42
0.2
  3
txt.shx
  4

  0
STYLE
  5
213
330
3
100
AcDbSymbolTableRecord
100
AcDbTextStyleTableRecord
  2
CONVERTER_12
 70
     0
 40
0.0
 41
0.9
 50
0.0
 71
     0
 42
0.2
  3
txt.shx
  4

  0
STYLE
  5
234
330
3
100
AcDbSymbolTableRecord
100
AcDbTextStyleTableRecord
  2
CONVERTER_13
 70
     0
 40
0.0
 41
0.855
 50
0.0
 71
     0
 42
0.2
  3
txt.shx
  4

  0
STYLE
  5
250
330
3
100
AcDbSymbolTableRecord
100
AcDbTextStyleTableRecord
  2
CONVERTER_14
 70
     0
 40
0.0
 41
0.72
 50
0.0
 71
     0
 42
0.2
  3
txt.shx
  4

  0
STYLE
  5
252
330
3
100
AcDbSymbolTableRecord
100
AcDbTextStyleTableRecord
  2
CONVERTER_15
 70
     0
 40
0.0
 41
0.54
 50
0.0
 71
     0
 42
0.2
  3
txt.shx
  4

  0
STYLE
  5
254
330
3
100
AcDbSymbolTableRecord
100
AcDbTextStyleTableRecord
  2
CONVERTER_16
 70
     0
 40
0.0
 41
0.81
 50
0.0
 71
     0
 42
0.2
  3
txt.shx
  4

  0
STYLE
  5
26C
330
3
100
AcDbSymbolTableRecord
100
AcDbTextStyleTableRecord
  2
CONVERTER_17
 70
     0
 40
0.0
 41
0.45
 50
0.0
 71
     0
 42
0.2
  3
txt.shx
  4

  0
STYLE
  5
26F
330
3
100
AcDbSymbolTableRecord
100
AcDbTextStyleTableRecord
  2
CONVERTER_18
 70
     0
 40
0.0
 41
0.63
 50
0.0
 71
     0
 42
0.2
  3
txt.shx
  4

  0
ENDTAB
  0
TABLE
  2
VIEW
  5
6
330
0
100
AcDbSymbolTable
 70
     0
  0
ENDTAB
  0
TABLE
  2
UCS
  5
7
330
0
100
AcDbSymbolTable
 70
     0
  0
ENDTAB
  0
TABLE
  2
APPID
  5
9
330
0
100
AcDbSymbolTable
 70
     1
  0
APPID
  5
12
330
9
100
AcDbSymbolTableRecord
100
AcDbRegAppTableRecord
  2
ACAD
 70
     0
  0
ENDTAB
  0
TABLE
  2
DIMSTYLE
  5
A
330
0
100
AcDbSymbolTable
 70
     4
100
AcDbDimStyleTable
  0
DIMSTYLE
105
27
330
A
100
AcDbSymbolTableRecord
100
AcDbDimStyleTableRecord
  2
Standard
 70
     0
178
     0
340
11
  0
DIMSTYLE
105
358
102
{ACAD_REACTORS
330
359
102
}
330
A
100
AcDbSymbolTableRecord
100
AcDbDimStyleTableRecord
  2
ME10_DIM_10
 70
     0
 41
3.5
 42
0.0
 44
2.0
 73
     0
 74
     0
 77
     1
 78
     8
140
3.5
147
2.0
172
     1
173
     1
174
     1
175
     1
176
     2
177
     2
178
     3
340
213
  0
DIMSTYLE
105
39C
102
{ACAD_REACTORS
330
39D
102
}
330
A
100
AcDbSymbolTableRecord
100
AcDbDimStyleTableRecord
  2
ME10_DIM_11
 70
     0
 41
3.5
 42
0.0
 44
2.0
 73
     0
 74
     0
 77
     1
 78
     8
140
3.5
147
2.0
172
     1
173
     1
174
     1
175
     1
176
     2
177
     2
271
     0
178
     3
271
     0
340
213
  0
DIMSTYLE
105
3A7
102
{ACAD_REACTORS
330
3A8
102
}
330
A
100
AcDbSymbolTableRecord
100
AcDbDimStyleTableRecord
  2
ME10_DIM_12
 70
     0
 41
3.5
 42
0.0
 44
2.0
 73
     0
 74
     0
 77
     1
 78
     8
140
3.5
147
2.0
172
     1
173
     1
174
     1
175
     1
176
     2
177
     2
271
     0
178
     3
271
     0
340
213
  0
ENDTAB
  0
TABLE
  2
BLOCK_RECORD
  5
1
330
0
100
AcDbSymbolTable
 70
    19
  0
BLOCK_RECORD
  5
1F
330
1
100
AcDbSymbolTableRecord
100
AcDbBlockTableRecord
  2
*Model_Space
340
22
  0
BLOCK_RECORD
  5
1B
330
1
100
AcDbSymbolTableRecord
100
AcDbBlockTableRecord
  2
*Paper_Space
340
1E
  0
BLOCK_RECORD
  5
23
330
1
100
AcDbSymbolTableRecord
100
AcDbBlockTableRecord
  2
*Paper_Space0
340
26
  0
BLOCK_RECORD
  5
47
330
1
100
AcDbSymbolTableRecord
100
AcDbBlockTableRecord
  2
_rahmen
340
0
102
{BLKREFS
331
4E
102
}
  0
BLOCK_RECORD
  5
4A
330
1
100
AcDbSymbolTableRecord
100
AcDbBlockTableRecord
  2
_punkt
340
0
102
{BLKREFS
331
4F
102
}
  0
BLOCK_RECORD
  5
4D
330
1
100
AcDbSymbolTableRecord
100
AcDbBlockTableRecord
  2
A3I
340
0
102
{BLKREFS
331
7C
102
}
  0
BLOCK_RECORD
  5
52
330
1
100
AcDbSymbolTableRecord
100
AcDbBlockTableRecord
  2
1409817_HC_B16_TMS_EEE_PR_DI-select__1
340
0
102
{BLKREFS
331
56
102
}
  0
BLOCK_RECORD
  5
55
330
1
100
AcDbSymbolTableRecord
100
AcDbBlockTableRecord
  2
Drfsicht1
340
0
102
{BLKREFS
331
7D
102
}
  0
BLOCK_RECORD
  5
59
330
1
100
AcDbSymbolTableRecord
100
AcDbBlockTableRecord
  2
1409817_HC_B16_TMS_EEE_PR_DI-select__2
340
0
102
{BLKREFS
331
5D
102
}
  0
BLOCK_RECORD
  5
5C
330
1
100
AcDbSymbolTableRecord
100
AcDbBlockTableRecord
  2
Rckans1
340
0
102
{BLKREFS
331
7E
102
}
  0
BLOCK_RECORD
  5
60
330
1
100
AcDbSymbolTableRecord
100
AcDbBlockTableRecord
  2
1409817_HC_B16_TMS_EEE_PR_DI-select__3
340
0
102
{BLKREFS
331
64
102
}
  0
BLOCK_RECORD
  5
63
330
1
100
AcDbSymbolTableRecord
100
AcDbBlockTableRecord
  2
SA_Links1
340
0
102
{BLKREFS
331
7F
102
}
  0
BLOCK_RECORD
  5
67
330
1
100
AcDbSymbolTableRecord
100
AcDbBlockTableRecord
  2
1409817_HC_B16_TMS_EEE_PR_DI-select__4
340
0
102
{BLKREFS
331
6B
102
}
  0
BLOCK_RECORD
  5
6A
330
1
100
AcDbSymbolTableRecord
100
AcDbBlockTableRecord
  2
Allg1
340
0
102
{BLKREFS
331
80
102
}
  0
BLOCK_RECORD
  5
6E
330
1
100
AcDbSymbolTableRecord
100
AcDbBlockTableRecord
  2
1409817_HC_B16_TMS_EEE_PR_DI-select__5
340
0
102
{BLKREFS
331
72
102
}
  0
BLOCK_RECORD
  5
71
330
1
100
AcDbSymbolTableRecord
100
AcDbBlockTableRecord
  2
SA_Rechts1
340
0
102
{BLKREFS
331
81
102
}
  0
BLOCK_RECORD
  5
75
330
1
100
AcDbSymbolTableRecord
100
AcDbBlockTableRecord
  2
1409817_HC_B16_TMS_EEE_PR_DI-select__6
340
0
102
{BLKREFS
331
79
102
}
  0
BLOCK_RECORD
  5
78
330
1
100
AcDbSymbolTableRecord
100
AcDbBlockTableRecord
  2
Vordans1
340
0
102
{BLKREFS
331
82
102
}
  0
BLOCK_RECORD
  5
34D
330
1
100
AcDbSymbolTableRecord
100
AcDbBlockTableRecord
  2
*D16
340
0
  0
BLOCK_RECORD
  5
393
330
1
100
AcDbSymbolTableRecord
100
AcDbBlockTableRecord
  2
*D17
340
0
  0
BLOCK_RECORD
  5
39E
330
1
100
AcDbSymbolTableRecord
100
AcDbBlockTableRecord
  2
*D18
340
0
  0
ENDTAB
  0
ENDSEC
  0
SECTION
  2
BLOCKS
  0
BLOCK
  5
20
330
1F
100
AcDbEntity
  8
0
100
AcDbBlockBegin
  2
*Model_Space
 70
     0
 10
0.0
 20
0.0
 30
0.0
  3
*Model_Space
  1

  0
ENDBLK
  5
21
330
1F
100
AcDbEntity
  8
0
100
AcDbBlockEnd
  0
BLOCK
  5
1C
330
1B
100
AcDbEntity
 67
     1
  8
0
100
AcDbBlockBegin
  2
*Paper_Space
 70
     0
 10
0.0
 20
0.0
 30
0.0
  3
*Paper_Space
  1

  0
ENDBLK
  5
1D
330
1B
100
AcDbEntity
 67
     1
  8
0
100
AcDbBlockEnd
  0
BLOCK
  5
24
330
23
100
AcDbEntity
  8
0
100
AcDbBlockBegin
  2
*Paper_Space0
 70
     0
 10
0.0
 20
0.0
 30
0.0
  3
*Paper_Space0
  1

  0
ENDBLK
  5
25
330
23
100
AcDbEntity
  8
0
100
AcDbBlockEnd
  0
BLOCK
  5
48
330
47
100
AcDbEntity
  8
0
100
AcDbBlockBegin
  2
_rahmen
 70
     0
 10
130.9747181748841
 20
-55.4007317048217
 30
0.0
  3
_rahmen
  1

  0
POINT
  5
83
330
47
100
AcDbEntity
  8
1
 62
     3
 60
     1
100
AcDbPoint
 10
67.4747181748864
 20
-29.15073170482226
 30
0.0
  0
LINE
  5
84
102
{ACAD_REACTORS
330
275
330
276
102
}
330
47
100
AcDbEntity
  8
0
  6
Continuous
 62
     2
100
AcDbLine
 10
15.917045004965
 20
-42.89222830345518
 30
0.0
 11
15.917045004965
 21
-42.17113986808063
 31
0.0
  0
LINE
  5
85
102
{ACAD_REACTORS
330
275
330
276
102
}
330
47
100
AcDbEntity
  8
0
  6
Continuous
 62
     2
100
AcDbLine
 10
15.917045004965
 20
-43.68542558236659
 30
0.0
 11
15.917045004965
 21
-44.40651401774126
 31
0.0
  0
LINE
  5
86
102
{ACAD_REACTORS
330
277
330
278
102
}
330
47
100
AcDbEntity
  8
0
  6
Continuous
 62
     2
100
AcDbLine
 10
28.58898230768439
 20
-42.67590177284315
 30
0.0
 11
29.5010809023688
 21
-42.67590177284315
 31
0.0
  0
LINE
  5
87
102
{ACAD_REACTORS
330
277
330
278
102
}
330
47
100
AcDbEntity
  8
0
  6
Continuous
 62
     2
100
AcDbLine
 10
29.22506275641281
 20
-43.68542558236705
 30
0.0
 11
29.22506275641281
 21
-44.40651401774171
 31
0.0
  0
LINE
  5
88
102
{ACAD_REACTORS
330
281
330
282
102
}
330
47
100
AcDbEntity
  8
0
  6
Continuous
 62
     2
100
AcDbLine
 10
27.68724737180141
 20
-41.77454122863919
 30
0.0
 11
28.8425804684462
 21
-40.4680461924615
 31
0.0
  0
LINE
  5
89
102
{ACAD_REACTORS
330
281
330
282
102
}
330
47
100
AcDbEntity
  8
0
  6
Continuous
 62
     2
100
AcDbLine
 10
27.7661096992169
 20
-39.25073170482831
 30
0.0
 11
28.8425804684462
 21
-40.4680461924615
 31
0.0
  0
LINE
  5
8A
102
{ACAD_REACTORS
330
281
330
282
102
}
330
47
100
AcDbEntity
  8
0
  6
Continuous
 62
     2
100
AcDbLine
 10
29.91905123767471
 20
-39.25073170482831
 30
0.0
 11
31.07832745068889
 21
-39.25073170482831
 31
0.0
  0
LINE
  5
8B
102
{ACAD_REACTORS
330
281
330
282
102
}
330
47
100
AcDbEntity
  8
0
  6
Continuous
 62
     2
100
AcDbLine
 10
28.84652358481641
 20
-41.77454122863919
 30
0.0
 11
29.42221857495331
 21
-41.12352322426416
 31
0.0
  0
LINE
  5
8C
102
{ACAD_REACTORS
330
281
330
282
102
}
330
47
100
AcDbEntity
  8
0
  6
Continuous
 62
     2
100
AcDbLine
 10
28.84652358481641
 20
-41.77454122863919
 30
0.0
 11
27.68724737180141
 21
-41.77454122863919
 31
0.0
  0
LINE
  5
8D
102
{ACAD_REACTORS
330
283
330
284
102
}
330
47
100
AcDbEntity
  8
0
  6
Continuous
 62
     2
100
AcDbLine
 10
27.5886694625312
 20
-41.77454122863919
 30
0.0
 11
26.5634592061238
 21
-41.77454122863919
 31
0.0
  0
LINE
  5
8E
102
{ACAD_REACTORS
330
285
330
286
102
}
330
47
100
AcDbEntity
  8
0
  6
Continuous
 62
     2
100
AcDbLine
 10
25.84612068698739
 20
-43.54120789529198
 30
0.0
 11
25.5980502430286
 21
-42.90665007216246
 31
0.0
  0
LINE
  5
8F
102
{ACAD_REACTORS
330
285
330
286
102
}
330
47
100
AcDbEntity
  8
0
  6
Continuous
 62
     2
100
AcDbLine
 10
25.34997979906801
 20
-43.54120789529198
 30
0.0
 11
25.84612068698739
 21
-43.54120789529198
 31
0.0
  0
LINE
  5
90
102
{ACAD_REACTORS
330
285
330
286
102
}
330
47
100
AcDbEntity
  8
0
  6
Continuous
 62
     2
100
AcDbLine
 10
23.93011201818051
 20
-44.55073170481633
 30
0.0
 11
24.95532227458791
 21
-44.55073170481633
 31
0.0
  0
LINE
  5
91
102
{ACAD_REACTORS
330
285
330
286
102
}
330
47
100
AcDbEntity
  8
0
  6
Continuous
 62
     2
100
AcDbLine
 10
25.08544511482451
 20
-42.02692218100545
 30
0.0
 11
26.1106553712318
 21
-42.02692218100545
 31
0.0
  0
LINE
  5
92
102
{ACAD_REACTORS
330
285
330
286
102
}
330
47
100
AcDbEntity
  8
0
  6
Continuous
 62
     2
100
AcDbLine
 10
26.1106553712318
 20
-42.02692218100545
 30
0.0
 11
27.26598846787671
 21
-44.55073170481633
 31
0.0
  0
LINE
  5
93
102
{ACAD_REACTORS
330
285
330
286
102
}
330
47
100
AcDbEntity
  8
0
  6
Continuous
 62
     2
100
AcDbLine
 10
26.24077821146851
 20
-44.55073170481633
 30
0.0
 11
26.0660013077695
 21
-44.10365687488418
 31
0.0
  0
LINE
  5
94
102
{ACAD_REACTORS
330
287
330
288
102
}
330
47
100
AcDbEntity
  8
0
  6
Continuous
 62
     2
100
AcDbLine
 10
22.8173739175957
 20
-44.55073170481633
 30
0.0
 11
23.8031530102953
 21
-44.55073170481633
 31
0.0
  0
LINE
  5
95
102
{ACAD_REACTORS
330
287
330
288
102
}
330
47
100
AcDbEntity
  8
0
  6
Continuous
 62
     2
100
AcDbLine
 10
22.8173739175957
 20
-42.67590177284315
 30
0.0
 11
22.8173739175957
 21
-44.55073170481633
 31
0.0
  0
LINE
  5
96
102
{ACAD_REACTORS
330
287
330
288
102
}
330
47
100
AcDbEntity
  8
0
  6
Continuous
 62
     2
100
AcDbLine
 10
22.14704413455881
 20
-42.02692218100545
 30
0.0
 11
22.14704413455881
 21
-42.67590177284315
 31
0.0
  0
LINE
  5
97
102
{ACAD_REACTORS
330
289
330
28A
102
}
330
47
100
AcDbEntity
  8
0
  6
Continuous
 62
     2
100
AcDbLine
 10
23.3695349457759
 20
-41.77454122863919
 30
0.0
 11
24.3553140384755
 21
-41.77454122863919
 31
0.0
  0
LINE
  5
98
102
{ACAD_REACTORS
330
289
330
28A
102
}
330
47
100
AcDbEntity
  8
0
  6
Continuous
 62
     2
100
AcDbLine
 10
25.38052429488381
 20
-40.33236435789043
 30
0.0
 11
24.3553140384755
 21
-39.25073170482831
 31
0.0
  0
LINE
  5
99
102
{ACAD_REACTORS
330
289
330
28A
102
}
330
47
100
AcDbEntity
  8
0
  6
Continuous
 62
     2
100
AcDbLine
 10
26.36630338758339
 20
-39.25073170482831
 30
0.0
 11
25.38052429488381
 21
-39.25073170482831
 31
0.0
  0
LINE
  5
9A
102
{ACAD_REACTORS
330
289
330
28A
102
}
330
47
100
AcDbEntity
  8
0
  6
Continuous
 62
     2
100
AcDbLine
 10
26.36630338758339
 20
-41.77454122863919
 30
0.0
 11
26.36630338758339
 21
-39.25073170482831
 31
0.0
  0
LINE
  5
9B
102
{ACAD_REACTORS
330
289
330
28A
102
}
330
47
100
AcDbEntity
  8
0
  6
Continuous
 62
     2
100
AcDbLine
 10
25.38052429488381
 20
-41.77454122863919
 30
0.0
 11
26.36630338758339
 21
-41.77454122863919
 31
0.0
  0
LINE
  5
9C
102
{ACAD_REACTORS
330
289
330
28A
102
}
330
47
100
AcDbEntity
  8
0
  6
Continuous
 62
     2
100
AcDbLine
 10
24.3553140384755
 20
-40.69290857557753
 30
0.0
 11
25.38052429488381
 21
-41.77454122863919
 31
0.0
  0
LINE
  5
9D
102
{ACAD_REACTORS
330
28B
330
28C
102
}
330
47
100
AcDbEntity
  8
0
  6
Continuous
 62
     2
100
AcDbLine
 10
21.0429715507352
 20
-43.10855483406756
 30
0.0
 11
20.01776129432791
 21
-42.02692218100545
 31
0.0
  0
LINE
  5
9E
102
{ACAD_REACTORS
330
28B
330
28C
102
}
330
47
100
AcDbEntity
  8
0
  6
Continuous
 62
     2
100
AcDbLine
 10
21.0429715507352
 20
-42.02692218100545
 30
0.0
 11
21.0429715507352
 21
-43.10855483406756
 31
0.0
  0
LINE
  5
9F
102
{ACAD_REACTORS
330
28B
330
28C
102
}
330
47
100
AcDbEntity
  8
0
  6
Continuous
 62
     2
100
AcDbLine
 10
22.02875064343481
 20
-42.02692218100545
 30
0.0
 11
21.0429715507352
 21
-42.02692218100545
 31
0.0
  0
LINE
  5
A0
102
{ACAD_REACTORS
330
28B
330
28C
102
}
330
47
100
AcDbEntity
  8
0
  6
Continuous
 62
     2
100
AcDbLine
 10
22.02875064343481
 20
-44.55073170481633
 30
0.0
 11
22.02875064343481
 21
-42.02692218100545
 31
0.0
  0
LINE
  5
A1
102
{ACAD_REACTORS
330
28B
330
28C
102
}
330
47
100
AcDbEntity
  8
0
  6
Continuous
 62
     2
100
AcDbLine
 10
20.01776129432791
 20
-43.46909905175467
 30
0.0
 11
21.0429715507352
 21
-44.55073170481633
 31
0.0
  0
LINE
  5
A2
102
{ACAD_REACTORS
330
28B
330
28C
102
}
330
47
100
AcDbEntity
  8
0
  6
Continuous
 62
     2
100
AcDbLine
 10
20.01776129432791
 20
-44.55073170481633
 30
0.0
 11
20.01776129432791
 21
-43.46909905175467
 31
0.0
  0
LINE
  5
A3
102
{ACAD_REACTORS
330
27B
330
27C
102
}
330
47
100
AcDbEntity
  8
0
  6
Continuous
 62
     2
100
AcDbLine
 10
22.06830654341179
 20
-39.82760245312825
 30
0.0
 11
23.17237912723631
 21
-39.82760245312825
 31
0.0
  0
LINE
  5
A4
102
{ACAD_REACTORS
330
27B
330
27C
102
}
330
47
100
AcDbEntity
  8
0
  6
Continuous
 62
     2
100
AcDbLine
 10
22.06830654341179
 20
-41.19767048033971
 30
0.0
 11
22.06830654341179
 21
-40.80107184088372
 31
0.0
  0
LINE
  5
A5
102
{ACAD_REACTORS
330
27B
330
27C
102
}
330
47
100
AcDbEntity
  8
0
  6
Continuous
 62
     2
100
AcDbLine
 10
23.17237912723631
 20
-41.19767048033971
 30
0.0
 11
22.06830654341179
 21
-41.19767048033971
 31
0.0
  0
LINE
  5
A6
102
{ACAD_REACTORS
330
27B
330
27C
102
}
330
47
100
AcDbEntity
  8
0
  6
Continuous
 62
     2
100
AcDbLine
 10
23.17237912723631
 20
-41.77454122863919
 30
0.0
 11
23.17237912723631
 21
-41.19767048033971
 31
0.0
  0
LINE
  5
A7
102
{ACAD_REACTORS
330
27B
330
27C
102
}
330
47
100
AcDbEntity
  8
0
  6
Continuous
 62
     2
100
AcDbLine
 10
20.5688091075826
 20
-41.77454122863919
 30
0.0
 11
23.17237912723631
 21
-41.77454122863919
 31
0.0
  0
LINE
  5
A8
102
{ACAD_REACTORS
330
27B
330
27C
102
}
330
47
100
AcDbEntity
  8
0
  6
Continuous
 62
     2
100
AcDbLine
 10
20.5688091075826
 20
-39.25073170482831
 30
0.0
 11
23.17237912723631
 21
-39.25073170482831
 31
0.0
  0
LINE
  5
A9
102
{ACAD_REACTORS
330
27B
330
27C
102
}
330
47
100
AcDbEntity
  8
0
  6
Continuous
 62
     2
100
AcDbLine
 10
23.17237912723631
 20
-39.82760245312825
 30
0.0
 11
23.17237912723631
 21
-39.25073170482831
 31
0.0
  0
LINE
  5
AA
102
{ACAD_REACTORS
330
28D
330
28E
102
}
330
47
100
AcDbEntity
  8
0
  6
Continuous
 62
     2
100
AcDbLine
 10
18.20405250002879
 20
-40.13406503816266
 30
0.0
 11
18.20405250002879
 21
-39.25073170482831
 31
0.0
  0
LINE
  5
AB
102
{ACAD_REACTORS
330
28D
330
28E
102
}
330
47
100
AcDbEntity
  8
0
  6
Continuous
 62
     2
100
AcDbLine
 10
18.20405250002879
 20
-39.25073170482831
 30
0.0
 11
19.1898315927284
 21
-39.25073170482831
 31
0.0
  0
LINE
  5
AC
102
{ACAD_REACTORS
330
28D
330
28E
102
}
330
47
100
AcDbEntity
  8
0
  6
Continuous
 62
     2
100
AcDbLine
 10
18.20405250002879
 20
-40.8371262626526
 30
0.0
 11
17.3365668984524
 21
-40.8371262626526
 31
0.0
  0
LINE
  5
AD
102
{ACAD_REACTORS
330
28D
330
28E
102
}
330
47
100
AcDbEntity
  8
0
  6
Continuous
 62
     2
100
AcDbLine
 10
17.3365668984524
 20
-40.8371262626526
 30
0.0
 11
17.3365668984524
 21
-41.77454122863919
 31
0.0
  0
LINE
  5
AE
102
{ACAD_REACTORS
330
28D
330
28E
102
}
330
47
100
AcDbEntity
  8
0
  6
Continuous
 62
     2
100
AcDbLine
 10
16.3507878057528
 20
-39.25073170482831
 30
0.0
 11
16.3507878057528
 21
-41.77454122863919
 31
0.0
  0
LINE
  5
AF
102
{ACAD_REACTORS
330
27F
330
280
102
}
330
47
100
AcDbEntity
  8
0
  6
Continuous
 62
     2
100
AcDbLine
 10
14.73411009372499
 20
-40.38199905588813
 30
0.0
 11
14.73411009372499
 21
-39.7987530646961
 31
0.0
  0
LINE
  5
B0
102
{ACAD_REACTORS
330
27F
330
280
102
}
330
47
100
AcDbEntity
  8
0
  6
Continuous
 62
     2
100
AcDbLine
 10
13.70889983731671
 20
-41.77454122863919
 30
0.0
 11
14.73411009372499
 21
-41.77454122863919
 31
0.0
  0
LINE
  5
B1
102
{ACAD_REACTORS
330
27F
330
280
102
}
330
47
100
AcDbEntity
  8
0
  6
Continuous
 62
     2
100
AcDbLine
 10
14.73411009372499
 20
-41.77454122863919
 30
0.0
 11
14.73411009372499
 21
-40.99513772356166
 31
0.0
  0
LINE
  5
B2
102
{ACAD_REACTORS
330
279
330
27A
102
}
330
47
100
AcDbEntity
  8
0
  6
Continuous
 62
     2
100
AcDbLine
 10
10.151093350365
 20
-43.96184281592623
 30
0.0
 11
8.9313964404398
 21
-43.96184281592623
 31
0.0
  0
LINE
  5
B3
102
{ACAD_REACTORS
330
279
330
27A
102
}
330
47
100
AcDbEntity
  8
0
  6
Continuous
 62
     2
100
AcDbLine
 10
8.08995900892789
 20
-39.601347089458
 30
0.0
 11
8.08995900892789
 21
-44.20011632020199
 31
0.0
  0
LINE
  5
B4
102
{ACAD_REACTORS
330
279
330
27A
102
}
330
47
100
AcDbEntity
  8
0
  6
Continuous
 62
     2
100
AcDbLine
 10
8.44057439354181
 20
-39.25073170484332
 30
0.0
 11
12.96397281562189
 21
-39.25073170484332
 31
0.0
  0
LINE
  5
B5
102
{ACAD_REACTORS
330
279
330
27A
102
}
330
47
100
AcDbEntity
  8
0
  6
Continuous
 62
     2
100
AcDbLine
 10
13.31458820023671
 20
-39.601347089458
 30
0.0
 11
13.31458820023671
 21
-44.20011632020199
 31
0.0
  0
LINE
  5
B6
102
{ACAD_REACTORS
330
279
330
27A
102
}
330
47
100
AcDbEntity
  8
0
  6
Continuous
 62
     2
100
AcDbLine
 10
12.96397281562189
 20
-44.55073170481633
 30
0.0
 11
8.44057439354181
 21
-44.55073170481633
 31
0.0
  0
LINE
  5
B7
102
{ACAD_REACTORS
330
279
330
27A
102
}
330
47
100
AcDbEntity
  8
0
  6
Continuous
 62
     2
100
AcDbLine
 10
10.41201642728781
 20
-43.7009197390034
 30
0.0
 11
10.41201642728781
 21
-42.43581979558879
 31
0.0
  0
LINE
  5
B8
102
{ACAD_REACTORS
330
279
330
27A
102
}
330
47
100
AcDbEntity
  8
0
  6
Continuous
 62
     2
100
AcDbLine
 10
10.41201642728781
 20
-40.5997375706922
 30
0.0
 11
10.41201642728781
 21
-40.10054367064215
 31
0.0
  0
LINE
  5
B9
102
{ACAD_REACTORS
330
279
330
27A
102
}
330
47
100
AcDbEntity
  8
0
  6
Continuous
 62
     2
100
AcDbLine
 10
8.9313964404398
 20
-39.83962059371966
 30
0.0
 11
10.151093350365
 21
-39.83962059371966
 31
0.0
  0
LINE
  5
BA
102
{ACAD_REACTORS
330
279
330
27A
102
}
330
47
100
AcDbEntity
  8
0
  6
Continuous
 62
     2
100
AcDbLine
 10
8.6704733635177
 20
-40.10054367064215
 30
0.0
 11
8.6704733635177
 21
-43.7009197390034
 31
0.0
  0
LINE
  5
BB
102
{ACAD_REACTORS
330
27F
330
280
102
}
330
47
100
AcDbEntity
  8
0
  6
Continuous
 62
     2
100
AcDbLine
 10
14.73411009372499
 20
-40.99513772356166
 30
0.0
 11
15.36119074478309
 21
-40.99513772356166
 31
0.0
  0
LINE
  5
BC
102
{ACAD_REACTORS
330
27F
330
280
102
}
330
47
100
AcDbEntity
  8
0
  6
Continuous
 62
     2
100
AcDbLine
 10
13.70889983731671
 20
-39.25073170482831
 30
0.0
 11
15.36119074478309
 21
-39.25073170482831
 31
0.0
  0
LINE
  5
BD
102
{ACAD_REACTORS
330
27F
330
280
102
}
330
47
100
AcDbEntity
  8
0
  6
Continuous
 62
     2
100
AcDbLine
 10
13.70889983731671
 20
-39.25073170482831
 30
0.0
 11
13.70889983731671
 21
-41.77454122863919
 31
0.0
  0
LINE
  5
BE
102
{ACAD_REACTORS
330
27F
330
280
102
}
330
47
100
AcDbEntity
  8
0
  6
Continuous
 62
     2
100
AcDbLine
 10
14.73411009372499
 20
-40.38199905588813
 30
0.0
 11
14.99633741731331
 21
-40.38199905588813
 31
0.0
  0
LINE
  5
BF
102
{ACAD_REACTORS
330
27F
330
280
102
}
330
47
100
AcDbEntity
  8
0
  6
Continuous
 62
     2
100
AcDbLine
 10
14.73411009372499
 20
-39.7987530646961
 30
0.0
 11
14.99633741731331
 21
-39.7987530646961
 31
0.0
  0
LINE
  5
C0
102
{ACAD_REACTORS
330
28D
330
28E
102
}
330
47
100
AcDbEntity
  8
0
  6
Continuous
 62
     2
100
AcDbLine
 10
17.3365668984524
 20
-40.13406503816266
 30
0.0
 11
18.20405250002879
 21
-40.13406503816266
 31
0.0
  0
LINE
  5
C1
102
{ACAD_REACTORS
330
28D
330
28E
102
}
330
47
100
AcDbEntity
  8
0
  6
Continuous
 62
     2
100
AcDbLine
 10
17.3365668984524
 20
-39.25073170482831
 30
0.0
 11
17.3365668984524
 21
-40.13406503816266
 31
0.0
  0
LINE
  5
C2
102
{ACAD_REACTORS
330
28D
330
28E
102
}
330
47
100
AcDbEntity
  8
0
  6
Continuous
 62
     2
100
AcDbLine
 10
16.3507878057528
 20
-39.25073170482831
 30
0.0
 11
17.3365668984524
 21
-39.25073170482831
 31
0.0
  0
LINE
  5
C3
102
{ACAD_REACTORS
330
28D
330
28E
102
}
330
47
100
AcDbEntity
  8
0
  6
Continuous
 62
     2
100
AcDbLine
 10
17.3365668984524
 20
-41.77454122863919
 30
0.0
 11
16.3507878057528
 21
-41.77454122863919
 31
0.0
  0
LINE
  5
C4
102
{ACAD_REACTORS
330
28D
330
28E
102
}
330
47
100
AcDbEntity
  8
0
  6
Continuous
 62
     2
100
AcDbLine
 10
18.20405250002879
 20
-41.77454122863919
 30
0.0
 11
18.20405250002879
 21
-40.8371262626526
 31
0.0
  0
LINE
  5
C5
102
{ACAD_REACTORS
330
28D
330
28E
102
}
330
47
100
AcDbEntity
  8
0
  6
Continuous
 62
     2
100
AcDbLine
 10
19.1898315927284
 20
-41.77454122863919
 30
0.0
 11
18.20405250002879
 21
-41.77454122863919
 31
0.0
  0
LINE
  5
C6
102
{ACAD_REACTORS
330
28D
330
28E
102
}
330
47
100
AcDbEntity
  8
0
  6
Continuous
 62
     2
100
AcDbLine
 10
19.1898315927284
 20
-39.25073170482831
 30
0.0
 11
19.1898315927284
 21
-41.77454122863919
 31
0.0
  0
LINE
  5
C7
102
{ACAD_REACTORS
330
27B
330
27C
102
}
330
47
100
AcDbEntity
  8
0
  6
Continuous
 62
     2
100
AcDbLine
 10
22.06830654341179
 20
-40.80107184088372
 30
0.0
 11
23.17237912723631
 21
-40.80107184088372
 31
0.0
  0
LINE
  5
C8
102
{ACAD_REACTORS
330
27B
330
27C
102
}
330
47
100
AcDbEntity
  8
0
  6
Continuous
 62
     2
100
AcDbLine
 10
23.17237912723631
 20
-40.80107184088372
 30
0.0
 11
23.17237912723631
 21
-40.22420109258424
 31
0.0
  0
LINE
  5
C9
102
{ACAD_REACTORS
330
27B
330
27C
102
}
330
47
100
AcDbEntity
  8
0
  6
Continuous
 62
     2
100
AcDbLine
 10
23.17237912723631
 20
-40.22420109258424
 30
0.0
 11
22.06830654341179
 21
-40.22420109258424
 31
0.0
  0
LINE
  5
CA
102
{ACAD_REACTORS
330
27B
330
27C
102
}
330
47
100
AcDbEntity
  8
0
  6
Continuous
 62
     2
100
AcDbLine
 10
22.06830654341179
 20
-40.22420109258424
 30
0.0
 11
22.06830654341179
 21
-39.82760245312825
 31
0.0
  0
LINE
  5
CB
102
{ACAD_REACTORS
330
28B
330
28C
102
}
330
47
100
AcDbEntity
  8
0
  6
Continuous
 62
     2
100
AcDbLine
 10
19.0319822016274
 20
-44.55073170481633
 30
0.0
 11
20.01776129432791
 21
-44.55073170481633
 31
0.0
  0
LINE
  5
CC
102
{ACAD_REACTORS
330
28B
330
28C
102
}
330
47
100
AcDbEntity
  8
0
  6
Continuous
 62
     2
100
AcDbLine
 10
21.0429715507352
 20
-44.55073170481633
 30
0.0
 11
22.02875064343481
 21
-44.55073170481633
 31
0.0
  0
LINE
  5
CD
102
{ACAD_REACTORS
330
28B
330
28C
102
}
330
47
100
AcDbEntity
  8
0
  6
Continuous
 62
     2
100
AcDbLine
 10
20.01776129432791
 20
-42.02692218100545
 30
0.0
 11
19.0319822016274
 21
-42.02692218100545
 31
0.0
  0
LINE
  5
CE
102
{ACAD_REACTORS
330
28B
330
28C
102
}
330
47
100
AcDbEntity
  8
0
  6
Continuous
 62
     2
100
AcDbLine
 10
19.0319822016274
 20
-42.02692218100545
 30
0.0
 11
19.0319822016274
 21
-44.55073170481633
 31
0.0
  0
LINE
  5
CF
102
{ACAD_REACTORS
330
289
330
28A
102
}
330
47
100
AcDbEntity
  8
0
  6
Continuous
 62
     2
100
AcDbLine
 10
25.38052429488381
 20
-39.25073170482831
 30
0.0
 11
25.38052429488381
 21
-40.33236435789043
 31
0.0
  0
LINE
  5
D0
102
{ACAD_REACTORS
330
289
330
28A
102
}
330
47
100
AcDbEntity
  8
0
  6
Continuous
 62
     2
100
AcDbLine
 10
24.3553140384755
 20
-39.25073170482831
 30
0.0
 11
23.3695349457759
 21
-39.25073170482831
 31
0.0
  0
LINE
  5
D1
102
{ACAD_REACTORS
330
289
330
28A
102
}
330
47
100
AcDbEntity
  8
0
  6
Continuous
 62
     2
100
AcDbLine
 10
23.3695349457759
 20
-39.25073170482831
 30
0.0
 11
23.3695349457759
 21
-41.77454122863919
 31
0.0
  0
LINE
  5
D2
102
{ACAD_REACTORS
330
289
330
28A
102
}
330
47
100
AcDbEntity
  8
0
  6
Continuous
 62
     2
100
AcDbLine
 10
24.3553140384755
 20
-41.77454122863919
 30
0.0
 11
24.3553140384755
 21
-40.69290857557753
 31
0.0
  0
LINE
  5
D3
102
{ACAD_REACTORS
330
287
330
288
102
}
330
47
100
AcDbEntity
  8
0
  6
Continuous
 62
     2
100
AcDbLine
 10
23.8031530102953
 20
-44.55073170481633
 30
0.0
 11
23.8031530102953
 21
-42.67590177284315
 31
0.0
  0
LINE
  5
D4
102
{ACAD_REACTORS
330
287
330
288
102
}
330
47
100
AcDbEntity
  8
0
  6
Continuous
 62
     2
100
AcDbLine
 10
23.8031530102953
 20
-42.67590177284315
 30
0.0
 11
24.47348279333049
 21
-42.67590177284315
 31
0.0
  0
LINE
  5
D5
102
{ACAD_REACTORS
330
287
330
288
102
}
330
47
100
AcDbEntity
  8
0
  6
Continuous
 62
     2
100
AcDbLine
 10
24.47348279333049
 20
-42.67590177284315
 30
0.0
 11
24.47348279333049
 21
-42.02692218100545
 31
0.0
  0
LINE
  5
D6
102
{ACAD_REACTORS
330
287
330
288
102
}
330
47
100
AcDbEntity
  8
0
  6
Continuous
 62
     2
100
AcDbLine
 10
24.47348279333049
 20
-42.02692218100545
 30
0.0
 11
22.14704413455881
 21
-42.02692218100545
 31
0.0
  0
LINE
  5
D7
102
{ACAD_REACTORS
330
287
330
288
102
}
330
47
100
AcDbEntity
  8
0
  6
Continuous
 62
     2
100
AcDbLine
 10
22.14704413455881
 20
-42.67590177284315
 30
0.0
 11
22.8173739175957
 21
-42.67590177284315
 31
0.0
  0
LINE
  5
D8
102
{ACAD_REACTORS
330
285
330
286
102
}
330
47
100
AcDbEntity
  8
0
  6
Continuous
 62
     2
100
AcDbLine
 10
25.1300991782869
 20
-44.10365687488418
 30
0.0
 11
26.0660013077695
 21
-44.10365687488418
 31
0.0
  0
LINE
  5
D9
102
{ACAD_REACTORS
330
285
330
286
102
}
330
47
100
AcDbEntity
  8
0
  6
Continuous
 62
     2
100
AcDbLine
 10
27.26598846787671
 20
-44.55073170481633
 30
0.0
 11
26.24077821146851
 21
-44.55073170481633
 31
0.0
  0
LINE
  5
DA
102
{ACAD_REACTORS
330
285
330
286
102
}
330
47
100
AcDbEntity
  8
0
  6
Continuous
 62
     2
100
AcDbLine
 10
25.08544511482451
 20
-42.02692218100545
 30
0.0
 11
23.93011201818051
 21
-44.55073170481633
 31
0.0
  0
LINE
  5
DB
102
{ACAD_REACTORS
330
285
330
286
102
}
330
47
100
AcDbEntity
  8
0
  6
Continuous
 62
     2
100
AcDbLine
 10
24.95532227458791
 20
-44.55073170481633
 30
0.0
 11
25.1300991782869
 21
-44.10365687488418
 31
0.0
  0
LINE
  5
DC
102
{ACAD_REACTORS
330
285
330
286
102
}
330
47
100
AcDbEntity
  8
0
  6
Continuous
 62
     2
100
AcDbLine
 10
25.34997979906801
 20
-43.54120789529198
 30
0.0
 11
25.5980502430286
 21
-42.90665007216246
 31
0.0
  0
LINE
  5
DD
102
{ACAD_REACTORS
330
283
330
284
102
}
330
47
100
AcDbEntity
  8
0
  6
Continuous
 62
     2
100
AcDbLine
 10
26.5634592061238
 20
-41.77454122863919
 30
0.0
 11
26.5634592061238
 21
-39.25073170482831
 31
0.0
  0
LINE
  5
DE
102
{ACAD_REACTORS
330
283
330
284
102
}
330
47
100
AcDbEntity
  8
0
  6
Continuous
 62
     2
100
AcDbLine
 10
27.5886694625312
 20
-39.25073170482831
 30
0.0
 11
27.5886694625312
 21
-41.77454122863919
 31
0.0
  0
LINE
  5
DF
102
{ACAD_REACTORS
330
283
330
284
102
}
330
47
100
AcDbEntity
  8
0
  6
Continuous
 62
     2
100
AcDbLine
 10
26.5634592061238
 20
-39.25073170482831
 30
0.0
 11
27.5886694625312
 21
-39.25073170482831
 31
0.0
  0
LINE
  5
E0
102
{ACAD_REACTORS
330
281
330
282
102
}
330
47
100
AcDbEntity
  8
0
  6
Continuous
 62
     2
100
AcDbLine
 10
29.42221857495331
 20
-41.12352322426416
 30
0.0
 11
29.99791356509009
 21
-41.77454122863919
 31
0.0
  0
LINE
  5
E1
102
{ACAD_REACTORS
330
281
330
282
102
}
330
47
100
AcDbEntity
  8
0
  6
Continuous
 62
     2
100
AcDbLine
 10
29.99791356509009
 20
-41.77454122863919
 30
0.0
 11
31.15718977810521
 21
-41.77454122863919
 31
0.0
  0
LINE
  5
E2
102
{ACAD_REACTORS
330
281
330
282
102
}
330
47
100
AcDbEntity
  8
0
  6
Continuous
 62
     2
100
AcDbLine
 10
30.0018566814603
 20
-40.4680461924615
 30
0.0
 11
31.15718977810521
 21
-41.77454122863919
 31
0.0
  0
LINE
  5
E3
102
{ACAD_REACTORS
330
281
330
282
102
}
330
47
100
AcDbEntity
  8
0
  6
Continuous
 62
     2
100
AcDbLine
 10
30.0018566814603
 20
-40.4680461924615
 30
0.0
 11
31.07832745068889
 21
-39.25073170482831
 31
0.0
  0
LINE
  5
E4
102
{ACAD_REACTORS
330
281
330
282
102
}
330
47
100
AcDbEntity
  8
0
  6
Continuous
 62
     2
100
AcDbLine
 10
29.42221857495331
 20
-39.81256916065929
 30
0.0
 11
29.91905123767471
 21
-39.25073170482831
 31
0.0
  0
LINE
  5
E5
102
{ACAD_REACTORS
330
281
330
282
102
}
330
47
100
AcDbEntity
  8
0
  6
Continuous
 62
     2
100
AcDbLine
 10
28.92538591223281
 20
-39.25073170482831
 30
0.0
 11
29.42221857495331
 21
-39.81256916065929
 31
0.0
  0
LINE
  5
E6
102
{ACAD_REACTORS
330
281
330
282
102
}
330
47
100
AcDbEntity
  8
0
  6
Continuous
 62
     2
100
AcDbLine
 10
28.92538591223281
 20
-39.25073170482831
 30
0.0
 11
27.7661096992169
 21
-39.25073170482831
 31
0.0
  0
LINE
  5
E7
102
{ACAD_REACTORS
330
277
330
278
102
}
330
47
100
AcDbEntity
  8
0
  6
Continuous
 62
     2
100
AcDbLine
 10
29.5010809023688
 20
-44.55073170481633
 30
0.0
 11
30.48685999506931
 21
-44.55073170481633
 31
0.0
  0
LINE
  5
E8
102
{ACAD_REACTORS
330
277
330
278
102
}
330
47
100
AcDbEntity
  8
0
  6
Continuous
 62
     2
100
AcDbLine
 10
30.48685999506931
 20
-44.55073170481633
 30
0.0
 11
30.48685999506931
 21
-42.67590177284315
 31
0.0
  0
LINE
  5
E9
102
{ACAD_REACTORS
330
277
330
278
102
}
330
47
100
AcDbEntity
  8
0
  6
Continuous
 62
     2
100
AcDbLine
 10
30.48685999506931
 20
-42.67590177284315
 30
0.0
 11
31.15718977810521
 21
-42.67590177284315
 31
0.0
  0
LINE
  5
EA
102
{ACAD_REACTORS
330
277
330
278
102
}
330
47
100
AcDbEntity
  8
0
  6
Continuous
 62
     2
100
AcDbLine
 10
31.15718977810521
 20
-42.67590177284315
 30
0.0
 11
31.15718977810521
 21
-42.02692218100545
 31
0.0
  0
LINE
  5
EB
102
{ACAD_REACTORS
330
277
330
278
102
}
330
47
100
AcDbEntity
  8
0
  6
Continuous
 62
     2
100
AcDbLine
 10
28.35971414287489
 20
-42.0269221810059
 30
0.0
 11
31.15718977810521
 21
-42.02692218100545
 31
0.0
  0
LINE
  5
EC
102
{ACAD_REACTORS
330
277
330
278
102
}
330
47
100
AcDbEntity
  8
0
  6
Continuous
 62
     2
100
AcDbLine
 10
29.5010809023688
 20
-42.67590177284315
 30
0.0
 11
29.5010809023688
 21
-44.55073170481633
 31
0.0
  0
LINE
  5
ED
102
{ACAD_REACTORS
330
279
330
27A
102
}
330
47
100
AcDbEntity
  8
0
  6
Continuous
 62
     2
100
AcDbLine
 10
10.79902599701411
 20
-42.91529356468034
 30
0.0
 11
10.79902599701411
 21
-42.4344246335274
 31
0.0
  0
LINE
  5
EE
102
{ACAD_REACTORS
330
279
330
27A
102
}
330
47
100
AcDbEntity
  8
0
  6
Continuous
 62
     2
100
AcDbLine
 10
10.79902599701411
 20
-40.6011327327537
 30
0.0
 11
10.79902599701411
 21
-40.10069034555802
 31
0.0
  0
LINE
  5
EF
330
47
100
AcDbEntity
  8
1
  6
Continuous
 62
     6
100
AcDbLine
 10
-121.0252818251158
 20
-50.40073170482215
 30
0.0
 11
-114.8252818251178
 21
-50.40073170482226
 31
0.0
  0
LINE
  5
F0
330
47
100
AcDbEntity
  8
1
  6
Continuous
 62
     6
100
AcDbLine
 10
-114.8252818251178
 20
-50.40073170482226
 30
0.0
 11
-101.3252818251178
 21
-50.40073170482215
 31
0.0
  0
LINE
  5
F1
330
47
100
AcDbEntity
  8
1
  6
Continuous
 62
     6
100
AcDbLine
 10
-101.3252818251178
 20
-50.40073170482215
 30
0.0
 11
-74.0252818251159
 21
-50.4007317048217
 31
0.0
  0
LINE
  5
F2
330
47
100
AcDbEntity
  8
1
  6
Continuous
 62
     6
100
AcDbLine
 10
-74.0252818251159
 20
-50.4007317048217
 30
0.0
 11
-39.0700863518676
 21
-50.40073170482226
 31
0.0
  0
LINE
  5
F3
330
47
100
AcDbEntity
  8
1
  6
Continuous
 62
     6
100
AcDbLine
 10
-12.07008635186769
 20
-50.40073170482226
 30
0.0
 11
-5.6919484917825
 21
-50.4007317048217
 31
0.0
  0
LINE
  5
F4
330
47
100
AcDbEntity
  8
1
  6
Continuous
 62
     6
100
AcDbLine
 10
-25.5700863518676
 20
-50.40073170482226
 30
0.0
 11
-12.07008635186769
 21
-50.40073170482226
 31
0.0
  0
LINE
  5
F5
330
47
100
AcDbEntity
  8
1
  6
Continuous
 62
     6
100
AcDbLine
 10
-39.0700863518676
 20
-50.40073170482226
 30
0.0
 11
-25.5700863518676
 21
-50.40073170482226
 31
0.0
  0
LINE
  5
F6
330
47
100
AcDbEntity
  8
1
  6
Continuous
 62
     6
100
AcDbLine
 10
-5.6919484917825
 20
-50.4007317048217
 30
0.0
 11
1.4299136481324
 21
-50.40073170482226
 31
0.0
  0
LINE
  5
F7
330
47
100
AcDbEntity
  8
1
  6
Continuous
 62
     6
100
AcDbLine
 10
1.4299136481324
 20
-50.40073170482226
 30
0.0
 11
19.6299136481323
 21
-50.40073170482215
 31
0.0
  0
LINE
  5
F8
330
47
100
AcDbEntity
  8
1
  6
Continuous
 62
     6
100
AcDbLine
 10
19.6299136481323
 20
-50.40073170482215
 30
0.0
 11
37.82991364813229
 21
-50.40073170482226
 31
0.0
  0
LINE
  5
F9
330
47
100
AcDbEntity
  8
1
  6
Continuous
 62
     6
100
AcDbLine
 10
37.82991364813229
 20
-50.40073170482226
 30
0.0
 11
62.6413848415507
 21
-50.4007317048217
 31
0.0
  0
LINE
  5
FA
330
47
100
AcDbEntity
  8
1
  6
Continuous
 62
     6
100
AcDbLine
 10
62.6413848415507
 20
-50.4007317048217
 30
0.0
 11
130.974718174884
 21
-50.40073170482215
 31
0.0
  0
LINE
  5
FB
330
47
100
AcDbEntity
  8
1
  6
Continuous
 62
     6
100
AcDbLine
 10
130.9747181748836
 20
-41.90073170482226
 30
0.0
 11
130.9747181748841
 21
-33.40073170482226
 31
0.0
  0
LINE
  5
FC
330
47
100
AcDbEntity
  8
1
  6
Continuous
 62
     6
100
AcDbLine
 10
130.9747181748841
 20
-33.40073170482226
 30
0.0
 11
130.9747181748831
 21
-29.15073170482226
 31
0.0
  0
LINE
  5
FD
330
47
100
AcDbEntity
  8
1
  6
Continuous
 62
     6
100
AcDbLine
 10
130.9747181748831
 20
-29.15073170482226
 30
0.0
 11
130.974718174884
 21
-20.65073170482226
 31
0.0
  0
LINE
  5
FE
330
47
100
AcDbEntity
  8
1
  6
Continuous
 62
     6
100
AcDbLine
 10
130.974718174884
 20
-20.65073170482226
 30
0.0
 11
130.974718174884
 21
6.9992682951784
 31
0.0
  0
LINE
  5
FF
330
47
100
AcDbEntity
  8
1
  6
PHANTOM
 62
     2
100
AcDbLine
 10
9.5491768629327
 20
-35.52573170482226
 30
0.0
 11
13.86477183212169
 21
-35.52573170482226
 31
0.0
  0
LINE
  5
100
330
47
100
AcDbEntity
  8
1
  6
PHANTOM
 62
     2
100
AcDbLine
 10
6.5221734732357
 20
-33.87573170482217
 30
0.0
 11
6.5221734732357
 21
-37.17573170482224
 31
0.0
  0
LINE
  5
101
330
47
100
AcDbEntity
  8
1
  6
PHANTOM
 62
     2
100
AcDbLine
 10
8.1721734732357
 20
-35.52573170482226
 30
0.0
 11
4.87217347323569
 21
-35.52573170482226
 31
0.0
  0
LINE
  5
102
330
47
100
AcDbEntity
  8
1
  6
Continuous
 62
     7
100
AcDbLine
 10
37.82991364813229
 20
-37.65073170482226
 30
0.0
 11
37.82991364813229
 21
-33.40073170482226
 31
0.0
  0
LINE
  5
103
330
47
100
AcDbEntity
  8
1
  6
Continuous
 62
     7
100
AcDbLine
 10
1.4299136481324
 20
-37.65073170482226
 30
0.0
 11
37.82991364813229
 21
-37.65073170482226
 31
0.0
  0
LINE
  5
104
330
47
100
AcDbEntity
  8
1
  6
Continuous
 62
     7
100
AcDbLine
 10
-101.3252818251178
 20
-46.15073170482215
 30
0.0
 11
-39.0700863518676
 21
-46.15073170482215
 31
0.0
  0
LINE
  5
105
330
47
100
AcDbEntity
  8
1
  6
Continuous
 62
     2
100
AcDbLine
 10
-101.3252818251178
 20
-46.15073170482215
 30
0.0
 11
-101.3252818251178
 21
-50.40073170482215
 31
0.0
  0
LINE
  5
106
330
47
100
AcDbEntity
  8
1
  6
Continuous
 62
     2
100
AcDbLine
 10
-101.3252818251178
 20
-41.90073170482226
 30
0.0
 11
-114.8252818251178
 21
-41.90073170482226
 31
0.0
  0
LINE
  5
107
330
47
100
AcDbEntity
  8
1
  6
Continuous
 62
     2
100
AcDbLine
 10
-101.3252818251178
 20
-41.90073170482226
 30
0.0
 11
-101.3252818251178
 21
-46.15073170482215
 31
0.0
  0
LINE
  5
108
330
47
100
AcDbEntity
  8
1
  6
Continuous
 62
     2
100
AcDbLine
 10
-101.3252818251178
 20
-33.40073170482226
 30
0.0
 11
-114.8252818251178
 21
-33.40073170482226
 31
0.0
  0
LINE
  5
109
330
47
100
AcDbEntity
  8
1
  6
Continuous
 62
     2
100
AcDbLine
 10
-101.3252818251178
 20
-33.40073170482226
 30
0.0
 11
-101.3252818251178
 21
-37.65073170482226
 31
0.0
  0
LINE
  5
10A
330
47
100
AcDbEntity
  8
1
  6
Continuous
 62
     2
100
AcDbLine
 10
-101.3252818251178
 20
-37.65073170482226
 30
0.0
 11
-114.8252818251178
 21
-37.65073170482226
 31
0.0
  0
LINE
  5
10B
330
47
100
AcDbEntity
  8
1
  6
Continuous
 62
     2
100
AcDbLine
 10
-101.3252818251178
 20
-37.65073170482226
 30
0.0
 11
-101.3252818251178
 21
-41.90073170482226
 31
0.0
  0
LINE
  5
10C
330
47
100
AcDbEntity
  8
1
  6
Continuous
 62
     2
100
AcDbLine
 10
-101.3252818251178
 20
-24.90073170482226
 30
0.0
 11
-114.8252818251178
 21
-24.90073170482226
 31
0.0
  0
LINE
  5
10D
330
47
100
AcDbEntity
  8
1
  6
Continuous
 62
     2
100
AcDbLine
 10
-101.3252818251178
 20
-29.15073170482226
 30
0.0
 11
-114.8252818251178
 21
-29.15073170482226
 31
0.0
  0
LINE
  5
10E
330
47
100
AcDbEntity
  8
1
  6
Continuous
 62
     2
100
AcDbLine
 10
-101.3252818251178
 20
-29.15073170482226
 30
0.0
 11
-101.3252818251178
 21
-33.40073170482226
 31
0.0
  0
LINE
  5
10F
330
47
100
AcDbEntity
  8
1
  6
Continuous
 62
     2
100
AcDbLine
 10
-101.3252818251178
 20
-24.90073170482226
 30
0.0
 11
-101.3252818251178
 21
-29.15073170482226
 31
0.0
  0
LINE
  5
110
330
47
100
AcDbEntity
  8
1
  6
Continuous
 62
     6
100
AcDbLine
 10
-101.3252818251178
 20
-20.65073170482226
 30
0.0
 11
-114.8252818251178
 21
-20.65073170482226
 31
0.0
  0
LINE
  5
111
330
47
100
AcDbEntity
  8
1
  6
Continuous
 62
     2
100
AcDbLine
 10
-101.3252818251178
 20
-20.65073170482226
 30
0.0
 11
-101.3252818251178
 21
-24.90073170482226
 31
0.0
  0
LINE
  5
112
330
47
100
AcDbEntity
  8
1
  6
Continuous
 62
     6
100
AcDbLine
 10
130.974718174884
 20
-20.65073170482226
 30
0.0
 11
113.0931264565632
 21
-20.65073170482226
 31
0.0
  0
LINE
  5
113
330
47
100
AcDbEntity
  8
1
  6
Continuous
 62
     7
100
AcDbLine
 10
130.9747181748836
 20
-41.90073170482226
 30
0.0
 11
85.97471817488601
 21
-41.90073170482226
 31
0.0
  0
LINE
  5
114
330
47
100
AcDbEntity
  8
1
  6
Continuous
 62
     7
100
AcDbLine
 10
130.9747181748831
 20
-29.15073170482226
 30
0.0
 11
113.0931264565632
 21
-29.15073170482226
 31
0.0
  0
LINE
  5
115
330
47
100
AcDbEntity
  8
1
  6
Continuous
 62
     7
100
AcDbLine
 10
85.97471817488601
 20
-33.40073170482226
 30
0.0
 11
130.9747181748841
 21
-33.40073170482226
 31
0.0
  0
LINE
  5
116
330
47
100
AcDbEntity
  8
1
  6
Continuous
 62
     7
100
AcDbLine
 10
37.82991364813229
 20
-24.90073170482226
 30
0.0
 11
37.82991364813229
 21
-29.15073170482226
 31
0.0
  0
LINE
  5
117
330
47
100
AcDbEntity
  8
1
  6
Continuous
 62
     7
100
AcDbLine
 10
24.32991364813229
 20
-24.90073170482226
 30
0.0
 11
37.82991364813229
 21
-24.90073170482226
 31
0.0
  0
LINE
  5
118
330
47
100
AcDbEntity
  8
1
  6
Continuous
 62
     7
100
AcDbLine
 10
24.32991364813229
 20
-24.90073170482226
 30
0.0
 11
10.8299136481324
 21
-24.90073170482226
 31
0.0
  0
LINE
  5
119
330
47
100
AcDbEntity
  8
1
  6
Continuous
 62
     7
100
AcDbLine
 10
113.0931264565632
 20
-29.15073170482226
 30
0.0
 11
113.0931264565632
 21
-20.65073170482226
 31
0.0
  0
LINE
  5
11A
330
47
100
AcDbEntity
  8
1
  6
Continuous
 62
     6
100
AcDbLine
 10
104.174718174884
 20
-20.65073170482226
 30
0.0
 11
113.0931264565632
 21
-20.65073170482226
 31
0.0
  0
LINE
  5
11B
330
47
100
AcDbEntity
  8
1
  6
Continuous
 62
     7
100
AcDbLine
 10
104.174718174884
 20
-20.65073170482226
 30
0.0
 11
104.1747181748843
 21
-29.15073170482215
 31
0.0
  0
LINE
  5
11C
330
47
100
AcDbEntity
  8
1
  6
Continuous
 62
     7
100
AcDbLine
 10
85.97471817488601
 20
-41.90073170482226
 30
0.0
 11
67.4747181748864
 21
-41.90073170482226
 31
0.0
  0
LINE
  5
11D
330
47
100
AcDbEntity
  8
1
  6
Continuous
 62
     7
100
AcDbLine
 10
85.97471817488601
 20
-33.40073170482226
 30
0.0
 11
85.97471817488601
 21
-41.90073170482226
 31
0.0
  0
LINE
  5
11E
330
47
100
AcDbEntity
  8
1
  6
Continuous
 62
     2
100
AcDbLine
 10
-12.07008635186769
 20
-20.65073170482226
 30
0.0
 11
-12.07008635186769
 21
-24.90073170482226
 31
0.0
  0
LINE
  5
11F
330
47
100
AcDbEntity
  8
1
  6
Continuous
 62
     2
100
AcDbLine
 10
-25.5700863518676
 20
-20.65073170482226
 30
0.0
 11
-25.5700863518676
 21
-24.90073170482226
 31
0.0
  0
LINE
  5
120
330
47
100
AcDbEntity
  8
1
  6
Continuous
 62
     6
100
AcDbLine
 10
-12.07008635186769
 20
-20.65073170482226
 30
0.0
 11
-25.5700863518676
 21
-20.65073170482226
 31
0.0
  0
LINE
  5
121
330
47
100
AcDbEntity
  8
1
  6
Continuous
 62
     6
100
AcDbLine
 10
-25.5700863518676
 20
-20.65073170482226
 30
0.0
 11
-39.0700863518676
 21
-20.65073170482226
 31
0.0
  0
LINE
  5
122
330
47
100
AcDbEntity
  8
1
  6
Continuous
 62
     2
100
AcDbLine
 10
-39.0700863518676
 20
-20.65073170482226
 30
0.0
 11
-39.0700863518676
 21
-24.90073170482226
 31
0.0
  0
LINE
  5
123
330
47
100
AcDbEntity
  8
1
  6
Continuous
 62
     7
100
AcDbLine
 10
19.6299136481323
 20
-46.15073170482215
 30
0.0
 11
19.6299136481323
 21
-50.40073170482215
 31
0.0
  0
LINE
  5
124
330
47
100
AcDbEntity
  8
1
  6
Continuous
 62
     7
100
AcDbLine
 10
19.6299136481323
 20
-46.15073170482215
 30
0.0
 11
1.4299136481324
 21
-46.15073170482215
 31
0.0
  0
LINE
  5
125
330
47
100
AcDbEntity
  8
1
  6
Continuous
 62
     7
100
AcDbLine
 10
24.32991364813229
 20
-33.40073170482226
 30
0.0
 11
10.8299136481324
 21
-33.40073170482215
 31
0.0
  0
LINE
  5
126
330
47
100
AcDbEntity
  8
1
  6
Continuous
 62
     7
100
AcDbLine
 10
37.82991364813229
 20
-46.15073170482215
 30
0.0
 11
19.6299136481323
 21
-46.15073170482215
 31
0.0
  0
LINE
  5
127
330
47
100
AcDbEntity
  8
1
  6
Continuous
 62
     6
100
AcDbLine
 10
37.82991364813229
 20
-20.65073170482226
 30
0.0
 11
60.7299136481323
 21
-20.65073170482226
 31
0.0
  0
LINE
  5
128
330
47
100
AcDbEntity
  8
1
  6
Continuous
 62
     6
100
AcDbLine
 10
104.174718174884
 20
-20.65073170482226
 30
0.0
 11
60.7299136481323
 21
-20.65073170482226
 31
0.0
  0
LINE
  5
129
330
47
100
AcDbEntity
  8
1
  6
Continuous
 62
     7
100
AcDbLine
 10
60.7299136481323
 20
-20.65073170482226
 30
0.0
 11
60.7299136481323
 21
-29.15073170482226
 31
0.0
  0
LINE
  5
12A
330
47
100
AcDbEntity
  8
1
  6
Continuous
 62
     6
100
AcDbLine
 10
-114.8252818251178
 20
-20.65073170482226
 30
0.0
 11
-121.0252818251158
 21
-20.65073170482226
 31
0.0
  0
LINE
  5
12B
330
47
100
AcDbEntity
  8
1
  6
Continuous
 62
     6
100
AcDbLine
 10
-121.0252818251158
 20
-50.40073170482215
 30
0.0
 11
-121.0252818251158
 21
-46.15073170482215
 31
0.0
  0
LINE
  5
12C
330
47
100
AcDbEntity
  8
1
  6
Continuous
 62
     6
100
AcDbLine
 10
-121.0252818251158
 20
-46.15073170482215
 30
0.0
 11
-121.0252818251158
 21
-41.90073170482226
 31
0.0
  0
LINE
  5
12D
330
47
100
AcDbEntity
  8
1
  6
Continuous
 62
     7
100
AcDbLine
 10
24.32991364813229
 20
-29.15073170482226
 30
0.0
 11
24.32991364813229
 21
-33.40073170482226
 31
0.0
  0
LINE
  5
12E
330
47
100
AcDbEntity
  8
1
  6
Continuous
 62
     7
100
AcDbLine
 10
10.8299136481324
 20
-29.15073170482226
 30
0.0
 11
10.8299136481324
 21
-33.40073170482215
 31
0.0
  0
LINE
  5
12F
330
47
100
AcDbEntity
  8
1
  6
Continuous
 62
     7
100
AcDbLine
 10
24.32991364813229
 20
-29.15073170482226
 30
0.0
 11
10.8299136481324
 21
-29.15073170482226
 31
0.0
  0
LINE
  5
130
330
47
100
AcDbEntity
  8
1
  6
Continuous
 62
     2
100
AcDbLine
 10
1.4299136481324
 20
-33.40073170482226
 30
0.0
 11
-12.07008635186769
 21
-33.40073170482226
 31
0.0
  0
LINE
  5
131
330
47
100
AcDbEntity
  8
1
  6
Continuous
 62
     2
100
AcDbLine
 10
-114.8252818251178
 20
-33.40073170482226
 30
0.0
 11
-114.8252818251178
 21
-29.15073170482226
 31
0.0
  0
LINE
  5
132
330
47
100
AcDbEntity
  8
1
  6
Continuous
 62
     2
100
AcDbLine
 10
-114.8252818251178
 20
-33.40073170482226
 30
0.0
 11
-121.0252818251158
 21
-33.40073170482226
 31
0.0
  0
LINE
  5
133
330
47
100
AcDbEntity
  8
1
  6
Continuous
 62
     2
100
AcDbLine
 10
1.4299136481324
 20
-29.15073170482226
 30
0.0
 11
-12.07008635186769
 21
-29.15073170482226
 31
0.0
  0
LINE
  5
134
330
47
100
AcDbEntity
  8
1
  6
Continuous
 62
     2
100
AcDbLine
 10
-114.8252818251178
 20
-29.15073170482226
 30
0.0
 11
-114.8252818251178
 21
-24.90073170482226
 31
0.0
  0
LINE
  5
135
330
47
100
AcDbEntity
  8
1
  6
Continuous
 62
     2
100
AcDbLine
 10
1.4299136481324
 20
-24.90073170482226
 30
0.0
 11
-12.07008635186769
 21
-24.90073170482226
 31
0.0
  0
LINE
  5
136
330
47
100
AcDbEntity
  8
1
  6
Continuous
 62
     2
100
AcDbLine
 10
-114.8252818251178
 20
-24.90073170482226
 30
0.0
 11
-114.8252818251178
 21
-20.65073170482226
 31
0.0
  0
LINE
  5
137
330
47
100
AcDbEntity
  8
1
  6
Continuous
 62
     2
100
AcDbLine
 10
-114.8252818251178
 20
-24.90073170482226
 30
0.0
 11
-121.0252818251158
 21
-24.90073170482226
 31
0.0
  0
LINE
  5
138
330
47
100
AcDbEntity
  8
1
  6
Continuous
 62
     6
100
AcDbLine
 10
1.4299136481324
 20
-20.65073170482226
 30
0.0
 11
-12.07008635186769
 21
-20.65073170482226
 31
0.0
  0
LINE
  5
139
330
47
100
AcDbEntity
  8
1
  6
Continuous
 62
     2
100
AcDbLine
 10
1.4299136481324
 20
-41.90073170482226
 30
0.0
 11
-12.07008635186769
 21
-41.90073170482226
 31
0.0
  0
LINE
  5
13A
330
47
100
AcDbEntity
  8
1
  6
Continuous
 62
     2
100
AcDbLine
 10
1.4299136481324
 20
-37.65073170482226
 30
0.0
 11
-12.07008635186769
 21
-37.65073170482226
 31
0.0
  0
LINE
  5
13B
330
47
100
AcDbEntity
  8
1
  6
Continuous
 62
     2
100
AcDbLine
 10
-114.8252818251178
 20
-41.90073170482226
 30
0.0
 11
-114.8252818251178
 21
-37.65073170482226
 31
0.0
  0
LINE
  5
13C
330
47
100
AcDbEntity
  8
1
  6
Continuous
 62
     2
100
AcDbLine
 10
-114.8252818251178
 20
-37.65073170482226
 30
0.0
 11
-114.8252818251178
 21
-33.40073170482226
 31
0.0
  0
LINE
  5
13D
330
47
100
AcDbEntity
  8
1
  6
Continuous
 62
     7
100
AcDbLine
 10
-114.8252818251178
 20
-46.15073170482215
 30
0.0
 11
-101.3252818251178
 21
-46.15073170482215
 31
0.0
  0
LINE
  5
13E
330
47
100
AcDbEntity
  8
1
  6
Continuous
 62
     2
100
AcDbLine
 10
-114.8252818251178
 20
-46.15073170482215
 30
0.0
 11
-114.8252818251178
 21
-41.90073170482226
 31
0.0
  0
LINE
  5
13F
330
47
100
AcDbEntity
  8
1
  6
Continuous
 62
     7
100
AcDbLine
 10
37.82991364813229
 20
-41.90073170482226
 30
0.0
 11
37.82991364813229
 21
-37.65073170482226
 31
0.0
  0
LINE
  5
140
330
47
100
AcDbEntity
  8
1
  6
Continuous
 62
     6
100
AcDbLine
 10
24.32991364813229
 20
-20.65073170482226
 30
0.0
 11
37.82991364813229
 21
-20.65073170482226
 31
0.0
  0
LINE
  5
141
330
47
100
AcDbEntity
  8
1
  6
Continuous
 62
     7
100
AcDbLine
 10
37.82991364813229
 20
-20.65073170482226
 30
0.0
 11
37.82991364813229
 21
-24.90073170482226
 31
0.0
  0
LINE
  5
142
330
47
100
AcDbEntity
  8
1
  6
Continuous
 62
     6
100
AcDbLine
 10
10.8299136481324
 20
-20.65073170482226
 30
0.0
 11
24.32991364813229
 21
-20.65073170482226
 31
0.0
  0
LINE
  5
143
330
47
100
AcDbEntity
  8
1
  6
Continuous
 62
     7
100
AcDbLine
 10
1.4299136481324
 20
-33.40073170482226
 30
0.0
 11
1.4299136481324
 21
-37.65073170482226
 31
0.0
  0
LINE
  5
144
330
47
100
AcDbEntity
  8
1
  6
Continuous
 62
     7
100
AcDbLine
 10
1.4299136481324
 20
-29.15073170482226
 30
0.0
 11
1.4299136481324
 21
-33.40073170482226
 31
0.0
  0
LINE
  5
145
330
47
100
AcDbEntity
  8
1
  6
Continuous
 62
     2
100
AcDbLine
 10
-121.0252818251158
 20
-29.15073170482226
 30
0.0
 11
-114.8252818251178
 21
-29.15073170482226
 31
0.0
  0
LINE
  5
146
330
47
100
AcDbEntity
  8
1
  6
Continuous
 62
     7
100
AcDbLine
 10
1.4299136481324
 20
-24.90073170482226
 30
0.0
 11
1.4299136481324
 21
-29.15073170482226
 31
0.0
  0
LINE
  5
147
330
47
100
AcDbEntity
  8
1
  6
Continuous
 62
     7
100
AcDbLine
 10
37.82991364813229
 20
-29.15073170482226
 30
0.0
 11
37.82991364813229
 21
-33.40073170482226
 31
0.0
  0
LINE
  5
148
330
47
100
AcDbEntity
  8
1
  6
Continuous
 62
     7
100
AcDbLine
 10
24.32991364813229
 20
-20.65073170482226
 30
0.0
 11
24.32991364813229
 21
-24.90073170482226
 31
0.0
  0
LINE
  5
149
330
47
100
AcDbEntity
  8
1
  6
Continuous
 62
     7
100
AcDbLine
 10
10.8299136481324
 20
-20.65073170482226
 30
0.0
 11
10.8299136481324
 21
-24.90073170482226
 31
0.0
  0
LINE
  5
14A
330
47
100
AcDbEntity
  8
1
  6
Continuous
 62
     2
100
AcDbLine
 10
-114.8252818251178
 20
-50.40073170482226
 30
0.0
 11
-114.8252818251178
 21
-46.15073170482215
 31
0.0
  0
LINE
  5
14B
330
47
100
AcDbEntity
  8
1
  6
Continuous
 62
     2
100
AcDbLine
 10
-121.0252818251158
 20
-41.90073170482226
 30
0.0
 11
-114.8252818251178
 21
-41.90073170482226
 31
0.0
  0
LINE
  5
14C
330
47
100
AcDbEntity
  8
1
  6
Continuous
 62
     2
100
AcDbLine
 10
-121.0252818251158
 20
-37.65073170482226
 30
0.0
 11
-114.8252818251178
 21
-37.65073170482226
 31
0.0
  0
LINE
  5
14D
330
47
100
AcDbEntity
  8
1
  6
Continuous
 62
     7
100
AcDbLine
 10
-121.0252818251158
 20
-46.15073170482215
 30
0.0
 11
-114.8252818251178
 21
-46.15073170482215
 31
0.0
  0
LINE
  5
14E
330
47
100
AcDbEntity
  8
1
  6
Continuous
 62
     7
100
AcDbLine
 10
37.82991364813229
 20
-41.90073170482226
 30
0.0
 11
37.82991364813229
 21
-46.15073170482215
 31
0.0
  0
LINE
  5
14F
330
47
100
AcDbEntity
  8
1
  6
Continuous
 62
     7
100
AcDbLine
 10
1.4299136481324
 20
-37.65073170482226
 30
0.0
 11
1.4299136481324
 21
-41.90073170482226
 31
0.0
  0
LINE
  5
150
330
47
100
AcDbEntity
  8
1
  6
Continuous
 62
     7
100
AcDbLine
 10
1.4299136481324
 20
-41.90073170482226
 30
0.0
 11
1.4299136481324
 21
-46.15073170482215
 31
0.0
  0
LINE
  5
151
330
47
100
AcDbEntity
  8
1
  6
Continuous
 62
     7
100
AcDbLine
 10
24.32991364813229
 20
-24.90073170482226
 30
0.0
 11
24.32991364813229
 21
-29.15073170482226
 31
0.0
  0
LINE
  5
152
330
47
100
AcDbEntity
  8
1
  6
Continuous
 62
     7
100
AcDbLine
 10
10.8299136481324
 20
-24.90073170482226
 30
0.0
 11
10.8299136481324
 21
-29.15073170482226
 31
0.0
  0
LINE
  5
153
330
47
100
AcDbEntity
  8
1
  6
Continuous
 62
     7
100
AcDbLine
 10
1.4299136481324
 20
-29.15073170482226
 30
0.0
 11
10.8299136481324
 21
-29.15073170482226
 31
0.0
  0
LINE
  5
154
330
47
100
AcDbEntity
  8
1
  6
Continuous
 62
     7
100
AcDbLine
 10
37.82991364813229
 20
-33.40073170482226
 30
0.0
 11
24.32991364813229
 21
-33.40073170482226
 31
0.0
  0
LINE
  5
155
330
47
100
AcDbEntity
  8
1
  6
Continuous
 62
     7
100
AcDbLine
 10
37.82991364813229
 20
-46.15073170482215
 30
0.0
 11
37.82991364813229
 21
-50.40073170482226
 31
0.0
  0
LINE
  5
156
330
47
100
AcDbEntity
  8
1
  6
Continuous
 62
     7
100
AcDbLine
 10
1.4299136481324
 20
-46.15073170482215
 30
0.0
 11
1.4299136481324
 21
-50.40073170482226
 31
0.0
  0
LINE
  5
157
330
47
100
AcDbEntity
  8
1
  6
Continuous
 62
     7
100
AcDbLine
 10
1.4299136481324
 20
-20.65073170482226
 30
0.0
 11
1.4299136481324
 21
-24.90073170482226
 31
0.0
  0
LINE
  5
158
330
47
100
AcDbEntity
  8
1
  6
Continuous
 62
     7
100
AcDbLine
 10
37.82991364813229
 20
-41.90073170482226
 30
0.0
 11
67.4747181748864
 21
-41.90073170482226
 31
0.0
  0
LINE
  5
159
330
47
100
AcDbEntity
  8
1
  6
Continuous
 62
     7
100
AcDbLine
 10
37.82991364813229
 20
-33.40073170482226
 30
0.0
 11
67.4747181748864
 21
-33.40073170482226
 31
0.0
  0
LINE
  5
15A
330
47
100
AcDbEntity
  8
1
  6
Continuous
 62
     7
100
AcDbLine
 10
104.1747181748843
 20
-29.15073170482215
 30
0.0
 11
113.0931264565632
 21
-29.15073170482226
 31
0.0
  0
LINE
  5
15B
330
47
100
AcDbEntity
  8
1
  6
Continuous
 62
     7
100
AcDbLine
 10
104.1747181748843
 20
-29.15073170482215
 30
0.0
 11
67.4747181748864
 21
-29.15073170482226
 31
0.0
  0
LINE
  5
15C
330
47
100
AcDbEntity
  8
1
  6
Continuous
 62
     7
100
AcDbLine
 10
67.4747181748864
 20
-33.40073170482226
 30
0.0
 11
85.97471817488601
 21
-33.40073170482226
 31
0.0
  0
LINE
  5
15D
330
47
100
AcDbEntity
  8
1
  6
Continuous
 62
     7
100
AcDbLine
 10
67.4747181748864
 20
-33.40073170482226
 30
0.0
 11
67.4747181748864
 21
-41.90073170482226
 31
0.0
  0
LINE
  5
15E
330
47
100
AcDbEntity
  8
1
  6
Continuous
 62
     6
100
AcDbLine
 10
-121.0252818251158
 20
-24.90073170482226
 30
0.0
 11
-121.0252818251158
 21
-20.65073170482226
 31
0.0
  0
LINE
  5
15F
330
47
100
AcDbEntity
  8
1
  6
Continuous
 62
     6
100
AcDbLine
 10
-121.0252818251158
 20
-29.15073170482226
 30
0.0
 11
-121.0252818251158
 21
-24.90073170482226
 31
0.0
  0
LINE
  5
160
330
47
100
AcDbEntity
  8
1
  6
Continuous
 62
     6
100
AcDbLine
 10
-121.0252818251158
 20
-33.40073170482226
 30
0.0
 11
-121.0252818251158
 21
-29.15073170482226
 31
0.0
  0
LINE
  5
161
330
47
100
AcDbEntity
  8
1
  6
Continuous
 62
     6
100
AcDbLine
 10
-121.0252818251158
 20
-41.90073170482226
 30
0.0
 11
-121.0252818251158
 21
-37.65073170482226
 31
0.0
  0
LINE
  5
162
330
47
100
AcDbEntity
  8
1
  6
Continuous
 62
     6
100
AcDbLine
 10
-39.0700863518676
 20
-20.65073170482226
 30
0.0
 11
-101.3252818251178
 21
-20.65073170482226
 31
0.0
  0
LINE
  5
163
330
47
100
AcDbEntity
  8
1
  6
Continuous
 62
     2
100
AcDbLine
 10
-101.3252818251178
 20
-24.90073170482226
 30
0.0
 11
-39.0700863518676
 21
-24.90073170482226
 31
0.0
  0
LINE
  5
164
330
47
100
AcDbEntity
  8
1
  6
Continuous
 62
     2
100
AcDbLine
 10
-101.3252818251178
 20
-29.15073170482226
 30
0.0
 11
-39.0700863518676
 21
-29.15073170482226
 31
0.0
  0
LINE
  5
165
330
47
100
AcDbEntity
  8
1
  6
Continuous
 62
     7
100
AcDbLine
 10
24.32991364813229
 20
-29.15073170482226
 30
0.0
 11
37.82991364813229
 21
-29.15073170482226
 31
0.0
  0
LINE
  5
166
330
47
100
AcDbEntity
  8
1
  6
Continuous
 62
     7
100
AcDbLine
 10
60.7299136481323
 20
-29.15073170482226
 30
0.0
 11
37.82991364813229
 21
-29.15073170482226
 31
0.0
  0
LINE
  5
167
330
47
100
AcDbEntity
  8
1
  6
Continuous
 62
     2
100
AcDbLine
 10
-12.07008635186769
 20
-41.90073170482226
 30
0.0
 11
-12.07008635186769
 21
-46.15073170482215
 31
0.0
  0
LINE
  5
168
330
47
100
AcDbEntity
  8
1
  6
Continuous
 62
     2
100
AcDbLine
 10
-12.07008635186769
 20
-41.90073170482226
 30
0.0
 11
-25.5700863518676
 21
-41.90073170482226
 31
0.0
  0
LINE
  5
169
330
47
100
AcDbEntity
  8
1
  6
Continuous
 62
     2
100
AcDbLine
 10
-12.07008635186769
 20
-46.15073170482215
 30
0.0
 11
-12.07008635186769
 21
-50.40073170482226
 31
0.0
  0
LINE
  5
16A
330
47
100
AcDbEntity
  8
1
  6
Continuous
 62
     7
100
AcDbLine
 10
-12.07008635186769
 20
-46.15073170482215
 30
0.0
 11
1.4299136481324
 21
-46.15073170482215
 31
0.0
  0
LINE
  5
16B
330
47
100
AcDbEntity
  8
1
  6
Continuous
 62
     2
100
AcDbLine
 10
-12.07008635186769
 20
-33.40073170482226
 30
0.0
 11
-12.07008635186769
 21
-37.65073170482226
 31
0.0
  0
LINE
  5
16C
330
47
100
AcDbEntity
  8
1
  6
Continuous
 62
     2
100
AcDbLine
 10
-12.07008635186769
 20
-33.40073170482226
 30
0.0
 11
-25.5700863518676
 21
-33.40073170482226
 31
0.0
  0
LINE
  5
16D
330
47
100
AcDbEntity
  8
1
  6
Continuous
 62
     2
100
AcDbLine
 10
-12.07008635186769
 20
-29.15073170482226
 30
0.0
 11
-12.07008635186769
 21
-33.40073170482226
 31
0.0
  0
LINE
  5
16E
330
47
100
AcDbEntity
  8
1
  6
Continuous
 62
     2
100
AcDbLine
 10
-12.07008635186769
 20
-29.15073170482226
 30
0.0
 11
-25.5700863518676
 21
-29.15073170482226
 31
0.0
  0
LINE
  5
16F
330
47
100
AcDbEntity
  8
1
  6
Continuous
 62
     2
100
AcDbLine
 10
-12.07008635186769
 20
-24.90073170482226
 30
0.0
 11
-12.07008635186769
 21
-29.15073170482226
 31
0.0
  0
LINE
  5
170
330
47
100
AcDbEntity
  8
1
  6
Continuous
 62
     2
100
AcDbLine
 10
-12.07008635186769
 20
-24.90073170482226
 30
0.0
 11
-25.5700863518676
 21
-24.90073170482226
 31
0.0
  0
LINE
  5
171
330
47
100
AcDbEntity
  8
1
  6
Continuous
 62
     2
100
AcDbLine
 10
-12.07008635186769
 20
-37.65073170482226
 30
0.0
 11
-12.07008635186769
 21
-41.90073170482226
 31
0.0
  0
LINE
  5
172
330
47
100
AcDbEntity
  8
1
  6
Continuous
 62
     2
100
AcDbLine
 10
-12.07008635186769
 20
-37.65073170482226
 30
0.0
 11
-25.5700863518676
 21
-37.65073170482226
 31
0.0
  0
LINE
  5
173
330
47
100
AcDbEntity
  8
1
  6
Continuous
 62
     2
100
AcDbLine
 10
-25.5700863518676
 20
-41.90073170482226
 30
0.0
 11
-25.5700863518676
 21
-46.15073170482215
 31
0.0
  0
LINE
  5
174
330
47
100
AcDbEntity
  8
1
  6
Continuous
 62
     2
100
AcDbLine
 10
-25.5700863518676
 20
-41.90073170482226
 30
0.0
 11
-39.0700863518676
 21
-41.90073170482226
 31
0.0
  0
LINE
  5
175
330
47
100
AcDbEntity
  8
1
  6
Continuous
 62
     2
100
AcDbLine
 10
-25.5700863518676
 20
-46.15073170482215
 30
0.0
 11
-25.5700863518676
 21
-50.40073170482226
 31
0.0
  0
LINE
  5
176
330
47
100
AcDbEntity
  8
1
  6
Continuous
 62
     7
100
AcDbLine
 10
-25.5700863518676
 20
-46.15073170482215
 30
0.0
 11
-12.07008635186769
 21
-46.15073170482215
 31
0.0
  0
LINE
  5
177
330
47
100
AcDbEntity
  8
1
  6
Continuous
 62
     2
100
AcDbLine
 10
-25.5700863518676
 20
-33.40073170482226
 30
0.0
 11
-25.5700863518676
 21
-37.65073170482226
 31
0.0
  0
LINE
  5
178
330
47
100
AcDbEntity
  8
1
  6
Continuous
 62
     2
100
AcDbLine
 10
-25.5700863518676
 20
-33.40073170482226
 30
0.0
 11
-39.0700863518676
 21
-33.40073170482226
 31
0.0
  0
LINE
  5
179
330
47
100
AcDbEntity
  8
1
  6
Continuous
 62
     2
100
AcDbLine
 10
-25.5700863518676
 20
-29.15073170482226
 30
0.0
 11
-25.5700863518676
 21
-33.40073170482226
 31
0.0
  0
LINE
  5
17A
330
47
100
AcDbEntity
  8
1
  6
Continuous
 62
     2
100
AcDbLine
 10
-25.5700863518676
 20
-29.15073170482226
 30
0.0
 11
-39.0700863518676
 21
-29.15073170482226
 31
0.0
  0
LINE
  5
17B
330
47
100
AcDbEntity
  8
1
  6
Continuous
 62
     2
100
AcDbLine
 10
-25.5700863518676
 20
-24.90073170482226
 30
0.0
 11
-25.5700863518676
 21
-29.15073170482226
 31
0.0
  0
LINE
  5
17C
330
47
100
AcDbEntity
  8
1
  6
Continuous
 62
     2
100
AcDbLine
 10
-25.5700863518676
 20
-24.90073170482226
 30
0.0
 11
-39.0700863518676
 21
-24.90073170482226
 31
0.0
  0
LINE
  5
17D
330
47
100
AcDbEntity
  8
1
  6
Continuous
 62
     2
100
AcDbLine
 10
-25.5700863518676
 20
-37.65073170482226
 30
0.0
 11
-25.5700863518676
 21
-41.90073170482226
 31
0.0
  0
LINE
  5
17E
330
47
100
AcDbEntity
  8
1
  6
Continuous
 62
     2
100
AcDbLine
 10
-25.5700863518676
 20
-37.65073170482226
 30
0.0
 11
-39.0700863518676
 21
-37.65073170482226
 31
0.0
  0
LINE
  5
17F
330
47
100
AcDbEntity
  8
1
  6
Continuous
 62
     2
100
AcDbLine
 10
-39.0700863518676
 20
-41.90073170482226
 30
0.0
 11
-39.0700863518676
 21
-46.15073170482215
 31
0.0
  0
LINE
  5
180
330
47
100
AcDbEntity
  8
1
  6
Continuous
 62
     2
100
AcDbLine
 10
-39.0700863518676
 20
-41.90073170482226
 30
0.0
 11
-101.3252818251178
 21
-41.90073170482226
 31
0.0
  0
LINE
  5
181
330
47
100
AcDbEntity
  8
1
  6
Continuous
 62
     2
100
AcDbLine
 10
-39.0700863518676
 20
-46.15073170482215
 30
0.0
 11
-39.0700863518676
 21
-50.40073170482226
 31
0.0
  0
LINE
  5
182
330
47
100
AcDbEntity
  8
1
  6
Continuous
 62
     7
100
AcDbLine
 10
-39.0700863518676
 20
-46.15073170482215
 30
0.0
 11
-25.5700863518676
 21
-46.15073170482215
 31
0.0
  0
LINE
  5
183
330
47
100
AcDbEntity
  8
1
  6
Continuous
 62
     2
100
AcDbLine
 10
-39.0700863518676
 20
-33.40073170482226
 30
0.0
 11
-39.0700863518676
 21
-37.65073170482226
 31
0.0
  0
LINE
  5
184
330
47
100
AcDbEntity
  8
1
  6
Continuous
 62
     2
100
AcDbLine
 10
-39.0700863518676
 20
-33.40073170482226
 30
0.0
 11
-101.3252818251178
 21
-33.40073170482226
 31
0.0
  0
LINE
  5
185
330
47
100
AcDbEntity
  8
1
  6
Continuous
 62
     2
100
AcDbLine
 10
-39.0700863518676
 20
-29.15073170482226
 30
0.0
 11
-39.0700863518676
 21
-33.40073170482226
 31
0.0
  0
LINE
  5
186
330
47
100
AcDbEntity
  8
1
  6
Continuous
 62
     2
100
AcDbLine
 10
-39.0700863518676
 20
-24.90073170482226
 30
0.0
 11
-39.0700863518676
 21
-29.15073170482226
 31
0.0
  0
LINE
  5
187
330
47
100
AcDbEntity
  8
1
  6
Continuous
 62
     2
100
AcDbLine
 10
-39.0700863518676
 20
-37.65073170482226
 30
0.0
 11
-39.0700863518676
 21
-41.90073170482226
 31
0.0
  0
LINE
  5
188
330
47
100
AcDbEntity
  8
1
  6
Continuous
 62
     2
100
AcDbLine
 10
-39.0700863518676
 20
-37.65073170482226
 30
0.0
 11
-101.3252818251178
 21
-37.65073170482226
 31
0.0
  0
LINE
  5
189
330
47
100
AcDbEntity
  8
1
  6
Continuous
 62
     7
100
AcDbLine
 10
10.8299136481324
 20
-33.40073170482215
 30
0.0
 11
1.4299136481324
 21
-33.40073170482226
 31
0.0
  0
LINE
  5
18A
330
47
100
AcDbEntity
  8
1
  6
Continuous
 62
     6
100
AcDbLine
 10
10.8299136481324
 20
-20.65073170482226
 30
0.0
 11
1.4299136481324
 21
-20.65073170482226
 31
0.0
  0
LINE
  5
18B
330
47
100
AcDbEntity
  8
1
  6
Continuous
 62
     7
100
AcDbLine
 10
1.4299136481324
 20
-24.90073170482226
 30
0.0
 11
10.8299136481324
 21
-24.90073170482226
 31
0.0
  0
LINE
  5
18C
330
47
100
AcDbEntity
  8
1
  6
Continuous
 62
     6
100
AcDbLine
 10
-121.0252818251158
 20
-37.65073170482226
 30
0.0
 11
-121.0252818251158
 21
-33.40073170482226
 31
0.0
  0
LINE
  5
18D
330
47
100
AcDbEntity
  8
1
  6
Continuous
 62
     2
100
AcDbLine
 10
9.71018278264769
 20
-34.02573170482226
 30
0.0
 11
13.71018278264769
 21
-34.52573170482226
 31
0.0
  0
LINE
  5
18E
330
47
100
AcDbEntity
  8
1
  6
Continuous
 62
     2
100
AcDbLine
 10
13.71018278264769
 20
-34.52573170482226
 30
0.0
 11
13.71018278264769
 21
-36.52573170482226
 31
0.0
  0
LINE
  5
18F
330
47
100
AcDbEntity
  8
1
  6
Continuous
 62
     2
100
AcDbLine
 10
13.71018278264769
 20
-36.52573170482226
 30
0.0
 11
9.71018278264769
 21
-37.02573170482226
 31
0.0
  0
LINE
  5
190
330
47
100
AcDbEntity
  8
1
  6
Continuous
 62
     2
100
AcDbLine
 10
9.71018278264769
 20
-37.02573170482226
 30
0.0
 11
9.71018278264769
 21
-34.02573170482226
 31
0.0
  0
LINE
  5
191
330
47
100
AcDbEntity
  8
1
  6
Continuous
 62
     2
100
AcDbLine
 10
-74.0252818251159
 20
-55.4007317048217
 30
0.0
 11
-142.3586151584491
 21
-55.4007317048217
 31
0.0
  0
LINE
  5
192
330
47
100
AcDbEntity
  8
1
  6
Continuous
 62
     2
100
AcDbLine
 10
62.6413848415507
 20
-55.4007317048217
 30
0.0
 11
130.9747181748841
 21
-55.4007317048217
 31
0.0
  0
LINE
  5
193
330
47
100
AcDbEntity
  8
1
  6
Continuous
 62
     2
100
AcDbLine
 10
62.6413848415507
 20
-55.4007317048217
 30
0.0
 11
62.6413848415507
 21
-50.4007317048217
 31
0.0
  0
LINE
  5
194
330
47
100
AcDbEntity
  8
1
  6
Continuous
 62
     2
100
AcDbLine
 10
-5.6919484917825
 20
-55.4007317048217
 30
0.0
 11
-5.6919484917825
 21
-50.4007317048217
 31
0.0
  0
LINE
  5
195
330
47
100
AcDbEntity
  8
1
  6
Continuous
 62
     2
100
AcDbLine
 10
-74.0252818251159
 20
-55.4007317048217
 30
0.0
 11
-74.0252818251159
 21
-50.4007317048217
 31
0.0
  0
LINE
  5
196
330
47
100
AcDbEntity
  8
1
  6
Continuous
 62
     2
100
AcDbLine
 10
135.9747181748816
 20
6.9992682951784
 30
0.0
 11
135.9747181748816
 21
64.39926829517849
 31
0.0
  0
LINE
  5
197
330
47
100
AcDbEntity
  8
1
  6
Continuous
 62
     2
100
AcDbLine
 10
135.9747181748816
 20
6.9992682951784
 30
0.0
 11
130.974718174884
 21
6.9992682951784
 31
0.0
  0
LINE
  5
198
330
47
100
AcDbEntity
  8
1
  6
Continuous
 62
     2
100
AcDbLine
 10
-264.0252818251167
 20
-55.4007317048217
 30
0.0
 11
-284.0252818251167
 21
-55.4007317048217
 31
0.0
  0
LINE
  5
199
330
47
100
AcDbEntity
  8
1
  6
Continuous
 62
     2
100
AcDbLine
 10
-210.6919484917825
 20
-55.4007317048217
 30
0.0
 11
-210.6919484917825
 21
-50.4007317048217
 31
0.0
  0
LINE
  5
19A
330
47
100
AcDbEntity
  8
1
  6
Continuous
 62
     2
100
AcDbLine
 10
-210.6919484917825
 20
-55.4007317048217
 30
0.0
 11
-142.3586151584491
 21
-55.4007317048217
 31
0.0
  0
LINE
  5
19B
330
47
100
AcDbEntity
  8
1
  6
Continuous
 62
     6
100
AcDbLine
 10
-210.6919484917825
 20
-50.4007317048217
 30
0.0
 11
-142.3586151584491
 21
-50.4007317048217
 31
0.0
  0
LINE
  5
19C
330
47
100
AcDbEntity
  8
1
  6
Continuous
 62
     6
100
AcDbLine
 10
-210.6919484917825
 20
-50.4007317048217
 30
0.0
 11
-264.0252818251157
 21
-50.4007317048217
 31
0.0
  0
LINE
  5
19D
330
47
100
AcDbEntity
  8
1
  6
Continuous
 62
     2
100
AcDbLine
 10
-142.3586151584491
 20
-55.4007317048217
 30
0.0
 11
-142.3586151584491
 21
-50.4007317048217
 31
0.0
  0
LINE
  5
19E
330
47
100
AcDbEntity
  8
1
  6
Continuous
 62
     2
100
AcDbLine
 10
-264.0252818251167
 20
-55.4007317048217
 30
0.0
 11
-264.0252818251167
 21
-51.4007317048217
 31
0.0
  0
LINE
  5
19F
330
47
100
AcDbEntity
  8
1
  6
Continuous
 62
     2
100
AcDbLine
 10
-264.0252818251167
 20
-55.4007317048217
 30
0.0
 11
-210.6919484917825
 21
-55.4007317048217
 31
0.0
  0
LINE
  5
1A0
330
47
100
AcDbEntity
  8
1
  6
Continuous
 62
     2
100
AcDbLine
 10
-54.0252818251187
 20
-55.4007317048217
 30
0.0
 11
-74.0252818251159
 21
-55.4007317048217
 31
0.0
  0
LINE
  5
1A1
330
47
100
AcDbEntity
  8
1
  6
Continuous
 62
     2
100
AcDbLine
 10
-54.0252818251187
 20
-55.4007317048217
 30
0.0
 11
-54.0252818251187
 21
-51.4007317048217
 31
0.0
  0
LINE
  5
1A2
330
47
100
AcDbEntity
  8
1
  6
Continuous
 62
     2
100
AcDbLine
 10
-54.0252818251187
 20
-55.4007317048217
 30
0.0
 11
-5.6919484917825
 21
-55.4007317048217
 31
0.0
  0
LINE
  5
1A3
330
47
100
AcDbEntity
  8
1
  6
Continuous
 62
     2
100
AcDbLine
 10
-5.6919484917825
 20
-55.4007317048217
 30
0.0
 11
62.6413848415507
 21
-55.4007317048217
 31
0.0
  0
LINE
  5
1A4
330
47
100
AcDbEntity
  8
1
  6
Continuous
 62
     2
100
AcDbLine
 10
135.9747181748816
 20
-55.4007317048217
 30
0.0
 11
130.9747181748841
 21
-55.4007317048217
 31
0.0
  0
LINE
  5
1A5
330
47
100
AcDbEntity
  8
1
  6
Continuous
 62
     2
100
AcDbLine
 10
135.9747181748816
 20
-50.4007317048217
 30
0.0
 11
135.9747181748816
 21
-55.4007317048217
 31
0.0
  0
LINE
  5
1A6
330
47
100
AcDbEntity
  8
1
  6
Continuous
 62
     2
100
AcDbLine
 10
135.9747181748816
 20
-50.4007317048217
 30
0.0
 11
135.9747181748816
 21
6.9992682951784
 31
0.0
  0
LINE
  5
1A7
330
47
100
AcDbEntity
  8
1
  6
Continuous
 62
     2
100
AcDbLine
 10
135.9747181748816
 20
241.5992682951783
 30
0.0
 11
130.9747181748816
 21
241.5992682951783
 31
0.0
  0
LINE
  5
1A8
330
47
100
AcDbEntity
  8
1
  6
Continuous
 62
     6
100
AcDbLine
 10
130.9747181748816
 20
236.5992682951783
 30
0.0
 11
130.9747181748821
 21
179.1992682951782
 31
0.0
  0
LINE
  5
1A9
330
47
100
AcDbEntity
  8
1
  6
Continuous
 62
     2
100
AcDbLine
 10
135.9747181748816
 20
241.5992682951783
 30
0.0
 11
135.9747181748816
 21
236.5992682951783
 31
0.0
  0
LINE
  5
1AA
330
47
100
AcDbEntity
  8
1
  6
Continuous
 62
     2
100
AcDbLine
 10
130.9747181748816
 20
236.5992682951783
 30
0.0
 11
130.9747181748816
 21
241.5992682951783
 31
0.0
  0
LINE
  5
1AB
330
47
100
AcDbEntity
  8
1
  6
Continuous
 62
     2
100
AcDbLine
 10
130.9747181748816
 20
236.5992682951783
 30
0.0
 11
135.9747181748816
 21
236.5992682951783
 31
0.0
  0
LINE
  5
1AC
330
47
100
AcDbEntity
  8
1
  6
Continuous
 62
     2
100
AcDbLine
 10
135.9747181748816
 20
236.5992682951783
 30
0.0
 11
135.9747181748816
 21
179.1992682951782
 31
0.0
  0
LINE
  5
1AD
330
47
100
AcDbEntity
  8
1
  6
Continuous
 62
     2
100
AcDbLine
 10
130.9747181748821
 20
179.1992682951782
 30
0.0
 11
135.9747181748816
 21
179.1992682951782
 31
0.0
  0
LINE
  5
1AE
330
47
100
AcDbEntity
  8
1
  6
Continuous
 62
     6
100
AcDbLine
 10
130.9747181748821
 20
179.1992682951782
 30
0.0
 11
130.9747181748841
 21
121.7992682951784
 31
0.0
  0
LINE
  5
1AF
330
47
100
AcDbEntity
  8
1
  6
Continuous
 62
     2
100
AcDbLine
 10
135.9747181748816
 20
179.1992682951782
 30
0.0
 11
135.9747181748816
 21
121.7992682951784
 31
0.0
  0
LINE
  5
1B0
330
47
100
AcDbEntity
  8
1
  6
Continuous
 62
     2
100
AcDbLine
 10
130.9747181748841
 20
121.7992682951784
 30
0.0
 11
135.9747181748816
 21
121.7992682951784
 31
0.0
  0
LINE
  5
1B1
330
47
100
AcDbEntity
  8
1
  6
Continuous
 62
     6
100
AcDbLine
 10
130.9747181748841
 20
121.7992682951784
 30
0.0
 11
130.9747181748841
 21
64.39926829517849
 31
0.0
  0
LINE
  5
1B2
330
47
100
AcDbEntity
  8
1
  6
Continuous
 62
     2
100
AcDbLine
 10
135.9747181748816
 20
121.7992682951784
 30
0.0
 11
135.9747181748816
 21
64.39926829517849
 31
0.0
  0
LINE
  5
1B3
330
47
100
AcDbEntity
  8
1
  6
Continuous
 62
     2
100
AcDbLine
 10
130.9747181748841
 20
64.39926829517849
 30
0.0
 11
135.9747181748816
 21
64.39926829517849
 31
0.0
  0
LINE
  5
1B4
330
47
100
AcDbEntity
  8
1
  6
Continuous
 62
     6
100
AcDbLine
 10
130.9747181748841
 20
64.39926829517849
 30
0.0
 11
130.974718174884
 21
6.9992682951784
 31
0.0
  0
LINE
  5
1B5
330
47
100
AcDbEntity
  8
1
  6
Continuous
 62
     6
100
AcDbLine
 10
-264.0252818251167
 20
236.5992682951786
 30
0.0
 11
-210.6919484917825
 21
236.5992682951786
 31
0.0
  0
LINE
  5
1B6
330
47
100
AcDbEntity
  8
1
  6
Continuous
 62
     2
100
AcDbLine
 10
130.9747181748816
 20
241.5992682951783
 30
0.0
 11
62.6413848415507
 21
241.5992682951783
 31
0.0
  0
LINE
  5
1B7
330
47
100
AcDbEntity
  8
1
  6
Continuous
 62
     2
100
AcDbLine
 10
62.6413848415507
 20
236.5992682951783
 30
0.0
 11
62.6413848415507
 21
241.5992682951783
 31
0.0
  0
LINE
  5
1B8
330
47
100
AcDbEntity
  8
1
  6
Continuous
 62
     6
100
AcDbLine
 10
62.6413848415507
 20
236.5992682951783
 30
0.0
 11
130.9747181748816
 21
236.5992682951783
 31
0.0
  0
LINE
  5
1B9
330
47
100
AcDbEntity
  8
1
  6
Continuous
 62
     2
100
AcDbLine
 10
62.6413848415507
 20
241.5992682951783
 30
0.0
 11
-5.6919484917825
 21
241.5992682951783
 31
0.0
  0
LINE
  5
1BA
330
47
100
AcDbEntity
  8
1
  6
Continuous
 62
     2
100
AcDbLine
 10
-5.6919484917825
 20
236.5992682951783
 30
0.0
 11
-5.6919484917825
 21
241.5992682951783
 31
0.0
  0
LINE
  5
1BB
330
47
100
AcDbEntity
  8
1
  6
Continuous
 62
     6
100
AcDbLine
 10
-5.6919484917825
 20
236.5992682951783
 30
0.0
 11
62.6413848415507
 21
236.5992682951783
 31
0.0
  0
LINE
  5
1BC
330
47
100
AcDbEntity
  8
1
  6
Continuous
 62
     2
100
AcDbLine
 10
-5.6919484917825
 20
241.5992682951783
 30
0.0
 11
-54.0252818251187
 21
241.5992682951783
 31
0.0
  0
LINE
  5
1BD
330
47
100
AcDbEntity
  8
1
  6
Continuous
 62
     2
100
AcDbLine
 10
-74.0252818251159
 20
236.5992682951783
 30
0.0
 11
-74.0252818251159
 21
241.5992682951783
 31
0.0
  0
LINE
  5
1BE
330
47
100
AcDbEntity
  8
1
  6
Continuous
 62
     6
100
AcDbLine
 10
-74.0252818251159
 20
236.5992682951783
 30
0.0
 11
-5.6919484917825
 21
236.5992682951783
 31
0.0
  0
LINE
  5
1BF
330
47
100
AcDbEntity
  8
1
  6
Continuous
 62
     2
100
AcDbLine
 10
-74.0252818251159
 20
241.5992682951783
 30
0.0
 11
-142.3586151584491
 21
241.5992682951783
 31
0.0
  0
LINE
  5
1C0
330
47
100
AcDbEntity
  8
1
  6
Continuous
 62
     2
100
AcDbLine
 10
-142.3586151584491
 20
236.5992682951783
 30
0.0
 11
-142.3586151584491
 21
241.5992682951783
 31
0.0
  0
LINE
  5
1C1
330
47
100
AcDbEntity
  8
1
  6
Continuous
 62
     6
100
AcDbLine
 10
-142.3586151584491
 20
236.5992682951783
 30
0.0
 11
-74.0252818251159
 21
236.5992682951783
 31
0.0
  0
LINE
  5
1C2
330
47
100
AcDbEntity
  8
1
  6
Continuous
 62
     2
100
AcDbLine
 10
-142.3586151584491
 20
241.5992682951783
 30
0.0
 11
-210.6919484917825
 21
241.5992682951783
 31
0.0
  0
LINE
  5
1C3
330
47
100
AcDbEntity
  8
1
  6
Continuous
 62
     2
100
AcDbLine
 10
-210.6919484917825
 20
236.5992682951786
 30
0.0
 11
-210.6919484917825
 21
241.5992682951783
 31
0.0
  0
LINE
  5
1C4
330
47
100
AcDbEntity
  8
1
  6
Continuous
 62
     6
100
AcDbLine
 10
-210.6919484917825
 20
236.5992682951786
 30
0.0
 11
-142.3586151584491
 21
236.5992682951783
 31
0.0
  0
LINE
  5
1C5
330
47
100
AcDbEntity
  8
1
  6
Continuous
 62
     2
100
AcDbLine
 10
-210.6919484917825
 20
241.5992682951783
 30
0.0
 11
-264.0252818251167
 21
241.5992682951783
 31
0.0
  0
LINE
  5
1C6
330
47
100
AcDbEntity
  8
1
  6
Continuous
 62
     2
100
AcDbLine
 10
-264.0252818251167
 20
241.5992682951783
 30
0.0
 11
-264.0252818251167
 21
237.5992682951786
 31
0.0
  0
LINE
  5
1C7
330
47
100
AcDbEntity
  8
1
  6
Continuous
 62
     2
100
AcDbLine
 10
-264.0252818251167
 20
241.5992682951783
 30
0.0
 11
-284.0252818251167
 21
241.5992682951783
 31
0.0
  0
LINE
  5
1C8
330
47
100
AcDbEntity
  8
1
  6
Continuous
 62
     2
100
AcDbLine
 10
-54.0252818251187
 20
241.5992682951783
 30
0.0
 11
-54.0252818251187
 21
237.5992682951786
 31
0.0
  0
LINE
  5
1C9
330
47
100
AcDbEntity
  8
1
  6
Continuous
 62
     2
100
AcDbLine
 10
-54.0252818251187
 20
241.5992682951783
 30
0.0
 11
-74.0252818251159
 21
241.5992682951783
 31
0.0
  0
LINE
  5
1CA
330
47
100
AcDbEntity
  8
1
  6
Continuous
 62
     2
100
AcDbLine
 10
-284.0252818251167
 20
241.5992682951783
 30
0.0
 11
-284.0252818251167
 21
93.0992682951783
 31
0.0
  0
LINE
  5
1CB
330
47
100
AcDbEntity
  8
1
  6
Continuous
 62
     2
100
AcDbLine
 10
-284.0252818251167
 20
93.0992682951783
 30
0.0
 11
-274.0252818251167
 21
93.0992682951783
 31
0.0
  0
LINE
  5
1CC
330
47
100
AcDbEntity
  8
1
  6
Continuous
 62
     2
100
AcDbLine
 10
-284.0252818251167
 20
93.0992682951783
 30
0.0
 11
-284.0252818251167
 21
-55.4007317048217
 31
0.0
  0
LINE
  5
1CD
330
47
100
AcDbEntity
  8
1
  6
Continuous
 62
     6
100
AcDbLine
 10
-264.0252818251157
 20
-50.4007317048217
 30
0.0
 11
-264.0252818251167
 21
236.5992682951786
 31
0.0
  0
LINE
  5
1CE
330
47
100
AcDbEntity
  8
1
  6
Continuous
 62
     6
100
AcDbLine
 10
130.974718174884
 20
-50.40073170482215
 30
0.0
 11
130.9747181748836
 21
-41.90073170482226
 31
0.0
  0
LINE
  5
1CF
330
47
100
AcDbEntity
  8
1
  6
Continuous
 62
     6
100
AcDbLine
 10
-142.3586151584491
 20
-50.4007317048217
 30
0.0
 11
-121.0252818251158
 21
-50.40073170482215
 31
0.0
  0
LINE
  5
1D0
330
47
100
AcDbEntity
  8
1
  6
Continuous
 62
     2
100
AcDbLine
 10
102.4154548596748
 20
-34.95095098385441
 30
0.0
 11
102.4154548596749
 21
-37.00834694870805
 31
0.0
  0
LINE
  5
1D1
330
47
100
AcDbEntity
  8
1
  6
Continuous
 62
     7
100
AcDbLine
 10
67.4747181748864
 20
-33.40073170482226
 30
0.0
 11
67.4747181748864
 21
-29.15073170482226
 31
0.0
  0
LINE
  5
1D2
330
47
100
AcDbEntity
  8
1
  6
Continuous
 62
     7
100
AcDbLine
 10
67.4747181748864
 20
-29.15073170482226
 30
0.0
 11
60.7299136481323
 21
-29.15073170482226
 31
0.0
  0
ARC
  5
1D3
102
{ACAD_REACTORS
330
27D
330
27E
102
}
330
47
100
AcDbEntity
  8
0
  6
Continuous
 62
     2
100
AcDbCircle
 10
17.30896158115731
 20
-43.28882694291106
 30
0.0
 40
0.6378510567600058
100
AcDbArc
 50
321.8795802028323
 51
38.12041979715963
  0
ARC
  5
1D4
102
{ACAD_REACTORS
330
27D
330
27E
102
}
330
47
100
AcDbEntity
  8
0
  6
Continuous
 62
     2
100
AcDbCircle
 10
17.47403599136091
 20
-43.41835684218377
 30
0.0
 40
0.4280236140610139
100
AcDbArc
 50
218.120419797194
 51
321.8795802027893
  0
ARC
  5
1D5
102
{ACAD_REACTORS
330
27D
330
27E
102
}
330
47
100
AcDbEntity
  8
0
  6
Continuous
 62
     2
100
AcDbCircle
 10
17.6391104015642
 20
-43.28882694291106
 30
0.0
 40
0.637851056759849
100
AcDbArc
 50
141.8795802028343
 51
218.1204197971738
  0
ARC
  5
1D6
102
{ACAD_REACTORS
330
27D
330
27E
102
}
330
47
100
AcDbEntity
  8
0
  6
Continuous
 62
     2
100
AcDbCircle
 10
17.47403599136091
 20
-43.15929704363801
 30
0.0
 40
0.4280236140605782
100
AcDbArc
 50
38.12041979716361
 51
141.8795802028531
  0
ARC
  5
1D7
102
{ACAD_REACTORS
330
275
330
276
102
}
330
47
100
AcDbEntity
  8
0
  6
Continuous
 62
     2
100
AcDbCircle
 10
14.94344579667991
 20
-44.45450162506661
 30
0.0
 40
1.840813230556588
100
AcDbArc
 50
58.06909105003822
 51
71.55192388186887
  0
ARC
  5
1D8
102
{ACAD_REACTORS
330
275
330
276
102
}
330
47
100
AcDbEntity
  8
0
  6
Continuous
 62
     2
100
AcDbCircle
 10
15.15974968176981
 20
-43.11934642279626
 30
0.0
 40
0.4227934381776471
100
AcDbArc
 50
113.3722778881851
 51
151.4785267423001
  0
ARC
  5
1D9
102
{ACAD_REACTORS
330
275
330
276
102
}
330
47
100
AcDbEntity
  8
0
  6
Continuous
 62
     2
100
AcDbCircle
 10
15.47161518431561
 20
-43.28882694291106
 30
0.0
 40
0.7777353184572527
100
AcDbArc
 50
151.4785267422729
 51
208.5214732577046
  0
ARC
  5
1DA
102
{ACAD_REACTORS
330
275
330
276
102
}
330
47
100
AcDbEntity
  8
0
  6
Continuous
 62
     2
100
AcDbCircle
 10
14.81297234618999
 20
-40.5510740955918
 30
0.0
 40
4.01041063099019
100
AcDbArc
 50
275.1581447696246
 51
285.9799912583524
  0
ARC
  5
1DB
102
{ACAD_REACTORS
330
275
330
276
102
}
330
47
100
AcDbEntity
  8
0
  6
Continuous
 62
     2
100
AcDbCircle
 10
15.05169639142621
 20
-43.19561176767577
 30
0.0
 40
1.35511993714
100
AcDbArc
 50
195.0618917770908
 51
275.1581447696414
  0
ARC
  5
1DC
102
{ACAD_REACTORS
330
275
330
276
102
}
330
47
100
AcDbEntity
  8
0
  6
Continuous
 62
     2
100
AcDbCircle
 10
14.7053097439363
 20
-43.28882694291106
 30
0.0
 40
0.99641005652141
100
AcDbArc
 50
164.938108222886
 51
195.0618917771018
  0
ARC
  5
1DD
102
{ACAD_REACTORS
330
275
330
276
102
}
330
47
100
AcDbEntity
  8
0
  6
Continuous
 62
     2
100
AcDbCircle
 10
15.05169639142621
 20
-43.38204211814657
 30
0.0
 40
1.355119937140983
100
AcDbArc
 50
84.84185523036082
 51
164.9381082228909
  0
ARC
  5
1DE
102
{ACAD_REACTORS
330
279
330
27A
102
}
330
47
100
AcDbEntity
  8
0
  6
Continuous
 62
     2
100
AcDbCircle
 10
11.05994907393709
 20
-42.4344246335274
 30
0.0
 40
0.2609230769227737
100
AcDbArc
 50
115.374008678368
 51
180.0
  0
ARC
  5
1DF
102
{ACAD_REACTORS
330
279
330
27A
102
}
330
47
100
AcDbEntity
  8
0
  6
Continuous
 62
     2
100
AcDbCircle
 10
11.05994907393709
 20
-40.6011327327537
 30
0.0
 40
0.26092307692298
100
AcDbArc
 50
180.0
 51
244.625991321632
  0
ARC
  5
1E0
102
{ACAD_REACTORS
330
279
330
27A
102
}
330
47
100
AcDbEntity
  8
0
  6
Continuous
 62
     2
100
AcDbCircle
 10
11.0645905080775
 20
-41.50799195511918
 30
0.0
 40
1.668232340440728
100
AcDbArc
 50
269.8110329575882
 51
90.18896704241186
  0
ARC
  5
1E1
102
{ACAD_REACTORS
330
279
330
27A
102
}
330
47
100
AcDbEntity
  8
0
  6
Continuous
 62
     2
100
AcDbCircle
 10
11.05994907393709
 20
-42.91529356468034
 30
0.0
 40
0.26092307692298
100
AcDbArc
 50
180.0
 51
269.8110329574461
  0
ARC
  5
1E2
102
{ACAD_REACTORS
330
277
330
278
102
}
330
47
100
AcDbEntity
  8
0
  6
Continuous
 62
     2
100
AcDbCircle
 10
28.4677674332185
 20
-43.11934642279626
 30
0.0
 40
0.4227934381773005
100
AcDbArc
 50
109.3371432194784
 51
151.4785267424121
  0
ARC
  5
1E3
102
{ACAD_REACTORS
330
277
330
278
102
}
330
47
100
AcDbEntity
  8
0
  6
Continuous
 62
     2
100
AcDbCircle
 10
28.4677674332185
 20
-43.45830746302563
 30
0.0
 40
0.4227934381784343
100
AcDbArc
 50
208.5214732576827
 51
246.6277221118464
  0
ARC
  5
1E4
102
{ACAD_REACTORS
330
277
330
278
102
}
330
47
100
AcDbEntity
  8
0
  6
Continuous
 62
     2
100
AcDbCircle
 10
28.01332749538589
 20
-43.28882694291106
 30
0.0
 40
0.9964100565230206
100
AcDbArc
 50
164.9381082229109
 51
195.0618917771021
  0
ARC
  5
1E5
102
{ACAD_REACTORS
330
277
330
278
102
}
330
47
100
AcDbEntity
  8
0
  6
Continuous
 62
     2
100
AcDbCircle
 10
28.35971414287489
 20
-43.38204211814657
 30
0.0
 40
1.355119937140671
100
AcDbArc
 50
90.0
 51
164.9381082228992
  0
ARC
  5
1E6
102
{ACAD_REACTORS
330
27B
330
27C
102
}
330
47
100
AcDbEntity
  8
0
  6
Continuous
 62
     2
100
AcDbCircle
 10
20.5688091075826
 20
-40.51263646673392
 30
0.0
 40
1.261904761905612
100
AcDbArc
 50
90.0
 51
270.0
  0
ARC
  5
1E7
102
{ACAD_REACTORS
330
27F
330
280
102
}
330
47
100
AcDbEntity
  8
0
  6
Continuous
 62
     2
100
AcDbCircle
 10
14.99633741731331
 20
-40.09037606029206
 30
0.0
 40
0.2916229955960716
100
AcDbArc
 50
270.0
 51
90.0
  0
ARC
  5
1E8
102
{ACAD_REACTORS
330
279
330
27A
102
}
330
47
100
AcDbEntity
  8
0
  6
Continuous
 62
     2
100
AcDbCircle
 10
8.9313964404398
 20
-40.10054367064215
 30
0.0
 40
0.2609230769224951
100
AcDbArc
 50
90.0
 51
180.0
  0
ARC
  5
1E9
102
{ACAD_REACTORS
330
279
330
27A
102
}
330
47
100
AcDbEntity
  8
0
  6
Continuous
 62
     2
100
AcDbCircle
 10
10.5829813235675
 20
-41.51777868314032
 30
0.0
 40
0.7536343169898668
100
AcDbArc
 50
115.1944106485227
 51
244.8055893514881
  0
ARC
  5
1EA
102
{ACAD_REACTORS
330
279
330
27A
102
}
330
47
100
AcDbEntity
  8
0
  6
Continuous
 62
     2
100
AcDbCircle
 10
10.151093350365
 20
-42.43581979558879
 30
0.0
 40
0.2609230769228095
100
AcDbArc
 50
0.0
 51
64.80558935144192
  0
ARC
  5
1EB
102
{ACAD_REACTORS
330
279
330
27A
102
}
330
47
100
AcDbEntity
  8
0
  6
Continuous
 62
     2
100
AcDbCircle
 10
8.44057439354181
 20
-44.20011632020199
 30
0.0
 40
0.3506153846139171
100
AcDbArc
 50
180.0
 51
270.0
  0
ARC
  5
1EC
102
{ACAD_REACTORS
330
27B
330
27C
102
}
330
47
100
AcDbEntity
  8
0
  6
Continuous
 62
     2
100
AcDbCircle
 10
20.74754630606621
 20
-40.38310656746087
 30
0.0
 40
0.4280236140607375
100
AcDbArc
 50
38.12041979714687
 51
141.8795802028455
  0
ARC
  5
1ED
102
{ACAD_REACTORS
330
27B
330
27C
102
}
330
47
100
AcDbEntity
  8
0
  6
Continuous
 62
     2
100
AcDbCircle
 10
20.9126207162697
 20
-40.51263646673392
 30
0.0
 40
0.63785105675994
100
AcDbArc
 50
141.8795802028399
 51
218.1204197971682
  0
ARC
  5
1EE
102
{ACAD_REACTORS
330
27D
330
27E
102
}
330
47
100
AcDbEntity
  8
0
  6
Continuous
 62
     2
100
AcDbCircle
 10
17.47403599136091
 20
-42.84372362861082
 30
0.0
 40
1.70700807620544
100
AcDbArc
 50
242.4518518243388
 51
297.5481481756847
  0
ARC
  5
1EF
102
{ACAD_REACTORS
330
27D
330
27E
102
}
330
47
100
AcDbEntity
  8
0
  6
Continuous
 62
     2
100
AcDbCircle
 10
17.47403599136091
 20
-43.73393025721096
 30
0.0
 40
1.707008076205402
100
AcDbArc
 50
62.45185182430831
 51
117.5481481756682
  0
ARC
  5
1F0
102
{ACAD_REACTORS
330
27D
330
27E
102
}
330
47
100
AcDbEntity
  8
0
  6
Continuous
 62
     2
100
AcDbCircle
 10
17.241854262573
 20
-43.28882694291106
 30
0.0
 40
1.20498684599291
100
AcDbArc
 50
117.548148175664
 51
242.4518518243384
  0
ARC
  5
1F1
102
{ACAD_REACTORS
330
27D
330
27E
102
}
330
47
100
AcDbEntity
  8
0
  6
Continuous
 62
     2
100
AcDbCircle
 10
17.7062177201487
 20
-43.28882694291106
 30
0.0
 40
1.204986845993431
100
AcDbArc
 50
297.5481481756999
 51
62.45185182429761
  0
ARC
  5
1F2
102
{ACAD_REACTORS
330
27B
330
27C
102
}
330
47
100
AcDbEntity
  8
0
  6
Continuous
 62
     2
100
AcDbCircle
 10
20.74754630606621
 20
-40.64216636600709
 30
0.0
 40
0.4280236140606649
100
AcDbArc
 50
218.1204197971545
 51
321.8795802028532
  0
ARC
  5
1F3
102
{ACAD_REACTORS
330
27B
330
27C
102
}
330
47
100
AcDbEntity
  8
0
  6
Continuous
 62
     2
100
AcDbCircle
 10
20.58247189586281
 20
-40.51263646673392
 30
0.0
 40
0.6378510567600102
100
AcDbArc
 50
321.8795802028318
 51
38.12041979716014
  0
ARC
  5
1F4
102
{ACAD_REACTORS
330
279
330
27A
102
}
330
47
100
AcDbEntity
  8
0
  6
Continuous
 62
     2
100
AcDbCircle
 10
12.96397281562189
 20
-44.20011632020199
 30
0.0
 40
0.3506153846143363
100
AcDbArc
 50
270.0
 51
0.0
  0
ARC
  5
1F5
102
{ACAD_REACTORS
330
279
330
27A
102
}
330
47
100
AcDbEntity
  8
0
  6
Continuous
 62
     2
100
AcDbCircle
 10
12.96397281562189
 20
-39.601347089458
 30
0.0
 40
0.3506153846148194
100
AcDbArc
 50
0.0
 51
90.0
  0
ARC
  5
1F6
102
{ACAD_REACTORS
330
279
330
27A
102
}
330
47
100
AcDbEntity
  8
0
  6
Continuous
 62
     2
100
AcDbCircle
 10
8.44057439354181
 20
-39.601347089458
 30
0.0
 40
0.3506153846146844
100
AcDbArc
 50
90.0
 51
180.0
  0
ARC
  5
1F7
102
{ACAD_REACTORS
330
279
330
27A
102
}
330
47
100
AcDbEntity
  8
0
  6
Continuous
 62
     2
100
AcDbCircle
 10
10.151093350365
 20
-43.7009197390034
 30
0.0
 40
0.260923076922829
100
AcDbArc
 50
270.0
 51
0.0
  0
ARC
  5
1F8
102
{ACAD_REACTORS
330
279
330
27A
102
}
330
47
100
AcDbEntity
  8
0
  6
Continuous
 62
     2
100
AcDbCircle
 10
10.151093350365
 20
-40.5997375706922
 30
0.0
 40
0.2609230769223501
100
AcDbArc
 50
295.1944106485594
 51
0.0
  0
ARC
  5
1F9
102
{ACAD_REACTORS
330
279
330
27A
102
}
330
47
100
AcDbEntity
  8
0
  6
Continuous
 62
     2
100
AcDbCircle
 10
10.151093350365
 20
-40.10054367064215
 30
0.0
 40
0.2609230769228095
100
AcDbArc
 50
0.0
 51
90.0
  0
ARC
  5
1FA
102
{ACAD_REACTORS
330
279
330
27A
102
}
330
47
100
AcDbEntity
  8
0
  6
Continuous
 62
     2
100
AcDbCircle
 10
8.9313964404398
 20
-43.7009197390034
 30
0.0
 40
0.2609230769220972
100
AcDbArc
 50
180.0
 51
270.0
  0
ARC
  5
1FB
102
{ACAD_REACTORS
330
27F
330
280
102
}
330
47
100
AcDbEntity
  8
0
  6
Continuous
 62
     2
100
AcDbCircle
 10
15.36119074478309
 20
-40.12293471419498
 30
0.0
 40
0.8722030093666788
100
AcDbArc
 50
270.0
 51
90.0
  0
ARC
  5
1FC
102
{ACAD_REACTORS
330
277
330
278
102
}
330
47
100
AcDbEntity
  8
0
  6
Continuous
 62
     2
100
AcDbCircle
 10
28.35971414287489
 20
-43.19561176767577
 30
0.0
 40
1.355119937140849
100
AcDbArc
 50
195.0618917771011
 51
275.1581447696784
  0
ARC
  5
1FD
102
{ACAD_REACTORS
330
277
330
278
102
}
330
47
100
AcDbEntity
  8
0
  6
Continuous
 62
     2
100
AcDbCircle
 10
28.12099009763871
 20
-40.5510740955918
 30
0.0
 40
4.010410630990729
100
AcDbArc
 50
275.1581447696365
 51
285.979991258338
  0
ARC
  5
1FE
102
{ACAD_REACTORS
330
277
330
278
102
}
330
47
100
AcDbEntity
  8
0
  6
Continuous
 62
     2
100
AcDbCircle
 10
28.2514635481286
 20
-42.12315226075562
 30
0.0
 40
1.840813230556047
100
AcDbArc
 50
288.4480761181316
 51
301.9309089499384
  0
ARC
  5
1FF
102
{ACAD_REACTORS
330
277
330
278
102
}
330
47
100
AcDbEntity
  8
0
  6
Continuous
 62
     2
100
AcDbCircle
 10
28.59705671644419
 20
-43.15914050541399
 30
0.0
 40
0.7487023016407213
100
AcDbArc
 50
246.6277221118226
 51
288.4480761180805
  0
ARC
  5
200
102
{ACAD_REACTORS
330
277
330
278
102
}
330
47
100
AcDbEntity
  8
0
  6
Continuous
 62
     2
100
AcDbCircle
 10
28.77963293576521
 20
-43.28882694291106
 30
0.0
 40
0.7777353184586056
100
AcDbArc
 50
151.4785267423658
 51
208.5214732576715
  0
ARC
  5
201
102
{ACAD_REACTORS
330
277
330
278
102
}
330
47
100
AcDbEntity
  8
0
  6
Continuous
 62
     2
100
AcDbCircle
 10
28.58898230768439
 20
-43.4647637619557
 30
0.0
 40
0.7888619891125543
100
AcDbArc
 50
90.0
 51
109.3371432194288
  0
ARC
  5
202
102
{ACAD_REACTORS
330
279
330
27A
102
}
330
47
100
AcDbEntity
  8
0
  6
Continuous
 62
     2
100
AcDbCircle
 10
11.05994907393709
 20
-40.10069034555802
 30
0.0
 40
0.2609230769224678
100
AcDbArc
 50
90.18896704255388
 51
180.0
  0
ARC
  5
203
102
{ACAD_REACTORS
330
279
330
27A
102
}
330
47
100
AcDbEntity
  8
0
  6
Continuous
 62
     2
100
AcDbCircle
 10
10.6252030424594
 20
-41.51777868314032
 30
0.0
 40
0.7535935125160738
100
AcDbArc
 50
295.3740086781793
 51
64.62599132180586
  0
ARC
  5
204
102
{ACAD_REACTORS
330
275
330
276
102
}
330
47
100
AcDbEntity
  8
0
  6
Continuous
 62
     2
100
AcDbCircle
 10
14.94344579667991
 20
-42.12315226075516
 30
0.0
 40
1.840813230556041
100
AcDbArc
 50
288.4480761181312
 51
301.9309089499619
  0
ARC
  5
205
102
{ACAD_REACTORS
330
275
330
276
102
}
330
47
100
AcDbEntity
  8
0
  6
Continuous
 62
     2
100
AcDbCircle
 10
15.2890389649947
 20
-43.15914050541399
 30
0.0
 40
0.7487023016404478
100
AcDbArc
 50
246.627722111871
 51
288.4480761181481
  0
ARC
  5
206
102
{ACAD_REACTORS
330
275
330
276
102
}
330
47
100
AcDbEntity
  8
0
  6
Continuous
 62
     2
100
AcDbCircle
 10
15.15974968176981
 20
-43.45830746302563
 30
0.0
 40
0.4227934381774396
100
AcDbArc
 50
208.5214732576847
 51
246.6277221118329
  0
ARC
  5
207
102
{ACAD_REACTORS
330
275
330
276
102
}
330
47
100
AcDbEntity
  8
0
  6
Continuous
 62
     2
100
AcDbCircle
 10
15.2890389649947
 20
-43.41851338040824
 30
0.0
 40
0.7487023016407661
100
AcDbArc
 50
71.55192388186292
 51
113.372277888129
  0
ARC
  5
208
102
{ACAD_REACTORS
330
275
330
276
102
}
330
47
100
AcDbEntity
  8
0
  6
Continuous
 62
     2
100
AcDbCircle
 10
14.81297234618999
 20
-46.02657979022997
 30
0.0
 40
4.010410630989974
100
AcDbArc
 50
74.02000874164719
 51
84.84185523037539
  0
CIRCLE
  5
209
102
{ACAD_REACTORS
330
279
330
27A
102
}
330
47
100
AcDbEntity
  8
0
  6
Continuous
 62
     2
100
AcDbCircle
 10
10.6055212121514
 20
-41.51777868314032
 30
0.0
 40
0.3892387874202008
  0
CIRCLE
  5
20A
330
47
100
AcDbEntity
  8
1
  6
Continuous
 62
     2
100
AcDbCircle
 10
6.5221734732357
 20
-35.52573170482226
 30
0.0
 40
1.0
  0
CIRCLE
  5
20B
330
47
100
AcDbEntity
  8
1
  6
Continuous
 62
     2
100
AcDbCircle
 10
6.5221734732357
 20
-35.52573170482226
 30
0.0
 40
1.5
  0
MTEXT
  5
20D
330
47
100
AcDbEntity
  8
1
 62
     2
100
AcDbMText
 10
-100.3252818251178
 20
-44.02573170482215
 30
0.0
 40
2.0
 41
0.0
 71
     4
 72
     1
  1
 
  7
CONVERTER_11
 73
     1
 44
1.20048019207683
  0
MTEXT
  5
20E
330
47
100
AcDbEntity
  8
1
 62
     2
100
AcDbMText
 10
-100.3252818251178
 20
-39.77573170482226
 30
0.0
 40
2.0
 41
0.0
 71
     4
 72
     1
  1
 
  7
CONVERTER_11
 73
     1
 44
1.20048019207683
  0
MTEXT
  5
20F
330
47
100
AcDbEntity
  8
1
 62
     2
100
AcDbMText
 10
-100.3252818251178
 20
-35.52573170482226
 30
0.0
 40
2.0
 41
0.0
 71
     4
 72
     1
  1
 
  7
CONVERTER_11
 73
     1
 44
1.20048019207683
  0
MTEXT
  5
210
330
47
100
AcDbEntity
  8
1
 62
     2
100
AcDbMText
 10
-100.3252818251178
 20
-31.27573170482226
 30
0.0
 40
2.0
 41
0.0
 71
     4
 72
     1
  1
 
  7
CONVERTER_11
 73
     1
 44
1.20048019207683
  0
MTEXT
  5
211
330
47
100
AcDbEntity
  8
1
 62
     2
100
AcDbMText
 10
-100.3252818251178
 20
-27.02573170482226
 30
0.0
 40
2.0
 41
0.0
 71
     4
 72
     1
  1
 
  7
CONVERTER_11
 73
     1
 44
1.20048019207683
  0
MTEXT
  5
212
330
47
100
AcDbEntity
  8
1
 62
     2
100
AcDbMText
 10
-100.3252818251178
 20
-22.77573170482226
 30
0.0
 40
2.0
 41
0.0
 71
     4
 72
     1
  1
 
  7
CONVERTER_11
 73
     1
 44
1.20048019207683
  0
MTEXT
  5
214
330
47
100
AcDbEntity
  8
1
 62
     2
100
AcDbMText
 10
-5.32008635186769
 20
-44.02573170482215
 30
0.0
 40
2.0
 41
0.0
 71
     5
 72
     1
  1
 
  7
CONVERTER_12
 73
     1
 44
1.20048019207683
  0
MTEXT
  5
215
330
47
100
AcDbEntity
  8
1
 62
     2
100
AcDbMText
 10
-5.32008635186769
 20
-39.77573170482226
 30
0.0
 40
2.0
 41
0.0
 71
     5
 72
     1
  1
 
  7
CONVERTER_12
 73
     1
 44
1.20048019207683
  0
MTEXT
  5
216
330
47
100
AcDbEntity
  8
1
 62
     2
100
AcDbMText
 10
-5.32008635186769
 20
-35.52573170482226
 30
0.0
 40
2.0
 41
0.0
 71
     5
 72
     1
  1
 
  7
CONVERTER_12
 73
     1
 44
1.20048019207683
  0
MTEXT
  5
217
330
47
100
AcDbEntity
  8
1
 62
     2
100
AcDbMText
 10
-5.32008635186769
 20
-31.27573170482226
 30
0.0
 40
2.0
 41
0.0
 71
     5
 72
     1
  1
 
  7
CONVERTER_12
 73
     1
 44
1.20048019207683
  0
MTEXT
  5
218
330
47
100
AcDbEntity
  8
1
 62
     2
100
AcDbMText
 10
-5.32008635186769
 20
-27.02573170482226
 30
0.0
 40
2.0
 41
0.0
 71
     5
 72
     1
  1
 
  7
CONVERTER_12
 73
     1
 44
1.20048019207683
  0
MTEXT
  5
219
330
47
100
AcDbEntity
  8
1
 62
     2
100
AcDbMText
 10
-5.32008635186769
 20
-22.77573170482226
 30
0.0
 40
2.0
 41
0.0
 71
     5
 72
     1
  1
 
  7
CONVERTER_12
 73
     1
 44
1.20048019207683
  0
MTEXT
  5
21A
330
47
100
AcDbEntity
  8
1
 62
     2
100
AcDbMText
 10
-18.82008635186769
 20
-44.02573170482215
 30
0.0
 40
2.0
 41
0.0
 71
     5
 72
     1
  1
 
  7
CONVERTER_12
 73
     1
 44
1.20048019207683
  0
MTEXT
  5
21B
330
47
100
AcDbEntity
  8
1
 62
     2
100
AcDbMText
 10
-18.8200863518676
 20
-39.77573170482226
 30
0.0
 40
2.0
 41
0.0
 71
     5
 72
     1
  1
 
  7
CONVERTER_12
 73
     1
 44
1.20048019207683
  0
MTEXT
  5
21C
330
47
100
AcDbEntity
  8
1
 62
     2
100
AcDbMText
 10
-18.8200863518676
 20
-35.52573170482226
 30
0.0
 40
2.0
 41
0.0
 71
     5
 72
     1
  1
 
  7
CONVERTER_12
 73
     1
 44
1.20048019207683
  0
MTEXT
  5
21D
330
47
100
AcDbEntity
  8
1
 62
     2
100
AcDbMText
 10
-18.8200863518676
 20
-31.27573170482226
 30
0.0
 40
2.0
 41
0.0
 71
     5
 72
     1
  1
 
  7
CONVERTER_12
 73
     1
 44
1.20048019207683
  0
MTEXT
  5
21E
330
47
100
AcDbEntity
  8
1
 62
     2
100
AcDbMText
 10
-18.8200863518676
 20
-27.02573170482226
 30
0.0
 40
2.0
 41
0.0
 71
     5
 72
     1
  1
 
  7
CONVERTER_12
 73
     1
 44
1.20048019207683
  0
MTEXT
  5
21F
330
47
100
AcDbEntity
  8
1
 62
     2
100
AcDbMText
 10
-18.8200863518676
 20
-22.77573170482226
 30
0.0
 40
2.0
 41
0.0
 71
     5
 72
     1
  1
 
  7
CONVERTER_12
 73
     1
 44
1.20048019207683
  0
MTEXT
  5
220
330
47
100
AcDbEntity
  8
1
 62
     2
100
AcDbMText
 10
-32.3200863518676
 20
-22.77573170482226
 30
0.0
 40
2.0
 41
0.0
 71
     5
 72
     1
  1
 
  7
CONVERTER_12
 73
     1
 44
1.20048019207683
  0
MTEXT
  5
221
330
47
100
AcDbEntity
  8
1
 62
     2
100
AcDbMText
 10
-32.3200863518676
 20
-27.02573170482226
 30
0.0
 40
2.0
 41
0.0
 71
     5
 72
     1
  1
 
  7
CONVERTER_12
 73
     1
 44
1.20048019207683
  0
MTEXT
  5
222
330
47
100
AcDbEntity
  8
1
 62
     2
100
AcDbMText
 10
-32.3200863518676
 20
-31.27573170482226
 30
0.0
 40
2.0
 41
0.0
 71
     5
 72
     1
  1
 
  7
CONVERTER_12
 73
     1
 44
1.20048019207683
  0
MTEXT
  5
223
330
47
100
AcDbEntity
  8
1
 62
     2
100
AcDbMText
 10
-32.3200863518676
 20
-35.52573170482226
 30
0.0
 40
2.0
 41
0.0
 71
     5
 72
     1
  1
 
  7
CONVERTER_12
 73
     1
 44
1.20048019207683
  0
MTEXT
  5
224
330
47
100
AcDbEntity
  8
1
 62
     2
100
AcDbMText
 10
-32.3200863518676
 20
-39.77573170482226
 30
0.0
 40
2.0
 41
0.0
 71
     5
 72
     1
  1
 
  7
CONVERTER_12
 73
     1
 44
1.20048019207683
  0
MTEXT
  5
225
330
47
100
AcDbEntity
  8
1
 62
     2
100
AcDbMText
 10
-32.3200863518676
 20
-44.02573170482215
 30
0.0
 40
2.0
 41
0.0
 71
     5
 72
     1
  1
 
  7
CONVERTER_12
 73
     1
 44
1.20048019207683
  0
MTEXT
  5
226
330
47
100
AcDbEntity
  8
1
 62
     2
100
AcDbMText
 10
-108.0752818251178
 20
-22.77573170482226
 30
0.0
 40
2.0
 41
0.0
 71
     5
 72
     1
  1
 
  7
CONVERTER_12
 73
     1
 44
1.20048019207683
  0
MTEXT
  5
227
330
47
100
AcDbEntity
  8
1
 62
     2
100
AcDbMText
 10
-108.0752818251178
 20
-27.02573170482226
 30
0.0
 40
2.0
 41
0.0
 71
     5
 72
     1
  1
 
  7
CONVERTER_12
 73
     1
 44
1.20048019207683
  0
MTEXT
  5
228
330
47
100
AcDbEntity
  8
1
 62
     2
100
AcDbMText
 10
-108.0752818251178
 20
-31.27573170482226
 30
0.0
 40
2.0
 41
0.0
 71
     5
 72
     1
  1
 
  7
CONVERTER_12
 73
     1
 44
1.20048019207683
  0
MTEXT
  5
229
330
47
100
AcDbEntity
  8
1
 62
     2
100
AcDbMText
 10
-108.0752818251178
 20
-35.52573170482226
 30
0.0
 40
2.0
 41
0.0
 71
     5
 72
     1
  1
 
  7
CONVERTER_12
 73
     1
 44
1.20048019207683
  0
MTEXT
  5
22A
330
47
100
AcDbEntity
  8
1
 62
     2
100
AcDbMText
 10
-108.0752818251178
 20
-39.77573170482226
 30
0.0
 40
2.0
 41
0.0
 71
     5
 72
     1
  1
 
  7
CONVERTER_12
 73
     1
 44
1.20048019207683
  0
MTEXT
  5
22B
330
47
100
AcDbEntity
  8
1
 62
     2
100
AcDbMText
 10
-108.0752818251178
 20
-44.02573170482215
 30
0.0
 40
2.0
 41
0.0
 71
     5
 72
     1
  1
 
  7
CONVERTER_12
 73
     1
 44
1.20048019207683
  0
MTEXT
  5
22C
330
47
100
AcDbEntity
  8
1
 62
     2
100
AcDbMText
 10
-117.9252818251168
 20
-44.02573170482215
 30
0.0
 40
2.0
 41
0.0
 71
     5
 72
     1
  1
 
  7
CONVERTER_12
 73
     1
 44
1.20048019207683
  0
MTEXT
  5
22D
330
47
100
AcDbEntity
  8
1
 62
     2
100
AcDbMText
 10
-117.9252818251168
 20
-39.77573170482226
 30
0.0
 40
2.0
 41
0.0
 71
     5
 72
     1
  1
 
  7
CONVERTER_12
 73
     1
 44
1.20048019207683
  0
MTEXT
  5
22E
330
47
100
AcDbEntity
  8
1
 62
     2
100
AcDbMText
 10
-117.9252818251168
 20
-35.52573170482226
 30
0.0
 40
2.0
 41
0.0
 71
     5
 72
     1
  1
 
  7
CONVERTER_12
 73
     1
 44
1.20048019207683
  0
MTEXT
  5
22F
330
47
100
AcDbEntity
  8
1
 62
     2
100
AcDbMText
 10
-117.9252818251168
 20
-31.27573170482226
 30
0.0
 40
2.0
 41
0.0
 71
     5
 72
     1
  1
 
  7
CONVERTER_12
 73
     1
 44
1.20048019207683
  0
MTEXT
  5
230
330
47
100
AcDbEntity
  8
1
 62
     2
100
AcDbMText
 10
-117.9252818251168
 20
-27.02573170482226
 30
0.0
 40
2.0
 41
0.0
 71
     5
 72
     1
  1
 
  7
CONVERTER_12
 73
     1
 44
1.20048019207683
  0
MTEXT
  5
231
330
47
100
AcDbEntity
  8
1
 62
     2
100
AcDbMText
 10
-117.9252818251168
 20
-22.77573170482226
 30
0.0
 40
2.0
 41
0.0
 71
     5
 72
     1
  1
 
  7
CONVERTER_12
 73
     1
 44
1.20048019207683
  0
MTEXT
  5
232
330
47
100
AcDbEntity
  8
1
 62
     2
100
AcDbMText
 10
86.97471817488601
 20
-34.40073170482226
 30
0.0
 40
1.8
 41
0.0
 71
     1
 72
     1
  1
surface in um
  7
CONVERTER_12
 73
     1
 44
1.32052821128451
  0
MTEXT
  5
233
330
47
100
AcDbEntity
  8
1
 62
     2
100
AcDbMText
 10
114.3931264565631
 20
-21.65073170482226
 30
0.0
 40
1.8
 41
0.0
 71
     1
 72
     1
  1
dim.var.
  7
CONVERTER_12
 73
     1
 44
1.20048019207683
  0
MTEXT
  5
235
330
47
100
AcDbEntity
  8
1
 62
     2
100
AcDbMText
 10
68.4747181748864
 20
-34.40073170482226
 30
0.0
 40
1.8
 41
0.0
 71
     1
 72
     1
  1
document-No.
  7
CONVERTER_13
 73
     1
 44
1.32052821128451
  0
TEXT
  5
236
330
47
100
AcDbEntity
  8
1
 62
     2
100
AcDbText
 10
20.6299136481323
 20
-49.15974891981382
 30
0.0
 40
1.8
  1
of
 41
0.9
  7
CONVERTER_12
100
AcDbText
  0
TEXT
  5
237
330
47
100
AcDbEntity
  8
1
 62
     2
100
AcDbText
 10
2.4299136481324
 20
-49.15974891981394
 30
0.0
 40
1.8
  1
page
 41
0.9
  7
CONVERTER_12
100
AcDbText
  0
MTEXT
  5
238
330
47
100
AcDbEntity
  8
1
 62
     2
100
AcDbMText
 10
-5.32008635186769
 20
-49.15073170482226
 30
0.0
 40
1.8
 41
0.0
 71
     8
 72
     1
  1
name
  7
CONVERTER_12
 73
     1
 44
1.32052821128451
  0
MTEXT
  5
239
330
47
100
AcDbEntity
  8
1
 62
     2
100
AcDbMText
 10
-18.8200863518676
 20
-49.15073170482226
 30
0.0
 40
1.8
 41
0.0
 71
     8
 72
     1
  1
check.on
  7
CONVERTER_12
 73
     1
 44
1.32052821128451
  0
MTEXT
  5
23A
330
47
100
AcDbEntity
  8
1
 62
     2
100
AcDbMText
 10
-32.3200863518676
 20
-49.15073170482226
 30
0.0
 40
1.8
 41
0.0
 71
     8
 72
     1
  1
name
  7
CONVERTER_12
 73
     1
 44
1.32052821128451
  0
MTEXT
  5
23B
330
47
100
AcDbEntity
  8
1
 62
     2
100
AcDbMText
 10
-108.0752818251178
 20
-49.15073170482226
 30
0.0
 40
1.8
 41
0.0
 71
     8
 72
     1
  1
date
  7
CONVERTER_12
 73
     1
 44
1.32052821128451
  0
MTEXT
  5
23C
330
47
100
AcDbEntity
  8
1
 62
     2
100
AcDbMText
 10
61.9551028057238
 20
-21.65073170482249
 30
0.0
 40
1.8
 41
0.0
 71
     1
 72
     1
  1
material
  7
CONVERTER_12
 73
     1
 44
1.20048019207683
  0
MTEXT
  5
23D
330
47
100
AcDbEntity
  8
1
 62
     2
100
AcDbMText
 10
-117.9252818251168
 20
-49.15073170482226
 30
0.0
 40
1.8
 41
0.0
 71
     8
 72
     1
  1
RI
  7
CONVERTER_12
 73
     1
 44
1.32052821128451
  0
MTEXT
  5
23E
330
47
100
AcDbEntity
  8
1
 62
     2
100
AcDbMText
 10
17.57991364813229
 20
-23.70073170482222
 30
0.0
 40
1.8
 41
0.0
 71
     8
 72
     1
  1
date
  7
CONVERTER_12
 73
     1
 44
1.32052821128451
  0
MTEXT
  5
23F
330
47
100
AcDbEntity
  8
1
 62
     2
100
AcDbMText
 10
31.07991364813229
 20
-23.70073170482222
 30
0.0
 40
1.8
 41
0.0
 71
     8
 72
     1
  1
name
  7
CONVERTER_12
 73
     1
 44
1.32052821128451
  0
MTEXT
  5
240
330
47
100
AcDbEntity
  8
1
 62
     2
100
AcDbMText
 10
-70.19768408849271
 20
-49.15073170482226
 30
0.0
 40
1.8
 41
0.0
 71
     8
 72
     1
  1
revision
  7
CONVERTER_12
 73
     1
 44
1.32052821128451
  0
MTEXT
  5
241
330
47
100
AcDbEntity
  8
1
 62
     2
100
AcDbMText
 10
105.2747181748842
 20
-21.65073170482226
 30
0.0
 40
1.8
 41
0.0
 71
     1
 72
     1
  1
scale
  7
CONVERTER_12
 73
     1
 44
1.20048019207683
  0
MTEXT
  5
242
330
47
100
AcDbEntity
  8
1
 62
     2
100
AcDbMText
 10
6.12991364813239
 20
-27.02573170482226
 30
0.0
 40
1.8
 41
0.0
 71
     5
 72
     1
  1
creat.
  7
CONVERTER_12
 73
     1
 44
1.20048019207683
  0
MTEXT
  5
243
330
47
100
AcDbEntity
  8
1
 62
     2
100
AcDbMText
 10
6.12991364813239
 20
-31.27573170482226
 30
0.0
 40
1.8
 41
0.0
 71
     5
 72
     1
  1
check.
  7
CONVERTER_12
 73
     1
 44
1.20048019207683
  0
MTEXT
  5
244
330
47
100
AcDbEntity
  8
1
 62
     3
100
AcDbMText
 10
27.6299136481323
 20
-35.52573170482215
 30
0.0
 40
2.5
 41
0.0
 71
     5
 72
     1
  1
DIN A3
  7
CONVERTER_12
 73
     1
 44
1.20048019207683
  0
MTEXT
  5
245
330
47
100
AcDbEntity
  8
1
 62
     2
100
AcDbMText
 10
38.92991364813231
 20
-21.65073170482226
 30
0.0
 40
1.8
 41
0.0
 71
     1
 72
     1
  1
ident.-No. / RI
  7
CONVERTER_12
 73
     1
 44
1.20048019207683
  0
TEXT
  5
246
330
47
100
AcDbEntity
  8
1
 62
     2
100
AcDbText
 10
11.07617861847449
 20
-49.19998035862416
 30
0.0
 40
1.8
  1
 
 41
0.9
  7
CONVERTER_12
100
AcDbText
  0
TEXT
  5
247
330
47
100
AcDbEntity
  8
1
 62
     2
100
AcDbText
 10
25.86522245794599
 20
-49.15073170482226
 30
0.0
 40
1.8
  1
1
 41
0.9
  7
CONVERTER_12
100
AcDbText
  0
MTEXT
  5
248
330
47
100
AcDbEntity
  8
1
 62
     2
100
AcDbMText
 10
38.82991364813229
 20
-42.90073170482226
 30
0.0
 40
1.8
 41
0.0
 71
     1
 72
     1
  1
description
  7
CONVERTER_12
 73
     1
 44
1.20048019207683
  0
MTEXT
  5
249
330
47
100
AcDbEntity
  8
1
 62
     2
100
AcDbMText
 10
6.12991364813239
 20
-23.70073170482222
 30
0.0
 40
1.8
 41
0.0
 71
     8
 72
     1
  1
00
  7
CONVERTER_12
 73
     1
 44
1.20048019207683
  0
MTEXT
  5
24A
330
47
100
AcDbEntity
  8
1
 62
     2
100
AcDbMText
 10
38.82991364813229
 20
-34.40073170482226
 30
0.0
 40
1.8
 41
0.0
 71
     1
 72
     1
  1
document-type
  7
CONVERTER_12
 73
     1
 44
1.20048019207683
  0
MTEXT
  5
24B
330
47
100
AcDbEntity
  8
1
 62
     2
100
AcDbMText
 10
31.07991364813229
 20
-31.27573170482226
 30
0.0
 40
1.8
 41
0.0
 71
     5
 72
     1
  1
Angenent
  7
CONVERTER_12
 73
     1
 44
1.32052821128451
  0
MTEXT
  5
24C
330
47
100
AcDbEntity
  8
1
 62
     2
100
AcDbMText
 10
31.07991364813229
 20
-27.02573170482226
 30
0.0
 40
1.8
 41
0.0
 71
     5
 72
     1
  1
Schr\U+00f6der
  7
CONVERTER_12
 73
     1
 44
1.32052821128451
  0
MTEXT
  5
24D
330
47
100
AcDbEntity
  8
1
 62
     2
100
AcDbMText
 10
17.57991364813229
 20
-31.27573170482226
 30
0.0
 40
1.8
 41
0.0
 71
     5
 72
     1
  1
09.04.13
  7
CONVERTER_12
 73
     1
 44
1.32052821128451
  0
MTEXT
  5
24E
330
47
100
AcDbEntity
  8
1
 62
     2
100
AcDbMText
 10
17.57991364813229
 20
-27.02573170482226
 30
0.0
 40
1.8
 41
0.0
 71
     5
 72
     1
  1
04.04.13
  7
CONVERTER_12
 73
     1
 44
1.32052821128451
  0
TEXT
  5
24F
330
47
100
AcDbEntity
  8
1
 62
     7
100
AcDbText
 10
53.80346137014611
 20
-27.85073170482231
 30
0.0
 40
2.5
  1
/
 41
0.9
  7
CONVERTER_12
100
AcDbText
  0
MTEXT
  5
251
330
47
100
AcDbEntity
  8
1
 62
     3
100
AcDbMText
 10
108.6339223157238
 20
-27.8507317048222
 30
0.0
 40
2.5
 41
0.0
 71
     8
 72
     1
  1
1:1
  7
CONVERTER_14
 73
     1
 44
1.32052821128451
  0
TEXT
  5
253
330
47
100
AcDbEntity
  8
1
 62
     3
100
AcDbText
 10
61.7299136481323
 20
-27.85073170482231
 30
0.0
 40
2.5
  1
 
 41
0.54
  7
CONVERTER_15
100
AcDbText
  0
TEXT
  5
255
330
47
100
AcDbEntity
  8
1
 62
     7
100
AcDbText
 10
39.32991364813209
 20
-27.85073170482231
 30
0.0
 40
2.5
  1
1409817
 41
0.81
  7
CONVERTER_16
100
AcDbText
  0
TEXT
  5
256
330
47
100
AcDbEntity
  8
1
 62
     7
100
AcDbText
 10
68.4747181748864
 20
-40.60073170482231
 30
0.0
 40
2.5
  1
00718792
 41
0.81
  7
CONVERTER_16
100
AcDbText
  0
TEXT
  5
257
330
47
100
AcDbEntity
  8
1
 62
     3
100
AcDbText
 10
114.0931264565632
 20
-27.85073170482231
 30
0.0
 40
2.5
  1
 
 41
0.54
  7
CONVERTER_15
100
AcDbText
  0
TEXT
  5
258
330
47
100
AcDbEntity
  8
1
 62
     7
100
AcDbText
 10
55.95982586718809
 20
-27.85073170482231
 30
0.0
 40
2.5
  1
00
 41
0.81
  7
CONVERTER_16
100
AcDbText
  0
TEXT
  5
259
330
47
100
AcDbEntity
  8
1
 62
     7
100
AcDbText
 10
95.6413848415507
 20
-54.4007317048217
 30
0.0
 40
2.5
  1
6
 41
0.9
  7
CONVERTER_12
100
AcDbText
  0
TEXT
  5
25A
330
47
100
AcDbEntity
  8
1
 62
     7
100
AcDbText
 10
27.3080515082173
 20
-54.4007317048217
 30
0.0
 40
2.5
  1
5
 41
0.9
  7
CONVERTER_12
100
AcDbText
  0
TEXT
  5
25B
330
47
100
AcDbEntity
  8
1
 62
     7
100
AcDbText
 10
-41.0252818251159
 20
-54.4007317048217
 30
0.0
 40
2.5
  1
4
 41
0.9
  7
CONVERTER_12
100
AcDbText
  0
TEXT
  5
25C
330
47
100
AcDbEntity
  8
1
 62
     7
100
AcDbText
 10
-109.3586151584491
 20
-54.4007317048217
 30
0.0
 40
2.5
  1
3
 41
0.9
  7
CONVERTER_12
100
AcDbText
  0
TEXT
  5
25D
330
47
100
AcDbEntity
  8
1
 62
     7
100
AcDbText
 10
131.9747181748841
 20
-22.9007317048217
 30
0.0
 40
2.5
  1
E
 41
0.9
  7
CONVERTER_12
100
AcDbText
  0
TEXT
  5
25E
330
47
100
AcDbEntity
  8
1
 62
     7
100
AcDbText
 10
-246.0252818251157
 20
-54.4007317048217
 30
0.0
 40
2.5
  1
1
 41
0.9
  7
CONVERTER_12
100
AcDbText
  0
TEXT
  5
25F
330
47
100
AcDbEntity
  8
1
 62
     7
100
AcDbText
 10
-177.6919484917825
 20
-54.4007317048217
 30
0.0
 40
2.5
  1
2
 41
0.9
  7
CONVERTER_12
100
AcDbText
  0
TEXT
  5
260
330
47
100
AcDbEntity
  8
1
 62
     7
100
AcDbText
 10
131.9747181748841
 20
34.4992682951784
 30
0.0
 40
2.5
  1
D
 41
0.9
  7
CONVERTER_12
100
AcDbText
  0
TEXT
  5
261
330
47
100
AcDbEntity
  8
1
 62
     7
100
AcDbText
 10
131.9747181748841
 20
91.89926829517849
 30
0.0
 40
2.5
  1
C
 41
0.9
  7
CONVERTER_12
100
AcDbText
  0
TEXT
  5
262
330
47
100
AcDbEntity
  8
1
 62
     7
100
AcDbText
 10
131.9747181748841
 20
149.2992682951784
 30
0.0
 40
2.5
  1
B
 41
0.9
  7
CONVERTER_12
100
AcDbText
  0
TEXT
  5
263
330
47
100
AcDbEntity
  8
1
 62
     7
100
AcDbText
 10
131.9747181748841
 20
206.6992682951782
 30
0.0
 40
2.5
  1
A
 41
0.9
  7
CONVERTER_12
100
AcDbText
  0
TEXT
  5
264
330
47
100
AcDbEntity
  8
1
 62
     7
100
AcDbText
 10
95.6413848415507
 20
237.5992682951786
 30
0.0
 40
2.5
  1
6
 41
0.9
  7
CONVERTER_12
100
AcDbText
  0
TEXT
  5
265
330
47
100
AcDbEntity
  8
1
 62
     7
100
AcDbText
 10
27.3080515082175
 20
237.5992682951786
 30
0.0
 40
2.5
  1
5
 41
0.9
  7
CONVERTER_12
100
AcDbText
  0
TEXT
  5
266
330
47
100
AcDbEntity
  8
1
 62
     7
100
AcDbText
 10
-41.0252818251159
 20
237.5992682951786
 30
0.0
 40
2.5
  1
4
 41
0.9
  7
CONVERTER_12
100
AcDbText
  0
TEXT
  5
267
330
47
100
AcDbEntity
  8
1
 62
     7
100
AcDbText
 10
-109.3586151584491
 20
237.5992682951786
 30
0.0
 40
2.5
  1
3
 41
0.9
  7
CONVERTER_12
100
AcDbText
  0
TEXT
  5
268
330
47
100
AcDbEntity
  8
1
 62
     7
100
AcDbText
 10
-177.6919484917825
 20
237.5992682951786
 30
0.0
 40
2.5
  1
2
 41
0.9
  7
CONVERTER_12
100
AcDbText
  0
TEXT
  5
269
330
47
100
AcDbEntity
  8
1
 62
     7
100
AcDbText
 10
-246.0252818251157
 20
237.5992682951786
 30
0.0
 40
2.5
  1
1
 41
0.9
  7
CONVERTER_12
100
AcDbText
  0
MTEXT
  5
26A
330
47
100
AcDbEntity
  8
1
 62
     3
100
AcDbMText
 10
-265.6026085137626
 20
-50.37381760532112
 30
0.0
 40
1.8
 41
0.0
 71
     7
 72
     1
  3
Weitergabe sowie Vervielf\U+00e4ltigung dieses Dokuments, Verwertung und\PMitteilung seines Inhalts gem\U+00e4\U+00df \U+00a718 UWG verboten, soweit nicht aus-\Pdr\U+00fccklich gestattet. Zuwiderhandlungen verpflichten zu Schadenersatz\P(\U+00a719 U
  1
WG). Alle Rechte vorbehalten, insbesondere das Recht, Patent-,\PGebrauchsmuster- oder Geschmacksmusteranmeldungen durchzuf\U+00fchren.\PPhoenix Contact GmbH & Co. KG
  7
CONVERTER_12
 11
6.123233764940082E-17
 21
1.0
 31
0.0
 73
     1
 44
0.99639855942377
  0
MTEXT
  5
26B
330
47
100
AcDbEntity
  8
1
 62
     3
100
AcDbMText
 10
-265.7568148248567
 20
122.585552408832
 30
0.0
 40
1.8
 41
0.0
 71
     7
 72
     1
  3
The copying, distribution and utilistion of this document as well as the communication\Pof the contents to others without expressed authorization is prohibited according to\P\U+00a718 UWG German Law. Offenders will be held liable for the payment of 
  1
damages\Paccording to (\U+00a719 UWG German Law). All rights reserved, in particular the right to\Pcarry out patent, utility model or ornamental design registrations.\PFlachsmarktstra\U+00dfe 8  D-32825 Blomberg
  7
CONVERTER_12
 11
6.123233764940082E-17
 21
1.0
 31
0.0
 73
     1
 44
0.99639855942377
  0
TEXT
  5
26D
330
47
100
AcDbEntity
  8
1
 62
     3
100
AcDbText
 10
38.82991364813229
 20
-40.60073170482231
 30
0.0
 40
2.5
  1
KUNDENZCHNG-SELECT
 41
0.45
  7
CONVERTER_17
100
AcDbText
  0
MTEXT
  5
26E
330
47
100
AcDbEntity
  8
1
 62
     3
100
AcDbMText
 10
78.68173806149271
 20
-30.05073170482224
 30
0.0
 40
2.0
 41
0.0
 71
     1
 72
     1
  1
 
  7
CONVERTER_14
 73
     1
 44
1.20048019207683
  0
MTEXT
  5
270
330
47
100
AcDbEntity
  8
1
 62
     3
100
AcDbMText
 10
48.16215046624721
 20
-31.27573170482226
 30
0.0
 40
2.5
 41
0.0
 71
     4
 72
     1
  1
K02-12005/99
  7
CONVERTER_18
 73
     1
 44
1.20048019207683
  0
MTEXT
  5
271
330
47
100
AcDbEntity
  8
1
 62
     2
100
AcDbMText
 10
38.92991364813231
 20
-31.07573170482233
 30
0.0
 40
1.4
 41
0.0
 71
     4
 72
     1
  1
SAP\Pchange-No.
  7
CONVERTER_18
 73
     1
 44
0.66026410564226
  0
MTEXT
  5
272
330
47
100
AcDbEntity
  8
1
 62
     2
100
AcDbMText
 10
68.4747181748847
 20
-30.15073170482226
 30
0.0
 40
1.8
 41
0.0
 71
     1
 72
     1
  1
part-rev.
  7
CONVERTER_14
 73
     1
 44
1.20048019207683
  0
TEXT
  5
273
330
47
100
AcDbEntity
  8
1
 62
     3
100
AcDbText
 10
86.9747181748843
 20
-40.60073170482231
 30
0.0
 40
2.5
  1
 
 41
0.54
  7
CONVERTER_15
100
AcDbText
  0
MTEXT
  5
274
330
47
100
AcDbEntity
  8
1
 62
     7
100
AcDbMText
 10
84.40231591150781
 20
-47.15073170482204
 30
0.0
 40
3.0
 41
0.0
 71
     5
 72
     1
  1
HC-B 16-TMS-EEE-PR-DI
  7
CONVERTER_16
 73
     1
 44
1.20048019207683
  0
HATCH
  5
275
330
47
100
AcDbEntity
  8
1
  6
Continuous
 62
     2
100
AcDbHatch
 10
0.0
 20
0.0
 30
0.0
210
0.0
220
0.0
230
1.0
  2
_USER
 70
     0
 71
     1
 91
        1
 92
        1
 93
       14
 72
     2
 10
14.7053097439363
 20
-43.28882694291106
 40
0.99641005652141
 50
164.938108222886
 51
195.0618917771018
 73
     1
 72
     2
 10
15.05169639142621
 20
-43.19561176767577
 40
1.35511993714
 50
195.0618917770908
 51
275.1581447696414
 73
     1
 72
     2
 10
14.81297234618999
 20
-40.5510740955918
 40
4.01041063099019
 50
275.1581447696246
 51
285.9799912583524
 73
     1
 72
     1
 10
15.917045004965
 20
-44.40651401774126
 11
15.917045004965
 21
-43.68542558236659
 72
     2
 10
14.94344579667991
 20
-42.12315226075516
 40
1.840813230556041
 50
58.0690910500381
 51
71.55192388186886
 73
     0
 72
     2
 10
15.2890389649947
 20
-43.15914050541399
 40
0.7487023016404478
 50
71.5519238818519
 51
113.372277888129
 73
     0
 72
     2
 10
15.15974968176981
 20
-43.45830746302563
 40
0.4227934381774396
 50
113.3722778881671
 51
151.4785267423153
 73
     0
 72
     2
 10
15.47161518431561
 20
-43.28882694291106
 40
0.7777353184572527
 50
151.4785267422954
 51
208.5214732577272
 73
     0
 72
     2
 10
15.15974968176981
 20
-43.11934642279626
 40
0.4227934381776471
 50
208.5214732576999
 51
246.6277221118149
 73
     0
 72
     2
 10
15.2890389649947
 20
-43.41851338040824
 40
0.7487023016407661
 50
246.627722111871
 51
288.4480761181371
 73
     0
 72
     2
 10
14.94344579667991
 20
-44.45450162506661
 40
1.840813230556588
 50
288.4480761181312
 51
301.9309089499618
 73
     0
 72
     1
 10
15.917045004965
 20
-42.89222830345518
 11
15.917045004965
 21
-42.17113986808063
 72
     2
 10
14.81297234618999
 20
-46.02657979022997
 40
4.010410630989974
 50
74.02000874164719
 51
84.84185523037539
 73
     1
 72
     2
 10
15.05169639142621
 20
-43.38204211814657
 40
1.355119937140983
 50
84.84185523036082
 51
164.9381082228909
 73
     1
 97
       14
330
208
330
84
330
1D7
330
207
330
1D8
330
1D9
330
206
330
205
330
204
330
85
330
1DA
330
1DB
330
1DC
330
1DD
 75
     1
 76
     0
 52
45.0
 41
0.1
 77
     0
 78
     1
 53
45.0
 43
0.0
 44
0.0
 45
-0.0707106781186548
 46
0.0707106781186548
 79
     0
 98
        1
 10
0.0
 20
0.0
  0
HATCH
  5
276
330
47
100
AcDbEntity
  8
1
  6
Continuous
 62
     2
100
AcDbHatch
 10
0.0
 20
0.0
 30
0.0
210
0.0
220
0.0
230
1.0
  2
_USER
 70
     0
 71
     1
 91
        1
 92
        1
 93
       14
 72
     2
 10
14.7053097439363
 20
-43.28882694291106
 40
0.99641005652141
 50
164.938108222886
 51
195.0618917771018
 73
     1
 72
     2
 10
15.05169639142621
 20
-43.19561176767577
 40
1.35511993714
 50
195.0618917770908
 51
275.1581447696414
 73
     1
 72
     2
 10
14.81297234618999
 20
-40.5510740955918
 40
4.01041063099019
 50
275.1581447696246
 51
285.9799912583524
 73
     1
 72
     1
 10
15.917045004965
 20
-44.40651401774126
 11
15.917045004965
 21
-43.68542558236659
 72
     2
 10
14.94344579667991
 20
-42.12315226075516
 40
1.840813230556041
 50
58.0690910500381
 51
71.55192388186886
 73
     0
 72
     2
 10
15.2890389649947
 20
-43.15914050541399
 40
0.7487023016404478
 50
71.5519238818519
 51
113.372277888129
 73
     0
 72
     2
 10
15.15974968176981
 20
-43.45830746302563
 40
0.4227934381774396
 50
113.3722778881671
 51
151.4785267423153
 73
     0
 72
     2
 10
15.47161518431561
 20
-43.28882694291106
 40
0.7777353184572527
 50
151.4785267422954
 51
208.5214732577272
 73
     0
 72
     2
 10
15.15974968176981
 20
-43.11934642279626
 40
0.4227934381776471
 50
208.5214732576999
 51
246.6277221118149
 73
     0
 72
     2
 10
15.2890389649947
 20
-43.41851338040824
 40
0.7487023016407661
 50
246.627722111871
 51
288.4480761181371
 73
     0
 72
     2
 10
14.94344579667991
 20
-44.45450162506661
 40
1.840813230556588
 50
288.4480761181312
 51
301.9309089499618
 73
     0
 72
     1
 10
15.917045004965
 20
-42.89222830345518
 11
15.917045004965
 21
-42.17113986808063
 72
     2
 10
14.81297234618999
 20
-46.02657979022997
 40
4.010410630989974
 50
74.02000874164719
 51
84.84185523037539
 73
     1
 72
     2
 10
15.05169639142621
 20
-43.38204211814657
 40
1.355119937140983
 50
84.84185523036082
 51
164.9381082228909
 73
     1
 97
       14
330
208
330
84
330
1D7
330
207
330
1D8
330
1D9
330
206
330
205
330
204
330
85
330
1DA
330
1DB
330
1DC
330
1DD
 75
     1
 76
     0
 52
45.0
 41
0.1
 77
     0
 78
     1
 53
45.0
 43
0.0
 44
0.0
 45
-0.0707106781186548
 46
0.0707106781186548
 79
     0
 98
        1
 10
0.0
 20
0.0
  0
HATCH
  5
277
330
47
100
AcDbEntity
  8
1
  6
Continuous
 62
     2
100
AcDbHatch
 10
0.0
 20
0.0
 30
0.0
210
0.0
220
0.0
230
1.0
  2
_USER
 70
     0
 71
     1
 91
        1
 92
        1
 93
       18
 72
     2
 10
28.35971414287489
 20
-43.38204211814657
 40
1.355119937140671
 50
90.0
 51
164.9381082228992
 73
     1
 72
     2
 10
28.01332749538589
 20
-43.28882694291106
 40
0.9964100565230206
 50
164.9381082229109
 51
195.0618917771021
 73
     1
 72
     2
 10
28.35971414287489
 20
-43.19561176767577
 40
1.355119937140849
 50
195.0618917771011
 51
275.1581447696784
 73
     1
 72
     2
 10
28.12099009763871
 20
-40.5510740955918
 40
4.010410630990729
 50
275.1581447696365
 51
285.979991258338
 73
     1
 72
     1
 10
29.22506275641281
 20
-44.40651401774171
 11
29.22506275641281
 21
-43.68542558236705
 72
     2
 10
28.2514635481286
 20
-42.12315226075562
 40
1.840813230556047
 50
58.06909105006152
 51
71.55192388186835
 73
     0
 72
     2
 10
28.59705671644419
 20
-43.15914050541399
 40
0.7487023016407213
 50
71.55192388191955
 51
113.3722778881774
 73
     0
 72
     2
 10
28.4677674332185
 20
-43.45830746302563
 40
0.4227934381784343
 50
113.3722778881536
 51
151.4785267423173
 73
     0
 72
     2
 10
28.77963293576521
 20
-43.28882694291106
 40
0.7777353184586056
 50
151.4785267423285
 51
208.5214732576342
 73
     0
 72
     2
 10
28.4677674332185
 20
-43.11934642279626
 40
0.4227934381773005
 50
208.5214732575879
 51
250.6628567805216
 73
     0
 72
     2
 10
28.58898230768439
 20
-43.4647637619557
 40
0.7888619891125543
 50
250.6628567805712
 51
270.0
 73
     0
 72
     1
 10
28.58898230768439
 20
-42.67590177284315
 11
29.5010809023688
 21
-42.67590177284315
 72
     1
 10
29.5010809023688
 20
-42.67590177284315
 11
29.5010809023688
 21
-44.55073170481633
 72
     1
 10
29.5010809023688
 20
-44.55073170481633
 11
30.48685999506931
 21
-44.55073170481633
 72
     1
 10
30.48685999506931
 20
-44.55073170481633
 11
30.48685999506931
 21
-42.67590177284315
 72
     1
 10
30.48685999506931
 20
-42.67590177284315
 11
31.15718977810521
 21
-42.67590177284315
 72
     1
 10
31.15718977810521
 20
-42.67590177284315
 11
31.15718977810521
 21
-42.02692218100545
 72
     1
 10
31.15718977810521
 20
-42.02692218100545
 11
28.35971414287489
 21
-42.0269221810059
 97
       18
330
EA
330
E9
330
E8
330
E7
330
EC
330
86
330
201
330
1E2
330
200
330
1E3
330
1FF
330
1FE
330
87
330
1FD
330
1FC
330
1E4
330
1E5
330
EB
 75
     1
 76
     0
 52
45.0
 41
0.1
 77
     0
 78
     1
 53
45.0
 43
0.0
 44
0.0
 45
-0.0707106781186548
 46
0.0707106781186548
 79
     0
 98
        1
 10
0.0
 20
0.0
  0
HATCH
  5
278
330
47
100
AcDbEntity
  8
1
  6
Continuous
 62
     2
100
AcDbHatch
 10
0.0
 20
0.0
 30
0.0
210
0.0
220
0.0
230
1.0
  2
_USER
 70
     0
 71
     1
 91
        1
 92
        1
 93
       18
 72
     2
 10
28.35971414287489
 20
-43.38204211814657
 40
1.355119937140671
 50
90.0
 51
164.9381082228992
 73
     1
 72
     2
 10
28.01332749538589
 20
-43.28882694291106
 40
0.9964100565230206
 50
164.9381082229109
 51
195.0618917771021
 73
     1
 72
     2
 10
28.35971414287489
 20
-43.19561176767577
 40
1.355119937140849
 50
195.0618917771011
 51
275.1581447696784
 73
     1
 72
     2
 10
28.12099009763871
 20
-40.5510740955918
 40
4.010410630990729
 50
275.1581447696365
 51
285.979991258338
 73
     1
 72
     1
 10
29.22506275641281
 20
-44.40651401774171
 11
29.22506275641281
 21
-43.68542558236705
 72
     2
 10
28.2514635481286
 20
-42.12315226075562
 40
1.840813230556047
 50
58.06909105006152
 51
71.55192388186835
 73
     0
 72
     2
 10
28.59705671644419
 20
-43.15914050541399
 40
0.7487023016407213
 50
71.55192388191955
 51
113.3722778881774
 73
     0
 72
     2
 10
28.4677674332185
 20
-43.45830746302563
 40
0.4227934381784343
 50
113.3722778881536
 51
151.4785267423173
 73
     0
 72
     2
 10
28.77963293576521
 20
-43.28882694291106
 40
0.7777353184586056
 50
151.4785267423285
 51
208.5214732576342
 73
     0
 72
     2
 10
28.4677674332185
 20
-43.11934642279626
 40
0.4227934381773005
 50
208.5214732575879
 51
250.6628567805216
 73
     0
 72
     2
 10
28.58898230768439
 20
-43.4647637619557
 40
0.7888619891125543
 50
250.6628567805712
 51
270.0
 73
     0
 72
     1
 10
28.58898230768439
 20
-42.67590177284315
 11
29.5010809023688
 21
-42.67590177284315
 72
     1
 10
29.5010809023688
 20
-42.67590177284315
 11
29.5010809023688
 21
-44.55073170481633
 72
     1
 10
29.5010809023688
 20
-44.55073170481633
 11
30.48685999506931
 21
-44.55073170481633
 72
     1
 10
30.48685999506931
 20
-44.55073170481633
 11
30.48685999506931
 21
-42.67590177284315
 72
     1
 10
30.48685999506931
 20
-42.67590177284315
 11
31.15718977810521
 21
-42.67590177284315
 72
     1
 10
31.15718977810521
 20
-42.67590177284315
 11
31.15718977810521
 21
-42.02692218100545
 72
     1
 10
31.15718977810521
 20
-42.02692218100545
 11
28.35971414287489
 21
-42.0269221810059
 97
       18
330
EA
330
E9
330
E8
330
E7
330
EC
330
86
330
201
330
1E2
330
200
330
1E3
330
1FF
330
1FE
330
87
330
1FD
330
1FC
330
1E4
330
1E5
330
EB
 75
     1
 76
     0
 52
45.0
 41
0.1
 77
     0
 78
     1
 53
45.0
 43
0.0
 44
0.0
 45
-0.0707106781186548
 46
0.0707106781186548
 79
     0
 98
        1
 10
0.0
 20
0.0
  0
HATCH
  5
279
330
47
100
AcDbEntity
  8
1
  6
Continuous
 62
     2
100
AcDbHatch
 10
0.0
 20
0.0
 30
0.0
210
0.0
220
0.0
230
1.0
  2
_USER
 70
     0
 71
     1
 91
        4
 92
        1
 93
        8
 72
     2
 10
8.440574393541809
 20
-39.601347089458
 40
0.3506153846146844
 50
90.0
 51
180.0
 73
     1
 72
     1
 10
8.089959008927892
 20
-39.601347089458
 11
8.089959008927892
 21
-44.20011632020199
 72
     2
 10
8.440574393541809
 20
-44.20011632020199
 40
0.3506153846139171
 50
180.0
 51
270.0
 73
     1
 72
     1
 10
8.440574393541809
 20
-44.55073170481633
 11
12.96397281562189
 21
-44.55073170481633
 72
     2
 10
12.96397281562189
 20
-44.20011632020199
 40
0.3506153846143363
 50
270.0
 51
360.0
 73
     1
 72
     1
 10
13.31458820023671
 20
-44.20011632020199
 11
13.31458820023671
 21
-39.601347089458
 72
     2
 10
12.96397281562189
 20
-39.601347089458
 40
0.3506153846148194
 50
0.0
 51
90.0
 73
     1
 72
     1
 10
12.96397281562189
 20
-39.25073170484332
 11
8.440574393541809
 21
-39.25073170484332
 97
        8
330
1F5
330
B5
330
1F4
330
B6
330
1EB
330
B3
330
1F6
330
B4
 92
       16
 93
        1
 72
     2
 10
10.6055212121514
 20
-41.51777868314032
 40
0.3892387874202008
 50
0.0
 51
360.0
 73
     1
 97
        1
330
209
 92
       16
 93
        8
 72
     2
 10
10.6252030424594
 20
-41.51777868314032
 40
0.7535935125160738
 50
295.3740086781793
 51
424.6259913218058
 73
     1
 72
     2
 10
11.05994907393709
 20
-40.6011327327537
 40
0.26092307692298
 50
115.374008678368
 51
180.0
 73
     0
 72
     1
 10
10.79902599701411
 20
-40.6011327327537
 11
10.79902599701411
 21
-40.10069034555802
 72
     2
 10
11.05994907393709
 20
-40.10069034555802
 40
0.2609230769224678
 50
180.0
 51
269.8110329574461
 73
     0
 72
     2
 10
11.0645905080775
 20
-41.50799195511918
 40
1.668232340440728
 50
269.8110329575882
 51
450.1889670424118
 73
     0
 72
     2
 10
11.05994907393709
 20
-42.91529356468034
 40
0.26092307692298
 50
90.18896704255388
 51
180.0
 73
     0
 72
     1
 10
10.79902599701411
 20
-42.91529356468034
 11
10.79902599701411
 21
-42.4344246335274
 72
     2
 10
11.05994907393709
 20
-42.4344246335274
 40
0.2609230769227737
 50
180.0
 51
244.625991321632
 73
     0
 97
        8
330
203
330
1DF
330
EE
330
202
330
1E0
330
1E1
330
ED
330
1DE
 92
       16
 93
       12
 72
     1
 10
8.931396440439798
 20
-43.96184281592623
 11
10.151093350365
 21
-43.96184281592623
 72
     2
 10
10.151093350365
 20
-43.7009197390034
 40
0.260923076922829
 50
270.0
 51
360.0
 73
     1
 72
     1
 10
10.41201642728781
 20
-43.7009197390034
 11
10.41201642728781
 21
-42.43581979558879
 72
     2
 10
10.151093350365
 20
-42.43581979558879
 40
0.2609230769228095
 50
0.0
 51
64.80558935144192
 73
     1
 72
     2
 10
10.5829813235675
 20
-41.51777868314032
 40
0.7536343169898668
 50
115.1944106485119
 51
244.8055893514773
 73
     0
 72
     2
 10
10.151093350365
 20
-40.5997375706922
 40
0.2609230769223501
 50
295.1944106485594
 51
360.0
 73
     1
 72
     1
 10
10.41201642728781
 20
-40.5997375706922
 11
10.41201642728781
 21
-40.10054367064215
 72
     2
 10
10.151093350365
 20
-40.10054367064215
 40
0.2609230769228095
 50
0.0
 51
90.0
 73
     1
 72
     1
 10
10.151093350365
 20
-39.83962059371966
 11
8.931396440439798
 21
-39.83962059371966
 72
     2
 10
8.931396440439798
 20
-40.10054367064215
 40
0.2609230769224951
 50
90.0
 51
180.0
 73
     1
 72
     1
 10
8.6704733635177
 20
-40.10054367064215
 11
8.6704733635177
 21
-43.7009197390034
 72
     2
 10
8.931396440439798
 20
-43.7009197390034
 40
0.2609230769220972
 50
180.0
 51
270.0
 73
     1
 97
       12
330
BA
330
1E8
330
B9
330
1F9
330
B8
330
1F8
330
1E9
330
1EA
330
B7
330
1F7
330
B2
330
1FA
 75
     1
 76
     0
 52
45.0
 41
0.1
 77
     0
 78
     1
 53
45.0
 43
0.0
 44
0.0
 45
-0.0707106781186548
 46
0.0707106781186548
 79
     0
 98
        1
 10
0.0
 20
0.0
  0
HATCH
  5
27A
330
47
100
AcDbEntity
  8
1
  6
Continuous
 62
     2
100
AcDbHatch
 10
0.0
 20
0.0
 30
0.0
210
0.0
220
0.0
230
1.0
  2
_USER
 70
     0
 71
     1
 91
        4
 92
        1
 93
        8
 72
     2
 10
8.440574393541809
 20
-39.601347089458
 40
0.3506153846146844
 50
90.0
 51
180.0
 73
     1
 72
     1
 10
8.089959008927892
 20
-39.601347089458
 11
8.089959008927892
 21
-44.20011632020199
 72
     2
 10
8.440574393541809
 20
-44.20011632020199
 40
0.3506153846139171
 50
180.0
 51
270.0
 73
     1
 72
     1
 10
8.440574393541809
 20
-44.55073170481633
 11
12.96397281562189
 21
-44.55073170481633
 72
     2
 10
12.96397281562189
 20
-44.20011632020199
 40
0.3506153846143363
 50
270.0
 51
360.0
 73
     1
 72
     1
 10
13.31458820023671
 20
-44.20011632020199
 11
13.31458820023671
 21
-39.601347089458
 72
     2
 10
12.96397281562189
 20
-39.601347089458
 40
0.3506153846148194
 50
0.0
 51
90.0
 73
     1
 72
     1
 10
12.96397281562189
 20
-39.25073170484332
 11
8.440574393541809
 21
-39.25073170484332
 97
        8
330
1F5
330
B5
330
1F4
330
B6
330
1EB
330
B3
330
1F6
330
B4
 92
       16
 93
        1
 72
     2
 10
10.6055212121514
 20
-41.51777868314032
 40
0.3892387874202008
 50
0.0
 51
360.0
 73
     1
 97
        1
330
209
 92
       16
 93
        8
 72
     2
 10
10.6252030424594
 20
-41.51777868314032
 40
0.7535935125160738
 50
295.3740086781793
 51
424.6259913218058
 73
     1
 72
     2
 10
11.05994907393709
 20
-40.6011327327537
 40
0.26092307692298
 50
115.374008678368
 51
180.0
 73
     0
 72
     1
 10
10.79902599701411
 20
-40.6011327327537
 11
10.79902599701411
 21
-40.10069034555802
 72
     2
 10
11.05994907393709
 20
-40.10069034555802
 40
0.2609230769224678
 50
180.0
 51
269.8110329574461
 73
     0
 72
     2
 10
11.0645905080775
 20
-41.50799195511918
 40
1.668232340440728
 50
269.8110329575882
 51
450.1889670424118
 73
     0
 72
     2
 10
11.05994907393709
 20
-42.91529356468034
 40
0.26092307692298
 50
90.18896704255388
 51
180.0
 73
     0
 72
     1
 10
10.79902599701411
 20
-42.91529356468034
 11
10.79902599701411
 21
-42.4344246335274
 72
     2
 10
11.05994907393709
 20
-42.4344246335274
 40
0.2609230769227737
 50
180.0
 51
244.625991321632
 73
     0
 97
        8
330
203
330
1DF
330
EE
330
202
330
1E0
330
1E1
330
ED
330
1DE
 92
       16
 93
       12
 72
     1
 10
8.931396440439798
 20
-43.96184281592623
 11
10.151093350365
 21
-43.96184281592623
 72
     2
 10
10.151093350365
 20
-43.7009197390034
 40
0.260923076922829
 50
270.0
 51
360.0
 73
     1
 72
     1
 10
10.41201642728781
 20
-43.7009197390034
 11
10.41201642728781
 21
-42.43581979558879
 72
     2
 10
10.151093350365
 20
-42.43581979558879
 40
0.2609230769228095
 50
0.0
 51
64.80558935144192
 73
     1
 72
     2
 10
10.5829813235675
 20
-41.51777868314032
 40
0.7536343169898668
 50
115.1944106485119
 51
244.8055893514773
 73
     0
 72
     2
 10
10.151093350365
 20
-40.5997375706922
 40
0.2609230769223501
 50
295.1944106485594
 51
360.0
 73
     1
 72
     1
 10
10.41201642728781
 20
-40.5997375706922
 11
10.41201642728781
 21
-40.10054367064215
 72
     2
 10
10.151093350365
 20
-40.10054367064215
 40
0.2609230769228095
 50
0.0
 51
90.0
 73
     1
 72
     1
 10
10.151093350365
 20
-39.83962059371966
 11
8.931396440439798
 21
-39.83962059371966
 72
     2
 10
8.931396440439798
 20
-40.10054367064215
 40
0.2609230769224951
 50
90.0
 51
180.0
 73
     1
 72
     1
 10
8.6704733635177
 20
-40.10054367064215
 11
8.6704733635177
 21
-43.7009197390034
 72
     2
 10
8.931396440439798
 20
-43.7009197390034
 40
0.2609230769220972
 50
180.0
 51
270.0
 73
     1
 97
       12
330
BA
330
1E8
330
B9
330
1F9
330
B8
330
1F8
330
1E9
330
1EA
330
B7
330
1F7
330
B2
330
1FA
 75
     1
 76
     0
 52
45.0
 41
0.1
 77
     0
 78
     1
 53
45.0
 43
0.0
 44
0.0
 45
-0.0707106781186548
 46
0.0707106781186548
 79
     0
 98
        1
 10
0.0
 20
0.0
  0
HATCH
  5
27B
330
47
100
AcDbEntity
  8
1
  6
Continuous
 62
     2
100
AcDbHatch
 10
0.0
 20
0.0
 30
0.0
210
0.0
220
0.0
230
1.0
  2
_USER
 70
     0
 71
     1
 91
        2
 92
        1
 93
       12
 72
     2
 10
20.5688091075826
 20
-40.51263646673392
 40
1.261904761905612
 50
90.0
 51
270.0
 73
     1
 72
     1
 10
20.5688091075826
 20
-41.77454122863919
 11
23.17237912723631
 21
-41.77454122863919
 72
     1
 10
23.17237912723631
 20
-41.77454122863919
 11
23.17237912723631
 21
-41.19767048033971
 72
     1
 10
23.17237912723631
 20
-41.19767048033971
 11
22.06830654341179
 21
-41.19767048033971
 72
     1
 10
22.06830654341179
 20
-41.19767048033971
 11
22.06830654341179
 21
-40.80107184088372
 72
     1
 10
22.06830654341179
 20
-40.80107184088372
 11
23.17237912723631
 21
-40.80107184088372
 72
     1
 10
23.17237912723631
 20
-40.80107184088372
 11
23.17237912723631
 21
-40.22420109258424
 72
     1
 10
23.17237912723631
 20
-40.22420109258424
 11
22.06830654341179
 21
-40.22420109258424
 72
     1
 10
22.06830654341179
 20
-40.22420109258424
 11
22.06830654341179
 21
-39.82760245312825
 72
     1
 10
22.06830654341179
 20
-39.82760245312825
 11
23.17237912723631
 21
-39.82760245312825
 72
     1
 10
23.17237912723631
 20
-39.82760245312825
 11
23.17237912723631
 21
-39.25073170482831
 72
     1
 10
23.17237912723631
 20
-39.25073170482831
 11
20.5688091075826
 21
-39.25073170482831
 97
       12
330
A9
330
A3
330
CA
330
C9
330
C8
330
C7
330
A4
330
A5
330
A6
330
A7
330
1E6
330
A8
 92
       16
 93
        4
 72
     2
 10
20.9126207162697
 20
-40.51263646673392
 40
0.63785105675994
 50
141.8795802028399
 51
218.1204197971682
 73
     1
 72
     2
 10
20.74754630606621
 20
-40.64216636600709
 40
0.4280236140606649
 50
218.1204197971545
 51
321.8795802028532
 73
     1
 72
     2
 10
20.58247189586281
 20
-40.51263646673392
 40
0.6378510567600102
 50
321.8795802028318
 51
398.1204197971601
 73
     1
 72
     2
 10
20.74754630606621
 20
-40.38310656746087
 40
0.4280236140607375
 50
38.12041979714687
 51
141.8795802028455
 73
     1
 97
        4
330
1F3
330
1F2
330
1ED
330
1EC
 75
     1
 76
     0
 52
45.0
 41
0.1
 77
     0
 78
     1
 53
45.0
 43
0.0
 44
0.0
 45
-0.0707106781186548
 46
0.0707106781186548
 79
     0
 98
        1
 10
0.0
 20
0.0
  0
HATCH
  5
27C
330
47
100
AcDbEntity
  8
1
  6
Continuous
 62
     2
100
AcDbHatch
 10
0.0
 20
0.0
 30
0.0
210
0.0
220
0.0
230
1.0
  2
_USER
 70
     0
 71
     1
 91
        2
 92
        1
 93
       12
 72
     2
 10
20.5688091075826
 20
-40.51263646673392
 40
1.261904761905612
 50
90.0
 51
270.0
 73
     1
 72
     1
 10
20.5688091075826
 20
-41.77454122863919
 11
23.17237912723631
 21
-41.77454122863919
 72
     1
 10
23.17237912723631
 20
-41.77454122863919
 11
23.17237912723631
 21
-41.19767048033971
 72
     1
 10
23.17237912723631
 20
-41.19767048033971
 11
22.06830654341179
 21
-41.19767048033971
 72
     1
 10
22.06830654341179
 20
-41.19767048033971
 11
22.06830654341179
 21
-40.80107184088372
 72
     1
 10
22.06830654341179
 20
-40.80107184088372
 11
23.17237912723631
 21
-40.80107184088372
 72
     1
 10
23.17237912723631
 20
-40.80107184088372
 11
23.17237912723631
 21
-40.22420109258424
 72
     1
 10
23.17237912723631
 20
-40.22420109258424
 11
22.06830654341179
 21
-40.22420109258424
 72
     1
 10
22.06830654341179
 20
-40.22420109258424
 11
22.06830654341179
 21
-39.82760245312825
 72
     1
 10
22.06830654341179
 20
-39.82760245312825
 11
23.17237912723631
 21
-39.82760245312825
 72
     1
 10
23.17237912723631
 20
-39.82760245312825
 11
23.17237912723631
 21
-39.25073170482831
 72
     1
 10
23.17237912723631
 20
-39.25073170482831
 11
20.5688091075826
 21
-39.25073170482831
 97
       12
330
A9
330
A3
330
CA
330
C9
330
C8
330
C7
330
A4
330
A5
330
A6
330
A7
330
1E6
330
A8
 92
       16
 93
        4
 72
     2
 10
20.9126207162697
 20
-40.51263646673392
 40
0.63785105675994
 50
141.8795802028399
 51
218.1204197971682
 73
     1
 72
     2
 10
20.74754630606621
 20
-40.64216636600709
 40
0.4280236140606649
 50
218.1204197971545
 51
321.8795802028532
 73
     1
 72
     2
 10
20.58247189586281
 20
-40.51263646673392
 40
0.6378510567600102
 50
321.8795802028318
 51
398.1204197971601
 73
     1
 72
     2
 10
20.74754630606621
 20
-40.38310656746087
 40
0.4280236140607375
 50
38.12041979714687
 51
141.8795802028455
 73
     1
 97
        4
330
1F3
330
1F2
330
1ED
330
1EC
 75
     1
 76
     0
 52
45.0
 41
0.1
 77
     0
 78
     1
 53
45.0
 43
0.0
 44
0.0
 45
-0.0707106781186548
 46
0.0707106781186548
 79
     0
 98
        1
 10
0.0
 20
0.0
  0
HATCH
  5
27D
330
47
100
AcDbEntity
  8
1
  6
Continuous
 62
     2
100
AcDbHatch
 10
0.0
 20
0.0
 30
0.0
210
0.0
220
0.0
230
1.0
  2
_USER
 70
     0
 71
     1
 91
        2
 92
        1
 93
        4
 72
     2
 10
17.241854262573
 20
-43.28882694291106
 40
1.20498684599291
 50
117.548148175664
 51
242.4518518243384
 73
     1
 72
     2
 10
17.47403599136091
 20
-42.84372362861082
 40
1.70700807620544
 50
242.4518518243388
 51
297.5481481756847
 73
     1
 72
     2
 10
17.7062177201487
 20
-43.28882694291106
 40
1.204986845993431
 50
297.5481481756999
 51
422.4518518242976
 73
     1
 72
     2
 10
17.47403599136091
 20
-43.73393025721096
 40
1.707008076205402
 50
62.45185182430831
 51
117.5481481756682
 73
     1
 97
        4
330
1F1
330
1EE
330
1F0
330
1EF
 92
       16
 93
        4
 72
     2
 10
17.47403599136091
 20
-43.15929704363801
 40
0.4280236140605782
 50
38.12041979716361
 51
141.8795802028531
 73
     1
 72
     2
 10
17.6391104015642
 20
-43.28882694291106
 40
0.637851056759849
 50
141.8795802028343
 51
218.1204197971738
 73
     1
 72
     2
 10
17.47403599136091
 20
-43.41835684218377
 40
0.4280236140610139
 50
218.120419797194
 51
321.8795802027893
 73
     1
 72
     2
 10
17.30896158115731
 20
-43.28882694291106
 40
0.6378510567600058
 50
321.8795802028323
 51
398.1204197971596
 73
     1
 97
        4
330
1D4
330
1D5
330
1D6
330
1D3
 75
     1
 76
     0
 52
45.0
 41
0.1
 77
     0
 78
     1
 53
45.0
 43
0.0
 44
0.0
 45
-0.0707106781186548
 46
0.0707106781186548
 79
     0
 98
        1
 10
0.0
 20
0.0
  0
HATCH
  5
27E
330
47
100
AcDbEntity
  8
1
  6
Continuous
 62
     2
100
AcDbHatch
 10
0.0
 20
0.0
 30
0.0
210
0.0
220
0.0
230
1.0
  2
_USER
 70
     0
 71
     1
 91
        2
 92
        1
 93
        4
 72
     2
 10
17.241854262573
 20
-43.28882694291106
 40
1.20498684599291
 50
117.548148175664
 51
242.4518518243384
 73
     1
 72
     2
 10
17.47403599136091
 20
-42.84372362861082
 40
1.70700807620544
 50
242.4518518243388
 51
297.5481481756847
 73
     1
 72
     2
 10
17.7062177201487
 20
-43.28882694291106
 40
1.204986845993431
 50
297.5481481756999
 51
422.4518518242976
 73
     1
 72
     2
 10
17.47403599136091
 20
-43.73393025721096
 40
1.707008076205402
 50
62.45185182430831
 51
117.5481481756682
 73
     1
 97
        4
330
1F1
330
1EE
330
1F0
330
1EF
 92
       16
 93
        4
 72
     2
 10
17.47403599136091
 20
-43.15929704363801
 40
0.4280236140605782
 50
38.12041979716361
 51
141.8795802028531
 73
     1
 72
     2
 10
17.6391104015642
 20
-43.28882694291106
 40
0.637851056759849
 50
141.8795802028343
 51
218.1204197971738
 73
     1
 72
     2
 10
17.47403599136091
 20
-43.41835684218377
 40
0.4280236140610139
 50
218.120419797194
 51
321.8795802027893
 73
     1
 72
     2
 10
17.30896158115731
 20
-43.28882694291106
 40
0.6378510567600058
 50
321.8795802028323
 51
398.1204197971596
 73
     1
 97
        4
330
1D4
330
1D5
330
1D6
330
1D3
 75
     1
 76
     0
 52
45.0
 41
0.1
 77
     0
 78
     1
 53
45.0
 43
0.0
 44
0.0
 45
-0.0707106781186548
 46
0.0707106781186548
 79
     0
 98
        1
 10
0.0
 20
0.0
  0
HATCH
  5
27F
330
47
100
AcDbEntity
  8
1
  6
Continuous
 62
     2
100
AcDbHatch
 10
0.0
 20
0.0
 30
0.0
210
0.0
220
0.0
230
1.0
  2
_USER
 70
     0
 71
     1
 91
        2
 92
        1
 93
        6
 72
     1
 10
13.70889983731671
 20
-39.25073170482831
 11
13.70889983731671
 21
-41.77454122863919
 72
     1
 10
13.70889983731671
 20
-41.77454122863919
 11
14.73411009372499
 21
-41.77454122863919
 72
     1
 10
14.73411009372499
 20
-41.77454122863919
 11
14.73411009372499
 21
-40.99513772356166
 72
     1
 10
14.73411009372499
 20
-40.99513772356166
 11
15.36119074478309
 21
-40.99513772356166
 72
     2
 10
15.36119074478309
 20
-40.12293471419498
 40
0.8722030093666788
 50
270.0
 51
450.0
 73
     1
 72
     1
 10
15.36119074478309
 20
-39.25073170482831
 11
13.70889983731671
 21
-39.25073170482831
 97
        6
330
1FB
330
BB
330
B1
330
B0
330
BD
330
BC
 92
       16
 93
        4
 72
     1
 10
14.99633741731331
 20
-39.7987530646961
 11
14.73411009372499
 21
-39.7987530646961
 72
     1
 10
14.73411009372499
 20
-39.7987530646961
 11
14.73411009372499
 21
-40.38199905588813
 72
     1
 10
14.73411009372499
 20
-40.38199905588813
 11
14.99633741731331
 21
-40.38199905588813
 72
     2
 10
14.99633741731331
 20
-40.09037606029206
 40
0.2916229955960716
 50
270.0
 51
450.0
 73
     1
 97
        4
330
BE
330
AF
330
BF
330
1E7
 75
     1
 76
     0
 52
45.0
 41
0.1
 77
     0
 78
     1
 53
45.0
 43
0.0
 44
0.0
 45
-0.0707106781186548
 46
0.0707106781186548
 79
     0
 98
        1
 10
0.0
 20
0.0
  0
HATCH
  5
280
330
47
100
AcDbEntity
  8
1
  6
Continuous
 62
     2
100
AcDbHatch
 10
0.0
 20
0.0
 30
0.0
210
0.0
220
0.0
230
1.0
  2
_USER
 70
     0
 71
     1
 91
        2
 92
        1
 93
        6
 72
     1
 10
13.70889983731671
 20
-39.25073170482831
 11
13.70889983731671
 21
-41.77454122863919
 72
     1
 10
13.70889983731671
 20
-41.77454122863919
 11
14.73411009372499
 21
-41.77454122863919
 72
     1
 10
14.73411009372499
 20
-41.77454122863919
 11
14.73411009372499
 21
-40.99513772356166
 72
     1
 10
14.73411009372499
 20
-40.99513772356166
 11
15.36119074478309
 21
-40.99513772356166
 72
     2
 10
15.36119074478309
 20
-40.12293471419498
 40
0.8722030093666788
 50
270.0
 51
450.0
 73
     1
 72
     1
 10
15.36119074478309
 20
-39.25073170482831
 11
13.70889983731671
 21
-39.25073170482831
 97
        6
330
1FB
330
BB
330
B1
330
B0
330
BD
330
BC
 92
       16
 93
        4
 72
     1
 10
14.99633741731331
 20
-39.7987530646961
 11
14.73411009372499
 21
-39.7987530646961
 72
     1
 10
14.73411009372499
 20
-39.7987530646961
 11
14.73411009372499
 21
-40.38199905588813
 72
     1
 10
14.73411009372499
 20
-40.38199905588813
 11
14.99633741731331
 21
-40.38199905588813
 72
     2
 10
14.99633741731331
 20
-40.09037606029206
 40
0.2916229955960716
 50
270.0
 51
450.0
 73
     1
 97
        4
330
BE
330
AF
330
BF
330
1E7
 75
     1
 76
     0
 52
45.0
 41
0.1
 77
     0
 78
     1
 53
45.0
 43
0.0
 44
0.0
 45
-0.0707106781186548
 46
0.0707106781186548
 79
     0
 98
        1
 10
0.0
 20
0.0
  0
HATCH
  5
281
330
47
100
AcDbEntity
  8
1
  6
Continuous
 62
     2
100
AcDbHatch
 10
0.0
 20
0.0
 30
0.0
210
0.0
220
0.0
230
1.0
  2
_USER
 70
     0
 71
     1
 91
        1
 92
        1
 93
       12
 72
     1
 10
29.91905123767471
 20
-39.25073170482831
 11
31.07832745068889
 21
-39.25073170482831
 72
     1
 10
31.07832745068889
 20
-39.25073170482831
 11
30.0018566814603
 21
-40.4680461924615
 72
     1
 10
30.0018566814603
 20
-40.4680461924615
 11
31.15718977810521
 21
-41.77454122863919
 72
     1
 10
31.15718977810521
 20
-41.77454122863919
 11
29.99791356509009
 21
-41.77454122863919
 72
     1
 10
29.99791356509009
 20
-41.77454122863919
 11
29.42221857495331
 21
-41.12352322426416
 72
     1
 10
29.42221857495331
 20
-41.12352322426416
 11
28.84652358481641
 21
-41.77454122863919
 72
     1
 10
28.84652358481641
 20
-41.77454122863919
 11
27.68724737180141
 21
-41.77454122863919
 72
     1
 10
27.68724737180141
 20
-41.77454122863919
 11
28.8425804684462
 21
-40.4680461924615
 72
     1
 10
28.8425804684462
 20
-40.4680461924615
 11
27.7661096992169
 21
-39.25073170482831
 72
     1
 10
27.7661096992169
 20
-39.25073170482831
 11
28.92538591223281
 21
-39.25073170482831
 72
     1
 10
28.92538591223281
 20
-39.25073170482831
 11
29.42221857495331
 21
-39.81256916065929
 72
     1
 10
29.42221857495331
 20
-39.81256916065929
 11
29.91905123767471
 21
-39.25073170482831
 97
       12
330
8A
330
E3
330
E2
330
E1
330
E0
330
8B
330
8C
330
88
330
89
330
E6
330
E5
330
E4
 75
     1
 76
     0
 52
45.0
 41
0.1
 77
     0
 78
     1
 53
45.0
 43
0.0
 44
0.0
 45
-0.0707106781186548
 46
0.0707106781186548
 79
     0
 98
        1
 10
0.0
 20
0.0
  0
HATCH
  5
282
330
47
100
AcDbEntity
  8
1
  6
Continuous
 62
     2
100
AcDbHatch
 10
0.0
 20
0.0
 30
0.0
210
0.0
220
0.0
230
1.0
  2
_USER
 70
     0
 71
     1
 91
        1
 92
        1
 93
       12
 72
     1
 10
29.91905123767471
 20
-39.25073170482831
 11
31.07832745068889
 21
-39.25073170482831
 72
     1
 10
31.07832745068889
 20
-39.25073170482831
 11
30.0018566814603
 21
-40.4680461924615
 72
     1
 10
30.0018566814603
 20
-40.4680461924615
 11
31.15718977810521
 21
-41.77454122863919
 72
     1
 10
31.15718977810521
 20
-41.77454122863919
 11
29.99791356509009
 21
-41.77454122863919
 72
     1
 10
29.99791356509009
 20
-41.77454122863919
 11
29.42221857495331
 21
-41.12352322426416
 72
     1
 10
29.42221857495331
 20
-41.12352322426416
 11
28.84652358481641
 21
-41.77454122863919
 72
     1
 10
28.84652358481641
 20
-41.77454122863919
 11
27.68724737180141
 21
-41.77454122863919
 72
     1
 10
27.68724737180141
 20
-41.77454122863919
 11
28.8425804684462
 21
-40.4680461924615
 72
     1
 10
28.8425804684462
 20
-40.4680461924615
 11
27.7661096992169
 21
-39.25073170482831
 72
     1
 10
27.7661096992169
 20
-39.25073170482831
 11
28.92538591223281
 21
-39.25073170482831
 72
     1
 10
28.92538591223281
 20
-39.25073170482831
 11
29.42221857495331
 21
-39.81256916065929
 72
     1
 10
29.42221857495331
 20
-39.81256916065929
 11
29.91905123767471
 21
-39.25073170482831
 97
       12
330
8A
330
E3
330
E2
330
E1
330
E0
330
8B
330
8C
330
88
330
89
330
E6
330
E5
330
E4
 75
     1
 76
     0
 52
45.0
 41
0.1
 77
     0
 78
     1
 53
45.0
 43
0.0
 44
0.0
 45
-0.0707106781186548
 46
0.0707106781186548
 79
     0
 98
        1
 10
0.0
 20
0.0
  0
HATCH
  5
283
330
47
100
AcDbEntity
  8
1
  6
Continuous
 62
     2
100
AcDbHatch
 10
0.0
 20
0.0
 30
0.0
210
0.0
220
0.0
230
1.0
  2
_USER
 70
     0
 71
     1
 91
        1
 92
        1
 93
        4
 72
     1
 10
27.5886694625312
 20
-39.25073170482831
 11
27.5886694625312
 21
-41.77454122863919
 72
     1
 10
27.5886694625312
 20
-41.77454122863919
 11
26.5634592061238
 21
-41.77454122863919
 72
     1
 10
26.5634592061238
 20
-41.77454122863919
 11
26.5634592061238
 21
-39.25073170482831
 72
     1
 10
26.5634592061238
 20
-39.25073170482831
 11
27.5886694625312
 21
-39.25073170482831
 97
        4
330
DE
330
8D
330
DD
330
DF
 75
     1
 76
     0
 52
45.0
 41
0.1
 77
     0
 78
     1
 53
45.0
 43
0.0
 44
0.0
 45
-0.0707106781186548
 46
0.0707106781186548
 79
     0
 98
        1
 10
0.0
 20
0.0
  0
HATCH
  5
284
330
47
100
AcDbEntity
  8
1
  6
Continuous
 62
     2
100
AcDbHatch
 10
0.0
 20
0.0
 30
0.0
210
0.0
220
0.0
230
1.0
  2
_USER
 70
     0
 71
     1
 91
        1
 92
        1
 93
        4
 72
     1
 10
27.5886694625312
 20
-39.25073170482831
 11
27.5886694625312
 21
-41.77454122863919
 72
     1
 10
27.5886694625312
 20
-41.77454122863919
 11
26.5634592061238
 21
-41.77454122863919
 72
     1
 10
26.5634592061238
 20
-41.77454122863919
 11
26.5634592061238
 21
-39.25073170482831
 72
     1
 10
26.5634592061238
 20
-39.25073170482831
 11
27.5886694625312
 21
-39.25073170482831
 97
        4
330
DE
330
8D
330
DD
330
DF
 75
     1
 76
     0
 52
45.0
 41
0.1
 77
     0
 78
     1
 53
45.0
 43
0.0
 44
0.0
 45
-0.0707106781186548
 46
0.0707106781186548
 79
     0
 98
        1
 10
0.0
 20
0.0
  0
HATCH
  5
285
330
47
100
AcDbEntity
  8
1
  6
Continuous
 62
     2
100
AcDbHatch
 10
0.0
 20
0.0
 30
0.0
210
0.0
220
0.0
230
1.0
  2
_USER
 70
     0
 71
     1
 91
        2
 92
        1
 93
        8
 72
     1
 10
27.26598846787671
 20
-44.55073170481633
 11
26.24077821146851
 21
-44.55073170481633
 72
     1
 10
26.24077821146851
 20
-44.55073170481633
 11
26.0660013077695
 21
-44.10365687488418
 72
     1
 10
26.0660013077695
 20
-44.10365687488418
 11
25.1300991782869
 21
-44.10365687488418
 72
     1
 10
25.1300991782869
 20
-44.10365687488418
 11
24.95532227458791
 21
-44.55073170481633
 72
     1
 10
24.95532227458791
 20
-44.55073170481633
 11
23.93011201818051
 21
-44.55073170481633
 72
     1
 10
23.93011201818051
 20
-44.55073170481633
 11
25.08544511482451
 21
-42.02692218100545
 72
     1
 10
25.08544511482451
 20
-42.02692218100545
 11
26.1106553712318
 21
-42.02692218100545
 72
     1
 10
26.1106553712318
 20
-42.02692218100545
 11
27.26598846787671
 21
-44.55073170481633
 97
        8
330
D9
330
93
330
D8
330
DB
330
90
330
DA
330
91
330
92
 92
       16
 93
        3
 72
     1
 10
25.34997979906801
 20
-43.54120789529198
 11
25.84612068698739
 21
-43.54120789529198
 72
     1
 10
25.84612068698739
 20
-43.54120789529198
 11
25.5980502430286
 21
-42.90665007216246
 72
     1
 10
25.5980502430286
 20
-42.90665007216246
 11
25.34997979906801
 21
-43.54120789529198
 97
        3
330
8F
330
8E
330
DC
 75
     1
 76
     0
 52
45.0
 41
0.1
 77
     0
 78
     1
 53
45.0
 43
0.0
 44
0.0
 45
-0.0707106781186548
 46
0.0707106781186548
 79
     0
 98
        1
 10
0.0
 20
0.0
  0
HATCH
  5
286
330
47
100
AcDbEntity
  8
1
  6
Continuous
 62
     2
100
AcDbHatch
 10
0.0
 20
0.0
 30
0.0
210
0.0
220
0.0
230
1.0
  2
_USER
 70
     0
 71
     1
 91
        2
 92
        1
 93
        8
 72
     1
 10
27.26598846787671
 20
-44.55073170481633
 11
26.24077821146851
 21
-44.55073170481633
 72
     1
 10
26.24077821146851
 20
-44.55073170481633
 11
26.0660013077695
 21
-44.10365687488418
 72
     1
 10
26.0660013077695
 20
-44.10365687488418
 11
25.1300991782869
 21
-44.10365687488418
 72
     1
 10
25.1300991782869
 20
-44.10365687488418
 11
24.95532227458791
 21
-44.55073170481633
 72
     1
 10
24.95532227458791
 20
-44.55073170481633
 11
23.93011201818051
 21
-44.55073170481633
 72
     1
 10
23.93011201818051
 20
-44.55073170481633
 11
25.08544511482451
 21
-42.02692218100545
 72
     1
 10
25.08544511482451
 20
-42.02692218100545
 11
26.1106553712318
 21
-42.02692218100545
 72
     1
 10
26.1106553712318
 20
-42.02692218100545
 11
27.26598846787671
 21
-44.55073170481633
 97
        8
330
D9
330
93
330
D8
330
DB
330
90
330
DA
330
91
330
92
 92
       16
 93
        3
 72
     1
 10
25.34997979906801
 20
-43.54120789529198
 11
25.84612068698739
 21
-43.54120789529198
 72
     1
 10
25.84612068698739
 20
-43.54120789529198
 11
25.5980502430286
 21
-42.90665007216246
 72
     1
 10
25.5980502430286
 20
-42.90665007216246
 11
25.34997979906801
 21
-43.54120789529198
 97
        3
330
8F
330
8E
330
DC
 75
     1
 76
     0
 52
45.0
 41
0.1
 77
     0
 78
     1
 53
45.0
 43
0.0
 44
0.0
 45
-0.0707106781186548
 46
0.0707106781186548
 79
     0
 98
        1
 10
0.0
 20
0.0
  0
HATCH
  5
287
330
47
100
AcDbEntity
  8
1
  6
Continuous
 62
     2
100
AcDbHatch
 10
0.0
 20
0.0
 30
0.0
210
0.0
220
0.0
230
1.0
  2
_USER
 70
     0
 71
     1
 91
        1
 92
        1
 93
        8
 72
     1
 10
22.14704413455881
 20
-42.02692218100545
 11
22.14704413455881
 21
-42.67590177284315
 72
     1
 10
22.14704413455881
 20
-42.67590177284315
 11
22.8173739175957
 21
-42.67590177284315
 72
     1
 10
22.8173739175957
 20
-42.67590177284315
 11
22.8173739175957
 21
-44.55073170481633
 72
     1
 10
22.8173739175957
 20
-44.55073170481633
 11
23.8031530102953
 21
-44.55073170481633
 72
     1
 10
23.8031530102953
 20
-44.55073170481633
 11
23.8031530102953
 21
-42.67590177284315
 72
     1
 10
23.8031530102953
 20
-42.67590177284315
 11
24.47348279333049
 21
-42.67590177284315
 72
     1
 10
24.47348279333049
 20
-42.67590177284315
 11
24.47348279333049
 21
-42.02692218100545
 72
     1
 10
24.47348279333049
 20
-42.02692218100545
 11
22.14704413455881
 21
-42.02692218100545
 97
        8
330
D5
330
D4
330
D3
330
94
330
95
330
D7
330
96
330
D6
 75
     1
 76
     0
 52
45.0
 41
0.1
 77
     0
 78
     1
 53
45.0
 43
0.0
 44
0.0
 45
-0.0707106781186548
 46
0.0707106781186548
 79
     0
 98
        1
 10
0.0
 20
0.0
  0
HATCH
  5
288
330
47
100
AcDbEntity
  8
1
  6
Continuous
 62
     2
100
AcDbHatch
 10
0.0
 20
0.0
 30
0.0
210
0.0
220
0.0
230
1.0
  2
_USER
 70
     0
 71
     1
 91
        1
 92
        1
 93
        8
 72
     1
 10
22.14704413455881
 20
-42.02692218100545
 11
22.14704413455881
 21
-42.67590177284315
 72
     1
 10
22.14704413455881
 20
-42.67590177284315
 11
22.8173739175957
 21
-42.67590177284315
 72
     1
 10
22.8173739175957
 20
-42.67590177284315
 11
22.8173739175957
 21
-44.55073170481633
 72
     1
 10
22.8173739175957
 20
-44.55073170481633
 11
23.8031530102953
 21
-44.55073170481633
 72
     1
 10
23.8031530102953
 20
-44.55073170481633
 11
23.8031530102953
 21
-42.67590177284315
 72
     1
 10
23.8031530102953
 20
-42.67590177284315
 11
24.47348279333049
 21
-42.67590177284315
 72
     1
 10
24.47348279333049
 20
-42.67590177284315
 11
24.47348279333049
 21
-42.02692218100545
 72
     1
 10
24.47348279333049
 20
-42.02692218100545
 11
22.14704413455881
 21
-42.02692218100545
 97
        8
330
D5
330
D4
330
D3
330
94
330
95
330
D7
330
96
330
D6
 75
     1
 76
     0
 52
45.0
 41
0.1
 77
     0
 78
     1
 53
45.0
 43
0.0
 44
0.0
 45
-0.0707106781186548
 46
0.0707106781186548
 79
     0
 98
        1
 10
0.0
 20
0.0
  0
HATCH
  5
289
330
47
100
AcDbEntity
  8
1
  6
Continuous
 62
     2
100
AcDbHatch
 10
0.0
 20
0.0
 30
0.0
210
0.0
220
0.0
230
1.0
  2
_USER
 70
     0
 71
     1
 91
        1
 92
        1
 93
       10
 72
     1
 10
24.3553140384755
 20
-39.25073170482831
 11
23.3695349457759
 21
-39.25073170482831
 72
     1
 10
23.3695349457759
 20
-39.25073170482831
 11
23.3695349457759
 21
-41.77454122863919
 72
     1
 10
23.3695349457759
 20
-41.77454122863919
 11
24.3553140384755
 21
-41.77454122863919
 72
     1
 10
24.3553140384755
 20
-41.77454122863919
 11
24.3553140384755
 21
-40.69290857557753
 72
     1
 10
24.3553140384755
 20
-40.69290857557753
 11
25.38052429488381
 21
-41.77454122863919
 72
     1
 10
25.38052429488381
 20
-41.77454122863919
 11
26.36630338758339
 21
-41.77454122863919
 72
     1
 10
26.36630338758339
 20
-41.77454122863919
 11
26.36630338758339
 21
-39.25073170482831
 72
     1
 10
26.36630338758339
 20
-39.25073170482831
 11
25.38052429488381
 21
-39.25073170482831
 72
     1
 10
25.38052429488381
 20
-39.25073170482831
 11
25.38052429488381
 21
-40.33236435789043
 72
     1
 10
25.38052429488381
 20
-40.33236435789043
 11
24.3553140384755
 21
-39.25073170482831
 97
       10
330
CF
330
99
330
9A
330
9B
330
9C
330
D2
330
97
330
D1
330
D0
330
98
 75
     1
 76
     0
 52
45.0
 41
0.1
 77
     0
 78
     1
 53
45.0
 43
0.0
 44
0.0
 45
-0.0707106781186548
 46
0.0707106781186548
 79
     0
 98
        1
 10
0.0
 20
0.0
  0
HATCH
  5
28A
330
47
100
AcDbEntity
  8
1
  6
Continuous
 62
     2
100
AcDbHatch
 10
0.0
 20
0.0
 30
0.0
210
0.0
220
0.0
230
1.0
  2
_USER
 70
     0
 71
     1
 91
        1
 92
        1
 93
       10
 72
     1
 10
24.3553140384755
 20
-39.25073170482831
 11
23.3695349457759
 21
-39.25073170482831
 72
     1
 10
23.3695349457759
 20
-39.25073170482831
 11
23.3695349457759
 21
-41.77454122863919
 72
     1
 10
23.3695349457759
 20
-41.77454122863919
 11
24.3553140384755
 21
-41.77454122863919
 72
     1
 10
24.3553140384755
 20
-41.77454122863919
 11
24.3553140384755
 21
-40.69290857557753
 72
     1
 10
24.3553140384755
 20
-40.69290857557753
 11
25.38052429488381
 21
-41.77454122863919
 72
     1
 10
25.38052429488381
 20
-41.77454122863919
 11
26.36630338758339
 21
-41.77454122863919
 72
     1
 10
26.36630338758339
 20
-41.77454122863919
 11
26.36630338758339
 21
-39.25073170482831
 72
     1
 10
26.36630338758339
 20
-39.25073170482831
 11
25.38052429488381
 21
-39.25073170482831
 72
     1
 10
25.38052429488381
 20
-39.25073170482831
 11
25.38052429488381
 21
-40.33236435789043
 72
     1
 10
25.38052429488381
 20
-40.33236435789043
 11
24.3553140384755
 21
-39.25073170482831
 97
       10
330
CF
330
99
330
9A
330
9B
330
9C
330
D2
330
97
330
D1
330
D0
330
98
 75
     1
 76
     0
 52
45.0
 41
0.1
 77
     0
 78
     1
 53
45.0
 43
0.0
 44
0.0
 45
-0.0707106781186548
 46
0.0707106781186548
 79
     0
 98
        1
 10
0.0
 20
0.0
  0
HATCH
  5
28B
330
47
100
AcDbEntity
  8
1
  6
Continuous
 62
     2
100
AcDbHatch
 10
0.0
 20
0.0
 30
0.0
210
0.0
220
0.0
230
1.0
  2
_USER
 70
     0
 71
     1
 91
        1
 92
        1
 93
       10
 72
     1
 10
20.01776129432791
 20
-42.02692218100545
 11
19.0319822016274
 21
-42.02692218100545
 72
     1
 10
19.0319822016274
 20
-42.02692218100545
 11
19.0319822016274
 21
-44.55073170481633
 72
     1
 10
19.0319822016274
 20
-44.55073170481633
 11
20.01776129432791
 21
-44.55073170481633
 72
     1
 10
20.01776129432791
 20
-44.55073170481633
 11
20.01776129432791
 21
-43.46909905175467
 72
     1
 10
20.01776129432791
 20
-43.46909905175467
 11
21.0429715507352
 21
-44.55073170481633
 72
     1
 10
21.0429715507352
 20
-44.55073170481633
 11
22.02875064343481
 21
-44.55073170481633
 72
     1
 10
22.02875064343481
 20
-44.55073170481633
 11
22.02875064343481
 21
-42.02692218100545
 72
     1
 10
22.02875064343481
 20
-42.02692218100545
 11
21.0429715507352
 21
-42.02692218100545
 72
     1
 10
21.0429715507352
 20
-42.02692218100545
 11
21.0429715507352
 21
-43.10855483406756
 72
     1
 10
21.0429715507352
 20
-43.10855483406756
 11
20.01776129432791
 21
-42.02692218100545
 97
       10
330
9E
330
9F
330
A0
330
CC
330
A1
330
A2
330
CB
330
CE
330
CD
330
9D
 75
     1
 76
     0
 52
45.0
 41
0.1
 77
     0
 78
     1
 53
45.0
 43
0.0
 44
0.0
 45
-0.0707106781186548
 46
0.0707106781186548
 79
     0
 98
        1
 10
0.0
 20
0.0
  0
HATCH
  5
28C
330
47
100
AcDbEntity
  8
1
  6
Continuous
 62
     2
100
AcDbHatch
 10
0.0
 20
0.0
 30
0.0
210
0.0
220
0.0
230
1.0
  2
_USER
 70
     0
 71
     1
 91
        1
 92
        1
 93
       10
 72
     1
 10
20.01776129432791
 20
-42.02692218100545
 11
19.0319822016274
 21
-42.02692218100545
 72
     1
 10
19.0319822016274
 20
-42.02692218100545
 11
19.0319822016274
 21
-44.55073170481633
 72
     1
 10
19.0319822016274
 20
-44.55073170481633
 11
20.01776129432791
 21
-44.55073170481633
 72
     1
 10
20.01776129432791
 20
-44.55073170481633
 11
20.01776129432791
 21
-43.46909905175467
 72
     1
 10
20.01776129432791
 20
-43.46909905175467
 11
21.0429715507352
 21
-44.55073170481633
 72
     1
 10
21.0429715507352
 20
-44.55073170481633
 11
22.02875064343481
 21
-44.55073170481633
 72
     1
 10
22.02875064343481
 20
-44.55073170481633
 11
22.02875064343481
 21
-42.02692218100545
 72
     1
 10
22.02875064343481
 20
-42.02692218100545
 11
21.0429715507352
 21
-42.02692218100545
 72
     1
 10
21.0429715507352
 20
-42.02692218100545
 11
21.0429715507352
 21
-43.10855483406756
 72
     1
 10
21.0429715507352
 20
-43.10855483406756
 11
20.01776129432791
 21
-42.02692218100545
 97
       10
330
9E
330
9F
330
A0
330
CC
330
A1
330
A2
330
CB
330
CE
330
CD
330
9D
 75
     1
 76
     0
 52
45.0
 41
0.1
 77
     0
 78
     1
 53
45.0
 43
0.0
 44
0.0
 45
-0.0707106781186548
 46
0.0707106781186548
 79
     0
 98
        1
 10
0.0
 20
0.0
  0
HATCH
  5
28D
330
47
100
AcDbEntity
  8
1
  6
Continuous
 62
     2
100
AcDbHatch
 10
0.0
 20
0.0
 30
0.0
210
0.0
220
0.0
230
1.0
  2
_USER
 70
     0
 71
     1
 91
        1
 92
        1
 93
       12
 72
     1
 10
19.1898315927284
 20
-39.25073170482831
 11
19.1898315927284
 21
-41.77454122863919
 72
     1
 10
19.1898315927284
 20
-41.77454122863919
 11
18.20405250002879
 21
-41.77454122863919
 72
     1
 10
18.20405250002879
 20
-41.77454122863919
 11
18.20405250002879
 21
-40.8371262626526
 72
     1
 10
18.20405250002879
 20
-40.8371262626526
 11
17.3365668984524
 21
-40.8371262626526
 72
     1
 10
17.3365668984524
 20
-40.8371262626526
 11
17.3365668984524
 21
-41.77454122863919
 72
     1
 10
17.3365668984524
 20
-41.77454122863919
 11
16.3507878057528
 21
-41.77454122863919
 72
     1
 10
16.3507878057528
 20
-41.77454122863919
 11
16.3507878057528
 21
-39.25073170482831
 72
     1
 10
16.3507878057528
 20
-39.25073170482831
 11
17.3365668984524
 21
-39.25073170482831
 72
     1
 10
17.3365668984524
 20
-39.25073170482831
 11
17.3365668984524
 21
-40.13406503816266
 72
     1
 10
17.3365668984524
 20
-40.13406503816266
 11
18.20405250002879
 21
-40.13406503816266
 72
     1
 10
18.20405250002879
 20
-40.13406503816266
 11
18.20405250002879
 21
-39.25073170482831
 72
     1
 10
18.20405250002879
 20
-39.25073170482831
 11
19.1898315927284
 21
-39.25073170482831
 97
       12
330
C6
330
C5
330
C4
330
AC
330
AD
330
C3
330
AE
330
C2
330
C1
330
C0
330
AA
330
AB
 75
     1
 76
     0
 52
45.0
 41
0.1
 77
     0
 78
     1
 53
45.0
 43
0.0
 44
0.0
 45
-0.0707106781186548
 46
0.0707106781186548
 79
     0
 98
        1
 10
0.0
 20
0.0
  0
HATCH
  5
28E
330
47
100
AcDbEntity
  8
1
  6
Continuous
 62
     2
100
AcDbHatch
 10
0.0
 20
0.0
 30
0.0
210
0.0
220
0.0
230
1.0
  2
_USER
 70
     0
 71
     1
 91
        1
 92
        1
 93
       12
 72
     1
 10
19.1898315927284
 20
-39.25073170482831
 11
19.1898315927284
 21
-41.77454122863919
 72
     1
 10
19.1898315927284
 20
-41.77454122863919
 11
18.20405250002879
 21
-41.77454122863919
 72
     1
 10
18.20405250002879
 20
-41.77454122863919
 11
18.20405250002879
 21
-40.8371262626526
 72
     1
 10
18.20405250002879
 20
-40.8371262626526
 11
17.3365668984524
 21
-40.8371262626526
 72
     1
 10
17.3365668984524
 20
-40.8371262626526
 11
17.3365668984524
 21
-41.77454122863919
 72
     1
 10
17.3365668984524
 20
-41.77454122863919
 11
16.3507878057528
 21
-41.77454122863919
 72
     1
 10
16.3507878057528
 20
-41.77454122863919
 11
16.3507878057528
 21
-39.25073170482831
 72
     1
 10
16.3507878057528
 20
-39.25073170482831
 11
17.3365668984524
 21
-39.25073170482831
 72
     1
 10
17.3365668984524
 20
-39.25073170482831
 11
17.3365668984524
 21
-40.13406503816266
 72
     1
 10
17.3365668984524
 20
-40.13406503816266
 11
18.20405250002879
 21
-40.13406503816266
 72
     1
 10
18.20405250002879
 20
-40.13406503816266
 11
18.20405250002879
 21
-39.25073170482831
 72
     1
 10
18.20405250002879
 20
-39.25073170482831
 11
19.1898315927284
 21
-39.25073170482831
 97
       12
330
C6
330
C5
330
C4
330
AC
330
AD
330
C3
330
AE
330
C2
330
C1
330
C0
330
AA
330
AB
 75
     1
 76
     0
 52
45.0
 41
0.1
 77
     0
 78
     1
 53
45.0
 43
0.0
 44
0.0
 45
-0.0707106781186548
 46
0.0707106781186548
 79
     0
 98
        1
 10
0.0
 20
0.0
  0
ENDBLK
  5
49
330
47
100
AcDbEntity
  8
0
100
AcDbBlockEnd
  0
BLOCK
  5
4B
330
4A
100
AcDbEntity
  8
0
100
AcDbBlockBegin
  2
_punkt
 70
     0
 10
130.974718174884
 20
-50.40073170482215
 30
0.0
  3
_punkt
  1

  0
LINE
  5
28F
330
4A
100
AcDbEntity
  8
1
  6
Continuous
 62
     2
100
AcDbLine
 10
130.9747181748841
 20
-50.40073170482215
 30
0.0
 11
130.9747181748841
 21
-55.4007317048217
 31
0.0
  0
LINE
  5
290
330
4A
100
AcDbEntity
  8
1
  6
Continuous
 62
     2
100
AcDbLine
 10
130.9747181748841
 20
-50.40073170482215
 30
0.0
 11
135.9747181748817
 21
-50.40073170482215
 31
0.0
  0
ENDBLK
  5
4C
330
4A
100
AcDbEntity
  8
0
100
AcDbBlockEnd
  0
BLOCK
  5
50
330
4D
100
AcDbEntity
  8
0
100
AcDbBlockBegin
  2
A3I
 70
     0
 10
130.9747181748841
 20
-55.4007317048217
 30
0.0
  3
A3I
  1

  0
INSERT
  5
4E
330
4D
100
AcDbEntity
  8
1
100
AcDbBlockReference
  2
_rahmen
 10
130.9747181748841
 20
-55.4007317048217
 30
0.0
  0
INSERT
  5
4F
330
4D
100
AcDbEntity
  8
1
100
AcDbBlockReference
  2
_punkt
 10
130.974718174884
 20
-50.40073170482215
 30
0.0
  0
ENDBLK
  5
51
330
4D
100
AcDbEntity
  8
0
100
AcDbBlockEnd
  0
BLOCK
  5
53
330
52
100
AcDbEntity
  8
0
100
AcDbBlockBegin
  2
1409817_HC_B16_TMS_EEE_PR_DI-select__1
 70
     0
 10
-200.8283979999853
 20
75.54774490484765
 30
0.0
  3
1409817_HC_B16_TMS_EEE_PR_DI-select__1
  1

  0
LINE
  5
291
330
52
100
AcDbEntity
  8
0
  6
Continuous
 62
     2
100
AcDbLine
 10
-83.59999799998542
 20
82.51189755857264
 30
0.0
 11
-77.8715979999854
 21
82.51189755857264
 31
0.0
  0
LINE
  5
292
330
52
100
AcDbEntity
  8
0
  6
Continuous
 62
     7
100
AcDbLine
 10
-77.8715979999854
 20
82.51189755857264
 30
0.0
 11
-77.8715979999854
 21
83.34774490484764
 31
0.0
  0
LINE
  5
293
330
52
100
AcDbEntity
  8
0
  6
Continuous
 62
     7
100
AcDbLine
 10
-83.59999799998542
 20
83.34774490484764
 30
0.0
 11
-77.8715979999854
 21
83.34774490484764
 31
0.0
  0
LINE
  5
294
330
52
100
AcDbEntity
  8
0
  6
Continuous
 62
     2
100
AcDbLine
 10
-83.59999799998542
 20
80.13395024208306
 30
0.0
 11
-83.59999799998542
 21
82.51189755857264
 31
0.0
  0
LINE
  5
295
330
52
100
AcDbEntity
  8
0
  6
Continuous
 62
     7
100
AcDbLine
 10
-199.0999979999854
 20
80.13395024208306
 30
0.0
 11
-195.0999979999854
 21
80.13395024208306
 31
0.0
  0
LINE
  5
296
330
52
100
AcDbEntity
  8
0
  6
Continuous
 62
     7
100
AcDbLine
 10
-199.0999979999854
 20
75.54774490484765
 30
0.0
 11
-199.0999979999854
 21
80.13395024208306
 31
0.0
  0
LINE
  5
297
330
52
100
AcDbEntity
  8
0
  6
Continuous
 62
     7
100
AcDbLine
 10
-83.59999799998542
 20
80.13395024208306
 30
0.0
 11
-79.59999799998542
 21
80.13395024208306
 31
0.0
  0
LINE
  5
298
330
52
100
AcDbEntity
  8
0
  6
Continuous
 62
     7
100
AcDbLine
 10
-83.59999799998542
 20
75.54774490484765
 30
0.0
 11
-79.59999799998542
 21
75.54774490484765
 31
0.0
  0
LINE
  5
299
330
52
100
AcDbEntity
  8
0
  6
Continuous
 62
     2
100
AcDbLine
 10
-83.59999799998542
 20
75.54774490484765
 30
0.0
 11
-83.59999799998542
 21
80.13395024208306
 31
0.0
  0
LINE
  5
29A
330
52
100
AcDbEntity
  8
0
  6
Continuous
 62
     7
100
AcDbLine
 10
-79.59999799998542
 20
75.54774490484765
 30
0.0
 11
-79.59999799998542
 21
80.13395024208306
 31
0.0
  0
LINE
  5
29B
330
52
100
AcDbEntity
  8
0
  6
Continuous
 62
     2
100
AcDbLine
 10
-195.0999979999854
 20
82.51189755857264
 30
0.0
 11
-195.0999979999854
 21
80.13395024208306
 31
0.0
  0
LINE
  5
29C
330
52
100
AcDbEntity
  8
0
  6
Continuous
 62
     7
100
AcDbLine
 10
-195.0999979999854
 20
80.13395024208306
 30
0.0
 11
-83.59999799998542
 21
80.13395024208306
 31
0.0
  0
LINE
  5
29D
330
52
100
AcDbEntity
  8
0
  6
Continuous
 62
     2
100
AcDbLine
 10
-195.0999979999854
 20
80.13395024208306
 30
0.0
 11
-195.0999979999854
 21
75.54774490484765
 31
0.0
  0
LINE
  5
29E
330
52
100
AcDbEntity
  8
0
  6
Continuous
 62
     2
100
AcDbLine
 10
-83.59999799998542
 20
82.51189755857264
 30
0.0
 11
-83.59999799998542
 21
83.34774490484764
 31
0.0
  0
LINE
  5
29F
330
52
100
AcDbEntity
  8
0
  6
Continuous
 62
     7
100
AcDbLine
 10
-200.8283979999853
 20
82.51189755857264
 30
0.0
 11
-200.8283979999853
 21
83.34774490484764
 31
0.0
  0
LINE
  5
2A0
330
52
100
AcDbEntity
  8
0
  6
Continuous
 62
     7
100
AcDbLine
 10
-200.8283979999853
 20
83.34774490484764
 30
0.0
 11
-195.0999979999854
 21
83.34774490484764
 31
0.0
  0
LINE
  5
2A1
330
52
100
AcDbEntity
  8
0
  6
Continuous
 62
     2
100
AcDbLine
 10
-195.0999979999854
 20
82.51189755857264
 30
0.0
 11
-195.0999979999854
 21
83.34774490484764
 31
0.0
  0
LINE
  5
2A2
330
52
100
AcDbEntity
  8
0
  6
Continuous
 62
     2
100
AcDbLine
 10
-200.8283979999853
 20
82.51189755857264
 30
0.0
 11
-195.0999979999854
 21
82.51189755857264
 31
0.0
  0
LINE
  5
2A3
330
52
100
AcDbEntity
  8
0
  6
Continuous
 62
     2
100
AcDbLine
 10
-195.0999979999854
 20
82.51189755857264
 30
0.0
 11
-83.59999799998542
 21
82.51189755857264
 31
0.0
  0
LINE
  5
2A4
330
52
100
AcDbEntity
  8
0
  6
Continuous
 62
     7
100
AcDbLine
 10
-195.0999979999854
 20
83.34774490484764
 30
0.0
 11
-83.59999799998542
 21
83.34774490484764
 31
0.0
  0
LINE
  5
2A5
330
52
100
AcDbEntity
  8
0
  6
Continuous
 62
     7
100
AcDbLine
 10
-83.59999799998542
 20
75.54774490484765
 30
0.0
 11
-195.0999979999854
 21
75.54774490484765
 31
0.0
  0
LINE
  5
2A6
330
52
100
AcDbEntity
  8
0
  6
Continuous
 62
     7
100
AcDbLine
 10
-199.0999979999854
 20
75.54774490484765
 30
0.0
 11
-195.0999979999854
 21
75.54774490484765
 31
0.0
  0
ARC
  5
2A7
330
52
100
AcDbEntity
  8
0
  6
Continuous
 62
     7
100
AcDbCircle
 10
-80.3715979999854
 20
82.51189755857264
 30
0.0
 40
2.499999999999994
100
AcDbArc
 50
287.977289681587
 51
0.0
  0
ARC
  5
2A8
330
52
100
AcDbEntity
  8
0
  6
Continuous
 62
     7
100
AcDbCircle
 10
-198.3283979999853
 20
82.51189755857264
 30
0.0
 40
2.5
100
AcDbArc
 50
180.0
 51
252.0227103184105
  0
ENDBLK
  5
54
330
52
100
AcDbEntity
  8
0
100
AcDbBlockEnd
  0
BLOCK
  5
57
330
55
100
AcDbEntity
  8
0
100
AcDbBlockBegin
  2
Drfsicht1
 70
     0
 10
-139.3715980000002
 20
79.447745
 30
0.0
  3
Drfsicht1
  1

  0
INSERT
  5
56
330
55
100
AcDbEntity
  8
0
100
AcDbBlockReference
  2
1409817_HC_B16_TMS_EEE_PR_DI-select__1
 10
-200.8283979999853
 20
75.54774490484765
 30
0.0
  0
MTEXT
  5
2A9
330
55
100
AcDbEntity
  8
1
 62
     6
100
AcDbMText
 10
-152.6215979994339
 20
70.54774468116716
 30
0.0
 40
5.0
 41
0.0
 71
     2
 72
     1
  1
 
  7
CONVERTER_12
 73
     1
 44
1.32052821128451
  0
ENDBLK
  5
58
330
55
100
AcDbEntity
  8
0
100
AcDbBlockEnd
  0
BLOCK
  5
5A
330
59
100
AcDbEntity
  8
0
100
AcDbBlockBegin
  2
1409817_HC_B16_TMS_EEE_PR_DI-select__2
 70
     0
 10
-15.21244300001487
 20
116.5215999999851
 30
0.0
  3
1409817_HC_B16_TMS_EEE_PR_DI-select__2
  1

  0
LINE
  5
2AA
330
59
100
AcDbEntity
  8
0
  6
Continuous
 62
     7
100
AcDbLine
 10
102.0159569999851
 20
166.4499999999851
 30
0.0
 11
-9.48404300001487
 21
166.4499999999851
 31
0.0
  0
LINE
  5
2AB
330
59
100
AcDbEntity
  8
0
  6
Continuous
 62
     2
100
AcDbLine
 10
102.0159569999851
 20
168.2797940154211
 30
0.0
 11
-9.48404300001487
 21
168.2797940154211
 31
0.0
  0
LINE
  5
2AC
330
59
100
AcDbEntity
  8
0
  6
Continuous
 62
     7
100
AcDbLine
 10
-9.48404300001487
 20
170.3530833543656
 30
0.0
 11
102.0159569999851
 21
170.3530833543654
 31
0.0
  0
LINE
  5
2AD
330
59
100
AcDbEntity
  8
0
  6
Continuous
 62
     7
100
AcDbLine
 10
102.0159569999851
 20
171.4783999999851
 30
0.0
 11
-9.48404300001487
 21
171.4783999999851
 31
0.0
  0
LINE
  5
2AE
330
59
100
AcDbEntity
  8
0
  6
Continuous
 62
     7
100
AcDbLine
 10
102.0159569999851
 20
121.5499999999851
 30
0.0
 11
-9.48404300001487
 21
121.5499999999851
 31
0.0
  0
LINE
  5
2AF
330
59
100
AcDbEntity
  8
0
  6
Continuous
 62
     2
100
AcDbLine
 10
-9.48404300001487
 20
119.7202059845491
 30
0.0
 11
102.0159569999851
 21
119.7202059845491
 31
0.0
  0
LINE
  5
2B0
330
59
100
AcDbEntity
  8
0
  6
Continuous
 62
     7
100
AcDbLine
 10
102.0159569999851
 20
117.6469166456048
 30
0.0
 11
-9.48404300001487
 21
117.6469166456048
 31
0.0
  0
LINE
  5
2B1
330
59
100
AcDbEntity
  8
0
  6
Continuous
 62
     7
100
AcDbLine
 10
-9.48404300001487
 20
116.5215999999851
 30
0.0
 11
102.0159569999851
 21
116.5215999999851
 31
0.0
  0
LINE
  5
2B2
330
59
100
AcDbEntity
  8
0
  6
Continuous
 62
     7
100
AcDbLine
 10
102.7159569999851
 20
122.2499999999851
 30
0.0
 11
102.7159569999851
 21
165.7499999999851
 31
0.0
  0
LINE
  5
2B3
330
59
100
AcDbEntity
  8
0
  6
Continuous
 62
     2
100
AcDbLine
 10
104.5457510154211
 20
122.2500000000002
 30
0.0
 11
104.5457510154211
 21
165.74999999997
 31
0.0
  0
LINE
  5
2B4
330
59
100
AcDbEntity
  8
0
  6
Continuous
 62
     7
100
AcDbLine
 10
106.6190403543694
 20
165.7499999999851
 30
0.0
 11
106.6190403543654
 21
122.2499999999851
 31
0.0
  0
LINE
  5
2B5
330
59
100
AcDbEntity
  8
0
  6
Continuous
 62
     7
100
AcDbLine
 10
107.7443569999851
 20
122.2499999999851
 30
0.0
 11
107.7443569999851
 21
165.7499999999851
 31
0.0
  0
LINE
  5
2B6
330
59
100
AcDbEntity
  8
0
  6
Continuous
 62
     7
100
AcDbLine
 10
-10.18404300001487
 20
165.7499999999851
 30
0.0
 11
-10.18404300001487
 21
122.2499999999851
 31
0.0
  0
LINE
  5
2B7
330
59
100
AcDbEntity
  8
0
  6
Continuous
 62
     2
100
AcDbLine
 10
-12.01383701545088
 20
165.7499999999699
 30
0.0
 11
-12.01383701545088
 21
122.2500000000002
 31
0.0
  0
LINE
  5
2B8
330
59
100
AcDbEntity
  8
0
  6
Continuous
 62
     7
100
AcDbLine
 10
-14.08712635439516
 20
122.2499999999851
 30
0.0
 11
-14.08712635439516
 21
165.7499999999851
 31
0.0
  0
LINE
  5
2B9
330
59
100
AcDbEntity
  8
0
  6
Continuous
 62
     7
100
AcDbLine
 10
-15.21244300001487
 20
165.7499999999851
 30
0.0
 11
-15.21244300001487
 21
122.2499999999851
 31
0.0
  0
LINE
  5
2BA
330
59
100
AcDbEntity
  8
0
  6
Continuous
 62
     2
100
AcDbLine
 10
102.0159569999851
 20
117.6469166456048
 30
0.0
 11
102.0159569999851
 21
119.7202059845491
 31
0.0
  0
LINE
  5
2BB
330
59
100
AcDbEntity
  8
0
  6
Continuous
 62
     2
100
AcDbLine
 10
-9.48404300001487
 20
119.7202059845491
 30
0.0
 11
-9.48404300001487
 21
117.6469166456048
 31
0.0
  0
LINE
  5
2BC
330
59
100
AcDbEntity
  8
0
  6
Continuous
 62
     2
100
AcDbLine
 10
-9.48404300001487
 20
170.3530833543656
 30
0.0
 11
-9.48404300001487
 21
168.2797940154211
 31
0.0
  0
LINE
  5
2BD
330
59
100
AcDbEntity
  8
0
  6
Continuous
 62
     2
100
AcDbLine
 10
-12.01383701545088
 20
165.7499999999699
 30
0.0
 11
-14.08712635439516
 21
165.7499999999851
 31
0.0
  0
LINE
  5
2BE
330
59
100
AcDbEntity
  8
0
  6
Continuous
 62
     2
100
AcDbLine
 10
-14.08712635439516
 20
122.2499999999851
 30
0.0
 11
-12.01383701545088
 21
122.2500000000002
 31
0.0
  0
LINE
  5
2BF
330
59
100
AcDbEntity
  8
0
  6
Continuous
 62
     2
100
AcDbLine
 10
104.5457510154211
 20
122.2500000000002
 30
0.0
 11
106.6190403543654
 21
122.2499999999851
 31
0.0
  0
LINE
  5
2C0
330
59
100
AcDbEntity
  8
0
  6
Continuous
 62
     2
100
AcDbLine
 10
106.6190403543694
 20
165.7499999999851
 30
0.0
 11
104.5457510154211
 21
165.74999999997
 31
0.0
  0
LINE
  5
2C1
330
59
100
AcDbEntity
  8
0
  6
Continuous
 62
     2
100
AcDbLine
 10
102.0159569999851
 20
168.2797940154211
 30
0.0
 11
102.0159569999851
 21
170.3530833543654
 31
0.0
  0
ARC
  5
2C2
330
59
100
AcDbEntity
  8
0
  6
Continuous
 62
     7
100
AcDbCircle
 10
-9.48404300001487
 20
122.2499999999851
 30
0.0
 40
0.6999999999999993
100
AcDbArc
 50
180.0
 51
270.0
  0
ARC
  5
2C3
330
59
100
AcDbEntity
  8
0
  6
Continuous
 62
     2
100
AcDbCircle
 10
-9.48404300001487
 20
122.2499999999851
 30
0.0
 40
2.529794015436009
100
AcDbArc
 50
179.9999999996582
 51
270.0
  0
ARC
  5
2C4
330
59
100
AcDbEntity
  8
0
  6
Continuous
 62
     7
100
AcDbCircle
 10
-9.48404300001487
 20
122.2499999999851
 30
0.0
 40
4.603083354380288
100
AcDbArc
 50
180.0
 51
270.0
  0
ARC
  5
2C5
330
59
100
AcDbEntity
  8
0
  6
Continuous
 62
     7
100
AcDbCircle
 10
102.0159569999851
 20
122.2499999999851
 30
0.0
 40
0.7000000000000028
100
AcDbArc
 50
270.0
 51
0.0
  0
ARC
  5
2C6
330
59
100
AcDbEntity
  8
0
  6
Continuous
 62
     2
100
AcDbCircle
 10
102.0159569999851
 20
122.2499999999851
 30
0.0
 40
2.529794015436011
100
AcDbArc
 50
270.0
 51
0.00000000034181
  0
ARC
  5
2C7
330
59
100
AcDbEntity
  8
0
  6
Continuous
 62
     7
100
AcDbCircle
 10
102.0159569999851
 20
122.2499999999851
 30
0.0
 40
4.603083354380303
100
AcDbArc
 50
270.0
 51
0.0
  0
ARC
  5
2C8
330
59
100
AcDbEntity
  8
0
  6
Continuous
 62
     7
100
AcDbCircle
 10
102.0159569999851
 20
122.2499999999851
 30
0.0
 40
5.728400000000008
100
AcDbArc
 50
270.0
 51
0.0
  0
ARC
  5
2C9
330
59
100
AcDbEntity
  8
0
  6
Continuous
 62
     7
100
AcDbCircle
 10
-9.48404300001487
 20
165.7499999999851
 30
0.0
 40
0.6999999999999886
100
AcDbArc
 50
90.0
 51
180.0
  0
ARC
  5
2CA
330
59
100
AcDbEntity
  8
0
  6
Continuous
 62
     2
100
AcDbCircle
 10
-9.48404300001487
 20
165.7499999999851
 30
0.0
 40
2.529794015435982
100
AcDbArc
 50
90.0
 51
180.0000000003444
  0
ARC
  5
2CB
330
59
100
AcDbEntity
  8
0
  6
Continuous
 62
     7
100
AcDbCircle
 10
-9.48404300001487
 20
165.7499999999851
 30
0.0
 40
4.603083354380487
100
AcDbArc
 50
90.0
 51
180.0
  0
ARC
  5
2CC
330
59
100
AcDbEntity
  8
0
  6
Continuous
 62
     7
100
AcDbCircle
 10
-9.48404300001487
 20
165.7499999999851
 30
0.0
 40
5.728399999999993
100
AcDbArc
 50
90.0
 51
180.0
  0
ARC
  5
2CD
330
59
100
AcDbEntity
  8
0
  6
Continuous
 62
     7
100
AcDbCircle
 10
102.0159569999851
 20
165.7499999999851
 30
0.0
 40
0.7000000000000028
100
AcDbArc
 50
0.0
 51
90.0
  0
ARC
  5
2CE
330
59
100
AcDbEntity
  8
0
  6
Continuous
 62
     2
100
AcDbCircle
 10
102.0159569999851
 20
165.7499999999851
 30
0.0
 40
2.529794015436011
100
AcDbArc
 50
359.9999999996576
 51
90.0
  0
ARC
  5
2CF
330
59
100
AcDbEntity
  8
0
  6
Continuous
 62
     7
100
AcDbCircle
 10
102.0159569999871
 20
165.7499999999831
 30
0.0
 40
4.603083354382306
100
AcDbArc
 50
0.00000000002512
 51
90.00000000002494
  0
ARC
  5
2D0
330
59
100
AcDbEntity
  8
0
  6
Continuous
 62
     7
100
AcDbCircle
 10
102.0159569999851
 20
165.7499999999851
 30
0.0
 40
5.728400000000008
100
AcDbArc
 50
0.0
 51
90.0
  0
ARC
  5
2D1
330
59
100
AcDbEntity
  8
0
  6
Continuous
 62
     7
100
AcDbCircle
 10
-9.48404300001487
 20
122.2499999999851
 30
0.0
 40
5.728399999999999
100
AcDbArc
 50
180.0
 51
270.0
  0
ENDBLK
  5
5B
330
59
100
AcDbEntity
  8
0
100
AcDbBlockEnd
  0
BLOCK
  5
5E
330
5C
100
AcDbEntity
  8
0
100
AcDbBlockBegin
  2
Rckans1
 70
     0
 10
46.287557
 20
144.0
 30
0.0
  3
Rckans1
  1

  0
INSERT
  5
5D
330
5C
100
AcDbEntity
  8
0
100
AcDbBlockReference
  2
1409817_HC_B16_TMS_EEE_PR_DI-select__2
 10
-15.21244300001487
 20
116.5215999999851
 30
0.0
  0
MTEXT
  5
2D2
330
5C
100
AcDbEntity
  8
1
 62
     6
100
AcDbMText
 10
59.53755755944007
 20
111.521600871667
 30
0.0
 40
5.0
 41
0.0
 71
     2
 72
     1
  1
 
  7
CONVERTER_12
 73
     1
 44
1.32052821128451
  0
ENDBLK
  5
5F
330
5C
100
AcDbEntity
  8
0
100
AcDbBlockEnd
  0
BLOCK
  5
61
330
60
100
AcDbEntity
  8
0
100
AcDbBlockBegin
  2
1409817_HC_B16_TMS_EEE_PR_DI-select__3
 70
     0
 10
-44.74084362506179
 20
116.5216001483855
 30
0.0
  3
1409817_HC_B16_TMS_EEE_PR_DI-select__3
  1

  0
LINE
  5
2D3
330
60
100
AcDbEntity
  8
0
  6
Continuous
 62
     7
100
AcDbLine
 10
-44.74084362506179
 20
165.7500001483855
 30
0.0
 11
-44.74084362506179
 21
171.4784001483855
 31
0.0
  0
LINE
  5
2D4
330
60
100
AcDbEntity
  8
0
  6
Continuous
 62
     7
100
AcDbLine
 10
-43.9049962787868
 20
171.4784001483855
 30
0.0
 11
-44.74084362506179
 21
171.4784001483855
 31
0.0
  0
LINE
  5
2D5
330
60
100
AcDbEntity
  8
0
  6
Continuous
 62
     2
100
AcDbLine
 10
-43.9049962787868
 20
165.7500001483855
 30
0.0
 11
-43.9049962787868
 21
171.4784001483855
 31
0.0
  0
LINE
  5
2D6
330
60
100
AcDbEntity
  8
0
  6
Continuous
 62
     2
100
AcDbLine
 10
-43.9049962787868
 20
122.2500001483855
 30
0.0
 11
-43.9049962787868
 21
116.5216001483855
 31
0.0
  0
LINE
  5
2D7
330
60
100
AcDbEntity
  8
0
  6
Continuous
 62
     2
100
AcDbLine
 10
-43.9049962787868
 20
122.2500001483855
 30
0.0
 11
-43.9049962787868
 21
165.7500001483855
 31
0.0
  0
LINE
  5
2D8
330
60
100
AcDbEntity
  8
0
  6
Continuous
 62
     7
100
AcDbLine
 10
-44.74084362506179
 20
122.2500001483855
 30
0.0
 11
-44.74084362506179
 21
165.7500001483855
 31
0.0
  0
LINE
  5
2D9
330
60
100
AcDbEntity
  8
0
  6
Continuous
 62
     2
100
AcDbLine
 10
-41.5270489622973
 20
165.7500001483855
 30
0.0
 11
-43.9049962787868
 21
165.7500001483855
 31
0.0
  0
LINE
  5
2DA
330
60
100
AcDbEntity
  8
0
  6
Continuous
 62
     2
100
AcDbLine
 10
-43.9049962787868
 20
165.7500001483855
 30
0.0
 11
-44.74084362506179
 21
165.7500001483855
 31
0.0
  0
LINE
  5
2DB
330
60
100
AcDbEntity
  8
0
  6
Continuous
 62
     2
100
AcDbLine
 10
-41.5270489622973
 20
122.2500001483855
 30
0.0
 11
-36.94084362506178
 21
122.2500001483855
 31
0.0
  0
LINE
  5
2DC
330
60
100
AcDbEntity
  8
0
  6
Continuous
 62
     2
100
AcDbLine
 10
-36.94084362506178
 20
165.7500001483855
 30
0.0
 11
-41.5270489622973
 21
165.7500001483855
 31
0.0
  0
LINE
  5
2DD
330
60
100
AcDbEntity
  8
0
  6
Continuous
 62
     7
100
AcDbLine
 10
-36.94084362506178
 20
118.2500001483855
 30
0.0
 11
-41.5270489622973
 21
118.2500001483855
 31
0.0
  0
LINE
  5
2DE
330
60
100
AcDbEntity
  8
0
  6
Continuous
 62
     2
100
AcDbLine
 10
-43.9049962787868
 20
122.2500001483855
 30
0.0
 11
-41.5270489622973
 21
122.2500001483855
 31
0.0
  0
LINE
  5
2DF
330
60
100
AcDbEntity
  8
0
  6
Continuous
 62
     7
100
AcDbLine
 10
-36.94084362506178
 20
165.7500001483855
 30
0.0
 11
-36.94084362506178
 21
169.7500001483855
 31
0.0
  0
LINE
  5
2E0
330
60
100
AcDbEntity
  8
0
  6
Continuous
 62
     7
100
AcDbLine
 10
-36.94084362506178
 20
118.2500001483855
 30
0.0
 11
-36.94084362506178
 21
122.2500001483855
 31
0.0
  0
LINE
  5
2E1
330
60
100
AcDbEntity
  8
0
  6
Continuous
 62
     7
100
AcDbLine
 10
-36.94084362506178
 20
165.7500001483855
 30
0.0
 11
-36.94084362506178
 21
122.2500001483855
 31
0.0
  0
LINE
  5
2E2
330
60
100
AcDbEntity
  8
0
  6
Continuous
 62
     2
100
AcDbLine
 10
-43.9049962787868
 20
122.2500001483855
 30
0.0
 11
-44.74084362506179
 21
122.2500001483855
 31
0.0
  0
LINE
  5
2E3
330
60
100
AcDbEntity
  8
0
  6
Continuous
 62
     7
100
AcDbLine
 10
-43.9049962787868
 20
116.5216001483855
 30
0.0
 11
-44.74084362506179
 21
116.5216001483855
 31
0.0
  0
LINE
  5
2E4
330
60
100
AcDbEntity
  8
0
  6
Continuous
 62
     7
100
AcDbLine
 10
-44.74084362506179
 20
116.5216001483855
 30
0.0
 11
-44.74084362506179
 21
122.2500001483855
 31
0.0
  0
LINE
  5
2E5
330
60
100
AcDbEntity
  8
0
  6
Continuous
 62
     7
100
AcDbLine
 10
-41.5270489622973
 20
118.2500001483855
 30
0.0
 11
-41.5270489622973
 21
122.2500001483855
 31
0.0
  0
LINE
  5
2E6
330
60
100
AcDbEntity
  8
0
  6
Continuous
 62
     7
100
AcDbLine
 10
-41.5270489622973
 20
122.2500001483855
 30
0.0
 11
-41.5270489622973
 21
165.7500001483855
 31
0.0
  0
LINE
  5
2E7
330
60
100
AcDbEntity
  8
0
  6
Continuous
 62
     7
100
AcDbLine
 10
-41.5270489622973
 20
165.7500001483855
 30
0.0
 11
-41.5270489622973
 21
169.7500001483855
 31
0.0
  0
LINE
  5
2E8
330
60
100
AcDbEntity
  8
0
  6
Continuous
 62
     7
100
AcDbLine
 10
-36.94084362506178
 20
169.7500001483855
 30
0.0
 11
-41.5270489622973
 21
169.7500001483855
 31
0.0
  0
ARC
  5
2E9
330
60
100
AcDbEntity
  8
0
  6
Continuous
 62
     7
100
AcDbCircle
 10
-43.9049962787868
 20
119.0216001483855
 30
0.0
 40
2.5
100
AcDbArc
 50
270.0
 51
342.0227103184118
  0
ARC
  5
2EA
330
60
100
AcDbEntity
  8
0
  6
Continuous
 62
     7
100
AcDbCircle
 10
-43.9049962787868
 20
168.9784001483855
 30
0.0
 40
2.499999999999922
100
AcDbArc
 50
17.97728968158818
 51
90.0
  0
ENDBLK
  5
62
330
60
100
AcDbEntity
  8
0
100
AcDbBlockEnd
  0
BLOCK
  5
65
330
63
100
AcDbEntity
  8
0
100
AcDbBlockBegin
  2
SA_Links1
 70
     0
 10
-40.8408437202142
 20
144.0000001484004
 30
0.0
  3
SA_Links1
  1

  0
INSERT
  5
64
330
63
100
AcDbEntity
  8
0
100
AcDbBlockReference
  2
1409817_HC_B16_TMS_EEE_PR_DI-select__3
 10
-44.74084362506179
 20
116.5216001483855
 30
0.0
  0
MTEXT
  5
2EB
330
63
100
AcDbEntity
  8
1
 62
     6
100
AcDbMText
 10
-40.84084372021437
 20
111.521600871667
 30
0.0
 40
5.0
 41
0.0
 71
     2
 72
     1
  1
 
  7
CONVERTER_12
 73
     1
 44
1.32052821128451
  0
ENDBLK
  5
66
330
63
100
AcDbEntity
  8
0
100
AcDbBlockEnd
  0
BLOCK
  5
68
330
67
100
AcDbEntity
  8
0
100
AcDbBlockBegin
  2
1409817_HC_B16_TMS_EEE_PR_DI-select__4
 70
     0
 10
-18.8656101122541
 20
-1.0673765110725
 30
0.0
  3
1409817_HC_B16_TMS_EEE_PR_DI-select__4
  1

  0
LINE
  5
2EC
330
67
100
AcDbEntity
  8
0
  6
Continuous
 62
     7
100
AcDbLine
 10
81.42462240971088
 20
2.94700490624121
 30
0.0
 11
-15.1372101122541
 21
30.8220049062412
 31
0.0
  0
LINE
  5
2ED
330
67
100
AcDbEntity
  8
0
  6
Continuous
 62
     7
100
AcDbLine
 10
109.1746224097109
 20
27.48687857513929
 30
0.0
 11
109.1746224097109
 21
23.51510824612163
 31
0.0
  0
LINE
  5
2EE
330
67
100
AcDbEntity
  8
0
  6
Continuous
 62
     7
100
AcDbLine
 10
80.56042240971087
 20
-0.58464206821026
 30
0.0
 11
-16.00141011225411
 21
27.29035793178973
 31
0.0
  0
LINE
  5
2EF
330
67
100
AcDbEntity
  8
0
  6
Continuous
 62
     7
100
AcDbLine
 10
82.15128879377576
 20
7.54808678393528
 30
0.0
 11
-14.41054372818699
 21
35.42308678393717
 31
0.0
  0
LINE
  5
2F0
330
67
100
AcDbEntity
  8
0
  6
Continuous
 62
     7
100
AcDbLine
 10
-15.1372101122541
 20
34.79377523525886
 30
0.0
 11
81.42462240971088
 21
6.91877523525886
 31
0.0
  0
LINE
  5
2F1
330
67
100
AcDbEntity
  8
0
  6
Continuous
 62
     2
100
AcDbLine
 10
81.42462240971088
 20
2.94700490624121
 30
0.0
 11
81.42462240971088
 21
6.91877523525886
 31
0.0
  0
LINE
  5
2F2
330
67
100
AcDbEntity
  8
0
  6
Continuous
 62
     2
100
AcDbLine
 10
88.38556233274957
 20
1.18759292886907
 30
0.0
 11
88.38556233274957
 21
0.46372789330913
 31
0.0
  0
LINE
  5
2F3
330
67
100
AcDbEntity
  8
0
  6
Continuous
 62
     2
100
AcDbLine
 10
86.88872402484856
 20
7.65082604282775
 30
0.0
 11
86.88872402484856
 21
3.67905571381009
 31
0.0
  0
LINE
  5
2F4
330
67
100
AcDbEntity
  8
0
  6
Continuous
 62
     2
100
AcDbLine
 10
-15.1372101122541
 20
34.79377523525886
 30
0.0
 11
-15.1372101122541
 21
30.8220049062412
 31
0.0
  0
LINE
  5
2F5
330
67
100
AcDbEntity
  8
0
  6
Continuous
 62
     2
100
AcDbLine
 10
80.56042240971075
 20
0.13922296734968
 30
0.0
 11
-16.00141011225411
 21
28.01422296734968
 31
0.0
  0
LINE
  5
2F6
330
67
100
AcDbEntity
  8
0
  6
Continuous
 62
     2
100
AcDbLine
 10
-16.00141011225411
 20
28.01422296734968
 30
0.0
 11
-16.00141011225411
 21
27.29035793178973
 31
0.0
  0
LINE
  5
2F7
330
67
100
AcDbEntity
  8
0
  6
Continuous
 62
     2
100
AcDbLine
 10
80.56042240971075
 20
0.13922296734968
 30
0.0
 11
80.56042240971087
 21
-0.58464206821026
 31
0.0
  0
LINE
  5
2F8
330
67
100
AcDbEntity
  8
0
  6
Continuous
 62
     7
100
AcDbLine
 10
110.1355623327496
 20
19.29978042562067
 30
0.0
 11
88.38556233274957
 21
0.46372789330913
 31
0.0
  0
LINE
  5
2F9
330
67
100
AcDbEntity
  8
0
  6
Continuous
 62
     2
100
AcDbLine
 10
110.1355623327496
 20
20.02364546118063
 30
0.0
 11
88.38556233274957
 21
1.18759292886907
 31
0.0
  0
LINE
  5
2FA
330
67
100
AcDbEntity
  8
0
  6
Continuous
 62
     7
100
AcDbLine
 10
108.6387240248486
 20
22.51510824612163
 30
0.0
 11
86.88872402484856
 21
3.67905571381009
 31
0.0
  0
LINE
  5
2FB
330
67
100
AcDbEntity
  8
0
  6
Continuous
 62
     7
100
AcDbLine
 10
86.88872402484856
 20
7.65082604282775
 30
0.0
 11
108.6387240248486
 21
26.48687857513927
 31
0.0
  0
LINE
  5
2FC
330
67
100
AcDbEntity
  8
0
  6
Continuous
 62
     7
100
AcDbLine
 10
107.3801009274958
 20
26.85021176717174
 30
0.0
 11
85.63010092749195
 21
8.0141592348613
 31
0.0
  0
LINE
  5
2FD
330
67
100
AcDbEntity
  8
0
  6
Continuous
 62
     2
100
AcDbLine
 10
108.6387240248486
 20
22.51510824612163
 30
0.0
 11
108.6387240248486
 21
26.48687857513927
 31
0.0
  0
LINE
  5
2FE
330
67
100
AcDbEntity
  8
0
  6
Continuous
 62
     2
100
AcDbLine
 10
110.1355623327496
 20
20.02364546118063
 30
0.0
 11
110.1355623327496
 21
19.29978042562067
 31
0.0
  0
LINE
  5
2FF
330
67
100
AcDbEntity
  8
0
  6
Continuous
 62
     7
100
AcDbLine
 10
110.9030224097109
 20
21.45574546118061
 30
0.0
 11
110.9030224097108
 21
20.73188042562065
 31
0.0
  0
LINE
  5
300
330
67
100
AcDbEntity
  8
0
  6
Continuous
 62
     7
100
AcDbLine
 10
104.5801009274958
 20
24.42534063657531
 30
0.0
 11
8.9627898877459
 21
52.02768077056919
 31
0.0
  0
LINE
  5
301
330
67
100
AcDbEntity
  8
0
  6
Continuous
 62
     7
100
AcDbLine
 10
8.9627898877459
 20
50.90184774564942
 30
0.0
 11
103.6051009274958
 21
23.58096586788548
 31
0.0
  0
LINE
  5
302
330
67
100
AcDbEntity
  8
0
  6
Continuous
 62
     7
100
AcDbLine
 10
105.4301009274981
 20
25.16146222979405
 30
0.0
 11
9.81278988774611
 21
52.76380236378611
 31
0.0
  0
LINE
  5
303
330
67
100
AcDbEntity
  8
0
  6
Continuous
 62
     7
100
AcDbLine
 10
107.1746224097109
 20
29.21892938270814
 30
0.0
 11
10.61278988774591
 21
57.09392938270815
 31
0.0
  0
LINE
  5
304
330
67
100
AcDbEntity
  8
0
  6
Continuous
 62
     7
100
AcDbLine
 10
9.88612350367879
 20
56.46461783402984
 30
0.0
 11
106.4479560256437
 21
28.58961783402984
 31
0.0
  0
LINE
  5
305
330
67
100
AcDbEntity
  8
0
  6
Continuous
 62
     2
100
AcDbLine
 10
6.53432891866288
 20
52.32457187924472
 30
0.0
 11
6.40731136996476
 21
55.99854538310572
 31
0.0
  0
LINE
  5
306
330
67
100
AcDbEntity
  8
0
  6
Continuous
 62
     2
100
AcDbLine
 10
8.9627898877459
 20
52.02768077056919
 30
0.0
 11
8.9627898877459
 21
50.90184774564942
 31
0.0
  0
LINE
  5
307
330
67
100
AcDbEntity
  8
0
  6
Continuous
 62
     2
100
AcDbLine
 10
9.88612350367879
 20
56.46461783402984
 30
0.0
 11
9.81278988774611
 21
52.76380236378611
 31
0.0
  0
LINE
  5
308
330
67
100
AcDbEntity
  8
0
  6
Continuous
 62
     2
100
AcDbLine
 10
106.3966113543513
 20
25.99848481247154
 30
0.0
 11
106.4479560256437
 21
28.58961783402984
 31
0.0
  0
LINE
  5
309
330
67
100
AcDbEntity
  8
0
  6
Continuous
 62
     7
100
AcDbLine
 10
8.00657210509678
 20
51.89957187924463
 30
0.0
 11
-11.86676151083827
 21
34.68876010996161
 31
0.0
  0
LINE
  5
30A
330
67
100
AcDbEntity
  8
0
  6
Continuous
 62
     7
100
AcDbLine
 10
5.14868827260814
 20
56.36187857513927
 30
0.0
 11
-16.6013117273919
 21
37.52582604282773
 31
0.0
  0
LINE
  5
30B
330
67
100
AcDbEntity
  8
0
  6
Continuous
 62
     7
100
AcDbLine
 10
-15.3426886300352
 20
37.16249285079418
 30
0.0
 11
6.40731136996476
 21
55.99854538310572
 31
0.0
  0
LINE
  5
30C
330
67
100
AcDbEntity
  8
0
  6
Continuous
 62
     2
100
AcDbLine
 10
8.00657210509678
 20
50.77373885432485
 30
0.0
 11
8.00657210509678
 21
51.89957187924463
 31
0.0
  0
LINE
  5
30D
330
67
100
AcDbEntity
  8
0
  6
Continuous
 62
     7
100
AcDbLine
 10
6.53432891866288
 20
52.32457187924472
 30
0.0
 11
-13.3390046972759
 21
35.11376010996277
 31
0.0
  0
LINE
  5
30E
330
67
100
AcDbEntity
  8
0
  6
Continuous
 62
     2
100
AcDbLine
 10
-15.3426886300352
 20
37.16249285079418
 30
0.0
 11
-15.2973633880424
 21
35.85146347064607
 31
0.0
  0
LINE
  5
30F
330
67
100
AcDbEntity
  8
0
  6
Continuous
 62
     7
100
AcDbLine
 10
-10.89176151083828
 20
34.40730185373167
 30
0.0
 11
8.00657210509678
 21
50.77373885432485
 31
0.0
  0
LINE
  5
310
330
67
100
AcDbEntity
  8
0
  6
Continuous
 62
     7
100
AcDbLine
 10
-17.1372101122541
 20
36.52582604282775
 30
0.0
 11
-17.1372101122541
 21
32.55405571381009
 31
0.0
  0
LINE
  5
311
330
67
100
AcDbEntity
  8
0
  6
Continuous
 62
     7
100
AcDbLine
 10
-17.5697207026017
 20
33.19161529391521
 30
0.0
 11
-17.1372101122541
 21
33.56618045256207
 31
0.0
  0
LINE
  5
312
330
67
100
AcDbEntity
  8
0
  6
Continuous
 62
     7
100
AcDbLine
 10
-18.8656101122541
 20
30.49469292886909
 30
0.0
 11
-18.8656101122541
 21
29.77082789330912
 31
0.0
  0
SPLINE
  5
313
330
67
100
AcDbEntity
  8
0
  6
Continuous
 62
     7
100
AcDbSpline
210
0.0
220
0.0
230
1.0
 70
     8
 71
     3
 72
     9
 73
     5
 74
     3
 42
0.000000001
 43
0.0000000001
 44
0.00000001
 40
0.0
 40
0.0
 40
0.0
 40
0.0
 40
1.63686999292179
 40
2.771425584172436
 40
2.771425584172436
 40
2.771425584172436
 40
2.771425584172436
 10
107.1746224097109
 20
29.21892938270814
 30
0.0
 10
107.7306364342113
 20
29.04486106498766
 30
0.0
 10
108.6720376939958
 20
28.7501416216486
 30
0.0
 10
109.02863853126
 20
27.85381382149118
 30
0.0
 10
109.1746224097109
 20
27.48687857513929
 30
0.0
 11
107.1746224097109
 21
29.21892938270814
 31
0.0
 11
108.6386647387546
 21
28.48686146071811
 31
0.0
 11
109.1746224097109
 21
27.48687857513929
 31
0.0
  0
SPLINE
  5
314
330
67
100
AcDbEntity
  8
0
  6
Continuous
 62
     7
100
AcDbSpline
210
0.0
220
0.0
230
1.0
 70
     8
 71
     3
 72
     9
 73
     5
 74
     3
 42
0.000000001
 43
0.0000000001
 44
0.00000001
 40
0.0
 40
0.0
 40
0.0
 40
0.0
 40
0.5352813438478853
 40
1.161662880834284
 40
1.161662880834284
 40
1.161662880834284
 40
1.161662880834284
 10
109.1746224097109
 20
27.48687857513929
 30
0.0
 10
109.1449477000675
 20
27.30623575754404
 30
0.0
 10
109.0805478870919
 20
26.9142063046917
 30
0.0
 10
108.793502238032
 20
26.63657854393798
 30
0.0
 10
108.6387240248486
 20
26.48687857513927
 30
0.0
 11
109.1746224097109
 21
27.48687857513929
 31
0.0
 11
109.0383246847816
 21
26.96924062293954
 31
0.0
 11
108.6387240248486
 21
26.48687857513927
 31
0.0
  0
SPLINE
  5
315
330
67
100
AcDbEntity
  8
0
  6
Continuous
 62
     7
100
AcDbSpline
210
0.0
220
0.0
230
1.0
 70
     8
 71
     3
 72
     9
 73
     5
 74
     3
 42
0.000000001
 43
0.0000000001
 44
0.00000001
 40
0.0
 40
0.0
 40
0.0
 40
0.0
 40
0.7291153567165995
 40
1.787628612189878
 40
1.787628612189878
 40
1.787628612189878
 40
1.787628612189878
 10
107.7207719957699
 20
27.46120623949314
 30
0.0
 10
107.6333868640847
 20
27.70018523690829
 30
0.0
 10
107.4191379499212
 20
28.28610855069469
 30
0.0
 10
106.8091498805768
 20
28.47673920772534
 30
0.0
 10
106.4479560256437
 20
28.58961783402984
 30
0.0
 11
107.7207719957699
 21
27.46120623949314
 31
0.0
 11
107.3927830985113
 21
28.11238401187012
 31
0.0
 11
106.4479560256437
 21
28.58961783402984
 31
0.0
  0
SPLINE
  5
316
330
67
100
AcDbEntity
  8
0
  6
Continuous
 62
     7
100
AcDbSpline
210
0.0
220
0.0
230
1.0
 70
     8
 71
     3
 72
     9
 73
     5
 74
     3
 42
0.000000001
 43
0.0000000001
 44
0.00000001
 40
0.0
 40
0.0
 40
0.0
 40
0.0
 40
0.3507973679325011
 40
0.700478623628801
 40
0.700478623628801
 40
0.700478623628801
 40
0.700478623628801
 10
8.262437017545764
 20
50.9017518412563
 30
0.0
 10
8.379348126609226
 20
50.90508942111399
 30
0.0
 10
8.612798375433325
 20
50.91175394184657
 30
0.0
 10
8.846250040954713
 20
50.90514630826331
 30
0.0
 10
8.962789887745899
 20
50.90184774564942
 30
0.0
 11
8.262437017545764
 21
50.9017518412563
 31
0.0
 11
8.613170700230228
 21
50.90843595016458
 31
0.0
 11
8.962789887745899
 21
50.90184774564942
 31
0.0
  0
SPLINE
  5
317
330
67
100
AcDbEntity
  8
0
  6
Continuous
 62
     7
100
AcDbSpline
210
0.0
220
0.0
230
1.0
 70
     8
 71
     3
 72
    11
 73
     7
 74
     5
 42
0.000000001
 43
0.0000000001
 44
0.00000001
 40
0.0
 40
0.0
 40
0.0
 40
0.0
 40
1.184563356297193
 40
2.626250699451532
 40
4.184465941359633
 40
5.683497677775
 40
5.683497677775
 40
5.683497677775
 40
5.683497677775
 10
86.88872402484856
 20
7.650826042827745
 30
0.0
 10
86.55470554434415
 20
7.434579072800478
 30
0.0
 10
85.81416577295713
 20
6.955146092708032
 30
0.0
 10
84.42272745166223
 20
6.677129692852311
 30
0.0
 10
82.91647874466568
 20
6.599662935651968
 30
0.0
 10
81.9154483949031
 20
6.813786160458269
 30
0.0
 10
81.42462240971088
 20
6.918775235258863
 30
0.0
 11
86.88872402484856
 21
7.650826042827745
 31
0.0
 11
85.85966072200158
 21
7.064124186618871
 31
0.0
 11
84.45989859012086
 21
6.718974390249606
 31
0.0
 11
82.90251922828749
 21
6.667942349046246
 31
0.0
 11
81.42462240971088
 21
6.918775235258863
 31
0.0
  0
SPLINE
  5
318
330
67
100
AcDbEntity
  8
0
  6
Continuous
 62
     2
100
AcDbSpline
210
0.0
220
0.0
230
1.0
 70
     8
 71
     3
 72
     9
 73
     5
 74
     3
 42
0.000000001
 43
0.0000000001
 44
0.00000001
 40
0.0
 40
0.0
 40
0.0
 40
0.0
 40
1.498954783455232
 40
2.966786080761711
 40
2.966786080761711
 40
2.966786080761711
 40
2.966786080761711
 10
80.56042240971075
 20
0.1392229673496814
 30
0.0
 10
80.60641468605233
 20
0.6428979077721827
 30
0.0
 10
80.69744429912797
 20
1.639789750151299
 30
0.0
 10
81.18393088543193
 20
2.514324667034143
 30
0.0
 10
81.42462240971088
 20
2.947004906241212
 30
0.0
 11
80.56042240971075
 21
0.1392229673496814
 31
0.0
 11
80.79934867065057
 21
1.619013387936191
 31
0.0
 11
81.42462240971088
 21
2.947004906241212
 31
0.0
  0
SPLINE
  5
319
330
67
100
AcDbEntity
  8
0
  6
Continuous
 62
     2
100
AcDbSpline
210
0.0
220
0.0
230
1.0
 70
     8
 71
     3
 72
    11
 73
     7
 74
     5
 42
0.000000001
 43
0.0000000001
 44
0.00000001
 40
0.0
 40
0.0
 40
0.0
 40
0.0
 40
1.696413183330754
 40
3.761053629315712
 40
5.992573678053668
 40
8.13933702725313
 40
8.13933702725313
 40
8.13933702725313
 40
8.13933702725313
 10
88.38556233274957
 20
1.187592928869066
 30
0.0
 10
87.90721446659997
 20
0.8779056429510783
 30
0.0
 10
86.84668746254181
 20
0.191309665745272
 30
0.0
 10
84.85400863990236
 20
-0.2068376169922663
 30
0.0
 10
82.69690986597024
 20
-0.3177777633004989
 30
0.0
 10
81.26333430293397
 20
-0.0111318866357473
 30
0.0
 10
80.56042240971075
 20
0.1392229673496814
 30
0.0
 11
88.38556233274957
 21
1.187592928869066
 31
0.0
 11
86.91184077674242
 21
0.3473772005923475
 31
0.0
 11
84.90724142767611
 21
-0.1469118227880806
 31
0.0
 11
82.67691844359447
 21
-0.2199948089954087
 31
0.0
 11
80.56042240971075
 21
0.1392229673496814
 31
0.0
  0
SPLINE
  5
31A
330
67
100
AcDbEntity
  8
0
  6
Continuous
 62
     2
100
AcDbSpline
210
0.0
220
0.0
230
1.0
 70
     8
 71
     3
 72
     9
 73
     5
 74
     3
 42
0.000000001
 43
0.0000000001
 44
0.00000001
 40
0.0
 40
0.0
 40
0.0
 40
0.0
 40
1.543041957863108
 40
2.995577855628291
 40
2.995577855628291
 40
2.995577855628291
 40
2.995577855628291
 10
86.88872402484856
 20
3.679055713810087
 30
0.0
 10
87.304961552497
 20
3.34530115505804
 30
0.0
 10
88.11302246805215
 20
2.697368169159599
 30
0.0
 10
88.29656417902153
 20
1.680611513030969
 30
0.0
 10
88.38556233274957
 20
1.187592928869066
 30
0.0
 11
86.88872402484856
 21
3.679055713810087
 31
0.0
 11
87.9717299095395
 21
2.5799302683204
 31
0.0
 11
88.38556233274957
 21
1.187592928869066
 31
0.0
  0
SPLINE
  5
31B
330
67
100
AcDbEntity
  8
0
  6
Continuous
 62
     7
100
AcDbSpline
210
0.0
220
0.0
230
1.0
 70
     8
 71
     3
 72
    11
 73
     7
 74
     5
 42
0.000000001
 43
0.0000000001
 44
0.00000001
 40
0.0
 40
0.0
 40
0.0
 40
0.0
 40
1.184563356297154
 40
2.626250699451492
 40
4.184465941359623
 40
5.683497677775003
 40
5.683497677775003
 40
5.683497677775003
 40
5.683497677775003
 10
86.88872402484856
 20
3.679055713810087
 30
0.0
 10
86.55470554434419
 20
3.462808743782824
 30
0.0
 10
85.81416577295713
 20
2.983375763690368
 30
0.0
 10
84.42272745166233
 20
2.705359363834663
 30
0.0
 10
82.91647874466568
 20
2.627892606634313
 30
0.0
 10
81.91544839490312
 20
2.84201583144062
 30
0.0
 10
81.42462240971088
 20
2.947004906241212
 30
0.0
 11
86.88872402484856
 21
3.679055713810087
 31
0.0
 11
85.85966072200162
 21
3.092353857601219
 31
0.0
 11
84.4598985901209
 21
2.747204061231955
 31
0.0
 11
82.9025192282875
 21
2.696172020028595
 31
0.0
 11
81.42462240971088
 21
2.947004906241212
 31
0.0
  0
SPLINE
  5
31C
330
67
100
AcDbEntity
  8
0
  6
Continuous
 62
     7
100
AcDbSpline
210
0.0
220
0.0
230
1.0
 70
     8
 71
     3
 72
     9
 73
     5
 74
     3
 42
0.000000001
 43
0.0000000001
 44
0.00000001
 40
0.0
 40
0.0
 40
0.0
 40
0.0
 40
1.936497027091703
 40
3.592788000340335
 40
3.592788000340335
 40
3.592788000340335
 40
3.592788000340335
 10
82.15128879377576
 20
7.548086783935275
 30
0.0
 10
82.80655788169956
 20
7.432072484499543
 30
0.0
 10
84.02228033361507
 20
7.216830870485956
 30
0.0
 10
85.12277026226275
 20
7.762570754264169
 30
0.0
 10
85.63010092749195
 20
8.014159234861296
 30
0.0
 11
82.15128879377576
 21
7.548086783935275
 31
0.0
 11
84.08361913293794
 21
7.421121416274495
 31
0.0
 11
85.63010092749195
 21
8.014159234861296
 31
0.0
  0
SPLINE
  5
31D
330
67
100
AcDbEntity
  8
0
  6
Continuous
 62
     2
100
AcDbSpline
210
0.0
220
0.0
230
1.0
 70
     8
 71
     3
 72
     9
 73
     5
 74
     3
 42
0.000000001
 43
0.0000000001
 44
0.00000001
 40
0.0
 40
0.0
 40
0.0
 40
0.0
 40
1.467831297306464
 40
2.966786080761675
 40
2.966786080761675
 40
2.966786080761675
 40
2.966786080761675
 10
-15.1372101122541
 20
30.8220049062412
 30
0.0
 10
-15.37790163653305
 20
30.38932466703413
 30
0.0
 10
-15.86438822283703
 20
29.5147897501513
 30
0.0
 10
-15.95541783591254
 20
28.51789790777217
 30
0.0
 10
-16.00141011225411
 20
28.01422296734968
 30
0.0
 11
-15.1372101122541
 21
30.8220049062412
 31
0.0
 11
-15.76248385131438
 21
29.49401338793619
 31
0.0
 11
-16.00141011225411
 21
28.01422296734968
 31
0.0
  0
SPLINE
  5
31E
330
67
100
AcDbEntity
  8
0
  6
Continuous
 62
     7
100
AcDbSpline
210
0.0
220
0.0
230
1.0
 70
     8
 71
     3
 72
    11
 73
     7
 74
     5
 42
0.000000001
 43
0.0000000001
 44
0.00000001
 40
0.0
 40
0.0
 40
0.0
 40
0.0
 40
1.696413183330758
 40
3.761053629315715
 40
5.992573678053658
 40
8.139337027253022
 40
8.139337027253022
 40
8.139337027253022
 40
8.139337027253022
 10
88.38556233274957
 20
0.4637278933091267
 30
0.0
 10
87.90721446659995
 20
0.1540406073911352
 30
0.0
 10
86.84668746254181
 20
-0.532555369814679
 30
0.0
 10
84.85400863990233
 20
-0.9307026525522024
 30
0.0
 10
82.69690986597027
 20
-1.041642798860451
 30
0.0
 10
81.26333430293404
 20
-0.7349969221956933
 30
0.0
 10
80.56042240971087
 20
-0.5846420682102647
 30
0.0
 11
88.38556233274957
 21
0.4637278933091267
 31
0.0
 11
86.91184077674242
 21
-0.3764878349676
 31
0.0
 11
84.90724142767611
 21
-0.8707768583480232
 31
0.0
 11
82.67691844359449
 21
-0.9438598445553544
 31
0.0
 11
80.56042240971087
 21
-0.5846420682102647
 31
0.0
  0
SPLINE
  5
31F
330
67
100
AcDbEntity
  8
0
  6
Continuous
 62
     7
100
AcDbSpline
210
0.0
220
0.0
230
1.0
 70
     8
 71
     3
 72
     9
 73
     5
 74
     3
 42
0.000000001
 43
0.0000000001
 44
0.00000001
 40
0.0
 40
0.0
 40
0.0
 40
0.0
 40
0.3849513536814953
 40
0.714622447376799
 40
0.714622447376799
 40
0.714622447376799
 40
0.714622447376799
 10
107.3801009274958
 20
26.85021176717174
 30
0.0
 10
107.4751292614352
 20
26.94175589506067
 30
0.0
 10
107.6515395369042
 20
27.11169812845954
 30
0.0
 10
107.6989161347785
 20
27.35087066906044
 30
0.0
 10
107.7207719957699
 20
27.46120623949314
 30
0.0
 11
107.3801009274958
 21
26.85021176717174
 31
0.0
 11
107.6277437111342
 21
27.14493298797312
 31
0.0
 11
107.7207719957699
 21
27.46120623949314
 31
0.0
  0
SPLINE
  5
320
330
67
100
AcDbEntity
  8
0
  6
Continuous
 62
     7
100
AcDbSpline
210
0.0
220
0.0
230
1.0
 70
     8
 71
     3
 72
     9
 73
     5
 74
     3
 42
0.000000001
 43
0.0000000001
 44
0.00000001
 40
0.0
 40
0.0
 40
0.0
 40
0.0
 40
0.76657641345561
 40
1.663617413504884
 40
1.663617413504884
 40
1.663617413504884
 40
1.663617413504884
 10
110.9030224097108
 20
20.73188042562065
 30
0.0
 10
110.8605252579789
 20
20.47318184622829
 30
0.0
 10
110.7682982935765
 20
19.91175646331323
 30
0.0
 10
110.3572202120797
 20
19.51416575115982
 30
0.0
 10
110.1355623327496
 20
19.29978042562067
 30
0.0
 11
110.9030224097108
 21
20.73188042562065
 31
0.0
 11
110.7078304378395
 21
19.99057111427541
 31
0.0
 11
110.1355623327496
 21
19.29978042562067
 31
0.0
  0
SPLINE
  5
321
330
67
100
AcDbEntity
  8
0
  6
Continuous
 62
     7
100
AcDbSpline
210
0.0
220
0.0
230
1.0
 70
     8
 71
     3
 72
    13
 73
     9
 74
     7
 42
0.000000001
 43
0.0000000001
 44
0.00000001
 40
0.0
 40
0.0
 40
0.0
 40
0.0
 40
0.6182998468317783
 40
1.129520842752749
 40
1.681965574698668
 40
2.386008990258664
 40
3.012122371959325
 40
3.628348918784381
 40
3.628348918784381
 40
3.628348918784381
 40
3.628348918784381
 10
109.1746224097108
 20
24.48387316077928
 30
0.0
 10
109.3412336914892
 20
24.36197616591897
 30
0.0
 10
109.6456020511623
 20
24.13929261879829
 30
0.0
 10
110.0390696697316
 20
23.73698686263758
 30
0.0
 10
110.3959165245837
 20
23.26571510425805
 30
0.0
 10
110.6821753974633
 20
22.70315457851631
 30
0.0
 10
110.869393398185
 20
22.0761761703433
 30
0.0
 10
110.8918723750022
 20
21.66145554977439
 30
0.0
 10
110.9030224097109
 20
21.45574546118061
 30
0.0
 11
109.1746224097108
 21
24.48387316077928
 31
0.0
 11
109.6624296500244
 21
24.10395369916082
 31
0.0
 11
110.0215479334017
 21
23.74011174690683
 31
0.0
 11
110.3532135906953
 21
23.2983051433061
 31
0.0
 11
110.6732063419047
 21
22.67118332668841
 31
0.0
 11
110.8457021247391
 21
22.06930030298581
 31
0.0
 11
110.9030224097109
 21
21.45574546118061
 31
0.0
  0
SPLINE
  5
322
330
67
100
AcDbEntity
  8
0
  6
Continuous
 62
     2
100
AcDbSpline
210
0.0
220
0.0
230
1.0
 70
     8
 71
     3
 72
     9
 73
     5
 74
     3
 42
0.000000001
 43
0.0000000001
 44
0.00000001
 40
0.0
 40
0.0
 40
0.0
 40
0.0
 40
0.7665764134556313
 40
1.663617413504928
 40
1.663617413504928
 40
1.663617413504928
 40
1.663617413504928
 10
110.9030224097109
 20
21.45574546118061
 30
0.0
 10
110.860525257979
 20
21.19704688178825
 30
0.0
 10
110.7682982935766
 20
20.63562149887318
 30
0.0
 10
110.3572202120796
 20
20.23803078671978
 30
0.0
 10
110.1355623327496
 20
20.02364546118063
 30
0.0
 11
110.9030224097109
 21
21.45574546118061
 31
0.0
 11
110.7078304378396
 21
20.71443614983536
 31
0.0
 11
110.1355623327496
 21
20.02364546118063
 31
0.0
  0
SPLINE
  5
323
330
67
100
AcDbEntity
  8
0
  6
Continuous
 62
     7
100
AcDbSpline
210
0.0
220
0.0
230
1.0
 70
     8
 71
     3
 72
     9
 73
     5
 74
     3
 42
0.000000001
 43
0.0000000001
 44
0.00000001
 40
0.0
 40
0.0
 40
0.0
 40
0.0
 40
0.5352813438478818
 40
1.161662880834267
 40
1.161662880834267
 40
1.161662880834267
 40
1.161662880834267
 10
109.1746224097109
 20
23.51510824612163
 30
0.0
 10
109.1449477000675
 20
23.33446542852639
 30
0.0
 10
109.0805478870919
 20
22.94243597567404
 30
0.0
 10
108.793502238032
 20
22.66480821492033
 30
0.0
 10
108.6387240248486
 20
22.51510824612163
 30
0.0
 11
109.1746224097109
 21
23.51510824612163
 31
0.0
 11
109.0383246847816
 21
22.99747029392188
 31
0.0
 11
108.6387240248486
 21
22.51510824612163
 31
0.0
  0
SPLINE
  5
324
330
67
100
AcDbEntity
  8
0
  6
Continuous
 62
     2
100
AcDbSpline
210
0.0
220
0.0
230
1.0
 70
     8
 71
     3
 72
     9
 73
     5
 74
     3
 42
0.000000001
 43
0.0000000001
 44
0.00000001
 40
0.0
 40
0.0
 40
0.0
 40
0.0
 40
1.452535897765162
 40
2.995577855628261
 40
2.995577855628261
 40
2.995577855628261
 40
2.995577855628261
 10
110.1355623327496
 20
20.02364546118063
 30
0.0
 10
110.0465641790215
 20
20.51666404534252
 30
0.0
 10
109.8630224680522
 20
21.53342070147114
 30
0.0
 10
109.054961552497
 20
22.18135368736958
 30
0.0
 10
108.6387240248486
 20
22.51510824612163
 30
0.0
 11
110.1355623327496
 21
20.02364546118063
 31
0.0
 11
109.7217299095395
 21
21.41598280063194
 31
0.0
 11
108.6387240248486
 21
22.51510824612163
 31
0.0
  0
SPLINE
  5
325
330
67
100
AcDbEntity
  8
0
  6
Continuous
 62
     7
100
AcDbSpline
210
0.0
220
0.0
230
1.0
 70
     8
 71
     3
 72
     9
 73
     5
 74
     3
 42
0.000000001
 43
0.0000000001
 44
0.00000001
 40
0.0
 40
0.0
 40
0.0
 40
0.0
 40
0.4552631230380418
 40
0.9875462176039043
 40
0.9875462176039043
 40
0.9875462176039043
 40
0.9875462176039043
 10
8.00657210509678
 20
50.77373885432485
 30
0.0
 10
8.14602160207267
 20
50.84289274047592
 30
0.0
 10
8.448512225002773
 20
50.9928997293141
 30
0.0
 10
8.782676697271645
 20
50.93373648570637
 30
0.0
 10
8.962789887745899
 20
50.90184774564942
 30
0.0
 11
8.00657210509678
 21
50.77373885432485
 31
0.0
 11
8.43165208517511
 21
50.93674659550763
 31
0.0
 11
8.962789887745899
 21
50.90184774564942
 31
0.0
  0
SPLINE
  5
326
330
67
100
AcDbEntity
  8
0
  6
Continuous
 62
     7
100
AcDbSpline
210
0.0
220
0.0
230
1.0
 70
     8
 71
     3
 72
     9
 73
     5
 74
     3
 42
0.000000001
 43
0.0000000001
 44
0.00000001
 40
0.0
 40
0.0
 40
0.0
 40
0.0
 40
1.936497027089927
 40
3.592788000338216
 40
3.592788000338216
 40
3.592788000338216
 40
3.592788000338216
 10
9.886123503678789
 20
56.46461783402984
 30
0.0
 10
9.230854415755658
 20
56.58063213346619
 30
0.0
 10
8.015131963840963
 20
56.79587374748094
 30
0.0
 10
6.914642035193912
 20
56.2501338637029
 30
0.0
 10
6.407311369964759
 20
55.99854538310572
 30
0.0
 11
9.886123503678789
 21
56.46461783402984
 31
0.0
 11
7.953793164518505
 21
56.59158320169227
 31
0.0
 11
6.407311369964759
 21
55.99854538310572
 31
0.0
  0
SPLINE
  5
327
330
67
100
AcDbEntity
  8
0
  6
Continuous
 62
     7
100
AcDbSpline
210
0.0
220
0.0
230
1.0
 70
     8
 71
     3
 72
     9
 73
     5
 74
     3
 42
0.000000001
 43
0.0000000001
 44
0.00000001
 40
0.0
 40
0.0
 40
0.0
 40
0.0
 40
0.5322830945658616
 40
0.9875462176038932
 40
0.9875462176038932
 40
0.9875462176038932
 40
0.9875462176038932
 10
8.962789887745899
 20
52.02768077056919
 30
0.0
 10
8.782676697271645
 20
52.0595695106261
 30
0.0
 10
8.448512225002778
 20
52.11873275423386
 30
0.0
 10
8.146021602072674
 20
51.9687257653957
 30
0.0
 10
8.00657210509678
 20
51.89957187924463
 30
0.0
 11
8.962789887745899
 21
52.02768077056919
 31
0.0
 11
8.43165208517511
 21
52.06257962042739
 31
0.0
 11
8.00657210509678
 21
51.89957187924463
 31
0.0
  0
SPLINE
  5
328
330
67
100
AcDbEntity
  8
0
  6
Continuous
 62
     7
100
AcDbSpline
210
0.0
220
0.0
230
1.0
 70
     8
 71
     3
 72
     9
 73
     5
 74
     3
 42
0.000000001
 43
0.0000000001
 44
0.00000001
 40
0.0
 40
0.0
 40
0.0
 40
0.0
 40
1.560902141333222
 40
3.385872756476156
 40
3.385872756476156
 40
3.385872756476156
 40
3.385872756476156
 10
6.53432891866288
 20
52.32457187924472
 30
0.0
 10
7.012441481316737
 20
52.56167091826727
 30
0.0
 10
8.049552178892625
 20
53.07598064112769
 30
0.0
 10
9.195258947216708
 20
52.87313518715009
 30
0.0
 10
9.812789887746106
 20
52.76380236378611
 30
0.0
 11
6.53432891866288
 21
52.32457187924472
 31
0.0
 11
7.991745993217402
 21
52.8834555633
 31
0.0
 11
9.812789887746106
 21
52.76380236378611
 31
0.0
  0
SPLINE
  5
329
330
67
100
AcDbEntity
  8
0
  6
Continuous
 62
     7
100
AcDbSpline
210
0.0
220
0.0
230
1.0
 70
     8
 71
     3
 72
     9
 73
     5
 74
     3
 42
0.000000001
 43
0.0000000001
 44
0.00000001
 40
0.0
 40
0.0
 40
0.0
 40
0.0
 40
0.5352813438478486
 40
1.161662880834198
 40
1.161662880834198
 40
1.161662880834198
 40
1.161662880834198
 10
-17.1372101122541
 20
36.52582604282775
 30
0.0
 10
-17.10753540261072
 20
36.70646886042299
 30
0.0
 10
-17.04313558963511
 20
37.09849831327532
 30
0.0
 10
-16.7560899405753
 20
37.37612607402902
 30
0.0
 10
-16.6013117273919
 20
37.52582604282773
 30
0.0
 11
-17.1372101122541
 21
36.52582604282775
 31
0.0
 11
-17.0009123873248
 21
37.04346399502748
 31
0.0
 11
-16.6013117273919
 21
37.52582604282773
 31
0.0
  0
SPLINE
  5
32A
330
67
100
AcDbEntity
  8
0
  6
Continuous
 62
     7
100
AcDbSpline
210
0.0
220
0.0
230
1.0
 70
     8
 71
     3
 72
     9
 73
     5
 74
     3
 42
0.000000001
 43
0.0000000001
 44
0.00000001
 40
0.0
 40
0.0
 40
0.0
 40
0.0
 40
0.412527163230661
 40
0.7644976197739384
 40
0.7644976197739384
 40
0.7644976197739384
 40
0.7644976197739384
 10
-15.3426886300352
 20
37.16249285079418
 30
0.0
 10
-15.44472766183552
 20
37.0633860519407
 30
0.0
 10
-15.63382694343952
 20
36.8797207742669
 30
0.0
 10
-15.66774433027808
 20
36.61981355136782
 30
0.0
 10
-15.6833596983132
 20
36.5001537071816
 30
0.0
 11
-15.3426886300352
 21
37.16249285079418
 31
0.0
 11
-15.60362075955827
 21
36.84297276370787
 31
0.0
 11
-15.6833596983132
 21
36.5001537071816
 31
0.0
  0
SPLINE
  5
32B
330
67
100
AcDbEntity
  8
0
  6
Continuous
 62
     7
100
AcDbSpline
210
0.0
220
0.0
230
1.0
 70
     8
 71
     3
 72
    11
 73
     7
 74
     5
 42
0.000000001
 43
0.0000000001
 44
0.00000001
 40
0.0
 40
0.0
 40
0.0
 40
0.0
 40
1.184563356297212
 40
2.626250699451494
 40
4.184465941359626
 40
5.683497677775086
 40
5.683497677775086
 40
5.683497677775086
 40
5.683497677775086
 10
5.14868827260814
 20
56.36187857513927
 30
0.0
 10
5.48270675311255
 20
56.57812554516654
 30
0.0
 10
6.223246524499583
 20
57.05755852525895
 30
0.0
 10
7.614684845794443
 20
57.33557492511471
 30
0.0
 10
9.120933552791053
 20
57.41304168231504
 30
0.0
 10
10.12196390255365
 20
57.19891845750874
 30
0.0
 10
10.61278988774591
 20
57.09392938270815
 30
0.0
 11
5.14868827260814
 21
56.36187857513927
 31
0.0
 11
6.177751575455138
 21
56.94858043134814
 31
0.0
 11
7.577513707335811
 21
57.2937302277174
 31
0.0
 11
9.134893069169204
 21
57.34476226892077
 31
0.0
 11
10.61278988774591
 21
57.09392938270815
 31
0.0
  0
SPLINE
  5
32C
330
67
100
AcDbEntity
  8
0
  6
Continuous
 62
     7
100
AcDbSpline
210
0.0
220
0.0
230
1.0
 70
     8
 71
     3
 72
     9
 73
     5
 74
     3
 42
0.000000001
 43
0.0000000001
 44
0.00000001
 40
0.0
 40
0.0
 40
0.0
 40
0.0
 40
1.636869992921842
 40
2.771425584172478
 40
2.771425584172478
 40
2.771425584172478
 40
2.771425584172478
 10
-15.1372101122541
 20
30.8220049062412
 30
0.0
 10
-15.69322413675458
 20
30.99607322396168
 30
0.0
 10
-16.634625396539
 20
31.29079266730074
 30
0.0
 10
-16.99122623380324
 20
32.18712046745819
 30
0.0
 10
-17.1372101122541
 20
32.55405571381009
 30
0.0
 11
-15.1372101122541
 21
30.8220049062412
 31
0.0
 11
-16.60125244129784
 21
31.55407282823126
 31
0.0
 11
-17.1372101122541
 21
32.55405571381009
 31
0.0
  0
SPLINE
  5
32D
330
67
100
AcDbEntity
  8
0
  6
Continuous
 62
     7
100
AcDbSpline
210
0.0
220
0.0
230
1.0
 70
     8
 71
     3
 72
     9
 73
     5
 74
     3
 42
0.000000001
 43
0.0000000001
 44
0.00000001
 40
0.0
 40
0.0
 40
0.0
 40
0.0
 40
0.7155703056779753
 40
1.741183673318271
 40
1.741183673318271
 40
1.741183673318271
 40
1.741183673318271
 10
-15.6833596983132
 20
36.5001537071816
 30
0.0
 10
-15.58517747147787
 20
36.27193262753407
 30
0.0
 10
-15.34627250249513
 20
35.71660660764147
 30
0.0
 10
-14.75740543764143
 20
35.53189051443516
 30
0.0
 10
-14.41054372818699
 20
35.42308678393717
 30
0.0
 11
-15.6833596983132
 21
36.5001537071816
 31
0.0
 11
-15.32970634654622
 21
35.87808443986348
 31
0.0
 11
-14.41054372818699
 21
35.42308678393717
 31
0.0
  0
SPLINE
  5
32E
330
67
100
AcDbEntity
  8
0
  6
Continuous
 62
     7
100
AcDbSpline
210
0.0
220
0.0
230
1.0
 70
     8
 71
     3
 72
     9
 73
     5
 74
     3
 42
0.000000001
 43
0.0000000001
 44
0.00000001
 40
0.0
 40
0.0
 40
0.0
 40
0.0
 40
1.636869992921839
 40
2.771425584172484
 40
2.771425584172484
 40
2.771425584172484
 40
2.771425584172484
 10
-15.1372101122541
 20
34.79377523525886
 30
0.0
 10
-15.69322413675458
 20
34.96784355297934
 30
0.0
 10
-16.634625396539
 20
35.26256299631838
 30
0.0
 10
-16.99122623380324
 20
36.15889079647587
 30
0.0
 10
-17.1372101122541
 20
36.52582604282775
 30
0.0
 11
-15.1372101122541
 21
34.79377523525886
 31
0.0
 11
-16.60125244129784
 21
35.52584315724891
 31
0.0
 11
-17.1372101122541
 21
36.52582604282775
 31
0.0
  0
SPLINE
  5
32F
330
67
100
AcDbEntity
  8
0
  6
Continuous
 62
     2
100
AcDbSpline
210
0.0
220
0.0
230
1.0
 70
     8
 71
     3
 72
     9
 73
     5
 74
     3
 42
0.000000001
 43
0.0000000001
 44
0.00000001
 40
0.0
 40
0.0
 40
0.0
 40
0.0
 40
0.2514263998269681
 40
0.5051049241549919
 40
0.5051049241549919
 40
0.5051049241549919
 40
0.5051049241549919
 10
-17.5697207026017
 20
33.19161529391521
 30
0.0
 10
-17.50360195581909
 20
33.24376292332858
 30
0.0
 10
-17.37077219989941
 20
33.34852527224169
 30
0.0
 10
-17.21529522103826
 20
33.41522398636013
 30
0.0
 10
-17.1372101122541
 20
33.44872203027933
 30
0.0
 11
-17.5697207026017
 21
33.19161529391521
 31
0.0
 11
-17.36575302709866
 21
33.33862693400122
 31
0.0
 11
-17.1372101122541
 21
33.44872203027933
 31
0.0
  0
SPLINE
  5
330
330
67
100
AcDbEntity
  8
0
  6
Continuous
 62
     7
100
AcDbSpline
210
0.0
220
0.0
230
1.0
 70
     8
 71
     3
 72
     9
 73
     5
 74
     3
 42
0.000000001
 43
0.0000000001
 44
0.00000001
 40
0.0
 40
0.0
 40
0.0
 40
0.0
 40
2.344161518171482
 40
3.968958581709618
 40
3.968958581709618
 40
3.968958581709618
 40
3.968958581709618
 10
-16.00141011225411
 20
27.29035793178973
 30
0.0
 10
-16.79767779718559
 20
27.53964116973633
 30
0.0
 10
-18.14585854728506
 20
27.9617088784828
 30
0.0
 10
-18.65654659975631
 20
29.24533992658551
 30
0.0
 10
-18.8656101122541
 20
29.77082789330912
 30
0.0
 11
-16.00141011225411
 21
27.29035793178973
 31
0.0
 11
-18.09806513167765
 21
28.33875240287168
 31
0.0
 11
-18.8656101122541
 21
29.77082789330912
 31
0.0
  0
SPLINE
  5
331
330
67
100
AcDbEntity
  8
0
  6
Continuous
 62
     2
100
AcDbSpline
210
0.0
220
0.0
230
1.0
 70
     8
 71
     3
 72
     9
 73
     5
 74
     3
 42
0.000000001
 43
0.0000000001
 44
0.00000001
 40
0.0
 40
0.0
 40
0.0
 40
0.0
 40
2.344161518171482
 40
3.968958581709631
 40
3.968958581709631
 40
3.968958581709631
 40
3.968958581709631
 10
-16.00141011225411
 20
28.01422296734968
 30
0.0
 10
-16.79767779718559
 20
28.26350620529628
 30
0.0
 10
-18.14585854728507
 20
28.68557391404275
 30
0.0
 10
-18.65654659975631
 20
29.96920496214548
 30
0.0
 10
-18.8656101122541
 20
30.49469292886909
 30
0.0
 11
-16.00141011225411
 21
28.01422296734968
 31
0.0
 11
-18.09806513167765
 21
29.06261743843163
 31
0.0
 11
-18.8656101122541
 21
30.49469292886909
 31
0.0
  0
SPLINE
  5
332
330
67
100
AcDbEntity
  8
0
  6
Continuous
 62
     7
100
AcDbSpline
210
0.0
220
0.0
230
1.0
 70
     8
 71
     3
 72
    11
 73
     7
 74
     5
 42
0.000000001
 43
0.0000000001
 44
0.00000001
 40
0.0
 40
0.0
 40
0.0
 40
0.0
 40
0.8947304613022845
 40
1.516540398570958
 40
2.403044392689906
 40
3.081014604970581
 40
3.081014604970581
 40
3.081014604970581
 40
3.081014604970581
 10
-18.8656101122541
 20
30.49469292886909
 30
0.0
 10
-18.84251956104292
 20
30.79406802505115
 30
0.0
 10
-18.80338177926379
 20
31.30149953150059
 30
0.0
 10
-18.50762373233981
 20
32.05291866822653
 30
0.0
 10
-18.11349835431183
 20
32.67602912101921
 30
0.0
 10
-17.73412391137664
 20
33.03573537265338
 30
0.0
 10
-17.5697207026017
 20
33.19161529391521
 30
0.0
 11
-18.8656101122541
 21
30.49469292886909
 31
0.0
 11
-18.74499259170298
 21
31.38125596336628
 31
0.0
 11
-18.5255396201255
 21
31.96305317314517
 31
0.0
 11
-18.04464961989084
 21
32.70779080734564
 31
0.0
 11
-17.5697207026017
 21
33.19161529391521
 31
0.0
  0
ENDBLK
  5
69
330
67
100
AcDbEntity
  8
0
100
AcDbBlockEnd
  0
BLOCK
  5
6C
330
6A
100
AcDbEntity
  8
0
100
AcDbBlockBegin
  2
Allg1
 70
     0
 10
46.00000000000116
 20
28.63425315183
 30
0.0
  3
Allg1
  1

  0
INSERT
  5
6B
330
6A
100
AcDbEntity
  8
0
100
AcDbBlockReference
  2
1409817_HC_B16_TMS_EEE_PR_DI-select__4
 10
-18.8656101122541
 20
-1.0673765110725
 30
0.0
  0
MTEXT
  5
333
330
6A
100
AcDbEntity
  8
1
 62
     6
100
AcDbMText
 10
46.01870512328003
 20
-10.33464162418736
 30
0.0
 40
5.0
 41
0.0
 71
     2
 72
     1
  1
 
  7
CONVERTER_12
 73
     1
 44
1.32052821128451
  0
ENDBLK
  5
6D
330
6A
100
AcDbEntity
  8
0
100
AcDbBlockEnd
  0
BLOCK
  5
6F
330
6E
100
AcDbEntity
  8
0
100
AcDbBlockBegin
  2
1409817_HC_B16_TMS_EEE_PR_DI-select__5
 70
     0
 10
-236.9000000949324
 20
116.5215999999701
 30
0.0
  3
1409817_HC_B16_TMS_EEE_PR_DI-select__5
  1

  0
LINE
  5
334
330
6E
100
AcDbEntity
  8
0
  6
Continuous
 62
     7
100
AcDbLine
 10
-232.3137947576969
 20
165.7499999999701
 30
0.0
 11
-232.3137947576969
 21
122.2499999999701
 31
0.0
  0
LINE
  5
335
330
6E
100
AcDbEntity
  8
0
  6
Continuous
 62
     7
100
AcDbLine
 10
-232.3137947576969
 20
122.2499999999701
 30
0.0
 11
-232.3137947576969
 21
118.2499999999701
 31
0.0
  0
LINE
  5
336
330
6E
100
AcDbEntity
  8
0
  6
Continuous
 62
     7
100
AcDbLine
 10
-232.3137947576969
 20
169.7499999999701
 30
0.0
 11
-232.3137947576969
 21
165.7499999999701
 31
0.0
  0
LINE
  5
337
330
6E
100
AcDbEntity
  8
0
  6
Continuous
 62
     7
100
AcDbLine
 10
-229.1000000949324
 20
165.7499999999701
 30
0.0
 11
-229.1000000949324
 21
122.2499999999701
 31
0.0
  0
LINE
  5
338
330
6E
100
AcDbEntity
  8
0
  6
Continuous
 62
     7
100
AcDbLine
 10
-229.9358474412074
 20
171.4783999999701
 30
0.0
 11
-229.1000000949324
 21
171.4783999999701
 31
0.0
  0
LINE
  5
339
330
6E
100
AcDbEntity
  8
0
  6
Continuous
 62
     7
100
AcDbLine
 10
-229.1000000949324
 20
171.4783999999701
 30
0.0
 11
-229.1000000949324
 21
165.7499999999701
 31
0.0
  0
LINE
  5
33A
330
6E
100
AcDbEntity
  8
0
  6
Continuous
 62
     2
100
AcDbLine
 10
-229.9358474412074
 20
171.4783999999701
 30
0.0
 11
-229.9358474412074
 21
165.7499999999701
 31
0.0
  0
LINE
  5
33B
330
6E
100
AcDbEntity
  8
0
  6
Continuous
 62
     7
100
AcDbLine
 10
-229.9358474412074
 20
116.5215999999701
 30
0.0
 11
-229.1000000949324
 21
116.5215999999701
 31
0.0
  0
LINE
  5
33C
330
6E
100
AcDbEntity
  8
0
  6
Continuous
 62
     7
100
AcDbLine
 10
-236.9000000949324
 20
118.2499999999701
 30
0.0
 11
-232.3137947576969
 21
118.2499999999701
 31
0.0
  0
LINE
  5
33D
330
6E
100
AcDbEntity
  8
0
  6
Continuous
 62
     2
100
AcDbLine
 10
-229.9358474412074
 20
122.2499999999701
 30
0.0
 11
-229.9358474412074
 21
165.7499999999701
 31
0.0
  0
LINE
  5
33E
330
6E
100
AcDbEntity
  8
0
  6
Continuous
 62
     2
100
AcDbLine
 10
-229.9358474412074
 20
122.2499999999701
 30
0.0
 11
-229.9358474412074
 21
116.5215999999701
 31
0.0
  0
LINE
  5
33F
330
6E
100
AcDbEntity
  8
0
  6
Continuous
 62
     7
100
AcDbLine
 10
-236.9000000949324
 20
122.2499999999701
 30
0.0
 11
-236.9000000949324
 21
118.2499999999701
 31
0.0
  0
LINE
  5
340
330
6E
100
AcDbEntity
  8
0
  6
Continuous
 62
     7
100
AcDbLine
 10
-236.9000000949324
 20
122.2499999999701
 30
0.0
 11
-236.9000000949324
 21
165.7499999999701
 31
0.0
  0
LINE
  5
341
330
6E
100
AcDbEntity
  8
0
  6
Continuous
 62
     7
100
AcDbLine
 10
-236.9000000949324
 20
169.7499999999701
 30
0.0
 11
-236.9000000949324
 21
165.7499999999701
 31
0.0
  0
LINE
  5
342
330
6E
100
AcDbEntity
  8
0
  6
Continuous
 62
     7
100
AcDbLine
 10
-236.9000000949324
 20
169.7499999999701
 30
0.0
 11
-232.3137947576969
 21
169.7499999999701
 31
0.0
  0
LINE
  5
343
330
6E
100
AcDbEntity
  8
0
  6
Continuous
 62
     2
100
AcDbLine
 10
-232.3137947576969
 20
165.7499999999701
 30
0.0
 11
-236.9000000949324
 21
165.7499999999701
 31
0.0
  0
LINE
  5
344
330
6E
100
AcDbEntity
  8
0
  6
Continuous
 62
     2
100
AcDbLine
 10
-236.9000000949324
 20
122.2499999999701
 30
0.0
 11
-232.3137947576969
 21
122.2499999999701
 31
0.0
  0
LINE
  5
345
330
6E
100
AcDbEntity
  8
0
  6
Continuous
 62
     2
100
AcDbLine
 10
-229.9358474412074
 20
165.7499999999701
 30
0.0
 11
-229.1000000949324
 21
165.7499999999701
 31
0.0
  0
LINE
  5
346
330
6E
100
AcDbEntity
  8
0
  6
Continuous
 62
     2
100
AcDbLine
 10
-229.9358474412074
 20
165.7499999999701
 30
0.0
 11
-232.3137947576969
 21
165.7499999999701
 31
0.0
  0
LINE
  5
347
330
6E
100
AcDbEntity
  8
0
  6
Continuous
 62
     7
100
AcDbLine
 10
-229.1000000949324
 20
122.2499999999701
 30
0.0
 11
-229.1000000949324
 21
116.5215999999701
 31
0.0
  0
LINE
  5
348
330
6E
100
AcDbEntity
  8
0
  6
Continuous
 62
     2
100
AcDbLine
 10
-229.9358474412074
 20
122.2499999999701
 30
0.0
 11
-229.1000000949324
 21
122.2499999999701
 31
0.0
  0
LINE
  5
349
330
6E
100
AcDbEntity
  8
0
  6
Continuous
 62
     2
100
AcDbLine
 10
-232.3137947576969
 20
122.2499999999701
 30
0.0
 11
-229.9358474412074
 21
122.2499999999701
 31
0.0
  0
ARC
  5
34A
330
6E
100
AcDbEntity
  8
0
  6
Continuous
 62
     7
100
AcDbCircle
 10
-229.9358474412074
 20
168.9783999999701
 30
0.0
 40
2.5
100
AcDbArc
 50
90.0
 51
162.022710318412
  0
ARC
  5
34B
330
6E
100
AcDbEntity
  8
0
  6
Continuous
 62
     7
100
AcDbCircle
 10
-229.9358474412074
 20
119.0215999999701
 30
0.0
 40
2.499999999999948
100
AcDbArc
 50
197.977289681588
 51
270.0
  0
ENDBLK
  5
70
330
6E
100
AcDbEntity
  8
0
100
AcDbBlockEnd
  0
BLOCK
  5
73
330
71
100
AcDbEntity
  8
0
100
AcDbBlockBegin
  2
SA_Rechts1
 70
     0
 10
-232.99999999978
 20
143.999999999985
 30
0.0
  3
SA_Rechts1
  1

  0
INSERT
  5
72
330
71
100
AcDbEntity
  8
0
100
AcDbBlockReference
  2
1409817_HC_B16_TMS_EEE_PR_DI-select__5
 10
-236.9000000949324
 20
116.5215999999701
 30
0.0
  0
MTEXT
  5
34C
330
71
100
AcDbEntity
  8
1
 62
     6
100
AcDbMText
 10
-232.99999999978
 20
111.5216007232516
 30
0.0
 40
5.0
 41
0.0
 71
     2
 72
     1
  1
 
  7
CONVERTER_12
 73
     1
 44
1.32052821128451
  0
DIMENSION
  5
359
330
71
100
AcDbEntity
  8
1
100
AcDbDimension
  2
*D16
 10
-229.1000000949324
 20
106.5215999999701
 30
0.0
 11
-233.0000000949324
 21
110.4465999999701
 31
0.0
 70
    32
  1
<>
 71
     5
 42
-1.0
 53
0.00013888888889
  3
ME10_DIM_10
100
AcDbAlignedDimension
 13
-236.9000000949324
 23
118.2499999999701
 33
0.0
 14
-229.1000000949324
 24
116.5215999999701
 34
0.0
100
AcDbRotatedDimension
  0
ENDBLK
  5
74
330
71
100
AcDbEntity
  8
0
100
AcDbBlockEnd
  0
BLOCK
  5
76
330
75
100
AcDbEntity
  8
0
100
AcDbBlockBegin
  2
1409817_HC_B16_TMS_EEE_PR_DI-select__6
 70
     0
 10
-200.8283983125751
 20
116.5215999999751
 30
0.0
  3
1409817_HC_B16_TMS_EEE_PR_DI-select__6
  1

  0
LINE
  5
35A
330
75
100
AcDbEntity
  8
0
  6
Continuous
 62
     7
100
AcDbLine
 10
-83.59999831257511
 20
166.4499999999751
 30
0.0
 11
-195.0999983125751
 21
166.4499999999751
 31
0.0
  0
LINE
  5
35B
330
75
100
AcDbEntity
  8
0
  6
Continuous
 62
     7
100
AcDbLine
 10
-195.0999983125751
 20
171.4783999999751
 30
0.0
 11
-83.59999831257511
 21
171.4783999999751
 31
0.0
  0
LINE
  5
35C
330
75
100
AcDbEntity
  8
0
  6
Continuous
 62
     7
100
AcDbLine
 10
-83.59999831257511
 20
169.7499999999751
 30
0.0
 11
-195.0999983125751
 21
169.7499999999751
 31
0.0
  0
LINE
  5
35D
330
75
100
AcDbEntity
  8
0
  6
Continuous
 62
     7
100
AcDbLine
 10
-195.0999983125751
 20
168.2966672318408
 30
0.0
 11
-83.59999831257511
 21
168.2966672318408
 31
0.0
  0
LINE
  5
35E
330
75
100
AcDbEntity
  8
0
  6
Continuous
 62
     7
100
AcDbLine
 10
-83.59999831257511
 20
168.1499999999755
 30
0.0
 11
-195.0999983125751
 21
168.1499999999755
 31
0.0
  0
LINE
  5
35F
330
75
100
AcDbEntity
  8
0
  6
Continuous
 62
     2
100
AcDbLine
 10
-195.0999983125751
 20
168.2966672318408
 30
0.0
 11
-195.0999983125751
 21
168.1499999999755
 31
0.0
  0
LINE
  5
360
330
75
100
AcDbEntity
  8
0
  6
Continuous
 62
     7
100
AcDbLine
 10
-77.87159831257497
 20
165.7499999999751
 30
0.0
 11
-77.87159831257497
 21
122.2499999999751
 31
0.0
  0
LINE
  5
361
330
75
100
AcDbEntity
  8
0
  6
Continuous
 62
     7
100
AcDbLine
 10
-79.59999831257511
 20
122.2499999999751
 30
0.0
 11
-79.59999831257511
 21
165.7499999999751
 31
0.0
  0
LINE
  5
362
330
75
100
AcDbEntity
  8
0
  6
Continuous
 62
     7
100
AcDbLine
 10
-81.05333108070488
 20
165.7499999999751
 30
0.0
 11
-81.05333108070488
 21
122.2499999999751
 31
0.0
  0
LINE
  5
363
330
75
100
AcDbEntity
  8
0
  6
Continuous
 62
     2
100
AcDbLine
 10
-79.59999831257511
 20
122.2499999999751
 30
0.0
 11
-77.87159831257497
 21
122.2499999999751
 31
0.0
  0
LINE
  5
364
330
75
100
AcDbEntity
  8
0
  6
Continuous
 62
     2
100
AcDbLine
 10
-81.19999831257019
 20
122.2499999999751
 30
0.0
 11
-81.05333108070488
 21
122.2499999999751
 31
0.0
  0
LINE
  5
365
330
75
100
AcDbEntity
  8
0
  6
Continuous
 62
     7
100
AcDbLine
 10
-200.8283983125751
 20
122.2499999999751
 30
0.0
 11
-200.8283983125751
 21
165.7499999999751
 31
0.0
  0
LINE
  5
366
330
75
100
AcDbEntity
  8
0
  6
Continuous
 62
     7
100
AcDbLine
 10
-199.0999983125751
 20
165.7499999999751
 30
0.0
 11
-199.0999983125751
 21
122.2499999999751
 31
0.0
  0
LINE
  5
367
330
75
100
AcDbEntity
  8
0
  6
Continuous
 62
     2
100
AcDbLine
 10
-195.0999983125751
 20
119.8499999999747
 30
0.0
 11
-195.0999983125751
 21
119.7033327681093
 31
0.0
  0
LINE
  5
368
330
75
100
AcDbEntity
  8
0
  6
Continuous
 62
     2
100
AcDbLine
 10
-200.8283983125751
 20
122.2499999999751
 30
0.0
 11
-199.0999983125751
 21
122.2499999999751
 31
0.0
  0
LINE
  5
369
330
75
100
AcDbEntity
  8
0
  6
Continuous
 62
     2
100
AcDbLine
 10
-195.0999983125751
 20
118.2499999999751
 30
0.0
 11
-195.0999983125751
 21
116.5215999999751
 31
0.0
  0
LINE
  5
36A
330
75
100
AcDbEntity
  8
0
  6
Continuous
 62
     2
100
AcDbLine
 10
-81.05333108070488
 20
165.7499999999751
 30
0.0
 11
-81.19999831257019
 21
165.7499999999751
 31
0.0
  0
LINE
  5
36B
330
75
100
AcDbEntity
  8
0
  6
Continuous
 62
     2
100
AcDbLine
 10
-77.87159831257497
 20
165.7499999999751
 30
0.0
 11
-79.59999831257511
 21
165.7499999999751
 31
0.0
  0
LINE
  5
36C
330
75
100
AcDbEntity
  8
0
  6
Continuous
 62
     2
100
AcDbLine
 10
-199.0999983125751
 20
165.7499999999751
 30
0.0
 11
-200.8283983125751
 21
165.7499999999751
 31
0.0
  0
LINE
  5
36D
330
75
100
AcDbEntity
  8
0
  6
Continuous
 62
     2
100
AcDbLine
 10
-195.0999983125751
 20
171.4783999999751
 30
0.0
 11
-195.0999983125751
 21
169.7499999999751
 31
0.0
  0
LINE
  5
36E
330
75
100
AcDbEntity
  8
0
  6
Continuous
 62
     2
100
AcDbLine
 10
-197.4999983125799
 20
165.7499999999751
 30
0.0
 11
-197.6466655444452
 21
165.7499999999751
 31
0.0
  0
LINE
  5
36F
330
75
100
AcDbEntity
  8
0
  6
Continuous
 62
     7
100
AcDbLine
 10
-195.0999983125751
 20
121.5499999999751
 30
0.0
 11
-83.59999831257511
 21
121.5499999999751
 31
0.0
  0
LINE
  5
370
330
75
100
AcDbEntity
  8
0
  6
Continuous
 62
     7
100
AcDbLine
 10
-195.0999983125751
 20
119.8499999999747
 30
0.0
 11
-83.59999831257511
 21
119.8499999999703
 31
0.0
  0
LINE
  5
371
330
75
100
AcDbEntity
  8
0
  6
Continuous
 62
     7
100
AcDbLine
 10
-83.59999831257511
 20
116.5215999999751
 30
0.0
 11
-195.0999983125751
 21
116.5215999999751
 31
0.0
  0
LINE
  5
372
330
75
100
AcDbEntity
  8
0
  6
Continuous
 62
     7
100
AcDbLine
 10
-195.0999983125751
 20
118.2499999999751
 30
0.0
 11
-83.59999831257511
 21
118.2499999999751
 31
0.0
  0
LINE
  5
373
330
75
100
AcDbEntity
  8
0
  6
Continuous
 62
     7
100
AcDbLine
 10
-83.59999831257511
 20
119.7033327681049
 30
0.0
 11
-195.0999983125751
 21
119.7033327681093
 31
0.0
  0
LINE
  5
374
330
75
100
AcDbEntity
  8
0
  6
Continuous
 62
     7
100
AcDbLine
 10
-81.19999831257019
 20
122.2499999999751
 30
0.0
 11
-81.19999831257019
 21
165.7499999999751
 31
0.0
  0
LINE
  5
375
330
75
100
AcDbEntity
  8
0
  6
Continuous
 62
     2
100
AcDbLine
 10
-83.59999831257511
 20
169.7499999999751
 30
0.0
 11
-83.59999831257511
 21
171.4783999999751
 31
0.0
  0
LINE
  5
376
330
75
100
AcDbEntity
  8
0
  6
Continuous
 62
     2
100
AcDbLine
 10
-83.59999831257511
 20
116.5215999999751
 30
0.0
 11
-83.59999831257511
 21
118.2499999999751
 31
0.0
  0
LINE
  5
377
330
75
100
AcDbEntity
  8
0
  6
Continuous
 62
     2
100
AcDbLine
 10
-83.59999831257511
 20
119.7033327681049
 30
0.0
 11
-83.59999831257511
 21
119.8499999999703
 31
0.0
  0
LINE
  5
378
330
75
100
AcDbEntity
  8
0
  6
Continuous
 62
     2
100
AcDbLine
 10
-83.59999831257511
 20
168.1499999999755
 30
0.0
 11
-83.59999831257511
 21
168.2966672318408
 31
0.0
  0
LINE
  5
379
330
75
100
AcDbEntity
  8
0
  6
Continuous
 62
     7
100
AcDbLine
 10
-82.89999831257506
 20
122.2499999999751
 30
0.0
 11
-82.89999831257506
 21
165.7499999999751
 31
0.0
  0
LINE
  5
37A
330
75
100
AcDbEntity
  8
0
  6
Continuous
 62
     7
100
AcDbLine
 10
-197.4999983125799
 20
165.7499999999751
 30
0.0
 11
-197.4999983125799
 21
122.2499999999751
 31
0.0
  0
LINE
  5
37B
330
75
100
AcDbEntity
  8
0
  6
Continuous
 62
     7
100
AcDbLine
 10
-197.6466655444452
 20
122.2499999999751
 30
0.0
 11
-197.6466655444452
 21
165.7499999999751
 31
0.0
  0
LINE
  5
37C
330
75
100
AcDbEntity
  8
0
  6
Continuous
 62
     2
100
AcDbLine
 10
-197.6466655444452
 20
122.2499999999751
 30
0.0
 11
-197.4999983125799
 21
122.2499999999751
 31
0.0
  0
LINE
  5
37D
330
75
100
AcDbEntity
  8
0
  6
Continuous
 62
     7
100
AcDbLine
 10
-195.799998312575
 20
165.7499999999751
 30
0.0
 11
-195.799998312575
 21
122.2499999999751
 31
0.0
  0
ARC
  5
37E
330
75
100
AcDbEntity
  8
0
  6
Continuous
 62
     7
100
AcDbCircle
 10
-195.0999983125751
 20
165.7499999999751
 30
0.0
 40
5.728399999999993
100
AcDbArc
 50
90.0
 51
180.0
  0
ARC
  5
37F
330
75
100
AcDbEntity
  8
0
  6
Continuous
 62
     7
100
AcDbCircle
 10
-83.59999831257511
 20
122.2499999999751
 30
0.0
 40
5.728400000000008
100
AcDbArc
 50
270.0
 51
0.0
  0
ARC
  5
380
330
75
100
AcDbEntity
  8
0
  6
Continuous
 62
     7
100
AcDbCircle
 10
-83.59999831257511
 20
122.2499999999751
 30
0.0
 40
4.0
100
AcDbArc
 50
270.0
 51
0.0
  0
ARC
  5
381
330
75
100
AcDbEntity
  8
0
  6
Continuous
 62
     7
100
AcDbCircle
 10
-83.59999831257511
 20
122.2499999999751
 30
0.0
 40
2.546667231870202
100
AcDbArc
 50
270.0
 51
0.0
  0
ARC
  5
382
330
75
100
AcDbEntity
  8
0
  6
Continuous
 62
     7
100
AcDbCircle
 10
-83.59999831257511
 20
122.2499999999751
 30
0.0
 40
2.400000000004809
100
AcDbArc
 50
270.0
 51
0.0
  0
ARC
  5
383
330
75
100
AcDbEntity
  8
0
  6
Continuous
 62
     7
100
AcDbCircle
 10
-83.59999831257511
 20
122.2499999999751
 30
0.0
 40
0.7000000000000028
100
AcDbArc
 50
270.0
 51
0.0
  0
ARC
  5
384
330
75
100
AcDbEntity
  8
0
  6
Continuous
 62
     7
100
AcDbCircle
 10
-195.0999983125773
 20
122.2499999999773
 30
0.0
 40
2.400000000002592
100
AcDbArc
 50
180.0000000000526
 51
270.0000000000522
  0
ARC
  5
385
330
75
100
AcDbEntity
  8
0
  6
Continuous
 62
     7
100
AcDbCircle
 10
-195.0999983125751
 20
122.2499999999751
 30
0.0
 40
5.728399999999993
100
AcDbArc
 50
180.0
 51
270.0
  0
ARC
  5
386
330
75
100
AcDbEntity
  8
0
  6
Continuous
 62
     7
100
AcDbCircle
 10
-195.0999983125751
 20
122.2499999999751
 30
0.0
 40
0.6999999999999034
100
AcDbArc
 50
180.0
 51
270.0
  0
ARC
  5
387
330
75
100
AcDbEntity
  8
0
  6
Continuous
 62
     7
100
AcDbCircle
 10
-195.0999983125751
 20
122.2499999999751
 30
0.0
 40
4.0
100
AcDbArc
 50
180.0
 51
270.0
  0
ARC
  5
388
330
75
100
AcDbEntity
  8
0
  6
Continuous
 62
     7
100
AcDbCircle
 10
-83.59999831257511
 20
165.7499999999751
 30
0.0
 40
5.728400000000136
100
AcDbArc
 50
0.0
 51
90.0
  0
ARC
  5
389
330
75
100
AcDbEntity
  8
0
  6
Continuous
 62
     7
100
AcDbCircle
 10
-83.59999831257511
 20
165.7499999999751
 30
0.0
 40
4.0
100
AcDbArc
 50
0.0
 51
90.0
  0
ARC
  5
38A
330
75
100
AcDbEntity
  8
0
  6
Continuous
 62
     7
100
AcDbCircle
 10
-83.59999831257284
 20
165.7499999999728
 30
0.0
 40
2.546667231867957
100
AcDbArc
 50
0.00000000005179
 51
90.00000000005116
  0
ARC
  5
38B
330
75
100
AcDbEntity
  8
0
  6
Continuous
 62
     7
100
AcDbCircle
 10
-83.59999831257284
 20
165.7499999999728
 30
0.0
 40
2.400000000002649
100
AcDbArc
 50
0.00000000005496
 51
90.00000000005427
  0
ARC
  5
38C
330
75
100
AcDbEntity
  8
0
  6
Continuous
 62
     7
100
AcDbCircle
 10
-83.59999831257511
 20
165.7499999999751
 30
0.0
 40
0.7000000000000455
100
AcDbArc
 50
0.0
 51
90.0
  0
ARC
  5
38D
330
75
100
AcDbEntity
  8
0
  6
Continuous
 62
     7
100
AcDbCircle
 10
-195.0999983125773
 20
165.7499999999729
 30
0.0
 40
2.400000000002592
100
AcDbArc
 50
89.99999999994776
 51
179.9999999999478
  0
ARC
  5
38E
330
75
100
AcDbEntity
  8
0
  6
Continuous
 62
     7
100
AcDbCircle
 10
-195.0999983125751
 20
165.7499999999751
 30
0.0
 40
4.0
100
AcDbArc
 50
90.0
 51
180.0
  0
ARC
  5
38F
330
75
100
AcDbEntity
  8
0
  6
Continuous
 62
     7
100
AcDbCircle
 10
-195.0999983125773
 20
165.7499999999729
 30
0.0
 40
2.546667231867872
100
AcDbArc
 50
89.99999999995077
 51
179.9999999999508
  0
ARC
  5
390
330
75
100
AcDbEntity
  8
0
  6
Continuous
 62
     7
100
AcDbCircle
 10
-195.0999983125751
 20
165.7499999999751
 30
0.0
 40
0.6999999999999886
100
AcDbArc
 50
90.0
 51
180.0
  0
ARC
  5
391
330
75
100
AcDbEntity
  8
0
  6
Continuous
 62
     7
100
AcDbCircle
 10
-195.0999983125773
 20
122.2499999999773
 30
0.0
 40
2.5466672318679
100
AcDbArc
 50
180.0000000000495
 51
270.0000000000492
  0
ENDBLK
  5
77
330
75
100
AcDbEntity
  8
0
100
AcDbBlockEnd
  0
BLOCK
  5
7A
330
78
100
AcDbEntity
  8
0
100
AcDbBlockBegin
  2
Vordans1
 70
     0
 10
-139.3715983125899
 20
143.99999999999
 30
0.0
  3
Vordans1
  1

  0
INSERT
  5
79
330
78
100
AcDbEntity
  8
0
100
AcDbBlockReference
  2
1409817_HC_B16_TMS_EEE_PR_DI-select__6
 10
-200.8283983125751
 20
116.5215999999751
 30
0.0
  0
MTEXT
  5
392
330
78
100
AcDbEntity
  8
1
 62
     6
100
AcDbMText
 10
-139.3715983125916
 20
111.5216007232566
 30
0.0
 40
5.0
 41
0.0
 71
     2
 72
     1
  1
 
  7
CONVERTER_12
 73
     1
 44
1.32052821128451
  0
DIMENSION
  5
39D
330
78
100
AcDbEntity
  8
1
100
AcDbDimension
  2
*D17
 10
-200.8283983125752
 20
106.5215999999751
 30
0.0
 11
-139.3499983125751
 21
110.2715999999751
 31
0.0
 70
    32
  1
<>
 71
     5
 42
-1.0
 53
0.00013888888889
  3
ME10_DIM_11
100
AcDbAlignedDimension
 13
-77.87159831257497
 23
122.2499999999751
 33
0.0
 14
-200.8283983125751
 24
122.2499999999751
 34
0.0
100
AcDbRotatedDimension
  0
DIMENSION
  5
3A8
330
78
100
AcDbEntity
  8
1
100
AcDbDimension
  2
*D18
 10
-67.87159831257497
 20
116.5215999999751
 30
0.0
 11
-71.62159831257497
 21
143.9999999999751
 31
0.0
 70
    32
  1
<>
 71
     5
 42
-1.0
 53
90.0
  3
ME10_DIM_12
100
AcDbAlignedDimension
 13
-83.59999831257511
 23
171.4783999999751
 33
0.0
 14
-83.59999831257511
 24
116.5215999999751
 34
0.0
 50
90.0
100
AcDbRotatedDimension
  0
ENDBLK
  5
7B
330
78
100
AcDbEntity
  8
0
100
AcDbBlockEnd
  0
BLOCK
  5
356
330
34D
100
AcDbEntity
  8
0
100
AcDbBlockBegin
  2
*D16
 70
     1
 10
0.0
 20
0.0
 30
0.0
  3
*D16
  1

  0
LINE
  5
34E
330
34D
100
AcDbEntity
  8
1
  6
Continuous
 62
     2
100
AcDbLine
 10
-236.9000000949324
 20
106.5215999999701
 30
0.0
 11
-243.9000000949324
 21
106.5215999999701
 31
0.0
  0
LINE
  5
34F
330
34D
100
AcDbEntity
  8
1
  6
Continuous
 62
     2
100
AcDbLine
 10
-229.1000000949324
 20
106.5215999999701
 30
0.0
 11
-236.9000000949324
 21
106.5215999999701
 31
0.0
  0
LINE
  5
350
330
34D
100
AcDbEntity
  8
1
  6
Continuous
 62
     2
100
AcDbLine
 10
-222.1000000949324
 20
106.5215999999701
 30
0.0
 11
-229.1000000949324
 21
106.5215999999701
 31
0.0
  0
LINE
  5
351
330
34D
100
AcDbEntity
  8
1
  6
Continuous
 62
     2
100
AcDbLine
 10
-236.9000000949324
 20
118.2499999999701
 30
0.0
 11
-236.9000000949324
 21
104.5215999999701
 31
0.0
  0
LINE
  5
352
330
34D
100
AcDbEntity
  8
1
  6
Continuous
 62
     2
100
AcDbLine
 10
-229.1000000949324
 20
116.5215999999701
 30
0.0
 11
-229.1000000949324
 21
104.5215999999701
 31
0.0
  0
SOLID
  5
353
330
34D
100
AcDbEntity
  8
1
 62
     2
100
AcDbTrace
 10
-225.6000000949324
 20
106.982383741526
 30
0.0
 11
-225.6000000949324
 21
106.0608162584142
 31
0.0
 12
-229.1000000949324
 22
106.5215999999701
 32
0.0
 13
-229.1000000949324
 23
106.5215999999701
 33
0.0
  0
SOLID
  5
354
330
34D
100
AcDbEntity
  8
1
 62
     2
100
AcDbTrace
 10
-240.4000000949324
 20
106.0608162584142
 30
0.0
 11
-240.4000000949324
 21
106.982383741526
 31
0.0
 12
-236.9000000949324
 22
106.5215999999701
 32
0.0
 13
-236.9000000949324
 23
106.5215999999701
 33
0.0
  0
MTEXT
  5
355
330
34D
100
AcDbEntity
  8
1
 62
     3
100
AcDbMText
 10
-236.2375000949324
 20
108.8715999999701
 30
0.0
 40
3.5
 41
0.0
 71
     7
 72
     1
  1
7,8
  7
CONVERTER_12
 11
0.9999999999970619
 21
2.424068405545306E-6
 31
0.0
 73
     1
 44
0.60024009603842
  0
ENDBLK
  5
357
330
34D
100
AcDbEntity
  8
0
100
AcDbBlockEnd
  0
BLOCK
  5
39A
330
393
100
AcDbEntity
  8
0
100
AcDbBlockBegin
  2
*D17
 70
     1
 10
0.0
 20
0.0
 30
0.0
  3
*D17
  1

  0
LINE
  5
394
330
393
100
AcDbEntity
  8
1
  6
Continuous
 62
     2
100
AcDbLine
 10
-200.8283983125752
 20
106.5215999999751
 30
0.0
 11
-77.87159831257503
 21
106.5215999999751
 31
0.0
  0
LINE
  5
395
330
393
100
AcDbEntity
  8
1
  6
Continuous
 62
     2
100
AcDbLine
 10
-77.87159831257503
 20
122.2499999999751
 30
0.0
 11
-77.87159831257503
 21
104.5215999999751
 31
0.0
  0
LINE
  5
396
330
393
100
AcDbEntity
  8
1
  6
Continuous
 62
     2
100
AcDbLine
 10
-200.8283983125752
 20
122.2499999999751
 30
0.0
 11
-200.8283983125752
 21
104.5215999999751
 31
0.0
  0
SOLID
  5
397
330
393
100
AcDbEntity
  8
1
 62
     2
100
AcDbTrace
 10
-197.3283983125752
 20
106.982383741531
 30
0.0
 11
-197.3283983125752
 21
106.0608162584192
 31
0.0
 12
-200.8283983125752
 22
106.5215999999751
 32
0.0
 13
-200.8283983125752
 23
106.5215999999751
 33
0.0
  0
SOLID
  5
398
330
393
100
AcDbEntity
  8
1
 62
     2
100
AcDbTrace
 10
-81.37159831257503
 20
106.0608162584192
 30
0.0
 11
-81.37159831257503
 21
106.982383741531
 31
0.0
 12
-77.87159831257503
 22
106.5215999999751
 32
0.0
 13
-77.87159831257503
 23
106.5215999999751
 33
0.0
  0
MTEXT
  5
399
330
393
100
AcDbEntity
  8
1
 62
     3
100
AcDbMText
 10
-143.0249983125751
 20
108.5215999999751
 30
0.0
 40
3.5
 41
0.0
 71
     7
 72
     1
  1
123
  7
CONVERTER_12
 11
0.9999999999970619
 21
2.424068405545306E-6
 31
0.0
 73
     1
 44
0.60024009603842
  0
ENDBLK
  5
39B
330
393
100
AcDbEntity
  8
0
100
AcDbBlockEnd
  0
BLOCK
  5
3A5
330
39E
100
AcDbEntity
  8
0
100
AcDbBlockBegin
  2
*D18
 70
     1
 10
0.0
 20
0.0
 30
0.0
  3
*D18
  1

  0
LINE
  5
39F
330
39E
100
AcDbEntity
  8
1
  6
Continuous
 62
     2
100
AcDbLine
 10
-67.87159831257497
 20
116.5215999999751
 30
0.0
 11
-67.87159831257497
 21
171.4783999999751
 31
0.0
  0
LINE
  5
3A0
330
39E
100
AcDbEntity
  8
1
  6
Continuous
 62
     2
100
AcDbLine
 10
-83.59999831257511
 20
171.4783999999751
 30
0.0
 11
-65.87159831257497
 21
171.4783999999751
 31
0.0
  0
LINE
  5
3A1
330
39E
100
AcDbEntity
  8
1
  6
Continuous
 62
     2
100
AcDbLine
 10
-83.59999831257511
 20
116.5215999999751
 30
0.0
 11
-65.87159831257497
 21
116.5215999999751
 31
0.0
  0
SOLID
  5
3A2
330
39E
100
AcDbEntity
  8
1
 62
     2
100
AcDbTrace
 10
-68.33238205413086
 20
120.0215999999751
 30
0.0
 11
-67.41081457101909
 21
120.0215999999751
 31
0.0
 12
-67.87159831257497
 22
116.5215999999751
 32
0.0
 13
-67.87159831257497
 23
116.5215999999751
 33
0.0
  0
SOLID
  5
3A3
330
39E
100
AcDbEntity
  8
1
 62
     2
100
AcDbTrace
 10
-67.41081457101909
 20
167.9783999999751
 30
0.0
 11
-68.33238205413086
 21
167.9783999999751
 31
0.0
 12
-67.87159831257497
 22
171.4783999999751
 32
0.0
 13
-67.87159831257497
 23
171.4783999999751
 33
0.0
  0
MTEXT
  5
3A4
330
39E
100
AcDbEntity
  8
1
 62
     3
100
AcDbMText
 10
-69.87159831257497
 20
141.3749999999751
 30
0.0
 40
3.5
 41
0.0
 71
     7
 72
     1
  1
55
  7
CONVERTER_12
 11
0.0
 21
1.0
 31
0.0
 73
     1
 44
0.60024009603842
  0
ENDBLK
  5
3A6
330
39E
100
AcDbEntity
  8
0
100
AcDbBlockEnd
  0
ENDSEC
  0
SECTION
  2
ENTITIES
  0
INSERT
  5
7C
330
1F
100
AcDbEntity
  8
0
100
AcDbBlockReference
  2
A3I
 10
130.9747181748841
 20
-55.4007317048217
 30
0.0
  0
INSERT
  5
7D
330
1F
100
AcDbEntity
  8
0
100
AcDbBlockReference
  2
Drfsicht1
 10
-139.3715980000002
 20
79.447745
 30
0.0
  0
INSERT
  5
7E
330
1F
100
AcDbEntity
  8
0
100
AcDbBlockReference
  2
Rckans1
 10
46.287557
 20
144.0
 30
0.0
  0
INSERT
  5
7F
330
1F
100
AcDbEntity
  8
0
100
AcDbBlockReference
  2
SA_Links1
 10
-40.8408437202142
 20
144.0000001484004
 30
0.0
  0
INSERT
  5
80
330
1F
100
AcDbEntity
  8
0
100
AcDbBlockReference
  2
Allg1
 10
46.00000000000116
 20
28.63425315183
 30
0.0
  0
INSERT
  5
81
330
1F
100
AcDbEntity
  8
0
100
AcDbBlockReference
  2
SA_Rechts1
 10
-232.99999999978
 20
143.999999999985
 30
0.0
  0
INSERT
  5
82
330
1F
100
AcDbEntity
  8
0
100
AcDbBlockReference
  2
Vordans1
 10
-139.3715983125899
 20
143.99999999999
 30
0.0
  0
ENDSEC
  0
SECTION
  2
OBJECTS
  0
DICTIONARY
  5
C
330
0
100
AcDbDictionary
281
     1
  3
ACAD_GROUP
350
D
  3
ACAD_LAYOUT
350
1A
  3
ACAD_MATERIAL
350
3B
  3
ACAD_MLEADERSTYLE
350
3AB
  3
ACAD_MLINESTYLE
350
17
  3
ACAD_PLOTSETTINGS
350
19
  3
ACAD_PLOTSTYLENAME
350
E
  3
ACAD_VISUALSTYLE
350
2A
  3
AcDbVariableDictionary
350
3A9
  0
DICTIONARY
  5
D
102
{ACAD_REACTORS
330
C
102
}
330
C
100
AcDbDictionary
281
     1
  0
DICTIONARY
  5
1A
102
{ACAD_REACTORS
330
C
102
}
330
C
100
AcDbDictionary
281
     1
  3
Layout1
350
1E
  3
Layout2
350
26
  3
Model
350
22
  0
DICTIONARY
  5
3B
102
{ACAD_REACTORS
330
C
102
}
330
C
100
AcDbDictionary
281
     1
  3
ByBlock
350
3D
  3
ByLayer
350
3C
  3
Global
350
3E
  0
DICTIONARY
  5
3AB
102
{ACAD_REACTORS
330
C
102
}
330
C
100
AcDbDictionary
281
     1
  0
DICTIONARY
  5
17
102
{ACAD_REACTORS
330
C
102
}
330
C
100
AcDbDictionary
281
     1
  3
Standard
350
18
  0
DICTIONARY
  5
19
102
{ACAD_REACTORS
330
C
102
}
330
C
100
AcDbDictionary
281
     1
  0
ACDBDICTIONARYWDFLT
  5
E
102
{ACAD_REACTORS
330
C
102
}
330
C
100
AcDbDictionary
281
     1
  3
Normal
350
F
100
AcDbDictionaryWithDefault
340
F
  0
DICTIONARY
  5
2A
102
{ACAD_REACTORS
330
C
102
}
330
C
100
AcDbDictionary
281
     1
  3
2dWireframe
350
2F
  3
3D Hidden
350
31
  3
3dWireframe
350
30
  3
Basic
350
32
  3
Brighten
350
36
  3
ColorChange
350
3A
  3
Conceptual
350
34
  3
Dim
350
35
  3
Facepattern
350
39
  3
Flat
350
2B
  3
FlatWithEdges
350
2C
  3
Gouraud
350
2D
  3
GouraudWithEdges
350
2E
  3
Linepattern
350
38
  3
Realistic
350
33
  3
Thicken
350
37
  0
DICTIONARY
  5
3A9
102
{ACAD_REACTORS
330
C
102
}
330
C
100
AcDbDictionary
281
     1
  3
DIMASSOC
350
3AC
  3
HIDETEXT
350
3AD
  0
LAYOUT
  5
1E
102
{ACAD_REACTORS
330
1A
102
}
330
1A
100
AcDbPlotSettings
  1

  2
none_device
  4

  6

 40
0.0
 41
0.0
 42
0.0
 43
0.0
 44
0.0
 45
0.0
 46
0.0
 47
0.0
 48
0.0
 49
0.0
140
0.0
141
0.0
142
1.0
143
1.0
 70
   688
 72
     0
 73
     0
 74
     5
  7

 75
    16
147
1.0
148
0.0
149
0.0
100
AcDbLayout
  1
Layout1
 70
     1
 71
     1
 10
0.0
 20
0.0
 11
12.0
 21
9.0
 12
0.0
 22
0.0
 32
0.0
 14
1.00000000000000E+20
 24
1.00000000000000E+20
 34
1.00000000000000E+20
 15
-1.00000000000000E+20
 25
-1.00000000000000E+20
 35
-1.00000000000000E+20
146
0.0
 13
0.0
 23
0.0
 33
0.0
 16
1.0
 26
0.0
 36
0.0
 17
0.0
 27
1.0
 37
0.0
 76
     0
330
1B
  0
LAYOUT
  5
26
102
{ACAD_REACTORS
330
1A
102
}
330
1A
100
AcDbPlotSettings
  1

  2
none_device
  4

  6

 40
0.0
 41
0.0
 42
0.0
 43
0.0
 44
0.0
 45
0.0
 46
0.0
 47
0.0
 48
0.0
 49
0.0
140
0.0
141
0.0
142
1.0
143
1.0
 70
   688
 72
     0
 73
     0
 74
     5
  7

 75
    16
147
1.0
148
0.0
149
0.0
100
AcDbLayout
  1
Layout2
 70
     1
 71
     2
 10
0.0
 20
0.0
 11
0.0
 21
0.0
 12
0.0
 22
0.0
 32
0.0
 14
0.0
 24
0.0
 34
0.0
 15
0.0
 25
0.0
 35
0.0
146
0.0
 13
0.0
 23
0.0
 33
0.0
 16
1.0
 26
0.0
 36
0.0
 17
0.0
 27
1.0
 37
0.0
 76
     0
330
23
  0
LAYOUT
  5
22
102
{ACAD_REACTORS
330
1A
102
}
330
1A
100
AcDbPlotSettings
  1

  2
none_device
  4

  6

 40
0.0
 41
0.0
 42
0.0
 43
0.0
 44
0.0
 45
0.0
 46
0.0
 47
0.0
 48
0.0
 49
0.0
140
0.0
141
0.0
142
1.0
143
1.0
 70
  1712
 72
     0
 73
     0
 74
     0
  7

 75
     0
147
1.0
148
0.0
149
0.0
100
AcDbLayout
  1
Model
 70
     1
 71
     0
 10
0.0
 20
0.0
 11
12.0
 21
9.0
 12
0.0
 22
0.0
 32
0.0
 14
-284.0252818251167
 24
-55.4007317048217
 34
0.0
 15
135.9747181748817
 25
241.5992682951783
 35
0.0
146
0.0
 13
0.0
 23
0.0
 33
0.0
 16
1.0
 26
0.0
 36
0.0
 17
0.0
 27
1.0
 37
0.0
 76
     0
330
1F
331
29
  0
MATERIAL
  5
3D
102
{ACAD_REACTORS
330
3B
102
}
102
{ACAD_XDICTIONARY
360
3D0
102
}
330
3B
100
AcDbMaterial
  1
ByBlock
  0
MATERIAL
  5
3C
102
{ACAD_REACTORS
330
3B
102
}
102
{ACAD_XDICTIONARY
360
3CE
102
}
330
3B
100
AcDbMaterial
  1
ByLayer
  0
MATERIAL
  5
3E
102
{ACAD_REACTORS
330
3B
102
}
102
{ACAD_XDICTIONARY
360
3D2
102
}
330
3B
100
AcDbMaterial
  1
Global
  0
MLINESTYLE
  5
18
102
{ACAD_REACTORS
330
17
102
}
330
17
100
AcDbMlineStyle
  2
Standard
 70
     0
  3

 62
   256
 51
90.0
 52
90.0
 71
     2
 49
0.5
 62
   256
  6
BYLAYER
 49
-0.5
 62
   256
  6
BYLAYER
  0
ACDBPLACEHOLDER
  5
F
102
{ACAD_REACTORS
330
E
102
}
330
E
  0
VISUALSTYLE
  5
2F
102
{ACAD_REACTORS
330
2A
102
}
102
{ACAD_XDICTIONARY
360
3B6
102
}
330
2A
100
AcDbVisualStyle
  2
2dWireframe
 70
     4
 71
     0
 72
     2
 73
     0
 90
        0
 40
-0.6
 41
-30.0
 62
     5
 63
     7
 74
     1
 91
        4
 64
     7
 65
   257
 75
     1
175
     1
 42
1.0
 92
        0
 66
   257
 43
1.0
 76
     1
 77
     6
 78
     2
 67
     7
 79
     5
170
     0
171
     0
290
     0
174
     0
 93
        1
 44
0.0
173
     0
291
     0
 45
0.0
1001
ACAD
1000
AcDbSavedByObjectVersion
1070
     0
  0
VISUALSTYLE
  5
31
102
{ACAD_REACTORS
330
2A
102
}
102
{ACAD_XDICTIONARY
360
3BA
102
}
330
2A
100
AcDbVisualStyle
  2
3D Hidden
 70
     6
 71
     1
 72
     2
 73
     2
 90
        0
 40
-0.6
 41
-30.0
 62
     5
 63
     7
 74
     2
 91
        2
 64
     7
 65
   257
 75
     2
175
     1
 42
40.0
 92
        0
 66
   257
 43
1.0
 76
     1
 77
     6
 78
     2
 67
     7
 79
     3
170
     0
171
     0
290
     0
174
     0
 93
        1
 44
0.0
173
     0
291
     0
 45
0.0
1001
ACAD
1000
AcDbSavedByObjectVersion
1070
     0
  0
VISUALSTYLE
  5
30
102
{ACAD_REACTORS
330
2A
102
}
102
{ACAD_XDICTIONARY
360
3B8
102
}
330
2A
100
AcDbVisualStyle
  2
3dWireframe
 70
     5
 71
     0
 72
     2
 73
     0
 90
        0
 40
-0.6
 41
-30.0
 62
     5
 63
     7
 74
     1
 91
        4
 64
     7
 65
   257
 75
     1
175
     1
 42
1.0
 92
        0
 66
   257
 43
1.0
 76
     1
 77
     6
 78
     2
 67
     7
 79
     5
170
     0
171
     0
290
     0
174
     0
 93
        1
 44
0.0
173
     0
291
     0
 45
0.0
1001
ACAD
1000
AcDbSavedByObjectVersion
1070
     0
  0
VISUALSTYLE
  5
32
102
{ACAD_REACTORS
330
2A
102
}
102
{ACAD_XDICTIONARY
360
3BC
102
}
330
2A
100
AcDbVisualStyle
  2
Basic
 70
     7
 71
     1
 72
     0
 73
     1
 90
        0
 40
-0.6
 41
-30.0
 62
     5
 63
     7
 74
     0
 91
        4
 64
     7
 65
   257
 75
     1
175
     1
 42
1.0
 92
        8
 66
     7
 43
1.0
 76
     1
 77
     6
 78
     2
 67
     7
 79
     5
170
     0
171
     0
290
     0
174
     0
 93
        1
 44
0.0
173
     0
291
     1
 45
0.0
1001
ACAD
1000
AcDbSavedByObjectVersion
1070
     0
  0
VISUALSTYLE
  5
36
102
{ACAD_REACTORS
330
2A
102
}
102
{ACAD_XDICTIONARY
360
3C4
102
}
330
2A
100
AcDbVisualStyle
  2
Brighten
 70
    12
 71
     2
 72
     2
 73
     0
 90
        0
 40
-0.6
 41
-30.0
 62
     5
 63
     7
 74
     1
 91
        4
 64
     7
 65
   257
 75
     1
175
     1
 42
1.0
 92
        8
 66
     7
 43
1.0
 76
     1
 77
     6
 78
     2
 67
     7
 79
     5
170
     0
171
     0
290
     0
174
     0
 93
        1
 44
50.0
173
     0
291
     1
 45
0.0
1001
ACAD
1000
AcDbSavedByObjectVersion
1070
     0
  0
VISUALSTYLE
  5
3A
102
{ACAD_REACTORS
330
2A
102
}
102
{ACAD_XDICTIONARY
360
3CC
102
}
330
2A
100
AcDbVisualStyle
  2
ColorChange
 70
    16
 71
     2
 72
     2
 73
     3
 90
        0
 40
-0.6
 41
-30.0
 62
     5
 63
     8
 74
     1
 91
        4
 64
     7
 65
   257
 75
     1
175
     1
 42
1.0
 92
        8
 66
     8
 43
1.0
 76
     1
 77
     6
 78
     2
 67
     7
 79
     5
170
     0
171
     0
290
     0
174
     0
 93
        1
 44
0.0
173
     0
291
     1
 45
0.0
1001
ACAD
1000
AcDbSavedByObjectVersion
1070
     0
  0
VISUALSTYLE
  5
34
102
{ACAD_REACTORS
330
2A
102
}
102
{ACAD_XDICTIONARY
360
3C0
102
}
330
2A
100
AcDbVisualStyle
  2
Conceptual
 70
     9
 71
     3
 72
     2
 73
     0
 90
        0
 40
-0.6
 41
-30.0
 62
     5
 63
     7
 74
     2
 91
        2
 64
     7
 65
   257
 75
     1
175
     1
 42
40.0
 92
        8
 66
     7
 43
1.0
 76
     1
 77
     6
 78
     2
 67
     7
 79
     3
170
     0
171
     0
290
     0
174
     0
 93
        1
 44
0.0
173
     0
291
     0
 45
0.0
1001
ACAD
1000
AcDbSavedByObjectVersion
1070
     0
  0
VISUALSTYLE
  5
35
102
{ACAD_REACTORS
330
2A
102
}
102
{ACAD_XDICTIONARY
360
3C2
102
}
330
2A
100
AcDbVisualStyle
  2
Dim
 70
    11
 71
     2
 72
     2
 73
     0
 90
        0
 40
-0.6
 41
-30.0
 62
     5
 63
     7
 74
     1
 91
        4
 64
     7
 65
   257
 75
     1
175
     1
 42
1.0
 92
        8
 66
     7
 43
1.0
 76
     1
 77
     6
 78
     2
 67
     7
 79
     5
170
     0
171
     0
290
     0
174
     0
 93
        1
 44
-50.0
173
     0
291
     1
 45
0.0
1001
ACAD
1000
AcDbSavedByObjectVersion
1070
     0
  0
VISUALSTYLE
  5
39
102
{ACAD_REACTORS
330
2A
102
}
102
{ACAD_XDICTIONARY
360
3CA
102
}
330
2A
100
AcDbVisualStyle
  2
Facepattern
 70
    15
 71
     2
 72
     2
 73
     0
 90
        0
 40
-0.6
 41
-30.0
 62
     5
 63
     7
 74
     1
 91
        4
 64
     7
 65
   257
 75
     1
175
     1
 42
1.0
 92
        8
 66
     7
 43
1.0
 76
     1
 77
     6
 78
     2
 67
     7
 79
     5
170
     0
171
     0
290
     0
174
     0
 93
        1
 44
0.0
173
     0
291
     1
 45
0.0
1001
ACAD
1000
AcDbSavedByObjectVersion
1070
     0
  0
VISUALSTYLE
  5
2B
102
{ACAD_REACTORS
330
2A
102
}
102
{ACAD_XDICTIONARY
360
3AE
102
}
330
2A
100
AcDbVisualStyle
  2
Flat
 70
     0
 71
     2
 72
     1
 73
     1
 90
        2
 40
-0.6
 41
30.0
 62
     5
 63
     7
 74
     0
 91
        4
 64
     7
 65
   257
 75
     1
175
     1
 42
1.0
 92
        8
 66
     7
 43
1.0
 76
     1
 77
     6
 78
     2
 67
     7
 79
     5
170
     0
171
     0
290
     0
174
     0
 93
       13
 44
0.0
173
     0
291
     1
 45
0.0
1001
ACAD
1000
AcDbSavedByObjectVersion
1070
     0
  0
VISUALSTYLE
  5
2C
102
{ACAD_REACTORS
330
2A
102
}
102
{ACAD_XDICTIONARY
360
3B0
102
}
330
2A
100
AcDbVisualStyle
  2
FlatWithEdges
 70
     1
 71
     2
 72
     1
 73
     1
 90
        2
 40
-0.6
 41
30.0
 62
     5
 63
     7
 74
     1
 91
        4
 64
     7
 65
   257
 75
     1
175
     1
 42
1.0
 92
        0
 66
   257
 43
1.0
 76
     1
 77
     6
 78
     2
 67
     7
 79
     5
170
     0
171
     0
290
     0
174
     0
 93
       13
 44
0.0
173
     0
291
     1
 45
0.0
1001
ACAD
1000
AcDbSavedByObjectVersion
1070
     0
  0
VISUALSTYLE
  5
2D
102
{ACAD_REACTORS
330
2A
102
}
102
{ACAD_XDICTIONARY
360
3B2
102
}
330
2A
100
AcDbVisualStyle
  2
Gouraud
 70
     2
 71
     2
 72
     2
 73
     1
 90
        2
 40
-0.6
 41
30.0
 62
     5
 63
     7
 74
     0
 91
        4
 64
     7
 65
   257
 75
     1
175
     1
 42
1.0
 92
        0
 66
     7
 43
1.0
 76
     1
 77
     6
 78
     2
 67
     7
 79
     5
170
     0
171
     0
290
     0
174
     0
 93
       13
 44
0.0
173
     0
291
     1
 45
0.0
1001
ACAD
1000
AcDbSavedByObjectVersion
1070
     0
  0
VISUALSTYLE
  5
2E
102
{ACAD_REACTORS
330
2A
102
}
102
{ACAD_XDICTIONARY
360
3B4
102
}
330
2A
100
AcDbVisualStyle
  2
GouraudWithEdges
 70
     3
 71
     2
 72
     2
 73
     1
 90
        2
 40
-0.6
 41
30.0
 62
     5
 63
     7
 74
     1
 91
        4
 64
     7
 65
   257
 75
     1
175
     1
 42
1.0
 92
        0
 66
   257
 43
1.0
 76
     1
 77
     6
 78
     2
 67
     7
 79
     5
170
     0
171
     0
290
     0
174
     0
 93
       13
 44
0.0
173
     0
291
     1
 45
0.0
1001
ACAD
1000
AcDbSavedByObjectVersion
1070
     0
  0
VISUALSTYLE
  5
38
102
{ACAD_REACTORS
330
2A
102
}
102
{ACAD_XDICTIONARY
360
3C8
102
}
330
2A
100
AcDbVisualStyle
  2
Linepattern
 70
    14
 71
     2
 72
     2
 73
     0
 90
        0
 40
-0.6
 41
-30.0
 62
     5
 63
     7
 74
     1
 91
        4
 64
     7
 65
   257
 75
     7
175
     7
 42
1.0
 92
        8
 66
     7
 43
1.0
 76
     1
 77
     6
 78
     2
 67
     7
 79
     5
170
     0
171
     0
290
     0
174
     0
 93
        1
 44
0.0
173
     0
291
     1
 45
0.0
1001
ACAD
1000
AcDbSavedByObjectVersion
1070
     0
  0
VISUALSTYLE
  5
33
102
{ACAD_REACTORS
330
2A
102
}
102
{ACAD_XDICTIONARY
360
3BE
102
}
330
2A
100
AcDbVisualStyle
  2
Realistic
 70
     8
 71
     2
 72
     2
 73
     0
 90
        0
 40
-0.6
 41
-30.0
 62
     5
 63
     7
 74
     1
 91
        0
 64
     7
 65
   257
 75
     1
175
     1
 42
1.0
 92
        8
 66
     8
 43
1.0
 76
     1
 77
     6
 78
     2
 67
     7
 79
     5
170
     0
171
     0
290
     0
174
     0
 93
       13
 44
0.0
173
     0
291
     0
 45
0.0
1001
ACAD
1000
AcDbSavedByObjectVersion
1070
     0
  0
VISUALSTYLE
  5
37
102
{ACAD_REACTORS
330
2A
102
}
102
{ACAD_XDICTIONARY
360
3C6
102
}
330
2A
100
AcDbVisualStyle
  2
Thicken
 70
    13
 71
     2
 72
     2
 73
     0
 90
        0
 40
-0.6
 41
-30.0
 62
     5
 63
     7
 74
     1
 91
        4
 64
     7
 65
   257
 75
     1
175
     1
 42
1.0
 92
       12
 66
     7
 43
1.0
 76
     1
 77
     6
 78
     2
 67
     7
 79
     5
170
     0
171
     0
290
     0
174
     0
 93
        1
 44
0.0
173
     0
291
     1
 45
0.0
1001
ACAD
1000
AcDbSavedByObjectVersion
1070
     0
  0
DICTIONARYVAR
  5
3AC
102
{ACAD_REACTORS
330
3A9
102
}
330
3A9
100
DictionaryVariables
280
     0
  1
2
  0
DICTIONARYVAR
  5
3AD
102
{ACAD_REACTORS
330
3A9
102
}
330
3A9
100
DictionaryVariables
280
     0
  1
1
  0
DICTIONARY
  5
3D0
330
3D
100
AcDbDictionary
280
     1
281
     1
  3
ACAD_XREC_ROUNDTRIP
360
3D1
  0
DICTIONARY
  5
3CE
330
3C
100
AcDbDictionary
280
     1
281
     1
  3
ACAD_XREC_ROUNDTRIP
360
3CF
  0
DICTIONARY
  5
3D2
330
3E
100
AcDbDictionary
280
     1
281
     1
  3
ACAD_XREC_ROUNDTRIP
360
3D3
  0
DICTIONARY
  5
3B6
330
2F
100
AcDbDictionary
280
     1
281
     1
  3
ACAD_XREC_ROUNDTRIP
360
3B7
  0
DICTIONARY
  5
3BA
330
31
100
AcDbDictionary
280
     1
281
     1
  3
ACAD_XREC_ROUNDTRIP
360
3BB
  0
DICTIONARY
  5
3B8
330
30
100
AcDbDictionary
280
     1
281
     1
  3
ACAD_XREC_ROUNDTRIP
360
3B9
  0
DICTIONARY
  5
3BC
330
32
100
AcDbDictionary
280
     1
281
     1
  3
ACAD_XREC_ROUNDTRIP
360
3BD
  0
DICTIONARY
  5
3C4
330
36
100
AcDbDictionary
280
     1
281
     1
  3
ACAD_XREC_ROUNDTRIP
360
3C5
  0
DICTIONARY
  5
3CC
330
3A
100
AcDbDictionary
280
     1
281
     1
  3
ACAD_XREC_ROUNDTRIP
360
3CD
  0
DICTIONARY
  5
3C0
330
34
100
AcDbDictionary
280
     1
281
     1
  3
ACAD_XREC_ROUNDTRIP
360
3C1
  0
DICTIONARY
  5
3C2
330
35
100
AcDbDictionary
280
     1
281
     1
  3
ACAD_XREC_ROUNDTRIP
360
3C3
  0
DICTIONARY
  5
3CA
330
39
100
AcDbDictionary
280
     1
281
     1
  3
ACAD_XREC_ROUNDTRIP
360
3CB
  0
DICTIONARY
  5
3AE
330
2B
100
AcDbDictionary
280
     1
281
     1
  3
ACAD_XREC_ROUNDTRIP
360
3AF
  0
DICTIONARY
  5
3B0
330
2C
100
AcDbDictionary
280
     1
281
     1
  3
ACAD_XREC_ROUNDTRIP
360
3B1
  0
DICTIONARY
  5
3B2
330
2D
100
AcDbDictionary
280
     1
281
     1
  3
ACAD_XREC_ROUNDTRIP
360
3B3
  0
DICTIONARY
  5
3B4
330
2E
100
AcDbDictionary
280
     1
281
     1
  3
ACAD_XREC_ROUNDTRIP
360
3B5
  0
DICTIONARY
  5
3C8
330
38
100
AcDbDictionary
280
     1
281
     1
  3
ACAD_XREC_ROUNDTRIP
360
3C9
  0
DICTIONARY
  5
3BE
330
33
100
AcDbDictionary
280
     1
281
     1
  3
ACAD_XREC_ROUNDTRIP
360
3BF
  0
DICTIONARY
  5
3C6
330
37
100
AcDbDictionary
280
     1
281
     1
  3
ACAD_XREC_ROUNDTRIP
360
3C7
  0
XRECORD
  5
3D1
102
{ACAD_REACTORS
330
3D0
102
}
330
3D0
100
AcDbXrecord
280
     1
102
MATERIAL
148
0.0
149
0.0
149
0.0
 93
        0
 94
      127
282
     0
 72
     1
 77
     1
171
     1
175
     1
179
     1
273
     0
  0
XRECORD
  5
3CF
102
{ACAD_REACTORS
330
3CE
102
}
330
3CE
100
AcDbXrecord
280
     1
102
MATERIAL
148
0.0
149
0.0
149
0.0
 93
        0
 94
      127
282
     0
 72
     1
 77
     1
171
     1
175
     1
179
     1
273
     0
  0
XRECORD
  5
3D3
102
{ACAD_REACTORS
330
3D2
102
}
330
3D2
100
AcDbXrecord
280
     1
102
MATERIAL
148
0.0
149
0.0
149
0.0
 93
        0
 94
      127
282
     0
 72
     1
 77
     1
171
     1
175
     1
179
     1
273
     0
  0
XRECORD
  5
3B7
102
{ACAD_REACTORS
330
3B6
102
}
330
3B6
100
AcDbXrecord
280
     1
102
RTVSPropertyOp0
 70
     1
102
RTVSPropertyOp1
 70
     1
102
RTVSPropertyOp2
 70
     1
102
RTVSPropertyOp3
 70
     1
102
RTVSPropertyOp4
 70
     1
102
RTVSPropertyOp5
 70
     1
102
RTVSPropertyOp6
 70
     1
102
RTVSPropertyOp7
 70
     1
102
RTVSPropertyOp8
 70
     1
102
RTVSPropertyOp9
 70
     1
102
RTVSPropertyOp10
 70
     1
102
RTVSPropertyOp11
 70
     1
102
RTVSPropertyOp12
 70
     1
102
RTVSPropertyOp13
 70
     1
102
RTVSPropertyOp14
 70
     1
102
RTVSPropertyOp15
 70
     1
102
RTVSPropertyOp16
 70
     1
102
RTVSPropertyOp17
 70
     1
102
RTVSPropertyOp18
 70
     1
102
RTVSPropertyOp19
 70
     1
102
RTVSPropertyOp20
 70
     1
102
RTVSPropertyOp21
 70
     1
102
RTVSPropertyOp22
 70
     1
102
RTVSPropertyOp23
 70
     1
102
RTVSPropertyOp24
 70
     1
102
RTVSPropertyOp25
 70
     1
102
RTVSPropertyOp26
 70
     1
102
RTVSPropertyOp27
 70
     1
102
RTVSPropertyOp28
 70
     1
102
RTVSPropertyOp29
 70
     1
102
RTVSPropertyOp30
 70
     1
102
RTVSPropertyOp31
 70
     1
102
RTVSPropertyOp32
 70
     1
  0
XRECORD
  5
3BB
102
{ACAD_REACTORS
330
3BA
102
}
330
3BA
100
AcDbXrecord
280
     1
102
RTVSPropertyOp0
 70
     1
102
RTVSPropertyOp1
 70
     1
102
RTVSPropertyOp2
 70
     1
102
RTVSPropertyOp3
 70
     1
102
RTVSPropertyOp4
 70
     1
102
RTVSPropertyOp5
 70
     1
102
RTVSPropertyOp6
 70
     1
102
RTVSPropertyOp7
 70
     1
102
RTVSPropertyOp8
 70
     1
102
RTVSPropertyOp9
 70
     1
102
RTVSPropertyOp10
 70
     1
102
RTVSPropertyOp11
 70
     1
102
RTVSPropertyOp12
 70
     1
102
RTVSPropertyOp13
 70
     1
102
RTVSPropertyOp14
 70
     1
102
RTVSPropertyOp15
 70
     1
102
RTVSPropertyOp16
 70
     1
102
RTVSPropertyOp17
 70
     1
102
RTVSPropertyOp18
 70
     1
102
RTVSPropertyOp19
 70
     1
102
RTVSPropertyOp20
 70
     1
102
RTVSPropertyOp21
 70
     1
102
RTVSPropertyOp22
 70
     1
102
RTVSPropertyOp23
 70
     1
102
RTVSPropertyOp24
 70
     1
102
RTVSPropertyOp25
 70
     1
102
RTVSPropertyOp26
 70
     1
102
RTVSPropertyOp27
 70
     1
102
RTVSPropertyOp28
 70
     1
102
RTVSPropertyOp29
 70
     1
102
RTVSPropertyOp30
 70
     1
102
RTVSPropertyOp31
 70
     1
102
RTVSPropertyOp32
 70
     1
  0
XRECORD
  5
3B9
102
{ACAD_REACTORS
330
3B8
102
}
330
3B8
100
AcDbXrecord
280
     1
102
RTVSPropertyOp0
 70
     1
102
RTVSPropertyOp1
 70
     1
102
RTVSPropertyOp2
 70
     1
102
RTVSPropertyOp3
 70
     1
102
RTVSPropertyOp4
 70
     1
102
RTVSPropertyOp5
 70
     1
102
RTVSPropertyOp6
 70
     1
102
RTVSPropertyOp7
 70
     1
102
RTVSPropertyOp8
 70
     1
102
RTVSPropertyOp9
 70
     1
102
RTVSPropertyOp10
 70
     1
102
RTVSPropertyOp11
 70
     1
102
RTVSPropertyOp12
 70
     1
102
RTVSPropertyOp13
 70
     1
102
RTVSPropertyOp14
 70
     1
102
RTVSPropertyOp15
 70
     1
102
RTVSPropertyOp16
 70
     1
102
RTVSPropertyOp17
 70
     1
102
RTVSPropertyOp18
 70
     1
102
RTVSPropertyOp19
 70
     1
102
RTVSPropertyOp20
 70
     1
102
RTVSPropertyOp21
 70
     1
102
RTVSPropertyOp22
 70
     1
102
RTVSPropertyOp23
 70
     1
102
RTVSPropertyOp24
 70
     1
102
RTVSPropertyOp25
 70
     1
102
RTVSPropertyOp26
 70
     1
102
RTVSPropertyOp27
 70
     1
102
RTVSPropertyOp28
 70
     1
102
RTVSPropertyOp29
 70
     1
102
RTVSPropertyOp30
 70
     1
102
RTVSPropertyOp31
 70
     1
102
RTVSPropertyOp32
 70
     1
  0
XRECORD
  5
3BD
102
{ACAD_REACTORS
330
3BC
102
}
330
3BC
100
AcDbXrecord
280
     1
102
RTVSPropertyOp0
 70
     1
102
RTVSPropertyOp1
 70
     1
102
RTVSPropertyOp2
 70
     1
102
RTVSPropertyOp3
 70
     1
102
RTVSPropertyOp4
 70
     1
102
RTVSPropertyOp5
 70
     1
102
RTVSPropertyOp6
 70
     1
102
RTVSPropertyOp7
 70
     1
102
RTVSPropertyOp8
 70
     1
102
RTVSPropertyOp9
 70
     1
102
RTVSPropertyOp10
 70
     1
102
RTVSPropertyOp11
 70
     1
102
RTVSPropertyOp12
 70
     1
102
RTVSPropertyOp13
 70
     1
102
RTVSPropertyOp14
 70
     1
102
RTVSPropertyOp15
 70
     1
102
RTVSPropertyOp16
 70
     1
102
RTVSPropertyOp17
 70
     1
102
RTVSPropertyOp18
 70
     1
102
RTVSPropertyOp19
 70
     1
102
RTVSPropertyOp20
 70
     1
102
RTVSPropertyOp21
 70
     1
102
RTVSPropertyOp22
 70
     1
102
RTVSPropertyOp23
 70
     1
102
RTVSPropertyOp24
 70
     1
102
RTVSPropertyOp25
 70
     1
102
RTVSPropertyOp26
 70
     1
102
RTVSPropertyOp27
 70
     1
102
RTVSPropertyOp28
 70
     1
102
RTVSPropertyOp29
 70
     1
102
RTVSPropertyOp30
 70
     1
102
RTVSPropertyOp31
 70
     1
102
RTVSPropertyOp32
 70
     1
  0
XRECORD
  5
3C5
102
{ACAD_REACTORS
330
3C4
102
}
330
3C4
100
AcDbXrecord
280
     1
102
RTVSPropertyOp0
 70
     1
102
RTVSPropertyOp1
 70
     1
102
RTVSPropertyOp2
 70
     1
102
RTVSPropertyOp3
 70
     1
102
RTVSPropertyOp4
 70
     1
102
RTVSPropertyOp5
 70
     1
102
RTVSPropertyOp6
 70
     1
102
RTVSPropertyOp7
 70
     1
102
RTVSPropertyOp8
 70
     1
102
RTVSPropertyOp9
 70
     1
102
RTVSPropertyOp10
 70
     1
102
RTVSPropertyOp11
 70
     1
102
RTVSPropertyOp12
 70
     1
102
RTVSPropertyOp13
 70
     1
102
RTVSPropertyOp14
 70
     1
102
RTVSPropertyOp15
 70
     1
102
RTVSPropertyOp16
 70
     1
102
RTVSPropertyOp17
 70
     1
102
RTVSPropertyOp18
 70
     1
102
RTVSPropertyOp19
 70
     1
102
RTVSPropertyOp20
 70
     1
102
RTVSPropertyOp21
 70
     1
102
RTVSPropertyOp22
 70
     1
102
RTVSPropertyOp23
 70
     1
102
RTVSPropertyOp24
 70
     1
102
RTVSPropertyOp25
 70
     1
102
RTVSPropertyOp26
 70
     1
102
RTVSPropertyOp27
 70
     1
102
RTVSPropertyOp28
 70
     1
102
RTVSPropertyOp29
 70
     1
102
RTVSPropertyOp30
 70
     1
102
RTVSPropertyOp31
 70
     1
102
RTVSPropertyOp32
 70
     1
  0
XRECORD
  5
3CD
102
{ACAD_REACTORS
330
3CC
102
}
330
3CC
100
AcDbXrecord
280
     1
102
RTVSPropertyOp0
 70
     1
102
RTVSPropertyOp1
 70
     1
102
RTVSPropertyOp2
 70
     1
102
RTVSPropertyOp3
 70
     1
102
RTVSPropertyOp4
 70
     1
102
RTVSPropertyOp5
 70
     1
102
RTVSPropertyOp6
 70
     1
102
RTVSPropertyOp7
 70
     1
102
RTVSPropertyOp8
 70
     1
102
RTVSPropertyOp9
 70
     1
102
RTVSPropertyOp10
 70
     1
102
RTVSPropertyOp11
 70
     1
102
RTVSPropertyOp12
 70
     1
102
RTVSPropertyOp13
 70
     1
102
RTVSPropertyOp14
 70
     1
102
RTVSPropertyOp15
 70
     1
102
RTVSPropertyOp16
 70
     1
102
RTVSPropertyOp17
 70
     1
102
RTVSPropertyOp18
 70
     1
102
RTVSPropertyOp19
 70
     1
102
RTVSPropertyOp20
 70
     1
102
RTVSPropertyOp21
 70
     1
102
RTVSPropertyOp22
 70
     1
102
RTVSPropertyOp23
 70
     1
102
RTVSPropertyOp24
 70
     1
102
RTVSPropertyOp25
 70
     1
102
RTVSPropertyOp26
 70
     1
102
RTVSPropertyOp27
 70
     1
102
RTVSPropertyOp28
 70
     1
102
RTVSPropertyOp29
 70
     1
102
RTVSPropertyOp30
 70
     1
102
RTVSPropertyOp31
 70
     1
102
RTVSPropertyOp32
 70
     1
  0
XRECORD
  5
3C1
102
{ACAD_REACTORS
330
3C0
102
}
330
3C0
100
AcDbXrecord
280
     1
102
RTVSPropertyOp0
 70
     1
102
RTVSPropertyOp1
 70
     1
102
RTVSPropertyOp2
 70
     1
102
RTVSPropertyOp3
 70
     1
102
RTVSPropertyOp4
 70
     1
102
RTVSPropertyOp5
 70
     1
102
RTVSPropertyOp6
 70
     1
102
RTVSPropertyOp7
 70
     1
102
RTVSPropertyOp8
 70
     1
102
RTVSPropertyOp9
 70
     1
102
RTVSPropertyOp10
 70
     1
102
RTVSPropertyOp11
 70
     1
102
RTVSPropertyOp12
 70
     1
102
RTVSPropertyOp13
 70
     1
102
RTVSPropertyOp14
 70
     1
102
RTVSPropertyOp15
 70
     1
102
RTVSPropertyOp16
 70
     1
102
RTVSPropertyOp17
 70
     1
102
RTVSPropertyOp18
 70
     1
102
RTVSPropertyOp19
 70
     1
102
RTVSPropertyOp20
 70
     1
102
RTVSPropertyOp21
 70
     1
102
RTVSPropertyOp22
 70
     1
102
RTVSPropertyOp23
 70
     1
102
RTVSPropertyOp24
 70
     1
102
RTVSPropertyOp25
 70
     1
102
RTVSPropertyOp26
 70
     1
102
RTVSPropertyOp27
 70
     1
102
RTVSPropertyOp28
 70
     1
102
RTVSPropertyOp29
 70
     1
102
RTVSPropertyOp30
 70
     1
102
RTVSPropertyOp31
 70
     1
102
RTVSPropertyOp32
 70
     1
  0
XRECORD
  5
3C3
102
{ACAD_REACTORS
330
3C2
102
}
330
3C2
100
AcDbXrecord
280
     1
102
RTVSPropertyOp0
 70
     1
102
RTVSPropertyOp1
 70
     1
102
RTVSPropertyOp2
 70
     1
102
RTVSPropertyOp3
 70
     1
102
RTVSPropertyOp4
 70
     1
102
RTVSPropertyOp5
 70
     1
102
RTVSPropertyOp6
 70
     1
102
RTVSPropertyOp7
 70
     1
102
RTVSPropertyOp8
 70
     1
102
RTVSPropertyOp9
 70
     1
102
RTVSPropertyOp10
 70
     1
102
RTVSPropertyOp11
 70
     1
102
RTVSPropertyOp12
 70
     1
102
RTVSPropertyOp13
 70
     1
102
RTVSPropertyOp14
 70
     1
102
RTVSPropertyOp15
 70
     1
102
RTVSPropertyOp16
 70
     1
102
RTVSPropertyOp17
 70
     1
102
RTVSPropertyOp18
 70
     1
102
RTVSPropertyOp19
 70
     1
102
RTVSPropertyOp20
 70
     1
102
RTVSPropertyOp21
 70
     1
102
RTVSPropertyOp22
 70
     1
102
RTVSPropertyOp23
 70
     1
102
RTVSPropertyOp24
 70
     1
102
RTVSPropertyOp25
 70
     1
102
RTVSPropertyOp26
 70
     1
102
RTVSPropertyOp27
 70
     1
102
RTVSPropertyOp28
 70
     1
102
RTVSPropertyOp29
 70
     1
102
RTVSPropertyOp30
 70
     1
102
RTVSPropertyOp31
 70
     1
102
RTVSPropertyOp32
 70
     1
  0
XRECORD
  5
3CB
102
{ACAD_REACTORS
330
3CA
102
}
330
3CA
100
AcDbXrecord
280
     1
102
RTVSPropertyOp0
 70
     1
102
RTVSPropertyOp1
 70
     1
102
RTVSPropertyOp2
 70
     1
102
RTVSPropertyOp3
 70
     1
102
RTVSPropertyOp4
 70
     1
102
RTVSPropertyOp5
 70
     1
102
RTVSPropertyOp6
 70
     1
102
RTVSPropertyOp7
 70
     1
102
RTVSPropertyOp8
 70
     1
102
RTVSPropertyOp9
 70
     1
102
RTVSPropertyOp10
 70
     1
102
RTVSPropertyOp11
 70
     1
102
RTVSPropertyOp12
 70
     1
102
RTVSPropertyOp13
 70
     1
102
RTVSPropertyOp14
 70
     1
102
RTVSPropertyOp15
 70
     1
102
RTVSPropertyOp16
 70
     1
102
RTVSPropertyOp17
 70
     1
102
RTVSPropertyOp18
 70
     1
102
RTVSPropertyOp19
 70
     1
102
RTVSPropertyOp20
 70
     1
102
RTVSPropertyOp21
 70
     1
102
RTVSPropertyOp22
 70
     1
102
RTVSPropertyOp23
 70
     1
102
RTVSPropertyOp24
 70
     1
102
RTVSPropertyOp25
 70
     1
102
RTVSPropertyOp26
 70
     1
102
RTVSPropertyOp27
 70
     1
102
RTVSPropertyOp28
 70
     1
102
RTVSPropertyOp29
 70
     1
102
RTVSPropertyOp30
 70
     1
102
RTVSPropertyOp31
 70
     1
102
RTVSPropertyOp32
 70
     1
  0
XRECORD
  5
3AF
102
{ACAD_REACTORS
330
3AE
102
}
330
3AE
100
AcDbXrecord
280
     1
102
RTVSPropertyOp0
 70
     1
102
RTVSPropertyOp1
 70
     1
102
RTVSPropertyOp2
 70
     1
102
RTVSPropertyOp3
 70
     1
102
RTVSPropertyOp4
 70
     1
102
RTVSPropertyOp5
 70
     1
102
RTVSPropertyOp6
 70
     1
102
RTVSPropertyOp7
 70
     1
102
RTVSPropertyOp8
 70
     1
102
RTVSPropertyOp9
 70
     1
102
RTVSPropertyOp10
 70
     1
102
RTVSPropertyOp11
 70
     1
102
RTVSPropertyOp12
 70
     1
102
RTVSPropertyOp13
 70
     1
102
RTVSPropertyOp14
 70
     1
102
RTVSPropertyOp15
 70
     1
102
RTVSPropertyOp16
 70
     1
102
RTVSPropertyOp17
 70
     1
102
RTVSPropertyOp18
 70
     1
102
RTVSPropertyOp19
 70
     1
102
RTVSPropertyOp20
 70
     1
102
RTVSPropertyOp21
 70
     1
102
RTVSPropertyOp22
 70
     1
102
RTVSPropertyOp23
 70
     1
102
RTVSPropertyOp24
 70
     1
102
RTVSPropertyOp25
 70
     1
102
RTVSPropertyOp26
 70
     1
102
RTVSPropertyOp27
 70
     1
102
RTVSPropertyOp28
 70
     1
102
RTVSPropertyOp29
 70
     1
102
RTVSPropertyOp30
 70
     1
102
RTVSPropertyOp31
 70
     1
102
RTVSPropertyOp32
 70
     1
  0
XRECORD
  5
3B1
102
{ACAD_REACTORS
330
3B0
102
}
330
3B0
100
AcDbXrecord
280
     1
102
RTVSPropertyOp0
 70
     1
102
RTVSPropertyOp1
 70
     1
102
RTVSPropertyOp2
 70
     1
102
RTVSPropertyOp3
 70
     1
102
RTVSPropertyOp4
 70
     1
102
RTVSPropertyOp5
 70
     1
102
RTVSPropertyOp6
 70
     1
102
RTVSPropertyOp7
 70
     1
102
RTVSPropertyOp8
 70
     1
102
RTVSPropertyOp9
 70
     1
102
RTVSPropertyOp10
 70
     1
102
RTVSPropertyOp11
 70
     1
102
RTVSPropertyOp12
 70
     1
102
RTVSPropertyOp13
 70
     1
102
RTVSPropertyOp14
 70
     1
102
RTVSPropertyOp15
 70
     1
102
RTVSPropertyOp16
 70
     1
102
RTVSPropertyOp17
 70
     1
102
RTVSPropertyOp18
 70
     1
102
RTVSPropertyOp19
 70
     1
102
RTVSPropertyOp20
 70
     1
102
RTVSPropertyOp21
 70
     1
102
RTVSPropertyOp22
 70
     1
102
RTVSPropertyOp23
 70
     1
102
RTVSPropertyOp24
 70
     1
102
RTVSPropertyOp25
 70
     1
102
RTVSPropertyOp26
 70
     1
102
RTVSPropertyOp27
 70
     1
102
RTVSPropertyOp28
 70
     1
102
RTVSPropertyOp29
 70
     1
102
RTVSPropertyOp30
 70
     1
102
RTVSPropertyOp31
 70
     1
102
RTVSPropertyOp32
 70
     1
  0
XRECORD
  5
3B3
102
{ACAD_REACTORS
330
3B2
102
}
330
3B2
100
AcDbXrecord
280
     1
102
RTVSPropertyOp0
 70
     1
102
RTVSPropertyOp1
 70
     1
102
RTVSPropertyOp2
 70
     1
102
RTVSPropertyOp3
 70
     1
102
RTVSPropertyOp4
 70
     1
102
RTVSPropertyOp5
 70
     1
102
RTVSPropertyOp6
 70
     1
102
RTVSPropertyOp7
 70
     1
102
RTVSPropertyOp8
 70
     1
102
RTVSPropertyOp9
 70
     1
102
RTVSPropertyOp10
 70
     1
102
RTVSPropertyOp11
 70
     1
102
RTVSPropertyOp12
 70
     1
102
RTVSPropertyOp13
 70
     1
102
RTVSPropertyOp14
 70
     1
102
RTVSPropertyOp15
 70
     1
102
RTVSPropertyOp16
 70
     1
102
RTVSPropertyOp17
 70
     1
102
RTVSPropertyOp18
 70
     1
102
RTVSPropertyOp19
 70
     1
102
RTVSPropertyOp20
 70
     1
102
RTVSPropertyOp21
 70
     1
102
RTVSPropertyOp22
 70
     1
102
RTVSPropertyOp23
 70
     1
102
RTVSPropertyOp24
 70
     1
102
RTVSPropertyOp25
 70
     1
102
RTVSPropertyOp26
 70
     1
102
RTVSPropertyOp27
 70
     1
102
RTVSPropertyOp28
 70
     1
102
RTVSPropertyOp29
 70
     1
102
RTVSPropertyOp30
 70
     1
102
RTVSPropertyOp31
 70
     1
102
RTVSPropertyOp32
 70
     1
  0
XRECORD
  5
3B5
102
{ACAD_REACTORS
330
3B4
102
}
330
3B4
100
AcDbXrecord
280
     1
102
RTVSPropertyOp0
 70
     1
102
RTVSPropertyOp1
 70
     1
102
RTVSPropertyOp2
 70
     1
102
RTVSPropertyOp3
 70
     1
102
RTVSPropertyOp4
 70
     1
102
RTVSPropertyOp5
 70
     1
102
RTVSPropertyOp6
 70
     1
102
RTVSPropertyOp7
 70
     1
102
RTVSPropertyOp8
 70
     1
102
RTVSPropertyOp9
 70
     1
102
RTVSPropertyOp10
 70
     1
102
RTVSPropertyOp11
 70
     1
102
RTVSPropertyOp12
 70
     1
102
RTVSPropertyOp13
 70
     1
102
RTVSPropertyOp14
 70
     1
102
RTVSPropertyOp15
 70
     1
102
RTVSPropertyOp16
 70
     1
102
RTVSPropertyOp17
 70
     1
102
RTVSPropertyOp18
 70
     1
102
RTVSPropertyOp19
 70
     1
102
RTVSPropertyOp20
 70
     1
102
RTVSPropertyOp21
 70
     1
102
RTVSPropertyOp22
 70
     1
102
RTVSPropertyOp23
 70
     1
102
RTVSPropertyOp24
 70
     1
102
RTVSPropertyOp25
 70
     1
102
RTVSPropertyOp26
 70
     1
102
RTVSPropertyOp27
 70
     1
102
RTVSPropertyOp28
 70
     1
102
RTVSPropertyOp29
 70
     1
102
RTVSPropertyOp30
 70
     1
102
RTVSPropertyOp31
 70
     1
102
RTVSPropertyOp32
 70
     1
  0
XRECORD
  5
3C9
102
{ACAD_REACTORS
330
3C8
102
}
330
3C8
100
AcDbXrecord
280
     1
102
RTVSPropertyOp0
 70
     1
102
RTVSPropertyOp1
 70
     1
102
RTVSPropertyOp2
 70
     1
102
RTVSPropertyOp3
 70
     1
102
RTVSPropertyOp4
 70
     1
102
RTVSPropertyOp5
 70
     1
102
RTVSPropertyOp6
 70
     1
102
RTVSPropertyOp7
 70
     1
102
RTVSPropertyOp8
 70
     1
102
RTVSPropertyOp9
 70
     1
102
RTVSPropertyOp10
 70
     1
102
RTVSPropertyOp11
 70
     1
102
RTVSPropertyOp12
 70
     1
102
RTVSPropertyOp13
 70
     1
102
RTVSPropertyOp14
 70
     1
102
RTVSPropertyOp15
 70
     1
102
RTVSPropertyOp16
 70
     1
102
RTVSPropertyOp17
 70
     1
102
RTVSPropertyOp18
 70
     1
102
RTVSPropertyOp19
 70
     1
102
RTVSPropertyOp20
 70
     1
102
RTVSPropertyOp21
 70
     1
102
RTVSPropertyOp22
 70
     1
102
RTVSPropertyOp23
 70
     1
102
RTVSPropertyOp24
 70
     1
102
RTVSPropertyOp25
 70
     1
102
RTVSPropertyOp26
 70
     1
102
RTVSPropertyOp27
 70
     1
102
RTVSPropertyOp28
 70
     1
102
RTVSPropertyOp29
 70
     1
102
RTVSPropertyOp30
 70
     1
102
RTVSPropertyOp31
 70
     1
102
RTVSPropertyOp32
 70
     1
  0
XRECORD
  5
3BF
102
{ACAD_REACTORS
330
3BE
102
}
330
3BE
100
AcDbXrecord
280
     1
102
RTVSPropertyOp0
 70
     1
102
RTVSPropertyOp1
 70
     1
102
RTVSPropertyOp2
 70
     1
102
RTVSPropertyOp3
 70
     1
102
RTVSPropertyOp4
 70
     1
102
RTVSPropertyOp5
 70
     1
102
RTVSPropertyOp6
 70
     1
102
RTVSPropertyOp7
 70
     1
102
RTVSPropertyOp8
 70
     1
102
RTVSPropertyOp9
 70
     1
102
RTVSPropertyOp10
 70
     1
102
RTVSPropertyOp11
 70
     1
102
RTVSPropertyOp12
 70
     1
102
RTVSPropertyOp13
 70
     1
102
RTVSPropertyOp14
 70
     1
102
RTVSPropertyOp15
 70
     1
102
RTVSPropertyOp16
 70
     1
102
RTVSPropertyOp17
 70
     1
102
RTVSPropertyOp18
 70
     1
102
RTVSPropertyOp19
 70
     1
102
RTVSPropertyOp20
 70
     1
102
RTVSPropertyOp21
 70
     1
102
RTVSPropertyOp22
 70
     1
102
RTVSPropertyOp23
 70
     1
102
RTVSPropertyOp24
 70
     1
102
RTVSPropertyOp25
 70
     1
102
RTVSPropertyOp26
 70
     1
102
RTVSPropertyOp27
 70
     1
102
RTVSPropertyOp28
 70
     1
102
RTVSPropertyOp29
 70
     1
102
RTVSPropertyOp30
 70
     1
102
RTVSPropertyOp31
 70
     1
102
RTVSPropertyOp32
 70
     1
  0
XRECORD
  5
3C7
102
{ACAD_REACTORS
330
3C6
102
}
330
3C6
100
AcDbXrecord
280
     1
102
RTVSPropertyOp0
 70
     1
102
RTVSPropertyOp1
 70
     1
102
RTVSPropertyOp2
 70
     1
102
RTVSPropertyOp3
 70
     1
102
RTVSPropertyOp4
 70
     1
102
RTVSPropertyOp5
 70
     1
102
RTVSPropertyOp6
 70
     1
102
RTVSPropertyOp7
 70
     1
102
RTVSPropertyOp8
 70
     1
102
RTVSPropertyOp9
 70
     1
102
RTVSPropertyOp10
 70
     1
102
RTVSPropertyOp11
 70
     1
102
RTVSPropertyOp12
 70
     1
102
RTVSPropertyOp13
 70
     1
102
RTVSPropertyOp14
 70
     1
102
RTVSPropertyOp15
 70
     1
102
RTVSPropertyOp16
 70
     1
102
RTVSPropertyOp17
 70
     1
102
RTVSPropertyOp18
 70
     1
102
RTVSPropertyOp19
 70
     1
102
RTVSPropertyOp20
 70
     1
102
RTVSPropertyOp21
 70
     1
102
RTVSPropertyOp22
 70
     1
102
RTVSPropertyOp23
 70
     1
102
RTVSPropertyOp24
 70
     1
102
RTVSPropertyOp25
 70
     1
102
RTVSPropertyOp26
 70
     1
102
RTVSPropertyOp27
 70
     1
102
RTVSPropertyOp28
 70
     1
102
RTVSPropertyOp29
 70
     1
102
RTVSPropertyOp30
 70
     1
102
RTVSPropertyOp31
 70
     1
102
RTVSPropertyOp32
 70
     1
  0
ENDSEC
  0
EOF
