  0
SECTION
  2
HEADER
  9
$ACADVER
  1
AC1015
  9
$ACADMAINTVER
 70
     6
  9
$DWGCODEPAGE
  3
ANSI_1252
  9
$INSBASE
 10
0.0
 20
0.0
 30
0.0
  9
$EXTMIN
 10
-250.4692449994481
 20
-5.55225522368521
 30
0.0
  9
$EXTMAX
 10
46.53075500055005
 20
204.4477447763148
 30
0.0
  9
$LIMMIN
 10
0.0
 20
0.0
  9
$LIMMAX
 10
12.0
 20
9.0
  9
$ORTHOMODE
 70
     0
  9
$REGENMODE
 70
     1
  9
$FILLMODE
 70
     1
  9
$QTEXTMODE
 70
     0
  9
$MIRRTEXT
 70
     1
  9
$LTSCALE
 40
1.0
  9
$ATTMODE
 70
     1
  9
$TEXTSIZE
 40
0.2
  9
$TRACEWID
 40
0.05
  9
$TEXTSTYLE
  7
Standard
  9
$CLAYER
  8
0
  9
$CELTYPE
  6
ByLayer
  9
$CECOLOR
 62
   256
  9
$CELTSCALE
 40
1.0
  9
$DISPSILH
 70
     0
  9
$DIMSCALE
 40
1.0
  9
$DIMASZ
 40
0.18
  9
$DIMEXO
 40
0.0625
  9
$DIMDLI
 40
0.38
  9
$DIMRND
 40
0.0
  9
$DIMDLE
 40
0.0
  9
$DIMEXE
 40
0.18
  9
$DIMTP
 40
0.0
  9
$DIMTM
 40
0.0
  9
$DIMTXT
 40
0.18
  9
$DIMCEN
 40
0.09
  9
$DIMTSZ
 40
0.0
  9
$DIMTOL
 70
     0
  9
$DIMLIM
 70
     0
  9
$DIMTIH
 70
     1
  9
$DIMTOH
 70
     1
  9
$DIMSE1
 70
     0
  9
$DIMSE2
 70
     0
  9
$DIMTAD
 70
     0
  9
$DIMZIN
 70
     0
  9
$DIMBLK
  1

  9
$DIMASO
 70
     1
  9
$DIMSHO
 70
     1
  9
$DIMPOST
  1

  9
$DIMAPOST
  1

  9
$DIMALT
 70
     0
  9
$DIMALTD
 70
     2
  9
$DIMALTF
 40
25.4
  9
$DIMLFAC
 40
1.0
  9
$DIMTOFL
 70
     0
  9
$DIMTVP
 40
0.0
  9
$DIMTIX
 70
     0
  9
$DIMSOXD
 70
     0
  9
$DIMSAH
 70
     0
  9
$DIMBLK1
  1

  9
$DIMBLK2
  1

  9
$DIMSTYLE
  2
Standard
  9
$DIMCLRD
 70
     0
  9
$DIMCLRE
 70
     0
  9
$DIMCLRT
 70
     0
  9
$DIMTFAC
 40
1.0
  9
$DIMGAP
 40
0.09
  9
$DIMJUST
 70
     0
  9
$DIMSD1
 70
     0
  9
$DIMSD2
 70
     0
  9
$DIMTOLJ
 70
     1
  9
$DIMTZIN
 70
     0
  9
$DIMALTZ
 70
     0
  9
$DIMALTTZ
 70
     0
  9
$DIMUPT
 70
     0
  9
$DIMDEC
 70
     4
  9
$DIMTDEC
 70
     4
  9
$DIMALTU
 70
     2
  9
$DIMALTTD
 70
     2
  9
$DIMTXSTY
  7
Standard
  9
$DIMAUNIT
 70
     0
  9
$DIMADEC
 70
     0
  9
$DIMALTRND
 40
0.0
  9
$DIMAZIN
 70
     0
  9
$DIMDSEP
 70
    46
  9
$DIMATFIT
 70
     3
  9
$DIMFRAC
 70
     0
  9
$DIMLDRBLK
  1

  9
$DIMLUNIT
 70
     2
  9
$DIMLWD
 70
    -2
  9
$DIMLWE
 70
    -2
  9
$DIMTMOVE
 70
     0
  9
$LUNITS
 70
     2
  9
$LUPREC
 70
     4
  9
$SKETCHINC
 40
0.1
  9
$FILLETRAD
 40
0.5
  9
$AUNITS
 70
     0
  9
$AUPREC
 70
     0
  9
$MENU
  1
.
  9
$ELEVATION
 40
0.0
  9
$PELEVATION
 40
0.0
  9
$THICKNESS
 40
0.0
  9
$LIMCHECK
 70
     0
  9
$CHAMFERA
 40
0.5
  9
$CHAMFERB
 40
0.5
  9
$CHAMFERC
 40
1.0
  9
$CHAMFERD
 40
0.0
  9
$SKPOLY
 70
     0
  9
$TDCREATE
 40
2456392.489495787
  9
$TDUCREATE
 40
2456392.406162454
  9
$TDUPDATE
 40
2456392.489497454
  9
$TDUUPDATE
 40
2456392.40616412
  9
$TDINDWG
 40
0.0000000116
  9
$TDUSRTIMER
 40
0.0000000116
  9
$USRTIMER
 70
     1
  9
$ANGBASE
 50
0.0
  9
$ANGDIR
 70
     0
  9
$PDMODE
 70
     0
  9
$PDSIZE
 40
0.0
  9
$PLINEWID
 40
0.0
  9
$SPLFRAME
 70
     0
  9
$SPLINETYPE
 70
     6
  9
$SPLINESEGS
 70
     8
  9
$HANDSEED
  5
3C3
  9
$SURFTAB1
 70
     6
  9
$SURFTAB2
 70
     6
  9
$SURFTYPE
 70
     6
  9
$SURFU
 70
     6
  9
$SURFV
 70
     6
  9
$UCSBASE
  2

  9
$UCSNAME
  2

  9
$UCSORG
 10
0.0
 20
0.0
 30
0.0
  9
$UCSXDIR
 10
1.0
 20
0.0
 30
0.0
  9
$UCSYDIR
 10
0.0
 20
1.0
 30
0.0
  9
$UCSORTHOREF
  2

  9
$UCSORTHOVIEW
 70
     0
  9
$UCSORGTOP
 10
0.0
 20
0.0
 30
0.0
  9
$UCSORGBOTTOM
 10
0.0
 20
0.0
 30
0.0
  9
$UCSORGLEFT
 10
0.0
 20
0.0
 30
0.0
  9
$UCSORGRIGHT
 10
0.0
 20
0.0
 30
0.0
  9
$UCSORGFRONT
 10
0.0
 20
0.0
 30
0.0
  9
$UCSORGBACK
 10
0.0
 20
0.0
 30
0.0
  9
$PUCSBASE
  2

  9
$PUCSNAME
  2

  9
$PUCSORG
 10
0.0
 20
0.0
 30
0.0
  9
$PUCSXDIR
 10
1.0
 20
0.0
 30
0.0
  9
$PUCSYDIR
 10
0.0
 20
1.0
 30
0.0
  9
$PUCSORTHOREF
  2

  9
$PUCSORTHOVIEW
 70
     0
  9
$PUCSORGTOP
 10
0.0
 20
0.0
 30
0.0
  9
$PUCSORGBOTTOM
 10
0.0
 20
0.0
 30
0.0
  9
$PUCSORGLEFT
 10
0.0
 20
0.0
 30
0.0
  9
$PUCSORGRIGHT
 10
0.0
 20
0.0
 30
0.0
  9
$PUCSORGFRONT
 10
0.0
 20
0.0
 30
0.0
  9
$PUCSORGBACK
 10
0.0
 20
0.0
 30
0.0
  9
$USERI1
 70
     0
  9
$USERI2
 70
     0
  9
$USERI3
 70
     0
  9
$USERI4
 70
     0
  9
$USERI5
 70
     0
  9
$USERR1
 40
18.1
  9
$USERR2
 40
0.0
  9
$USERR3
 40
0.0
  9
$USERR4
 40
0.0
  9
$USERR5
 40
0.0
  9
$WORLDVIEW
 70
     1
  9
$SHADEDGE
 70
     3
  9
$SHADEDIF
 70
    70
  9
$TILEMODE
 70
     1
  9
$MAXACTVP
 70
    64
  9
$PINSBASE
 10
0.0
 20
0.0
 30
0.0
  9
$PLIMCHECK
 70
     0
  9
$PEXTMIN
 10
1.00000000000000E+20
 20
1.00000000000000E+20
 30
1.00000000000000E+20
  9
$PEXTMAX
 10
-1.00000000000000E+20
 20
-1.00000000000000E+20
 30
-1.00000000000000E+20
  9
$PLIMMIN
 10
0.0
 20
0.0
  9
$PLIMMAX
 10
12.0
 20
9.0
  9
$UNITMODE
 70
     0
  9
$VISRETAIN
 70
     1
  9
$PLINEGEN
 70
     0
  9
$PSLTSCALE
 70
     1
  9
$TREEDEPTH
 70
  3020
  9
$CMLSTYLE
  2
Standard
  9
$CMLJUST
 70
     0
  9
$CMLSCALE
 40
1.0
  9
$PROXYGRAPHICS
 70
     1
  9
$MEASUREMENT
 70
     1
  9
$CELWEIGHT
370
    -1
  9
$ENDCAPS
280
     0
  9
$JOINSTYLE
280
     0
  9
$LWDISPLAY
290
     0
  9
$INSUNITS
 70
     4
  9
$HYPERLINKBASE
  1

  9
$STYLESHEET
  1

  9
$XEDIT
290
     1
  9
$CEPSNTYPE
380
     0
  9
$PSTYLEMODE
290
     1
  9
$FINGERPRINTGUID
  2
{6E1C42B7-951D-45C7-A2F7-0E76CEB11FE6}
  9
$VERSIONGUID
  2
{FAEB1C32-E019-11D5-929B-00C0DF256EC4}
  9
$EXTNAMES
290
     1
  9
$PSVPSCALE
 40
0.0
  9
$OLESTARTUP
290
     0
  0
ENDSEC
  0
SECTION
  2
CLASSES
  0
CLASS
  1
ACDBDICTIONARYWDFLT
  2
AcDbDictionaryWithDefault
  3
ObjectDBX Classes
 90
        0
280
     0
281
     0
  0
CLASS
  1
VISUALSTYLE
  2
AcDbVisualStyle
  3
ObjectDBX Classes
 90
     4095
280
     0
281
     0
  0
CLASS
  1
MATERIAL
  2
AcDbMaterial
  3
ObjectDBX Classes
 90
     1153
280
     0
281
     0
  0
CLASS
  1
DICTIONARYVAR
  2
AcDbDictionaryVar
  3
ObjectDBX Classes
 90
        0
280
     0
281
     0
  0
CLASS
  1
ACDBPLACEHOLDER
  2
AcDbPlaceHolder
  3
ObjectDBX Classes
 90
        0
280
     0
281
     0
  0
CLASS
  1
LAYOUT
  2
AcDbLayout
  3
ObjectDBX Classes
 90
        0
280
     0
281
     0
  0
ENDSEC
  0
SECTION
  2
TABLES
  0
TABLE
  2
VPORT
  5
8
330
0
100
AcDbSymbolTable
 70
     1
  0
VPORT
  5
29
330
8
100
AcDbSymbolTableRecord
100
AcDbViewportTableRecord
  2
*Active
 70
     0
 10
0.0
 20
0.0
 11
1.0
 21
1.0
 12
-101.969244999449
 22
99.44774477631479
 13
0.0
 23
0.0
 14
0.5
 24
0.5
 15
0.5
 25
0.5
 16
0.0
 26
0.0
 36
1.0
 17
0.0
 27
0.0
 37
0.0
 40
231.0000000000001
 41
1.60267857142857
 42
50.0
 43
0.0
 44
0.0
 50
0.0
 51
0.0
 71
     0
 72
   100
 73
     1
 74
     3
 75
     0
 76
     0
 77
     0
 78
     0
281
     0
 65
     1
110
0.0
120
0.0
130
0.0
111
1.0
121
0.0
131
0.0
112
0.0
122
1.0
132
0.0
 79
     0
146
0.0
  0
ENDTAB
  0
TABLE
  2
LTYPE
  5
5
330
0
100
AcDbSymbolTable
 70
     8
  0
LTYPE
  5
14
330
5
100
AcDbSymbolTableRecord
100
AcDbLinetypeTableRecord
  2
ByBlock
 70
     0
  3

 72
    65
 73
     0
 40
0.0
  0
LTYPE
  5
15
330
5
100
AcDbSymbolTableRecord
100
AcDbLinetypeTableRecord
  2
ByLayer
 70
     0
  3

 72
    65
 73
     0
 40
0.0
  0
LTYPE
  5
16
330
5
100
AcDbSymbolTableRecord
100
AcDbLinetypeTableRecord
  2
Continuous
 70
     0
  3
Solid line
 72
    65
 73
     0
 40
0.0
  0
LTYPE
  5
3F
330
5
100
AcDbSymbolTableRecord
100
AcDbLinetypeTableRecord
  2
DASHED
 70
     0
  3
Dashed
 72
    65
 73
     2
 40
15.0
 49
7.0
 74
     0
 49
-8.0
 74
     0
  0
LTYPE
  5
40
330
5
100
AcDbSymbolTableRecord
100
AcDbLinetypeTableRecord
  2
DOTTED
 70
     0
  3
Dotted
 72
    65
 73
     2
 40
1.0
 49
0.0
 74
     0
 49
-1.0
 74
     0
  0
LTYPE
  5
41
330
5
100
AcDbSymbolTableRecord
100
AcDbLinetypeTableRecord
  2
DOT_CENTER
 70
     0
  3
Dot_Center
 72
    65
 73
     4
 40
14.0
 49
12.0
 74
     0
 49
-1.0
 74
     0
 49
0.0
 74
     0
 49
-1.0
 74
     0
  0
LTYPE
  5
42
330
5
100
AcDbSymbolTableRecord
100
AcDbLinetypeTableRecord
  2
LONG_DASHED
 70
     0
  3
Long_Dashed
 72
    65
 73
     2
 40
15.0
 49
10.0
 74
     0
 49
-5.0
 74
     0
  0
LTYPE
  5
43
330
5
100
AcDbSymbolTableRecord
100
AcDbLinetypeTableRecord
  2
DASH_CENTER
 70
     0
  3
Dash_Center
 72
    65
 73
     4
 40
14.0
 49
11.0
 74
     0
 49
-1.0
 74
     0
 49
1.0
 74
     0
 49
-1.0
 74
     0
  0
LTYPE
  5
44
330
5
100
AcDbSymbolTableRecord
100
AcDbLinetypeTableRecord
  2
PHANTOM
 70
     0
  3
Phantom
 72
    65
 73
     6
 40
13.0
 49
10.0
 74
     0
 49
-1.0
 74
     0
 49
0.0
 74
     0
 49
-1.0
 74
     0
 49
0.0
 74
     0
 49
-1.0
 74
     0
  0
LTYPE
  5
45
330
5
100
AcDbSymbolTableRecord
100
AcDbLinetypeTableRecord
  2
CENTER_DASH_DASH
 70
     0
  3
Center_Dash_Dash
 72
    65
 73
     6
 40
14.0
 49
9.0
 74
     0
 49
-1.0
 74
     0
 49
1.0
 74
     0
 49
-1.0
 74
     0
 49
1.0
 74
     0
 49
-1.0
 74
     0
  0
ENDTAB
  0
TABLE
  2
LAYER
  5
2
330
0
100
AcDbSymbolTable
 70
     2
  0
LAYER
  5
10
330
2
100
AcDbSymbolTableRecord
100
AcDbLayerTableRecord
  2
0
 70
     0
 62
     7
  6
Continuous
370
    -3
390
F
  0
LAYER
  5
46
330
2
100
AcDbSymbolTableRecord
100
AcDbLayerTableRecord
  2
1
 70
     0
 62
     7
  6
Continuous
370
    -3
390
F
  0
ENDTAB
  0
TABLE
  2
STYLE
  5
3
330
0
100
AcDbSymbolTable
 70
     9
  0
STYLE
  5
11
330
3
100
AcDbSymbolTableRecord
100
AcDbTextStyleTableRecord
  2
Standard
 70
     0
 40
0.0
 41
1.0
 50
0.0
 71
     0
 42
0.2
  3
txt
  4

  0
STYLE
  5
9B
330
3
100
AcDbSymbolTableRecord
100
AcDbTextStyleTableRecord
  2
CONVERTER_11
 70
     0
 40
0.0
 41
0.9
 50
0.0
 71
     0
 42
0.2
  3
txt.shx
  4

  0
STYLE
  5
319
330
3
100
AcDbSymbolTableRecord
100
AcDbTextStyleTableRecord
  2
CONVERTER_12
 70
     0
 40
0.0
 41
0.72
 50
0.0
 71
     0
 42
0.2
  3
txt.shx
  4

  0
STYLE
  5
31B
330
3
100
AcDbSymbolTableRecord
100
AcDbTextStyleTableRecord
  2
CONVERTER_13
 70
     0
 40
0.0
 41
0.81
 50
0.0
 71
     0
 42
0.2
  3
txt.shx
  4

  0
STYLE
  5
31D
330
3
100
AcDbSymbolTableRecord
100
AcDbTextStyleTableRecord
  2
CONVERTER_14
 70
     0
 40
0.0
 41
0.45
 50
0.0
 71
     0
 42
0.2
  3
txt.shx
  4

  0
STYLE
  5
31F
330
3
100
AcDbSymbolTableRecord
100
AcDbTextStyleTableRecord
  2
CONVERTER_15
 70
     0
 40
0.0
 41
0.54
 50
0.0
 71
     0
 42
0.2
  3
txt.shx
  4

  0
STYLE
  5
341
330
3
100
AcDbSymbolTableRecord
100
AcDbTextStyleTableRecord
  2
CONVERTER_16
 70
     0
 40
0.0
 41
0.855
 50
0.0
 71
     0
 42
0.2
  3
txt.shx
  4

  0
STYLE
  5
374
330
3
100
AcDbSymbolTableRecord
100
AcDbTextStyleTableRecord
  2
CONVERTER_17
 70
     0
 40
0.0
 41
0.765
 50
0.0
 71
     0
 42
0.2
  3
txt.shx
  4

  0
STYLE
  5
37B
330
3
100
AcDbSymbolTableRecord
100
AcDbTextStyleTableRecord
  2
CONVERTER_18
 70
     0
 40
0.0
 41
0.63
 50
0.0
 71
     0
 42
0.2
  3
txt.shx
  4

  0
ENDTAB
  0
TABLE
  2
VIEW
  5
6
330
0
100
AcDbSymbolTable
 70
     0
  0
ENDTAB
  0
TABLE
  2
UCS
  5
7
330
0
100
AcDbSymbolTable
 70
     0
  0
ENDTAB
  0
TABLE
  2
APPID
  5
9
330
0
100
AcDbSymbolTable
 70
     1
  0
APPID
  5
12
330
9
100
AcDbSymbolTableRecord
100
AcDbRegAppTableRecord
  2
ACAD
 70
     0
  0
ENDTAB
  0
TABLE
  2
DIMSTYLE
  5
A
330
0
100
AcDbSymbolTable
 70
     4
100
AcDbDimStyleTable
  0
DIMSTYLE
105
27
330
A
100
AcDbSymbolTableRecord
100
AcDbDimStyleTableRecord
  2
Standard
 70
     0
178
     0
340
11
  0
DIMSTYLE
105
14B
102
{ACAD_REACTORS
330
14C
102
}
330
A
100
AcDbSymbolTableRecord
100
AcDbDimStyleTableRecord
  2
ME10_DIM_10
 70
     0
 41
3.5
 42
0.0
 44
2.0
 73
     0
 74
     0
 77
     1
 78
     8
140
3.5
147
2.0
172
     1
173
     1
174
     1
175
     1
176
     2
177
     2
178
     3
340
9B
  0
DIMSTYLE
105
18F
102
{ACAD_REACTORS
330
190
102
}
330
A
100
AcDbSymbolTableRecord
100
AcDbDimStyleTableRecord
  2
ME10_DIM_11
 70
     0
 41
3.5
 42
0.0
 44
2.0
 73
     0
 74
     0
 77
     1
 78
     8
140
3.5
147
2.0
172
     1
173
     1
174
     1
175
     1
176
     2
177
     2
271
     0
178
     3
271
     0
340
9B
  0
DIMSTYLE
105
19A
102
{ACAD_REACTORS
330
19B
102
}
330
A
100
AcDbSymbolTableRecord
100
AcDbDimStyleTableRecord
  2
ME10_DIM_12
 70
     0
 41
3.5
 42
0.0
 44
2.0
 73
     0
 74
     0
 77
     1
 78
     8
140
3.5
147
2.0
172
     1
173
     1
174
     1
175
     1
176
     2
177
     2
271
     1
178
     3
271
     1
340
9B
  0
ENDTAB
  0
TABLE
  2
BLOCK_RECORD
  5
1
330
0
100
AcDbSymbolTable
 70
    19
  0
BLOCK_RECORD
  5
1F
330
1
100
AcDbSymbolTableRecord
100
AcDbBlockTableRecord
  2
*Model_Space
340
22
  0
BLOCK_RECORD
  5
1B
330
1
100
AcDbSymbolTableRecord
100
AcDbBlockTableRecord
  2
*Paper_Space
340
1E
  0
BLOCK_RECORD
  5
23
330
1
100
AcDbSymbolTableRecord
100
AcDbBlockTableRecord
  2
*Paper_Space0
340
26
  0
BLOCK_RECORD
  5
47
330
1
100
AcDbSymbolTableRecord
100
AcDbBlockTableRecord
  2
1409804_HC_B10_TMS_EEE_PR_DI-select__1
340
0
102
{BLKREFS
331
4B
102
}
  0
BLOCK_RECORD
  5
4A
330
1
100
AcDbSymbolTableRecord
100
AcDbBlockTableRecord
  2
Drfsicht1
340
0
102
{BLKREFS
331
7C
102
}
  0
BLOCK_RECORD
  5
4E
330
1
100
AcDbSymbolTableRecord
100
AcDbBlockTableRecord
  2
1409804_HC_B10_TMS_EEE_PR_DI-select__2
340
0
102
{BLKREFS
331
52
102
}
  0
BLOCK_RECORD
  5
51
330
1
100
AcDbSymbolTableRecord
100
AcDbBlockTableRecord
  2
Rckans1
340
0
102
{BLKREFS
331
7D
102
}
  0
BLOCK_RECORD
  5
55
330
1
100
AcDbSymbolTableRecord
100
AcDbBlockTableRecord
  2
1409804_HC_B10_TMS_EEE_PR_DI-select__3
340
0
102
{BLKREFS
331
59
102
}
  0
BLOCK_RECORD
  5
58
330
1
100
AcDbSymbolTableRecord
100
AcDbBlockTableRecord
  2
SA_Links1
340
0
102
{BLKREFS
331
7E
102
}
  0
BLOCK_RECORD
  5
5C
330
1
100
AcDbSymbolTableRecord
100
AcDbBlockTableRecord
  2
1409804_HC_B10_TMS_EEE_PR_DI-select__4
340
0
102
{BLKREFS
331
60
102
}
  0
BLOCK_RECORD
  5
5F
330
1
100
AcDbSymbolTableRecord
100
AcDbBlockTableRecord
  2
Allg1
340
0
102
{BLKREFS
331
7F
102
}
  0
BLOCK_RECORD
  5
63
330
1
100
AcDbSymbolTableRecord
100
AcDbBlockTableRecord
  2
1409804_HC_B10_TMS_EEE_PR_DI-select__5
340
0
102
{BLKREFS
331
67
102
}
  0
BLOCK_RECORD
  5
66
330
1
100
AcDbSymbolTableRecord
100
AcDbBlockTableRecord
  2
SA_Rechts1
340
0
102
{BLKREFS
331
80
102
}
  0
BLOCK_RECORD
  5
6A
330
1
100
AcDbSymbolTableRecord
100
AcDbBlockTableRecord
  2
1409804_HC_B10_TMS_EEE_PR_DI-select__6
340
0
102
{BLKREFS
331
6E
102
}
  0
BLOCK_RECORD
  5
6D
330
1
100
AcDbSymbolTableRecord
100
AcDbBlockTableRecord
  2
Vordans1
340
0
102
{BLKREFS
331
81
102
}
  0
BLOCK_RECORD
  5
71
330
1
100
AcDbSymbolTableRecord
100
AcDbBlockTableRecord
  2
_punkt
340
0
102
{BLKREFS
331
78
102
}
  0
BLOCK_RECORD
  5
74
330
1
100
AcDbSymbolTableRecord
100
AcDbBlockTableRecord
  2
_rahmen
340
0
102
{BLKREFS
331
79
102
}
  0
BLOCK_RECORD
  5
77
330
1
100
AcDbSymbolTableRecord
100
AcDbBlockTableRecord
  2
A4I
340
0
102
{BLKREFS
331
82
102
}
  0
BLOCK_RECORD
  5
140
330
1
100
AcDbSymbolTableRecord
100
AcDbBlockTableRecord
  2
*D16
340
0
  0
BLOCK_RECORD
  5
186
330
1
100
AcDbSymbolTableRecord
100
AcDbBlockTableRecord
  2
*D17
340
0
  0
BLOCK_RECORD
  5
191
330
1
100
AcDbSymbolTableRecord
100
AcDbBlockTableRecord
  2
*D18
340
0
  0
ENDTAB
  0
ENDSEC
  0
SECTION
  2
BLOCKS
  0
BLOCK
  5
20
330
1F
100
AcDbEntity
  8
0
100
AcDbBlockBegin
  2
*Model_Space
 70
     0
 10
0.0
 20
0.0
 30
0.0
  3
*Model_Space
  1

  0
ENDBLK
  5
21
330
1F
100
AcDbEntity
  8
0
100
AcDbBlockEnd
  0
BLOCK
  5
1C
330
1B
100
AcDbEntity
 67
     1
  8
0
100
AcDbBlockBegin
  2
*Paper_Space
 70
     0
 10
0.0
 20
0.0
 30
0.0
  3
*Paper_Space
  1

  0
ENDBLK
  5
1D
330
1B
100
AcDbEntity
 67
     1
  8
0
100
AcDbBlockEnd
  0
BLOCK
  5
24
330
23
100
AcDbEntity
  8
0
100
AcDbBlockBegin
  2
*Paper_Space0
 70
     0
 10
0.0
 20
0.0
 30
0.0
  3
*Paper_Space0
  1

  0
ENDBLK
  5
25
330
23
100
AcDbEntity
  8
0
100
AcDbBlockEnd
  0
BLOCK
  5
48
330
47
100
AcDbEntity
  8
0
100
AcDbBlockBegin
  2
1409804_HC_B10_TMS_EEE_PR_DI-select__1
 70
     0
 10
-211.5783979999848
 20
87.69094590484764
 30
0.0
  3
1409804_HC_B10_TMS_EEE_PR_DI-select__1
  1

  0
LINE
  5
83
330
47
100
AcDbEntity
  8
0
  6
Continuous
 62
     2
100
AcDbLine
 10
-114.8499979999849
 20
94.655098558572
 30
0.0
 11
-109.1215979999848
 21
94.65509855857265
 31
0.0
  0
LINE
  5
84
330
47
100
AcDbEntity
  8
0
  6
Continuous
 62
     7
100
AcDbLine
 10
-109.1215979999848
 20
94.65509855857265
 30
0.0
 11
-109.1215979999848
 21
95.49094590484764
 31
0.0
  0
LINE
  5
85
330
47
100
AcDbEntity
  8
0
  6
Continuous
 62
     7
100
AcDbLine
 10
-114.8499979999849
 20
95.49094590484764
 30
0.0
 11
-109.1215979999848
 21
95.49094590484764
 31
0.0
  0
LINE
  5
86
330
47
100
AcDbEntity
  8
0
  6
Continuous
 62
     2
100
AcDbLine
 10
-114.8499979999849
 20
92.27715124208306
 30
0.0
 11
-114.8499979999849
 21
94.655098558572
 31
0.0
  0
LINE
  5
87
330
47
100
AcDbEntity
  8
0
  6
Continuous
 62
     7
100
AcDbLine
 10
-209.8499979999848
 20
92.27715124208306
 30
0.0
 11
-205.8499979999848
 21
92.27715124208306
 31
0.0
  0
LINE
  5
88
330
47
100
AcDbEntity
  8
0
  6
Continuous
 62
     7
100
AcDbLine
 10
-209.8499979999848
 20
87.69094590484764
 30
0.0
 11
-209.8499979999848
 21
92.27715124208306
 31
0.0
  0
LINE
  5
89
330
47
100
AcDbEntity
  8
0
  6
Continuous
 62
     7
100
AcDbLine
 10
-114.8499979999849
 20
92.27715124208306
 30
0.0
 11
-110.8499979999849
 21
92.27715124208306
 31
0.0
  0
LINE
  5
8A
330
47
100
AcDbEntity
  8
0
  6
Continuous
 62
     7
100
AcDbLine
 10
-114.8499979999849
 20
87.69094590484764
 30
0.0
 11
-110.8499979999849
 21
87.69094590484764
 31
0.0
  0
LINE
  5
8B
330
47
100
AcDbEntity
  8
0
  6
Continuous
 62
     2
100
AcDbLine
 10
-114.8499979999849
 20
87.69094590484764
 30
0.0
 11
-114.8499979999849
 21
92.27715124208306
 31
0.0
  0
LINE
  5
8C
330
47
100
AcDbEntity
  8
0
  6
Continuous
 62
     7
100
AcDbLine
 10
-110.8499979999849
 20
87.69094590484764
 30
0.0
 11
-110.8499979999849
 21
92.27715124208306
 31
0.0
  0
LINE
  5
8D
330
47
100
AcDbEntity
  8
0
  6
Continuous
 62
     2
100
AcDbLine
 10
-205.8499979999848
 20
94.65509855857265
 30
0.0
 11
-205.8499979999848
 21
92.27715124208306
 31
0.0
  0
LINE
  5
8E
330
47
100
AcDbEntity
  8
0
  6
Continuous
 62
     7
100
AcDbLine
 10
-205.8499979999848
 20
92.27715124208306
 30
0.0
 11
-114.8499979999849
 21
92.27715124208306
 31
0.0
  0
LINE
  5
8F
330
47
100
AcDbEntity
  8
0
  6
Continuous
 62
     2
100
AcDbLine
 10
-205.8499979999848
 20
92.27715124208306
 30
0.0
 11
-205.8499979999848
 21
87.69094590484764
 31
0.0
  0
LINE
  5
90
330
47
100
AcDbEntity
  8
0
  6
Continuous
 62
     2
100
AcDbLine
 10
-114.8499979999849
 20
94.655098558572
 30
0.0
 11
-114.8499979999849
 21
95.49094590484764
 31
0.0
  0
LINE
  5
91
330
47
100
AcDbEntity
  8
0
  6
Continuous
 62
     7
100
AcDbLine
 10
-211.5783979999848
 20
94.65509855857265
 30
0.0
 11
-211.5783979999848
 21
95.49094590484764
 31
0.0
  0
LINE
  5
92
330
47
100
AcDbEntity
  8
0
  6
Continuous
 62
     7
100
AcDbLine
 10
-211.5783979999848
 20
95.49094590484764
 30
0.0
 11
-205.8499979999848
 21
95.49094590484764
 31
0.0
  0
LINE
  5
93
330
47
100
AcDbEntity
  8
0
  6
Continuous
 62
     2
100
AcDbLine
 10
-205.8499979999848
 20
94.65509855857265
 30
0.0
 11
-205.8499979999848
 21
95.49094590484764
 31
0.0
  0
LINE
  5
94
330
47
100
AcDbEntity
  8
0
  6
Continuous
 62
     2
100
AcDbLine
 10
-211.5783979999848
 20
94.65509855857265
 30
0.0
 11
-205.8499979999848
 21
94.65509855857265
 31
0.0
  0
LINE
  5
95
330
47
100
AcDbEntity
  8
0
  6
Continuous
 62
     2
100
AcDbLine
 10
-205.8499979999848
 20
94.65509855857265
 30
0.0
 11
-114.8499979999849
 21
94.655098558572
 31
0.0
  0
LINE
  5
96
330
47
100
AcDbEntity
  8
0
  6
Continuous
 62
     7
100
AcDbLine
 10
-205.8499979999848
 20
95.49094590484764
 30
0.0
 11
-114.8499979999849
 21
95.49094590484764
 31
0.0
  0
LINE
  5
97
330
47
100
AcDbEntity
  8
0
  6
Continuous
 62
     7
100
AcDbLine
 10
-114.8499979999849
 20
87.69094590484764
 30
0.0
 11
-205.8499979999848
 21
87.69094590484764
 31
0.0
  0
LINE
  5
98
330
47
100
AcDbEntity
  8
0
  6
Continuous
 62
     7
100
AcDbLine
 10
-209.8499979999848
 20
87.69094590484764
 30
0.0
 11
-205.8499979999848
 21
87.69094590484764
 31
0.0
  0
ARC
  5
99
330
47
100
AcDbEntity
  8
0
  6
Continuous
 62
     7
100
AcDbCircle
 10
-111.6215979999848
 20
94.65509855857265
 30
0.0
 40
2.499999999999972
100
AcDbArc
 50
287.9772896815854
 51
0.0
  0
ARC
  5
9A
330
47
100
AcDbEntity
  8
0
  6
Continuous
 62
     7
100
AcDbCircle
 10
-209.0783979999848
 20
94.65509855857265
 30
0.0
 40
2.5
100
AcDbArc
 50
180.0
 51
252.0227103184124
  0
ENDBLK
  5
49
330
47
100
AcDbEntity
  8
0
100
AcDbBlockEnd
  0
BLOCK
  5
4C
330
4A
100
AcDbEntity
  8
0
100
AcDbBlockBegin
  2
Drfsicht1
 70
     0
 10
-160.3715979999996
 20
91.590946
 30
0.0
  3
Drfsicht1
  1

  0
INSERT
  5
4B
330
4A
100
AcDbEntity
  8
0
100
AcDbBlockReference
  2
1409804_HC_B10_TMS_EEE_PR_DI-select__1
 10
-211.5783979999848
 20
87.69094590484764
 30
0.0
  0
MTEXT
  5
9C
330
4A
100
AcDbEntity
  8
1
 62
     6
100
AcDbMText
 10
-183.8715977424159
 20
82.69094603232315
 30
0.0
 40
5.0
 41
0.0
 71
     2
 72
     1
  1
 
  7
CONVERTER_11
 73
     1
 44
1.32052821128451
  0
ENDBLK
  5
4D
330
4A
100
AcDbEntity
  8
0
100
AcDbBlockEnd
  0
BLOCK
  5
4F
330
4E
100
AcDbEntity
  8
0
100
AcDbBlockBegin
  2
1409804_HC_B10_TMS_EEE_PR_DI-select__2
 70
     0
 10
-69.44764700001487
 20
116.5215999999851
 30
0.0
  3
1409804_HC_B10_TMS_EEE_PR_DI-select__2
  1

  0
LINE
  5
9D
330
4E
100
AcDbEntity
  8
0
  6
Continuous
 62
     7
100
AcDbLine
 10
27.28075299998513
 20
166.4499999999851
 30
0.0
 11
-63.71924700001486
 21
166.4499999999851
 31
0.0
  0
LINE
  5
9E
330
4E
100
AcDbEntity
  8
0
  6
Continuous
 62
     2
100
AcDbLine
 10
27.28075299996998
 20
168.2797940154211
 30
0.0
 11
-63.71924699999971
 21
168.2797940154251
 31
0.0
  0
LINE
  5
9F
330
4E
100
AcDbEntity
  8
0
  6
Continuous
 62
     7
100
AcDbLine
 10
-63.71924700001486
 20
170.3530833543692
 30
0.0
 11
27.28075299998513
 21
170.3530833543654
 31
0.0
  0
LINE
  5
A0
330
4E
100
AcDbEntity
  8
0
  6
Continuous
 62
     7
100
AcDbLine
 10
27.28075299998513
 20
171.4783999999851
 30
0.0
 11
-63.71924700001486
 21
171.4783999999851
 31
0.0
  0
LINE
  5
A1
330
4E
100
AcDbEntity
  8
0
  6
Continuous
 62
     7
100
AcDbLine
 10
27.28075299998513
 20
121.5499999999851
 30
0.0
 11
-63.71924700001486
 21
121.5499999999851
 31
0.0
  0
LINE
  5
A2
330
4E
100
AcDbEntity
  8
0
  6
Continuous
 62
     2
100
AcDbLine
 10
-63.71924700001486
 20
119.7202059845451
 30
0.0
 11
27.28075299996997
 21
119.7202059845491
 31
0.0
  0
LINE
  5
A3
330
4E
100
AcDbEntity
  8
0
  6
Continuous
 62
     7
100
AcDbLine
 10
27.28075299998513
 20
117.6469166456048
 30
0.0
 11
-63.71924700001486
 21
117.646916645601
 31
0.0
  0
LINE
  5
A4
330
4E
100
AcDbEntity
  8
0
  6
Continuous
 62
     7
100
AcDbLine
 10
-63.71924700001486
 20
116.5215999999851
 30
0.0
 11
27.28075299998513
 21
116.5215999999851
 31
0.0
  0
LINE
  5
A5
330
4E
100
AcDbEntity
  8
0
  6
Continuous
 62
     7
100
AcDbLine
 10
27.98075299998514
 20
122.2499999999851
 30
0.0
 11
27.98075299998514
 21
165.7499999999851
 31
0.0
  0
LINE
  5
A6
330
4E
100
AcDbEntity
  8
0
  6
Continuous
 62
     2
100
AcDbLine
 10
29.81054701542513
 20
122.2500000000002
 30
0.0
 11
29.81054701542513
 21
165.74999999997
 31
0.0
  0
LINE
  5
A7
330
4E
100
AcDbEntity
  8
0
  6
Continuous
 62
     7
100
AcDbLine
 10
31.88383635436941
 20
165.7499999999851
 30
0.0
 11
31.88383635436542
 21
122.2499999999851
 31
0.0
  0
LINE
  5
A8
330
4E
100
AcDbEntity
  8
0
  6
Continuous
 62
     7
100
AcDbLine
 10
33.00915299998513
 20
122.2499999999851
 30
0.0
 11
33.00915299998513
 21
165.7499999999851
 31
0.0
  0
LINE
  5
A9
330
4E
100
AcDbEntity
  8
0
  6
Continuous
 62
     2
100
AcDbLine
 10
27.28075299996998
 20
168.2797940154211
 30
0.0
 11
27.28075299998513
 21
170.3530833543654
 31
0.0
  0
LINE
  5
AA
330
4E
100
AcDbEntity
  8
0
  6
Continuous
 62
     2
100
AcDbLine
 10
31.88383635436941
 20
165.7499999999851
 30
0.0
 11
29.81054701542513
 21
165.74999999997
 31
0.0
  0
LINE
  5
AB
330
4E
100
AcDbEntity
  8
0
  6
Continuous
 62
     2
100
AcDbLine
 10
27.28075299998513
 20
117.6469166456048
 30
0.0
 11
27.28075299996997
 21
119.7202059845491
 31
0.0
  0
LINE
  5
AC
330
4E
100
AcDbEntity
  8
0
  6
Continuous
 62
     2
100
AcDbLine
 10
-63.71924700001486
 20
119.7202059845451
 30
0.0
 11
-63.71924700001486
 21
117.646916645601
 31
0.0
  0
LINE
  5
AD
330
4E
100
AcDbEntity
  8
0
  6
Continuous
 62
     2
100
AcDbLine
 10
-63.71924700001486
 20
170.3530833543692
 30
0.0
 11
-63.71924699999971
 21
168.2797940154251
 31
0.0
  0
LINE
  5
AE
330
4E
100
AcDbEntity
  8
0
  6
Continuous
 62
     2
100
AcDbLine
 10
-66.24904101545087
 20
165.7499999999699
 30
0.0
 11
-68.32233035439161
 21
165.7499999999851
 31
0.0
  0
LINE
  5
AF
330
4E
100
AcDbEntity
  8
0
  6
Continuous
 62
     7
100
AcDbLine
 10
-64.41924700001488
 20
165.7499999999851
 30
0.0
 11
-64.41924700001488
 21
122.2499999999851
 31
0.0
  0
LINE
  5
B0
330
4E
100
AcDbEntity
  8
0
  6
Continuous
 62
     2
100
AcDbLine
 10
-66.24904101545087
 20
165.7499999999699
 30
0.0
 11
-66.24904101545087
 21
122.2500000000002
 31
0.0
  0
LINE
  5
B1
330
4E
100
AcDbEntity
  8
0
  6
Continuous
 62
     7
100
AcDbLine
 10
-68.32233035439515
 20
122.2499999999851
 30
0.0
 11
-68.32233035439161
 21
165.7499999999851
 31
0.0
  0
LINE
  5
B2
330
4E
100
AcDbEntity
  8
0
  6
Continuous
 62
     7
100
AcDbLine
 10
-69.44764700001487
 20
165.7499999999851
 30
0.0
 11
-69.44764700001487
 21
122.2499999999851
 31
0.0
  0
LINE
  5
B3
330
4E
100
AcDbEntity
  8
0
  6
Continuous
 62
     2
100
AcDbLine
 10
-68.32233035439515
 20
122.2499999999851
 30
0.0
 11
-66.24904101545087
 21
122.2500000000002
 31
0.0
  0
LINE
  5
B4
330
4E
100
AcDbEntity
  8
0
  6
Continuous
 62
     2
100
AcDbLine
 10
29.81054701542513
 20
122.2500000000002
 30
0.0
 11
31.88383635436542
 21
122.2499999999851
 31
0.0
  0
ARC
  5
B5
330
4E
100
AcDbEntity
  8
0
  6
Continuous
 62
     7
100
AcDbCircle
 10
-63.71924700001486
 20
122.2499999999851
 30
0.0
 40
0.700000000000017
100
AcDbArc
 50
180.0
 51
270.0
  0
ARC
  5
B6
330
4E
100
AcDbEntity
  8
0
  6
Continuous
 62
     2
100
AcDbCircle
 10
-63.71924700001287
 20
122.2499999999831
 30
0.0
 40
2.529794015438
100
AcDbArc
 50
179.9999999996128
 51
269.9999999999549
  0
ARC
  5
B7
330
4E
100
AcDbEntity
  8
0
  6
Continuous
 62
     7
100
AcDbCircle
 10
-63.71924700001287
 20
122.2499999999831
 30
0.0
 40
4.603083354382278
100
AcDbArc
 50
179.999999999975
 51
269.9999999999752
  0
ARC
  5
B8
330
4E
100
AcDbEntity
  8
0
  6
Continuous
 62
     7
100
AcDbCircle
 10
27.28075299998513
 20
165.7499999999851
 30
0.0
 40
0.70000000000001
100
AcDbArc
 50
0.0
 51
90.0
  0
ARC
  5
B9
330
4E
100
AcDbEntity
  8
0
  6
Continuous
 62
     2
100
AcDbCircle
 10
27.28075299998713
 20
165.7499999999831
 30
0.0
 40
2.529794015438
100
AcDbArc
 50
359.9999999997033
 51
90.00000000038838
  0
ARC
  5
BA
330
4E
100
AcDbEntity
  8
0
  6
Continuous
 62
     7
100
AcDbCircle
 10
27.28075299998713
 20
165.7499999999831
 30
0.0
 40
4.603083354382282
100
AcDbArc
 50
0.00000000002512
 51
90.0000000000249
  0
ARC
  5
BB
330
4E
100
AcDbEntity
  8
0
  6
Continuous
 62
     7
100
AcDbCircle
 10
27.28075299998513
 20
165.7499999999851
 30
0.0
 40
5.728400000000004
100
AcDbArc
 50
0.0
 51
90.0
  0
ARC
  5
BC
330
4E
100
AcDbEntity
  8
0
  6
Continuous
 62
     7
100
AcDbCircle
 10
27.28075299998513
 20
122.2499999999851
 30
0.0
 40
0.7000000000000028
100
AcDbArc
 50
270.0
 51
0.0
  0
ARC
  5
BD
330
4E
100
AcDbEntity
  8
0
  6
Continuous
 62
     2
100
AcDbCircle
 10
27.28075299998713
 20
122.2499999999871
 30
0.0
 40
2.529794015438
100
AcDbArc
 50
269.9999999996114
 51
0.00000000029675
  0
ARC
  5
BE
330
4E
100
AcDbEntity
  8
0
  6
Continuous
 62
     7
100
AcDbCircle
 10
27.28075299998513
 20
122.2499999999851
 30
0.0
 40
4.603083354380303
100
AcDbArc
 50
270.0
 51
0.0
  0
ARC
  5
BF
330
4E
100
AcDbEntity
  8
0
  6
Continuous
 62
     7
100
AcDbCircle
 10
27.28075299998513
 20
122.2499999999851
 30
0.0
 40
5.728400000000008
100
AcDbArc
 50
270.0
 51
0.0
  0
ARC
  5
C0
330
4E
100
AcDbEntity
  8
0
  6
Continuous
 62
     7
100
AcDbCircle
 10
-63.71924700001486
 20
165.7499999999851
 30
0.0
 40
0.6999999999999886
100
AcDbArc
 50
90.0
 51
180.0
  0
ARC
  5
C1
330
4E
100
AcDbEntity
  8
0
  6
Continuous
 62
     2
100
AcDbCircle
 10
-63.71924700001287
 20
165.7499999999871
 30
0.0
 40
2.529794015438
100
AcDbArc
 50
89.99999999970197
 51
180.0000000003894
  0
ARC
  5
C2
330
4E
100
AcDbEntity
  8
0
  6
Continuous
 62
     7
100
AcDbCircle
 10
-63.71924700001119
 20
165.7499999999888
 30
0.0
 40
4.603083354380402
100
AcDbArc
 50
90.00000000004573
 51
180.000000000046
  0
ARC
  5
C3
330
4E
100
AcDbEntity
  8
0
  6
Continuous
 62
     7
100
AcDbCircle
 10
-63.71924700001486
 20
165.7499999999851
 30
0.0
 40
5.728399999999993
100
AcDbArc
 50
90.0
 51
180.0
  0
ARC
  5
C4
330
4E
100
AcDbEntity
  8
0
  6
Continuous
 62
     7
100
AcDbCircle
 10
-63.71924700001486
 20
122.2499999999851
 30
0.0
 40
5.728400000000008
100
AcDbArc
 50
180.0
 51
270.0
  0
ENDBLK
  5
50
330
4E
100
AcDbEntity
  8
0
100
AcDbBlockEnd
  0
BLOCK
  5
53
330
51
100
AcDbEntity
  8
0
100
AcDbBlockBegin
  2
Rckans1
 70
     0
 10
-18.197647
 20
144.0
 30
0.0
  3
Rckans1
  1

  0
INSERT
  5
52
330
51
100
AcDbEntity
  8
0
100
AcDbBlockReference
  2
1409804_HC_B10_TMS_EEE_PR_DI-select__2
 10
-69.44764700001487
 20
116.5215999999851
 30
0.0
  0
MTEXT
  5
C5
330
51
100
AcDbEntity
  8
1
 62
     6
100
AcDbMText
 10
5.30235381645809
 20
111.5216012228331
 30
0.0
 40
5.0
 41
0.0
 71
     2
 72
     1
  1
 
  7
CONVERTER_11
 73
     1
 44
1.32052821128451
  0
ENDBLK
  5
54
330
51
100
AcDbEntity
  8
0
100
AcDbBlockEnd
  0
BLOCK
  5
56
330
55
100
AcDbEntity
  8
0
100
AcDbBlockBegin
  2
1409804_HC_B10_TMS_EEE_PR_DI-select__3
 70
     0
 10
-87.72604736804456
 20
116.5216004995516
 30
0.0
  3
1409804_HC_B10_TMS_EEE_PR_DI-select__3
  1

  0
LINE
  5
C6
330
55
100
AcDbEntity
  8
0
  6
Continuous
 62
     7
100
AcDbLine
 10
-87.72604736804456
 20
165.7500004995516
 30
0.0
 11
-87.72604736804456
 21
171.4784004995516
 31
0.0
  0
LINE
  5
C7
330
55
100
AcDbEntity
  8
0
  6
Continuous
 62
     7
100
AcDbLine
 10
-86.89020002176957
 20
171.4784004995516
 30
0.0
 11
-87.72604736804456
 21
171.4784004995516
 31
0.0
  0
LINE
  5
C8
330
55
100
AcDbEntity
  8
0
  6
Continuous
 62
     2
100
AcDbLine
 10
-86.89020002176957
 20
165.7500004995516
 30
0.0
 11
-86.89020002176957
 21
171.4784004995516
 31
0.0
  0
LINE
  5
C9
330
55
100
AcDbEntity
  8
0
  6
Continuous
 62
     2
100
AcDbLine
 10
-86.89020002176957
 20
122.2500004995516
 30
0.0
 11
-86.89020002176957
 21
116.5216004995516
 31
0.0
  0
LINE
  5
CA
330
55
100
AcDbEntity
  8
0
  6
Continuous
 62
     2
100
AcDbLine
 10
-86.89020002176957
 20
122.2500004995516
 30
0.0
 11
-86.89020002176957
 21
165.7500004995516
 31
0.0
  0
LINE
  5
CB
330
55
100
AcDbEntity
  8
0
  6
Continuous
 62
     7
100
AcDbLine
 10
-87.72604736804456
 20
122.2500004995516
 30
0.0
 11
-87.72604736804456
 21
165.7500004995516
 31
0.0
  0
LINE
  5
CC
330
55
100
AcDbEntity
  8
0
  6
Continuous
 62
     2
100
AcDbLine
 10
-84.51225270528005
 20
165.7500004995516
 30
0.0
 11
-86.89020002176957
 21
165.7500004995516
 31
0.0
  0
LINE
  5
CD
330
55
100
AcDbEntity
  8
0
  6
Continuous
 62
     2
100
AcDbLine
 10
-86.89020002176957
 20
165.7500004995516
 30
0.0
 11
-87.72604736804456
 21
165.7500004995516
 31
0.0
  0
LINE
  5
CE
330
55
100
AcDbEntity
  8
0
  6
Continuous
 62
     2
100
AcDbLine
 10
-84.51225270528005
 20
122.2500004995516
 30
0.0
 11
-79.92604736804455
 21
122.2500004995516
 31
0.0
  0
LINE
  5
CF
330
55
100
AcDbEntity
  8
0
  6
Continuous
 62
     2
100
AcDbLine
 10
-79.92604736804455
 20
165.7500004995516
 30
0.0
 11
-84.51225270528005
 21
165.7500004995516
 31
0.0
  0
LINE
  5
D0
330
55
100
AcDbEntity
  8
0
  6
Continuous
 62
     7
100
AcDbLine
 10
-79.92604736804455
 20
118.2500004995516
 30
0.0
 11
-84.51225270528005
 21
118.2500004995516
 31
0.0
  0
LINE
  5
D1
330
55
100
AcDbEntity
  8
0
  6
Continuous
 62
     2
100
AcDbLine
 10
-86.89020002176957
 20
122.2500004995516
 30
0.0
 11
-84.51225270528005
 21
122.2500004995516
 31
0.0
  0
LINE
  5
D2
330
55
100
AcDbEntity
  8
0
  6
Continuous
 62
     7
100
AcDbLine
 10
-79.92604736804455
 20
165.7500004995516
 30
0.0
 11
-79.92604736804455
 21
169.7500004995516
 31
0.0
  0
LINE
  5
D3
330
55
100
AcDbEntity
  8
0
  6
Continuous
 62
     7
100
AcDbLine
 10
-79.92604736804455
 20
118.2500004995516
 30
0.0
 11
-79.92604736804455
 21
122.2500004995516
 31
0.0
  0
LINE
  5
D4
330
55
100
AcDbEntity
  8
0
  6
Continuous
 62
     7
100
AcDbLine
 10
-79.92604736804455
 20
165.7500004995516
 30
0.0
 11
-79.92604736804455
 21
122.2500004995516
 31
0.0
  0
LINE
  5
D5
330
55
100
AcDbEntity
  8
0
  6
Continuous
 62
     2
100
AcDbLine
 10
-86.89020002176957
 20
122.2500004995516
 30
0.0
 11
-87.72604736804456
 21
122.2500004995516
 31
0.0
  0
LINE
  5
D6
330
55
100
AcDbEntity
  8
0
  6
Continuous
 62
     7
100
AcDbLine
 10
-86.89020002176957
 20
116.5216004995516
 30
0.0
 11
-87.72604736804456
 21
116.5216004995516
 31
0.0
  0
LINE
  5
D7
330
55
100
AcDbEntity
  8
0
  6
Continuous
 62
     7
100
AcDbLine
 10
-87.72604736804456
 20
116.5216004995516
 30
0.0
 11
-87.72604736804456
 21
122.2500004995516
 31
0.0
  0
LINE
  5
D8
330
55
100
AcDbEntity
  8
0
  6
Continuous
 62
     7
100
AcDbLine
 10
-84.51225270528005
 20
118.2500004995516
 30
0.0
 11
-84.51225270528005
 21
122.2500004995516
 31
0.0
  0
LINE
  5
D9
330
55
100
AcDbEntity
  8
0
  6
Continuous
 62
     7
100
AcDbLine
 10
-84.51225270528005
 20
122.2500004995516
 30
0.0
 11
-84.51225270528005
 21
165.7500004995516
 31
0.0
  0
LINE
  5
DA
330
55
100
AcDbEntity
  8
0
  6
Continuous
 62
     7
100
AcDbLine
 10
-84.51225270528005
 20
165.7500004995516
 30
0.0
 11
-84.51225270528005
 21
169.7500004995516
 31
0.0
  0
LINE
  5
DB
330
55
100
AcDbEntity
  8
0
  6
Continuous
 62
     7
100
AcDbLine
 10
-79.92604736804455
 20
169.7500004995516
 30
0.0
 11
-84.51225270528005
 21
169.7500004995516
 31
0.0
  0
ARC
  5
DC
330
55
100
AcDbEntity
  8
0
  6
Continuous
 62
     7
100
AcDbCircle
 10
-86.89020002176957
 20
119.0216004995516
 30
0.0
 40
2.5
100
AcDbArc
 50
270.0
 51
342.0227103184124
  0
ARC
  5
DD
330
55
100
AcDbEntity
  8
0
  6
Continuous
 62
     7
100
AcDbCircle
 10
-86.89020002176957
 20
168.9784004995516
 30
0.0
 40
2.49999999999994
100
AcDbArc
 50
17.97728968158735
 51
90.0
  0
ENDBLK
  5
57
330
55
100
AcDbEntity
  8
0
100
AcDbBlockEnd
  0
BLOCK
  5
5A
330
58
100
AcDbEntity
  8
0
100
AcDbBlockBegin
  2
SA_Links1
 70
     0
 10
-83.82604746319697
 20
144.0000004995665
 30
0.0
  3
SA_Links1
  1

  0
INSERT
  5
59
330
58
100
AcDbEntity
  8
0
100
AcDbBlockReference
  2
1409804_HC_B10_TMS_EEE_PR_DI-select__3
 10
-87.72604736804456
 20
116.5216004995516
 30
0.0
  0
MTEXT
  5
DE
330
58
100
AcDbEntity
  8
1
 62
     6
100
AcDbMText
 10
-83.82604746319646
 20
111.5216012228331
 30
0.0
 40
5.0
 41
0.0
 71
     2
 72
     1
  1
 
  7
CONVERTER_11
 73
     1
 44
1.32052821128451
  0
ENDBLK
  5
5B
330
58
100
AcDbEntity
  8
0
100
AcDbBlockEnd
  0
BLOCK
  5
5D
330
5C
100
AcDbEntity
  8
0
100
AcDbBlockBegin
  2
1409804_HC_B10_TMS_EEE_PR_DI-select__4
 70
     0
 10
-79.98884972346335
 20
38.86087033709748
 30
0.0
  3
1409804_HC_B10_TMS_EEE_PR_DI-select__4
  1

  0
LINE
  5
DF
330
5C
100
AcDbEntity
  8
0
  6
Continuous
 62
     7
100
AcDbLine
 10
3.27452840498555
 20
47.47633363210526
 30
0.0
 11
-75.53378333939622
 21
70.22633363210716
 31
0.0
  0
LINE
  5
E0
330
5C
100
AcDbEntity
  8
0
  6
Continuous
 62
     7
100
AcDbLine
 10
-78.26044972346334
 20
71.32907289099774
 30
0.0
 11
-78.26044972346335
 21
67.35730256198008
 31
0.0
  0
LINE
  5
E1
330
5C
100
AcDbEntity
  8
0
  6
Continuous
 62
     7
100
AcDbLine
 10
31.25880194395936
 20
59.22802727379064
 30
0.0
 11
9.50880194395936
 21
40.39197474147911
 31
0.0
  0
LINE
  5
E2
330
5C
100
AcDbEntity
  8
0
  6
Continuous
 62
     2
100
AcDbLine
 10
31.25880194395936
 20
59.95189230935061
 30
0.0
 11
9.50880194395936
 21
41.11583977703907
 31
0.0
  0
LINE
  5
E3
330
5C
100
AcDbEntity
  8
0
  6
Continuous
 62
     7
100
AcDbLine
 10
29.76196363605834
 20
62.44335509429162
 30
0.0
 11
8.01196363605834
 21
43.60730256198008
 31
0.0
  0
LINE
  5
E4
330
5C
100
AcDbEntity
  8
0
  6
Continuous
 62
     7
100
AcDbLine
 10
8.01196363605834
 20
47.57907289099773
 30
0.0
 11
29.76196363605834
 21
66.41512542330926
 31
0.0
  0
LINE
  5
E5
330
5C
100
AcDbEntity
  8
0
  6
Continuous
 62
     7
100
AcDbLine
 10
28.50334053870174
 20
66.77845861534296
 30
0.0
 11
6.75334053870554
 21
47.9424060830302
 31
0.0
  0
LINE
  5
E6
330
5C
100
AcDbEntity
  8
0
  6
Continuous
 62
     2
100
AcDbLine
 10
29.76196363605834
 20
62.44335509429162
 30
0.0
 11
29.76196363605834
 21
66.41512542330926
 31
0.0
  0
LINE
  5
E7
330
5C
100
AcDbEntity
  8
0
  6
Continuous
 62
     2
100
AcDbLine
 10
1.68366202092065
 20
40.06746981551968
 30
0.0
 11
1.68366202092065
 21
39.34360477995972
 31
0.0
  0
LINE
  5
E8
330
5C
100
AcDbEntity
  8
0
  6
Continuous
 62
     7
100
AcDbLine
 10
25.70334053870556
 20
64.35358748474529
 30
0.0
 11
-52.16044972346336
 21
86.83092761873917
 31
0.0
  0
LINE
  5
E9
330
5C
100
AcDbEntity
  8
0
  6
Continuous
 62
     7
100
AcDbLine
 10
-52.16044972346336
 20
85.7050945938194
 30
0.0
 11
24.72834053870554
 21
63.50921271605547
 31
0.0
  0
LINE
  5
EA
330
5C
100
AcDbEntity
  8
0
  6
Continuous
 62
     7
100
AcDbLine
 10
26.55334053870774
 20
65.08970907796405
 30
0.0
 11
-51.31044972346314
 21
87.56704921195612
 31
0.0
  0
LINE
  5
EB
330
5C
100
AcDbEntity
  8
0
  6
Continuous
 62
     7
100
AcDbLine
 10
28.29786202092055
 20
69.14717623087813
 30
0.0
 11
-50.51044972346335
 21
91.89717623087815
 31
0.0
  0
LINE
  5
EC
330
5C
100
AcDbEntity
  8
0
  6
Continuous
 62
     7
100
AcDbLine
 10
-51.23711610753047
 20
91.26786468219983
 30
0.0
 11
27.57119563685345
 21
68.51786468219983
 31
0.0
  0
LINE
  5
ED
330
5C
100
AcDbEntity
  8
0
  6
Continuous
 62
     2
100
AcDbLine
 10
-51.23711610753047
 20
91.26786468219983
 30
0.0
 11
-51.31044972346314
 21
87.56704921195612
 31
0.0
  0
LINE
  5
EE
330
5C
100
AcDbEntity
  8
0
  6
Continuous
 62
     2
100
AcDbLine
 10
-54.58891069254636
 20
87.12781872741469
 30
0.0
 11
-54.7159282412445
 21
90.8017922312757
 31
0.0
  0
LINE
  5
EF
330
5C
100
AcDbEntity
  8
0
  6
Continuous
 62
     2
100
AcDbLine
 10
-52.16044972346336
 20
86.83092761873917
 30
0.0
 11
-52.16044972346336
 21
85.7050945938194
 31
0.0
  0
LINE
  5
F0
330
5C
100
AcDbEntity
  8
0
  6
Continuous
 62
     2
100
AcDbLine
 10
27.51985096556106
 20
65.92673166064154
 30
0.0
 11
27.57119563685345
 21
68.51786468219983
 31
0.0
  0
LINE
  5
F1
330
5C
100
AcDbEntity
  8
0
  6
Continuous
 62
     7
100
AcDbLine
 10
1.68366202092065
 20
39.34360477995972
 30
0.0
 11
-77.12464972346334
 21
62.09360477995971
 31
0.0
  0
LINE
  5
F2
330
5C
100
AcDbEntity
  8
0
  6
Continuous
 62
     7
100
AcDbLine
 10
2.54786202092055
 20
42.8752517544112
 30
0.0
 11
-76.26044972346334
 21
65.6252517544112
 31
0.0
  0
LINE
  5
F3
330
5C
100
AcDbEntity
  8
0
  6
Continuous
 62
     2
100
AcDbLine
 10
-76.26044972346335
 20
69.59702208342884
 30
0.0
 11
-76.26044972346334
 21
65.6252517544112
 31
0.0
  0
LINE
  5
F4
330
5C
100
AcDbEntity
  8
0
  6
Continuous
 62
     2
100
AcDbLine
 10
2.54786202092055
 20
42.8752517544112
 30
0.0
 11
2.54786202092055
 21
46.84702208342885
 31
0.0
  0
LINE
  5
F5
330
5C
100
AcDbEntity
  8
0
  6
Continuous
 62
     2
100
AcDbLine
 10
9.50880194395936
 20
41.11583977703907
 30
0.0
 11
9.50880194395936
 21
40.39197474147911
 31
0.0
  0
LINE
  5
F6
330
5C
100
AcDbEntity
  8
0
  6
Continuous
 62
     2
100
AcDbLine
 10
8.01196363605834
 20
47.57907289099773
 30
0.0
 11
8.01196363605834
 21
43.60730256198008
 31
0.0
  0
LINE
  5
F7
330
5C
100
AcDbEntity
  8
0
  6
Continuous
 62
     2
100
AcDbLine
 10
1.68366202092065
 20
40.06746981551968
 30
0.0
 11
-77.12464972346334
 21
62.81746981551967
 31
0.0
  0
LINE
  5
F8
330
5C
100
AcDbEntity
  8
0
  6
Continuous
 62
     7
100
AcDbLine
 10
-76.26044972346335
 20
69.59702208342884
 30
0.0
 11
2.54786202092055
 21
46.84702208342885
 31
0.0
  0
LINE
  5
F9
330
5C
100
AcDbEntity
  8
0
  6
Continuous
 62
     2
100
AcDbLine
 10
-77.12464972346334
 20
62.81746981551967
 30
0.0
 11
-77.12464972346334
 21
62.09360477995971
 31
0.0
  0
LINE
  5
FA
330
5C
100
AcDbEntity
  8
0
  6
Continuous
 62
     7
100
AcDbLine
 10
30.29786202092055
 20
67.41512542330926
 30
0.0
 11
30.29786202092055
 21
63.4433550942916
 31
0.0
  0
LINE
  5
FB
330
5C
100
AcDbEntity
  8
0
  6
Continuous
 62
     7
100
AcDbLine
 10
32.02626202092054
 20
61.3839923093506
 30
0.0
 11
32.02626202092054
 21
60.66012727379064
 31
0.0
  0
LINE
  5
FC
330
5C
100
AcDbEntity
  8
0
  6
Continuous
 62
     2
100
AcDbLine
 10
31.25880194395936
 20
59.95189230935061
 30
0.0
 11
31.25880194395936
 21
59.22802727379064
 31
0.0
  0
LINE
  5
FD
330
5C
100
AcDbEntity
  8
0
  6
Continuous
 62
     7
100
AcDbLine
 10
-53.11666750611246
 20
86.70281872741462
 30
0.0
 11
-72.99000112204753
 21
69.4920069581316
 31
0.0
  0
LINE
  5
FE
330
5C
100
AcDbEntity
  8
0
  6
Continuous
 62
     7
100
AcDbLine
 10
-55.9745513386011
 20
91.16512542330926
 30
0.0
 11
-77.72455133860109
 21
72.32907289099772
 31
0.0
  0
LINE
  5
FF
330
5C
100
AcDbEntity
  8
0
  6
Continuous
 62
     7
100
AcDbLine
 10
-76.46592824124447
 20
71.96573969896416
 30
0.0
 11
-54.7159282412445
 21
90.8017922312757
 31
0.0
  0
LINE
  5
100
330
5C
100
AcDbEntity
  8
0
  6
Continuous
 62
     2
100
AcDbLine
 10
-53.11666750611246
 20
85.57698570249485
 30
0.0
 11
-53.11666750611246
 21
86.70281872741462
 31
0.0
  0
LINE
  5
101
330
5C
100
AcDbEntity
  8
0
  6
Continuous
 62
     7
100
AcDbLine
 10
-54.58891069254636
 20
87.12781872741469
 30
0.0
 11
-74.46224430848511
 21
69.91700695813276
 31
0.0
  0
LINE
  5
102
330
5C
100
AcDbEntity
  8
0
  6
Continuous
 62
     2
100
AcDbLine
 10
-76.46592824124447
 20
71.96573969896416
 30
0.0
 11
-76.42060299925168
 21
70.65471031881604
 31
0.0
  0
LINE
  5
103
330
5C
100
AcDbEntity
  8
0
  6
Continuous
 62
     7
100
AcDbLine
 10
-72.01500112204752
 20
69.21054870190166
 30
0.0
 11
-53.11666750611246
 21
85.57698570249485
 31
0.0
  0
LINE
  5
104
330
5C
100
AcDbEntity
  8
0
  6
Continuous
 62
     7
100
AcDbLine
 10
-78.69296031381097
 20
67.9948621420852
 30
0.0
 11
-78.26044972346335
 21
68.36942730073204
 31
0.0
  0
LINE
  5
105
330
5C
100
AcDbEntity
  8
0
  6
Continuous
 62
     7
100
AcDbLine
 10
-79.98884972346335
 20
65.29793977703906
 30
0.0
 11
-79.98884972346335
 21
64.57407474147911
 31
0.0
  0
SPLINE
  5
106
330
5C
100
AcDbEntity
  8
0
  6
Continuous
 62
     7
100
AcDbSpline
210
0.0
220
0.0
230
1.0
 70
     8
 71
     3
 72
     9
 73
     5
 74
     3
 42
0.000000001
 43
0.0000000001
 44
0.00000001
 40
0.0
 40
0.0
 40
0.0
 40
0.0
 40
0.5352813438478541
 40
1.161662880834227
 40
1.161662880834227
 40
1.161662880834227
 40
1.161662880834227
 10
-78.26044972346334
 20
71.32907289099774
 30
0.0
 10
-78.23077501381995
 20
71.50971570859299
 30
0.0
 10
-78.16637520084433
 20
71.90174516144529
 30
0.0
 10
-77.87932955178448
 20
72.17937292219898
 30
0.0
 10
-77.72455133860109
 20
72.32907289099772
 30
0.0
 11
-78.26044972346334
 21
71.32907289099774
 31
0.0
 11
-78.12415199853402
 21
71.84671084319747
 31
0.0
 11
-77.72455133860109
 21
72.32907289099772
 31
0.0
  0
SPLINE
  5
107
330
5C
100
AcDbEntity
  8
0
  6
Continuous
 62
     7
100
AcDbSpline
210
0.0
220
0.0
230
1.0
 70
     8
 71
     3
 72
     9
 73
     5
 74
     3
 42
0.000000001
 43
0.0000000001
 44
0.00000001
 40
0.0
 40
0.0
 40
0.0
 40
0.0
 40
0.3507973679324922
 40
0.7004786236287516
 40
0.7004786236287516
 40
0.7004786236287516
 40
0.7004786236287516
 10
-52.86080259366344
 20
85.70499868942629
 30
0.0
 10
-52.74389148459998
 20
85.70833626928398
 30
0.0
 10
-52.51044123577591
 20
85.7150007900166
 30
0.0
 10
-52.27698957025451
 20
85.70839315643325
 30
0.0
 10
-52.16044972346336
 20
85.7050945938194
 30
0.0
 11
-52.86080259366344
 21
85.70499868942629
 31
0.0
 11
-52.51006891097899
 21
85.71168279833456
 31
0.0
 11
-52.16044972346336
 21
85.7050945938194
 31
0.0
  0
SPLINE
  5
108
330
5C
100
AcDbEntity
  8
0
  6
Continuous
 62
     7
100
AcDbSpline
210
0.0
220
0.0
230
1.0
 70
     8
 71
     3
 72
     9
 73
     5
 74
     3
 42
0.000000001
 43
0.0000000001
 44
0.00000001
 40
0.0
 40
0.0
 40
0.0
 40
0.0
 40
0.7155703056779542
 40
1.741183673318242
 40
1.741183673318242
 40
1.741183673318242
 40
1.741183673318242
 10
-76.8065993095224
 20
71.30340055535157
 30
0.0
 10
-76.70841708268706
 20
71.07517947570403
 30
0.0
 10
-76.46951211370434
 20
70.51985345581141
 30
0.0
 10
-75.88064504885064
 20
70.33513736260514
 30
0.0
 10
-75.53378333939622
 20
70.22633363210716
 30
0.0
 11
-76.8065993095224
 21
71.30340055535157
 31
0.0
 11
-76.45294595775545
 21
70.68133128803346
 31
0.0
 11
-75.53378333939622
 21
70.22633363210716
 31
0.0
  0
SPLINE
  5
109
330
5C
100
AcDbEntity
  8
0
  6
Continuous
 62
     7
100
AcDbSpline
210
0.0
220
0.0
230
1.0
 70
     8
 71
     3
 72
     9
 73
     5
 74
     3
 42
0.000000001
 43
0.0000000001
 44
0.00000001
 40
0.0
 40
0.0
 40
0.0
 40
0.0
 40
1.636869992921838
 40
2.77142558417248
 40
2.77142558417248
 40
2.77142558417248
 40
2.77142558417248
 10
-76.26044972346335
 20
69.59702208342884
 30
0.0
 10
-76.81646374796382
 20
69.77109040114932
 30
0.0
 10
-77.75786500774826
 20
70.06580984448837
 30
0.0
 10
-78.11446584501248
 20
70.96213764464585
 30
0.0
 10
-78.26044972346334
 20
71.32907289099774
 30
0.0
 11
-76.26044972346335
 21
69.59702208342884
 31
0.0
 11
-77.72449205250709
 21
70.32909000541889
 31
0.0
 11
-78.26044972346334
 21
71.32907289099774
 31
0.0
  0
SPLINE
  5
10A
330
5C
100
AcDbEntity
  8
0
  6
Continuous
 62
     7
100
AcDbSpline
210
0.0
220
0.0
230
1.0
 70
     8
 71
     3
 72
     9
 73
     5
 74
     3
 42
0.000000001
 43
0.0000000001
 44
0.00000001
 40
0.0
 40
0.0
 40
0.0
 40
0.0
 40
1.636869992921838
 40
2.77142558417247
 40
2.77142558417247
 40
2.77142558417247
 40
2.77142558417247
 10
28.29786202092055
 20
69.14717623087813
 30
0.0
 10
28.85387604542103
 20
68.97310791315766
 30
0.0
 10
29.79527730520546
 20
68.67838846981863
 30
0.0
 10
30.15187814246968
 20
67.78206066966116
 30
0.0
 10
30.29786202092055
 20
67.41512542330926
 30
0.0
 11
28.29786202092055
 21
69.14717623087813
 31
0.0
 11
29.76190434996429
 21
68.4151083088881
 31
0.0
 11
30.29786202092055
 21
67.41512542330926
 31
0.0
  0
SPLINE
  5
10B
330
5C
100
AcDbEntity
  8
0
  6
Continuous
 62
     7
100
AcDbSpline
210
0.0
220
0.0
230
1.0
 70
     8
 71
     3
 72
     9
 73
     5
 74
     3
 42
0.000000001
 43
0.0000000001
 44
0.00000001
 40
0.0
 40
0.0
 40
0.0
 40
0.0
 40
0.7291153567166171
 40
1.787628612189891
 40
1.787628612189891
 40
1.787628612189891
 40
1.787628612189891
 10
28.84401160697965
 20
67.38945308766311
 30
0.0
 10
28.75662647529446
 20
67.62843208507827
 30
0.0
 10
28.54237756113088
 20
68.21435539886465
 30
0.0
 10
27.93238949178652
 20
68.40498605589532
 30
0.0
 10
27.57119563685345
 20
68.51786468219983
 30
0.0
 11
28.84401160697965
 21
67.38945308766311
 31
0.0
 11
28.51602270972105
 21
68.0406308600401
 31
0.0
 11
27.57119563685345
 21
68.51786468219983
 31
0.0
  0
SPLINE
  5
10C
330
5C
100
AcDbEntity
  8
0
  6
Continuous
 62
     7
100
AcDbSpline
210
0.0
220
0.0
230
1.0
 70
     8
 71
     3
 72
    11
 73
     7
 74
     5
 42
0.000000001
 43
0.0000000001
 44
0.00000001
 40
0.0
 40
0.0
 40
0.0
 40
0.0
 40
1.696413183330784
 40
3.761053629315704
 40
5.992573678053648
 40
8.139337027253017
 40
8.139337027253017
 40
8.139337027253017
 40
8.139337027253017
 10
9.508801943959355
 20
40.39197474147911
 30
0.0
 10
9.030454077809745
 20
40.08228745556112
 30
0.0
 10
7.969927073751554
 20
39.39569147835534
 30
0.0
 10
5.977248251112153
 20
38.99754419561776
 30
0.0
 10
3.820149477180043
 20
38.88660404930955
 30
0.0
 10
2.386573914143822
 20
39.19324992597429
 30
0.0
 10
1.68366202092065
 20
39.34360477995972
 30
0.0
 11
9.508801943959355
 21
40.39197474147911
 31
0.0
 11
8.035080387952176
 21
39.55175901320239
 31
0.0
 11
6.030481038885895
 21
39.05746998982196
 31
0.0
 11
3.800158054804277
 21
38.98438700361463
 31
0.0
 11
1.68366202092065
 21
39.34360477995972
 31
0.0
  0
SPLINE
  5
10D
330
5C
100
AcDbEntity
  8
0
  6
Continuous
 62
     7
100
AcDbSpline
210
0.0
220
0.0
230
1.0
 70
     8
 71
     3
 72
     9
 73
     5
 74
     3
 42
0.000000001
 43
0.0000000001
 44
0.00000001
 40
0.0
 40
0.0
 40
0.0
 40
0.0
 40
0.3849513536828105
 40
0.7146224473781044
 40
0.7146224473781044
 40
0.7146224473781044
 40
0.7146224473781044
 10
28.50334053870174
 20
66.77845861534296
 30
0.0
 10
28.5983688726425
 20
66.87000274323134
 30
0.0
 10
28.77477914811376
 20
67.03994497662885
 30
0.0
 10
28.82215574598818
 20
67.27911751723036
 30
0.0
 10
28.84401160697965
 20
67.38945308766311
 30
0.0
 11
28.50334053870174
 21
66.77845861534296
 31
0.0
 11
28.75098332234345
 21
67.07317983614324
 31
0.0
 11
28.84401160697965
 21
67.38945308766311
 31
0.0
  0
SPLINE
  5
10E
330
5C
100
AcDbEntity
  8
0
  6
Continuous
 62
     7
100
AcDbSpline
210
0.0
220
0.0
230
1.0
 70
     8
 71
     3
 72
     9
 73
     5
 74
     3
 42
0.000000001
 43
0.0000000001
 44
0.00000001
 40
0.0
 40
0.0
 40
0.0
 40
0.0
 40
0.4552631230380115
 40
0.9875462176038678
 40
0.9875462176038678
 40
0.9875462176038678
 40
0.9875462176038678
 10
-53.11666750611246
 20
85.57698570249485
 30
0.0
 10
-52.97721800913657
 20
85.64613958864592
 30
0.0
 10
-52.67472738620645
 20
85.79614657748405
 30
0.0
 10
-52.34056291393761
 20
85.73698333387631
 30
0.0
 10
-52.16044972346336
 20
85.7050945938194
 30
0.0
 11
-53.11666750611246
 21
85.57698570249485
 31
0.0
 11
-52.69158752603414
 21
85.73999344367759
 31
0.0
 11
-52.16044972346336
 21
85.7050945938194
 31
0.0
  0
SPLINE
  5
10F
330
5C
100
AcDbEntity
  8
0
  6
Continuous
 62
     7
100
AcDbSpline
210
0.0
220
0.0
230
1.0
 70
     8
 71
     3
 72
     9
 73
     5
 74
     3
 42
0.000000001
 43
0.0000000001
 44
0.00000001
 40
0.0
 40
0.0
 40
0.0
 40
0.0
 40
1.936497027089919
 40
3.592788000338226
 40
3.592788000338226
 40
3.592788000338226
 40
3.592788000338226
 10
-51.23711610753047
 20
91.26786468219983
 30
0.0
 10
-51.8923851954536
 20
91.3838789816362
 30
0.0
 10
-53.10810764736829
 20
91.59912059565093
 30
0.0
 10
-54.20859757601535
 20
91.05338071187288
 30
0.0
 10
-54.7159282412445
 20
90.8017922312757
 30
0.0
 11
-51.23711610753047
 21
91.26786468219983
 31
0.0
 11
-53.16944644669074
 21
91.39483004986228
 31
0.0
 11
-54.7159282412445
 21
90.8017922312757
 31
0.0
  0
SPLINE
  5
110
330
5C
100
AcDbEntity
  8
0
  6
Continuous
 62
     7
100
AcDbSpline
210
0.0
220
0.0
230
1.0
 70
     8
 71
     3
 72
     9
 73
     5
 74
     3
 42
0.000000001
 43
0.0000000001
 44
0.00000001
 40
0.0
 40
0.0
 40
0.0
 40
0.0
 40
0.5322830945658572
 40
0.9875462176038738
 40
0.9875462176038738
 40
0.9875462176038738
 40
0.9875462176038738
 10
-52.16044972346336
 20
86.83092761873917
 30
0.0
 10
-52.34056291393762
 20
86.8628163587961
 30
0.0
 10
-52.67472738620647
 20
86.92197960240384
 30
0.0
 10
-52.97721800913657
 20
86.7719726135657
 30
0.0
 10
-53.11666750611246
 20
86.70281872741462
 30
0.0
 11
-52.16044972346336
 21
86.83092761873917
 31
0.0
 11
-52.69158752603414
 21
86.86582646859738
 31
0.0
 11
-53.11666750611246
 21
86.70281872741462
 31
0.0
  0
SPLINE
  5
111
330
5C
100
AcDbEntity
  8
0
  6
Continuous
 62
     7
100
AcDbSpline
210
0.0
220
0.0
230
1.0
 70
     8
 71
     3
 72
     9
 73
     5
 74
     3
 42
0.000000001
 43
0.0000000001
 44
0.00000001
 40
0.0
 40
0.0
 40
0.0
 40
0.0
 40
1.560902141333218
 40
3.385872756476155
 40
3.385872756476155
 40
3.385872756476155
 40
3.385872756476155
 10
-54.58891069254636
 20
87.12781872741469
 30
0.0
 10
-54.1107981298925
 20
87.36491776643726
 30
0.0
 10
-53.07368743231662
 20
87.87922748929765
 30
0.0
 10
-51.92798066399254
 20
87.67638203532012
 30
0.0
 10
-51.31044972346314
 20
87.56704921195612
 30
0.0
 11
-54.58891069254636
 21
87.12781872741469
 31
0.0
 11
-53.13149361799184
 21
87.68670241146998
 31
0.0
 11
-51.31044972346314
 21
87.56704921195612
 31
0.0
  0
SPLINE
  5
112
330
5C
100
AcDbEntity
  8
0
  6
Continuous
 62
     7
100
AcDbSpline
210
0.0
220
0.0
230
1.0
 70
     8
 71
     3
 72
     9
 73
     5
 74
     3
 42
0.000000001
 43
0.0000000001
 44
0.00000001
 40
0.0
 40
0.0
 40
0.0
 40
0.0
 40
1.63686999292185
 40
2.771425584172487
 40
2.771425584172487
 40
2.771425584172487
 40
2.771425584172487
 10
-76.26044972346334
 20
65.6252517544112
 30
0.0
 10
-76.81646374796384
 20
65.79932007213168
 30
0.0
 10
-77.75786500774825
 20
66.09403951547074
 30
0.0
 10
-78.11446584501246
 20
66.99036731562818
 30
0.0
 10
-78.26044972346335
 20
67.35730256198008
 30
0.0
 11
-76.26044972346334
 21
65.6252517544112
 31
0.0
 11
-77.72449205250709
 21
66.35731967640125
 31
0.0
 11
-78.26044972346335
 21
67.35730256198008
 31
0.0
  0
SPLINE
  5
113
330
5C
100
AcDbEntity
  8
0
  6
Continuous
 62
     7
100
AcDbSpline
210
0.0
220
0.0
230
1.0
 70
     8
 71
     3
 72
    11
 73
     7
 74
     5
 42
0.000000001
 43
0.0000000001
 44
0.00000001
 40
0.0
 40
0.0
 40
0.0
 40
0.0
 40
1.184563356297232
 40
2.626250699451521
 40
4.184465941359636
 40
5.683497677775106
 40
5.683497677775106
 40
5.683497677775106
 40
5.683497677775106
 10
8.01196363605834
 20
47.57907289099773
 30
0.0
 10
7.677945155553923
 20
47.36282592097047
 30
0.0
 10
6.937405384166877
 20
46.88339294087805
 30
0.0
 10
5.545967062872018
 20
46.60537654102227
 30
0.0
 10
4.039718355875408
 20
46.52790978382197
 30
0.0
 10
3.038688006112809
 20
46.74203300862823
 30
0.0
 10
2.547862020920549
 20
46.84702208342885
 30
0.0
 11
8.01196363605834
 21
47.57907289099773
 31
0.0
 11
6.982900333211319
 21
46.99237103478886
 31
0.0
 11
5.583138201330641
 21
46.64722123841959
 31
0.0
 11
4.025758839497266
 21
46.59618919721623
 31
0.0
 11
2.547862020920549
 21
46.84702208342885
 31
0.0
  0
SPLINE
  5
114
330
5C
100
AcDbEntity
  8
0
  6
Continuous
 62
     2
100
AcDbSpline
210
0.0
220
0.0
230
1.0
 70
     8
 71
     3
 72
     9
 73
     5
 74
     3
 42
0.000000001
 43
0.0000000001
 44
0.00000001
 40
0.0
 40
0.0
 40
0.0
 40
0.0
 40
1.498954783455189
 40
2.966786080761655
 40
2.966786080761655
 40
2.966786080761655
 40
2.966786080761655
 10
1.68366202092065
 20
40.06746981551968
 30
0.0
 10
1.729654297262177
 20
40.57114475594217
 30
0.0
 10
1.820683910337623
 20
41.56803659832131
 30
0.0
 10
2.307170496641596
 20
42.44257151520413
 30
0.0
 10
2.547862020920549
 20
42.8752517544112
 30
0.0
 11
1.68366202092065
 21
40.06746981551968
 31
0.0
 11
1.922588281860287
 21
41.54726023610618
 31
0.0
 11
2.547862020920549
 21
42.8752517544112
 31
0.0
  0
SPLINE
  5
115
330
5C
100
AcDbEntity
  8
0
  6
Continuous
 62
     2
100
AcDbSpline
210
0.0
220
0.0
230
1.0
 70
     8
 71
     3
 72
    11
 73
     7
 74
     5
 42
0.000000001
 43
0.0000000001
 44
0.00000001
 40
0.0
 40
0.0
 40
0.0
 40
0.0
 40
1.696413183330758
 40
3.761053629315717
 40
5.992573678053661
 40
8.13933702725303
 40
8.13933702725303
 40
8.13933702725303
 40
8.13933702725303
 10
9.508801943959355
 20
41.11583977703907
 30
0.0
 10
9.030454077809756
 20
40.80615249112108
 30
0.0
 10
7.969927073751584
 20
40.11955651391524
 30
0.0
 10
5.977248251112162
 20
39.72140923117771
 30
0.0
 10
3.820149477180045
 20
39.6104690848695
 30
0.0
 10
2.386573914143822
 20
39.91711496153424
 30
0.0
 10
1.68366202092065
 20
40.06746981551968
 30
0.0
 11
9.508801943959355
 21
41.11583977703907
 31
0.0
 11
8.035080387952219
 21
40.27562404876233
 31
0.0
 11
6.030481038885895
 21
39.78133502538191
 31
0.0
 11
3.800158054804277
 21
39.70825203917459
 31
0.0
 11
1.68366202092065
 21
40.06746981551968
 31
0.0
  0
SPLINE
  5
116
330
5C
100
AcDbEntity
  8
0
  6
Continuous
 62
     2
100
AcDbSpline
210
0.0
220
0.0
230
1.0
 70
     8
 71
     3
 72
     9
 73
     5
 74
     3
 42
0.000000001
 43
0.0000000001
 44
0.00000001
 40
0.0
 40
0.0
 40
0.0
 40
0.0
 40
1.54304195786311
 40
2.995577855628283
 40
2.995577855628283
 40
2.995577855628283
 40
2.995577855628283
 10
8.01196363605834
 20
43.60730256198008
 30
0.0
 10
8.4282011637068
 20
43.27354800322803
 30
0.0
 10
9.23626207926195
 20
42.62561501732959
 30
0.0
 10
9.419803790231276
 20
41.60885836120098
 30
0.0
 10
9.508801943959355
 20
41.11583977703907
 30
0.0
 11
8.01196363605834
 21
43.60730256198008
 31
0.0
 11
9.094969520749292
 21
42.50817711649039
 31
0.0
 11
9.508801943959355
 21
41.11583977703907
 31
0.0
  0
SPLINE
  5
117
330
5C
100
AcDbEntity
  8
0
  6
Continuous
 62
     7
100
AcDbSpline
210
0.0
220
0.0
230
1.0
 70
     8
 71
     3
 72
    11
 73
     7
 74
     5
 42
0.000000001
 43
0.0000000001
 44
0.00000001
 40
0.0
 40
0.0
 40
0.0
 40
0.0
 40
1.184563356297199
 40
2.626250699451528
 40
4.184465941359641
 40
5.683497677775112
 40
5.683497677775112
 40
5.683497677775112
 40
5.683497677775112
 10
8.01196363605834
 20
43.60730256198008
 30
0.0
 10
7.677945155553938
 20
43.3910555919528
 30
0.0
 10
6.937405384166901
 20
42.91162261186038
 30
0.0
 10
5.545967062872029
 20
42.63360621200462
 30
0.0
 10
4.039718355875409
 20
42.55613945480432
 30
0.0
 10
3.038688006112809
 20
42.7702626796106
 30
0.0
 10
2.547862020920549
 20
42.8752517544112
 30
0.0
 11
8.01196363605834
 21
43.60730256198008
 31
0.0
 11
6.982900333211361
 21
43.0206007057712
 31
0.0
 11
5.583138201330641
 21
42.67545090940194
 31
0.0
 11
4.025758839497266
 21
42.62441886819858
 31
0.0
 11
2.547862020920549
 21
42.8752517544112
 31
0.0
  0
SPLINE
  5
118
330
5C
100
AcDbEntity
  8
0
  6
Continuous
 62
     7
100
AcDbSpline
210
0.0
220
0.0
230
1.0
 70
     8
 71
     3
 72
     9
 73
     5
 74
     3
 42
0.000000001
 43
0.0000000001
 44
0.00000001
 40
0.0
 40
0.0
 40
0.0
 40
0.0
 40
1.936497027092182
 40
3.592788000343578
 40
3.592788000343578
 40
3.592788000343578
 40
3.592788000343578
 10
3.274528404985549
 20
47.47633363210526
 30
0.0
 10
3.929797492909413
 20
47.36031933266973
 30
0.0
 10
5.145519944825866
 20
47.14507771865632
 30
0.0
 10
6.246009873475161
 20
47.69081760243339
 30
0.0
 10
6.75334053870554
 20
47.9424060830302
 30
0.0
 11
3.274528404985549
 21
47.47633363210526
 31
0.0
 11
5.206858744148194
 21
47.34936826444436
 31
0.0
 11
6.75334053870554
 21
47.9424060830302
 31
0.0
  0
SPLINE
  5
119
330
5C
100
AcDbEntity
  8
0
  6
Continuous
 62
     2
100
AcDbSpline
210
0.0
220
0.0
230
1.0
 70
     8
 71
     3
 72
     9
 73
     5
 74
     3
 42
0.000000001
 43
0.0000000001
 44
0.00000001
 40
0.0
 40
0.0
 40
0.0
 40
0.0
 40
1.467831297306466
 40
2.966786080761671
 40
2.966786080761671
 40
2.966786080761671
 40
2.966786080761671
 10
-76.26044972346334
 20
65.6252517544112
 30
0.0
 10
-76.50114124774228
 20
65.19257151520414
 30
0.0
 10
-76.98762783404624
 20
64.3180365983213
 30
0.0
 10
-77.07865744712177
 20
63.32114475594215
 30
0.0
 10
-77.12464972346334
 20
62.81746981551967
 30
0.0
 11
-76.26044972346334
 21
65.6252517544112
 31
0.0
 11
-76.8857234625236
 21
64.29726023610617
 31
0.0
 11
-77.12464972346334
 21
62.81746981551967
 31
0.0
  0
SPLINE
  5
11A
330
5C
100
AcDbEntity
  8
0
  6
Continuous
 62
     7
100
AcDbSpline
210
0.0
220
0.0
230
1.0
 70
     8
 71
     3
 72
     9
 73
     5
 74
     3
 42
0.000000001
 43
0.0000000001
 44
0.00000001
 40
0.0
 40
0.0
 40
0.0
 40
0.0
 40
0.7665764134556161
 40
1.663617413504892
 40
1.663617413504892
 40
1.663617413504892
 40
1.663617413504892
 10
32.02626202092054
 20
60.66012727379064
 30
0.0
 10
31.98376486918863
 20
60.40142869439828
 30
0.0
 10
31.89153790478625
 20
59.84000331148323
 30
0.0
 10
31.48045982328937
 20
59.44241259932981
 30
0.0
 10
31.25880194395936
 20
59.22802727379064
 30
0.0
 11
32.02626202092054
 21
60.66012727379064
 31
0.0
 11
31.83107004904928
 21
59.9188179624454
 31
0.0
 11
31.25880194395936
 21
59.22802727379064
 31
0.0
  0
SPLINE
  5
11B
330
5C
100
AcDbEntity
  8
0
  6
Continuous
 62
     2
100
AcDbSpline
210
0.0
220
0.0
230
1.0
 70
     8
 71
     3
 72
     9
 73
     5
 74
     3
 42
0.000000001
 43
0.0000000001
 44
0.00000001
 40
0.0
 40
0.0
 40
0.0
 40
0.0
 40
1.452535897765179
 40
2.995577855628288
 40
2.995577855628288
 40
2.995577855628288
 40
2.995577855628288
 10
31.25880194395936
 20
59.95189230935061
 30
0.0
 10
31.16980379023127
 20
60.44491089351251
 30
0.0
 10
30.98626207926196
 20
61.46166754964116
 30
0.0
 10
30.1782011637068
 20
62.10960053553957
 30
0.0
 10
29.76196363605834
 20
62.44335509429162
 30
0.0
 11
31.25880194395936
 21
59.95189230935061
 31
0.0
 11
30.8449695207493
 21
61.34422964880194
 31
0.0
 11
29.76196363605834
 21
62.44335509429162
 31
0.0
  0
SPLINE
  5
11C
330
5C
100
AcDbEntity
  8
0
  6
Continuous
 62
     7
100
AcDbSpline
210
0.0
220
0.0
230
1.0
 70
     8
 71
     3
 72
    13
 73
     9
 74
     7
 42
0.000000001
 43
0.0000000001
 44
0.00000001
 40
0.0
 40
0.0
 40
0.0
 40
0.0
 40
0.5811190384472797
 40
1.129528974362972
 40
1.681973706240857
 40
2.386017121804423
 40
2.915771817872755
 40
3.628229512640987
 40
3.628229512640987
 40
3.628229512640987
 40
3.628229512640987
 10
30.29786202092055
 20
64.41211961757507
 30
0.0
 10
30.45463106234144
 20
64.29787895719993
 30
0.0
 10
30.7593451703874
 20
64.07582782137703
 30
0.0
 10
31.15482519068783
 20
63.67514543878168
 30
0.0
 10
31.51916195696972
 20
63.19399241728721
 30
0.0
 10
31.79069822470245
 20
62.66005539279742
 30
0.0
 10
31.98605175396747
 20
62.0369768289343
 30
0.0
 10
32.01160578561858
 20
61.62199863584059
 30
0.0
 10
32.02626202092054
 20
61.3839923093506
 30
0.0
 11
30.29786202092055
 21
64.41211961757507
 31
0.0
 11
30.75781197567247
 21
64.0569501134711
 31
0.0
 11
31.14478754461146
 21
63.66835859507681
 31
0.0
 11
31.47645320190365
 21
63.22655199147823
 31
0.0
 11
31.79644595311444
 21
62.59943017485841
 31
0.0
 11
31.9496841538128
 21
62.09232259898683
 31
0.0
 11
32.02626202092054
 21
61.3839923093506
 31
0.0
  0
SPLINE
  5
11D
330
5C
100
AcDbEntity
  8
0
  6
Continuous
 62
     2
100
AcDbSpline
210
0.0
220
0.0
230
1.0
 70
     8
 71
     3
 72
     9
 73
     5
 74
     3
 42
0.000000001
 43
0.0000000001
 44
0.00000001
 40
0.0
 40
0.0
 40
0.0
 40
0.0
 40
0.766576413455623
 40
1.663617413504882
 40
1.663617413504882
 40
1.663617413504882
 40
1.663617413504882
 10
32.02626202092054
 20
61.3839923093506
 30
0.0
 10
31.98376486918864
 20
61.12529372995824
 30
0.0
 10
31.89153790478624
 20
60.56386834704318
 30
0.0
 10
31.48045982328937
 20
60.16627763488977
 30
0.0
 10
31.25880194395936
 20
59.95189230935061
 30
0.0
 11
32.02626202092054
 21
61.3839923093506
 31
0.0
 11
31.83107004904928
 21
60.64268299800536
 31
0.0
 11
31.25880194395936
 21
59.95189230935061
 31
0.0
  0
SPLINE
  5
11E
330
5C
100
AcDbEntity
  8
0
  6
Continuous
 62
     7
100
AcDbSpline
210
0.0
220
0.0
230
1.0
 70
     8
 71
     3
 72
     9
 73
     5
 74
     3
 42
0.000000001
 43
0.0000000001
 44
0.00000001
 40
0.0
 40
0.0
 40
0.0
 40
0.0
 40
0.5352813438478632
 40
1.161662880834222
 40
1.161662880834222
 40
1.161662880834222
 40
1.161662880834222
 10
30.29786202092055
 20
67.41512542330926
 30
0.0
 10
30.26818731127716
 20
67.23448260571402
 30
0.0
 10
30.20378749830157
 20
66.84245315286168
 30
0.0
 10
29.91674184924174
 20
66.56482539210796
 30
0.0
 10
29.76196363605834
 20
66.41512542330926
 30
0.0
 11
30.29786202092055
 21
67.41512542330926
 31
0.0
 11
30.16156429599125
 21
66.89748747110951
 31
0.0
 11
29.76196363605834
 21
66.41512542330926
 31
0.0
  0
SPLINE
  5
11F
330
5C
100
AcDbEntity
  8
0
  6
Continuous
 62
     7
100
AcDbSpline
210
0.0
220
0.0
230
1.0
 70
     8
 71
     3
 72
     9
 73
     5
 74
     3
 42
0.000000001
 43
0.0000000001
 44
0.00000001
 40
0.0
 40
0.0
 40
0.0
 40
0.0
 40
0.5352813438478495
 40
1.161662880834203
 40
1.161662880834203
 40
1.161662880834203
 40
1.161662880834203
 10
30.29786202092055
 20
63.4433550942916
 30
0.0
 10
30.26818731127717
 20
63.26271227669637
 30
0.0
 10
30.20378749830157
 20
62.87068282384404
 30
0.0
 10
29.91674184924175
 20
62.59305506309034
 30
0.0
 10
29.76196363605834
 20
62.44335509429162
 30
0.0
 11
30.29786202092055
 21
63.4433550942916
 31
0.0
 11
30.16156429599125
 21
62.92571714209187
 31
0.0
 11
29.76196363605834
 21
62.44335509429162
 31
0.0
  0
SPLINE
  5
120
330
5C
100
AcDbEntity
  8
0
  6
Continuous
 62
     7
100
AcDbSpline
210
0.0
220
0.0
230
1.0
 70
     8
 71
     3
 72
     9
 73
     5
 74
     3
 42
0.000000001
 43
0.0000000001
 44
0.00000001
 40
0.0
 40
0.0
 40
0.0
 40
0.0
 40
0.4125271632306498
 40
0.7644976197739217
 40
0.7644976197739217
 40
0.7644976197739217
 40
0.7644976197739217
 10
-76.46592824124447
 20
71.96573969896416
 30
0.0
 10
-76.5679672730448
 20
71.86663290011067
 30
0.0
 10
-76.75706655464879
 20
71.68296762243688
 30
0.0
 10
-76.7909839414873
 20
71.42306039953779
 30
0.0
 10
-76.8065993095224
 20
71.30340055535157
 30
0.0
 11
-76.46592824124447
 21
71.96573969896416
 31
0.0
 11
-76.72686037076753
 21
71.64621961187785
 31
0.0
 11
-76.8065993095224
 21
71.30340055535157
 31
0.0
  0
SPLINE
  5
121
330
5C
100
AcDbEntity
  8
0
  6
Continuous
 62
     7
100
AcDbSpline
210
0.0
220
0.0
230
1.0
 70
     8
 71
     3
 72
    11
 73
     7
 74
     5
 42
0.000000001
 43
0.0000000001
 44
0.00000001
 40
0.0
 40
0.0
 40
0.0
 40
0.0
 40
1.184563356297206
 40
2.626250699451484
 40
4.184465941359614
 40
5.683497677775063
 40
5.683497677775063
 40
5.683497677775063
 40
5.683497677775063
 10
-55.9745513386011
 20
91.16512542330926
 30
0.0
 10
-55.64053285809669
 20
91.38137239333652
 30
0.0
 10
-54.89999308670966
 20
91.86080537342896
 30
0.0
 10
-53.50855476541481
 20
92.13882177328466
 30
0.0
 10
-52.00230605841821
 20
92.21628853048502
 30
0.0
 10
-51.00127570865561
 20
92.00216530567874
 30
0.0
 10
-50.51044972346335
 20
91.89717623087815
 30
0.0
 11
-55.9745513386011
 21
91.16512542330926
 31
0.0
 11
-54.94548803575411
 21
91.75182727951812
 31
0.0
 11
-53.54572590387344
 21
92.0969770758874
 31
0.0
 11
-51.98834654204005
 21
92.14800911709075
 31
0.0
 11
-50.51044972346335
 21
91.89717623087815
 31
0.0
  0
SPLINE
  5
122
330
5C
100
AcDbEntity
  8
0
  6
Continuous
 62
     7
100
AcDbSpline
210
0.0
220
0.0
230
1.0
 70
     8
 71
     3
 72
    11
 73
     7
 74
     5
 42
0.000000001
 43
0.0000000001
 44
0.00000001
 40
0.0
 40
0.0
 40
0.0
 40
0.0
 40
0.7493234772703035
 40
1.516891640655304
 40
2.265886992680633
 40
3.0815988975833
 40
3.0815988975833
 40
3.0815988975833
 40
3.0815988975833
 10
-79.98884972346335
 20
65.29793977703906
 30
0.0
 10
-79.97239558784703
 20
65.54833513645757
 30
0.0
 10
-79.93908667309627
 20
66.05522253246036
 30
0.0
 10
-79.67307755070539
 20
66.77160325335984
 30
0.0
 10
-79.26648899669424
 20
67.44188265610828
 30
0.0
 10
-78.88949468499396
 20
67.80536948922477
 30
0.0
 10
-78.69296031381097
 20
67.9948621420852
 30
0.0
 11
-79.98884972346335
 21
65.29793977703906
 31
0.0
 11
-79.90416016529701
 21
66.042462009373
 31
0.0
 11
-79.64877923133469
 21
66.76630002131516
 31
0.0
 11
-79.25424001375922
 21
67.4029575792445
 31
0.0
 11
-78.69296031381097
 21
67.9948621420852
 31
0.0
  0
SPLINE
  5
123
330
5C
100
AcDbEntity
  8
0
  6
Continuous
 62
     2
100
AcDbSpline
210
0.0
220
0.0
230
1.0
 70
     8
 71
     3
 72
     9
 73
     5
 74
     3
 42
0.000000001
 43
0.0000000001
 44
0.00000001
 40
0.0
 40
0.0
 40
0.0
 40
0.0
 40
0.2514263998269924
 40
0.5051049241550098
 40
0.5051049241550098
 40
0.5051049241550098
 40
0.5051049241550098
 10
-78.69296031381097
 20
67.9948621420852
 30
0.0
 10
-78.62684156702836
 20
68.04700977149857
 30
0.0
 10
-78.49401181110865
 20
68.15177212041168
 30
0.0
 10
-78.33853483224752
 20
68.21847083453011
 30
0.0
 10
-78.26044972346335
 20
68.25196887844932
 30
0.0
 11
-78.69296031381097
 21
67.9948621420852
 31
0.0
 11
-78.4889926383079
 21
68.1418737821712
 31
0.0
 11
-78.26044972346335
 21
68.25196887844932
 31
0.0
  0
SPLINE
  5
124
330
5C
100
AcDbEntity
  8
0
  6
Continuous
 62
     7
100
AcDbSpline
210
0.0
220
0.0
230
1.0
 70
     8
 71
     3
 72
     9
 73
     5
 74
     3
 42
0.000000001
 43
0.0000000001
 44
0.00000001
 40
0.0
 40
0.0
 40
0.0
 40
0.0
 40
2.344161518171485
 40
3.968958581709637
 40
3.968958581709637
 40
3.968958581709637
 40
3.968958581709637
 10
-77.12464972346334
 20
62.09360477995971
 30
0.0
 10
-77.92091740839481
 20
62.3428880179063
 30
0.0
 10
-79.26909815849433
 20
62.76495572665278
 30
0.0
 10
-79.77978621096553
 20
64.04858677475549
 30
0.0
 10
-79.98884972346335
 20
64.57407474147911
 30
0.0
 11
-77.12464972346334
 21
62.09360477995971
 31
0.0
 11
-79.22130474288689
 21
63.14199925104165
 31
0.0
 11
-79.98884972346335
 21
64.57407474147911
 31
0.0
  0
SPLINE
  5
125
330
5C
100
AcDbEntity
  8
0
  6
Continuous
 62
     2
100
AcDbSpline
210
0.0
220
0.0
230
1.0
 70
     8
 71
     3
 72
     9
 73
     5
 74
     3
 42
0.000000001
 43
0.0000000001
 44
0.00000001
 40
0.0
 40
0.0
 40
0.0
 40
0.0
 40
2.344161518171485
 40
3.96895858170963
 40
3.96895858170963
 40
3.96895858170963
 40
3.96895858170963
 10
-77.12464972346334
 20
62.81746981551967
 30
0.0
 10
-77.92091740839483
 20
63.06675305346626
 30
0.0
 10
-79.2690981584943
 20
63.48882076221273
 30
0.0
 10
-79.77978621096554
 20
64.77245181031546
 30
0.0
 10
-79.98884972346335
 20
65.29793977703906
 30
0.0
 11
-77.12464972346334
 21
62.81746981551967
 31
0.0
 11
-79.22130474288689
 21
63.86586428660161
 31
0.0
 11
-79.98884972346335
 21
65.29793977703906
 31
0.0
  0
ENDBLK
  5
5E
330
5C
100
AcDbEntity
  8
0
100
AcDbBlockEnd
  0
BLOCK
  5
61
330
5F
100
AcDbEntity
  8
0
100
AcDbBlockBegin
  2
Allg1
 70
     0
 10
-23.99999999999855
 20
66.0
 30
0.0
  3
Allg1
  1

  0
INSERT
  5
60
330
5F
100
AcDbEntity
  8
0
100
AcDbBlockReference
  2
1409804_HC_B10_TMS_EEE_PR_DI-select__4
 10
-79.98884972346335
 20
38.86087033709748
 30
0.0
  0
MTEXT
  5
126
330
5F
100
AcDbEntity
  8
1
 62
     6
100
AcDbMText
 10
-23.98129487671997
 20
27.03110522398265
 30
0.0
 40
5.0
 41
0.0
 71
     2
 72
     1
  1
 
  7
CONVERTER_11
 73
     1
 44
1.32052821128451
  0
ENDBLK
  5
62
330
5F
100
AcDbEntity
  8
0
100
AcDbBlockEnd
  0
BLOCK
  5
64
330
63
100
AcDbEntity
  8
0
100
AcDbBlockBegin
  2
1409804_HC_B10_TMS_EEE_PR_DI-select__5
 70
     0
 10
-231.9000000949324
 20
116.5215999999701
 30
0.0
  3
1409804_HC_B10_TMS_EEE_PR_DI-select__5
  1

  0
LINE
  5
127
330
63
100
AcDbEntity
  8
0
  6
Continuous
 62
     7
100
AcDbLine
 10
-227.3137947576969
 20
165.7499999999701
 30
0.0
 11
-227.3137947576969
 21
122.2499999999701
 31
0.0
  0
LINE
  5
128
330
63
100
AcDbEntity
  8
0
  6
Continuous
 62
     7
100
AcDbLine
 10
-227.3137947576969
 20
122.2499999999701
 30
0.0
 11
-227.3137947576969
 21
118.2499999999701
 31
0.0
  0
LINE
  5
129
330
63
100
AcDbEntity
  8
0
  6
Continuous
 62
     7
100
AcDbLine
 10
-227.3137947576969
 20
169.7499999999701
 30
0.0
 11
-227.3137947576969
 21
165.7499999999701
 31
0.0
  0
LINE
  5
12A
330
63
100
AcDbEntity
  8
0
  6
Continuous
 62
     7
100
AcDbLine
 10
-231.9000000949324
 20
118.2499999999701
 30
0.0
 11
-227.3137947576969
 21
118.2499999999701
 31
0.0
  0
LINE
  5
12B
330
63
100
AcDbEntity
  8
0
  6
Continuous
 62
     2
100
AcDbLine
 10
-231.9000000949324
 20
122.2499999999701
 30
0.0
 11
-227.3137947576969
 21
122.2499999999701
 31
0.0
  0
LINE
  5
12C
330
63
100
AcDbEntity
  8
0
  6
Continuous
 62
     7
100
AcDbLine
 10
-224.1000000949324
 20
165.7499999999701
 30
0.0
 11
-224.1000000949324
 21
122.2499999999701
 31
0.0
  0
LINE
  5
12D
330
63
100
AcDbEntity
  8
0
  6
Continuous
 62
     7
100
AcDbLine
 10
-224.9358474412074
 20
171.4783999999701
 30
0.0
 11
-224.1000000949324
 21
171.4783999999701
 31
0.0
  0
LINE
  5
12E
330
63
100
AcDbEntity
  8
0
  6
Continuous
 62
     7
100
AcDbLine
 10
-224.1000000949324
 20
171.4783999999701
 30
0.0
 11
-224.1000000949324
 21
165.7499999999701
 31
0.0
  0
LINE
  5
12F
330
63
100
AcDbEntity
  8
0
  6
Continuous
 62
     2
100
AcDbLine
 10
-224.9358474412074
 20
171.4783999999701
 30
0.0
 11
-224.9358474412074
 21
165.7499999999701
 31
0.0
  0
LINE
  5
130
330
63
100
AcDbEntity
  8
0
  6
Continuous
 62
     2
100
AcDbLine
 10
-224.9358474412074
 20
122.2499999999701
 30
0.0
 11
-224.9358474412074
 21
165.7499999999701
 31
0.0
  0
LINE
  5
131
330
63
100
AcDbEntity
  8
0
  6
Continuous
 62
     2
100
AcDbLine
 10
-224.9358474412074
 20
122.2499999999701
 30
0.0
 11
-224.9358474412074
 21
116.5215999999701
 31
0.0
  0
LINE
  5
132
330
63
100
AcDbEntity
  8
0
  6
Continuous
 62
     7
100
AcDbLine
 10
-231.9000000949324
 20
169.7499999999701
 30
0.0
 11
-227.3137947576969
 21
169.7499999999701
 31
0.0
  0
LINE
  5
133
330
63
100
AcDbEntity
  8
0
  6
Continuous
 62
     2
100
AcDbLine
 10
-227.3137947576969
 20
165.7499999999701
 30
0.0
 11
-231.9000000949324
 21
165.7499999999701
 31
0.0
  0
LINE
  5
134
330
63
100
AcDbEntity
  8
0
  6
Continuous
 62
     7
100
AcDbLine
 10
-231.9000000949324
 20
122.2499999999701
 30
0.0
 11
-231.9000000949324
 21
118.2499999999701
 31
0.0
  0
LINE
  5
135
330
63
100
AcDbEntity
  8
0
  6
Continuous
 62
     7
100
AcDbLine
 10
-231.9000000949324
 20
122.2499999999701
 30
0.0
 11
-231.9000000949324
 21
165.7499999999701
 31
0.0
  0
LINE
  5
136
330
63
100
AcDbEntity
  8
0
  6
Continuous
 62
     7
100
AcDbLine
 10
-231.9000000949324
 20
169.7499999999701
 30
0.0
 11
-231.9000000949324
 21
165.7499999999701
 31
0.0
  0
LINE
  5
137
330
63
100
AcDbEntity
  8
0
  6
Continuous
 62
     2
100
AcDbLine
 10
-224.9358474412074
 20
165.7499999999701
 30
0.0
 11
-224.1000000949324
 21
165.7499999999701
 31
0.0
  0
LINE
  5
138
330
63
100
AcDbEntity
  8
0
  6
Continuous
 62
     2
100
AcDbLine
 10
-224.9358474412074
 20
165.7499999999701
 30
0.0
 11
-227.3137947576969
 21
165.7499999999701
 31
0.0
  0
LINE
  5
139
330
63
100
AcDbEntity
  8
0
  6
Continuous
 62
     7
100
AcDbLine
 10
-224.1000000949324
 20
122.2499999999701
 30
0.0
 11
-224.1000000949324
 21
116.5215999999701
 31
0.0
  0
LINE
  5
13A
330
63
100
AcDbEntity
  8
0
  6
Continuous
 62
     2
100
AcDbLine
 10
-224.9358474412074
 20
122.2499999999701
 30
0.0
 11
-224.1000000949324
 21
122.2499999999701
 31
0.0
  0
LINE
  5
13B
330
63
100
AcDbEntity
  8
0
  6
Continuous
 62
     2
100
AcDbLine
 10
-227.3137947576969
 20
122.2499999999701
 30
0.0
 11
-224.9358474412074
 21
122.2499999999701
 31
0.0
  0
LINE
  5
13C
330
63
100
AcDbEntity
  8
0
  6
Continuous
 62
     7
100
AcDbLine
 10
-224.9358474412074
 20
116.5215999999701
 30
0.0
 11
-224.1000000949324
 21
116.5215999999701
 31
0.0
  0
ARC
  5
13D
330
63
100
AcDbEntity
  8
0
  6
Continuous
 62
     7
100
AcDbCircle
 10
-224.9358474412074
 20
119.0215999999701
 30
0.0
 40
2.499999999999948
100
AcDbArc
 50
197.977289681588
 51
270.0
  0
ARC
  5
13E
330
63
100
AcDbEntity
  8
0
  6
Continuous
 62
     7
100
AcDbCircle
 10
-224.9358474412074
 20
168.9783999999701
 30
0.0
 40
2.5
100
AcDbArc
 50
90.0
 51
162.022710318412
  0
ENDBLK
  5
65
330
63
100
AcDbEntity
  8
0
100
AcDbBlockEnd
  0
BLOCK
  5
68
330
66
100
AcDbEntity
  8
0
100
AcDbBlockBegin
  2
SA_Rechts1
 70
     0
 10
-227.99999999978
 20
143.999999999985
 30
0.0
  3
SA_Rechts1
  1

  0
INSERT
  5
67
330
66
100
AcDbEntity
  8
0
100
AcDbBlockReference
  2
1409804_HC_B10_TMS_EEE_PR_DI-select__5
 10
-231.9000000949324
 20
116.5215999999701
 30
0.0
  0
MTEXT
  5
13F
330
66
100
AcDbEntity
  8
1
 62
     6
100
AcDbMText
 10
-227.99999999978
 20
111.5216007232516
 30
0.0
 40
5.0
 41
0.0
 71
     2
 72
     1
  1
 
  7
CONVERTER_11
 73
     1
 44
1.32052821128451
  0
DIMENSION
  5
14C
330
66
100
AcDbEntity
  8
1
100
AcDbDimension
  2
*D16
 10
-224.1000000949324
 20
106.5215999999701
 30
0.0
 11
-228.0000000949324
 21
110.4465999999701
 31
0.0
 70
    32
  1
<>
 71
     5
 42
-1.0
 53
0.00013888888889
  3
ME10_DIM_10
100
AcDbAlignedDimension
 13
-231.9000000949324
 23
118.2499999999701
 33
0.0
 14
-224.1000000949324
 24
116.5215999999701
 34
0.0
100
AcDbRotatedDimension
  0
ENDBLK
  5
69
330
66
100
AcDbEntity
  8
0
100
AcDbBlockEnd
  0
BLOCK
  5
6B
330
6A
100
AcDbEntity
  8
0
100
AcDbBlockBegin
  2
1409804_HC_B10_TMS_EEE_PR_DI-select__6
 70
     0
 10
-211.5783983125747
 20
116.5215999999751
 30
0.0
  3
1409804_HC_B10_TMS_EEE_PR_DI-select__6
  1

  0
LINE
  5
14D
330
6A
100
AcDbEntity
  8
0
  6
Continuous
 62
     7
100
AcDbLine
 10
-114.8499983125747
 20
116.5215999999751
 30
0.0
 11
-205.8499983125747
 21
116.5215999999751
 31
0.0
  0
LINE
  5
14E
330
6A
100
AcDbEntity
  8
0
  6
Continuous
 62
     7
100
AcDbLine
 10
-205.8499983125747
 20
118.2499999999751
 30
0.0
 11
-114.8499983125747
 21
118.2499999999751
 31
0.0
  0
LINE
  5
14F
330
6A
100
AcDbEntity
  8
0
  6
Continuous
 62
     2
100
AcDbLine
 10
-205.8499983125747
 20
119.8499999999747
 30
0.0
 11
-205.8499983125747
 21
119.7033327681093
 31
0.0
  0
LINE
  5
150
330
6A
100
AcDbEntity
  8
0
  6
Continuous
 62
     2
100
AcDbLine
 10
-208.3966655444404
 20
122.2499999999751
 30
0.0
 11
-208.2499983125751
 21
122.2499999999751
 31
0.0
  0
LINE
  5
151
330
6A
100
AcDbEntity
  8
0
  6
Continuous
 62
     2
100
AcDbLine
 10
-211.5783983125747
 20
122.2499999999751
 30
0.0
 11
-209.8499983125747
 21
122.2499999999751
 31
0.0
  0
LINE
  5
152
330
6A
100
AcDbEntity
  8
0
  6
Continuous
 62
     2
100
AcDbLine
 10
-205.8499983125747
 20
118.2499999999751
 30
0.0
 11
-205.8499983125747
 21
116.5215999999751
 31
0.0
  0
LINE
  5
153
330
6A
100
AcDbEntity
  8
0
  6
Continuous
 62
     2
100
AcDbLine
 10
-114.8499983125747
 20
116.5215999999751
 30
0.0
 11
-114.8499983125747
 21
118.2499999999751
 31
0.0
  0
LINE
  5
154
330
6A
100
AcDbEntity
  8
0
  6
Continuous
 62
     2
100
AcDbLine
 10
-110.8499983125747
 20
122.2499999999751
 30
0.0
 11
-109.1215983125746
 21
122.2499999999751
 31
0.0
  0
LINE
  5
155
330
6A
100
AcDbEntity
  8
0
  6
Continuous
 62
     2
100
AcDbLine
 10
-114.8499983125747
 20
119.7033327681049
 30
0.0
 11
-114.8499983125747
 21
119.8499999999703
 31
0.0
  0
LINE
  5
156
330
6A
100
AcDbEntity
  8
0
  6
Continuous
 62
     2
100
AcDbLine
 10
-112.4499983125698
 20
122.2499999999751
 30
0.0
 11
-112.3033310807045
 21
122.2499999999751
 31
0.0
  0
LINE
  5
157
330
6A
100
AcDbEntity
  8
0
  6
Continuous
 62
     7
100
AcDbLine
 10
-205.8499983125747
 20
121.5499999999751
 30
0.0
 11
-114.8499983125747
 21
121.5499999999751
 31
0.0
  0
LINE
  5
158
330
6A
100
AcDbEntity
  8
0
  6
Continuous
 62
     7
100
AcDbLine
 10
-205.8499983125747
 20
119.8499999999747
 30
0.0
 11
-114.8499983125747
 21
119.8499999999703
 31
0.0
  0
LINE
  5
159
330
6A
100
AcDbEntity
  8
0
  6
Continuous
 62
     7
100
AcDbLine
 10
-114.8499983125747
 20
119.7033327681049
 30
0.0
 11
-205.8499983125747
 21
119.7033327681093
 31
0.0
  0
LINE
  5
15A
330
6A
100
AcDbEntity
  8
0
  6
Continuous
 62
     7
100
AcDbLine
 10
-114.1499983125747
 20
122.2499999999751
 30
0.0
 11
-114.1499983125747
 21
165.7499999999751
 31
0.0
  0
LINE
  5
15B
330
6A
100
AcDbEntity
  8
0
  6
Continuous
 62
     7
100
AcDbLine
 10
-112.4499983125698
 20
122.2499999999751
 30
0.0
 11
-112.4499983125742
 21
165.7499999999751
 31
0.0
  0
LINE
  5
15C
330
6A
100
AcDbEntity
  8
0
  6
Continuous
 62
     7
100
AcDbLine
 10
-109.1215983125746
 20
165.7499999999751
 30
0.0
 11
-109.1215983125746
 21
122.2499999999751
 31
0.0
  0
LINE
  5
15D
330
6A
100
AcDbEntity
  8
0
  6
Continuous
 62
     7
100
AcDbLine
 10
-110.8499983125747
 20
122.2499999999751
 30
0.0
 11
-110.8499983125747
 21
165.7499999999751
 31
0.0
  0
LINE
  5
15E
330
6A
100
AcDbEntity
  8
0
  6
Continuous
 62
     7
100
AcDbLine
 10
-112.3033310807089
 20
165.7499999999751
 30
0.0
 11
-112.3033310807045
 21
122.2499999999751
 31
0.0
  0
LINE
  5
15F
330
6A
100
AcDbEntity
  8
0
  6
Continuous
 62
     7
100
AcDbLine
 10
-114.8499983125747
 20
166.4499999999751
 30
0.0
 11
-205.8499983125747
 21
166.4499999999751
 31
0.0
  0
LINE
  5
160
330
6A
100
AcDbEntity
  8
0
  6
Continuous
 62
     7
100
AcDbLine
 10
-205.8499983125747
 20
171.4783999999751
 30
0.0
 11
-114.8499983125747
 21
171.4783999999751
 31
0.0
  0
LINE
  5
161
330
6A
100
AcDbEntity
  8
0
  6
Continuous
 62
     7
100
AcDbLine
 10
-114.8499983125747
 20
169.7499999999751
 30
0.0
 11
-205.8499983125747
 21
169.7499999999751
 31
0.0
  0
LINE
  5
162
330
6A
100
AcDbEntity
  8
0
  6
Continuous
 62
     7
100
AcDbLine
 10
-205.8499983125747
 20
168.2966672318408
 30
0.0
 11
-114.8499983125747
 21
168.2966672318408
 31
0.0
  0
LINE
  5
163
330
6A
100
AcDbEntity
  8
0
  6
Continuous
 62
     7
100
AcDbLine
 10
-114.8499983125747
 20
168.1499999999755
 30
0.0
 11
-205.8499983125747
 21
168.1499999999755
 31
0.0
  0
LINE
  5
164
330
6A
100
AcDbEntity
  8
0
  6
Continuous
 62
     2
100
AcDbLine
 10
-205.8499983125747
 20
168.2966672318408
 30
0.0
 11
-205.8499983125747
 21
168.1499999999755
 31
0.0
  0
LINE
  5
165
330
6A
100
AcDbEntity
  8
0
  6
Continuous
 62
     2
100
AcDbLine
 10
-114.8499983125747
 20
168.1499999999755
 30
0.0
 11
-114.8499983125747
 21
168.2966672318408
 31
0.0
  0
LINE
  5
166
330
6A
100
AcDbEntity
  8
0
  6
Continuous
 62
     2
100
AcDbLine
 10
-112.3033310807089
 20
165.7499999999751
 30
0.0
 11
-112.4499983125742
 21
165.7499999999751
 31
0.0
  0
LINE
  5
167
330
6A
100
AcDbEntity
  8
0
  6
Continuous
 62
     2
100
AcDbLine
 10
-114.8499983125747
 20
169.7499999999751
 30
0.0
 11
-114.8499983125747
 21
171.4783999999751
 31
0.0
  0
LINE
  5
168
330
6A
100
AcDbEntity
  8
0
  6
Continuous
 62
     2
100
AcDbLine
 10
-109.1215983125746
 20
165.7499999999751
 30
0.0
 11
-110.8499983125747
 21
165.7499999999751
 31
0.0
  0
LINE
  5
169
330
6A
100
AcDbEntity
  8
0
  6
Continuous
 62
     2
100
AcDbLine
 10
-209.8499983125747
 20
165.7499999999751
 30
0.0
 11
-211.5783983125747
 21
165.7499999999751
 31
0.0
  0
LINE
  5
16A
330
6A
100
AcDbEntity
  8
0
  6
Continuous
 62
     2
100
AcDbLine
 10
-205.8499983125747
 20
171.4783999999751
 30
0.0
 11
-205.8499983125747
 21
169.7499999999751
 31
0.0
  0
LINE
  5
16B
330
6A
100
AcDbEntity
  8
0
  6
Continuous
 62
     2
100
AcDbLine
 10
-208.2499983125751
 20
165.7499999999751
 30
0.0
 11
-208.3966655444404
 21
165.7499999999751
 31
0.0
  0
LINE
  5
16C
330
6A
100
AcDbEntity
  8
0
  6
Continuous
 62
     7
100
AcDbLine
 10
-211.5783983125747
 20
122.2499999999751
 30
0.0
 11
-211.5783983125747
 21
165.7499999999751
 31
0.0
  0
LINE
  5
16D
330
6A
100
AcDbEntity
  8
0
  6
Continuous
 62
     7
100
AcDbLine
 10
-209.8499983125747
 20
165.7499999999751
 30
0.0
 11
-209.8499983125747
 21
122.2499999999751
 31
0.0
  0
LINE
  5
16E
330
6A
100
AcDbEntity
  8
0
  6
Continuous
 62
     7
100
AcDbLine
 10
-208.2499983125751
 20
165.7499999999751
 30
0.0
 11
-208.2499983125751
 21
122.2499999999751
 31
0.0
  0
LINE
  5
16F
330
6A
100
AcDbEntity
  8
0
  6
Continuous
 62
     7
100
AcDbLine
 10
-206.5499983125747
 20
165.7499999999751
 30
0.0
 11
-206.5499983125747
 21
122.2499999999751
 31
0.0
  0
LINE
  5
170
330
6A
100
AcDbEntity
  8
0
  6
Continuous
 62
     7
100
AcDbLine
 10
-208.3966655444404
 20
122.2499999999751
 30
0.0
 11
-208.3966655444404
 21
165.7499999999751
 31
0.0
  0
ARC
  5
171
330
6A
100
AcDbEntity
  8
0
  6
Continuous
 62
     7
100
AcDbCircle
 10
-205.8499983125747
 20
165.7499999999751
 30
0.0
 40
5.728399999999993
100
AcDbArc
 50
90.0
 51
180.0
  0
ARC
  5
172
330
6A
100
AcDbEntity
  8
0
  6
Continuous
 62
     7
100
AcDbCircle
 10
-205.8499983125747
 20
122.2499999999751
 30
0.0
 40
2.400000000000375
100
AcDbArc
 50
180.0
 51
270.0
  0
ARC
  5
173
330
6A
100
AcDbEntity
  8
0
  6
Continuous
 62
     7
100
AcDbCircle
 10
-205.8499983125747
 20
122.2499999999751
 30
0.0
 40
5.728399999999993
100
AcDbArc
 50
180.0
 51
270.0
  0
ARC
  5
174
330
6A
100
AcDbEntity
  8
0
  6
Continuous
 62
     7
100
AcDbCircle
 10
-205.8499983125747
 20
122.2499999999751
 30
0.0
 40
0.6999999999999886
100
AcDbArc
 50
180.0
 51
270.0
  0
ARC
  5
175
330
6A
100
AcDbEntity
  8
0
  6
Continuous
 62
     7
100
AcDbCircle
 10
-205.8499983125747
 20
122.2499999999751
 30
0.0
 40
4.0
100
AcDbArc
 50
180.0
 51
270.0
  0
ARC
  5
176
330
6A
100
AcDbEntity
  8
0
  6
Continuous
 62
     7
100
AcDbCircle
 10
-205.8499983125747
 20
122.2499999999751
 30
0.0
 40
2.546667231865683
100
AcDbArc
 50
180.0
 51
270.0
  0
ARC
  5
177
330
6A
100
AcDbEntity
  8
0
  6
Continuous
 62
     7
100
AcDbCircle
 10
-114.8499983125747
 20
122.2499999999751
 30
0.0
 40
5.728400000000008
100
AcDbArc
 50
270.0
 51
0.0
  0
ARC
  5
178
330
6A
100
AcDbEntity
  8
0
  6
Continuous
 62
     7
100
AcDbCircle
 10
-114.8499983125747
 20
122.2499999999751
 30
0.0
 40
4.0
100
AcDbArc
 50
270.0
 51
0.0
  0
ARC
  5
179
330
6A
100
AcDbEntity
  8
0
  6
Continuous
 62
     7
100
AcDbCircle
 10
-114.8499983125747
 20
122.2499999999751
 30
0.0
 40
2.546667231870202
100
AcDbArc
 50
270.0
 51
0.0
  0
ARC
  5
17A
330
6A
100
AcDbEntity
  8
0
  6
Continuous
 62
     7
100
AcDbCircle
 10
-114.8499983125747
 20
122.2499999999751
 30
0.0
 40
2.400000000004809
100
AcDbArc
 50
270.0
 51
0.0
  0
ARC
  5
17B
330
6A
100
AcDbEntity
  8
0
  6
Continuous
 62
     7
100
AcDbCircle
 10
-114.8499983125747
 20
122.2499999999751
 30
0.0
 40
0.7000000000000028
100
AcDbArc
 50
270.0
 51
0.0
  0
ARC
  5
17C
330
6A
100
AcDbEntity
  8
0
  6
Continuous
 62
     7
100
AcDbCircle
 10
-114.8499983125747
 20
165.7499999999751
 30
0.0
 40
5.728400000000093
100
AcDbArc
 50
0.0
 51
90.0
  0
ARC
  5
17D
330
6A
100
AcDbEntity
  8
0
  6
Continuous
 62
     7
100
AcDbCircle
 10
-114.8499983125747
 20
165.7499999999751
 30
0.0
 40
2.400000000000503
100
AcDbArc
 50
0.0
 51
90.0
  0
ARC
  5
17E
330
6A
100
AcDbEntity
  8
0
  6
Continuous
 62
     7
100
AcDbCircle
 10
-114.8499983125747
 20
165.7499999999751
 30
0.0
 40
4.0
100
AcDbArc
 50
0.0
 51
90.0
  0
ARC
  5
17F
330
6A
100
AcDbEntity
  8
0
  6
Continuous
 62
     7
100
AcDbCircle
 10
-114.8499983125747
 20
165.7499999999751
 30
0.0
 40
2.546667231865797
100
AcDbArc
 50
0.0
 51
90.0
  0
ARC
  5
180
330
6A
100
AcDbEntity
  8
0
  6
Continuous
 62
     7
100
AcDbCircle
 10
-114.8499983125747
 20
165.7499999999751
 30
0.0
 40
0.7000000000000028
100
AcDbArc
 50
0.0
 51
90.0
  0
ARC
  5
181
330
6A
100
AcDbEntity
  8
0
  6
Continuous
 62
     7
100
AcDbCircle
 10
-205.8499983125747
 20
165.7499999999751
 30
0.0
 40
2.400000000000404
100
AcDbArc
 50
90.0
 51
180.0
  0
ARC
  5
182
330
6A
100
AcDbEntity
  8
0
  6
Continuous
 62
     7
100
AcDbCircle
 10
-205.8499983125747
 20
165.7499999999751
 30
0.0
 40
4.0
100
AcDbArc
 50
90.0
 51
180.0
  0
ARC
  5
183
330
6A
100
AcDbEntity
  8
0
  6
Continuous
 62
     7
100
AcDbCircle
 10
-205.8499983125747
 20
165.7499999999751
 30
0.0
 40
2.546667231865683
100
AcDbArc
 50
90.0
 51
180.0
  0
ARC
  5
184
330
6A
100
AcDbEntity
  8
0
  6
Continuous
 62
     7
100
AcDbCircle
 10
-205.8499983125747
 20
165.7499999999751
 30
0.0
 40
0.6999999999999886
100
AcDbArc
 50
90.0
 51
180.0
  0
ENDBLK
  5
6C
330
6A
100
AcDbEntity
  8
0
100
AcDbBlockEnd
  0
BLOCK
  5
6F
330
6D
100
AcDbEntity
  8
0
100
AcDbBlockBegin
  2
Vordans1
 70
     0
 10
-160.3715983125895
 20
143.99999999999
 30
0.0
  3
Vordans1
  1

  0
INSERT
  5
6E
330
6D
100
AcDbEntity
  8
0
100
AcDbBlockReference
  2
1409804_HC_B10_TMS_EEE_PR_DI-select__6
 10
-211.5783983125747
 20
116.5215999999751
 30
0.0
  0
MTEXT
  5
185
330
6D
100
AcDbEntity
  8
1
 62
     6
100
AcDbMText
 10
-160.3715983125916
 20
111.5216007232566
 30
0.0
 40
5.0
 41
0.0
 71
     2
 72
     1
  1
 
  7
CONVERTER_11
 73
     1
 44
1.32052821128451
  0
DIMENSION
  5
190
330
6D
100
AcDbEntity
  8
1
100
AcDbDimension
  2
*D17
 10
-99.1215983125746
 20
116.5215999999751
 30
0.0
 11
-102.8715983125746
 21
143.9999999999751
 31
0.0
 70
    32
  1
<>
 71
     5
 42
-1.0
 53
90.0
  3
ME10_DIM_11
100
AcDbAlignedDimension
 13
-114.8499983125747
 23
171.4783999999751
 33
0.0
 14
-114.8499983125747
 24
116.5215999999751
 34
0.0
 50
90.0
100
AcDbRotatedDimension
  0
DIMENSION
  5
19B
330
6D
100
AcDbEntity
  8
1
100
AcDbDimension
  2
*D18
 10
-211.5783983125748
 20
106.5215999999751
 30
0.0
 11
-160.3499983125747
 21
110.4465999999751
 31
0.0
 70
    32
  1
<>
 71
     5
 42
-1.0
 53
0.00013888888889
  3
ME10_DIM_12
100
AcDbAlignedDimension
 13
-109.1215983125746
 23
122.2499999999751
 33
0.0
 14
-211.5783983125747
 24
122.2499999999751
 34
0.0
100
AcDbRotatedDimension
  0
ENDBLK
  5
70
330
6D
100
AcDbEntity
  8
0
100
AcDbBlockEnd
  0
BLOCK
  5
72
330
71
100
AcDbEntity
  8
0
100
AcDbBlockBegin
  2
_punkt
 70
     0
 10
41.53075500055104
 20
-0.5522552236851
 30
0.0
  3
_punkt
  1

  0
LINE
  5
19C
330
71
100
AcDbEntity
  8
1
  6
Continuous
 62
     2
100
AcDbLine
 10
41.53075500055104
 20
-0.5522552236851
 30
0.0
 11
46.53075500055005
 21
-0.5522552236851
 31
0.0
  0
LINE
  5
19D
330
71
100
AcDbEntity
  8
1
  6
Continuous
 62
     2
100
AcDbLine
 10
41.53075500055104
 20
-0.5522552236851
 30
0.0
 11
41.53075500055104
 21
-5.55225522368521
 31
0.0
  0
ENDBLK
  5
73
330
71
100
AcDbEntity
  8
0
100
AcDbBlockEnd
  0
BLOCK
  5
75
330
74
100
AcDbEntity
  8
0
100
AcDbBlockBegin
  2
_rahmen
 70
     0
 10
41.53075500055104
 20
-5.55225522368521
 30
0.0
  3
_rahmen
  1

  0
POINT
  5
19E
330
74
100
AcDbEntity
  8
1
 62
     3
 60
     1
100
AcDbPoint
 10
-21.96924499944658
 20
20.69774477631477
 30
0.0
  0
LINE
  5
19F
330
74
100
AcDbEntity
  8
1
  6
Continuous
 62
     2
100
AcDbLine
 10
12.96549168534003
 20
14.89752549728203
 30
0.0
 11
12.96549168534003
 21
12.84012953242853
 31
0.0
  0
LINE
  5
1A0
330
74
100
AcDbEntity
  8
1
  6
Continuous
 62
     7
100
AcDbLine
 10
-21.96924499944658
 20
16.44774477631479
 30
0.0
 11
-19.96924499944658
 21
16.44774477631479
 31
0.0
  0
LINE
  5
1A1
330
74
100
AcDbEntity
  8
1
  6
Continuous
 62
     7
100
AcDbLine
 10
-21.96924499944658
 20
20.69774477631477
 30
0.0
 11
-28.71404952619895
 21
20.69774477631473
 31
0.0
  0
LINE
  5
1A2
330
74
100
AcDbEntity
  8
1
  6
Continuous
 62
     2
100
AcDbLine
 10
-79.73378039168361
 20
12.82274477631479
 30
0.0
 11
-79.73378039168361
 21
15.82274477631479
 31
0.0
  0
LINE
  5
1A3
330
74
100
AcDbEntity
  8
1
  6
Continuous
 62
     2
100
AcDbLine
 10
-75.73378039168361
 20
13.32274477631479
 30
0.0
 11
-79.73378039168361
 21
12.82274477631479
 31
0.0
  0
LINE
  5
1A4
330
74
100
AcDbEntity
  8
1
  6
Continuous
 62
     2
100
AcDbLine
 10
-75.73378039168361
 20
15.32274477631479
 30
0.0
 11
-75.73378039168361
 21
13.32274477631479
 31
0.0
  0
LINE
  5
1A5
330
74
100
AcDbEntity
  8
1
  6
Continuous
 62
     2
100
AcDbLine
 10
-79.73378039168361
 20
15.82274477631479
 30
0.0
 11
-75.73378039168361
 21
15.32274477631479
 31
0.0
  0
LINE
  5
1A6
330
74
100
AcDbEntity
  8
1
  6
Continuous
 62
     6
100
AcDbLine
 10
-210.4692449994471
 20
-0.5522552236851
 30
0.0
 11
-245.469244999447
 21
-0.5522552236851
 31
0.0
  0
LINE
  5
1A7
330
74
100
AcDbEntity
  8
1
  6
Continuous
 62
     6
100
AcDbLine
 10
41.53075500055275
 20
29.19774477631479
 30
0.0
 11
41.53075500055184
 21
20.69774477631479
 31
0.0
  0
LINE
  5
1A8
330
74
100
AcDbEntity
  8
1
  6
Continuous
 62
     6
100
AcDbLine
 10
-210.4692449994471
 20
12.19774477631479
 30
0.0
 11
-210.4692449994471
 21
16.44774477631479
 31
0.0
  0
LINE
  5
1A9
330
74
100
AcDbEntity
  8
1
  6
Continuous
 62
     7
100
AcDbLine
 10
-88.01404952619887
 20
24.94774477631479
 30
0.0
 11
-78.6140495261989
 21
24.94774477631479
 31
0.0
  0
LINE
  5
1AA
330
74
100
AcDbEntity
  8
1
  6
Continuous
 62
     6
100
AcDbLine
 10
-78.6140495261989
 20
29.19774477631479
 30
0.0
 11
-88.01404952619887
 21
29.19774477631479
 31
0.0
  0
LINE
  5
1AB
330
74
100
AcDbEntity
  8
1
  6
Continuous
 62
     7
100
AcDbLine
 10
-78.6140495261989
 20
16.4477447763149
 30
0.0
 11
-88.01404952619887
 21
16.44774477631479
 31
0.0
  0
LINE
  5
1AC
330
74
100
AcDbEntity
  8
1
  6
Continuous
 62
     2
100
AcDbLine
 10
-128.5140495261989
 20
12.19774477631479
 30
0.0
 11
-190.7692449994491
 21
12.19774477631479
 31
0.0
  0
LINE
  5
1AD
330
74
100
AcDbEntity
  8
1
  6
Continuous
 62
     2
100
AcDbLine
 10
-128.5140495261989
 20
12.19774477631479
 30
0.0
 11
-128.5140495261989
 21
7.94774477631479
 31
0.0
  0
LINE
  5
1AE
330
74
100
AcDbEntity
  8
1
  6
Continuous
 62
     2
100
AcDbLine
 10
-128.5140495261989
 20
24.94774477631479
 30
0.0
 11
-128.5140495261989
 21
20.69774477631479
 31
0.0
  0
LINE
  5
1AF
330
74
100
AcDbEntity
  8
1
  6
Continuous
 62
     2
100
AcDbLine
 10
-128.5140495261989
 20
20.69774477631479
 30
0.0
 11
-128.5140495261989
 21
16.44774477631479
 31
0.0
  0
LINE
  5
1B0
330
74
100
AcDbEntity
  8
1
  6
Continuous
 62
     2
100
AcDbLine
 10
-128.5140495261989
 20
16.44774477631479
 30
0.0
 11
-190.7692449994491
 21
16.44774477631479
 31
0.0
  0
LINE
  5
1B1
330
74
100
AcDbEntity
  8
1
  6
Continuous
 62
     2
100
AcDbLine
 10
-128.5140495261989
 20
16.44774477631479
 30
0.0
 11
-128.5140495261989
 21
12.19774477631479
 31
0.0
  0
LINE
  5
1B2
330
74
100
AcDbEntity
  8
1
  6
Continuous
 62
     7
100
AcDbLine
 10
-128.5140495261989
 20
3.6977447763149
 30
0.0
 11
-115.0140495261989
 21
3.6977447763149
 31
0.0
  0
LINE
  5
1B3
330
74
100
AcDbEntity
  8
1
  6
Continuous
 62
     2
100
AcDbLine
 10
-128.5140495261989
 20
3.6977447763149
 30
0.0
 11
-128.5140495261989
 21
-0.55225522368521
 31
0.0
  0
LINE
  5
1B4
330
74
100
AcDbEntity
  8
1
  6
Continuous
 62
     2
100
AcDbLine
 10
-128.5140495261989
 20
7.94774477631479
 30
0.0
 11
-190.7692449994491
 21
7.94774477631479
 31
0.0
  0
LINE
  5
1B5
330
74
100
AcDbEntity
  8
1
  6
Continuous
 62
     2
100
AcDbLine
 10
-128.5140495261989
 20
7.94774477631479
 30
0.0
 11
-128.5140495261989
 21
3.6977447763149
 31
0.0
  0
LINE
  5
1B6
330
74
100
AcDbEntity
  8
1
  6
Continuous
 62
     6
100
AcDbLine
 10
-128.5140495261989
 20
-0.55225522368521
 30
0.0
 11
-115.0140495261989
 21
-0.55225522368521
 31
0.0
  0
LINE
  5
1B7
330
74
100
AcDbEntity
  8
1
  6
Continuous
 62
     2
100
AcDbLine
 10
-115.0140495261989
 20
12.19774477631479
 30
0.0
 11
-128.5140495261989
 21
12.19774477631479
 31
0.0
  0
LINE
  5
1B8
330
74
100
AcDbEntity
  8
1
  6
Continuous
 62
     2
100
AcDbLine
 10
-115.0140495261989
 20
12.19774477631479
 30
0.0
 11
-115.0140495261989
 21
7.94774477631479
 31
0.0
  0
LINE
  5
1B9
330
74
100
AcDbEntity
  8
1
  6
Continuous
 62
     2
100
AcDbLine
 10
-115.0140495261989
 20
24.94774477631479
 30
0.0
 11
-128.5140495261989
 21
24.94774477631479
 31
0.0
  0
LINE
  5
1BA
330
74
100
AcDbEntity
  8
1
  6
Continuous
 62
     2
100
AcDbLine
 10
-115.0140495261989
 20
24.94774477631479
 30
0.0
 11
-115.0140495261989
 21
20.69774477631479
 31
0.0
  0
LINE
  5
1BB
330
74
100
AcDbEntity
  8
1
  6
Continuous
 62
     2
100
AcDbLine
 10
-115.0140495261989
 20
20.69774477631479
 30
0.0
 11
-128.5140495261989
 21
20.69774477631479
 31
0.0
  0
LINE
  5
1BC
330
74
100
AcDbEntity
  8
1
  6
Continuous
 62
     2
100
AcDbLine
 10
-115.0140495261989
 20
20.69774477631479
 30
0.0
 11
-115.0140495261989
 21
16.44774477631479
 31
0.0
  0
LINE
  5
1BD
330
74
100
AcDbEntity
  8
1
  6
Continuous
 62
     2
100
AcDbLine
 10
-115.0140495261989
 20
16.44774477631479
 30
0.0
 11
-128.5140495261989
 21
16.44774477631479
 31
0.0
  0
LINE
  5
1BE
330
74
100
AcDbEntity
  8
1
  6
Continuous
 62
     2
100
AcDbLine
 10
-115.0140495261989
 20
16.44774477631479
 30
0.0
 11
-115.0140495261989
 21
12.19774477631479
 31
0.0
  0
LINE
  5
1BF
330
74
100
AcDbEntity
  8
1
  6
Continuous
 62
     7
100
AcDbLine
 10
-115.0140495261989
 20
3.6977447763149
 30
0.0
 11
-101.514049526199
 21
3.6977447763149
 31
0.0
  0
LINE
  5
1C0
330
74
100
AcDbEntity
  8
1
  6
Continuous
 62
     2
100
AcDbLine
 10
-115.0140495261989
 20
3.6977447763149
 30
0.0
 11
-115.0140495261989
 21
-0.55225522368521
 31
0.0
  0
LINE
  5
1C1
330
74
100
AcDbEntity
  8
1
  6
Continuous
 62
     2
100
AcDbLine
 10
-115.0140495261989
 20
7.94774477631479
 30
0.0
 11
-128.5140495261989
 21
7.94774477631479
 31
0.0
  0
LINE
  5
1C2
330
74
100
AcDbEntity
  8
1
  6
Continuous
 62
     2
100
AcDbLine
 10
-115.0140495261989
 20
7.94774477631479
 30
0.0
 11
-115.0140495261989
 21
3.6977447763149
 31
0.0
  0
LINE
  5
1C3
330
74
100
AcDbEntity
  8
1
  6
Continuous
 62
     6
100
AcDbLine
 10
-115.0140495261989
 20
-0.55225522368521
 30
0.0
 11
-101.969244999449
 21
-0.5522552236851
 31
0.0
  0
LINE
  5
1C4
330
74
100
AcDbEntity
  8
1
  6
Continuous
 62
     2
100
AcDbLine
 10
-101.514049526199
 20
12.19774477631479
 30
0.0
 11
-115.0140495261989
 21
12.19774477631479
 31
0.0
  0
LINE
  5
1C5
330
74
100
AcDbEntity
  8
1
  6
Continuous
 62
     2
100
AcDbLine
 10
-101.514049526199
 20
12.19774477631479
 30
0.0
 11
-101.514049526199
 21
7.94774477631479
 31
0.0
  0
LINE
  5
1C6
330
74
100
AcDbEntity
  8
1
  6
Continuous
 62
     2
100
AcDbLine
 10
-101.514049526199
 20
24.94774477631479
 30
0.0
 11
-115.0140495261989
 21
24.94774477631479
 31
0.0
  0
LINE
  5
1C7
330
74
100
AcDbEntity
  8
1
  6
Continuous
 62
     2
100
AcDbLine
 10
-101.514049526199
 20
24.94774477631479
 30
0.0
 11
-101.514049526199
 21
20.69774477631479
 31
0.0
  0
LINE
  5
1C8
330
74
100
AcDbEntity
  8
1
  6
Continuous
 62
     2
100
AcDbLine
 10
-101.514049526199
 20
20.69774477631479
 30
0.0
 11
-115.0140495261989
 21
20.69774477631479
 31
0.0
  0
LINE
  5
1C9
330
74
100
AcDbEntity
  8
1
  6
Continuous
 62
     2
100
AcDbLine
 10
-101.514049526199
 20
20.69774477631479
 30
0.0
 11
-101.514049526199
 21
16.44774477631479
 31
0.0
  0
LINE
  5
1CA
330
74
100
AcDbEntity
  8
1
  6
Continuous
 62
     2
100
AcDbLine
 10
-101.514049526199
 20
16.44774477631479
 30
0.0
 11
-115.0140495261989
 21
16.44774477631479
 31
0.0
  0
LINE
  5
1CB
330
74
100
AcDbEntity
  8
1
  6
Continuous
 62
     2
100
AcDbLine
 10
-101.514049526199
 20
16.44774477631479
 30
0.0
 11
-101.514049526199
 21
12.19774477631479
 31
0.0
  0
LINE
  5
1CC
330
74
100
AcDbEntity
  8
1
  6
Continuous
 62
     7
100
AcDbLine
 10
-101.514049526199
 20
3.6977447763149
 30
0.0
 11
-88.01404952619887
 21
3.6977447763149
 31
0.0
  0
LINE
  5
1CD
330
74
100
AcDbEntity
  8
1
  6
Continuous
 62
     2
100
AcDbLine
 10
-101.514049526199
 20
3.6977447763149
 30
0.0
 11
-101.514049526199
 21
-0.55225522368521
 31
0.0
  0
LINE
  5
1CE
330
74
100
AcDbEntity
  8
1
  6
Continuous
 62
     2
100
AcDbLine
 10
-101.514049526199
 20
7.94774477631479
 30
0.0
 11
-115.0140495261989
 21
7.94774477631479
 31
0.0
  0
LINE
  5
1CF
330
74
100
AcDbEntity
  8
1
  6
Continuous
 62
     2
100
AcDbLine
 10
-101.514049526199
 20
7.94774477631479
 30
0.0
 11
-101.514049526199
 21
3.6977447763149
 31
0.0
  0
LINE
  5
1D0
330
74
100
AcDbEntity
  8
1
  6
Continuous
 62
     6
100
AcDbLine
 10
-101.514049526199
 20
-0.55225522368521
 30
0.0
 11
-88.01404952619887
 21
-0.55225522368521
 31
0.0
  0
LINE
  5
1D1
330
74
100
AcDbEntity
  8
1
  6
Continuous
 62
     6
100
AcDbLine
 10
41.53075500055283
 20
16.44774477631479
 30
0.0
 11
41.53075500055235
 21
7.94774477631479
 31
0.0
  0
LINE
  5
1D2
330
74
100
AcDbEntity
  8
1
  6
Continuous
 62
     7
100
AcDbLine
 10
-28.71404952619895
 20
20.69774477631473
 30
0.0
 11
-51.61404952619898
 21
20.69774477631479
 31
0.0
  0
LINE
  5
1D3
330
74
100
AcDbEntity
  8
1
  6
Continuous
 62
     7
100
AcDbLine
 10
-65.11404952619898
 20
20.69774477631479
 30
0.0
 11
-51.61404952619898
 21
20.69774477631479
 31
0.0
  0
LINE
  5
1D4
330
74
100
AcDbEntity
  8
1
  6
Continuous
 62
     6
100
AcDbLine
 10
-51.61404952619898
 20
-0.55225522368521
 30
0.0
 11
-51.96924499944896
 21
-0.5522552236851
 31
0.0
  0
LINE
  5
1D5
330
74
100
AcDbEntity
  8
1
  6
Continuous
 62
     2
100
AcDbLine
 10
-190.7692449994491
 20
20.69774477631479
 30
0.0
 11
-128.5140495261989
 21
20.69774477631479
 31
0.0
  0
LINE
  5
1D6
330
74
100
AcDbEntity
  8
1
  6
Continuous
 62
     2
100
AcDbLine
 10
-190.7692449994491
 20
24.94774477631479
 30
0.0
 11
-128.5140495261989
 21
24.94774477631479
 31
0.0
  0
LINE
  5
1D7
330
74
100
AcDbEntity
  8
1
  6
Continuous
 62
     6
100
AcDbLine
 10
-128.5140495261989
 20
29.19774477631479
 30
0.0
 11
-190.7692449994491
 21
29.19774477631479
 31
0.0
  0
LINE
  5
1D8
330
74
100
AcDbEntity
  8
1
  6
Continuous
 62
     6
100
AcDbLine
 10
-210.4692449994471
 20
7.94774477631479
 30
0.0
 11
-210.4692449994471
 21
12.19774477631479
 31
0.0
  0
LINE
  5
1D9
330
74
100
AcDbEntity
  8
1
  6
Continuous
 62
     6
100
AcDbLine
 10
-210.4692449994471
 20
16.44774477631479
 30
0.0
 11
-210.4692449994471
 21
20.69774477631479
 31
0.0
  0
LINE
  5
1DA
330
74
100
AcDbEntity
  8
1
  6
Continuous
 62
     6
100
AcDbLine
 10
-210.4692449994471
 20
20.69774477631479
 30
0.0
 11
-210.4692449994471
 21
24.94774477631479
 31
0.0
  0
LINE
  5
1DB
330
74
100
AcDbEntity
  8
1
  6
Continuous
 62
     6
100
AcDbLine
 10
-210.4692449994471
 20
24.94774477631479
 30
0.0
 11
-210.4692449994471
 21
29.19774477631479
 31
0.0
  0
LINE
  5
1DC
330
74
100
AcDbEntity
  8
1
  6
Continuous
 62
     6
100
AcDbLine
 10
-204.2692449994491
 20
-0.55225522368521
 30
0.0
 11
-210.4692449994471
 21
-0.5522552236851
 31
0.0
  0
LINE
  5
1DD
330
74
100
AcDbEntity
  8
1
  6
Continuous
 62
     7
100
AcDbLine
 10
-21.96924499944658
 20
16.44774477631479
 30
0.0
 11
-21.96924499944658
 21
7.94774477631479
 31
0.0
  0
LINE
  5
1DE
330
74
100
AcDbEntity
  8
1
  6
Continuous
 62
     7
100
AcDbLine
 10
-21.96924499944658
 20
16.44774477631479
 30
0.0
 11
-3.46924499944696
 21
16.44774477631479
 31
0.0
  0
LINE
  5
1DF
330
74
100
AcDbEntity
  8
1
  6
Continuous
 62
     7
100
AcDbLine
 10
14.73075500055305
 20
20.6977447763149
 30
0.0
 11
-21.96924499944658
 21
20.69774477631477
 31
0.0
  0
LINE
  5
1E0
330
74
100
AcDbEntity
  8
1
  6
Continuous
 62
     7
100
AcDbLine
 10
14.73075500055305
 20
20.6977447763149
 30
0.0
 11
23.64916328223194
 21
20.69774477631479
 31
0.0
  0
LINE
  5
1E1
330
74
100
AcDbEntity
  8
1
  6
Continuous
 62
     7
100
AcDbLine
 10
-51.61404952619898
 20
16.44774477631479
 30
0.0
 11
-21.96924499944658
 21
16.44774477631479
 31
0.0
  0
LINE
  5
1E2
330
74
100
AcDbEntity
  8
1
  6
Continuous
 62
     7
100
AcDbLine
 10
-51.61404952619898
 20
7.94774477631479
 30
0.0
 11
-21.96924499944658
 21
7.94774477631479
 31
0.0
  0
LINE
  5
1E3
330
74
100
AcDbEntity
  8
1
  6
Continuous
 62
     7
100
AcDbLine
 10
-88.01404952619887
 20
29.19774477631479
 30
0.0
 11
-88.01404952619887
 21
24.94774477631479
 31
0.0
  0
LINE
  5
1E4
330
74
100
AcDbEntity
  8
1
  6
Continuous
 62
     7
100
AcDbLine
 10
-88.01404952619887
 20
3.6977447763149
 30
0.0
 11
-88.01404952619887
 21
-0.55225522368521
 31
0.0
  0
LINE
  5
1E5
330
74
100
AcDbEntity
  8
1
  6
Continuous
 62
     7
100
AcDbLine
 10
-51.61404952619898
 20
3.6977447763149
 30
0.0
 11
-51.61404952619898
 21
-0.55225522368521
 31
0.0
  0
LINE
  5
1E6
330
74
100
AcDbEntity
  8
1
  6
Continuous
 62
     7
100
AcDbLine
 10
-51.61404952619898
 20
16.44774477631479
 30
0.0
 11
-65.11404952619898
 21
16.44774477631479
 31
0.0
  0
LINE
  5
1E7
330
74
100
AcDbEntity
  8
1
  6
Continuous
 62
     7
100
AcDbLine
 10
-88.01404952619887
 20
20.69774477631479
 30
0.0
 11
-78.6140495261989
 21
20.69774477631479
 31
0.0
  0
LINE
  5
1E8
330
74
100
AcDbEntity
  8
1
  6
Continuous
 62
     7
100
AcDbLine
 10
-78.6140495261989
 20
24.94774477631479
 30
0.0
 11
-78.6140495261989
 21
20.69774477631479
 31
0.0
  0
LINE
  5
1E9
330
74
100
AcDbEntity
  8
1
  6
Continuous
 62
     7
100
AcDbLine
 10
-65.11404952619898
 20
24.94774477631479
 30
0.0
 11
-65.11404952619898
 21
20.69774477631479
 31
0.0
  0
LINE
  5
1EA
330
74
100
AcDbEntity
  8
1
  6
Continuous
 62
     7
100
AcDbLine
 10
-88.01404952619887
 20
7.94774477631479
 30
0.0
 11
-88.01404952619887
 21
3.6977447763149
 31
0.0
  0
LINE
  5
1EB
330
74
100
AcDbEntity
  8
1
  6
Continuous
 62
     7
100
AcDbLine
 10
-88.01404952619887
 20
12.19774477631479
 30
0.0
 11
-88.01404952619887
 21
7.94774477631479
 31
0.0
  0
LINE
  5
1EC
330
74
100
AcDbEntity
  8
1
  6
Continuous
 62
     7
100
AcDbLine
 10
-51.61404952619898
 20
7.94774477631479
 30
0.0
 11
-51.61404952619898
 21
3.6977447763149
 31
0.0
  0
LINE
  5
1ED
330
74
100
AcDbEntity
  8
1
  6
Continuous
 62
     7
100
AcDbLine
 10
-210.4692449994471
 20
3.6977447763149
 30
0.0
 11
-204.2692449994491
 21
3.6977447763149
 31
0.0
  0
LINE
  5
1EE
330
74
100
AcDbEntity
  8
1
  6
Continuous
 62
     2
100
AcDbLine
 10
-210.4692449994471
 20
12.19774477631479
 30
0.0
 11
-204.2692449994491
 21
12.19774477631479
 31
0.0
  0
LINE
  5
1EF
330
74
100
AcDbEntity
  8
1
  6
Continuous
 62
     2
100
AcDbLine
 10
-210.4692449994471
 20
7.94774477631479
 30
0.0
 11
-204.2692449994491
 21
7.94774477631479
 31
0.0
  0
LINE
  5
1F0
330
74
100
AcDbEntity
  8
1
  6
Continuous
 62
     2
100
AcDbLine
 10
-204.2692449994491
 20
-0.55225522368521
 30
0.0
 11
-204.2692449994491
 21
3.6977447763149
 31
0.0
  0
LINE
  5
1F1
330
74
100
AcDbEntity
  8
1
  6
Continuous
 62
     7
100
AcDbLine
 10
-78.6140495261989
 20
29.19774477631479
 30
0.0
 11
-78.6140495261989
 21
24.94774477631479
 31
0.0
  0
LINE
  5
1F2
330
74
100
AcDbEntity
  8
1
  6
Continuous
 62
     7
100
AcDbLine
 10
-65.11404952619898
 20
29.19774477631479
 30
0.0
 11
-65.11404952619898
 21
24.94774477631479
 31
0.0
  0
LINE
  5
1F3
330
74
100
AcDbEntity
  8
1
  6
Continuous
 62
     7
100
AcDbLine
 10
-51.61404952619898
 20
20.69774477631479
 30
0.0
 11
-51.61404952619898
 21
16.44774477631479
 31
0.0
  0
LINE
  5
1F4
330
74
100
AcDbEntity
  8
1
  6
Continuous
 62
     7
100
AcDbLine
 10
-88.01404952619887
 20
24.94774477631479
 30
0.0
 11
-88.01404952619887
 21
20.69774477631479
 31
0.0
  0
LINE
  5
1F5
330
74
100
AcDbEntity
  8
1
  6
Continuous
 62
     2
100
AcDbLine
 10
-210.4692449994471
 20
20.69774477631479
 30
0.0
 11
-204.2692449994491
 21
20.69774477631479
 31
0.0
  0
LINE
  5
1F6
330
74
100
AcDbEntity
  8
1
  6
Continuous
 62
     7
100
AcDbLine
 10
-88.01404952619887
 20
20.69774477631479
 30
0.0
 11
-88.01404952619887
 21
16.44774477631479
 31
0.0
  0
LINE
  5
1F7
330
74
100
AcDbEntity
  8
1
  6
Continuous
 62
     7
100
AcDbLine
 10
-88.01404952619887
 20
16.44774477631479
 30
0.0
 11
-88.01404952619887
 21
12.19774477631479
 31
0.0
  0
LINE
  5
1F8
330
74
100
AcDbEntity
  8
1
  6
Continuous
 62
     6
100
AcDbLine
 10
-78.6140495261989
 20
29.19774477631479
 30
0.0
 11
-65.11404952619898
 21
29.19774477631479
 31
0.0
  0
LINE
  5
1F9
330
74
100
AcDbEntity
  8
1
  6
Continuous
 62
     7
100
AcDbLine
 10
-51.61404952619898
 20
29.19774477631479
 30
0.0
 11
-51.61404952619898
 21
24.94774477631479
 31
0.0
  0
LINE
  5
1FA
330
74
100
AcDbEntity
  8
1
  6
Continuous
 62
     6
100
AcDbLine
 10
-65.11404952619898
 20
29.19774477631479
 30
0.0
 11
-51.61404952619898
 21
29.19774477631479
 31
0.0
  0
LINE
  5
1FB
330
74
100
AcDbEntity
  8
1
  6
Continuous
 62
     7
100
AcDbLine
 10
-51.61404952619898
 20
7.94774477631479
 30
0.0
 11
-51.61404952619898
 21
12.19774477631479
 31
0.0
  0
LINE
  5
1FC
330
74
100
AcDbEntity
  8
1
  6
Continuous
 62
     2
100
AcDbLine
 10
-204.2692449994491
 20
3.6977447763149
 30
0.0
 11
-204.2692449994491
 21
7.94774477631479
 31
0.0
  0
LINE
  5
1FD
330
74
100
AcDbEntity
  8
1
  6
Continuous
 62
     7
100
AcDbLine
 10
-204.2692449994491
 20
3.6977447763149
 30
0.0
 11
-190.7692449994491
 21
3.6977447763149
 31
0.0
  0
LINE
  5
1FE
330
74
100
AcDbEntity
  8
1
  6
Continuous
 62
     2
100
AcDbLine
 10
-204.2692449994491
 20
12.19774477631479
 30
0.0
 11
-204.2692449994491
 21
16.44774477631479
 31
0.0
  0
LINE
  5
1FF
330
74
100
AcDbEntity
  8
1
  6
Continuous
 62
     2
100
AcDbLine
 10
-204.2692449994491
 20
7.94774477631479
 30
0.0
 11
-204.2692449994491
 21
12.19774477631479
 31
0.0
  0
LINE
  5
200
330
74
100
AcDbEntity
  8
1
  6
Continuous
 62
     2
100
AcDbLine
 10
-88.01404952619887
 20
12.19774477631479
 30
0.0
 11
-101.514049526199
 21
12.19774477631479
 31
0.0
  0
LINE
  5
201
330
74
100
AcDbEntity
  8
1
  6
Continuous
 62
     2
100
AcDbLine
 10
-88.01404952619887
 20
7.94774477631479
 30
0.0
 11
-101.514049526199
 21
7.94774477631479
 31
0.0
  0
LINE
  5
202
330
74
100
AcDbEntity
  8
1
  6
Continuous
 62
     6
100
AcDbLine
 10
-88.01404952619887
 20
29.19774477631479
 30
0.0
 11
-101.514049526199
 21
29.19774477631479
 31
0.0
  0
LINE
  5
203
330
74
100
AcDbEntity
  8
1
  6
Continuous
 62
     2
100
AcDbLine
 10
-204.2692449994491
 20
24.94774477631479
 30
0.0
 11
-210.4692449994471
 21
24.94774477631479
 31
0.0
  0
LINE
  5
204
330
74
100
AcDbEntity
  8
1
  6
Continuous
 62
     2
100
AcDbLine
 10
-204.2692449994491
 20
24.94774477631479
 30
0.0
 11
-204.2692449994491
 21
29.19774477631479
 31
0.0
  0
LINE
  5
205
330
74
100
AcDbEntity
  8
1
  6
Continuous
 62
     2
100
AcDbLine
 10
-88.01404952619887
 20
24.94774477631479
 30
0.0
 11
-101.514049526199
 21
24.94774477631479
 31
0.0
  0
LINE
  5
206
330
74
100
AcDbEntity
  8
1
  6
Continuous
 62
     2
100
AcDbLine
 10
-204.2692449994491
 20
20.69774477631479
 30
0.0
 11
-204.2692449994491
 21
24.94774477631479
 31
0.0
  0
LINE
  5
207
330
74
100
AcDbEntity
  8
1
  6
Continuous
 62
     2
100
AcDbLine
 10
-88.01404952619887
 20
20.69774477631479
 30
0.0
 11
-101.514049526199
 21
20.69774477631479
 31
0.0
  0
LINE
  5
208
330
74
100
AcDbEntity
  8
1
  6
Continuous
 62
     2
100
AcDbLine
 10
-204.2692449994491
 20
16.44774477631479
 30
0.0
 11
-210.4692449994471
 21
16.44774477631479
 31
0.0
  0
LINE
  5
209
330
74
100
AcDbEntity
  8
1
  6
Continuous
 62
     2
100
AcDbLine
 10
-204.2692449994491
 20
16.44774477631479
 30
0.0
 11
-204.2692449994491
 21
20.69774477631479
 31
0.0
  0
LINE
  5
20A
330
74
100
AcDbEntity
  8
1
  6
Continuous
 62
     2
100
AcDbLine
 10
-88.01404952619887
 20
16.44774477631479
 30
0.0
 11
-101.514049526199
 21
16.44774477631479
 31
0.0
  0
LINE
  5
20B
330
74
100
AcDbEntity
  8
1
  6
Continuous
 62
     7
100
AcDbLine
 10
-65.11404952619898
 20
20.69774477631479
 30
0.0
 11
-78.6140495261989
 21
20.69774477631479
 31
0.0
  0
LINE
  5
20C
330
74
100
AcDbEntity
  8
1
  6
Continuous
 62
     7
100
AcDbLine
 10
-78.6140495261989
 20
20.69774477631479
 30
0.0
 11
-78.6140495261989
 21
16.4477447763149
 31
0.0
  0
LINE
  5
20D
330
74
100
AcDbEntity
  8
1
  6
Continuous
 62
     7
100
AcDbLine
 10
-65.11404952619898
 20
20.69774477631479
 30
0.0
 11
-65.11404952619898
 21
16.44774477631479
 31
0.0
  0
LINE
  5
20E
330
74
100
AcDbEntity
  8
1
  6
Continuous
 62
     6
100
AcDbLine
 10
-210.4692449994471
 20
3.6977447763149
 30
0.0
 11
-210.4692449994471
 21
7.94774477631479
 31
0.0
  0
LINE
  5
20F
330
74
100
AcDbEntity
  8
1
  6
Continuous
 62
     6
100
AcDbLine
 10
-210.4692449994471
 20
-0.5522552236851
 30
0.0
 11
-210.4692449994471
 21
3.6977447763149
 31
0.0
  0
LINE
  5
210
330
74
100
AcDbEntity
  8
1
  6
Continuous
 62
     6
100
AcDbLine
 10
-204.2692449994491
 20
29.19774477631479
 30
0.0
 11
-210.4692449994471
 21
29.19774477631479
 31
0.0
  0
LINE
  5
211
330
74
100
AcDbEntity
  8
1
  6
Continuous
 62
     7
100
AcDbLine
 10
-28.71404952619895
 20
29.19774477631479
 30
0.0
 11
-28.71404952619895
 21
20.69774477631473
 31
0.0
  0
LINE
  5
212
330
74
100
AcDbEntity
  8
1
  6
Continuous
 62
     6
100
AcDbLine
 10
14.73075500055274
 20
29.19774477631479
 30
0.0
 11
-28.71404952619895
 21
29.19774477631479
 31
0.0
  0
LINE
  5
213
330
74
100
AcDbEntity
  8
1
  6
Continuous
 62
     6
100
AcDbLine
 10
-51.61404952619898
 20
29.19774477631479
 30
0.0
 11
-28.71404952619895
 21
29.19774477631479
 31
0.0
  0
LINE
  5
214
330
74
100
AcDbEntity
  8
1
  6
Continuous
 62
     7
100
AcDbLine
 10
-51.61404952619898
 20
3.6977447763149
 30
0.0
 11
-69.814049526199
 21
3.6977447763149
 31
0.0
  0
LINE
  5
215
330
74
100
AcDbEntity
  8
1
  6
Continuous
 62
     7
100
AcDbLine
 10
-65.11404952619898
 20
16.44774477631479
 30
0.0
 11
-78.6140495261989
 21
16.4477447763149
 31
0.0
  0
LINE
  5
216
330
74
100
AcDbEntity
  8
1
  6
Continuous
 62
     7
100
AcDbLine
 10
-69.814049526199
 20
3.6977447763149
 30
0.0
 11
-88.01404952619887
 21
3.6977447763149
 31
0.0
  0
LINE
  5
217
330
74
100
AcDbEntity
  8
1
  6
Continuous
 62
     7
100
AcDbLine
 10
-69.814049526199
 20
3.6977447763149
 30
0.0
 11
-69.814049526199
 21
-0.5522552236851
 31
0.0
  0
LINE
  5
218
330
74
100
AcDbEntity
  8
1
  6
Continuous
 62
     2
100
AcDbLine
 10
-128.5140495261989
 20
29.19774477631479
 30
0.0
 11
-128.5140495261989
 21
24.94774477631479
 31
0.0
  0
LINE
  5
219
330
74
100
AcDbEntity
  8
1
  6
Continuous
 62
     6
100
AcDbLine
 10
-115.0140495261989
 20
29.19774477631479
 30
0.0
 11
-128.5140495261989
 21
29.19774477631479
 31
0.0
  0
LINE
  5
21A
330
74
100
AcDbEntity
  8
1
  6
Continuous
 62
     6
100
AcDbLine
 10
-101.514049526199
 20
29.19774477631479
 30
0.0
 11
-115.0140495261989
 21
29.19774477631479
 31
0.0
  0
LINE
  5
21B
330
74
100
AcDbEntity
  8
1
  6
Continuous
 62
     2
100
AcDbLine
 10
-115.0140495261989
 20
29.19774477631479
 30
0.0
 11
-115.0140495261989
 21
24.94774477631479
 31
0.0
  0
LINE
  5
21C
330
74
100
AcDbEntity
  8
1
  6
Continuous
 62
     2
100
AcDbLine
 10
-101.514049526199
 20
29.19774477631479
 30
0.0
 11
-101.514049526199
 21
24.94774477631479
 31
0.0
  0
LINE
  5
21D
330
74
100
AcDbEntity
  8
1
  6
Continuous
 62
     7
100
AcDbLine
 10
-3.46924499944696
 20
16.44774477631479
 30
0.0
 11
-3.46924499944696
 21
7.94774477631479
 31
0.0
  0
LINE
  5
21E
330
74
100
AcDbEntity
  8
1
  6
Continuous
 62
     7
100
AcDbLine
 10
-3.46924499944696
 20
7.94774477631479
 30
0.0
 11
-21.96924499944658
 21
7.94774477631479
 31
0.0
  0
LINE
  5
21F
330
74
100
AcDbEntity
  8
1
  6
Continuous
 62
     7
100
AcDbLine
 10
14.73075500055274
 20
29.19774477631479
 30
0.0
 11
14.73075500055305
 21
20.6977447763149
 31
0.0
  0
LINE
  5
220
330
74
100
AcDbEntity
  8
1
  6
Continuous
 62
     6
100
AcDbLine
 10
14.73075500055274
 20
29.19774477631479
 30
0.0
 11
23.64916328223194
 21
29.19774477631479
 31
0.0
  0
LINE
  5
221
330
74
100
AcDbEntity
  8
1
  6
Continuous
 62
     7
100
AcDbLine
 10
23.64916328223194
 20
20.69774477631479
 30
0.0
 11
23.64916328223194
 21
29.19774477631479
 31
0.0
  0
LINE
  5
222
330
74
100
AcDbEntity
  8
1
  6
Continuous
 62
     7
100
AcDbLine
 10
-65.11404952619898
 20
24.94774477631479
 30
0.0
 11
-78.6140495261989
 21
24.94774477631479
 31
0.0
  0
LINE
  5
223
330
74
100
AcDbEntity
  8
1
  6
Continuous
 62
     7
100
AcDbLine
 10
-65.11404952619898
 20
24.94774477631479
 30
0.0
 11
-51.61404952619898
 21
24.94774477631479
 31
0.0
  0
LINE
  5
224
330
74
100
AcDbEntity
  8
1
  6
Continuous
 62
     7
100
AcDbLine
 10
-51.61404952619898
 20
24.94774477631479
 30
0.0
 11
-51.61404952619898
 21
20.69774477631479
 31
0.0
  0
LINE
  5
225
330
74
100
AcDbEntity
  8
1
  6
Continuous
 62
     7
100
AcDbLine
 10
-3.46924499944696
 20
16.44774477631479
 30
0.0
 11
41.53075500055283
 21
16.44774477631479
 31
0.0
  0
LINE
  5
226
330
74
100
AcDbEntity
  8
1
  6
Continuous
 62
     7
100
AcDbLine
 10
41.53075500055184
 20
20.69774477631479
 30
0.0
 11
23.64916328223194
 21
20.69774477631479
 31
0.0
  0
LINE
  5
227
330
74
100
AcDbEntity
  8
1
  6
Continuous
 62
     7
100
AcDbLine
 10
41.53075500055235
 20
7.94774477631479
 30
0.0
 11
-3.46924499944696
 21
7.94774477631479
 31
0.0
  0
LINE
  5
228
330
74
100
AcDbEntity
  8
1
  6
Continuous
 62
     6
100
AcDbLine
 10
41.53075500055275
 20
29.19774477631479
 30
0.0
 11
23.64916328223194
 21
29.19774477631479
 31
0.0
  0
LINE
  5
229
330
74
100
AcDbEntity
  8
1
  6
Continuous
 62
     6
100
AcDbLine
 10
-128.5140495261989
 20
-0.55225522368521
 30
0.0
 11
-151.9692449994491
 21
-0.5522552236851
 31
0.0
  0
LINE
  5
22A
330
74
100
AcDbEntity
  8
1
  6
Continuous
 62
     6
100
AcDbLine
 10
-204.2692449994491
 20
-0.55225522368521
 30
0.0
 11
-201.969244999449
 21
-0.5522552236851
 31
0.0
  0
LINE
  5
22B
330
74
100
AcDbEntity
  8
1
  6
Continuous
 62
     6
100
AcDbLine
 10
-88.01404952619887
 20
-0.55225522368521
 30
0.0
 11
-69.814049526199
 21
-0.5522552236851
 31
0.0
  0
LINE
  5
22C
330
74
100
AcDbEntity
  8
1
  6
Continuous
 62
     6
100
AcDbLine
 10
-51.61404952619898
 20
-0.55225522368521
 30
0.0
 11
-1.96924499944895
 21
-0.5522552236851
 31
0.0
  0
LINE
  5
22D
330
74
100
AcDbEntity
  8
1
  6
Continuous
 62
     6
100
AcDbLine
 10
41.53075500055184
 20
20.69774477631479
 30
0.0
 11
41.53075500055283
 21
16.44774477631479
 31
0.0
  0
LINE
  5
22E
330
74
100
AcDbEntity
  8
1
  6
Continuous
 62
     6
100
AcDbLine
 10
41.53075500055104
 20
-0.5522552236851
 30
0.0
 11
41.53075500055235
 21
7.94774477631479
 31
0.0
  0
LINE
  5
22F
330
74
100
AcDbEntity
  8
1
  6
Continuous
 62
     2
100
AcDbLine
 10
-190.7692449994491
 20
29.19774477631479
 30
0.0
 11
-190.7692449994491
 21
24.94774477631479
 31
0.0
  0
LINE
  5
230
330
74
100
AcDbEntity
  8
1
  6
Continuous
 62
     6
100
AcDbLine
 10
-190.7692449994491
 20
29.19774477631479
 30
0.0
 11
-204.2692449994491
 21
29.19774477631479
 31
0.0
  0
LINE
  5
231
330
74
100
AcDbEntity
  8
1
  6
Continuous
 62
     2
100
AcDbLine
 10
-190.7692449994491
 20
24.94774477631479
 30
0.0
 11
-190.7692449994491
 21
20.69774477631479
 31
0.0
  0
LINE
  5
232
330
74
100
AcDbEntity
  8
1
  6
Continuous
 62
     2
100
AcDbLine
 10
-190.7692449994491
 20
20.69774477631479
 30
0.0
 11
-190.7692449994491
 21
16.44774477631479
 31
0.0
  0
LINE
  5
233
330
74
100
AcDbEntity
  8
1
  6
Continuous
 62
     2
100
AcDbLine
 10
-190.7692449994491
 20
20.69774477631479
 30
0.0
 11
-204.2692449994491
 21
20.69774477631479
 31
0.0
  0
LINE
  5
234
330
74
100
AcDbEntity
  8
1
  6
Continuous
 62
     2
100
AcDbLine
 10
-190.7692449994491
 20
24.94774477631479
 30
0.0
 11
-204.2692449994491
 21
24.94774477631479
 31
0.0
  0
LINE
  5
235
330
74
100
AcDbEntity
  8
1
  6
Continuous
 62
     2
100
AcDbLine
 10
-190.7692449994491
 20
12.19774477631479
 30
0.0
 11
-190.7692449994491
 21
7.94774477631479
 31
0.0
  0
LINE
  5
236
330
74
100
AcDbEntity
  8
1
  6
Continuous
 62
     2
100
AcDbLine
 10
-190.7692449994491
 20
12.19774477631479
 30
0.0
 11
-204.2692449994491
 21
12.19774477631479
 31
0.0
  0
LINE
  5
237
330
74
100
AcDbEntity
  8
1
  6
Continuous
 62
     2
100
AcDbLine
 10
-190.7692449994491
 20
16.44774477631479
 30
0.0
 11
-190.7692449994491
 21
12.19774477631479
 31
0.0
  0
LINE
  5
238
330
74
100
AcDbEntity
  8
1
  6
Continuous
 62
     2
100
AcDbLine
 10
-190.7692449994491
 20
16.44774477631479
 30
0.0
 11
-204.2692449994491
 21
16.44774477631479
 31
0.0
  0
LINE
  5
239
330
74
100
AcDbEntity
  8
1
  6
Continuous
 62
     2
100
AcDbLine
 10
-190.7692449994491
 20
7.94774477631479
 30
0.0
 11
-190.7692449994491
 21
3.6977447763149
 31
0.0
  0
LINE
  5
23A
330
74
100
AcDbEntity
  8
1
  6
Continuous
 62
     2
100
AcDbLine
 10
-190.7692449994491
 20
7.94774477631479
 30
0.0
 11
-204.2692449994491
 21
7.94774477631479
 31
0.0
  0
LINE
  5
23B
330
74
100
AcDbEntity
  8
1
  6
Continuous
 62
     2
100
AcDbLine
 10
-190.7692449994491
 20
3.6977447763149
 30
0.0
 11
-190.7692449994491
 21
-0.5522552236851
 31
0.0
  0
LINE
  5
23C
330
74
100
AcDbEntity
  8
1
  6
Continuous
 62
     7
100
AcDbLine
 10
-190.7692449994491
 20
3.6977447763149
 30
0.0
 11
-128.5140495261989
 21
3.6977447763149
 31
0.0
  0
LINE
  5
23D
330
74
100
AcDbEntity
  8
1
  6
Continuous
 62
     2
100
AcDbLine
 10
-250.4692449994481
 20
-0.5522552236851
 30
0.0
 11
-250.4692449994481
 21
-5.55225522368521
 31
0.0
  0
LINE
  5
23E
330
74
100
AcDbEntity
  8
1
  6
Continuous
 62
     2
100
AcDbLine
 10
-245.469244999447
 20
-0.5522552236851
 30
0.0
 11
-250.4692449994481
 21
-0.5522552236851
 31
0.0
  0
LINE
  5
23F
330
74
100
AcDbEntity
  8
1
  6
Continuous
 62
     2
100
AcDbLine
 10
-245.469244999447
 20
-5.55225522368521
 30
0.0
 11
-201.969244999449
 21
-5.55225522368521
 31
0.0
  0
LINE
  5
240
330
74
100
AcDbEntity
  8
1
  6
Continuous
 62
     2
100
AcDbLine
 10
-245.469244999447
 20
-0.5522552236851
 30
0.0
 11
-245.469244999447
 21
-5.55225522368521
 31
0.0
  0
LINE
  5
241
330
74
100
AcDbEntity
  8
1
  6
Continuous
 62
     2
100
AcDbLine
 10
-1.96924499944895
 20
-5.55225522368521
 30
0.0
 11
-51.96924499944896
 21
-5.55225522368521
 31
0.0
  0
LINE
  5
242
330
74
100
AcDbEntity
  8
1
  6
Continuous
 62
     2
100
AcDbLine
 10
-1.96924499944895
 20
-5.55225522368521
 30
0.0
 11
-1.96924499944895
 21
-0.5522552236851
 31
0.0
  0
LINE
  5
243
330
74
100
AcDbEntity
  8
1
  6
Continuous
 62
     2
100
AcDbLine
 10
-51.96924499944896
 20
-5.55225522368521
 30
0.0
 11
-51.96924499944896
 21
-0.5522552236851
 31
0.0
  0
LINE
  5
244
330
74
100
AcDbEntity
  8
1
  6
Continuous
 62
     2
100
AcDbLine
 10
-101.969244999449
 20
-5.55225522368521
 30
0.0
 11
-51.96924499944896
 21
-5.55225522368521
 31
0.0
  0
LINE
  5
245
330
74
100
AcDbEntity
  8
1
  6
Continuous
 62
     2
100
AcDbLine
 10
-101.969244999449
 20
-5.55225522368521
 30
0.0
 11
-101.969244999449
 21
-0.5522552236851
 31
0.0
  0
LINE
  5
246
330
74
100
AcDbEntity
  8
1
  6
Continuous
 62
     2
100
AcDbLine
 10
-151.9692449994491
 20
-5.55225522368521
 30
0.0
 11
-101.969244999449
 21
-5.55225522368521
 31
0.0
  0
LINE
  5
247
330
74
100
AcDbEntity
  8
1
  6
Continuous
 62
     2
100
AcDbLine
 10
-151.9692449994491
 20
-5.55225522368521
 30
0.0
 11
-151.9692449994491
 21
-0.5522552236851
 31
0.0
  0
LINE
  5
248
330
74
100
AcDbEntity
  8
1
  6
Continuous
 62
     2
100
AcDbLine
 10
-201.969244999449
 20
-5.55225522368521
 30
0.0
 11
-151.9692449994491
 21
-5.55225522368521
 31
0.0
  0
LINE
  5
249
330
74
100
AcDbEntity
  8
1
  6
Continuous
 62
     2
100
AcDbLine
 10
-201.969244999449
 20
-5.55225522368521
 30
0.0
 11
-201.969244999449
 21
-0.5522552236851
 31
0.0
  0
LINE
  5
24A
330
74
100
AcDbEntity
  8
1
  6
Continuous
 62
     6
100
AcDbLine
 10
-245.4692449994472
 20
49.4477447763149
 30
0.0
 11
-245.469244999447
 21
-0.5522552236851
 31
0.0
  0
LINE
  5
24B
330
74
100
AcDbEntity
  8
1
  6
Continuous
 62
     2
100
AcDbLine
 10
-250.4692449994481
 20
49.4477447763149
 30
0.0
 11
-250.4692449994481
 21
-0.5522552236851
 31
0.0
  0
LINE
  5
24C
330
74
100
AcDbEntity
  8
1
  6
Continuous
 62
     2
100
AcDbLine
 10
-250.4692449994481
 20
49.4477447763149
 30
0.0
 11
-245.4692449994472
 21
49.4477447763149
 31
0.0
  0
LINE
  5
24D
330
74
100
AcDbEntity
  8
1
  6
Continuous
 62
     6
100
AcDbLine
 10
-245.4692449994475
 20
99.4477447763147
 30
0.0
 11
-245.4692449994472
 21
49.4477447763149
 31
0.0
  0
LINE
  5
24E
330
74
100
AcDbEntity
  8
1
  6
Continuous
 62
     2
100
AcDbLine
 10
-250.4692449994481
 20
99.4477447763147
 30
0.0
 11
-250.4692449994481
 21
49.4477447763149
 31
0.0
  0
LINE
  5
24F
330
74
100
AcDbEntity
  8
1
  6
Continuous
 62
     2
100
AcDbLine
 10
-250.4692449994481
 20
99.4477447763147
 30
0.0
 11
-245.4692449994475
 21
99.4477447763147
 31
0.0
  0
LINE
  5
250
330
74
100
AcDbEntity
  8
1
  6
Continuous
 62
     6
100
AcDbLine
 10
-245.4692449994479
 20
149.4477447763148
 30
0.0
 11
-245.4692449994475
 21
99.4477447763147
 31
0.0
  0
LINE
  5
251
330
74
100
AcDbEntity
  8
1
  6
Continuous
 62
     2
100
AcDbLine
 10
-250.4692449994481
 20
149.4477447763148
 30
0.0
 11
-250.4692449994481
 21
99.4477447763147
 31
0.0
  0
LINE
  5
252
330
74
100
AcDbEntity
  8
1
  6
Continuous
 62
     2
100
AcDbLine
 10
-250.4692449994481
 20
149.4477447763148
 30
0.0
 11
-245.4692449994479
 21
149.4477447763148
 31
0.0
  0
LINE
  5
253
330
74
100
AcDbEntity
  8
1
  6
Continuous
 62
     6
100
AcDbLine
 10
-245.4692449994481
 20
184.4477447763148
 30
0.0
 11
-245.4692449994479
 21
149.4477447763148
 31
0.0
  0
LINE
  5
254
330
74
100
AcDbEntity
  8
1
  6
Continuous
 62
     2
100
AcDbLine
 10
-250.4692449994481
 20
204.4477447763148
 30
0.0
 11
-250.4692449994481
 21
149.4477447763148
 31
0.0
  0
LINE
  5
255
330
74
100
AcDbEntity
  8
1
  6
Continuous
 62
     2
100
AcDbLine
 10
-250.4692449994481
 20
-5.55225522368521
 30
0.0
 11
-245.469244999447
 21
-5.55225522368521
 31
0.0
  0
LINE
  5
256
330
74
100
AcDbEntity
  8
1
  6
Continuous
 62
     2
100
AcDbLine
 10
-101.969244999449
 20
204.4477447763148
 30
0.0
 11
-101.969244999449
 21
195.2390529316135
 31
0.0
  0
LINE
  5
257
330
74
100
AcDbEntity
  8
1
  6
Continuous
 62
     2
100
AcDbLine
 10
-101.969244999449
 20
204.4477447763148
 30
0.0
 11
-250.4692449994481
 21
204.4477447763148
 31
0.0
  0
LINE
  5
258
330
74
100
AcDbEntity
  8
1
  6
Continuous
 62
     2
100
AcDbLine
 10
46.53075500055005
 20
-0.5522552236851
 30
0.0
 11
46.53075500055005
 21
49.4477447763149
 31
0.0
  0
LINE
  5
259
330
74
100
AcDbEntity
  8
1
  6
Continuous
 62
     2
100
AcDbLine
 10
46.53075500055005
 20
149.4477447763148
 30
0.0
 11
46.53075500055005
 21
204.4477447763148
 31
0.0
  0
LINE
  5
25A
330
74
100
AcDbEntity
  8
1
  6
Continuous
 62
     6
100
AcDbLine
 10
41.53075500055033
 20
149.4477447763148
 30
0.0
 11
41.53075500055005
 21
184.4477447763148
 31
0.0
  0
LINE
  5
25B
330
74
100
AcDbEntity
  8
1
  6
Continuous
 62
     2
100
AcDbLine
 10
41.53075500055033
 20
149.4477447763148
 30
0.0
 11
46.53075500055005
 21
149.4477447763148
 31
0.0
  0
LINE
  5
25C
330
74
100
AcDbEntity
  8
1
  6
Continuous
 62
     2
100
AcDbLine
 10
46.53075500055005
 20
99.4477447763147
 30
0.0
 11
46.53075500055005
 21
149.4477447763148
 31
0.0
  0
LINE
  5
25D
330
74
100
AcDbEntity
  8
1
  6
Continuous
 62
     6
100
AcDbLine
 10
41.53075500055144
 20
99.4477447763147
 30
0.0
 11
41.53075500055033
 21
149.4477447763148
 31
0.0
  0
LINE
  5
25E
330
74
100
AcDbEntity
  8
1
  6
Continuous
 62
     2
100
AcDbLine
 10
41.53075500055144
 20
99.4477447763147
 30
0.0
 11
46.53075500055005
 21
99.4477447763147
 31
0.0
  0
LINE
  5
25F
330
74
100
AcDbEntity
  8
1
  6
Continuous
 62
     2
100
AcDbLine
 10
46.53075500055005
 20
49.4477447763149
 30
0.0
 11
46.53075500055005
 21
99.4477447763147
 31
0.0
  0
LINE
  5
260
330
74
100
AcDbEntity
  8
1
  6
Continuous
 62
     6
100
AcDbLine
 10
41.53075500055195
 20
49.4477447763149
 30
0.0
 11
41.53075500055144
 21
99.4477447763147
 31
0.0
  0
LINE
  5
261
330
74
100
AcDbEntity
  8
1
  6
Continuous
 62
     2
100
AcDbLine
 10
41.53075500055195
 20
49.4477447763149
 30
0.0
 11
46.53075500055005
 21
49.4477447763149
 31
0.0
  0
LINE
  5
262
330
74
100
AcDbEntity
  8
1
  6
Continuous
 62
     6
100
AcDbLine
 10
41.53075500055005
 20
184.4477447763148
 30
0.0
 11
-245.4692449994481
 21
184.4477447763148
 31
0.0
  0
LINE
  5
263
330
74
100
AcDbEntity
  8
1
  6
Continuous
 62
     2
100
AcDbLine
 10
46.53075500055005
 20
204.4477447763148
 30
0.0
 11
-101.969244999449
 21
204.4477447763148
 31
0.0
  0
LINE
  5
264
330
74
100
AcDbEntity
  8
1
  6
Continuous
 62
     6
100
AcDbLine
 10
41.53075500055275
 20
29.19774477631479
 30
0.0
 11
41.53075500055195
 21
49.4477447763149
 31
0.0
  0
LINE
  5
265
330
74
100
AcDbEntity
  8
1
  6
Continuous
 62
     2
100
AcDbLine
 10
41.53075500055104
 20
-5.55225522368521
 30
0.0
 11
-1.96924499944895
 21
-5.55225522368521
 31
0.0
  0
LINE
  5
266
330
74
100
AcDbEntity
  8
1
  6
Continuous
 62
     2
100
AcDbLine
 10
46.53075500055005
 20
-5.55225522368521
 30
0.0
 11
41.53075500055104
 21
-5.55225522368521
 31
0.0
  0
LINE
  5
267
330
74
100
AcDbEntity
  8
1
  6
Continuous
 62
     2
100
AcDbLine
 10
46.53075500055005
 20
-5.55225522368521
 30
0.0
 11
46.53075500055005
 21
-0.5522552236851
 31
0.0
  0
LINE
  5
268
330
74
100
AcDbEntity
  8
1
  6
Continuous
 62
     7
100
AcDbLine
 10
-88.01404952619887
 20
12.19774477631479
 30
0.0
 11
-51.61404952619898
 21
12.19774477631479
 31
0.0
  0
LINE
  5
269
330
74
100
AcDbEntity
  8
1
  6
Continuous
 62
     7
100
AcDbLine
 10
-51.61404952619898
 20
12.19774477631479
 30
0.0
 11
-51.61404952619898
 21
16.44774477631479
 31
0.0
  0
LINE
  5
26A
330
74
100
AcDbEntity
  8
1
  6
Continuous
 62
     2
100
AcDbLine
 10
41.53075500055104
 20
-0.5522552236851
 30
0.0
 11
41.53075500055104
 21
-5.55225522368521
 31
0.0
  0
LINE
  5
26B
330
74
100
AcDbEntity
  8
1
  6
Continuous
 62
     2
100
AcDbLine
 10
41.53075500055104
 20
-0.5522552236851
 30
0.0
 11
46.53075500055005
 21
-0.5522552236851
 31
0.0
  0
LINE
  5
26C
330
74
100
AcDbEntity
  8
1
  6
PHANTOM
 62
     2
100
AcDbLine
 10
-81.2717897010956
 20
14.32274477631479
 30
0.0
 11
-84.5717897010956
 21
14.32274477631479
 31
0.0
  0
LINE
  5
26D
330
74
100
AcDbEntity
  8
1
  6
PHANTOM
 62
     2
100
AcDbLine
 10
-82.9217897010956
 20
15.97274477631482
 30
0.0
 11
-82.9217897010956
 21
12.67274477631481
 31
0.0
  0
LINE
  5
26E
330
74
100
AcDbEntity
  8
1
  6
PHANTOM
 62
     2
100
AcDbLine
 10
-79.8947863113986
 20
14.32274477631479
 30
0.0
 11
-75.5791913422096
 21
14.32274477631479
 31
0.0
  0
LINE
  5
26F
330
74
100
AcDbEntity
  8
1
  6
Continuous
 62
     6
100
AcDbLine
 10
-51.96924499944896
 20
-0.5522552236851
 30
0.0
 11
-69.814049526199
 21
-0.5522552236851
 31
0.0
  0
LINE
  5
270
330
74
100
AcDbEntity
  8
1
  6
Continuous
 62
     6
100
AcDbLine
 10
-1.96924499944895
 20
-0.5522552236851
 30
0.0
 11
41.53075500055104
 21
-0.5522552236851
 31
0.0
  0
LINE
  5
271
330
74
100
AcDbEntity
  8
1
  6
Continuous
 62
     6
100
AcDbLine
 10
-201.969244999449
 20
-0.5522552236851
 30
0.0
 11
-190.7692449994491
 21
-0.5522552236851
 31
0.0
  0
LINE
  5
272
330
74
100
AcDbEntity
  8
1
  6
Continuous
 62
     6
100
AcDbLine
 10
-151.9692449994491
 20
-0.5522552236851
 30
0.0
 11
-190.7692449994491
 21
-0.5522552236851
 31
0.0
  0
LINE
  5
273
330
74
100
AcDbEntity
  8
1
  6
Continuous
 62
     6
100
AcDbLine
 10
-101.969244999449
 20
-0.5522552236851
 30
0.0
 11
-101.514049526199
 21
-0.55225522368521
 31
0.0
  0
LINE
  5
274
330
74
100
AcDbEntity
  8
1
  6
Continuous
 62
     7
100
AcDbLine
 10
-21.96924499944658
 20
16.44774477631479
 30
0.0
 11
-21.96924499944658
 21
20.69774477631477
 31
0.0
  0
LINE
  5
275
102
{ACAD_REACTORS
330
392
330
393
102
}
330
74
100
AcDbEntity
  8
0
  6
Continuous
 62
     2
100
AcDbLine
 10
-78.64493717731722
 20
9.24734374838338
 30
0.0
 11
-78.64493717731722
 21
9.74778613557905
 31
0.0
  0
LINE
  5
276
102
{ACAD_REACTORS
330
392
330
393
102
}
330
74
100
AcDbEntity
  8
0
  6
Continuous
 62
     2
100
AcDbLine
 10
-78.64493717731722
 20
6.9331829164567
 30
0.0
 11
-78.64493717731722
 21
7.41405184760967
 31
0.0
  0
LINE
  5
277
102
{ACAD_REACTORS
330
394
330
395
102
}
330
74
100
AcDbEntity
  8
0
  6
Continuous
 62
     2
100
AcDbLine
 10
-59.94288227196256
 20
7.17257470829386
 30
0.0
 11
-59.94288227196256
 21
5.29774477632075
 31
0.0
  0
LINE
  5
278
102
{ACAD_REACTORS
330
394
330
395
102
}
330
74
100
AcDbEntity
  8
0
  6
Continuous
 62
     2
100
AcDbLine
 10
-61.08424903145641
 20
7.82155430013112
 30
0.0
 11
-58.28677339622612
 21
7.82155430013158
 31
0.0
  0
LINE
  5
279
102
{ACAD_REACTORS
330
394
330
395
102
}
330
74
100
AcDbEntity
  8
0
  6
Continuous
 62
     2
100
AcDbLine
 10
-58.28677339622612
 20
7.17257470829386
 30
0.0
 11
-58.28677339622612
 21
7.82155430013158
 31
0.0
  0
LINE
  5
27A
102
{ACAD_REACTORS
330
394
330
395
102
}
330
74
100
AcDbEntity
  8
0
  6
Continuous
 62
     2
100
AcDbLine
 10
-58.95710317926199
 20
7.17257470829386
 30
0.0
 11
-58.28677339622612
 21
7.17257470829386
 31
0.0
  0
LINE
  5
27B
102
{ACAD_REACTORS
330
394
330
395
102
}
330
74
100
AcDbEntity
  8
0
  6
Continuous
 62
     2
100
AcDbLine
 10
-58.95710317926199
 20
5.29774477632075
 30
0.0
 11
-58.95710317926199
 21
7.17257470829386
 31
0.0
  0
LINE
  5
27C
102
{ACAD_REACTORS
330
394
330
395
102
}
330
74
100
AcDbEntity
  8
0
  6
Continuous
 62
     2
100
AcDbLine
 10
-59.94288227196256
 20
5.29774477632075
 30
0.0
 11
-58.95710317926199
 21
5.29774477632075
 31
0.0
  0
LINE
  5
27D
102
{ACAD_REACTORS
330
38A
330
38B
102
}
330
74
100
AcDbEntity
  8
0
  6
Continuous
 62
     2
100
AcDbLine
 10
-60.51857726209852
 20
10.59774477630873
 30
0.0
 11
-61.67785347511443
 21
10.59774477630873
 31
0.0
  0
LINE
  5
27E
102
{ACAD_REACTORS
330
38A
330
38B
102
}
330
74
100
AcDbEntity
  8
0
  6
Continuous
 62
     2
100
AcDbLine
 10
-60.51857726209852
 20
10.59774477630873
 30
0.0
 11
-60.021744599378
 21
10.03590732047774
 31
0.0
  0
LINE
  5
27F
102
{ACAD_REACTORS
330
38A
330
38B
102
}
330
74
100
AcDbEntity
  8
0
  6
Continuous
 62
     2
100
AcDbLine
 10
-60.021744599378
 20
10.03590732047774
 30
0.0
 11
-59.52491193665669
 21
10.59774477630873
 31
0.0
  0
LINE
  5
280
102
{ACAD_REACTORS
330
38A
330
38B
102
}
330
74
100
AcDbEntity
  8
0
  6
Continuous
 62
     2
100
AcDbLine
 10
-59.44210649287101
 20
9.38043028867551
 30
0.0
 11
-58.36563572364247
 21
10.59774477630873
 31
0.0
  0
LINE
  5
281
102
{ACAD_REACTORS
330
38A
330
38B
102
}
330
74
100
AcDbEntity
  8
0
  6
Continuous
 62
     2
100
AcDbLine
 10
-59.44210649287101
 20
9.38043028867551
 30
0.0
 11
-58.28677339622612
 21
8.0739352524979
 31
0.0
  0
LINE
  5
282
102
{ACAD_REACTORS
330
38A
330
38B
102
}
330
74
100
AcDbEntity
  8
0
  6
Continuous
 62
     2
100
AcDbLine
 10
-59.44604960924124
 20
8.0739352524979
 30
0.0
 11
-58.28677339622612
 21
8.0739352524979
 31
0.0
  0
LINE
  5
283
102
{ACAD_REACTORS
330
38A
330
38B
102
}
330
74
100
AcDbEntity
  8
0
  6
Continuous
 62
     2
100
AcDbLine
 10
-60.021744599378
 20
8.72495325687284
 30
0.0
 11
-59.44604960924124
 21
8.0739352524979
 31
0.0
  0
LINE
  5
284
102
{ACAD_REACTORS
330
388
330
389
102
}
330
74
100
AcDbEntity
  8
0
  6
Continuous
 62
     2
100
AcDbLine
 10
-62.88050396820751
 20
10.59774477630873
 30
0.0
 11
-61.85529371180013
 21
10.59774477630873
 31
0.0
  0
LINE
  5
285
102
{ACAD_REACTORS
330
388
330
389
102
}
330
74
100
AcDbEntity
  8
0
  6
Continuous
 62
     2
100
AcDbLine
 10
-61.85529371180013
 20
10.59774477630873
 30
0.0
 11
-61.85529371180013
 21
8.0739352524979
 31
0.0
  0
LINE
  5
286
102
{ACAD_REACTORS
330
388
330
389
102
}
330
74
100
AcDbEntity
  8
0
  6
Continuous
 62
     2
100
AcDbLine
 10
-62.88050396820751
 20
8.0739352524979
 30
0.0
 11
-62.88050396820751
 21
10.59774477630873
 31
0.0
  0
LINE
  5
287
102
{ACAD_REACTORS
330
386
330
387
102
}
330
74
100
AcDbEntity
  8
0
  6
Continuous
 62
     2
100
AcDbLine
 10
-64.09398337526335
 20
6.30726858584507
 30
0.0
 11
-63.84591293130274
 21
6.94182640897461
 31
0.0
  0
LINE
  5
288
102
{ACAD_REACTORS
330
386
330
387
102
}
330
74
100
AcDbEntity
  8
0
  6
Continuous
 62
     2
100
AcDbLine
 10
-64.48864089974342
 20
5.29774477632075
 30
0.0
 11
-64.3138639960444
 21
5.74481960625287
 31
0.0
  0
LINE
  5
289
102
{ACAD_REACTORS
330
386
330
387
102
}
330
74
100
AcDbEntity
  8
0
  6
Continuous
 62
     2
100
AcDbLine
 10
-64.35851805950682
 20
7.82155430013158
 30
0.0
 11
-65.51385115615079
 21
5.29774477632075
 31
0.0
  0
LINE
  5
28A
102
{ACAD_REACTORS
330
386
330
387
102
}
330
74
100
AcDbEntity
  8
0
  6
Continuous
 62
     2
100
AcDbLine
 10
-62.17797470645468
 20
5.29774477632075
 30
0.0
 11
-63.20318496286285
 21
5.29774477632075
 31
0.0
  0
LINE
  5
28B
102
{ACAD_REACTORS
330
386
330
387
102
}
330
74
100
AcDbEntity
  8
0
  6
Continuous
 62
     2
100
AcDbLine
 10
-64.3138639960444
 20
5.74481960625287
 30
0.0
 11
-63.37796186656186
 21
5.74481960625287
 31
0.0
  0
LINE
  5
28C
102
{ACAD_REACTORS
330
384
330
385
102
}
330
74
100
AcDbEntity
  8
0
  6
Continuous
 62
     2
100
AcDbLine
 10
-67.29691903977249
 20
7.17257470829386
 30
0.0
 11
-66.6265892567356
 21
7.17257470829386
 31
0.0
  0
LINE
  5
28D
102
{ACAD_REACTORS
330
384
330
385
102
}
330
74
100
AcDbEntity
  8
0
  6
Continuous
 62
     2
100
AcDbLine
 10
-64.97048038100087
 20
7.82155430013158
 30
0.0
 11
-67.29691903977249
 21
7.82155430013158
 31
0.0
  0
LINE
  5
28E
102
{ACAD_REACTORS
330
384
330
385
102
}
330
74
100
AcDbEntity
  8
0
  6
Continuous
 62
     2
100
AcDbLine
 10
-64.97048038100087
 20
7.17257470829386
 30
0.0
 11
-64.97048038100087
 21
7.82155430013158
 31
0.0
  0
LINE
  5
28F
102
{ACAD_REACTORS
330
384
330
385
102
}
330
74
100
AcDbEntity
  8
0
  6
Continuous
 62
     2
100
AcDbLine
 10
-65.64081016403605
 20
7.17257470829386
 30
0.0
 11
-64.97048038100087
 21
7.17257470829386
 31
0.0
  0
LINE
  5
290
102
{ACAD_REACTORS
330
384
330
385
102
}
330
74
100
AcDbEntity
  8
0
  6
Continuous
 62
     2
100
AcDbLine
 10
-65.64081016403605
 20
5.29774477632075
 30
0.0
 11
-65.64081016403605
 21
7.17257470829386
 31
0.0
  0
LINE
  5
291
102
{ACAD_REACTORS
330
382
330
383
102
}
330
74
100
AcDbEntity
  8
0
  6
Continuous
 62
     2
100
AcDbLine
 10
-65.08864913585586
 20
8.0739352524979
 30
0.0
 11
-65.08864913585586
 21
9.15556790555956
 31
0.0
  0
LINE
  5
292
102
{ACAD_REACTORS
330
382
330
383
102
}
330
74
100
AcDbEntity
  8
0
  6
Continuous
 62
     2
100
AcDbLine
 10
-66.0744282285554
 20
10.59774477630873
 30
0.0
 11
-66.0744282285554
 21
8.0739352524979
 31
0.0
  0
LINE
  5
293
102
{ACAD_REACTORS
330
382
330
383
102
}
330
74
100
AcDbEntity
  8
0
  6
Continuous
 62
     2
100
AcDbLine
 10
-65.08864913585586
 20
10.59774477630873
 30
0.0
 11
-66.0744282285554
 21
10.59774477630873
 31
0.0
  0
LINE
  5
294
102
{ACAD_REACTORS
330
382
330
383
102
}
330
74
100
AcDbEntity
  8
0
  6
Continuous
 62
     2
100
AcDbLine
 10
-64.06343887944757
 20
10.59774477630873
 30
0.0
 11
-64.06343887944757
 21
9.51611212324662
 31
0.0
  0
LINE
  5
295
102
{ACAD_REACTORS
330
380
330
381
102
}
330
74
100
AcDbEntity
  8
0
  6
Continuous
 62
     2
100
AcDbLine
 10
-70.41198097270393
 20
7.82155430013158
 30
0.0
 11
-70.41198097270393
 21
5.29774477632075
 31
0.0
  0
LINE
  5
296
102
{ACAD_REACTORS
330
380
330
381
102
}
330
74
100
AcDbEntity
  8
0
  6
Continuous
 62
     2
100
AcDbLine
 10
-69.42620188000348
 20
7.82155430013158
 30
0.0
 11
-70.41198097270393
 21
7.82155430013158
 31
0.0
  0
LINE
  5
297
102
{ACAD_REACTORS
330
380
330
381
102
}
330
74
100
AcDbEntity
  8
0
  6
Continuous
 62
     2
100
AcDbLine
 10
-68.4009916235961
 20
5.29774477632075
 30
0.0
 11
-67.41521253089655
 21
5.29774477632075
 31
0.0
  0
LINE
  5
298
102
{ACAD_REACTORS
330
380
330
381
102
}
330
74
100
AcDbEntity
  8
0
  6
Continuous
 62
     2
100
AcDbLine
 10
-70.41198097270393
 20
5.29774477632075
 30
0.0
 11
-69.42620188000348
 21
5.29774477632075
 31
0.0
  0
LINE
  5
299
102
{ACAD_REACTORS
330
390
330
391
102
}
330
74
100
AcDbEntity
  8
0
  6
Continuous
 62
     2
100
AcDbLine
 10
-67.37565663091954
 20
9.62427538855283
 30
0.0
 11
-67.37565663091954
 21
10.02087402800879
 31
0.0
  0
LINE
  5
29A
102
{ACAD_REACTORS
330
390
330
391
102
}
330
74
100
AcDbEntity
  8
0
  6
Continuous
 62
     2
100
AcDbLine
 10
-66.27158404709502
 20
9.62427538855283
 30
0.0
 11
-67.37565663091954
 21
9.62427538855283
 31
0.0
  0
LINE
  5
29B
102
{ACAD_REACTORS
330
390
330
391
102
}
330
74
100
AcDbEntity
  8
0
  6
Continuous
 62
     2
100
AcDbLine
 10
-66.27158404709502
 20
9.04740464025335
 30
0.0
 11
-66.27158404709502
 21
9.62427538855283
 31
0.0
  0
LINE
  5
29C
102
{ACAD_REACTORS
330
390
330
391
102
}
330
74
100
AcDbEntity
  8
0
  6
Continuous
 62
     2
100
AcDbLine
 10
-67.37565663091954
 20
9.04740464025335
 30
0.0
 11
-66.27158404709502
 21
9.04740464025335
 31
0.0
  0
LINE
  5
29D
102
{ACAD_REACTORS
330
37E
330
37F
102
}
330
74
100
AcDbEntity
  8
0
  6
Continuous
 62
     2
100
AcDbLine
 10
-70.25413158160296
 20
10.59774477630873
 30
0.0
 11
-70.25413158160296
 21
8.0739352524979
 31
0.0
  0
LINE
  5
29E
102
{ACAD_REACTORS
330
37E
330
37F
102
}
330
74
100
AcDbEntity
  8
0
  6
Continuous
 62
     2
100
AcDbLine
 10
-70.25413158160296
 20
8.0739352524979
 30
0.0
 11
-71.23991067430251
 21
8.0739352524979
 31
0.0
  0
LINE
  5
29F
102
{ACAD_REACTORS
330
37E
330
37F
102
}
330
74
100
AcDbEntity
  8
0
  6
Continuous
 62
     2
100
AcDbLine
 10
-71.23991067430251
 20
8.0739352524979
 30
0.0
 11
-71.23991067430251
 21
9.01135021848446
 31
0.0
  0
LINE
  5
2A0
102
{ACAD_REACTORS
330
37E
330
37F
102
}
330
74
100
AcDbEntity
  8
0
  6
Continuous
 62
     2
100
AcDbLine
 10
-72.1073962758789
 20
8.0739352524979
 30
0.0
 11
-73.09317536857856
 21
8.0739352524979
 31
0.0
  0
LINE
  5
2A1
102
{ACAD_REACTORS
330
37E
330
37F
102
}
330
74
100
AcDbEntity
  8
0
  6
Continuous
 62
     2
100
AcDbLine
 10
-73.09317536857856
 20
10.59774477630873
 30
0.0
 11
-72.1073962758789
 21
10.59774477630873
 31
0.0
  0
LINE
  5
2A2
102
{ACAD_REACTORS
330
37E
330
37F
102
}
330
74
100
AcDbEntity
  8
0
  6
Continuous
 62
     2
100
AcDbLine
 10
-72.1073962758789
 20
10.59774477630873
 30
0.0
 11
-72.1073962758789
 21
9.71441144297437
 31
0.0
  0
LINE
  5
2A3
102
{ACAD_REACTORS
330
37E
330
37F
102
}
330
74
100
AcDbEntity
  8
0
  6
Continuous
 62
     2
100
AcDbLine
 10
-72.1073962758789
 20
9.71441144297437
 30
0.0
 11
-71.23991067430251
 21
9.71441144297437
 31
0.0
  0
LINE
  5
2A4
102
{ACAD_REACTORS
330
38C
330
38D
102
}
330
74
100
AcDbEntity
  8
0
  6
Continuous
 62
     2
100
AcDbLine
 10
-74.70985308060636
 20
10.04972341644092
 30
0.0
 11
-74.44762575701799
 21
10.04972341644092
 31
0.0
  0
LINE
  5
2A5
102
{ACAD_REACTORS
330
38C
330
38D
102
}
330
74
100
AcDbEntity
  8
0
  6
Continuous
 62
     2
100
AcDbLine
 10
-74.70985308060636
 20
9.46647742524896
 30
0.0
 11
-74.44762575701799
 21
9.46647742524896
 31
0.0
  0
LINE
  5
2A6
102
{ACAD_REACTORS
330
38C
330
38D
102
}
330
74
100
AcDbEntity
  8
0
  6
Continuous
 62
     2
100
AcDbLine
 10
-75.73506333701465
 20
10.59774477630873
 30
0.0
 11
-75.73506333701465
 21
8.0739352524979
 31
0.0
  0
LINE
  5
2A7
102
{ACAD_REACTORS
330
38C
330
38D
102
}
330
74
100
AcDbEntity
  8
0
  6
Continuous
 62
     2
100
AcDbLine
 10
-75.73506333701465
 20
10.59774477630873
 30
0.0
 11
-74.08277242954824
 21
10.59774477630873
 31
0.0
  0
LINE
  5
2A8
102
{ACAD_REACTORS
330
38C
330
38D
102
}
330
74
100
AcDbEntity
  8
0
  6
Continuous
 62
     2
100
AcDbLine
 10
-74.70985308060636
 20
8.85333875757537
 30
0.0
 11
-74.08277242954824
 21
8.85333875757537
 31
0.0
  0
LINE
  5
2A9
102
{ACAD_REACTORS
330
392
330
393
102
}
330
74
100
AcDbEntity
  8
0
  6
Continuous
 62
     2
100
AcDbLine
 10
-80.7734898108136
 20
9.7479328104949
 30
0.0
 11
-80.7734898108136
 21
6.14755674213366
 31
0.0
  0
LINE
  5
2AA
102
{ACAD_REACTORS
330
392
330
393
102
}
330
74
100
AcDbEntity
  8
0
  6
Continuous
 62
     2
100
AcDbLine
 10
-80.51256673389156
 20
10.00885588741735
 30
0.0
 11
-79.29286982396633
 21
10.00885588741735
 31
0.0
  0
LINE
  5
2AB
102
{ACAD_REACTORS
330
392
330
393
102
}
330
74
100
AcDbEntity
  8
0
  6
Continuous
 62
     2
100
AcDbLine
 10
-79.03194674704349
 20
9.24873891044484
 30
0.0
 11
-79.03194674704349
 21
9.7479328104949
 31
0.0
  0
LINE
  5
2AC
102
{ACAD_REACTORS
330
392
330
393
102
}
330
74
100
AcDbEntity
  8
0
  6
Continuous
 62
     2
100
AcDbLine
 10
-79.03194674704349
 20
6.14755674213366
 30
0.0
 11
-79.03194674704349
 21
7.41265668554822
 31
0.0
  0
LINE
  5
2AD
102
{ACAD_REACTORS
330
392
330
393
102
}
330
74
100
AcDbEntity
  8
0
  6
Continuous
 62
     2
100
AcDbLine
 10
-76.47999035870947
 20
5.29774477632075
 30
0.0
 11
-81.00338878078952
 21
5.29774477632075
 31
0.0
  0
LINE
  5
2AE
102
{ACAD_REACTORS
330
392
330
393
102
}
330
74
100
AcDbEntity
  8
0
  6
Continuous
 62
     2
100
AcDbLine
 10
-76.12937497409467
 20
10.247129391679
 30
0.0
 11
-76.12937497409467
 21
5.64836016093503
 31
0.0
  0
LINE
  5
2AF
102
{ACAD_REACTORS
330
392
330
393
102
}
330
74
100
AcDbEntity
  8
0
  6
Continuous
 62
     2
100
AcDbLine
 10
-81.00338878078952
 20
10.59774477629374
 30
0.0
 11
-76.47999035870947
 21
10.59774477629374
 31
0.0
  0
LINE
  5
2B0
102
{ACAD_REACTORS
330
392
330
393
102
}
330
74
100
AcDbEntity
  8
0
  6
Continuous
 62
     2
100
AcDbLine
 10
-81.35400416540341
 20
10.247129391679
 30
0.0
 11
-81.35400416540341
 21
5.64836016093503
 31
0.0
  0
LINE
  5
2B1
102
{ACAD_REACTORS
330
392
330
393
102
}
330
74
100
AcDbEntity
  8
0
  6
Continuous
 62
     2
100
AcDbLine
 10
-79.29286982396633
 20
5.88663366521077
 30
0.0
 11
-80.51256673389156
 21
5.88663366521077
 31
0.0
  0
LINE
  5
2B2
102
{ACAD_REACTORS
330
38C
330
38D
102
}
330
74
100
AcDbEntity
  8
0
  6
Continuous
 62
     2
100
AcDbLine
 10
-74.70985308060636
 20
8.0739352524979
 30
0.0
 11
-74.70985308060636
 21
8.85333875757537
 31
0.0
  0
LINE
  5
2B3
102
{ACAD_REACTORS
330
38C
330
38D
102
}
330
74
100
AcDbEntity
  8
0
  6
Continuous
 62
     2
100
AcDbLine
 10
-75.73506333701465
 20
8.0739352524979
 30
0.0
 11
-74.70985308060636
 21
8.0739352524979
 31
0.0
  0
LINE
  5
2B4
102
{ACAD_REACTORS
330
38C
330
38D
102
}
330
74
100
AcDbEntity
  8
0
  6
Continuous
 62
     2
100
AcDbLine
 10
-74.70985308060636
 20
9.46647742524896
 30
0.0
 11
-74.70985308060636
 21
10.04972341644092
 31
0.0
  0
LINE
  5
2B5
102
{ACAD_REACTORS
330
37E
330
37F
102
}
330
74
100
AcDbEntity
  8
0
  6
Continuous
 62
     2
100
AcDbLine
 10
-73.09317536857856
 20
10.59774477630873
 30
0.0
 11
-73.09317536857856
 21
8.0739352524979
 31
0.0
  0
LINE
  5
2B6
102
{ACAD_REACTORS
330
37E
330
37F
102
}
330
74
100
AcDbEntity
  8
0
  6
Continuous
 62
     2
100
AcDbLine
 10
-72.1073962758789
 20
9.01135021848446
 30
0.0
 11
-72.1073962758789
 21
8.0739352524979
 31
0.0
  0
LINE
  5
2B7
102
{ACAD_REACTORS
330
37E
330
37F
102
}
330
74
100
AcDbEntity
  8
0
  6
Continuous
 62
     2
100
AcDbLine
 10
-71.23991067430251
 20
9.01135021848446
 30
0.0
 11
-72.1073962758789
 21
9.01135021848446
 31
0.0
  0
LINE
  5
2B8
102
{ACAD_REACTORS
330
37E
330
37F
102
}
330
74
100
AcDbEntity
  8
0
  6
Continuous
 62
     2
100
AcDbLine
 10
-71.23991067430251
 20
10.59774477630873
 30
0.0
 11
-70.25413158160296
 21
10.59774477630873
 31
0.0
  0
LINE
  5
2B9
102
{ACAD_REACTORS
330
37E
330
37F
102
}
330
74
100
AcDbEntity
  8
0
  6
Continuous
 62
     2
100
AcDbLine
 10
-71.23991067430251
 20
9.71441144297437
 30
0.0
 11
-71.23991067430251
 21
10.59774477630873
 31
0.0
  0
LINE
  5
2BA
102
{ACAD_REACTORS
330
390
330
391
102
}
330
74
100
AcDbEntity
  8
0
  6
Continuous
 62
     2
100
AcDbLine
 10
-66.27158404709502
 20
10.02087402800879
 30
0.0
 11
-66.27158404709502
 21
10.59774477630873
 31
0.0
  0
LINE
  5
2BB
102
{ACAD_REACTORS
330
390
330
391
102
}
330
74
100
AcDbEntity
  8
0
  6
Continuous
 62
     2
100
AcDbLine
 10
-68.87515406674873
 20
10.59774477630873
 30
0.0
 11
-66.27158404709502
 21
10.59774477630873
 31
0.0
  0
LINE
  5
2BC
102
{ACAD_REACTORS
330
390
330
391
102
}
330
74
100
AcDbEntity
  8
0
  6
Continuous
 62
     2
100
AcDbLine
 10
-68.87515406674873
 20
8.0739352524979
 30
0.0
 11
-66.27158404709502
 21
8.0739352524979
 31
0.0
  0
LINE
  5
2BD
102
{ACAD_REACTORS
330
390
330
391
102
}
330
74
100
AcDbEntity
  8
0
  6
Continuous
 62
     2
100
AcDbLine
 10
-66.27158404709502
 20
8.0739352524979
 30
0.0
 11
-66.27158404709502
 21
8.65080600079739
 31
0.0
  0
LINE
  5
2BE
102
{ACAD_REACTORS
330
390
330
391
102
}
330
74
100
AcDbEntity
  8
0
  6
Continuous
 62
     2
100
AcDbLine
 10
-66.27158404709502
 20
8.65080600079739
 30
0.0
 11
-67.37565663091954
 21
8.65080600079739
 31
0.0
  0
LINE
  5
2BF
102
{ACAD_REACTORS
330
390
330
391
102
}
330
74
100
AcDbEntity
  8
0
  6
Continuous
 62
     2
100
AcDbLine
 10
-67.37565663091954
 20
8.65080600079739
 30
0.0
 11
-67.37565663091954
 21
9.04740464025335
 31
0.0
  0
LINE
  5
2C0
102
{ACAD_REACTORS
330
390
330
391
102
}
330
74
100
AcDbEntity
  8
0
  6
Continuous
 62
     2
100
AcDbLine
 10
-67.37565663091954
 20
10.02087402800879
 30
0.0
 11
-66.27158404709502
 21
10.02087402800879
 31
0.0
  0
LINE
  5
2C1
102
{ACAD_REACTORS
330
380
330
381
102
}
330
74
100
AcDbEntity
  8
0
  6
Continuous
 62
     2
100
AcDbLine
 10
-69.42620188000348
 20
5.29774477632075
 30
0.0
 11
-69.42620188000348
 21
6.3793774293824
 31
0.0
  0
LINE
  5
2C2
102
{ACAD_REACTORS
330
380
330
381
102
}
330
74
100
AcDbEntity
  8
0
  6
Continuous
 62
     2
100
AcDbLine
 10
-69.42620188000348
 20
6.3793774293824
 30
0.0
 11
-68.4009916235961
 21
5.29774477632075
 31
0.0
  0
LINE
  5
2C3
102
{ACAD_REACTORS
330
380
330
381
102
}
330
74
100
AcDbEntity
  8
0
  6
Continuous
 62
     2
100
AcDbLine
 10
-67.41521253089655
 20
5.29774477632075
 30
0.0
 11
-67.41521253089655
 21
7.82155430013158
 31
0.0
  0
LINE
  5
2C4
102
{ACAD_REACTORS
330
380
330
381
102
}
330
74
100
AcDbEntity
  8
0
  6
Continuous
 62
     2
100
AcDbLine
 10
-67.41521253089655
 20
7.82155430013158
 30
0.0
 11
-68.4009916235961
 21
7.82155430013158
 31
0.0
  0
LINE
  5
2C5
102
{ACAD_REACTORS
330
380
330
381
102
}
330
74
100
AcDbEntity
  8
0
  6
Continuous
 62
     2
100
AcDbLine
 10
-68.4009916235961
 20
7.82155430013158
 30
0.0
 11
-68.4009916235961
 21
6.73992164706947
 31
0.0
  0
LINE
  5
2C6
102
{ACAD_REACTORS
330
380
330
381
102
}
330
74
100
AcDbEntity
  8
0
  6
Continuous
 62
     2
100
AcDbLine
 10
-68.4009916235961
 20
6.73992164706947
 30
0.0
 11
-69.42620188000348
 21
7.82155430013158
 31
0.0
  0
LINE
  5
2C7
102
{ACAD_REACTORS
330
382
330
383
102
}
330
74
100
AcDbEntity
  8
0
  6
Continuous
 62
     2
100
AcDbLine
 10
-65.08864913585586
 20
9.15556790555956
 30
0.0
 11
-64.06343887944757
 21
8.0739352524979
 31
0.0
  0
LINE
  5
2C8
102
{ACAD_REACTORS
330
382
330
383
102
}
330
74
100
AcDbEntity
  8
0
  6
Continuous
 62
     2
100
AcDbLine
 10
-64.06343887944757
 20
8.0739352524979
 30
0.0
 11
-63.07765978674792
 21
8.0739352524979
 31
0.0
  0
LINE
  5
2C9
102
{ACAD_REACTORS
330
382
330
383
102
}
330
74
100
AcDbEntity
  8
0
  6
Continuous
 62
     2
100
AcDbLine
 10
-63.07765978674792
 20
8.0739352524979
 30
0.0
 11
-63.07765978674792
 21
10.59774477630873
 31
0.0
  0
LINE
  5
2CA
102
{ACAD_REACTORS
330
382
330
383
102
}
330
74
100
AcDbEntity
  8
0
  6
Continuous
 62
     2
100
AcDbLine
 10
-63.07765978674792
 20
10.59774477630873
 30
0.0
 11
-64.06343887944757
 21
10.59774477630873
 31
0.0
  0
LINE
  5
2CB
102
{ACAD_REACTORS
330
382
330
383
102
}
330
74
100
AcDbEntity
  8
0
  6
Continuous
 62
     2
100
AcDbLine
 10
-64.06343887944757
 20
9.51611212324662
 30
0.0
 11
-65.08864913585586
 21
10.59774477630873
 31
0.0
  0
LINE
  5
2CC
102
{ACAD_REACTORS
330
382
330
383
102
}
330
74
100
AcDbEntity
  8
0
  6
Continuous
 62
     2
100
AcDbLine
 10
-66.0744282285554
 20
8.0739352524979
 30
0.0
 11
-65.08864913585586
 21
8.0739352524979
 31
0.0
  0
LINE
  5
2CD
102
{ACAD_REACTORS
330
384
330
385
102
}
330
74
100
AcDbEntity
  8
0
  6
Continuous
 62
     2
100
AcDbLine
 10
-67.29691903977249
 20
7.82155430013158
 30
0.0
 11
-67.29691903977249
 21
7.17257470829386
 31
0.0
  0
LINE
  5
2CE
102
{ACAD_REACTORS
330
384
330
385
102
}
330
74
100
AcDbEntity
  8
0
  6
Continuous
 62
     2
100
AcDbLine
 10
-66.6265892567356
 20
7.17257470829386
 30
0.0
 11
-66.6265892567356
 21
5.29774477632075
 31
0.0
  0
LINE
  5
2CF
102
{ACAD_REACTORS
330
384
330
385
102
}
330
74
100
AcDbEntity
  8
0
  6
Continuous
 62
     2
100
AcDbLine
 10
-66.6265892567356
 20
5.29774477632075
 30
0.0
 11
-65.64081016403605
 21
5.29774477632075
 31
0.0
  0
LINE
  5
2D0
102
{ACAD_REACTORS
330
386
330
387
102
}
330
74
100
AcDbEntity
  8
0
  6
Continuous
 62
     2
100
AcDbLine
 10
-63.20318496286285
 20
5.29774477632075
 30
0.0
 11
-63.37796186656186
 21
5.74481960625287
 31
0.0
  0
LINE
  5
2D1
102
{ACAD_REACTORS
330
386
330
387
102
}
330
74
100
AcDbEntity
  8
0
  6
Continuous
 62
     2
100
AcDbLine
 10
-63.33330780309956
 20
7.82155430013158
 30
0.0
 11
-62.17797470645468
 21
5.29774477632075
 31
0.0
  0
LINE
  5
2D2
102
{ACAD_REACTORS
330
386
330
387
102
}
330
74
100
AcDbEntity
  8
0
  6
Continuous
 62
     2
100
AcDbLine
 10
-64.35851805950682
 20
7.82155430013158
 30
0.0
 11
-63.33330780309956
 21
7.82155430013158
 31
0.0
  0
LINE
  5
2D3
102
{ACAD_REACTORS
330
386
330
387
102
}
330
74
100
AcDbEntity
  8
0
  6
Continuous
 62
     2
100
AcDbLine
 10
-65.51385115615079
 20
5.29774477632075
 30
0.0
 11
-64.48864089974342
 21
5.29774477632075
 31
0.0
  0
LINE
  5
2D4
102
{ACAD_REACTORS
330
386
330
387
102
}
330
74
100
AcDbEntity
  8
0
  6
Continuous
 62
     2
100
AcDbLine
 10
-64.09398337526335
 20
6.30726858584507
 30
0.0
 11
-63.59784248734394
 21
6.30726858584507
 31
0.0
  0
LINE
  5
2D5
102
{ACAD_REACTORS
330
386
330
387
102
}
330
74
100
AcDbEntity
  8
0
  6
Continuous
 62
     2
100
AcDbLine
 10
-63.59784248734394
 20
6.30726858584507
 30
0.0
 11
-63.84591293130274
 21
6.94182640897461
 31
0.0
  0
LINE
  5
2D6
102
{ACAD_REACTORS
330
388
330
389
102
}
330
74
100
AcDbEntity
  8
0
  6
Continuous
 62
     2
100
AcDbLine
 10
-61.85529371180013
 20
8.0739352524979
 30
0.0
 11
-62.88050396820751
 21
8.0739352524979
 31
0.0
  0
LINE
  5
2D7
102
{ACAD_REACTORS
330
38A
330
38B
102
}
330
74
100
AcDbEntity
  8
0
  6
Continuous
 62
     2
100
AcDbLine
 10
-60.59743958951498
 20
8.0739352524979
 30
0.0
 11
-61.75671580252998
 21
8.0739352524979
 31
0.0
  0
LINE
  5
2D8
102
{ACAD_REACTORS
330
38A
330
38B
102
}
330
74
100
AcDbEntity
  8
0
  6
Continuous
 62
     2
100
AcDbLine
 10
-60.59743958951498
 20
8.0739352524979
 30
0.0
 11
-60.021744599378
 21
8.72495325687284
 31
0.0
  0
LINE
  5
2D9
102
{ACAD_REACTORS
330
38A
330
38B
102
}
330
74
100
AcDbEntity
  8
0
  6
Continuous
 62
     2
100
AcDbLine
 10
-59.52491193665669
 20
10.59774477630873
 30
0.0
 11
-58.36563572364247
 21
10.59774477630873
 31
0.0
  0
LINE
  5
2DA
102
{ACAD_REACTORS
330
38A
330
38B
102
}
330
74
100
AcDbEntity
  8
0
  6
Continuous
 62
     2
100
AcDbLine
 10
-61.67785347511443
 20
10.59774477630873
 30
0.0
 11
-60.6013827058851
 21
9.38043028867551
 31
0.0
  0
LINE
  5
2DB
102
{ACAD_REACTORS
330
38A
330
38B
102
}
330
74
100
AcDbEntity
  8
0
  6
Continuous
 62
     2
100
AcDbLine
 10
-61.75671580252998
 20
8.0739352524979
 30
0.0
 11
-60.6013827058851
 21
9.38043028867551
 31
0.0
  0
LINE
  5
2DC
102
{ACAD_REACTORS
330
394
330
395
102
}
330
74
100
AcDbEntity
  8
0
  6
Continuous
 62
     2
100
AcDbLine
 10
-60.21890041791852
 20
6.16305089876997
 30
0.0
 11
-60.21890041791852
 21
5.4419624633954
 31
0.0
  0
LINE
  5
2DD
102
{ACAD_REACTORS
330
394
330
395
102
}
330
74
100
AcDbEntity
  8
0
  6
Continuous
 62
     2
100
AcDbLine
 10
-60.85498086664694
 20
7.17257470829386
 30
0.0
 11
-59.94288227196256
 21
7.17257470829386
 31
0.0
  0
LINE
  5
2DE
102
{ACAD_REACTORS
330
396
330
397
102
}
330
74
100
AcDbEntity
  8
0
  6
Continuous
 62
     2
100
AcDbLine
 10
-73.5269181693663
 20
6.16305089877043
 30
0.0
 11
-73.5269181693663
 21
5.44196246339584
 31
0.0
  0
LINE
  5
2DF
102
{ACAD_REACTORS
330
396
330
397
102
}
330
74
100
AcDbEntity
  8
0
  6
Continuous
 62
     2
100
AcDbLine
 10
-73.5269181693663
 20
6.95624817768189
 30
0.0
 11
-73.5269181693663
 21
7.67733661305648
 31
0.0
  0
ARC
  5
2E0
102
{ACAD_REACTORS
330
396
330
397
102
}
330
74
100
AcDbEntity
  8
0
  6
Continuous
 62
     2
100
AcDbCircle
 10
-74.63099082814136
 20
3.82189669090704
 30
0.0
 40
4.010410630990089
100
AcDbArc
 50
74.02000874164679
 51
84.84185523037543
  0
ARC
  5
2E1
102
{ACAD_REACTORS
330
396
330
397
102
}
330
74
100
AcDbEntity
  8
0
  6
Continuous
 62
     2
100
AcDbCircle
 10
-74.15492420933668
 20
6.4299631007288
 30
0.0
 40
0.7487023016407717
100
AcDbArc
 50
71.55192388185432
 51
113.3722778881285
  0
ARC
  5
2E2
102
{ACAD_REACTORS
330
396
330
397
102
}
330
74
100
AcDbEntity
  8
0
  6
Continuous
 62
     2
100
AcDbCircle
 10
-74.28421349256149
 20
6.39016901811148
 30
0.0
 40
0.4227934381775284
100
AcDbArc
 50
208.5214732576917
 51
246.627722111826
  0
ARC
  5
2E3
102
{ACAD_REACTORS
330
396
330
397
102
}
330
74
100
AcDbEntity
  8
0
  6
Continuous
 62
     2
100
AcDbCircle
 10
-74.15492420933668
 20
6.68933597572306
 30
0.0
 40
0.7487023016403824
100
AcDbArc
 50
246.6277221118709
 51
288.4480761181571
  0
ARC
  5
2E4
102
{ACAD_REACTORS
330
396
330
397
102
}
330
74
100
AcDbEntity
  8
0
  6
Continuous
 62
     2
100
AcDbCircle
 10
-74.50051737765142
 20
7.72532422038188
 30
0.0
 40
1.840813230556011
100
AcDbArc
 50
288.4480761181332
 51
301.9309089499624
  0
ARC
  5
2E5
102
{ACAD_REACTORS
330
392
330
393
102
}
330
74
100
AcDbEntity
  8
0
  6
Continuous
 62
     2
100
AcDbCircle
 10
-78.8187601318719
 20
8.33069779799676
 30
0.0
 40
0.7535935125160986
100
AcDbArc
 50
295.374008678178
 51
64.62599132180713
  0
ARC
  5
2E6
102
{ACAD_REACTORS
330
392
330
393
102
}
330
74
100
AcDbEntity
  8
0
  6
Continuous
 62
     2
100
AcDbCircle
 10
-78.38401410039427
 20
9.74778613557905
 30
0.0
 40
0.2609230769224181
100
AcDbArc
 50
90.18896704255353
 51
180.0
  0
ARC
  5
2E7
102
{ACAD_REACTORS
330
394
330
395
102
}
330
74
100
AcDbEntity
  8
0
  6
Continuous
 62
     2
100
AcDbCircle
 10
-60.85498086664694
 20
6.38371271918142
 30
0.0
 40
0.7888619891124407
100
AcDbArc
 50
90.0
 51
109.3371432194314
  0
ARC
  5
2E8
102
{ACAD_REACTORS
330
394
330
395
102
}
330
74
100
AcDbEntity
  8
0
  6
Continuous
 62
     2
100
AcDbCircle
 10
-60.66433023856615
 20
6.55964953822594
 30
0.0
 40
0.7777353184586693
100
AcDbArc
 50
151.478526742362
 51
208.5214732576685
  0
ARC
  5
2E9
102
{ACAD_REACTORS
330
394
330
395
102
}
330
74
100
AcDbEntity
  8
0
  6
Continuous
 62
     2
100
AcDbCircle
 10
-60.84690645788709
 20
6.68933597572306
 30
0.0
 40
0.7487023016406982
100
AcDbArc
 50
246.627722111815
 51
288.4480761180801
  0
ARC
  5
2EA
102
{ACAD_REACTORS
330
394
330
395
102
}
330
74
100
AcDbEntity
  8
0
  6
Continuous
 62
     2
100
AcDbCircle
 10
-61.19249962620273
 20
7.72532422038142
 30
0.0
 40
1.840813230556003
100
AcDbArc
 50
288.4480761181333
 51
301.9309089499384
  0
ARC
  5
2EB
102
{ACAD_REACTORS
330
394
330
395
102
}
330
74
100
AcDbEntity
  8
0
  6
Continuous
 62
     2
100
AcDbCircle
 10
-61.32297307669268
 20
9.29740238554529
 30
0.0
 40
4.010410630990745
100
AcDbArc
 50
275.158144769637
 51
285.979991258339
  0
ARC
  5
2EC
102
{ACAD_REACTORS
330
394
330
395
102
}
330
74
100
AcDbEntity
  8
0
  6
Continuous
 62
     2
100
AcDbCircle
 10
-61.08424903145641
 20
6.65286471346133
 30
0.0
 40
1.355119937140908
100
AcDbArc
 50
195.0618917771006
 51
275.1581447696757
  0
ARC
  5
2ED
102
{ACAD_REACTORS
330
38C
330
38D
102
}
330
74
100
AcDbEntity
  8
0
  6
Continuous
 62
     2
100
AcDbCircle
 10
-74.08277242954824
 20
9.72554176694204
 30
0.0
 40
0.8722030093666717
100
AcDbArc
 50
270.0
 51
90.0
  0
ARC
  5
2EE
102
{ACAD_REACTORS
330
392
330
393
102
}
330
74
100
AcDbEntity
  8
0
  6
Continuous
 62
     2
100
AcDbCircle
 10
-80.51256673389156
 20
6.14755674213366
 30
0.0
 40
0.2609230769220403
100
AcDbArc
 50
180.0
 51
270.0
  0
ARC
  5
2EF
102
{ACAD_REACTORS
330
392
330
393
102
}
330
74
100
AcDbEntity
  8
0
  6
Continuous
 62
     2
100
AcDbCircle
 10
-79.29286982396633
 20
9.7479328104949
 30
0.0
 40
0.2609230769228361
100
AcDbArc
 50
0.0
 51
90.0
  0
ARC
  5
2F0
102
{ACAD_REACTORS
330
392
330
393
102
}
330
74
100
AcDbEntity
  8
0
  6
Continuous
 62
     2
100
AcDbCircle
 10
-79.29286982396633
 20
9.24873891044484
 30
0.0
 40
0.2609230769224065
100
AcDbArc
 50
295.1944106485601
 51
0.0
  0
ARC
  5
2F1
102
{ACAD_REACTORS
330
392
330
393
102
}
330
74
100
AcDbEntity
  8
0
  6
Continuous
 62
     2
100
AcDbCircle
 10
-79.29286982396633
 20
6.14755674213366
 30
0.0
 40
0.2609230769228894
100
AcDbArc
 50
270.0
 51
0.0
  0
ARC
  5
2F2
102
{ACAD_REACTORS
330
392
330
393
102
}
330
74
100
AcDbEntity
  8
0
  6
Continuous
 62
     2
100
AcDbCircle
 10
-81.00338878078952
 20
10.247129391679
 30
0.0
 40
0.3506153846147395
100
AcDbArc
 50
90.0
 51
180.0
  0
ARC
  5
2F3
102
{ACAD_REACTORS
330
392
330
393
102
}
330
74
100
AcDbEntity
  8
0
  6
Continuous
 62
     2
100
AcDbCircle
 10
-76.47999035870947
 20
10.247129391679
 30
0.0
 40
0.3506153846147981
100
AcDbArc
 50
0.0
 51
90.0
  0
ARC
  5
2F4
102
{ACAD_REACTORS
330
392
330
393
102
}
330
74
100
AcDbEntity
  8
0
  6
Continuous
 62
     2
100
AcDbCircle
 10
-76.47999035870947
 20
5.64836016093503
 30
0.0
 40
0.3506153846142812
100
AcDbArc
 50
270.0
 51
0.0
  0
ARC
  5
2F5
102
{ACAD_REACTORS
330
390
330
391
102
}
330
74
100
AcDbEntity
  8
0
  6
Continuous
 62
     2
100
AcDbCircle
 10
-68.86149127846858
 20
9.33584001440309
 30
0.0
 40
0.6378510567600001
100
AcDbArc
 50
321.8795802028413
 51
38.12041979715874
  0
ARC
  5
2F6
102
{ACAD_REACTORS
330
390
330
391
102
}
330
74
100
AcDbEntity
  8
0
  6
Continuous
 62
     2
100
AcDbCircle
 10
-68.69641686826509
 20
9.20631011512996
 30
0.0
 40
0.4280236140606795
100
AcDbArc
 50
218.1204197971439
 51
321.8795802028561
  0
ARC
  5
2F7
102
{ACAD_REACTORS
330
38E
330
38F
102
}
330
74
100
AcDbEntity
  8
0
  6
Continuous
 62
     2
100
AcDbCircle
 10
-71.73774545418263
 20
6.55964953822594
 30
0.0
 40
1.204986845993434
100
AcDbArc
 50
297.5481481757013
 51
62.45185182429815
  0
ARC
  5
2F8
102
{ACAD_REACTORS
330
38E
330
38F
102
}
330
74
100
AcDbEntity
  8
0
  6
Continuous
 62
     2
100
AcDbCircle
 10
-72.20210891175833
 20
6.55964953822594
 30
0.0
 40
1.204986845992993
100
AcDbArc
 50
117.5481481756635
 51
242.451851824337
  0
ARC
  5
2F9
102
{ACAD_REACTORS
330
38E
330
38F
102
}
330
74
100
AcDbEntity
  8
0
  6
Continuous
 62
     2
100
AcDbCircle
 10
-71.96992718297048
 20
6.11454622392612
 30
0.0
 40
1.707008076205444
100
AcDbArc
 50
62.45185182430569
 51
117.5481481756673
  0
ARC
  5
2FA
102
{ACAD_REACTORS
330
38E
330
38F
102
}
330
74
100
AcDbEntity
  8
0
  6
Continuous
 62
     2
100
AcDbCircle
 10
-71.96992718297048
 20
7.00475285252621
 30
0.0
 40
1.70700807620544
100
AcDbArc
 50
242.4518518243401
 51
297.548148175687
  0
ARC
  5
2FB
102
{ACAD_REACTORS
330
390
330
391
102
}
330
74
100
AcDbEntity
  8
0
  6
Continuous
 62
     2
100
AcDbCircle
 10
-68.5313424580616
 20
9.33584001440309
 30
0.0
 40
0.6378510567600001
100
AcDbArc
 50
141.8795802028413
 51
218.1204197971587
  0
ARC
  5
2FC
102
{ACAD_REACTORS
330
390
330
391
102
}
330
74
100
AcDbEntity
  8
0
  6
Continuous
 62
     2
100
AcDbCircle
 10
-68.69641686826509
 20
9.46536991367621
 30
0.0
 40
0.4280236140606861
100
AcDbArc
 50
38.12041979714503
 51
141.879580202855
  0
ARC
  5
2FD
102
{ACAD_REACTORS
330
392
330
393
102
}
330
74
100
AcDbEntity
  8
0
  6
Continuous
 62
     2
100
AcDbCircle
 10
-81.00338878078952
 20
5.64836016093503
 30
0.0
 40
0.3506153846138886
100
AcDbArc
 50
180.0
 51
270.0
  0
ARC
  5
2FE
102
{ACAD_REACTORS
330
392
330
393
102
}
330
74
100
AcDbEntity
  8
0
  6
Continuous
 62
     2
100
AcDbCircle
 10
-79.29286982396633
 20
7.41265668554822
 30
0.0
 40
0.2609230769228361
100
AcDbArc
 50
0.0
 51
64.8055893514401
  0
ARC
  5
2FF
102
{ACAD_REACTORS
330
392
330
393
102
}
330
74
100
AcDbEntity
  8
0
  6
Continuous
 62
     2
100
AcDbCircle
 10
-78.86098185076384
 20
8.33069779799676
 30
0.0
 40
0.7536343169897688
100
AcDbArc
 50
115.1944106485234
 51
244.8055893514914
  0
ARC
  5
300
102
{ACAD_REACTORS
330
392
330
393
102
}
330
74
100
AcDbEntity
  8
0
  6
Continuous
 62
     2
100
AcDbCircle
 10
-80.51256673389156
 20
9.7479328104949
 30
0.0
 40
0.2609230769224524
100
AcDbArc
 50
90.0
 51
180.0
  0
ARC
  5
301
102
{ACAD_REACTORS
330
38C
330
38D
102
}
330
74
100
AcDbEntity
  8
0
  6
Continuous
 62
     2
100
AcDbCircle
 10
-74.44762575701799
 20
9.75810042084495
 30
0.0
 40
0.2916229955959899
100
AcDbArc
 50
270.0
 51
90.0
  0
ARC
  5
302
102
{ACAD_REACTORS
330
390
330
391
102
}
330
74
100
AcDbEntity
  8
0
  6
Continuous
 62
     2
100
AcDbCircle
 10
-68.87515406674873
 20
9.33584001440309
 30
0.0
 40
1.26190476190564
100
AcDbArc
 50
90.0
 51
270.0
  0
ARC
  5
303
102
{ACAD_REACTORS
330
394
330
395
102
}
330
74
100
AcDbEntity
  8
0
  6
Continuous
 62
     2
100
AcDbCircle
 10
-61.08424903145641
 20
6.46643436299053
 30
0.0
 40
1.355119937140591
100
AcDbArc
 50
90.0
 51
164.9381082228994
  0
ARC
  5
304
102
{ACAD_REACTORS
330
394
330
395
102
}
330
74
100
AcDbEntity
  8
0
  6
Continuous
 62
     2
100
AcDbCircle
 10
-61.43063567894541
 20
6.55964953822594
 30
0.0
 40
0.9964100565231088
100
AcDbArc
 50
164.9381082229054
 51
195.0618917770958
  0
ARC
  5
305
102
{ACAD_REACTORS
330
394
330
395
102
}
330
74
100
AcDbEntity
  8
0
  6
Continuous
 62
     2
100
AcDbCircle
 10
-60.9761957411128
 20
6.39016901811148
 30
0.0
 40
0.4227934381785597
100
AcDbArc
 50
208.5214732576867
 51
246.6277221118393
  0
ARC
  5
306
102
{ACAD_REACTORS
330
394
330
395
102
}
330
74
100
AcDbEntity
  8
0
  6
Continuous
 62
     2
100
AcDbCircle
 10
-60.9761957411128
 20
6.72913005834085
 30
0.0
 40
0.4227934381772285
100
AcDbArc
 50
109.3371432194869
 51
151.4785267424228
  0
ARC
  5
307
102
{ACAD_REACTORS
330
392
330
393
102
}
330
74
100
AcDbEntity
  8
0
  6
Continuous
 62
     2
100
AcDbCircle
 10
-78.38401410039427
 20
6.9331829164567
 30
0.0
 40
0.2609230769229498
100
AcDbArc
 50
180.0
 51
269.8110329574465
  0
ARC
  5
308
102
{ACAD_REACTORS
330
392
330
393
102
}
330
74
100
AcDbEntity
  8
0
  6
Continuous
 62
     2
100
AcDbCircle
 10
-78.3793726662538
 20
8.34048452601787
 30
0.0
 40
1.668232340440702
100
AcDbArc
 50
269.8110329575862
 51
90.18896704241376
  0
ARC
  5
309
102
{ACAD_REACTORS
330
392
330
393
102
}
330
74
100
AcDbEntity
  8
0
  6
Continuous
 62
     2
100
AcDbCircle
 10
-78.38401410039427
 20
9.24734374838338
 30
0.0
 40
0.2609230769229498
100
AcDbArc
 50
180.0
 51
244.6259913216399
  0
ARC
  5
30A
102
{ACAD_REACTORS
330
392
330
393
102
}
330
74
100
AcDbEntity
  8
0
  6
Continuous
 62
     2
100
AcDbCircle
 10
-78.38401410039427
 20
7.41405184760967
 30
0.0
 40
0.2609230769227325
100
AcDbArc
 50
115.3740086783589
 51
180.0
  0
ARC
  5
30B
102
{ACAD_REACTORS
330
396
330
397
102
}
330
74
100
AcDbEntity
  8
0
  6
Continuous
 62
     2
100
AcDbCircle
 10
-74.3922667829051
 20
6.46643436299053
 30
0.0
 40
1.355119937140908
100
AcDbArc
 50
84.84185523036265
 51
164.9381082228906
  0
ARC
  5
30C
102
{ACAD_REACTORS
330
396
330
397
102
}
330
74
100
AcDbEntity
  8
0
  6
Continuous
 62
     2
100
AcDbCircle
 10
-74.738653430395
 20
6.55964953822594
 30
0.0
 40
0.996410056521462
100
AcDbArc
 50
164.93810822288
 51
195.0618917770962
  0
ARC
  5
30D
102
{ACAD_REACTORS
330
396
330
397
102
}
330
74
100
AcDbEntity
  8
0
  6
Continuous
 62
     2
100
AcDbCircle
 10
-74.3922667829051
 20
6.65286471346133
 30
0.0
 40
1.355119937140022
100
AcDbArc
 50
195.0618917770909
 51
275.1581447696391
  0
ARC
  5
30E
102
{ACAD_REACTORS
330
396
330
397
102
}
330
74
100
AcDbEntity
  8
0
  6
Continuous
 62
     2
100
AcDbCircle
 10
-74.63099082814136
 20
9.29740238554529
 30
0.0
 40
4.010410630990213
100
AcDbArc
 50
275.1581447696246
 51
285.9799912583532
  0
ARC
  5
30F
102
{ACAD_REACTORS
330
396
330
397
102
}
330
74
100
AcDbEntity
  8
0
  6
Continuous
 62
     2
100
AcDbCircle
 10
-73.97234799001575
 20
6.55964953822594
 30
0.0
 40
0.777735318457279
100
AcDbArc
 50
151.4785267422688
 51
208.521473257703
  0
ARC
  5
310
102
{ACAD_REACTORS
330
396
330
397
102
}
330
74
100
AcDbEntity
  8
0
  6
Continuous
 62
     2
100
AcDbCircle
 10
-74.28421349256149
 20
6.72913005834085
 30
0.0
 40
0.4227934381775693
100
AcDbArc
 50
113.3722778881983
 51
151.4785267423096
  0
ARC
  5
311
102
{ACAD_REACTORS
330
396
330
397
102
}
330
74
100
AcDbEntity
  8
0
  6
Continuous
 62
     2
100
AcDbCircle
 10
-74.50051737765142
 20
5.39397485607044
 30
0.0
 40
1.840813230556616
100
AcDbArc
 50
58.0690910500376
 51
71.55192388186693
  0
ARC
  5
312
102
{ACAD_REACTORS
330
38E
330
38F
102
}
330
74
100
AcDbEntity
  8
0
  6
Continuous
 62
     2
100
AcDbCircle
 10
-71.96992718297048
 20
6.68917943749906
 30
0.0
 40
0.4280236140605955
100
AcDbArc
 50
38.12041979715423
 51
141.8795802028552
  0
ARC
  5
313
102
{ACAD_REACTORS
330
38E
330
38F
102
}
330
74
100
AcDbEntity
  8
0
  6
Continuous
 62
     2
100
AcDbCircle
 10
-71.8048527727671
 20
6.55964953822594
 30
0.0
 40
0.6378510567599089
100
AcDbArc
 50
141.8795802028351
 51
218.1204197971659
  0
ARC
  5
314
102
{ACAD_REACTORS
330
38E
330
38F
102
}
330
74
100
AcDbEntity
  8
0
  6
Continuous
 62
     2
100
AcDbCircle
 10
-71.96992718297048
 20
6.43011963895326
 30
0.0
 40
0.4280236140609641
100
AcDbArc
 50
218.1204197971925
 51
321.8795802027982
  0
ARC
  5
315
102
{ACAD_REACTORS
330
38E
330
38F
102
}
330
74
100
AcDbEntity
  8
0
  6
Continuous
 62
     2
100
AcDbCircle
 10
-72.13500159317408
 20
6.55964953822594
 30
0.0
 40
0.6378510567600072
100
AcDbArc
 50
321.8795802028405
 51
38.12041979715855
  0
CIRCLE
  5
316
330
74
100
AcDbEntity
  8
1
  6
Continuous
 62
     2
100
AcDbCircle
 10
-82.9217897010956
 20
14.32274477631479
 30
0.0
 40
1.5
  0
CIRCLE
  5
317
330
74
100
AcDbEntity
  8
1
  6
Continuous
 62
     2
100
AcDbCircle
 10
-82.9217897010956
 20
14.32274477631479
 30
0.0
 40
1.0
  0
CIRCLE
  5
318
102
{ACAD_REACTORS
330
392
330
393
102
}
330
74
100
AcDbEntity
  8
0
  6
Continuous
 62
     2
100
AcDbCircle
 10
-78.83844196217996
 20
8.33069779799676
 30
0.0
 40
0.3892387874202541
  0
MTEXT
  5
31A
330
74
100
AcDbEntity
  8
1
 62
     3
100
AcDbMText
 10
-10.76222511283856
 20
19.79774477631479
 30
0.0
 40
2.0
 41
0.0
 71
     1
 72
     1
  1
 
  7
CONVERTER_12
 73
     1
 44
1.20048019207683
  0
TEXT
  5
31C
330
74
100
AcDbEntity
  8
1
 62
     7
100
AcDbText
 10
-33.48413730714316
 20
21.99774477631479
 30
0.0
 40
2.5
  1
00
 41
0.81
  7
CONVERTER_13
100
AcDbText
  0
TEXT
  5
31E
330
74
100
AcDbEntity
  8
1
 62
     3
100
AcDbText
 10
-50.61404952619898
 20
9.24774477631479
 30
0.0
 40
2.5
  1
KUNDENZCHNG-SELECT
 41
0.45
  7
CONVERTER_14
100
AcDbText
  0
TEXT
  5
320
330
74
100
AcDbEntity
  8
1
 62
     3
100
AcDbText
 10
24.64916328223194
 20
21.99774477631479
 30
0.0
 40
2.5
  1
 
 41
0.54
  7
CONVERTER_15
100
AcDbText
  0
TEXT
  5
321
330
74
100
AcDbEntity
  8
1
 62
     7
100
AcDbText
 10
-20.96924499944658
 20
9.24774477631479
 30
0.0
 40
2.5
  1
00718794
 41
0.81
  7
CONVERTER_13
100
AcDbText
  0
TEXT
  5
322
330
74
100
AcDbEntity
  8
1
 62
     7
100
AcDbText
 10
-50.11404952619916
 20
21.99774477631479
 30
0.0
 40
2.5
  1
1409804
 41
0.81
  7
CONVERTER_13
100
AcDbText
  0
TEXT
  5
323
330
74
100
AcDbEntity
  8
1
 62
     3
100
AcDbText
 10
-27.71404952619895
 20
21.99774477631479
 30
0.0
 40
2.5
  1
 
 41
0.54
  7
CONVERTER_15
100
AcDbText
  0
MTEXT
  5
324
330
74
100
AcDbEntity
  8
1
 62
     3
100
AcDbMText
 10
19.18995914139245
 20
21.9977447763149
 30
0.0
 40
2.5
 41
0.0
 71
     8
 72
     1
  1
1:1
  7
CONVERTER_12
 73
     1
 44
1.32052821128451
  0
MTEXT
  5
325
330
74
100
AcDbEntity
  8
1
 62
     7
100
AcDbMText
 10
-5.04164726282346
 20
2.69774477631502
 30
0.0
 40
3.0
 41
0.0
 71
     5
 72
     1
  1
HC-B 10-TMS-EEE-PR-DI
  7
CONVERTER_13
 73
     1
 44
1.20048019207683
  0
TEXT
  5
326
330
74
100
AcDbEntity
  8
1
 62
     3
100
AcDbText
 10
-2.46924499944696
 20
9.24774477631479
 30
0.0
 40
2.5
  1
 
 41
0.54
  7
CONVERTER_15
100
AcDbText
  0
TEXT
  5
327
330
74
100
AcDbEntity
  8
1
 62
     7
100
AcDbText
 10
-35.64050180418516
 20
21.99774477631479
 30
0.0
 40
2.5
  1
/
 41
0.9
  7
CONVERTER_11
100
AcDbText
  0
MTEXT
  5
328
330
74
100
AcDbEntity
  8
1
 62
     2
100
AcDbMText
 10
-71.86404952619895
 20
22.82274477631479
 30
0.0
 40
1.8
 41
0.0
 71
     5
 72
     1
  1
04.04.13
  7
CONVERTER_11
 73
     1
 44
1.32052821128451
  0
MTEXT
  5
329
330
74
100
AcDbEntity
  8
1
 62
     2
100
AcDbMText
 10
-71.86404952619895
 20
18.57274477631479
 30
0.0
 40
1.8
 41
0.0
 71
     5
 72
     1
  1
09.04.13
  7
CONVERTER_11
 73
     1
 44
1.32052821128451
  0
MTEXT
  5
32A
330
74
100
AcDbEntity
  8
1
 62
     2
100
AcDbMText
 10
-58.36404952619901
 20
22.82274477631479
 30
0.0
 40
1.8
 41
0.0
 71
     5
 72
     1
  1
Schr\U+00f6der
  7
CONVERTER_11
 73
     1
 44
1.32052821128451
  0
MTEXT
  5
32B
330
74
100
AcDbEntity
  8
1
 62
     2
100
AcDbMText
 10
-58.36404952619901
 20
18.57274477631479
 30
0.0
 40
1.8
 41
0.0
 71
     5
 72
     1
  1
Angenent
  7
CONVERTER_11
 73
     1
 44
1.32052821128451
  0
MTEXT
  5
32C
330
74
100
AcDbEntity
  8
1
 62
     2
100
AcDbMText
 10
-50.61404952619898
 20
15.44774477631473
 30
0.0
 40
1.8
 41
0.0
 71
     1
 72
     1
  1
document-type
  7
CONVERTER_11
 73
     1
 44
1.20048019207683
  0
MTEXT
  5
32D
330
74
100
AcDbEntity
  8
1
 62
     2
100
AcDbMText
 10
-83.3140495261989
 20
26.14774477631484
 30
0.0
 40
1.8
 41
0.0
 71
     8
 72
     1
  1
00
  7
CONVERTER_11
 73
     1
 44
1.20048019207683
  0
MTEXT
  5
32E
330
74
100
AcDbEntity
  8
1
 62
     2
100
AcDbMText
 10
-50.61404952619898
 20
6.94774477631479
 30
0.0
 40
1.8
 41
0.0
 71
     1
 72
     1
  1
description
  7
CONVERTER_11
 73
     1
 44
1.20048019207683
  0
TEXT
  5
32F
330
74
100
AcDbEntity
  8
1
 62
     2
100
AcDbText
 10
-63.57874071638531
 20
0.69774477631479
 30
0.0
 40
1.8
  1
1
 41
0.9
  7
CONVERTER_11
100
AcDbText
  0
TEXT
  5
330
330
74
100
AcDbEntity
  8
1
 62
     2
100
AcDbText
 10
-78.3677845558568
 20
0.64849612251284
 30
0.0
 40
1.8
  1
 
 41
0.9
  7
CONVERTER_11
100
AcDbText
  0
MTEXT
  5
331
330
74
100
AcDbEntity
  8
1
 62
     2
100
AcDbMText
 10
-50.51404952619896
 20
28.19774477631479
 30
0.0
 40
1.8
 41
0.0
 71
     1
 72
     1
  1
ident.-No. / RI
  7
CONVERTER_11
 73
     1
 44
1.20048019207683
  0
MTEXT
  5
332
330
74
100
AcDbEntity
  8
1
 62
     3
100
AcDbMText
 10
-61.814049526199
 20
14.3227447763149
 30
0.0
 40
2.5
 41
0.0
 71
     5
 72
     1
  1
DIN A4
  7
CONVERTER_11
 73
     1
 44
1.20048019207683
  0
MTEXT
  5
333
330
74
100
AcDbEntity
  8
1
 62
     2
100
AcDbMText
 10
-83.3140495261989
 20
18.57274477631479
 30
0.0
 40
1.8
 41
0.0
 71
     5
 72
     1
  1
check.
  7
CONVERTER_11
 73
     1
 44
1.20048019207683
  0
MTEXT
  5
334
330
74
100
AcDbEntity
  8
1
 62
     2
100
AcDbMText
 10
-83.3140495261989
 20
22.82274477631479
 30
0.0
 40
1.8
 41
0.0
 71
     5
 72
     1
  1
creat.
  7
CONVERTER_11
 73
     1
 44
1.20048019207683
  0
MTEXT
  5
335
330
74
100
AcDbEntity
  8
1
 62
     2
100
AcDbMText
 10
15.83075500055293
 20
28.19774477631479
 30
0.0
 40
1.8
 41
0.0
 71
     1
 72
     1
  1
scale
  7
CONVERTER_11
 73
     1
 44
1.20048019207683
  0
MTEXT
  5
336
330
74
100
AcDbEntity
  8
1
 62
     2
100
AcDbMText
 10
-159.641647262824
 20
0.69774477631479
 30
0.0
 40
1.8
 41
0.0
 71
     8
 72
     1
  1
revision
  7
CONVERTER_11
 73
     1
 44
1.32052821128451
  0
MTEXT
  5
337
330
74
100
AcDbEntity
  8
1
 62
     2
100
AcDbMText
 10
-58.36404952619901
 20
26.14774477631484
 30
0.0
 40
1.8
 41
0.0
 71
     8
 72
     1
  1
name
  7
CONVERTER_11
 73
     1
 44
1.32052821128451
  0
MTEXT
  5
338
330
74
100
AcDbEntity
  8
1
 62
     2
100
AcDbMText
 10
-71.864049526199
 20
26.14774477631484
 30
0.0
 40
1.8
 41
0.0
 71
     8
 72
     1
  1
date
  7
CONVERTER_11
 73
     1
 44
1.32052821128451
  0
MTEXT
  5
339
330
74
100
AcDbEntity
  8
1
 62
     2
100
AcDbMText
 10
-207.3692449994481
 20
0.69774477631479
 30
0.0
 40
1.8
 41
0.0
 71
     8
 72
     1
  1
RI
  7
CONVERTER_11
 73
     1
 44
1.32052821128451
  0
MTEXT
  5
33A
330
74
100
AcDbEntity
  8
1
 62
     2
100
AcDbMText
 10
-27.48886036860747
 20
28.19774477631462
 30
0.0
 40
1.8
 41
0.0
 71
     1
 72
     1
  1
material
  7
CONVERTER_11
 73
     1
 44
1.20048019207683
  0
MTEXT
  5
33B
330
74
100
AcDbEntity
  8
1
 62
     2
100
AcDbMText
 10
-197.5192449994491
 20
0.69774477631479
 30
0.0
 40
1.8
 41
0.0
 71
     8
 72
     1
  1
date
  7
CONVERTER_11
 73
     1
 44
1.32052821128451
  0
MTEXT
  5
33C
330
74
100
AcDbEntity
  8
1
 62
     2
100
AcDbMText
 10
-121.7640495261989
 20
0.69774477631479
 30
0.0
 40
1.8
 41
0.0
 71
     8
 72
     1
  1
name
  7
CONVERTER_11
 73
     1
 44
1.32052821128451
  0
MTEXT
  5
33D
330
74
100
AcDbEntity
  8
1
 62
     2
100
AcDbMText
 10
-108.2640495261989
 20
0.69774477631479
 30
0.0
 40
1.8
 41
0.0
 71
     8
 72
     1
  1
check.on
  7
CONVERTER_11
 73
     1
 44
1.32052821128451
  0
MTEXT
  5
33E
330
74
100
AcDbEntity
  8
1
 62
     2
100
AcDbMText
 10
-94.76404952619897
 20
0.69774477631479
 30
0.0
 40
1.8
 41
0.0
 71
     8
 72
     1
  1
name
  7
CONVERTER_11
 73
     1
 44
1.32052821128451
  0
TEXT
  5
33F
330
74
100
AcDbEntity
  8
1
 62
     2
100
AcDbText
 10
-87.01404952619887
 20
0.68872756132312
 30
0.0
 40
1.8
  1
page
 41
0.9
  7
CONVERTER_11
100
AcDbText
  0
TEXT
  5
340
330
74
100
AcDbEntity
  8
1
 62
     2
100
AcDbText
 10
-68.814049526199
 20
0.68872756132323
 30
0.0
 40
1.8
  1
of
 41
0.9
  7
CONVERTER_11
100
AcDbText
  0
MTEXT
  5
342
330
74
100
AcDbEntity
  8
1
 62
     2
100
AcDbMText
 10
-20.96924499944658
 20
15.44774477631479
 30
0.0
 40
1.8
 41
0.0
 71
     1
 72
     1
  1
document-No.
  7
CONVERTER_16
 73
     1
 44
1.32052821128451
  0
MTEXT
  5
343
330
74
100
AcDbEntity
  8
1
 62
     2
100
AcDbMText
 10
24.94916328223184
 20
28.19774477631479
 30
0.0
 40
1.8
 41
0.0
 71
     1
 72
     1
  1
dim.var.
  7
CONVERTER_11
 73
     1
 44
1.20048019207683
  0
MTEXT
  5
344
330
74
100
AcDbEntity
  8
1
 62
     7
100
AcDbMText
 10
-247.969244999448
 20
21.94774477631479
 30
0.0
 40
3.5
 41
0.0
 71
     5
 72
     1
  1
D
  7
CONVERTER_11
 73
     1
 44
1.20048019207683
  0
MTEXT
  5
345
330
74
100
AcDbEntity
  8
1
 62
     7
100
AcDbMText
 10
-247.969244999448
 20
74.44774477631479
 30
0.0
 40
3.5
 41
0.0
 71
     5
 72
     1
  1
C
  7
CONVERTER_11
 73
     1
 44
1.20048019207683
  0
MTEXT
  5
346
330
74
100
AcDbEntity
  8
1
 62
     7
100
AcDbMText
 10
-247.969244999448
 20
124.4477447763148
 30
0.0
 40
3.5
 41
0.0
 71
     5
 72
     1
  1
B
  7
CONVERTER_11
 73
     1
 44
1.20048019207683
  0
MTEXT
  5
347
330
74
100
AcDbEntity
  8
1
 62
     7
100
AcDbMText
 10
-247.969244999448
 20
176.9477447763148
 30
0.0
 40
3.5
 41
0.0
 71
     5
 72
     1
  1
A
  7
CONVERTER_11
 73
     1
 44
1.20048019207683
  0
MTEXT
  5
348
330
74
100
AcDbEntity
  8
1
 62
     7
100
AcDbMText
 10
22.28075500055033
 20
-3.05225522368521
 30
0.0
 40
3.5
 41
0.0
 71
     5
 72
     1
  1
6
  7
CONVERTER_11
 73
     1
 44
1.20048019207683
  0
MTEXT
  5
349
330
74
100
AcDbEntity
  8
1
 62
     7
100
AcDbMText
 10
-26.96924499944895
 20
-3.05225522368521
 30
0.0
 40
3.5
 41
0.0
 71
     5
 72
     1
  1
5
  7
CONVERTER_11
 73
     1
 44
1.20048019207683
  0
MTEXT
  5
34A
330
74
100
AcDbEntity
  8
1
 62
     7
100
AcDbMText
 10
-76.969244999449
 20
-3.05225522368521
 30
0.0
 40
3.5
 41
0.0
 71
     5
 72
     1
  1
4
  7
CONVERTER_11
 73
     1
 44
1.20048019207683
  0
MTEXT
  5
34B
330
74
100
AcDbEntity
  8
1
 62
     7
100
AcDbMText
 10
-126.969244999449
 20
-3.05225522368521
 30
0.0
 40
3.5
 41
0.0
 71
     5
 72
     1
  1
3
  7
CONVERTER_11
 73
     1
 44
1.20048019207683
  0
MTEXT
  5
34C
330
74
100
AcDbEntity
  8
1
 62
     7
100
AcDbMText
 10
-176.969244999449
 20
-3.05225522368521
 30
0.0
 40
3.5
 41
0.0
 71
     5
 72
     1
  1
2
  7
CONVERTER_11
 73
     1
 44
1.20048019207683
  0
MTEXT
  5
34D
330
74
100
AcDbEntity
  8
1
 62
     7
100
AcDbMText
 10
-226.2192449994486
 20
-3.05225522368521
 30
0.0
 40
3.5
 41
0.0
 71
     5
 72
     1
  1
1
  7
CONVERTER_11
 73
     1
 44
1.20048019207683
  0
MTEXT
  5
34E
330
74
100
AcDbEntity
  8
1
 62
     3
100
AcDbMText
 10
-72.611067374589
 20
186.2390529316136
 30
0.0
 40
1.8
 41
0.0
 71
     7
 72
     1
  3
The copying, distribution and utilistion of this document as well as the communication\Pof the contents to others without expressed authorization is prohibited according to\P\U+00a718 UWG German Law. Offenders will be held liable for the payment of 
  1
damages\Paccording to (\U+00a719 UWG German Law). All rights reserved, in particular the right to\Pcarry out patent, utility model or ornamental design registrations.\PFlachsmarktstra\U+00dfe 8  D-32825 Blomberg
  7
CONVERTER_11
 73
     1
 44
0.99639855942377
  0
MTEXT
  5
34F
330
74
100
AcDbEntity
  8
1
 62
     3
100
AcDbMText
 10
-245.4641772133771
 20
186.2390529316136
 30
0.0
 40
1.8
 41
0.0
 71
     7
 72
     1
  3
Weitergabe sowie Vervielf\U+00e4ltigung dieses Dokuments, Verwertung und\PMitteilung seines Inhalts gem\U+00e4\U+00df \U+00a718 UWG verboten, soweit nicht aus-\Pdr\U+00fccklich gestattet. Zuwiderhandlungen verpflichten zu Schadenersatz\P(\U+00a719 U
  1
WG). Alle Rechte vorbehalten, insbesondere das Recht, Patent-,\PGebrauchsmuster- oder Geschmacksmusteranmeldungen durchzuf\U+00fchren.\PPhoenix Contact GmbH & Co. KG
  7
CONVERTER_11
 73
     1
 44
0.99639855942377
  0
MTEXT
  5
350
330
74
100
AcDbEntity
  8
1
 62
     7
100
AcDbMText
 10
44.03075500055013
 20
21.94774477631479
 30
0.0
 40
3.5
 41
0.0
 71
     5
 72
     1
  1
D
  7
CONVERTER_11
 73
     1
 44
1.20048019207683
  0
MTEXT
  5
351
330
74
100
AcDbEntity
  8
1
 62
     7
100
AcDbMText
 10
44.03075500055013
 20
124.4477447763167
 30
0.0
 40
3.5
 41
0.0
 71
     5
 72
     1
  1
B
  7
CONVERTER_11
 73
     1
 44
1.20048019207683
  0
MTEXT
  5
352
330
74
100
AcDbEntity
  8
1
 62
     7
100
AcDbMText
 10
44.03075500055013
 20
176.9477447763148
 30
0.0
 40
3.5
 41
0.0
 71
     5
 72
     1
  1
A
  7
CONVERTER_11
 73
     1
 44
1.20048019207683
  0
MTEXT
  5
353
330
74
100
AcDbEntity
  8
1
 62
     7
100
AcDbMText
 10
44.03075500055013
 20
74.44774477631672
 30
0.0
 40
3.5
 41
0.0
 71
     5
 72
     1
  1
C
  7
CONVERTER_11
 73
     1
 44
1.20048019207683
  0
MTEXT
  5
354
330
74
100
AcDbEntity
  8
1
 62
     2
100
AcDbMText
 10
-2.46924499944696
 20
15.44774477631479
 30
0.0
 40
1.8
 41
0.0
 71
     1
 72
     1
  1
surface in um
  7
CONVERTER_11
 73
     1
 44
1.32052821128451
  0
MTEXT
  5
355
330
74
100
AcDbEntity
  8
1
 62
     2
100
AcDbMText
 10
-20.96924499944658
 20
19.69774477631479
 30
0.0
 40
1.8
 41
0.0
 71
     1
 72
     1
  1
part-rev.
  7
CONVERTER_12
 73
     1
 44
1.20048019207683
  0
MTEXT
  5
356
330
74
100
AcDbEntity
  8
1
 62
     2
100
AcDbMText
 10
-207.3692449994481
 20
27.07274477631479
 30
0.0
 40
2.0
 41
0.0
 71
     5
 72
     1
  1
 
  7
CONVERTER_11
 73
     1
 44
1.20048019207683
  0
MTEXT
  5
357
330
74
100
AcDbEntity
  8
1
 62
     2
100
AcDbMText
 10
-207.3692449994481
 20
22.82274477631479
 30
0.0
 40
2.0
 41
0.0
 71
     5
 72
     1
  1
 
  7
CONVERTER_11
 73
     1
 44
1.20048019207683
  0
MTEXT
  5
358
330
74
100
AcDbEntity
  8
1
 62
     2
100
AcDbMText
 10
-207.3692449994481
 20
18.57274477631479
 30
0.0
 40
2.0
 41
0.0
 71
     5
 72
     1
  1
 
  7
CONVERTER_11
 73
     1
 44
1.20048019207683
  0
MTEXT
  5
359
330
74
100
AcDbEntity
  8
1
 62
     2
100
AcDbMText
 10
-207.3692449994481
 20
14.32274477631479
 30
0.0
 40
2.0
 41
0.0
 71
     5
 72
     1
  1
 
  7
CONVERTER_11
 73
     1
 44
1.20048019207683
  0
MTEXT
  5
35A
330
74
100
AcDbEntity
  8
1
 62
     2
100
AcDbMText
 10
-207.3692449994481
 20
10.07274477631479
 30
0.0
 40
2.0
 41
0.0
 71
     5
 72
     1
  1
 
  7
CONVERTER_11
 73
     1
 44
1.20048019207683
  0
MTEXT
  5
35B
330
74
100
AcDbEntity
  8
1
 62
     2
100
AcDbMText
 10
-207.3692449994481
 20
5.8227447763149
 30
0.0
 40
2.0
 41
0.0
 71
     5
 72
     1
  1
 
  7
CONVERTER_11
 73
     1
 44
1.20048019207683
  0
MTEXT
  5
35C
330
74
100
AcDbEntity
  8
1
 62
     2
100
AcDbMText
 10
-197.5192449994491
 20
5.8227447763149
 30
0.0
 40
2.0
 41
0.0
 71
     5
 72
     1
  1
 
  7
CONVERTER_11
 73
     1
 44
1.20048019207683
  0
MTEXT
  5
35D
330
74
100
AcDbEntity
  8
1
 62
     2
100
AcDbMText
 10
-197.5192449994491
 20
10.07274477631479
 30
0.0
 40
2.0
 41
0.0
 71
     5
 72
     1
  1
 
  7
CONVERTER_11
 73
     1
 44
1.20048019207683
  0
MTEXT
  5
35E
330
74
100
AcDbEntity
  8
1
 62
     2
100
AcDbMText
 10
-197.5192449994491
 20
14.32274477631479
 30
0.0
 40
2.0
 41
0.0
 71
     5
 72
     1
  1
 
  7
CONVERTER_11
 73
     1
 44
1.20048019207683
  0
MTEXT
  5
35F
330
74
100
AcDbEntity
  8
1
 62
     2
100
AcDbMText
 10
-197.5192449994491
 20
18.57274477631479
 30
0.0
 40
2.0
 41
0.0
 71
     5
 72
     1
  1
 
  7
CONVERTER_11
 73
     1
 44
1.20048019207683
  0
MTEXT
  5
360
330
74
100
AcDbEntity
  8
1
 62
     2
100
AcDbMText
 10
-197.5192449994491
 20
22.82274477631479
 30
0.0
 40
2.0
 41
0.0
 71
     5
 72
     1
  1
 
  7
CONVERTER_11
 73
     1
 44
1.20048019207683
  0
MTEXT
  5
361
330
74
100
AcDbEntity
  8
1
 62
     2
100
AcDbMText
 10
-197.5192449994491
 20
27.07274477631479
 30
0.0
 40
2.0
 41
0.0
 71
     5
 72
     1
  1
 
  7
CONVERTER_11
 73
     1
 44
1.20048019207683
  0
MTEXT
  5
362
330
74
100
AcDbEntity
  8
1
 62
     2
100
AcDbMText
 10
-121.7640495261989
 20
5.8227447763149
 30
0.0
 40
2.0
 41
0.0
 71
     5
 72
     1
  1
 
  7
CONVERTER_11
 73
     1
 44
1.20048019207683
  0
MTEXT
  5
363
330
74
100
AcDbEntity
  8
1
 62
     2
100
AcDbMText
 10
-121.7640495261989
 20
10.07274477631479
 30
0.0
 40
2.0
 41
0.0
 71
     5
 72
     1
  1
 
  7
CONVERTER_11
 73
     1
 44
1.20048019207683
  0
MTEXT
  5
364
330
74
100
AcDbEntity
  8
1
 62
     2
100
AcDbMText
 10
-121.7640495261989
 20
14.32274477631479
 30
0.0
 40
2.0
 41
0.0
 71
     5
 72
     1
  1
 
  7
CONVERTER_11
 73
     1
 44
1.20048019207683
  0
MTEXT
  5
365
330
74
100
AcDbEntity
  8
1
 62
     2
100
AcDbMText
 10
-121.7640495261989
 20
18.57274477631479
 30
0.0
 40
2.0
 41
0.0
 71
     5
 72
     1
  1
 
  7
CONVERTER_11
 73
     1
 44
1.20048019207683
  0
MTEXT
  5
366
330
74
100
AcDbEntity
  8
1
 62
     2
100
AcDbMText
 10
-121.7640495261989
 20
22.82274477631479
 30
0.0
 40
2.0
 41
0.0
 71
     5
 72
     1
  1
 
  7
CONVERTER_11
 73
     1
 44
1.20048019207683
  0
MTEXT
  5
367
330
74
100
AcDbEntity
  8
1
 62
     2
100
AcDbMText
 10
-121.7640495261989
 20
27.07274477631479
 30
0.0
 40
2.0
 41
0.0
 71
     5
 72
     1
  1
 
  7
CONVERTER_11
 73
     1
 44
1.20048019207683
  0
MTEXT
  5
368
330
74
100
AcDbEntity
  8
1
 62
     2
100
AcDbMText
 10
-108.264049526199
 20
27.07274477631479
 30
0.0
 40
2.0
 41
0.0
 71
     5
 72
     1
  1
 
  7
CONVERTER_11
 73
     1
 44
1.20048019207683
  0
MTEXT
  5
369
330
74
100
AcDbEntity
  8
1
 62
     2
100
AcDbMText
 10
-108.264049526199
 20
22.82274477631479
 30
0.0
 40
2.0
 41
0.0
 71
     5
 72
     1
  1
 
  7
CONVERTER_11
 73
     1
 44
1.20048019207683
  0
MTEXT
  5
36A
330
74
100
AcDbEntity
  8
1
 62
     2
100
AcDbMText
 10
-108.264049526199
 20
18.57274477631479
 30
0.0
 40
2.0
 41
0.0
 71
     5
 72
     1
  1
 
  7
CONVERTER_11
 73
     1
 44
1.20048019207683
  0
MTEXT
  5
36B
330
74
100
AcDbEntity
  8
1
 62
     2
100
AcDbMText
 10
-108.264049526199
 20
14.32274477631479
 30
0.0
 40
2.0
 41
0.0
 71
     5
 72
     1
  1
 
  7
CONVERTER_11
 73
     1
 44
1.20048019207683
  0
MTEXT
  5
36C
330
74
100
AcDbEntity
  8
1
 62
     2
100
AcDbMText
 10
-108.264049526199
 20
10.07274477631479
 30
0.0
 40
2.0
 41
0.0
 71
     5
 72
     1
  1
 
  7
CONVERTER_11
 73
     1
 44
1.20048019207683
  0
MTEXT
  5
36D
330
74
100
AcDbEntity
  8
1
 62
     2
100
AcDbMText
 10
-108.264049526199
 20
5.8227447763149
 30
0.0
 40
2.0
 41
0.0
 71
     5
 72
     1
  1
 
  7
CONVERTER_11
 73
     1
 44
1.20048019207683
  0
MTEXT
  5
36E
330
74
100
AcDbEntity
  8
1
 62
     2
100
AcDbMText
 10
-94.76404952619895
 20
27.07274477631479
 30
0.0
 40
2.0
 41
0.0
 71
     5
 72
     1
  1
 
  7
CONVERTER_11
 73
     1
 44
1.20048019207683
  0
MTEXT
  5
36F
330
74
100
AcDbEntity
  8
1
 62
     2
100
AcDbMText
 10
-94.76404952619895
 20
22.82274477631479
 30
0.0
 40
2.0
 41
0.0
 71
     5
 72
     1
  1
 
  7
CONVERTER_11
 73
     1
 44
1.20048019207683
  0
MTEXT
  5
370
330
74
100
AcDbEntity
  8
1
 62
     2
100
AcDbMText
 10
-94.76404952619895
 20
18.57274477631479
 30
0.0
 40
2.0
 41
0.0
 71
     5
 72
     1
  1
 
  7
CONVERTER_11
 73
     1
 44
1.20048019207683
  0
MTEXT
  5
371
330
74
100
AcDbEntity
  8
1
 62
     2
100
AcDbMText
 10
-94.76404952619895
 20
14.32274477631479
 30
0.0
 40
2.0
 41
0.0
 71
     5
 72
     1
  1
 
  7
CONVERTER_11
 73
     1
 44
1.20048019207683
  0
MTEXT
  5
372
330
74
100
AcDbEntity
  8
1
 62
     2
100
AcDbMText
 10
-94.76404952619895
 20
10.07274477631479
 30
0.0
 40
2.0
 41
0.0
 71
     5
 72
     1
  1
 
  7
CONVERTER_11
 73
     1
 44
1.20048019207683
  0
MTEXT
  5
373
330
74
100
AcDbEntity
  8
1
 62
     2
100
AcDbMText
 10
-94.76404952619895
 20
5.8227447763149
 30
0.0
 40
2.0
 41
0.0
 71
     5
 72
     1
  1
 
  7
CONVERTER_11
 73
     1
 44
1.20048019207683
  0
MTEXT
  5
375
330
74
100
AcDbEntity
  8
1
 62
     2
100
AcDbMText
 10
-189.7692449994491
 20
27.07274477631479
 30
0.0
 40
2.0
 41
0.0
 71
     4
 72
     1
  1
 
  7
CONVERTER_17
 73
     1
 44
1.20048019207683
  0
MTEXT
  5
376
330
74
100
AcDbEntity
  8
1
 62
     2
100
AcDbMText
 10
-189.7692449994491
 20
22.82274477631479
 30
0.0
 40
2.0
 41
0.0
 71
     4
 72
     1
  1
 
  7
CONVERTER_17
 73
     1
 44
1.20048019207683
  0
MTEXT
  5
377
330
74
100
AcDbEntity
  8
1
 62
     2
100
AcDbMText
 10
-189.7692449994491
 20
18.57274477631479
 30
0.0
 40
2.0
 41
0.0
 71
     4
 72
     1
  1
 
  7
CONVERTER_17
 73
     1
 44
1.20048019207683
  0
MTEXT
  5
378
330
74
100
AcDbEntity
  8
1
 62
     2
100
AcDbMText
 10
-189.7692449994491
 20
14.32274477631479
 30
0.0
 40
2.0
 41
0.0
 71
     4
 72
     1
  1
 
  7
CONVERTER_17
 73
     1
 44
1.20048019207683
  0
MTEXT
  5
379
330
74
100
AcDbEntity
  8
1
 62
     2
100
AcDbMText
 10
-189.7692449994491
 20
10.07274477631479
 30
0.0
 40
2.0
 41
0.0
 71
     4
 72
     1
  1
 
  7
CONVERTER_17
 73
     1
 44
1.20048019207683
  0
MTEXT
  5
37A
330
74
100
AcDbEntity
  8
1
 62
     2
100
AcDbMText
 10
-189.7692449994491
 20
5.8227447763149
 30
0.0
 40
2.0
 41
0.0
 71
     4
 72
     1
  1
 
  7
CONVERTER_17
 73
     1
 44
1.20048019207683
  0
MTEXT
  5
37C
330
74
100
AcDbEntity
  8
1
 62
     3
100
AcDbMText
 10
-41.28181270808408
 20
18.57274477631478
 30
0.0
 40
2.5
 41
0.0
 71
     4
 72
     1
  1
K02-12005/99
  7
CONVERTER_18
 73
     1
 44
1.20048019207683
  0
MTEXT
  5
37D
330
74
100
AcDbEntity
  8
1
 62
     2
100
AcDbMText
 10
-50.51404952619896
 20
18.77274477631478
 30
0.0
 40
1.4
 41
0.0
 71
     4
 72
     1
  1
SAP\Pchange-No.
  7
CONVERTER_18
 73
     1
 44
0.66026410564226
  0
HATCH
  5
37E
330
74
100
AcDbEntity
  8
1
  6
Continuous
 62
     2
100
AcDbHatch
 10
0.0
 20
0.0
 30
0.0
210
0.0
220
0.0
230
1.0
  2
_USER
 70
     0
 71
     1
 91
        1
 92
        1
 93
       12
 72
     1
 10
-70.25413158160296
 20
8.0739352524979
 11
-71.23991067430251
 21
8.0739352524979
 72
     1
 10
-71.23991067430251
 20
8.0739352524979
 11
-71.23991067430251
 21
9.01135021848446
 72
     1
 10
-71.23991067430251
 20
9.01135021848446
 11
-72.1073962758789
 21
9.01135021848446
 72
     1
 10
-72.1073962758789
 20
9.01135021848446
 11
-72.1073962758789
 21
8.0739352524979
 72
     1
 10
-72.1073962758789
 20
8.0739352524979
 11
-73.09317536857856
 21
8.0739352524979
 72
     1
 10
-73.09317536857856
 20
8.0739352524979
 11
-73.09317536857856
 21
10.59774477630873
 72
     1
 10
-73.09317536857856
 20
10.59774477630873
 11
-72.1073962758789
 21
10.59774477630873
 72
     1
 10
-72.1073962758789
 20
10.59774477630873
 11
-72.1073962758789
 21
9.71441144297437
 72
     1
 10
-72.1073962758789
 20
9.71441144297437
 11
-71.23991067430251
 21
9.71441144297437
 72
     1
 10
-71.23991067430251
 20
9.71441144297437
 11
-71.23991067430251
 21
10.59774477630873
 72
     1
 10
-71.23991067430251
 20
10.59774477630873
 11
-70.25413158160296
 21
10.59774477630873
 72
     1
 10
-70.25413158160296
 20
10.59774477630873
 11
-70.25413158160296
 21
8.0739352524979
 97
       12
330
2B8
330
2B9
330
2A3
330
2A2
330
2A1
330
2B5
330
2A0
330
2B6
330
2B7
330
29F
330
29E
330
29D
 75
     1
 76
     0
 52
45.0
 41
0.1
 77
     0
 78
     1
 53
45.0
 43
0.0
 44
0.0
 45
-0.0707106781186548
 46
0.0707106781186548
 79
     0
 98
        1
 10
0.0
 20
0.0
  0
HATCH
  5
37F
330
74
100
AcDbEntity
  8
1
  6
Continuous
 62
     2
100
AcDbHatch
 10
0.0
 20
0.0
 30
0.0
210
0.0
220
0.0
230
1.0
  2
_USER
 70
     0
 71
     1
 91
        1
 92
        1
 93
       12
 72
     1
 10
-70.25413158160296
 20
8.0739352524979
 11
-71.23991067430251
 21
8.0739352524979
 72
     1
 10
-71.23991067430251
 20
8.0739352524979
 11
-71.23991067430251
 21
9.01135021848446
 72
     1
 10
-71.23991067430251
 20
9.01135021848446
 11
-72.1073962758789
 21
9.01135021848446
 72
     1
 10
-72.1073962758789
 20
9.01135021848446
 11
-72.1073962758789
 21
8.0739352524979
 72
     1
 10
-72.1073962758789
 20
8.0739352524979
 11
-73.09317536857856
 21
8.0739352524979
 72
     1
 10
-73.09317536857856
 20
8.0739352524979
 11
-73.09317536857856
 21
10.59774477630873
 72
     1
 10
-73.09317536857856
 20
10.59774477630873
 11
-72.1073962758789
 21
10.59774477630873
 72
     1
 10
-72.1073962758789
 20
10.59774477630873
 11
-72.1073962758789
 21
9.71441144297437
 72
     1
 10
-72.1073962758789
 20
9.71441144297437
 11
-71.23991067430251
 21
9.71441144297437
 72
     1
 10
-71.23991067430251
 20
9.71441144297437
 11
-71.23991067430251
 21
10.59774477630873
 72
     1
 10
-71.23991067430251
 20
10.59774477630873
 11
-70.25413158160296
 21
10.59774477630873
 72
     1
 10
-70.25413158160296
 20
10.59774477630873
 11
-70.25413158160296
 21
8.0739352524979
 97
       12
330
2B8
330
2B9
330
2A3
330
2A2
330
2A1
330
2B5
330
2A0
330
2B6
330
2B7
330
29F
330
29E
330
29D
 75
     1
 76
     0
 52
45.0
 41
0.1
 77
     0
 78
     1
 53
45.0
 43
0.0
 44
0.0
 45
-0.0707106781186548
 46
0.0707106781186548
 79
     0
 98
        1
 10
0.0
 20
0.0
  0
HATCH
  5
380
330
74
100
AcDbEntity
  8
1
  6
Continuous
 62
     2
100
AcDbHatch
 10
0.0
 20
0.0
 30
0.0
210
0.0
220
0.0
230
1.0
  2
_USER
 70
     0
 71
     1
 91
        1
 92
        1
 93
       10
 72
     1
 10
-68.4009916235961
 20
6.739921647069471
 11
-69.42620188000348
 21
7.821554300131581
 72
     1
 10
-69.42620188000348
 20
7.821554300131581
 11
-70.41198097270393
 21
7.821554300131581
 72
     1
 10
-70.41198097270393
 20
7.821554300131581
 11
-70.41198097270393
 21
5.29774477632075
 72
     1
 10
-70.41198097270393
 20
5.29774477632075
 11
-69.42620188000348
 21
5.29774477632075
 72
     1
 10
-69.42620188000348
 20
5.29774477632075
 11
-69.42620188000348
 21
6.3793774293824
 72
     1
 10
-69.42620188000348
 20
6.3793774293824
 11
-68.4009916235961
 21
5.29774477632075
 72
     1
 10
-68.4009916235961
 20
5.29774477632075
 11
-67.41521253089655
 21
5.29774477632075
 72
     1
 10
-67.41521253089655
 20
5.29774477632075
 11
-67.41521253089655
 21
7.821554300131581
 72
     1
 10
-67.41521253089655
 20
7.821554300131581
 11
-68.4009916235961
 21
7.821554300131581
 72
     1
 10
-68.4009916235961
 20
7.821554300131581
 11
-68.4009916235961
 21
6.739921647069471
 97
       10
330
2C6
330
296
330
295
330
298
330
2C1
330
2C2
330
297
330
2C3
330
2C4
330
2C5
 75
     1
 76
     0
 52
45.0
 41
0.1
 77
     0
 78
     1
 53
45.0
 43
0.0
 44
0.0
 45
-0.0707106781186548
 46
0.0707106781186548
 79
     0
 98
        1
 10
0.0
 20
0.0
  0
HATCH
  5
381
330
74
100
AcDbEntity
  8
1
  6
Continuous
 62
     2
100
AcDbHatch
 10
0.0
 20
0.0
 30
0.0
210
0.0
220
0.0
230
1.0
  2
_USER
 70
     0
 71
     1
 91
        1
 92
        1
 93
       10
 72
     1
 10
-68.4009916235961
 20
6.739921647069471
 11
-69.42620188000348
 21
7.821554300131581
 72
     1
 10
-69.42620188000348
 20
7.821554300131581
 11
-70.41198097270393
 21
7.821554300131581
 72
     1
 10
-70.41198097270393
 20
7.821554300131581
 11
-70.41198097270393
 21
5.29774477632075
 72
     1
 10
-70.41198097270393
 20
5.29774477632075
 11
-69.42620188000348
 21
5.29774477632075
 72
     1
 10
-69.42620188000348
 20
5.29774477632075
 11
-69.42620188000348
 21
6.3793774293824
 72
     1
 10
-69.42620188000348
 20
6.3793774293824
 11
-68.4009916235961
 21
5.29774477632075
 72
     1
 10
-68.4009916235961
 20
5.29774477632075
 11
-67.41521253089655
 21
5.29774477632075
 72
     1
 10
-67.41521253089655
 20
5.29774477632075
 11
-67.41521253089655
 21
7.821554300131581
 72
     1
 10
-67.41521253089655
 20
7.821554300131581
 11
-68.4009916235961
 21
7.821554300131581
 72
     1
 10
-68.4009916235961
 20
7.821554300131581
 11
-68.4009916235961
 21
6.739921647069471
 97
       10
330
2C6
330
296
330
295
330
298
330
2C1
330
2C2
330
297
330
2C3
330
2C4
330
2C5
 75
     1
 76
     0
 52
45.0
 41
0.1
 77
     0
 78
     1
 53
45.0
 43
0.0
 44
0.0
 45
-0.0707106781186548
 46
0.0707106781186548
 79
     0
 98
        1
 10
0.0
 20
0.0
  0
HATCH
  5
382
330
74
100
AcDbEntity
  8
1
  6
Continuous
 62
     2
100
AcDbHatch
 10
0.0
 20
0.0
 30
0.0
210
0.0
220
0.0
230
1.0
  2
_USER
 70
     0
 71
     1
 91
        1
 92
        1
 93
       10
 72
     1
 10
-64.06343887944757
 20
9.516112123246621
 11
-65.08864913585586
 21
10.59774477630873
 72
     1
 10
-65.08864913585586
 20
10.59774477630873
 11
-66.0744282285554
 21
10.59774477630873
 72
     1
 10
-66.0744282285554
 20
10.59774477630873
 11
-66.0744282285554
 21
8.0739352524979
 72
     1
 10
-66.0744282285554
 20
8.0739352524979
 11
-65.08864913585586
 21
8.0739352524979
 72
     1
 10
-65.08864913585586
 20
8.0739352524979
 11
-65.08864913585586
 21
9.155567905559561
 72
     1
 10
-65.08864913585586
 20
9.155567905559561
 11
-64.06343887944757
 21
8.0739352524979
 72
     1
 10
-64.06343887944757
 20
8.0739352524979
 11
-63.07765978674792
 21
8.0739352524979
 72
     1
 10
-63.07765978674792
 20
8.0739352524979
 11
-63.07765978674792
 21
10.59774477630873
 72
     1
 10
-63.07765978674792
 20
10.59774477630873
 11
-64.06343887944757
 21
10.59774477630873
 72
     1
 10
-64.06343887944757
 20
10.59774477630873
 11
-64.06343887944757
 21
9.516112123246621
 97
       10
330
2CB
330
293
330
292
330
2CC
330
291
330
2C7
330
2C8
330
2C9
330
2CA
330
294
 75
     1
 76
     0
 52
45.0
 41
0.1
 77
     0
 78
     1
 53
45.0
 43
0.0
 44
0.0
 45
-0.0707106781186548
 46
0.0707106781186548
 79
     0
 98
        1
 10
0.0
 20
0.0
  0
HATCH
  5
383
330
74
100
AcDbEntity
  8
1
  6
Continuous
 62
     2
100
AcDbHatch
 10
0.0
 20
0.0
 30
0.0
210
0.0
220
0.0
230
1.0
  2
_USER
 70
     0
 71
     1
 91
        1
 92
        1
 93
       10
 72
     1
 10
-64.06343887944757
 20
9.516112123246621
 11
-65.08864913585586
 21
10.59774477630873
 72
     1
 10
-65.08864913585586
 20
10.59774477630873
 11
-66.0744282285554
 21
10.59774477630873
 72
     1
 10
-66.0744282285554
 20
10.59774477630873
 11
-66.0744282285554
 21
8.0739352524979
 72
     1
 10
-66.0744282285554
 20
8.0739352524979
 11
-65.08864913585586
 21
8.0739352524979
 72
     1
 10
-65.08864913585586
 20
8.0739352524979
 11
-65.08864913585586
 21
9.155567905559561
 72
     1
 10
-65.08864913585586
 20
9.155567905559561
 11
-64.06343887944757
 21
8.0739352524979
 72
     1
 10
-64.06343887944757
 20
8.0739352524979
 11
-63.07765978674792
 21
8.0739352524979
 72
     1
 10
-63.07765978674792
 20
8.0739352524979
 11
-63.07765978674792
 21
10.59774477630873
 72
     1
 10
-63.07765978674792
 20
10.59774477630873
 11
-64.06343887944757
 21
10.59774477630873
 72
     1
 10
-64.06343887944757
 20
10.59774477630873
 11
-64.06343887944757
 21
9.516112123246621
 97
       10
330
2CB
330
293
330
292
330
2CC
330
291
330
2C7
330
2C8
330
2C9
330
2CA
330
294
 75
     1
 76
     0
 52
45.0
 41
0.1
 77
     0
 78
     1
 53
45.0
 43
0.0
 44
0.0
 45
-0.0707106781186548
 46
0.0707106781186548
 79
     0
 98
        1
 10
0.0
 20
0.0
  0
HATCH
  5
384
330
74
100
AcDbEntity
  8
1
  6
Continuous
 62
     2
100
AcDbHatch
 10
0.0
 20
0.0
 30
0.0
210
0.0
220
0.0
230
1.0
  2
_USER
 70
     0
 71
     1
 91
        1
 92
        1
 93
        8
 72
     1
 10
-64.97048038100087
 20
7.821554300131581
 11
-67.29691903977249
 21
7.821554300131581
 72
     1
 10
-67.29691903977249
 20
7.821554300131581
 11
-67.29691903977249
 21
7.17257470829386
 72
     1
 10
-67.29691903977249
 20
7.17257470829386
 11
-66.6265892567356
 21
7.17257470829386
 72
     1
 10
-66.6265892567356
 20
7.17257470829386
 11
-66.6265892567356
 21
5.29774477632075
 72
     1
 10
-66.6265892567356
 20
5.29774477632075
 11
-65.64081016403605
 21
5.29774477632075
 72
     1
 10
-65.64081016403605
 20
5.29774477632075
 11
-65.64081016403605
 21
7.17257470829386
 72
     1
 10
-65.64081016403605
 20
7.17257470829386
 11
-64.97048038100087
 21
7.17257470829386
 72
     1
 10
-64.97048038100087
 20
7.17257470829386
 11
-64.97048038100087
 21
7.821554300131581
 97
        8
330
28D
330
2CD
330
28C
330
2CE
330
2CF
330
290
330
28F
330
28E
 75
     1
 76
     0
 52
45.0
 41
0.1
 77
     0
 78
     1
 53
45.0
 43
0.0
 44
0.0
 45
-0.0707106781186548
 46
0.0707106781186548
 79
     0
 98
        1
 10
0.0
 20
0.0
  0
HATCH
  5
385
330
74
100
AcDbEntity
  8
1
  6
Continuous
 62
     2
100
AcDbHatch
 10
0.0
 20
0.0
 30
0.0
210
0.0
220
0.0
230
1.0
  2
_USER
 70
     0
 71
     1
 91
        1
 92
        1
 93
        8
 72
     1
 10
-64.97048038100087
 20
7.821554300131581
 11
-67.29691903977249
 21
7.821554300131581
 72
     1
 10
-67.29691903977249
 20
7.821554300131581
 11
-67.29691903977249
 21
7.17257470829386
 72
     1
 10
-67.29691903977249
 20
7.17257470829386
 11
-66.6265892567356
 21
7.17257470829386
 72
     1
 10
-66.6265892567356
 20
7.17257470829386
 11
-66.6265892567356
 21
5.29774477632075
 72
     1
 10
-66.6265892567356
 20
5.29774477632075
 11
-65.64081016403605
 21
5.29774477632075
 72
     1
 10
-65.64081016403605
 20
5.29774477632075
 11
-65.64081016403605
 21
7.17257470829386
 72
     1
 10
-65.64081016403605
 20
7.17257470829386
 11
-64.97048038100087
 21
7.17257470829386
 72
     1
 10
-64.97048038100087
 20
7.17257470829386
 11
-64.97048038100087
 21
7.821554300131581
 97
        8
330
28D
330
2CD
330
28C
330
2CE
330
2CF
330
290
330
28F
330
28E
 75
     1
 76
     0
 52
45.0
 41
0.1
 77
     0
 78
     1
 53
45.0
 43
0.0
 44
0.0
 45
-0.0707106781186548
 46
0.0707106781186548
 79
     0
 98
        1
 10
0.0
 20
0.0
  0
HATCH
  5
386
330
74
100
AcDbEntity
  8
1
  6
Continuous
 62
     2
100
AcDbHatch
 10
0.0
 20
0.0
 30
0.0
210
0.0
220
0.0
230
1.0
  2
_USER
 70
     0
 71
     1
 91
        2
 92
        1
 93
        8
 72
     1
 10
-63.20318496286285
 20
5.29774477632075
 11
-63.37796186656186
 21
5.74481960625287
 72
     1
 10
-63.37796186656186
 20
5.74481960625287
 11
-64.3138639960444
 21
5.74481960625287
 72
     1
 10
-64.3138639960444
 20
5.74481960625287
 11
-64.48864089974342
 21
5.29774477632075
 72
     1
 10
-64.48864089974342
 20
5.29774477632075
 11
-65.51385115615079
 21
5.29774477632075
 72
     1
 10
-65.51385115615079
 20
5.29774477632075
 11
-64.35851805950682
 21
7.821554300131581
 72
     1
 10
-64.35851805950682
 20
7.821554300131581
 11
-63.33330780309956
 21
7.821554300131581
 72
     1
 10
-63.33330780309956
 20
7.821554300131581
 11
-62.17797470645468
 21
5.29774477632075
 72
     1
 10
-62.17797470645468
 20
5.29774477632075
 11
-63.20318496286285
 21
5.29774477632075
 97
        8
330
2D1
330
2D2
330
289
330
2D3
330
288
330
28B
330
2D0
330
28A
 92
       16
 93
        3
 72
     1
 10
-64.09398337526335
 20
6.307268585845071
 11
-63.84591293130274
 21
6.94182640897461
 72
     1
 10
-63.84591293130274
 20
6.94182640897461
 11
-63.59784248734394
 21
6.307268585845071
 72
     1
 10
-63.59784248734394
 20
6.307268585845071
 11
-64.09398337526335
 21
6.307268585845071
 97
        3
330
287
330
2D5
330
2D4
 75
     1
 76
     0
 52
45.0
 41
0.1
 77
     0
 78
     1
 53
45.0
 43
0.0
 44
0.0
 45
-0.0707106781186548
 46
0.0707106781186548
 79
     0
 98
        1
 10
0.0
 20
0.0
  0
HATCH
  5
387
330
74
100
AcDbEntity
  8
1
  6
Continuous
 62
     2
100
AcDbHatch
 10
0.0
 20
0.0
 30
0.0
210
0.0
220
0.0
230
1.0
  2
_USER
 70
     0
 71
     1
 91
        2
 92
        1
 93
        8
 72
     1
 10
-63.20318496286285
 20
5.29774477632075
 11
-63.37796186656186
 21
5.74481960625287
 72
     1
 10
-63.37796186656186
 20
5.74481960625287
 11
-64.3138639960444
 21
5.74481960625287
 72
     1
 10
-64.3138639960444
 20
5.74481960625287
 11
-64.48864089974342
 21
5.29774477632075
 72
     1
 10
-64.48864089974342
 20
5.29774477632075
 11
-65.51385115615079
 21
5.29774477632075
 72
     1
 10
-65.51385115615079
 20
5.29774477632075
 11
-64.35851805950682
 21
7.821554300131581
 72
     1
 10
-64.35851805950682
 20
7.821554300131581
 11
-63.33330780309956
 21
7.821554300131581
 72
     1
 10
-63.33330780309956
 20
7.821554300131581
 11
-62.17797470645468
 21
5.29774477632075
 72
     1
 10
-62.17797470645468
 20
5.29774477632075
 11
-63.20318496286285
 21
5.29774477632075
 97
        8
330
2D1
330
2D2
330
289
330
2D3
330
288
330
28B
330
2D0
330
28A
 92
       16
 93
        3
 72
     1
 10
-64.09398337526335
 20
6.307268585845071
 11
-63.84591293130274
 21
6.94182640897461
 72
     1
 10
-63.84591293130274
 20
6.94182640897461
 11
-63.59784248734394
 21
6.307268585845071
 72
     1
 10
-63.59784248734394
 20
6.307268585845071
 11
-64.09398337526335
 21
6.307268585845071
 97
        3
330
287
330
2D5
330
2D4
 75
     1
 76
     0
 52
45.0
 41
0.1
 77
     0
 78
     1
 53
45.0
 43
0.0
 44
0.0
 45
-0.0707106781186548
 46
0.0707106781186548
 79
     0
 98
        1
 10
0.0
 20
0.0
  0
HATCH
  5
388
330
74
100
AcDbEntity
  8
1
  6
Continuous
 62
     2
100
AcDbHatch
 10
0.0
 20
0.0
 30
0.0
210
0.0
220
0.0
230
1.0
  2
_USER
 70
     0
 71
     1
 91
        1
 92
        1
 93
        4
 72
     1
 10
-61.85529371180013
 20
8.0739352524979
 11
-62.88050396820751
 21
8.0739352524979
 72
     1
 10
-62.88050396820751
 20
8.0739352524979
 11
-62.88050396820751
 21
10.59774477630873
 72
     1
 10
-62.88050396820751
 20
10.59774477630873
 11
-61.85529371180013
 21
10.59774477630873
 72
     1
 10
-61.85529371180013
 20
10.59774477630873
 11
-61.85529371180013
 21
8.0739352524979
 97
        4
330
284
330
286
330
2D6
330
285
 75
     1
 76
     0
 52
45.0
 41
0.1
 77
     0
 78
     1
 53
45.0
 43
0.0
 44
0.0
 45
-0.0707106781186548
 46
0.0707106781186548
 79
     0
 98
        1
 10
0.0
 20
0.0
  0
HATCH
  5
389
330
74
100
AcDbEntity
  8
1
  6
Continuous
 62
     2
100
AcDbHatch
 10
0.0
 20
0.0
 30
0.0
210
0.0
220
0.0
230
1.0
  2
_USER
 70
     0
 71
     1
 91
        1
 92
        1
 93
        4
 72
     1
 10
-61.85529371180013
 20
8.0739352524979
 11
-62.88050396820751
 21
8.0739352524979
 72
     1
 10
-62.88050396820751
 20
8.0739352524979
 11
-62.88050396820751
 21
10.59774477630873
 72
     1
 10
-62.88050396820751
 20
10.59774477630873
 11
-61.85529371180013
 21
10.59774477630873
 72
     1
 10
-61.85529371180013
 20
10.59774477630873
 11
-61.85529371180013
 21
8.0739352524979
 97
        4
330
284
330
286
330
2D6
330
285
 75
     1
 76
     0
 52
45.0
 41
0.1
 77
     0
 78
     1
 53
45.0
 43
0.0
 44
0.0
 45
-0.0707106781186548
 46
0.0707106781186548
 79
     0
 98
        1
 10
0.0
 20
0.0
  0
HATCH
  5
38A
330
74
100
AcDbEntity
  8
1
  6
Continuous
 62
     2
100
AcDbHatch
 10
0.0
 20
0.0
 30
0.0
210
0.0
220
0.0
230
1.0
  2
_USER
 70
     0
 71
     1
 91
        1
 92
        1
 93
       12
 72
     1
 10
-58.36563572364247
 20
10.59774477630873
 11
-59.44210649287101
 21
9.380430288675509
 72
     1
 10
-59.44210649287101
 20
9.380430288675509
 11
-58.28677339622612
 21
8.0739352524979
 72
     1
 10
-58.28677339622612
 20
8.0739352524979
 11
-59.44604960924124
 21
8.0739352524979
 72
     1
 10
-59.44604960924124
 20
8.0739352524979
 11
-60.021744599378
 21
8.72495325687284
 72
     1
 10
-60.021744599378
 20
8.72495325687284
 11
-60.59743958951498
 21
8.0739352524979
 72
     1
 10
-60.59743958951498
 20
8.0739352524979
 11
-61.75671580252998
 21
8.0739352524979
 72
     1
 10
-61.75671580252998
 20
8.0739352524979
 11
-60.6013827058851
 21
9.380430288675509
 72
     1
 10
-60.6013827058851
 20
9.380430288675509
 11
-61.67785347511443
 21
10.59774477630873
 72
     1
 10
-61.67785347511443
 20
10.59774477630873
 11
-60.51857726209852
 21
10.59774477630873
 72
     1
 10
-60.51857726209852
 20
10.59774477630873
 11
-60.021744599378
 21
10.03590732047774
 72
     1
 10
-60.021744599378
 20
10.03590732047774
 11
-59.52491193665669
 21
10.59774477630873
 72
     1
 10
-59.52491193665669
 20
10.59774477630873
 11
-58.36563572364247
 21
10.59774477630873
 97
       12
330
27F
330
27E
330
27D
330
2DA
330
2DB
330
2D7
330
2D8
330
283
330
282
330
281
330
280
330
2D9
 75
     1
 76
     0
 52
45.0
 41
0.1
 77
     0
 78
     1
 53
45.0
 43
0.0
 44
0.0
 45
-0.0707106781186548
 46
0.0707106781186548
 79
     0
 98
        1
 10
0.0
 20
0.0
  0
HATCH
  5
38B
330
74
100
AcDbEntity
  8
1
  6
Continuous
 62
     2
100
AcDbHatch
 10
0.0
 20
0.0
 30
0.0
210
0.0
220
0.0
230
1.0
  2
_USER
 70
     0
 71
     1
 91
        1
 92
        1
 93
       12
 72
     1
 10
-58.36563572364247
 20
10.59774477630873
 11
-59.44210649287101
 21
9.380430288675509
 72
     1
 10
-59.44210649287101
 20
9.380430288675509
 11
-58.28677339622612
 21
8.0739352524979
 72
     1
 10
-58.28677339622612
 20
8.0739352524979
 11
-59.44604960924124
 21
8.0739352524979
 72
     1
 10
-59.44604960924124
 20
8.0739352524979
 11
-60.021744599378
 21
8.72495325687284
 72
     1
 10
-60.021744599378
 20
8.72495325687284
 11
-60.59743958951498
 21
8.0739352524979
 72
     1
 10
-60.59743958951498
 20
8.0739352524979
 11
-61.75671580252998
 21
8.0739352524979
 72
     1
 10
-61.75671580252998
 20
8.0739352524979
 11
-60.6013827058851
 21
9.380430288675509
 72
     1
 10
-60.6013827058851
 20
9.380430288675509
 11
-61.67785347511443
 21
10.59774477630873
 72
     1
 10
-61.67785347511443
 20
10.59774477630873
 11
-60.51857726209852
 21
10.59774477630873
 72
     1
 10
-60.51857726209852
 20
10.59774477630873
 11
-60.021744599378
 21
10.03590732047774
 72
     1
 10
-60.021744599378
 20
10.03590732047774
 11
-59.52491193665669
 21
10.59774477630873
 72
     1
 10
-59.52491193665669
 20
10.59774477630873
 11
-58.36563572364247
 21
10.59774477630873
 97
       12
330
27F
330
27E
330
27D
330
2DA
330
2DB
330
2D7
330
2D8
330
283
330
282
330
281
330
280
330
2D9
 75
     1
 76
     0
 52
45.0
 41
0.1
 77
     0
 78
     1
 53
45.0
 43
0.0
 44
0.0
 45
-0.0707106781186548
 46
0.0707106781186548
 79
     0
 98
        1
 10
0.0
 20
0.0
  0
HATCH
  5
38C
330
74
100
AcDbEntity
  8
1
  6
Continuous
 62
     2
100
AcDbHatch
 10
0.0
 20
0.0
 30
0.0
210
0.0
220
0.0
230
1.0
  2
_USER
 70
     0
 71
     1
 91
        2
 92
        1
 93
        6
 72
     1
 10
-74.08277242954824
 20
8.853338757575369
 11
-74.70985308060636
 21
8.853338757575369
 72
     1
 10
-74.70985308060636
 20
8.853338757575369
 11
-74.70985308060636
 21
8.0739352524979
 72
     1
 10
-74.70985308060636
 20
8.0739352524979
 11
-75.73506333701465
 21
8.0739352524979
 72
     1
 10
-75.73506333701465
 20
8.0739352524979
 11
-75.73506333701465
 21
10.59774477630873
 72
     1
 10
-75.73506333701465
 20
10.59774477630873
 11
-74.08277242954824
 21
10.59774477630873
 72
     2
 10
-74.08277242954824
 20
9.72554176694204
 40
0.8722030093666717
 50
270.0
 51
450.0
 73
     0
 97
        6
330
2A7
330
2A6
330
2B3
330
2B2
330
2A8
330
2ED
 92
       16
 93
        4
 72
     2
 10
-74.44762575701799
 20
9.75810042084495
 40
0.2916229955959899
 50
270.0
 51
450.0
 73
     1
 72
     1
 10
-74.44762575701799
 20
10.04972341644092
 11
-74.70985308060636
 21
10.04972341644092
 72
     1
 10
-74.70985308060636
 20
10.04972341644092
 11
-74.70985308060636
 21
9.46647742524896
 72
     1
 10
-74.70985308060636
 20
9.46647742524896
 11
-74.44762575701799
 21
9.46647742524896
 97
        4
330
301
330
2A4
330
2B4
330
2A5
 75
     1
 76
     0
 52
45.0
 41
0.1
 77
     0
 78
     1
 53
45.0
 43
0.0
 44
0.0
 45
-0.0707106781186548
 46
0.0707106781186548
 79
     0
 98
        1
 10
0.0
 20
0.0
  0
HATCH
  5
38D
330
74
100
AcDbEntity
  8
1
  6
Continuous
 62
     2
100
AcDbHatch
 10
0.0
 20
0.0
 30
0.0
210
0.0
220
0.0
230
1.0
  2
_USER
 70
     0
 71
     1
 91
        2
 92
        1
 93
        6
 72
     1
 10
-74.08277242954824
 20
8.853338757575369
 11
-74.70985308060636
 21
8.853338757575369
 72
     1
 10
-74.70985308060636
 20
8.853338757575369
 11
-74.70985308060636
 21
8.0739352524979
 72
     1
 10
-74.70985308060636
 20
8.0739352524979
 11
-75.73506333701465
 21
8.0739352524979
 72
     1
 10
-75.73506333701465
 20
8.0739352524979
 11
-75.73506333701465
 21
10.59774477630873
 72
     1
 10
-75.73506333701465
 20
10.59774477630873
 11
-74.08277242954824
 21
10.59774477630873
 72
     2
 10
-74.08277242954824
 20
9.72554176694204
 40
0.8722030093666717
 50
270.0
 51
450.0
 73
     0
 97
        6
330
2A7
330
2A6
330
2B3
330
2B2
330
2A8
330
2ED
 92
       16
 93
        4
 72
     2
 10
-74.44762575701799
 20
9.75810042084495
 40
0.2916229955959899
 50
270.0
 51
450.0
 73
     1
 72
     1
 10
-74.44762575701799
 20
10.04972341644092
 11
-74.70985308060636
 21
10.04972341644092
 72
     1
 10
-74.70985308060636
 20
10.04972341644092
 11
-74.70985308060636
 21
9.46647742524896
 72
     1
 10
-74.70985308060636
 20
9.46647742524896
 11
-74.44762575701799
 21
9.46647742524896
 97
        4
330
301
330
2A4
330
2B4
330
2A5
 75
     1
 76
     0
 52
45.0
 41
0.1
 77
     0
 78
     1
 53
45.0
 43
0.0
 44
0.0
 45
-0.0707106781186548
 46
0.0707106781186548
 79
     0
 98
        1
 10
0.0
 20
0.0
  0
HATCH
  5
38E
330
74
100
AcDbEntity
  8
1
  6
Continuous
 62
     2
100
AcDbHatch
 10
0.0
 20
0.0
 30
0.0
210
0.0
220
0.0
230
1.0
  2
_USER
 70
     0
 71
     1
 91
        2
 92
        1
 93
        4
 72
     2
 10
-71.96992718297048
 20
6.114546223926119
 40
1.707008076205444
 50
62.45185182430569
 51
117.5481481756673
 73
     1
 72
     2
 10
-72.20210891175833
 20
6.559649538225941
 40
1.204986845992993
 50
117.5481481756635
 51
242.451851824337
 73
     1
 72
     2
 10
-71.96992718297048
 20
7.00475285252621
 40
1.70700807620544
 50
242.4518518243401
 51
297.548148175687
 73
     1
 72
     2
 10
-71.73774545418263
 20
6.559649538225941
 40
1.204986845993434
 50
297.5481481757013
 51
422.4518518242982
 73
     1
 97
        4
330
2F9
330
2F8
330
2FA
330
2F7
 92
       16
 93
        4
 72
     2
 10
-72.13500159317408
 20
6.559649538225941
 40
0.6378510567600072
 50
321.8795802028405
 51
398.1204197971585
 73
     1
 72
     2
 10
-71.96992718297048
 20
6.68917943749906
 40
0.4280236140605955
 50
38.12041979715423
 51
141.8795802028552
 73
     1
 72
     2
 10
-71.8048527727671
 20
6.559649538225941
 40
0.6378510567599089
 50
141.8795802028351
 51
218.1204197971659
 73
     1
 72
     2
 10
-71.96992718297048
 20
6.43011963895326
 40
0.4280236140609641
 50
218.1204197971925
 51
321.8795802027982
 73
     1
 97
        4
330
315
330
312
330
313
330
314
 75
     1
 76
     0
 52
45.0
 41
0.1
 77
     0
 78
     1
 53
45.0
 43
0.0
 44
0.0
 45
-0.0707106781186548
 46
0.0707106781186548
 79
     0
 98
        1
 10
0.0
 20
0.0
  0
HATCH
  5
38F
330
74
100
AcDbEntity
  8
1
  6
Continuous
 62
     2
100
AcDbHatch
 10
0.0
 20
0.0
 30
0.0
210
0.0
220
0.0
230
1.0
  2
_USER
 70
     0
 71
     1
 91
        2
 92
        1
 93
        4
 72
     2
 10
-71.96992718297048
 20
6.114546223926119
 40
1.707008076205444
 50
62.45185182430569
 51
117.5481481756673
 73
     1
 72
     2
 10
-72.20210891175833
 20
6.559649538225941
 40
1.204986845992993
 50
117.5481481756635
 51
242.451851824337
 73
     1
 72
     2
 10
-71.96992718297048
 20
7.00475285252621
 40
1.70700807620544
 50
242.4518518243401
 51
297.548148175687
 73
     1
 72
     2
 10
-71.73774545418263
 20
6.559649538225941
 40
1.204986845993434
 50
297.5481481757013
 51
422.4518518242982
 73
     1
 97
        4
330
2F9
330
2F8
330
2FA
330
2F7
 92
       16
 93
        4
 72
     2
 10
-72.13500159317408
 20
6.559649538225941
 40
0.6378510567600072
 50
321.8795802028405
 51
398.1204197971585
 73
     1
 72
     2
 10
-71.96992718297048
 20
6.68917943749906
 40
0.4280236140605955
 50
38.12041979715423
 51
141.8795802028552
 73
     1
 72
     2
 10
-71.8048527727671
 20
6.559649538225941
 40
0.6378510567599089
 50
141.8795802028351
 51
218.1204197971659
 73
     1
 72
     2
 10
-71.96992718297048
 20
6.43011963895326
 40
0.4280236140609641
 50
218.1204197971925
 51
321.8795802027982
 73
     1
 97
        4
330
315
330
312
330
313
330
314
 75
     1
 76
     0
 52
45.0
 41
0.1
 77
     0
 78
     1
 53
45.0
 43
0.0
 44
0.0
 45
-0.0707106781186548
 46
0.0707106781186548
 79
     0
 98
        1
 10
0.0
 20
0.0
  0
HATCH
  5
390
330
74
100
AcDbEntity
  8
1
  6
Continuous
 62
     2
100
AcDbHatch
 10
0.0
 20
0.0
 30
0.0
210
0.0
220
0.0
230
1.0
  2
_USER
 70
     0
 71
     1
 91
        2
 92
        1
 93
       12
 72
     1
 10
-66.27158404709502
 20
10.02087402800879
 11
-67.37565663091954
 21
10.02087402800879
 72
     1
 10
-67.37565663091954
 20
10.02087402800879
 11
-67.37565663091954
 21
9.624275388552832
 72
     1
 10
-67.37565663091954
 20
9.624275388552832
 11
-66.27158404709502
 21
9.624275388552832
 72
     1
 10
-66.27158404709502
 20
9.624275388552832
 11
-66.27158404709502
 21
9.047404640253351
 72
     1
 10
-66.27158404709502
 20
9.047404640253351
 11
-67.37565663091954
 21
9.047404640253351
 72
     1
 10
-67.37565663091954
 20
9.047404640253351
 11
-67.37565663091954
 21
8.650806000797392
 72
     1
 10
-67.37565663091954
 20
8.650806000797392
 11
-66.27158404709502
 21
8.650806000797392
 72
     1
 10
-66.27158404709502
 20
8.650806000797392
 11
-66.27158404709502
 21
8.0739352524979
 72
     1
 10
-66.27158404709502
 20
8.0739352524979
 11
-68.87515406674873
 21
8.0739352524979
 72
     2
 10
-68.87515406674873
 20
9.33584001440309
 40
1.26190476190564
 50
90.0
 51
270.0
 73
     0
 72
     1
 10
-68.87515406674873
 20
10.59774477630873
 11
-66.27158404709502
 21
10.59774477630873
 72
     1
 10
-66.27158404709502
 20
10.59774477630873
 11
-66.27158404709502
 21
10.02087402800879
 97
       12
330
2BB
330
302
330
2BC
330
2BD
330
2BE
330
2BF
330
29C
330
29B
330
29A
330
299
330
2C0
330
2BA
 92
       16
 93
        4
 72
     2
 10
-68.69641686826509
 20
9.46536991367621
 40
0.4280236140606861
 50
38.12041979714503
 51
141.879580202855
 73
     1
 72
     2
 10
-68.5313424580616
 20
9.33584001440309
 40
0.6378510567600001
 50
141.8795802028413
 51
218.1204197971587
 73
     1
 72
     2
 10
-68.69641686826509
 20
9.20631011512996
 40
0.4280236140606795
 50
218.1204197971439
 51
321.8795802028561
 73
     1
 72
     2
 10
-68.86149127846858
 20
9.33584001440309
 40
0.6378510567600001
 50
321.8795802028413
 51
398.1204197971587
 73
     1
 97
        4
330
2FC
330
2FB
330
2F6
330
2F5
 75
     1
 76
     0
 52
45.0
 41
0.1
 77
     0
 78
     1
 53
45.0
 43
0.0
 44
0.0
 45
-0.0707106781186548
 46
0.0707106781186548
 79
     0
 98
        1
 10
0.0
 20
0.0
  0
HATCH
  5
391
330
74
100
AcDbEntity
  8
1
  6
Continuous
 62
     2
100
AcDbHatch
 10
0.0
 20
0.0
 30
0.0
210
0.0
220
0.0
230
1.0
  2
_USER
 70
     0
 71
     1
 91
        2
 92
        1
 93
       12
 72
     1
 10
-66.27158404709502
 20
10.02087402800879
 11
-67.37565663091954
 21
10.02087402800879
 72
     1
 10
-67.37565663091954
 20
10.02087402800879
 11
-67.37565663091954
 21
9.624275388552832
 72
     1
 10
-67.37565663091954
 20
9.624275388552832
 11
-66.27158404709502
 21
9.624275388552832
 72
     1
 10
-66.27158404709502
 20
9.624275388552832
 11
-66.27158404709502
 21
9.047404640253351
 72
     1
 10
-66.27158404709502
 20
9.047404640253351
 11
-67.37565663091954
 21
9.047404640253351
 72
     1
 10
-67.37565663091954
 20
9.047404640253351
 11
-67.37565663091954
 21
8.650806000797392
 72
     1
 10
-67.37565663091954
 20
8.650806000797392
 11
-66.27158404709502
 21
8.650806000797392
 72
     1
 10
-66.27158404709502
 20
8.650806000797392
 11
-66.27158404709502
 21
8.0739352524979
 72
     1
 10
-66.27158404709502
 20
8.0739352524979
 11
-68.87515406674873
 21
8.0739352524979
 72
     2
 10
-68.87515406674873
 20
9.33584001440309
 40
1.26190476190564
 50
90.0
 51
270.0
 73
     0
 72
     1
 10
-68.87515406674873
 20
10.59774477630873
 11
-66.27158404709502
 21
10.59774477630873
 72
     1
 10
-66.27158404709502
 20
10.59774477630873
 11
-66.27158404709502
 21
10.02087402800879
 97
       12
330
2BB
330
302
330
2BC
330
2BD
330
2BE
330
2BF
330
29C
330
29B
330
29A
330
299
330
2C0
330
2BA
 92
       16
 93
        4
 72
     2
 10
-68.69641686826509
 20
9.46536991367621
 40
0.4280236140606861
 50
38.12041979714503
 51
141.879580202855
 73
     1
 72
     2
 10
-68.5313424580616
 20
9.33584001440309
 40
0.6378510567600001
 50
141.8795802028413
 51
218.1204197971587
 73
     1
 72
     2
 10
-68.69641686826509
 20
9.20631011512996
 40
0.4280236140606795
 50
218.1204197971439
 51
321.8795802028561
 73
     1
 72
     2
 10
-68.86149127846858
 20
9.33584001440309
 40
0.6378510567600001
 50
321.8795802028413
 51
398.1204197971587
 73
     1
 97
        4
330
2FC
330
2FB
330
2F6
330
2F5
 75
     1
 76
     0
 52
45.0
 41
0.1
 77
     0
 78
     1
 53
45.0
 43
0.0
 44
0.0
 45
-0.0707106781186548
 46
0.0707106781186548
 79
     0
 98
        1
 10
0.0
 20
0.0
  0
HATCH
  5
392
330
74
100
AcDbEntity
  8
1
  6
Continuous
 62
     2
100
AcDbHatch
 10
0.0
 20
0.0
 30
0.0
210
0.0
220
0.0
230
1.0
  2
_USER
 70
     0
 71
     1
 91
        4
 92
        1
 93
        8
 72
     1
 10
-76.12937497409467
 20
10.247129391679
 11
-76.12937497409467
 21
5.648360160935031
 72
     2
 10
-76.47999035870947
 20
5.648360160935031
 40
0.3506153846142812
 50
0.0
 51
90.0
 73
     0
 72
     1
 10
-76.47999035870947
 20
5.29774477632075
 11
-81.00338878078952
 21
5.29774477632075
 72
     2
 10
-81.00338878078952
 20
5.648360160935031
 40
0.3506153846138886
 50
90.0
 51
180.0
 73
     0
 72
     1
 10
-81.35400416540341
 20
5.648360160935031
 11
-81.35400416540341
 21
10.247129391679
 72
     2
 10
-81.00338878078952
 20
10.247129391679
 40
0.3506153846147395
 50
180.0
 51
270.0
 73
     0
 72
     1
 10
-81.00338878078952
 20
10.59774477629374
 11
-76.47999035870947
 21
10.59774477629374
 72
     2
 10
-76.47999035870947
 20
10.247129391679
 40
0.3506153846147981
 50
270.0
 51
360.0
 73
     0
 97
        8
330
2AF
330
2F2
330
2B0
330
2FD
330
2AD
330
2F4
330
2AE
330
2F3
 92
       16
 93
        1
 72
     2
 10
-78.83844196217996
 20
8.33069779799676
 40
0.3892387874202541
 50
0.0
 51
360.0
 73
     1
 97
        1
330
318
 92
       16
 93
        8
 72
     2
 10
-78.38401410039427
 20
7.41405184760967
 40
0.2609230769227325
 50
115.3740086783589
 51
180.0
 73
     1
 72
     1
 10
-78.64493717731722
 20
7.41405184760967
 11
-78.64493717731722
 21
6.933182916456699
 72
     2
 10
-78.38401410039427
 20
6.933182916456699
 40
0.2609230769229498
 50
180.0
 51
269.8110329574465
 73
     1
 72
     2
 10
-78.3793726662538
 20
8.340484526017871
 40
1.668232340440702
 50
269.8110329575862
 51
450.1889670424138
 73
     1
 72
     2
 10
-78.38401410039427
 20
9.747786135579052
 40
0.2609230769224181
 50
90.18896704255353
 51
180.0
 73
     1
 72
     1
 10
-78.64493717731722
 20
9.747786135579052
 11
-78.64493717731722
 21
9.24734374838338
 72
     2
 10
-78.38401410039427
 20
9.24734374838338
 40
0.2609230769229498
 50
180.0
 51
244.6259913216399
 73
     1
 72
     2
 10
-78.8187601318719
 20
8.33069779799676
 40
0.7535935125160986
 50
295.3740086781929
 51
424.625991321822
 73
     0
 97
        8
330
30A
330
276
330
307
330
308
330
2E6
330
275
330
309
330
2E5
 92
       16
 93
       12
 72
     2
 10
-80.51256673389156
 20
6.147556742133659
 40
0.2609230769220403
 50
180.0
 51
270.0
 73
     1
 72
     1
 10
-80.51256673389156
 20
5.88663366521077
 11
-79.29286982396633
 21
5.88663366521077
 72
     2
 10
-79.29286982396633
 20
6.147556742133659
 40
0.2609230769228894
 50
270.0
 51
360.0
 73
     1
 72
     1
 10
-79.03194674704349
 20
6.147556742133659
 11
-79.03194674704349
 21
7.412656685548219
 72
     2
 10
-79.29286982396633
 20
7.412656685548219
 40
0.2609230769228361
 50
0.0
 51
64.8055893514401
 73
     1
 72
     2
 10
-78.86098185076384
 20
8.33069779799676
 40
0.7536343169897688
 50
115.1944106485086
 51
244.8055893514766
 73
     0
 72
     2
 10
-79.29286982396633
 20
9.248738910444839
 40
0.2609230769224065
 50
295.1944106485601
 51
360.0
 73
     1
 72
     1
 10
-79.03194674704349
 20
9.248738910444839
 11
-79.03194674704349
 21
9.747932810494898
 72
     2
 10
-79.29286982396633
 20
9.747932810494898
 40
0.2609230769228361
 50
0.0
 51
90.0
 73
     1
 72
     1
 10
-79.29286982396633
 20
10.00885588741735
 11
-80.51256673389156
 21
10.00885588741735
 72
     2
 10
-80.51256673389156
 20
9.747932810494898
 40
0.2609230769224524
 50
90.0
 51
180.0
 73
     1
 72
     1
 10
-80.7734898108136
 20
9.747932810494898
 11
-80.7734898108136
 21
6.147556742133659
 97
       12
330
2EE
330
2B1
330
2F1
330
2AC
330
2FE
330
2FF
330
2F0
330
2AB
330
2EF
330
2AA
330
300
330
2A9
 75
     1
 76
     0
 52
45.0
 41
0.1
 77
     0
 78
     1
 53
45.0
 43
0.0
 44
0.0
 45
-0.0707106781186548
 46
0.0707106781186548
 79
     0
 98
        1
 10
0.0
 20
0.0
  0
HATCH
  5
393
330
74
100
AcDbEntity
  8
1
  6
Continuous
 62
     2
100
AcDbHatch
 10
0.0
 20
0.0
 30
0.0
210
0.0
220
0.0
230
1.0
  2
_USER
 70
     0
 71
     1
 91
        4
 92
        1
 93
        8
 72
     1
 10
-76.12937497409467
 20
10.247129391679
 11
-76.12937497409467
 21
5.648360160935031
 72
     2
 10
-76.47999035870947
 20
5.648360160935031
 40
0.3506153846142812
 50
0.0
 51
90.0
 73
     0
 72
     1
 10
-76.47999035870947
 20
5.29774477632075
 11
-81.00338878078952
 21
5.29774477632075
 72
     2
 10
-81.00338878078952
 20
5.648360160935031
 40
0.3506153846138886
 50
90.0
 51
180.0
 73
     0
 72
     1
 10
-81.35400416540341
 20
5.648360160935031
 11
-81.35400416540341
 21
10.247129391679
 72
     2
 10
-81.00338878078952
 20
10.247129391679
 40
0.3506153846147395
 50
180.0
 51
270.0
 73
     0
 72
     1
 10
-81.00338878078952
 20
10.59774477629374
 11
-76.47999035870947
 21
10.59774477629374
 72
     2
 10
-76.47999035870947
 20
10.247129391679
 40
0.3506153846147981
 50
270.0
 51
360.0
 73
     0
 97
        8
330
2AF
330
2F2
330
2B0
330
2FD
330
2AD
330
2F4
330
2AE
330
2F3
 92
       16
 93
        1
 72
     2
 10
-78.83844196217996
 20
8.33069779799676
 40
0.3892387874202541
 50
0.0
 51
360.0
 73
     1
 97
        1
330
318
 92
       16
 93
        8
 72
     2
 10
-78.38401410039427
 20
7.41405184760967
 40
0.2609230769227325
 50
115.3740086783589
 51
180.0
 73
     1
 72
     1
 10
-78.64493717731722
 20
7.41405184760967
 11
-78.64493717731722
 21
6.933182916456699
 72
     2
 10
-78.38401410039427
 20
6.933182916456699
 40
0.2609230769229498
 50
180.0
 51
269.8110329574465
 73
     1
 72
     2
 10
-78.3793726662538
 20
8.340484526017871
 40
1.668232340440702
 50
269.8110329575862
 51
450.1889670424138
 73
     1
 72
     2
 10
-78.38401410039427
 20
9.747786135579052
 40
0.2609230769224181
 50
90.18896704255353
 51
180.0
 73
     1
 72
     1
 10
-78.64493717731722
 20
9.747786135579052
 11
-78.64493717731722
 21
9.24734374838338
 72
     2
 10
-78.38401410039427
 20
9.24734374838338
 40
0.2609230769229498
 50
180.0
 51
244.6259913216399
 73
     1
 72
     2
 10
-78.8187601318719
 20
8.33069779799676
 40
0.7535935125160986
 50
295.3740086781929
 51
424.625991321822
 73
     0
 97
        8
330
30A
330
276
330
307
330
308
330
2E6
330
275
330
309
330
2E5
 92
       16
 93
       12
 72
     2
 10
-80.51256673389156
 20
6.147556742133659
 40
0.2609230769220403
 50
180.0
 51
270.0
 73
     1
 72
     1
 10
-80.51256673389156
 20
5.88663366521077
 11
-79.29286982396633
 21
5.88663366521077
 72
     2
 10
-79.29286982396633
 20
6.147556742133659
 40
0.2609230769228894
 50
270.0
 51
360.0
 73
     1
 72
     1
 10
-79.03194674704349
 20
6.147556742133659
 11
-79.03194674704349
 21
7.412656685548219
 72
     2
 10
-79.29286982396633
 20
7.412656685548219
 40
0.2609230769228361
 50
0.0
 51
64.8055893514401
 73
     1
 72
     2
 10
-78.86098185076384
 20
8.33069779799676
 40
0.7536343169897688
 50
115.1944106485086
 51
244.8055893514766
 73
     0
 72
     2
 10
-79.29286982396633
 20
9.248738910444839
 40
0.2609230769224065
 50
295.1944106485601
 51
360.0
 73
     1
 72
     1
 10
-79.03194674704349
 20
9.248738910444839
 11
-79.03194674704349
 21
9.747932810494898
 72
     2
 10
-79.29286982396633
 20
9.747932810494898
 40
0.2609230769228361
 50
0.0
 51
90.0
 73
     1
 72
     1
 10
-79.29286982396633
 20
10.00885588741735
 11
-80.51256673389156
 21
10.00885588741735
 72
     2
 10
-80.51256673389156
 20
9.747932810494898
 40
0.2609230769224524
 50
90.0
 51
180.0
 73
     1
 72
     1
 10
-80.7734898108136
 20
9.747932810494898
 11
-80.7734898108136
 21
6.147556742133659
 97
       12
330
2EE
330
2B1
330
2F1
330
2AC
330
2FE
330
2FF
330
2F0
330
2AB
330
2EF
330
2AA
330
300
330
2A9
 75
     1
 76
     0
 52
45.0
 41
0.1
 77
     0
 78
     1
 53
45.0
 43
0.0
 44
0.0
 45
-0.0707106781186548
 46
0.0707106781186548
 79
     0
 98
        1
 10
0.0
 20
0.0
  0
HATCH
  5
394
330
74
100
AcDbEntity
  8
1
  6
Continuous
 62
     2
100
AcDbHatch
 10
0.0
 20
0.0
 30
0.0
210
0.0
220
0.0
230
1.0
  2
_USER
 70
     0
 71
     1
 91
        1
 92
        1
 93
       18
 72
     1
 10
-58.28677339622612
 20
7.17257470829386
 11
-58.95710317926199
 21
7.17257470829386
 72
     1
 10
-58.95710317926199
 20
7.17257470829386
 11
-58.95710317926199
 21
5.29774477632075
 72
     1
 10
-58.95710317926199
 20
5.29774477632075
 11
-59.94288227196256
 21
5.29774477632075
 72
     1
 10
-59.94288227196256
 20
5.29774477632075
 11
-59.94288227196256
 21
7.17257470829386
 72
     1
 10
-59.94288227196256
 20
7.17257470829386
 11
-60.85498086664694
 21
7.17257470829386
 72
     2
 10
-60.85498086664694
 20
6.383712719181419
 40
0.7888619891124407
 50
90.0
 51
109.3371432194314
 73
     1
 72
     2
 10
-60.9761957411128
 20
6.72913005834085
 40
0.4227934381772285
 50
109.3371432194869
 51
151.4785267424228
 73
     1
 72
     2
 10
-60.66433023856615
 20
6.559649538225941
 40
0.7777353184586693
 50
151.478526742362
 51
208.5214732576685
 73
     1
 72
     2
 10
-60.9761957411128
 20
6.390169018111481
 40
0.4227934381785597
 50
208.5214732576867
 51
246.6277221118393
 73
     1
 72
     2
 10
-60.84690645788709
 20
6.68933597572306
 40
0.7487023016406982
 50
246.627722111815
 51
288.4480761180801
 73
     1
 72
     2
 10
-61.19249962620273
 20
7.72532422038142
 40
1.840813230556003
 50
288.4480761181333
 51
301.9309089499384
 73
     1
 72
     1
 10
-60.21890041791852
 20
6.163050898769971
 11
-60.21890041791852
 21
5.441962463395401
 72
     2
 10
-61.32297307669268
 20
9.29740238554529
 40
4.010410630990745
 50
74.02000874166099
 51
84.841855230363
 73
     0
 72
     2
 10
-61.08424903145641
 20
6.65286471346133
 40
1.355119937140908
 50
84.84185523032427
 51
164.9381082228994
 73
     0
 72
     2
 10
-61.43063567894541
 20
6.559649538225941
 40
0.9964100565231088
 50
164.9381082229042
 51
195.0618917770946
 73
     0
 72
     2
 10
-61.08424903145641
 20
6.46643436299053
 40
1.355119937140591
 50
195.0618917771006
 51
270.0
 73
     0
 72
     1
 10
-61.08424903145641
 20
7.821554300131121
 11
-58.28677339622612
 21
7.821554300131581
 72
     1
 10
-58.28677339622612
 20
7.821554300131581
 11
-58.28677339622612
 21
7.17257470829386
 97
       18
330
278
330
303
330
304
330
2EC
330
2EB
330
2DC
330
2EA
330
2E9
330
305
330
2E8
330
306
330
2E7
330
2DD
330
277
330
27C
330
27B
330
27A
330
279
 75
     1
 76
     0
 52
45.0
 41
0.1
 77
     0
 78
     1
 53
45.0
 43
0.0
 44
0.0
 45
-0.0707106781186548
 46
0.0707106781186548
 79
     0
 98
        1
 10
0.0
 20
0.0
  0
HATCH
  5
395
330
74
100
AcDbEntity
  8
1
  6
Continuous
 62
     2
100
AcDbHatch
 10
0.0
 20
0.0
 30
0.0
210
0.0
220
0.0
230
1.0
  2
_USER
 70
     0
 71
     1
 91
        1
 92
        1
 93
       18
 72
     1
 10
-58.28677339622612
 20
7.17257470829386
 11
-58.95710317926199
 21
7.17257470829386
 72
     1
 10
-58.95710317926199
 20
7.17257470829386
 11
-58.95710317926199
 21
5.29774477632075
 72
     1
 10
-58.95710317926199
 20
5.29774477632075
 11
-59.94288227196256
 21
5.29774477632075
 72
     1
 10
-59.94288227196256
 20
5.29774477632075
 11
-59.94288227196256
 21
7.17257470829386
 72
     1
 10
-59.94288227196256
 20
7.17257470829386
 11
-60.85498086664694
 21
7.17257470829386
 72
     2
 10
-60.85498086664694
 20
6.383712719181419
 40
0.7888619891124407
 50
90.0
 51
109.3371432194314
 73
     1
 72
     2
 10
-60.9761957411128
 20
6.72913005834085
 40
0.4227934381772285
 50
109.3371432194869
 51
151.4785267424228
 73
     1
 72
     2
 10
-60.66433023856615
 20
6.559649538225941
 40
0.7777353184586693
 50
151.478526742362
 51
208.5214732576685
 73
     1
 72
     2
 10
-60.9761957411128
 20
6.390169018111481
 40
0.4227934381785597
 50
208.5214732576867
 51
246.6277221118393
 73
     1
 72
     2
 10
-60.84690645788709
 20
6.68933597572306
 40
0.7487023016406982
 50
246.627722111815
 51
288.4480761180801
 73
     1
 72
     2
 10
-61.19249962620273
 20
7.72532422038142
 40
1.840813230556003
 50
288.4480761181333
 51
301.9309089499384
 73
     1
 72
     1
 10
-60.21890041791852
 20
6.163050898769971
 11
-60.21890041791852
 21
5.441962463395401
 72
     2
 10
-61.32297307669268
 20
9.29740238554529
 40
4.010410630990745
 50
74.02000874166099
 51
84.841855230363
 73
     0
 72
     2
 10
-61.08424903145641
 20
6.65286471346133
 40
1.355119937140908
 50
84.84185523032427
 51
164.9381082228994
 73
     0
 72
     2
 10
-61.43063567894541
 20
6.559649538225941
 40
0.9964100565231088
 50
164.9381082229042
 51
195.0618917770946
 73
     0
 72
     2
 10
-61.08424903145641
 20
6.46643436299053
 40
1.355119937140591
 50
195.0618917771006
 51
270.0
 73
     0
 72
     1
 10
-61.08424903145641
 20
7.821554300131121
 11
-58.28677339622612
 21
7.821554300131581
 72
     1
 10
-58.28677339622612
 20
7.821554300131581
 11
-58.28677339622612
 21
7.17257470829386
 97
       18
330
278
330
303
330
304
330
2EC
330
2EB
330
2DC
330
2EA
330
2E9
330
305
330
2E8
330
306
330
2E7
330
2DD
330
277
330
27C
330
27B
330
27A
330
279
 75
     1
 76
     0
 52
45.0
 41
0.1
 77
     0
 78
     1
 53
45.0
 43
0.0
 44
0.0
 45
-0.0707106781186548
 46
0.0707106781186548
 79
     0
 98
        1
 10
0.0
 20
0.0
  0
HATCH
  5
396
330
74
100
AcDbEntity
  8
1
  6
Continuous
 62
     2
100
AcDbHatch
 10
0.0
 20
0.0
 30
0.0
210
0.0
220
0.0
230
1.0
  2
_USER
 70
     0
 71
     1
 91
        1
 92
        1
 93
       14
 72
     2
 10
-74.3922667829051
 20
6.46643436299053
 40
1.355119937140908
 50
84.84185523036265
 51
164.9381082228906
 73
     1
 72
     2
 10
-74.738653430395
 20
6.559649538225941
 40
0.996410056521462
 50
164.93810822288
 51
195.0618917770962
 73
     1
 72
     2
 10
-74.3922667829051
 20
6.65286471346133
 40
1.355119937140022
 50
195.0618917770909
 51
275.1581447696391
 73
     1
 72
     2
 10
-74.63099082814136
 20
9.29740238554529
 40
4.010410630990213
 50
275.1581447696246
 51
285.9799912583532
 73
     1
 72
     1
 10
-73.5269181693663
 20
5.441962463395839
 11
-73.5269181693663
 21
6.163050898770431
 72
     2
 10
-74.50051737765142
 20
7.72532422038188
 40
1.840813230556011
 50
58.0690910500376
 51
71.55192388186683
 73
     0
 72
     2
 10
-74.15492420933668
 20
6.68933597572306
 40
0.7487023016403824
 50
71.55192388184295
 51
113.3722778881291
 73
     0
 72
     2
 10
-74.28421349256149
 20
6.390169018111481
 40
0.4227934381775284
 50
113.372277888174
 51
151.4785267423083
 73
     0
 72
     2
 10
-73.97234799001575
 20
6.559649538225941
 40
0.777735318457279
 50
151.478526742297
 51
208.5214732577312
 73
     0
 72
     2
 10
-74.28421349256149
 20
6.72913005834085
 40
0.4227934381775693
 50
208.5214732576904
 51
246.6277221118017
 73
     0
 72
     2
 10
-74.15492420933668
 20
6.4299631007288
 40
0.7487023016407717
 50
246.6277221118715
 51
288.4480761181457
 73
     0
 72
     2
 10
-74.50051737765142
 20
5.39397485607044
 40
1.840813230556616
 50
288.4480761181331
 51
301.9309089499624
 73
     0
 72
     1
 10
-73.5269181693663
 20
6.956248177681889
 11
-73.5269181693663
 21
7.677336613056481
 72
     2
 10
-74.63099082814136
 20
3.821896690907041
 40
4.010410630990089
 50
74.02000874164679
 51
84.84185523037543
 73
     1
 97
       14
330
30B
330
30C
330
30D
330
30E
330
2DE
330
2E4
330
2E3
330
2E2
330
30F
330
310
330
2E1
330
311
330
2DF
330
2E0
 75
     1
 76
     0
 52
45.0
 41
0.1
 77
     0
 78
     1
 53
45.0
 43
0.0
 44
0.0
 45
-0.0707106781186548
 46
0.0707106781186548
 79
     0
 98
        1
 10
0.0
 20
0.0
  0
HATCH
  5
397
330
74
100
AcDbEntity
  8
1
  6
Continuous
 62
     2
100
AcDbHatch
 10
0.0
 20
0.0
 30
0.0
210
0.0
220
0.0
230
1.0
  2
_USER
 70
     0
 71
     1
 91
        1
 92
        1
 93
       14
 72
     2
 10
-74.3922667829051
 20
6.46643436299053
 40
1.355119937140908
 50
84.84185523036265
 51
164.9381082228906
 73
     1
 72
     2
 10
-74.738653430395
 20
6.559649538225941
 40
0.996410056521462
 50
164.93810822288
 51
195.0618917770962
 73
     1
 72
     2
 10
-74.3922667829051
 20
6.65286471346133
 40
1.355119937140022
 50
195.0618917770909
 51
275.1581447696391
 73
     1
 72
     2
 10
-74.63099082814136
 20
9.29740238554529
 40
4.010410630990213
 50
275.1581447696246
 51
285.9799912583532
 73
     1
 72
     1
 10
-73.5269181693663
 20
5.441962463395839
 11
-73.5269181693663
 21
6.163050898770431
 72
     2
 10
-74.50051737765142
 20
7.72532422038188
 40
1.840813230556011
 50
58.0690910500376
 51
71.55192388186683
 73
     0
 72
     2
 10
-74.15492420933668
 20
6.68933597572306
 40
0.7487023016403824
 50
71.55192388184295
 51
113.3722778881291
 73
     0
 72
     2
 10
-74.28421349256149
 20
6.390169018111481
 40
0.4227934381775284
 50
113.372277888174
 51
151.4785267423083
 73
     0
 72
     2
 10
-73.97234799001575
 20
6.559649538225941
 40
0.777735318457279
 50
151.478526742297
 51
208.5214732577312
 73
     0
 72
     2
 10
-74.28421349256149
 20
6.72913005834085
 40
0.4227934381775693
 50
208.5214732576904
 51
246.6277221118017
 73
     0
 72
     2
 10
-74.15492420933668
 20
6.4299631007288
 40
0.7487023016407717
 50
246.6277221118715
 51
288.4480761181457
 73
     0
 72
     2
 10
-74.50051737765142
 20
5.39397485607044
 40
1.840813230556616
 50
288.4480761181331
 51
301.9309089499624
 73
     0
 72
     1
 10
-73.5269181693663
 20
6.956248177681889
 11
-73.5269181693663
 21
7.677336613056481
 72
     2
 10
-74.63099082814136
 20
3.821896690907041
 40
4.010410630990089
 50
74.02000874164679
 51
84.84185523037543
 73
     1
 97
       14
330
30B
330
30C
330
30D
330
30E
330
2DE
330
2E4
330
2E3
330
2E2
330
30F
330
310
330
2E1
330
311
330
2DF
330
2E0
 75
     1
 76
     0
 52
45.0
 41
0.1
 77
     0
 78
     1
 53
45.0
 43
0.0
 44
0.0
 45
-0.0707106781186548
 46
0.0707106781186548
 79
     0
 98
        1
 10
0.0
 20
0.0
  0
ENDBLK
  5
76
330
74
100
AcDbEntity
  8
0
100
AcDbBlockEnd
  0
BLOCK
  5
7A
330
77
100
AcDbEntity
  8
0
100
AcDbBlockBegin
  2
A4I
 70
     0
 10
41.53075500055104
 20
-5.55225522368521
 30
0.0
  3
A4I
  1

  0
INSERT
  5
78
330
77
100
AcDbEntity
  8
1
100
AcDbBlockReference
  2
_punkt
 10
41.53075500055104
 20
-0.5522552236851
 30
0.0
  0
INSERT
  5
79
330
77
100
AcDbEntity
  8
1
100
AcDbBlockReference
  2
_rahmen
 10
41.53075500055104
 20
-5.55225522368521
 30
0.0
  0
ENDBLK
  5
7B
330
77
100
AcDbEntity
  8
0
100
AcDbBlockEnd
  0
BLOCK
  5
149
330
140
100
AcDbEntity
  8
0
100
AcDbBlockBegin
  2
*D16
 70
     1
 10
0.0
 20
0.0
 30
0.0
  3
*D16
  1

  0
LINE
  5
141
330
140
100
AcDbEntity
  8
1
  6
Continuous
 62
     2
100
AcDbLine
 10
-231.9000000949324
 20
106.5215999999701
 30
0.0
 11
-238.9000000949324
 21
106.5215999999701
 31
0.0
  0
LINE
  5
142
330
140
100
AcDbEntity
  8
1
  6
Continuous
 62
     2
100
AcDbLine
 10
-224.1000000949324
 20
106.5215999999701
 30
0.0
 11
-231.9000000949324
 21
106.5215999999701
 31
0.0
  0
LINE
  5
143
330
140
100
AcDbEntity
  8
1
  6
Continuous
 62
     2
100
AcDbLine
 10
-217.1000000949324
 20
106.5215999999701
 30
0.0
 11
-224.1000000949324
 21
106.5215999999701
 31
0.0
  0
LINE
  5
144
330
140
100
AcDbEntity
  8
1
  6
Continuous
 62
     2
100
AcDbLine
 10
-231.9000000949324
 20
118.2499999999701
 30
0.0
 11
-231.9000000949324
 21
104.5215999999701
 31
0.0
  0
LINE
  5
145
330
140
100
AcDbEntity
  8
1
  6
Continuous
 62
     2
100
AcDbLine
 10
-224.1000000949324
 20
116.5215999999701
 30
0.0
 11
-224.1000000949324
 21
104.5215999999701
 31
0.0
  0
SOLID
  5
146
330
140
100
AcDbEntity
  8
1
 62
     2
100
AcDbTrace
 10
-220.6000000949324
 20
106.982383741526
 30
0.0
 11
-220.6000000949324
 21
106.0608162584142
 31
0.0
 12
-224.1000000949324
 22
106.5215999999701
 32
0.0
 13
-224.1000000949324
 23
106.5215999999701
 33
0.0
  0
SOLID
  5
147
330
140
100
AcDbEntity
  8
1
 62
     2
100
AcDbTrace
 10
-235.4000000949324
 20
106.0608162584142
 30
0.0
 11
-235.4000000949324
 21
106.982383741526
 31
0.0
 12
-231.9000000949324
 22
106.5215999999701
 32
0.0
 13
-231.9000000949324
 23
106.5215999999701
 33
0.0
  0
MTEXT
  5
148
330
140
100
AcDbEntity
  8
1
 62
     3
100
AcDbMText
 10
-231.2375000949324
 20
108.8715999999701
 30
0.0
 40
3.5
 41
0.0
 71
     7
 72
     1
  1
7,8
  7
CONVERTER_11
 11
0.9999999999970619
 21
2.424068405545306E-6
 31
0.0
 73
     1
 44
0.60024009603842
  0
ENDBLK
  5
14A
330
140
100
AcDbEntity
  8
0
100
AcDbBlockEnd
  0
BLOCK
  5
18D
330
186
100
AcDbEntity
  8
0
100
AcDbBlockBegin
  2
*D17
 70
     1
 10
0.0
 20
0.0
 30
0.0
  3
*D17
  1

  0
LINE
  5
187
330
186
100
AcDbEntity
  8
1
  6
Continuous
 62
     2
100
AcDbLine
 10
-99.1215983125746
 20
116.5215999999751
 30
0.0
 11
-99.1215983125746
 21
171.4783999999751
 31
0.0
  0
LINE
  5
188
330
186
100
AcDbEntity
  8
1
  6
Continuous
 62
     2
100
AcDbLine
 10
-114.8499983125747
 20
171.4783999999751
 30
0.0
 11
-97.1215983125746
 21
171.4783999999751
 31
0.0
  0
LINE
  5
189
330
186
100
AcDbEntity
  8
1
  6
Continuous
 62
     2
100
AcDbLine
 10
-114.8499983125747
 20
116.5215999999751
 30
0.0
 11
-97.1215983125746
 21
116.5215999999751
 31
0.0
  0
SOLID
  5
18A
330
186
100
AcDbEntity
  8
1
 62
     2
100
AcDbTrace
 10
-99.58238205413049
 20
120.0215999999751
 30
0.0
 11
-98.66081457101872
 21
120.0215999999751
 31
0.0
 12
-99.1215983125746
 22
116.5215999999751
 32
0.0
 13
-99.1215983125746
 23
116.5215999999751
 33
0.0
  0
SOLID
  5
18B
330
186
100
AcDbEntity
  8
1
 62
     2
100
AcDbTrace
 10
-98.66081457101872
 20
167.9783999999751
 30
0.0
 11
-99.58238205413049
 21
167.9783999999751
 31
0.0
 12
-99.1215983125746
 22
171.4783999999751
 32
0.0
 13
-99.1215983125746
 23
171.4783999999751
 33
0.0
  0
MTEXT
  5
18C
330
186
100
AcDbEntity
  8
1
 62
     3
100
AcDbMText
 10
-101.1215983125746
 20
141.3749999999751
 30
0.0
 40
3.5
 41
0.0
 71
     7
 72
     1
  1
55
  7
CONVERTER_11
 11
0.0
 21
1.0
 31
0.0
 73
     1
 44
0.60024009603842
  0
ENDBLK
  5
18E
330
186
100
AcDbEntity
  8
0
100
AcDbBlockEnd
  0
BLOCK
  5
198
330
191
100
AcDbEntity
  8
0
100
AcDbBlockBegin
  2
*D18
 70
     1
 10
0.0
 20
0.0
 30
0.0
  3
*D18
  1

  0
LINE
  5
192
330
191
100
AcDbEntity
  8
1
  6
Continuous
 62
     2
100
AcDbLine
 10
-211.5783983125748
 20
106.5215999999751
 30
0.0
 11
-109.1215983125746
 21
106.5215999999751
 31
0.0
  0
LINE
  5
193
330
191
100
AcDbEntity
  8
1
  6
Continuous
 62
     2
100
AcDbLine
 10
-109.1215983125746
 20
122.2499999999751
 30
0.0
 11
-109.1215983125746
 21
104.5215999999751
 31
0.0
  0
LINE
  5
194
330
191
100
AcDbEntity
  8
1
  6
Continuous
 62
     2
100
AcDbLine
 10
-211.5783983125748
 20
122.2499999999751
 30
0.0
 11
-211.5783983125748
 21
104.5215999999751
 31
0.0
  0
SOLID
  5
195
330
191
100
AcDbEntity
  8
1
 62
     2
100
AcDbTrace
 10
-208.0783983125748
 20
106.982383741531
 30
0.0
 11
-208.0783983125748
 21
106.0608162584192
 31
0.0
 12
-211.5783983125748
 22
106.5215999999751
 32
0.0
 13
-211.5783983125748
 23
106.5215999999751
 33
0.0
  0
SOLID
  5
196
330
191
100
AcDbEntity
  8
1
 62
     2
100
AcDbTrace
 10
-112.6215983125746
 20
106.0608162584192
 30
0.0
 11
-112.6215983125746
 21
106.982383741531
 31
0.0
 12
-109.1215983125746
 22
106.5215999999751
 32
0.0
 13
-109.1215983125746
 23
106.5215999999751
 33
0.0
  0
MTEXT
  5
197
330
191
100
AcDbEntity
  8
1
 62
     3
100
AcDbMText
 10
-166.2124983125747
 20
108.8715999999751
 30
0.0
 40
3.5
 41
0.0
 71
     7
 72
     1
  1
102,5
  7
CONVERTER_11
 11
0.9999999999970619
 21
2.424068405545306E-6
 31
0.0
 73
     1
 44
0.60024009603842
  0
ENDBLK
  5
199
330
191
100
AcDbEntity
  8
0
100
AcDbBlockEnd
  0
ENDSEC
  0
SECTION
  2
ENTITIES
  0
INSERT
  5
7C
330
1F
100
AcDbEntity
  8
0
100
AcDbBlockReference
  2
Drfsicht1
 10
-160.3715979999996
 20
91.590946
 30
0.0
  0
INSERT
  5
7D
330
1F
100
AcDbEntity
  8
0
100
AcDbBlockReference
  2
Rckans1
 10
-18.197647
 20
144.0
 30
0.0
  0
INSERT
  5
7E
330
1F
100
AcDbEntity
  8
0
100
AcDbBlockReference
  2
SA_Links1
 10
-83.82604746319697
 20
144.0000004995665
 30
0.0
  0
INSERT
  5
7F
330
1F
100
AcDbEntity
  8
0
100
AcDbBlockReference
  2
Allg1
 10
-23.99999999999855
 20
66.0
 30
0.0
  0
INSERT
  5
80
330
1F
100
AcDbEntity
  8
0
100
AcDbBlockReference
  2
SA_Rechts1
 10
-227.99999999978
 20
143.999999999985
 30
0.0
  0
INSERT
  5
81
330
1F
100
AcDbEntity
  8
0
100
AcDbBlockReference
  2
Vordans1
 10
-160.3715983125895
 20
143.99999999999
 30
0.0
  0
INSERT
  5
82
330
1F
100
AcDbEntity
  8
0
100
AcDbBlockReference
  2
A4I
 10
41.53075500055104
 20
-5.55225522368521
 30
0.0
  0
ENDSEC
  0
SECTION
  2
OBJECTS
  0
DICTIONARY
  5
C
330
0
100
AcDbDictionary
281
     1
  3
ACAD_GROUP
350
D
  3
ACAD_LAYOUT
350
1A
  3
ACAD_MATERIAL
350
3B
  3
ACAD_MLEADERSTYLE
350
39A
  3
ACAD_MLINESTYLE
350
17
  3
ACAD_PLOTSETTINGS
350
19
  3
ACAD_PLOTSTYLENAME
350
E
  3
ACAD_VISUALSTYLE
350
2A
  3
AcDbVariableDictionary
350
398
  0
DICTIONARY
  5
D
102
{ACAD_REACTORS
330
C
102
}
330
C
100
AcDbDictionary
281
     1
  0
DICTIONARY
  5
1A
102
{ACAD_REACTORS
330
C
102
}
330
C
100
AcDbDictionary
281
     1
  3
Layout1
350
1E
  3
Layout2
350
26
  3
Model
350
22
  0
DICTIONARY
  5
3B
102
{ACAD_REACTORS
330
C
102
}
330
C
100
AcDbDictionary
281
     1
  3
ByBlock
350
3D
  3
ByLayer
350
3C
  3
Global
350
3E
  0
DICTIONARY
  5
39A
102
{ACAD_REACTORS
330
C
102
}
330
C
100
AcDbDictionary
281
     1
  0
DICTIONARY
  5
17
102
{ACAD_REACTORS
330
C
102
}
330
C
100
AcDbDictionary
281
     1
  3
Standard
350
18
  0
DICTIONARY
  5
19
102
{ACAD_REACTORS
330
C
102
}
330
C
100
AcDbDictionary
281
     1
  0
ACDBDICTIONARYWDFLT
  5
E
102
{ACAD_REACTORS
330
C
102
}
330
C
100
AcDbDictionary
281
     1
  3
Normal
350
F
100
AcDbDictionaryWithDefault
340
F
  0
DICTIONARY
  5
2A
102
{ACAD_REACTORS
330
C
102
}
330
C
100
AcDbDictionary
281
     1
  3
2dWireframe
350
2F
  3
3D Hidden
350
31
  3
3dWireframe
350
30
  3
Basic
350
32
  3
Brighten
350
36
  3
ColorChange
350
3A
  3
Conceptual
350
34
  3
Dim
350
35
  3
Facepattern
350
39
  3
Flat
350
2B
  3
FlatWithEdges
350
2C
  3
Gouraud
350
2D
  3
GouraudWithEdges
350
2E
  3
Linepattern
350
38
  3
Realistic
350
33
  3
Thicken
350
37
  0
DICTIONARY
  5
398
102
{ACAD_REACTORS
330
C
102
}
330
C
100
AcDbDictionary
281
     1
  3
DIMASSOC
350
39B
  3
HIDETEXT
350
39C
  0
LAYOUT
  5
1E
102
{ACAD_REACTORS
330
1A
102
}
330
1A
100
AcDbPlotSettings
  1

  2
none_device
  4

  6

 40
0.0
 41
0.0
 42
0.0
 43
0.0
 44
0.0
 45
0.0
 46
0.0
 47
0.0
 48
0.0
 49
0.0
140
0.0
141
0.0
142
1.0
143
1.0
 70
   688
 72
     0
 73
     0
 74
     5
  7

 75
    16
147
1.0
148
0.0
149
0.0
100
AcDbLayout
  1
Layout1
 70
     1
 71
     1
 10
0.0
 20
0.0
 11
12.0
 21
9.0
 12
0.0
 22
0.0
 32
0.0
 14
1.00000000000000E+20
 24
1.00000000000000E+20
 34
1.00000000000000E+20
 15
-1.00000000000000E+20
 25
-1.00000000000000E+20
 35
-1.00000000000000E+20
146
0.0
 13
0.0
 23
0.0
 33
0.0
 16
1.0
 26
0.0
 36
0.0
 17
0.0
 27
1.0
 37
0.0
 76
     0
330
1B
  0
LAYOUT
  5
26
102
{ACAD_REACTORS
330
1A
102
}
330
1A
100
AcDbPlotSettings
  1

  2
none_device
  4

  6

 40
0.0
 41
0.0
 42
0.0
 43
0.0
 44
0.0
 45
0.0
 46
0.0
 47
0.0
 48
0.0
 49
0.0
140
0.0
141
0.0
142
1.0
143
1.0
 70
   688
 72
     0
 73
     0
 74
     5
  7

 75
    16
147
1.0
148
0.0
149
0.0
100
AcDbLayout
  1
Layout2
 70
     1
 71
     2
 10
0.0
 20
0.0
 11
0.0
 21
0.0
 12
0.0
 22
0.0
 32
0.0
 14
0.0
 24
0.0
 34
0.0
 15
0.0
 25
0.0
 35
0.0
146
0.0
 13
0.0
 23
0.0
 33
0.0
 16
1.0
 26
0.0
 36
0.0
 17
0.0
 27
1.0
 37
0.0
 76
     0
330
23
  0
LAYOUT
  5
22
102
{ACAD_REACTORS
330
1A
102
}
330
1A
100
AcDbPlotSettings
  1

  2
none_device
  4

  6

 40
0.0
 41
0.0
 42
0.0
 43
0.0
 44
0.0
 45
0.0
 46
0.0
 47
0.0
 48
0.0
 49
0.0
140
0.0
141
0.0
142
1.0
143
1.0
 70
  1712
 72
     0
 73
     0
 74
     0
  7

 75
     0
147
1.0
148
0.0
149
0.0
100
AcDbLayout
  1
Model
 70
     1
 71
     0
 10
0.0
 20
0.0
 11
12.0
 21
9.0
 12
0.0
 22
0.0
 32
0.0
 14
-250.4692449994481
 24
-5.55225522368521
 34
0.0
 15
46.53075500055005
 25
204.4477447763148
 35
0.0
146
0.0
 13
0.0
 23
0.0
 33
0.0
 16
1.0
 26
0.0
 36
0.0
 17
0.0
 27
1.0
 37
0.0
 76
     0
330
1F
331
29
  0
MATERIAL
  5
3D
102
{ACAD_REACTORS
330
3B
102
}
102
{ACAD_XDICTIONARY
360
3BF
102
}
330
3B
100
AcDbMaterial
  1
ByBlock
  0
MATERIAL
  5
3C
102
{ACAD_REACTORS
330
3B
102
}
102
{ACAD_XDICTIONARY
360
3BD
102
}
330
3B
100
AcDbMaterial
  1
ByLayer
  0
MATERIAL
  5
3E
102
{ACAD_REACTORS
330
3B
102
}
102
{ACAD_XDICTIONARY
360
3C1
102
}
330
3B
100
AcDbMaterial
  1
Global
  0
MLINESTYLE
  5
18
102
{ACAD_REACTORS
330
17
102
}
330
17
100
AcDbMlineStyle
  2
Standard
 70
     0
  3

 62
   256
 51
90.0
 52
90.0
 71
     2
 49
0.5
 62
   256
  6
BYLAYER
 49
-0.5
 62
   256
  6
BYLAYER
  0
ACDBPLACEHOLDER
  5
F
102
{ACAD_REACTORS
330
E
102
}
330
E
  0
VISUALSTYLE
  5
2F
102
{ACAD_REACTORS
330
2A
102
}
102
{ACAD_XDICTIONARY
360
3A5
102
}
330
2A
100
AcDbVisualStyle
  2
2dWireframe
 70
     4
 71
     0
 72
     2
 73
     0
 90
        0
 40
-0.6
 41
-30.0
 62
     5
 63
     7
 74
     1
 91
        4
 64
     7
 65
   257
 75
     1
175
     1
 42
1.0
 92
        0
 66
   257
 43
1.0
 76
     1
 77
     6
 78
     2
 67
     7
 79
     5
170
     0
171
     0
290
     0
174
     0
 93
        1
 44
0.0
173
     0
291
     0
 45
0.0
1001
ACAD
1000
AcDbSavedByObjectVersion
1070
     0
  0
VISUALSTYLE
  5
31
102
{ACAD_REACTORS
330
2A
102
}
102
{ACAD_XDICTIONARY
360
3A9
102
}
330
2A
100
AcDbVisualStyle
  2
3D Hidden
 70
     6
 71
     1
 72
     2
 73
     2
 90
        0
 40
-0.6
 41
-30.0
 62
     5
 63
     7
 74
     2
 91
        2
 64
     7
 65
   257
 75
     2
175
     1
 42
40.0
 92
        0
 66
   257
 43
1.0
 76
     1
 77
     6
 78
     2
 67
     7
 79
     3
170
     0
171
     0
290
     0
174
     0
 93
        1
 44
0.0
173
     0
291
     0
 45
0.0
1001
ACAD
1000
AcDbSavedByObjectVersion
1070
     0
  0
VISUALSTYLE
  5
30
102
{ACAD_REACTORS
330
2A
102
}
102
{ACAD_XDICTIONARY
360
3A7
102
}
330
2A
100
AcDbVisualStyle
  2
3dWireframe
 70
     5
 71
     0
 72
     2
 73
     0
 90
        0
 40
-0.6
 41
-30.0
 62
     5
 63
     7
 74
     1
 91
        4
 64
     7
 65
   257
 75
     1
175
     1
 42
1.0
 92
        0
 66
   257
 43
1.0
 76
     1
 77
     6
 78
     2
 67
     7
 79
     5
170
     0
171
     0
290
     0
174
     0
 93
        1
 44
0.0
173
     0
291
     0
 45
0.0
1001
ACAD
1000
AcDbSavedByObjectVersion
1070
     0
  0
VISUALSTYLE
  5
32
102
{ACAD_REACTORS
330
2A
102
}
102
{ACAD_XDICTIONARY
360
3AB
102
}
330
2A
100
AcDbVisualStyle
  2
Basic
 70
     7
 71
     1
 72
     0
 73
     1
 90
        0
 40
-0.6
 41
-30.0
 62
     5
 63
     7
 74
     0
 91
        4
 64
     7
 65
   257
 75
     1
175
     1
 42
1.0
 92
        8
 66
     7
 43
1.0
 76
     1
 77
     6
 78
     2
 67
     7
 79
     5
170
     0
171
     0
290
     0
174
     0
 93
        1
 44
0.0
173
     0
291
     1
 45
0.0
1001
ACAD
1000
AcDbSavedByObjectVersion
1070
     0
  0
VISUALSTYLE
  5
36
102
{ACAD_REACTORS
330
2A
102
}
102
{ACAD_XDICTIONARY
360
3B3
102
}
330
2A
100
AcDbVisualStyle
  2
Brighten
 70
    12
 71
     2
 72
     2
 73
     0
 90
        0
 40
-0.6
 41
-30.0
 62
     5
 63
     7
 74
     1
 91
        4
 64
     7
 65
   257
 75
     1
175
     1
 42
1.0
 92
        8
 66
     7
 43
1.0
 76
     1
 77
     6
 78
     2
 67
     7
 79
     5
170
     0
171
     0
290
     0
174
     0
 93
        1
 44
50.0
173
     0
291
     1
 45
0.0
1001
ACAD
1000
AcDbSavedByObjectVersion
1070
     0
  0
VISUALSTYLE
  5
3A
102
{ACAD_REACTORS
330
2A
102
}
102
{ACAD_XDICTIONARY
360
3BB
102
}
330
2A
100
AcDbVisualStyle
  2
ColorChange
 70
    16
 71
     2
 72
     2
 73
     3
 90
        0
 40
-0.6
 41
-30.0
 62
     5
 63
     8
 74
     1
 91
        4
 64
     7
 65
   257
 75
     1
175
     1
 42
1.0
 92
        8
 66
     8
 43
1.0
 76
     1
 77
     6
 78
     2
 67
     7
 79
     5
170
     0
171
     0
290
     0
174
     0
 93
        1
 44
0.0
173
     0
291
     1
 45
0.0
1001
ACAD
1000
AcDbSavedByObjectVersion
1070
     0
  0
VISUALSTYLE
  5
34
102
{ACAD_REACTORS
330
2A
102
}
102
{ACAD_XDICTIONARY
360
3AF
102
}
330
2A
100
AcDbVisualStyle
  2
Conceptual
 70
     9
 71
     3
 72
     2
 73
     0
 90
        0
 40
-0.6
 41
-30.0
 62
     5
 63
     7
 74
     2
 91
        2
 64
     7
 65
   257
 75
     1
175
     1
 42
40.0
 92
        8
 66
     7
 43
1.0
 76
     1
 77
     6
 78
     2
 67
     7
 79
     3
170
     0
171
     0
290
     0
174
     0
 93
        1
 44
0.0
173
     0
291
     0
 45
0.0
1001
ACAD
1000
AcDbSavedByObjectVersion
1070
     0
  0
VISUALSTYLE
  5
35
102
{ACAD_REACTORS
330
2A
102
}
102
{ACAD_XDICTIONARY
360
3B1
102
}
330
2A
100
AcDbVisualStyle
  2
Dim
 70
    11
 71
     2
 72
     2
 73
     0
 90
        0
 40
-0.6
 41
-30.0
 62
     5
 63
     7
 74
     1
 91
        4
 64
     7
 65
   257
 75
     1
175
     1
 42
1.0
 92
        8
 66
     7
 43
1.0
 76
     1
 77
     6
 78
     2
 67
     7
 79
     5
170
     0
171
     0
290
     0
174
     0
 93
        1
 44
-50.0
173
     0
291
     1
 45
0.0
1001
ACAD
1000
AcDbSavedByObjectVersion
1070
     0
  0
VISUALSTYLE
  5
39
102
{ACAD_REACTORS
330
2A
102
}
102
{ACAD_XDICTIONARY
360
3B9
102
}
330
2A
100
AcDbVisualStyle
  2
Facepattern
 70
    15
 71
     2
 72
     2
 73
     0
 90
        0
 40
-0.6
 41
-30.0
 62
     5
 63
     7
 74
     1
 91
        4
 64
     7
 65
   257
 75
     1
175
     1
 42
1.0
 92
        8
 66
     7
 43
1.0
 76
     1
 77
     6
 78
     2
 67
     7
 79
     5
170
     0
171
     0
290
     0
174
     0
 93
        1
 44
0.0
173
     0
291
     1
 45
0.0
1001
ACAD
1000
AcDbSavedByObjectVersion
1070
     0
  0
VISUALSTYLE
  5
2B
102
{ACAD_REACTORS
330
2A
102
}
102
{ACAD_XDICTIONARY
360
39D
102
}
330
2A
100
AcDbVisualStyle
  2
Flat
 70
     0
 71
     2
 72
     1
 73
     1
 90
        2
 40
-0.6
 41
30.0
 62
     5
 63
     7
 74
     0
 91
        4
 64
     7
 65
   257
 75
     1
175
     1
 42
1.0
 92
        8
 66
     7
 43
1.0
 76
     1
 77
     6
 78
     2
 67
     7
 79
     5
170
     0
171
     0
290
     0
174
     0
 93
       13
 44
0.0
173
     0
291
     1
 45
0.0
1001
ACAD
1000
AcDbSavedByObjectVersion
1070
     0
  0
VISUALSTYLE
  5
2C
102
{ACAD_REACTORS
330
2A
102
}
102
{ACAD_XDICTIONARY
360
39F
102
}
330
2A
100
AcDbVisualStyle
  2
FlatWithEdges
 70
     1
 71
     2
 72
     1
 73
     1
 90
        2
 40
-0.6
 41
30.0
 62
     5
 63
     7
 74
     1
 91
        4
 64
     7
 65
   257
 75
     1
175
     1
 42
1.0
 92
        0
 66
   257
 43
1.0
 76
     1
 77
     6
 78
     2
 67
     7
 79
     5
170
     0
171
     0
290
     0
174
     0
 93
       13
 44
0.0
173
     0
291
     1
 45
0.0
1001
ACAD
1000
AcDbSavedByObjectVersion
1070
     0
  0
VISUALSTYLE
  5
2D
102
{ACAD_REACTORS
330
2A
102
}
102
{ACAD_XDICTIONARY
360
3A1
102
}
330
2A
100
AcDbVisualStyle
  2
Gouraud
 70
     2
 71
     2
 72
     2
 73
     1
 90
        2
 40
-0.6
 41
30.0
 62
     5
 63
     7
 74
     0
 91
        4
 64
     7
 65
   257
 75
     1
175
     1
 42
1.0
 92
        0
 66
     7
 43
1.0
 76
     1
 77
     6
 78
     2
 67
     7
 79
     5
170
     0
171
     0
290
     0
174
     0
 93
       13
 44
0.0
173
     0
291
     1
 45
0.0
1001
ACAD
1000
AcDbSavedByObjectVersion
1070
     0
  0
VISUALSTYLE
  5
2E
102
{ACAD_REACTORS
330
2A
102
}
102
{ACAD_XDICTIONARY
360
3A3
102
}
330
2A
100
AcDbVisualStyle
  2
GouraudWithEdges
 70
     3
 71
     2
 72
     2
 73
     1
 90
        2
 40
-0.6
 41
30.0
 62
     5
 63
     7
 74
     1
 91
        4
 64
     7
 65
   257
 75
     1
175
     1
 42
1.0
 92
        0
 66
   257
 43
1.0
 76
     1
 77
     6
 78
     2
 67
     7
 79
     5
170
     0
171
     0
290
     0
174
     0
 93
       13
 44
0.0
173
     0
291
     1
 45
0.0
1001
ACAD
1000
AcDbSavedByObjectVersion
1070
     0
  0
VISUALSTYLE
  5
38
102
{ACAD_REACTORS
330
2A
102
}
102
{ACAD_XDICTIONARY
360
3B7
102
}
330
2A
100
AcDbVisualStyle
  2
Linepattern
 70
    14
 71
     2
 72
     2
 73
     0
 90
        0
 40
-0.6
 41
-30.0
 62
     5
 63
     7
 74
     1
 91
        4
 64
     7
 65
   257
 75
     7
175
     7
 42
1.0
 92
        8
 66
     7
 43
1.0
 76
     1
 77
     6
 78
     2
 67
     7
 79
     5
170
     0
171
     0
290
     0
174
     0
 93
        1
 44
0.0
173
     0
291
     1
 45
0.0
1001
ACAD
1000
AcDbSavedByObjectVersion
1070
     0
  0
VISUALSTYLE
  5
33
102
{ACAD_REACTORS
330
2A
102
}
102
{ACAD_XDICTIONARY
360
3AD
102
}
330
2A
100
AcDbVisualStyle
  2
Realistic
 70
     8
 71
     2
 72
     2
 73
     0
 90
        0
 40
-0.6
 41
-30.0
 62
     5
 63
     7
 74
     1
 91
        0
 64
     7
 65
   257
 75
     1
175
     1
 42
1.0
 92
        8
 66
     8
 43
1.0
 76
     1
 77
     6
 78
     2
 67
     7
 79
     5
170
     0
171
     0
290
     0
174
     0
 93
       13
 44
0.0
173
     0
291
     0
 45
0.0
1001
ACAD
1000
AcDbSavedByObjectVersion
1070
     0
  0
VISUALSTYLE
  5
37
102
{ACAD_REACTORS
330
2A
102
}
102
{ACAD_XDICTIONARY
360
3B5
102
}
330
2A
100
AcDbVisualStyle
  2
Thicken
 70
    13
 71
     2
 72
     2
 73
     0
 90
        0
 40
-0.6
 41
-30.0
 62
     5
 63
     7
 74
     1
 91
        4
 64
     7
 65
   257
 75
     1
175
     1
 42
1.0
 92
       12
 66
     7
 43
1.0
 76
     1
 77
     6
 78
     2
 67
     7
 79
     5
170
     0
171
     0
290
     0
174
     0
 93
        1
 44
0.0
173
     0
291
     1
 45
0.0
1001
ACAD
1000
AcDbSavedByObjectVersion
1070
     0
  0
DICTIONARYVAR
  5
39B
102
{ACAD_REACTORS
330
398
102
}
330
398
100
DictionaryVariables
280
     0
  1
2
  0
DICTIONARYVAR
  5
39C
102
{ACAD_REACTORS
330
398
102
}
330
398
100
DictionaryVariables
280
     0
  1
1
  0
DICTIONARY
  5
3BF
330
3D
100
AcDbDictionary
280
     1
281
     1
  3
ACAD_XREC_ROUNDTRIP
360
3C0
  0
DICTIONARY
  5
3BD
330
3C
100
AcDbDictionary
280
     1
281
     1
  3
ACAD_XREC_ROUNDTRIP
360
3BE
  0
DICTIONARY
  5
3C1
330
3E
100
AcDbDictionary
280
     1
281
     1
  3
ACAD_XREC_ROUNDTRIP
360
3C2
  0
DICTIONARY
  5
3A5
330
2F
100
AcDbDictionary
280
     1
281
     1
  3
ACAD_XREC_ROUNDTRIP
360
3A6
  0
DICTIONARY
  5
3A9
330
31
100
AcDbDictionary
280
     1
281
     1
  3
ACAD_XREC_ROUNDTRIP
360
3AA
  0
DICTIONARY
  5
3A7
330
30
100
AcDbDictionary
280
     1
281
     1
  3
ACAD_XREC_ROUNDTRIP
360
3A8
  0
DICTIONARY
  5
3AB
330
32
100
AcDbDictionary
280
     1
281
     1
  3
ACAD_XREC_ROUNDTRIP
360
3AC
  0
DICTIONARY
  5
3B3
330
36
100
AcDbDictionary
280
     1
281
     1
  3
ACAD_XREC_ROUNDTRIP
360
3B4
  0
DICTIONARY
  5
3BB
330
3A
100
AcDbDictionary
280
     1
281
     1
  3
ACAD_XREC_ROUNDTRIP
360
3BC
  0
DICTIONARY
  5
3AF
330
34
100
AcDbDictionary
280
     1
281
     1
  3
ACAD_XREC_ROUNDTRIP
360
3B0
  0
DICTIONARY
  5
3B1
330
35
100
AcDbDictionary
280
     1
281
     1
  3
ACAD_XREC_ROUNDTRIP
360
3B2
  0
DICTIONARY
  5
3B9
330
39
100
AcDbDictionary
280
     1
281
     1
  3
ACAD_XREC_ROUNDTRIP
360
3BA
  0
DICTIONARY
  5
39D
330
2B
100
AcDbDictionary
280
     1
281
     1
  3
ACAD_XREC_ROUNDTRIP
360
39E
  0
DICTIONARY
  5
39F
330
2C
100
AcDbDictionary
280
     1
281
     1
  3
ACAD_XREC_ROUNDTRIP
360
3A0
  0
DICTIONARY
  5
3A1
330
2D
100
AcDbDictionary
280
     1
281
     1
  3
ACAD_XREC_ROUNDTRIP
360
3A2
  0
DICTIONARY
  5
3A3
330
2E
100
AcDbDictionary
280
     1
281
     1
  3
ACAD_XREC_ROUNDTRIP
360
3A4
  0
DICTIONARY
  5
3B7
330
38
100
AcDbDictionary
280
     1
281
     1
  3
ACAD_XREC_ROUNDTRIP
360
3B8
  0
DICTIONARY
  5
3AD
330
33
100
AcDbDictionary
280
     1
281
     1
  3
ACAD_XREC_ROUNDTRIP
360
3AE
  0
DICTIONARY
  5
3B5
330
37
100
AcDbDictionary
280
     1
281
     1
  3
ACAD_XREC_ROUNDTRIP
360
3B6
  0
XRECORD
  5
3C0
102
{ACAD_REACTORS
330
3BF
102
}
330
3BF
100
AcDbXrecord
280
     1
102
MATERIAL
148
0.0
149
0.0
149
0.0
 93
        0
 94
      127
282
     0
 72
     1
 77
     1
171
     1
175
     1
179
     1
273
     0
  0
XRECORD
  5
3BE
102
{ACAD_REACTORS
330
3BD
102
}
330
3BD
100
AcDbXrecord
280
     1
102
MATERIAL
148
0.0
149
0.0
149
0.0
 93
        0
 94
      127
282
     0
 72
     1
 77
     1
171
     1
175
     1
179
     1
273
     0
  0
XRECORD
  5
3C2
102
{ACAD_REACTORS
330
3C1
102
}
330
3C1
100
AcDbXrecord
280
     1
102
MATERIAL
148
0.0
149
0.0
149
0.0
 93
        0
 94
      127
282
     0
 72
     1
 77
     1
171
     1
175
     1
179
     1
273
     0
  0
XRECORD
  5
3A6
102
{ACAD_REACTORS
330
3A5
102
}
330
3A5
100
AcDbXrecord
280
     1
102
RTVSPropertyOp0
 70
     1
102
RTVSPropertyOp1
 70
     1
102
RTVSPropertyOp2
 70
     1
102
RTVSPropertyOp3
 70
     1
102
RTVSPropertyOp4
 70
     1
102
RTVSPropertyOp5
 70
     1
102
RTVSPropertyOp6
 70
     1
102
RTVSPropertyOp7
 70
     1
102
RTVSPropertyOp8
 70
     1
102
RTVSPropertyOp9
 70
     1
102
RTVSPropertyOp10
 70
     1
102
RTVSPropertyOp11
 70
     1
102
RTVSPropertyOp12
 70
     1
102
RTVSPropertyOp13
 70
     1
102
RTVSPropertyOp14
 70
     1
102
RTVSPropertyOp15
 70
     1
102
RTVSPropertyOp16
 70
     1
102
RTVSPropertyOp17
 70
     1
102
RTVSPropertyOp18
 70
     1
102
RTVSPropertyOp19
 70
     1
102
RTVSPropertyOp20
 70
     1
102
RTVSPropertyOp21
 70
     1
102
RTVSPropertyOp22
 70
     1
102
RTVSPropertyOp23
 70
     1
102
RTVSPropertyOp24
 70
     1
102
RTVSPropertyOp25
 70
     1
102
RTVSPropertyOp26
 70
     1
102
RTVSPropertyOp27
 70
     1
102
RTVSPropertyOp28
 70
     1
102
RTVSPropertyOp29
 70
     1
102
RTVSPropertyOp30
 70
     1
102
RTVSPropertyOp31
 70
     1
102
RTVSPropertyOp32
 70
     1
  0
XRECORD
  5
3AA
102
{ACAD_REACTORS
330
3A9
102
}
330
3A9
100
AcDbXrecord
280
     1
102
RTVSPropertyOp0
 70
     1
102
RTVSPropertyOp1
 70
     1
102
RTVSPropertyOp2
 70
     1
102
RTVSPropertyOp3
 70
     1
102
RTVSPropertyOp4
 70
     1
102
RTVSPropertyOp5
 70
     1
102
RTVSPropertyOp6
 70
     1
102
RTVSPropertyOp7
 70
     1
102
RTVSPropertyOp8
 70
     1
102
RTVSPropertyOp9
 70
     1
102
RTVSPropertyOp10
 70
     1
102
RTVSPropertyOp11
 70
     1
102
RTVSPropertyOp12
 70
     1
102
RTVSPropertyOp13
 70
     1
102
RTVSPropertyOp14
 70
     1
102
RTVSPropertyOp15
 70
     1
102
RTVSPropertyOp16
 70
     1
102
RTVSPropertyOp17
 70
     1
102
RTVSPropertyOp18
 70
     1
102
RTVSPropertyOp19
 70
     1
102
RTVSPropertyOp20
 70
     1
102
RTVSPropertyOp21
 70
     1
102
RTVSPropertyOp22
 70
     1
102
RTVSPropertyOp23
 70
     1
102
RTVSPropertyOp24
 70
     1
102
RTVSPropertyOp25
 70
     1
102
RTVSPropertyOp26
 70
     1
102
RTVSPropertyOp27
 70
     1
102
RTVSPropertyOp28
 70
     1
102
RTVSPropertyOp29
 70
     1
102
RTVSPropertyOp30
 70
     1
102
RTVSPropertyOp31
 70
     1
102
RTVSPropertyOp32
 70
     1
  0
XRECORD
  5
3A8
102
{ACAD_REACTORS
330
3A7
102
}
330
3A7
100
AcDbXrecord
280
     1
102
RTVSPropertyOp0
 70
     1
102
RTVSPropertyOp1
 70
     1
102
RTVSPropertyOp2
 70
     1
102
RTVSPropertyOp3
 70
     1
102
RTVSPropertyOp4
 70
     1
102
RTVSPropertyOp5
 70
     1
102
RTVSPropertyOp6
 70
     1
102
RTVSPropertyOp7
 70
     1
102
RTVSPropertyOp8
 70
     1
102
RTVSPropertyOp9
 70
     1
102
RTVSPropertyOp10
 70
     1
102
RTVSPropertyOp11
 70
     1
102
RTVSPropertyOp12
 70
     1
102
RTVSPropertyOp13
 70
     1
102
RTVSPropertyOp14
 70
     1
102
RTVSPropertyOp15
 70
     1
102
RTVSPropertyOp16
 70
     1
102
RTVSPropertyOp17
 70
     1
102
RTVSPropertyOp18
 70
     1
102
RTVSPropertyOp19
 70
     1
102
RTVSPropertyOp20
 70
     1
102
RTVSPropertyOp21
 70
     1
102
RTVSPropertyOp22
 70
     1
102
RTVSPropertyOp23
 70
     1
102
RTVSPropertyOp24
 70
     1
102
RTVSPropertyOp25
 70
     1
102
RTVSPropertyOp26
 70
     1
102
RTVSPropertyOp27
 70
     1
102
RTVSPropertyOp28
 70
     1
102
RTVSPropertyOp29
 70
     1
102
RTVSPropertyOp30
 70
     1
102
RTVSPropertyOp31
 70
     1
102
RTVSPropertyOp32
 70
     1
  0
XRECORD
  5
3AC
102
{ACAD_REACTORS
330
3AB
102
}
330
3AB
100
AcDbXrecord
280
     1
102
RTVSPropertyOp0
 70
     1
102
RTVSPropertyOp1
 70
     1
102
RTVSPropertyOp2
 70
     1
102
RTVSPropertyOp3
 70
     1
102
RTVSPropertyOp4
 70
     1
102
RTVSPropertyOp5
 70
     1
102
RTVSPropertyOp6
 70
     1
102
RTVSPropertyOp7
 70
     1
102
RTVSPropertyOp8
 70
     1
102
RTVSPropertyOp9
 70
     1
102
RTVSPropertyOp10
 70
     1
102
RTVSPropertyOp11
 70
     1
102
RTVSPropertyOp12
 70
     1
102
RTVSPropertyOp13
 70
     1
102
RTVSPropertyOp14
 70
     1
102
RTVSPropertyOp15
 70
     1
102
RTVSPropertyOp16
 70
     1
102
RTVSPropertyOp17
 70
     1
102
RTVSPropertyOp18
 70
     1
102
RTVSPropertyOp19
 70
     1
102
RTVSPropertyOp20
 70
     1
102
RTVSPropertyOp21
 70
     1
102
RTVSPropertyOp22
 70
     1
102
RTVSPropertyOp23
 70
     1
102
RTVSPropertyOp24
 70
     1
102
RTVSPropertyOp25
 70
     1
102
RTVSPropertyOp26
 70
     1
102
RTVSPropertyOp27
 70
     1
102
RTVSPropertyOp28
 70
     1
102
RTVSPropertyOp29
 70
     1
102
RTVSPropertyOp30
 70
     1
102
RTVSPropertyOp31
 70
     1
102
RTVSPropertyOp32
 70
     1
  0
XRECORD
  5
3B4
102
{ACAD_REACTORS
330
3B3
102
}
330
3B3
100
AcDbXrecord
280
     1
102
RTVSPropertyOp0
 70
     1
102
RTVSPropertyOp1
 70
     1
102
RTVSPropertyOp2
 70
     1
102
RTVSPropertyOp3
 70
     1
102
RTVSPropertyOp4
 70
     1
102
RTVSPropertyOp5
 70
     1
102
RTVSPropertyOp6
 70
     1
102
RTVSPropertyOp7
 70
     1
102
RTVSPropertyOp8
 70
     1
102
RTVSPropertyOp9
 70
     1
102
RTVSPropertyOp10
 70
     1
102
RTVSPropertyOp11
 70
     1
102
RTVSPropertyOp12
 70
     1
102
RTVSPropertyOp13
 70
     1
102
RTVSPropertyOp14
 70
     1
102
RTVSPropertyOp15
 70
     1
102
RTVSPropertyOp16
 70
     1
102
RTVSPropertyOp17
 70
     1
102
RTVSPropertyOp18
 70
     1
102
RTVSPropertyOp19
 70
     1
102
RTVSPropertyOp20
 70
     1
102
RTVSPropertyOp21
 70
     1
102
RTVSPropertyOp22
 70
     1
102
RTVSPropertyOp23
 70
     1
102
RTVSPropertyOp24
 70
     1
102
RTVSPropertyOp25
 70
     1
102
RTVSPropertyOp26
 70
     1
102
RTVSPropertyOp27
 70
     1
102
RTVSPropertyOp28
 70
     1
102
RTVSPropertyOp29
 70
     1
102
RTVSPropertyOp30
 70
     1
102
RTVSPropertyOp31
 70
     1
102
RTVSPropertyOp32
 70
     1
  0
XRECORD
  5
3BC
102
{ACAD_REACTORS
330
3BB
102
}
330
3BB
100
AcDbXrecord
280
     1
102
RTVSPropertyOp0
 70
     1
102
RTVSPropertyOp1
 70
     1
102
RTVSPropertyOp2
 70
     1
102
RTVSPropertyOp3
 70
     1
102
RTVSPropertyOp4
 70
     1
102
RTVSPropertyOp5
 70
     1
102
RTVSPropertyOp6
 70
     1
102
RTVSPropertyOp7
 70
     1
102
RTVSPropertyOp8
 70
     1
102
RTVSPropertyOp9
 70
     1
102
RTVSPropertyOp10
 70
     1
102
RTVSPropertyOp11
 70
     1
102
RTVSPropertyOp12
 70
     1
102
RTVSPropertyOp13
 70
     1
102
RTVSPropertyOp14
 70
     1
102
RTVSPropertyOp15
 70
     1
102
RTVSPropertyOp16
 70
     1
102
RTVSPropertyOp17
 70
     1
102
RTVSPropertyOp18
 70
     1
102
RTVSPropertyOp19
 70
     1
102
RTVSPropertyOp20
 70
     1
102
RTVSPropertyOp21
 70
     1
102
RTVSPropertyOp22
 70
     1
102
RTVSPropertyOp23
 70
     1
102
RTVSPropertyOp24
 70
     1
102
RTVSPropertyOp25
 70
     1
102
RTVSPropertyOp26
 70
     1
102
RTVSPropertyOp27
 70
     1
102
RTVSPropertyOp28
 70
     1
102
RTVSPropertyOp29
 70
     1
102
RTVSPropertyOp30
 70
     1
102
RTVSPropertyOp31
 70
     1
102
RTVSPropertyOp32
 70
     1
  0
XRECORD
  5
3B0
102
{ACAD_REACTORS
330
3AF
102
}
330
3AF
100
AcDbXrecord
280
     1
102
RTVSPropertyOp0
 70
     1
102
RTVSPropertyOp1
 70
     1
102
RTVSPropertyOp2
 70
     1
102
RTVSPropertyOp3
 70
     1
102
RTVSPropertyOp4
 70
     1
102
RTVSPropertyOp5
 70
     1
102
RTVSPropertyOp6
 70
     1
102
RTVSPropertyOp7
 70
     1
102
RTVSPropertyOp8
 70
     1
102
RTVSPropertyOp9
 70
     1
102
RTVSPropertyOp10
 70
     1
102
RTVSPropertyOp11
 70
     1
102
RTVSPropertyOp12
 70
     1
102
RTVSPropertyOp13
 70
     1
102
RTVSPropertyOp14
 70
     1
102
RTVSPropertyOp15
 70
     1
102
RTVSPropertyOp16
 70
     1
102
RTVSPropertyOp17
 70
     1
102
RTVSPropertyOp18
 70
     1
102
RTVSPropertyOp19
 70
     1
102
RTVSPropertyOp20
 70
     1
102
RTVSPropertyOp21
 70
     1
102
RTVSPropertyOp22
 70
     1
102
RTVSPropertyOp23
 70
     1
102
RTVSPropertyOp24
 70
     1
102
RTVSPropertyOp25
 70
     1
102
RTVSPropertyOp26
 70
     1
102
RTVSPropertyOp27
 70
     1
102
RTVSPropertyOp28
 70
     1
102
RTVSPropertyOp29
 70
     1
102
RTVSPropertyOp30
 70
     1
102
RTVSPropertyOp31
 70
     1
102
RTVSPropertyOp32
 70
     1
  0
XRECORD
  5
3B2
102
{ACAD_REACTORS
330
3B1
102
}
330
3B1
100
AcDbXrecord
280
     1
102
RTVSPropertyOp0
 70
     1
102
RTVSPropertyOp1
 70
     1
102
RTVSPropertyOp2
 70
     1
102
RTVSPropertyOp3
 70
     1
102
RTVSPropertyOp4
 70
     1
102
RTVSPropertyOp5
 70
     1
102
RTVSPropertyOp6
 70
     1
102
RTVSPropertyOp7
 70
     1
102
RTVSPropertyOp8
 70
     1
102
RTVSPropertyOp9
 70
     1
102
RTVSPropertyOp10
 70
     1
102
RTVSPropertyOp11
 70
     1
102
RTVSPropertyOp12
 70
     1
102
RTVSPropertyOp13
 70
     1
102
RTVSPropertyOp14
 70
     1
102
RTVSPropertyOp15
 70
     1
102
RTVSPropertyOp16
 70
     1
102
RTVSPropertyOp17
 70
     1
102
RTVSPropertyOp18
 70
     1
102
RTVSPropertyOp19
 70
     1
102
RTVSPropertyOp20
 70
     1
102
RTVSPropertyOp21
 70
     1
102
RTVSPropertyOp22
 70
     1
102
RTVSPropertyOp23
 70
     1
102
RTVSPropertyOp24
 70
     1
102
RTVSPropertyOp25
 70
     1
102
RTVSPropertyOp26
 70
     1
102
RTVSPropertyOp27
 70
     1
102
RTVSPropertyOp28
 70
     1
102
RTVSPropertyOp29
 70
     1
102
RTVSPropertyOp30
 70
     1
102
RTVSPropertyOp31
 70
     1
102
RTVSPropertyOp32
 70
     1
  0
XRECORD
  5
3BA
102
{ACAD_REACTORS
330
3B9
102
}
330
3B9
100
AcDbXrecord
280
     1
102
RTVSPropertyOp0
 70
     1
102
RTVSPropertyOp1
 70
     1
102
RTVSPropertyOp2
 70
     1
102
RTVSPropertyOp3
 70
     1
102
RTVSPropertyOp4
 70
     1
102
RTVSPropertyOp5
 70
     1
102
RTVSPropertyOp6
 70
     1
102
RTVSPropertyOp7
 70
     1
102
RTVSPropertyOp8
 70
     1
102
RTVSPropertyOp9
 70
     1
102
RTVSPropertyOp10
 70
     1
102
RTVSPropertyOp11
 70
     1
102
RTVSPropertyOp12
 70
     1
102
RTVSPropertyOp13
 70
     1
102
RTVSPropertyOp14
 70
     1
102
RTVSPropertyOp15
 70
     1
102
RTVSPropertyOp16
 70
     1
102
RTVSPropertyOp17
 70
     1
102
RTVSPropertyOp18
 70
     1
102
RTVSPropertyOp19
 70
     1
102
RTVSPropertyOp20
 70
     1
102
RTVSPropertyOp21
 70
     1
102
RTVSPropertyOp22
 70
     1
102
RTVSPropertyOp23
 70
     1
102
RTVSPropertyOp24
 70
     1
102
RTVSPropertyOp25
 70
     1
102
RTVSPropertyOp26
 70
     1
102
RTVSPropertyOp27
 70
     1
102
RTVSPropertyOp28
 70
     1
102
RTVSPropertyOp29
 70
     1
102
RTVSPropertyOp30
 70
     1
102
RTVSPropertyOp31
 70
     1
102
RTVSPropertyOp32
 70
     1
  0
XRECORD
  5
39E
102
{ACAD_REACTORS
330
39D
102
}
330
39D
100
AcDbXrecord
280
     1
102
RTVSPropertyOp0
 70
     1
102
RTVSPropertyOp1
 70
     1
102
RTVSPropertyOp2
 70
     1
102
RTVSPropertyOp3
 70
     1
102
RTVSPropertyOp4
 70
     1
102
RTVSPropertyOp5
 70
     1
102
RTVSPropertyOp6
 70
     1
102
RTVSPropertyOp7
 70
     1
102
RTVSPropertyOp8
 70
     1
102
RTVSPropertyOp9
 70
     1
102
RTVSPropertyOp10
 70
     1
102
RTVSPropertyOp11
 70
     1
102
RTVSPropertyOp12
 70
     1
102
RTVSPropertyOp13
 70
     1
102
RTVSPropertyOp14
 70
     1
102
RTVSPropertyOp15
 70
     1
102
RTVSPropertyOp16
 70
     1
102
RTVSPropertyOp17
 70
     1
102
RTVSPropertyOp18
 70
     1
102
RTVSPropertyOp19
 70
     1
102
RTVSPropertyOp20
 70
     1
102
RTVSPropertyOp21
 70
     1
102
RTVSPropertyOp22
 70
     1
102
RTVSPropertyOp23
 70
     1
102
RTVSPropertyOp24
 70
     1
102
RTVSPropertyOp25
 70
     1
102
RTVSPropertyOp26
 70
     1
102
RTVSPropertyOp27
 70
     1
102
RTVSPropertyOp28
 70
     1
102
RTVSPropertyOp29
 70
     1
102
RTVSPropertyOp30
 70
     1
102
RTVSPropertyOp31
 70
     1
102
RTVSPropertyOp32
 70
     1
  0
XRECORD
  5
3A0
102
{ACAD_REACTORS
330
39F
102
}
330
39F
100
AcDbXrecord
280
     1
102
RTVSPropertyOp0
 70
     1
102
RTVSPropertyOp1
 70
     1
102
RTVSPropertyOp2
 70
     1
102
RTVSPropertyOp3
 70
     1
102
RTVSPropertyOp4
 70
     1
102
RTVSPropertyOp5
 70
     1
102
RTVSPropertyOp6
 70
     1
102
RTVSPropertyOp7
 70
     1
102
RTVSPropertyOp8
 70
     1
102
RTVSPropertyOp9
 70
     1
102
RTVSPropertyOp10
 70
     1
102
RTVSPropertyOp11
 70
     1
102
RTVSPropertyOp12
 70
     1
102
RTVSPropertyOp13
 70
     1
102
RTVSPropertyOp14
 70
     1
102
RTVSPropertyOp15
 70
     1
102
RTVSPropertyOp16
 70
     1
102
RTVSPropertyOp17
 70
     1
102
RTVSPropertyOp18
 70
     1
102
RTVSPropertyOp19
 70
     1
102
RTVSPropertyOp20
 70
     1
102
RTVSPropertyOp21
 70
     1
102
RTVSPropertyOp22
 70
     1
102
RTVSPropertyOp23
 70
     1
102
RTVSPropertyOp24
 70
     1
102
RTVSPropertyOp25
 70
     1
102
RTVSPropertyOp26
 70
     1
102
RTVSPropertyOp27
 70
     1
102
RTVSPropertyOp28
 70
     1
102
RTVSPropertyOp29
 70
     1
102
RTVSPropertyOp30
 70
     1
102
RTVSPropertyOp31
 70
     1
102
RTVSPropertyOp32
 70
     1
  0
XRECORD
  5
3A2
102
{ACAD_REACTORS
330
3A1
102
}
330
3A1
100
AcDbXrecord
280
     1
102
RTVSPropertyOp0
 70
     1
102
RTVSPropertyOp1
 70
     1
102
RTVSPropertyOp2
 70
     1
102
RTVSPropertyOp3
 70
     1
102
RTVSPropertyOp4
 70
     1
102
RTVSPropertyOp5
 70
     1
102
RTVSPropertyOp6
 70
     1
102
RTVSPropertyOp7
 70
     1
102
RTVSPropertyOp8
 70
     1
102
RTVSPropertyOp9
 70
     1
102
RTVSPropertyOp10
 70
     1
102
RTVSPropertyOp11
 70
     1
102
RTVSPropertyOp12
 70
     1
102
RTVSPropertyOp13
 70
     1
102
RTVSPropertyOp14
 70
     1
102
RTVSPropertyOp15
 70
     1
102
RTVSPropertyOp16
 70
     1
102
RTVSPropertyOp17
 70
     1
102
RTVSPropertyOp18
 70
     1
102
RTVSPropertyOp19
 70
     1
102
RTVSPropertyOp20
 70
     1
102
RTVSPropertyOp21
 70
     1
102
RTVSPropertyOp22
 70
     1
102
RTVSPropertyOp23
 70
     1
102
RTVSPropertyOp24
 70
     1
102
RTVSPropertyOp25
 70
     1
102
RTVSPropertyOp26
 70
     1
102
RTVSPropertyOp27
 70
     1
102
RTVSPropertyOp28
 70
     1
102
RTVSPropertyOp29
 70
     1
102
RTVSPropertyOp30
 70
     1
102
RTVSPropertyOp31
 70
     1
102
RTVSPropertyOp32
 70
     1
  0
XRECORD
  5
3A4
102
{ACAD_REACTORS
330
3A3
102
}
330
3A3
100
AcDbXrecord
280
     1
102
RTVSPropertyOp0
 70
     1
102
RTVSPropertyOp1
 70
     1
102
RTVSPropertyOp2
 70
     1
102
RTVSPropertyOp3
 70
     1
102
RTVSPropertyOp4
 70
     1
102
RTVSPropertyOp5
 70
     1
102
RTVSPropertyOp6
 70
     1
102
RTVSPropertyOp7
 70
     1
102
RTVSPropertyOp8
 70
     1
102
RTVSPropertyOp9
 70
     1
102
RTVSPropertyOp10
 70
     1
102
RTVSPropertyOp11
 70
     1
102
RTVSPropertyOp12
 70
     1
102
RTVSPropertyOp13
 70
     1
102
RTVSPropertyOp14
 70
     1
102
RTVSPropertyOp15
 70
     1
102
RTVSPropertyOp16
 70
     1
102
RTVSPropertyOp17
 70
     1
102
RTVSPropertyOp18
 70
     1
102
RTVSPropertyOp19
 70
     1
102
RTVSPropertyOp20
 70
     1
102
RTVSPropertyOp21
 70
     1
102
RTVSPropertyOp22
 70
     1
102
RTVSPropertyOp23
 70
     1
102
RTVSPropertyOp24
 70
     1
102
RTVSPropertyOp25
 70
     1
102
RTVSPropertyOp26
 70
     1
102
RTVSPropertyOp27
 70
     1
102
RTVSPropertyOp28
 70
     1
102
RTVSPropertyOp29
 70
     1
102
RTVSPropertyOp30
 70
     1
102
RTVSPropertyOp31
 70
     1
102
RTVSPropertyOp32
 70
     1
  0
XRECORD
  5
3B8
102
{ACAD_REACTORS
330
3B7
102
}
330
3B7
100
AcDbXrecord
280
     1
102
RTVSPropertyOp0
 70
     1
102
RTVSPropertyOp1
 70
     1
102
RTVSPropertyOp2
 70
     1
102
RTVSPropertyOp3
 70
     1
102
RTVSPropertyOp4
 70
     1
102
RTVSPropertyOp5
 70
     1
102
RTVSPropertyOp6
 70
     1
102
RTVSPropertyOp7
 70
     1
102
RTVSPropertyOp8
 70
     1
102
RTVSPropertyOp9
 70
     1
102
RTVSPropertyOp10
 70
     1
102
RTVSPropertyOp11
 70
     1
102
RTVSPropertyOp12
 70
     1
102
RTVSPropertyOp13
 70
     1
102
RTVSPropertyOp14
 70
     1
102
RTVSPropertyOp15
 70
     1
102
RTVSPropertyOp16
 70
     1
102
RTVSPropertyOp17
 70
     1
102
RTVSPropertyOp18
 70
     1
102
RTVSPropertyOp19
 70
     1
102
RTVSPropertyOp20
 70
     1
102
RTVSPropertyOp21
 70
     1
102
RTVSPropertyOp22
 70
     1
102
RTVSPropertyOp23
 70
     1
102
RTVSPropertyOp24
 70
     1
102
RTVSPropertyOp25
 70
     1
102
RTVSPropertyOp26
 70
     1
102
RTVSPropertyOp27
 70
     1
102
RTVSPropertyOp28
 70
     1
102
RTVSPropertyOp29
 70
     1
102
RTVSPropertyOp30
 70
     1
102
RTVSPropertyOp31
 70
     1
102
RTVSPropertyOp32
 70
     1
  0
XRECORD
  5
3AE
102
{ACAD_REACTORS
330
3AD
102
}
330
3AD
100
AcDbXrecord
280
     1
102
RTVSPropertyOp0
 70
     1
102
RTVSPropertyOp1
 70
     1
102
RTVSPropertyOp2
 70
     1
102
RTVSPropertyOp3
 70
     1
102
RTVSPropertyOp4
 70
     1
102
RTVSPropertyOp5
 70
     1
102
RTVSPropertyOp6
 70
     1
102
RTVSPropertyOp7
 70
     1
102
RTVSPropertyOp8
 70
     1
102
RTVSPropertyOp9
 70
     1
102
RTVSPropertyOp10
 70
     1
102
RTVSPropertyOp11
 70
     1
102
RTVSPropertyOp12
 70
     1
102
RTVSPropertyOp13
 70
     1
102
RTVSPropertyOp14
 70
     1
102
RTVSPropertyOp15
 70
     1
102
RTVSPropertyOp16
 70
     1
102
RTVSPropertyOp17
 70
     1
102
RTVSPropertyOp18
 70
     1
102
RTVSPropertyOp19
 70
     1
102
RTVSPropertyOp20
 70
     1
102
RTVSPropertyOp21
 70
     1
102
RTVSPropertyOp22
 70
     1
102
RTVSPropertyOp23
 70
     1
102
RTVSPropertyOp24
 70
     1
102
RTVSPropertyOp25
 70
     1
102
RTVSPropertyOp26
 70
     1
102
RTVSPropertyOp27
 70
     1
102
RTVSPropertyOp28
 70
     1
102
RTVSPropertyOp29
 70
     1
102
RTVSPropertyOp30
 70
     1
102
RTVSPropertyOp31
 70
     1
102
RTVSPropertyOp32
 70
     1
  0
XRECORD
  5
3B6
102
{ACAD_REACTORS
330
3B5
102
}
330
3B5
100
AcDbXrecord
280
     1
102
RTVSPropertyOp0
 70
     1
102
RTVSPropertyOp1
 70
     1
102
RTVSPropertyOp2
 70
     1
102
RTVSPropertyOp3
 70
     1
102
RTVSPropertyOp4
 70
     1
102
RTVSPropertyOp5
 70
     1
102
RTVSPropertyOp6
 70
     1
102
RTVSPropertyOp7
 70
     1
102
RTVSPropertyOp8
 70
     1
102
RTVSPropertyOp9
 70
     1
102
RTVSPropertyOp10
 70
     1
102
RTVSPropertyOp11
 70
     1
102
RTVSPropertyOp12
 70
     1
102
RTVSPropertyOp13
 70
     1
102
RTVSPropertyOp14
 70
     1
102
RTVSPropertyOp15
 70
     1
102
RTVSPropertyOp16
 70
     1
102
RTVSPropertyOp17
 70
     1
102
RTVSPropertyOp18
 70
     1
102
RTVSPropertyOp19
 70
     1
102
RTVSPropertyOp20
 70
     1
102
RTVSPropertyOp21
 70
     1
102
RTVSPropertyOp22
 70
     1
102
RTVSPropertyOp23
 70
     1
102
RTVSPropertyOp24
 70
     1
102
RTVSPropertyOp25
 70
     1
102
RTVSPropertyOp26
 70
     1
102
RTVSPropertyOp27
 70
     1
102
RTVSPropertyOp28
 70
     1
102
RTVSPropertyOp29
 70
     1
102
RTVSPropertyOp30
 70
     1
102
RTVSPropertyOp31
 70
     1
102
RTVSPropertyOp32
 70
     1
  0
ENDSEC
  0
EOF
