  0
SECTION
  2
HEADER
  9
$ACADVER
  1
AC1015
  9
$ACADMAINTVER
 70
     6
  9
$DWGCODEPAGE
  3
ANSI_1252
  9
$INSBASE
 10
0.0
 20
0.0
 30
0.0
  9
$EXTMIN
 10
-1206.971401111691
 20
-1173.81774748859
 30
0.0
  9
$EXTMAX
 10
-786.9714011116928
 20
-876.8177474885899
 30
0.0
  9
$LIMMIN
 10
0.0
 20
0.0
  9
$LIMMAX
 10
12.0
 20
9.0
  9
$ORTHOMODE
 70
     0
  9
$REGENMODE
 70
     1
  9
$FILLMODE
 70
     1
  9
$QTEXTMODE
 70
     0
  9
$MIRRTEXT
 70
     1
  9
$LTSCALE
 40
1.0
  9
$ATTMODE
 70
     1
  9
$TEXTSIZE
 40
0.2
  9
$TRACEWID
 40
0.05
  9
$TEXTSTYLE
  7
Standard
  9
$CLAYER
  8
0
  9
$CELTYPE
  6
ByLayer
  9
$CECOLOR
 62
   256
  9
$CELTSCALE
 40
1.0
  9
$DISPSILH
 70
     0
  9
$DIMSCALE
 40
1.0
  9
$DIMASZ
 40
0.18
  9
$DIMEXO
 40
0.0625
  9
$DIMDLI
 40
0.38
  9
$DIMRND
 40
0.0
  9
$DIMDLE
 40
0.0
  9
$DIMEXE
 40
0.18
  9
$DIMTP
 40
0.0
  9
$DIMTM
 40
0.0
  9
$DIMTXT
 40
0.18
  9
$DIMCEN
 40
0.09
  9
$DIMTSZ
 40
0.0
  9
$DIMTOL
 70
     0
  9
$DIMLIM
 70
     0
  9
$DIMTIH
 70
     1
  9
$DIMTOH
 70
     1
  9
$DIMSE1
 70
     0
  9
$DIMSE2
 70
     0
  9
$DIMTAD
 70
     0
  9
$DIMZIN
 70
     0
  9
$DIMBLK
  1

  9
$DIMASO
 70
     1
  9
$DIMSHO
 70
     1
  9
$DIMPOST
  1

  9
$DIMAPOST
  1

  9
$DIMALT
 70
     0
  9
$DIMALTD
 70
     2
  9
$DIMALTF
 40
25.4
  9
$DIMLFAC
 40
1.0
  9
$DIMTOFL
 70
     0
  9
$DIMTVP
 40
0.0
  9
$DIMTIX
 70
     0
  9
$DIMSOXD
 70
     0
  9
$DIMSAH
 70
     0
  9
$DIMBLK1
  1

  9
$DIMBLK2
  1

  9
$DIMSTYLE
  2
Standard
  9
$DIMCLRD
 70
     0
  9
$DIMCLRE
 70
     0
  9
$DIMCLRT
 70
     0
  9
$DIMTFAC
 40
1.0
  9
$DIMGAP
 40
0.09
  9
$DIMJUST
 70
     0
  9
$DIMSD1
 70
     0
  9
$DIMSD2
 70
     0
  9
$DIMTOLJ
 70
     1
  9
$DIMTZIN
 70
     0
  9
$DIMALTZ
 70
     0
  9
$DIMALTTZ
 70
     0
  9
$DIMUPT
 70
     0
  9
$DIMDEC
 70
     4
  9
$DIMTDEC
 70
     4
  9
$DIMALTU
 70
     2
  9
$DIMALTTD
 70
     2
  9
$DIMTXSTY
  7
Standard
  9
$DIMAUNIT
 70
     0
  9
$DIMADEC
 70
     0
  9
$DIMALTRND
 40
0.0
  9
$DIMAZIN
 70
     0
  9
$DIMDSEP
 70
    46
  9
$DIMATFIT
 70
     3
  9
$DIMFRAC
 70
     0
  9
$DIMLDRBLK
  1

  9
$DIMLUNIT
 70
     2
  9
$DIMLWD
 70
    -2
  9
$DIMLWE
 70
    -2
  9
$DIMTMOVE
 70
     0
  9
$LUNITS
 70
     2
  9
$LUPREC
 70
     4
  9
$SKETCHINC
 40
0.1
  9
$FILLETRAD
 40
0.5
  9
$AUNITS
 70
     0
  9
$AUPREC
 70
     0
  9
$MENU
  1
.
  9
$ELEVATION
 40
0.0
  9
$PELEVATION
 40
0.0
  9
$THICKNESS
 40
0.0
  9
$LIMCHECK
 70
     0
  9
$CHAMFERA
 40
0.5
  9
$CHAMFERB
 40
0.5
  9
$CHAMFERC
 40
1.0
  9
$CHAMFERD
 40
0.0
  9
$SKPOLY
 70
     0
  9
$TDCREATE
 40
2456388.615609687
  9
$TDUCREATE
 40
2456388.532276354
  9
$TDUPDATE
 40
2456388.615611481
  9
$TDUUPDATE
 40
2456388.532278148
  9
$TDINDWG
 40
0.0000000116
  9
$TDUSRTIMER
 40
0.0000000116
  9
$USRTIMER
 70
     1
  9
$ANGBASE
 50
0.0
  9
$ANGDIR
 70
     0
  9
$PDMODE
 70
     0
  9
$PDSIZE
 40
0.0
  9
$PLINEWID
 40
0.0
  9
$SPLFRAME
 70
     0
  9
$SPLINETYPE
 70
     6
  9
$SPLINESEGS
 70
     8
  9
$HANDSEED
  5
386
  9
$SURFTAB1
 70
     6
  9
$SURFTAB2
 70
     6
  9
$SURFTYPE
 70
     6
  9
$SURFU
 70
     6
  9
$SURFV
 70
     6
  9
$UCSBASE
  2

  9
$UCSNAME
  2

  9
$UCSORG
 10
0.0
 20
0.0
 30
0.0
  9
$UCSXDIR
 10
1.0
 20
0.0
 30
0.0
  9
$UCSYDIR
 10
0.0
 20
1.0
 30
0.0
  9
$UCSORTHOREF
  2

  9
$UCSORTHOVIEW
 70
     0
  9
$UCSORGTOP
 10
0.0
 20
0.0
 30
0.0
  9
$UCSORGBOTTOM
 10
0.0
 20
0.0
 30
0.0
  9
$UCSORGLEFT
 10
0.0
 20
0.0
 30
0.0
  9
$UCSORGRIGHT
 10
0.0
 20
0.0
 30
0.0
  9
$UCSORGFRONT
 10
0.0
 20
0.0
 30
0.0
  9
$UCSORGBACK
 10
0.0
 20
0.0
 30
0.0
  9
$PUCSBASE
  2

  9
$PUCSNAME
  2

  9
$PUCSORG
 10
0.0
 20
0.0
 30
0.0
  9
$PUCSXDIR
 10
1.0
 20
0.0
 30
0.0
  9
$PUCSYDIR
 10
0.0
 20
1.0
 30
0.0
  9
$PUCSORTHOREF
  2

  9
$PUCSORTHOVIEW
 70
     0
  9
$PUCSORGTOP
 10
0.0
 20
0.0
 30
0.0
  9
$PUCSORGBOTTOM
 10
0.0
 20
0.0
 30
0.0
  9
$PUCSORGLEFT
 10
0.0
 20
0.0
 30
0.0
  9
$PUCSORGRIGHT
 10
0.0
 20
0.0
 30
0.0
  9
$PUCSORGFRONT
 10
0.0
 20
0.0
 30
0.0
  9
$PUCSORGBACK
 10
0.0
 20
0.0
 30
0.0
  9
$USERI1
 70
     0
  9
$USERI2
 70
     0
  9
$USERI3
 70
     0
  9
$USERI4
 70
     0
  9
$USERI5
 70
     0
  9
$USERR1
 40
18.1
  9
$USERR2
 40
0.0
  9
$USERR3
 40
0.0
  9
$USERR4
 40
0.0
  9
$USERR5
 40
0.0
  9
$WORLDVIEW
 70
     1
  9
$SHADEDGE
 70
     3
  9
$SHADEDIF
 70
    70
  9
$TILEMODE
 70
     1
  9
$MAXACTVP
 70
    64
  9
$PINSBASE
 10
0.0
 20
0.0
 30
0.0
  9
$PLIMCHECK
 70
     0
  9
$PEXTMIN
 10
1.00000000000000E+20
 20
1.00000000000000E+20
 30
1.00000000000000E+20
  9
$PEXTMAX
 10
-1.00000000000000E+20
 20
-1.00000000000000E+20
 30
-1.00000000000000E+20
  9
$PLIMMIN
 10
0.0
 20
0.0
  9
$PLIMMAX
 10
12.0
 20
9.0
  9
$UNITMODE
 70
     0
  9
$VISRETAIN
 70
     1
  9
$PLINEGEN
 70
     0
  9
$PSLTSCALE
 70
     1
  9
$TREEDEPTH
 70
  3020
  9
$CMLSTYLE
  2
Standard
  9
$CMLJUST
 70
     0
  9
$CMLSCALE
 40
1.0
  9
$PROXYGRAPHICS
 70
     1
  9
$MEASUREMENT
 70
     1
  9
$CELWEIGHT
370
    -1
  9
$ENDCAPS
280
     0
  9
$JOINSTYLE
280
     0
  9
$LWDISPLAY
290
     0
  9
$INSUNITS
 70
     4
  9
$HYPERLINKBASE
  1

  9
$STYLESHEET
  1

  9
$XEDIT
290
     1
  9
$CEPSNTYPE
380
     0
  9
$PSTYLEMODE
290
     1
  9
$FINGERPRINTGUID
  2
{E4EA52E7-E1D4-4386-BBCC-C18FFBA1AA65}
  9
$VERSIONGUID
  2
{FAEB1C32-E019-11D5-929B-00C0DF256EC4}
  9
$EXTNAMES
290
     1
  9
$PSVPSCALE
 40
0.0
  9
$OLESTARTUP
290
     0
  0
ENDSEC
  0
SECTION
  2
CLASSES
  0
CLASS
  1
ACDBDICTIONARYWDFLT
  2
AcDbDictionaryWithDefault
  3
ObjectDBX Classes
 90
        0
280
     0
281
     0
  0
CLASS
  1
VISUALSTYLE
  2
AcDbVisualStyle
  3
ObjectDBX Classes
 90
     4095
280
     0
281
     0
  0
CLASS
  1
MATERIAL
  2
AcDbMaterial
  3
ObjectDBX Classes
 90
     1153
280
     0
281
     0
  0
CLASS
  1
DICTIONARYVAR
  2
AcDbDictionaryVar
  3
ObjectDBX Classes
 90
        0
280
     0
281
     0
  0
CLASS
  1
ACDBPLACEHOLDER
  2
AcDbPlaceHolder
  3
ObjectDBX Classes
 90
        0
280
     0
281
     0
  0
CLASS
  1
LAYOUT
  2
AcDbLayout
  3
ObjectDBX Classes
 90
        0
280
     0
281
     0
  0
ENDSEC
  0
SECTION
  2
TABLES
  0
TABLE
  2
VPORT
  5
8
330
0
100
AcDbSymbolTable
 70
     1
  0
VPORT
  5
29
330
8
100
AcDbSymbolTableRecord
100
AcDbViewportTableRecord
  2
*Active
 70
     0
 10
0.0
 20
0.0
 11
1.0
 21
1.0
 12
-996.9714011116919
 22
-1025.31774748859
 13
0.0
 23
0.0
 14
0.5
 24
0.5
 15
0.5
 25
0.5
 16
0.0
 26
0.0
 36
1.0
 17
0.0
 27
0.0
 37
0.0
 40
326.7
 41
1.60267857142857
 42
50.0
 43
0.0
 44
0.0
 50
0.0
 51
0.0
 71
     0
 72
   100
 73
     1
 74
     3
 75
     0
 76
     0
 77
     0
 78
     0
281
     0
 65
     1
110
0.0
120
0.0
130
0.0
111
1.0
121
0.0
131
0.0
112
0.0
122
1.0
132
0.0
 79
     0
146
0.0
  0
ENDTAB
  0
TABLE
  2
LTYPE
  5
5
330
0
100
AcDbSymbolTable
 70
     8
  0
LTYPE
  5
14
330
5
100
AcDbSymbolTableRecord
100
AcDbLinetypeTableRecord
  2
ByBlock
 70
     0
  3

 72
    65
 73
     0
 40
0.0
  0
LTYPE
  5
15
330
5
100
AcDbSymbolTableRecord
100
AcDbLinetypeTableRecord
  2
ByLayer
 70
     0
  3

 72
    65
 73
     0
 40
0.0
  0
LTYPE
  5
16
330
5
100
AcDbSymbolTableRecord
100
AcDbLinetypeTableRecord
  2
Continuous
 70
     0
  3
Solid line
 72
    65
 73
     0
 40
0.0
  0
LTYPE
  5
3F
330
5
100
AcDbSymbolTableRecord
100
AcDbLinetypeTableRecord
  2
DASHED
 70
     0
  3
Dashed
 72
    65
 73
     2
 40
15.0
 49
7.0
 74
     0
 49
-8.0
 74
     0
  0
LTYPE
  5
40
330
5
100
AcDbSymbolTableRecord
100
AcDbLinetypeTableRecord
  2
DOTTED
 70
     0
  3
Dotted
 72
    65
 73
     2
 40
1.0
 49
0.0
 74
     0
 49
-1.0
 74
     0
  0
LTYPE
  5
41
330
5
100
AcDbSymbolTableRecord
100
AcDbLinetypeTableRecord
  2
DOT_CENTER
 70
     0
  3
Dot_Center
 72
    65
 73
     4
 40
14.0
 49
12.0
 74
     0
 49
-1.0
 74
     0
 49
0.0
 74
     0
 49
-1.0
 74
     0
  0
LTYPE
  5
42
330
5
100
AcDbSymbolTableRecord
100
AcDbLinetypeTableRecord
  2
LONG_DASHED
 70
     0
  3
Long_Dashed
 72
    65
 73
     2
 40
15.0
 49
10.0
 74
     0
 49
-5.0
 74
     0
  0
LTYPE
  5
43
330
5
100
AcDbSymbolTableRecord
100
AcDbLinetypeTableRecord
  2
DASH_CENTER
 70
     0
  3
Dash_Center
 72
    65
 73
     4
 40
14.0
 49
11.0
 74
     0
 49
-1.0
 74
     0
 49
1.0
 74
     0
 49
-1.0
 74
     0
  0
LTYPE
  5
44
330
5
100
AcDbSymbolTableRecord
100
AcDbLinetypeTableRecord
  2
PHANTOM
 70
     0
  3
Phantom
 72
    65
 73
     6
 40
13.0
 49
10.0
 74
     0
 49
-1.0
 74
     0
 49
0.0
 74
     0
 49
-1.0
 74
     0
 49
0.0
 74
     0
 49
-1.0
 74
     0
  0
LTYPE
  5
45
330
5
100
AcDbSymbolTableRecord
100
AcDbLinetypeTableRecord
  2
CENTER_DASH_DASH
 70
     0
  3
Center_Dash_Dash
 72
    65
 73
     6
 40
14.0
 49
9.0
 74
     0
 49
-1.0
 74
     0
 49
1.0
 74
     0
 49
-1.0
 74
     0
 49
1.0
 74
     0
 49
-1.0
 74
     0
  0
ENDTAB
  0
TABLE
  2
LAYER
  5
2
330
0
100
AcDbSymbolTable
 70
     2
  0
LAYER
  5
10
330
2
100
AcDbSymbolTableRecord
100
AcDbLayerTableRecord
  2
0
 70
     0
 62
     7
  6
Continuous
370
    -3
390
F
  0
LAYER
  5
46
330
2
100
AcDbSymbolTableRecord
100
AcDbLayerTableRecord
  2
1
 70
     0
 62
     7
  6
Continuous
370
    -3
390
F
  0
ENDTAB
  0
TABLE
  2
STYLE
  5
3
330
0
100
AcDbSymbolTable
 70
     9
  0
STYLE
  5
11
330
3
100
AcDbSymbolTableRecord
100
AcDbTextStyleTableRecord
  2
Standard
 70
     0
 40
0.0
 41
1.0
 50
0.0
 71
     0
 42
0.2
  3
txt
  4

  0
STYLE
  5
C3
330
3
100
AcDbSymbolTableRecord
100
AcDbTextStyleTableRecord
  2
CONVERTER_11
 70
     0
 40
0.0
 41
0.9
 50
0.0
 71
     0
 42
0.2
  3
txt.shx
  4

  0
STYLE
  5
2D4
330
3
100
AcDbSymbolTableRecord
100
AcDbTextStyleTableRecord
  2
CONVERTER_12
 70
     0
 40
0.0
 41
0.765
 50
0.0
 71
     0
 42
0.2
  3
txt.shx
  4

  0
STYLE
  5
2FB
330
3
100
AcDbSymbolTableRecord
100
AcDbTextStyleTableRecord
  2
CONVERTER_13
 70
     0
 40
0.0
 41
0.855
 50
0.0
 71
     0
 42
0.2
  3
txt.shx
  4

  0
STYLE
  5
317
330
3
100
AcDbSymbolTableRecord
100
AcDbTextStyleTableRecord
  2
CONVERTER_14
 70
     0
 40
0.0
 41
0.72
 50
0.0
 71
     0
 42
0.2
  3
txt.shx
  4

  0
STYLE
  5
319
330
3
100
AcDbSymbolTableRecord
100
AcDbTextStyleTableRecord
  2
CONVERTER_15
 70
     0
 40
0.0
 41
0.54
 50
0.0
 71
     0
 42
0.2
  3
txt.shx
  4

  0
STYLE
  5
31B
330
3
100
AcDbSymbolTableRecord
100
AcDbTextStyleTableRecord
  2
CONVERTER_16
 70
     0
 40
0.0
 41
0.81
 50
0.0
 71
     0
 42
0.2
  3
txt.shx
  4

  0
STYLE
  5
336
330
3
100
AcDbSymbolTableRecord
100
AcDbTextStyleTableRecord
  2
CONVERTER_17
 70
     0
 40
0.0
 41
0.45
 50
0.0
 71
     0
 42
0.2
  3
txt.shx
  4

  0
STYLE
  5
339
330
3
100
AcDbSymbolTableRecord
100
AcDbTextStyleTableRecord
  2
CONVERTER_18
 70
     0
 40
0.0
 41
0.63
 50
0.0
 71
     0
 42
0.2
  3
txt.shx
  4

  0
ENDTAB
  0
TABLE
  2
VIEW
  5
6
330
0
100
AcDbSymbolTable
 70
     0
  0
ENDTAB
  0
TABLE
  2
UCS
  5
7
330
0
100
AcDbSymbolTable
 70
     0
  0
ENDTAB
  0
TABLE
  2
APPID
  5
9
330
0
100
AcDbSymbolTable
 70
     1
  0
APPID
  5
12
330
9
100
AcDbSymbolTableRecord
100
AcDbRegAppTableRecord
  2
ACAD
 70
     0
  0
ENDTAB
  0
TABLE
  2
DIMSTYLE
  5
A
330
0
100
AcDbSymbolTable
 70
     4
100
AcDbDimStyleTable
  0
DIMSTYLE
105
27
330
A
100
AcDbSymbolTableRecord
100
AcDbDimStyleTableRecord
  2
Standard
 70
     0
178
     0
340
11
  0
DIMSTYLE
105
DB
102
{ACAD_REACTORS
330
DC
102
}
330
A
100
AcDbSymbolTableRecord
100
AcDbDimStyleTableRecord
  2
ME10_DIM_10
 70
     0
 41
3.5
 42
0.0
 44
2.0
 73
     0
 74
     0
 77
     1
 78
     8
140
3.5
147
2.0
172
     1
173
     1
174
     1
175
     1
176
     2
177
     2
178
     3
340
C3
  0
DIMSTYLE
105
112
102
{ACAD_REACTORS
330
113
102
}
330
A
100
AcDbSymbolTableRecord
100
AcDbDimStyleTableRecord
  2
ME10_DIM_11
 70
     0
 41
3.5
 42
0.0
 44
2.0
 73
     0
 74
     0
 77
     1
 78
     8
140
3.5
147
2.0
172
     1
173
     1
174
     1
175
     1
176
     2
177
     2
178
     3
340
C3
  0
DIMSTYLE
105
11D
102
{ACAD_REACTORS
330
11E
102
}
330
A
100
AcDbSymbolTableRecord
100
AcDbDimStyleTableRecord
  2
ME10_DIM_12
 70
     0
 41
3.5
 42
0.0
 44
2.0
 73
     0
 74
     0
 77
     1
 78
     8
140
3.5
147
2.0
172
     1
173
     1
174
     1
175
     1
176
     2
177
     2
178
     3
340
C3
  0
ENDTAB
  0
TABLE
  2
BLOCK_RECORD
  5
1
330
0
100
AcDbSymbolTable
 70
    19
  0
BLOCK_RECORD
  5
1F
330
1
100
AcDbSymbolTableRecord
100
AcDbBlockTableRecord
  2
*Model_Space
340
22
  0
BLOCK_RECORD
  5
1B
330
1
100
AcDbSymbolTableRecord
100
AcDbBlockTableRecord
  2
*Paper_Space
340
1E
  0
BLOCK_RECORD
  5
23
330
1
100
AcDbSymbolTableRecord
100
AcDbBlockTableRecord
  2
*Paper_Space0
340
26
  0
BLOCK_RECORD
  5
47
330
1
100
AcDbSymbolTableRecord
100
AcDbBlockTableRecord
  2
1407702_HC_B10_SG_RBK-select__1
340
0
102
{BLKREFS
331
4B
102
}
  0
BLOCK_RECORD
  5
4A
330
1
100
AcDbSymbolTableRecord
100
AcDbBlockTableRecord
  2
Allg1
340
0
102
{BLKREFS
331
7C
102
}
  0
BLOCK_RECORD
  5
4E
330
1
100
AcDbSymbolTableRecord
100
AcDbBlockTableRecord
  2
1407702_HC_B10_SG_RBK-select__2
340
0
102
{BLKREFS
331
52
102
}
  0
BLOCK_RECORD
  5
51
330
1
100
AcDbSymbolTableRecord
100
AcDbBlockTableRecord
  2
SA_Links1
340
0
102
{BLKREFS
331
7D
102
}
  0
BLOCK_RECORD
  5
55
330
1
100
AcDbSymbolTableRecord
100
AcDbBlockTableRecord
  2
1407702_HC_B10_SG_RBK-select__3
340
0
102
{BLKREFS
331
59
102
}
  0
BLOCK_RECORD
  5
58
330
1
100
AcDbSymbolTableRecord
100
AcDbBlockTableRecord
  2
Drfsicht1
340
0
102
{BLKREFS
331
7E
102
}
  0
BLOCK_RECORD
  5
5C
330
1
100
AcDbSymbolTableRecord
100
AcDbBlockTableRecord
  2
1407702_HC_B10_SG_RBK-select__4
340
0
102
{BLKREFS
331
60
102
}
  0
BLOCK_RECORD
  5
5F
330
1
100
AcDbSymbolTableRecord
100
AcDbBlockTableRecord
  2
Vordans1
340
0
102
{BLKREFS
331
7F
102
}
  0
BLOCK_RECORD
  5
63
330
1
100
AcDbSymbolTableRecord
100
AcDbBlockTableRecord
  2
1407702_HC_B10_SG_RBK-select__5
340
0
102
{BLKREFS
331
67
102
}
  0
BLOCK_RECORD
  5
66
330
1
100
AcDbSymbolTableRecord
100
AcDbBlockTableRecord
  2
SA_Rechts1
340
0
102
{BLKREFS
331
80
102
}
  0
BLOCK_RECORD
  5
6A
330
1
100
AcDbSymbolTableRecord
100
AcDbBlockTableRecord
  2
1407702_HC_B10_SG_RBK-select__6
340
0
102
{BLKREFS
331
6E
102
}
  0
BLOCK_RECORD
  5
6D
330
1
100
AcDbSymbolTableRecord
100
AcDbBlockTableRecord
  2
Rckans1
340
0
102
{BLKREFS
331
81
102
}
  0
BLOCK_RECORD
  5
71
330
1
100
AcDbSymbolTableRecord
100
AcDbBlockTableRecord
  2
_rahmen
340
0
102
{BLKREFS
331
78
102
}
  0
BLOCK_RECORD
  5
74
330
1
100
AcDbSymbolTableRecord
100
AcDbBlockTableRecord
  2
_punkt
340
0
102
{BLKREFS
331
79
102
}
  0
BLOCK_RECORD
  5
77
330
1
100
AcDbSymbolTableRecord
100
AcDbBlockTableRecord
  2
A3I
340
0
102
{BLKREFS
331
82
102
}
  0
BLOCK_RECORD
  5
D0
330
1
100
AcDbSymbolTableRecord
100
AcDbBlockTableRecord
  2
*D16
340
0
  0
BLOCK_RECORD
  5
109
330
1
100
AcDbSymbolTableRecord
100
AcDbBlockTableRecord
  2
*D17
340
0
  0
BLOCK_RECORD
  5
114
330
1
100
AcDbSymbolTableRecord
100
AcDbBlockTableRecord
  2
*D18
340
0
  0
ENDTAB
  0
ENDSEC
  0
SECTION
  2
BLOCKS
  0
BLOCK
  5
20
330
1F
100
AcDbEntity
  8
0
100
AcDbBlockBegin
  2
*Model_Space
 70
     0
 10
0.0
 20
0.0
 30
0.0
  3
*Model_Space
  1

  0
ENDBLK
  5
21
330
1F
100
AcDbEntity
  8
0
100
AcDbBlockEnd
  0
BLOCK
  5
1C
330
1B
100
AcDbEntity
 67
     1
  8
0
100
AcDbBlockBegin
  2
*Paper_Space
 70
     0
 10
0.0
 20
0.0
 30
0.0
  3
*Paper_Space
  1

  0
ENDBLK
  5
1D
330
1B
100
AcDbEntity
 67
     1
  8
0
100
AcDbBlockEnd
  0
BLOCK
  5
24
330
23
100
AcDbEntity
  8
0
100
AcDbBlockBegin
  2
*Paper_Space0
 70
     0
 10
0.0
 20
0.0
 30
0.0
  3
*Paper_Space0
  1

  0
ENDBLK
  5
25
330
23
100
AcDbEntity
  8
0
100
AcDbBlockEnd
  0
BLOCK
  5
48
330
47
100
AcDbEntity
  8
0
100
AcDbBlockBegin
  2
1407702_HC_B10_SG_RBK-select__1
 70
     0
 10
-880.4496730882503
 20
-1121.663561032012
 30
0.0
  3
1407702_HC_B10_SG_RBK-select__1
  1

  0
LINE
  5
83
330
47
100
AcDbEntity
  8
0
  6
Continuous
 62
     7
100
AcDbLine
 10
-847.1102534232698
 20
-1057.588046527015
 30
0.0
 11
-840.9589147405628
 21
-1059.363785049184
 31
0.0
  0
LINE
  5
84
330
47
100
AcDbEntity
  8
0
  6
Continuous
 62
     7
100
AcDbLine
 10
-846.1102534232698
 20
-1056.722021123231
 30
0.0
 11
-840.9589147405628
 21
-1058.209084510805
 31
0.0
  0
LINE
  5
85
330
47
100
AcDbEntity
  8
0
  6
Continuous
 62
     7
100
AcDbLine
 10
-847.1102534232698
 20
-1116.591011532296
 30
0.0
 11
-846.1102534232698
 21
-1115.724986128512
 31
0.0
  0
LINE
  5
86
330
47
100
AcDbEntity
  8
0
  6
Continuous
 62
     7
100
AcDbLine
 10
-846.1102534232698
 20
-1115.724986128512
 30
0.0
 11
-843.1204056288591
 21
-1117.389208144984
 31
0.0
  0
LINE
  5
87
330
47
100
AcDbEntity
  8
0
  6
Continuous
 62
     7
100
AcDbLine
 10
-838.8872978697369
 20
-1121.663561032012
 30
0.0
 11
-837.8872978697369
 21
-1120.797535628227
 31
0.0
  0
LINE
  5
88
330
47
100
AcDbEntity
  8
0
  6
Continuous
 62
     2
100
AcDbLine
 10
-843.1204056288591
 20
-1117.389208144984
 30
0.0
 11
-844.1204056288597
 21
-1118.255233548769
 31
0.0
  0
LINE
  5
89
330
47
100
AcDbEntity
  8
0
  6
Continuous
 62
     7
100
AcDbLine
 10
-840.9589147405629
 20
-1113.052243452155
 30
0.0
 11
-847.1102534232698
 21
-1111.276504929986
 31
0.0
  0
LINE
  5
8A
330
47
100
AcDbEntity
  8
0
  6
Continuous
 62
     7
100
AcDbLine
 10
-834.5503266876749
 20
-1109.567711963491
 30
0.0
 11
-838.8872978697369
 21
-1121.663561032012
 31
0.0
  0
LINE
  5
8B
330
47
100
AcDbEntity
  8
0
  6
Continuous
 62
     7
100
AcDbLine
 10
-846.1102534232698
 20
-1111.565180064581
 30
0.0
 11
-846.1102534232698
 21
-1115.724986128512
 31
0.0
  0
LINE
  5
8C
330
47
100
AcDbEntity
  8
0
  6
Continuous
 62
     7
100
AcDbLine
 10
-847.1102534232698
 20
-1111.276504929986
 30
0.0
 11
-847.1102534232698
 21
-1116.591011532296
 31
0.0
  0
LINE
  5
8D
330
47
100
AcDbEntity
  8
0
  6
Continuous
 62
     7
100
AcDbLine
 10
-847.1102534232698
 20
-1116.591011532296
 30
0.0
 11
-844.1204056288597
 21
-1118.255233548769
 31
0.0
  0
LINE
  5
8E
330
47
100
AcDbEntity
  8
0
  6
Continuous
 62
     7
100
AcDbLine
 10
-838.8872978697369
 20
-1121.663561032012
 30
0.0
 11
-876.1127019061955
 21
-1110.917512511441
 31
0.0
  0
LINE
  5
8F
330
47
100
AcDbEntity
  8
0
  6
Continuous
 62
     7
100
AcDbLine
 10
-871.6554444541904
 20
-1100.873712873476
 30
0.0
 11
-872.6554444541904
 21
-1101.73973827726
 31
0.0
  0
LINE
  5
90
330
47
100
AcDbEntity
  8
0
  6
Continuous
 62
     7
100
AcDbLine
 10
-869.8795942119503
 20
-1109.664495779113
 30
0.0
 11
-867.8897464175408
 21
-1109.705737249415
 31
0.0
  0
LINE
  5
91
330
47
100
AcDbEntity
  8
0
  6
Continuous
 62
     2
100
AcDbLine
 10
-870.8795942119503
 20
-1110.530521182898
 30
0.0
 11
-869.8795942119503
 21
-1109.664495779113
 31
0.0
  0
LINE
  5
92
330
47
100
AcDbEntity
  8
0
  6
Continuous
 62
     7
100
AcDbLine
 10
-870.8795942119503
 20
-1110.530521182898
 30
0.0
 11
-867.8897464175408
 21
-1110.592488595363
 31
0.0
  0
LINE
  5
93
330
47
100
AcDbEntity
  8
0
  6
Continuous
 62
     7
100
AcDbLine
 10
-867.8897464175408
 20
-1110.592488595363
 30
0.0
 11
-867.8897464175408
 21
-1105.277981993053
 31
0.0
  0
LINE
  5
94
330
47
100
AcDbEntity
  8
0
  6
Continuous
 62
     7
100
AcDbLine
 10
-867.8897464175408
 20
-1105.277981993053
 30
0.0
 11
-874.0410851002471
 21
-1103.502243470884
 31
0.0
  0
LINE
  5
95
330
47
100
AcDbEntity
  8
0
  6
Continuous
 62
     7
100
AcDbLine
 10
-842.3445553217348
 20
-1110.48973827726
 30
0.0
 11
-872.6554444541904
 21
-1101.73973827726
 31
0.0
  0
LINE
  5
96
330
47
100
AcDbEntity
  8
0
  6
Continuous
 62
     7
100
AcDbLine
 10
-842.3445553217348
 20
-1109.335037738881
 30
0.0
 11
-871.6554444541904
 21
-1100.873712873476
 31
0.0
  0
LINE
  5
97
330
47
100
AcDbEntity
  8
0
  6
Continuous
 62
     7
100
AcDbLine
 10
-833.5503266876748
 20
-1108.701686559707
 30
0.0
 11
-833.5503266876748
 21
-1065.682291171516
 31
0.0
  0
LINE
  5
98
330
47
100
AcDbEntity
  8
0
  6
Continuous
 62
     7
100
AcDbLine
 10
-833.5503266876748
 20
-1065.682291171516
 30
0.0
 11
-834.5503266876748
 21
-1066.5483165753
 31
0.0
  0
LINE
  5
99
330
47
100
AcDbEntity
  8
0
  6
Continuous
 62
     7
100
AcDbLine
 10
-833.5503266876748
 20
-1108.701686559707
 30
0.0
 11
-834.5503266876749
 21
-1109.567711963491
 31
0.0
  0
LINE
  5
9A
330
47
100
AcDbEntity
  8
0
  6
Continuous
 62
     7
100
AcDbLine
 10
-837.8872978697369
 20
-1120.797535628227
 30
0.0
 11
-833.5503266876748
 21
-1108.701686559707
 31
0.0
  0
LINE
  5
9B
330
47
100
AcDbEntity
  8
0
  6
Continuous
 62
     7
100
AcDbLine
 10
-847.1102534232698
 20
-1057.588046527015
 30
0.0
 11
-846.1102534232698
 21
-1056.722021123231
 31
0.0
  0
LINE
  5
9C
330
47
100
AcDbEntity
  8
0
  6
Continuous
 62
     7
100
AcDbLine
 10
-846.1102534232698
 20
-1052.294265866869
 30
0.0
 11
-846.1102534232698
 21
-1056.722021123231
 31
0.0
  0
LINE
  5
9D
330
47
100
AcDbEntity
  8
0
  6
Continuous
 62
     7
100
AcDbLine
 10
-844.1204056288595
 20
-1052.335507337171
 30
0.0
 11
-847.1102534232698
 21
-1052.273539924706
 31
0.0
  0
LINE
  5
9E
330
47
100
AcDbEntity
  8
0
  6
Continuous
 62
     7
100
AcDbLine
 10
-847.1102534232698
 20
-1052.273539924706
 30
0.0
 11
-847.1102534232698
 21
-1057.588046527015
 31
0.0
  0
LINE
  5
9F
330
47
100
AcDbEntity
  8
0
  6
Continuous
 62
     7
100
AcDbLine
 10
-876.1127019061983
 20
-1041.202467506784
 30
0.0
 11
-875.1127019061983
 21
-1040.336442103
 31
0.0
  0
LINE
  5
A0
330
47
100
AcDbEntity
  8
0
  6
Continuous
 62
     7
100
AcDbLine
 10
-872.6554444541903
 20
-1052.37629026153
 30
0.0
 11
-842.3445553217348
 21
-1061.12629026153
 31
0.0
  0
LINE
  5
A1
330
47
100
AcDbEntity
  8
0
  6
Continuous
 62
     7
100
AcDbLine
 10
-840.9589147405628
 20
-1059.363785049184
 30
0.0
 11
-840.9589147405628
 21
-1055.67404842571
 31
0.0
  0
LINE
  5
A2
330
47
100
AcDbEntity
  8
0
  6
Continuous
 62
     7
100
AcDbLine
 10
-834.5503266876748
 20
-1066.5483165753
 30
0.0
 11
-834.5503266876749
 21
-1109.567711963491
 31
0.0
  0
LINE
  5
A3
330
47
100
AcDbEntity
  8
0
  6
Continuous
 62
     7
100
AcDbLine
 10
-842.3445553217348
 20
-1061.12629026153
 30
0.0
 11
-842.3445553217348
 21
-1110.48973827726
 31
0.0
  0
LINE
  5
A4
330
47
100
AcDbEntity
  8
0
  6
Continuous
 62
     7
100
AcDbLine
 10
-840.9589147405629
 20
-1116.741980075629
 30
0.0
 11
-840.9589147405629
 21
-1113.052243452155
 31
0.0
  0
LINE
  5
A5
330
47
100
AcDbEntity
  8
0
  6
Continuous
 62
     7
100
AcDbLine
 10
-880.4496730882503
 20
-1053.298316575277
 30
0.0
 11
-880.4496730882503
 21
-1096.317711963514
 31
0.0
  0
LINE
  5
A6
330
47
100
AcDbEntity
  8
0
  6
Continuous
 62
     7
100
AcDbLine
 10
-873.0410851002471
 20
-1103.790918605479
 30
0.0
 11
-873.0410851002471
 21
-1106.325954690574
 31
0.0
  0
LINE
  5
A7
330
47
100
AcDbEntity
  8
0
  6
Continuous
 62
     7
100
AcDbLine
 10
-874.0410851002471
 20
-1103.502243470884
 30
0.0
 11
-874.0410851002471
 21
-1107.191980094359
 31
0.0
  0
LINE
  5
A8
330
47
100
AcDbEntity
  8
0
  6
Continuous
 62
     7
100
AcDbLine
 10
-872.6554444541904
 20
-1101.73973827726
 30
0.0
 11
-872.6554444541903
 21
-1052.37629026153
 31
0.0
  0
LINE
  5
A9
330
47
100
AcDbEntity
  8
0
  6
Continuous
 62
     7
100
AcDbLine
 10
-880.4496730882503
 20
-1053.298316575277
 30
0.0
 11
-876.1127019061983
 21
-1041.202467506784
 31
0.0
  0
LINE
  5
AA
330
47
100
AcDbEntity
  8
0
  6
Continuous
 62
     2
100
AcDbLine
 10
-874.0410851002471
 20
-1107.191980094359
 30
0.0
 11
-873.0410851002471
 21
-1106.325954690574
 31
0.0
  0
LINE
  5
AB
330
47
100
AcDbEntity
  8
0
  6
Continuous
 62
     7
100
AcDbLine
 10
-880.4496730882503
 20
-1096.317711963514
 30
0.0
 11
-876.1127019061955
 21
-1110.917512511441
 31
0.0
  0
LINE
  5
AC
330
47
100
AcDbEntity
  8
0
  6
Continuous
 62
     7
100
AcDbLine
 10
-871.6554444541904
 20
-1100.873712873476
 30
0.0
 11
-871.6554444541903
 21
-1052.664965396125
 31
0.0
  0
LINE
  5
AD
330
47
100
AcDbEntity
  8
0
  6
Continuous
 62
     2
100
AcDbLine
 10
-873.0410851002471
 20
-1045.258023040655
 30
0.0
 11
-874.0410851002471
 21
-1046.12404844444
 31
0.0
  0
LINE
  5
AE
330
47
100
AcDbEntity
  8
0
  6
Continuous
 62
     7
100
AcDbLine
 10
-867.8897464175407
 20
-1051.589523590082
 30
0.0
 11
-867.8897464175407
 21
-1046.275016987773
 31
0.0
  0
LINE
  5
AF
330
47
100
AcDbEntity
  8
0
  6
Continuous
 62
     7
100
AcDbLine
 10
-867.8897464175407
 20
-1046.275016987773
 30
0.0
 11
-870.8795942119503
 21
-1044.610794971299
 31
0.0
  0
LINE
  5
B0
330
47
100
AcDbEntity
  8
0
  6
Continuous
 62
     7
100
AcDbLine
 10
-873.0410851002471
 20
-1045.258023040655
 30
0.0
 11
-873.0410851002471
 21
-1048.947759664129
 31
0.0
  0
LINE
  5
B1
330
47
100
AcDbEntity
  8
0
  6
Continuous
 62
     7
100
AcDbLine
 10
-874.0410851002471
 20
-1046.12404844444
 30
0.0
 11
-874.0410851002471
 21
-1049.813785067914
 31
0.0
  0
LINE
  5
B2
330
47
100
AcDbEntity
  8
0
  6
Continuous
 62
     7
100
AcDbLine
 10
-873.0410851002471
 20
-1048.947759664129
 30
0.0
 11
-867.8897464175407
 21
-1050.434823051703
 31
0.0
  0
LINE
  5
B3
330
47
100
AcDbEntity
  8
0
  6
Continuous
 62
     7
100
AcDbLine
 10
-874.0410851002471
 20
-1049.813785067914
 30
0.0
 11
-867.8897464175407
 21
-1051.589523590082
 31
0.0
  0
LINE
  5
B4
330
47
100
AcDbEntity
  8
0
  6
Continuous
 62
     7
100
AcDbLine
 10
-838.8872978697343
 20
-1051.948516027357
 30
0.0
 11
-837.8872978697343
 21
-1051.082490623573
 31
0.0
  0
LINE
  5
B5
330
47
100
AcDbEntity
  8
0
  6
Continuous
 62
     7
100
AcDbLine
 10
-874.0410851002471
 20
-1049.813785067914
 30
0.0
 11
-873.0410851002471
 21
-1048.947759664129
 31
0.0
  0
LINE
  5
B6
330
47
100
AcDbEntity
  8
0
  6
Continuous
 62
     7
100
AcDbLine
 10
-876.1127019061983
 20
-1041.202467506784
 30
0.0
 11
-838.8872978697343
 21
-1051.948516027357
 31
0.0
  0
LINE
  5
B7
330
47
100
AcDbEntity
  8
0
  6
Continuous
 62
     7
100
AcDbLine
 10
-834.5503266876748
 20
-1066.5483165753
 30
0.0
 11
-838.8872978697343
 21
-1051.948516027357
 31
0.0
  0
LINE
  5
B8
330
47
100
AcDbEntity
  8
0
  6
Continuous
 62
     7
100
AcDbLine
 10
-837.8872978697343
 20
-1051.082490623573
 30
0.0
 11
-833.5503266876748
 21
-1065.682291171516
 31
0.0
  0
LINE
  5
B9
330
47
100
AcDbEntity
  8
0
  6
Continuous
 62
     7
100
AcDbLine
 10
-875.1127019061983
 20
-1040.336442103
 30
0.0
 11
-837.8872978697343
 21
-1051.082490623573
 31
0.0
  0
SPLINE
  5
BA
330
47
100
AcDbEntity
  8
0
  6
Continuous
 62
     7
100
AcDbSpline
210
0.0
220
0.0
230
1.0
 70
     8
 71
     3
 72
    15
 73
    11
 74
     9
 42
0.000000001
 43
0.0000000001
 44
0.00000001
 40
0.0
 40
0.0
 40
0.0
 40
0.0
 40
0.5928765022242527
 40
1.219780586233667
 40
1.871130689471008
 40
2.533551731483094
 40
3.192067560352632
 40
3.832259244177421
 40
4.442436698883117
 40
5.015845452727713
 40
5.015845452727713
 40
5.015845452727713
 40
5.015845452727713
 10
-874.0410851002471
 20
-1107.191980094359
 30
0.0
 10
-874.0275396685855
 20
-1107.389864290295
 30
0.0
 10
-873.9996713633715
 20
-1107.796990055354
 30
0.0
 10
-873.7947787406497
 20
-1108.392834244196
 30
0.0
 10
-873.4852430058013
 20
-1108.963447019047
 30
0.0
 10
-873.0729322587429
 20
-1109.479944190035
 30
0.0
 10
-872.5825693862723
 20
-1109.917640930154
 30
0.0
 10
-872.0373904867897
 20
-1110.250190382449
 30
0.0
 10
-871.4650910958644
 20
-1110.475198575951
 30
0.0
 10
-871.0706756020242
 20
-1110.512466231466
 30
0.0
 10
-870.8795942119503
 20
-1110.530521182898
 30
0.0
 11
-874.0410851002471
 21
-1107.191980094359
 31
0.0
 11
-873.9754775289089
 21
-1107.781215356538
 31
0.0
 11
-873.7820837058466
 21
-1108.377543757203
 31
0.0
 11
-873.4710065980416
 21
-1108.949809422339
 31
0.0
 11
-873.0584997301327
 21
-1109.468114084249
 31
0.0
 11
-872.5661141444606
 21
-1109.905377774022
 31
0.0
 11
-872.0195756364778
 21
-1110.23875601951
 31
0.0
 11
-871.4474383240569
 21
-1110.450830122812
 31
0.0
 11
-870.8795942119503
 21
-1110.530521182898
 31
0.0
  0
SPLINE
  5
BB
330
47
100
AcDbEntity
  8
0
  6
Continuous
 62
     7
100
AcDbSpline
210
0.0
220
0.0
230
1.0
 70
     8
 71
     3
 72
    15
 73
    11
 74
     9
 42
0.000000001
 43
0.0000000001
 44
0.00000001
 40
0.0
 40
0.0
 40
0.0
 40
0.0
 40
0.5928765022249307
 40
1.219780586234561
 40
1.871130689471902
 40
2.533551731483633
 40
3.192067560353019
 40
3.832259244177927
 40
4.442436698883466
 40
5.015845452728061
 40
5.015845452728061
 40
5.015845452728061
 40
5.015845452728061
 10
-873.0410851002471
 20
-1106.325954690574
 30
0.0
 10
-873.0275396685855
 20
-1106.52383888651
 30
0.0
 10
-872.9996713633718
 20
-1106.93096465157
 30
0.0
 10
-872.7947787406492
 20
-1107.526808840412
 30
0.0
 10
-872.4852430058015
 20
-1108.097421615263
 30
0.0
 10
-872.0729322587429
 20
-1108.61391878625
 30
0.0
 10
-871.5825693862721
 20
-1109.051615526369
 30
0.0
 10
-871.0373904867901
 20
-1109.384164978665
 30
0.0
 10
-870.4650910958642
 20
-1109.609173172165
 30
0.0
 10
-870.0706756020242
 20
-1109.646440827681
 30
0.0
 10
-869.8795942119503
 20
-1109.664495779113
 30
0.0
 11
-873.0410851002471
 21
-1106.325954690574
 31
0.0
 11
-872.9754775289089
 21
-1106.915189952753
 31
0.0
 11
-872.7820837058466
 21
-1107.511518353419
 31
0.0
 11
-872.4710065980416
 21
-1108.083784018555
 31
0.0
 11
-872.0584997301327
 21
-1108.602088680464
 31
0.0
 11
-871.5661141444606
 21
-1109.039352370237
 31
0.0
 11
-871.0195756364778
 21
-1109.372730615725
 31
0.0
 11
-870.4474383240569
 21
-1109.584804719027
 31
0.0
 11
-869.8795942119503
 21
-1109.664495779113
 31
0.0
  0
SPLINE
  5
BC
330
47
100
AcDbEntity
  8
0
  6
Continuous
 62
     7
100
AcDbSpline
210
0.0
220
0.0
230
1.0
 70
     8
 71
     3
 72
    11
 73
     7
 74
     5
 42
0.000000001
 43
0.0000000001
 44
0.00000001
 40
0.0
 40
0.0
 40
0.0
 40
0.0
 40
0.388767652873803
 40
0.786742681057479
 40
1.20142217357811
 40
1.637489334509269
 40
1.637489334509269
 40
1.637489334509269
 40
1.637489334509269
 10
-841.5718927664847
 20
-1118.209174019083
 30
0.0
 10
-841.4795914406329
 20
-1118.117286590733
 30
0.0
 10
-841.2928027823702
 20
-1117.931335509091
 30
0.0
 10
-841.10282769017
 20
-1117.573205321069
 30
0.0
 10
-840.9801732380215
 20
-1117.171928227724
 30
0.0
 10
-840.9661186780485
 20
-1116.887678131266
 30
0.0
 10
-840.9589147405629
 20
-1116.741980075629
 30
0.0
 11
-841.5718927664847
 21
-1118.209174019083
 31
0.0
 11
-841.3102220862132
 21
-1117.921652290806
 31
0.0
 11
-841.1171436487675
 21
-1117.573651081132
 31
0.0
 11
-840.9987885642316
 21
-1117.17622038637
 31
0.0
 11
-840.9589147405629
 21
-1116.741980075629
 31
0.0
  0
SPLINE
  5
BD
330
47
100
AcDbEntity
  8
0
  6
Continuous
 62
     7
100
AcDbSpline
210
0.0
220
0.0
230
1.0
 70
     8
 71
     3
 72
    13
 73
     9
 74
     7
 42
0.000000001
 43
0.0000000001
 44
0.00000001
 40
0.0
 40
0.0
 40
0.0
 40
0.0
 40
0.5072465365132015
 40
0.9916648868600754
 40
1.451101540107189
 40
1.886766390788962
 40
2.303602131487224
 40
2.70996856093645
 40
2.70996856093645
 40
2.70996856093645
 40
2.70996856093645
 10
-844.1204056288597
 20
-1118.255233548769
 30
0.0
 10
-843.9689494638043
 20
-1118.331224859768
 30
0.0
 10
-843.6728532798375
 20
-1118.479787546376
 30
0.0
 10
-843.2023215772685
 20
-1118.605287497937
 30
0.0
 10
-842.7415296984935
 20
-1118.646521841928
 30
0.0
 10
-842.3048764108647
 20
-1118.5934520279
 30
0.0
 10
-841.9021481772199
 20
-1118.455433605477
 30
0.0
 10
-841.6810405675011
 20
-1118.290561616107
 30
0.0
 10
-841.5718927664847
 20
-1118.209174019083
 30
0.0
 11
-844.1204056288597
 21
-1118.255233548769
 31
0.0
 11
-843.6593758778738
 21
-1118.466776963554
 31
0.0
 11
-843.1917932644094
 21
-1118.593377273815
 31
0.0
 11
-842.7338705660943
 21
-1118.630644447507
 31
0.0
 11
-842.3014855409795
 21
-1118.577286652644
 31
0.0
 11
-841.9096306638729
 21
-1118.435153642041
 31
0.0
 11
-841.5718927664847
 21
-1118.209174019083
 31
0.0
  0
SPLINE
  5
BE
330
47
100
AcDbEntity
  8
0
  6
Continuous
 62
     7
100
AcDbSpline
210
0.0
220
0.0
230
1.0
 70
     8
 71
     3
 72
    11
 73
     7
 74
     5
 42
0.000000001
 43
0.0000000001
 44
0.00000001
 40
0.0
 40
0.0
 40
0.0
 40
0.0
 40
0.5496219100901971
 40
1.072010524577332
 40
1.564932336746812
 40
2.030947051927805
 40
2.030947051927805
 40
2.030947051927805
 40
2.030947051927805
 10
-843.1204056288591
 20
-1117.389208144984
 30
0.0
 10
-842.9559015751166
 20
-1117.471136717402
 30
0.0
 10
-842.6350444969977
 20
-1117.630934358042
 30
0.0
 10
-842.124554346293
 20
-1117.753273544703
 30
0.0
 10
-841.6258709134756
 20
-1117.78412833802
 30
0.0
 10
-841.3135766934078
 20
-1117.708894262182
 30
0.0
 10
-841.1618109647711
 20
-1117.672332725218
 30
0.0
 11
-843.1204056288591
 21
-1117.389208144984
 31
0.0
 11
-842.6193127315585
 21
-1117.615018136855
 31
0.0
 11
-842.11213583959
 21
-1117.740163919013
 31
0.0
 11
-841.6195946945363
 21
-1117.759532341235
 31
0.0
 11
-841.1618109647711
 21
-1117.672332725218
 31
0.0
  0
SPLINE
  5
BF
330
47
100
AcDbEntity
  8
0
  6
Continuous
 62
     7
100
AcDbSpline
210
0.0
220
0.0
230
1.0
 70
     8
 71
     3
 72
     9
 73
     5
 74
     3
 42
0.000000001
 43
0.0000000001
 44
0.00000001
 40
0.0
 40
0.0
 40
0.0
 40
0.0
 40
0.49264055525798
 40
0.958404740610058
 40
0.958404740610058
 40
0.958404740610058
 40
0.958404740610058
 10
-873.0410851002471
 20
-1045.258023040655
 30
0.0
 10
-873.0333539037769
 20
-1045.092629693401
 30
0.0
 10
-873.0183132724585
 20
-1044.770866158528
 30
0.0
 10
-872.8970972682224
 20
-1044.472614371579
 30
0.0
 10
-872.8381888760385
 20
-1044.327670391065
 30
0.0
 11
-873.0410851002471
 21
-1045.258023040655
 31
0.0
 11
-872.9898380548935
 21
-1044.768055227278
 31
0.0
 11
-872.8381888760385
 21
-1044.327670391065
 31
0.0
  0
SPLINE
  5
C0
330
47
100
AcDbEntity
  8
0
  6
Continuous
 62
     7
100
AcDbSpline
210
0.0
220
0.0
230
1.0
 70
     8
 71
     3
 72
    11
 73
     7
 74
     5
 42
0.000000001
 43
0.0000000001
 44
0.00000001
 40
0.0
 40
0.0
 40
0.0
 40
0.0
 40
0.4360671609311588
 40
0.8507466534518224
 40
1.248721681635498
 40
1.637489334509225
 40
1.637489334509225
 40
1.637489334509225
 40
1.637489334509225
 10
-874.0410851002471
 20
-1046.12404844444
 30
0.0
 10
-874.0338811627615
 20
-1045.978350388804
 30
0.0
 10
-874.0198266027891
 20
-1045.694100292346
 30
0.0
 10
-873.8971721506396
 20
-1045.292823199
 30
0.0
 10
-873.7071970584395
 20
-1044.934693010978
 30
0.0
 10
-873.5204084001773
 20
-1044.748741929336
 30
0.0
 10
-873.4281070743253
 20
-1044.656854500986
 30
0.0
 11
-874.0410851002471
 21
-1046.12404844444
 31
0.0
 11
-874.0012112765784
 21
-1045.689808133699
 31
0.0
 11
-873.8828561920424
 21
-1045.292377438937
 31
0.0
 11
-873.6897777545967
 21
-1044.944376229263
 31
0.0
 11
-873.4281070743253
 21
-1044.656854500986
 31
0.0
  0
SPLINE
  5
C1
330
47
100
AcDbEntity
  8
0
  6
Continuous
 62
     7
100
AcDbSpline
210
0.0
220
0.0
230
1.0
 70
     8
 71
     3
 72
    13
 73
     9
 74
     7
 42
0.000000001
 43
0.0000000001
 44
0.00000001
 40
0.0
 40
0.0
 40
0.0
 40
0.0
 40
0.4063664294495727
 40
0.8232021701477282
 40
1.258867020829642
 40
1.718303674076642
 40
2.202722024423397
 40
2.709968560936598
 40
2.709968560936598
 40
2.709968560936598
 40
2.709968560936598
 10
-873.4281070743253
 20
-1044.656854500986
 30
0.0
 10
-873.318959273309
 20
-1044.575466903962
 30
0.0
 10
-873.0978516635901
 20
-1044.410594914591
 30
0.0
 10
-872.6951234299452
 20
-1044.272576492169
 30
0.0
 10
-872.2584701423168
 20
-1044.21950667814
 30
0.0
 10
-871.7976782635413
 20
-1044.260741022132
 30
0.0
 10
-871.3271465609723
 20
-1044.386240973692
 30
0.0
 10
-871.0310503770055
 20
-1044.5348036603
 30
0.0
 10
-870.8795942119503
 20
-1044.610794971299
 30
0.0
 11
-873.4281070743253
 21
-1044.656854500986
 31
0.0
 11
-873.090369176937
 21
-1044.430874878027
 31
0.0
 11
-872.6985142998305
 21
-1044.288741867424
 31
0.0
 11
-872.2661292747156
 21
-1044.235384072561
 31
0.0
 11
-871.8082065764006
 21
-1044.272651246253
 31
0.0
 11
-871.3406239629362
 21
-1044.399251556513
 31
0.0
 11
-870.8795942119503
 21
-1044.610794971299
 31
0.0
  0
SPLINE
  5
C2
330
47
100
AcDbEntity
  8
0
  6
Continuous
 62
     7
100
AcDbSpline
210
0.0
220
0.0
230
1.0
 70
     8
 71
     3
 72
    15
 73
    11
 74
     9
 42
0.000000001
 43
0.0000000001
 44
0.00000001
 40
0.0
 40
0.0
 40
0.0
 40
0.0
 40
0.5928765022246921
 40
1.219780586233744
 40
1.871130689471031
 40
2.533551731483117
 40
3.19206756035289
 40
3.832259244177798
 40
4.442436698883415
 40
5.015845452727866
 40
5.015845452727866
 40
5.015845452727866
 40
5.015845452727866
 10
-840.9589147405628
 20
-1055.67404842571
 30
0.0
 10
-840.9724601722243
 20
-1055.476164229774
 30
0.0
 10
-841.0003284774378
 20
-1055.069038464714
 30
0.0
 10
-841.205221100161
 20
-1054.473194275873
 30
0.0
 10
-841.5147568350083
 20
-1053.902581501022
 30
0.0
 10
-841.9270675820671
 20
-1053.386084330034
 30
0.0
 10
-842.4174304545375
 20
-1052.948387589915
 30
0.0
 10
-842.9626093540202
 20
-1052.615838137619
 30
0.0
 10
-843.5349087449456
 20
-1052.390829944119
 30
0.0
 10
-843.929324238786
 20
-1052.353562288602
 30
0.0
 10
-844.1204056288595
 20
-1052.335507337171
 30
0.0
 11
-840.9589147405628
 21
-1055.67404842571
 31
0.0
 11
-841.0245223119009
 21
-1055.084813163531
 31
0.0
 11
-841.2179161349634
 21
-1054.488484762866
 31
0.0
 11
-841.5289932427683
 21
-1053.91621909773
 31
0.0
 11
-841.9415001106772
 21
-1053.39791443582
 31
0.0
 11
-842.4338856963494
 21
-1052.960650746047
 31
0.0
 11
-842.9804242043322
 21
-1052.627272500559
 31
0.0
 11
-843.5525615167531
 21
-1052.415198397257
 31
0.0
 11
-844.1204056288595
 21
-1052.335507337171
 31
0.0
  0
ENDBLK
  5
49
330
47
100
AcDbEntity
  8
0
100
AcDbBlockEnd
  0
BLOCK
  5
4C
330
4A
100
AcDbEntity
  8
0
100
AcDbBlockBegin
  2
Allg1
 70
     0
 10
-857.0000000000002
 20
-1081.0
 30
0.0
  3
Allg1
  1

  0
INSERT
  5
4B
330
4A
100
AcDbEntity
  8
0
100
AcDbBlockReference
  2
1407702_HC_B10_SG_RBK-select__1
 10
-880.4496730882503
 20
-1121.663561032012
 30
0.0
  0
MTEXT
  5
C4
330
4A
100
AcDbEntity
  8
1
 62
     6
100
AcDbMText
 10
-856.9999999999999
 20
-1127.915535085011
 30
0.0
 40
5.0
 41
0.0
 71
     2
 72
     1
  1
 
  7
CONVERTER_11
 73
     1
 44
1.32052821128451
  0
ENDBLK
  5
4D
330
4A
100
AcDbEntity
  8
0
100
AcDbBlockEnd
  0
BLOCK
  5
4F
330
4E
100
AcDbEntity
  8
0
100
AcDbBlockBegin
  2
1407702_HC_B10_SG_RBK-select__2
 70
     0
 10
-982.0
 20
-1005.250001772665
 30
0.0
  3
1407702_HC_B10_SG_RBK-select__2
  1

  0
LINE
  5
C5
330
4E
100
AcDbEntity
  8
0
  6
Continuous
 62
     7
100
AcDbLine
 10
-980.0
 20
-924.7500017726559
 30
0.0
 11
-982.0
 21
-924.7500017726559
 31
0.0
  0
LINE
  5
C6
330
4E
100
AcDbEntity
  8
0
  6
Continuous
 62
     7
100
AcDbLine
 10
-982.0
 20
-1005.250001772665
 30
0.0
 11
-982.0
 21
-989.8372612804295
 31
0.0
  0
LINE
  5
C7
330
4E
100
AcDbEntity
  8
0
  6
Continuous
 62
     7
100
AcDbLine
 10
-980.0
 20
-989.8372612804295
 30
0.0
 11
-982.0
 21
-989.8372612804295
 31
0.0
  0
LINE
  5
C8
330
4E
100
AcDbEntity
  8
0
  6
Continuous
 62
     7
100
AcDbLine
 10
-980.0
 20
-940.1627422648821
 30
0.0
 11
-982.0
 21
-940.1627422648821
 31
0.0
  0
LINE
  5
C9
330
4E
100
AcDbEntity
  8
0
  6
Continuous
 62
     7
100
AcDbLine
 10
-980.0
 20
-940.1627422648821
 30
0.0
 11
-980.0
 21
-924.7500017726559
 31
0.0
  0
LINE
  5
CA
330
4E
100
AcDbEntity
  8
0
  6
Continuous
 62
     7
100
AcDbLine
 10
-980.0
 20
-989.8372612804295
 30
0.0
 11
-980.0
 21
-1005.250001772665
 31
0.0
  0
LINE
  5
CB
330
4E
100
AcDbEntity
  8
0
  6
Continuous
 62
     7
100
AcDbLine
 10
-982.0
 20
-924.7500017726559
 30
0.0
 11
-982.0
 21
-940.1627422648821
 31
0.0
  0
LINE
  5
CC
330
4E
100
AcDbEntity
  8
0
  6
Continuous
 62
     7
100
AcDbLine
 10
-982.0
 20
-989.8372612804295
 30
0.0
 11
-982.0
 21
-940.1627422648821
 31
0.0
  0
LINE
  5
CD
330
4E
100
AcDbEntity
  8
0
  6
Continuous
 62
     7
100
AcDbLine
 10
-980.0
 20
-1005.250001772665
 30
0.0
 11
-982.0
 21
-1005.250001772665
 31
0.0
  0
LINE
  5
CE
330
4E
100
AcDbEntity
  8
0
  6
Continuous
 62
     7
100
AcDbLine
 10
-980.0
 20
-940.1627422648821
 30
0.0
 11
-980.0
 21
-989.8372612804295
 31
0.0
  0
ENDBLK
  5
50
330
4E
100
AcDbEntity
  8
0
100
AcDbBlockEnd
  0
BLOCK
  5
53
330
51
100
AcDbEntity
  8
0
100
AcDbBlockBegin
  2
SA_Links1
 70
     0
 10
-981.0
 20
-965.000000000005
 30
0.0
  3
SA_Links1
  1

  0
INSERT
  5
52
330
51
100
AcDbEntity
  8
0
100
AcDbBlockReference
  2
1407702_HC_B10_SG_RBK-select__2
 10
-982.0
 20
-1005.250001772665
 30
0.0
  0
MTEXT
  5
CF
330
51
100
AcDbEntity
  8
1
 62
     6
100
AcDbMText
 10
-981.0
 20
-1010.250000000005
 30
0.0
 40
5.0
 41
0.0
 71
     2
 72
     1
  1
 
  7
CONVERTER_11
 73
     1
 44
1.32052821128451
  0
DIMENSION
  5
DC
330
51
100
AcDbEntity
  8
1
100
AcDbDimension
  2
*D16
 10
-982.0
 20
-1020.57812899843
 30
0.0
 11
-970.161848109177
 21
-1016.82812899843
 31
0.0
 70
    32
  1
<>
 71
     5
 42
-1.0
 53
0.00013888888889
  3
ME10_DIM_10
100
AcDbAlignedDimension
 13
-980.0
 23
-989.8372612804295
 33
0.0
 14
-982.0
 24
-989.8372612804295
 34
0.0
100
AcDbRotatedDimension
  0
ENDBLK
  5
54
330
51
100
AcDbEntity
  8
0
100
AcDbBlockEnd
  0
BLOCK
  5
56
330
55
100
AcDbEntity
  8
0
100
AcDbBlockBegin
  2
1407702_HC_B10_SG_RBK-select__3
 70
     0
 10
-1080.999999393793
 20
-1043.249999999995
 30
0.0
  3
1407702_HC_B10_SG_RBK-select__3
  1

  0
LINE
  5
DD
330
55
100
AcDbEntity
  8
0
  6
Continuous
 62
     7
100
AcDbLine
 10
-1033.007902352652
 20
-1043.249999999995
 30
0.0
 11
-1033.007902352652
 21
-1041.249999999995
 31
0.0
  0
LINE
  5
DE
330
55
100
AcDbEntity
  8
0
  6
Continuous
 62
     7
100
AcDbLine
 10
-1075.992096434942
 20
-1041.249999999995
 30
0.0
 11
-1033.007902352652
 21
-1041.249999999995
 31
0.0
  0
LINE
  5
DF
330
55
100
AcDbEntity
  8
0
  6
Continuous
 62
     7
100
AcDbLine
 10
-1080.999999393793
 20
-1043.249999999995
 30
0.0
 11
-1075.992096434942
 21
-1043.249999999995
 31
0.0
  0
LINE
  5
E0
330
55
100
AcDbEntity
  8
0
  6
Continuous
 62
     7
100
AcDbLine
 10
-1080.999999393793
 20
-1043.249999999995
 30
0.0
 11
-1080.999999393793
 21
-1041.249999999995
 31
0.0
  0
LINE
  5
E1
330
55
100
AcDbEntity
  8
0
  6
Continuous
 62
     7
100
AcDbLine
 10
-1027.999999393793
 20
-1041.249999999995
 30
0.0
 11
-1027.999999393793
 21
-1043.249999999995
 31
0.0
  0
LINE
  5
E2
330
55
100
AcDbEntity
  8
0
  6
Continuous
 62
     7
100
AcDbLine
 10
-1027.999999393793
 20
-1043.249999999995
 30
0.0
 11
-1033.007902352652
 21
-1043.249999999995
 31
0.0
  0
LINE
  5
E3
330
55
100
AcDbEntity
  8
0
  6
Continuous
 62
     7
100
AcDbLine
 10
-1033.007902352652
 20
-1041.249999999995
 30
0.0
 11
-1027.999999393793
 21
-1041.249999999995
 31
0.0
  0
LINE
  5
E4
330
55
100
AcDbEntity
  8
0
  6
Continuous
 62
     7
100
AcDbLine
 10
-1075.992096434942
 20
-1043.249999999995
 30
0.0
 11
-1033.007902352652
 21
-1043.249999999995
 31
0.0
  0
LINE
  5
E5
330
55
100
AcDbEntity
  8
0
  6
Continuous
 62
     7
100
AcDbLine
 10
-1075.992096434942
 20
-1043.249999999995
 30
0.0
 11
-1075.992096434942
 21
-1041.249999999995
 31
0.0
  0
LINE
  5
E6
330
55
100
AcDbEntity
  8
0
  6
Continuous
 62
     7
100
AcDbLine
 10
-1075.992096434942
 20
-1041.249999999995
 30
0.0
 11
-1080.999999393793
 21
-1041.249999999995
 31
0.0
  0
ENDBLK
  5
57
330
55
100
AcDbEntity
  8
0
100
AcDbBlockEnd
  0
BLOCK
  5
5A
330
58
100
AcDbEntity
  8
0
100
AcDbBlockBegin
  2
Drfsicht1
 70
     0
 10
-1054.499999523163
 20
-1042.249999999995
 30
0.0
  3
Drfsicht1
  1

  0
INSERT
  5
59
330
58
100
AcDbEntity
  8
0
100
AcDbBlockReference
  2
1407702_HC_B10_SG_RBK-select__3
 10
-1080.999999393793
 20
-1043.249999999995
 30
0.0
  0
MTEXT
  5
E7
330
58
100
AcDbEntity
  8
1
 62
     6
100
AcDbMText
 10
-1054.499999523163
 20
-1048.249999999995
 30
0.0
 40
5.0
 41
0.0
 71
     2
 72
     1
  1
 
  7
CONVERTER_11
 73
     1
 44
1.32052821128451
  0
ENDBLK
  5
5B
330
58
100
AcDbEntity
  8
0
100
AcDbBlockEnd
  0
BLOCK
  5
5D
330
5C
100
AcDbEntity
  8
0
100
AcDbBlockBegin
  2
1407702_HC_B10_SG_RBK-select__4
 70
     0
 10
-1080.999999393793
 20
-1005.250001772665
 30
0.0
  3
1407702_HC_B10_SG_RBK-select__4
  1

  0
LINE
  5
E8
330
5C
100
AcDbEntity
  8
0
  6
Continuous
 62
     7
100
AcDbLine
 10
-1069.949424162997
 20
-1003.058773445834
 30
0.0
 11
-1066.497045305121
 21
-1002.133711318899
 31
0.0
  0
LINE
  5
E9
330
5C
100
AcDbEntity
  8
0
  6
Continuous
 62
     7
100
AcDbLine
 10
-1033.007902352655
 20
-1005.250001772665
 30
0.0
 11
-1075.992096434939
 21
-1005.250001772665
 31
0.0
  0
LINE
  5
EA
330
5C
100
AcDbEntity
  8
0
  6
Continuous
 62
     7
100
AcDbLine
 10
-1073.599999393794
 20
-929.7424149957261
 30
0.0
 11
-1073.599999393794
 21
-934.0029558613294
 31
0.0
  0
LINE
  5
EB
330
5C
100
AcDbEntity
  8
0
  6
Continuous
 62
     7
100
AcDbLine
 10
-1071.999999393793
 20
-993.5000017726657
 30
0.0
 11
-1071.999999393793
 21
-936.5000017726461
 31
0.0
  0
LINE
  5
EC
330
5C
100
AcDbEntity
  8
0
  6
Continuous
 62
     7
100
AcDbLine
 10
-1073.599999393794
 20
-934.0029558613294
 30
0.0
 11
-1066.49704530512
 21
-934.0029558613294
 31
0.0
  0
LINE
  5
ED
330
5C
100
AcDbEntity
  8
0
  6
Continuous
 62
     7
100
AcDbLine
 10
-1071.999999393793
 20
-936.5000017726461
 30
0.0
 11
-1036.999999393793
 21
-936.5000017726461
 31
0.0
  0
LINE
  5
EE
330
5C
100
AcDbEntity
  8
0
  6
Continuous
 62
     7
100
AcDbLine
 10
-1042.502953557388
 20
-934.0029558613294
 30
0.0
 11
-1035.399999468713
 21
-934.0029558613294
 31
0.0
  0
LINE
  5
EF
330
5C
100
AcDbEntity
  8
0
  6
Continuous
 62
     7
100
AcDbLine
 10
-1042.502953557388
 20
-1002.133711318899
 30
0.0
 11
-1039.05057469951
 21
-1003.058773445834
 31
0.0
  0
LINE
  5
F0
330
5C
100
AcDbEntity
  8
0
  6
Continuous
 62
     7
100
AcDbLine
 10
-1042.502953557388
 20
-995.997047683992
 30
0.0
 11
-1042.502953557388
 21
-1002.133711318899
 31
0.0
  0
LINE
  5
F1
330
5C
100
AcDbEntity
  8
0
  6
Continuous
 62
     7
100
AcDbLine
 10
-1035.399999468713
 20
-1000.257588549595
 30
0.0
 11
-1035.399999468713
 21
-995.997047683992
 31
0.0
  0
LINE
  5
F2
330
5C
100
AcDbEntity
  8
0
  6
Continuous
 62
     7
100
AcDbLine
 10
-1036.999999393793
 20
-936.5000017726461
 30
0.0
 11
-1036.999999393793
 21
-993.5000017726657
 31
0.0
  0
LINE
  5
F3
330
5C
100
AcDbEntity
  8
0
  6
Continuous
 62
     7
100
AcDbLine
 10
-1027.999999393793
 20
-940.1627422649088
 30
0.0
 11
-1027.999999393793
 21
-989.8372612804029
 31
0.0
  0
LINE
  5
F4
330
5C
100
AcDbEntity
  8
0
  6
Continuous
 62
     7
100
AcDbLine
 10
-1073.599999393795
 20
-995.9970476839919
 30
0.0
 11
-1073.599999393795
 21
-1000.257588549595
 31
0.0
  0
LINE
  5
F5
330
5C
100
AcDbEntity
  8
0
  6
Continuous
 62
     7
100
AcDbLine
 10
-1080.999999393793
 20
-940.1627422648822
 30
0.0
 11
-1075.992096434942
 21
-924.7500017726559
 31
0.0
  0
LINE
  5
F6
330
5C
100
AcDbEntity
  8
0
  6
Continuous
 62
     7
100
AcDbLine
 10
-1080.999999393793
 20
-940.1627422648822
 30
0.0
 11
-1080.999999393793
 21
-989.8372612804295
 31
0.0
  0
LINE
  5
F7
330
5C
100
AcDbEntity
  8
0
  6
Continuous
 62
     7
100
AcDbLine
 10
-1066.497045305121
 20
-995.997047683992
 30
0.0
 11
-1073.599999393795
 21
-995.9970476839919
 31
0.0
  0
LINE
  5
F8
330
5C
100
AcDbEntity
  8
0
  6
Continuous
 62
     7
100
AcDbLine
 10
-1035.399999468713
 20
-995.997047683992
 30
0.0
 11
-1042.502953557388
 21
-995.997047683992
 31
0.0
  0
LINE
  5
F9
330
5C
100
AcDbEntity
  8
0
  6
Continuous
 62
     7
100
AcDbLine
 10
-1036.999999393793
 20
-993.5000017726657
 30
0.0
 11
-1071.999999393793
 21
-993.5000017726657
 31
0.0
  0
LINE
  5
FA
330
5C
100
AcDbEntity
  8
0
  6
Continuous
 62
     7
100
AcDbLine
 10
-1080.999999393793
 20
-989.8372612804295
 30
0.0
 11
-1075.992096434939
 21
-1005.250001772665
 31
0.0
  0
LINE
  5
FB
330
5C
100
AcDbEntity
  8
0
  6
Continuous
 62
     7
100
AcDbLine
 10
-1066.49704530512
 20
-934.0029558613294
 30
0.0
 11
-1066.49704530512
 21
-927.8662922264222
 31
0.0
  0
LINE
  5
FC
330
5C
100
AcDbEntity
  8
0
  6
Continuous
 62
     7
100
AcDbLine
 10
-1042.502953557388
 20
-927.8662922264224
 30
0.0
 11
-1042.502953557388
 21
-934.0029558613294
 31
0.0
  0
LINE
  5
FD
330
5C
100
AcDbEntity
  8
0
  6
Continuous
 62
     7
100
AcDbLine
 10
-1035.399999468713
 20
-934.0029558613294
 30
0.0
 11
-1035.399999468713
 21
-929.7424149957261
 31
0.0
  0
LINE
  5
FE
330
5C
100
AcDbEntity
  8
0
  6
Continuous
 62
     7
100
AcDbLine
 10
-1027.999999393793
 20
-940.1627422649088
 30
0.0
 11
-1033.007902352652
 21
-924.7500017726559
 31
0.0
  0
LINE
  5
FF
330
5C
100
AcDbEntity
  8
0
  6
Continuous
 62
     7
100
AcDbLine
 10
-1066.497045305121
 20
-1002.133711318899
 30
0.0
 11
-1066.497045305121
 21
-995.997047683992
 31
0.0
  0
LINE
  5
100
330
5C
100
AcDbEntity
  8
0
  6
Continuous
 62
     7
100
AcDbLine
 10
-1066.49704530512
 20
-927.8662922264222
 30
0.0
 11
-1069.949424162997
 21
-926.9412300994878
 31
0.0
  0
LINE
  5
101
330
5C
100
AcDbEntity
  8
0
  6
Continuous
 62
     7
100
AcDbLine
 10
-1039.05057469951
 20
-926.9412300994878
 30
0.0
 11
-1042.502953557388
 21
-927.8662922264224
 31
0.0
  0
LINE
  5
102
330
5C
100
AcDbEntity
  8
0
  6
Continuous
 62
     7
100
AcDbLine
 10
-1075.992096434942
 20
-924.7500017726559
 30
0.0
 11
-1033.007902352652
 21
-924.7500017726559
 31
0.0
  0
LINE
  5
103
330
5C
100
AcDbEntity
  8
0
  6
Continuous
 62
     7
100
AcDbLine
 10
-1027.999999393793
 20
-989.8372612804029
 30
0.0
 11
-1033.007902352655
 21
-1005.250001772665
 31
0.0
  0
ARC
  5
104
330
5C
100
AcDbEntity
  8
0
  6
Continuous
 62
     7
100
AcDbCircle
 10
-1038.299999468713
 20
-1000.257588549595
 30
0.0
 40
2.900000000000684
100
AcDbArc
 50
255.0000000000092
 51
0.0
  0
ARC
  5
105
330
5C
100
AcDbEntity
  8
0
  6
Continuous
 62
     7
100
AcDbCircle
 10
-1070.699999393795
 20
-1000.257588549595
 30
0.0
 40
2.900000000000091
100
AcDbArc
 50
180.0
 51
285.0000000000082
  0
ARC
  5
106
330
5C
100
AcDbEntity
  8
0
  6
Continuous
 62
     7
100
AcDbCircle
 10
-1038.299999468713
 20
-929.7424149957261
 30
0.0
 40
2.899999999999864
100
AcDbArc
 50
0.0
 51
104.9999999999949
  0
ARC
  5
107
330
5C
100
AcDbEntity
  8
0
  6
Continuous
 62
     7
100
AcDbCircle
 10
-1070.699999393795
 20
-929.7424149957261
 30
0.0
 40
2.900000000000151
100
AcDbArc
 50
74.99999999998772
 51
180.0
  0
ENDBLK
  5
5E
330
5C
100
AcDbEntity
  8
0
100
AcDbBlockEnd
  0
BLOCK
  5
61
330
5F
100
AcDbEntity
  8
0
100
AcDbBlockBegin
  2
Vordans1
 70
     0
 10
-1054.499999523163
 20
-965.000000000005
 30
0.0
  3
Vordans1
  1

  0
INSERT
  5
60
330
5F
100
AcDbEntity
  8
0
100
AcDbBlockReference
  2
1407702_HC_B10_SG_RBK-select__4
 10
-1080.999999393793
 20
-1005.250001772665
 30
0.0
  0
MTEXT
  5
108
330
5F
100
AcDbEntity
  8
1
 62
     6
100
AcDbMText
 10
-1054.499999523163
 20
-1010.250000000005
 30
0.0
 40
5.0
 41
0.0
 71
     2
 72
     1
  1
 
  7
CONVERTER_11
 73
     1
 44
1.32052821128451
  0
DIMENSION
  5
113
330
5F
100
AcDbEntity
  8
1
100
AcDbDimension
  2
*D17
 10
-1080.999999393793
 20
-1020.57812899843
 30
0.0
 11
-1054.34422238171
 21
-1016.82812899843
 31
0.0
 70
    32
  1
<>
 71
     5
 42
-1.0
 53
0.00013888888889
  3
ME10_DIM_11
100
AcDbAlignedDimension
 13
-1027.999999393793
 23
-989.8372612804029
 33
0.0
 14
-1080.999999393793
 24
-989.8372612804295
 34
0.0
100
AcDbRotatedDimension
  0
DIMENSION
  5
11E
330
5F
100
AcDbEntity
  8
1
100
AcDbDimension
  2
*D18
 10
-1011.31032332055
 20
-1005.250001772665
 30
0.0
 11
-1015.23532332055
 21
-963.486489577294
 31
0.0
 70
    32
  1
<>
 71
     5
 42
-1.0
 53
90.0
  3
ME10_DIM_12
100
AcDbAlignedDimension
 13
-1033.007902352652
 23
-924.7500017726559
 33
0.0
 14
-1033.007902352655
 24
-1005.250001772665
 34
0.0
 50
90.0
100
AcDbRotatedDimension
  0
ENDBLK
  5
62
330
5F
100
AcDbEntity
  8
0
100
AcDbBlockEnd
  0
BLOCK
  5
64
330
63
100
AcDbEntity
  8
0
100
AcDbBlockBegin
  2
1407702_HC_B10_SG_RBK-select__5
 70
     0
 10
-1118.999998046326
 20
-1005.250001772665
 30
0.0
  3
1407702_HC_B10_SG_RBK-select__5
  1

  0
LINE
  5
11F
330
63
100
AcDbEntity
  8
0
  6
Continuous
 62
     7
100
AcDbLine
 10
-1118.999998046326
 20
-940.1627422649088
 30
0.0
 11
-1118.999998046326
 21
-924.7500017726559
 31
0.0
  0
LINE
  5
120
330
63
100
AcDbEntity
  8
0
  6
Continuous
 62
     7
100
AcDbLine
 10
-1118.999998046326
 20
-924.7500017726559
 30
0.0
 11
-1116.999998046326
 21
-924.7500017726559
 31
0.0
  0
LINE
  5
121
330
63
100
AcDbEntity
  8
0
  6
Continuous
 62
     7
100
AcDbLine
 10
-1116.999998046326
 20
-924.7500017726559
 30
0.0
 11
-1116.999998046326
 21
-940.1627422649088
 31
0.0
  0
LINE
  5
122
330
63
100
AcDbEntity
  8
0
  6
Continuous
 62
     7
100
AcDbLine
 10
-1118.999998046326
 20
-989.8372612804029
 30
0.0
 11
-1118.999998046326
 21
-1005.250001772665
 31
0.0
  0
LINE
  5
123
330
63
100
AcDbEntity
  8
0
  6
Continuous
 62
     7
100
AcDbLine
 10
-1118.999998046326
 20
-940.1627422649088
 30
0.0
 11
-1118.999998046326
 21
-989.8372612804029
 31
0.0
  0
LINE
  5
124
330
63
100
AcDbEntity
  8
0
  6
Continuous
 62
     7
100
AcDbLine
 10
-1116.999998046326
 20
-989.8372612804029
 30
0.0
 11
-1118.999998046326
 21
-989.8372612804029
 31
0.0
  0
LINE
  5
125
330
63
100
AcDbEntity
  8
0
  6
Continuous
 62
     7
100
AcDbLine
 10
-1116.999998046326
 20
-1005.250001772665
 30
0.0
 11
-1116.999998046326
 21
-989.8372612804029
 31
0.0
  0
LINE
  5
126
330
63
100
AcDbEntity
  8
0
  6
Continuous
 62
     7
100
AcDbLine
 10
-1116.999998046326
 20
-940.1627422649088
 30
0.0
 11
-1118.999998046326
 21
-940.1627422649088
 31
0.0
  0
LINE
  5
127
330
63
100
AcDbEntity
  8
0
  6
Continuous
 62
     7
100
AcDbLine
 10
-1118.999998046326
 20
-1005.250001772665
 30
0.0
 11
-1116.999998046326
 21
-1005.250001772665
 31
0.0
  0
LINE
  5
128
330
63
100
AcDbEntity
  8
0
  6
Continuous
 62
     7
100
AcDbLine
 10
-1116.999998046326
 20
-989.8372612804029
 30
0.0
 11
-1116.999998046326
 21
-940.1627422649088
 31
0.0
  0
ENDBLK
  5
65
330
63
100
AcDbEntity
  8
0
100
AcDbBlockEnd
  0
BLOCK
  5
68
330
66
100
AcDbEntity
  8
0
100
AcDbBlockBegin
  2
SA_Rechts1
 70
     0
 10
-1117.999998046326
 20
-965.000000000005
 30
0.0
  3
SA_Rechts1
  1

  0
INSERT
  5
67
330
66
100
AcDbEntity
  8
0
100
AcDbBlockReference
  2
1407702_HC_B10_SG_RBK-select__5
 10
-1118.999998046326
 20
-1005.250001772665
 30
0.0
  0
MTEXT
  5
129
330
66
100
AcDbEntity
  8
1
 62
     6
100
AcDbMText
 10
-1117.999998046326
 20
-1010.250000000005
 30
0.0
 40
5.0
 41
0.0
 71
     2
 72
     1
  1
 
  7
CONVERTER_11
 73
     1
 44
1.32052821128451
  0
ENDBLK
  5
69
330
66
100
AcDbEntity
  8
0
100
AcDbBlockEnd
  0
BLOCK
  5
6B
330
6A
100
AcDbEntity
  8
0
100
AcDbBlockBegin
  2
1407702_HC_B10_SG_RBK-select__6
 70
     0
 10
-947.000000606208
 20
-1005.250001772665
 30
0.0
  3
1407702_HC_B10_SG_RBK-select__6
  1

  0
LINE
  5
12A
330
6A
100
AcDbEntity
  8
0
  6
Continuous
 62
     7
100
AcDbLine
 10
-901.4000006062059
 20
-934.0029558613294
 30
0.0
 11
-908.5029546948801
 21
-934.0029558613294
 31
0.0
  0
LINE
  5
12B
330
6A
100
AcDbEntity
  8
0
  6
Continuous
 62
     7
100
AcDbLine
 10
-908.5029546948801
 20
-934.0029558613294
 30
0.0
 11
-908.5029546948801
 21
-927.8662922264222
 31
0.0
  0
LINE
  5
12C
330
6A
100
AcDbEntity
  8
0
  6
Continuous
 62
     7
100
AcDbLine
 10
-939.6000005312874
 20
-934.0029558613294
 30
0.0
 11
-939.6000005312874
 21
-929.7424149957261
 31
0.0
  0
LINE
  5
12D
330
6A
100
AcDbEntity
  8
0
  6
Continuous
 62
     7
100
AcDbLine
 10
-935.94942530049
 20
-926.9412300994878
 30
0.0
 11
-932.4970464426126
 21
-927.8662922264224
 31
0.0
  0
LINE
  5
12E
330
6A
100
AcDbEntity
  8
0
  6
Continuous
 62
     7
100
AcDbLine
 10
-932.4970464426126
 20
-934.0029558613294
 30
0.0
 11
-939.6000005312874
 21
-934.0029558613294
 31
0.0
  0
LINE
  5
12F
330
6A
100
AcDbEntity
  8
0
  6
Continuous
 62
     7
100
AcDbLine
 10
-908.5029546948801
 20
-927.8662922264222
 30
0.0
 11
-905.0505758370032
 21
-926.9412300994877
 31
0.0
  0
LINE
  5
130
330
6A
100
AcDbEntity
  8
0
  6
Continuous
 62
     7
100
AcDbLine
 10
-903.0000006062078
 20
-936.500001772646
 30
0.0
 11
-938.000000606208
 21
-936.500001772646
 31
0.0
  0
LINE
  5
131
330
6A
100
AcDbEntity
  8
0
  6
Continuous
 62
     7
100
AcDbLine
 10
-899.0079035650585
 20
-924.7500017726559
 30
0.0
 11
-941.9920976473486
 21
-924.7500017726558
 31
0.0
  0
LINE
  5
132
330
6A
100
AcDbEntity
  8
0
  6
Continuous
 62
     7
100
AcDbLine
 10
-899.0079035650585
 20
-924.7500017726559
 30
0.0
 11
-894.0000006062078
 21
-940.1627422648821
 31
0.0
  0
LINE
  5
133
330
6A
100
AcDbEntity
  8
0
  6
Continuous
 62
     7
100
AcDbLine
 10
-932.4970464426125
 20
-995.9970476839919
 30
0.0
 11
-932.4970464426125
 21
-1002.133711318899
 31
0.0
  0
LINE
  5
134
330
6A
100
AcDbEntity
  8
0
  6
Continuous
 62
     7
100
AcDbLine
 10
-932.4970464426126
 20
-927.8662922264224
 30
0.0
 11
-932.4970464426126
 21
-934.0029558613294
 31
0.0
  0
LINE
  5
135
330
6A
100
AcDbEntity
  8
0
  6
Continuous
 62
     7
100
AcDbLine
 10
-908.50295469488
 20
-995.9970476839919
 30
0.0
 11
-901.4000006062058
 21
-995.9970476839919
 31
0.0
  0
LINE
  5
136
330
6A
100
AcDbEntity
  8
0
  6
Continuous
 62
     7
100
AcDbLine
 10
-894.0000006062078
 20
-989.8372612804295
 30
0.0
 11
-894.0000006062078
 21
-940.1627422648821
 31
0.0
  0
LINE
  5
137
330
6A
100
AcDbEntity
  8
0
  6
Continuous
 62
     7
100
AcDbLine
 10
-939.6000005312873
 20
-995.997047683992
 30
0.0
 11
-932.4970464426125
 21
-995.9970476839919
 31
0.0
  0
LINE
  5
138
330
6A
100
AcDbEntity
  8
0
  6
Continuous
 62
     7
100
AcDbLine
 10
-938.000000606208
 20
-993.5000017726657
 30
0.0
 11
-903.0000006062078
 21
-993.5000017726657
 31
0.0
  0
LINE
  5
139
330
6A
100
AcDbEntity
  8
0
  6
Continuous
 62
     7
100
AcDbLine
 10
-939.6000005312873
 20
-1000.257588549595
 30
0.0
 11
-939.6000005312873
 21
-995.997047683992
 31
0.0
  0
LINE
  5
13A
330
6A
100
AcDbEntity
  8
0
  6
Continuous
 62
     7
100
AcDbLine
 10
-938.000000606208
 20
-936.500001772646
 30
0.0
 11
-938.000000606208
 21
-993.5000017726657
 31
0.0
  0
LINE
  5
13B
330
6A
100
AcDbEntity
  8
0
  6
Continuous
 62
     7
100
AcDbLine
 10
-947.000000606208
 20
-989.8372612804029
 30
0.0
 11
-947.000000606208
 21
-940.1627422649088
 31
0.0
  0
LINE
  5
13C
330
6A
100
AcDbEntity
  8
0
  6
Continuous
 62
     7
100
AcDbLine
 10
-941.9920976473486
 20
-924.7500017726558
 30
0.0
 11
-947.000000606208
 21
-940.1627422649088
 31
0.0
  0
LINE
  5
13D
330
6A
100
AcDbEntity
  8
0
  6
Continuous
 62
     7
100
AcDbLine
 10
-901.4000006062058
 20
-995.9970476839919
 30
0.0
 11
-901.4000006062058
 21
-1000.257588549595
 31
0.0
  0
LINE
  5
13E
330
6A
100
AcDbEntity
  8
0
  6
Continuous
 62
     7
100
AcDbLine
 10
-901.4000006062059
 20
-929.7424149957261
 30
0.0
 11
-901.4000006062059
 21
-934.0029558613294
 31
0.0
  0
LINE
  5
13F
330
6A
100
AcDbEntity
  8
0
  6
Continuous
 62
     7
100
AcDbLine
 10
-903.0000006062078
 20
-993.5000017726657
 30
0.0
 11
-903.0000006062078
 21
-936.500001772646
 31
0.0
  0
LINE
  5
140
330
6A
100
AcDbEntity
  8
0
  6
Continuous
 62
     7
100
AcDbLine
 10
-932.4970464426125
 20
-1002.133711318899
 30
0.0
 11
-935.94942530049
 21
-1003.058773445834
 31
0.0
  0
LINE
  5
141
330
6A
100
AcDbEntity
  8
0
  6
Continuous
 62
     7
100
AcDbLine
 10
-941.9920976473455
 20
-1005.250001772665
 30
0.0
 11
-899.0079035650616
 21
-1005.250001772665
 31
0.0
  0
LINE
  5
142
330
6A
100
AcDbEntity
  8
0
  6
Continuous
 62
     7
100
AcDbLine
 10
-905.0505758370032
 20
-1003.058773445834
 30
0.0
 11
-908.50295469488
 21
-1002.133711318899
 31
0.0
  0
LINE
  5
143
330
6A
100
AcDbEntity
  8
0
  6
Continuous
 62
     7
100
AcDbLine
 10
-899.0079035650616
 20
-1005.250001772665
 30
0.0
 11
-894.0000006062078
 21
-989.8372612804295
 31
0.0
  0
LINE
  5
144
330
6A
100
AcDbEntity
  8
0
  6
Continuous
 62
     7
100
AcDbLine
 10
-908.50295469488
 20
-1002.133711318899
 30
0.0
 11
-908.50295469488
 21
-995.9970476839919
 31
0.0
  0
LINE
  5
145
330
6A
100
AcDbEntity
  8
0
  6
Continuous
 62
     7
100
AcDbLine
 10
-941.9920976473455
 20
-1005.250001772665
 30
0.0
 11
-947.000000606208
 21
-989.8372612804029
 31
0.0
  0
ARC
  5
146
330
6A
100
AcDbEntity
  8
0
  6
Continuous
 62
     7
100
AcDbCircle
 10
-936.7000005312873
 20
-929.7424149957261
 30
0.0
 40
2.899999999999974
100
AcDbArc
 50
75.00000000000074
 51
180.0
  0
ARC
  5
147
330
6A
100
AcDbEntity
  8
0
  6
Continuous
 62
     7
100
AcDbCircle
 10
-936.7000005312873
 20
-1000.257588549595
 30
0.0
 40
2.899999999999977
100
AcDbArc
 50
180.0
 51
284.9999999999952
  0
ARC
  5
148
330
6A
100
AcDbEntity
  8
0
  6
Continuous
 62
     7
100
AcDbCircle
 10
-904.3000006062059
 20
-929.7424149957261
 30
0.0
 40
2.899999999999977
100
AcDbArc
 50
0.0
 51
104.9999999999987
  0
ARC
  5
149
330
6A
100
AcDbEntity
  8
0
  6
Continuous
 62
     7
100
AcDbCircle
 10
-904.3000006062058
 20
-1000.257588549595
 30
0.0
 40
2.900000000000772
100
AcDbArc
 50
255.0000000000026
 51
0.0
  0
ENDBLK
  5
6C
330
6A
100
AcDbEntity
  8
0
100
AcDbBlockEnd
  0
BLOCK
  5
6F
330
6D
100
AcDbEntity
  8
0
100
AcDbBlockBegin
  2
Rckans1
 70
     0
 10
-920.500000476838
 20
-965.000000000005
 30
0.0
  3
Rckans1
  1

  0
INSERT
  5
6E
330
6D
100
AcDbEntity
  8
0
100
AcDbBlockReference
  2
1407702_HC_B10_SG_RBK-select__6
 10
-947.000000606208
 20
-1005.250001772665
 30
0.0
  0
MTEXT
  5
14A
330
6D
100
AcDbEntity
  8
1
 62
     6
100
AcDbMText
 10
-920.5000004768374
 20
-1010.250000000005
 30
0.0
 40
5.0
 41
0.0
 71
     2
 72
     1
  1
 
  7
CONVERTER_11
 73
     1
 44
1.32052821128451
  0
ENDBLK
  5
70
330
6D
100
AcDbEntity
  8
0
100
AcDbBlockEnd
  0
BLOCK
  5
72
330
71
100
AcDbEntity
  8
0
100
AcDbBlockBegin
  2
_rahmen
 70
     0
 10
-791.9714011116903
 20
-1173.81774748859
 30
0.0
  3
_rahmen
  1

  0
POINT
  5
14B
330
71
100
AcDbEntity
  8
1
 62
     3
 60
     1
100
AcDbPoint
 10
-855.471401111688
 20
-1147.56774748859
 30
0.0
  0
LINE
  5
14C
102
{ACAD_REACTORS
330
33F
330
340
102
}
330
71
100
AcDbEntity
  8
0
  6
Continuous
 62
     2
100
AcDbLine
 10
-907.0290742816094
 20
-1161.309244087224
 30
0.0
 11
-907.0290742816094
 21
-1160.588155651849
 31
0.0
  0
LINE
  5
14D
102
{ACAD_REACTORS
330
33F
330
340
102
}
330
71
100
AcDbEntity
  8
0
  6
Continuous
 62
     2
100
AcDbLine
 10
-907.0290742816094
 20
-1162.102441366135
 30
0.0
 11
-907.0290742816094
 21
-1162.82352980151
 31
0.0
  0
LINE
  5
14E
102
{ACAD_REACTORS
330
341
330
342
102
}
330
71
100
AcDbEntity
  8
0
  6
Continuous
 62
     2
100
AcDbLine
 10
-894.35713697889
 20
-1161.092917556611
 30
0.0
 11
-893.4450383842056
 21
-1161.092917556611
 31
0.0
  0
LINE
  5
14F
102
{ACAD_REACTORS
330
341
330
342
102
}
330
71
100
AcDbEntity
  8
0
  6
Continuous
 62
     2
100
AcDbLine
 10
-893.7210565301616
 20
-1162.102441366135
 30
0.0
 11
-893.7210565301616
 21
-1162.82352980151
 31
0.0
  0
LINE
  5
150
102
{ACAD_REACTORS
330
34B
330
34C
102
}
330
71
100
AcDbEntity
  8
0
  6
Continuous
 62
     2
100
AcDbLine
 10
-895.258871914773
 20
-1160.191557012407
 30
0.0
 11
-894.1035388181282
 21
-1158.88506197623
 31
0.0
  0
LINE
  5
151
102
{ACAD_REACTORS
330
34B
330
34C
102
}
330
71
100
AcDbEntity
  8
0
  6
Continuous
 62
     2
100
AcDbLine
 10
-895.1800095873575
 20
-1157.667747488597
 30
0.0
 11
-894.1035388181282
 21
-1158.88506197623
 31
0.0
  0
LINE
  5
152
102
{ACAD_REACTORS
330
34B
330
34C
102
}
330
71
100
AcDbEntity
  8
0
  6
Continuous
 62
     2
100
AcDbLine
 10
-893.0270680488998
 20
-1157.667747488597
 30
0.0
 11
-891.8677918358856
 21
-1157.667747488597
 31
0.0
  0
LINE
  5
153
102
{ACAD_REACTORS
330
34B
330
34C
102
}
330
71
100
AcDbEntity
  8
0
  6
Continuous
 62
     2
100
AcDbLine
 10
-894.0995957017581
 20
-1160.191557012407
 30
0.0
 11
-893.5239007116211
 21
-1159.540539008033
 31
0.0
  0
LINE
  5
154
102
{ACAD_REACTORS
330
34B
330
34C
102
}
330
71
100
AcDbEntity
  8
0
  6
Continuous
 62
     2
100
AcDbLine
 10
-894.0995957017581
 20
-1160.191557012407
 30
0.0
 11
-895.258871914773
 21
-1160.191557012407
 31
0.0
  0
LINE
  5
155
102
{ACAD_REACTORS
330
34D
330
34E
102
}
330
71
100
AcDbEntity
  8
0
  6
Continuous
 62
     2
100
AcDbLine
 10
-895.3574498240432
 20
-1160.191557012407
 30
0.0
 11
-896.3826600804506
 21
-1160.191557012407
 31
0.0
  0
LINE
  5
156
102
{ACAD_REACTORS
330
34F
330
350
102
}
330
71
100
AcDbEntity
  8
0
  6
Continuous
 62
     2
100
AcDbLine
 10
-897.099998599587
 20
-1161.95822367906
 30
0.0
 11
-897.3480690435458
 21
-1161.323665855931
 31
0.0
  0
LINE
  5
157
102
{ACAD_REACTORS
330
34F
330
350
102
}
330
71
100
AcDbEntity
  8
0
  6
Continuous
 62
     2
100
AcDbLine
 10
-897.5961394875064
 20
-1161.95822367906
 30
0.0
 11
-897.099998599587
 21
-1161.95822367906
 31
0.0
  0
LINE
  5
158
102
{ACAD_REACTORS
330
34F
330
350
102
}
330
71
100
AcDbEntity
  8
0
  6
Continuous
 62
     2
100
AcDbLine
 10
-899.0160072683939
 20
-1162.967747488585
 30
0.0
 11
-897.9907970119865
 21
-1162.967747488585
 31
0.0
  0
LINE
  5
159
102
{ACAD_REACTORS
330
34F
330
350
102
}
330
71
100
AcDbEntity
  8
0
  6
Continuous
 62
     2
100
AcDbLine
 10
-897.8606741717499
 20
-1160.443937964774
 30
0.0
 11
-896.8354639153426
 21
-1160.443937964774
 31
0.0
  0
LINE
  5
15A
102
{ACAD_REACTORS
330
34F
330
350
102
}
330
71
100
AcDbEntity
  8
0
  6
Continuous
 62
     2
100
AcDbLine
 10
-896.8354639153426
 20
-1160.443937964774
 30
0.0
 11
-895.6801308186978
 21
-1162.967747488585
 31
0.0
  0
LINE
  5
15B
102
{ACAD_REACTORS
330
34F
330
350
102
}
330
71
100
AcDbEntity
  8
0
  6
Continuous
 62
     2
100
AcDbLine
 10
-896.7053410751059
 20
-1162.967747488585
 30
0.0
 11
-896.880117978805
 21
-1162.520672658652
 31
0.0
  0
LINE
  5
15C
102
{ACAD_REACTORS
330
351
330
352
102
}
330
71
100
AcDbEntity
  8
0
  6
Continuous
 62
     2
100
AcDbLine
 10
-900.1287453689787
 20
-1162.967747488585
 30
0.0
 11
-899.1429662762791
 21
-1162.967747488585
 31
0.0
  0
LINE
  5
15D
102
{ACAD_REACTORS
330
351
330
352
102
}
330
71
100
AcDbEntity
  8
0
  6
Continuous
 62
     2
100
AcDbLine
 10
-900.1287453689787
 20
-1161.092917556611
 30
0.0
 11
-900.1287453689787
 21
-1162.967747488585
 31
0.0
  0
LINE
  5
15E
102
{ACAD_REACTORS
330
351
330
352
102
}
330
71
100
AcDbEntity
  8
0
  6
Continuous
 62
     2
100
AcDbLine
 10
-900.7990751520156
 20
-1160.443937964774
 30
0.0
 11
-900.7990751520156
 21
-1161.092917556611
 31
0.0
  0
LINE
  5
15F
102
{ACAD_REACTORS
330
353
330
354
102
}
330
71
100
AcDbEntity
  8
0
  6
Continuous
 62
     2
100
AcDbLine
 10
-899.5765843407985
 20
-1160.191557012407
 30
0.0
 11
-898.590805248099
 21
-1160.191557012407
 31
0.0
  0
LINE
  5
160
102
{ACAD_REACTORS
330
353
330
354
102
}
330
71
100
AcDbEntity
  8
0
  6
Continuous
 62
     2
100
AcDbLine
 10
-897.5655949916907
 20
-1158.749380141659
 30
0.0
 11
-898.590805248099
 21
-1157.667747488597
 31
0.0
  0
LINE
  5
161
102
{ACAD_REACTORS
330
353
330
354
102
}
330
71
100
AcDbEntity
  8
0
  6
Continuous
 62
     2
100
AcDbLine
 10
-896.579815898991
 20
-1157.667747488597
 30
0.0
 11
-897.5655949916907
 21
-1157.667747488597
 31
0.0
  0
LINE
  5
162
102
{ACAD_REACTORS
330
353
330
354
102
}
330
71
100
AcDbEntity
  8
0
  6
Continuous
 62
     2
100
AcDbLine
 10
-896.579815898991
 20
-1160.191557012407
 30
0.0
 11
-896.579815898991
 21
-1157.667747488597
 31
0.0
  0
LINE
  5
163
102
{ACAD_REACTORS
330
353
330
354
102
}
330
71
100
AcDbEntity
  8
0
  6
Continuous
 62
     2
100
AcDbLine
 10
-897.5655949916907
 20
-1160.191557012407
 30
0.0
 11
-896.579815898991
 21
-1160.191557012407
 31
0.0
  0
LINE
  5
164
102
{ACAD_REACTORS
330
353
330
354
102
}
330
71
100
AcDbEntity
  8
0
  6
Continuous
 62
     2
100
AcDbLine
 10
-898.590805248099
 20
-1159.109924359346
 30
0.0
 11
-897.5655949916907
 21
-1160.191557012407
 31
0.0
  0
LINE
  5
165
102
{ACAD_REACTORS
330
355
330
356
102
}
330
71
100
AcDbEntity
  8
0
  6
Continuous
 62
     2
100
AcDbLine
 10
-901.9031477358392
 20
-1161.525570617836
 30
0.0
 11
-902.9283579922464
 21
-1160.443937964774
 31
0.0
  0
LINE
  5
166
102
{ACAD_REACTORS
330
355
330
356
102
}
330
71
100
AcDbEntity
  8
0
  6
Continuous
 62
     2
100
AcDbLine
 10
-901.9031477358392
 20
-1160.443937964774
 30
0.0
 11
-901.9031477358392
 21
-1161.525570617836
 31
0.0
  0
LINE
  5
167
102
{ACAD_REACTORS
330
355
330
356
102
}
330
71
100
AcDbEntity
  8
0
  6
Continuous
 62
     2
100
AcDbLine
 10
-900.9173686431396
 20
-1160.443937964774
 30
0.0
 11
-901.9031477358392
 21
-1160.443937964774
 31
0.0
  0
LINE
  5
168
102
{ACAD_REACTORS
330
355
330
356
102
}
330
71
100
AcDbEntity
  8
0
  6
Continuous
 62
     2
100
AcDbLine
 10
-900.9173686431396
 20
-1162.967747488585
 30
0.0
 11
-900.9173686431396
 21
-1160.443937964774
 31
0.0
  0
LINE
  5
169
102
{ACAD_REACTORS
330
355
330
356
102
}
330
71
100
AcDbEntity
  8
0
  6
Continuous
 62
     2
100
AcDbLine
 10
-902.9283579922464
 20
-1161.886114835523
 30
0.0
 11
-901.9031477358392
 21
-1162.967747488585
 31
0.0
  0
LINE
  5
16A
102
{ACAD_REACTORS
330
355
330
356
102
}
330
71
100
AcDbEntity
  8
0
  6
Continuous
 62
     2
100
AcDbLine
 10
-902.9283579922464
 20
-1162.967747488585
 30
0.0
 11
-902.9283579922464
 21
-1161.886114835523
 31
0.0
  0
LINE
  5
16B
102
{ACAD_REACTORS
330
345
330
346
102
}
330
71
100
AcDbEntity
  8
0
  6
Continuous
 62
     2
100
AcDbLine
 10
-900.8778127431626
 20
-1158.244618236897
 30
0.0
 11
-899.7737401593381
 21
-1158.244618236897
 31
0.0
  0
LINE
  5
16C
102
{ACAD_REACTORS
330
345
330
346
102
}
330
71
100
AcDbEntity
  8
0
  6
Continuous
 62
     2
100
AcDbLine
 10
-900.8778127431626
 20
-1159.614686264108
 30
0.0
 11
-900.8778127431626
 21
-1159.218087624652
 31
0.0
  0
LINE
  5
16D
102
{ACAD_REACTORS
330
345
330
346
102
}
330
71
100
AcDbEntity
  8
0
  6
Continuous
 62
     2
100
AcDbLine
 10
-899.7737401593381
 20
-1159.614686264108
 30
0.0
 11
-900.8778127431626
 21
-1159.614686264108
 31
0.0
  0
LINE
  5
16E
102
{ACAD_REACTORS
330
345
330
346
102
}
330
71
100
AcDbEntity
  8
0
  6
Continuous
 62
     2
100
AcDbLine
 10
-899.7737401593381
 20
-1160.191557012407
 30
0.0
 11
-899.7737401593381
 21
-1159.614686264108
 31
0.0
  0
LINE
  5
16F
102
{ACAD_REACTORS
330
345
330
346
102
}
330
71
100
AcDbEntity
  8
0
  6
Continuous
 62
     2
100
AcDbLine
 10
-902.3773101789918
 20
-1160.191557012407
 30
0.0
 11
-899.7737401593381
 21
-1160.191557012407
 31
0.0
  0
LINE
  5
170
102
{ACAD_REACTORS
330
345
330
346
102
}
330
71
100
AcDbEntity
  8
0
  6
Continuous
 62
     2
100
AcDbLine
 10
-902.3773101789918
 20
-1157.667747488597
 30
0.0
 11
-899.7737401593381
 21
-1157.667747488597
 31
0.0
  0
LINE
  5
171
102
{ACAD_REACTORS
330
345
330
346
102
}
330
71
100
AcDbEntity
  8
0
  6
Continuous
 62
     2
100
AcDbLine
 10
-899.7737401593381
 20
-1158.244618236897
 30
0.0
 11
-899.7737401593381
 21
-1157.667747488597
 31
0.0
  0
LINE
  5
172
102
{ACAD_REACTORS
330
357
330
358
102
}
330
71
100
AcDbEntity
  8
0
  6
Continuous
 62
     2
100
AcDbLine
 10
-904.7420667865456
 20
-1158.551080821931
 30
0.0
 11
-904.7420667865456
 21
-1157.667747488597
 31
0.0
  0
LINE
  5
173
102
{ACAD_REACTORS
330
357
330
358
102
}
330
71
100
AcDbEntity
  8
0
  6
Continuous
 62
     2
100
AcDbLine
 10
-904.7420667865456
 20
-1157.667747488597
 30
0.0
 11
-903.756287693846
 21
-1157.667747488597
 31
0.0
  0
LINE
  5
174
102
{ACAD_REACTORS
330
357
330
358
102
}
330
71
100
AcDbEntity
  8
0
  6
Continuous
 62
     2
100
AcDbLine
 10
-904.7420667865456
 20
-1159.254142046421
 30
0.0
 11
-905.609552388122
 21
-1159.254142046421
 31
0.0
  0
LINE
  5
175
102
{ACAD_REACTORS
330
357
330
358
102
}
330
71
100
AcDbEntity
  8
0
  6
Continuous
 62
     2
100
AcDbLine
 10
-905.609552388122
 20
-1159.254142046421
 30
0.0
 11
-905.609552388122
 21
-1160.191557012407
 31
0.0
  0
LINE
  5
176
102
{ACAD_REACTORS
330
357
330
358
102
}
330
71
100
AcDbEntity
  8
0
  6
Continuous
 62
     2
100
AcDbLine
 10
-906.5953314808216
 20
-1157.667747488597
 30
0.0
 11
-906.5953314808216
 21
-1160.191557012407
 31
0.0
  0
LINE
  5
177
102
{ACAD_REACTORS
330
349
330
34A
102
}
330
71
100
AcDbEntity
  8
0
  6
Continuous
 62
     2
100
AcDbLine
 10
-908.2120091928495
 20
-1158.799014839656
 30
0.0
 11
-908.2120091928495
 21
-1158.215768848464
 31
0.0
  0
LINE
  5
178
102
{ACAD_REACTORS
330
349
330
34A
102
}
330
71
100
AcDbEntity
  8
0
  6
Continuous
 62
     2
100
AcDbLine
 10
-909.2372194492577
 20
-1160.191557012407
 30
0.0
 11
-908.2120091928495
 21
-1160.191557012407
 31
0.0
  0
LINE
  5
179
102
{ACAD_REACTORS
330
349
330
34A
102
}
330
71
100
AcDbEntity
  8
0
  6
Continuous
 62
     2
100
AcDbLine
 10
-908.2120091928495
 20
-1160.191557012407
 30
0.0
 11
-908.2120091928495
 21
-1159.41215350733
 31
0.0
  0
LINE
  5
17A
102
{ACAD_REACTORS
330
343
330
344
102
}
330
71
100
AcDbEntity
  8
0
  6
Continuous
 62
     2
100
AcDbLine
 10
-912.7950259362094
 20
-1162.378858599695
 30
0.0
 11
-914.0147228461346
 21
-1162.378858599695
 31
0.0
  0
LINE
  5
17B
102
{ACAD_REACTORS
330
343
330
344
102
}
330
71
100
AcDbEntity
  8
0
  6
Continuous
 62
     2
100
AcDbLine
 10
-914.8561602776465
 20
-1158.018362873226
 30
0.0
 11
-914.8561602776465
 21
-1162.61713210397
 31
0.0
  0
LINE
  5
17C
102
{ACAD_REACTORS
330
343
330
344
102
}
330
71
100
AcDbEntity
  8
0
  6
Continuous
 62
     2
100
AcDbLine
 10
-914.5055448930326
 20
-1157.667747488612
 30
0.0
 11
-909.9821464709526
 21
-1157.667747488612
 31
0.0
  0
LINE
  5
17D
102
{ACAD_REACTORS
330
343
330
344
102
}
330
71
100
AcDbEntity
  8
0
  6
Continuous
 62
     2
100
AcDbLine
 10
-909.6315310863376
 20
-1158.018362873226
 30
0.0
 11
-909.6315310863376
 21
-1162.61713210397
 31
0.0
  0
LINE
  5
17E
102
{ACAD_REACTORS
330
343
330
344
102
}
330
71
100
AcDbEntity
  8
0
  6
Continuous
 62
     2
100
AcDbLine
 10
-909.9821464709526
 20
-1162.967747488585
 30
0.0
 11
-914.5055448930326
 21
-1162.967747488585
 31
0.0
  0
LINE
  5
17F
102
{ACAD_REACTORS
330
343
330
344
102
}
330
71
100
AcDbEntity
  8
0
  6
Continuous
 62
     2
100
AcDbLine
 10
-912.5341028592866
 20
-1162.117935522772
 30
0.0
 11
-912.5341028592866
 21
-1160.852835579357
 31
0.0
  0
LINE
  5
180
102
{ACAD_REACTORS
330
343
330
344
102
}
330
71
100
AcDbEntity
  8
0
  6
Continuous
 62
     2
100
AcDbLine
 10
-912.5341028592866
 20
-1159.01675335446
 30
0.0
 11
-912.5341028592866
 21
-1158.517559454411
 31
0.0
  0
LINE
  5
181
102
{ACAD_REACTORS
330
343
330
344
102
}
330
71
100
AcDbEntity
  8
0
  6
Continuous
 62
     2
100
AcDbLine
 10
-914.0147228461346
 20
-1158.256636377488
 30
0.0
 11
-912.7950259362094
 21
-1158.256636377488
 31
0.0
  0
LINE
  5
182
102
{ACAD_REACTORS
330
343
330
344
102
}
330
71
100
AcDbEntity
  8
0
  6
Continuous
 62
     2
100
AcDbLine
 10
-914.2756459230567
 20
-1158.517559454411
 30
0.0
 11
-914.2756459230567
 21
-1162.117935522772
 31
0.0
  0
LINE
  5
183
102
{ACAD_REACTORS
330
349
330
34A
102
}
330
71
100
AcDbEntity
  8
0
  6
Continuous
 62
     2
100
AcDbLine
 10
-908.2120091928495
 20
-1159.41215350733
 30
0.0
 11
-907.5849285417913
 21
-1159.41215350733
 31
0.0
  0
LINE
  5
184
102
{ACAD_REACTORS
330
349
330
34A
102
}
330
71
100
AcDbEntity
  8
0
  6
Continuous
 62
     2
100
AcDbLine
 10
-909.2372194492577
 20
-1157.667747488597
 30
0.0
 11
-907.5849285417913
 21
-1157.667747488597
 31
0.0
  0
LINE
  5
185
102
{ACAD_REACTORS
330
349
330
34A
102
}
330
71
100
AcDbEntity
  8
0
  6
Continuous
 62
     2
100
AcDbLine
 10
-909.2372194492577
 20
-1157.667747488597
 30
0.0
 11
-909.2372194492577
 21
-1160.191557012407
 31
0.0
  0
LINE
  5
186
102
{ACAD_REACTORS
330
349
330
34A
102
}
330
71
100
AcDbEntity
  8
0
  6
Continuous
 62
     2
100
AcDbLine
 10
-908.2120091928495
 20
-1158.799014839656
 30
0.0
 11
-907.9497818692611
 21
-1158.799014839656
 31
0.0
  0
LINE
  5
187
102
{ACAD_REACTORS
330
349
330
34A
102
}
330
71
100
AcDbEntity
  8
0
  6
Continuous
 62
     2
100
AcDbLine
 10
-908.2120091928495
 20
-1158.215768848464
 30
0.0
 11
-907.9497818692611
 21
-1158.215768848464
 31
0.0
  0
LINE
  5
188
102
{ACAD_REACTORS
330
357
330
358
102
}
330
71
100
AcDbEntity
  8
0
  6
Continuous
 62
     2
100
AcDbLine
 10
-905.609552388122
 20
-1158.551080821931
 30
0.0
 11
-904.7420667865456
 21
-1158.551080821931
 31
0.0
  0
LINE
  5
189
102
{ACAD_REACTORS
330
357
330
358
102
}
330
71
100
AcDbEntity
  8
0
  6
Continuous
 62
     2
100
AcDbLine
 10
-905.609552388122
 20
-1157.667747488597
 30
0.0
 11
-905.609552388122
 21
-1158.551080821931
 31
0.0
  0
LINE
  5
18A
102
{ACAD_REACTORS
330
357
330
358
102
}
330
71
100
AcDbEntity
  8
0
  6
Continuous
 62
     2
100
AcDbLine
 10
-906.5953314808216
 20
-1157.667747488597
 30
0.0
 11
-905.609552388122
 21
-1157.667747488597
 31
0.0
  0
LINE
  5
18B
102
{ACAD_REACTORS
330
357
330
358
102
}
330
71
100
AcDbEntity
  8
0
  6
Continuous
 62
     2
100
AcDbLine
 10
-905.609552388122
 20
-1160.191557012407
 30
0.0
 11
-906.5953314808216
 21
-1160.191557012407
 31
0.0
  0
LINE
  5
18C
102
{ACAD_REACTORS
330
357
330
358
102
}
330
71
100
AcDbEntity
  8
0
  6
Continuous
 62
     2
100
AcDbLine
 10
-904.7420667865456
 20
-1160.191557012407
 30
0.0
 11
-904.7420667865456
 21
-1159.254142046421
 31
0.0
  0
LINE
  5
18D
102
{ACAD_REACTORS
330
357
330
358
102
}
330
71
100
AcDbEntity
  8
0
  6
Continuous
 62
     2
100
AcDbLine
 10
-903.756287693846
 20
-1160.191557012407
 30
0.0
 11
-904.7420667865456
 21
-1160.191557012407
 31
0.0
  0
LINE
  5
18E
102
{ACAD_REACTORS
330
357
330
358
102
}
330
71
100
AcDbEntity
  8
0
  6
Continuous
 62
     2
100
AcDbLine
 10
-903.756287693846
 20
-1157.667747488597
 30
0.0
 11
-903.756287693846
 21
-1160.191557012407
 31
0.0
  0
LINE
  5
18F
102
{ACAD_REACTORS
330
345
330
346
102
}
330
71
100
AcDbEntity
  8
0
  6
Continuous
 62
     2
100
AcDbLine
 10
-900.8778127431626
 20
-1159.218087624652
 30
0.0
 11
-899.7737401593381
 21
-1159.218087624652
 31
0.0
  0
LINE
  5
190
102
{ACAD_REACTORS
330
345
330
346
102
}
330
71
100
AcDbEntity
  8
0
  6
Continuous
 62
     2
100
AcDbLine
 10
-899.7737401593381
 20
-1159.218087624652
 30
0.0
 11
-899.7737401593381
 21
-1158.641216876353
 31
0.0
  0
LINE
  5
191
102
{ACAD_REACTORS
330
345
330
346
102
}
330
71
100
AcDbEntity
  8
0
  6
Continuous
 62
     2
100
AcDbLine
 10
-899.7737401593381
 20
-1158.641216876353
 30
0.0
 11
-900.8778127431626
 21
-1158.641216876353
 31
0.0
  0
LINE
  5
192
102
{ACAD_REACTORS
330
345
330
346
102
}
330
71
100
AcDbEntity
  8
0
  6
Continuous
 62
     2
100
AcDbLine
 10
-900.8778127431626
 20
-1158.641216876353
 30
0.0
 11
-900.8778127431626
 21
-1158.244618236897
 31
0.0
  0
LINE
  5
193
102
{ACAD_REACTORS
330
355
330
356
102
}
330
71
100
AcDbEntity
  8
0
  6
Continuous
 62
     2
100
AcDbLine
 10
-903.914137084947
 20
-1162.967747488585
 30
0.0
 11
-902.9283579922464
 21
-1162.967747488585
 31
0.0
  0
LINE
  5
194
102
{ACAD_REACTORS
330
355
330
356
102
}
330
71
100
AcDbEntity
  8
0
  6
Continuous
 62
     2
100
AcDbLine
 10
-901.9031477358392
 20
-1162.967747488585
 30
0.0
 11
-900.9173686431396
 21
-1162.967747488585
 31
0.0
  0
LINE
  5
195
102
{ACAD_REACTORS
330
355
330
356
102
}
330
71
100
AcDbEntity
  8
0
  6
Continuous
 62
     2
100
AcDbLine
 10
-902.9283579922464
 20
-1160.443937964774
 30
0.0
 11
-903.914137084947
 21
-1160.443937964774
 31
0.0
  0
LINE
  5
196
102
{ACAD_REACTORS
330
355
330
356
102
}
330
71
100
AcDbEntity
  8
0
  6
Continuous
 62
     2
100
AcDbLine
 10
-903.914137084947
 20
-1160.443937964774
 30
0.0
 11
-903.914137084947
 21
-1162.967747488585
 31
0.0
  0
LINE
  5
197
102
{ACAD_REACTORS
330
353
330
354
102
}
330
71
100
AcDbEntity
  8
0
  6
Continuous
 62
     2
100
AcDbLine
 10
-897.5655949916907
 20
-1157.667747488597
 30
0.0
 11
-897.5655949916907
 21
-1158.749380141659
 31
0.0
  0
LINE
  5
198
102
{ACAD_REACTORS
330
353
330
354
102
}
330
71
100
AcDbEntity
  8
0
  6
Continuous
 62
     2
100
AcDbLine
 10
-898.590805248099
 20
-1157.667747488597
 30
0.0
 11
-899.5765843407985
 21
-1157.667747488597
 31
0.0
  0
LINE
  5
199
102
{ACAD_REACTORS
330
353
330
354
102
}
330
71
100
AcDbEntity
  8
0
  6
Continuous
 62
     2
100
AcDbLine
 10
-899.5765843407985
 20
-1157.667747488597
 30
0.0
 11
-899.5765843407985
 21
-1160.191557012407
 31
0.0
  0
LINE
  5
19A
102
{ACAD_REACTORS
330
353
330
354
102
}
330
71
100
AcDbEntity
  8
0
  6
Continuous
 62
     2
100
AcDbLine
 10
-898.590805248099
 20
-1160.191557012407
 30
0.0
 11
-898.590805248099
 21
-1159.109924359346
 31
0.0
  0
LINE
  5
19B
102
{ACAD_REACTORS
330
351
330
352
102
}
330
71
100
AcDbEntity
  8
0
  6
Continuous
 62
     2
100
AcDbLine
 10
-899.1429662762791
 20
-1162.967747488585
 30
0.0
 11
-899.1429662762791
 21
-1161.092917556611
 31
0.0
  0
LINE
  5
19C
102
{ACAD_REACTORS
330
351
330
352
102
}
330
71
100
AcDbEntity
  8
0
  6
Continuous
 62
     2
100
AcDbLine
 10
-899.1429662762791
 20
-1161.092917556611
 30
0.0
 11
-898.472636493244
 21
-1161.092917556611
 31
0.0
  0
LINE
  5
19D
102
{ACAD_REACTORS
330
351
330
352
102
}
330
71
100
AcDbEntity
  8
0
  6
Continuous
 62
     2
100
AcDbLine
 10
-898.472636493244
 20
-1161.092917556611
 30
0.0
 11
-898.472636493244
 21
-1160.443937964774
 31
0.0
  0
LINE
  5
19E
102
{ACAD_REACTORS
330
351
330
352
102
}
330
71
100
AcDbEntity
  8
0
  6
Continuous
 62
     2
100
AcDbLine
 10
-898.472636493244
 20
-1160.443937964774
 30
0.0
 11
-900.7990751520156
 21
-1160.443937964774
 31
0.0
  0
LINE
  5
19F
102
{ACAD_REACTORS
330
351
330
352
102
}
330
71
100
AcDbEntity
  8
0
  6
Continuous
 62
     2
100
AcDbLine
 10
-900.7990751520156
 20
-1161.092917556611
 30
0.0
 11
-900.1287453689787
 21
-1161.092917556611
 31
0.0
  0
LINE
  5
1A0
102
{ACAD_REACTORS
330
34F
330
350
102
}
330
71
100
AcDbEntity
  8
0
  6
Continuous
 62
     2
100
AcDbLine
 10
-897.8160201082875
 20
-1162.520672658652
 30
0.0
 11
-896.880117978805
 21
-1162.520672658652
 31
0.0
  0
LINE
  5
1A1
102
{ACAD_REACTORS
330
34F
330
350
102
}
330
71
100
AcDbEntity
  8
0
  6
Continuous
 62
     2
100
AcDbLine
 10
-895.6801308186978
 20
-1162.967747488585
 30
0.0
 11
-896.7053410751059
 21
-1162.967747488585
 31
0.0
  0
LINE
  5
1A2
102
{ACAD_REACTORS
330
34F
330
350
102
}
330
71
100
AcDbEntity
  8
0
  6
Continuous
 62
     2
100
AcDbLine
 10
-897.8606741717499
 20
-1160.443937964774
 30
0.0
 11
-899.0160072683939
 21
-1162.967747488585
 31
0.0
  0
LINE
  5
1A3
102
{ACAD_REACTORS
330
34F
330
350
102
}
330
71
100
AcDbEntity
  8
0
  6
Continuous
 62
     2
100
AcDbLine
 10
-897.9907970119865
 20
-1162.967747488585
 30
0.0
 11
-897.8160201082875
 21
-1162.520672658652
 31
0.0
  0
LINE
  5
1A4
102
{ACAD_REACTORS
330
34F
330
350
102
}
330
71
100
AcDbEntity
  8
0
  6
Continuous
 62
     2
100
AcDbLine
 10
-897.5961394875064
 20
-1161.95822367906
 30
0.0
 11
-897.3480690435458
 21
-1161.323665855931
 31
0.0
  0
LINE
  5
1A5
102
{ACAD_REACTORS
330
34D
330
34E
102
}
330
71
100
AcDbEntity
  8
0
  6
Continuous
 62
     2
100
AcDbLine
 10
-896.3826600804506
 20
-1160.191557012407
 30
0.0
 11
-896.3826600804506
 21
-1157.667747488597
 31
0.0
  0
LINE
  5
1A6
102
{ACAD_REACTORS
330
34D
330
34E
102
}
330
71
100
AcDbEntity
  8
0
  6
Continuous
 62
     2
100
AcDbLine
 10
-895.3574498240432
 20
-1157.667747488597
 30
0.0
 11
-895.3574498240432
 21
-1160.191557012407
 31
0.0
  0
LINE
  5
1A7
102
{ACAD_REACTORS
330
34D
330
34E
102
}
330
71
100
AcDbEntity
  8
0
  6
Continuous
 62
     2
100
AcDbLine
 10
-896.3826600804506
 20
-1157.667747488597
 30
0.0
 11
-895.3574498240432
 21
-1157.667747488597
 31
0.0
  0
LINE
  5
1A8
102
{ACAD_REACTORS
330
34B
330
34C
102
}
330
71
100
AcDbEntity
  8
0
  6
Continuous
 62
     2
100
AcDbLine
 10
-893.5239007116211
 20
-1159.540539008033
 30
0.0
 11
-892.9482057214843
 21
-1160.191557012407
 31
0.0
  0
LINE
  5
1A9
102
{ACAD_REACTORS
330
34B
330
34C
102
}
330
71
100
AcDbEntity
  8
0
  6
Continuous
 62
     2
100
AcDbLine
 10
-892.9482057214843
 20
-1160.191557012407
 30
0.0
 11
-891.7889295084692
 21
-1160.191557012407
 31
0.0
  0
LINE
  5
1AA
102
{ACAD_REACTORS
330
34B
330
34C
102
}
330
71
100
AcDbEntity
  8
0
  6
Continuous
 62
     2
100
AcDbLine
 10
-892.9442626051141
 20
-1158.88506197623
 30
0.0
 11
-891.7889295084692
 21
-1160.191557012407
 31
0.0
  0
LINE
  5
1AB
102
{ACAD_REACTORS
330
34B
330
34C
102
}
330
71
100
AcDbEntity
  8
0
  6
Continuous
 62
     2
100
AcDbLine
 10
-892.9442626051141
 20
-1158.88506197623
 30
0.0
 11
-891.8677918358856
 21
-1157.667747488597
 31
0.0
  0
LINE
  5
1AC
102
{ACAD_REACTORS
330
34B
330
34C
102
}
330
71
100
AcDbEntity
  8
0
  6
Continuous
 62
     2
100
AcDbLine
 10
-893.5239007116211
 20
-1158.229584944427
 30
0.0
 11
-893.0270680488998
 21
-1157.667747488597
 31
0.0
  0
LINE
  5
1AD
102
{ACAD_REACTORS
330
34B
330
34C
102
}
330
71
100
AcDbEntity
  8
0
  6
Continuous
 62
     2
100
AcDbLine
 10
-894.0207333743416
 20
-1157.667747488597
 30
0.0
 11
-893.5239007116211
 21
-1158.229584944427
 31
0.0
  0
LINE
  5
1AE
102
{ACAD_REACTORS
330
34B
330
34C
102
}
330
71
100
AcDbEntity
  8
0
  6
Continuous
 62
     2
100
AcDbLine
 10
-894.0207333743416
 20
-1157.667747488597
 30
0.0
 11
-895.1800095873575
 21
-1157.667747488597
 31
0.0
  0
LINE
  5
1AF
102
{ACAD_REACTORS
330
341
330
342
102
}
330
71
100
AcDbEntity
  8
0
  6
Continuous
 62
     2
100
AcDbLine
 10
-893.4450383842056
 20
-1162.967747488585
 30
0.0
 11
-892.4592592915051
 21
-1162.967747488585
 31
0.0
  0
LINE
  5
1B0
102
{ACAD_REACTORS
330
341
330
342
102
}
330
71
100
AcDbEntity
  8
0
  6
Continuous
 62
     2
100
AcDbLine
 10
-892.4592592915051
 20
-1162.967747488585
 30
0.0
 11
-892.4592592915051
 21
-1161.092917556611
 31
0.0
  0
LINE
  5
1B1
102
{ACAD_REACTORS
330
341
330
342
102
}
330
71
100
AcDbEntity
  8
0
  6
Continuous
 62
     2
100
AcDbLine
 10
-892.4592592915051
 20
-1161.092917556611
 30
0.0
 11
-891.7889295084692
 21
-1161.092917556611
 31
0.0
  0
LINE
  5
1B2
102
{ACAD_REACTORS
330
341
330
342
102
}
330
71
100
AcDbEntity
  8
0
  6
Continuous
 62
     2
100
AcDbLine
 10
-891.7889295084692
 20
-1161.092917556611
 30
0.0
 11
-891.7889295084692
 21
-1160.443937964774
 31
0.0
  0
LINE
  5
1B3
102
{ACAD_REACTORS
330
341
330
342
102
}
330
71
100
AcDbEntity
  8
0
  6
Continuous
 62
     2
100
AcDbLine
 10
-894.5864051436995
 20
-1160.443937964774
 30
0.0
 11
-891.7889295084692
 21
-1160.443937964774
 31
0.0
  0
LINE
  5
1B4
102
{ACAD_REACTORS
330
341
330
342
102
}
330
71
100
AcDbEntity
  8
0
  6
Continuous
 62
     2
100
AcDbLine
 10
-893.4450383842056
 20
-1161.092917556611
 30
0.0
 11
-893.4450383842056
 21
-1162.967747488585
 31
0.0
  0
LINE
  5
1B5
102
{ACAD_REACTORS
330
343
330
344
102
}
330
71
100
AcDbEntity
  8
0
  6
Continuous
 62
     2
100
AcDbLine
 10
-912.1470932895603
 20
-1161.332309348449
 30
0.0
 11
-912.1470932895603
 21
-1160.851440417296
 31
0.0
  0
LINE
  5
1B6
102
{ACAD_REACTORS
330
343
330
344
102
}
330
71
100
AcDbEntity
  8
0
  6
Continuous
 62
     2
100
AcDbLine
 10
-912.1470932895603
 20
-1159.018148516522
 30
0.0
 11
-912.1470932895603
 21
-1158.517706129326
 31
0.0
  0
LINE
  5
1B7
330
71
100
AcDbEntity
  8
1
  6
Continuous
 62
     6
100
AcDbLine
 10
-1043.97140111169
 20
-1168.81774748859
 30
0.0
 11
-1037.771401111692
 21
-1168.81774748859
 31
0.0
  0
LINE
  5
1B8
330
71
100
AcDbEntity
  8
1
  6
Continuous
 62
     6
100
AcDbLine
 10
-1037.771401111692
 20
-1168.81774748859
 30
0.0
 11
-1024.271401111692
 21
-1168.81774748859
 31
0.0
  0
LINE
  5
1B9
330
71
100
AcDbEntity
  8
1
  6
Continuous
 62
     6
100
AcDbLine
 10
-1024.271401111692
 20
-1168.81774748859
 30
0.0
 11
-996.9714011116903
 21
-1168.81774748859
 31
0.0
  0
LINE
  5
1BA
330
71
100
AcDbEntity
  8
1
  6
Continuous
 62
     6
100
AcDbLine
 10
-996.9714011116903
 20
-1168.81774748859
 30
0.0
 11
-962.016205638442
 21
-1168.81774748859
 31
0.0
  0
LINE
  5
1BB
330
71
100
AcDbEntity
  8
1
  6
Continuous
 62
     6
100
AcDbLine
 10
-935.0162056384421
 20
-1168.81774748859
 30
0.0
 11
-928.6380677783569
 21
-1168.81774748859
 31
0.0
  0
LINE
  5
1BC
330
71
100
AcDbEntity
  8
1
  6
Continuous
 62
     6
100
AcDbLine
 10
-948.516205638442
 20
-1168.81774748859
 30
0.0
 11
-935.0162056384421
 21
-1168.81774748859
 31
0.0
  0
LINE
  5
1BD
330
71
100
AcDbEntity
  8
1
  6
Continuous
 62
     6
100
AcDbLine
 10
-962.016205638442
 20
-1168.81774748859
 30
0.0
 11
-948.516205638442
 21
-1168.81774748859
 31
0.0
  0
LINE
  5
1BE
330
71
100
AcDbEntity
  8
1
  6
Continuous
 62
     6
100
AcDbLine
 10
-928.6380677783569
 20
-1168.81774748859
 30
0.0
 11
-921.516205638442
 21
-1168.81774748859
 31
0.0
  0
LINE
  5
1BF
330
71
100
AcDbEntity
  8
1
  6
Continuous
 62
     6
100
AcDbLine
 10
-921.516205638442
 20
-1168.81774748859
 30
0.0
 11
-903.3162056384422
 21
-1168.81774748859
 31
0.0
  0
LINE
  5
1C0
330
71
100
AcDbEntity
  8
1
  6
Continuous
 62
     6
100
AcDbLine
 10
-903.3162056384422
 20
-1168.81774748859
 30
0.0
 11
-885.1162056384421
 21
-1168.81774748859
 31
0.0
  0
LINE
  5
1C1
330
71
100
AcDbEntity
  8
1
  6
Continuous
 62
     6
100
AcDbLine
 10
-885.1162056384421
 20
-1168.81774748859
 30
0.0
 11
-860.3047344450238
 21
-1168.81774748859
 31
0.0
  0
LINE
  5
1C2
330
71
100
AcDbEntity
  8
1
  6
Continuous
 62
     6
100
AcDbLine
 10
-860.3047344450238
 20
-1168.81774748859
 30
0.0
 11
-791.9714011116904
 21
-1168.81774748859
 31
0.0
  0
LINE
  5
1C3
330
71
100
AcDbEntity
  8
1
  6
Continuous
 62
     6
100
AcDbLine
 10
-791.9714011116907
 20
-1160.31774748859
 30
0.0
 11
-791.9714011116903
 21
-1151.81774748859
 31
0.0
  0
LINE
  5
1C4
330
71
100
AcDbEntity
  8
1
  6
Continuous
 62
     6
100
AcDbLine
 10
-791.9714011116903
 20
-1151.81774748859
 30
0.0
 11
-791.9714011116913
 21
-1147.56774748859
 31
0.0
  0
LINE
  5
1C5
330
71
100
AcDbEntity
  8
1
  6
Continuous
 62
     6
100
AcDbLine
 10
-791.9714011116913
 20
-1147.56774748859
 30
0.0
 11
-791.9714011116904
 21
-1139.06774748859
 31
0.0
  0
LINE
  5
1C6
330
71
100
AcDbEntity
  8
1
  6
Continuous
 62
     6
100
AcDbLine
 10
-791.9714011116904
 20
-1139.06774748859
 30
0.0
 11
-791.9714011116904
 21
-1111.41774748859
 31
0.0
  0
LINE
  5
1C7
330
71
100
AcDbEntity
  8
1
  6
PHANTOM
 62
     2
100
AcDbLine
 10
-913.3969424236417
 20
-1153.94274748859
 30
0.0
 11
-909.0813474544527
 21
-1153.94274748859
 31
0.0
  0
LINE
  5
1C8
330
71
100
AcDbEntity
  8
1
  6
PHANTOM
 62
     2
100
AcDbLine
 10
-916.4239458133387
 20
-1152.29274748859
 30
0.0
 11
-916.4239458133387
 21
-1155.592747488591
 31
0.0
  0
LINE
  5
1C9
330
71
100
AcDbEntity
  8
1
  6
PHANTOM
 62
     2
100
AcDbLine
 10
-914.7739458133387
 20
-1153.94274748859
 30
0.0
 11
-918.0739458133387
 21
-1153.94274748859
 31
0.0
  0
LINE
  5
1CA
330
71
100
AcDbEntity
  8
1
  6
Continuous
 62
     7
100
AcDbLine
 10
-885.1162056384421
 20
-1156.06774748859
 30
0.0
 11
-885.1162056384421
 21
-1151.81774748859
 31
0.0
  0
LINE
  5
1CB
330
71
100
AcDbEntity
  8
1
  6
Continuous
 62
     7
100
AcDbLine
 10
-921.516205638442
 20
-1156.06774748859
 30
0.0
 11
-885.1162056384421
 21
-1156.06774748859
 31
0.0
  0
LINE
  5
1CC
330
71
100
AcDbEntity
  8
1
  6
Continuous
 62
     7
100
AcDbLine
 10
-1024.271401111692
 20
-1164.56774748859
 30
0.0
 11
-962.016205638442
 21
-1164.56774748859
 31
0.0
  0
LINE
  5
1CD
330
71
100
AcDbEntity
  8
1
  6
Continuous
 62
     2
100
AcDbLine
 10
-1024.271401111692
 20
-1164.56774748859
 30
0.0
 11
-1024.271401111692
 21
-1168.81774748859
 31
0.0
  0
LINE
  5
1CE
330
71
100
AcDbEntity
  8
1
  6
Continuous
 62
     2
100
AcDbLine
 10
-1024.271401111692
 20
-1160.31774748859
 30
0.0
 11
-1037.771401111692
 21
-1160.31774748859
 31
0.0
  0
LINE
  5
1CF
330
71
100
AcDbEntity
  8
1
  6
Continuous
 62
     2
100
AcDbLine
 10
-1024.271401111692
 20
-1160.31774748859
 30
0.0
 11
-1024.271401111692
 21
-1164.56774748859
 31
0.0
  0
LINE
  5
1D0
330
71
100
AcDbEntity
  8
1
  6
Continuous
 62
     2
100
AcDbLine
 10
-1024.271401111692
 20
-1151.81774748859
 30
0.0
 11
-1037.771401111692
 21
-1151.81774748859
 31
0.0
  0
LINE
  5
1D1
330
71
100
AcDbEntity
  8
1
  6
Continuous
 62
     2
100
AcDbLine
 10
-1024.271401111692
 20
-1151.81774748859
 30
0.0
 11
-1024.271401111692
 21
-1156.06774748859
 31
0.0
  0
LINE
  5
1D2
330
71
100
AcDbEntity
  8
1
  6
Continuous
 62
     2
100
AcDbLine
 10
-1024.271401111692
 20
-1156.06774748859
 30
0.0
 11
-1037.771401111692
 21
-1156.06774748859
 31
0.0
  0
LINE
  5
1D3
330
71
100
AcDbEntity
  8
1
  6
Continuous
 62
     2
100
AcDbLine
 10
-1024.271401111692
 20
-1156.06774748859
 30
0.0
 11
-1024.271401111692
 21
-1160.31774748859
 31
0.0
  0
LINE
  5
1D4
330
71
100
AcDbEntity
  8
1
  6
Continuous
 62
     2
100
AcDbLine
 10
-1024.271401111692
 20
-1143.31774748859
 30
0.0
 11
-1037.771401111692
 21
-1143.31774748859
 31
0.0
  0
LINE
  5
1D5
330
71
100
AcDbEntity
  8
1
  6
Continuous
 62
     2
100
AcDbLine
 10
-1024.271401111692
 20
-1147.56774748859
 30
0.0
 11
-1037.771401111692
 21
-1147.56774748859
 31
0.0
  0
LINE
  5
1D6
330
71
100
AcDbEntity
  8
1
  6
Continuous
 62
     2
100
AcDbLine
 10
-1024.271401111692
 20
-1147.56774748859
 30
0.0
 11
-1024.271401111692
 21
-1151.81774748859
 31
0.0
  0
LINE
  5
1D7
330
71
100
AcDbEntity
  8
1
  6
Continuous
 62
     2
100
AcDbLine
 10
-1024.271401111692
 20
-1143.31774748859
 30
0.0
 11
-1024.271401111692
 21
-1147.56774748859
 31
0.0
  0
LINE
  5
1D8
330
71
100
AcDbEntity
  8
1
  6
Continuous
 62
     6
100
AcDbLine
 10
-1024.271401111692
 20
-1139.06774748859
 30
0.0
 11
-1037.771401111692
 21
-1139.06774748859
 31
0.0
  0
LINE
  5
1D9
330
71
100
AcDbEntity
  8
1
  6
Continuous
 62
     2
100
AcDbLine
 10
-1024.271401111692
 20
-1139.06774748859
 30
0.0
 11
-1024.271401111692
 21
-1143.31774748859
 31
0.0
  0
LINE
  5
1DA
330
71
100
AcDbEntity
  8
1
  6
Continuous
 62
     6
100
AcDbLine
 10
-791.9714011116904
 20
-1139.06774748859
 30
0.0
 11
-809.8529928300112
 21
-1139.06774748859
 31
0.0
  0
LINE
  5
1DB
330
71
100
AcDbEntity
  8
1
  6
Continuous
 62
     7
100
AcDbLine
 10
-791.9714011116907
 20
-1160.31774748859
 30
0.0
 11
-836.9714011116885
 21
-1160.31774748859
 31
0.0
  0
LINE
  5
1DC
330
71
100
AcDbEntity
  8
1
  6
Continuous
 62
     7
100
AcDbLine
 10
-791.9714011116913
 20
-1147.56774748859
 30
0.0
 11
-809.8529928300112
 21
-1147.56774748859
 31
0.0
  0
LINE
  5
1DD
330
71
100
AcDbEntity
  8
1
  6
Continuous
 62
     7
100
AcDbLine
 10
-836.9714011116885
 20
-1151.81774748859
 30
0.0
 11
-791.9714011116903
 21
-1151.81774748859
 31
0.0
  0
LINE
  5
1DE
330
71
100
AcDbEntity
  8
1
  6
Continuous
 62
     7
100
AcDbLine
 10
-885.1162056384421
 20
-1143.31774748859
 30
0.0
 11
-885.1162056384421
 21
-1147.56774748859
 31
0.0
  0
LINE
  5
1DF
330
71
100
AcDbEntity
  8
1
  6
Continuous
 62
     7
100
AcDbLine
 10
-898.6162056384421
 20
-1143.31774748859
 30
0.0
 11
-885.1162056384421
 21
-1143.31774748859
 31
0.0
  0
LINE
  5
1E0
330
71
100
AcDbEntity
  8
1
  6
Continuous
 62
     7
100
AcDbLine
 10
-898.6162056384421
 20
-1143.31774748859
 30
0.0
 11
-912.116205638442
 21
-1143.31774748859
 31
0.0
  0
LINE
  5
1E1
330
71
100
AcDbEntity
  8
1
  6
Continuous
 62
     7
100
AcDbLine
 10
-809.8529928300112
 20
-1147.56774748859
 30
0.0
 11
-809.8529928300112
 21
-1139.06774748859
 31
0.0
  0
LINE
  5
1E2
330
71
100
AcDbEntity
  8
1
  6
Continuous
 62
     6
100
AcDbLine
 10
-818.7714011116905
 20
-1139.06774748859
 30
0.0
 11
-809.8529928300112
 21
-1139.06774748859
 31
0.0
  0
LINE
  5
1E3
330
71
100
AcDbEntity
  8
1
  6
Continuous
 62
     7
100
AcDbLine
 10
-818.7714011116905
 20
-1139.06774748859
 30
0.0
 11
-818.7714011116901
 21
-1147.56774748859
 31
0.0
  0
LINE
  5
1E4
330
71
100
AcDbEntity
  8
1
  6
Continuous
 62
     7
100
AcDbLine
 10
-836.9714011116885
 20
-1160.31774748859
 30
0.0
 11
-855.471401111688
 21
-1160.31774748859
 31
0.0
  0
LINE
  5
1E5
330
71
100
AcDbEntity
  8
1
  6
Continuous
 62
     7
100
AcDbLine
 10
-836.9714011116885
 20
-1151.81774748859
 30
0.0
 11
-836.9714011116885
 21
-1160.31774748859
 31
0.0
  0
LINE
  5
1E6
330
71
100
AcDbEntity
  8
1
  6
Continuous
 62
     2
100
AcDbLine
 10
-935.0162056384421
 20
-1139.06774748859
 30
0.0
 11
-935.0162056384421
 21
-1143.31774748859
 31
0.0
  0
LINE
  5
1E7
330
71
100
AcDbEntity
  8
1
  6
Continuous
 62
     2
100
AcDbLine
 10
-948.516205638442
 20
-1139.06774748859
 30
0.0
 11
-948.516205638442
 21
-1143.31774748859
 31
0.0
  0
LINE
  5
1E8
330
71
100
AcDbEntity
  8
1
  6
Continuous
 62
     6
100
AcDbLine
 10
-935.0162056384421
 20
-1139.06774748859
 30
0.0
 11
-948.516205638442
 21
-1139.06774748859
 31
0.0
  0
LINE
  5
1E9
330
71
100
AcDbEntity
  8
1
  6
Continuous
 62
     6
100
AcDbLine
 10
-948.516205638442
 20
-1139.06774748859
 30
0.0
 11
-962.016205638442
 21
-1139.06774748859
 31
0.0
  0
LINE
  5
1EA
330
71
100
AcDbEntity
  8
1
  6
Continuous
 62
     2
100
AcDbLine
 10
-962.016205638442
 20
-1139.06774748859
 30
0.0
 11
-962.016205638442
 21
-1143.31774748859
 31
0.0
  0
LINE
  5
1EB
330
71
100
AcDbEntity
  8
1
  6
Continuous
 62
     7
100
AcDbLine
 10
-903.3162056384422
 20
-1164.56774748859
 30
0.0
 11
-903.3162056384422
 21
-1168.81774748859
 31
0.0
  0
LINE
  5
1EC
330
71
100
AcDbEntity
  8
1
  6
Continuous
 62
     7
100
AcDbLine
 10
-903.3162056384422
 20
-1164.56774748859
 30
0.0
 11
-921.516205638442
 21
-1164.56774748859
 31
0.0
  0
LINE
  5
1ED
330
71
100
AcDbEntity
  8
1
  6
Continuous
 62
     7
100
AcDbLine
 10
-898.6162056384421
 20
-1151.81774748859
 30
0.0
 11
-912.116205638442
 21
-1151.81774748859
 31
0.0
  0
LINE
  5
1EE
330
71
100
AcDbEntity
  8
1
  6
Continuous
 62
     7
100
AcDbLine
 10
-885.1162056384421
 20
-1164.56774748859
 30
0.0
 11
-903.3162056384422
 21
-1164.56774748859
 31
0.0
  0
LINE
  5
1EF
330
71
100
AcDbEntity
  8
1
  6
Continuous
 62
     6
100
AcDbLine
 10
-885.1162056384421
 20
-1139.06774748859
 30
0.0
 11
-862.2162056384421
 21
-1139.06774748859
 31
0.0
  0
LINE
  5
1F0
330
71
100
AcDbEntity
  8
1
  6
Continuous
 62
     6
100
AcDbLine
 10
-818.7714011116905
 20
-1139.06774748859
 30
0.0
 11
-862.2162056384421
 21
-1139.06774748859
 31
0.0
  0
LINE
  5
1F1
330
71
100
AcDbEntity
  8
1
  6
Continuous
 62
     7
100
AcDbLine
 10
-862.2162056384421
 20
-1139.06774748859
 30
0.0
 11
-862.2162056384421
 21
-1147.56774748859
 31
0.0
  0
LINE
  5
1F2
330
71
100
AcDbEntity
  8
1
  6
Continuous
 62
     6
100
AcDbLine
 10
-1037.771401111692
 20
-1139.06774748859
 30
0.0
 11
-1043.97140111169
 21
-1139.06774748859
 31
0.0
  0
LINE
  5
1F3
330
71
100
AcDbEntity
  8
1
  6
Continuous
 62
     6
100
AcDbLine
 10
-1043.97140111169
 20
-1168.81774748859
 30
0.0
 11
-1043.97140111169
 21
-1164.56774748859
 31
0.0
  0
LINE
  5
1F4
330
71
100
AcDbEntity
  8
1
  6
Continuous
 62
     6
100
AcDbLine
 10
-1043.97140111169
 20
-1164.56774748859
 30
0.0
 11
-1043.97140111169
 21
-1160.31774748859
 31
0.0
  0
LINE
  5
1F5
330
71
100
AcDbEntity
  8
1
  6
Continuous
 62
     7
100
AcDbLine
 10
-898.6162056384421
 20
-1147.56774748859
 30
0.0
 11
-898.6162056384421
 21
-1151.81774748859
 31
0.0
  0
LINE
  5
1F6
330
71
100
AcDbEntity
  8
1
  6
Continuous
 62
     7
100
AcDbLine
 10
-912.116205638442
 20
-1147.56774748859
 30
0.0
 11
-912.116205638442
 21
-1151.81774748859
 31
0.0
  0
LINE
  5
1F7
330
71
100
AcDbEntity
  8
1
  6
Continuous
 62
     7
100
AcDbLine
 10
-898.6162056384421
 20
-1147.56774748859
 30
0.0
 11
-912.116205638442
 21
-1147.56774748859
 31
0.0
  0
LINE
  5
1F8
330
71
100
AcDbEntity
  8
1
  6
Continuous
 62
     2
100
AcDbLine
 10
-921.516205638442
 20
-1151.81774748859
 30
0.0
 11
-935.0162056384421
 21
-1151.81774748859
 31
0.0
  0
LINE
  5
1F9
330
71
100
AcDbEntity
  8
1
  6
Continuous
 62
     2
100
AcDbLine
 10
-1037.771401111692
 20
-1151.81774748859
 30
0.0
 11
-1037.771401111692
 21
-1147.56774748859
 31
0.0
  0
LINE
  5
1FA
330
71
100
AcDbEntity
  8
1
  6
Continuous
 62
     2
100
AcDbLine
 10
-1037.771401111692
 20
-1151.81774748859
 30
0.0
 11
-1043.97140111169
 21
-1151.81774748859
 31
0.0
  0
LINE
  5
1FB
330
71
100
AcDbEntity
  8
1
  6
Continuous
 62
     2
100
AcDbLine
 10
-921.516205638442
 20
-1147.56774748859
 30
0.0
 11
-935.0162056384421
 21
-1147.56774748859
 31
0.0
  0
LINE
  5
1FC
330
71
100
AcDbEntity
  8
1
  6
Continuous
 62
     2
100
AcDbLine
 10
-1037.771401111692
 20
-1147.56774748859
 30
0.0
 11
-1037.771401111692
 21
-1143.31774748859
 31
0.0
  0
LINE
  5
1FD
330
71
100
AcDbEntity
  8
1
  6
Continuous
 62
     2
100
AcDbLine
 10
-921.516205638442
 20
-1143.31774748859
 30
0.0
 11
-935.0162056384421
 21
-1143.31774748859
 31
0.0
  0
LINE
  5
1FE
330
71
100
AcDbEntity
  8
1
  6
Continuous
 62
     2
100
AcDbLine
 10
-1037.771401111692
 20
-1143.31774748859
 30
0.0
 11
-1037.771401111692
 21
-1139.06774748859
 31
0.0
  0
LINE
  5
1FF
330
71
100
AcDbEntity
  8
1
  6
Continuous
 62
     2
100
AcDbLine
 10
-1037.771401111692
 20
-1143.31774748859
 30
0.0
 11
-1043.97140111169
 21
-1143.31774748859
 31
0.0
  0
LINE
  5
200
330
71
100
AcDbEntity
  8
1
  6
Continuous
 62
     6
100
AcDbLine
 10
-921.516205638442
 20
-1139.06774748859
 30
0.0
 11
-935.0162056384421
 21
-1139.06774748859
 31
0.0
  0
LINE
  5
201
330
71
100
AcDbEntity
  8
1
  6
Continuous
 62
     2
100
AcDbLine
 10
-921.516205638442
 20
-1160.31774748859
 30
0.0
 11
-935.0162056384421
 21
-1160.31774748859
 31
0.0
  0
LINE
  5
202
330
71
100
AcDbEntity
  8
1
  6
Continuous
 62
     2
100
AcDbLine
 10
-921.516205638442
 20
-1156.06774748859
 30
0.0
 11
-935.0162056384421
 21
-1156.06774748859
 31
0.0
  0
LINE
  5
203
330
71
100
AcDbEntity
  8
1
  6
Continuous
 62
     2
100
AcDbLine
 10
-1037.771401111692
 20
-1160.31774748859
 30
0.0
 11
-1037.771401111692
 21
-1156.06774748859
 31
0.0
  0
LINE
  5
204
330
71
100
AcDbEntity
  8
1
  6
Continuous
 62
     2
100
AcDbLine
 10
-1037.771401111692
 20
-1156.06774748859
 30
0.0
 11
-1037.771401111692
 21
-1151.81774748859
 31
0.0
  0
LINE
  5
205
330
71
100
AcDbEntity
  8
1
  6
Continuous
 62
     7
100
AcDbLine
 10
-1037.771401111692
 20
-1164.56774748859
 30
0.0
 11
-1024.271401111692
 21
-1164.56774748859
 31
0.0
  0
LINE
  5
206
330
71
100
AcDbEntity
  8
1
  6
Continuous
 62
     2
100
AcDbLine
 10
-1037.771401111692
 20
-1164.56774748859
 30
0.0
 11
-1037.771401111692
 21
-1160.31774748859
 31
0.0
  0
LINE
  5
207
330
71
100
AcDbEntity
  8
1
  6
Continuous
 62
     7
100
AcDbLine
 10
-885.1162056384421
 20
-1160.31774748859
 30
0.0
 11
-885.1162056384421
 21
-1156.06774748859
 31
0.0
  0
LINE
  5
208
330
71
100
AcDbEntity
  8
1
  6
Continuous
 62
     6
100
AcDbLine
 10
-898.6162056384421
 20
-1139.06774748859
 30
0.0
 11
-885.1162056384421
 21
-1139.06774748859
 31
0.0
  0
LINE
  5
209
330
71
100
AcDbEntity
  8
1
  6
Continuous
 62
     7
100
AcDbLine
 10
-885.1162056384421
 20
-1139.06774748859
 30
0.0
 11
-885.1162056384421
 21
-1143.31774748859
 31
0.0
  0
LINE
  5
20A
330
71
100
AcDbEntity
  8
1
  6
Continuous
 62
     6
100
AcDbLine
 10
-912.116205638442
 20
-1139.06774748859
 30
0.0
 11
-898.6162056384421
 21
-1139.06774748859
 31
0.0
  0
LINE
  5
20B
330
71
100
AcDbEntity
  8
1
  6
Continuous
 62
     7
100
AcDbLine
 10
-921.516205638442
 20
-1151.81774748859
 30
0.0
 11
-921.516205638442
 21
-1156.06774748859
 31
0.0
  0
LINE
  5
20C
330
71
100
AcDbEntity
  8
1
  6
Continuous
 62
     7
100
AcDbLine
 10
-921.516205638442
 20
-1147.56774748859
 30
0.0
 11
-921.516205638442
 21
-1151.81774748859
 31
0.0
  0
LINE
  5
20D
330
71
100
AcDbEntity
  8
1
  6
Continuous
 62
     2
100
AcDbLine
 10
-1043.97140111169
 20
-1147.56774748859
 30
0.0
 11
-1037.771401111692
 21
-1147.56774748859
 31
0.0
  0
LINE
  5
20E
330
71
100
AcDbEntity
  8
1
  6
Continuous
 62
     7
100
AcDbLine
 10
-921.516205638442
 20
-1143.31774748859
 30
0.0
 11
-921.516205638442
 21
-1147.56774748859
 31
0.0
  0
LINE
  5
20F
330
71
100
AcDbEntity
  8
1
  6
Continuous
 62
     7
100
AcDbLine
 10
-885.1162056384421
 20
-1147.56774748859
 30
0.0
 11
-885.1162056384421
 21
-1151.81774748859
 31
0.0
  0
LINE
  5
210
330
71
100
AcDbEntity
  8
1
  6
Continuous
 62
     7
100
AcDbLine
 10
-898.6162056384421
 20
-1139.06774748859
 30
0.0
 11
-898.6162056384421
 21
-1143.31774748859
 31
0.0
  0
LINE
  5
211
330
71
100
AcDbEntity
  8
1
  6
Continuous
 62
     7
100
AcDbLine
 10
-912.116205638442
 20
-1139.06774748859
 30
0.0
 11
-912.116205638442
 21
-1143.31774748859
 31
0.0
  0
LINE
  5
212
330
71
100
AcDbEntity
  8
1
  6
Continuous
 62
     2
100
AcDbLine
 10
-1037.771401111692
 20
-1168.81774748859
 30
0.0
 11
-1037.771401111692
 21
-1164.56774748859
 31
0.0
  0
LINE
  5
213
330
71
100
AcDbEntity
  8
1
  6
Continuous
 62
     2
100
AcDbLine
 10
-1043.97140111169
 20
-1160.31774748859
 30
0.0
 11
-1037.771401111692
 21
-1160.31774748859
 31
0.0
  0
LINE
  5
214
330
71
100
AcDbEntity
  8
1
  6
Continuous
 62
     2
100
AcDbLine
 10
-1043.97140111169
 20
-1156.06774748859
 30
0.0
 11
-1037.771401111692
 21
-1156.06774748859
 31
0.0
  0
LINE
  5
215
330
71
100
AcDbEntity
  8
1
  6
Continuous
 62
     7
100
AcDbLine
 10
-1043.97140111169
 20
-1164.56774748859
 30
0.0
 11
-1037.771401111692
 21
-1164.56774748859
 31
0.0
  0
LINE
  5
216
330
71
100
AcDbEntity
  8
1
  6
Continuous
 62
     7
100
AcDbLine
 10
-885.1162056384421
 20
-1160.31774748859
 30
0.0
 11
-885.1162056384421
 21
-1164.56774748859
 31
0.0
  0
LINE
  5
217
330
71
100
AcDbEntity
  8
1
  6
Continuous
 62
     7
100
AcDbLine
 10
-921.516205638442
 20
-1156.06774748859
 30
0.0
 11
-921.516205638442
 21
-1160.31774748859
 31
0.0
  0
LINE
  5
218
330
71
100
AcDbEntity
  8
1
  6
Continuous
 62
     7
100
AcDbLine
 10
-921.516205638442
 20
-1160.31774748859
 30
0.0
 11
-921.516205638442
 21
-1164.56774748859
 31
0.0
  0
LINE
  5
219
330
71
100
AcDbEntity
  8
1
  6
Continuous
 62
     7
100
AcDbLine
 10
-898.6162056384421
 20
-1143.31774748859
 30
0.0
 11
-898.6162056384421
 21
-1147.56774748859
 31
0.0
  0
LINE
  5
21A
330
71
100
AcDbEntity
  8
1
  6
Continuous
 62
     7
100
AcDbLine
 10
-912.116205638442
 20
-1143.31774748859
 30
0.0
 11
-912.116205638442
 21
-1147.56774748859
 31
0.0
  0
LINE
  5
21B
330
71
100
AcDbEntity
  8
1
  6
Continuous
 62
     7
100
AcDbLine
 10
-921.516205638442
 20
-1147.56774748859
 30
0.0
 11
-912.116205638442
 21
-1147.56774748859
 31
0.0
  0
LINE
  5
21C
330
71
100
AcDbEntity
  8
1
  6
Continuous
 62
     7
100
AcDbLine
 10
-885.1162056384421
 20
-1151.81774748859
 30
0.0
 11
-898.6162056384421
 21
-1151.81774748859
 31
0.0
  0
LINE
  5
21D
330
71
100
AcDbEntity
  8
1
  6
Continuous
 62
     7
100
AcDbLine
 10
-885.1162056384421
 20
-1164.56774748859
 30
0.0
 11
-885.1162056384421
 21
-1168.81774748859
 31
0.0
  0
LINE
  5
21E
330
71
100
AcDbEntity
  8
1
  6
Continuous
 62
     7
100
AcDbLine
 10
-921.516205638442
 20
-1164.56774748859
 30
0.0
 11
-921.516205638442
 21
-1168.81774748859
 31
0.0
  0
LINE
  5
21F
330
71
100
AcDbEntity
  8
1
  6
Continuous
 62
     7
100
AcDbLine
 10
-921.516205638442
 20
-1139.06774748859
 30
0.0
 11
-921.516205638442
 21
-1143.31774748859
 31
0.0
  0
LINE
  5
220
330
71
100
AcDbEntity
  8
1
  6
Continuous
 62
     7
100
AcDbLine
 10
-885.1162056384421
 20
-1160.31774748859
 30
0.0
 11
-855.471401111688
 21
-1160.31774748859
 31
0.0
  0
LINE
  5
221
330
71
100
AcDbEntity
  8
1
  6
Continuous
 62
     7
100
AcDbLine
 10
-885.1162056384421
 20
-1151.81774748859
 30
0.0
 11
-855.471401111688
 21
-1151.81774748859
 31
0.0
  0
LINE
  5
222
330
71
100
AcDbEntity
  8
1
  6
Continuous
 62
     7
100
AcDbLine
 10
-818.7714011116901
 20
-1147.56774748859
 30
0.0
 11
-809.8529928300112
 21
-1147.56774748859
 31
0.0
  0
LINE
  5
223
330
71
100
AcDbEntity
  8
1
  6
Continuous
 62
     7
100
AcDbLine
 10
-818.7714011116901
 20
-1147.56774748859
 30
0.0
 11
-855.471401111688
 21
-1147.56774748859
 31
0.0
  0
LINE
  5
224
330
71
100
AcDbEntity
  8
1
  6
Continuous
 62
     7
100
AcDbLine
 10
-855.471401111688
 20
-1151.81774748859
 30
0.0
 11
-836.9714011116885
 21
-1151.81774748859
 31
0.0
  0
LINE
  5
225
330
71
100
AcDbEntity
  8
1
  6
Continuous
 62
     7
100
AcDbLine
 10
-855.471401111688
 20
-1151.81774748859
 30
0.0
 11
-855.471401111688
 21
-1160.31774748859
 31
0.0
  0
LINE
  5
226
330
71
100
AcDbEntity
  8
1
  6
Continuous
 62
     6
100
AcDbLine
 10
-1043.97140111169
 20
-1143.31774748859
 30
0.0
 11
-1043.97140111169
 21
-1139.06774748859
 31
0.0
  0
LINE
  5
227
330
71
100
AcDbEntity
  8
1
  6
Continuous
 62
     6
100
AcDbLine
 10
-1043.97140111169
 20
-1147.56774748859
 30
0.0
 11
-1043.97140111169
 21
-1143.31774748859
 31
0.0
  0
LINE
  5
228
330
71
100
AcDbEntity
  8
1
  6
Continuous
 62
     6
100
AcDbLine
 10
-1043.97140111169
 20
-1151.81774748859
 30
0.0
 11
-1043.97140111169
 21
-1147.56774748859
 31
0.0
  0
LINE
  5
229
330
71
100
AcDbEntity
  8
1
  6
Continuous
 62
     6
100
AcDbLine
 10
-1043.97140111169
 20
-1160.31774748859
 30
0.0
 11
-1043.97140111169
 21
-1156.06774748859
 31
0.0
  0
LINE
  5
22A
330
71
100
AcDbEntity
  8
1
  6
Continuous
 62
     6
100
AcDbLine
 10
-962.016205638442
 20
-1139.06774748859
 30
0.0
 11
-1024.271401111692
 21
-1139.06774748859
 31
0.0
  0
LINE
  5
22B
330
71
100
AcDbEntity
  8
1
  6
Continuous
 62
     2
100
AcDbLine
 10
-1024.271401111692
 20
-1143.31774748859
 30
0.0
 11
-962.016205638442
 21
-1143.31774748859
 31
0.0
  0
LINE
  5
22C
330
71
100
AcDbEntity
  8
1
  6
Continuous
 62
     2
100
AcDbLine
 10
-1024.271401111692
 20
-1147.56774748859
 30
0.0
 11
-962.016205638442
 21
-1147.56774748859
 31
0.0
  0
LINE
  5
22D
330
71
100
AcDbEntity
  8
1
  6
Continuous
 62
     7
100
AcDbLine
 10
-898.6162056384421
 20
-1147.56774748859
 30
0.0
 11
-885.1162056384421
 21
-1147.56774748859
 31
0.0
  0
LINE
  5
22E
330
71
100
AcDbEntity
  8
1
  6
Continuous
 62
     7
100
AcDbLine
 10
-862.2162056384421
 20
-1147.56774748859
 30
0.0
 11
-885.1162056384421
 21
-1147.56774748859
 31
0.0
  0
LINE
  5
22F
330
71
100
AcDbEntity
  8
1
  6
Continuous
 62
     2
100
AcDbLine
 10
-935.0162056384421
 20
-1160.31774748859
 30
0.0
 11
-935.0162056384421
 21
-1164.56774748859
 31
0.0
  0
LINE
  5
230
330
71
100
AcDbEntity
  8
1
  6
Continuous
 62
     2
100
AcDbLine
 10
-935.0162056384421
 20
-1160.31774748859
 30
0.0
 11
-948.516205638442
 21
-1160.31774748859
 31
0.0
  0
LINE
  5
231
330
71
100
AcDbEntity
  8
1
  6
Continuous
 62
     2
100
AcDbLine
 10
-935.0162056384421
 20
-1164.56774748859
 30
0.0
 11
-935.0162056384421
 21
-1168.81774748859
 31
0.0
  0
LINE
  5
232
330
71
100
AcDbEntity
  8
1
  6
Continuous
 62
     7
100
AcDbLine
 10
-935.0162056384421
 20
-1164.56774748859
 30
0.0
 11
-921.516205638442
 21
-1164.56774748859
 31
0.0
  0
LINE
  5
233
330
71
100
AcDbEntity
  8
1
  6
Continuous
 62
     2
100
AcDbLine
 10
-935.0162056384421
 20
-1151.81774748859
 30
0.0
 11
-935.0162056384421
 21
-1156.06774748859
 31
0.0
  0
LINE
  5
234
330
71
100
AcDbEntity
  8
1
  6
Continuous
 62
     2
100
AcDbLine
 10
-935.0162056384421
 20
-1151.81774748859
 30
0.0
 11
-948.516205638442
 21
-1151.81774748859
 31
0.0
  0
LINE
  5
235
330
71
100
AcDbEntity
  8
1
  6
Continuous
 62
     2
100
AcDbLine
 10
-935.0162056384421
 20
-1147.56774748859
 30
0.0
 11
-935.0162056384421
 21
-1151.81774748859
 31
0.0
  0
LINE
  5
236
330
71
100
AcDbEntity
  8
1
  6
Continuous
 62
     2
100
AcDbLine
 10
-935.0162056384421
 20
-1147.56774748859
 30
0.0
 11
-948.516205638442
 21
-1147.56774748859
 31
0.0
  0
LINE
  5
237
330
71
100
AcDbEntity
  8
1
  6
Continuous
 62
     2
100
AcDbLine
 10
-935.0162056384421
 20
-1143.31774748859
 30
0.0
 11
-935.0162056384421
 21
-1147.56774748859
 31
0.0
  0
LINE
  5
238
330
71
100
AcDbEntity
  8
1
  6
Continuous
 62
     2
100
AcDbLine
 10
-935.0162056384421
 20
-1143.31774748859
 30
0.0
 11
-948.516205638442
 21
-1143.31774748859
 31
0.0
  0
LINE
  5
239
330
71
100
AcDbEntity
  8
1
  6
Continuous
 62
     2
100
AcDbLine
 10
-935.0162056384421
 20
-1156.06774748859
 30
0.0
 11
-935.0162056384421
 21
-1160.31774748859
 31
0.0
  0
LINE
  5
23A
330
71
100
AcDbEntity
  8
1
  6
Continuous
 62
     2
100
AcDbLine
 10
-935.0162056384421
 20
-1156.06774748859
 30
0.0
 11
-948.516205638442
 21
-1156.06774748859
 31
0.0
  0
LINE
  5
23B
330
71
100
AcDbEntity
  8
1
  6
Continuous
 62
     2
100
AcDbLine
 10
-948.516205638442
 20
-1160.31774748859
 30
0.0
 11
-948.516205638442
 21
-1164.56774748859
 31
0.0
  0
LINE
  5
23C
330
71
100
AcDbEntity
  8
1
  6
Continuous
 62
     2
100
AcDbLine
 10
-948.516205638442
 20
-1160.31774748859
 30
0.0
 11
-962.016205638442
 21
-1160.31774748859
 31
0.0
  0
LINE
  5
23D
330
71
100
AcDbEntity
  8
1
  6
Continuous
 62
     2
100
AcDbLine
 10
-948.516205638442
 20
-1164.56774748859
 30
0.0
 11
-948.516205638442
 21
-1168.81774748859
 31
0.0
  0
LINE
  5
23E
330
71
100
AcDbEntity
  8
1
  6
Continuous
 62
     7
100
AcDbLine
 10
-948.516205638442
 20
-1164.56774748859
 30
0.0
 11
-935.0162056384421
 21
-1164.56774748859
 31
0.0
  0
LINE
  5
23F
330
71
100
AcDbEntity
  8
1
  6
Continuous
 62
     2
100
AcDbLine
 10
-948.516205638442
 20
-1151.81774748859
 30
0.0
 11
-948.516205638442
 21
-1156.06774748859
 31
0.0
  0
LINE
  5
240
330
71
100
AcDbEntity
  8
1
  6
Continuous
 62
     2
100
AcDbLine
 10
-948.516205638442
 20
-1151.81774748859
 30
0.0
 11
-962.016205638442
 21
-1151.81774748859
 31
0.0
  0
LINE
  5
241
330
71
100
AcDbEntity
  8
1
  6
Continuous
 62
     2
100
AcDbLine
 10
-948.516205638442
 20
-1147.56774748859
 30
0.0
 11
-948.516205638442
 21
-1151.81774748859
 31
0.0
  0
LINE
  5
242
330
71
100
AcDbEntity
  8
1
  6
Continuous
 62
     2
100
AcDbLine
 10
-948.516205638442
 20
-1147.56774748859
 30
0.0
 11
-962.016205638442
 21
-1147.56774748859
 31
0.0
  0
LINE
  5
243
330
71
100
AcDbEntity
  8
1
  6
Continuous
 62
     2
100
AcDbLine
 10
-948.516205638442
 20
-1143.31774748859
 30
0.0
 11
-948.516205638442
 21
-1147.56774748859
 31
0.0
  0
LINE
  5
244
330
71
100
AcDbEntity
  8
1
  6
Continuous
 62
     2
100
AcDbLine
 10
-948.516205638442
 20
-1143.31774748859
 30
0.0
 11
-962.016205638442
 21
-1143.31774748859
 31
0.0
  0
LINE
  5
245
330
71
100
AcDbEntity
  8
1
  6
Continuous
 62
     2
100
AcDbLine
 10
-948.516205638442
 20
-1156.06774748859
 30
0.0
 11
-948.516205638442
 21
-1160.31774748859
 31
0.0
  0
LINE
  5
246
330
71
100
AcDbEntity
  8
1
  6
Continuous
 62
     2
100
AcDbLine
 10
-948.516205638442
 20
-1156.06774748859
 30
0.0
 11
-962.016205638442
 21
-1156.06774748859
 31
0.0
  0
LINE
  5
247
330
71
100
AcDbEntity
  8
1
  6
Continuous
 62
     2
100
AcDbLine
 10
-962.016205638442
 20
-1160.31774748859
 30
0.0
 11
-962.016205638442
 21
-1164.56774748859
 31
0.0
  0
LINE
  5
248
330
71
100
AcDbEntity
  8
1
  6
Continuous
 62
     2
100
AcDbLine
 10
-962.016205638442
 20
-1160.31774748859
 30
0.0
 11
-1024.271401111692
 21
-1160.31774748859
 31
0.0
  0
LINE
  5
249
330
71
100
AcDbEntity
  8
1
  6
Continuous
 62
     2
100
AcDbLine
 10
-962.016205638442
 20
-1164.56774748859
 30
0.0
 11
-962.016205638442
 21
-1168.81774748859
 31
0.0
  0
LINE
  5
24A
330
71
100
AcDbEntity
  8
1
  6
Continuous
 62
     7
100
AcDbLine
 10
-962.016205638442
 20
-1164.56774748859
 30
0.0
 11
-948.516205638442
 21
-1164.56774748859
 31
0.0
  0
LINE
  5
24B
330
71
100
AcDbEntity
  8
1
  6
Continuous
 62
     2
100
AcDbLine
 10
-962.016205638442
 20
-1151.81774748859
 30
0.0
 11
-962.016205638442
 21
-1156.06774748859
 31
0.0
  0
LINE
  5
24C
330
71
100
AcDbEntity
  8
1
  6
Continuous
 62
     2
100
AcDbLine
 10
-962.016205638442
 20
-1151.81774748859
 30
0.0
 11
-1024.271401111692
 21
-1151.81774748859
 31
0.0
  0
LINE
  5
24D
330
71
100
AcDbEntity
  8
1
  6
Continuous
 62
     2
100
AcDbLine
 10
-962.016205638442
 20
-1147.56774748859
 30
0.0
 11
-962.016205638442
 21
-1151.81774748859
 31
0.0
  0
LINE
  5
24E
330
71
100
AcDbEntity
  8
1
  6
Continuous
 62
     2
100
AcDbLine
 10
-962.016205638442
 20
-1143.31774748859
 30
0.0
 11
-962.016205638442
 21
-1147.56774748859
 31
0.0
  0
LINE
  5
24F
330
71
100
AcDbEntity
  8
1
  6
Continuous
 62
     2
100
AcDbLine
 10
-962.016205638442
 20
-1156.06774748859
 30
0.0
 11
-962.016205638442
 21
-1160.31774748859
 31
0.0
  0
LINE
  5
250
330
71
100
AcDbEntity
  8
1
  6
Continuous
 62
     2
100
AcDbLine
 10
-962.016205638442
 20
-1156.06774748859
 30
0.0
 11
-1024.271401111692
 21
-1156.06774748859
 31
0.0
  0
LINE
  5
251
330
71
100
AcDbEntity
  8
1
  6
Continuous
 62
     7
100
AcDbLine
 10
-912.116205638442
 20
-1151.81774748859
 30
0.0
 11
-921.516205638442
 21
-1151.81774748859
 31
0.0
  0
LINE
  5
252
330
71
100
AcDbEntity
  8
1
  6
Continuous
 62
     6
100
AcDbLine
 10
-912.116205638442
 20
-1139.06774748859
 30
0.0
 11
-921.516205638442
 21
-1139.06774748859
 31
0.0
  0
LINE
  5
253
330
71
100
AcDbEntity
  8
1
  6
Continuous
 62
     7
100
AcDbLine
 10
-921.516205638442
 20
-1143.31774748859
 30
0.0
 11
-912.116205638442
 21
-1143.31774748859
 31
0.0
  0
LINE
  5
254
330
71
100
AcDbEntity
  8
1
  6
Continuous
 62
     6
100
AcDbLine
 10
-1043.97140111169
 20
-1156.06774748859
 30
0.0
 11
-1043.97140111169
 21
-1151.81774748859
 31
0.0
  0
LINE
  5
255
330
71
100
AcDbEntity
  8
1
  6
Continuous
 62
     2
100
AcDbLine
 10
-913.2359365039267
 20
-1152.44274748859
 30
0.0
 11
-909.2359365039267
 21
-1152.94274748859
 31
0.0
  0
LINE
  5
256
330
71
100
AcDbEntity
  8
1
  6
Continuous
 62
     2
100
AcDbLine
 10
-909.2359365039267
 20
-1152.94274748859
 30
0.0
 11
-909.2359365039267
 21
-1154.94274748859
 31
0.0
  0
LINE
  5
257
330
71
100
AcDbEntity
  8
1
  6
Continuous
 62
     2
100
AcDbLine
 10
-909.2359365039267
 20
-1154.94274748859
 30
0.0
 11
-913.2359365039267
 21
-1155.44274748859
 31
0.0
  0
LINE
  5
258
330
71
100
AcDbEntity
  8
1
  6
Continuous
 62
     2
100
AcDbLine
 10
-913.2359365039267
 20
-1155.44274748859
 30
0.0
 11
-913.2359365039267
 21
-1152.44274748859
 31
0.0
  0
LINE
  5
259
330
71
100
AcDbEntity
  8
1
  6
Continuous
 62
     2
100
AcDbLine
 10
-996.9714011116903
 20
-1173.81774748859
 30
0.0
 11
-1065.304734445024
 21
-1173.81774748859
 31
0.0
  0
LINE
  5
25A
330
71
100
AcDbEntity
  8
1
  6
Continuous
 62
     2
100
AcDbLine
 10
-860.3047344450238
 20
-1173.81774748859
 30
0.0
 11
-791.9714011116903
 21
-1173.81774748859
 31
0.0
  0
LINE
  5
25B
330
71
100
AcDbEntity
  8
1
  6
Continuous
 62
     2
100
AcDbLine
 10
-860.3047344450238
 20
-1173.81774748859
 30
0.0
 11
-860.3047344450238
 21
-1168.81774748859
 31
0.0
  0
LINE
  5
25C
330
71
100
AcDbEntity
  8
1
  6
Continuous
 62
     2
100
AcDbLine
 10
-928.6380677783569
 20
-1173.81774748859
 30
0.0
 11
-928.6380677783569
 21
-1168.81774748859
 31
0.0
  0
LINE
  5
25D
330
71
100
AcDbEntity
  8
1
  6
Continuous
 62
     2
100
AcDbLine
 10
-996.9714011116903
 20
-1173.81774748859
 30
0.0
 11
-996.9714011116903
 21
-1168.81774748859
 31
0.0
  0
LINE
  5
25E
330
71
100
AcDbEntity
  8
1
  6
Continuous
 62
     2
100
AcDbLine
 10
-786.9714011116928
 20
-1111.41774748859
 30
0.0
 11
-786.9714011116928
 21
-1054.01774748859
 31
0.0
  0
LINE
  5
25F
330
71
100
AcDbEntity
  8
1
  6
Continuous
 62
     2
100
AcDbLine
 10
-786.9714011116928
 20
-1111.41774748859
 30
0.0
 11
-791.9714011116904
 21
-1111.41774748859
 31
0.0
  0
LINE
  5
260
330
71
100
AcDbEntity
  8
1
  6
Continuous
 62
     2
100
AcDbLine
 10
-1186.971401111691
 20
-1173.81774748859
 30
0.0
 11
-1206.971401111691
 21
-1173.81774748859
 31
0.0
  0
LINE
  5
261
330
71
100
AcDbEntity
  8
1
  6
Continuous
 62
     2
100
AcDbLine
 10
-1133.638067778357
 20
-1173.81774748859
 30
0.0
 11
-1133.638067778357
 21
-1168.81774748859
 31
0.0
  0
LINE
  5
262
330
71
100
AcDbEntity
  8
1
  6
Continuous
 62
     2
100
AcDbLine
 10
-1133.638067778357
 20
-1173.81774748859
 30
0.0
 11
-1065.304734445024
 21
-1173.81774748859
 31
0.0
  0
LINE
  5
263
330
71
100
AcDbEntity
  8
1
  6
Continuous
 62
     6
100
AcDbLine
 10
-1133.638067778357
 20
-1168.81774748859
 30
0.0
 11
-1065.304734445024
 21
-1168.81774748859
 31
0.0
  0
LINE
  5
264
330
71
100
AcDbEntity
  8
1
  6
Continuous
 62
     6
100
AcDbLine
 10
-1133.638067778357
 20
-1168.81774748859
 30
0.0
 11
-1186.97140111169
 21
-1168.81774748859
 31
0.0
  0
LINE
  5
265
330
71
100
AcDbEntity
  8
1
  6
Continuous
 62
     2
100
AcDbLine
 10
-1065.304734445024
 20
-1173.81774748859
 30
0.0
 11
-1065.304734445024
 21
-1168.81774748859
 31
0.0
  0
LINE
  5
266
330
71
100
AcDbEntity
  8
1
  6
Continuous
 62
     2
100
AcDbLine
 10
-1186.971401111691
 20
-1173.81774748859
 30
0.0
 11
-1186.971401111691
 21
-1169.81774748859
 31
0.0
  0
LINE
  5
267
330
71
100
AcDbEntity
  8
1
  6
Continuous
 62
     2
100
AcDbLine
 10
-1186.971401111691
 20
-1173.81774748859
 30
0.0
 11
-1133.638067778357
 21
-1173.81774748859
 31
0.0
  0
LINE
  5
268
330
71
100
AcDbEntity
  8
1
  6
Continuous
 62
     2
100
AcDbLine
 10
-976.9714011116931
 20
-1173.81774748859
 30
0.0
 11
-996.9714011116903
 21
-1173.81774748859
 31
0.0
  0
LINE
  5
269
330
71
100
AcDbEntity
  8
1
  6
Continuous
 62
     2
100
AcDbLine
 10
-976.9714011116931
 20
-1173.81774748859
 30
0.0
 11
-976.9714011116931
 21
-1169.81774748859
 31
0.0
  0
LINE
  5
26A
330
71
100
AcDbEntity
  8
1
  6
Continuous
 62
     2
100
AcDbLine
 10
-976.9714011116931
 20
-1173.81774748859
 30
0.0
 11
-928.6380677783569
 21
-1173.81774748859
 31
0.0
  0
LINE
  5
26B
330
71
100
AcDbEntity
  8
1
  6
Continuous
 62
     2
100
AcDbLine
 10
-928.6380677783569
 20
-1173.81774748859
 30
0.0
 11
-860.3047344450238
 21
-1173.81774748859
 31
0.0
  0
LINE
  5
26C
330
71
100
AcDbEntity
  8
1
  6
Continuous
 62
     2
100
AcDbLine
 10
-786.9714011116928
 20
-1173.81774748859
 30
0.0
 11
-791.9714011116903
 21
-1173.81774748859
 31
0.0
  0
LINE
  5
26D
330
71
100
AcDbEntity
  8
1
  6
Continuous
 62
     2
100
AcDbLine
 10
-786.9714011116928
 20
-1168.81774748859
 30
0.0
 11
-786.9714011116928
 21
-1173.81774748859
 31
0.0
  0
LINE
  5
26E
330
71
100
AcDbEntity
  8
1
  6
Continuous
 62
     2
100
AcDbLine
 10
-786.9714011116928
 20
-1168.81774748859
 30
0.0
 11
-786.9714011116928
 21
-1111.41774748859
 31
0.0
  0
LINE
  5
26F
330
71
100
AcDbEntity
  8
1
  6
Continuous
 62
     2
100
AcDbLine
 10
-786.9714011116928
 20
-876.8177474885899
 30
0.0
 11
-791.9714011116928
 21
-876.8177474885899
 31
0.0
  0
LINE
  5
270
330
71
100
AcDbEntity
  8
1
  6
Continuous
 62
     6
100
AcDbLine
 10
-791.9714011116928
 20
-881.8177474885899
 30
0.0
 11
-791.9714011116923
 21
-939.21774748859
 31
0.0
  0
LINE
  5
271
330
71
100
AcDbEntity
  8
1
  6
Continuous
 62
     2
100
AcDbLine
 10
-786.9714011116928
 20
-876.8177474885899
 30
0.0
 11
-786.9714011116928
 21
-881.8177474885899
 31
0.0
  0
LINE
  5
272
330
71
100
AcDbEntity
  8
1
  6
Continuous
 62
     2
100
AcDbLine
 10
-791.9714011116928
 20
-881.8177474885899
 30
0.0
 11
-791.9714011116928
 21
-876.8177474885899
 31
0.0
  0
LINE
  5
273
330
71
100
AcDbEntity
  8
1
  6
Continuous
 62
     2
100
AcDbLine
 10
-791.9714011116928
 20
-881.8177474885899
 30
0.0
 11
-786.9714011116928
 21
-881.8177474885899
 31
0.0
  0
LINE
  5
274
330
71
100
AcDbEntity
  8
1
  6
Continuous
 62
     2
100
AcDbLine
 10
-786.9714011116928
 20
-881.8177474885899
 30
0.0
 11
-786.9714011116928
 21
-939.21774748859
 31
0.0
  0
LINE
  5
275
330
71
100
AcDbEntity
  8
1
  6
Continuous
 62
     2
100
AcDbLine
 10
-791.9714011116923
 20
-939.21774748859
 30
0.0
 11
-786.9714011116928
 21
-939.21774748859
 31
0.0
  0
LINE
  5
276
330
71
100
AcDbEntity
  8
1
  6
Continuous
 62
     6
100
AcDbLine
 10
-791.9714011116923
 20
-939.21774748859
 30
0.0
 11
-791.9714011116903
 21
-996.6177474885899
 31
0.0
  0
LINE
  5
277
330
71
100
AcDbEntity
  8
1
  6
Continuous
 62
     2
100
AcDbLine
 10
-786.9714011116928
 20
-939.21774748859
 30
0.0
 11
-786.9714011116928
 21
-996.6177474885899
 31
0.0
  0
LINE
  5
278
330
71
100
AcDbEntity
  8
1
  6
Continuous
 62
     2
100
AcDbLine
 10
-791.9714011116903
 20
-996.6177474885899
 30
0.0
 11
-786.9714011116928
 21
-996.6177474885899
 31
0.0
  0
LINE
  5
279
330
71
100
AcDbEntity
  8
1
  6
Continuous
 62
     6
100
AcDbLine
 10
-791.9714011116903
 20
-996.6177474885899
 30
0.0
 11
-791.9714011116903
 21
-1054.01774748859
 31
0.0
  0
LINE
  5
27A
330
71
100
AcDbEntity
  8
1
  6
Continuous
 62
     2
100
AcDbLine
 10
-786.9714011116928
 20
-996.6177474885899
 30
0.0
 11
-786.9714011116928
 21
-1054.01774748859
 31
0.0
  0
LINE
  5
27B
330
71
100
AcDbEntity
  8
1
  6
Continuous
 62
     2
100
AcDbLine
 10
-791.9714011116903
 20
-1054.01774748859
 30
0.0
 11
-786.9714011116928
 21
-1054.01774748859
 31
0.0
  0
LINE
  5
27C
330
71
100
AcDbEntity
  8
1
  6
Continuous
 62
     6
100
AcDbLine
 10
-791.9714011116903
 20
-1054.01774748859
 30
0.0
 11
-791.9714011116904
 21
-1111.41774748859
 31
0.0
  0
LINE
  5
27D
330
71
100
AcDbEntity
  8
1
  6
Continuous
 62
     6
100
AcDbLine
 10
-1186.971401111691
 20
-881.8177474885897
 30
0.0
 11
-1133.638067778357
 21
-881.8177474885897
 31
0.0
  0
LINE
  5
27E
330
71
100
AcDbEntity
  8
1
  6
Continuous
 62
     2
100
AcDbLine
 10
-791.9714011116928
 20
-876.8177474885899
 30
0.0
 11
-860.3047344450238
 21
-876.8177474885899
 31
0.0
  0
LINE
  5
27F
330
71
100
AcDbEntity
  8
1
  6
Continuous
 62
     2
100
AcDbLine
 10
-860.3047344450238
 20
-881.8177474885899
 30
0.0
 11
-860.3047344450238
 21
-876.8177474885899
 31
0.0
  0
LINE
  5
280
330
71
100
AcDbEntity
  8
1
  6
Continuous
 62
     6
100
AcDbLine
 10
-860.3047344450238
 20
-881.8177474885899
 30
0.0
 11
-791.9714011116928
 21
-881.8177474885899
 31
0.0
  0
LINE
  5
281
330
71
100
AcDbEntity
  8
1
  6
Continuous
 62
     2
100
AcDbLine
 10
-860.3047344450238
 20
-876.8177474885899
 30
0.0
 11
-928.6380677783569
 21
-876.8177474885899
 31
0.0
  0
LINE
  5
282
330
71
100
AcDbEntity
  8
1
  6
Continuous
 62
     2
100
AcDbLine
 10
-928.6380677783569
 20
-881.8177474885899
 30
0.0
 11
-928.6380677783569
 21
-876.8177474885899
 31
0.0
  0
LINE
  5
283
330
71
100
AcDbEntity
  8
1
  6
Continuous
 62
     6
100
AcDbLine
 10
-928.6380677783569
 20
-881.8177474885899
 30
0.0
 11
-860.3047344450238
 21
-881.8177474885899
 31
0.0
  0
LINE
  5
284
330
71
100
AcDbEntity
  8
1
  6
Continuous
 62
     2
100
AcDbLine
 10
-928.6380677783569
 20
-876.8177474885899
 30
0.0
 11
-976.9714011116931
 21
-876.8177474885899
 31
0.0
  0
LINE
  5
285
330
71
100
AcDbEntity
  8
1
  6
Continuous
 62
     2
100
AcDbLine
 10
-996.9714011116903
 20
-881.8177474885899
 30
0.0
 11
-996.9714011116903
 21
-876.8177474885899
 31
0.0
  0
LINE
  5
286
330
71
100
AcDbEntity
  8
1
  6
Continuous
 62
     6
100
AcDbLine
 10
-996.9714011116903
 20
-881.8177474885899
 30
0.0
 11
-928.6380677783569
 21
-881.8177474885899
 31
0.0
  0
LINE
  5
287
330
71
100
AcDbEntity
  8
1
  6
Continuous
 62
     2
100
AcDbLine
 10
-996.9714011116903
 20
-876.8177474885899
 30
0.0
 11
-1065.304734445024
 21
-876.8177474885899
 31
0.0
  0
LINE
  5
288
330
71
100
AcDbEntity
  8
1
  6
Continuous
 62
     2
100
AcDbLine
 10
-1065.304734445024
 20
-881.8177474885899
 30
0.0
 11
-1065.304734445024
 21
-876.8177474885899
 31
0.0
  0
LINE
  5
289
330
71
100
AcDbEntity
  8
1
  6
Continuous
 62
     6
100
AcDbLine
 10
-1065.304734445024
 20
-881.8177474885899
 30
0.0
 11
-996.9714011116903
 21
-881.8177474885899
 31
0.0
  0
LINE
  5
28A
330
71
100
AcDbEntity
  8
1
  6
Continuous
 62
     2
100
AcDbLine
 10
-1065.304734445024
 20
-876.8177474885899
 30
0.0
 11
-1133.638067778357
 21
-876.8177474885899
 31
0.0
  0
LINE
  5
28B
330
71
100
AcDbEntity
  8
1
  6
Continuous
 62
     2
100
AcDbLine
 10
-1133.638067778357
 20
-881.8177474885897
 30
0.0
 11
-1133.638067778357
 21
-876.8177474885899
 31
0.0
  0
LINE
  5
28C
330
71
100
AcDbEntity
  8
1
  6
Continuous
 62
     6
100
AcDbLine
 10
-1133.638067778357
 20
-881.8177474885897
 30
0.0
 11
-1065.304734445024
 21
-881.8177474885899
 31
0.0
  0
LINE
  5
28D
330
71
100
AcDbEntity
  8
1
  6
Continuous
 62
     2
100
AcDbLine
 10
-1133.638067778357
 20
-876.8177474885899
 30
0.0
 11
-1186.971401111691
 21
-876.8177474885899
 31
0.0
  0
LINE
  5
28E
330
71
100
AcDbEntity
  8
1
  6
Continuous
 62
     2
100
AcDbLine
 10
-1186.971401111691
 20
-876.8177474885899
 30
0.0
 11
-1186.971401111691
 21
-880.8177474885897
 31
0.0
  0
LINE
  5
28F
330
71
100
AcDbEntity
  8
1
  6
Continuous
 62
     2
100
AcDbLine
 10
-1186.971401111691
 20
-876.8177474885899
 30
0.0
 11
-1206.971401111691
 21
-876.8177474885899
 31
0.0
  0
LINE
  5
290
330
71
100
AcDbEntity
  8
1
  6
Continuous
 62
     2
100
AcDbLine
 10
-976.9714011116931
 20
-876.8177474885899
 30
0.0
 11
-976.9714011116931
 21
-880.8177474885897
 31
0.0
  0
LINE
  5
291
330
71
100
AcDbEntity
  8
1
  6
Continuous
 62
     2
100
AcDbLine
 10
-976.9714011116931
 20
-876.8177474885899
 30
0.0
 11
-996.9714011116903
 21
-876.8177474885899
 31
0.0
  0
LINE
  5
292
330
71
100
AcDbEntity
  8
1
  6
Continuous
 62
     2
100
AcDbLine
 10
-1206.971401111691
 20
-876.8177474885899
 30
0.0
 11
-1206.971401111691
 21
-1025.31774748859
 31
0.0
  0
LINE
  5
293
330
71
100
AcDbEntity
  8
1
  6
Continuous
 62
     2
100
AcDbLine
 10
-1206.971401111691
 20
-1025.31774748859
 30
0.0
 11
-1196.971401111691
 21
-1025.31774748859
 31
0.0
  0
LINE
  5
294
330
71
100
AcDbEntity
  8
1
  6
Continuous
 62
     2
100
AcDbLine
 10
-1206.971401111691
 20
-1025.31774748859
 30
0.0
 11
-1206.971401111691
 21
-1173.81774748859
 31
0.0
  0
LINE
  5
295
330
71
100
AcDbEntity
  8
1
  6
Continuous
 62
     6
100
AcDbLine
 10
-1186.97140111169
 20
-1168.81774748859
 30
0.0
 11
-1186.971401111691
 21
-881.8177474885897
 31
0.0
  0
LINE
  5
296
330
71
100
AcDbEntity
  8
1
  6
Continuous
 62
     6
100
AcDbLine
 10
-791.9714011116904
 20
-1168.81774748859
 30
0.0
 11
-791.9714011116907
 21
-1160.31774748859
 31
0.0
  0
LINE
  5
297
330
71
100
AcDbEntity
  8
1
  6
Continuous
 62
     6
100
AcDbLine
 10
-1065.304734445024
 20
-1168.81774748859
 30
0.0
 11
-1043.97140111169
 21
-1168.81774748859
 31
0.0
  0
LINE
  5
298
330
71
100
AcDbEntity
  8
1
  6
Continuous
 62
     2
100
AcDbLine
 10
-820.5306644268996
 20
-1153.367966767623
 30
0.0
 11
-820.5306644268995
 21
-1155.425362732476
 31
0.0
  0
LINE
  5
299
330
71
100
AcDbEntity
  8
1
  6
Continuous
 62
     7
100
AcDbLine
 10
-855.471401111688
 20
-1151.81774748859
 30
0.0
 11
-855.471401111688
 21
-1147.56774748859
 31
0.0
  0
LINE
  5
29A
330
71
100
AcDbEntity
  8
1
  6
Continuous
 62
     7
100
AcDbLine
 10
-855.471401111688
 20
-1147.56774748859
 30
0.0
 11
-862.2162056384421
 21
-1147.56774748859
 31
0.0
  0
ARC
  5
29B
102
{ACAD_REACTORS
330
347
330
348
102
}
330
71
100
AcDbEntity
  8
0
  6
Continuous
 62
     2
100
AcDbCircle
 10
-905.6371577054172
 20
-1161.705842726679
 30
0.0
 40
0.6378510567600505
100
AcDbArc
 50
321.8795802028355
 51
38.12041979716452
  0
ARC
  5
29C
102
{ACAD_REACTORS
330
347
330
348
102
}
330
71
100
AcDbEntity
  8
0
  6
Continuous
 62
     2
100
AcDbCircle
 10
-905.4720832952135
 20
-1161.835372625952
 30
0.0
 40
0.4280236140609378
100
AcDbArc
 50
218.1204197971633
 51
321.8795802028085
  0
ARC
  5
29D
102
{ACAD_REACTORS
330
347
330
348
102
}
330
71
100
AcDbEntity
  8
0
  6
Continuous
 62
     2
100
AcDbCircle
 10
-905.3070088850102
 20
-1161.705842726679
 30
0.0
 40
0.637851056759961
100
AcDbArc
 50
141.8795802028292
 51
218.1204197971708
  0
ARC
  5
29E
102
{ACAD_REACTORS
330
347
330
348
102
}
330
71
100
AcDbEntity
  8
0
  6
Continuous
 62
     2
100
AcDbCircle
 10
-905.4720832952135
 20
-1161.576312827406
 30
0.0
 40
0.4280236140605291
100
AcDbArc
 50
38.12041979716756
 51
141.8795802028606
  0
ARC
  5
29F
102
{ACAD_REACTORS
330
33F
330
340
102
}
330
71
100
AcDbEntity
  8
0
  6
Continuous
 62
     2
100
AcDbCircle
 10
-908.0026734898945
 20
-1162.871517408835
 30
0.0
 40
1.840813230556213
100
AcDbArc
 50
58.06909105002977
 51
71.55192388186956
  0
ARC
  5
2A0
102
{ACAD_REACTORS
330
33F
330
340
102
}
330
71
100
AcDbEntity
  8
0
  6
Continuous
 62
     2
100
AcDbCircle
 10
-907.7863696048046
 20
-1161.536362206565
 30
0.0
 40
0.4227934381778725
100
AcDbArc
 50
113.3722778881805
 51
151.4785267422638
  0
ARC
  5
2A1
102
{ACAD_REACTORS
330
33F
330
340
102
}
330
71
100
AcDbEntity
  8
0
  6
Continuous
 62
     2
100
AcDbCircle
 10
-907.4745041022588
 20
-1161.705842726679
 30
0.0
 40
0.7777353184570868
100
AcDbArc
 50
151.4785267422948
 51
208.5214732577052
  0
ARC
  5
2A2
102
{ACAD_REACTORS
330
33F
330
340
102
}
330
71
100
AcDbEntity
  8
0
  6
Continuous
 62
     2
100
AcDbCircle
 10
-908.1331469403844
 20
-1158.96808987936
 30
0.0
 40
4.010410630990424
100
AcDbArc
 50
275.1581447696242
 51
285.9799912583509
  0
ARC
  5
2A3
102
{ACAD_REACTORS
330
33F
330
340
102
}
330
71
100
AcDbEntity
  8
0
  6
Continuous
 62
     2
100
AcDbCircle
 10
-907.8944228951482
 20
-1161.612627551444
 30
0.0
 40
1.35511993714008
100
AcDbArc
 50
195.0618917770999
 51
275.1581447696384
  0
ARC
  5
2A4
102
{ACAD_REACTORS
330
33F
330
340
102
}
330
71
100
AcDbEntity
  8
0
  6
Continuous
 62
     2
100
AcDbCircle
 10
-908.2408095426381
 20
-1161.705842726679
 30
0.0
 40
0.9964100565212273
100
AcDbArc
 50
164.9381082229301
 51
195.0618917771204
  0
ARC
  5
2A5
102
{ACAD_REACTORS
330
33F
330
340
102
}
330
71
100
AcDbEntity
  8
0
  6
Continuous
 62
     2
100
AcDbCircle
 10
-907.8944228951482
 20
-1161.799057901915
 30
0.0
 40
1.355119937141545
100
AcDbArc
 50
84.84185523036508
 51
164.9381082229094
  0
ARC
  5
2A6
102
{ACAD_REACTORS
330
343
330
344
102
}
330
71
100
AcDbEntity
  8
0
  6
Continuous
 62
     2
100
AcDbCircle
 10
-911.8861702126374
 20
-1160.851440417296
 30
0.0
 40
0.2609230769232637
100
AcDbArc
 50
115.3740086783036
 51
180.0
  0
ARC
  5
2A7
102
{ACAD_REACTORS
330
343
330
344
102
}
330
71
100
AcDbEntity
  8
0
  6
Continuous
 62
     2
100
AcDbCircle
 10
-911.8861702126374
 20
-1159.018148516522
 30
0.0
 40
0.2609230769229498
100
AcDbArc
 50
180.0
 51
244.6259913216964
  0
ARC
  5
2A8
102
{ACAD_REACTORS
330
343
330
344
102
}
330
71
100
AcDbEntity
  8
0
  6
Continuous
 62
     2
100
AcDbCircle
 10
-911.8815287784969
 20
-1159.925007738887
 30
0.0
 40
1.668232340440956
100
AcDbArc
 50
269.8110329575862
 51
90.18896704241386
  0
ARC
  5
2A9
102
{ACAD_REACTORS
330
343
330
344
102
}
330
71
100
AcDbEntity
  8
0
  6
Continuous
 62
     2
100
AcDbCircle
 10
-911.8861702126374
 20
-1161.332309348449
 30
0.0
 40
0.2609230769229498
100
AcDbArc
 50
180.0
 51
269.8110329574461
  0
ARC
  5
2AA
102
{ACAD_REACTORS
330
341
330
342
102
}
330
71
100
AcDbEntity
  8
0
  6
Continuous
 62
     2
100
AcDbCircle
 10
-894.4783518533559
 20
-1161.536362206565
 30
0.0
 40
0.4227934381776318
100
AcDbArc
 50
109.3371432194667
 51
151.4785267423226
  0
ARC
  5
2AB
102
{ACAD_REACTORS
330
341
330
342
102
}
330
71
100
AcDbEntity
  8
0
  6
Continuous
 62
     2
100
AcDbCircle
 10
-894.4783518533559
 20
-1161.875323246794
 30
0.0
 40
0.4227934381785061
100
AcDbArc
 50
208.5214732576774
 51
246.6277221118336
  0
ARC
  5
2AC
102
{ACAD_REACTORS
330
341
330
342
102
}
330
71
100
AcDbEntity
  8
0
  6
Continuous
 62
     2
100
AcDbCircle
 10
-894.9327917911885
 20
-1161.705842726679
 30
0.0
 40
0.9964100565228741
100
AcDbArc
 50
164.9381082229556
 51
195.0618917770949
  0
ARC
  5
2AD
102
{ACAD_REACTORS
330
341
330
342
102
}
330
71
100
AcDbEntity
  8
0
  6
Continuous
 62
     2
100
AcDbCircle
 10
-894.5864051436995
 20
-1161.799057901915
 30
0.0
 40
1.355119937140898
100
AcDbArc
 50
90.0
 51
164.9381082229181
  0
ARC
  5
2AE
102
{ACAD_REACTORS
330
345
330
346
102
}
330
71
100
AcDbEntity
  8
0
  6
Continuous
 62
     2
100
AcDbCircle
 10
-902.3773101789918
 20
-1158.929652250502
 30
0.0
 40
1.261904761905043
100
AcDbArc
 50
90.0
 51
270.0
  0
ARC
  5
2AF
102
{ACAD_REACTORS
330
349
330
34A
102
}
330
71
100
AcDbEntity
  8
0
  6
Continuous
 62
     2
100
AcDbCircle
 10
-907.9497818692611
 20
-1158.50739184406
 30
0.0
 40
0.2916229955958443
100
AcDbArc
 50
270.0
 51
90.0
  0
ARC
  5
2B0
102
{ACAD_REACTORS
330
343
330
344
102
}
330
71
100
AcDbEntity
  8
0
  6
Continuous
 62
     2
100
AcDbCircle
 10
-914.0147228461346
 20
-1158.517559454411
 30
0.0
 40
0.2609230769230635
100
AcDbArc
 50
90.0
 51
180.0
  0
ARC
  5
2B1
102
{ACAD_REACTORS
330
343
330
344
102
}
330
71
100
AcDbEntity
  8
0
  6
Continuous
 62
     2
100
AcDbCircle
 10
-912.3631379630069
 20
-1159.934794466909
 30
0.0
 40
0.7536343169903603
100
AcDbArc
 50
115.1944106485022
 51
244.8055893514756
  0
ARC
  5
2B2
102
{ACAD_REACTORS
330
343
330
344
102
}
330
71
100
AcDbEntity
  8
0
  6
Continuous
 62
     2
100
AcDbCircle
 10
-912.7950259362094
 20
-1160.852835579357
 30
0.0
 40
0.2609230769228361
100
AcDbArc
 50
0.0
 51
64.80558935143597
  0
ARC
  5
2B3
102
{ACAD_REACTORS
330
343
330
344
102
}
330
71
100
AcDbEntity
  8
0
  6
Continuous
 62
     2
100
AcDbCircle
 10
-914.5055448930326
 20
-1162.61713210397
 30
0.0
 40
0.3506153846138886
100
AcDbArc
 50
180.0
 51
270.0
  0
ARC
  5
2B4
102
{ACAD_REACTORS
330
345
330
346
102
}
330
71
100
AcDbEntity
  8
0
  6
Continuous
 62
     2
100
AcDbCircle
 10
-902.1985729805082
 20
-1158.800122351229
 30
0.0
 40
0.4280236140608484
100
AcDbArc
 50
38.12041979717272
 51
141.8795802028273
  0
ARC
  5
2B5
102
{ACAD_REACTORS
330
345
330
346
102
}
330
71
100
AcDbEntity
  8
0
  6
Continuous
 62
     2
100
AcDbCircle
 10
-902.0334985703047
 20
-1158.929652250502
 30
0.0
 40
0.6378510567600505
100
AcDbArc
 50
141.8795802028355
 51
218.1204197971645
  0
ARC
  5
2B6
102
{ACAD_REACTORS
330
347
330
348
102
}
330
71
100
AcDbEntity
  8
0
  6
Continuous
 62
     2
100
AcDbCircle
 10
-905.4720832952135
 20
-1161.260739412379
 30
0.0
 40
1.707008076205781
100
AcDbArc
 50
242.4518518243417
 51
297.5481481756786
  0
ARC
  5
2B7
102
{ACAD_REACTORS
330
347
330
348
102
}
330
71
100
AcDbEntity
  8
0
  6
Continuous
 62
     2
100
AcDbCircle
 10
-905.4720832952135
 20
-1162.150946040979
 30
0.0
 40
1.707008076205289
100
AcDbArc
 50
62.45185182430729
 51
117.5481481756724
  0
ARC
  5
2B8
102
{ACAD_REACTORS
330
347
330
348
102
}
330
71
100
AcDbEntity
  8
0
  6
Continuous
 62
     2
100
AcDbCircle
 10
-905.7042650240014
 20
-1161.705842726679
 30
0.0
 40
1.204986845992721
100
AcDbArc
 50
117.5481481756702
 51
242.4518518243497
  0
ARC
  5
2B9
102
{ACAD_REACTORS
330
347
330
348
102
}
330
71
100
AcDbEntity
  8
0
  6
Continuous
 62
     2
100
AcDbCircle
 10
-905.2399015664257
 20
-1161.705842726679
 30
0.0
 40
1.204986845993948
100
AcDbArc
 50
297.5481481756886
 51
62.45185182429142
  0
ARC
  5
2BA
102
{ACAD_REACTORS
330
345
330
346
102
}
330
71
100
AcDbEntity
  8
0
  6
Continuous
 62
     2
100
AcDbCircle
 10
-902.1985729805082
 20
-1159.059182149775
 30
0.0
 40
0.428023614060708
100
AcDbArc
 50
218.1204197971487
 51
321.8795802028513
  0
ARC
  5
2BB
102
{ACAD_REACTORS
330
345
330
346
102
}
330
71
100
AcDbEntity
  8
0
  6
Continuous
 62
     2
100
AcDbCircle
 10
-902.3636473907115
 20
-1158.929652250502
 30
0.0
 40
0.637851056759961
100
AcDbArc
 50
321.8795802028292
 51
38.12041979717083
  0
ARC
  5
2BC
102
{ACAD_REACTORS
330
343
330
344
102
}
330
71
100
AcDbEntity
  8
0
  6
Continuous
 62
     2
100
AcDbCircle
 10
-909.9821464709526
 20
-1162.61713210397
 30
0.0
 40
0.3506153846149118
100
AcDbArc
 50
270.0
 51
0.0
  0
ARC
  5
2BD
102
{ACAD_REACTORS
330
343
330
344
102
}
330
71
100
AcDbEntity
  8
0
  6
Continuous
 62
     2
100
AcDbCircle
 10
-909.9821464709526
 20
-1158.018362873226
 30
0.0
 40
0.3506153846149118
100
AcDbArc
 50
0.0
 51
90.0
  0
ARC
  5
2BE
102
{ACAD_REACTORS
330
343
330
344
102
}
330
71
100
AcDbEntity
  8
0
  6
Continuous
 62
     2
100
AcDbCircle
 10
-914.5055448930326
 20
-1158.018362873226
 30
0.0
 40
0.3506153846140023
100
AcDbArc
 50
90.0
 51
180.0
  0
ARC
  5
2BF
102
{ACAD_REACTORS
330
343
330
344
102
}
330
71
100
AcDbEntity
  8
0
  6
Continuous
 62
     2
100
AcDbCircle
 10
-912.7950259362094
 20
-1162.117935522772
 30
0.0
 40
0.2609230769228361
100
AcDbArc
 50
270.0
 51
0.0
  0
ARC
  5
2C0
102
{ACAD_REACTORS
330
343
330
344
102
}
330
71
100
AcDbEntity
  8
0
  6
Continuous
 62
     2
100
AcDbCircle
 10
-912.7950259362094
 20
-1159.01675335446
 30
0.0
 40
0.2609230769225737
100
AcDbArc
 50
295.1944106485428
 51
0.0
  0
ARC
  5
2C1
102
{ACAD_REACTORS
330
343
330
344
102
}
330
71
100
AcDbEntity
  8
0
  6
Continuous
 62
     2
100
AcDbCircle
 10
-912.7950259362094
 20
-1158.517559454411
 30
0.0
 40
0.2609230769228361
100
AcDbArc
 50
0.0
 51
90.0
  0
ARC
  5
2C2
102
{ACAD_REACTORS
330
343
330
344
102
}
330
71
100
AcDbEntity
  8
0
  6
Continuous
 62
     2
100
AcDbCircle
 10
-914.0147228461346
 20
-1162.117935522772
 30
0.0
 40
0.2609230769220403
100
AcDbArc
 50
180.0
 51
270.0
  0
ARC
  5
2C3
102
{ACAD_REACTORS
330
349
330
34A
102
}
330
71
100
AcDbEntity
  8
0
  6
Continuous
 62
     2
100
AcDbCircle
 10
-907.5849285417913
 20
-1158.539950497963
 30
0.0
 40
0.8722030093670128
100
AcDbArc
 50
270.0
 51
90.0
  0
ARC
  5
2C4
102
{ACAD_REACTORS
330
341
330
342
102
}
330
71
100
AcDbEntity
  8
0
  6
Continuous
 62
     2
100
AcDbCircle
 10
-894.5864051436995
 20
-1161.612627551444
 30
0.0
 40
1.355119937140848
100
AcDbArc
 50
195.0618917770911
 51
275.1581447696767
  0
ARC
  5
2C5
102
{ACAD_REACTORS
330
341
330
342
102
}
330
71
100
AcDbEntity
  8
0
  6
Continuous
 62
     2
100
AcDbCircle
 10
-894.8251291889358
 20
-1158.96808987936
 30
0.0
 40
4.010410630990505
100
AcDbArc
 50
275.1581447696372
 51
285.9799912583384
  0
ARC
  5
2C6
102
{ACAD_REACTORS
330
341
330
342
102
}
330
71
100
AcDbEntity
  8
0
  6
Continuous
 62
     2
100
AcDbCircle
 10
-894.6946557384458
 20
-1160.540168044524
 30
0.0
 40
1.840813230556274
100
AcDbArc
 50
288.4480761181304
 51
301.9309089499462
  0
ARC
  5
2C7
102
{ACAD_REACTORS
330
341
330
342
102
}
330
71
100
AcDbEntity
  8
0
  6
Continuous
 62
     2
100
AcDbCircle
 10
-894.3490625701302
 20
-1161.576156289182
 30
0.0
 40
0.7487023016409623
100
AcDbArc
 50
246.6277221118237
 51
288.4480761180652
  0
ARC
  5
2C8
102
{ACAD_REACTORS
330
341
330
342
102
}
330
71
100
AcDbEntity
  8
0
  6
Continuous
 62
     2
100
AcDbCircle
 10
-894.1664863508092
 20
-1161.705842726679
 30
0.0
 40
0.777735318458685
100
AcDbArc
 50
151.4785267423588
 51
208.5214732577001
  0
ARC
  5
2C9
102
{ACAD_REACTORS
330
341
330
342
102
}
330
71
100
AcDbEntity
  8
0
  6
Continuous
 62
     2
100
AcDbCircle
 10
-894.35713697889
 20
-1161.881779545724
 30
0.0
 40
0.788861989113002
100
AcDbArc
 50
90.0
 51
109.3371432194318
  0
ARC
  5
2CA
102
{ACAD_REACTORS
330
343
330
344
102
}
330
71
100
AcDbEntity
  8
0
  6
Continuous
 62
     2
100
AcDbCircle
 10
-911.8861702126374
 20
-1158.517706129326
 30
0.0
 40
0.2609230769216719
100
AcDbArc
 50
90.18896704255407
 51
180.0
  0
ARC
  5
2CB
102
{ACAD_REACTORS
330
343
330
344
102
}
330
71
100
AcDbEntity
  8
0
  6
Continuous
 62
     2
100
AcDbCircle
 10
-912.320916244115
 20
-1159.934794466909
 30
0.0
 40
0.7535935125156605
100
AcDbArc
 50
295.3740086781938
 51
64.6259913217988
  0
ARC
  5
2CC
102
{ACAD_REACTORS
330
33F
330
340
102
}
330
71
100
AcDbEntity
  8
0
  6
Continuous
 62
     2
100
AcDbCircle
 10
-908.0026734898945
 20
-1160.540168044523
 30
0.0
 40
1.840813230556274
100
AcDbArc
 50
288.4480761181304
 51
301.9309089499515
  0
ARC
  5
2CD
102
{ACAD_REACTORS
330
33F
330
340
102
}
330
71
100
AcDbEntity
  8
0
  6
Continuous
 62
     2
100
AcDbCircle
 10
-907.6570803215798
 20
-1161.576156289182
 30
0.0
 40
0.7487023016406467
100
AcDbArc
 50
246.6277221118796
 51
288.4480761181587
  0
ARC
  5
2CE
102
{ACAD_REACTORS
330
33F
330
340
102
}
330
71
100
AcDbEntity
  8
0
  6
Continuous
 62
     2
100
AcDbCircle
 10
-907.7863696048046
 20
-1161.875323246794
 30
0.0
 40
0.4227934381772727
100
AcDbArc
 50
208.5214732576279
 51
246.6277221118195
  0
ARC
  5
2CF
102
{ACAD_REACTORS
330
33F
330
340
102
}
330
71
100
AcDbEntity
  8
0
  6
Continuous
 62
     2
100
AcDbCircle
 10
-907.6570803215798
 20
-1161.835529164177
 30
0.0
 40
0.7487023016413397
100
AcDbArc
 50
71.5519238818688
 51
113.3722778881204
  0
ARC
  5
2D0
102
{ACAD_REACTORS
330
33F
330
340
102
}
330
71
100
AcDbEntity
  8
0
  6
Continuous
 62
     2
100
AcDbCircle
 10
-908.1331469403844
 20
-1164.443595573998
 30
0.0
 40
4.01041063098956
100
AcDbArc
 50
74.02000874164463
 51
84.84185523037571
  0
CIRCLE
  5
2D1
102
{ACAD_REACTORS
330
343
330
344
102
}
330
71
100
AcDbEntity
  8
0
  6
Continuous
 62
     2
100
AcDbCircle
 10
-912.340598074423
 20
-1159.934794466909
 30
0.0
 40
0.3892387874202541
  0
CIRCLE
  5
2D2
330
71
100
AcDbEntity
  8
1
  6
Continuous
 62
     2
100
AcDbCircle
 10
-916.4239458133387
 20
-1153.94274748859
 30
0.0
 40
1.0
  0
CIRCLE
  5
2D3
330
71
100
AcDbEntity
  8
1
  6
Continuous
 62
     2
100
AcDbCircle
 10
-916.4239458133387
 20
-1153.94274748859
 30
0.0
 40
1.5
  0
MTEXT
  5
2D5
330
71
100
AcDbEntity
  8
1
 62
     2
100
AcDbMText
 10
-1023.271401111692
 20
-1162.44274748859
 30
0.0
 40
2.0
 41
0.0
 71
     4
 72
     1
  1
 
  7
CONVERTER_12
 73
     1
 44
1.20048019207683
  0
MTEXT
  5
2D6
330
71
100
AcDbEntity
  8
1
 62
     2
100
AcDbMText
 10
-1023.271401111692
 20
-1158.19274748859
 30
0.0
 40
2.0
 41
0.0
 71
     4
 72
     1
  1
 
  7
CONVERTER_12
 73
     1
 44
1.20048019207683
  0
MTEXT
  5
2D7
330
71
100
AcDbEntity
  8
1
 62
     2
100
AcDbMText
 10
-1023.271401111692
 20
-1153.94274748859
 30
0.0
 40
2.0
 41
0.0
 71
     4
 72
     1
  1
 
  7
CONVERTER_12
 73
     1
 44
1.20048019207683
  0
MTEXT
  5
2D8
330
71
100
AcDbEntity
  8
1
 62
     2
100
AcDbMText
 10
-1023.271401111692
 20
-1149.69274748859
 30
0.0
 40
2.0
 41
0.0
 71
     4
 72
     1
  1
 
  7
CONVERTER_12
 73
     1
 44
1.20048019207683
  0
MTEXT
  5
2D9
330
71
100
AcDbEntity
  8
1
 62
     2
100
AcDbMText
 10
-1023.271401111692
 20
-1145.44274748859
 30
0.0
 40
2.0
 41
0.0
 71
     4
 72
     1
  1
 
  7
CONVERTER_12
 73
     1
 44
1.20048019207683
  0
MTEXT
  5
2DA
330
71
100
AcDbEntity
  8
1
 62
     2
100
AcDbMText
 10
-1023.271401111692
 20
-1141.19274748859
 30
0.0
 40
2.0
 41
0.0
 71
     4
 72
     1
  1
 
  7
CONVERTER_12
 73
     1
 44
1.20048019207683
  0
MTEXT
  5
2DB
330
71
100
AcDbEntity
  8
1
 62
     2
100
AcDbMText
 10
-928.2662056384421
 20
-1162.44274748859
 30
0.0
 40
2.0
 41
0.0
 71
     5
 72
     1
  1
 
  7
CONVERTER_11
 73
     1
 44
1.20048019207683
  0
MTEXT
  5
2DC
330
71
100
AcDbEntity
  8
1
 62
     2
100
AcDbMText
 10
-928.2662056384421
 20
-1158.19274748859
 30
0.0
 40
2.0
 41
0.0
 71
     5
 72
     1
  1
 
  7
CONVERTER_11
 73
     1
 44
1.20048019207683
  0
MTEXT
  5
2DD
330
71
100
AcDbEntity
  8
1
 62
     2
100
AcDbMText
 10
-928.2662056384421
 20
-1153.94274748859
 30
0.0
 40
2.0
 41
0.0
 71
     5
 72
     1
  1
 
  7
CONVERTER_11
 73
     1
 44
1.20048019207683
  0
MTEXT
  5
2DE
330
71
100
AcDbEntity
  8
1
 62
     2
100
AcDbMText
 10
-928.2662056384421
 20
-1149.69274748859
 30
0.0
 40
2.0
 41
0.0
 71
     5
 72
     1
  1
 
  7
CONVERTER_11
 73
     1
 44
1.20048019207683
  0
MTEXT
  5
2DF
330
71
100
AcDbEntity
  8
1
 62
     2
100
AcDbMText
 10
-928.2662056384421
 20
-1145.44274748859
 30
0.0
 40
2.0
 41
0.0
 71
     5
 72
     1
  1
 
  7
CONVERTER_11
 73
     1
 44
1.20048019207683
  0
MTEXT
  5
2E0
330
71
100
AcDbEntity
  8
1
 62
     2
100
AcDbMText
 10
-928.2662056384421
 20
-1141.19274748859
 30
0.0
 40
2.0
 41
0.0
 71
     5
 72
     1
  1
 
  7
CONVERTER_11
 73
     1
 44
1.20048019207683
  0
MTEXT
  5
2E1
330
71
100
AcDbEntity
  8
1
 62
     2
100
AcDbMText
 10
-941.7662056384421
 20
-1162.44274748859
 30
0.0
 40
2.0
 41
0.0
 71
     5
 72
     1
  1
 
  7
CONVERTER_11
 73
     1
 44
1.20048019207683
  0
MTEXT
  5
2E2
330
71
100
AcDbEntity
  8
1
 62
     2
100
AcDbMText
 10
-941.766205638442
 20
-1158.19274748859
 30
0.0
 40
2.0
 41
0.0
 71
     5
 72
     1
  1
 
  7
CONVERTER_11
 73
     1
 44
1.20048019207683
  0
MTEXT
  5
2E3
330
71
100
AcDbEntity
  8
1
 62
     2
100
AcDbMText
 10
-941.766205638442
 20
-1153.94274748859
 30
0.0
 40
2.0
 41
0.0
 71
     5
 72
     1
  1
 
  7
CONVERTER_11
 73
     1
 44
1.20048019207683
  0
MTEXT
  5
2E4
330
71
100
AcDbEntity
  8
1
 62
     2
100
AcDbMText
 10
-941.766205638442
 20
-1149.69274748859
 30
0.0
 40
2.0
 41
0.0
 71
     5
 72
     1
  1
 
  7
CONVERTER_11
 73
     1
 44
1.20048019207683
  0
MTEXT
  5
2E5
330
71
100
AcDbEntity
  8
1
 62
     2
100
AcDbMText
 10
-941.766205638442
 20
-1145.44274748859
 30
0.0
 40
2.0
 41
0.0
 71
     5
 72
     1
  1
 
  7
CONVERTER_11
 73
     1
 44
1.20048019207683
  0
MTEXT
  5
2E6
330
71
100
AcDbEntity
  8
1
 62
     2
100
AcDbMText
 10
-941.766205638442
 20
-1141.19274748859
 30
0.0
 40
2.0
 41
0.0
 71
     5
 72
     1
  1
 
  7
CONVERTER_11
 73
     1
 44
1.20048019207683
  0
MTEXT
  5
2E7
330
71
100
AcDbEntity
  8
1
 62
     2
100
AcDbMText
 10
-955.266205638442
 20
-1141.19274748859
 30
0.0
 40
2.0
 41
0.0
 71
     5
 72
     1
  1
 
  7
CONVERTER_11
 73
     1
 44
1.20048019207683
  0
MTEXT
  5
2E8
330
71
100
AcDbEntity
  8
1
 62
     2
100
AcDbMText
 10
-955.266205638442
 20
-1145.44274748859
 30
0.0
 40
2.0
 41
0.0
 71
     5
 72
     1
  1
 
  7
CONVERTER_11
 73
     1
 44
1.20048019207683
  0
MTEXT
  5
2E9
330
71
100
AcDbEntity
  8
1
 62
     2
100
AcDbMText
 10
-955.266205638442
 20
-1149.69274748859
 30
0.0
 40
2.0
 41
0.0
 71
     5
 72
     1
  1
 
  7
CONVERTER_11
 73
     1
 44
1.20048019207683
  0
MTEXT
  5
2EA
330
71
100
AcDbEntity
  8
1
 62
     2
100
AcDbMText
 10
-955.266205638442
 20
-1153.94274748859
 30
0.0
 40
2.0
 41
0.0
 71
     5
 72
     1
  1
 
  7
CONVERTER_11
 73
     1
 44
1.20048019207683
  0
MTEXT
  5
2EB
330
71
100
AcDbEntity
  8
1
 62
     2
100
AcDbMText
 10
-955.266205638442
 20
-1158.19274748859
 30
0.0
 40
2.0
 41
0.0
 71
     5
 72
     1
  1
 
  7
CONVERTER_11
 73
     1
 44
1.20048019207683
  0
MTEXT
  5
2EC
330
71
100
AcDbEntity
  8
1
 62
     2
100
AcDbMText
 10
-955.266205638442
 20
-1162.44274748859
 30
0.0
 40
2.0
 41
0.0
 71
     5
 72
     1
  1
 
  7
CONVERTER_11
 73
     1
 44
1.20048019207683
  0
MTEXT
  5
2ED
330
71
100
AcDbEntity
  8
1
 62
     2
100
AcDbMText
 10
-1031.021401111692
 20
-1141.19274748859
 30
0.0
 40
2.0
 41
0.0
 71
     5
 72
     1
  1
 
  7
CONVERTER_11
 73
     1
 44
1.20048019207683
  0
MTEXT
  5
2EE
330
71
100
AcDbEntity
  8
1
 62
     2
100
AcDbMText
 10
-1031.021401111692
 20
-1145.44274748859
 30
0.0
 40
2.0
 41
0.0
 71
     5
 72
     1
  1
 
  7
CONVERTER_11
 73
     1
 44
1.20048019207683
  0
MTEXT
  5
2EF
330
71
100
AcDbEntity
  8
1
 62
     2
100
AcDbMText
 10
-1031.021401111692
 20
-1149.69274748859
 30
0.0
 40
2.0
 41
0.0
 71
     5
 72
     1
  1
 
  7
CONVERTER_11
 73
     1
 44
1.20048019207683
  0
MTEXT
  5
2F0
330
71
100
AcDbEntity
  8
1
 62
     2
100
AcDbMText
 10
-1031.021401111692
 20
-1153.94274748859
 30
0.0
 40
2.0
 41
0.0
 71
     5
 72
     1
  1
 
  7
CONVERTER_11
 73
     1
 44
1.20048019207683
  0
MTEXT
  5
2F1
330
71
100
AcDbEntity
  8
1
 62
     2
100
AcDbMText
 10
-1031.021401111692
 20
-1158.19274748859
 30
0.0
 40
2.0
 41
0.0
 71
     5
 72
     1
  1
 
  7
CONVERTER_11
 73
     1
 44
1.20048019207683
  0
MTEXT
  5
2F2
330
71
100
AcDbEntity
  8
1
 62
     2
100
AcDbMText
 10
-1031.021401111692
 20
-1162.44274748859
 30
0.0
 40
2.0
 41
0.0
 71
     5
 72
     1
  1
 
  7
CONVERTER_11
 73
     1
 44
1.20048019207683
  0
MTEXT
  5
2F3
330
71
100
AcDbEntity
  8
1
 62
     2
100
AcDbMText
 10
-1040.871401111691
 20
-1162.44274748859
 30
0.0
 40
2.0
 41
0.0
 71
     5
 72
     1
  1
 
  7
CONVERTER_11
 73
     1
 44
1.20048019207683
  0
MTEXT
  5
2F4
330
71
100
AcDbEntity
  8
1
 62
     2
100
AcDbMText
 10
-1040.871401111691
 20
-1158.19274748859
 30
0.0
 40
2.0
 41
0.0
 71
     5
 72
     1
  1
 
  7
CONVERTER_11
 73
     1
 44
1.20048019207683
  0
MTEXT
  5
2F5
330
71
100
AcDbEntity
  8
1
 62
     2
100
AcDbMText
 10
-1040.871401111691
 20
-1153.94274748859
 30
0.0
 40
2.0
 41
0.0
 71
     5
 72
     1
  1
 
  7
CONVERTER_11
 73
     1
 44
1.20048019207683
  0
MTEXT
  5
2F6
330
71
100
AcDbEntity
  8
1
 62
     2
100
AcDbMText
 10
-1040.871401111691
 20
-1149.69274748859
 30
0.0
 40
2.0
 41
0.0
 71
     5
 72
     1
  1
 
  7
CONVERTER_11
 73
     1
 44
1.20048019207683
  0
MTEXT
  5
2F7
330
71
100
AcDbEntity
  8
1
 62
     2
100
AcDbMText
 10
-1040.871401111691
 20
-1145.44274748859
 30
0.0
 40
2.0
 41
0.0
 71
     5
 72
     1
  1
 
  7
CONVERTER_11
 73
     1
 44
1.20048019207683
  0
MTEXT
  5
2F8
330
71
100
AcDbEntity
  8
1
 62
     2
100
AcDbMText
 10
-1040.871401111691
 20
-1141.19274748859
 30
0.0
 40
2.0
 41
0.0
 71
     5
 72
     1
  1
 
  7
CONVERTER_11
 73
     1
 44
1.20048019207683
  0
MTEXT
  5
2F9
330
71
100
AcDbEntity
  8
1
 62
     2
100
AcDbMText
 10
-835.9714011116885
 20
-1152.81774748859
 30
0.0
 40
1.8
 41
0.0
 71
     1
 72
     1
  1
surface in um
  7
CONVERTER_11
 73
     1
 44
1.32052821128451
  0
MTEXT
  5
2FA
330
71
100
AcDbEntity
  8
1
 62
     2
100
AcDbMText
 10
-808.5529928300114
 20
-1140.06774748859
 30
0.0
 40
1.8
 41
0.0
 71
     1
 72
     1
  1
dim.var.
  7
CONVERTER_11
 73
     1
 44
1.20048019207683
  0
MTEXT
  5
2FC
330
71
100
AcDbEntity
  8
1
 62
     2
100
AcDbMText
 10
-854.471401111688
 20
-1152.81774748859
 30
0.0
 40
1.8
 41
0.0
 71
     1
 72
     1
  1
document-No.
  7
CONVERTER_13
 73
     1
 44
1.32052821128451
  0
TEXT
  5
2FD
330
71
100
AcDbEntity
  8
1
 62
     2
100
AcDbText
 10
-902.3162056384422
 20
-1167.576764703582
 30
0.0
 40
1.8
  1
of
 41
0.9
  7
CONVERTER_11
100
AcDbText
  0
TEXT
  5
2FE
330
71
100
AcDbEntity
  8
1
 62
     2
100
AcDbText
 10
-920.516205638442
 20
-1167.576764703582
 30
0.0
 40
1.8
  1
page
 41
0.9
  7
CONVERTER_11
100
AcDbText
  0
MTEXT
  5
2FF
330
71
100
AcDbEntity
  8
1
 62
     2
100
AcDbMText
 10
-928.2662056384421
 20
-1167.56774748859
 30
0.0
 40
1.8
 41
0.0
 71
     8
 72
     1
  1
name
  7
CONVERTER_11
 73
     1
 44
1.32052821128451
  0
MTEXT
  5
300
330
71
100
AcDbEntity
  8
1
 62
     2
100
AcDbMText
 10
-941.766205638442
 20
-1167.56774748859
 30
0.0
 40
1.8
 41
0.0
 71
     8
 72
     1
  1
check.on
  7
CONVERTER_11
 73
     1
 44
1.32052821128451
  0
MTEXT
  5
301
330
71
100
AcDbEntity
  8
1
 62
     2
100
AcDbMText
 10
-955.266205638442
 20
-1167.56774748859
 30
0.0
 40
1.8
 41
0.0
 71
     8
 72
     1
  1
name
  7
CONVERTER_11
 73
     1
 44
1.32052821128451
  0
MTEXT
  5
302
330
71
100
AcDbEntity
  8
1
 62
     2
100
AcDbMText
 10
-1031.021401111692
 20
-1167.56774748859
 30
0.0
 40
1.8
 41
0.0
 71
     8
 72
     1
  1
date
  7
CONVERTER_11
 73
     1
 44
1.32052821128451
  0
MTEXT
  5
303
330
71
100
AcDbEntity
  8
1
 62
     2
100
AcDbMText
 10
-860.9910164808506
 20
-1140.067747488591
 30
0.0
 40
1.8
 41
0.0
 71
     1
 72
     1
  1
material
  7
CONVERTER_11
 73
     1
 44
1.20048019207683
  0
MTEXT
  5
304
330
71
100
AcDbEntity
  8
1
 62
     2
100
AcDbMText
 10
-1040.871401111691
 20
-1167.56774748859
 30
0.0
 40
1.8
 41
0.0
 71
     8
 72
     1
  1
RI
  7
CONVERTER_11
 73
     1
 44
1.32052821128451
  0
MTEXT
  5
305
330
71
100
AcDbEntity
  8
1
 62
     2
100
AcDbMText
 10
-905.3662056384421
 20
-1142.117747488591
 30
0.0
 40
1.8
 41
0.0
 71
     8
 72
     1
  1
date
  7
CONVERTER_11
 73
     1
 44
1.32052821128451
  0
MTEXT
  5
306
330
71
100
AcDbEntity
  8
1
 62
     2
100
AcDbMText
 10
-891.8662056384421
 20
-1142.117747488591
 30
0.0
 40
1.8
 41
0.0
 71
     8
 72
     1
  1
name
  7
CONVERTER_11
 73
     1
 44
1.32052821128451
  0
MTEXT
  5
307
330
71
100
AcDbEntity
  8
1
 62
     2
100
AcDbMText
 10
-993.1438033750671
 20
-1167.56774748859
 30
0.0
 40
1.8
 41
0.0
 71
     8
 72
     1
  1
revision
  7
CONVERTER_11
 73
     1
 44
1.32052821128451
  0
MTEXT
  5
308
330
71
100
AcDbEntity
  8
1
 62
     2
100
AcDbMText
 10
-817.6714011116902
 20
-1140.06774748859
 30
0.0
 40
1.8
 41
0.0
 71
     1
 72
     1
  1
scale
  7
CONVERTER_11
 73
     1
 44
1.20048019207683
  0
MTEXT
  5
309
330
71
100
AcDbEntity
  8
1
 62
     2
100
AcDbMText
 10
-916.816205638442
 20
-1145.44274748859
 30
0.0
 40
1.8
 41
0.0
 71
     5
 72
     1
  1
creat.
  7
CONVERTER_11
 73
     1
 44
1.20048019207683
  0
MTEXT
  5
30A
330
71
100
AcDbEntity
  8
1
 62
     2
100
AcDbMText
 10
-916.816205638442
 20
-1149.69274748859
 30
0.0
 40
1.8
 41
0.0
 71
     5
 72
     1
  1
check.
  7
CONVERTER_11
 73
     1
 44
1.20048019207683
  0
MTEXT
  5
30B
330
71
100
AcDbEntity
  8
1
 62
     3
100
AcDbMText
 10
-895.3162056384422
 20
-1153.94274748859
 30
0.0
 40
2.5
 41
0.0
 71
     5
 72
     1
  1
DIN A3
  7
CONVERTER_11
 73
     1
 44
1.20048019207683
  0
MTEXT
  5
30C
330
71
100
AcDbEntity
  8
1
 62
     2
100
AcDbMText
 10
-884.0162056384421
 20
-1140.06774748859
 30
0.0
 40
1.8
 41
0.0
 71
     1
 72
     1
  1
ident.-No. / RI
  7
CONVERTER_11
 73
     1
 44
1.20048019207683
  0
TEXT
  5
30D
330
71
100
AcDbEntity
  8
1
 62
     2
100
AcDbText
 10
-911.8699406681
 20
-1167.616996142392
 30
0.0
 40
1.8
  1
 
 41
0.9
  7
CONVERTER_11
100
AcDbText
  0
TEXT
  5
30E
330
71
100
AcDbEntity
  8
1
 62
     2
100
AcDbText
 10
-897.0808968286284
 20
-1167.56774748859
 30
0.0
 40
1.8
  1
1
 41
0.9
  7
CONVERTER_11
100
AcDbText
  0
MTEXT
  5
30F
330
71
100
AcDbEntity
  8
1
 62
     2
100
AcDbMText
 10
-884.1162056384421
 20
-1161.31774748859
 30
0.0
 40
1.8
 41
0.0
 71
     1
 72
     1
  1
description
  7
CONVERTER_11
 73
     1
 44
1.20048019207683
  0
MTEXT
  5
310
330
71
100
AcDbEntity
  8
1
 62
     2
100
AcDbMText
 10
-916.816205638442
 20
-1142.117747488591
 30
0.0
 40
1.8
 41
0.0
 71
     8
 72
     1
  1
00
  7
CONVERTER_11
 73
     1
 44
1.20048019207683
  0
MTEXT
  5
311
330
71
100
AcDbEntity
  8
1
 62
     2
100
AcDbMText
 10
-884.1162056384421
 20
-1152.81774748859
 30
0.0
 40
1.8
 41
0.0
 71
     1
 72
     1
  1
document-type
  7
CONVERTER_11
 73
     1
 44
1.20048019207683
  0
MTEXT
  5
312
330
71
100
AcDbEntity
  8
1
 62
     2
100
AcDbMText
 10
-891.8662056384421
 20
-1149.69274748859
 30
0.0
 40
1.8
 41
0.0
 71
     5
 72
     1
  1
Angenent
  7
CONVERTER_11
 73
     1
 44
1.32052821128451
  0
MTEXT
  5
313
330
71
100
AcDbEntity
  8
1
 62
     2
100
AcDbMText
 10
-891.8662056384421
 20
-1145.44274748859
 30
0.0
 40
1.8
 41
0.0
 71
     5
 72
     1
  1
H\U+00e4nig-Fl
  7
CONVERTER_11
 73
     1
 44
1.32052821128451
  0
MTEXT
  5
314
330
71
100
AcDbEntity
  8
1
 62
     2
100
AcDbMText
 10
-905.3662056384421
 20
-1149.69274748859
 30
0.0
 40
1.8
 41
0.0
 71
     5
 72
     1
  1
05.04.13
  7
CONVERTER_11
 73
     1
 44
1.32052821128451
  0
MTEXT
  5
315
330
71
100
AcDbEntity
  8
1
 62
     2
100
AcDbMText
 10
-905.3662056384421
 20
-1145.44274748859
 30
0.0
 40
1.8
 41
0.0
 71
     5
 72
     1
  1
16.03.13
  7
CONVERTER_11
 73
     1
 44
1.32052821128451
  0
TEXT
  5
316
330
71
100
AcDbEntity
  8
1
 62
     7
100
AcDbText
 10
-869.1426579164283
 20
-1146.267747488591
 30
0.0
 40
2.5
  1
/
 41
0.9
  7
CONVERTER_11
100
AcDbText
  0
MTEXT
  5
318
330
71
100
AcDbEntity
  8
1
 62
     3
100
AcDbMText
 10
-814.3121969708507
 20
-1146.26774748859
 30
0.0
 40
2.5
 41
0.0
 71
     8
 72
     1
  1
1:1
  7
CONVERTER_14
 73
     1
 44
1.32052821128451
  0
TEXT
  5
31A
330
71
100
AcDbEntity
  8
1
 62
     3
100
AcDbText
 10
-861.2162056384421
 20
-1146.267747488591
 30
0.0
 40
2.5
  1
 
 41
0.54
  7
CONVERTER_15
100
AcDbText
  0
TEXT
  5
31C
330
71
100
AcDbEntity
  8
1
 62
     7
100
AcDbText
 10
-883.6162056384424
 20
-1146.267747488591
 30
0.0
 40
2.5
  1
1407702
 41
0.81
  7
CONVERTER_16
100
AcDbText
  0
TEXT
  5
31D
330
71
100
AcDbEntity
  8
1
 62
     7
100
AcDbText
 10
-854.471401111688
 20
-1159.017747488591
 30
0.0
 40
2.5
  1
00715425
 41
0.81
  7
CONVERTER_16
100
AcDbText
  0
TEXT
  5
31E
330
71
100
AcDbEntity
  8
1
 62
     3
100
AcDbText
 10
-808.8529928300112
 20
-1146.267747488591
 30
0.0
 40
2.5
  1
 
 41
0.54
  7
CONVERTER_15
100
AcDbText
  0
TEXT
  5
31F
330
71
100
AcDbEntity
  8
1
 62
     7
100
AcDbText
 10
-866.9862934193864
 20
-1146.267747488591
 30
0.0
 40
2.5
  1
00
 41
0.81
  7
CONVERTER_16
100
AcDbText
  0
TEXT
  5
320
330
71
100
AcDbEntity
  8
1
 62
     7
100
AcDbText
 10
-827.3047344450238
 20
-1172.81774748859
 30
0.0
 40
2.5
  1
6
 41
0.9
  7
CONVERTER_11
100
AcDbText
  0
TEXT
  5
321
330
71
100
AcDbEntity
  8
1
 62
     7
100
AcDbText
 10
-895.6380677783571
 20
-1172.81774748859
 30
0.0
 40
2.5
  1
5
 41
0.9
  7
CONVERTER_11
100
AcDbText
  0
TEXT
  5
322
330
71
100
AcDbEntity
  8
1
 62
     7
100
AcDbText
 10
-963.9714011116903
 20
-1172.81774748859
 30
0.0
 40
2.5
  1
4
 41
0.9
  7
CONVERTER_11
100
AcDbText
  0
TEXT
  5
323
330
71
100
AcDbEntity
  8
1
 62
     7
100
AcDbText
 10
-1032.304734445024
 20
-1172.81774748859
 30
0.0
 40
2.5
  1
3
 41
0.9
  7
CONVERTER_11
100
AcDbText
  0
TEXT
  5
324
330
71
100
AcDbEntity
  8
1
 62
     7
100
AcDbText
 10
-790.9714011116903
 20
-1141.31774748859
 30
0.0
 40
2.5
  1
E
 41
0.9
  7
CONVERTER_11
100
AcDbText
  0
TEXT
  5
325
330
71
100
AcDbEntity
  8
1
 62
     7
100
AcDbText
 10
-1168.97140111169
 20
-1172.81774748859
 30
0.0
 40
2.5
  1
1
 41
0.9
  7
CONVERTER_11
100
AcDbText
  0
TEXT
  5
326
330
71
100
AcDbEntity
  8
1
 62
     7
100
AcDbText
 10
-1100.638067778357
 20
-1172.81774748859
 30
0.0
 40
2.5
  1
2
 41
0.9
  7
CONVERTER_11
100
AcDbText
  0
TEXT
  5
327
330
71
100
AcDbEntity
  8
1
 62
     7
100
AcDbText
 10
-790.9714011116903
 20
-1083.91774748859
 30
0.0
 40
2.5
  1
D
 41
0.9
  7
CONVERTER_11
100
AcDbText
  0
TEXT
  5
328
330
71
100
AcDbEntity
  8
1
 62
     7
100
AcDbText
 10
-790.9714011116903
 20
-1026.51774748859
 30
0.0
 40
2.5
  1
C
 41
0.9
  7
CONVERTER_11
100
AcDbText
  0
TEXT
  5
329
330
71
100
AcDbEntity
  8
1
 62
     7
100
AcDbText
 10
-790.9714011116903
 20
-969.1177474885899
 30
0.0
 40
2.5
  1
B
 41
0.9
  7
CONVERTER_11
100
AcDbText
  0
TEXT
  5
32A
330
71
100
AcDbEntity
  8
1
 62
     7
100
AcDbText
 10
-790.9714011116903
 20
-911.71774748859
 30
0.0
 40
2.5
  1
A
 41
0.9
  7
CONVERTER_11
100
AcDbText
  0
TEXT
  5
32B
330
71
100
AcDbEntity
  8
1
 62
     7
100
AcDbText
 10
-827.3047344450238
 20
-880.8177474885897
 30
0.0
 40
2.5
  1
6
 41
0.9
  7
CONVERTER_11
100
AcDbText
  0
TEXT
  5
32C
330
71
100
AcDbEntity
  8
1
 62
     7
100
AcDbText
 10
-895.6380677783569
 20
-880.8177474885897
 30
0.0
 40
2.5
  1
5
 41
0.9
  7
CONVERTER_11
100
AcDbText
  0
TEXT
  5
32D
330
71
100
AcDbEntity
  8
1
 62
     7
100
AcDbText
 10
-963.9714011116903
 20
-880.8177474885897
 30
0.0
 40
2.5
  1
4
 41
0.9
  7
CONVERTER_11
100
AcDbText
  0
TEXT
  5
32E
330
71
100
AcDbEntity
  8
1
 62
     7
100
AcDbText
 10
-1032.304734445024
 20
-880.8177474885897
 30
0.0
 40
2.5
  1
3
 41
0.9
  7
CONVERTER_11
100
AcDbText
  0
TEXT
  5
32F
330
71
100
AcDbEntity
  8
1
 62
     7
100
AcDbText
 10
-1100.638067778357
 20
-880.8177474885897
 30
0.0
 40
2.5
  1
2
 41
0.9
  7
CONVERTER_11
100
AcDbText
  0
TEXT
  5
330
330
71
100
AcDbEntity
  8
1
 62
     7
100
AcDbText
 10
-1168.97140111169
 20
-880.8177474885897
 30
0.0
 40
2.5
  1
1
 41
0.9
  7
CONVERTER_11
100
AcDbText
  0
MTEXT
  5
331
330
71
100
AcDbEntity
  8
1
 62
     3
100
AcDbMText
 10
-1188.548727800337
 20
-1168.790833389089
 30
0.0
 40
1.8
 41
0.0
 71
     7
 72
     1
  3
Weitergabe sowie Vervielf\U+00e4ltigung dieses Dokuments, Verwertung und\PMitteilung seines Inhalts gem\U+00e4\U+00df \U+00a718 UWG verboten, soweit nicht aus-\Pdr\U+00fccklich gestattet. Zuwiderhandlungen verpflichten zu Schadenersatz\P(\U+00a719 U
  1
WG). Alle Rechte vorbehalten, insbesondere das Recht, Patent-,\PGebrauchsmuster- oder Geschmacksmusteranmeldungen durchzuf\U+00fchren.\PPhoenix Contact GmbH & Co. KG
  7
CONVERTER_11
 11
6.123233764940082E-17
 21
1.0
 31
0.0
 73
     1
 44
0.99639855942377
  0
MTEXT
  5
332
330
71
100
AcDbEntity
  8
1
 62
     3
100
AcDbMText
 10
-1188.702934111431
 20
-995.8314633749362
 30
0.0
 40
1.8
 41
0.0
 71
     7
 72
     1
  3
The copying, distribution and utilistion of this document as well as the communication\Pof the contents to others without expressed authorization is prohibited according to\P\U+00a718 UWG German Law. Offenders will be held liable for the payment of 
  1
damages\Paccording to (\U+00a719 UWG German Law). All rights reserved, in particular the right to\Pcarry out patent, utility model or ornamental design registrations.\PFlachsmarktstra\U+00dfe 8  D-32825 Blomberg
  7
CONVERTER_11
 11
6.123233764940082E-17
 21
1.0
 31
0.0
 73
     1
 44
0.99639855942377
  0
TEXT
  5
333
330
71
100
AcDbEntity
  8
1
 62
     3
100
AcDbText
 10
-884.0162056384404
 20
-1129.772975914986
 30
0.0
 40
2.5
  1
 
 41
0.72
  7
CONVERTER_14
100
AcDbText
  0
TEXT
  5
334
330
71
100
AcDbEntity
  8
1
 62
     3
100
AcDbText
 10
-884.0162056384404
 20
-1133.272975914986
 30
0.0
 40
2.5
  1
 
 41
0.72
  7
CONVERTER_14
100
AcDbText
  0
TEXT
  5
335
330
71
100
AcDbEntity
  8
1
 62
     3
100
AcDbText
 10
-884.0162056384404
 20
-1136.772975914986
 30
0.0
 40
2.5
  1
 
 41
0.72
  7
CONVERTER_14
100
AcDbText
  0
TEXT
  5
337
330
71
100
AcDbEntity
  8
1
 62
     3
100
AcDbText
 10
-884.1162056384421
 20
-1159.017747488591
 30
0.0
 40
2.5
  1
KUNDENZCHNG-SELECT
 41
0.45
  7
CONVERTER_17
100
AcDbText
  0
MTEXT
  5
338
330
71
100
AcDbEntity
  8
1
 62
     3
100
AcDbMText
 10
-844.2643812250817
 20
-1148.467747488591
 30
0.0
 40
2.0
 41
0.0
 71
     1
 72
     1
  1
 
  7
CONVERTER_14
 73
     1
 44
1.20048019207683
  0
MTEXT
  5
33A
330
71
100
AcDbEntity
  8
1
 62
     3
100
AcDbMText
 10
-874.7839688203272
 20
-1149.69274748859
 30
0.0
 40
2.5
 41
0.0
 71
     4
 72
     1
  1
N02-12083/05
  7
CONVERTER_18
 73
     1
 44
1.20048019207683
  0
MTEXT
  5
33B
330
71
100
AcDbEntity
  8
1
 62
     2
100
AcDbMText
 10
-884.0162056384421
 20
-1149.492747488591
 30
0.0
 40
1.4
 41
0.0
 71
     4
 72
     1
  1
SAP\Pchange-No.
  7
CONVERTER_18
 73
     1
 44
0.66026410564226
  0
MTEXT
  5
33C
330
71
100
AcDbEntity
  8
1
 62
     2
100
AcDbMText
 10
-854.4714011116897
 20
-1148.56774748859
 30
0.0
 40
1.8
 41
0.0
 71
     1
 72
     1
  1
part-rev.
  7
CONVERTER_14
 73
     1
 44
1.20048019207683
  0
TEXT
  5
33D
330
71
100
AcDbEntity
  8
1
 62
     3
100
AcDbText
 10
-835.97140111169
 20
-1159.017747488591
 30
0.0
 40
2.5
  1
 
 41
0.54
  7
CONVERTER_15
100
AcDbText
  0
MTEXT
  5
33E
330
71
100
AcDbEntity
  8
1
 62
     7
100
AcDbMText
 10
-838.5438033750665
 20
-1165.56774748859
 30
0.0
 40
3.0
 41
0.0
 71
     5
 72
     1
  1
HC-B06-SG-RBK
  7
CONVERTER_16
 73
     1
 44
1.20048019207683
  0
HATCH
  5
33F
330
71
100
AcDbEntity
  8
1
  6
Continuous
 62
     2
100
AcDbHatch
 10
0.0
 20
0.0
 30
0.0
210
0.0
220
0.0
230
1.0
  2
_USER
 70
     0
 71
     1
 91
        1
 92
        1
 93
       14
 72
     2
 10
-908.2408095426381
 20
-1161.705842726679
 40
0.9964100565212273
 50
164.9381082229301
 51
195.0618917771204
 73
     1
 72
     2
 10
-907.8944228951482
 20
-1161.612627551444
 40
1.35511993714008
 50
195.0618917770999
 51
275.1581447696384
 73
     1
 72
     2
 10
-908.1331469403844
 20
-1158.96808987936
 40
4.010410630990424
 50
275.1581447696242
 51
285.9799912583509
 73
     1
 72
     1
 10
-907.0290742816094
 20
-1162.82352980151
 11
-907.0290742816094
 21
-1162.102441366135
 72
     2
 10
-908.0026734898945
 20
-1160.540168044523
 40
1.840813230556274
 50
58.06909105004848
 51
71.55192388186957
 73
     0
 72
     2
 10
-907.6570803215798
 20
-1161.576156289182
 40
0.7487023016406467
 50
71.55192388184128
 51
113.3722778881204
 73
     0
 72
     2
 10
-907.7863696048046
 20
-1161.875323246794
 40
0.4227934381772727
 50
113.3722778881805
 51
151.4785267423721
 73
     0
 72
     2
 10
-907.4745041022588
 20
-1161.705842726679
 40
0.7777353184570868
 50
151.4785267422948
 51
208.5214732577052
 73
     0
 72
     2
 10
-907.7863696048046
 20
-1161.536362206565
 40
0.4227934381778725
 50
208.5214732577362
 51
246.6277221118195
 73
     0
 72
     2
 10
-907.6570803215798
 20
-1161.835529164177
 40
0.7487023016413397
 50
246.6277221118796
 51
288.4480761181312
 73
     0
 72
     2
 10
-908.0026734898945
 20
-1162.871517408835
 40
1.840813230556213
 50
288.4480761181304
 51
301.9309089499702
 73
     0
 72
     1
 10
-907.0290742816094
 20
-1161.309244087224
 11
-907.0290742816094
 21
-1160.588155651849
 72
     2
 10
-908.1331469403844
 20
-1164.443595573998
 40
4.01041063098956
 50
74.02000874164463
 51
84.84185523037571
 73
     1
 72
     2
 10
-907.8944228951482
 20
-1161.799057901915
 40
1.355119937141545
 50
84.84185523036508
 51
164.9381082229094
 73
     1
 97
       14
330
2D0
330
14C
330
29F
330
2CF
330
2A0
330
2A1
330
2CE
330
2CD
330
2CC
330
14D
330
2A2
330
2A3
330
2A4
330
2A5
 75
     1
 76
     0
 52
45.0
 41
0.1
 77
     0
 78
     1
 53
45.0
 43
0.0
 44
0.0
 45
-0.0707106781186548
 46
0.0707106781186548
 79
     0
 98
        1
 10
0.0
 20
0.0
  0
HATCH
  5
340
330
71
100
AcDbEntity
  8
1
  6
Continuous
 62
     2
100
AcDbHatch
 10
0.0
 20
0.0
 30
0.0
210
0.0
220
0.0
230
1.0
  2
_USER
 70
     0
 71
     1
 91
        1
 92
        1
 93
       14
 72
     2
 10
-908.2408095426381
 20
-1161.705842726679
 40
0.9964100565212273
 50
164.9381082229301
 51
195.0618917771204
 73
     1
 72
     2
 10
-907.8944228951482
 20
-1161.612627551444
 40
1.35511993714008
 50
195.0618917770999
 51
275.1581447696384
 73
     1
 72
     2
 10
-908.1331469403844
 20
-1158.96808987936
 40
4.010410630990424
 50
275.1581447696242
 51
285.9799912583509
 73
     1
 72
     1
 10
-907.0290742816094
 20
-1162.82352980151
 11
-907.0290742816094
 21
-1162.102441366135
 72
     2
 10
-908.0026734898945
 20
-1160.540168044523
 40
1.840813230556274
 50
58.06909105004848
 51
71.55192388186957
 73
     0
 72
     2
 10
-907.6570803215798
 20
-1161.576156289182
 40
0.7487023016406467
 50
71.55192388184128
 51
113.3722778881204
 73
     0
 72
     2
 10
-907.7863696048046
 20
-1161.875323246794
 40
0.4227934381772727
 50
113.3722778881805
 51
151.4785267423721
 73
     0
 72
     2
 10
-907.4745041022588
 20
-1161.705842726679
 40
0.7777353184570868
 50
151.4785267422948
 51
208.5214732577052
 73
     0
 72
     2
 10
-907.7863696048046
 20
-1161.536362206565
 40
0.4227934381778725
 50
208.5214732577362
 51
246.6277221118195
 73
     0
 72
     2
 10
-907.6570803215798
 20
-1161.835529164177
 40
0.7487023016413397
 50
246.6277221118796
 51
288.4480761181312
 73
     0
 72
     2
 10
-908.0026734898945
 20
-1162.871517408835
 40
1.840813230556213
 50
288.4480761181304
 51
301.9309089499702
 73
     0
 72
     1
 10
-907.0290742816094
 20
-1161.309244087224
 11
-907.0290742816094
 21
-1160.588155651849
 72
     2
 10
-908.1331469403844
 20
-1164.443595573998
 40
4.01041063098956
 50
74.02000874164463
 51
84.84185523037571
 73
     1
 72
     2
 10
-907.8944228951482
 20
-1161.799057901915
 40
1.355119937141545
 50
84.84185523036508
 51
164.9381082229094
 73
     1
 97
       14
330
2D0
330
14C
330
29F
330
2CF
330
2A0
330
2A1
330
2CE
330
2CD
330
2CC
330
14D
330
2A2
330
2A3
330
2A4
330
2A5
 75
     1
 76
     0
 52
45.0
 41
0.1
 77
     0
 78
     1
 53
45.0
 43
0.0
 44
0.0
 45
-0.0707106781186548
 46
0.0707106781186548
 79
     0
 98
        1
 10
0.0
 20
0.0
  0
HATCH
  5
341
330
71
100
AcDbEntity
  8
1
  6
Continuous
 62
     2
100
AcDbHatch
 10
0.0
 20
0.0
 30
0.0
210
0.0
220
0.0
230
1.0
  2
_USER
 70
     0
 71
     1
 91
        1
 92
        1
 93
       18
 72
     2
 10
-894.5864051436995
 20
-1161.799057901915
 40
1.355119937140898
 50
90.0
 51
164.9381082229181
 73
     1
 72
     2
 10
-894.9327917911885
 20
-1161.705842726679
 40
0.9964100565228741
 50
164.9381082229556
 51
195.0618917770949
 73
     1
 72
     2
 10
-894.5864051436995
 20
-1161.612627551444
 40
1.355119937140848
 50
195.0618917770911
 51
275.1581447696767
 73
     1
 72
     2
 10
-894.8251291889358
 20
-1158.96808987936
 40
4.010410630990505
 50
275.1581447696372
 51
285.9799912583384
 73
     1
 72
     1
 10
-893.7210565301616
 20
-1162.82352980151
 11
-893.7210565301616
 21
-1162.102441366135
 72
     2
 10
-894.6946557384458
 20
-1160.540168044524
 40
1.840813230556274
 50
58.06909105005379
 51
71.55192388186957
 73
     0
 72
     2
 10
-894.3490625701302
 20
-1161.576156289182
 40
0.7487023016409623
 50
71.55192388193481
 51
113.3722778881762
 73
     0
 72
     2
 10
-894.4783518533559
 20
-1161.875323246794
 40
0.4227934381785061
 50
113.3722778881664
 51
151.4785267423226
 73
     0
 72
     2
 10
-894.1664863508092
 20
-1161.705842726679
 40
0.777735318458685
 50
151.4785267422999
 51
208.5214732576412
 73
     0
 72
     2
 10
-894.4783518533559
 20
-1161.536362206565
 40
0.4227934381776318
 50
208.5214732576774
 51
250.6628567805333
 73
     0
 72
     2
 10
-894.35713697889
 20
-1161.881779545724
 40
0.788861989113002
 50
250.6628567805682
 51
270.0
 73
     0
 72
     1
 10
-894.35713697889
 20
-1161.092917556611
 11
-893.4450383842056
 21
-1161.092917556611
 72
     1
 10
-893.4450383842056
 20
-1161.092917556611
 11
-893.4450383842056
 21
-1162.967747488585
 72
     1
 10
-893.4450383842056
 20
-1162.967747488585
 11
-892.4592592915051
 21
-1162.967747488585
 72
     1
 10
-892.4592592915051
 20
-1162.967747488585
 11
-892.4592592915051
 21
-1161.092917556611
 72
     1
 10
-892.4592592915051
 20
-1161.092917556611
 11
-891.7889295084692
 21
-1161.092917556611
 72
     1
 10
-891.7889295084692
 20
-1161.092917556611
 11
-891.7889295084692
 21
-1160.443937964774
 72
     1
 10
-891.7889295084692
 20
-1160.443937964774
 11
-894.5864051436995
 21
-1160.443937964774
 97
       18
330
1B2
330
1B1
330
1B0
330
1AF
330
1B4
330
14E
330
2C9
330
2AA
330
2C8
330
2AB
330
2C7
330
2C6
330
14F
330
2C5
330
2C4
330
2AC
330
2AD
330
1B3
 75
     1
 76
     0
 52
45.0
 41
0.1
 77
     0
 78
     1
 53
45.0
 43
0.0
 44
0.0
 45
-0.0707106781186548
 46
0.0707106781186548
 79
     0
 98
        1
 10
0.0
 20
0.0
  0
HATCH
  5
342
330
71
100
AcDbEntity
  8
1
  6
Continuous
 62
     2
100
AcDbHatch
 10
0.0
 20
0.0
 30
0.0
210
0.0
220
0.0
230
1.0
  2
_USER
 70
     0
 71
     1
 91
        1
 92
        1
 93
       18
 72
     2
 10
-894.5864051436995
 20
-1161.799057901915
 40
1.355119937140898
 50
90.0
 51
164.9381082229181
 73
     1
 72
     2
 10
-894.9327917911885
 20
-1161.705842726679
 40
0.9964100565228741
 50
164.9381082229556
 51
195.0618917770949
 73
     1
 72
     2
 10
-894.5864051436995
 20
-1161.612627551444
 40
1.355119937140848
 50
195.0618917770911
 51
275.1581447696767
 73
     1
 72
     2
 10
-894.8251291889358
 20
-1158.96808987936
 40
4.010410630990505
 50
275.1581447696372
 51
285.9799912583384
 73
     1
 72
     1
 10
-893.7210565301616
 20
-1162.82352980151
 11
-893.7210565301616
 21
-1162.102441366135
 72
     2
 10
-894.6946557384458
 20
-1160.540168044524
 40
1.840813230556274
 50
58.06909105005379
 51
71.55192388186957
 73
     0
 72
     2
 10
-894.3490625701302
 20
-1161.576156289182
 40
0.7487023016409623
 50
71.55192388193481
 51
113.3722778881762
 73
     0
 72
     2
 10
-894.4783518533559
 20
-1161.875323246794
 40
0.4227934381785061
 50
113.3722778881664
 51
151.4785267423226
 73
     0
 72
     2
 10
-894.1664863508092
 20
-1161.705842726679
 40
0.777735318458685
 50
151.4785267422999
 51
208.5214732576412
 73
     0
 72
     2
 10
-894.4783518533559
 20
-1161.536362206565
 40
0.4227934381776318
 50
208.5214732576774
 51
250.6628567805333
 73
     0
 72
     2
 10
-894.35713697889
 20
-1161.881779545724
 40
0.788861989113002
 50
250.6628567805682
 51
270.0
 73
     0
 72
     1
 10
-894.35713697889
 20
-1161.092917556611
 11
-893.4450383842056
 21
-1161.092917556611
 72
     1
 10
-893.4450383842056
 20
-1161.092917556611
 11
-893.4450383842056
 21
-1162.967747488585
 72
     1
 10
-893.4450383842056
 20
-1162.967747488585
 11
-892.4592592915051
 21
-1162.967747488585
 72
     1
 10
-892.4592592915051
 20
-1162.967747488585
 11
-892.4592592915051
 21
-1161.092917556611
 72
     1
 10
-892.4592592915051
 20
-1161.092917556611
 11
-891.7889295084692
 21
-1161.092917556611
 72
     1
 10
-891.7889295084692
 20
-1161.092917556611
 11
-891.7889295084692
 21
-1160.443937964774
 72
     1
 10
-891.7889295084692
 20
-1160.443937964774
 11
-894.5864051436995
 21
-1160.443937964774
 97
       18
330
1B2
330
1B1
330
1B0
330
1AF
330
1B4
330
14E
330
2C9
330
2AA
330
2C8
330
2AB
330
2C7
330
2C6
330
14F
330
2C5
330
2C4
330
2AC
330
2AD
330
1B3
 75
     1
 76
     0
 52
45.0
 41
0.1
 77
     0
 78
     1
 53
45.0
 43
0.0
 44
0.0
 45
-0.0707106781186548
 46
0.0707106781186548
 79
     0
 98
        1
 10
0.0
 20
0.0
  0
HATCH
  5
343
330
71
100
AcDbEntity
  8
1
  6
Continuous
 62
     2
100
AcDbHatch
 10
0.0
 20
0.0
 30
0.0
210
0.0
220
0.0
230
1.0
  2
_USER
 70
     0
 71
     1
 91
        4
 92
        1
 93
        8
 72
     2
 10
-914.5055448930326
 20
-1158.018362873226
 40
0.3506153846140023
 50
90.0
 51
180.0
 73
     1
 72
     1
 10
-914.8561602776465
 20
-1158.018362873226
 11
-914.8561602776465
 21
-1162.61713210397
 72
     2
 10
-914.5055448930326
 20
-1162.61713210397
 40
0.3506153846138886
 50
180.0
 51
270.0
 73
     1
 72
     1
 10
-914.5055448930326
 20
-1162.967747488585
 11
-909.9821464709526
 21
-1162.967747488585
 72
     2
 10
-909.9821464709526
 20
-1162.61713210397
 40
0.3506153846149118
 50
270.0
 51
360.0
 73
     1
 72
     1
 10
-909.6315310863376
 20
-1162.61713210397
 11
-909.6315310863376
 21
-1158.018362873226
 72
     2
 10
-909.9821464709526
 20
-1158.018362873226
 40
0.3506153846149118
 50
0.0
 51
90.0
 73
     1
 72
     1
 10
-909.9821464709526
 20
-1157.667747488612
 11
-914.5055448930326
 21
-1157.667747488612
 97
        8
330
2BD
330
17D
330
2BC
330
17E
330
2B3
330
17B
330
2BE
330
17C
 92
       16
 93
        1
 72
     2
 10
-912.340598074423
 20
-1159.934794466909
 40
0.3892387874202541
 50
0.0
 51
360.0
 73
     1
 97
        1
330
2D1
 92
       16
 93
        8
 72
     2
 10
-912.320916244115
 20
-1159.934794466909
 40
0.7535935125156605
 50
295.3740086781938
 51
424.6259913217988
 73
     1
 72
     2
 10
-911.8861702126374
 20
-1159.018148516522
 40
0.2609230769229498
 50
115.3740086783036
 51
180.0
 73
     0
 72
     1
 10
-912.1470932895603
 20
-1159.018148516522
 11
-912.1470932895603
 21
-1158.517706129326
 72
     2
 10
-911.8861702126374
 20
-1158.517706129326
 40
0.2609230769216719
 50
180.0
 51
269.8110329574459
 73
     0
 72
     2
 10
-911.8815287784969
 20
-1159.925007738887
 40
1.668232340440956
 50
269.8110329575861
 51
450.1889670424137
 73
     0
 72
     2
 10
-911.8861702126374
 20
-1161.332309348449
 40
0.2609230769229498
 50
90.18896704255388
 51
180.0
 73
     0
 72
     1
 10
-912.1470932895603
 20
-1161.332309348449
 11
-912.1470932895603
 21
-1160.851440417296
 72
     2
 10
-911.8861702126374
 20
-1160.851440417296
 40
0.2609230769232637
 50
180.0
 51
244.6259913216964
 73
     0
 97
        8
330
2CB
330
2A7
330
1B6
330
2CA
330
2A8
330
2A9
330
1B5
330
2A6
 92
       16
 93
       12
 72
     1
 10
-914.0147228461346
 20
-1162.378858599695
 11
-912.7950259362094
 21
-1162.378858599695
 72
     2
 10
-912.7950259362094
 20
-1162.117935522772
 40
0.2609230769228361
 50
270.0
 51
360.0
 73
     1
 72
     1
 10
-912.5341028592866
 20
-1162.117935522772
 11
-912.5341028592866
 21
-1160.852835579357
 72
     2
 10
-912.7950259362094
 20
-1160.852835579357
 40
0.2609230769228361
 50
0.0
 51
64.80558935143597
 73
     1
 72
     2
 10
-912.3631379630069
 20
-1159.934794466909
 40
0.7536343169903603
 50
115.1944106485244
 51
244.8055893514977
 73
     0
 72
     2
 10
-912.7950259362094
 20
-1159.01675335446
 40
0.2609230769225737
 50
295.1944106485428
 51
360.0
 73
     1
 72
     1
 10
-912.5341028592866
 20
-1159.01675335446
 11
-912.5341028592866
 21
-1158.517559454411
 72
     2
 10
-912.7950259362094
 20
-1158.517559454411
 40
0.2609230769228361
 50
0.0
 51
90.0
 73
     1
 72
     1
 10
-912.7950259362094
 20
-1158.256636377488
 11
-914.0147228461346
 21
-1158.256636377488
 72
     2
 10
-914.0147228461346
 20
-1158.517559454411
 40
0.2609230769230635
 50
90.0
 51
180.0
 73
     1
 72
     1
 10
-914.2756459230567
 20
-1158.517559454411
 11
-914.2756459230567
 21
-1162.117935522772
 72
     2
 10
-914.0147228461346
 20
-1162.117935522772
 40
0.2609230769220403
 50
180.0
 51
270.0
 73
     1
 97
       12
330
182
330
2B0
330
181
330
2C1
330
180
330
2C0
330
2B1
330
2B2
330
17F
330
2BF
330
17A
330
2C2
 75
     1
 76
     0
 52
45.0
 41
0.1
 77
     0
 78
     1
 53
45.0
 43
0.0
 44
0.0
 45
-0.0707106781186548
 46
0.0707106781186548
 79
     0
 98
        1
 10
0.0
 20
0.0
  0
HATCH
  5
344
330
71
100
AcDbEntity
  8
1
  6
Continuous
 62
     2
100
AcDbHatch
 10
0.0
 20
0.0
 30
0.0
210
0.0
220
0.0
230
1.0
  2
_USER
 70
     0
 71
     1
 91
        4
 92
        1
 93
        8
 72
     2
 10
-914.5055448930326
 20
-1158.018362873226
 40
0.3506153846140023
 50
90.0
 51
180.0
 73
     1
 72
     1
 10
-914.8561602776465
 20
-1158.018362873226
 11
-914.8561602776465
 21
-1162.61713210397
 72
     2
 10
-914.5055448930326
 20
-1162.61713210397
 40
0.3506153846138886
 50
180.0
 51
270.0
 73
     1
 72
     1
 10
-914.5055448930326
 20
-1162.967747488585
 11
-909.9821464709526
 21
-1162.967747488585
 72
     2
 10
-909.9821464709526
 20
-1162.61713210397
 40
0.3506153846149118
 50
270.0
 51
360.0
 73
     1
 72
     1
 10
-909.6315310863376
 20
-1162.61713210397
 11
-909.6315310863376
 21
-1158.018362873226
 72
     2
 10
-909.9821464709526
 20
-1158.018362873226
 40
0.3506153846149118
 50
0.0
 51
90.0
 73
     1
 72
     1
 10
-909.9821464709526
 20
-1157.667747488612
 11
-914.5055448930326
 21
-1157.667747488612
 97
        8
330
2BD
330
17D
330
2BC
330
17E
330
2B3
330
17B
330
2BE
330
17C
 92
       16
 93
        1
 72
     2
 10
-912.340598074423
 20
-1159.934794466909
 40
0.3892387874202541
 50
0.0
 51
360.0
 73
     1
 97
        1
330
2D1
 92
       16
 93
        8
 72
     2
 10
-912.320916244115
 20
-1159.934794466909
 40
0.7535935125156605
 50
295.3740086781938
 51
424.6259913217988
 73
     1
 72
     2
 10
-911.8861702126374
 20
-1159.018148516522
 40
0.2609230769229498
 50
115.3740086783036
 51
180.0
 73
     0
 72
     1
 10
-912.1470932895603
 20
-1159.018148516522
 11
-912.1470932895603
 21
-1158.517706129326
 72
     2
 10
-911.8861702126374
 20
-1158.517706129326
 40
0.2609230769216719
 50
180.0
 51
269.8110329574459
 73
     0
 72
     2
 10
-911.8815287784969
 20
-1159.925007738887
 40
1.668232340440956
 50
269.8110329575861
 51
450.1889670424137
 73
     0
 72
     2
 10
-911.8861702126374
 20
-1161.332309348449
 40
0.2609230769229498
 50
90.18896704255388
 51
180.0
 73
     0
 72
     1
 10
-912.1470932895603
 20
-1161.332309348449
 11
-912.1470932895603
 21
-1160.851440417296
 72
     2
 10
-911.8861702126374
 20
-1160.851440417296
 40
0.2609230769232637
 50
180.0
 51
244.6259913216964
 73
     0
 97
        8
330
2CB
330
2A7
330
1B6
330
2CA
330
2A8
330
2A9
330
1B5
330
2A6
 92
       16
 93
       12
 72
     1
 10
-914.0147228461346
 20
-1162.378858599695
 11
-912.7950259362094
 21
-1162.378858599695
 72
     2
 10
-912.7950259362094
 20
-1162.117935522772
 40
0.2609230769228361
 50
270.0
 51
360.0
 73
     1
 72
     1
 10
-912.5341028592866
 20
-1162.117935522772
 11
-912.5341028592866
 21
-1160.852835579357
 72
     2
 10
-912.7950259362094
 20
-1160.852835579357
 40
0.2609230769228361
 50
0.0
 51
64.80558935143597
 73
     1
 72
     2
 10
-912.3631379630069
 20
-1159.934794466909
 40
0.7536343169903603
 50
115.1944106485244
 51
244.8055893514977
 73
     0
 72
     2
 10
-912.7950259362094
 20
-1159.01675335446
 40
0.2609230769225737
 50
295.1944106485428
 51
360.0
 73
     1
 72
     1
 10
-912.5341028592866
 20
-1159.01675335446
 11
-912.5341028592866
 21
-1158.517559454411
 72
     2
 10
-912.7950259362094
 20
-1158.517559454411
 40
0.2609230769228361
 50
0.0
 51
90.0
 73
     1
 72
     1
 10
-912.7950259362094
 20
-1158.256636377488
 11
-914.0147228461346
 21
-1158.256636377488
 72
     2
 10
-914.0147228461346
 20
-1158.517559454411
 40
0.2609230769230635
 50
90.0
 51
180.0
 73
     1
 72
     1
 10
-914.2756459230567
 20
-1158.517559454411
 11
-914.2756459230567
 21
-1162.117935522772
 72
     2
 10
-914.0147228461346
 20
-1162.117935522772
 40
0.2609230769220403
 50
180.0
 51
270.0
 73
     1
 97
       12
330
182
330
2B0
330
181
330
2C1
330
180
330
2C0
330
2B1
330
2B2
330
17F
330
2BF
330
17A
330
2C2
 75
     1
 76
     0
 52
45.0
 41
0.1
 77
     0
 78
     1
 53
45.0
 43
0.0
 44
0.0
 45
-0.0707106781186548
 46
0.0707106781186548
 79
     0
 98
        1
 10
0.0
 20
0.0
  0
HATCH
  5
345
330
71
100
AcDbEntity
  8
1
  6
Continuous
 62
     2
100
AcDbHatch
 10
0.0
 20
0.0
 30
0.0
210
0.0
220
0.0
230
1.0
  2
_USER
 70
     0
 71
     1
 91
        2
 92
        1
 93
       12
 72
     2
 10
-902.3773101789918
 20
-1158.929652250502
 40
1.261904761905043
 50
90.0
 51
270.0
 73
     1
 72
     1
 10
-902.3773101789918
 20
-1160.191557012407
 11
-899.7737401593381
 21
-1160.191557012407
 72
     1
 10
-899.7737401593381
 20
-1160.191557012407
 11
-899.7737401593381
 21
-1159.614686264108
 72
     1
 10
-899.7737401593381
 20
-1159.614686264108
 11
-900.8778127431626
 21
-1159.614686264108
 72
     1
 10
-900.8778127431626
 20
-1159.614686264108
 11
-900.8778127431626
 21
-1159.218087624652
 72
     1
 10
-900.8778127431626
 20
-1159.218087624652
 11
-899.7737401593381
 21
-1159.218087624652
 72
     1
 10
-899.7737401593381
 20
-1159.218087624652
 11
-899.7737401593381
 21
-1158.641216876353
 72
     1
 10
-899.7737401593381
 20
-1158.641216876353
 11
-900.8778127431626
 21
-1158.641216876353
 72
     1
 10
-900.8778127431626
 20
-1158.641216876353
 11
-900.8778127431626
 21
-1158.244618236897
 72
     1
 10
-900.8778127431626
 20
-1158.244618236897
 11
-899.7737401593381
 21
-1158.244618236897
 72
     1
 10
-899.7737401593381
 20
-1158.244618236897
 11
-899.7737401593381
 21
-1157.667747488597
 72
     1
 10
-899.7737401593381
 20
-1157.667747488597
 11
-902.3773101789918
 21
-1157.667747488597
 97
       12
330
171
330
16B
330
192
330
191
330
190
330
18F
330
16C
330
16D
330
16E
330
16F
330
2AE
330
170
 92
       16
 93
        4
 72
     2
 10
-902.0334985703047
 20
-1158.929652250502
 40
0.6378510567600505
 50
141.8795802028355
 51
218.1204197971645
 73
     1
 72
     2
 10
-902.1985729805082
 20
-1159.059182149775
 40
0.428023614060708
 50
218.1204197971487
 51
321.8795802028513
 73
     1
 72
     2
 10
-902.3636473907115
 20
-1158.929652250502
 40
0.637851056759961
 50
321.8795802028292
 51
398.1204197971709
 73
     1
 72
     2
 10
-902.1985729805082
 20
-1158.800122351229
 40
0.4280236140608484
 50
38.12041979717272
 51
141.8795802028273
 73
     1
 97
        4
330
2BB
330
2BA
330
2B5
330
2B4
 75
     1
 76
     0
 52
45.0
 41
0.1
 77
     0
 78
     1
 53
45.0
 43
0.0
 44
0.0
 45
-0.0707106781186548
 46
0.0707106781186548
 79
     0
 98
        1
 10
0.0
 20
0.0
  0
HATCH
  5
346
330
71
100
AcDbEntity
  8
1
  6
Continuous
 62
     2
100
AcDbHatch
 10
0.0
 20
0.0
 30
0.0
210
0.0
220
0.0
230
1.0
  2
_USER
 70
     0
 71
     1
 91
        2
 92
        1
 93
       12
 72
     2
 10
-902.3773101789918
 20
-1158.929652250502
 40
1.261904761905043
 50
90.0
 51
270.0
 73
     1
 72
     1
 10
-902.3773101789918
 20
-1160.191557012407
 11
-899.7737401593381
 21
-1160.191557012407
 72
     1
 10
-899.7737401593381
 20
-1160.191557012407
 11
-899.7737401593381
 21
-1159.614686264108
 72
     1
 10
-899.7737401593381
 20
-1159.614686264108
 11
-900.8778127431626
 21
-1159.614686264108
 72
     1
 10
-900.8778127431626
 20
-1159.614686264108
 11
-900.8778127431626
 21
-1159.218087624652
 72
     1
 10
-900.8778127431626
 20
-1159.218087624652
 11
-899.7737401593381
 21
-1159.218087624652
 72
     1
 10
-899.7737401593381
 20
-1159.218087624652
 11
-899.7737401593381
 21
-1158.641216876353
 72
     1
 10
-899.7737401593381
 20
-1158.641216876353
 11
-900.8778127431626
 21
-1158.641216876353
 72
     1
 10
-900.8778127431626
 20
-1158.641216876353
 11
-900.8778127431626
 21
-1158.244618236897
 72
     1
 10
-900.8778127431626
 20
-1158.244618236897
 11
-899.7737401593381
 21
-1158.244618236897
 72
     1
 10
-899.7737401593381
 20
-1158.244618236897
 11
-899.7737401593381
 21
-1157.667747488597
 72
     1
 10
-899.7737401593381
 20
-1157.667747488597
 11
-902.3773101789918
 21
-1157.667747488597
 97
       12
330
171
330
16B
330
192
330
191
330
190
330
18F
330
16C
330
16D
330
16E
330
16F
330
2AE
330
170
 92
       16
 93
        4
 72
     2
 10
-902.0334985703047
 20
-1158.929652250502
 40
0.6378510567600505
 50
141.8795802028355
 51
218.1204197971645
 73
     1
 72
     2
 10
-902.1985729805082
 20
-1159.059182149775
 40
0.428023614060708
 50
218.1204197971487
 51
321.8795802028513
 73
     1
 72
     2
 10
-902.3636473907115
 20
-1158.929652250502
 40
0.637851056759961
 50
321.8795802028292
 51
398.1204197971709
 73
     1
 72
     2
 10
-902.1985729805082
 20
-1158.800122351229
 40
0.4280236140608484
 50
38.12041979717272
 51
141.8795802028273
 73
     1
 97
        4
330
2BB
330
2BA
330
2B5
330
2B4
 75
     1
 76
     0
 52
45.0
 41
0.1
 77
     0
 78
     1
 53
45.0
 43
0.0
 44
0.0
 45
-0.0707106781186548
 46
0.0707106781186548
 79
     0
 98
        1
 10
0.0
 20
0.0
  0
HATCH
  5
347
330
71
100
AcDbEntity
  8
1
  6
Continuous
 62
     2
100
AcDbHatch
 10
0.0
 20
0.0
 30
0.0
210
0.0
220
0.0
230
1.0
  2
_USER
 70
     0
 71
     1
 91
        2
 92
        1
 93
        4
 72
     2
 10
-905.7042650240014
 20
-1161.705842726679
 40
1.204986845992721
 50
117.5481481756702
 51
242.4518518243497
 73
     1
 72
     2
 10
-905.4720832952135
 20
-1161.260739412379
 40
1.707008076205781
 50
242.4518518243417
 51
297.5481481756786
 73
     1
 72
     2
 10
-905.2399015664257
 20
-1161.705842726679
 40
1.204986845993948
 50
297.5481481756886
 51
422.4518518242915
 73
     1
 72
     2
 10
-905.4720832952135
 20
-1162.150946040979
 40
1.707008076205289
 50
62.45185182430729
 51
117.5481481756724
 73
     1
 97
        4
330
2B9
330
2B6
330
2B8
330
2B7
 92
       16
 93
        4
 72
     2
 10
-905.4720832952135
 20
-1161.576312827406
 40
0.4280236140605291
 50
38.12041979716756
 51
141.8795802028606
 73
     1
 72
     2
 10
-905.3070088850102
 20
-1161.705842726679
 40
0.637851056759961
 50
141.8795802028292
 51
218.1204197971708
 73
     1
 72
     2
 10
-905.4720832952135
 20
-1161.835372625952
 40
0.4280236140609378
 50
218.1204197971633
 51
321.8795802028085
 73
     1
 72
     2
 10
-905.6371577054172
 20
-1161.705842726679
 40
0.6378510567600505
 50
321.8795802028355
 51
398.1204197971646
 73
     1
 97
        4
330
29C
330
29D
330
29E
330
29B
 75
     1
 76
     0
 52
45.0
 41
0.1
 77
     0
 78
     1
 53
45.0
 43
0.0
 44
0.0
 45
-0.0707106781186548
 46
0.0707106781186548
 79
     0
 98
        1
 10
0.0
 20
0.0
  0
HATCH
  5
348
330
71
100
AcDbEntity
  8
1
  6
Continuous
 62
     2
100
AcDbHatch
 10
0.0
 20
0.0
 30
0.0
210
0.0
220
0.0
230
1.0
  2
_USER
 70
     0
 71
     1
 91
        2
 92
        1
 93
        4
 72
     2
 10
-905.7042650240014
 20
-1161.705842726679
 40
1.204986845992721
 50
117.5481481756702
 51
242.4518518243497
 73
     1
 72
     2
 10
-905.4720832952135
 20
-1161.260739412379
 40
1.707008076205781
 50
242.4518518243417
 51
297.5481481756786
 73
     1
 72
     2
 10
-905.2399015664257
 20
-1161.705842726679
 40
1.204986845993948
 50
297.5481481756886
 51
422.4518518242915
 73
     1
 72
     2
 10
-905.4720832952135
 20
-1162.150946040979
 40
1.707008076205289
 50
62.45185182430729
 51
117.5481481756724
 73
     1
 97
        4
330
2B9
330
2B6
330
2B8
330
2B7
 92
       16
 93
        4
 72
     2
 10
-905.4720832952135
 20
-1161.576312827406
 40
0.4280236140605291
 50
38.12041979716756
 51
141.8795802028606
 73
     1
 72
     2
 10
-905.3070088850102
 20
-1161.705842726679
 40
0.637851056759961
 50
141.8795802028292
 51
218.1204197971708
 73
     1
 72
     2
 10
-905.4720832952135
 20
-1161.835372625952
 40
0.4280236140609378
 50
218.1204197971633
 51
321.8795802028085
 73
     1
 72
     2
 10
-905.6371577054172
 20
-1161.705842726679
 40
0.6378510567600505
 50
321.8795802028355
 51
398.1204197971646
 73
     1
 97
        4
330
29C
330
29D
330
29E
330
29B
 75
     1
 76
     0
 52
45.0
 41
0.1
 77
     0
 78
     1
 53
45.0
 43
0.0
 44
0.0
 45
-0.0707106781186548
 46
0.0707106781186548
 79
     0
 98
        1
 10
0.0
 20
0.0
  0
HATCH
  5
349
330
71
100
AcDbEntity
  8
1
  6
Continuous
 62
     2
100
AcDbHatch
 10
0.0
 20
0.0
 30
0.0
210
0.0
220
0.0
230
1.0
  2
_USER
 70
     0
 71
     1
 91
        2
 92
        1
 93
        6
 72
     1
 10
-909.2372194492577
 20
-1157.667747488597
 11
-909.2372194492577
 21
-1160.191557012407
 72
     1
 10
-909.2372194492577
 20
-1160.191557012407
 11
-908.2120091928495
 21
-1160.191557012407
 72
     1
 10
-908.2120091928495
 20
-1160.191557012407
 11
-908.2120091928495
 21
-1159.41215350733
 72
     1
 10
-908.2120091928495
 20
-1159.41215350733
 11
-907.5849285417913
 21
-1159.41215350733
 72
     2
 10
-907.5849285417913
 20
-1158.539950497963
 40
0.8722030093670128
 50
270.0
 51
450.0
 73
     1
 72
     1
 10
-907.5849285417913
 20
-1157.667747488597
 11
-909.2372194492577
 21
-1157.667747488597
 97
        6
330
2C3
330
183
330
179
330
178
330
185
330
184
 92
       16
 93
        4
 72
     1
 10
-907.9497818692611
 20
-1158.215768848464
 11
-908.2120091928495
 21
-1158.215768848464
 72
     1
 10
-908.2120091928495
 20
-1158.215768848464
 11
-908.2120091928495
 21
-1158.799014839656
 72
     1
 10
-908.2120091928495
 20
-1158.799014839656
 11
-907.9497818692611
 21
-1158.799014839656
 72
     2
 10
-907.9497818692611
 20
-1158.50739184406
 40
0.2916229955958443
 50
270.0
 51
450.0
 73
     1
 97
        4
330
186
330
177
330
187
330
2AF
 75
     1
 76
     0
 52
45.0
 41
0.1
 77
     0
 78
     1
 53
45.0
 43
0.0
 44
0.0
 45
-0.0707106781186548
 46
0.0707106781186548
 79
     0
 98
        1
 10
0.0
 20
0.0
  0
HATCH
  5
34A
330
71
100
AcDbEntity
  8
1
  6
Continuous
 62
     2
100
AcDbHatch
 10
0.0
 20
0.0
 30
0.0
210
0.0
220
0.0
230
1.0
  2
_USER
 70
     0
 71
     1
 91
        2
 92
        1
 93
        6
 72
     1
 10
-909.2372194492577
 20
-1157.667747488597
 11
-909.2372194492577
 21
-1160.191557012407
 72
     1
 10
-909.2372194492577
 20
-1160.191557012407
 11
-908.2120091928495
 21
-1160.191557012407
 72
     1
 10
-908.2120091928495
 20
-1160.191557012407
 11
-908.2120091928495
 21
-1159.41215350733
 72
     1
 10
-908.2120091928495
 20
-1159.41215350733
 11
-907.5849285417913
 21
-1159.41215350733
 72
     2
 10
-907.5849285417913
 20
-1158.539950497963
 40
0.8722030093670128
 50
270.0
 51
450.0
 73
     1
 72
     1
 10
-907.5849285417913
 20
-1157.667747488597
 11
-909.2372194492577
 21
-1157.667747488597
 97
        6
330
2C3
330
183
330
179
330
178
330
185
330
184
 92
       16
 93
        4
 72
     1
 10
-907.9497818692611
 20
-1158.215768848464
 11
-908.2120091928495
 21
-1158.215768848464
 72
     1
 10
-908.2120091928495
 20
-1158.215768848464
 11
-908.2120091928495
 21
-1158.799014839656
 72
     1
 10
-908.2120091928495
 20
-1158.799014839656
 11
-907.9497818692611
 21
-1158.799014839656
 72
     2
 10
-907.9497818692611
 20
-1158.50739184406
 40
0.2916229955958443
 50
270.0
 51
450.0
 73
     1
 97
        4
330
186
330
177
330
187
330
2AF
 75
     1
 76
     0
 52
45.0
 41
0.1
 77
     0
 78
     1
 53
45.0
 43
0.0
 44
0.0
 45
-0.0707106781186548
 46
0.0707106781186548
 79
     0
 98
        1
 10
0.0
 20
0.0
  0
HATCH
  5
34B
330
71
100
AcDbEntity
  8
1
  6
Continuous
 62
     2
100
AcDbHatch
 10
0.0
 20
0.0
 30
0.0
210
0.0
220
0.0
230
1.0
  2
_USER
 70
     0
 71
     1
 91
        1
 92
        1
 93
       12
 72
     1
 10
-893.0270680488998
 20
-1157.667747488597
 11
-891.8677918358856
 21
-1157.667747488597
 72
     1
 10
-891.8677918358856
 20
-1157.667747488597
 11
-892.9442626051141
 21
-1158.88506197623
 72
     1
 10
-892.9442626051141
 20
-1158.88506197623
 11
-891.7889295084692
 21
-1160.191557012407
 72
     1
 10
-891.7889295084692
 20
-1160.191557012407
 11
-892.9482057214843
 21
-1160.191557012407
 72
     1
 10
-892.9482057214843
 20
-1160.191557012407
 11
-893.5239007116211
 21
-1159.540539008033
 72
     1
 10
-893.5239007116211
 20
-1159.540539008033
 11
-894.0995957017581
 21
-1160.191557012407
 72
     1
 10
-894.0995957017581
 20
-1160.191557012407
 11
-895.258871914773
 21
-1160.191557012407
 72
     1
 10
-895.258871914773
 20
-1160.191557012407
 11
-894.1035388181282
 21
-1158.88506197623
 72
     1
 10
-894.1035388181282
 20
-1158.88506197623
 11
-895.1800095873575
 21
-1157.667747488597
 72
     1
 10
-895.1800095873575
 20
-1157.667747488597
 11
-894.0207333743416
 21
-1157.667747488597
 72
     1
 10
-894.0207333743416
 20
-1157.667747488597
 11
-893.5239007116211
 21
-1158.229584944427
 72
     1
 10
-893.5239007116211
 20
-1158.229584944427
 11
-893.0270680488998
 21
-1157.667747488597
 97
       12
330
152
330
1AB
330
1AA
330
1A9
330
1A8
330
153
330
154
330
150
330
151
330
1AE
330
1AD
330
1AC
 75
     1
 76
     0
 52
45.0
 41
0.1
 77
     0
 78
     1
 53
45.0
 43
0.0
 44
0.0
 45
-0.0707106781186548
 46
0.0707106781186548
 79
     0
 98
        1
 10
0.0
 20
0.0
  0
HATCH
  5
34C
330
71
100
AcDbEntity
  8
1
  6
Continuous
 62
     2
100
AcDbHatch
 10
0.0
 20
0.0
 30
0.0
210
0.0
220
0.0
230
1.0
  2
_USER
 70
     0
 71
     1
 91
        1
 92
        1
 93
       12
 72
     1
 10
-893.0270680488998
 20
-1157.667747488597
 11
-891.8677918358856
 21
-1157.667747488597
 72
     1
 10
-891.8677918358856
 20
-1157.667747488597
 11
-892.9442626051141
 21
-1158.88506197623
 72
     1
 10
-892.9442626051141
 20
-1158.88506197623
 11
-891.7889295084692
 21
-1160.191557012407
 72
     1
 10
-891.7889295084692
 20
-1160.191557012407
 11
-892.9482057214843
 21
-1160.191557012407
 72
     1
 10
-892.9482057214843
 20
-1160.191557012407
 11
-893.5239007116211
 21
-1159.540539008033
 72
     1
 10
-893.5239007116211
 20
-1159.540539008033
 11
-894.0995957017581
 21
-1160.191557012407
 72
     1
 10
-894.0995957017581
 20
-1160.191557012407
 11
-895.258871914773
 21
-1160.191557012407
 72
     1
 10
-895.258871914773
 20
-1160.191557012407
 11
-894.1035388181282
 21
-1158.88506197623
 72
     1
 10
-894.1035388181282
 20
-1158.88506197623
 11
-895.1800095873575
 21
-1157.667747488597
 72
     1
 10
-895.1800095873575
 20
-1157.667747488597
 11
-894.0207333743416
 21
-1157.667747488597
 72
     1
 10
-894.0207333743416
 20
-1157.667747488597
 11
-893.5239007116211
 21
-1158.229584944427
 72
     1
 10
-893.5239007116211
 20
-1158.229584944427
 11
-893.0270680488998
 21
-1157.667747488597
 97
       12
330
152
330
1AB
330
1AA
330
1A9
330
1A8
330
153
330
154
330
150
330
151
330
1AE
330
1AD
330
1AC
 75
     1
 76
     0
 52
45.0
 41
0.1
 77
     0
 78
     1
 53
45.0
 43
0.0
 44
0.0
 45
-0.0707106781186548
 46
0.0707106781186548
 79
     0
 98
        1
 10
0.0
 20
0.0
  0
HATCH
  5
34D
330
71
100
AcDbEntity
  8
1
  6
Continuous
 62
     2
100
AcDbHatch
 10
0.0
 20
0.0
 30
0.0
210
0.0
220
0.0
230
1.0
  2
_USER
 70
     0
 71
     1
 91
        1
 92
        1
 93
        4
 72
     1
 10
-895.3574498240432
 20
-1157.667747488597
 11
-895.3574498240432
 21
-1160.191557012407
 72
     1
 10
-895.3574498240432
 20
-1160.191557012407
 11
-896.3826600804506
 21
-1160.191557012407
 72
     1
 10
-896.3826600804506
 20
-1160.191557012407
 11
-896.3826600804506
 21
-1157.667747488597
 72
     1
 10
-896.3826600804506
 20
-1157.667747488597
 11
-895.3574498240432
 21
-1157.667747488597
 97
        4
330
1A6
330
155
330
1A5
330
1A7
 75
     1
 76
     0
 52
45.0
 41
0.1
 77
     0
 78
     1
 53
45.0
 43
0.0
 44
0.0
 45
-0.0707106781186548
 46
0.0707106781186548
 79
     0
 98
        1
 10
0.0
 20
0.0
  0
HATCH
  5
34E
330
71
100
AcDbEntity
  8
1
  6
Continuous
 62
     2
100
AcDbHatch
 10
0.0
 20
0.0
 30
0.0
210
0.0
220
0.0
230
1.0
  2
_USER
 70
     0
 71
     1
 91
        1
 92
        1
 93
        4
 72
     1
 10
-895.3574498240432
 20
-1157.667747488597
 11
-895.3574498240432
 21
-1160.191557012407
 72
     1
 10
-895.3574498240432
 20
-1160.191557012407
 11
-896.3826600804506
 21
-1160.191557012407
 72
     1
 10
-896.3826600804506
 20
-1160.191557012407
 11
-896.3826600804506
 21
-1157.667747488597
 72
     1
 10
-896.3826600804506
 20
-1157.667747488597
 11
-895.3574498240432
 21
-1157.667747488597
 97
        4
330
1A6
330
155
330
1A5
330
1A7
 75
     1
 76
     0
 52
45.0
 41
0.1
 77
     0
 78
     1
 53
45.0
 43
0.0
 44
0.0
 45
-0.0707106781186548
 46
0.0707106781186548
 79
     0
 98
        1
 10
0.0
 20
0.0
  0
HATCH
  5
34F
330
71
100
AcDbEntity
  8
1
  6
Continuous
 62
     2
100
AcDbHatch
 10
0.0
 20
0.0
 30
0.0
210
0.0
220
0.0
230
1.0
  2
_USER
 70
     0
 71
     1
 91
        2
 92
        1
 93
        8
 72
     1
 10
-895.6801308186978
 20
-1162.967747488585
 11
-896.7053410751059
 21
-1162.967747488585
 72
     1
 10
-896.7053410751059
 20
-1162.967747488585
 11
-896.880117978805
 21
-1162.520672658652
 72
     1
 10
-896.880117978805
 20
-1162.520672658652
 11
-897.8160201082875
 21
-1162.520672658652
 72
     1
 10
-897.8160201082875
 20
-1162.520672658652
 11
-897.9907970119865
 21
-1162.967747488585
 72
     1
 10
-897.9907970119865
 20
-1162.967747488585
 11
-899.0160072683939
 21
-1162.967747488585
 72
     1
 10
-899.0160072683939
 20
-1162.967747488585
 11
-897.8606741717499
 21
-1160.443937964774
 72
     1
 10
-897.8606741717499
 20
-1160.443937964774
 11
-896.8354639153426
 21
-1160.443937964774
 72
     1
 10
-896.8354639153426
 20
-1160.443937964774
 11
-895.6801308186978
 21
-1162.967747488585
 97
        8
330
1A1
330
15B
330
1A0
330
1A3
330
158
330
1A2
330
159
330
15A
 92
       16
 93
        3
 72
     1
 10
-897.5961394875064
 20
-1161.95822367906
 11
-897.099998599587
 21
-1161.95822367906
 72
     1
 10
-897.099998599587
 20
-1161.95822367906
 11
-897.3480690435458
 21
-1161.323665855931
 72
     1
 10
-897.3480690435458
 20
-1161.323665855931
 11
-897.5961394875064
 21
-1161.95822367906
 97
        3
330
157
330
156
330
1A4
 75
     1
 76
     0
 52
45.0
 41
0.1
 77
     0
 78
     1
 53
45.0
 43
0.0
 44
0.0
 45
-0.0707106781186548
 46
0.0707106781186548
 79
     0
 98
        1
 10
0.0
 20
0.0
  0
HATCH
  5
350
330
71
100
AcDbEntity
  8
1
  6
Continuous
 62
     2
100
AcDbHatch
 10
0.0
 20
0.0
 30
0.0
210
0.0
220
0.0
230
1.0
  2
_USER
 70
     0
 71
     1
 91
        2
 92
        1
 93
        8
 72
     1
 10
-895.6801308186978
 20
-1162.967747488585
 11
-896.7053410751059
 21
-1162.967747488585
 72
     1
 10
-896.7053410751059
 20
-1162.967747488585
 11
-896.880117978805
 21
-1162.520672658652
 72
     1
 10
-896.880117978805
 20
-1162.520672658652
 11
-897.8160201082875
 21
-1162.520672658652
 72
     1
 10
-897.8160201082875
 20
-1162.520672658652
 11
-897.9907970119865
 21
-1162.967747488585
 72
     1
 10
-897.9907970119865
 20
-1162.967747488585
 11
-899.0160072683939
 21
-1162.967747488585
 72
     1
 10
-899.0160072683939
 20
-1162.967747488585
 11
-897.8606741717499
 21
-1160.443937964774
 72
     1
 10
-897.8606741717499
 20
-1160.443937964774
 11
-896.8354639153426
 21
-1160.443937964774
 72
     1
 10
-896.8354639153426
 20
-1160.443937964774
 11
-895.6801308186978
 21
-1162.967747488585
 97
        8
330
1A1
330
15B
330
1A0
330
1A3
330
158
330
1A2
330
159
330
15A
 92
       16
 93
        3
 72
     1
 10
-897.5961394875064
 20
-1161.95822367906
 11
-897.099998599587
 21
-1161.95822367906
 72
     1
 10
-897.099998599587
 20
-1161.95822367906
 11
-897.3480690435458
 21
-1161.323665855931
 72
     1
 10
-897.3480690435458
 20
-1161.323665855931
 11
-897.5961394875064
 21
-1161.95822367906
 97
        3
330
157
330
156
330
1A4
 75
     1
 76
     0
 52
45.0
 41
0.1
 77
     0
 78
     1
 53
45.0
 43
0.0
 44
0.0
 45
-0.0707106781186548
 46
0.0707106781186548
 79
     0
 98
        1
 10
0.0
 20
0.0
  0
HATCH
  5
351
330
71
100
AcDbEntity
  8
1
  6
Continuous
 62
     2
100
AcDbHatch
 10
0.0
 20
0.0
 30
0.0
210
0.0
220
0.0
230
1.0
  2
_USER
 70
     0
 71
     1
 91
        1
 92
        1
 93
        8
 72
     1
 10
-900.7990751520156
 20
-1160.443937964774
 11
-900.7990751520156
 21
-1161.092917556611
 72
     1
 10
-900.7990751520156
 20
-1161.092917556611
 11
-900.1287453689787
 21
-1161.092917556611
 72
     1
 10
-900.1287453689787
 20
-1161.092917556611
 11
-900.1287453689787
 21
-1162.967747488585
 72
     1
 10
-900.1287453689787
 20
-1162.967747488585
 11
-899.1429662762791
 21
-1162.967747488585
 72
     1
 10
-899.1429662762791
 20
-1162.967747488585
 11
-899.1429662762791
 21
-1161.092917556611
 72
     1
 10
-899.1429662762791
 20
-1161.092917556611
 11
-898.472636493244
 21
-1161.092917556611
 72
     1
 10
-898.472636493244
 20
-1161.092917556611
 11
-898.472636493244
 21
-1160.443937964774
 72
     1
 10
-898.472636493244
 20
-1160.443937964774
 11
-900.7990751520156
 21
-1160.443937964774
 97
        8
330
19D
330
19C
330
19B
330
15C
330
15D
330
19F
330
15E
330
19E
 75
     1
 76
     0
 52
45.0
 41
0.1
 77
     0
 78
     1
 53
45.0
 43
0.0
 44
0.0
 45
-0.0707106781186548
 46
0.0707106781186548
 79
     0
 98
        1
 10
0.0
 20
0.0
  0
HATCH
  5
352
330
71
100
AcDbEntity
  8
1
  6
Continuous
 62
     2
100
AcDbHatch
 10
0.0
 20
0.0
 30
0.0
210
0.0
220
0.0
230
1.0
  2
_USER
 70
     0
 71
     1
 91
        1
 92
        1
 93
        8
 72
     1
 10
-900.7990751520156
 20
-1160.443937964774
 11
-900.7990751520156
 21
-1161.092917556611
 72
     1
 10
-900.7990751520156
 20
-1161.092917556611
 11
-900.1287453689787
 21
-1161.092917556611
 72
     1
 10
-900.1287453689787
 20
-1161.092917556611
 11
-900.1287453689787
 21
-1162.967747488585
 72
     1
 10
-900.1287453689787
 20
-1162.967747488585
 11
-899.1429662762791
 21
-1162.967747488585
 72
     1
 10
-899.1429662762791
 20
-1162.967747488585
 11
-899.1429662762791
 21
-1161.092917556611
 72
     1
 10
-899.1429662762791
 20
-1161.092917556611
 11
-898.472636493244
 21
-1161.092917556611
 72
     1
 10
-898.472636493244
 20
-1161.092917556611
 11
-898.472636493244
 21
-1160.443937964774
 72
     1
 10
-898.472636493244
 20
-1160.443937964774
 11
-900.7990751520156
 21
-1160.443937964774
 97
        8
330
19D
330
19C
330
19B
330
15C
330
15D
330
19F
330
15E
330
19E
 75
     1
 76
     0
 52
45.0
 41
0.1
 77
     0
 78
     1
 53
45.0
 43
0.0
 44
0.0
 45
-0.0707106781186548
 46
0.0707106781186548
 79
     0
 98
        1
 10
0.0
 20
0.0
  0
HATCH
  5
353
330
71
100
AcDbEntity
  8
1
  6
Continuous
 62
     2
100
AcDbHatch
 10
0.0
 20
0.0
 30
0.0
210
0.0
220
0.0
230
1.0
  2
_USER
 70
     0
 71
     1
 91
        1
 92
        1
 93
       10
 72
     1
 10
-898.590805248099
 20
-1157.667747488597
 11
-899.5765843407985
 21
-1157.667747488597
 72
     1
 10
-899.5765843407985
 20
-1157.667747488597
 11
-899.5765843407985
 21
-1160.191557012407
 72
     1
 10
-899.5765843407985
 20
-1160.191557012407
 11
-898.590805248099
 21
-1160.191557012407
 72
     1
 10
-898.590805248099
 20
-1160.191557012407
 11
-898.590805248099
 21
-1159.109924359346
 72
     1
 10
-898.590805248099
 20
-1159.109924359346
 11
-897.5655949916907
 21
-1160.191557012407
 72
     1
 10
-897.5655949916907
 20
-1160.191557012407
 11
-896.579815898991
 21
-1160.191557012407
 72
     1
 10
-896.579815898991
 20
-1160.191557012407
 11
-896.579815898991
 21
-1157.667747488597
 72
     1
 10
-896.579815898991
 20
-1157.667747488597
 11
-897.5655949916907
 21
-1157.667747488597
 72
     1
 10
-897.5655949916907
 20
-1157.667747488597
 11
-897.5655949916907
 21
-1158.749380141659
 72
     1
 10
-897.5655949916907
 20
-1158.749380141659
 11
-898.590805248099
 21
-1157.667747488597
 97
       10
330
197
330
161
330
162
330
163
330
164
330
19A
330
15F
330
199
330
198
330
160
 75
     1
 76
     0
 52
45.0
 41
0.1
 77
     0
 78
     1
 53
45.0
 43
0.0
 44
0.0
 45
-0.0707106781186548
 46
0.0707106781186548
 79
     0
 98
        1
 10
0.0
 20
0.0
  0
HATCH
  5
354
330
71
100
AcDbEntity
  8
1
  6
Continuous
 62
     2
100
AcDbHatch
 10
0.0
 20
0.0
 30
0.0
210
0.0
220
0.0
230
1.0
  2
_USER
 70
     0
 71
     1
 91
        1
 92
        1
 93
       10
 72
     1
 10
-898.590805248099
 20
-1157.667747488597
 11
-899.5765843407985
 21
-1157.667747488597
 72
     1
 10
-899.5765843407985
 20
-1157.667747488597
 11
-899.5765843407985
 21
-1160.191557012407
 72
     1
 10
-899.5765843407985
 20
-1160.191557012407
 11
-898.590805248099
 21
-1160.191557012407
 72
     1
 10
-898.590805248099
 20
-1160.191557012407
 11
-898.590805248099
 21
-1159.109924359346
 72
     1
 10
-898.590805248099
 20
-1159.109924359346
 11
-897.5655949916907
 21
-1160.191557012407
 72
     1
 10
-897.5655949916907
 20
-1160.191557012407
 11
-896.579815898991
 21
-1160.191557012407
 72
     1
 10
-896.579815898991
 20
-1160.191557012407
 11
-896.579815898991
 21
-1157.667747488597
 72
     1
 10
-896.579815898991
 20
-1157.667747488597
 11
-897.5655949916907
 21
-1157.667747488597
 72
     1
 10
-897.5655949916907
 20
-1157.667747488597
 11
-897.5655949916907
 21
-1158.749380141659
 72
     1
 10
-897.5655949916907
 20
-1158.749380141659
 11
-898.590805248099
 21
-1157.667747488597
 97
       10
330
197
330
161
330
162
330
163
330
164
330
19A
330
15F
330
199
330
198
330
160
 75
     1
 76
     0
 52
45.0
 41
0.1
 77
     0
 78
     1
 53
45.0
 43
0.0
 44
0.0
 45
-0.0707106781186548
 46
0.0707106781186548
 79
     0
 98
        1
 10
0.0
 20
0.0
  0
HATCH
  5
355
330
71
100
AcDbEntity
  8
1
  6
Continuous
 62
     2
100
AcDbHatch
 10
0.0
 20
0.0
 30
0.0
210
0.0
220
0.0
230
1.0
  2
_USER
 70
     0
 71
     1
 91
        1
 92
        1
 93
       10
 72
     1
 10
-902.9283579922464
 20
-1160.443937964774
 11
-903.914137084947
 21
-1160.443937964774
 72
     1
 10
-903.914137084947
 20
-1160.443937964774
 11
-903.914137084947
 21
-1162.967747488585
 72
     1
 10
-903.914137084947
 20
-1162.967747488585
 11
-902.9283579922464
 21
-1162.967747488585
 72
     1
 10
-902.9283579922464
 20
-1162.967747488585
 11
-902.9283579922464
 21
-1161.886114835523
 72
     1
 10
-902.9283579922464
 20
-1161.886114835523
 11
-901.9031477358392
 21
-1162.967747488585
 72
     1
 10
-901.9031477358392
 20
-1162.967747488585
 11
-900.9173686431396
 21
-1162.967747488585
 72
     1
 10
-900.9173686431396
 20
-1162.967747488585
 11
-900.9173686431396
 21
-1160.443937964774
 72
     1
 10
-900.9173686431396
 20
-1160.443937964774
 11
-901.9031477358392
 21
-1160.443937964774
 72
     1
 10
-901.9031477358392
 20
-1160.443937964774
 11
-901.9031477358392
 21
-1161.525570617836
 72
     1
 10
-901.9031477358392
 20
-1161.525570617836
 11
-902.9283579922464
 21
-1160.443937964774
 97
       10
330
166
330
167
330
168
330
194
330
169
330
16A
330
193
330
196
330
195
330
165
 75
     1
 76
     0
 52
45.0
 41
0.1
 77
     0
 78
     1
 53
45.0
 43
0.0
 44
0.0
 45
-0.0707106781186548
 46
0.0707106781186548
 79
     0
 98
        1
 10
0.0
 20
0.0
  0
HATCH
  5
356
330
71
100
AcDbEntity
  8
1
  6
Continuous
 62
     2
100
AcDbHatch
 10
0.0
 20
0.0
 30
0.0
210
0.0
220
0.0
230
1.0
  2
_USER
 70
     0
 71
     1
 91
        1
 92
        1
 93
       10
 72
     1
 10
-902.9283579922464
 20
-1160.443937964774
 11
-903.914137084947
 21
-1160.443937964774
 72
     1
 10
-903.914137084947
 20
-1160.443937964774
 11
-903.914137084947
 21
-1162.967747488585
 72
     1
 10
-903.914137084947
 20
-1162.967747488585
 11
-902.9283579922464
 21
-1162.967747488585
 72
     1
 10
-902.9283579922464
 20
-1162.967747488585
 11
-902.9283579922464
 21
-1161.886114835523
 72
     1
 10
-902.9283579922464
 20
-1161.886114835523
 11
-901.9031477358392
 21
-1162.967747488585
 72
     1
 10
-901.9031477358392
 20
-1162.967747488585
 11
-900.9173686431396
 21
-1162.967747488585
 72
     1
 10
-900.9173686431396
 20
-1162.967747488585
 11
-900.9173686431396
 21
-1160.443937964774
 72
     1
 10
-900.9173686431396
 20
-1160.443937964774
 11
-901.9031477358392
 21
-1160.443937964774
 72
     1
 10
-901.9031477358392
 20
-1160.443937964774
 11
-901.9031477358392
 21
-1161.525570617836
 72
     1
 10
-901.9031477358392
 20
-1161.525570617836
 11
-902.9283579922464
 21
-1160.443937964774
 97
       10
330
166
330
167
330
168
330
194
330
169
330
16A
330
193
330
196
330
195
330
165
 75
     1
 76
     0
 52
45.0
 41
0.1
 77
     0
 78
     1
 53
45.0
 43
0.0
 44
0.0
 45
-0.0707106781186548
 46
0.0707106781186548
 79
     0
 98
        1
 10
0.0
 20
0.0
  0
HATCH
  5
357
330
71
100
AcDbEntity
  8
1
  6
Continuous
 62
     2
100
AcDbHatch
 10
0.0
 20
0.0
 30
0.0
210
0.0
220
0.0
230
1.0
  2
_USER
 70
     0
 71
     1
 91
        1
 92
        1
 93
       12
 72
     1
 10
-903.756287693846
 20
-1157.667747488597
 11
-903.756287693846
 21
-1160.191557012407
 72
     1
 10
-903.756287693846
 20
-1160.191557012407
 11
-904.7420667865456
 21
-1160.191557012407
 72
     1
 10
-904.7420667865456
 20
-1160.191557012407
 11
-904.7420667865456
 21
-1159.254142046421
 72
     1
 10
-904.7420667865456
 20
-1159.254142046421
 11
-905.609552388122
 21
-1159.254142046421
 72
     1
 10
-905.609552388122
 20
-1159.254142046421
 11
-905.609552388122
 21
-1160.191557012407
 72
     1
 10
-905.609552388122
 20
-1160.191557012407
 11
-906.5953314808216
 21
-1160.191557012407
 72
     1
 10
-906.5953314808216
 20
-1160.191557012407
 11
-906.5953314808216
 21
-1157.667747488597
 72
     1
 10
-906.5953314808216
 20
-1157.667747488597
 11
-905.609552388122
 21
-1157.667747488597
 72
     1
 10
-905.609552388122
 20
-1157.667747488597
 11
-905.609552388122
 21
-1158.551080821931
 72
     1
 10
-905.609552388122
 20
-1158.551080821931
 11
-904.7420667865456
 21
-1158.551080821931
 72
     1
 10
-904.7420667865456
 20
-1158.551080821931
 11
-904.7420667865456
 21
-1157.667747488597
 72
     1
 10
-904.7420667865456
 20
-1157.667747488597
 11
-903.756287693846
 21
-1157.667747488597
 97
       12
330
18E
330
18D
330
18C
330
174
330
175
330
18B
330
176
330
18A
330
189
330
188
330
172
330
173
 75
     1
 76
     0
 52
45.0
 41
0.1
 77
     0
 78
     1
 53
45.0
 43
0.0
 44
0.0
 45
-0.0707106781186548
 46
0.0707106781186548
 79
     0
 98
        1
 10
0.0
 20
0.0
  0
HATCH
  5
358
330
71
100
AcDbEntity
  8
1
  6
Continuous
 62
     2
100
AcDbHatch
 10
0.0
 20
0.0
 30
0.0
210
0.0
220
0.0
230
1.0
  2
_USER
 70
     0
 71
     1
 91
        1
 92
        1
 93
       12
 72
     1
 10
-903.756287693846
 20
-1157.667747488597
 11
-903.756287693846
 21
-1160.191557012407
 72
     1
 10
-903.756287693846
 20
-1160.191557012407
 11
-904.7420667865456
 21
-1160.191557012407
 72
     1
 10
-904.7420667865456
 20
-1160.191557012407
 11
-904.7420667865456
 21
-1159.254142046421
 72
     1
 10
-904.7420667865456
 20
-1159.254142046421
 11
-905.609552388122
 21
-1159.254142046421
 72
     1
 10
-905.609552388122
 20
-1159.254142046421
 11
-905.609552388122
 21
-1160.191557012407
 72
     1
 10
-905.609552388122
 20
-1160.191557012407
 11
-906.5953314808216
 21
-1160.191557012407
 72
     1
 10
-906.5953314808216
 20
-1160.191557012407
 11
-906.5953314808216
 21
-1157.667747488597
 72
     1
 10
-906.5953314808216
 20
-1157.667747488597
 11
-905.609552388122
 21
-1157.667747488597
 72
     1
 10
-905.609552388122
 20
-1157.667747488597
 11
-905.609552388122
 21
-1158.551080821931
 72
     1
 10
-905.609552388122
 20
-1158.551080821931
 11
-904.7420667865456
 21
-1158.551080821931
 72
     1
 10
-904.7420667865456
 20
-1158.551080821931
 11
-904.7420667865456
 21
-1157.667747488597
 72
     1
 10
-904.7420667865456
 20
-1157.667747488597
 11
-903.756287693846
 21
-1157.667747488597
 97
       12
330
18E
330
18D
330
18C
330
174
330
175
330
18B
330
176
330
18A
330
189
330
188
330
172
330
173
 75
     1
 76
     0
 52
45.0
 41
0.1
 77
     0
 78
     1
 53
45.0
 43
0.0
 44
0.0
 45
-0.0707106781186548
 46
0.0707106781186548
 79
     0
 98
        1
 10
0.0
 20
0.0
  0
ENDBLK
  5
73
330
71
100
AcDbEntity
  8
0
100
AcDbBlockEnd
  0
BLOCK
  5
75
330
74
100
AcDbEntity
  8
0
100
AcDbBlockBegin
  2
_punkt
 70
     0
 10
-791.9714011116904
 20
-1168.81774748859
 30
0.0
  3
_punkt
  1

  0
LINE
  5
359
330
74
100
AcDbEntity
  8
1
  6
Continuous
 62
     2
100
AcDbLine
 10
-791.9714011116903
 20
-1168.81774748859
 30
0.0
 11
-791.9714011116903
 21
-1173.81774748859
 31
0.0
  0
LINE
  5
35A
330
74
100
AcDbEntity
  8
1
  6
Continuous
 62
     2
100
AcDbLine
 10
-791.9714011116903
 20
-1168.81774748859
 30
0.0
 11
-786.9714011116928
 21
-1168.81774748859
 31
0.0
  0
ENDBLK
  5
76
330
74
100
AcDbEntity
  8
0
100
AcDbBlockEnd
  0
BLOCK
  5
7A
330
77
100
AcDbEntity
  8
0
100
AcDbBlockBegin
  2
A3I
 70
     0
 10
-791.9714011116903
 20
-1173.81774748859
 30
0.0
  3
A3I
  1

  0
INSERT
  5
78
330
77
100
AcDbEntity
  8
1
100
AcDbBlockReference
  2
_rahmen
 10
-791.9714011116903
 20
-1173.81774748859
 30
0.0
  0
INSERT
  5
79
330
77
100
AcDbEntity
  8
1
100
AcDbBlockReference
  2
_punkt
 10
-791.9714011116904
 20
-1168.81774748859
 30
0.0
  0
ENDBLK
  5
7B
330
77
100
AcDbEntity
  8
0
100
AcDbBlockEnd
  0
BLOCK
  5
D9
330
D0
100
AcDbEntity
  8
0
100
AcDbBlockBegin
  2
*D16
 70
     1
 10
0.0
 20
0.0
 30
0.0
  3
*D16
  1

  0
LINE
  5
D1
330
D0
100
AcDbEntity
  8
1
  6
Continuous
 62
     2
100
AcDbLine
 10
-989.0
 20
-1020.57812899843
 30
0.0
 11
-982.0
 21
-1020.57812899843
 31
0.0
  0
LINE
  5
D2
330
D0
100
AcDbEntity
  8
1
  6
Continuous
 62
     2
100
AcDbLine
 10
-982.0
 20
-1020.57812899843
 30
0.0
 11
-980.0
 21
-1020.57812899843
 31
0.0
  0
LINE
  5
D3
330
D0
100
AcDbEntity
  8
1
  6
Continuous
 62
     2
100
AcDbLine
 10
-980.0
 20
-1020.57812899843
 30
0.0
 11
-969.111848109177
 21
-1020.57812899843
 31
0.0
  0
LINE
  5
D4
330
D0
100
AcDbEntity
  8
1
  6
Continuous
 62
     2
100
AcDbLine
 10
-982.0
 20
-989.8372612804295
 30
0.0
 11
-982.0
 21
-1022.57812899843
 31
0.0
  0
LINE
  5
D5
330
D0
100
AcDbEntity
  8
1
  6
Continuous
 62
     2
100
AcDbLine
 10
-980.0
 20
-989.8372612804295
 30
0.0
 11
-980.0
 21
-1022.57812899843
 31
0.0
  0
SOLID
  5
D6
330
D0
100
AcDbEntity
  8
1
 62
     2
100
AcDbTrace
 10
-985.5
 20
-1021.038912739986
 30
0.0
 11
-985.5
 21
-1020.117345256874
 31
0.0
 12
-982.0
 22
-1020.57812899843
 32
0.0
 13
-982.0
 23
-1020.57812899843
 33
0.0
  0
SOLID
  5
D7
330
D0
100
AcDbEntity
  8
1
 62
     2
100
AcDbTrace
 10
-976.5
 20
-1020.117345256874
 30
0.0
 11
-976.5
 21
-1021.038912739986
 31
0.0
 12
-980.0
 22
-1020.57812899843
 32
0.0
 13
-980.0
 23
-1020.57812899843
 33
0.0
  0
MTEXT
  5
D8
330
D0
100
AcDbEntity
  8
1
 62
     3
100
AcDbMText
 10
-971.2118481091769
 20
-1018.57812899843
 30
0.0
 40
3.5
 41
0.0
 71
     7
 72
     1
  1
2
  7
CONVERTER_11
 11
0.9999999999970619
 21
2.424068405545306E-6
 31
0.0
 73
     1
 44
0.60024009603842
  0
ENDBLK
  5
DA
330
D0
100
AcDbEntity
  8
0
100
AcDbBlockEnd
  0
BLOCK
  5
110
330
109
100
AcDbEntity
  8
0
100
AcDbBlockBegin
  2
*D17
 70
     1
 10
0.0
 20
0.0
 30
0.0
  3
*D17
  1

  0
LINE
  5
10A
330
109
100
AcDbEntity
  8
1
  6
Continuous
 62
     2
100
AcDbLine
 10
-1080.999999393793
 20
-1020.57812899843
 30
0.0
 11
-1027.999999393792
 21
-1020.57812899843
 31
0.0
  0
LINE
  5
10B
330
109
100
AcDbEntity
  8
1
  6
Continuous
 62
     2
100
AcDbLine
 10
-1080.999999393793
 20
-989.8372612804295
 30
0.0
 11
-1080.999999393793
 21
-1022.57812899843
 31
0.0
  0
LINE
  5
10C
330
109
100
AcDbEntity
  8
1
  6
Continuous
 62
     2
100
AcDbLine
 10
-1027.999999393792
 20
-989.8372612804029
 30
0.0
 11
-1027.999999393792
 21
-1022.57812899843
 31
0.0
  0
SOLID
  5
10D
330
109
100
AcDbEntity
  8
1
 62
     2
100
AcDbTrace
 10
-1077.499999393793
 20
-1020.117345256874
 30
0.0
 11
-1077.499999393793
 21
-1021.038912739986
 31
0.0
 12
-1080.999999393793
 22
-1020.57812899843
 32
0.0
 13
-1080.999999393793
 23
-1020.57812899843
 33
0.0
  0
SOLID
  5
10E
330
109
100
AcDbEntity
  8
1
 62
     2
100
AcDbTrace
 10
-1031.499999393792
 20
-1021.038912739986
 30
0.0
 11
-1031.499999393792
 21
-1020.117345256874
 31
0.0
 12
-1027.999999393792
 22
-1020.57812899843
 32
0.0
 13
-1027.999999393792
 23
-1020.57812899843
 33
0.0
  0
MTEXT
  5
10F
330
109
100
AcDbEntity
  8
1
 62
     3
100
AcDbMText
 10
-1056.96922238171
 20
-1018.57812899843
 30
0.0
 40
3.5
 41
0.0
 71
     7
 72
     1
  1
53
  7
CONVERTER_11
 11
0.9999999999970619
 21
2.424068405545306E-6
 31
0.0
 73
     1
 44
0.60024009603842
  0
ENDBLK
  5
111
330
109
100
AcDbEntity
  8
0
100
AcDbBlockEnd
  0
BLOCK
  5
11B
330
114
100
AcDbEntity
  8
0
100
AcDbBlockBegin
  2
*D18
 70
     1
 10
0.0
 20
0.0
 30
0.0
  3
*D18
  1

  0
LINE
  5
115
330
114
100
AcDbEntity
  8
1
  6
Continuous
 62
     2
100
AcDbLine
 10
-1011.31032332055
 20
-1005.250001772665
 30
0.0
 11
-1011.31032332055
 21
-924.7500017726559
 31
0.0
  0
LINE
  5
116
330
114
100
AcDbEntity
  8
1
  6
Continuous
 62
     2
100
AcDbLine
 10
-1033.007902352655
 20
-1005.250001772665
 30
0.0
 11
-1009.31032332055
 21
-1005.250001772665
 31
0.0
  0
LINE
  5
117
330
114
100
AcDbEntity
  8
1
  6
Continuous
 62
     2
100
AcDbLine
 10
-1033.007902352652
 20
-924.7500017726559
 30
0.0
 11
-1009.31032332055
 21
-924.7500017726559
 31
0.0
  0
SOLID
  5
118
330
114
100
AcDbEntity
  8
1
 62
     2
100
AcDbTrace
 10
-1011.771107062106
 20
-1001.750001772665
 30
0.0
 11
-1010.849539578994
 21
-1001.750001772665
 31
0.0
 12
-1011.31032332055
 22
-1005.250001772665
 32
0.0
 13
-1011.31032332055
 23
-1005.250001772665
 33
0.0
  0
SOLID
  5
119
330
114
100
AcDbEntity
  8
1
 62
     2
100
AcDbTrace
 10
-1010.849539578994
 20
-928.2500017726559
 30
0.0
 11
-1011.771107062106
 21
-928.2500017726559
 31
0.0
 12
-1011.31032332055
 22
-924.7500017726559
 32
0.0
 13
-1011.31032332055
 23
-924.7500017726559
 33
0.0
  0
MTEXT
  5
11A
330
114
100
AcDbEntity
  8
1
 62
     3
100
AcDbMText
 10
-1013.66032332055
 20
-968.298989577294
 30
0.0
 40
3.5
 41
0.0
 71
     7
 72
     1
  1
80,5
  7
CONVERTER_11
 11
0.0
 21
1.0
 31
0.0
 73
     1
 44
0.60024009603842
  0
ENDBLK
  5
11C
330
114
100
AcDbEntity
  8
0
100
AcDbBlockEnd
  0
ENDSEC
  0
SECTION
  2
ENTITIES
  0
INSERT
  5
7C
330
1F
100
AcDbEntity
  8
0
100
AcDbBlockReference
  2
Allg1
 10
-857.0000000000002
 20
-1081.0
 30
0.0
  0
INSERT
  5
7D
330
1F
100
AcDbEntity
  8
0
100
AcDbBlockReference
  2
SA_Links1
 10
-981.0
 20
-965.000000000005
 30
0.0
  0
INSERT
  5
7E
330
1F
100
AcDbEntity
  8
0
100
AcDbBlockReference
  2
Drfsicht1
 10
-1054.499999523163
 20
-1042.249999999995
 30
0.0
  0
INSERT
  5
7F
330
1F
100
AcDbEntity
  8
0
100
AcDbBlockReference
  2
Vordans1
 10
-1054.499999523163
 20
-965.000000000005
 30
0.0
  0
INSERT
  5
80
330
1F
100
AcDbEntity
  8
0
100
AcDbBlockReference
  2
SA_Rechts1
 10
-1117.999998046326
 20
-965.000000000005
 30
0.0
  0
INSERT
  5
81
330
1F
100
AcDbEntity
  8
0
100
AcDbBlockReference
  2
Rckans1
 10
-920.500000476838
 20
-965.000000000005
 30
0.0
  0
INSERT
  5
82
330
1F
100
AcDbEntity
  8
0
100
AcDbBlockReference
  2
A3I
 10
-791.9714011116903
 20
-1173.81774748859
 30
0.0
  0
ENDSEC
  0
SECTION
  2
OBJECTS
  0
DICTIONARY
  5
C
330
0
100
AcDbDictionary
281
     1
  3
ACAD_GROUP
350
D
  3
ACAD_LAYOUT
350
1A
  3
ACAD_MATERIAL
350
3B
  3
ACAD_MLEADERSTYLE
350
35D
  3
ACAD_MLINESTYLE
350
17
  3
ACAD_PLOTSETTINGS
350
19
  3
ACAD_PLOTSTYLENAME
350
E
  3
ACAD_VISUALSTYLE
350
2A
  3
AcDbVariableDictionary
350
35B
  0
DICTIONARY
  5
D
102
{ACAD_REACTORS
330
C
102
}
330
C
100
AcDbDictionary
281
     1
  0
DICTIONARY
  5
1A
102
{ACAD_REACTORS
330
C
102
}
330
C
100
AcDbDictionary
281
     1
  3
Layout1
350
1E
  3
Layout2
350
26
  3
Model
350
22
  0
DICTIONARY
  5
3B
102
{ACAD_REACTORS
330
C
102
}
330
C
100
AcDbDictionary
281
     1
  3
ByBlock
350
3D
  3
ByLayer
350
3C
  3
Global
350
3E
  0
DICTIONARY
  5
35D
102
{ACAD_REACTORS
330
C
102
}
330
C
100
AcDbDictionary
281
     1
  0
DICTIONARY
  5
17
102
{ACAD_REACTORS
330
C
102
}
330
C
100
AcDbDictionary
281
     1
  3
Standard
350
18
  0
DICTIONARY
  5
19
102
{ACAD_REACTORS
330
C
102
}
330
C
100
AcDbDictionary
281
     1
  0
ACDBDICTIONARYWDFLT
  5
E
102
{ACAD_REACTORS
330
C
102
}
330
C
100
AcDbDictionary
281
     1
  3
Normal
350
F
100
AcDbDictionaryWithDefault
340
F
  0
DICTIONARY
  5
2A
102
{ACAD_REACTORS
330
C
102
}
330
C
100
AcDbDictionary
281
     1
  3
2dWireframe
350
2F
  3
3D Hidden
350
31
  3
3dWireframe
350
30
  3
Basic
350
32
  3
Brighten
350
36
  3
ColorChange
350
3A
  3
Conceptual
350
34
  3
Dim
350
35
  3
Facepattern
350
39
  3
Flat
350
2B
  3
FlatWithEdges
350
2C
  3
Gouraud
350
2D
  3
GouraudWithEdges
350
2E
  3
Linepattern
350
38
  3
Realistic
350
33
  3
Thicken
350
37
  0
DICTIONARY
  5
35B
102
{ACAD_REACTORS
330
C
102
}
330
C
100
AcDbDictionary
281
     1
  3
DIMASSOC
350
35E
  3
HIDETEXT
350
35F
  0
LAYOUT
  5
1E
102
{ACAD_REACTORS
330
1A
102
}
330
1A
100
AcDbPlotSettings
  1

  2
none_device
  4

  6

 40
0.0
 41
0.0
 42
0.0
 43
0.0
 44
0.0
 45
0.0
 46
0.0
 47
0.0
 48
0.0
 49
0.0
140
0.0
141
0.0
142
1.0
143
1.0
 70
   688
 72
     0
 73
     0
 74
     5
  7

 75
    16
147
1.0
148
0.0
149
0.0
100
AcDbLayout
  1
Layout1
 70
     1
 71
     1
 10
0.0
 20
0.0
 11
12.0
 21
9.0
 12
0.0
 22
0.0
 32
0.0
 14
1.00000000000000E+20
 24
1.00000000000000E+20
 34
1.00000000000000E+20
 15
-1.00000000000000E+20
 25
-1.00000000000000E+20
 35
-1.00000000000000E+20
146
0.0
 13
0.0
 23
0.0
 33
0.0
 16
1.0
 26
0.0
 36
0.0
 17
0.0
 27
1.0
 37
0.0
 76
     0
330
1B
  0
LAYOUT
  5
26
102
{ACAD_REACTORS
330
1A
102
}
330
1A
100
AcDbPlotSettings
  1

  2
none_device
  4

  6

 40
0.0
 41
0.0
 42
0.0
 43
0.0
 44
0.0
 45
0.0
 46
0.0
 47
0.0
 48
0.0
 49
0.0
140
0.0
141
0.0
142
1.0
143
1.0
 70
   688
 72
     0
 73
     0
 74
     5
  7

 75
    16
147
1.0
148
0.0
149
0.0
100
AcDbLayout
  1
Layout2
 70
     1
 71
     2
 10
0.0
 20
0.0
 11
0.0
 21
0.0
 12
0.0
 22
0.0
 32
0.0
 14
0.0
 24
0.0
 34
0.0
 15
0.0
 25
0.0
 35
0.0
146
0.0
 13
0.0
 23
0.0
 33
0.0
 16
1.0
 26
0.0
 36
0.0
 17
0.0
 27
1.0
 37
0.0
 76
     0
330
23
  0
LAYOUT
  5
22
102
{ACAD_REACTORS
330
1A
102
}
330
1A
100
AcDbPlotSettings
  1

  2
none_device
  4

  6

 40
0.0
 41
0.0
 42
0.0
 43
0.0
 44
0.0
 45
0.0
 46
0.0
 47
0.0
 48
0.0
 49
0.0
140
0.0
141
0.0
142
1.0
143
1.0
 70
  1712
 72
     0
 73
     0
 74
     0
  7

 75
     0
147
1.0
148
0.0
149
0.0
100
AcDbLayout
  1
Model
 70
     1
 71
     0
 10
0.0
 20
0.0
 11
12.0
 21
9.0
 12
0.0
 22
0.0
 32
0.0
 14
-1206.971401111691
 24
-1173.81774748859
 34
0.0
 15
-786.9714011116928
 25
-876.8177474885899
 35
0.0
146
0.0
 13
0.0
 23
0.0
 33
0.0
 16
1.0
 26
0.0
 36
0.0
 17
0.0
 27
1.0
 37
0.0
 76
     0
330
1F
331
29
  0
MATERIAL
  5
3D
102
{ACAD_REACTORS
330
3B
102
}
102
{ACAD_XDICTIONARY
360
382
102
}
330
3B
100
AcDbMaterial
  1
ByBlock
  0
MATERIAL
  5
3C
102
{ACAD_REACTORS
330
3B
102
}
102
{ACAD_XDICTIONARY
360
380
102
}
330
3B
100
AcDbMaterial
  1
ByLayer
  0
MATERIAL
  5
3E
102
{ACAD_REACTORS
330
3B
102
}
102
{ACAD_XDICTIONARY
360
384
102
}
330
3B
100
AcDbMaterial
  1
Global
  0
MLINESTYLE
  5
18
102
{ACAD_REACTORS
330
17
102
}
330
17
100
AcDbMlineStyle
  2
Standard
 70
     0
  3

 62
   256
 51
90.0
 52
90.0
 71
     2
 49
0.5
 62
   256
  6
BYLAYER
 49
-0.5
 62
   256
  6
BYLAYER
  0
ACDBPLACEHOLDER
  5
F
102
{ACAD_REACTORS
330
E
102
}
330
E
  0
VISUALSTYLE
  5
2F
102
{ACAD_REACTORS
330
2A
102
}
102
{ACAD_XDICTIONARY
360
368
102
}
330
2A
100
AcDbVisualStyle
  2
2dWireframe
 70
     4
 71
     0
 72
     2
 73
     0
 90
        0
 40
-0.6
 41
-30.0
 62
     5
 63
     7
 74
     1
 91
        4
 64
     7
 65
   257
 75
     1
175
     1
 42
1.0
 92
        0
 66
   257
 43
1.0
 76
     1
 77
     6
 78
     2
 67
     7
 79
     5
170
     0
171
     0
290
     0
174
     0
 93
        1
 44
0.0
173
     0
291
     0
 45
0.0
1001
ACAD
1000
AcDbSavedByObjectVersion
1070
     0
  0
VISUALSTYLE
  5
31
102
{ACAD_REACTORS
330
2A
102
}
102
{ACAD_XDICTIONARY
360
36C
102
}
330
2A
100
AcDbVisualStyle
  2
3D Hidden
 70
     6
 71
     1
 72
     2
 73
     2
 90
        0
 40
-0.6
 41
-30.0
 62
     5
 63
     7
 74
     2
 91
        2
 64
     7
 65
   257
 75
     2
175
     1
 42
40.0
 92
        0
 66
   257
 43
1.0
 76
     1
 77
     6
 78
     2
 67
     7
 79
     3
170
     0
171
     0
290
     0
174
     0
 93
        1
 44
0.0
173
     0
291
     0
 45
0.0
1001
ACAD
1000
AcDbSavedByObjectVersion
1070
     0
  0
VISUALSTYLE
  5
30
102
{ACAD_REACTORS
330
2A
102
}
102
{ACAD_XDICTIONARY
360
36A
102
}
330
2A
100
AcDbVisualStyle
  2
3dWireframe
 70
     5
 71
     0
 72
     2
 73
     0
 90
        0
 40
-0.6
 41
-30.0
 62
     5
 63
     7
 74
     1
 91
        4
 64
     7
 65
   257
 75
     1
175
     1
 42
1.0
 92
        0
 66
   257
 43
1.0
 76
     1
 77
     6
 78
     2
 67
     7
 79
     5
170
     0
171
     0
290
     0
174
     0
 93
        1
 44
0.0
173
     0
291
     0
 45
0.0
1001
ACAD
1000
AcDbSavedByObjectVersion
1070
     0
  0
VISUALSTYLE
  5
32
102
{ACAD_REACTORS
330
2A
102
}
102
{ACAD_XDICTIONARY
360
36E
102
}
330
2A
100
AcDbVisualStyle
  2
Basic
 70
     7
 71
     1
 72
     0
 73
     1
 90
        0
 40
-0.6
 41
-30.0
 62
     5
 63
     7
 74
     0
 91
        4
 64
     7
 65
   257
 75
     1
175
     1
 42
1.0
 92
        8
 66
     7
 43
1.0
 76
     1
 77
     6
 78
     2
 67
     7
 79
     5
170
     0
171
     0
290
     0
174
     0
 93
        1
 44
0.0
173
     0
291
     1
 45
0.0
1001
ACAD
1000
AcDbSavedByObjectVersion
1070
     0
  0
VISUALSTYLE
  5
36
102
{ACAD_REACTORS
330
2A
102
}
102
{ACAD_XDICTIONARY
360
376
102
}
330
2A
100
AcDbVisualStyle
  2
Brighten
 70
    12
 71
     2
 72
     2
 73
     0
 90
        0
 40
-0.6
 41
-30.0
 62
     5
 63
     7
 74
     1
 91
        4
 64
     7
 65
   257
 75
     1
175
     1
 42
1.0
 92
        8
 66
     7
 43
1.0
 76
     1
 77
     6
 78
     2
 67
     7
 79
     5
170
     0
171
     0
290
     0
174
     0
 93
        1
 44
50.0
173
     0
291
     1
 45
0.0
1001
ACAD
1000
AcDbSavedByObjectVersion
1070
     0
  0
VISUALSTYLE
  5
3A
102
{ACAD_REACTORS
330
2A
102
}
102
{ACAD_XDICTIONARY
360
37E
102
}
330
2A
100
AcDbVisualStyle
  2
ColorChange
 70
    16
 71
     2
 72
     2
 73
     3
 90
        0
 40
-0.6
 41
-30.0
 62
     5
 63
     8
 74
     1
 91
        4
 64
     7
 65
   257
 75
     1
175
     1
 42
1.0
 92
        8
 66
     8
 43
1.0
 76
     1
 77
     6
 78
     2
 67
     7
 79
     5
170
     0
171
     0
290
     0
174
     0
 93
        1
 44
0.0
173
     0
291
     1
 45
0.0
1001
ACAD
1000
AcDbSavedByObjectVersion
1070
     0
  0
VISUALSTYLE
  5
34
102
{ACAD_REACTORS
330
2A
102
}
102
{ACAD_XDICTIONARY
360
372
102
}
330
2A
100
AcDbVisualStyle
  2
Conceptual
 70
     9
 71
     3
 72
     2
 73
     0
 90
        0
 40
-0.6
 41
-30.0
 62
     5
 63
     7
 74
     2
 91
        2
 64
     7
 65
   257
 75
     1
175
     1
 42
40.0
 92
        8
 66
     7
 43
1.0
 76
     1
 77
     6
 78
     2
 67
     7
 79
     3
170
     0
171
     0
290
     0
174
     0
 93
        1
 44
0.0
173
     0
291
     0
 45
0.0
1001
ACAD
1000
AcDbSavedByObjectVersion
1070
     0
  0
VISUALSTYLE
  5
35
102
{ACAD_REACTORS
330
2A
102
}
102
{ACAD_XDICTIONARY
360
374
102
}
330
2A
100
AcDbVisualStyle
  2
Dim
 70
    11
 71
     2
 72
     2
 73
     0
 90
        0
 40
-0.6
 41
-30.0
 62
     5
 63
     7
 74
     1
 91
        4
 64
     7
 65
   257
 75
     1
175
     1
 42
1.0
 92
        8
 66
     7
 43
1.0
 76
     1
 77
     6
 78
     2
 67
     7
 79
     5
170
     0
171
     0
290
     0
174
     0
 93
        1
 44
-50.0
173
     0
291
     1
 45
0.0
1001
ACAD
1000
AcDbSavedByObjectVersion
1070
     0
  0
VISUALSTYLE
  5
39
102
{ACAD_REACTORS
330
2A
102
}
102
{ACAD_XDICTIONARY
360
37C
102
}
330
2A
100
AcDbVisualStyle
  2
Facepattern
 70
    15
 71
     2
 72
     2
 73
     0
 90
        0
 40
-0.6
 41
-30.0
 62
     5
 63
     7
 74
     1
 91
        4
 64
     7
 65
   257
 75
     1
175
     1
 42
1.0
 92
        8
 66
     7
 43
1.0
 76
     1
 77
     6
 78
     2
 67
     7
 79
     5
170
     0
171
     0
290
     0
174
     0
 93
        1
 44
0.0
173
     0
291
     1
 45
0.0
1001
ACAD
1000
AcDbSavedByObjectVersion
1070
     0
  0
VISUALSTYLE
  5
2B
102
{ACAD_REACTORS
330
2A
102
}
102
{ACAD_XDICTIONARY
360
360
102
}
330
2A
100
AcDbVisualStyle
  2
Flat
 70
     0
 71
     2
 72
     1
 73
     1
 90
        2
 40
-0.6
 41
30.0
 62
     5
 63
     7
 74
     0
 91
        4
 64
     7
 65
   257
 75
     1
175
     1
 42
1.0
 92
        8
 66
     7
 43
1.0
 76
     1
 77
     6
 78
     2
 67
     7
 79
     5
170
     0
171
     0
290
     0
174
     0
 93
       13
 44
0.0
173
     0
291
     1
 45
0.0
1001
ACAD
1000
AcDbSavedByObjectVersion
1070
     0
  0
VISUALSTYLE
  5
2C
102
{ACAD_REACTORS
330
2A
102
}
102
{ACAD_XDICTIONARY
360
362
102
}
330
2A
100
AcDbVisualStyle
  2
FlatWithEdges
 70
     1
 71
     2
 72
     1
 73
     1
 90
        2
 40
-0.6
 41
30.0
 62
     5
 63
     7
 74
     1
 91
        4
 64
     7
 65
   257
 75
     1
175
     1
 42
1.0
 92
        0
 66
   257
 43
1.0
 76
     1
 77
     6
 78
     2
 67
     7
 79
     5
170
     0
171
     0
290
     0
174
     0
 93
       13
 44
0.0
173
     0
291
     1
 45
0.0
1001
ACAD
1000
AcDbSavedByObjectVersion
1070
     0
  0
VISUALSTYLE
  5
2D
102
{ACAD_REACTORS
330
2A
102
}
102
{ACAD_XDICTIONARY
360
364
102
}
330
2A
100
AcDbVisualStyle
  2
Gouraud
 70
     2
 71
     2
 72
     2
 73
     1
 90
        2
 40
-0.6
 41
30.0
 62
     5
 63
     7
 74
     0
 91
        4
 64
     7
 65
   257
 75
     1
175
     1
 42
1.0
 92
        0
 66
     7
 43
1.0
 76
     1
 77
     6
 78
     2
 67
     7
 79
     5
170
     0
171
     0
290
     0
174
     0
 93
       13
 44
0.0
173
     0
291
     1
 45
0.0
1001
ACAD
1000
AcDbSavedByObjectVersion
1070
     0
  0
VISUALSTYLE
  5
2E
102
{ACAD_REACTORS
330
2A
102
}
102
{ACAD_XDICTIONARY
360
366
102
}
330
2A
100
AcDbVisualStyle
  2
GouraudWithEdges
 70
     3
 71
     2
 72
     2
 73
     1
 90
        2
 40
-0.6
 41
30.0
 62
     5
 63
     7
 74
     1
 91
        4
 64
     7
 65
   257
 75
     1
175
     1
 42
1.0
 92
        0
 66
   257
 43
1.0
 76
     1
 77
     6
 78
     2
 67
     7
 79
     5
170
     0
171
     0
290
     0
174
     0
 93
       13
 44
0.0
173
     0
291
     1
 45
0.0
1001
ACAD
1000
AcDbSavedByObjectVersion
1070
     0
  0
VISUALSTYLE
  5
38
102
{ACAD_REACTORS
330
2A
102
}
102
{ACAD_XDICTIONARY
360
37A
102
}
330
2A
100
AcDbVisualStyle
  2
Linepattern
 70
    14
 71
     2
 72
     2
 73
     0
 90
        0
 40
-0.6
 41
-30.0
 62
     5
 63
     7
 74
     1
 91
        4
 64
     7
 65
   257
 75
     7
175
     7
 42
1.0
 92
        8
 66
     7
 43
1.0
 76
     1
 77
     6
 78
     2
 67
     7
 79
     5
170
     0
171
     0
290
     0
174
     0
 93
        1
 44
0.0
173
     0
291
     1
 45
0.0
1001
ACAD
1000
AcDbSavedByObjectVersion
1070
     0
  0
VISUALSTYLE
  5
33
102
{ACAD_REACTORS
330
2A
102
}
102
{ACAD_XDICTIONARY
360
370
102
}
330
2A
100
AcDbVisualStyle
  2
Realistic
 70
     8
 71
     2
 72
     2
 73
     0
 90
        0
 40
-0.6
 41
-30.0
 62
     5
 63
     7
 74
     1
 91
        0
 64
     7
 65
   257
 75
     1
175
     1
 42
1.0
 92
        8
 66
     8
 43
1.0
 76
     1
 77
     6
 78
     2
 67
     7
 79
     5
170
     0
171
     0
290
     0
174
     0
 93
       13
 44
0.0
173
     0
291
     0
 45
0.0
1001
ACAD
1000
AcDbSavedByObjectVersion
1070
     0
  0
VISUALSTYLE
  5
37
102
{ACAD_REACTORS
330
2A
102
}
102
{ACAD_XDICTIONARY
360
378
102
}
330
2A
100
AcDbVisualStyle
  2
Thicken
 70
    13
 71
     2
 72
     2
 73
     0
 90
        0
 40
-0.6
 41
-30.0
 62
     5
 63
     7
 74
     1
 91
        4
 64
     7
 65
   257
 75
     1
175
     1
 42
1.0
 92
       12
 66
     7
 43
1.0
 76
     1
 77
     6
 78
     2
 67
     7
 79
     5
170
     0
171
     0
290
     0
174
     0
 93
        1
 44
0.0
173
     0
291
     1
 45
0.0
1001
ACAD
1000
AcDbSavedByObjectVersion
1070
     0
  0
DICTIONARYVAR
  5
35E
102
{ACAD_REACTORS
330
35B
102
}
330
35B
100
DictionaryVariables
280
     0
  1
2
  0
DICTIONARYVAR
  5
35F
102
{ACAD_REACTORS
330
35B
102
}
330
35B
100
DictionaryVariables
280
     0
  1
1
  0
DICTIONARY
  5
382
330
3D
100
AcDbDictionary
280
     1
281
     1
  3
ACAD_XREC_ROUNDTRIP
360
383
  0
DICTIONARY
  5
380
330
3C
100
AcDbDictionary
280
     1
281
     1
  3
ACAD_XREC_ROUNDTRIP
360
381
  0
DICTIONARY
  5
384
330
3E
100
AcDbDictionary
280
     1
281
     1
  3
ACAD_XREC_ROUNDTRIP
360
385
  0
DICTIONARY
  5
368
330
2F
100
AcDbDictionary
280
     1
281
     1
  3
ACAD_XREC_ROUNDTRIP
360
369
  0
DICTIONARY
  5
36C
330
31
100
AcDbDictionary
280
     1
281
     1
  3
ACAD_XREC_ROUNDTRIP
360
36D
  0
DICTIONARY
  5
36A
330
30
100
AcDbDictionary
280
     1
281
     1
  3
ACAD_XREC_ROUNDTRIP
360
36B
  0
DICTIONARY
  5
36E
330
32
100
AcDbDictionary
280
     1
281
     1
  3
ACAD_XREC_ROUNDTRIP
360
36F
  0
DICTIONARY
  5
376
330
36
100
AcDbDictionary
280
     1
281
     1
  3
ACAD_XREC_ROUNDTRIP
360
377
  0
DICTIONARY
  5
37E
330
3A
100
AcDbDictionary
280
     1
281
     1
  3
ACAD_XREC_ROUNDTRIP
360
37F
  0
DICTIONARY
  5
372
330
34
100
AcDbDictionary
280
     1
281
     1
  3
ACAD_XREC_ROUNDTRIP
360
373
  0
DICTIONARY
  5
374
330
35
100
AcDbDictionary
280
     1
281
     1
  3
ACAD_XREC_ROUNDTRIP
360
375
  0
DICTIONARY
  5
37C
330
39
100
AcDbDictionary
280
     1
281
     1
  3
ACAD_XREC_ROUNDTRIP
360
37D
  0
DICTIONARY
  5
360
330
2B
100
AcDbDictionary
280
     1
281
     1
  3
ACAD_XREC_ROUNDTRIP
360
361
  0
DICTIONARY
  5
362
330
2C
100
AcDbDictionary
280
     1
281
     1
  3
ACAD_XREC_ROUNDTRIP
360
363
  0
DICTIONARY
  5
364
330
2D
100
AcDbDictionary
280
     1
281
     1
  3
ACAD_XREC_ROUNDTRIP
360
365
  0
DICTIONARY
  5
366
330
2E
100
AcDbDictionary
280
     1
281
     1
  3
ACAD_XREC_ROUNDTRIP
360
367
  0
DICTIONARY
  5
37A
330
38
100
AcDbDictionary
280
     1
281
     1
  3
ACAD_XREC_ROUNDTRIP
360
37B
  0
DICTIONARY
  5
370
330
33
100
AcDbDictionary
280
     1
281
     1
  3
ACAD_XREC_ROUNDTRIP
360
371
  0
DICTIONARY
  5
378
330
37
100
AcDbDictionary
280
     1
281
     1
  3
ACAD_XREC_ROUNDTRIP
360
379
  0
XRECORD
  5
383
102
{ACAD_REACTORS
330
382
102
}
330
382
100
AcDbXrecord
280
     1
102
MATERIAL
148
0.0
149
0.0
149
0.0
 93
        0
 94
      127
282
     0
 72
     1
 77
     1
171
     1
175
     1
179
     1
273
     0
  0
XRECORD
  5
381
102
{ACAD_REACTORS
330
380
102
}
330
380
100
AcDbXrecord
280
     1
102
MATERIAL
148
0.0
149
0.0
149
0.0
 93
        0
 94
      127
282
     0
 72
     1
 77
     1
171
     1
175
     1
179
     1
273
     0
  0
XRECORD
  5
385
102
{ACAD_REACTORS
330
384
102
}
330
384
100
AcDbXrecord
280
     1
102
MATERIAL
148
0.0
149
0.0
149
0.0
 93
        0
 94
      127
282
     0
 72
     1
 77
     1
171
     1
175
     1
179
     1
273
     0
  0
XRECORD
  5
369
102
{ACAD_REACTORS
330
368
102
}
330
368
100
AcDbXrecord
280
     1
102
RTVSPropertyOp0
 70
     1
102
RTVSPropertyOp1
 70
     1
102
RTVSPropertyOp2
 70
     1
102
RTVSPropertyOp3
 70
     1
102
RTVSPropertyOp4
 70
     1
102
RTVSPropertyOp5
 70
     1
102
RTVSPropertyOp6
 70
     1
102
RTVSPropertyOp7
 70
     1
102
RTVSPropertyOp8
 70
     1
102
RTVSPropertyOp9
 70
     1
102
RTVSPropertyOp10
 70
     1
102
RTVSPropertyOp11
 70
     1
102
RTVSPropertyOp12
 70
     1
102
RTVSPropertyOp13
 70
     1
102
RTVSPropertyOp14
 70
     1
102
RTVSPropertyOp15
 70
     1
102
RTVSPropertyOp16
 70
     1
102
RTVSPropertyOp17
 70
     1
102
RTVSPropertyOp18
 70
     1
102
RTVSPropertyOp19
 70
     1
102
RTVSPropertyOp20
 70
     1
102
RTVSPropertyOp21
 70
     1
102
RTVSPropertyOp22
 70
     1
102
RTVSPropertyOp23
 70
     1
102
RTVSPropertyOp24
 70
     1
102
RTVSPropertyOp25
 70
     1
102
RTVSPropertyOp26
 70
     1
102
RTVSPropertyOp27
 70
     1
102
RTVSPropertyOp28
 70
     1
102
RTVSPropertyOp29
 70
     1
102
RTVSPropertyOp30
 70
     1
102
RTVSPropertyOp31
 70
     1
102
RTVSPropertyOp32
 70
     1
  0
XRECORD
  5
36D
102
{ACAD_REACTORS
330
36C
102
}
330
36C
100
AcDbXrecord
280
     1
102
RTVSPropertyOp0
 70
     1
102
RTVSPropertyOp1
 70
     1
102
RTVSPropertyOp2
 70
     1
102
RTVSPropertyOp3
 70
     1
102
RTVSPropertyOp4
 70
     1
102
RTVSPropertyOp5
 70
     1
102
RTVSPropertyOp6
 70
     1
102
RTVSPropertyOp7
 70
     1
102
RTVSPropertyOp8
 70
     1
102
RTVSPropertyOp9
 70
     1
102
RTVSPropertyOp10
 70
     1
102
RTVSPropertyOp11
 70
     1
102
RTVSPropertyOp12
 70
     1
102
RTVSPropertyOp13
 70
     1
102
RTVSPropertyOp14
 70
     1
102
RTVSPropertyOp15
 70
     1
102
RTVSPropertyOp16
 70
     1
102
RTVSPropertyOp17
 70
     1
102
RTVSPropertyOp18
 70
     1
102
RTVSPropertyOp19
 70
     1
102
RTVSPropertyOp20
 70
     1
102
RTVSPropertyOp21
 70
     1
102
RTVSPropertyOp22
 70
     1
102
RTVSPropertyOp23
 70
     1
102
RTVSPropertyOp24
 70
     1
102
RTVSPropertyOp25
 70
     1
102
RTVSPropertyOp26
 70
     1
102
RTVSPropertyOp27
 70
     1
102
RTVSPropertyOp28
 70
     1
102
RTVSPropertyOp29
 70
     1
102
RTVSPropertyOp30
 70
     1
102
RTVSPropertyOp31
 70
     1
102
RTVSPropertyOp32
 70
     1
  0
XRECORD
  5
36B
102
{ACAD_REACTORS
330
36A
102
}
330
36A
100
AcDbXrecord
280
     1
102
RTVSPropertyOp0
 70
     1
102
RTVSPropertyOp1
 70
     1
102
RTVSPropertyOp2
 70
     1
102
RTVSPropertyOp3
 70
     1
102
RTVSPropertyOp4
 70
     1
102
RTVSPropertyOp5
 70
     1
102
RTVSPropertyOp6
 70
     1
102
RTVSPropertyOp7
 70
     1
102
RTVSPropertyOp8
 70
     1
102
RTVSPropertyOp9
 70
     1
102
RTVSPropertyOp10
 70
     1
102
RTVSPropertyOp11
 70
     1
102
RTVSPropertyOp12
 70
     1
102
RTVSPropertyOp13
 70
     1
102
RTVSPropertyOp14
 70
     1
102
RTVSPropertyOp15
 70
     1
102
RTVSPropertyOp16
 70
     1
102
RTVSPropertyOp17
 70
     1
102
RTVSPropertyOp18
 70
     1
102
RTVSPropertyOp19
 70
     1
102
RTVSPropertyOp20
 70
     1
102
RTVSPropertyOp21
 70
     1
102
RTVSPropertyOp22
 70
     1
102
RTVSPropertyOp23
 70
     1
102
RTVSPropertyOp24
 70
     1
102
RTVSPropertyOp25
 70
     1
102
RTVSPropertyOp26
 70
     1
102
RTVSPropertyOp27
 70
     1
102
RTVSPropertyOp28
 70
     1
102
RTVSPropertyOp29
 70
     1
102
RTVSPropertyOp30
 70
     1
102
RTVSPropertyOp31
 70
     1
102
RTVSPropertyOp32
 70
     1
  0
XRECORD
  5
36F
102
{ACAD_REACTORS
330
36E
102
}
330
36E
100
AcDbXrecord
280
     1
102
RTVSPropertyOp0
 70
     1
102
RTVSPropertyOp1
 70
     1
102
RTVSPropertyOp2
 70
     1
102
RTVSPropertyOp3
 70
     1
102
RTVSPropertyOp4
 70
     1
102
RTVSPropertyOp5
 70
     1
102
RTVSPropertyOp6
 70
     1
102
RTVSPropertyOp7
 70
     1
102
RTVSPropertyOp8
 70
     1
102
RTVSPropertyOp9
 70
     1
102
RTVSPropertyOp10
 70
     1
102
RTVSPropertyOp11
 70
     1
102
RTVSPropertyOp12
 70
     1
102
RTVSPropertyOp13
 70
     1
102
RTVSPropertyOp14
 70
     1
102
RTVSPropertyOp15
 70
     1
102
RTVSPropertyOp16
 70
     1
102
RTVSPropertyOp17
 70
     1
102
RTVSPropertyOp18
 70
     1
102
RTVSPropertyOp19
 70
     1
102
RTVSPropertyOp20
 70
     1
102
RTVSPropertyOp21
 70
     1
102
RTVSPropertyOp22
 70
     1
102
RTVSPropertyOp23
 70
     1
102
RTVSPropertyOp24
 70
     1
102
RTVSPropertyOp25
 70
     1
102
RTVSPropertyOp26
 70
     1
102
RTVSPropertyOp27
 70
     1
102
RTVSPropertyOp28
 70
     1
102
RTVSPropertyOp29
 70
     1
102
RTVSPropertyOp30
 70
     1
102
RTVSPropertyOp31
 70
     1
102
RTVSPropertyOp32
 70
     1
  0
XRECORD
  5
377
102
{ACAD_REACTORS
330
376
102
}
330
376
100
AcDbXrecord
280
     1
102
RTVSPropertyOp0
 70
     1
102
RTVSPropertyOp1
 70
     1
102
RTVSPropertyOp2
 70
     1
102
RTVSPropertyOp3
 70
     1
102
RTVSPropertyOp4
 70
     1
102
RTVSPropertyOp5
 70
     1
102
RTVSPropertyOp6
 70
     1
102
RTVSPropertyOp7
 70
     1
102
RTVSPropertyOp8
 70
     1
102
RTVSPropertyOp9
 70
     1
102
RTVSPropertyOp10
 70
     1
102
RTVSPropertyOp11
 70
     1
102
RTVSPropertyOp12
 70
     1
102
RTVSPropertyOp13
 70
     1
102
RTVSPropertyOp14
 70
     1
102
RTVSPropertyOp15
 70
     1
102
RTVSPropertyOp16
 70
     1
102
RTVSPropertyOp17
 70
     1
102
RTVSPropertyOp18
 70
     1
102
RTVSPropertyOp19
 70
     1
102
RTVSPropertyOp20
 70
     1
102
RTVSPropertyOp21
 70
     1
102
RTVSPropertyOp22
 70
     1
102
RTVSPropertyOp23
 70
     1
102
RTVSPropertyOp24
 70
     1
102
RTVSPropertyOp25
 70
     1
102
RTVSPropertyOp26
 70
     1
102
RTVSPropertyOp27
 70
     1
102
RTVSPropertyOp28
 70
     1
102
RTVSPropertyOp29
 70
     1
102
RTVSPropertyOp30
 70
     1
102
RTVSPropertyOp31
 70
     1
102
RTVSPropertyOp32
 70
     1
  0
XRECORD
  5
37F
102
{ACAD_REACTORS
330
37E
102
}
330
37E
100
AcDbXrecord
280
     1
102
RTVSPropertyOp0
 70
     1
102
RTVSPropertyOp1
 70
     1
102
RTVSPropertyOp2
 70
     1
102
RTVSPropertyOp3
 70
     1
102
RTVSPropertyOp4
 70
     1
102
RTVSPropertyOp5
 70
     1
102
RTVSPropertyOp6
 70
     1
102
RTVSPropertyOp7
 70
     1
102
RTVSPropertyOp8
 70
     1
102
RTVSPropertyOp9
 70
     1
102
RTVSPropertyOp10
 70
     1
102
RTVSPropertyOp11
 70
     1
102
RTVSPropertyOp12
 70
     1
102
RTVSPropertyOp13
 70
     1
102
RTVSPropertyOp14
 70
     1
102
RTVSPropertyOp15
 70
     1
102
RTVSPropertyOp16
 70
     1
102
RTVSPropertyOp17
 70
     1
102
RTVSPropertyOp18
 70
     1
102
RTVSPropertyOp19
 70
     1
102
RTVSPropertyOp20
 70
     1
102
RTVSPropertyOp21
 70
     1
102
RTVSPropertyOp22
 70
     1
102
RTVSPropertyOp23
 70
     1
102
RTVSPropertyOp24
 70
     1
102
RTVSPropertyOp25
 70
     1
102
RTVSPropertyOp26
 70
     1
102
RTVSPropertyOp27
 70
     1
102
RTVSPropertyOp28
 70
     1
102
RTVSPropertyOp29
 70
     1
102
RTVSPropertyOp30
 70
     1
102
RTVSPropertyOp31
 70
     1
102
RTVSPropertyOp32
 70
     1
  0
XRECORD
  5
373
102
{ACAD_REACTORS
330
372
102
}
330
372
100
AcDbXrecord
280
     1
102
RTVSPropertyOp0
 70
     1
102
RTVSPropertyOp1
 70
     1
102
RTVSPropertyOp2
 70
     1
102
RTVSPropertyOp3
 70
     1
102
RTVSPropertyOp4
 70
     1
102
RTVSPropertyOp5
 70
     1
102
RTVSPropertyOp6
 70
     1
102
RTVSPropertyOp7
 70
     1
102
RTVSPropertyOp8
 70
     1
102
RTVSPropertyOp9
 70
     1
102
RTVSPropertyOp10
 70
     1
102
RTVSPropertyOp11
 70
     1
102
RTVSPropertyOp12
 70
     1
102
RTVSPropertyOp13
 70
     1
102
RTVSPropertyOp14
 70
     1
102
RTVSPropertyOp15
 70
     1
102
RTVSPropertyOp16
 70
     1
102
RTVSPropertyOp17
 70
     1
102
RTVSPropertyOp18
 70
     1
102
RTVSPropertyOp19
 70
     1
102
RTVSPropertyOp20
 70
     1
102
RTVSPropertyOp21
 70
     1
102
RTVSPropertyOp22
 70
     1
102
RTVSPropertyOp23
 70
     1
102
RTVSPropertyOp24
 70
     1
102
RTVSPropertyOp25
 70
     1
102
RTVSPropertyOp26
 70
     1
102
RTVSPropertyOp27
 70
     1
102
RTVSPropertyOp28
 70
     1
102
RTVSPropertyOp29
 70
     1
102
RTVSPropertyOp30
 70
     1
102
RTVSPropertyOp31
 70
     1
102
RTVSPropertyOp32
 70
     1
  0
XRECORD
  5
375
102
{ACAD_REACTORS
330
374
102
}
330
374
100
AcDbXrecord
280
     1
102
RTVSPropertyOp0
 70
     1
102
RTVSPropertyOp1
 70
     1
102
RTVSPropertyOp2
 70
     1
102
RTVSPropertyOp3
 70
     1
102
RTVSPropertyOp4
 70
     1
102
RTVSPropertyOp5
 70
     1
102
RTVSPropertyOp6
 70
     1
102
RTVSPropertyOp7
 70
     1
102
RTVSPropertyOp8
 70
     1
102
RTVSPropertyOp9
 70
     1
102
RTVSPropertyOp10
 70
     1
102
RTVSPropertyOp11
 70
     1
102
RTVSPropertyOp12
 70
     1
102
RTVSPropertyOp13
 70
     1
102
RTVSPropertyOp14
 70
     1
102
RTVSPropertyOp15
 70
     1
102
RTVSPropertyOp16
 70
     1
102
RTVSPropertyOp17
 70
     1
102
RTVSPropertyOp18
 70
     1
102
RTVSPropertyOp19
 70
     1
102
RTVSPropertyOp20
 70
     1
102
RTVSPropertyOp21
 70
     1
102
RTVSPropertyOp22
 70
     1
102
RTVSPropertyOp23
 70
     1
102
RTVSPropertyOp24
 70
     1
102
RTVSPropertyOp25
 70
     1
102
RTVSPropertyOp26
 70
     1
102
RTVSPropertyOp27
 70
     1
102
RTVSPropertyOp28
 70
     1
102
RTVSPropertyOp29
 70
     1
102
RTVSPropertyOp30
 70
     1
102
RTVSPropertyOp31
 70
     1
102
RTVSPropertyOp32
 70
     1
  0
XRECORD
  5
37D
102
{ACAD_REACTORS
330
37C
102
}
330
37C
100
AcDbXrecord
280
     1
102
RTVSPropertyOp0
 70
     1
102
RTVSPropertyOp1
 70
     1
102
RTVSPropertyOp2
 70
     1
102
RTVSPropertyOp3
 70
     1
102
RTVSPropertyOp4
 70
     1
102
RTVSPropertyOp5
 70
     1
102
RTVSPropertyOp6
 70
     1
102
RTVSPropertyOp7
 70
     1
102
RTVSPropertyOp8
 70
     1
102
RTVSPropertyOp9
 70
     1
102
RTVSPropertyOp10
 70
     1
102
RTVSPropertyOp11
 70
     1
102
RTVSPropertyOp12
 70
     1
102
RTVSPropertyOp13
 70
     1
102
RTVSPropertyOp14
 70
     1
102
RTVSPropertyOp15
 70
     1
102
RTVSPropertyOp16
 70
     1
102
RTVSPropertyOp17
 70
     1
102
RTVSPropertyOp18
 70
     1
102
RTVSPropertyOp19
 70
     1
102
RTVSPropertyOp20
 70
     1
102
RTVSPropertyOp21
 70
     1
102
RTVSPropertyOp22
 70
     1
102
RTVSPropertyOp23
 70
     1
102
RTVSPropertyOp24
 70
     1
102
RTVSPropertyOp25
 70
     1
102
RTVSPropertyOp26
 70
     1
102
RTVSPropertyOp27
 70
     1
102
RTVSPropertyOp28
 70
     1
102
RTVSPropertyOp29
 70
     1
102
RTVSPropertyOp30
 70
     1
102
RTVSPropertyOp31
 70
     1
102
RTVSPropertyOp32
 70
     1
  0
XRECORD
  5
361
102
{ACAD_REACTORS
330
360
102
}
330
360
100
AcDbXrecord
280
     1
102
RTVSPropertyOp0
 70
     1
102
RTVSPropertyOp1
 70
     1
102
RTVSPropertyOp2
 70
     1
102
RTVSPropertyOp3
 70
     1
102
RTVSPropertyOp4
 70
     1
102
RTVSPropertyOp5
 70
     1
102
RTVSPropertyOp6
 70
     1
102
RTVSPropertyOp7
 70
     1
102
RTVSPropertyOp8
 70
     1
102
RTVSPropertyOp9
 70
     1
102
RTVSPropertyOp10
 70
     1
102
RTVSPropertyOp11
 70
     1
102
RTVSPropertyOp12
 70
     1
102
RTVSPropertyOp13
 70
     1
102
RTVSPropertyOp14
 70
     1
102
RTVSPropertyOp15
 70
     1
102
RTVSPropertyOp16
 70
     1
102
RTVSPropertyOp17
 70
     1
102
RTVSPropertyOp18
 70
     1
102
RTVSPropertyOp19
 70
     1
102
RTVSPropertyOp20
 70
     1
102
RTVSPropertyOp21
 70
     1
102
RTVSPropertyOp22
 70
     1
102
RTVSPropertyOp23
 70
     1
102
RTVSPropertyOp24
 70
     1
102
RTVSPropertyOp25
 70
     1
102
RTVSPropertyOp26
 70
     1
102
RTVSPropertyOp27
 70
     1
102
RTVSPropertyOp28
 70
     1
102
RTVSPropertyOp29
 70
     1
102
RTVSPropertyOp30
 70
     1
102
RTVSPropertyOp31
 70
     1
102
RTVSPropertyOp32
 70
     1
  0
XRECORD
  5
363
102
{ACAD_REACTORS
330
362
102
}
330
362
100
AcDbXrecord
280
     1
102
RTVSPropertyOp0
 70
     1
102
RTVSPropertyOp1
 70
     1
102
RTVSPropertyOp2
 70
     1
102
RTVSPropertyOp3
 70
     1
102
RTVSPropertyOp4
 70
     1
102
RTVSPropertyOp5
 70
     1
102
RTVSPropertyOp6
 70
     1
102
RTVSPropertyOp7
 70
     1
102
RTVSPropertyOp8
 70
     1
102
RTVSPropertyOp9
 70
     1
102
RTVSPropertyOp10
 70
     1
102
RTVSPropertyOp11
 70
     1
102
RTVSPropertyOp12
 70
     1
102
RTVSPropertyOp13
 70
     1
102
RTVSPropertyOp14
 70
     1
102
RTVSPropertyOp15
 70
     1
102
RTVSPropertyOp16
 70
     1
102
RTVSPropertyOp17
 70
     1
102
RTVSPropertyOp18
 70
     1
102
RTVSPropertyOp19
 70
     1
102
RTVSPropertyOp20
 70
     1
102
RTVSPropertyOp21
 70
     1
102
RTVSPropertyOp22
 70
     1
102
RTVSPropertyOp23
 70
     1
102
RTVSPropertyOp24
 70
     1
102
RTVSPropertyOp25
 70
     1
102
RTVSPropertyOp26
 70
     1
102
RTVSPropertyOp27
 70
     1
102
RTVSPropertyOp28
 70
     1
102
RTVSPropertyOp29
 70
     1
102
RTVSPropertyOp30
 70
     1
102
RTVSPropertyOp31
 70
     1
102
RTVSPropertyOp32
 70
     1
  0
XRECORD
  5
365
102
{ACAD_REACTORS
330
364
102
}
330
364
100
AcDbXrecord
280
     1
102
RTVSPropertyOp0
 70
     1
102
RTVSPropertyOp1
 70
     1
102
RTVSPropertyOp2
 70
     1
102
RTVSPropertyOp3
 70
     1
102
RTVSPropertyOp4
 70
     1
102
RTVSPropertyOp5
 70
     1
102
RTVSPropertyOp6
 70
     1
102
RTVSPropertyOp7
 70
     1
102
RTVSPropertyOp8
 70
     1
102
RTVSPropertyOp9
 70
     1
102
RTVSPropertyOp10
 70
     1
102
RTVSPropertyOp11
 70
     1
102
RTVSPropertyOp12
 70
     1
102
RTVSPropertyOp13
 70
     1
102
RTVSPropertyOp14
 70
     1
102
RTVSPropertyOp15
 70
     1
102
RTVSPropertyOp16
 70
     1
102
RTVSPropertyOp17
 70
     1
102
RTVSPropertyOp18
 70
     1
102
RTVSPropertyOp19
 70
     1
102
RTVSPropertyOp20
 70
     1
102
RTVSPropertyOp21
 70
     1
102
RTVSPropertyOp22
 70
     1
102
RTVSPropertyOp23
 70
     1
102
RTVSPropertyOp24
 70
     1
102
RTVSPropertyOp25
 70
     1
102
RTVSPropertyOp26
 70
     1
102
RTVSPropertyOp27
 70
     1
102
RTVSPropertyOp28
 70
     1
102
RTVSPropertyOp29
 70
     1
102
RTVSPropertyOp30
 70
     1
102
RTVSPropertyOp31
 70
     1
102
RTVSPropertyOp32
 70
     1
  0
XRECORD
  5
367
102
{ACAD_REACTORS
330
366
102
}
330
366
100
AcDbXrecord
280
     1
102
RTVSPropertyOp0
 70
     1
102
RTVSPropertyOp1
 70
     1
102
RTVSPropertyOp2
 70
     1
102
RTVSPropertyOp3
 70
     1
102
RTVSPropertyOp4
 70
     1
102
RTVSPropertyOp5
 70
     1
102
RTVSPropertyOp6
 70
     1
102
RTVSPropertyOp7
 70
     1
102
RTVSPropertyOp8
 70
     1
102
RTVSPropertyOp9
 70
     1
102
RTVSPropertyOp10
 70
     1
102
RTVSPropertyOp11
 70
     1
102
RTVSPropertyOp12
 70
     1
102
RTVSPropertyOp13
 70
     1
102
RTVSPropertyOp14
 70
     1
102
RTVSPropertyOp15
 70
     1
102
RTVSPropertyOp16
 70
     1
102
RTVSPropertyOp17
 70
     1
102
RTVSPropertyOp18
 70
     1
102
RTVSPropertyOp19
 70
     1
102
RTVSPropertyOp20
 70
     1
102
RTVSPropertyOp21
 70
     1
102
RTVSPropertyOp22
 70
     1
102
RTVSPropertyOp23
 70
     1
102
RTVSPropertyOp24
 70
     1
102
RTVSPropertyOp25
 70
     1
102
RTVSPropertyOp26
 70
     1
102
RTVSPropertyOp27
 70
     1
102
RTVSPropertyOp28
 70
     1
102
RTVSPropertyOp29
 70
     1
102
RTVSPropertyOp30
 70
     1
102
RTVSPropertyOp31
 70
     1
102
RTVSPropertyOp32
 70
     1
  0
XRECORD
  5
37B
102
{ACAD_REACTORS
330
37A
102
}
330
37A
100
AcDbXrecord
280
     1
102
RTVSPropertyOp0
 70
     1
102
RTVSPropertyOp1
 70
     1
102
RTVSPropertyOp2
 70
     1
102
RTVSPropertyOp3
 70
     1
102
RTVSPropertyOp4
 70
     1
102
RTVSPropertyOp5
 70
     1
102
RTVSPropertyOp6
 70
     1
102
RTVSPropertyOp7
 70
     1
102
RTVSPropertyOp8
 70
     1
102
RTVSPropertyOp9
 70
     1
102
RTVSPropertyOp10
 70
     1
102
RTVSPropertyOp11
 70
     1
102
RTVSPropertyOp12
 70
     1
102
RTVSPropertyOp13
 70
     1
102
RTVSPropertyOp14
 70
     1
102
RTVSPropertyOp15
 70
     1
102
RTVSPropertyOp16
 70
     1
102
RTVSPropertyOp17
 70
     1
102
RTVSPropertyOp18
 70
     1
102
RTVSPropertyOp19
 70
     1
102
RTVSPropertyOp20
 70
     1
102
RTVSPropertyOp21
 70
     1
102
RTVSPropertyOp22
 70
     1
102
RTVSPropertyOp23
 70
     1
102
RTVSPropertyOp24
 70
     1
102
RTVSPropertyOp25
 70
     1
102
RTVSPropertyOp26
 70
     1
102
RTVSPropertyOp27
 70
     1
102
RTVSPropertyOp28
 70
     1
102
RTVSPropertyOp29
 70
     1
102
RTVSPropertyOp30
 70
     1
102
RTVSPropertyOp31
 70
     1
102
RTVSPropertyOp32
 70
     1
  0
XRECORD
  5
371
102
{ACAD_REACTORS
330
370
102
}
330
370
100
AcDbXrecord
280
     1
102
RTVSPropertyOp0
 70
     1
102
RTVSPropertyOp1
 70
     1
102
RTVSPropertyOp2
 70
     1
102
RTVSPropertyOp3
 70
     1
102
RTVSPropertyOp4
 70
     1
102
RTVSPropertyOp5
 70
     1
102
RTVSPropertyOp6
 70
     1
102
RTVSPropertyOp7
 70
     1
102
RTVSPropertyOp8
 70
     1
102
RTVSPropertyOp9
 70
     1
102
RTVSPropertyOp10
 70
     1
102
RTVSPropertyOp11
 70
     1
102
RTVSPropertyOp12
 70
     1
102
RTVSPropertyOp13
 70
     1
102
RTVSPropertyOp14
 70
     1
102
RTVSPropertyOp15
 70
     1
102
RTVSPropertyOp16
 70
     1
102
RTVSPropertyOp17
 70
     1
102
RTVSPropertyOp18
 70
     1
102
RTVSPropertyOp19
 70
     1
102
RTVSPropertyOp20
 70
     1
102
RTVSPropertyOp21
 70
     1
102
RTVSPropertyOp22
 70
     1
102
RTVSPropertyOp23
 70
     1
102
RTVSPropertyOp24
 70
     1
102
RTVSPropertyOp25
 70
     1
102
RTVSPropertyOp26
 70
     1
102
RTVSPropertyOp27
 70
     1
102
RTVSPropertyOp28
 70
     1
102
RTVSPropertyOp29
 70
     1
102
RTVSPropertyOp30
 70
     1
102
RTVSPropertyOp31
 70
     1
102
RTVSPropertyOp32
 70
     1
  0
XRECORD
  5
379
102
{ACAD_REACTORS
330
378
102
}
330
378
100
AcDbXrecord
280
     1
102
RTVSPropertyOp0
 70
     1
102
RTVSPropertyOp1
 70
     1
102
RTVSPropertyOp2
 70
     1
102
RTVSPropertyOp3
 70
     1
102
RTVSPropertyOp4
 70
     1
102
RTVSPropertyOp5
 70
     1
102
RTVSPropertyOp6
 70
     1
102
RTVSPropertyOp7
 70
     1
102
RTVSPropertyOp8
 70
     1
102
RTVSPropertyOp9
 70
     1
102
RTVSPropertyOp10
 70
     1
102
RTVSPropertyOp11
 70
     1
102
RTVSPropertyOp12
 70
     1
102
RTVSPropertyOp13
 70
     1
102
RTVSPropertyOp14
 70
     1
102
RTVSPropertyOp15
 70
     1
102
RTVSPropertyOp16
 70
     1
102
RTVSPropertyOp17
 70
     1
102
RTVSPropertyOp18
 70
     1
102
RTVSPropertyOp19
 70
     1
102
RTVSPropertyOp20
 70
     1
102
RTVSPropertyOp21
 70
     1
102
RTVSPropertyOp22
 70
     1
102
RTVSPropertyOp23
 70
     1
102
RTVSPropertyOp24
 70
     1
102
RTVSPropertyOp25
 70
     1
102
RTVSPropertyOp26
 70
     1
102
RTVSPropertyOp27
 70
     1
102
RTVSPropertyOp28
 70
     1
102
RTVSPropertyOp29
 70
     1
102
RTVSPropertyOp30
 70
     1
102
RTVSPropertyOp31
 70
     1
102
RTVSPropertyOp32
 70
     1
  0
ENDSEC
  0
EOF
