  0
SECTION
  2
HEADER
  9
$ACADVER
  1
AC1015
  9
$ACADMAINTVER
 70
     6
  9
$DWGCODEPAGE
  3
ANSI_1252
  9
$INSBASE
 10
0.0
 20
0.0
 30
0.0
  9
$EXTMIN
 10
-222.6000410148957
 20
-0.10437832631402
 30
0.0
  9
$EXTMAX
 10
74.39995898510244
 20
209.895621673686
 30
0.0
  9
$LIMMIN
 10
0.0
 20
0.0
  9
$LIMMAX
 10
12.0
 20
9.0
  9
$ORTHOMODE
 70
     0
  9
$REGENMODE
 70
     1
  9
$FILLMODE
 70
     1
  9
$QTEXTMODE
 70
     0
  9
$MIRRTEXT
 70
     1
  9
$LTSCALE
 40
1.0
  9
$ATTMODE
 70
     1
  9
$TEXTSIZE
 40
0.2
  9
$TRACEWID
 40
0.05
  9
$TEXTSTYLE
  7
Standard
  9
$CLAYER
  8
0
  9
$CELTYPE
  6
ByLayer
  9
$CECOLOR
 62
   256
  9
$CELTSCALE
 40
1.0
  9
$DISPSILH
 70
     0
  9
$DIMSCALE
 40
1.0
  9
$DIMASZ
 40
0.18
  9
$DIMEXO
 40
0.0625
  9
$DIMDLI
 40
0.38
  9
$DIMRND
 40
0.0
  9
$DIMDLE
 40
0.0
  9
$DIMEXE
 40
0.18
  9
$DIMTP
 40
0.0
  9
$DIMTM
 40
0.0
  9
$DIMTXT
 40
0.18
  9
$DIMCEN
 40
0.09
  9
$DIMTSZ
 40
0.0
  9
$DIMTOL
 70
     0
  9
$DIMLIM
 70
     0
  9
$DIMTIH
 70
     1
  9
$DIMTOH
 70
     1
  9
$DIMSE1
 70
     0
  9
$DIMSE2
 70
     0
  9
$DIMTAD
 70
     0
  9
$DIMZIN
 70
     0
  9
$DIMBLK
  1

  9
$DIMASO
 70
     1
  9
$DIMSHO
 70
     1
  9
$DIMPOST
  1

  9
$DIMAPOST
  1

  9
$DIMALT
 70
     0
  9
$DIMALTD
 70
     2
  9
$DIMALTF
 40
25.4
  9
$DIMLFAC
 40
1.0
  9
$DIMTOFL
 70
     0
  9
$DIMTVP
 40
0.0
  9
$DIMTIX
 70
     0
  9
$DIMSOXD
 70
     0
  9
$DIMSAH
 70
     0
  9
$DIMBLK1
  1

  9
$DIMBLK2
  1

  9
$DIMSTYLE
  2
Standard
  9
$DIMCLRD
 70
     0
  9
$DIMCLRE
 70
     0
  9
$DIMCLRT
 70
     0
  9
$DIMTFAC
 40
1.0
  9
$DIMGAP
 40
0.09
  9
$DIMJUST
 70
     0
  9
$DIMSD1
 70
     0
  9
$DIMSD2
 70
     0
  9
$DIMTOLJ
 70
     1
  9
$DIMTZIN
 70
     0
  9
$DIMALTZ
 70
     0
  9
$DIMALTTZ
 70
     0
  9
$DIMUPT
 70
     0
  9
$DIMDEC
 70
     4
  9
$DIMTDEC
 70
     4
  9
$DIMALTU
 70
     2
  9
$DIMALTTD
 70
     2
  9
$DIMTXSTY
  7
Standard
  9
$DIMAUNIT
 70
     0
  9
$DIMADEC
 70
     0
  9
$DIMALTRND
 40
0.0
  9
$DIMAZIN
 70
     0
  9
$DIMDSEP
 70
    46
  9
$DIMATFIT
 70
     3
  9
$DIMFRAC
 70
     0
  9
$DIMLDRBLK
  1

  9
$DIMLUNIT
 70
     2
  9
$DIMLWD
 70
    -2
  9
$DIMLWE
 70
    -2
  9
$DIMTMOVE
 70
     0
  9
$LUNITS
 70
     2
  9
$LUPREC
 70
     4
  9
$SKETCHINC
 40
0.1
  9
$FILLETRAD
 40
0.5
  9
$AUNITS
 70
     0
  9
$AUPREC
 70
     0
  9
$MENU
  1
.
  9
$ELEVATION
 40
0.0
  9
$PELEVATION
 40
0.0
  9
$THICKNESS
 40
0.0
  9
$LIMCHECK
 70
     0
  9
$CHAMFERA
 40
0.5
  9
$CHAMFERB
 40
0.5
  9
$CHAMFERC
 40
1.0
  9
$CHAMFERD
 40
0.0
  9
$SKPOLY
 70
     0
  9
$TDCREATE
 40
2456723.569276933
  9
$TDUCREATE
 40
2456723.527610266
  9
$TDUPDATE
 40
2456723.569278576
  9
$TDUUPDATE
 40
2456723.52761191
  9
$TDINDWG
 40
0.0000000116
  9
$TDUSRTIMER
 40
0.0000000116
  9
$USRTIMER
 70
     1
  9
$ANGBASE
 50
0.0
  9
$ANGDIR
 70
     0
  9
$PDMODE
 70
     0
  9
$PDSIZE
 40
0.0
  9
$PLINEWID
 40
0.0
  9
$SPLFRAME
 70
     0
  9
$SPLINETYPE
 70
     6
  9
$SPLINESEGS
 70
     8
  9
$HANDSEED
  5
38E
  9
$SURFTAB1
 70
     6
  9
$SURFTAB2
 70
     6
  9
$SURFTYPE
 70
     6
  9
$SURFU
 70
     6
  9
$SURFV
 70
     6
  9
$UCSBASE
  2

  9
$UCSNAME
  2

  9
$UCSORG
 10
0.0
 20
0.0
 30
0.0
  9
$UCSXDIR
 10
1.0
 20
0.0
 30
0.0
  9
$UCSYDIR
 10
0.0
 20
1.0
 30
0.0
  9
$UCSORTHOREF
  2

  9
$UCSORTHOVIEW
 70
     0
  9
$UCSORGTOP
 10
0.0
 20
0.0
 30
0.0
  9
$UCSORGBOTTOM
 10
0.0
 20
0.0
 30
0.0
  9
$UCSORGLEFT
 10
0.0
 20
0.0
 30
0.0
  9
$UCSORGRIGHT
 10
0.0
 20
0.0
 30
0.0
  9
$UCSORGFRONT
 10
0.0
 20
0.0
 30
0.0
  9
$UCSORGBACK
 10
0.0
 20
0.0
 30
0.0
  9
$PUCSBASE
  2

  9
$PUCSNAME
  2

  9
$PUCSORG
 10
0.0
 20
0.0
 30
0.0
  9
$PUCSXDIR
 10
1.0
 20
0.0
 30
0.0
  9
$PUCSYDIR
 10
0.0
 20
1.0
 30
0.0
  9
$PUCSORTHOREF
  2

  9
$PUCSORTHOVIEW
 70
     0
  9
$PUCSORGTOP
 10
0.0
 20
0.0
 30
0.0
  9
$PUCSORGBOTTOM
 10
0.0
 20
0.0
 30
0.0
  9
$PUCSORGLEFT
 10
0.0
 20
0.0
 30
0.0
  9
$PUCSORGRIGHT
 10
0.0
 20
0.0
 30
0.0
  9
$PUCSORGFRONT
 10
0.0
 20
0.0
 30
0.0
  9
$PUCSORGBACK
 10
0.0
 20
0.0
 30
0.0
  9
$USERI1
 70
     0
  9
$USERI2
 70
     0
  9
$USERI3
 70
     0
  9
$USERI4
 70
     0
  9
$USERI5
 70
     0
  9
$USERR1
 40
18.1
  9
$USERR2
 40
0.0
  9
$USERR3
 40
0.0
  9
$USERR4
 40
0.0
  9
$USERR5
 40
0.0
  9
$WORLDVIEW
 70
     1
  9
$SHADEDGE
 70
     3
  9
$SHADEDIF
 70
    70
  9
$TILEMODE
 70
     1
  9
$MAXACTVP
 70
    64
  9
$PINSBASE
 10
0.0
 20
0.0
 30
0.0
  9
$PLIMCHECK
 70
     0
  9
$PEXTMIN
 10
1.00000000000000E+20
 20
1.00000000000000E+20
 30
1.00000000000000E+20
  9
$PEXTMAX
 10
-1.00000000000000E+20
 20
-1.00000000000000E+20
 30
-1.00000000000000E+20
  9
$PLIMMIN
 10
0.0
 20
0.0
  9
$PLIMMAX
 10
12.0
 20
9.0
  9
$UNITMODE
 70
     0
  9
$VISRETAIN
 70
     1
  9
$PLINEGEN
 70
     0
  9
$PSLTSCALE
 70
     1
  9
$TREEDEPTH
 70
  3020
  9
$CMLSTYLE
  2
Standard
  9
$CMLJUST
 70
     0
  9
$CMLSCALE
 40
1.0
  9
$PROXYGRAPHICS
 70
     1
  9
$MEASUREMENT
 70
     1
  9
$CELWEIGHT
370
    -1
  9
$ENDCAPS
280
     0
  9
$JOINSTYLE
280
     0
  9
$LWDISPLAY
290
     0
  9
$INSUNITS
 70
     4
  9
$HYPERLINKBASE
  1

  9
$STYLESHEET
  1

  9
$XEDIT
290
     1
  9
$CEPSNTYPE
380
     0
  9
$PSTYLEMODE
290
     1
  9
$FINGERPRINTGUID
  2
{84320723-252B-4662-B5BE-8E7FC5E0C0F3}
  9
$VERSIONGUID
  2
{FAEB1C32-E019-11D5-929B-00C0DF256EC4}
  9
$EXTNAMES
290
     1
  9
$PSVPSCALE
 40
0.0
  9
$OLESTARTUP
290
     0
  0
ENDSEC
  0
SECTION
  2
CLASSES
  0
CLASS
  1
ACDBDICTIONARYWDFLT
  2
AcDbDictionaryWithDefault
  3
ObjectDBX Classes
 90
        0
280
     0
281
     0
  0
CLASS
  1
VISUALSTYLE
  2
AcDbVisualStyle
  3
ObjectDBX Classes
 90
     4095
280
     0
281
     0
  0
CLASS
  1
MATERIAL
  2
AcDbMaterial
  3
ObjectDBX Classes
 90
     1153
280
     0
281
     0
  0
CLASS
  1
DICTIONARYVAR
  2
AcDbDictionaryVar
  3
ObjectDBX Classes
 90
        0
280
     0
281
     0
  0
CLASS
  1
ACDBPLACEHOLDER
  2
AcDbPlaceHolder
  3
ObjectDBX Classes
 90
        0
280
     0
281
     0
  0
CLASS
  1
LAYOUT
  2
AcDbLayout
  3
ObjectDBX Classes
 90
        0
280
     0
281
     0
  0
ENDSEC
  0
SECTION
  2
TABLES
  0
TABLE
  2
VPORT
  5
8
330
0
100
AcDbSymbolTable
 70
     1
  0
VPORT
  5
29
330
8
100
AcDbSymbolTableRecord
100
AcDbViewportTableRecord
  2
*Active
 70
     0
 10
0.0
 20
0.0
 11
1.0
 21
1.0
 12
-74.10004101489663
 22
104.895621673686
 13
0.0
 23
0.0
 14
0.5
 24
0.5
 15
0.5
 25
0.5
 16
0.0
 26
0.0
 36
1.0
 17
0.0
 27
0.0
 37
0.0
 40
231.0000000000001
 41
1.60267857142857
 42
50.0
 43
0.0
 44
0.0
 50
0.0
 51
0.0
 71
     0
 72
   100
 73
     1
 74
     3
 75
     0
 76
     0
 77
     0
 78
     0
281
     0
 65
     1
110
0.0
120
0.0
130
0.0
111
1.0
121
0.0
131
0.0
112
0.0
122
1.0
132
0.0
 79
     0
146
0.0
  0
ENDTAB
  0
TABLE
  2
LTYPE
  5
5
330
0
100
AcDbSymbolTable
 70
     8
  0
LTYPE
  5
14
330
5
100
AcDbSymbolTableRecord
100
AcDbLinetypeTableRecord
  2
ByBlock
 70
     0
  3

 72
    65
 73
     0
 40
0.0
  0
LTYPE
  5
15
330
5
100
AcDbSymbolTableRecord
100
AcDbLinetypeTableRecord
  2
ByLayer
 70
     0
  3

 72
    65
 73
     0
 40
0.0
  0
LTYPE
  5
16
330
5
100
AcDbSymbolTableRecord
100
AcDbLinetypeTableRecord
  2
Continuous
 70
     0
  3
Solid line
 72
    65
 73
     0
 40
0.0
  0
LTYPE
  5
3F
330
5
100
AcDbSymbolTableRecord
100
AcDbLinetypeTableRecord
  2
DASHED
 70
     0
  3
Dashed
 72
    65
 73
     2
 40
15.0
 49
7.0
 74
     0
 49
-8.0
 74
     0
  0
LTYPE
  5
40
330
5
100
AcDbSymbolTableRecord
100
AcDbLinetypeTableRecord
  2
DOTTED
 70
     0
  3
Dotted
 72
    65
 73
     2
 40
1.0
 49
0.0
 74
     0
 49
-1.0
 74
     0
  0
LTYPE
  5
41
330
5
100
AcDbSymbolTableRecord
100
AcDbLinetypeTableRecord
  2
DOT_CENTER
 70
     0
  3
Dot_Center
 72
    65
 73
     4
 40
14.0
 49
12.0
 74
     0
 49
-1.0
 74
     0
 49
0.0
 74
     0
 49
-1.0
 74
     0
  0
LTYPE
  5
42
330
5
100
AcDbSymbolTableRecord
100
AcDbLinetypeTableRecord
  2
LONG_DASHED
 70
     0
  3
Long_Dashed
 72
    65
 73
     2
 40
15.0
 49
10.0
 74
     0
 49
-5.0
 74
     0
  0
LTYPE
  5
43
330
5
100
AcDbSymbolTableRecord
100
AcDbLinetypeTableRecord
  2
DASH_CENTER
 70
     0
  3
Dash_Center
 72
    65
 73
     4
 40
14.0
 49
11.0
 74
     0
 49
-1.0
 74
     0
 49
1.0
 74
     0
 49
-1.0
 74
     0
  0
LTYPE
  5
44
330
5
100
AcDbSymbolTableRecord
100
AcDbLinetypeTableRecord
  2
PHANTOM
 70
     0
  3
Phantom
 72
    65
 73
     6
 40
13.0
 49
10.0
 74
     0
 49
-1.0
 74
     0
 49
0.0
 74
     0
 49
-1.0
 74
     0
 49
0.0
 74
     0
 49
-1.0
 74
     0
  0
LTYPE
  5
45
330
5
100
AcDbSymbolTableRecord
100
AcDbLinetypeTableRecord
  2
CENTER_DASH_DASH
 70
     0
  3
Center_Dash_Dash
 72
    65
 73
     6
 40
14.0
 49
9.0
 74
     0
 49
-1.0
 74
     0
 49
1.0
 74
     0
 49
-1.0
 74
     0
 49
1.0
 74
     0
 49
-1.0
 74
     0
  0
ENDTAB
  0
TABLE
  2
LAYER
  5
2
330
0
100
AcDbSymbolTable
 70
     2
  0
LAYER
  5
10
330
2
100
AcDbSymbolTableRecord
100
AcDbLayerTableRecord
  2
0
 70
     0
 62
     7
  6
Continuous
370
    -3
390
F
  0
LAYER
  5
46
330
2
100
AcDbSymbolTableRecord
100
AcDbLayerTableRecord
  2
1
 70
     0
 62
     7
  6
Continuous
370
    -3
390
F
  0
ENDTAB
  0
TABLE
  2
STYLE
  5
3
330
0
100
AcDbSymbolTable
 70
     9
  0
STYLE
  5
11
330
3
100
AcDbSymbolTableRecord
100
AcDbTextStyleTableRecord
  2
Standard
 70
     0
 40
0.0
 41
1.0
 50
0.0
 71
     0
 42
0.2
  3
txt
  4

  0
STYLE
  5
C3
330
3
100
AcDbSymbolTableRecord
100
AcDbTextStyleTableRecord
  2
CONVERTER_11
 70
     0
 40
0.0
 41
0.9
 50
0.0
 71
     0
 42
0.2
  3
txt.shx
  4

  0
STYLE
  5
2E1
330
3
100
AcDbSymbolTableRecord
100
AcDbTextStyleTableRecord
  2
CONVERTER_12
 70
     0
 40
0.0
 41
0.63
 50
0.0
 71
     0
 42
0.2
  3
txt.shx
  4

  0
STYLE
  5
2E4
330
3
100
AcDbSymbolTableRecord
100
AcDbTextStyleTableRecord
  2
CONVERTER_13
 70
     0
 40
0.0
 41
0.72
 50
0.0
 71
     0
 42
0.2
  3
txt.shx
  4

  0
STYLE
  5
2E8
330
3
100
AcDbSymbolTableRecord
100
AcDbTextStyleTableRecord
  2
CONVERTER_14
 70
     0
 40
0.0
 41
0.765
 50
0.0
 71
     0
 42
0.2
  3
txt.shx
  4

  0
STYLE
  5
320
330
3
100
AcDbSymbolTableRecord
100
AcDbTextStyleTableRecord
  2
CONVERTER_15
 70
     0
 40
0.0
 41
0.855
 50
0.0
 71
     0
 42
0.2
  3
txt.shx
  4

  0
STYLE
  5
33C
330
3
100
AcDbSymbolTableRecord
100
AcDbTextStyleTableRecord
  2
CONVERTER_16
 70
     0
 40
0.0
 41
0.54
 50
0.0
 71
     0
 42
0.2
  3
txt.shx
  4

  0
STYLE
  5
33E
330
3
100
AcDbSymbolTableRecord
100
AcDbTextStyleTableRecord
  2
CONVERTER_17
 70
     0
 40
0.0
 41
0.81
 50
0.0
 71
     0
 42
0.2
  3
txt.shx
  4

  0
STYLE
  5
345
330
3
100
AcDbSymbolTableRecord
100
AcDbTextStyleTableRecord
  2
CONVERTER_18
 70
     0
 40
0.0
 41
0.45
 50
0.0
 71
     0
 42
0.2
  3
txt.shx
  4

  0
ENDTAB
  0
TABLE
  2
VIEW
  5
6
330
0
100
AcDbSymbolTable
 70
     0
  0
ENDTAB
  0
TABLE
  2
UCS
  5
7
330
0
100
AcDbSymbolTable
 70
     0
  0
ENDTAB
  0
TABLE
  2
APPID
  5
9
330
0
100
AcDbSymbolTable
 70
     1
  0
APPID
  5
12
330
9
100
AcDbSymbolTableRecord
100
AcDbRegAppTableRecord
  2
ACAD
 70
     0
  0
ENDTAB
  0
TABLE
  2
DIMSTYLE
  5
A
330
0
100
AcDbSymbolTable
 70
     4
100
AcDbDimStyleTable
  0
DIMSTYLE
105
27
330
A
100
AcDbSymbolTableRecord
100
AcDbDimStyleTableRecord
  2
Standard
 70
     0
178
     0
340
11
  0
DIMSTYLE
105
110
102
{ACAD_REACTORS
330
111
102
}
330
A
100
AcDbSymbolTableRecord
100
AcDbDimStyleTableRecord
  2
ME10_DIM_10
 70
     0
 41
3.5
 42
0.0
 44
2.0
 73
     0
 74
     0
 77
     1
 78
     8
140
3.5
147
2.0
172
     1
173
     1
174
     1
175
     1
176
     2
177
     2
271
     1
178
     3
271
     1
340
C3
  0
DIMSTYLE
105
11B
102
{ACAD_REACTORS
330
11C
102
}
330
A
100
AcDbSymbolTableRecord
100
AcDbDimStyleTableRecord
  2
ME10_DIM_11
 70
     0
 41
3.5
 42
0.0
 44
2.0
 73
     0
 74
     0
 77
     1
 78
     8
140
3.5
147
2.0
172
     1
173
     1
174
     1
175
     1
176
     2
177
     2
271
     1
178
     3
271
     1
340
C3
  0
DIMSTYLE
105
162
102
{ACAD_REACTORS
330
163
102
}
330
A
100
AcDbSymbolTableRecord
100
AcDbDimStyleTableRecord
  2
ME10_DIM_12
 70
     0
 41
3.5
 42
0.0
 44
2.0
 73
     0
 74
     0
 77
     1
 78
     8
140
3.5
147
2.0
172
     1
173
     1
174
     1
175
     1
176
     2
177
     2
271
     1
178
     3
271
     1
340
C3
  0
ENDTAB
  0
TABLE
  2
BLOCK_RECORD
  5
1
330
0
100
AcDbSymbolTable
 70
    19
  0
BLOCK_RECORD
  5
1F
330
1
100
AcDbSymbolTableRecord
100
AcDbBlockTableRecord
  2
*Model_Space
340
22
  0
BLOCK_RECORD
  5
1B
330
1
100
AcDbSymbolTableRecord
100
AcDbBlockTableRecord
  2
*Paper_Space
340
1E
  0
BLOCK_RECORD
  5
23
330
1
100
AcDbSymbolTableRecord
100
AcDbBlockTableRecord
  2
*Paper_Space0
340
26
  0
BLOCK_RECORD
  5
47
330
1
100
AcDbSymbolTableRecord
100
AcDbBlockTableRecord
  2
0828984_CARRIER_EMLP_22_27x8-select__1
340
0
102
{BLKREFS
331
4B
102
}
  0
BLOCK_RECORD
  5
4A
330
1
100
AcDbSymbolTableRecord
100
AcDbBlockTableRecord
  2
Allg1
340
0
102
{BLKREFS
331
7C
102
}
  0
BLOCK_RECORD
  5
4E
330
1
100
AcDbSymbolTableRecord
100
AcDbBlockTableRecord
  2
0828984_CARRIER_EMLP_22_27x8-select__2
340
0
102
{BLKREFS
331
52
102
}
  0
BLOCK_RECORD
  5
51
330
1
100
AcDbSymbolTableRecord
100
AcDbBlockTableRecord
  2
Drfsicht1
340
0
102
{BLKREFS
331
7D
102
}
  0
BLOCK_RECORD
  5
55
330
1
100
AcDbSymbolTableRecord
100
AcDbBlockTableRecord
  2
0828984_CARRIER_EMLP_22_27x8-select__3
340
0
102
{BLKREFS
331
59
102
}
  0
BLOCK_RECORD
  5
58
330
1
100
AcDbSymbolTableRecord
100
AcDbBlockTableRecord
  2
Rckans1
340
0
102
{BLKREFS
331
7E
102
}
  0
BLOCK_RECORD
  5
5C
330
1
100
AcDbSymbolTableRecord
100
AcDbBlockTableRecord
  2
0828984_CARRIER_EMLP_22_27x8-select__4
340
0
102
{BLKREFS
331
60
102
}
  0
BLOCK_RECORD
  5
5F
330
1
100
AcDbSymbolTableRecord
100
AcDbBlockTableRecord
  2
SA_Links1
340
0
102
{BLKREFS
331
7F
102
}
  0
BLOCK_RECORD
  5
63
330
1
100
AcDbSymbolTableRecord
100
AcDbBlockTableRecord
  2
0828984_CARRIER_EMLP_22_27x8-select__5
340
0
102
{BLKREFS
331
67
102
}
  0
BLOCK_RECORD
  5
66
330
1
100
AcDbSymbolTableRecord
100
AcDbBlockTableRecord
  2
SA_Rechts1
340
0
102
{BLKREFS
331
80
102
}
  0
BLOCK_RECORD
  5
6A
330
1
100
AcDbSymbolTableRecord
100
AcDbBlockTableRecord
  2
0828984_CARRIER_EMLP_22_27x8-select__6
340
0
102
{BLKREFS
331
6E
102
}
  0
BLOCK_RECORD
  5
6D
330
1
100
AcDbSymbolTableRecord
100
AcDbBlockTableRecord
  2
Vordans1
340
0
102
{BLKREFS
331
81
102
}
  0
BLOCK_RECORD
  5
71
330
1
100
AcDbSymbolTableRecord
100
AcDbBlockTableRecord
  2
_punkt
340
0
102
{BLKREFS
331
78
102
}
  0
BLOCK_RECORD
  5
74
330
1
100
AcDbSymbolTableRecord
100
AcDbBlockTableRecord
  2
_rahmen
340
0
102
{BLKREFS
331
79
102
}
  0
BLOCK_RECORD
  5
77
330
1
100
AcDbSymbolTableRecord
100
AcDbBlockTableRecord
  2
A4I
340
0
102
{BLKREFS
331
82
102
}
  0
BLOCK_RECORD
  5
105
330
1
100
AcDbSymbolTableRecord
100
AcDbBlockTableRecord
  2
*D16
340
0
  0
BLOCK_RECORD
  5
112
330
1
100
AcDbSymbolTableRecord
100
AcDbBlockTableRecord
  2
*D17
340
0
  0
BLOCK_RECORD
  5
159
330
1
100
AcDbSymbolTableRecord
100
AcDbBlockTableRecord
  2
*D18
340
0
  0
ENDTAB
  0
ENDSEC
  0
SECTION
  2
BLOCKS
  0
BLOCK
  5
20
330
1F
100
AcDbEntity
  8
0
100
AcDbBlockBegin
  2
*Model_Space
 70
     0
 10
0.0
 20
0.0
 30
0.0
  3
*Model_Space
  1

  0
ENDBLK
  5
21
330
1F
100
AcDbEntity
  8
0
100
AcDbBlockEnd
  0
BLOCK
  5
1C
330
1B
100
AcDbEntity
 67
     1
  8
0
100
AcDbBlockBegin
  2
*Paper_Space
 70
     0
 10
0.0
 20
0.0
 30
0.0
  3
*Paper_Space
  1

  0
ENDBLK
  5
1D
330
1B
100
AcDbEntity
 67
     1
  8
0
100
AcDbBlockEnd
  0
BLOCK
  5
24
330
23
100
AcDbEntity
  8
0
100
AcDbBlockBegin
  2
*Paper_Space0
 70
     0
 10
0.0
 20
0.0
 30
0.0
  3
*Paper_Space0
  1

  0
ENDBLK
  5
25
330
23
100
AcDbEntity
  8
0
100
AcDbBlockEnd
  0
BLOCK
  5
48
330
47
100
AcDbEntity
  8
0
100
AcDbBlockBegin
  2
0828984_CARRIER_EMLP_22_27x8-select__1
 70
     0
 10
0.64976812844667
 20
60.5607479247281
 30
0.0
  3
0828984_CARRIER_EMLP_22_27x8-select__1
  1

  0
LINE
  5
83
330
47
100
AcDbEntity
  8
0
  6
Continuous
 62
     7
100
AcDbLine
 10
25.78344613169224
 20
60.5607479247281
 30
0.0
 11
27.5954966707345
 21
61.66410419103124
 31
0.0
  0
LINE
  5
84
330
47
100
AcDbEntity
  8
0
  6
Continuous
 62
     7
100
AcDbLine
 10
27.50151267890046
 20
69.69453164528134
 30
0.0
 11
27.5954966707345
 21
61.66410419103124
 31
0.0
  0
LINE
  5
85
330
47
100
AcDbEntity
  8
0
  6
Continuous
 62
     7
100
AcDbLine
 10
25.78344613169224
 20
60.5607479247281
 30
0.0
 11
25.73174207399588
 21
68.4409051095986
 31
0.0
  0
LINE
  5
86
330
47
100
AcDbEntity
  8
0
  6
Continuous
 62
     2
100
AcDbLine
 10
25.07775977747483
 20
68.62968659721678
 30
0.0
 11
25.73174207399588
 21
68.4409051095986
 31
0.0
  0
LINE
  5
87
330
47
100
AcDbEntity
  8
0
  6
Continuous
 62
     7
100
AcDbLine
 10
0.68786432207574
 20
67.80521282968874
 30
0.0
 11
25.78344613169224
 21
60.5607479247281
 31
0.0
  0
LINE
  5
88
330
47
100
AcDbEntity
  8
0
  6
Continuous
 62
     7
100
AcDbLine
 10
4.8843133861489
 20
88.53120749104991
 30
0.0
 11
3.79029552034047
 21
88.84702324571109
 31
0.0
  0
LINE
  5
89
330
47
100
AcDbEntity
  8
0
  6
Continuous
 62
     7
100
AcDbLine
 10
4.8843133861489
 20
88.53120749104991
 30
0.0
 11
4.23431117338415
 21
87.96828906227955
 31
0.0
  0
LINE
  5
8A
330
47
100
AcDbEntity
  8
0
  6
Continuous
 62
     7
100
AcDbLine
 10
3.72001127807015
 20
96.93881912565328
 30
0.0
 11
4.28951515307052
 21
97.58173691101625
 31
0.0
  0
LINE
  5
8B
330
47
100
AcDbEntity
  8
0
  6
Continuous
 62
     7
100
AcDbLine
 10
13.2120559083988
 20
97.48602416775272
 30
0.0
 11
12.5620702780664
 21
96.92312009979003
 31
0.0
  0
LINE
  5
8C
330
47
100
AcDbEntity
  8
0
  6
Continuous
 62
     7
100
AcDbLine
 10
13.2120559083988
 20
97.48602416775272
 30
0.0
 11
13.21205530400587
 21
97.90002846008728
 31
0.0
  0
LINE
  5
8D
330
47
100
AcDbEntity
  8
0
  6
Continuous
 62
     7
100
AcDbLine
 10
12.5620702780664
 20
96.92312009979003
 30
0.0
 11
12.56207027806639
 21
98.01713796559866
 31
0.0
  0
LINE
  5
8E
330
47
100
AcDbEntity
  8
0
  6
Continuous
 62
     7
100
AcDbLine
 10
4.23431117338414
 20
90.99937797552509
 30
0.0
 11
4.88430896115519
 21
91.5622925721385
 31
0.0
  0
LINE
  5
8F
330
47
100
AcDbEntity
  8
0
  6
Continuous
 62
     7
100
AcDbLine
 10
3.1402933075759
 20
88.28410481694088
 30
0.0
 11
3.79029552034047
 21
88.84702324571109
 31
0.0
  0
LINE
  5
90
330
47
100
AcDbEntity
  8
0
  6
Continuous
 62
     7
100
AcDbLine
 10
3.14029330757548
 20
91.31519373018658
 30
0.0
 11
4.23431117338414
 21
90.99937797552509
 31
0.0
  0
LINE
  5
91
330
47
100
AcDbEntity
  8
0
  6
Continuous
 62
     7
100
AcDbLine
 10
0.68104765317995
 20
84.0843395189545
 30
0.0
 11
1.36630894394745
 21
83.88652162252619
 31
0.0
  0
LINE
  5
92
330
47
100
AcDbEntity
  8
0
  6
Continuous
 62
     7
100
AcDbLine
 10
0.68104765317995
 20
84.0843395189545
 30
0.0
 11
1.40223765557221
 21
85.25212140880788
 31
0.0
  0
LINE
  5
93
330
47
100
AcDbEntity
  8
0
  6
Continuous
 62
     7
100
AcDbLine
 10
0.64976812844667
 20
75.68144176945862
 30
0.0
 11
0.68104765317995
 21
84.0843395189545
 31
0.0
  0
LINE
  5
94
330
47
100
AcDbEntity
  8
0
  6
Continuous
 62
     7
100
AcDbLine
 10
25.77419453768599
 20
76.84057192499158
 30
0.0
 11
25.08893324723925
 21
77.03838982132726
 31
0.0
  0
LINE
  5
95
330
47
100
AcDbEntity
  8
0
  6
Continuous
 62
     7
100
AcDbLine
 10
26.05637751263318
 20
78.13508426725149
 30
0.0
 11
26.75299181380597
 21
77.93398904009973
 31
0.0
  0
LINE
  5
96
330
47
100
AcDbEntity
  8
0
  6
Continuous
 62
     7
100
AcDbLine
 10
25.77419453768599
 20
76.84057192499158
 30
0.0
 11
26.75299181380597
 21
77.93398904009973
 31
0.0
  0
LINE
  5
97
330
47
100
AcDbEntity
  8
0
  6
Continuous
 62
     7
100
AcDbLine
 10
12.5620702780664
 20
77.23651297717998
 30
0.0
 11
13.21208464827248
 21
77.7994419346034
 31
0.0
  0
LINE
  5
98
330
47
100
AcDbEntity
  8
0
  6
Continuous
 62
     7
100
AcDbLine
 10
13.2120862453956
 20
76.70542545194473
 30
0.0
 11
13.21208464827248
 21
77.7994419346034
 31
0.0
  0
LINE
  5
99
330
47
100
AcDbEntity
  8
0
  6
Continuous
 62
     7
100
AcDbLine
 10
12.56207027806629
 20
76.14249511137132
 30
0.0
 11
13.2120862453956
 21
76.70542545194473
 31
0.0
  0
LINE
  5
9A
330
47
100
AcDbEntity
  8
0
  6
Continuous
 62
     7
100
AcDbLine
 10
4.23431117338415
 20
87.96828906227955
 30
0.0
 11
3.1402933075759
 21
88.28410481694088
 31
0.0
  0
LINE
  5
9B
330
47
100
AcDbEntity
  8
0
  6
Continuous
 62
     7
100
AcDbLine
 10
12.56207027806629
 20
76.14249511137132
 30
0.0
 11
12.5620702780664
 21
77.23651297717998
 31
0.0
  0
LINE
  5
9C
330
47
100
AcDbEntity
  8
0
  6
Continuous
 62
     7
100
AcDbLine
 10
16.24317356151851
 20
76.9244419346038
 30
0.0
 11
15.59315919131193
 21
76.36151297717997
 31
0.0
  0
LINE
  5
9D
330
47
100
AcDbEntity
  8
0
  6
Continuous
 62
     7
100
AcDbLine
 10
26.75299181380608
 20
82.98325035413092
 30
0.0
 11
26.75299181380597
 21
77.93398904009973
 31
0.0
  0
LINE
  5
9E
330
47
100
AcDbEntity
  8
0
  6
Continuous
 62
     7
100
AcDbLine
 10
24.57092050876212
 20
82.84817353021802
 30
0.0
 11
25.0929073611056
 21
82.69748890536114
 31
0.0
  0
LINE
  5
9F
330
47
100
AcDbEntity
  8
0
  6
Continuous
 62
     7
100
AcDbLine
 10
25.01493616180287
 20
81.96943934678337
 30
0.0
 11
23.92091829599419
 21
82.2852551014449
 31
0.0
  0
LINE
  5
A0
330
47
100
AcDbEntity
  8
0
  6
Continuous
 62
     7
100
AcDbLine
 10
23.92091829599419
 20
85.31634401469044
 30
0.0
 11
25.01493616180287
 21
85.00052826002906
 31
0.0
  0
LINE
  5
A1
330
47
100
AcDbEntity
  8
0
  6
Continuous
 62
     7
100
AcDbLine
 10
23.92091829599419
 20
82.2852551014449
 30
0.0
 11
24.57092050876212
 21
82.84817353021802
 31
0.0
  0
LINE
  5
A2
330
47
100
AcDbEntity
  8
0
  6
Continuous
 62
     2
100
AcDbLine
 10
0.64976812844667
 20
75.68144176945862
 30
0.0
 11
1.3037446346687
 21
75.49264835909428
 31
0.0
  0
LINE
  5
A3
330
47
100
AcDbEntity
  8
0
  6
Continuous
 62
     2
100
AcDbLine
 10
25.07775977747483
 20
68.62968659721678
 30
0.0
 11
1.3037446346687
 21
75.49264835909428
 31
0.0
  0
LINE
  5
A4
330
47
100
AcDbEntity
  8
0
  6
Continuous
 62
     7
100
AcDbLine
 10
27.5014894408635
 20
83.5177330511563
 30
0.0
 11
27.50151267890046
 21
69.69453164528134
 31
0.0
  0
LINE
  5
A5
330
47
100
AcDbEntity
  8
0
  6
Continuous
 62
     7
100
AcDbLine
 10
25.77419453768599
 20
76.84057192499158
 30
0.0
 11
25.73174207399588
 21
68.4409051095986
 31
0.0
  0
LINE
  5
A6
330
47
100
AcDbEntity
  8
0
  6
Continuous
 62
     2
100
AcDbLine
 10
26.75299181380608
 20
82.98325035413092
 30
0.0
 11
27.5014894408635
 21
83.5177330511563
 31
0.0
  0
LINE
  5
A7
330
47
100
AcDbEntity
  8
0
  6
Continuous
 62
     7
100
AcDbLine
 10
15.59315919131193
 20
76.36151297717997
 30
0.0
 11
15.59315919131193
 21
75.26749511137216
 31
0.0
  0
LINE
  5
A8
330
47
100
AcDbEntity
  8
0
  6
Continuous
 62
     7
100
AcDbLine
 10
15.59315919131193
 20
97.14213796559864
 30
0.0
 11
15.59315919131193
 21
96.04812009979001
 31
0.0
  0
LINE
  5
A9
330
47
100
AcDbEntity
  8
0
  6
Continuous
 62
     7
100
AcDbLine
 10
0.68786432207574
 20
67.80521282968874
 30
0.0
 11
0.64976812844667
 21
75.68144176945862
 31
0.0
  0
LINE
  5
AA
330
47
100
AcDbEntity
  8
0
  6
Continuous
 62
     7
100
AcDbLine
 10
1.40223765557221
 20
85.25212140880788
 30
0.0
 11
1.40223765557229
 21
90.30138272283907
 31
0.0
  0
LINE
  5
AB
330
47
100
AcDbEntity
  8
0
  6
Continuous
 62
     7
100
AcDbLine
 10
1.40223765557221
 20
85.25212140880788
 30
0.0
 11
2.09885195674517
 21
85.05102618165613
 31
0.0
  0
SPLINE
  5
AC
330
47
100
AcDbEntity
  8
0
  6
Continuous
 62
     7
100
AcDbSpline
210
0.0
220
0.0
230
1.0
 70
     8
 71
     3
 72
    11
 73
     7
 74
     5
 42
0.000000001
 43
0.0000000001
 44
0.00000001
 40
0.0
 40
0.0
 40
0.0
 40
0.0
 40
3.498599879327915
 40
7.115161808879039
 40
10.69627725129557
 40
14.09827168637565
 40
14.09827168637565
 40
14.09827168637565
 40
14.09827168637565
 10
13.21208464827248
 20
77.7994419346034
 30
0.0
 10
12.18055614946525
 20
78.35786388109919
 30
0.0
 10
10.08271918477984
 20
79.4935360608921
 30
0.0
 10
7.599612059465516
 20
82.11304121352316
 30
0.0
 10
5.68699420755334
 20
85.14151619157221
 30
0.0
 10
5.147258808422677
 20
87.42079871656647
 30
0.0
 10
4.884313386148897
 20
88.53120749104991
 30
0.0
 11
13.21208464827248
 21
77.7994419346034
 31
0.0
 11
10.22535070980033
 21
79.62142478384592
 31
0.0
 11
7.685342005268758
 21
82.19589094003209
 31
0.0
 11
5.8441063918711
 21
85.26741161340495
 31
0.0
 11
4.884313386148897
 21
88.53120749104991
 31
0.0
  0
SPLINE
  5
AD
330
47
100
AcDbEntity
  8
0
  6
Continuous
 62
     7
100
AcDbSpline
210
0.0
220
0.0
230
1.0
 70
     8
 71
     3
 72
     9
 73
     5
 74
     3
 42
0.000000001
 43
0.0000000001
 44
0.00000001
 40
0.0
 40
0.0
 40
0.0
 40
0.0
 40
1.551696617809495
 40
3.161243637682967
 40
3.161243637682967
 40
3.161243637682967
 40
3.161243637682967
 10
12.56207027806639
 20
98.01713796559866
 30
0.0
 10
13.07170800766512
 20
97.92164342488417
 30
0.0
 10
14.10998379183932
 20
97.72709409365498
 30
0.0
 10
15.09277241986859
 20
97.33948773229405
 30
0.0
 10
15.59315919131193
 20
97.14213796559864
 30
0.0
 11
12.56207027806639
 21
98.01713796559866
 31
0.0
 11
14.07761473468916
 21
97.68414037447619
 31
0.0
 11
15.59315919131193
 21
97.14213796559864
 31
0.0
  0
SPLINE
  5
AE
330
47
100
AcDbEntity
  8
0
  6
Continuous
 62
     7
100
AcDbSpline
210
0.0
220
0.0
230
1.0
 70
     8
 71
     3
 72
    11
 73
     7
 74
     5
 42
0.000000001
 43
0.0000000001
 44
0.00000001
 40
0.0
 40
0.0
 40
0.0
 40
0.0
 40
3.498599315092907
 40
7.115161013904029
 40
10.69627730413142
 40
14.09827413175936
 40
14.09827413175936
 40
14.09827413175936
 40
14.09827413175936
 10
15.59315919131193
 20
96.04812009979001
 30
0.0
 10
16.62468731872691
 20
95.48969781277471
 30
0.0
 10
18.72252363204247
 20
94.35402488419481
 30
0.0
 10
21.20562821698916
 20
91.73451701680176
 30
0.0
 10
23.11824240714731
 20
88.70603845347812
 30
0.0
 10
23.65797444724635
 20
86.42675399619935
 30
0.0
 10
23.92091829599419
 20
85.31634401469044
 30
0.0
 11
15.59315919131193
 21
96.04812009979001
 31
0.0
 11
18.57989172861762
 21
94.22613603710172
 31
0.0
 11
21.11989774519081
 21
91.65166755307533
 31
0.0
 11
22.96112965051133
 21
88.58014366841346
 31
0.0
 11
23.92091829599419
 21
85.31634401469044
 31
0.0
  0
SPLINE
  5
AF
330
47
100
AcDbEntity
  8
0
  6
Continuous
 62
     7
100
AcDbSpline
210
0.0
220
0.0
230
1.0
 70
     8
 71
     3
 72
    11
 73
     7
 74
     5
 42
0.000000001
 43
0.0000000001
 44
0.00000001
 40
0.0
 40
0.0
 40
0.0
 40
0.0
 40
1.702375921310301
 40
3.322631418054675
 40
4.879004223969923
 40
6.400252748807294
 40
6.400252748807294
 40
6.400252748807294
 40
6.400252748807294
 10
12.5620702780664
 20
96.92312009979003
 30
0.0
 10
11.99466579538134
 20
96.97138484042989
 30
0.0
 10
10.88722769197457
 20
97.0655860780407
 30
0.0
 10
9.2689735085111
 20
96.8040583845869
 30
0.0
 10
7.779863360672891
 20
96.2619374132448
 30
0.0
 10
6.956219437049987
 20
95.64195350253746
 30
0.0
 10
6.549097521547424
 20
95.33549941769722
 30
0.0
 11
12.5620702780664
 21
96.92312009979003
 31
0.0
 11
10.86127365257276
 21
96.99643188549345
 31
0.0
 11
9.259935104750763
 21
96.74956605877577
 31
0.0
 11
7.80757287740567
 21
96.19015540564045
 31
0.0
 11
6.549097521547424
 21
95.33549941769722
 31
0.0
  0
SPLINE
  5
B0
330
47
100
AcDbEntity
  8
0
  6
Continuous
 62
     7
100
AcDbSpline
210
0.0
220
0.0
230
1.0
 70
     8
 71
     3
 72
     9
 73
     5
 74
     3
 42
0.000000001
 43
0.0000000001
 44
0.00000001
 40
0.0
 40
0.0
 40
0.0
 40
0.0
 40
2.429456939919437
 40
4.992302198283897
 40
4.992302198283897
 40
4.992302198283897
 40
4.992302198283897
 10
6.549097521547424
 20
95.33549941769722
 30
0.0
 10
5.984869204882994
 20
94.73403253133678
 30
0.0
 10
4.825433867731752
 20
93.49807545964995
 30
0.0
 10
4.434830879622137
 20
91.84698221567561
 30
0.0
 10
4.234311173384143
 20
90.99937797552509
 30
0.0
 11
6.549097521547424
 21
95.33549941769722
 31
0.0
 11
5.038486743578293
 21
93.4327865888893
 31
0.0
 11
4.234311173384143
 21
90.99937797552509
 31
0.0
  0
SPLINE
  5
B1
330
47
100
AcDbEntity
  8
0
  6
Continuous
 62
     7
100
AcDbSpline
210
0.0
220
0.0
230
1.0
 70
     8
 71
     3
 72
     9
 73
     5
 74
     3
 42
0.000000001
 43
0.0000000001
 44
0.00000001
 40
0.0
 40
0.0
 40
0.0
 40
0.0
 40
2.222829299965222
 40
4.568453912530149
 40
4.568453912530149
 40
4.568453912530149
 40
4.568453912530149
 10
6.88343764779092
 20
95.60613661589719
 30
0.0
 10
6.400573551333867
 20
95.02955166147942
 30
0.0
 10
5.408170610837472
 20
93.8445295756078
 30
0.0
 10
5.062030798147218
 20
92.33654922614838
 30
0.0
 10
4.884308961155192
 20
91.5622925721385
 30
0.0
 11
6.88343764779092
 21
95.60613661589719
 31
0.0
 11
5.587842433563902
 21
93.79992424059732
 31
0.0
 11
4.884308961155192
 21
91.5622925721385
 31
0.0
  0
SPLINE
  5
B2
330
47
100
AcDbEntity
  8
0
  6
Continuous
 62
     7
100
AcDbSpline
210
0.0
220
0.0
230
1.0
 70
     8
 71
     3
 72
     9
 73
     5
 74
     3
 42
0.000000001
 43
0.0000000001
 44
0.00000001
 40
0.0
 40
0.0
 40
0.0
 40
0.0
 40
1.17117416981027
 40
2.307331555547004
 40
2.307331555547004
 40
2.307331555547004
 40
2.307331555547004
 10
3.790295520340472
 20
88.84702324571109
 30
0.0
 10
3.747554839833452
 20
89.23571096990719
 30
0.0
 10
3.663351396788889
 20
90.00146509577274
 30
0.0
 10
3.696163956081993
 20
90.7710907143672
 30
0.0
 10
3.71232125873469
 20
91.15006348439367
 30
0.0
 11
3.790295520340472
 21
88.84702324571109
 31
0.0
 11
3.692222163124984
 21
90.01408389273155
 31
0.0
 11
3.71232125873469
 21
91.15006348439367
 31
0.0
  0
SPLINE
  5
B3
330
47
100
AcDbEntity
  8
0
  6
Continuous
 62
     7
100
AcDbSpline
210
0.0
220
0.0
230
1.0
 70
     8
 71
     3
 72
     9
 73
     5
 74
     3
 42
0.000000001
 43
0.0000000001
 44
0.00000001
 40
0.0
 40
0.0
 40
0.0
 40
0.0
 40
1.549240272483777
 40
3.038289031400856
 40
3.038289031400856
 40
3.038289031400856
 40
3.038289031400856
 10
3.140293307575902
 20
88.28410481694088
 30
0.0
 10
3.087338056575829
 20
88.79936681519055
 30
0.0
 10
2.983485006616163
 20
89.80987170998591
 30
0.0
 10
3.088718795931684
 20
90.82009087092112
 30
0.0
 10
3.140293307575483
 20
91.31519373018658
 30
0.0
 11
3.140293307575902
 21
88.28410481694088
 31
0.0
 11
3.035790898697996
 21
89.82981652051197
 31
0.0
 11
3.140293307575483
 21
91.31519373018658
 31
0.0
  0
SPLINE
  5
B4
330
47
100
AcDbEntity
  8
0
  6
Continuous
 62
     7
100
AcDbSpline
210
0.0
220
0.0
230
1.0
 70
     8
 71
     3
 72
     9
 73
     5
 74
     3
 42
0.000000001
 43
0.0000000001
 44
0.00000001
 40
0.0
 40
0.0
 40
0.0
 40
0.0
 40
3.709145712904412
 40
7.148706955034028
 40
7.148706955034028
 40
7.148706955034028
 40
7.148706955034028
 10
1.402237655572286
 20
90.30138272283907
 30
0.0
 10
1.490516771020859
 20
91.56093621368646
 30
0.0
 10
1.660658805100161
 20
93.98849756576246
 30
0.0
 10
3.051037950367787
 20
95.98041766928294
 30
0.0
 10
3.720011278070146
 20
96.93881912565328
 30
0.0
 11
1.402237655572286
 21
90.30138272283907
 31
0.0
 11
1.995576264450972
 21
93.96276377760739
 31
0.0
 11
3.720011278070146
 21
96.93881912565328
 31
0.0
  0
SPLINE
  5
B5
330
47
100
AcDbEntity
  8
0
  6
Continuous
 62
     7
100
AcDbSpline
210
0.0
220
0.0
230
1.0
 70
     8
 71
     3
 72
    17
 73
    13
 74
    11
 42
0.000000001
 43
0.0000000001
 44
0.00000001
 40
0.0
 40
0.0
 40
0.0
 40
0.0
 40
2.767602260564692
 40
5.615254385825304
 40
8.646697529024136
 40
11.9072113655264
 40
15.38177872434737
 40
19.00863415894142
 40
22.69711696738878
 40
26.34572481479163
 40
29.8599161902556
 40
33.17009943054048
 40
33.17009943054048
 40
33.17009943054048
 40
33.17009943054048
 10
3.720011278070146
 20
96.93881912565328
 30
0.0
 10
4.403303840906534
 20
97.57185994923692
 30
0.0
 10
5.789652463608824
 20
98.85625159860126
 30
0.0
 10
8.596788974669732
 20
99.7960425473295
 30
0.0
 10
11.66883826571737
 20
99.9221601216262
 30
0.0
 10
14.87863137736114
 20
99.19500074817718
 30
0.0
 10
18.016512398138
 20
97.6935752486907
 30
0.0
 10
20.90244644283224
 20
95.51019956159931
 30
0.0
 10
23.36903171224078
 20
92.78087768431354
 30
0.0
 10
25.24344909734294
 20
89.67023649946807
 30
0.0
 10
26.49674333524361
 20
86.36645561888412
 30
0.0
 10
26.66929508206916
 20
84.08828419289652
 30
0.0
 10
26.75299181380608
 20
82.98325035413092
 30
0.0
 11
3.720011278070146
 21
96.93881912565328
 31
0.0
 11
5.875957553767701
 21
98.67419169739756
 31
0.0
 11
8.552951091123184
 21
99.64518513625819
 31
0.0
 11
11.5809284183414
 21
99.790101841045
 31
0.0
 11
14.76751900378967
 21
99.09974618835005
 31
0.0
 11
17.91027973268307
 21
97.61796572637283
 31
0.0
 11
20.80955313236912
 21
95.43890764987032
 31
0.0
 11
23.28114415999042
 21
92.70099910113272
 31
0.0
 11
25.16803947321432
 21
89.57818541811744
 31
0.0
 11
26.35035627142795
 21
86.26885497093434
 31
0.0
 11
26.75299181380608
 21
82.98325035413092
 31
0.0
  0
SPLINE
  5
B6
330
47
100
AcDbEntity
  8
0
  6
Continuous
 62
     7
100
AcDbSpline
210
0.0
220
0.0
230
1.0
 70
     8
 71
     3
 72
     9
 73
     5
 74
     3
 42
0.000000001
 43
0.0000000001
 44
0.00000001
 40
0.0
 40
0.0
 40
0.0
 40
0.0
 40
0.6900757594824273
 40
1.375755199765589
 40
1.375755199765589
 40
1.375755199765589
 40
1.375755199765589
 10
2.098851956745172
 20
85.05102618165613
 30
0.0
 10
1.975629503836548
 20
84.8567885091614
 30
0.0
 10
1.729969637779318
 20
84.46955059851668
 30
0.0
 10
1.487270649226843
 20
84.08045015241821
 30
0.0
 10
1.366308943947452
 20
83.88652162252619
 30
0.0
 11
2.098851956745172
 21
85.05102618165613
 31
0.0
 11
1.729929564302167
 21
84.46784454424419
 31
0.0
 11
1.366308943947452
 21
83.88652162252619
 31
0.0
  0
SPLINE
  5
B7
330
47
100
AcDbEntity
  8
0
  6
Continuous
 62
     7
100
AcDbSpline
210
0.0
220
0.0
230
1.0
 70
     8
 71
     3
 72
     9
 73
     5
 74
     3
 42
0.000000001
 43
0.0000000001
 44
0.00000001
 40
0.0
 40
0.0
 40
0.0
 40
0.0
 40
0.7301915848086543
 40
1.46242878210226
 40
1.46242878210226
 40
1.46242878210226
 40
1.46242878210226
 10
25.08893324723925
 20
77.03838982132726
 30
0.0
 10
25.2505647715127
 20
77.22037284024232
 30
0.0
 10
25.57428061153274
 20
77.58484871195253
 30
0.0
 10
25.89552876571372
 20
77.95150145587077
 30
0.0
 10
26.05637751263318
 20
78.13508426725149
 30
0.0
 11
25.08893324723925
 21
77.03838982132726
 31
0.0
 11
25.57321261580132
 21
77.5848815813231
 31
0.0
 11
26.05637751263318
 21
78.13508426725149
 31
0.0
  0
SPLINE
  5
B8
330
47
100
AcDbEntity
  8
0
  6
Continuous
 62
     7
100
AcDbSpline
210
0.0
220
0.0
230
1.0
 70
     8
 71
     3
 72
    11
 73
     7
 74
     5
 42
0.000000001
 43
0.0000000001
 44
0.00000001
 40
0.0
 40
0.0
 40
0.0
 40
0.0
 40
1.521248524837367
 40
3.077621330752616
 40
4.697876827496986
 40
6.400252748807299
 40
6.400252748807299
 40
6.400252748807299
 40
6.400252748807299
 10
21.60613194783091
 20
77.94913365927276
 30
0.0
 10
21.19901003232835
 20
77.64267957443255
 30
0.0
 10
20.37536610870545
 20
77.02269566372517
 30
0.0
 10
18.88625596086724
 20
76.48057469238314
 30
0.0
 10
17.26800177740376
 20
76.21904699892924
 30
0.0
 10
16.160563673997
 20
76.31324823654012
 30
0.0
 10
15.59315919131193
 20
76.36151297717997
 30
0.0
 11
21.60613194783091
 21
77.94913365927276
 31
0.0
 11
20.34765659197267
 21
77.09447767132953
 31
0.0
 11
18.89529436462757
 21
76.53506701819421
 31
0.0
 11
17.29395581680558
 21
76.28820119147653
 31
0.0
 11
15.59315919131193
 21
76.36151297717997
 31
0.0
  0
SPLINE
  5
B9
330
47
100
AcDbEntity
  8
0
  6
Continuous
 62
     7
100
AcDbSpline
210
0.0
220
0.0
230
1.0
 70
     8
 71
     3
 72
    11
 73
     7
 74
     5
 42
0.000000001
 43
0.0000000001
 44
0.00000001
 40
0.0
 40
0.0
 40
0.0
 40
0.0
 40
1.309649624410201
 40
2.649864456626243
 40
4.270118793621471
 40
5.972494128694777
 40
5.972494128694777
 40
5.972494128694777
 40
5.972494128694777
 10
21.92179182203477
 20
78.24141408091815
 30
0.0
 10
21.55740937370178
 20
77.99813732478134
 30
0.0
 10
20.82014034359371
 20
77.505906119908
 30
0.0
 10
19.46531441976771
 20
77.03218569151743
 30
0.0
 10
17.91780419890701
 20
76.78189850035363
 30
0.0
 10
16.81050630801056
 20
76.87615094753586
 30
0.0
 10
16.24317356151851
 20
76.9244419346038
 30
0.0
 11
21.92179182203477
 21
78.24141408091815
 31
0.0
 11
20.80336744277041
 21
77.56001181314495
 31
0.0
 11
19.54530708985635
 21
77.09799455102547
 31
0.0
 11
17.94396957727479
 21
76.85112962085232
 31
0.0
 11
16.24317356151851
 21
76.9244419346038
 31
0.0
  0
SPLINE
  5
BA
330
47
100
AcDbEntity
  8
0
  6
Continuous
 62
     7
100
AcDbSpline
210
0.0
220
0.0
230
1.0
 70
     8
 71
     3
 72
     9
 73
     5
 74
     3
 42
0.000000001
 43
0.0000000001
 44
0.00000001
 40
0.0
 40
0.0
 40
0.0
 40
0.0
 40
1.390129619567922
 40
2.801049362645852
 40
2.801049362645852
 40
2.801049362645852
 40
2.801049362645852
 10
23.41237029407753
 20
74.80546117941873
 30
0.0
 10
23.73375925402549
 20
75.14174952105911
 30
0.0
 10
24.3813437003491
 20
75.81935558688903
 30
0.0
 10
24.85190585848842
 20
76.63003937011078
 30
0.0
 10
25.08893324723925
 20
77.03838982132726
 30
0.0
 11
23.41237029407753
 21
74.80546117941873
 31
0.0
 11
24.33293610947876
 21
75.84710360410818
 31
0.0
 11
25.08893324723925
 21
77.03838982132726
 31
0.0
  0
SPLINE
  5
BB
330
47
100
AcDbEntity
  8
0
  6
Continuous
 62
     7
100
AcDbSpline
210
0.0
220
0.0
230
1.0
 70
     8
 71
     3
 72
     9
 73
     5
 74
     3
 42
0.000000001
 43
0.0000000001
 44
0.00000001
 40
0.0
 40
0.0
 40
0.0
 40
0.0
 40
1.232873735450373
 40
2.501797026167813
 40
2.501797026167813
 40
2.501797026167813
 40
2.501797026167813
 10
15.59315919131193
 20
75.94754156734915
 30
0.0
 10
15.19282662268614
 20
76.04304338861292
 30
0.0
 10
14.38045566042566
 20
76.23683954891632
 30
0.0
 10
13.60526607048506
 20
76.54773685665326
 30
0.0
 10
13.2120862453956
 20
76.70542545194473
 30
0.0
 11
15.59315919131193
 21
75.94754156734915
 31
0.0
 11
14.40119087915229
 21
76.2624847234608
 31
0.0
 11
13.2120862453956
 21
76.70542545194473
 31
0.0
  0
SPLINE
  5
BC
330
47
100
AcDbEntity
  8
0
  6
Continuous
 62
     7
100
AcDbSpline
210
0.0
220
0.0
230
1.0
 70
     8
 71
     3
 72
    11
 73
     7
 74
     5
 42
0.000000001
 43
0.0000000001
 44
0.00000001
 40
0.0
 40
0.0
 40
0.0
 40
0.0
 40
3.401996827627944
 40
6.983113117855321
 40
10.59967481666646
 40
14.09827413175935
 40
14.09827413175935
 40
14.09827413175935
 40
14.09827413175935
 10
4.23431117338415
 20
87.96828906227955
 30
0.0
 10
4.497255022131982
 20
86.85787908077062
 30
0.0
 10
5.036987062231024
 20
84.5785946234919
 30
0.0
 10
6.949601252389201
 20
81.55011606016825
 30
0.0
 10
9.432705837335853
 20
78.9306081927752
 30
0.0
 10
11.53054215065143
 20
77.79493526419526
 30
0.0
 10
12.5620702780664
 20
77.23651297717998
 30
0.0
 11
4.23431117338415
 21
87.96828906227955
 31
0.0
 11
5.194099818867013
 21
84.70448940855654
 31
0.0
 11
7.035331724187529
 21
81.63296552389468
 31
0.0
 11
9.575337740760727
 21
79.05849703986826
 31
0.0
 11
12.5620702780664
 21
77.23651297717998
 31
0.0
  0
SPLINE
  5
BD
330
47
100
AcDbEntity
  8
0
  6
Continuous
 62
     7
100
AcDbSpline
210
0.0
220
0.0
230
1.0
 70
     8
 71
     3
 72
     9
 73
     5
 74
     3
 42
0.000000001
 43
0.0000000001
 44
0.00000001
 40
0.0
 40
0.0
 40
0.0
 40
0.0
 40
1.551696617809329
 40
3.161243637682864
 40
3.161243637682864
 40
3.161243637682864
 40
3.161243637682864
 10
15.59315919131193
 20
75.26749511137216
 30
0.0
 10
15.08352146171319
 20
75.36298965208636
 30
0.0
 10
14.0452456775389
 20
75.55753898331494
 30
0.0
 10
13.06245704950966
 20
75.94514534467586
 30
0.0
 10
12.56207027806629
 20
76.14249511137132
 30
0.0
 11
15.59315919131193
 21
75.26749511137216
 31
0.0
 11
14.07761473468915
 21
75.60049270249385
 31
0.0
 11
12.56207027806629
 21
76.14249511137132
 31
0.0
  0
SPLINE
  5
BE
330
47
100
AcDbEntity
  8
0
  6
Continuous
 62
     7
100
AcDbSpline
210
0.0
220
0.0
230
1.0
 70
     8
 71
     3
 72
     9
 73
     5
 74
     3
 42
0.000000001
 43
0.0000000001
 44
0.00000001
 40
0.0
 40
0.0
 40
0.0
 40
0.0
 40
1.549240272483724
 40
3.038289031400821
 40
3.038289031400821
 40
3.038289031400821
 40
3.038289031400821
 10
25.01493616180287
 20
85.00052826002906
 30
0.0
 10
25.06789141280279
 20
84.4852662617794
 30
0.0
 10
25.17174446276217
 20
83.47476136698401
 30
0.0
 10
25.06651067344667
 20
82.46454220604885
 30
0.0
 10
25.01493616180287
 20
81.96943934678337
 30
0.0
 11
25.01493616180287
 21
85.00052826002906
 31
0.0
 11
25.11943857068041
 21
83.454816556458
 31
0.0
 11
25.01493616180287
 21
81.96943934678337
 31
0.0
  0
SPLINE
  5
BF
330
47
100
AcDbEntity
  8
0
  6
Continuous
 62
     7
100
AcDbSpline
210
0.0
220
0.0
230
1.0
 70
     8
 71
     3
 72
     9
 73
     5
 74
     3
 42
0.000000001
 43
0.0000000001
 44
0.00000001
 40
0.0
 40
0.0
 40
0.0
 40
0.0
 40
2.56284525836446
 40
4.992302198283911
 40
4.992302198283911
 40
4.992302198283911
 40
4.992302198283911
 10
23.92091829599419
 20
82.2852551014449
 30
0.0
 10
23.7203985897562
 20
81.43765086129439
 30
0.0
 10
23.32979560164658
 20
79.78655761732003
 30
0.0
 10
22.17036026449534
 20
78.55060054563319
 30
0.0
 10
21.60613194783091
 20
77.94913365927276
 30
0.0
 11
23.92091829599419
 21
82.2852551014449
 31
0.0
 11
23.11674272580004
 21
79.8518464880807
 31
0.0
 11
21.60613194783091
 21
77.94913365927276
 31
0.0
  0
SPLINE
  5
C0
330
47
100
AcDbEntity
  8
0
  6
Continuous
 62
     7
100
AcDbSpline
210
0.0
220
0.0
230
1.0
 70
     8
 71
     3
 72
    15
 73
    11
 74
     9
 42
0.000000001
 43
0.0000000001
 44
0.00000001
 40
0.0
 40
0.0
 40
0.0
 40
0.0
 40
2.635574928434302
 40
5.382717566271779
 40
8.63198759855656
 40
12.12847585623599
 40
15.83746612830526
 40
19.67814452044378
 40
23.54441539271334
 40
27.32551845600636
 40
27.32551845600636
 40
27.32551845600636
 40
27.32551845600636
 10
23.81153784892874
 20
75.21630910065275
 30
0.0
 10
23.08421738211319
 20
74.71127615980967
 30
0.0
 10
21.59878791133524
 20
73.679831513052
 30
0.0
 10
18.7322266473692
 20
73.02788203644992
 30
0.0
 10
15.54085109142615
 20
73.15448556353807
 30
0.0
 10
12.17547151091445
 20
74.18789246018709
 30
0.0
 10
8.949487452718785
 20
76.01920143095094
 30
0.0
 10
6.075001458382684
 20
78.54113035900319
 30
0.0
 10
3.663245054253581
 20
81.5636966907401
 30
0.0
 10
2.616430238211395
 20
83.89724582698477
 30
0.0
 10
2.098851956745172
 20
85.05102618165613
 30
0.0
 11
23.81153784892874
 21
75.21630910065275
 31
0.0
 11
21.55715099414074
 21
73.85102702732624
 31
0.0
 11
18.89381650233909
 21
73.17764594136293
 31
0.0
 11
15.64632101559467
 21
73.28501831077875
 31
0.0
 11
12.29452830777429
 21
74.28046584327001
 31
0.0
 11
9.06128783516857
 21
76.09781690729302
 31
0.0
 11
6.161563561227258
 21
78.61623102088512
 31
0.0
 11
3.788154527266374
 21
81.66827623826045
 31
0.0
 11
2.098851956745172
 21
85.05102618165613
 31
0.0
  0
SPLINE
  5
C1
330
47
100
AcDbEntity
  8
0
  6
Continuous
 62
     7
100
AcDbSpline
210
0.0
220
0.0
230
1.0
 70
     8
 71
     3
 72
    15
 73
    11
 74
     9
 42
0.000000001
 43
0.0000000001
 44
0.00000001
 40
0.0
 40
0.0
 40
0.0
 40
0.0
 40
3.757647737668425
 40
7.584022813409405
 40
11.37369593816146
 40
15.02778044014891
 40
18.47300223428691
 40
21.68078210613185
 40
24.68317096507973
 40
27.57573849013844
 40
27.57573849013844
 40
27.57573849013844
 40
27.57573849013844
 10
1.366308943947452
 20
83.88652162252619
 30
0.0
 10
1.902554026191563
 20
82.75012736502214
 30
0.0
 10
2.984852120340077
 20
80.45655421751002
 30
0.0
 10
5.416143408487131
 20
77.50077837027092
 30
0.0
 10
8.28805796644092
 20
75.05048647853052
 30
0.0
 10
11.49117084373776
 20
73.28708201189643
 30
0.0
 10
14.82241050931877
 20
72.31119088254879
 30
0.0
 10
18.0669554882883
 20
72.22062088763953
 30
0.0
 10
21.08797688380153
 20
72.97739751260993
 30
0.0
 10
22.64725546284747
 20
74.2037219769014
 30
0.0
 10
23.41237029407753
 20
74.80546117941873
 30
0.0
 11
1.366308943947452
 21
83.88652162252619
 31
0.0
 11
3.107337484814526
 21
80.5565462290773
 31
0.0
 11
5.502924674306268
 21
77.5728726153566
 31
0.0
 11
8.398501773213804
 21
75.12802994995774
 31
0.0
 11
11.60722457683001
 21
73.37976466015421
 31
0.0
 11
14.92205134078002
 21
72.44089472948323
 31
0.0
 11
18.12909107304118
 21
72.37198986307452
 31
0.0
 11
21.02140492181016
 21
73.1775080147842
 31
0.0
 11
23.41237029407753
 21
74.80546117941873
 31
0.0
  0
SPLINE
  5
C2
330
47
100
AcDbEntity
  8
0
  6
Continuous
 62
     7
100
AcDbSpline
210
0.0
220
0.0
230
1.0
 70
     8
 71
     3
 72
    17
 73
    13
 74
    11
 42
0.000000001
 43
0.0000000001
 44
0.00000001
 40
0.0
 40
0.0
 40
0.0
 40
0.0
 40
2.789103684399291
 40
5.658880745403525
 40
8.713878607337211
 40
11.99972844390076
 40
15.50129581600917
 40
19.15633471849232
 40
22.87347942229806
 40
26.55043842746474
 40
30.09193528750488
 40
33.42783746161391
 40
33.42783746161391
 40
33.42783746161391
 40
33.42783746161391
 10
4.289515153070525
 20
97.58173691101625
 30
0.0
 10
4.978116349171746
 20
98.21969568035291
 30
0.0
 10
6.375236181502705
 20
99.51406583493946
 30
0.0
 10
9.20418371862333
 20
100.4611565638496
 30
0.0
 10
12.30010307870513
 20
100.5882523839265
 30
0.0
 10
15.53483764608598
 20
99.85544209657527
 30
0.0
 10
18.69710253389822
 20
98.3423504582543
 30
0.0
 10
21.60546392863147
 20
96.14201057932783
 30
0.0
 10
24.09121914349288
 20
93.39148310804326
 30
0.0
 10
25.98020598872775
 20
90.25667388522676
 30
0.0
 10
27.24324404129819
 20
86.92722464716493
 30
0.0
 10
27.41714048032862
 20
84.631352458033
 30
0.0
 10
27.5014894408635
 20
83.5177330511563
 30
0.0
 11
4.289515153070525
 21
97.58173691101625
 31
0.0
 11
6.462211392456612
 21
99.33059094944352
 31
0.0
 11
9.160004489752842
 21
100.3091270065916
 31
0.0
 11
12.21150967742322
 21
100.4551682376994
 31
0.0
 11
15.42286173585566
 21
99.75944766608703
 31
0.0
 11
18.59004452611355
 21
98.2661535757821
 31
0.0
 11
21.51184912208522
 21
96.07016466754408
 31
0.0
 11
24.00264910010226
 21
93.31098358986817
 31
0.0
 11
25.90421087638549
 21
90.16390711567797
 31
0.0
 11
27.09571986335018
 21
86.82886493599929
 31
0.0
 11
27.5014894408635
 21
83.5177330511563
 31
0.0
  0
ENDBLK
  5
49
330
47
100
AcDbEntity
  8
0
100
AcDbBlockEnd
  0
BLOCK
  5
4C
330
4A
100
AcDbEntity
  8
0
100
AcDbBlockBegin
  2
Allg1
 70
     0
 10
13.99999999996806
 20
81.99999999999591
 30
0.0
  3
Allg1
  1

  0
INSERT
  5
4B
330
4A
100
AcDbEntity
  8
0
100
AcDbBlockReference
  2
0828984_CARRIER_EMLP_22_27x8-select__1
 10
0.64976812844667
 20
60.5607479247281
 30
0.0
  0
MTEXT
  5
C4
330
4A
100
AcDbEntity
  8
1
 62
     6
100
AcDbMText
 10
13.99999999996794
 20
55.26243473194245
 30
0.0
 40
5.0
 41
0.0
 71
     2
 72
     1
  1
 
  7
CONVERTER_11
 73
     1
 44
1.32052821128451
  0
ENDBLK
  5
4D
330
4A
100
AcDbEntity
  8
0
100
AcDbBlockEnd
  0
BLOCK
  5
4F
330
4E
100
AcDbEntity
  8
0
100
AcDbBlockBegin
  2
0828984_CARRIER_EMLP_22_27x8-select__2
 70
     0
 10
-135.5285686642336
 20
91.73395037169736
 30
0.0
  3
0828984_CARRIER_EMLP_22_27x8-select__2
  1

  0
LINE
  5
C5
330
4E
100
AcDbEntity
  8
0
  6
Continuous
 62
     7
100
AcDbLine
 10
-119.0142841339403
 20
94.80771348021459
 30
0.0
 11
-106.0142841339511
 21
94.80768154555521
 31
0.0
  0
LINE
  5
C6
330
4E
100
AcDbEntity
  8
0
  6
Continuous
 62
     7
100
AcDbLine
 10
-135.5285686642336
 20
94.97095447380329
 30
0.0
 11
-105.9999996036696
 21
94.97095447379499
 31
0.0
  0
LINE
  5
C7
330
4E
100
AcDbEntity
  8
0
  6
Continuous
 62
     7
100
AcDbLine
 10
-135.2518192588283
 20
91.80769429526273
 30
0.0
 11
-134.4605476766758
 21
91.80769429392421
 31
0.0
  0
LINE
  5
C8
330
4E
100
AcDbEntity
  8
0
  6
Continuous
 62
     7
100
AcDbLine
 10
-135.5142841339972
 20
94.80768154608194
 30
0.0
 11
-122.5142841339511
 21
94.80771348021361
 31
0.0
  0
LINE
  5
C9
330
4E
100
AcDbEntity
  8
0
  6
Continuous
 62
     7
100
AcDbLine
 10
-135.4005488713675
 20
93.50768154555522
 30
0.0
 11
-135.5142841339972
 21
94.80768154608194
 31
0.0
  0
LINE
  5
CA
330
4E
100
AcDbEntity
  8
0
  6
Continuous
 62
     7
100
AcDbLine
 10
-106.1280193965349
 20
93.50768154555522
 30
0.0
 11
-106.0142841339511
 21
94.80768154555521
 31
0.0
  0
LINE
  5
CB
330
4E
100
AcDbEntity
  8
0
  6
Continuous
 62
     7
100
AcDbLine
 10
-106.2767490133622
 20
91.80769424625029
 30
0.0
 11
-106.1280193965349
 21
93.50768154555522
 31
0.0
  0
LINE
  5
CC
330
4E
100
AcDbEntity
  8
0
  6
Continuous
 62
     7
100
AcDbLine
 10
-106.0142841339511
 20
94.80768154555521
 30
0.0
 11
-105.9999996036696
 21
94.97095447379499
 31
0.0
  0
LINE
  5
CD
330
4E
100
AcDbEntity
  8
0
  6
Continuous
 62
     7
100
AcDbLine
 10
-134.5961679627604
 20
93.50768154555524
 30
0.0
 11
-106.9324003051419
 21
93.50768154555524
 31
0.0
  0
LINE
  5
CE
330
4E
100
AcDbEntity
  8
0
  6
Continuous
 62
     7
100
AcDbLine
 10
-135.4005488713675
 20
93.50768154555522
 30
0.0
 11
-134.5961679627604
 21
93.50768154555524
 31
0.0
  0
LINE
  5
CF
330
4E
100
AcDbEntity
  8
0
  6
Continuous
 62
     7
100
AcDbLine
 10
-106.9324003051419
 20
93.50768154555524
 30
0.0
 11
-106.1280193965349
 21
93.50768154555522
 31
0.0
  0
LINE
  5
D0
330
4E
100
AcDbEntity
  8
0
  6
Continuous
 62
     7
100
AcDbLine
 10
-135.5285686642336
 20
94.97095447380329
 30
0.0
 11
-135.5142841339972
 21
94.80768154608194
 31
0.0
  0
LINE
  5
D1
330
4E
100
AcDbEntity
  8
0
  6
Continuous
 62
     7
100
AcDbLine
 10
-135.2453685432353
 20
91.73396227864384
 30
0.0
 11
-135.2518192588283
 21
91.80769429526273
 31
0.0
  0
LINE
  5
D2
330
4E
100
AcDbEntity
  8
0
  6
Continuous
 62
     7
100
AcDbLine
 10
-135.2518192588283
 20
91.80769429526273
 30
0.0
 11
-135.4005488713675
 21
93.50768154555522
 31
0.0
  0
LINE
  5
D3
330
4E
100
AcDbEntity
  8
0
  6
Continuous
 62
     7
100
AcDbLine
 10
-106.2767490133622
 20
91.80769424625029
 30
0.0
 11
-107.0680205951442
 21
91.8076942475887
 31
0.0
  0
LINE
  5
D4
330
4E
100
AcDbEntity
  8
0
  6
Continuous
 62
     7
100
AcDbLine
 10
-106.2767490133622
 20
91.80769424625029
 30
0.0
 11
-106.2831997246709
 21
91.73396227860172
 31
0.0
  0
LINE
  5
D5
330
4E
100
AcDbEntity
  8
0
  6
Continuous
 62
     7
100
AcDbLine
 10
-135.2453685432353
 20
91.73396227864384
 30
0.0
 11
-134.4902146449391
 21
91.7339503717053
 31
0.0
  0
LINE
  5
D6
330
4E
100
AcDbEntity
  8
0
  6
Continuous
 62
     7
100
AcDbLine
 10
-107.0383465600998
 20
91.73395037169736
 30
0.0
 11
-134.4902146449391
 21
91.7339503717053
 31
0.0
  0
LINE
  5
D7
330
4E
100
AcDbEntity
  8
0
  6
Continuous
 62
     7
100
AcDbLine
 10
-107.0383465600998
 20
91.73395037169736
 30
0.0
 11
-106.2831997246709
 21
91.73396227860172
 31
0.0
  0
SPLINE
  5
D8
330
4E
100
AcDbEntity
  8
0
  6
Continuous
 62
     7
100
AcDbSpline
210
0.0
220
0.0
230
1.0
 70
     8
 71
     3
 72
    11
 73
     7
 74
     5
 42
0.000000001
 43
0.0000000001
 44
0.00000001
 40
0.0
 40
0.0
 40
0.0
 40
0.0
 40
0.8204163041144722
 40
1.750000000010831
 40
2.62707765351721
 40
3.500000000010862
 40
3.500000000010862
 40
3.500000000010862
 40
3.500000000010862
 10
-119.0142841339403
 20
94.80771348021459
 30
0.0
 10
-119.2877562353118
 20
94.80771356285462
 30
0.0
 10
-119.8710895686487
 20
94.80771372348775
 30
0.0
 10
-120.7467821198211
 20
94.80771380115465
 30
0.0
 10
-121.6399766851199
 20
94.80771372702219
 30
0.0
 10
-122.2233100184532
 20
94.80771356736061
 30
0.0
 10
-122.5142841339511
 20
94.80771348021361
 30
0.0
 11
-119.0142841339403
 21
94.80771348021459
 31
0.0
 11
-119.8347004380547
 21
94.80771369953379
 31
0.0
 11
-120.7642841339511
 21
94.80771378533399
 31
0.0
 11
-121.6413617874575
 21
94.80771370896332
 31
0.0
 11
-122.5142841339511
 21
94.80771348021361
 31
0.0
  0
SPLINE
  5
D9
330
4E
100
AcDbEntity
  8
0
  6
Continuous
 62
     7
100
AcDbSpline
210
0.0
220
0.0
230
1.0
 70
     8
 71
     3
 72
     9
 73
     5
 74
     3
 42
0.000000001
 43
0.0000000001
 44
0.00000001
 40
0.0
 40
0.0
 40
0.0
 40
0.0
 40
0.8507568697379114
 40
1.705393175294438
 40
1.705393175294438
 40
1.705393175294438
 40
1.705393175294438
 10
-107.0680205951442
 20
91.8076942475887
 30
0.0
 10
-107.0444669172613
 20
92.09030102139677
 30
0.0
 10
-106.9972521770885
 20
92.6568032523645
 30
0.0
 10
-106.9540503476993
 20
93.22362564395347
 30
0.0
 10
-106.9324003051419
 20
93.50768154555524
 30
0.0
 11
-107.0680205951442
 21
91.8076942475887
 31
0.0
 11
-106.9983582400105
 21
92.65559424624635
 31
0.0
 11
-106.9324003051419
 21
93.50768154555524
 31
0.0
  0
SPLINE
  5
DA
330
4E
100
AcDbEntity
  8
0
  6
Continuous
 62
     7
100
AcDbSpline
210
0.0
220
0.0
230
1.0
 70
     8
 71
     3
 72
     9
 73
     5
 74
     3
 42
0.000000001
 43
0.0000000001
 44
0.00000001
 40
0.0
 40
0.0
 40
0.0
 40
0.0
 40
0.8546362821970488
 40
1.705393128793727
 40
1.705393128793727
 40
1.705393128793727
 40
1.705393128793727
 10
-134.5961679627604
 20
93.50768154555524
 30
0.0
 10
-134.5745179208037
 20
93.22362565171683
 30
0.0
 10
-134.5313160926104
 20
92.65680327558205
 30
0.0
 10
-134.4841013538538
 20
92.09030106005049
 30
0.0
 10
-134.4605476766758
 20
91.80769429392421
 30
0.0
 11
-134.5961679627604
 21
93.50768154555524
 31
0.0
 11
-134.5302100297494
 21
92.65559426953192
 31
0.0
 11
-134.4605476766758
 21
91.80769429392421
 31
0.0
  0
SPLINE
  5
DB
330
4E
100
AcDbEntity
  8
0
  6
Continuous
 62
     7
100
AcDbSpline
210
0.0
220
0.0
230
1.0
 70
     8
 71
     3
 72
    15
 73
    11
 74
     9
 42
0.000000001
 43
0.0000000001
 44
0.00000001
 40
0.0
 40
0.0
 40
0.0
 40
0.0
 40
2.320744243888867
 40
5.560366174694069
 40
9.45722182861387
 40
13.69652265778183
 40
17.93582348748586
 40
21.83267914297035
 40
25.07230107624249
 40
27.39304532330111
 40
27.39304532330111
 40
27.39304532330111
 40
27.39304532330111
 10
-134.4605476766758
 20
91.80769429392421
 30
0.0
 10
-133.6870282044122
 20
91.79774105771692
 30
0.0
 10
-131.8337212228684
 20
91.77389371336997
 30
0.0
 10
-128.6813386031921
 20
91.75673474503685
 30
0.0
 10
-124.8894398423431
 20
91.743300376381
 30
0.0
 10
-120.7642841397159
 20
91.73928350966612
 30
0.0
 10
-116.6391284365535
 20
91.74330036242708
 30
0.0
 10
-112.8472296741365
 20
91.75673471825374
 30
0.0
 10
-109.6948470520018
 20
91.77389367593105
 30
0.0
 10
-107.8415400684981
 20
91.79774101399876
 30
0.0
 10
-107.0680205951442
 20
91.8076942475887
 30
0.0
 11
-134.4605476766758
 21
91.80769429392421
 31
0.0
 11
-132.1399659328298
 21
91.78023136447204
 31
0.0
 11
-128.9004145024056
 21
91.75885874646903
 31
0.0
 11
-125.0035824257631
 21
91.7453031646234
 31
0.0
 11
-120.7642841398923
 21
91.74065952350881
 31
0.0
 11
-116.5249858534696
 21
91.74530315028154
 31
0.0
 11
-112.6281537752166
 21
91.7588587189439
 31
0.0
 11
-109.3886023422531
 21
91.78023132598724
 31
0.0
 11
-107.0680205951442
 21
91.8076942475887
 31
0.0
  0
ENDBLK
  5
50
330
4E
100
AcDbEntity
  8
0
100
AcDbBlockEnd
  0
BLOCK
  5
53
330
51
100
AcDbEntity
  8
0
100
AcDbBlockBegin
  2
Drfsicht1
 70
     0
 10
-120.7642843323028
 20
93.35245241966825
 30
0.0
  3
Drfsicht1
  1

  0
INSERT
  5
52
330
51
100
AcDbEntity
  8
0
100
AcDbBlockReference
  2
0828984_CARRIER_EMLP_22_27x8-select__2
 10
-135.5285686642336
 20
91.73395037169736
 30
0.0
  0
MTEXT
  5
DC
330
51
100
AcDbEntity
  8
1
 62
     6
100
AcDbMText
 10
-120.7642843323029
 20
86.73395036157945
 30
0.0
 40
5.0
 41
0.0
 71
     2
 72
     1
  1
 
  7
CONVERTER_11
 73
     1
 44
1.32052821128451
  0
ENDBLK
  5
54
330
51
100
AcDbEntity
  8
0
100
AcDbBlockEnd
  0
BLOCK
  5
56
330
55
100
AcDbEntity
  8
0
100
AcDbBlockBegin
  2
0828984_CARRIER_EMLP_22_27x8-select__3
 70
     0
 10
-26.00000039633032
 20
127.970954482805
 30
0.0
  3
0828984_CARRIER_EMLP_22_27x8-select__3
  1

  0
LINE
  5
DD
330
55
100
AcDbEntity
  8
0
  6
Continuous
 62
     7
100
AcDbLine
 10
3.52856866423372
 20
127.970954482805
 30
0.0
 11
3.51428766505809
 21
137.321187108359
 31
0.0
  0
LINE
  5
DE
330
55
100
AcDbEntity
  8
0
  6
Continuous
 62
     7
100
AcDbLine
 10
3.51428413248212
 20
153.283082422165
 30
0.0
 11
3.51428766505809
 21
137.321187108359
 31
0.0
  0
LINE
  5
DF
330
55
100
AcDbEntity
  8
0
  6
Continuous
 62
     7
100
AcDbLine
 10
-23.86504680636332
 20
155.032870900646
 30
0.0
 11
-22.60178378771806
 21
155.032870900646
 31
0.0
  0
LINE
  5
E0
330
55
100
AcDbEntity
  8
0
  6
Continuous
 62
     7
100
AcDbLine
 10
-25.9857193971547
 20
137.3211936343807
 30
0.0
 11
-26.00000039633032
 21
127.9709610151452
 31
0.0
  0
LINE
  5
E1
330
55
100
AcDbEntity
  8
0
  6
Continuous
 62
     7
100
AcDbLine
 10
-25.98571586604875
 20
153.282870900646
 30
0.0
 11
-25.9857193971547
 21
137.3211936343807
 31
0.0
  0
LINE
  5
E2
330
55
100
AcDbEntity
  8
0
  6
Continuous
 62
     7
100
AcDbLine
 10
-12.98571586604875
 20
164.6489388223153
 30
0.0
 11
-12.98571586604875
 21
165.9122018409611
 31
0.0
  0
LINE
  5
E3
330
55
100
AcDbEntity
  8
0
  6
Continuous
 62
     7
100
AcDbLine
 10
-9.48571586604875
 20
164.6489388223153
 30
0.0
 11
-9.48571586604875
 21
165.9122018409611
 31
0.0
  0
LINE
  5
E4
330
55
100
AcDbEntity
  8
0
  6
Continuous
 62
     7
100
AcDbLine
 10
1.39361507426599
 20
155.032870900646
 30
0.0
 11
0.13035205562056
 21
155.032870900646
 31
0.0
  0
LINE
  5
E5
330
55
100
AcDbEntity
  8
0
  6
Continuous
 62
     2
100
AcDbLine
 10
2.55267678977076
 20
137.3211873210875
 30
0.0
 11
2.55267678925446
 21
137.3328742423438
 31
0.0
  0
LINE
  5
E6
330
55
100
AcDbEntity
  8
0
  6
Continuous
 62
     7
100
AcDbLine
 10
0.13035205562056
 20
151.532870900646
 30
0.0
 11
1.39361507426587
 21
151.532870900646
 31
0.0
  0
LINE
  5
E7
330
55
100
AcDbEntity
  8
0
  6
Continuous
 62
     7
100
AcDbLine
 10
-22.60178378771806
 20
151.532870900646
 30
0.0
 11
-23.86504680636319
 21
151.532870900646
 31
0.0
  0
LINE
  5
E8
330
55
100
AcDbEntity
  8
0
  6
Continuous
 62
     7
100
AcDbLine
 10
-12.98571586604875
 20
141.9168029789767
 30
0.0
 11
-12.98571586604875
 21
140.6535399603319
 31
0.0
  0
LINE
  5
E9
330
55
100
AcDbEntity
  8
0
  6
Continuous
 62
     2
100
AcDbLine
 10
-25.0241085058563
 20
137.3211934216521
 30
0.0
 11
-25.02411206370239
 21
137.3328742417755
 31
0.0
  0
LINE
  5
EA
330
55
100
AcDbEntity
  8
0
  6
Continuous
 62
     7
100
AcDbLine
 10
-9.48571586604875
 20
140.6535399603319
 30
0.0
 11
-9.48571586604875
 21
141.9168029789767
 31
0.0
  0
LINE
  5
EB
330
55
100
AcDbEntity
  8
0
  6
Continuous
 62
     7
100
AcDbLine
 10
3.52856866423372
 20
127.970954482805
 30
0.0
 11
-26.00000039633032
 21
127.9709610151452
 31
0.0
  0
LINE
  5
EC
330
55
100
AcDbEntity
  8
0
  6
Continuous
 62
     2
100
AcDbLine
 10
-25.02411206370239
 20
137.3328742417755
 30
0.0
 11
2.55267678925446
 21
137.3328742423438
 31
0.0
  0
LINE
  5
ED
330
55
100
AcDbEntity
  8
0
  6
Continuous
 62
     2
100
AcDbLine
 10
-25.0241085058563
 20
137.3211934216521
 30
0.0
 11
-25.9857193971547
 21
137.3211936343807
 31
0.0
  0
LINE
  5
EE
330
55
100
AcDbEntity
  8
0
  6
Continuous
 62
     2
100
AcDbLine
 10
3.51428766505809
 20
137.321187108359
 30
0.0
 11
2.55267678977076
 21
137.3211873210875
 31
0.0
  0
ARC
  5
EF
330
55
100
AcDbEntity
  8
0
  6
Continuous
 62
     7
100
AcDbCircle
 10
-11.23571586604911
 20
153.282867637636
 30
0.0
 40
12.75000323212816
100
AcDbArc
 50
82.11097178252558
 51
97.88902821747122
  0
ARC
  5
F0
330
55
100
AcDbEntity
  8
0
  6
Continuous
 62
     7
100
AcDbCircle
 10
-11.23571749755408
 20
153.2828692691407
 30
0.0
 40
11.50000186077702
100
AcDbArc
 50
8.75293587381408
 51
81.2470641261858
  0
ARC
  5
F1
330
55
100
AcDbEntity
  8
0
  6
Continuous
 62
     7
100
AcDbCircle
 10
-11.2357158660487
 20
153.2828709006465
 30
0.0
 40
12.74999999999947
100
AcDbArc
 50
172.1109697699237
 51
187.8890302300806
  0
ARC
  5
F2
330
55
100
AcDbEntity
  8
0
  6
Continuous
 62
     7
100
AcDbCircle
 10
-11.23571423454378
 20
153.2828692691411
 30
0.0
 40
11.50000186077654
100
AcDbArc
 50
98.75293587381273
 51
171.2470641261876
  0
ARC
  5
F3
330
55
100
AcDbEntity
  8
0
  6
Continuous
 62
     7
100
AcDbCircle
 10
-11.2357158660487
 20
153.2828709006465
 30
0.0
 40
12.74999999999955
100
AcDbArc
 50
352.1109697699194
 51
7.8890302300762
  0
ARC
  5
F4
330
55
100
AcDbEntity
  8
0
  6
Continuous
 62
     7
100
AcDbCircle
 10
-11.23571749755408
 20
153.2828692691407
 30
0.0
 40
11.49999813922316
100
AcDbArc
 50
188.7529222799488
 51
261.2470777200513
  0
ARC
  5
F5
330
55
100
AcDbEntity
  8
0
  6
Continuous
 62
     7
100
AcDbCircle
 10
-11.23571586604911
 20
153.282867637636
 30
0.0
 40
12.74999676787089
100
AcDbArc
 50
262.1109677573166
 51
277.8890322426866
  0
ARC
  5
F6
330
55
100
AcDbEntity
  8
0
  6
Continuous
 62
     7
100
AcDbCircle
 10
-11.23571423454378
 20
153.2828692691411
 30
0.0
 40
11.49999813922361
100
AcDbArc
 50
278.7529222799502
 51
351.2470777200495
  0
ARC
  5
F7
330
55
100
AcDbEntity
  8
0
  6
Continuous
 62
     7
100
AcDbCircle
 10
-11.23571586600159
 20
153.2828676378635
 30
0.0
 40
14.75000000004751
100
AcDbArc
 50
0.00083432094795
 51
179.9999873258531
  0
ENDBLK
  5
57
330
55
100
AcDbEntity
  8
0
100
AcDbBlockEnd
  0
BLOCK
  5
5A
330
58
100
AcDbEntity
  8
0
100
AcDbBlockBegin
  2
Rckans1
 70
     0
 10
-11.23571566769704
 20
148.0000000000101
 30
0.0
  3
Rckans1
  1

  0
INSERT
  5
59
330
58
100
AcDbEntity
  8
0
100
AcDbBlockReference
  2
0828984_CARRIER_EMLP_22_27x8-select__3
 10
-26.00000039633032
 20
127.970954482805
 30
0.0
  0
MTEXT
  5
F8
330
58
100
AcDbEntity
  8
1
 62
     6
100
AcDbMText
 10
-11.23571566769715
 20
122.970954477797
 30
0.0
 40
5.0
 41
0.0
 71
     2
 72
     1
  1
 
  7
CONVERTER_11
 73
     1
 44
1.32052821128451
  0
ENDBLK
  5
5B
330
58
100
AcDbEntity
  8
0
100
AcDbBlockEnd
  0
BLOCK
  5
5D
330
5C
100
AcDbEntity
  8
0
100
AcDbBlockBegin
  2
0828984_CARRIER_EMLP_22_27x8-select__4
 70
     0
 10
-66.61850205410502
 20
127.970954482805
 30
0.0
  3
0828984_CARRIER_EMLP_22_27x8-select__4
  1

  0
LINE
  5
F9
330
5C
100
AcDbEntity
  8
0
  6
Continuous
 62
     7
100
AcDbLine
 10
-65.15522912585695
 20
147.4524861429167
 30
0.0
 11
-65.15522912585695
 21
153.282870900646
 31
0.0
  0
LINE
  5
FA
330
5C
100
AcDbEntity
  8
0
  6
Continuous
 62
     7
100
AcDbLine
 10
-65.15522912585695
 20
153.282870900646
 30
0.0
 11
-65.15522912585693
 21
167.9191356380623
 31
0.0
  0
LINE
  5
FB
330
5C
100
AcDbEntity
  8
0
  6
Continuous
 62
     7
100
AcDbLine
 10
-65.15522912585693
 20
167.9191356380623
 30
0.0
 11
-66.45519183002872
 21
168.0328676376838
 31
0.0
  0
LINE
  5
FC
330
5C
100
AcDbEntity
  8
0
  6
Continuous
 62
     7
100
AcDbLine
 10
-63.38150985894556
 20
137.3328735462704
 30
0.0
 11
-63.45524187556445
 21
146.9969759320576
 31
0.0
  0
LINE
  5
FD
330
5C
100
AcDbEntity
  8
0
  6
Continuous
 62
     7
100
AcDbLine
 10
-63.47131011025142
 20
128.1910196461257
 30
0.0
 11
-63.38150985894556
 21
137.3328735462704
 31
0.0
  0
LINE
  5
FE
330
5C
100
AcDbEntity
  8
0
  6
Continuous
 62
     7
100
AcDbLine
 10
-63.47131011025142
 20
128.1910196461257
 30
0.0
 11
-66.61850205410502
 21
127.970954482805
 31
0.0
  0
LINE
  5
FF
330
5C
100
AcDbEntity
  8
0
  6
Continuous
 62
     7
100
AcDbLine
 10
-63.45524187556445
 20
146.9969759320576
 30
0.0
 11
-65.15522912585695
 21
147.4524861429167
 31
0.0
  0
LINE
  5
100
330
5C
100
AcDbEntity
  8
0
  6
Continuous
 62
     7
100
AcDbLine
 10
-66.45522912638367
 20
153.282870900646
 30
0.0
 11
-66.45526948659192
 21
137.321187108359
 31
0.0
  0
LINE
  5
101
330
5C
100
AcDbEntity
  8
0
  6
Continuous
 62
     2
100
AcDbLine
 10
-65.15522912585695
 20
153.282870900646
 30
0.0
 11
-66.45522912638367
 21
153.282870900646
 31
0.0
  0
LINE
  5
102
330
5C
100
AcDbEntity
  8
0
  6
Continuous
 62
     7
100
AcDbLine
 10
-66.45522912638367
 20
153.282870900646
 30
0.0
 11
-66.45519183002872
 21
168.0328676376838
 31
0.0
  0
LINE
  5
103
330
5C
100
AcDbEntity
  8
0
  6
Continuous
 62
     7
100
AcDbLine
 10
-66.61850205410502
 20
127.970954482805
 30
0.0
 11
-66.45526948659192
 21
137.321187108359
 31
0.0
  0
ENDBLK
  5
5E
330
5C
100
AcDbEntity
  8
0
100
AcDbBlockEnd
  0
BLOCK
  5
61
330
5F
100
AcDbEntity
  8
0
100
AcDbBlockBegin
  2
SA_Links1
 70
     0
 10
-64.99999999996999
 20
148.00000000001
 30
0.0
  3
SA_Links1
  1

  0
INSERT
  5
60
330
5F
100
AcDbEntity
  8
0
100
AcDbBlockReference
  2
0828984_CARRIER_EMLP_22_27x8-select__4
 10
-66.61850205410502
 20
127.970954482805
 30
0.0
  0
MTEXT
  5
104
330
5F
100
AcDbEntity
  8
1
 62
     6
100
AcDbMText
 10
-64.99999999996999
 20
122.970954477797
 30
0.0
 40
5.0
 41
0.0
 71
     2
 72
     1
  1
 
  7
CONVERTER_11
 73
     1
 44
1.32052821128451
  0
DIMENSION
  5
111
330
5F
100
AcDbEntity
  8
1
100
AcDbDimension
  2
*D16
 10
-66.61850205410502
 20
116.4384596291293
 30
0.0
 11
-56.60340685668498
 21
120.3634596291293
 31
0.0
 70
    32
  1
<>
 71
     5
 42
-1.0
 53
0.00013888888889
  3
ME10_DIM_10
100
AcDbAlignedDimension
 13
-63.47131011025142
 23
128.1910196461257
 33
0.0
 14
-66.61850205410502
 24
127.970954482805
 34
0.0
100
AcDbRotatedDimension
  0
DIMENSION
  5
11C
330
5F
100
AcDbEntity
  8
1
100
AcDbDimension
  2
*D17
 10
-76.61850205410502
 20
168.0328676376838
 30
0.0
 11
-80.54350205410502
 21
148.236735138667
 31
0.0
 70
    32
  1
<>
 71
     5
 42
-1.0
 53
90.0
  3
ME10_DIM_11
100
AcDbAlignedDimension
 13
-66.61850205410502
 23
127.970954482805
 33
0.0
 14
-66.45519183002872
 24
168.0328676376838
 34
0.0
 50
90.0
100
AcDbRotatedDimension
  0
ENDBLK
  5
62
330
5F
100
AcDbEntity
  8
0
100
AcDbBlockEnd
  0
BLOCK
  5
64
330
63
100
AcDbEntity
  8
0
100
AcDbBlockBegin
  2
0828984_CARRIER_EMLP_22_27x8-select__5
 70
     0
 10
-168.1470588056621
 20
127.9709610151452
 30
0.0
  3
0828984_CARRIER_EMLP_22_27x8-select__5
  1

  0
LINE
  5
11D
330
63
100
AcDbEntity
  8
0
  6
Continuous
 62
     7
100
AcDbLine
 10
-166.3733395387087
 20
167.9191356380623
 30
0.0
 11
-165.0733768345369
 21
168.0328676376838
 31
0.0
  0
LINE
  5
11E
330
63
100
AcDbEntity
  8
0
  6
Continuous
 62
     7
100
AcDbLine
 10
-165.0733768345369
 20
168.0328676376838
 30
0.0
 11
-165.0733395387086
 21
153.282870900646
 31
0.0
  0
LINE
  5
11F
330
63
100
AcDbEntity
  8
0
  6
Continuous
 62
     7
100
AcDbLine
 10
-166.3733395387087
 20
153.282870900646
 30
0.0
 11
-166.3733395387087
 21
147.4524861429166
 31
0.0
  0
LINE
  5
120
330
63
100
AcDbEntity
  8
0
  6
Continuous
 62
     7
100
AcDbLine
 10
-166.3733395387087
 20
167.9191356380623
 30
0.0
 11
-166.3733395387087
 21
153.282870900646
 31
0.0
  0
LINE
  5
121
330
63
100
AcDbEntity
  8
0
  6
Continuous
 62
     7
100
AcDbLine
 10
-168.0733268380135
 20
146.9969759189248
 30
0.0
 11
-166.3733395387087
 21
147.4524861429166
 31
0.0
  0
LINE
  5
122
330
63
100
AcDbEntity
  8
0
  6
Continuous
 62
     2
100
AcDbLine
 10
-166.3733395387087
 20
153.282870900646
 30
0.0
 11
-165.0733395387086
 21
153.282870900646
 31
0.0
  0
LINE
  5
123
330
63
100
AcDbEntity
  8
0
  6
Continuous
 62
     7
100
AcDbLine
 10
-165.0733395387086
 20
153.282870900646
 30
0.0
 11
-165.0732991779819
 21
137.3211936343806
 31
0.0
  0
LINE
  5
124
330
63
100
AcDbEntity
  8
0
  6
Continuous
 62
     7
100
AcDbLine
 10
-168.0572585543223
 20
128.1910260566423
 30
0.0
 11
-168.1470588056621
 21
137.3328799488532
 31
0.0
  0
LINE
  5
125
330
63
100
AcDbEntity
  8
0
  6
Continuous
 62
     7
100
AcDbLine
 10
-168.0572585543223
 20
128.1910260566423
 30
0.0
 11
-164.9100666104689
 21
127.9709610151452
 31
0.0
  0
LINE
  5
126
330
63
100
AcDbEntity
  8
0
  6
Continuous
 62
     7
100
AcDbLine
 10
-168.0733268380135
 20
146.9969759189248
 30
0.0
 11
-168.1470588056621
 21
137.3328799488532
 31
0.0
  0
LINE
  5
127
330
63
100
AcDbEntity
  8
0
  6
Continuous
 62
     7
100
AcDbLine
 10
-165.0732991779819
 20
137.3211936343806
 30
0.0
 11
-164.9100666104689
 21
127.9709610151452
 31
0.0
  0
ENDBLK
  5
65
330
63
100
AcDbEntity
  8
0
100
AcDbBlockEnd
  0
BLOCK
  5
68
330
66
100
AcDbEntity
  8
0
100
AcDbBlockBegin
  2
SA_Rechts1
 70
     0
 10
-166.5285686645956
 20
148.00000000001
 30
0.0
  3
SA_Rechts1
  1

  0
INSERT
  5
67
330
66
100
AcDbEntity
  8
0
100
AcDbBlockReference
  2
0828984_CARRIER_EMLP_22_27x8-select__5
 10
-168.1470588056621
 20
127.9709610151452
 30
0.0
  0
MTEXT
  5
128
330
66
100
AcDbEntity
  8
1
 62
     6
100
AcDbMText
 10
-166.5285686645956
 20
122.970954477797
 30
0.0
 40
5.0
 41
0.0
 71
     2
 72
     1
  1
 
  7
CONVERTER_11
 73
     1
 44
1.32052821128451
  0
ENDBLK
  5
69
330
66
100
AcDbEntity
  8
0
100
AcDbBlockEnd
  0
BLOCK
  5
6B
330
6A
100
AcDbEntity
  8
0
100
AcDbBlockBegin
  2
0828984_CARRIER_EMLP_22_27x8-select__6
 70
     0
 10
-135.5285686642336
 20
127.970954482805
 30
0.0
  3
0828984_CARRIER_EMLP_22_27x8-select__6
  1

  0
LINE
  5
129
330
6A
100
AcDbEntity
  8
0
  6
Continuous
 62
     7
100
AcDbLine
 10
-135.5285686642336
 20
127.970954482805
 30
0.0
 11
-105.9999996036696
 21
127.9709610151452
 31
0.0
  0
LINE
  5
12A
330
6A
100
AcDbEntity
  8
0
  6
Continuous
 62
     7
100
AcDbLine
 10
-135.2532250472063
 20
128.1910196461257
 30
0.0
 11
-106.2753432206969
 21
128.1910260566423
 31
0.0
  0
LINE
  5
12B
330
6A
100
AcDbEntity
  8
0
  6
Continuous
 62
     7
100
AcDbLine
 10
-122.5142841339511
 20
164.6489388223153
 30
0.0
 11
-122.5142841339511
 21
165.9122018409611
 31
0.0
  0
LINE
  5
12C
330
6A
100
AcDbEntity
  8
0
  6
Continuous
 62
     7
100
AcDbLine
 10
-133.3936150742659
 20
155.032870900646
 30
0.0
 11
-132.1303520556205
 21
155.032870900646
 31
0.0
  0
LINE
  5
12D
330
6A
100
AcDbEntity
  8
0
  6
Continuous
 62
     7
100
AcDbLine
 10
-119.0142841339511
 20
165.9122018409611
 30
0.0
 11
-119.0142841339511
 21
164.6489388223153
 31
0.0
  0
LINE
  5
12E
330
6A
100
AcDbEntity
  8
0
  6
Continuous
 62
     7
100
AcDbLine
 10
-119.0142841339511
 20
141.9168029789767
 30
0.0
 11
-119.0142841339511
 21
140.6535399603319
 31
0.0
  0
LINE
  5
12F
330
6A
100
AcDbEntity
  8
0
  6
Continuous
 62
     7
100
AcDbLine
 10
-135.2532250472063
 20
128.1910196461257
 30
0.0
 11
-135.2453685432353
 21
137.3328735462704
 31
0.0
  0
LINE
  5
130
330
6A
100
AcDbEntity
  8
0
  6
Continuous
 62
     7
100
AcDbLine
 10
-135.2532250472063
 20
128.1910196461257
 30
0.0
 11
-135.5285686642336
 21
127.970954482805
 31
0.0
  0
LINE
  5
131
330
6A
100
AcDbEntity
  8
0
  6
Continuous
 62
     2
100
AcDbLine
 10
-135.2453685432353
 20
137.3328735462704
 30
0.0
 11
-134.4902146449391
 21
137.33287380038
 31
0.0
  0
LINE
  5
132
330
6A
100
AcDbEntity
  8
0
  6
Continuous
 62
     7
100
AcDbLine
 10
-135.2518192588283
 20
146.9969759320576
 30
0.0
 11
-134.4605476766758
 21
146.996975931699
 31
0.0
  0
LINE
  5
133
330
6A
100
AcDbEntity
  8
0
  6
Continuous
 62
     7
100
AcDbLine
 10
-135.514284132482
 20
153.283082422165
 30
0.0
 11
-135.514287665058
 21
137.321187108359
 31
0.0
  0
LINE
  5
134
330
6A
100
AcDbEntity
  8
0
  6
Continuous
 62
     7
100
AcDbLine
 10
-135.4005488713675
 20
147.4524861429166
 30
0.0
 11
-134.5961679627604
 21
147.4524861429166
 31
0.0
  0
LINE
  5
135
330
6A
100
AcDbEntity
  8
0
  6
Continuous
 62
     7
100
AcDbLine
 10
-135.4005488713675
 20
147.4524861429166
 30
0.0
 11
-135.4005488713675
 21
153.282870900646
 31
0.0
  0
LINE
  5
136
330
6A
100
AcDbEntity
  8
0
  6
Continuous
 62
     7
100
AcDbLine
 10
-135.2518192588283
 20
146.9969759320576
 30
0.0
 11
-135.4005488713675
 21
147.4524861429166
 31
0.0
  0
LINE
  5
137
330
6A
100
AcDbEntity
  8
0
  6
Continuous
 62
     2
100
AcDbLine
 10
-135.4005488713675
 20
153.282870900646
 30
0.0
 11
-135.514284132482
 21
153.283082422165
 31
0.0
  0
LINE
  5
138
330
6A
100
AcDbEntity
  8
0
  6
Continuous
 62
     7
100
AcDbLine
 10
-135.2453685432353
 20
137.3328735462704
 30
0.0
 11
-135.2518192588283
 21
146.9969759320576
 31
0.0
  0
LINE
  5
139
330
6A
100
AcDbEntity
  8
0
  6
Continuous
 62
     7
100
AcDbLine
 10
-135.5285686642336
 20
127.970954482805
 30
0.0
 11
-135.514287665058
 21
137.321187108359
 31
0.0
  0
LINE
  5
13A
330
6A
100
AcDbEntity
  8
0
  6
Continuous
 62
     7
100
AcDbLine
 10
-132.1303520556205
 20
151.532870900646
 30
0.0
 11
-133.3936150742657
 21
151.532870900646
 31
0.0
  0
LINE
  5
13B
330
6A
100
AcDbEntity
  8
0
  6
Continuous
 62
     7
100
AcDbLine
 10
-108.1349531936367
 20
151.532870900646
 30
0.0
 11
-109.3982162122818
 21
151.532870900646
 31
0.0
  0
LINE
  5
13C
330
6A
100
AcDbEntity
  8
0
  6
Continuous
 62
     7
100
AcDbLine
 10
-122.5142841339511
 20
140.6535399603318
 30
0.0
 11
-122.5142841339511
 21
141.9168029789767
 31
0.0
  0
LINE
  5
13D
330
6A
100
AcDbEntity
  8
0
  6
Continuous
 62
     7
100
AcDbLine
 10
-106.2753432206969
 20
128.1910260566423
 30
0.0
 11
-105.9999996036696
 21
127.9709610151452
 31
0.0
  0
LINE
  5
13E
330
6A
100
AcDbEntity
  8
0
  6
Continuous
 62
     2
100
AcDbLine
 10
-106.1280193965348
 20
153.282870900646
 30
0.0
 11
-106.0142841339511
 21
153.282870900646
 31
0.0
  0
LINE
  5
13F
330
6A
100
AcDbEntity
  8
0
  6
Continuous
 62
     7
100
AcDbLine
 10
-106.0142841339511
 20
153.282870900646
 30
0.0
 11
-106.0142806028452
 21
137.3211936343806
 31
0.0
  0
LINE
  5
140
330
6A
100
AcDbEntity
  8
0
  6
Continuous
 62
     2
100
AcDbLine
 10
-107.0383465600998
 20
137.3328798733378
 30
0.0
 11
-106.2831997246709
 21
137.3328799488532
 31
0.0
  0
LINE
  5
141
330
6A
100
AcDbEntity
  8
0
  6
Continuous
 62
     7
100
AcDbLine
 10
-106.2767490133622
 20
146.9969759189248
 30
0.0
 11
-107.0680205951443
 21
146.9969759192834
 31
0.0
  0
LINE
  5
142
330
6A
100
AcDbEntity
  8
0
  6
Continuous
 62
     7
100
AcDbLine
 10
-109.3982162122818
 20
155.032870900646
 30
0.0
 11
-108.1349531936366
 21
155.032870900646
 31
0.0
  0
LINE
  5
143
330
6A
100
AcDbEntity
  8
0
  6
Continuous
 62
     7
100
AcDbLine
 10
-106.9324003051419
 20
147.4524861429167
 30
0.0
 11
-106.1280193965349
 21
147.4524861429166
 31
0.0
  0
LINE
  5
144
330
6A
100
AcDbEntity
  8
0
  6
Continuous
 62
     7
100
AcDbLine
 10
-106.1280193965348
 20
153.282870900646
 30
0.0
 11
-106.1280193965349
 21
147.4524861429166
 31
0.0
  0
LINE
  5
145
330
6A
100
AcDbEntity
  8
0
  6
Continuous
 62
     7
100
AcDbLine
 10
-106.2767490133622
 20
146.9969759189248
 30
0.0
 11
-106.2831997246709
 21
137.3328799488532
 31
0.0
  0
LINE
  5
146
330
6A
100
AcDbEntity
  8
0
  6
Continuous
 62
     7
100
AcDbLine
 10
-106.2753432206969
 20
128.1910260566423
 30
0.0
 11
-106.2831997246709
 21
137.3328799488532
 31
0.0
  0
LINE
  5
147
330
6A
100
AcDbEntity
  8
0
  6
Continuous
 62
     7
100
AcDbLine
 10
-106.2767490133622
 20
146.9969759189248
 30
0.0
 11
-106.1280193965349
 21
147.4524861429166
 31
0.0
  0
LINE
  5
148
330
6A
100
AcDbEntity
  8
0
  6
Continuous
 62
     7
100
AcDbLine
 10
-106.0142806028452
 20
137.3211936343806
 30
0.0
 11
-105.9999996036696
 21
127.9709610151452
 31
0.0
  0
LINE
  5
149
330
6A
100
AcDbEntity
  8
0
  6
Continuous
 62
     2
100
AcDbLine
 10
-107.0383465600998
 20
137.3328798733378
 30
0.0
 11
-134.4902146449391
 21
137.33287380038
 31
0.0
  0
ARC
  5
14A
330
6A
100
AcDbEntity
  8
0
  6
Continuous
 62
     7
100
AcDbCircle
 10
-120.7642841339508
 20
153.282867637636
 30
0.0
 40
12.74999676787107
100
AcDbArc
 50
262.1109677573137
 51
277.8890322426836
  0
ARC
  5
14B
330
6A
100
AcDbEntity
  8
0
  6
Continuous
 62
     7
100
AcDbCircle
 10
-120.7642841339508
 20
153.282867637636
 30
0.0
 40
15.01047496342641
100
AcDbArc
 50
202.8562759142111
 51
337.1437240857882
  0
ARC
  5
14C
330
6A
100
AcDbEntity
  8
0
  6
Continuous
 62
     7
100
AcDbCircle
 10
-120.7642841330629
 20
153.2788563325208
 30
0.0
 40
15.06816698959526
100
AcDbArc
 50
204.638864933813
 51
335.3611350142489
  0
ARC
  5
14D
330
6A
100
AcDbEntity
  8
0
  6
Continuous
 62
     7
100
AcDbCircle
 10
-120.7642841339508
 20
153.282867637636
 30
0.0
 40
12.75000323212807
100
AcDbArc
 50
82.1109717825285
 51
97.88902821747416
  0
ARC
  5
14E
330
6A
100
AcDbEntity
  8
0
  6
Continuous
 62
     7
100
AcDbCircle
 10
-120.7642825024458
 20
153.2828692691407
 30
0.0
 40
11.50000186077698
100
AcDbArc
 50
98.75293587381405
 51
171.247064126186
  0
ARC
  5
14F
330
6A
100
AcDbEntity
  8
0
  6
Continuous
 62
     7
100
AcDbCircle
 10
-120.7642857654561
 20
153.282869269141
 30
0.0
 40
11.50000186077663
100
AcDbArc
 50
8.75293587381281
 51
81.2470641261872
  0
ARC
  5
150
330
6A
100
AcDbEntity
  8
0
  6
Continuous
 62
     7
100
AcDbCircle
 10
-120.7642841339511
 20
153.282870900646
 30
0.0
 40
14.6362647374163
100
AcDbArc
 50
0.0
 51
180.0
  0
ARC
  5
151
330
6A
100
AcDbEntity
  8
0
  6
Continuous
 62
     7
100
AcDbCircle
 10
-120.7642825024458
 20
153.2828692691407
 30
0.0
 40
11.49999813922316
100
AcDbArc
 50
278.7529222799488
 51
351.2470777200512
  0
ARC
  5
152
330
6A
100
AcDbEntity
  8
0
  6
Continuous
 62
     7
100
AcDbCircle
 10
-120.7642841339511
 20
153.282870900646
 30
0.0
 40
12.74999999999973
100
AcDbArc
 50
172.1109697699217
 51
187.8890302300784
  0
ARC
  5
153
330
6A
100
AcDbEntity
  8
0
  6
Continuous
 62
     7
100
AcDbCircle
 10
-120.7642857654561
 20
153.282869269141
 30
0.0
 40
11.49999813922363
100
AcDbArc
 50
188.75292227995
 51
261.2470777200499
  0
ARC
  5
154
330
6A
100
AcDbEntity
  8
0
  6
Continuous
 62
     7
100
AcDbCircle
 10
-120.7642841339511
 20
153.282870900646
 30
0.0
 40
12.74999999999931
100
AcDbArc
 50
352.1109697699215
 51
7.88903023007848
  0
ARC
  5
155
330
6A
100
AcDbEntity
  8
0
  6
Continuous
 62
     7
100
AcDbCircle
 10
-120.7642841339983
 20
153.2828676371988
 30
0.0
 40
14.75000000004757
100
AcDbArc
 50
0.00001267672894
 51
179.9991656764701
  0
SPLINE
  5
156
330
6A
100
AcDbEntity
  8
0
  6
Continuous
 62
     7
100
AcDbSpline
210
0.0
220
0.0
230
1.0
 70
     8
 71
     3
 72
     9
 73
     5
 74
     3
 42
0.000000001
 43
0.0000000001
 44
0.00000001
 40
0.0
 40
0.0
 40
0.0
 40
0.0
 40
0.2376524547779499
 40
0.475286645729019
 40
0.475286645729019
 40
0.475286645729019
 40
0.475286645729019
 10
-134.5961679627604
 20
147.4524861429166
 30
0.0
 10
-134.5744911448183
 20
147.3762887300478
 30
0.0
 10
-134.5311391556288
 20
147.2238997657859
 30
0.0
 10
-134.4840775732298
 20
147.072615269998
 30
0.0
 10
-134.4605476766758
 20
146.996975931699
 30
0.0
 11
-134.5961679627604
 21
147.4524861429166
 31
0.0
 11
-134.5302100297494
 21
147.2241700454254
 31
0.0
 11
-134.4605476766758
 21
146.996975931699
 31
0.0
  0
SPLINE
  5
157
330
6A
100
AcDbEntity
  8
0
  6
Continuous
 62
     7
100
AcDbSpline
210
0.0
220
0.0
230
1.0
 70
     8
 71
     3
 72
     9
 73
     5
 74
     3
 42
0.000000001
 43
0.0000000001
 44
0.00000001
 40
0.0
 40
0.0
 40
0.0
 40
0.0
 40
0.2376341974599335
 40
0.475286658747793
 40
0.475286658747793
 40
0.475286658747793
 40
0.475286658747793
 10
-107.0680205951443
 20
146.9969759192834
 30
0.0
 10
-107.0444906978866
 20
147.072615259636
 30
0.0
 10
-106.9974291140803
 20
147.2238997595313
 30
0.0
 10
-106.9540771236862
 20
147.3762887279629
 30
0.0
 10
-106.9324003051419
 20
147.4524861429167
 30
0.0
 11
-107.0680205951443
 21
146.9969759192834
 31
0.0
 11
-106.9983582400105
 21
147.224170039186
 31
0.0
 11
-106.9324003051419
 21
147.4524861429167
 31
0.0
  0
ENDBLK
  5
6C
330
6A
100
AcDbEntity
  8
0
100
AcDbBlockEnd
  0
BLOCK
  5
6F
330
6D
100
AcDbEntity
  8
0
100
AcDbBlockBegin
  2
Vordans1
 70
     0
 10
-120.7642843323028
 20
148.00000000001
 30
0.0
  3
Vordans1
  1

  0
INSERT
  5
6E
330
6D
100
AcDbEntity
  8
0
100
AcDbBlockReference
  2
0828984_CARRIER_EMLP_22_27x8-select__6
 10
-135.5285686642336
 20
127.970954482805
 30
0.0
  0
MTEXT
  5
158
330
6D
100
AcDbEntity
  8
1
 62
     6
100
AcDbMText
 10
-120.7642843323029
 20
122.970954477797
 30
0.0
 40
5.0
 41
0.0
 71
     2
 72
     1
  1
 
  7
CONVERTER_11
 73
     1
 44
1.32052821128451
  0
DIMENSION
  5
163
330
6D
100
AcDbEntity
  8
1
100
AcDbDimension
  2
*D18
 10
-105.9999970524355
 20
116.4384489227862
 30
0.0
 11
-120.5248841597255
 21
120.3634457095759
 31
0.0
 70
    33
  1
<>
 71
     5
 42
-1.0
 53
0.00013888888889
  3
ME10_DIM_12
100
AcDbAlignedDimension
 13
-135.5285686642336
 23
127.970954482805
 33
0.0
 14
-105.9999996036696
 24
127.9709610151452
 34
0.0
  0
ENDBLK
  5
70
330
6D
100
AcDbEntity
  8
0
100
AcDbBlockEnd
  0
BLOCK
  5
72
330
71
100
AcDbEntity
  8
0
100
AcDbBlockBegin
  2
_punkt
 70
     0
 10
69.39995898510344
 20
4.89562167368609
 30
0.0
  3
_punkt
  1

  0
LINE
  5
164
330
71
100
AcDbEntity
  8
1
  6
Continuous
 62
     2
100
AcDbLine
 10
69.39995898510344
 20
4.89562167368609
 30
0.0
 11
69.39995898510344
 21
-0.10437832631402
 31
0.0
  0
LINE
  5
165
330
71
100
AcDbEntity
  8
1
  6
Continuous
 62
     2
100
AcDbLine
 10
69.39995898510344
 20
4.89562167368609
 30
0.0
 11
74.39995898510244
 21
4.89562167368609
 31
0.0
  0
ENDBLK
  5
73
330
71
100
AcDbEntity
  8
0
100
AcDbBlockEnd
  0
BLOCK
  5
75
330
74
100
AcDbEntity
  8
0
100
AcDbBlockBegin
  2
_rahmen
 70
     0
 10
69.39995898510344
 20
-0.10437832631402
 30
0.0
  3
_rahmen
  1

  0
POINT
  5
166
330
74
100
AcDbEntity
  8
1
 62
     3
 60
     1
100
AcDbPoint
 10
5.89995898510582
 20
26.14562167368596
 30
0.0
  0
LINE
  5
167
102
{ACAD_REACTORS
330
349
330
34A
102
}
330
74
100
AcDbEntity
  8
0
  6
Continuous
 62
     2
100
AcDbLine
 10
-45.6577141848139
 20
12.40412507505308
 30
0.0
 11
-45.6577141848139
 21
13.12521351042767
 31
0.0
  0
LINE
  5
168
102
{ACAD_REACTORS
330
349
330
34A
102
}
330
74
100
AcDbEntity
  8
0
  6
Continuous
 62
     2
100
AcDbLine
 10
-45.6577141848139
 20
11.61092779614162
 30
0.0
 11
-45.6577141848139
 21
10.88983936076703
 31
0.0
  0
LINE
  5
169
102
{ACAD_REACTORS
330
34B
330
34C
102
}
330
74
100
AcDbEntity
  8
0
  6
Continuous
 62
     2
100
AcDbLine
 10
-32.98577688209454
 20
12.62045160566505
 30
0.0
 11
-32.07367828741016
 21
12.62045160566505
 31
0.0
  0
LINE
  5
16A
102
{ACAD_REACTORS
330
34B
330
34C
102
}
330
74
100
AcDbEntity
  8
0
  6
Continuous
 62
     2
100
AcDbLine
 10
-32.34969643336613
 20
11.61092779614116
 30
0.0
 11
-32.34969643336613
 21
10.88983936076659
 31
0.0
  0
LINE
  5
16B
102
{ACAD_REACTORS
330
355
330
356
102
}
330
74
100
AcDbEntity
  8
0
  6
Continuous
 62
     2
100
AcDbLine
 10
-33.88751181797758
 20
13.52181214986909
 30
0.0
 11
-32.7321787213327
 21
14.8283071860467
 31
0.0
  0
LINE
  5
16C
102
{ACAD_REACTORS
330
355
330
356
102
}
330
74
100
AcDbEntity
  8
0
  6
Continuous
 62
     2
100
AcDbLine
 10
-33.80864949056203
 20
16.04562167367992
 30
0.0
 11
-32.7321787213327
 21
14.8283071860467
 31
0.0
  0
LINE
  5
16D
102
{ACAD_REACTORS
330
355
330
356
102
}
330
74
100
AcDbEntity
  8
0
  6
Continuous
 62
     2
100
AcDbLine
 10
-31.65570795210429
 20
16.04562167367992
 30
0.0
 11
-30.49643173909007
 21
16.04562167367992
 31
0.0
  0
LINE
  5
16E
102
{ACAD_REACTORS
330
355
330
356
102
}
330
74
100
AcDbEntity
  8
0
  6
Continuous
 62
     2
100
AcDbLine
 10
-32.72823560496257
 20
13.52181214986909
 30
0.0
 11
-32.1525406148256
 21
14.17283015424403
 31
0.0
  0
LINE
  5
16F
102
{ACAD_REACTORS
330
355
330
356
102
}
330
74
100
AcDbEntity
  8
0
  6
Continuous
 62
     2
100
AcDbLine
 10
-32.72823560496257
 20
13.52181214986909
 30
0.0
 11
-33.88751181797758
 21
13.52181214986909
 31
0.0
  0
LINE
  5
170
102
{ACAD_REACTORS
330
357
330
358
102
}
330
74
100
AcDbEntity
  8
0
  6
Continuous
 62
     2
100
AcDbLine
 10
-33.98608972724773
 20
13.52181214986909
 30
0.0
 11
-35.01129998365511
 21
13.52181214986909
 31
0.0
  0
LINE
  5
171
102
{ACAD_REACTORS
330
359
330
35A
102
}
330
74
100
AcDbEntity
  8
0
  6
Continuous
 62
     2
100
AcDbLine
 10
-35.72863850279154
 20
11.75514548321626
 30
0.0
 11
-35.97670894675034
 21
12.3897033063458
 31
0.0
  0
LINE
  5
172
102
{ACAD_REACTORS
330
359
330
35A
102
}
330
74
100
AcDbEntity
  8
0
  6
Continuous
 62
     2
100
AcDbLine
 10
-36.22477939071096
 20
11.75514548321626
 30
0.0
 11
-35.72863850279154
 21
11.75514548321626
 31
0.0
  0
LINE
  5
173
102
{ACAD_REACTORS
330
359
330
35A
102
}
330
74
100
AcDbEntity
  8
0
  6
Continuous
 62
     2
100
AcDbLine
 10
-37.64464717159839
 20
10.74562167369194
 30
0.0
 11
-36.61943691519102
 21
10.74562167369194
 31
0.0
  0
LINE
  5
174
102
{ACAD_REACTORS
330
359
330
35A
102
}
330
74
100
AcDbEntity
  8
0
  6
Continuous
 62
     2
100
AcDbLine
 10
-36.48931407495442
 20
13.26943119750277
 30
0.0
 11
-35.46410381854717
 21
13.26943119750277
 31
0.0
  0
LINE
  5
175
102
{ACAD_REACTORS
330
359
330
35A
102
}
330
74
100
AcDbEntity
  8
0
  6
Continuous
 62
     2
100
AcDbLine
 10
-35.46410381854717
 20
13.26943119750277
 30
0.0
 11
-34.30877072190227
 21
10.74562167369194
 31
0.0
  0
LINE
  5
176
102
{ACAD_REACTORS
330
359
330
35A
102
}
330
74
100
AcDbEntity
  8
0
  6
Continuous
 62
     2
100
AcDbLine
 10
-35.33398097831046
 20
10.74562167369194
 30
0.0
 11
-35.50875788200946
 21
11.19269650362406
 31
0.0
  0
LINE
  5
177
102
{ACAD_REACTORS
330
35B
330
35C
102
}
330
74
100
AcDbEntity
  8
0
  6
Continuous
 62
     2
100
AcDbLine
 10
-38.75738527218321
 20
10.74562167369194
 30
0.0
 11
-37.77160617948366
 21
10.74562167369194
 31
0.0
  0
LINE
  5
178
102
{ACAD_REACTORS
330
35B
330
35C
102
}
330
74
100
AcDbEntity
  8
0
  6
Continuous
 62
     2
100
AcDbLine
 10
-38.75738527218321
 20
12.62045160566505
 30
0.0
 11
-38.75738527218321
 21
10.74562167369194
 31
0.0
  0
LINE
  5
179
102
{ACAD_REACTORS
330
35B
330
35C
102
}
330
74
100
AcDbEntity
  8
0
  6
Continuous
 62
     2
100
AcDbLine
 10
-39.42771505522009
 20
13.26943119750277
 30
0.0
 11
-39.42771505522009
 21
12.62045160566505
 31
0.0
  0
LINE
  5
17A
102
{ACAD_REACTORS
330
35D
330
35E
102
}
330
74
100
AcDbEntity
  8
0
  6
Continuous
 62
     2
100
AcDbLine
 10
-38.20522424400301
 20
13.52181214986909
 30
0.0
 11
-37.21944515130346
 21
13.52181214986909
 31
0.0
  0
LINE
  5
17B
102
{ACAD_REACTORS
330
35D
330
35E
102
}
330
74
100
AcDbEntity
  8
0
  6
Continuous
 62
     2
100
AcDbLine
 10
-36.19423489489518
 20
14.96398902061781
 30
0.0
 11
-37.21944515130346
 21
16.04562167367992
 31
0.0
  0
LINE
  5
17C
102
{ACAD_REACTORS
330
35D
330
35E
102
}
330
74
100
AcDbEntity
  8
0
  6
Continuous
 62
     2
100
AcDbLine
 10
-35.20845580219552
 20
16.04562167367992
 30
0.0
 11
-36.19423489489518
 21
16.04562167367992
 31
0.0
  0
LINE
  5
17D
102
{ACAD_REACTORS
330
35D
330
35E
102
}
330
74
100
AcDbEntity
  8
0
  6
Continuous
 62
     2
100
AcDbLine
 10
-35.20845580219552
 20
13.52181214986909
 30
0.0
 11
-35.20845580219552
 21
16.04562167367992
 31
0.0
  0
LINE
  5
17E
102
{ACAD_REACTORS
330
35D
330
35E
102
}
330
74
100
AcDbEntity
  8
0
  6
Continuous
 62
     2
100
AcDbLine
 10
-36.19423489489518
 20
13.52181214986909
 30
0.0
 11
-35.20845580219552
 21
13.52181214986909
 31
0.0
  0
LINE
  5
17F
102
{ACAD_REACTORS
330
35D
330
35E
102
}
330
74
100
AcDbEntity
  8
0
  6
Continuous
 62
     2
100
AcDbLine
 10
-37.21944515130346
 20
14.60344480293075
 30
0.0
 11
-36.19423489489518
 21
13.52181214986909
 31
0.0
  0
LINE
  5
180
102
{ACAD_REACTORS
330
35F
330
360
102
}
330
74
100
AcDbEntity
  8
0
  6
Continuous
 62
     2
100
AcDbLine
 10
-40.53178763904371
 20
12.18779854444066
 30
0.0
 11
-41.55699789545108
 21
13.26943119750277
 31
0.0
  0
LINE
  5
181
102
{ACAD_REACTORS
330
35F
330
360
102
}
330
74
100
AcDbEntity
  8
0
  6
Continuous
 62
     2
100
AcDbLine
 10
-40.53178763904371
 20
13.26943119750277
 30
0.0
 11
-40.53178763904371
 21
12.18779854444066
 31
0.0
  0
LINE
  5
182
102
{ACAD_REACTORS
330
35F
330
360
102
}
330
74
100
AcDbEntity
  8
0
  6
Continuous
 62
     2
100
AcDbLine
 10
-39.54600854634415
 20
13.26943119750277
 30
0.0
 11
-40.53178763904371
 21
13.26943119750277
 31
0.0
  0
LINE
  5
183
102
{ACAD_REACTORS
330
35F
330
360
102
}
330
74
100
AcDbEntity
  8
0
  6
Continuous
 62
     2
100
AcDbLine
 10
-39.54600854634415
 20
10.74562167369194
 30
0.0
 11
-39.54600854634415
 21
13.26943119750277
 31
0.0
  0
LINE
  5
184
102
{ACAD_REACTORS
330
35F
330
360
102
}
330
74
100
AcDbEntity
  8
0
  6
Continuous
 62
     2
100
AcDbLine
 10
-41.55699789545108
 20
11.82725432675359
 30
0.0
 11
-40.53178763904371
 21
10.74562167369194
 31
0.0
  0
LINE
  5
185
102
{ACAD_REACTORS
330
35F
330
360
102
}
330
74
100
AcDbEntity
  8
0
  6
Continuous
 62
     2
100
AcDbLine
 10
-41.55699789545108
 20
10.74562167369194
 30
0.0
 11
-41.55699789545108
 21
11.82725432675359
 31
0.0
  0
LINE
  5
186
102
{ACAD_REACTORS
330
34F
330
350
102
}
330
74
100
AcDbEntity
  8
0
  6
Continuous
 62
     2
100
AcDbLine
 10
-39.50645264636714
 20
15.46875092537998
 30
0.0
 11
-38.40238006254263
 21
15.46875092537998
 31
0.0
  0
LINE
  5
187
102
{ACAD_REACTORS
330
34F
330
350
102
}
330
74
100
AcDbEntity
  8
0
  6
Continuous
 62
     2
100
AcDbLine
 10
-39.50645264636714
 20
14.09868289816858
 30
0.0
 11
-39.50645264636714
 21
14.49528153762454
 31
0.0
  0
LINE
  5
188
102
{ACAD_REACTORS
330
34F
330
350
102
}
330
74
100
AcDbEntity
  8
0
  6
Continuous
 62
     2
100
AcDbLine
 10
-38.40238006254263
 20
14.09868289816858
 30
0.0
 11
-39.50645264636714
 21
14.09868289816858
 31
0.0
  0
LINE
  5
189
102
{ACAD_REACTORS
330
34F
330
350
102
}
330
74
100
AcDbEntity
  8
0
  6
Continuous
 62
     2
100
AcDbLine
 10
-38.40238006254263
 20
13.52181214986909
 30
0.0
 11
-38.40238006254263
 21
14.09868289816858
 31
0.0
  0
LINE
  5
18A
102
{ACAD_REACTORS
330
34F
330
350
102
}
330
74
100
AcDbEntity
  8
0
  6
Continuous
 62
     2
100
AcDbLine
 10
-41.00595008219634
 20
13.52181214986909
 30
0.0
 11
-38.40238006254263
 21
13.52181214986909
 31
0.0
  0
LINE
  5
18B
102
{ACAD_REACTORS
330
34F
330
350
102
}
330
74
100
AcDbEntity
  8
0
  6
Continuous
 62
     2
100
AcDbLine
 10
-41.00595008219634
 20
16.04562167367992
 30
0.0
 11
-38.40238006254263
 21
16.04562167367992
 31
0.0
  0
LINE
  5
18C
102
{ACAD_REACTORS
330
34F
330
350
102
}
330
74
100
AcDbEntity
  8
0
  6
Continuous
 62
     2
100
AcDbLine
 10
-38.40238006254263
 20
15.46875092537998
 30
0.0
 11
-38.40238006254263
 21
16.04562167367992
 31
0.0
  0
LINE
  5
18D
102
{ACAD_REACTORS
330
361
330
362
102
}
330
74
100
AcDbEntity
  8
0
  6
Continuous
 62
     2
100
AcDbLine
 10
-43.37070668975011
 20
15.16228834034556
 30
0.0
 11
-43.37070668975011
 21
16.04562167367992
 31
0.0
  0
LINE
  5
18E
102
{ACAD_REACTORS
330
361
330
362
102
}
330
74
100
AcDbEntity
  8
0
  6
Continuous
 62
     2
100
AcDbLine
 10
-43.37070668975011
 20
16.04562167367992
 30
0.0
 11
-42.38492759705056
 21
16.04562167367992
 31
0.0
  0
LINE
  5
18F
102
{ACAD_REACTORS
330
361
330
362
102
}
330
74
100
AcDbEntity
  8
0
  6
Continuous
 62
     2
100
AcDbLine
 10
-43.37070668975011
 20
14.45922711585565
 30
0.0
 11
-44.2381922913265
 21
14.45922711585565
 31
0.0
  0
LINE
  5
190
102
{ACAD_REACTORS
330
361
330
362
102
}
330
74
100
AcDbEntity
  8
0
  6
Continuous
 62
     2
100
AcDbLine
 10
-44.2381922913265
 20
14.45922711585565
 30
0.0
 11
-44.2381922913265
 21
13.52181214986909
 31
0.0
  0
LINE
  5
191
102
{ACAD_REACTORS
330
361
330
362
102
}
330
74
100
AcDbEntity
  8
0
  6
Continuous
 62
     2
100
AcDbLine
 10
-45.22397138402616
 20
16.04562167367992
 30
0.0
 11
-45.22397138402616
 21
13.52181214986909
 31
0.0
  0
LINE
  5
192
102
{ACAD_REACTORS
330
353
330
354
102
}
330
74
100
AcDbEntity
  8
0
  6
Continuous
 62
     2
100
AcDbLine
 10
-46.84064909605397
 20
14.91435432262015
 30
0.0
 11
-46.84064909605397
 21
15.49760031381211
 31
0.0
  0
LINE
  5
193
102
{ACAD_REACTORS
330
353
330
354
102
}
330
74
100
AcDbEntity
  8
0
  6
Continuous
 62
     2
100
AcDbLine
 10
-47.86585935246225
 20
13.52181214986909
 30
0.0
 11
-46.84064909605397
 21
13.52181214986909
 31
0.0
  0
LINE
  5
194
102
{ACAD_REACTORS
330
353
330
354
102
}
330
74
100
AcDbEntity
  8
0
  6
Continuous
 62
     2
100
AcDbLine
 10
-46.84064909605397
 20
13.52181214986909
 30
0.0
 11
-46.84064909605397
 21
14.30121565494656
 31
0.0
  0
LINE
  5
195
102
{ACAD_REACTORS
330
34D
330
34E
102
}
330
74
100
AcDbEntity
  8
0
  6
Continuous
 62
     2
100
AcDbLine
 10
-51.42366583941393
 20
11.33451056258196
 30
0.0
 11
-52.64336274933916
 21
11.33451056258196
 31
0.0
  0
LINE
  5
196
102
{ACAD_REACTORS
330
34D
330
34E
102
}
330
74
100
AcDbEntity
  8
0
  6
Continuous
 62
     2
100
AcDbLine
 10
-53.48480018085101
 20
15.69500628905019
 30
0.0
 11
-53.48480018085101
 21
11.09623705830622
 31
0.0
  0
LINE
  5
197
102
{ACAD_REACTORS
330
34D
330
34E
102
}
330
74
100
AcDbEntity
  8
0
  6
Continuous
 62
     2
100
AcDbLine
 10
-53.13418479623712
 20
16.04562167366493
 30
0.0
 11
-48.61078637415707
 21
16.04562167366493
 31
0.0
  0
LINE
  5
198
102
{ACAD_REACTORS
330
34D
330
34E
102
}
330
74
100
AcDbEntity
  8
0
  6
Continuous
 62
     2
100
AcDbLine
 10
-48.26017098954227
 20
15.69500628905019
 30
0.0
 11
-48.26017098954227
 21
11.09623705830622
 31
0.0
  0
LINE
  5
199
102
{ACAD_REACTORS
330
34D
330
34E
102
}
330
74
100
AcDbEntity
  8
0
  6
Continuous
 62
     2
100
AcDbLine
 10
-48.61078637415707
 20
10.74562167369194
 30
0.0
 11
-53.13418479623712
 21
10.74562167369194
 31
0.0
  0
LINE
  5
19A
102
{ACAD_REACTORS
330
34D
330
34E
102
}
330
74
100
AcDbEntity
  8
0
  6
Continuous
 62
     2
100
AcDbLine
 10
-51.16274276249109
 20
11.59543363950485
 30
0.0
 11
-51.16274276249109
 21
12.86053358291941
 31
0.0
  0
LINE
  5
19B
102
{ACAD_REACTORS
330
34D
330
34E
102
}
330
74
100
AcDbEntity
  8
0
  6
Continuous
 62
     2
100
AcDbLine
 10
-51.16274276249109
 20
14.69661580781603
 30
0.0
 11
-51.16274276249109
 21
15.19580970786609
 31
0.0
  0
LINE
  5
19C
102
{ACAD_REACTORS
330
34D
330
34E
102
}
330
74
100
AcDbEntity
  8
0
  6
Continuous
 62
     2
100
AcDbLine
 10
-52.64336274933916
 20
15.45673278478854
 30
0.0
 11
-51.42366583941393
 21
15.45673278478854
 31
0.0
  0
LINE
  5
19D
102
{ACAD_REACTORS
330
34D
330
34E
102
}
330
74
100
AcDbEntity
  8
0
  6
Continuous
 62
     2
100
AcDbLine
 10
-52.9042858262612
 20
15.19580970786609
 30
0.0
 11
-52.9042858262612
 21
11.59543363950485
 31
0.0
  0
LINE
  5
19E
102
{ACAD_REACTORS
330
353
330
354
102
}
330
74
100
AcDbEntity
  8
0
  6
Continuous
 62
     2
100
AcDbLine
 10
-46.84064909605397
 20
14.30121565494656
 30
0.0
 11
-46.21356844499584
 21
14.30121565494656
 31
0.0
  0
LINE
  5
19F
102
{ACAD_REACTORS
330
353
330
354
102
}
330
74
100
AcDbEntity
  8
0
  6
Continuous
 62
     2
100
AcDbLine
 10
-47.86585935246225
 20
16.04562167367992
 30
0.0
 11
-46.21356844499584
 21
16.04562167367992
 31
0.0
  0
LINE
  5
1A0
102
{ACAD_REACTORS
330
353
330
354
102
}
330
74
100
AcDbEntity
  8
0
  6
Continuous
 62
     2
100
AcDbLine
 10
-47.86585935246225
 20
16.04562167367992
 30
0.0
 11
-47.86585935246225
 21
13.52181214986909
 31
0.0
  0
LINE
  5
1A1
102
{ACAD_REACTORS
330
353
330
354
102
}
330
74
100
AcDbEntity
  8
0
  6
Continuous
 62
     2
100
AcDbLine
 10
-46.84064909605397
 20
14.91435432262015
 30
0.0
 11
-46.57842177246559
 21
14.91435432262015
 31
0.0
  0
LINE
  5
1A2
102
{ACAD_REACTORS
330
353
330
354
102
}
330
74
100
AcDbEntity
  8
0
  6
Continuous
 62
     2
100
AcDbLine
 10
-46.84064909605397
 20
15.49760031381211
 30
0.0
 11
-46.57842177246559
 21
15.49760031381211
 31
0.0
  0
LINE
  5
1A3
102
{ACAD_REACTORS
330
361
330
362
102
}
330
74
100
AcDbEntity
  8
0
  6
Continuous
 62
     2
100
AcDbLine
 10
-44.2381922913265
 20
15.16228834034556
 30
0.0
 11
-43.37070668975011
 21
15.16228834034556
 31
0.0
  0
LINE
  5
1A4
102
{ACAD_REACTORS
330
361
330
362
102
}
330
74
100
AcDbEntity
  8
0
  6
Continuous
 62
     2
100
AcDbLine
 10
-44.2381922913265
 20
16.04562167367992
 30
0.0
 11
-44.2381922913265
 21
15.16228834034556
 31
0.0
  0
LINE
  5
1A5
102
{ACAD_REACTORS
330
361
330
362
102
}
330
74
100
AcDbEntity
  8
0
  6
Continuous
 62
     2
100
AcDbLine
 10
-45.22397138402616
 20
16.04562167367992
 30
0.0
 11
-44.2381922913265
 21
16.04562167367992
 31
0.0
  0
LINE
  5
1A6
102
{ACAD_REACTORS
330
361
330
362
102
}
330
74
100
AcDbEntity
  8
0
  6
Continuous
 62
     2
100
AcDbLine
 10
-44.2381922913265
 20
13.52181214986909
 30
0.0
 11
-45.22397138402616
 21
13.52181214986909
 31
0.0
  0
LINE
  5
1A7
102
{ACAD_REACTORS
330
361
330
362
102
}
330
74
100
AcDbEntity
  8
0
  6
Continuous
 62
     2
100
AcDbLine
 10
-43.37070668975011
 20
13.52181214986909
 30
0.0
 11
-43.37070668975011
 21
14.45922711585565
 31
0.0
  0
LINE
  5
1A8
102
{ACAD_REACTORS
330
361
330
362
102
}
330
74
100
AcDbEntity
  8
0
  6
Continuous
 62
     2
100
AcDbLine
 10
-42.38492759705056
 20
13.52181214986909
 30
0.0
 11
-43.37070668975011
 21
13.52181214986909
 31
0.0
  0
LINE
  5
1A9
102
{ACAD_REACTORS
330
361
330
362
102
}
330
74
100
AcDbEntity
  8
0
  6
Continuous
 62
     2
100
AcDbLine
 10
-42.38492759705056
 20
16.04562167367992
 30
0.0
 11
-42.38492759705056
 21
13.52181214986909
 31
0.0
  0
LINE
  5
1AA
102
{ACAD_REACTORS
330
34F
330
350
102
}
330
74
100
AcDbEntity
  8
0
  6
Continuous
 62
     2
100
AcDbLine
 10
-39.50645264636714
 20
14.49528153762454
 30
0.0
 11
-38.40238006254263
 21
14.49528153762454
 31
0.0
  0
LINE
  5
1AB
102
{ACAD_REACTORS
330
34F
330
350
102
}
330
74
100
AcDbEntity
  8
0
  6
Continuous
 62
     2
100
AcDbLine
 10
-38.40238006254263
 20
14.49528153762454
 30
0.0
 11
-38.40238006254263
 21
15.07215228592402
 31
0.0
  0
LINE
  5
1AC
102
{ACAD_REACTORS
330
34F
330
350
102
}
330
74
100
AcDbEntity
  8
0
  6
Continuous
 62
     2
100
AcDbLine
 10
-38.40238006254263
 20
15.07215228592402
 30
0.0
 11
-39.50645264636714
 21
15.07215228592402
 31
0.0
  0
LINE
  5
1AD
102
{ACAD_REACTORS
330
34F
330
350
102
}
330
74
100
AcDbEntity
  8
0
  6
Continuous
 62
     2
100
AcDbLine
 10
-39.50645264636714
 20
15.07215228592402
 30
0.0
 11
-39.50645264636714
 21
15.46875092537998
 31
0.0
  0
LINE
  5
1AE
102
{ACAD_REACTORS
330
35F
330
360
102
}
330
74
100
AcDbEntity
  8
0
  6
Continuous
 62
     2
100
AcDbLine
 10
-42.54277698815153
 20
10.74562167369194
 30
0.0
 11
-41.55699789545108
 21
10.74562167369194
 31
0.0
  0
LINE
  5
1AF
102
{ACAD_REACTORS
330
35F
330
360
102
}
330
74
100
AcDbEntity
  8
0
  6
Continuous
 62
     2
100
AcDbLine
 10
-40.53178763904371
 20
10.74562167369194
 30
0.0
 11
-39.54600854634415
 21
10.74562167369194
 31
0.0
  0
LINE
  5
1B0
102
{ACAD_REACTORS
330
35F
330
360
102
}
330
74
100
AcDbEntity
  8
0
  6
Continuous
 62
     2
100
AcDbLine
 10
-41.55699789545108
 20
13.26943119750277
 30
0.0
 11
-42.54277698815153
 21
13.26943119750277
 31
0.0
  0
LINE
  5
1B1
102
{ACAD_REACTORS
330
35F
330
360
102
}
330
74
100
AcDbEntity
  8
0
  6
Continuous
 62
     2
100
AcDbLine
 10
-42.54277698815153
 20
13.26943119750277
 30
0.0
 11
-42.54277698815153
 21
10.74562167369194
 31
0.0
  0
LINE
  5
1B2
102
{ACAD_REACTORS
330
35D
330
35E
102
}
330
74
100
AcDbEntity
  8
0
  6
Continuous
 62
     2
100
AcDbLine
 10
-36.19423489489518
 20
16.04562167367992
 30
0.0
 11
-36.19423489489518
 21
14.96398902061781
 31
0.0
  0
LINE
  5
1B3
102
{ACAD_REACTORS
330
35D
330
35E
102
}
330
74
100
AcDbEntity
  8
0
  6
Continuous
 62
     2
100
AcDbLine
 10
-37.21944515130346
 20
16.04562167367992
 30
0.0
 11
-38.20522424400301
 21
16.04562167367992
 31
0.0
  0
LINE
  5
1B4
102
{ACAD_REACTORS
330
35D
330
35E
102
}
330
74
100
AcDbEntity
  8
0
  6
Continuous
 62
     2
100
AcDbLine
 10
-38.20522424400301
 20
16.04562167367992
 30
0.0
 11
-38.20522424400301
 21
13.52181214986909
 31
0.0
  0
LINE
  5
1B5
102
{ACAD_REACTORS
330
35D
330
35E
102
}
330
74
100
AcDbEntity
  8
0
  6
Continuous
 62
     2
100
AcDbLine
 10
-37.21944515130346
 20
13.52181214986909
 30
0.0
 11
-37.21944515130346
 21
14.60344480293075
 31
0.0
  0
LINE
  5
1B6
102
{ACAD_REACTORS
330
35B
330
35C
102
}
330
74
100
AcDbEntity
  8
0
  6
Continuous
 62
     2
100
AcDbLine
 10
-37.77160617948366
 20
10.74562167369194
 30
0.0
 11
-37.77160617948366
 21
12.62045160566505
 31
0.0
  0
LINE
  5
1B7
102
{ACAD_REACTORS
330
35B
330
35C
102
}
330
74
100
AcDbEntity
  8
0
  6
Continuous
 62
     2
100
AcDbLine
 10
-37.77160617948366
 20
12.62045160566505
 30
0.0
 11
-37.10127639644848
 21
12.62045160566505
 31
0.0
  0
LINE
  5
1B8
102
{ACAD_REACTORS
330
35B
330
35C
102
}
330
74
100
AcDbEntity
  8
0
  6
Continuous
 62
     2
100
AcDbLine
 10
-37.10127639644848
 20
12.62045160566505
 30
0.0
 11
-37.10127639644848
 21
13.26943119750277
 31
0.0
  0
LINE
  5
1B9
102
{ACAD_REACTORS
330
35B
330
35C
102
}
330
74
100
AcDbEntity
  8
0
  6
Continuous
 62
     2
100
AcDbLine
 10
-37.10127639644848
 20
13.26943119750277
 30
0.0
 11
-39.42771505522009
 21
13.26943119750277
 31
0.0
  0
LINE
  5
1BA
102
{ACAD_REACTORS
330
35B
330
35C
102
}
330
74
100
AcDbEntity
  8
0
  6
Continuous
 62
     2
100
AcDbLine
 10
-39.42771505522009
 20
12.62045160566505
 30
0.0
 11
-38.75738527218321
 21
12.62045160566505
 31
0.0
  0
LINE
  5
1BB
102
{ACAD_REACTORS
330
359
330
35A
102
}
330
74
100
AcDbEntity
  8
0
  6
Continuous
 62
     2
100
AcDbLine
 10
-36.44466001149201
 20
11.19269650362406
 30
0.0
 11
-35.50875788200946
 21
11.19269650362406
 31
0.0
  0
LINE
  5
1BC
102
{ACAD_REACTORS
330
359
330
35A
102
}
330
74
100
AcDbEntity
  8
0
  6
Continuous
 62
     2
100
AcDbLine
 10
-34.30877072190227
 20
10.74562167369194
 30
0.0
 11
-35.33398097831046
 21
10.74562167369194
 31
0.0
  0
LINE
  5
1BD
102
{ACAD_REACTORS
330
359
330
35A
102
}
330
74
100
AcDbEntity
  8
0
  6
Continuous
 62
     2
100
AcDbLine
 10
-36.48931407495442
 20
13.26943119750277
 30
0.0
 11
-37.64464717159839
 21
10.74562167369194
 31
0.0
  0
LINE
  5
1BE
102
{ACAD_REACTORS
330
359
330
35A
102
}
330
74
100
AcDbEntity
  8
0
  6
Continuous
 62
     2
100
AcDbLine
 10
-36.61943691519102
 20
10.74562167369194
 30
0.0
 11
-36.44466001149201
 21
11.19269650362406
 31
0.0
  0
LINE
  5
1BF
102
{ACAD_REACTORS
330
359
330
35A
102
}
330
74
100
AcDbEntity
  8
0
  6
Continuous
 62
     2
100
AcDbLine
 10
-36.22477939071096
 20
11.75514548321626
 30
0.0
 11
-35.97670894675034
 21
12.3897033063458
 31
0.0
  0
LINE
  5
1C0
102
{ACAD_REACTORS
330
357
330
358
102
}
330
74
100
AcDbEntity
  8
0
  6
Continuous
 62
     2
100
AcDbLine
 10
-35.01129998365511
 20
13.52181214986909
 30
0.0
 11
-35.01129998365511
 21
16.04562167367992
 31
0.0
  0
LINE
  5
1C1
102
{ACAD_REACTORS
330
357
330
358
102
}
330
74
100
AcDbEntity
  8
0
  6
Continuous
 62
     2
100
AcDbLine
 10
-33.98608972724773
 20
16.04562167367992
 30
0.0
 11
-33.98608972724773
 21
13.52181214986909
 31
0.0
  0
LINE
  5
1C2
102
{ACAD_REACTORS
330
357
330
358
102
}
330
74
100
AcDbEntity
  8
0
  6
Continuous
 62
     2
100
AcDbLine
 10
-35.01129998365511
 20
16.04562167367992
 30
0.0
 11
-33.98608972724773
 21
16.04562167367992
 31
0.0
  0
LINE
  5
1C3
102
{ACAD_REACTORS
330
355
330
356
102
}
330
74
100
AcDbEntity
  8
0
  6
Continuous
 62
     2
100
AcDbLine
 10
-32.1525406148256
 20
14.17283015424403
 30
0.0
 11
-31.57684562468884
 21
13.52181214986909
 31
0.0
  0
LINE
  5
1C4
102
{ACAD_REACTORS
330
355
330
356
102
}
330
74
100
AcDbEntity
  8
0
  6
Continuous
 62
     2
100
AcDbLine
 10
-31.57684562468884
 20
13.52181214986909
 30
0.0
 11
-30.41756941167373
 21
13.52181214986909
 31
0.0
  0
LINE
  5
1C5
102
{ACAD_REACTORS
330
355
330
356
102
}
330
74
100
AcDbEntity
  8
0
  6
Continuous
 62
     2
100
AcDbLine
 10
-31.57290250831861
 20
14.8283071860467
 30
0.0
 11
-30.41756941167373
 21
13.52181214986909
 31
0.0
  0
LINE
  5
1C6
102
{ACAD_REACTORS
330
355
330
356
102
}
330
74
100
AcDbEntity
  8
0
  6
Continuous
 62
     2
100
AcDbLine
 10
-31.57290250831861
 20
14.8283071860467
 30
0.0
 11
-30.49643173909007
 21
16.04562167367992
 31
0.0
  0
LINE
  5
1C7
102
{ACAD_REACTORS
330
355
330
356
102
}
330
74
100
AcDbEntity
  8
0
  6
Continuous
 62
     2
100
AcDbLine
 10
-32.1525406148256
 20
15.48378421784893
 30
0.0
 11
-31.65570795210429
 21
16.04562167367992
 31
0.0
  0
LINE
  5
1C8
102
{ACAD_REACTORS
330
355
330
356
102
}
330
74
100
AcDbEntity
  8
0
  6
Continuous
 62
     2
100
AcDbLine
 10
-32.64937327754613
 20
16.04562167367992
 30
0.0
 11
-32.1525406148256
 21
15.48378421784893
 31
0.0
  0
LINE
  5
1C9
102
{ACAD_REACTORS
330
355
330
356
102
}
330
74
100
AcDbEntity
  8
0
  6
Continuous
 62
     2
100
AcDbLine
 10
-32.64937327754613
 20
16.04562167367992
 30
0.0
 11
-33.80864949056203
 21
16.04562167367992
 31
0.0
  0
LINE
  5
1CA
102
{ACAD_REACTORS
330
34B
330
34C
102
}
330
74
100
AcDbEntity
  8
0
  6
Continuous
 62
     2
100
AcDbLine
 10
-32.07367828741016
 20
10.74562167369194
 30
0.0
 11
-31.08789919470959
 21
10.74562167369194
 31
0.0
  0
LINE
  5
1CB
102
{ACAD_REACTORS
330
34B
330
34C
102
}
330
74
100
AcDbEntity
  8
0
  6
Continuous
 62
     2
100
AcDbLine
 10
-31.08789919470959
 20
10.74562167369194
 30
0.0
 11
-31.08789919470959
 21
12.62045160566505
 31
0.0
  0
LINE
  5
1CC
102
{ACAD_REACTORS
330
34B
330
34C
102
}
330
74
100
AcDbEntity
  8
0
  6
Continuous
 62
     2
100
AcDbLine
 10
-31.08789919470959
 20
12.62045160566505
 30
0.0
 11
-30.41756941167373
 21
12.62045160566505
 31
0.0
  0
LINE
  5
1CD
102
{ACAD_REACTORS
330
34B
330
34C
102
}
330
74
100
AcDbEntity
  8
0
  6
Continuous
 62
     2
100
AcDbLine
 10
-30.41756941167373
 20
12.62045160566505
 30
0.0
 11
-30.41756941167373
 21
13.26943119750277
 31
0.0
  0
LINE
  5
1CE
102
{ACAD_REACTORS
330
34B
330
34C
102
}
330
74
100
AcDbEntity
  8
0
  6
Continuous
 62
     2
100
AcDbLine
 10
-33.21504504690402
 20
13.26943119750231
 30
0.0
 11
-30.41756941167373
 21
13.26943119750277
 31
0.0
  0
LINE
  5
1CF
102
{ACAD_REACTORS
330
34B
330
34C
102
}
330
74
100
AcDbEntity
  8
0
  6
Continuous
 62
     2
100
AcDbLine
 10
-32.07367828741016
 20
12.62045160566505
 30
0.0
 11
-32.07367828741016
 21
10.74562167369194
 31
0.0
  0
LINE
  5
1D0
102
{ACAD_REACTORS
330
34D
330
34E
102
}
330
74
100
AcDbEntity
  8
0
  6
Continuous
 62
     2
100
AcDbLine
 10
-50.77573319276482
 20
12.38105981382789
 30
0.0
 11
-50.77573319276482
 21
12.86192874498086
 31
0.0
  0
LINE
  5
1D1
102
{ACAD_REACTORS
330
34D
330
34E
102
}
330
74
100
AcDbEntity
  8
0
  6
Continuous
 62
     2
100
AcDbLine
 10
-50.77573319276482
 20
14.69522064575457
 30
0.0
 11
-50.77573319276482
 21
15.19566303295024
 31
0.0
  0
LINE
  5
1D2
330
74
100
AcDbEntity
  8
1
  6
Continuous
 62
     7
100
AcDbLine
 10
5.89995898510582
 20
21.89562167368598
 30
0.0
 11
5.89995898510582
 21
26.14562167368596
 31
0.0
  0
LINE
  5
1D3
330
74
100
AcDbEntity
  8
1
  6
Continuous
 62
     6
100
AcDbLine
 10
-74.10004101489658
 20
4.89562167368609
 30
0.0
 11
-73.64484554164657
 21
4.89562167368598
 31
0.0
  0
LINE
  5
1D4
330
74
100
AcDbEntity
  8
1
  6
Continuous
 62
     6
100
AcDbLine
 10
-124.1000410148967
 20
4.89562167368609
 30
0.0
 11
-162.9000410148967
 21
4.89562167368609
 31
0.0
  0
LINE
  5
1D5
330
74
100
AcDbEntity
  8
1
  6
Continuous
 62
     6
100
AcDbLine
 10
-174.1000410148966
 20
4.89562167368609
 30
0.0
 11
-162.9000410148967
 21
4.89562167368609
 31
0.0
  0
LINE
  5
1D6
330
74
100
AcDbEntity
  8
1
  6
Continuous
 62
     6
100
AcDbLine
 10
25.89995898510345
 20
4.89562167368609
 30
0.0
 11
69.39995898510344
 21
4.89562167368609
 31
0.0
  0
LINE
  5
1D7
330
74
100
AcDbEntity
  8
1
  6
Continuous
 62
     6
100
AcDbLine
 10
-24.10004101489656
 20
4.89562167368609
 30
0.0
 11
-41.9448455416466
 21
4.89562167368609
 31
0.0
  0
LINE
  5
1D8
330
74
100
AcDbEntity
  8
1
  6
PHANTOM
 62
     2
100
AcDbLine
 10
-52.02558232684621
 20
19.77062167368598
 30
0.0
 11
-47.7099873576572
 21
19.77062167368598
 31
0.0
  0
LINE
  5
1D9
330
74
100
AcDbEntity
  8
1
  6
PHANTOM
 62
     2
100
AcDbLine
 10
-55.05258571654321
 20
21.42062167368601
 30
0.0
 11
-55.05258571654321
 21
18.120621673686
 31
0.0
  0
LINE
  5
1DA
330
74
100
AcDbEntity
  8
1
  6
PHANTOM
 62
     2
100
AcDbLine
 10
-53.4025857165432
 20
19.77062167368598
 30
0.0
 11
-56.7025857165432
 21
19.77062167368598
 31
0.0
  0
LINE
  5
1DB
330
74
100
AcDbEntity
  8
1
  6
Continuous
 62
     2
100
AcDbLine
 10
69.39995898510344
 20
4.89562167368609
 30
0.0
 11
74.39995898510244
 21
4.89562167368609
 31
0.0
  0
LINE
  5
1DC
330
74
100
AcDbEntity
  8
1
  6
Continuous
 62
     2
100
AcDbLine
 10
69.39995898510344
 20
4.89562167368609
 30
0.0
 11
69.39995898510344
 21
-0.10437832631402
 31
0.0
  0
LINE
  5
1DD
330
74
100
AcDbEntity
  8
1
  6
Continuous
 62
     7
100
AcDbLine
 10
-23.74484554164658
 20
17.64562167368598
 30
0.0
 11
-23.74484554164658
 21
21.89562167368598
 31
0.0
  0
LINE
  5
1DE
330
74
100
AcDbEntity
  8
1
  6
Continuous
 62
     7
100
AcDbLine
 10
-60.14484554164648
 20
17.64562167368598
 30
0.0
 11
-23.74484554164658
 21
17.64562167368598
 31
0.0
  0
LINE
  5
1DF
330
74
100
AcDbEntity
  8
1
  6
Continuous
 62
     2
100
AcDbLine
 10
74.39995898510244
 20
-0.10437832631402
 30
0.0
 11
74.39995898510244
 21
4.89562167368609
 31
0.0
  0
LINE
  5
1E0
330
74
100
AcDbEntity
  8
1
  6
Continuous
 62
     2
100
AcDbLine
 10
74.39995898510244
 20
-0.10437832631402
 30
0.0
 11
69.39995898510344
 21
-0.10437832631402
 31
0.0
  0
LINE
  5
1E1
330
74
100
AcDbEntity
  8
1
  6
Continuous
 62
     2
100
AcDbLine
 10
69.39995898510344
 20
-0.10437832631402
 30
0.0
 11
25.89995898510345
 21
-0.10437832631402
 31
0.0
  0
LINE
  5
1E2
330
74
100
AcDbEntity
  8
1
  6
Continuous
 62
     6
100
AcDbLine
 10
69.39995898510514
 20
34.64562167368598
 30
0.0
 11
69.39995898510435
 21
54.89562167368609
 31
0.0
  0
LINE
  5
1E3
330
74
100
AcDbEntity
  8
1
  6
Continuous
 62
     2
100
AcDbLine
 10
74.39995898510244
 20
209.895621673686
 30
0.0
 11
-74.10004101489658
 21
209.895621673686
 31
0.0
  0
LINE
  5
1E4
330
74
100
AcDbEntity
  8
1
  6
Continuous
 62
     6
100
AcDbLine
 10
69.39995898510244
 20
189.895621673686
 30
0.0
 11
-217.6000410148957
 21
189.895621673686
 31
0.0
  0
LINE
  5
1E5
330
74
100
AcDbEntity
  8
1
  6
Continuous
 62
     2
100
AcDbLine
 10
69.39995898510435
 20
54.89562167368609
 30
0.0
 11
74.39995898510244
 21
54.89562167368609
 31
0.0
  0
LINE
  5
1E6
330
74
100
AcDbEntity
  8
1
  6
Continuous
 62
     6
100
AcDbLine
 10
69.39995898510435
 20
54.89562167368609
 30
0.0
 11
69.39995898510384
 21
104.8956216736859
 31
0.0
  0
LINE
  5
1E7
330
74
100
AcDbEntity
  8
1
  6
Continuous
 62
     2
100
AcDbLine
 10
74.39995898510244
 20
54.89562167368609
 30
0.0
 11
74.39995898510244
 21
104.8956216736859
 31
0.0
  0
LINE
  5
1E8
330
74
100
AcDbEntity
  8
1
  6
Continuous
 62
     2
100
AcDbLine
 10
69.39995898510384
 20
104.8956216736859
 30
0.0
 11
74.39995898510244
 21
104.8956216736859
 31
0.0
  0
LINE
  5
1E9
330
74
100
AcDbEntity
  8
1
  6
Continuous
 62
     6
100
AcDbLine
 10
69.39995898510384
 20
104.8956216736859
 30
0.0
 11
69.39995898510273
 21
154.895621673686
 31
0.0
  0
LINE
  5
1EA
330
74
100
AcDbEntity
  8
1
  6
Continuous
 62
     2
100
AcDbLine
 10
74.39995898510244
 20
104.8956216736859
 30
0.0
 11
74.39995898510244
 21
154.895621673686
 31
0.0
  0
LINE
  5
1EB
330
74
100
AcDbEntity
  8
1
  6
Continuous
 62
     2
100
AcDbLine
 10
69.39995898510273
 20
154.895621673686
 30
0.0
 11
74.39995898510244
 21
154.895621673686
 31
0.0
  0
LINE
  5
1EC
330
74
100
AcDbEntity
  8
1
  6
Continuous
 62
     6
100
AcDbLine
 10
69.39995898510273
 20
154.895621673686
 30
0.0
 11
69.39995898510244
 21
189.895621673686
 31
0.0
  0
LINE
  5
1ED
330
74
100
AcDbEntity
  8
1
  6
Continuous
 62
     2
100
AcDbLine
 10
74.39995898510244
 20
154.895621673686
 30
0.0
 11
74.39995898510244
 21
209.895621673686
 31
0.0
  0
LINE
  5
1EE
330
74
100
AcDbEntity
  8
1
  6
Continuous
 62
     2
100
AcDbLine
 10
74.39995898510244
 20
4.89562167368609
 30
0.0
 11
74.39995898510244
 21
54.89562167368609
 31
0.0
  0
LINE
  5
1EF
330
74
100
AcDbEntity
  8
1
  6
Continuous
 62
     2
100
AcDbLine
 10
-74.10004101489658
 20
209.895621673686
 30
0.0
 11
-222.6000410148957
 21
209.895621673686
 31
0.0
  0
LINE
  5
1F0
330
74
100
AcDbEntity
  8
1
  6
Continuous
 62
     2
100
AcDbLine
 10
-74.10004101489658
 20
209.895621673686
 30
0.0
 11
-74.10004101489658
 21
200.6869298289847
 31
0.0
  0
LINE
  5
1F1
330
74
100
AcDbEntity
  8
1
  6
Continuous
 62
     2
100
AcDbLine
 10
-222.6000410148957
 20
-0.10437832631402
 30
0.0
 11
-217.6000410148946
 21
-0.10437832631402
 31
0.0
  0
LINE
  5
1F2
330
74
100
AcDbEntity
  8
1
  6
Continuous
 62
     2
100
AcDbLine
 10
-222.6000410148957
 20
209.895621673686
 30
0.0
 11
-222.6000410148957
 21
154.895621673686
 31
0.0
  0
LINE
  5
1F3
330
74
100
AcDbEntity
  8
1
  6
Continuous
 62
     6
100
AcDbLine
 10
-217.6000410148957
 20
189.895621673686
 30
0.0
 11
-217.6000410148955
 21
154.895621673686
 31
0.0
  0
LINE
  5
1F4
330
74
100
AcDbEntity
  8
1
  6
Continuous
 62
     2
100
AcDbLine
 10
-222.6000410148957
 20
154.895621673686
 30
0.0
 11
-217.6000410148955
 21
154.895621673686
 31
0.0
  0
LINE
  5
1F5
330
74
100
AcDbEntity
  8
1
  6
Continuous
 62
     2
100
AcDbLine
 10
-222.6000410148957
 20
154.895621673686
 30
0.0
 11
-222.6000410148957
 21
104.8956216736859
 31
0.0
  0
LINE
  5
1F6
330
74
100
AcDbEntity
  8
1
  6
Continuous
 62
     6
100
AcDbLine
 10
-217.6000410148955
 20
154.895621673686
 30
0.0
 11
-217.6000410148951
 21
104.8956216736859
 31
0.0
  0
LINE
  5
1F7
330
74
100
AcDbEntity
  8
1
  6
Continuous
 62
     2
100
AcDbLine
 10
-222.6000410148957
 20
104.8956216736859
 30
0.0
 11
-217.6000410148951
 21
104.8956216736859
 31
0.0
  0
LINE
  5
1F8
330
74
100
AcDbEntity
  8
1
  6
Continuous
 62
     2
100
AcDbLine
 10
-222.6000410148957
 20
104.8956216736859
 30
0.0
 11
-222.6000410148957
 21
54.89562167368609
 31
0.0
  0
LINE
  5
1F9
330
74
100
AcDbEntity
  8
1
  6
Continuous
 62
     6
100
AcDbLine
 10
-217.6000410148951
 20
104.8956216736859
 30
0.0
 11
-217.6000410148948
 21
54.89562167368609
 31
0.0
  0
LINE
  5
1FA
330
74
100
AcDbEntity
  8
1
  6
Continuous
 62
     2
100
AcDbLine
 10
-222.6000410148957
 20
54.89562167368609
 30
0.0
 11
-217.6000410148948
 21
54.89562167368609
 31
0.0
  0
LINE
  5
1FB
330
74
100
AcDbEntity
  8
1
  6
Continuous
 62
     2
100
AcDbLine
 10
-222.6000410148957
 20
54.89562167368609
 30
0.0
 11
-222.6000410148957
 21
4.89562167368609
 31
0.0
  0
LINE
  5
1FC
330
74
100
AcDbEntity
  8
1
  6
Continuous
 62
     6
100
AcDbLine
 10
-217.6000410148948
 20
54.89562167368609
 30
0.0
 11
-217.6000410148946
 21
4.89562167368609
 31
0.0
  0
LINE
  5
1FD
330
74
100
AcDbEntity
  8
1
  6
Continuous
 62
     2
100
AcDbLine
 10
-174.1000410148966
 20
-0.10437832631402
 30
0.0
 11
-174.1000410148966
 21
4.89562167368609
 31
0.0
  0
LINE
  5
1FE
330
74
100
AcDbEntity
  8
1
  6
Continuous
 62
     2
100
AcDbLine
 10
-174.1000410148966
 20
-0.10437832631402
 30
0.0
 11
-124.1000410148967
 21
-0.10437832631402
 31
0.0
  0
LINE
  5
1FF
330
74
100
AcDbEntity
  8
1
  6
Continuous
 62
     2
100
AcDbLine
 10
-124.1000410148967
 20
-0.10437832631402
 30
0.0
 11
-124.1000410148967
 21
4.89562167368609
 31
0.0
  0
LINE
  5
200
330
74
100
AcDbEntity
  8
1
  6
Continuous
 62
     2
100
AcDbLine
 10
-124.1000410148967
 20
-0.10437832631402
 30
0.0
 11
-74.10004101489658
 21
-0.10437832631402
 31
0.0
  0
LINE
  5
201
330
74
100
AcDbEntity
  8
1
  6
Continuous
 62
     2
100
AcDbLine
 10
-74.10004101489658
 20
-0.10437832631402
 30
0.0
 11
-74.10004101489658
 21
4.89562167368609
 31
0.0
  0
LINE
  5
202
330
74
100
AcDbEntity
  8
1
  6
Continuous
 62
     2
100
AcDbLine
 10
-74.10004101489658
 20
-0.10437832631402
 30
0.0
 11
-24.10004101489656
 21
-0.10437832631402
 31
0.0
  0
LINE
  5
203
330
74
100
AcDbEntity
  8
1
  6
Continuous
 62
     2
100
AcDbLine
 10
-24.10004101489656
 20
-0.10437832631402
 30
0.0
 11
-24.10004101489656
 21
4.89562167368609
 31
0.0
  0
LINE
  5
204
330
74
100
AcDbEntity
  8
1
  6
Continuous
 62
     2
100
AcDbLine
 10
25.89995898510345
 20
-0.10437832631402
 30
0.0
 11
25.89995898510345
 21
4.89562167368609
 31
0.0
  0
LINE
  5
205
330
74
100
AcDbEntity
  8
1
  6
Continuous
 62
     2
100
AcDbLine
 10
25.89995898510345
 20
-0.10437832631402
 30
0.0
 11
-24.10004101489656
 21
-0.10437832631402
 31
0.0
  0
LINE
  5
206
330
74
100
AcDbEntity
  8
1
  6
Continuous
 62
     2
100
AcDbLine
 10
-217.6000410148946
 20
4.89562167368609
 30
0.0
 11
-217.6000410148946
 21
-0.10437832631402
 31
0.0
  0
LINE
  5
207
330
74
100
AcDbEntity
  8
1
  6
Continuous
 62
     2
100
AcDbLine
 10
-217.6000410148946
 20
-0.10437832631402
 30
0.0
 11
-174.1000410148966
 21
-0.10437832631402
 31
0.0
  0
LINE
  5
208
330
74
100
AcDbEntity
  8
1
  6
Continuous
 62
     2
100
AcDbLine
 10
-217.6000410148946
 20
4.89562167368609
 30
0.0
 11
-222.6000410148957
 21
4.89562167368609
 31
0.0
  0
LINE
  5
209
330
74
100
AcDbEntity
  8
1
  6
Continuous
 62
     2
100
AcDbLine
 10
-222.6000410148957
 20
4.89562167368609
 30
0.0
 11
-222.6000410148957
 21
-0.10437832631402
 31
0.0
  0
LINE
  5
20A
330
74
100
AcDbEntity
  8
1
  6
Continuous
 62
     7
100
AcDbLine
 10
-162.9000410148967
 20
9.14562167368609
 30
0.0
 11
-100.6448455416465
 21
9.14562167368609
 31
0.0
  0
LINE
  5
20B
330
74
100
AcDbEntity
  8
1
  6
Continuous
 62
     2
100
AcDbLine
 10
-162.9000410148967
 20
9.14562167368609
 30
0.0
 11
-162.9000410148967
 21
4.89562167368609
 31
0.0
  0
LINE
  5
20C
330
74
100
AcDbEntity
  8
1
  6
Continuous
 62
     2
100
AcDbLine
 10
-162.9000410148967
 20
13.39562167368598
 30
0.0
 11
-176.4000410148967
 21
13.39562167368598
 31
0.0
  0
LINE
  5
20D
330
74
100
AcDbEntity
  8
1
  6
Continuous
 62
     2
100
AcDbLine
 10
-162.9000410148967
 20
13.39562167368598
 30
0.0
 11
-162.9000410148967
 21
9.14562167368609
 31
0.0
  0
LINE
  5
20E
330
74
100
AcDbEntity
  8
1
  6
Continuous
 62
     2
100
AcDbLine
 10
-162.9000410148967
 20
21.89562167368598
 30
0.0
 11
-176.4000410148967
 21
21.89562167368598
 31
0.0
  0
LINE
  5
20F
330
74
100
AcDbEntity
  8
1
  6
Continuous
 62
     2
100
AcDbLine
 10
-162.9000410148967
 20
21.89562167368598
 30
0.0
 11
-162.9000410148967
 21
17.64562167368598
 31
0.0
  0
LINE
  5
210
330
74
100
AcDbEntity
  8
1
  6
Continuous
 62
     2
100
AcDbLine
 10
-162.9000410148967
 20
17.64562167368598
 30
0.0
 11
-176.4000410148967
 21
17.64562167368598
 31
0.0
  0
LINE
  5
211
330
74
100
AcDbEntity
  8
1
  6
Continuous
 62
     2
100
AcDbLine
 10
-162.9000410148967
 20
17.64562167368598
 30
0.0
 11
-162.9000410148967
 21
13.39562167368598
 31
0.0
  0
LINE
  5
212
330
74
100
AcDbEntity
  8
1
  6
Continuous
 62
     2
100
AcDbLine
 10
-162.9000410148967
 20
30.39562167368598
 30
0.0
 11
-176.4000410148967
 21
30.39562167368598
 31
0.0
  0
LINE
  5
213
330
74
100
AcDbEntity
  8
1
  6
Continuous
 62
     2
100
AcDbLine
 10
-162.9000410148967
 20
26.14562167368598
 30
0.0
 11
-176.4000410148967
 21
26.14562167368598
 31
0.0
  0
LINE
  5
214
330
74
100
AcDbEntity
  8
1
  6
Continuous
 62
     2
100
AcDbLine
 10
-162.9000410148967
 20
26.14562167368598
 30
0.0
 11
-162.9000410148967
 21
21.89562167368598
 31
0.0
  0
LINE
  5
215
330
74
100
AcDbEntity
  8
1
  6
Continuous
 62
     2
100
AcDbLine
 10
-162.9000410148967
 20
30.39562167368598
 30
0.0
 11
-162.9000410148967
 21
26.14562167368598
 31
0.0
  0
LINE
  5
216
330
74
100
AcDbEntity
  8
1
  6
Continuous
 62
     6
100
AcDbLine
 10
-162.9000410148967
 20
34.64562167368598
 30
0.0
 11
-176.4000410148967
 21
34.64562167368598
 31
0.0
  0
LINE
  5
217
330
74
100
AcDbEntity
  8
1
  6
Continuous
 62
     2
100
AcDbLine
 10
-162.9000410148967
 20
34.64562167368598
 30
0.0
 11
-162.9000410148967
 21
30.39562167368598
 31
0.0
  0
LINE
  5
218
330
74
100
AcDbEntity
  8
1
  6
Continuous
 62
     6
100
AcDbLine
 10
69.39995898510344
 20
4.89562167368609
 30
0.0
 11
69.39995898510475
 21
13.39562167368598
 31
0.0
  0
LINE
  5
219
330
74
100
AcDbEntity
  8
1
  6
Continuous
 62
     6
100
AcDbLine
 10
69.39995898510423
 20
26.14562167368598
 30
0.0
 11
69.39995898510523
 21
21.89562167368598
 31
0.0
  0
LINE
  5
21A
330
74
100
AcDbEntity
  8
1
  6
Continuous
 62
     6
100
AcDbLine
 10
-23.74484554164658
 20
4.89562167368598
 30
0.0
 11
25.89995898510345
 21
4.89562167368609
 31
0.0
  0
LINE
  5
21B
330
74
100
AcDbEntity
  8
1
  6
Continuous
 62
     6
100
AcDbLine
 10
-60.14484554164648
 20
4.89562167368598
 30
0.0
 11
-41.9448455416466
 21
4.89562167368609
 31
0.0
  0
LINE
  5
21C
330
74
100
AcDbEntity
  8
1
  6
Continuous
 62
     6
100
AcDbLine
 10
-176.4000410148967
 20
4.89562167368598
 30
0.0
 11
-174.1000410148966
 21
4.89562167368609
 31
0.0
  0
LINE
  5
21D
330
74
100
AcDbEntity
  8
1
  6
Continuous
 62
     6
100
AcDbLine
 10
-100.6448455416465
 20
4.89562167368598
 30
0.0
 11
-124.1000410148967
 21
4.89562167368609
 31
0.0
  0
LINE
  5
21E
330
74
100
AcDbEntity
  8
1
  6
Continuous
 62
     6
100
AcDbLine
 10
69.39995898510514
 20
34.64562167368598
 30
0.0
 11
51.51836726678434
 21
34.64562167368598
 31
0.0
  0
LINE
  5
21F
330
74
100
AcDbEntity
  8
1
  6
Continuous
 62
     7
100
AcDbLine
 10
69.39995898510475
 20
13.39562167368598
 30
0.0
 11
24.39995898510544
 21
13.39562167368598
 31
0.0
  0
LINE
  5
220
330
74
100
AcDbEntity
  8
1
  6
Continuous
 62
     7
100
AcDbLine
 10
69.39995898510423
 20
26.14562167368598
 30
0.0
 11
51.51836726678434
 21
26.14562167368598
 31
0.0
  0
LINE
  5
221
330
74
100
AcDbEntity
  8
1
  6
Continuous
 62
     7
100
AcDbLine
 10
24.39995898510544
 20
21.89562167368598
 30
0.0
 11
69.39995898510523
 21
21.89562167368598
 31
0.0
  0
LINE
  5
222
330
74
100
AcDbEntity
  8
1
  6
Continuous
 62
     7
100
AcDbLine
 10
-23.74484554164658
 20
30.39562167368598
 30
0.0
 11
-23.74484554164658
 21
26.14562167368598
 31
0.0
  0
LINE
  5
223
330
74
100
AcDbEntity
  8
1
  6
Continuous
 62
     7
100
AcDbLine
 10
-37.24484554164659
 20
30.39562167368598
 30
0.0
 11
-23.74484554164658
 21
30.39562167368598
 31
0.0
  0
LINE
  5
224
330
74
100
AcDbEntity
  8
1
  6
Continuous
 62
     7
100
AcDbLine
 10
-37.24484554164659
 20
30.39562167368598
 30
0.0
 11
-50.7448455416465
 21
30.39562167368598
 31
0.0
  0
LINE
  5
225
330
74
100
AcDbEntity
  8
1
  6
Continuous
 62
     7
100
AcDbLine
 10
51.51836726678434
 20
26.14562167368598
 30
0.0
 11
51.51836726678434
 21
34.64562167368598
 31
0.0
  0
LINE
  5
226
330
74
100
AcDbEntity
  8
1
  6
Continuous
 62
     6
100
AcDbLine
 10
42.59995898510513
 20
34.64562167368598
 30
0.0
 11
51.51836726678434
 21
34.64562167368598
 31
0.0
  0
LINE
  5
227
330
74
100
AcDbEntity
  8
1
  6
Continuous
 62
     7
100
AcDbLine
 10
42.59995898510513
 20
34.64562167368598
 30
0.0
 11
42.59995898510545
 21
26.14562167368609
 31
0.0
  0
LINE
  5
228
330
74
100
AcDbEntity
  8
1
  6
Continuous
 62
     7
100
AcDbLine
 10
24.39995898510544
 20
13.39562167368598
 30
0.0
 11
5.89995898510582
 21
13.39562167368598
 31
0.0
  0
LINE
  5
229
330
74
100
AcDbEntity
  8
1
  6
Continuous
 62
     7
100
AcDbLine
 10
24.39995898510544
 20
21.89562167368598
 30
0.0
 11
24.39995898510544
 21
13.39562167368598
 31
0.0
  0
LINE
  5
22A
330
74
100
AcDbEntity
  8
1
  6
Continuous
 62
     2
100
AcDbLine
 10
-73.64484554164657
 20
34.64562167368598
 30
0.0
 11
-73.64484554164657
 21
30.39562167368598
 31
0.0
  0
LINE
  5
22B
330
74
100
AcDbEntity
  8
1
  6
Continuous
 62
     2
100
AcDbLine
 10
-87.14484554164646
 20
34.64562167368598
 30
0.0
 11
-87.14484554164646
 21
30.39562167368598
 31
0.0
  0
LINE
  5
22C
330
74
100
AcDbEntity
  8
1
  6
Continuous
 62
     6
100
AcDbLine
 10
-73.64484554164657
 20
34.64562167368598
 30
0.0
 11
-87.14484554164646
 21
34.64562167368598
 31
0.0
  0
LINE
  5
22D
330
74
100
AcDbEntity
  8
1
  6
Continuous
 62
     6
100
AcDbLine
 10
-87.14484554164646
 20
34.64562167368598
 30
0.0
 11
-100.6448455416465
 21
34.64562167368598
 31
0.0
  0
LINE
  5
22E
330
74
100
AcDbEntity
  8
1
  6
Continuous
 62
     2
100
AcDbLine
 10
-100.6448455416465
 20
34.64562167368598
 30
0.0
 11
-100.6448455416465
 21
30.39562167368598
 31
0.0
  0
LINE
  5
22F
330
74
100
AcDbEntity
  8
1
  6
Continuous
 62
     7
100
AcDbLine
 10
-41.9448455416466
 20
9.14562167368609
 30
0.0
 11
-41.9448455416466
 21
4.89562167368609
 31
0.0
  0
LINE
  5
230
330
74
100
AcDbEntity
  8
1
  6
Continuous
 62
     7
100
AcDbLine
 10
-41.9448455416466
 20
9.14562167368609
 30
0.0
 11
-60.14484554164648
 21
9.14562167368609
 31
0.0
  0
LINE
  5
231
330
74
100
AcDbEntity
  8
1
  6
Continuous
 62
     7
100
AcDbLine
 10
-37.24484554164659
 20
21.89562167368598
 30
0.0
 11
-50.7448455416465
 21
21.89562167368609
 31
0.0
  0
LINE
  5
232
330
74
100
AcDbEntity
  8
1
  6
Continuous
 62
     7
100
AcDbLine
 10
-23.74484554164658
 20
9.14562167368609
 30
0.0
 11
-41.9448455416466
 21
9.14562167368609
 31
0.0
  0
LINE
  5
233
330
74
100
AcDbEntity
  8
1
  6
Continuous
 62
     6
100
AcDbLine
 10
-23.74484554164658
 20
34.64562167368598
 30
0.0
 11
-0.84484554164655
 21
34.64562167368598
 31
0.0
  0
LINE
  5
234
330
74
100
AcDbEntity
  8
1
  6
Continuous
 62
     6
100
AcDbLine
 10
42.59995898510513
 20
34.64562167368598
 30
0.0
 11
-0.84484554164655
 21
34.64562167368598
 31
0.0
  0
LINE
  5
235
330
74
100
AcDbEntity
  8
1
  6
Continuous
 62
     7
100
AcDbLine
 10
-0.84484554164655
 20
34.64562167368598
 30
0.0
 11
-0.84484554164655
 21
26.14562167368592
 31
0.0
  0
LINE
  5
236
330
74
100
AcDbEntity
  8
1
  6
Continuous
 62
     6
100
AcDbLine
 10
-176.4000410148967
 20
34.64562167368598
 30
0.0
 11
-182.6000410148947
 21
34.64562167368598
 31
0.0
  0
LINE
  5
237
330
74
100
AcDbEntity
  8
1
  6
Continuous
 62
     6
100
AcDbLine
 10
-182.6000410148947
 20
4.89562167368609
 30
0.0
 11
-182.6000410148947
 21
9.14562167368609
 31
0.0
  0
LINE
  5
238
330
74
100
AcDbEntity
  8
1
  6
Continuous
 62
     6
100
AcDbLine
 10
-182.6000410148947
 20
9.14562167368609
 30
0.0
 11
-182.6000410148947
 21
13.39562167368598
 31
0.0
  0
LINE
  5
239
330
74
100
AcDbEntity
  8
1
  6
Continuous
 62
     7
100
AcDbLine
 10
-37.24484554164659
 20
26.14562167368598
 30
0.0
 11
-37.24484554164659
 21
21.89562167368598
 31
0.0
  0
LINE
  5
23A
330
74
100
AcDbEntity
  8
1
  6
Continuous
 62
     7
100
AcDbLine
 10
-50.7448455416465
 20
26.14562167368598
 30
0.0
 11
-50.7448455416465
 21
21.89562167368609
 31
0.0
  0
LINE
  5
23B
330
74
100
AcDbEntity
  8
1
  6
Continuous
 62
     7
100
AcDbLine
 10
-37.24484554164659
 20
26.14562167368598
 30
0.0
 11
-50.7448455416465
 21
26.14562167368598
 31
0.0
  0
LINE
  5
23C
330
74
100
AcDbEntity
  8
1
  6
Continuous
 62
     2
100
AcDbLine
 10
-60.14484554164648
 20
21.89562167368598
 30
0.0
 11
-73.64484554164657
 21
21.89562167368598
 31
0.0
  0
LINE
  5
23D
330
74
100
AcDbEntity
  8
1
  6
Continuous
 62
     2
100
AcDbLine
 10
-176.4000410148967
 20
21.89562167368598
 30
0.0
 11
-176.4000410148967
 21
26.14562167368598
 31
0.0
  0
LINE
  5
23E
330
74
100
AcDbEntity
  8
1
  6
Continuous
 62
     2
100
AcDbLine
 10
-176.4000410148967
 20
21.89562167368598
 30
0.0
 11
-182.6000410148947
 21
21.89562167368598
 31
0.0
  0
LINE
  5
23F
330
74
100
AcDbEntity
  8
1
  6
Continuous
 62
     2
100
AcDbLine
 10
-60.14484554164648
 20
26.14562167368598
 30
0.0
 11
-73.64484554164657
 21
26.14562167368598
 31
0.0
  0
LINE
  5
240
330
74
100
AcDbEntity
  8
1
  6
Continuous
 62
     2
100
AcDbLine
 10
-176.4000410148967
 20
26.14562167368598
 30
0.0
 11
-176.4000410148967
 21
30.39562167368598
 31
0.0
  0
LINE
  5
241
330
74
100
AcDbEntity
  8
1
  6
Continuous
 62
     2
100
AcDbLine
 10
-60.14484554164648
 20
30.39562167368598
 30
0.0
 11
-73.64484554164657
 21
30.39562167368598
 31
0.0
  0
LINE
  5
242
330
74
100
AcDbEntity
  8
1
  6
Continuous
 62
     2
100
AcDbLine
 10
-176.4000410148967
 20
30.39562167368598
 30
0.0
 11
-176.4000410148967
 21
34.64562167368598
 31
0.0
  0
LINE
  5
243
330
74
100
AcDbEntity
  8
1
  6
Continuous
 62
     2
100
AcDbLine
 10
-176.4000410148967
 20
30.39562167368598
 30
0.0
 11
-182.6000410148947
 21
30.39562167368598
 31
0.0
  0
LINE
  5
244
330
74
100
AcDbEntity
  8
1
  6
Continuous
 62
     6
100
AcDbLine
 10
-60.14484554164648
 20
34.64562167368598
 30
0.0
 11
-73.64484554164657
 21
34.64562167368598
 31
0.0
  0
LINE
  5
245
330
74
100
AcDbEntity
  8
1
  6
Continuous
 62
     2
100
AcDbLine
 10
-60.14484554164648
 20
13.39562167368598
 30
0.0
 11
-73.64484554164657
 21
13.39562167368598
 31
0.0
  0
LINE
  5
246
330
74
100
AcDbEntity
  8
1
  6
Continuous
 62
     2
100
AcDbLine
 10
-60.14484554164648
 20
17.64562167368598
 30
0.0
 11
-73.64484554164657
 21
17.64562167368598
 31
0.0
  0
LINE
  5
247
330
74
100
AcDbEntity
  8
1
  6
Continuous
 62
     2
100
AcDbLine
 10
-176.4000410148967
 20
13.39562167368598
 30
0.0
 11
-176.4000410148967
 21
17.64562167368598
 31
0.0
  0
LINE
  5
248
330
74
100
AcDbEntity
  8
1
  6
Continuous
 62
     2
100
AcDbLine
 10
-176.4000410148967
 20
17.64562167368598
 30
0.0
 11
-176.4000410148967
 21
21.89562167368598
 31
0.0
  0
LINE
  5
249
330
74
100
AcDbEntity
  8
1
  6
Continuous
 62
     7
100
AcDbLine
 10
-176.4000410148967
 20
9.14562167368609
 30
0.0
 11
-162.9000410148967
 21
9.14562167368609
 31
0.0
  0
LINE
  5
24A
330
74
100
AcDbEntity
  8
1
  6
Continuous
 62
     2
100
AcDbLine
 10
-176.4000410148967
 20
9.14562167368609
 30
0.0
 11
-176.4000410148967
 21
13.39562167368598
 31
0.0
  0
LINE
  5
24B
330
74
100
AcDbEntity
  8
1
  6
Continuous
 62
     7
100
AcDbLine
 10
-23.74484554164658
 20
13.39562167368598
 30
0.0
 11
-23.74484554164658
 21
17.64562167368598
 31
0.0
  0
LINE
  5
24C
330
74
100
AcDbEntity
  8
1
  6
Continuous
 62
     6
100
AcDbLine
 10
-37.24484554164659
 20
34.64562167368598
 30
0.0
 11
-23.74484554164658
 21
34.64562167368598
 31
0.0
  0
LINE
  5
24D
330
74
100
AcDbEntity
  8
1
  6
Continuous
 62
     7
100
AcDbLine
 10
-23.74484554164658
 20
34.64562167368598
 30
0.0
 11
-23.74484554164658
 21
30.39562167368598
 31
0.0
  0
LINE
  5
24E
330
74
100
AcDbEntity
  8
1
  6
Continuous
 62
     6
100
AcDbLine
 10
-50.7448455416465
 20
34.64562167368598
 30
0.0
 11
-37.24484554164659
 21
34.64562167368598
 31
0.0
  0
LINE
  5
24F
330
74
100
AcDbEntity
  8
1
  6
Continuous
 62
     7
100
AcDbLine
 10
-60.14484554164648
 20
21.89562167368598
 30
0.0
 11
-60.14484554164648
 21
17.64562167368598
 31
0.0
  0
LINE
  5
250
330
74
100
AcDbEntity
  8
1
  6
Continuous
 62
     7
100
AcDbLine
 10
-60.14484554164648
 20
26.14562167368598
 30
0.0
 11
-60.14484554164648
 21
21.89562167368598
 31
0.0
  0
LINE
  5
251
330
74
100
AcDbEntity
  8
1
  6
Continuous
 62
     2
100
AcDbLine
 10
-182.6000410148947
 20
26.14562167368598
 30
0.0
 11
-176.4000410148967
 21
26.14562167368598
 31
0.0
  0
LINE
  5
252
330
74
100
AcDbEntity
  8
1
  6
Continuous
 62
     7
100
AcDbLine
 10
-60.14484554164648
 20
30.39562167368598
 30
0.0
 11
-60.14484554164648
 21
26.14562167368598
 31
0.0
  0
LINE
  5
253
330
74
100
AcDbEntity
  8
1
  6
Continuous
 62
     7
100
AcDbLine
 10
-23.74484554164658
 20
26.14562167368598
 30
0.0
 11
-23.74484554164658
 21
21.89562167368598
 31
0.0
  0
LINE
  5
254
330
74
100
AcDbEntity
  8
1
  6
Continuous
 62
     7
100
AcDbLine
 10
-37.24484554164659
 20
34.64562167368598
 30
0.0
 11
-37.24484554164659
 21
30.39562167368598
 31
0.0
  0
LINE
  5
255
330
74
100
AcDbEntity
  8
1
  6
Continuous
 62
     7
100
AcDbLine
 10
-50.7448455416465
 20
34.64562167368598
 30
0.0
 11
-50.7448455416465
 21
30.39562167368598
 31
0.0
  0
LINE
  5
256
330
74
100
AcDbEntity
  8
1
  6
Continuous
 62
     2
100
AcDbLine
 10
-176.4000410148967
 20
4.89562167368598
 30
0.0
 11
-176.4000410148967
 21
9.14562167368609
 31
0.0
  0
LINE
  5
257
330
74
100
AcDbEntity
  8
1
  6
Continuous
 62
     2
100
AcDbLine
 10
-182.6000410148947
 20
13.39562167368598
 30
0.0
 11
-176.4000410148967
 21
13.39562167368598
 31
0.0
  0
LINE
  5
258
330
74
100
AcDbEntity
  8
1
  6
Continuous
 62
     2
100
AcDbLine
 10
-182.6000410148947
 20
17.64562167368598
 30
0.0
 11
-176.4000410148967
 21
17.64562167368598
 31
0.0
  0
LINE
  5
259
330
74
100
AcDbEntity
  8
1
  6
Continuous
 62
     7
100
AcDbLine
 10
-182.6000410148947
 20
9.14562167368609
 30
0.0
 11
-176.4000410148967
 21
9.14562167368609
 31
0.0
  0
LINE
  5
25A
330
74
100
AcDbEntity
  8
1
  6
Continuous
 62
     7
100
AcDbLine
 10
-23.74484554164658
 20
13.39562167368598
 30
0.0
 11
-23.74484554164658
 21
9.14562167368609
 31
0.0
  0
LINE
  5
25B
330
74
100
AcDbEntity
  8
1
  6
Continuous
 62
     7
100
AcDbLine
 10
-60.14484554164648
 20
17.64562167368598
 30
0.0
 11
-60.14484554164648
 21
13.39562167368598
 31
0.0
  0
LINE
  5
25C
330
74
100
AcDbEntity
  8
1
  6
Continuous
 62
     7
100
AcDbLine
 10
-60.14484554164648
 20
13.39562167368598
 30
0.0
 11
-60.14484554164648
 21
9.14562167368609
 31
0.0
  0
LINE
  5
25D
330
74
100
AcDbEntity
  8
1
  6
Continuous
 62
     7
100
AcDbLine
 10
-37.24484554164659
 20
30.39562167368598
 30
0.0
 11
-37.24484554164659
 21
26.14562167368598
 31
0.0
  0
LINE
  5
25E
330
74
100
AcDbEntity
  8
1
  6
Continuous
 62
     7
100
AcDbLine
 10
-50.7448455416465
 20
30.39562167368598
 30
0.0
 11
-50.7448455416465
 21
26.14562167368598
 31
0.0
  0
LINE
  5
25F
330
74
100
AcDbEntity
  8
1
  6
Continuous
 62
     7
100
AcDbLine
 10
-60.14484554164648
 20
26.14562167368598
 30
0.0
 11
-50.7448455416465
 21
26.14562167368598
 31
0.0
  0
LINE
  5
260
330
74
100
AcDbEntity
  8
1
  6
Continuous
 62
     7
100
AcDbLine
 10
-23.74484554164658
 20
21.89562167368598
 30
0.0
 11
-37.24484554164659
 21
21.89562167368598
 31
0.0
  0
LINE
  5
261
330
74
100
AcDbEntity
  8
1
  6
Continuous
 62
     7
100
AcDbLine
 10
-23.74484554164658
 20
9.14562167368609
 30
0.0
 11
-23.74484554164658
 21
4.89562167368598
 31
0.0
  0
LINE
  5
262
330
74
100
AcDbEntity
  8
1
  6
Continuous
 62
     7
100
AcDbLine
 10
-60.14484554164648
 20
9.14562167368609
 30
0.0
 11
-60.14484554164648
 21
4.89562167368598
 31
0.0
  0
LINE
  5
263
330
74
100
AcDbEntity
  8
1
  6
Continuous
 62
     7
100
AcDbLine
 10
-60.14484554164648
 20
34.64562167368598
 30
0.0
 11
-60.14484554164648
 21
30.39562167368598
 31
0.0
  0
LINE
  5
264
330
74
100
AcDbEntity
  8
1
  6
Continuous
 62
     7
100
AcDbLine
 10
-23.74484554164658
 20
13.39562167368598
 30
0.0
 11
5.89995898510582
 21
13.39562167368598
 31
0.0
  0
LINE
  5
265
330
74
100
AcDbEntity
  8
1
  6
Continuous
 62
     7
100
AcDbLine
 10
-23.74484554164658
 20
21.89562167368598
 30
0.0
 11
5.89995898510582
 21
21.89562167368598
 31
0.0
  0
LINE
  5
266
330
74
100
AcDbEntity
  8
1
  6
Continuous
 62
     7
100
AcDbLine
 10
42.59995898510545
 20
26.14562167368609
 30
0.0
 11
51.51836726678434
 21
26.14562167368598
 31
0.0
  0
LINE
  5
267
330
74
100
AcDbEntity
  8
1
  6
Continuous
 62
     7
100
AcDbLine
 10
42.59995898510545
 20
26.14562167368609
 30
0.0
 11
5.89995898510582
 21
26.14562167368596
 31
0.0
  0
LINE
  5
268
330
74
100
AcDbEntity
  8
1
  6
Continuous
 62
     7
100
AcDbLine
 10
5.89995898510582
 20
21.89562167368598
 30
0.0
 11
24.39995898510544
 21
21.89562167368598
 31
0.0
  0
LINE
  5
269
330
74
100
AcDbEntity
  8
1
  6
Continuous
 62
     7
100
AcDbLine
 10
5.89995898510582
 20
21.89562167368598
 30
0.0
 11
5.89995898510582
 21
13.39562167368598
 31
0.0
  0
LINE
  5
26A
330
74
100
AcDbEntity
  8
1
  6
Continuous
 62
     6
100
AcDbLine
 10
-176.4000410148967
 20
4.89562167368598
 30
0.0
 11
-182.6000410148947
 21
4.89562167368609
 31
0.0
  0
LINE
  5
26B
330
74
100
AcDbEntity
  8
1
  6
Continuous
 62
     6
100
AcDbLine
 10
-182.6000410148947
 20
30.39562167368598
 30
0.0
 11
-182.6000410148947
 21
34.64562167368598
 31
0.0
  0
LINE
  5
26C
330
74
100
AcDbEntity
  8
1
  6
Continuous
 62
     6
100
AcDbLine
 10
-182.6000410148947
 20
26.14562167368598
 30
0.0
 11
-182.6000410148947
 21
30.39562167368598
 31
0.0
  0
LINE
  5
26D
330
74
100
AcDbEntity
  8
1
  6
Continuous
 62
     6
100
AcDbLine
 10
-182.6000410148947
 20
21.89562167368598
 30
0.0
 11
-182.6000410148947
 21
26.14562167368598
 31
0.0
  0
LINE
  5
26E
330
74
100
AcDbEntity
  8
1
  6
Continuous
 62
     6
100
AcDbLine
 10
-182.6000410148947
 20
13.39562167368598
 30
0.0
 11
-182.6000410148947
 21
17.64562167368598
 31
0.0
  0
LINE
  5
26F
330
74
100
AcDbEntity
  8
1
  6
Continuous
 62
     6
100
AcDbLine
 10
-100.6448455416465
 20
34.64562167368598
 30
0.0
 11
-162.9000410148967
 21
34.64562167368598
 31
0.0
  0
LINE
  5
270
330
74
100
AcDbEntity
  8
1
  6
Continuous
 62
     2
100
AcDbLine
 10
-162.9000410148967
 20
30.39562167368598
 30
0.0
 11
-100.6448455416465
 21
30.39562167368598
 31
0.0
  0
LINE
  5
271
330
74
100
AcDbEntity
  8
1
  6
Continuous
 62
     2
100
AcDbLine
 10
-162.9000410148967
 20
26.14562167368598
 30
0.0
 11
-100.6448455416465
 21
26.14562167368598
 31
0.0
  0
LINE
  5
272
330
74
100
AcDbEntity
  8
1
  6
Continuous
 62
     6
100
AcDbLine
 10
-23.74484554164658
 20
4.89562167368598
 30
0.0
 11
-24.10004101489656
 21
4.89562167368609
 31
0.0
  0
LINE
  5
273
330
74
100
AcDbEntity
  8
1
  6
Continuous
 62
     7
100
AcDbLine
 10
-37.24484554164659
 20
26.14562167368598
 30
0.0
 11
-23.74484554164658
 21
26.14562167368598
 31
0.0
  0
LINE
  5
274
330
74
100
AcDbEntity
  8
1
  6
Continuous
 62
     7
100
AcDbLine
 10
-0.84484554164655
 20
26.14562167368592
 30
0.0
 11
-23.74484554164658
 21
26.14562167368598
 31
0.0
  0
LINE
  5
275
330
74
100
AcDbEntity
  8
1
  6
Continuous
 62
     6
100
AcDbLine
 10
69.39995898510523
 20
21.89562167368598
 30
0.0
 11
69.39995898510475
 21
13.39562167368598
 31
0.0
  0
LINE
  5
276
330
74
100
AcDbEntity
  8
1
  6
Continuous
 62
     6
100
AcDbLine
 10
-73.64484554164657
 20
4.89562167368598
 30
0.0
 11
-60.14484554164648
 21
4.89562167368598
 31
0.0
  0
LINE
  5
277
330
74
100
AcDbEntity
  8
1
  6
Continuous
 62
     2
100
AcDbLine
 10
-73.64484554164657
 20
13.39562167368598
 30
0.0
 11
-73.64484554164657
 21
9.14562167368609
 31
0.0
  0
LINE
  5
278
330
74
100
AcDbEntity
  8
1
  6
Continuous
 62
     2
100
AcDbLine
 10
-73.64484554164657
 20
13.39562167368598
 30
0.0
 11
-87.14484554164646
 21
13.39562167368598
 31
0.0
  0
LINE
  5
279
330
74
100
AcDbEntity
  8
1
  6
Continuous
 62
     2
100
AcDbLine
 10
-73.64484554164657
 20
9.14562167368609
 30
0.0
 11
-73.64484554164657
 21
4.89562167368598
 31
0.0
  0
LINE
  5
27A
330
74
100
AcDbEntity
  8
1
  6
Continuous
 62
     7
100
AcDbLine
 10
-73.64484554164657
 20
9.14562167368609
 30
0.0
 11
-60.14484554164648
 21
9.14562167368609
 31
0.0
  0
LINE
  5
27B
330
74
100
AcDbEntity
  8
1
  6
Continuous
 62
     2
100
AcDbLine
 10
-73.64484554164657
 20
21.89562167368598
 30
0.0
 11
-73.64484554164657
 21
17.64562167368598
 31
0.0
  0
LINE
  5
27C
330
74
100
AcDbEntity
  8
1
  6
Continuous
 62
     2
100
AcDbLine
 10
-73.64484554164657
 20
21.89562167368598
 30
0.0
 11
-87.14484554164646
 21
21.89562167368598
 31
0.0
  0
LINE
  5
27D
330
74
100
AcDbEntity
  8
1
  6
Continuous
 62
     2
100
AcDbLine
 10
-73.64484554164657
 20
26.14562167368598
 30
0.0
 11
-73.64484554164657
 21
21.89562167368598
 31
0.0
  0
LINE
  5
27E
330
74
100
AcDbEntity
  8
1
  6
Continuous
 62
     2
100
AcDbLine
 10
-73.64484554164657
 20
26.14562167368598
 30
0.0
 11
-87.14484554164646
 21
26.14562167368598
 31
0.0
  0
LINE
  5
27F
330
74
100
AcDbEntity
  8
1
  6
Continuous
 62
     2
100
AcDbLine
 10
-73.64484554164657
 20
30.39562167368598
 30
0.0
 11
-73.64484554164657
 21
26.14562167368598
 31
0.0
  0
LINE
  5
280
330
74
100
AcDbEntity
  8
1
  6
Continuous
 62
     2
100
AcDbLine
 10
-73.64484554164657
 20
30.39562167368598
 30
0.0
 11
-87.14484554164646
 21
30.39562167368598
 31
0.0
  0
LINE
  5
281
330
74
100
AcDbEntity
  8
1
  6
Continuous
 62
     2
100
AcDbLine
 10
-73.64484554164657
 20
17.64562167368598
 30
0.0
 11
-73.64484554164657
 21
13.39562167368598
 31
0.0
  0
LINE
  5
282
330
74
100
AcDbEntity
  8
1
  6
Continuous
 62
     2
100
AcDbLine
 10
-73.64484554164657
 20
17.64562167368598
 30
0.0
 11
-87.14484554164646
 21
17.64562167368598
 31
0.0
  0
LINE
  5
283
330
74
100
AcDbEntity
  8
1
  6
Continuous
 62
     6
100
AcDbLine
 10
-87.14484554164646
 20
4.89562167368598
 30
0.0
 11
-74.10004101489658
 21
4.89562167368609
 31
0.0
  0
LINE
  5
284
330
74
100
AcDbEntity
  8
1
  6
Continuous
 62
     2
100
AcDbLine
 10
-87.14484554164646
 20
13.39562167368598
 30
0.0
 11
-87.14484554164646
 21
9.14562167368609
 31
0.0
  0
LINE
  5
285
330
74
100
AcDbEntity
  8
1
  6
Continuous
 62
     2
100
AcDbLine
 10
-87.14484554164646
 20
13.39562167368598
 30
0.0
 11
-100.6448455416465
 21
13.39562167368598
 31
0.0
  0
LINE
  5
286
330
74
100
AcDbEntity
  8
1
  6
Continuous
 62
     2
100
AcDbLine
 10
-87.14484554164646
 20
9.14562167368609
 30
0.0
 11
-87.14484554164646
 21
4.89562167368598
 31
0.0
  0
LINE
  5
287
330
74
100
AcDbEntity
  8
1
  6
Continuous
 62
     7
100
AcDbLine
 10
-87.14484554164646
 20
9.14562167368609
 30
0.0
 11
-73.64484554164657
 21
9.14562167368609
 31
0.0
  0
LINE
  5
288
330
74
100
AcDbEntity
  8
1
  6
Continuous
 62
     2
100
AcDbLine
 10
-87.14484554164646
 20
21.89562167368598
 30
0.0
 11
-87.14484554164646
 21
17.64562167368598
 31
0.0
  0
LINE
  5
289
330
74
100
AcDbEntity
  8
1
  6
Continuous
 62
     2
100
AcDbLine
 10
-87.14484554164646
 20
21.89562167368598
 30
0.0
 11
-100.6448455416465
 21
21.89562167368598
 31
0.0
  0
LINE
  5
28A
330
74
100
AcDbEntity
  8
1
  6
Continuous
 62
     2
100
AcDbLine
 10
-87.14484554164646
 20
26.14562167368598
 30
0.0
 11
-87.14484554164646
 21
21.89562167368598
 31
0.0
  0
LINE
  5
28B
330
74
100
AcDbEntity
  8
1
  6
Continuous
 62
     2
100
AcDbLine
 10
-87.14484554164646
 20
26.14562167368598
 30
0.0
 11
-100.6448455416465
 21
26.14562167368598
 31
0.0
  0
LINE
  5
28C
330
74
100
AcDbEntity
  8
1
  6
Continuous
 62
     2
100
AcDbLine
 10
-87.14484554164646
 20
30.39562167368598
 30
0.0
 11
-87.14484554164646
 21
26.14562167368598
 31
0.0
  0
LINE
  5
28D
330
74
100
AcDbEntity
  8
1
  6
Continuous
 62
     2
100
AcDbLine
 10
-87.14484554164646
 20
30.39562167368598
 30
0.0
 11
-100.6448455416465
 21
30.39562167368598
 31
0.0
  0
LINE
  5
28E
330
74
100
AcDbEntity
  8
1
  6
Continuous
 62
     2
100
AcDbLine
 10
-87.14484554164646
 20
17.64562167368598
 30
0.0
 11
-87.14484554164646
 21
13.39562167368598
 31
0.0
  0
LINE
  5
28F
330
74
100
AcDbEntity
  8
1
  6
Continuous
 62
     2
100
AcDbLine
 10
-87.14484554164646
 20
17.64562167368598
 30
0.0
 11
-100.6448455416465
 21
17.64562167368598
 31
0.0
  0
LINE
  5
290
330
74
100
AcDbEntity
  8
1
  6
Continuous
 62
     6
100
AcDbLine
 10
-100.6448455416465
 20
4.89562167368598
 30
0.0
 11
-87.14484554164646
 21
4.89562167368598
 31
0.0
  0
LINE
  5
291
330
74
100
AcDbEntity
  8
1
  6
Continuous
 62
     2
100
AcDbLine
 10
-100.6448455416465
 20
13.39562167368598
 30
0.0
 11
-100.6448455416465
 21
9.14562167368609
 31
0.0
  0
LINE
  5
292
330
74
100
AcDbEntity
  8
1
  6
Continuous
 62
     2
100
AcDbLine
 10
-100.6448455416465
 20
13.39562167368598
 30
0.0
 11
-162.9000410148967
 21
13.39562167368598
 31
0.0
  0
LINE
  5
293
330
74
100
AcDbEntity
  8
1
  6
Continuous
 62
     2
100
AcDbLine
 10
-100.6448455416465
 20
9.14562167368609
 30
0.0
 11
-100.6448455416465
 21
4.89562167368598
 31
0.0
  0
LINE
  5
294
330
74
100
AcDbEntity
  8
1
  6
Continuous
 62
     7
100
AcDbLine
 10
-100.6448455416465
 20
9.14562167368609
 30
0.0
 11
-87.14484554164646
 21
9.14562167368609
 31
0.0
  0
LINE
  5
295
330
74
100
AcDbEntity
  8
1
  6
Continuous
 62
     2
100
AcDbLine
 10
-100.6448455416465
 20
21.89562167368598
 30
0.0
 11
-100.6448455416465
 21
17.64562167368598
 31
0.0
  0
LINE
  5
296
330
74
100
AcDbEntity
  8
1
  6
Continuous
 62
     2
100
AcDbLine
 10
-100.6448455416465
 20
21.89562167368598
 30
0.0
 11
-162.9000410148967
 21
21.89562167368598
 31
0.0
  0
LINE
  5
297
330
74
100
AcDbEntity
  8
1
  6
Continuous
 62
     2
100
AcDbLine
 10
-100.6448455416465
 20
26.14562167368598
 30
0.0
 11
-100.6448455416465
 21
21.89562167368598
 31
0.0
  0
LINE
  5
298
330
74
100
AcDbEntity
  8
1
  6
Continuous
 62
     2
100
AcDbLine
 10
-100.6448455416465
 20
30.39562167368598
 30
0.0
 11
-100.6448455416465
 21
26.14562167368598
 31
0.0
  0
LINE
  5
299
330
74
100
AcDbEntity
  8
1
  6
Continuous
 62
     2
100
AcDbLine
 10
-100.6448455416465
 20
17.64562167368598
 30
0.0
 11
-100.6448455416465
 21
13.39562167368598
 31
0.0
  0
LINE
  5
29A
330
74
100
AcDbEntity
  8
1
  6
Continuous
 62
     2
100
AcDbLine
 10
-100.6448455416465
 20
17.64562167368598
 30
0.0
 11
-162.9000410148967
 21
17.64562167368598
 31
0.0
  0
LINE
  5
29B
330
74
100
AcDbEntity
  8
1
  6
Continuous
 62
     7
100
AcDbLine
 10
-50.7448455416465
 20
21.89562167368609
 30
0.0
 11
-60.14484554164648
 21
21.89562167368598
 31
0.0
  0
LINE
  5
29C
330
74
100
AcDbEntity
  8
1
  6
Continuous
 62
     6
100
AcDbLine
 10
-50.7448455416465
 20
34.64562167368598
 30
0.0
 11
-60.14484554164648
 21
34.64562167368598
 31
0.0
  0
LINE
  5
29D
330
74
100
AcDbEntity
  8
1
  6
Continuous
 62
     7
100
AcDbLine
 10
-60.14484554164648
 20
30.39562167368598
 30
0.0
 11
-50.7448455416465
 21
30.39562167368598
 31
0.0
  0
LINE
  5
29E
330
74
100
AcDbEntity
  8
1
  6
Continuous
 62
     6
100
AcDbLine
 10
-182.6000410148947
 20
17.64562167368598
 30
0.0
 11
-182.6000410148947
 21
21.89562167368598
 31
0.0
  0
LINE
  5
29F
330
74
100
AcDbEntity
  8
1
  6
Continuous
 62
     6
100
AcDbLine
 10
69.39995898510514
 20
34.64562167368598
 30
0.0
 11
69.39995898510423
 21
26.14562167368598
 31
0.0
  0
LINE
  5
2A0
330
74
100
AcDbEntity
  8
1
  6
Continuous
 62
     6
100
AcDbLine
 10
-182.6000410148947
 20
4.89562167368609
 30
0.0
 11
-217.6000410148946
 21
4.89562167368609
 31
0.0
  0
LINE
  5
2A1
330
74
100
AcDbEntity
  8
1
  6
Continuous
 62
     2
100
AcDbLine
 10
-51.86457640713121
 20
21.27062167368598
 30
0.0
 11
-47.86457640713121
 21
20.77062167368598
 31
0.0
  0
LINE
  5
2A2
330
74
100
AcDbEntity
  8
1
  6
Continuous
 62
     2
100
AcDbLine
 10
-47.86457640713121
 20
20.77062167368598
 30
0.0
 11
-47.86457640713121
 21
18.77062167368598
 31
0.0
  0
LINE
  5
2A3
330
74
100
AcDbEntity
  8
1
  6
Continuous
 62
     2
100
AcDbLine
 10
-47.86457640713121
 20
18.77062167368598
 30
0.0
 11
-51.86457640713121
 21
18.27062167368598
 31
0.0
  0
LINE
  5
2A4
330
74
100
AcDbEntity
  8
1
  6
Continuous
 62
     2
100
AcDbLine
 10
-51.86457640713121
 20
18.27062167368598
 30
0.0
 11
-51.86457640713121
 21
21.27062167368598
 31
0.0
  0
LINE
  5
2A5
330
74
100
AcDbEntity
  8
1
  6
Continuous
 62
     7
100
AcDbLine
 10
5.89995898510582
 20
26.14562167368596
 30
0.0
 11
-0.84484554164655
 21
26.14562167368592
 31
0.0
  0
LINE
  5
2A6
330
74
100
AcDbEntity
  8
1
  6
Continuous
 62
     7
100
AcDbLine
 10
5.89995898510582
 20
21.89562167368598
 30
0.0
 11
7.89995898510582
 21
21.89562167368598
 31
0.0
  0
LINE
  5
2A7
330
74
100
AcDbEntity
  8
1
  6
Continuous
 62
     2
100
AcDbLine
 10
40.83469566989243
 20
20.34540239465322
 30
0.0
 11
40.83469566989243
 21
18.28800642979972
 31
0.0
  0
ARC
  5
2A8
102
{ACAD_REACTORS
330
351
330
352
102
}
330
74
100
AcDbEntity
  8
0
  6
Continuous
 62
     2
100
AcDbCircle
 10
-44.26579760862168
 20
12.00752643559713
 30
0.0
 40
0.6378510567599999
100
AcDbArc
 50
321.8795802028403
 51
38.12041979715901
  0
ARC
  5
2A9
102
{ACAD_REACTORS
330
351
330
352
102
}
330
74
100
AcDbEntity
  8
0
  6
Continuous
 62
     2
100
AcDbCircle
 10
-44.10072319841808
 20
11.87799653632445
 30
0.0
 40
0.4280236140609624
100
AcDbArc
 50
218.1204197971922
 51
321.8795802027979
  0
ARC
  5
2AA
102
{ACAD_REACTORS
330
351
330
352
102
}
330
74
100
AcDbEntity
  8
0
  6
Continuous
 62
     2
100
AcDbCircle
 10
-43.93564878821471
 20
12.00752643559713
 30
0.0
 40
0.637851056759904
100
AcDbArc
 50
141.8795802028347
 51
218.1204197971661
  0
ARC
  5
2AB
102
{ACAD_REACTORS
330
351
330
352
102
}
330
74
100
AcDbEntity
  8
0
  6
Continuous
 62
     2
100
AcDbCircle
 10
-44.10072319841808
 20
12.13705633487025
 30
0.0
 40
0.4280236140605899
100
AcDbArc
 50
38.12041979715482
 51
141.8795802028552
  0
ARC
  5
2AC
102
{ACAD_REACTORS
330
349
330
34A
102
}
330
74
100
AcDbEntity
  8
0
  6
Continuous
 62
     2
100
AcDbCircle
 10
-46.63131339309902
 20
10.84185175344163
 30
0.0
 40
1.840813230556619
100
AcDbArc
 50
58.06909105003763
 51
71.55192388186693
  0
ARC
  5
2AD
102
{ACAD_REACTORS
330
349
330
34A
102
}
330
74
100
AcDbEntity
  8
0
  6
Continuous
 62
     2
100
AcDbCircle
 10
-46.41500950800909
 20
12.17700695571204
 30
0.0
 40
0.4227934381775693
100
AcDbArc
 50
113.3722778881983
 51
151.4785267423101
  0
ARC
  5
2AE
102
{ACAD_REACTORS
330
349
330
34A
102
}
330
74
100
AcDbEntity
  8
0
  6
Continuous
 62
     2
100
AcDbCircle
 10
-46.10314400546335
 20
12.00752643559713
 30
0.0
 40
0.7777353184572856
100
AcDbArc
 50
151.478526742269
 51
208.5214732577026
  0
ARC
  5
2AF
102
{ACAD_REACTORS
330
349
330
34A
102
}
330
74
100
AcDbEntity
  8
0
  6
Continuous
 62
     2
100
AcDbCircle
 10
-46.76178684358897
 20
14.74527928291648
 30
0.0
 40
4.010410630990214
100
AcDbArc
 50
275.1581447696246
 51
285.9799912583533
  0
ARC
  5
2B0
102
{ACAD_REACTORS
330
349
330
34A
102
}
330
74
100
AcDbEntity
  8
0
  6
Continuous
 62
     2
100
AcDbCircle
 10
-46.5230627983527
 20
12.10074161083252
 30
0.0
 40
1.355119937140023
100
AcDbArc
 50
195.0618917770909
 51
275.1581447696391
  0
ARC
  5
2B1
102
{ACAD_REACTORS
330
349
330
34A
102
}
330
74
100
AcDbEntity
  8
0
  6
Continuous
 62
     2
100
AcDbCircle
 10
-46.86944944584261
 20
12.00752643559713
 30
0.0
 40
0.9964100565214554
100
AcDbArc
 50
164.9381082228798
 51
195.0618917770963
  0
ARC
  5
2B2
102
{ACAD_REACTORS
330
349
330
34A
102
}
330
74
100
AcDbEntity
  8
0
  6
Continuous
 62
     2
100
AcDbCircle
 10
-46.5230627983527
 20
11.91431126036172
 30
0.0
 40
1.355119937140908
100
AcDbArc
 50
84.84185523036265
 51
164.9381082228906
  0
ARC
  5
2B3
102
{ACAD_REACTORS
330
34D
330
34E
102
}
330
74
100
AcDbEntity
  8
0
  6
Continuous
 62
     2
100
AcDbCircle
 10
-50.51481011584187
 20
12.86192874498086
 30
0.0
 40
0.2609230769227294
100
AcDbArc
 50
115.3740086783575
 51
180.0
  0
ARC
  5
2B4
102
{ACAD_REACTORS
330
34D
330
34E
102
}
330
74
100
AcDbEntity
  8
0
  6
Continuous
 62
     2
100
AcDbCircle
 10
-50.51481011584187
 20
14.69522064575457
 30
0.0
 40
0.2609230769229498
100
AcDbArc
 50
180.0
 51
244.6259913216414
  0
ARC
  5
2B5
102
{ACAD_REACTORS
330
34D
330
34E
102
}
330
74
100
AcDbEntity
  8
0
  6
Continuous
 62
     2
100
AcDbCircle
 10
-50.5101686817014
 20
13.78836142338906
 30
0.0
 40
1.668232340440702
100
AcDbArc
 50
269.8110329575862
 51
90.18896704241376
  0
ARC
  5
2B6
102
{ACAD_REACTORS
330
34D
330
34E
102
}
330
74
100
AcDbEntity
  8
0
  6
Continuous
 62
     2
100
AcDbCircle
 10
-50.51481011584187
 20
12.38105981382789
 30
0.0
 40
0.2609230769229498
100
AcDbArc
 50
180.0
 51
269.8110329574465
  0
ARC
  5
2B7
102
{ACAD_REACTORS
330
34B
330
34C
102
}
330
74
100
AcDbEntity
  8
0
  6
Continuous
 62
     2
100
AcDbCircle
 10
-33.1069917565604
 20
12.17700695571204
 30
0.0
 40
0.4227934381772285
100
AcDbArc
 50
109.3371432194869
 51
151.4785267424225
  0
ARC
  5
2B8
102
{ACAD_REACTORS
330
34B
330
34C
102
}
330
74
100
AcDbEntity
  8
0
  6
Continuous
 62
     2
100
AcDbCircle
 10
-33.1069917565604
 20
11.83804591548267
 30
0.0
 40
0.422793438178553
100
AcDbArc
 50
208.5214732576871
 51
246.6277221118375
  0
ARC
  5
2B9
102
{ACAD_REACTORS
330
34B
330
34C
102
}
330
74
100
AcDbEntity
  8
0
  6
Continuous
 62
     2
100
AcDbCircle
 10
-33.561431694393
 20
12.00752643559713
 30
0.0
 40
0.996410056523109
100
AcDbArc
 50
164.9381082229054
 51
195.0618917770957
  0
ARC
  5
2BA
102
{ACAD_REACTORS
330
34B
330
34C
102
}
330
74
100
AcDbEntity
  8
0
  6
Continuous
 62
     2
100
AcDbCircle
 10
-33.21504504690402
 20
11.91431126036172
 30
0.0
 40
1.355119937140591
100
AcDbArc
 50
90.0
 51
164.9381082228992
  0
ARC
  5
2BB
102
{ACAD_REACTORS
330
34F
330
350
102
}
330
74
100
AcDbEntity
  8
0
  6
Continuous
 62
     2
100
AcDbCircle
 10
-41.00595008219634
 20
14.78371691177428
 30
0.0
 40
1.261904761905642
100
AcDbArc
 50
90.0
 51
270.0
  0
ARC
  5
2BC
102
{ACAD_REACTORS
330
353
330
354
102
}
330
74
100
AcDbEntity
  8
0
  6
Continuous
 62
     2
100
AcDbCircle
 10
-46.57842177246559
 20
15.20597731821614
 30
0.0
 40
0.2916229955959899
100
AcDbArc
 50
270.0
 51
90.0
  0
ARC
  5
2BD
102
{ACAD_REACTORS
330
34D
330
34E
102
}
330
74
100
AcDbEntity
  8
0
  6
Continuous
 62
     2
100
AcDbCircle
 10
-52.64336274933916
 20
15.19580970786609
 30
0.0
 40
0.2609230769224506
100
AcDbArc
 50
90.0
 51
180.0
  0
ARC
  5
2BE
102
{ACAD_REACTORS
330
34D
330
34E
102
}
330
74
100
AcDbEntity
  8
0
  6
Continuous
 62
     2
100
AcDbCircle
 10
-50.99177786621144
 20
13.77857469536795
 30
0.0
 40
0.7536343169897642
100
AcDbArc
 50
115.194410648523
 51
244.8055893514919
  0
ARC
  5
2BF
102
{ACAD_REACTORS
330
34D
330
34E
102
}
330
74
100
AcDbEntity
  8
0
  6
Continuous
 62
     2
100
AcDbCircle
 10
-51.42366583941393
 20
12.86053358291941
 30
0.0
 40
0.2609230769228361
100
AcDbArc
 50
0.0
 51
64.8055893514401
  0
ARC
  5
2C0
102
{ACAD_REACTORS
330
34D
330
34E
102
}
330
74
100
AcDbEntity
  8
0
  6
Continuous
 62
     2
100
AcDbCircle
 10
-53.13418479623712
 20
11.09623705830622
 30
0.0
 40
0.3506153846138886
100
AcDbArc
 50
180.0
 51
270.0
  0
ARC
  5
2C1
102
{ACAD_REACTORS
330
34F
330
350
102
}
330
74
100
AcDbEntity
  8
0
  6
Continuous
 62
     2
100
AcDbCircle
 10
-40.82721288371269
 20
14.9132468110474
 30
0.0
 40
0.428023614060685
100
AcDbArc
 50
38.12041979714484
 51
141.8795802028563
  0
ARC
  5
2C2
102
{ACAD_REACTORS
330
34F
330
350
102
}
330
74
100
AcDbEntity
  8
0
  6
Continuous
 62
     2
100
AcDbCircle
 10
-40.6621384735092
 20
14.78371691177428
 30
0.0
 40
0.6378510567600112
100
AcDbArc
 50
141.879580202842
 51
218.1204197971578
  0
ARC
  5
2C3
102
{ACAD_REACTORS
330
351
330
352
102
}
330
74
100
AcDbEntity
  8
0
  6
Continuous
 62
     2
100
AcDbCircle
 10
-44.10072319841808
 20
12.4526297498974
 30
0.0
 40
1.70700807620544
100
AcDbArc
 50
242.4518518243401
 51
297.548148175687
  0
ARC
  5
2C4
102
{ACAD_REACTORS
330
351
330
352
102
}
330
74
100
AcDbEntity
  8
0
  6
Continuous
 62
     2
100
AcDbCircle
 10
-44.10072319841808
 20
11.56242312129731
 30
0.0
 40
1.707008076205444
100
AcDbArc
 50
62.45185182430569
 51
117.5481481756673
  0
ARC
  5
2C5
102
{ACAD_REACTORS
330
351
330
352
102
}
330
74
100
AcDbEntity
  8
0
  6
Continuous
 62
     2
100
AcDbCircle
 10
-44.33290492720593
 20
12.00752643559713
 30
0.0
 40
1.204986845992995
100
AcDbArc
 50
117.5481481756635
 51
242.451851824337
  0
ARC
  5
2C6
102
{ACAD_REACTORS
330
351
330
352
102
}
330
74
100
AcDbEntity
  8
0
  6
Continuous
 62
     2
100
AcDbCircle
 10
-43.86854146963023
 20
12.00752643559713
 30
0.0
 40
1.204986845993433
100
AcDbArc
 50
297.5481481757013
 51
62.45185182429822
  0
ARC
  5
2C7
102
{ACAD_REACTORS
330
34F
330
350
102
}
330
74
100
AcDbEntity
  8
0
  6
Continuous
 62
     2
100
AcDbCircle
 10
-40.82721288371269
 20
14.65418701250115
 30
0.0
 40
0.4280236140606907
100
AcDbArc
 50
218.1204197971427
 51
321.8795802028561
  0
ARC
  5
2C8
102
{ACAD_REACTORS
330
34F
330
350
102
}
330
74
100
AcDbEntity
  8
0
  6
Continuous
 62
     2
100
AcDbCircle
 10
-40.99228729391617
 20
14.78371691177428
 30
0.0
 40
0.6378510567599934
100
AcDbArc
 50
321.8795802028411
 51
38.12041979715914
  0
ARC
  5
2C9
102
{ACAD_REACTORS
330
34D
330
34E
102
}
330
74
100
AcDbEntity
  8
0
  6
Continuous
 62
     2
100
AcDbCircle
 10
-48.61078637415707
 20
11.09623705830622
 30
0.0
 40
0.3506153846142812
100
AcDbArc
 50
270.0
 51
0.0
  0
ARC
  5
2CA
102
{ACAD_REACTORS
330
34D
330
34E
102
}
330
74
100
AcDbEntity
  8
0
  6
Continuous
 62
     2
100
AcDbCircle
 10
-48.61078637415707
 20
15.69500628905019
 30
0.0
 40
0.3506153846148052
100
AcDbArc
 50
0.0
 51
90.0
  0
ARC
  5
2CB
102
{ACAD_REACTORS
330
34D
330
34E
102
}
330
74
100
AcDbEntity
  8
0
  6
Continuous
 62
     2
100
AcDbCircle
 10
-53.13418479623712
 20
15.69500628905019
 30
0.0
 40
0.3506153846147395
100
AcDbArc
 50
90.0
 51
180.0
  0
ARC
  5
2CC
102
{ACAD_REACTORS
330
34D
330
34E
102
}
330
74
100
AcDbEntity
  8
0
  6
Continuous
 62
     2
100
AcDbCircle
 10
-51.42366583941393
 20
11.59543363950485
 30
0.0
 40
0.2609230769228912
100
AcDbArc
 50
270.0
 51
0.0
  0
ARC
  5
2CD
102
{ACAD_REACTORS
330
34D
330
34E
102
}
330
74
100
AcDbEntity
  8
0
  6
Continuous
 62
     2
100
AcDbCircle
 10
-51.42366583941393
 20
14.69661580781603
 30
0.0
 40
0.2609230769224081
100
AcDbArc
 50
295.1944106485599
 51
0.0
  0
ARC
  5
2CE
102
{ACAD_REACTORS
330
34D
330
34E
102
}
330
74
100
AcDbEntity
  8
0
  6
Continuous
 62
     2
100
AcDbCircle
 10
-51.42366583941393
 20
15.19580970786609
 30
0.0
 40
0.2609230769228361
100
AcDbArc
 50
0.0
 51
90.0
  0
ARC
  5
2CF
102
{ACAD_REACTORS
330
34D
330
34E
102
}
330
74
100
AcDbEntity
  8
0
  6
Continuous
 62
     2
100
AcDbCircle
 10
-52.64336274933916
 20
11.59543363950485
 30
0.0
 40
0.2609230769220403
100
AcDbArc
 50
180.0
 51
270.0
  0
ARC
  5
2D0
102
{ACAD_REACTORS
330
353
330
354
102
}
330
74
100
AcDbEntity
  8
0
  6
Continuous
 62
     2
100
AcDbCircle
 10
-46.21356844499584
 20
15.17341866431323
 30
0.0
 40
0.87220300936667
100
AcDbArc
 50
270.0
 51
90.0
  0
ARC
  5
2D1
102
{ACAD_REACTORS
330
34B
330
34C
102
}
330
74
100
AcDbEntity
  8
0
  6
Continuous
 62
     2
100
AcDbCircle
 10
-33.21504504690402
 20
12.10074161083252
 30
0.0
 40
1.355119937140894
100
AcDbArc
 50
195.0618917771007
 51
275.158144769676
  0
ARC
  5
2D2
102
{ACAD_REACTORS
330
34B
330
34C
102
}
330
74
100
AcDbEntity
  8
0
  6
Continuous
 62
     2
100
AcDbCircle
 10
-33.45376909214028
 20
14.74527928291648
 30
0.0
 40
4.010410630990743
100
AcDbArc
 50
275.1581447696369
 51
285.9799912583388
  0
ARC
  5
2D3
102
{ACAD_REACTORS
330
34B
330
34C
102
}
330
74
100
AcDbEntity
  8
0
  6
Continuous
 62
     2
100
AcDbCircle
 10
-33.32329564165033
 20
13.17320111775261
 30
0.0
 40
1.840813230556001
100
AcDbArc
 50
288.4480761181333
 51
301.9309089499382
  0
ARC
  5
2D4
102
{ACAD_REACTORS
330
34B
330
34C
102
}
330
74
100
AcDbEntity
  8
0
  6
Continuous
 62
     2
100
AcDbCircle
 10
-32.97770247333468
 20
12.13721287309425
 30
0.0
 40
0.7487023016407066
100
AcDbArc
 50
246.6277221118135
 51
288.4480761180797
  0
ARC
  5
2D5
102
{ACAD_REACTORS
330
34B
330
34C
102
}
330
74
100
AcDbEntity
  8
0
  6
Continuous
 62
     2
100
AcDbCircle
 10
-32.79512625401375
 20
12.00752643559713
 30
0.0
 40
0.777735318458663
100
AcDbArc
 50
151.4785267423618
 51
208.5214732576687
  0
ARC
  5
2D6
102
{ACAD_REACTORS
330
34B
330
34C
102
}
330
74
100
AcDbEntity
  8
0
  6
Continuous
 62
     2
100
AcDbCircle
 10
-32.98577688209454
 20
11.83158961655261
 30
0.0
 40
0.7888619891124389
100
AcDbArc
 50
90.0
 51
109.3371432194315
  0
ARC
  5
2D7
102
{ACAD_REACTORS
330
34D
330
34E
102
}
330
74
100
AcDbEntity
  8
0
  6
Continuous
 62
     2
100
AcDbCircle
 10
-50.51481011584187
 20
15.19566303295024
 30
0.0
 40
0.2609230769224198
100
AcDbArc
 50
90.18896704255353
 51
180.0
  0
ARC
  5
2D8
102
{ACAD_REACTORS
330
34D
330
34E
102
}
330
74
100
AcDbEntity
  8
0
  6
Continuous
 62
     2
100
AcDbCircle
 10
-50.9495561473195
 20
13.77857469536795
 30
0.0
 40
0.7535935125161034
100
AcDbArc
 50
295.3740086781784
 51
64.6259913218066
  0
ARC
  5
2D9
102
{ACAD_REACTORS
330
349
330
34A
102
}
330
74
100
AcDbEntity
  8
0
  6
Continuous
 62
     2
100
AcDbCircle
 10
-46.63131339309902
 20
13.17320111775307
 30
0.0
 40
1.840813230556011
100
AcDbArc
 50
288.4480761181332
 51
301.9309089499624
  0
ARC
  5
2DA
102
{ACAD_REACTORS
330
349
330
34A
102
}
330
74
100
AcDbEntity
  8
0
  6
Continuous
 62
     2
100
AcDbCircle
 10
-46.28572022478429
 20
12.13721287309425
 30
0.0
 40
0.7487023016403797
100
AcDbArc
 50
246.6277221118714
 51
288.4480761181576
  0
ARC
  5
2DB
102
{ACAD_REACTORS
330
349
330
34A
102
}
330
74
100
AcDbEntity
  8
0
  6
Continuous
 62
     2
100
AcDbCircle
 10
-46.41500950800909
 20
11.83804591548267
 30
0.0
 40
0.4227934381775342
100
AcDbArc
 50
208.5214732576912
 51
246.627722111826
  0
ARC
  5
2DC
102
{ACAD_REACTORS
330
349
330
34A
102
}
330
74
100
AcDbEntity
  8
0
  6
Continuous
 62
     2
100
AcDbCircle
 10
-46.28572022478429
 20
11.87783999809999
 30
0.0
 40
0.748702301640774
100
AcDbArc
 50
71.5519238818538
 51
113.372277888128
  0
ARC
  5
2DD
102
{ACAD_REACTORS
330
349
330
34A
102
}
330
74
100
AcDbEntity
  8
0
  6
Continuous
 62
     2
100
AcDbCircle
 10
-46.76178684358897
 20
9.26977358827823
 30
0.0
 40
4.010410630990093
100
AcDbArc
 50
74.02000874164672
 51
84.84185523037534
  0
CIRCLE
  5
2DE
102
{ACAD_REACTORS
330
34D
330
34E
102
}
330
74
100
AcDbEntity
  8
0
  6
Continuous
 62
     2
100
AcDbCircle
 10
-50.96923797762756
 20
13.77857469536795
 30
0.0
 40
0.3892387874202541
  0
CIRCLE
  5
2DF
330
74
100
AcDbEntity
  8
1
  6
Continuous
 62
     2
100
AcDbCircle
 10
-55.05258571654321
 20
19.77062167368598
 30
0.0
 40
1.0
  0
CIRCLE
  5
2E0
330
74
100
AcDbEntity
  8
1
  6
Continuous
 62
     2
100
AcDbCircle
 10
-55.05258571654321
 20
19.77062167368598
 30
0.0
 40
1.5
  0
MTEXT
  5
2E2
330
74
100
AcDbEntity
  8
1
 62
     2
100
AcDbMText
 10
-22.64484554164656
 20
24.22062167368597
 30
0.0
 40
1.4
 41
0.0
 71
     4
 72
     1
  1
SAP\Pchange-No.
  7
CONVERTER_12
 73
     1
 44
0.66026410564226
  0
MTEXT
  5
2E3
330
74
100
AcDbEntity
  8
1
 62
     3
100
AcDbMText
 10
-13.41260872353168
 20
24.02062167368597
 30
0.0
 40
2.5
 41
0.0
 71
     4
 72
     1
  1
A03-12012/06
  7
CONVERTER_12
 73
     1
 44
1.20048019207683
  0
TEXT
  5
2E5
330
74
100
AcDbEntity
  8
1
 62
     3
100
AcDbText
 10
-22.64484554164665
 20
36.94039324729023
 30
0.0
 40
2.5
  1
 
 41
0.72
  7
CONVERTER_13
100
AcDbText
  0
TEXT
  5
2E6
330
74
100
AcDbEntity
  8
1
 62
     3
100
AcDbText
 10
-22.64484554164665
 20
40.44039324729023
 30
0.0
 40
2.5
  1
 
 41
0.72
  7
CONVERTER_13
100
AcDbText
  0
TEXT
  5
2E7
330
74
100
AcDbEntity
  8
1
 62
     3
100
AcDbText
 10
-22.64484554164665
 20
43.94039324729023
 30
0.0
 40
2.5
  1
 
 41
0.72
  7
CONVERTER_13
100
AcDbText
  0
MTEXT
  5
2E9
330
74
100
AcDbEntity
  8
1
 62
     2
100
AcDbMText
 10
-161.9000410148967
 20
11.27062167368609
 30
0.0
 40
2.0
 41
0.0
 71
     4
 72
     1
  1
 
  7
CONVERTER_14
 73
     1
 44
1.20048019207683
  0
MTEXT
  5
2EA
330
74
100
AcDbEntity
  8
1
 62
     2
100
AcDbMText
 10
-161.9000410148967
 20
15.52062167368598
 30
0.0
 40
2.0
 41
0.0
 71
     4
 72
     1
  1
 
  7
CONVERTER_14
 73
     1
 44
1.20048019207683
  0
MTEXT
  5
2EB
330
74
100
AcDbEntity
  8
1
 62
     2
100
AcDbMText
 10
-161.9000410148967
 20
19.77062167368598
 30
0.0
 40
2.0
 41
0.0
 71
     4
 72
     1
  1
 
  7
CONVERTER_14
 73
     1
 44
1.20048019207683
  0
MTEXT
  5
2EC
330
74
100
AcDbEntity
  8
1
 62
     2
100
AcDbMText
 10
-161.9000410148967
 20
24.02062167368598
 30
0.0
 40
2.0
 41
0.0
 71
     4
 72
     1
  1
 
  7
CONVERTER_14
 73
     1
 44
1.20048019207683
  0
MTEXT
  5
2ED
330
74
100
AcDbEntity
  8
1
 62
     2
100
AcDbMText
 10
-161.9000410148967
 20
28.27062167368598
 30
0.0
 40
2.0
 41
0.0
 71
     4
 72
     1
  1
 
  7
CONVERTER_14
 73
     1
 44
1.20048019207683
  0
MTEXT
  5
2EE
330
74
100
AcDbEntity
  8
1
 62
     2
100
AcDbMText
 10
-161.9000410148967
 20
32.52062167368598
 30
0.0
 40
2.0
 41
0.0
 71
     4
 72
     1
  1
 
  7
CONVERTER_14
 73
     1
 44
1.20048019207683
  0
MTEXT
  5
2EF
330
74
100
AcDbEntity
  8
1
 62
     2
100
AcDbMText
 10
-66.89484554164655
 20
11.27062167368609
 30
0.0
 40
2.0
 41
0.0
 71
     5
 72
     1
  1
 
  7
CONVERTER_11
 73
     1
 44
1.20048019207683
  0
MTEXT
  5
2F0
330
74
100
AcDbEntity
  8
1
 62
     2
100
AcDbMText
 10
-66.89484554164655
 20
15.52062167368598
 30
0.0
 40
2.0
 41
0.0
 71
     5
 72
     1
  1
 
  7
CONVERTER_11
 73
     1
 44
1.20048019207683
  0
MTEXT
  5
2F1
330
74
100
AcDbEntity
  8
1
 62
     2
100
AcDbMText
 10
-66.89484554164655
 20
19.77062167368598
 30
0.0
 40
2.0
 41
0.0
 71
     5
 72
     1
  1
 
  7
CONVERTER_11
 73
     1
 44
1.20048019207683
  0
MTEXT
  5
2F2
330
74
100
AcDbEntity
  8
1
 62
     2
100
AcDbMText
 10
-66.89484554164655
 20
24.02062167368598
 30
0.0
 40
2.0
 41
0.0
 71
     5
 72
     1
  1
 
  7
CONVERTER_11
 73
     1
 44
1.20048019207683
  0
MTEXT
  5
2F3
330
74
100
AcDbEntity
  8
1
 62
     2
100
AcDbMText
 10
-66.89484554164655
 20
28.27062167368598
 30
0.0
 40
2.0
 41
0.0
 71
     5
 72
     1
  1
 
  7
CONVERTER_11
 73
     1
 44
1.20048019207683
  0
MTEXT
  5
2F4
330
74
100
AcDbEntity
  8
1
 62
     2
100
AcDbMText
 10
-66.89484554164655
 20
32.52062167368598
 30
0.0
 40
2.0
 41
0.0
 71
     5
 72
     1
  1
 
  7
CONVERTER_11
 73
     1
 44
1.20048019207683
  0
MTEXT
  5
2F5
330
74
100
AcDbEntity
  8
1
 62
     2
100
AcDbMText
 10
-80.39484554164656
 20
11.27062167368609
 30
0.0
 40
2.0
 41
0.0
 71
     5
 72
     1
  1
 
  7
CONVERTER_11
 73
     1
 44
1.20048019207683
  0
MTEXT
  5
2F6
330
74
100
AcDbEntity
  8
1
 62
     2
100
AcDbMText
 10
-80.39484554164656
 20
15.52062167368598
 30
0.0
 40
2.0
 41
0.0
 71
     5
 72
     1
  1
 
  7
CONVERTER_11
 73
     1
 44
1.20048019207683
  0
MTEXT
  5
2F7
330
74
100
AcDbEntity
  8
1
 62
     2
100
AcDbMText
 10
-80.39484554164656
 20
19.77062167368598
 30
0.0
 40
2.0
 41
0.0
 71
     5
 72
     1
  1
 
  7
CONVERTER_11
 73
     1
 44
1.20048019207683
  0
MTEXT
  5
2F8
330
74
100
AcDbEntity
  8
1
 62
     2
100
AcDbMText
 10
-80.39484554164656
 20
24.02062167368598
 30
0.0
 40
2.0
 41
0.0
 71
     5
 72
     1
  1
 
  7
CONVERTER_11
 73
     1
 44
1.20048019207683
  0
MTEXT
  5
2F9
330
74
100
AcDbEntity
  8
1
 62
     2
100
AcDbMText
 10
-80.39484554164656
 20
28.27062167368598
 30
0.0
 40
2.0
 41
0.0
 71
     5
 72
     1
  1
 
  7
CONVERTER_11
 73
     1
 44
1.20048019207683
  0
MTEXT
  5
2FA
330
74
100
AcDbEntity
  8
1
 62
     2
100
AcDbMText
 10
-80.39484554164656
 20
32.52062167368598
 30
0.0
 40
2.0
 41
0.0
 71
     5
 72
     1
  1
 
  7
CONVERTER_11
 73
     1
 44
1.20048019207683
  0
MTEXT
  5
2FB
330
74
100
AcDbEntity
  8
1
 62
     2
100
AcDbMText
 10
-93.89484554164646
 20
32.52062167368598
 30
0.0
 40
2.0
 41
0.0
 71
     5
 72
     1
  1
 
  7
CONVERTER_11
 73
     1
 44
1.20048019207683
  0
MTEXT
  5
2FC
330
74
100
AcDbEntity
  8
1
 62
     2
100
AcDbMText
 10
-93.89484554164646
 20
28.27062167368598
 30
0.0
 40
2.0
 41
0.0
 71
     5
 72
     1
  1
 
  7
CONVERTER_11
 73
     1
 44
1.20048019207683
  0
MTEXT
  5
2FD
330
74
100
AcDbEntity
  8
1
 62
     2
100
AcDbMText
 10
-93.89484554164646
 20
24.02062167368598
 30
0.0
 40
2.0
 41
0.0
 71
     5
 72
     1
  1
 
  7
CONVERTER_11
 73
     1
 44
1.20048019207683
  0
MTEXT
  5
2FE
330
74
100
AcDbEntity
  8
1
 62
     2
100
AcDbMText
 10
-93.89484554164646
 20
19.77062167368598
 30
0.0
 40
2.0
 41
0.0
 71
     5
 72
     1
  1
 
  7
CONVERTER_11
 73
     1
 44
1.20048019207683
  0
MTEXT
  5
2FF
330
74
100
AcDbEntity
  8
1
 62
     2
100
AcDbMText
 10
-93.89484554164646
 20
15.52062167368598
 30
0.0
 40
2.0
 41
0.0
 71
     5
 72
     1
  1
 
  7
CONVERTER_11
 73
     1
 44
1.20048019207683
  0
MTEXT
  5
300
330
74
100
AcDbEntity
  8
1
 62
     2
100
AcDbMText
 10
-93.89484554164646
 20
11.27062167368609
 30
0.0
 40
2.0
 41
0.0
 71
     5
 72
     1
  1
 
  7
CONVERTER_11
 73
     1
 44
1.20048019207683
  0
MTEXT
  5
301
330
74
100
AcDbEntity
  8
1
 62
     2
100
AcDbMText
 10
-169.6500410148967
 20
32.52062167368598
 30
0.0
 40
2.0
 41
0.0
 71
     5
 72
     1
  1
 
  7
CONVERTER_11
 73
     1
 44
1.20048019207683
  0
MTEXT
  5
302
330
74
100
AcDbEntity
  8
1
 62
     2
100
AcDbMText
 10
-169.6500410148967
 20
28.27062167368598
 30
0.0
 40
2.0
 41
0.0
 71
     5
 72
     1
  1
 
  7
CONVERTER_11
 73
     1
 44
1.20048019207683
  0
MTEXT
  5
303
330
74
100
AcDbEntity
  8
1
 62
     2
100
AcDbMText
 10
-169.6500410148967
 20
24.02062167368598
 30
0.0
 40
2.0
 41
0.0
 71
     5
 72
     1
  1
 
  7
CONVERTER_11
 73
     1
 44
1.20048019207683
  0
MTEXT
  5
304
330
74
100
AcDbEntity
  8
1
 62
     2
100
AcDbMText
 10
-169.6500410148967
 20
19.77062167368598
 30
0.0
 40
2.0
 41
0.0
 71
     5
 72
     1
  1
 
  7
CONVERTER_11
 73
     1
 44
1.20048019207683
  0
MTEXT
  5
305
330
74
100
AcDbEntity
  8
1
 62
     2
100
AcDbMText
 10
-169.6500410148967
 20
15.52062167368598
 30
0.0
 40
2.0
 41
0.0
 71
     5
 72
     1
  1
 
  7
CONVERTER_11
 73
     1
 44
1.20048019207683
  0
MTEXT
  5
306
330
74
100
AcDbEntity
  8
1
 62
     2
100
AcDbMText
 10
-169.6500410148967
 20
11.27062167368609
 30
0.0
 40
2.0
 41
0.0
 71
     5
 72
     1
  1
 
  7
CONVERTER_11
 73
     1
 44
1.20048019207683
  0
MTEXT
  5
307
330
74
100
AcDbEntity
  8
1
 62
     2
100
AcDbMText
 10
-179.5000410148957
 20
11.27062167368609
 30
0.0
 40
2.0
 41
0.0
 71
     5
 72
     1
  1
 
  7
CONVERTER_11
 73
     1
 44
1.20048019207683
  0
MTEXT
  5
308
330
74
100
AcDbEntity
  8
1
 62
     2
100
AcDbMText
 10
-179.5000410148957
 20
15.52062167368598
 30
0.0
 40
2.0
 41
0.0
 71
     5
 72
     1
  1
 
  7
CONVERTER_11
 73
     1
 44
1.20048019207683
  0
MTEXT
  5
309
330
74
100
AcDbEntity
  8
1
 62
     2
100
AcDbMText
 10
-179.5000410148957
 20
19.77062167368598
 30
0.0
 40
2.0
 41
0.0
 71
     5
 72
     1
  1
 
  7
CONVERTER_11
 73
     1
 44
1.20048019207683
  0
MTEXT
  5
30A
330
74
100
AcDbEntity
  8
1
 62
     2
100
AcDbMText
 10
-179.5000410148957
 20
24.02062167368598
 30
0.0
 40
2.0
 41
0.0
 71
     5
 72
     1
  1
 
  7
CONVERTER_11
 73
     1
 44
1.20048019207683
  0
MTEXT
  5
30B
330
74
100
AcDbEntity
  8
1
 62
     2
100
AcDbMText
 10
-179.5000410148957
 20
28.27062167368598
 30
0.0
 40
2.0
 41
0.0
 71
     5
 72
     1
  1
 
  7
CONVERTER_11
 73
     1
 44
1.20048019207683
  0
MTEXT
  5
30C
330
74
100
AcDbEntity
  8
1
 62
     2
100
AcDbMText
 10
-179.5000410148957
 20
32.52062167368598
 30
0.0
 40
2.0
 41
0.0
 71
     5
 72
     1
  1
 
  7
CONVERTER_11
 73
     1
 44
1.20048019207683
  0
MTEXT
  5
30D
330
74
100
AcDbEntity
  8
1
 62
     2
100
AcDbMText
 10
6.89995898510582
 20
25.14562167368598
 30
0.0
 40
1.8
 41
0.0
 71
     1
 72
     1
  1
part-rev.
  7
CONVERTER_13
 73
     1
 44
1.20048019207683
  0
MTEXT
  5
30E
330
74
100
AcDbEntity
  8
1
 62
     2
100
AcDbMText
 10
25.39995898510544
 20
20.89562167368598
 30
0.0
 40
1.8
 41
0.0
 71
     1
 72
     1
  1
surface in um
  7
CONVERTER_11
 73
     1
 44
1.32052821128451
  0
MTEXT
  5
30F
330
74
100
AcDbEntity
  8
1
 62
     7
100
AcDbMText
 10
71.89995898510253
 20
79.89562167368791
 30
0.0
 40
3.5
 41
0.0
 71
     5
 72
     1
  1
C
  7
CONVERTER_11
 73
     1
 44
1.20048019207683
  0
MTEXT
  5
310
330
74
100
AcDbEntity
  8
1
 62
     7
100
AcDbMText
 10
71.89995898510253
 20
182.395621673686
 30
0.0
 40
3.5
 41
0.0
 71
     5
 72
     1
  1
A
  7
CONVERTER_11
 73
     1
 44
1.20048019207683
  0
MTEXT
  5
311
330
74
100
AcDbEntity
  8
1
 62
     7
100
AcDbMText
 10
71.89995898510253
 20
129.8956216736879
 30
0.0
 40
3.5
 41
0.0
 71
     5
 72
     1
  1
B
  7
CONVERTER_11
 73
     1
 44
1.20048019207683
  0
MTEXT
  5
312
330
74
100
AcDbEntity
  8
1
 62
     7
100
AcDbMText
 10
71.89995898510253
 20
27.39562167368598
 30
0.0
 40
3.5
 41
0.0
 71
     5
 72
     1
  1
D
  7
CONVERTER_11
 73
     1
 44
1.20048019207683
  0
MTEXT
  5
313
330
74
100
AcDbEntity
  8
1
 62
     3
100
AcDbMText
 10
-217.5949732288247
 20
191.6869298289848
 30
0.0
 40
1.8
 41
0.0
 71
     7
 72
     1
  3
Weitergabe sowie Vervielf\U+00e4ltigung dieses Dokuments, Verwertung und\PMitteilung seines Inhalts gem\U+00e4\U+00df \U+00a718 UWG verboten, soweit nicht aus-\Pdr\U+00fccklich gestattet. Zuwiderhandlungen verpflichten zu Schadenersatz\P(\U+00a719 U
  1
WG). Alle Rechte vorbehalten, insbesondere das Recht, Patent-,\PGebrauchsmuster- oder Geschmacksmusteranmeldungen durchzuf\U+00fchren.\PPhoenix Contact GmbH & Co. KG
  7
CONVERTER_11
 73
     1
 44
0.99639855942377
  0
MTEXT
  5
314
330
74
100
AcDbEntity
  8
1
 62
     3
100
AcDbMText
 10
-44.7418633900366
 20
191.6869298289848
 30
0.0
 40
1.8
 41
0.0
 71
     7
 72
     1
  3
The copying, distribution and utilistion of this document as well as the communication\Pof the contents to others without expressed authorization is prohibited according to\P\U+00a718 UWG German Law. Offenders will be held liable for the payment of 
  1
damages\Paccording to (\U+00a719 UWG German Law). All rights reserved, in particular the right to\Pcarry out patent, utility model or ornamental design registrations.\PFlachsmarktstra\U+00dfe 8  D-32825 Blomberg
  7
CONVERTER_11
 73
     1
 44
0.99639855942377
  0
MTEXT
  5
315
330
74
100
AcDbEntity
  8
1
 62
     7
100
AcDbMText
 10
-198.3500410148962
 20
2.39562167368598
 30
0.0
 40
3.5
 41
0.0
 71
     5
 72
     1
  1
1
  7
CONVERTER_11
 73
     1
 44
1.20048019207683
  0
MTEXT
  5
316
330
74
100
AcDbEntity
  8
1
 62
     7
100
AcDbMText
 10
-149.1000410148966
 20
2.39562167368598
 30
0.0
 40
3.5
 41
0.0
 71
     5
 72
     1
  1
2
  7
CONVERTER_11
 73
     1
 44
1.20048019207683
  0
MTEXT
  5
317
330
74
100
AcDbEntity
  8
1
 62
     7
100
AcDbMText
 10
-99.10004101489656
 20
2.39562167368598
 30
0.0
 40
3.5
 41
0.0
 71
     5
 72
     1
  1
3
  7
CONVERTER_11
 73
     1
 44
1.20048019207683
  0
MTEXT
  5
318
330
74
100
AcDbEntity
  8
1
 62
     7
100
AcDbMText
 10
-49.1000410148966
 20
2.39562167368598
 30
0.0
 40
3.5
 41
0.0
 71
     5
 72
     1
  1
4
  7
CONVERTER_11
 73
     1
 44
1.20048019207683
  0
MTEXT
  5
319
330
74
100
AcDbEntity
  8
1
 62
     7
100
AcDbMText
 10
0.89995898510345
 20
2.39562167368598
 30
0.0
 40
3.5
 41
0.0
 71
     5
 72
     1
  1
5
  7
CONVERTER_11
 73
     1
 44
1.20048019207683
  0
MTEXT
  5
31A
330
74
100
AcDbEntity
  8
1
 62
     7
100
AcDbMText
 10
50.14995898510273
 20
2.39562167368598
 30
0.0
 40
3.5
 41
0.0
 71
     5
 72
     1
  1
6
  7
CONVERTER_11
 73
     1
 44
1.20048019207683
  0
MTEXT
  5
31B
330
74
100
AcDbEntity
  8
1
 62
     7
100
AcDbMText
 10
-220.1000410148956
 20
182.395621673686
 30
0.0
 40
3.5
 41
0.0
 71
     5
 72
     1
  1
A
  7
CONVERTER_11
 73
     1
 44
1.20048019207683
  0
MTEXT
  5
31C
330
74
100
AcDbEntity
  8
1
 62
     7
100
AcDbMText
 10
-220.1000410148956
 20
129.895621673686
 30
0.0
 40
3.5
 41
0.0
 71
     5
 72
     1
  1
B
  7
CONVERTER_11
 73
     1
 44
1.20048019207683
  0
MTEXT
  5
31D
330
74
100
AcDbEntity
  8
1
 62
     7
100
AcDbMText
 10
-220.1000410148956
 20
79.89562167368598
 30
0.0
 40
3.5
 41
0.0
 71
     5
 72
     1
  1
C
  7
CONVERTER_11
 73
     1
 44
1.20048019207683
  0
MTEXT
  5
31E
330
74
100
AcDbEntity
  8
1
 62
     7
100
AcDbMText
 10
-220.1000410148956
 20
27.39562167368598
 30
0.0
 40
3.5
 41
0.0
 71
     5
 72
     1
  1
D
  7
CONVERTER_11
 73
     1
 44
1.20048019207683
  0
MTEXT
  5
31F
330
74
100
AcDbEntity
  8
1
 62
     2
100
AcDbMText
 10
52.81836726678424
 20
33.64562167368598
 30
0.0
 40
1.8
 41
0.0
 71
     1
 72
     1
  1
dim.var.
  7
CONVERTER_11
 73
     1
 44
1.20048019207683
  0
MTEXT
  5
321
330
74
100
AcDbEntity
  8
1
 62
     2
100
AcDbMText
 10
6.89995898510582
 20
20.89562167368598
 30
0.0
 40
1.8
 41
0.0
 71
     1
 72
     1
  1
document-No.
  7
CONVERTER_15
 73
     1
 44
1.32052821128451
  0
TEXT
  5
322
330
74
100
AcDbEntity
  8
1
 62
     2
100
AcDbText
 10
-40.9448455416466
 20
6.13660445869442
 30
0.0
 40
1.8
  1
of
 41
0.9
  7
CONVERTER_11
100
AcDbText
  0
TEXT
  5
323
330
74
100
AcDbEntity
  8
1
 62
     2
100
AcDbText
 10
-59.14484554164648
 20
6.13660445869431
 30
0.0
 40
1.8
  1
page
 41
0.9
  7
CONVERTER_11
100
AcDbText
  0
MTEXT
  5
324
330
74
100
AcDbEntity
  8
1
 62
     2
100
AcDbMText
 10
-66.89484554164657
 20
6.14562167368598
 30
0.0
 40
1.8
 41
0.0
 71
     8
 72
     1
  1
name
  7
CONVERTER_11
 73
     1
 44
1.32052821128451
  0
MTEXT
  5
325
330
74
100
AcDbEntity
  8
1
 62
     2
100
AcDbMText
 10
-80.39484554164646
 20
6.14562167368598
 30
0.0
 40
1.8
 41
0.0
 71
     8
 72
     1
  1
check.on
  7
CONVERTER_11
 73
     1
 44
1.32052821128451
  0
MTEXT
  5
326
330
74
100
AcDbEntity
  8
1
 62
     2
100
AcDbMText
 10
-93.89484554164646
 20
6.14562167368598
 30
0.0
 40
1.8
 41
0.0
 71
     8
 72
     1
  1
name
  7
CONVERTER_11
 73
     1
 44
1.32052821128451
  0
MTEXT
  5
327
330
74
100
AcDbEntity
  8
1
 62
     2
100
AcDbMText
 10
-169.6500410148967
 20
6.14562167368598
 30
0.0
 40
1.8
 41
0.0
 71
     8
 72
     1
  1
date
  7
CONVERTER_11
 73
     1
 44
1.32052821128451
  0
MTEXT
  5
328
330
74
100
AcDbEntity
  8
1
 62
     2
100
AcDbMText
 10
0.38034361594493
 20
33.64562167368581
 30
0.0
 40
1.8
 41
0.0
 71
     1
 72
     1
  1
material
  7
CONVERTER_11
 73
     1
 44
1.20048019207683
  0
MTEXT
  5
329
330
74
100
AcDbEntity
  8
1
 62
     2
100
AcDbMText
 10
-179.5000410148957
 20
6.14562167368598
 30
0.0
 40
1.8
 41
0.0
 71
     8
 72
     1
  1
RI
  7
CONVERTER_11
 73
     1
 44
1.32052821128451
  0
MTEXT
  5
32A
330
74
100
AcDbEntity
  8
1
 62
     2
100
AcDbMText
 10
-43.9948455416466
 20
31.59562167368603
 30
0.0
 40
1.8
 41
0.0
 71
     8
 72
     1
  1
date
  7
CONVERTER_11
 73
     1
 44
1.32052821128451
  0
MTEXT
  5
32B
330
74
100
AcDbEntity
  8
1
 62
     2
100
AcDbMText
 10
-30.49484554164661
 20
31.59562167368603
 30
0.0
 40
1.8
 41
0.0
 71
     8
 72
     1
  1
name
  7
CONVERTER_11
 73
     1
 44
1.32052821128451
  0
MTEXT
  5
32C
330
74
100
AcDbEntity
  8
1
 62
     2
100
AcDbMText
 10
-131.7724432782716
 20
6.14562167368598
 30
0.0
 40
1.8
 41
0.0
 71
     8
 72
     1
  1
revision
  7
CONVERTER_11
 73
     1
 44
1.32052821128451
  0
MTEXT
  5
32D
330
74
100
AcDbEntity
  8
1
 62
     2
100
AcDbMText
 10
43.69995898510533
 20
33.64562167368598
 30
0.0
 40
1.8
 41
0.0
 71
     1
 72
     1
  1
scale
  7
CONVERTER_11
 73
     1
 44
1.20048019207683
  0
MTEXT
  5
32E
330
74
100
AcDbEntity
  8
1
 62
     2
100
AcDbMText
 10
-55.4448455416465
 20
28.27062167368598
 30
0.0
 40
1.8
 41
0.0
 71
     5
 72
     1
  1
creat.
  7
CONVERTER_11
 73
     1
 44
1.20048019207683
  0
MTEXT
  5
32F
330
74
100
AcDbEntity
  8
1
 62
     2
100
AcDbMText
 10
-55.4448455416465
 20
24.02062167368598
 30
0.0
 40
1.8
 41
0.0
 71
     5
 72
     1
  1
check.
  7
CONVERTER_11
 73
     1
 44
1.20048019207683
  0
MTEXT
  5
330
330
74
100
AcDbEntity
  8
1
 62
     3
100
AcDbMText
 10
-33.9448455416466
 20
19.77062167368609
 30
0.0
 40
2.5
 41
0.0
 71
     5
 72
     1
  1
DIN A4
  7
CONVERTER_11
 73
     1
 44
1.20048019207683
  0
MTEXT
  5
331
330
74
100
AcDbEntity
  8
1
 62
     2
100
AcDbMText
 10
-22.64484554164656
 20
33.64562167368598
 30
0.0
 40
1.8
 41
0.0
 71
     1
 72
     1
  1
ident.-No. / RI
  7
CONVERTER_11
 73
     1
 44
1.20048019207683
  0
TEXT
  5
332
330
74
100
AcDbEntity
  8
1
 62
     2
100
AcDbText
 10
-50.4985805713044
 20
6.09637301988402
 30
0.0
 40
1.8
  1
 
 41
0.9
  7
CONVERTER_11
100
AcDbText
  0
TEXT
  5
333
330
74
100
AcDbEntity
  8
1
 62
     2
100
AcDbText
 10
-35.70953673183291
 20
6.14562167368598
 30
0.0
 40
1.8
  1
1
 41
0.9
  7
CONVERTER_11
100
AcDbText
  0
MTEXT
  5
334
330
74
100
AcDbEntity
  8
1
 62
     2
100
AcDbMText
 10
-22.74484554164658
 20
12.39562167368598
 30
0.0
 40
1.8
 41
0.0
 71
     1
 72
     1
  1
description
  7
CONVERTER_11
 73
     1
 44
1.20048019207683
  0
MTEXT
  5
335
330
74
100
AcDbEntity
  8
1
 62
     2
100
AcDbMText
 10
-55.4448455416465
 20
31.59562167368603
 30
0.0
 40
1.8
 41
0.0
 71
     8
 72
     1
  1
00
  7
CONVERTER_11
 73
     1
 44
1.20048019207683
  0
MTEXT
  5
336
330
74
100
AcDbEntity
  8
1
 62
     2
100
AcDbMText
 10
-22.74484554164658
 20
20.89562167368592
 30
0.0
 40
1.8
 41
0.0
 71
     1
 72
     1
  1
document-type
  7
CONVERTER_11
 73
     1
 44
1.20048019207683
  0
MTEXT
  5
337
330
74
100
AcDbEntity
  8
1
 62
     2
100
AcDbMText
 10
-30.49484554164661
 20
24.02062167368598
 30
0.0
 40
1.8
 41
0.0
 71
     5
 72
     1
  1
Schr\U+00f6der
  7
CONVERTER_11
 73
     1
 44
1.32052821128451
  0
MTEXT
  5
338
330
74
100
AcDbEntity
  8
1
 62
     2
100
AcDbMText
 10
-30.49484554164661
 20
28.27062167368598
 30
0.0
 40
1.8
 41
0.0
 71
     5
 72
     1
  1
H\U+00e4nig-Fl
  7
CONVERTER_11
 73
     1
 44
1.32052821128451
  0
MTEXT
  5
339
330
74
100
AcDbEntity
  8
1
 62
     2
100
AcDbMText
 10
-43.99484554164656
 20
24.02062167368598
 30
0.0
 40
1.8
 41
0.0
 71
     5
 72
     1
  1
06.03.14
  7
CONVERTER_11
 73
     1
 44
1.32052821128451
  0
MTEXT
  5
33A
330
74
100
AcDbEntity
  8
1
 62
     2
100
AcDbMText
 10
-43.99484554164656
 20
28.27062167368598
 30
0.0
 40
1.8
 41
0.0
 71
     5
 72
     1
  1
26.02.14
  7
CONVERTER_11
 73
     1
 44
1.32052821128451
  0
TEXT
  5
33B
330
74
100
AcDbEntity
  8
1
 62
     7
100
AcDbText
 10
-7.77129781963276
 20
27.44562167368598
 30
0.0
 40
2.5
  1
/
 41
0.9
  7
CONVERTER_11
100
AcDbText
  0
TEXT
  5
33D
330
74
100
AcDbEntity
  8
1
 62
     3
100
AcDbText
 10
25.39995898510544
 20
14.69562167368598
 30
0.0
 40
2.5
  1
 
 41
0.54
  7
CONVERTER_16
100
AcDbText
  0
MTEXT
  5
33F
330
74
100
AcDbEntity
  8
1
 62
     7
100
AcDbMText
 10
22.82755672172894
 20
8.14562167368621
 30
0.0
 40
3.0
 41
0.0
 71
     5
 72
     1
  1
CARRIER-EMLP 22 (27X8)
  7
CONVERTER_17
 73
     1
 44
1.20048019207683
  0
MTEXT
  5
340
330
74
100
AcDbEntity
  8
1
 62
     3
100
AcDbMText
 10
47.05916312594485
 20
27.44562167368609
 30
0.0
 40
2.5
 41
0.0
 71
     8
 72
     1
  1
1:1
  7
CONVERTER_13
 73
     1
 44
1.32052821128451
  0
TEXT
  5
341
330
74
100
AcDbEntity
  8
1
 62
     3
100
AcDbText
 10
0.15515445835345
 20
27.44562167368598
 30
0.0
 40
2.5
  1
PA 6.6 15%%%GF
 41
0.54
  7
CONVERTER_16
100
AcDbText
  0
TEXT
  5
342
330
74
100
AcDbEntity
  8
1
 62
     7
100
AcDbText
 10
-22.24484554164676
 20
27.44562167368598
 30
0.0
 40
2.5
  1
0828984
 41
0.81
  7
CONVERTER_17
100
AcDbText
  0
TEXT
  5
343
330
74
100
AcDbEntity
  8
1
 62
     7
100
AcDbText
 10
6.89995898510582
 20
14.69562167368598
 30
0.0
 40
2.5
  1
00778675
 41
0.81
  7
CONVERTER_17
100
AcDbText
  0
TEXT
  5
344
330
74
100
AcDbEntity
  8
1
 62
     3
100
AcDbText
 10
52.51836726678434
 20
27.44562167368598
 30
0.0
 40
2.5
  1
 
 41
0.54
  7
CONVERTER_16
100
AcDbText
  0
TEXT
  5
346
330
74
100
AcDbEntity
  8
1
 62
     3
100
AcDbText
 10
-22.74484554164658
 20
14.69562167368598
 30
0.0
 40
2.5
  1
KUNDENZCHNG-SELECT
 41
0.45
  7
CONVERTER_18
100
AcDbText
  0
TEXT
  5
347
330
74
100
AcDbEntity
  8
1
 62
     7
100
AcDbText
 10
-5.61493332259075
 20
27.44562167368598
 30
0.0
 40
2.5
  1
01
 41
0.81
  7
CONVERTER_17
100
AcDbText
  0
MTEXT
  5
348
330
74
100
AcDbEntity
  8
1
 62
     3
100
AcDbMText
 10
17.10697887171384
 20
25.24562167368598
 30
0.0
 40
2.0
 41
0.0
 71
     1
 72
     1
  1
Kontur und Material ge\U+00e4ndert
  7
CONVERTER_13
 73
     1
 44
1.20048019207683
  0
HATCH
  5
349
330
74
100
AcDbEntity
  8
1
  6
Continuous
 62
     2
100
AcDbHatch
 10
0.0
 20
0.0
 30
0.0
210
0.0
220
0.0
230
1.0
  2
_USER
 70
     0
 71
     1
 91
        1
 92
        1
 93
       14
 72
     2
 10
-46.86944944584261
 20
12.00752643559713
 40
0.9964100565214554
 50
164.9381082228798
 51
195.0618917770963
 73
     1
 72
     2
 10
-46.5230627983527
 20
12.10074161083252
 40
1.355119937140023
 50
195.0618917770909
 51
275.1581447696391
 73
     1
 72
     2
 10
-46.76178684358897
 20
14.74527928291648
 40
4.010410630990214
 50
275.1581447696246
 51
285.9799912583533
 73
     1
 72
     1
 10
-45.6577141848139
 20
10.88983936076703
 11
-45.6577141848139
 21
11.61092779614162
 72
     2
 10
-46.63131339309902
 20
13.17320111775307
 40
1.840813230556011
 50
58.0690910500376
 51
71.55192388186683
 73
     0
 72
     2
 10
-46.28572022478429
 20
12.13721287309425
 40
0.7487023016403797
 50
71.5519238818424
 51
113.3722778881286
 73
     0
 72
     2
 10
-46.41500950800909
 20
11.83804591548267
 40
0.4227934381775342
 50
113.372277888174
 51
151.4785267423089
 73
     0
 72
     2
 10
-46.10314400546335
 20
12.00752643559713
 40
0.7777353184572856
 50
151.4785267422974
 51
208.521473257731
 73
     0
 72
     2
 10
-46.41500950800909
 20
12.17700695571204
 40
0.4227934381775693
 50
208.5214732576899
 51
246.6277221118017
 73
     0
 72
     2
 10
-46.28572022478429
 20
11.87783999809999
 40
0.748702301640774
 50
246.627722111872
 51
288.4480761181462
 73
     0
 72
     2
 10
-46.63131339309902
 20
10.84185175344163
 40
1.840813230556619
 50
288.4480761181331
 51
301.9309089499624
 73
     0
 72
     1
 10
-45.6577141848139
 20
12.40412507505308
 11
-45.6577141848139
 21
13.12521351042767
 72
     2
 10
-46.76178684358897
 20
9.269773588278229
 40
4.010410630990093
 50
74.02000874164672
 51
84.84185523037534
 73
     1
 72
     2
 10
-46.5230627983527
 20
11.91431126036172
 40
1.355119937140908
 50
84.84185523036265
 51
164.9381082228906
 73
     1
 97
       14
330
2DD
330
167
330
2AC
330
2DC
330
2AD
330
2AE
330
2DB
330
2DA
330
2D9
330
168
330
2AF
330
2B0
330
2B1
330
2B2
 75
     1
 76
     0
 52
45.0
 41
0.1
 77
     0
 78
     1
 53
45.0
 43
0.0
 44
0.0
 45
-0.0707106781186548
 46
0.0707106781186548
 79
     0
 98
        1
 10
0.0
 20
0.0
  0
HATCH
  5
34A
330
74
100
AcDbEntity
  8
1
  6
Continuous
 62
     2
100
AcDbHatch
 10
0.0
 20
0.0
 30
0.0
210
0.0
220
0.0
230
1.0
  2
_USER
 70
     0
 71
     1
 91
        1
 92
        1
 93
       14
 72
     2
 10
-46.86944944584261
 20
12.00752643559713
 40
0.9964100565214554
 50
164.9381082228798
 51
195.0618917770963
 73
     1
 72
     2
 10
-46.5230627983527
 20
12.10074161083252
 40
1.355119937140023
 50
195.0618917770909
 51
275.1581447696391
 73
     1
 72
     2
 10
-46.76178684358897
 20
14.74527928291648
 40
4.010410630990214
 50
275.1581447696246
 51
285.9799912583533
 73
     1
 72
     1
 10
-45.6577141848139
 20
10.88983936076703
 11
-45.6577141848139
 21
11.61092779614162
 72
     2
 10
-46.63131339309902
 20
13.17320111775307
 40
1.840813230556011
 50
58.0690910500376
 51
71.55192388186683
 73
     0
 72
     2
 10
-46.28572022478429
 20
12.13721287309425
 40
0.7487023016403797
 50
71.5519238818424
 51
113.3722778881286
 73
     0
 72
     2
 10
-46.41500950800909
 20
11.83804591548267
 40
0.4227934381775342
 50
113.372277888174
 51
151.4785267423089
 73
     0
 72
     2
 10
-46.10314400546335
 20
12.00752643559713
 40
0.7777353184572856
 50
151.4785267422974
 51
208.521473257731
 73
     0
 72
     2
 10
-46.41500950800909
 20
12.17700695571204
 40
0.4227934381775693
 50
208.5214732576899
 51
246.6277221118017
 73
     0
 72
     2
 10
-46.28572022478429
 20
11.87783999809999
 40
0.748702301640774
 50
246.627722111872
 51
288.4480761181462
 73
     0
 72
     2
 10
-46.63131339309902
 20
10.84185175344163
 40
1.840813230556619
 50
288.4480761181331
 51
301.9309089499624
 73
     0
 72
     1
 10
-45.6577141848139
 20
12.40412507505308
 11
-45.6577141848139
 21
13.12521351042767
 72
     2
 10
-46.76178684358897
 20
9.269773588278229
 40
4.010410630990093
 50
74.02000874164672
 51
84.84185523037534
 73
     1
 72
     2
 10
-46.5230627983527
 20
11.91431126036172
 40
1.355119937140908
 50
84.84185523036265
 51
164.9381082228906
 73
     1
 97
       14
330
2DD
330
167
330
2AC
330
2DC
330
2AD
330
2AE
330
2DB
330
2DA
330
2D9
330
168
330
2AF
330
2B0
330
2B1
330
2B2
 75
     1
 76
     0
 52
45.0
 41
0.1
 77
     0
 78
     1
 53
45.0
 43
0.0
 44
0.0
 45
-0.0707106781186548
 46
0.0707106781186548
 79
     0
 98
        1
 10
0.0
 20
0.0
  0
HATCH
  5
34B
330
74
100
AcDbEntity
  8
1
  6
Continuous
 62
     2
100
AcDbHatch
 10
0.0
 20
0.0
 30
0.0
210
0.0
220
0.0
230
1.0
  2
_USER
 70
     0
 71
     1
 91
        1
 92
        1
 93
       18
 72
     2
 10
-33.21504504690402
 20
11.91431126036172
 40
1.355119937140591
 50
90.0
 51
164.9381082228992
 73
     1
 72
     2
 10
-33.561431694393
 20
12.00752643559713
 40
0.996410056523109
 50
164.9381082229054
 51
195.0618917770957
 73
     1
 72
     2
 10
-33.21504504690402
 20
12.10074161083252
 40
1.355119937140894
 50
195.0618917771007
 51
275.158144769676
 73
     1
 72
     2
 10
-33.45376909214028
 20
14.74527928291648
 40
4.010410630990743
 50
275.1581447696369
 51
285.9799912583388
 73
     1
 72
     1
 10
-32.34969643336613
 20
10.88983936076659
 11
-32.34969643336613
 21
11.61092779614116
 72
     2
 10
-33.32329564165033
 20
13.17320111775261
 40
1.840813230556001
 50
58.06909105006183
 51
71.55192388186671
 73
     0
 72
     2
 10
-32.97770247333468
 20
12.13721287309425
 40
0.7487023016407066
 50
71.55192388192036
 51
113.3722778881865
 73
     0
 72
     2
 10
-33.1069917565604
 20
11.83804591548267
 40
0.422793438178553
 50
113.3722778881625
 51
151.4785267423129
 73
     0
 72
     2
 10
-32.79512625401375
 20
12.00752643559713
 40
0.777735318458663
 50
151.4785267423313
 51
208.5214732576382
 73
     0
 72
     2
 10
-33.1069917565604
 20
12.17700695571204
 40
0.4227934381772285
 50
208.5214732575775
 51
250.6628567805131
 73
     0
 72
     2
 10
-32.98577688209454
 20
11.83158961655261
 40
0.7888619891124389
 50
250.6628567805685
 51
270.0
 73
     0
 72
     1
 10
-32.98577688209454
 20
12.62045160566505
 11
-32.07367828741016
 21
12.62045160566505
 72
     1
 10
-32.07367828741016
 20
12.62045160566505
 11
-32.07367828741016
 21
10.74562167369194
 72
     1
 10
-32.07367828741016
 20
10.74562167369194
 11
-31.08789919470959
 21
10.74562167369194
 72
     1
 10
-31.08789919470959
 20
10.74562167369194
 11
-31.08789919470959
 21
12.62045160566505
 72
     1
 10
-31.08789919470959
 20
12.62045160566505
 11
-30.41756941167373
 21
12.62045160566505
 72
     1
 10
-30.41756941167373
 20
12.62045160566505
 11
-30.41756941167373
 21
13.26943119750277
 72
     1
 10
-30.41756941167373
 20
13.26943119750277
 11
-33.21504504690402
 21
13.26943119750231
 97
       18
330
1CD
330
1CC
330
1CB
330
1CA
330
1CF
330
169
330
2D6
330
2B7
330
2D5
330
2B8
330
2D4
330
2D3
330
16A
330
2D2
330
2D1
330
2B9
330
2BA
330
1CE
 75
     1
 76
     0
 52
45.0
 41
0.1
 77
     0
 78
     1
 53
45.0
 43
0.0
 44
0.0
 45
-0.0707106781186548
 46
0.0707106781186548
 79
     0
 98
        1
 10
0.0
 20
0.0
  0
HATCH
  5
34C
330
74
100
AcDbEntity
  8
1
  6
Continuous
 62
     2
100
AcDbHatch
 10
0.0
 20
0.0
 30
0.0
210
0.0
220
0.0
230
1.0
  2
_USER
 70
     0
 71
     1
 91
        1
 92
        1
 93
       18
 72
     2
 10
-33.21504504690402
 20
11.91431126036172
 40
1.355119937140591
 50
90.0
 51
164.9381082228992
 73
     1
 72
     2
 10
-33.561431694393
 20
12.00752643559713
 40
0.996410056523109
 50
164.9381082229054
 51
195.0618917770957
 73
     1
 72
     2
 10
-33.21504504690402
 20
12.10074161083252
 40
1.355119937140894
 50
195.0618917771007
 51
275.158144769676
 73
     1
 72
     2
 10
-33.45376909214028
 20
14.74527928291648
 40
4.010410630990743
 50
275.1581447696369
 51
285.9799912583388
 73
     1
 72
     1
 10
-32.34969643336613
 20
10.88983936076659
 11
-32.34969643336613
 21
11.61092779614116
 72
     2
 10
-33.32329564165033
 20
13.17320111775261
 40
1.840813230556001
 50
58.06909105006183
 51
71.55192388186671
 73
     0
 72
     2
 10
-32.97770247333468
 20
12.13721287309425
 40
0.7487023016407066
 50
71.55192388192036
 51
113.3722778881865
 73
     0
 72
     2
 10
-33.1069917565604
 20
11.83804591548267
 40
0.422793438178553
 50
113.3722778881625
 51
151.4785267423129
 73
     0
 72
     2
 10
-32.79512625401375
 20
12.00752643559713
 40
0.777735318458663
 50
151.4785267423313
 51
208.5214732576382
 73
     0
 72
     2
 10
-33.1069917565604
 20
12.17700695571204
 40
0.4227934381772285
 50
208.5214732575775
 51
250.6628567805131
 73
     0
 72
     2
 10
-32.98577688209454
 20
11.83158961655261
 40
0.7888619891124389
 50
250.6628567805685
 51
270.0
 73
     0
 72
     1
 10
-32.98577688209454
 20
12.62045160566505
 11
-32.07367828741016
 21
12.62045160566505
 72
     1
 10
-32.07367828741016
 20
12.62045160566505
 11
-32.07367828741016
 21
10.74562167369194
 72
     1
 10
-32.07367828741016
 20
10.74562167369194
 11
-31.08789919470959
 21
10.74562167369194
 72
     1
 10
-31.08789919470959
 20
10.74562167369194
 11
-31.08789919470959
 21
12.62045160566505
 72
     1
 10
-31.08789919470959
 20
12.62045160566505
 11
-30.41756941167373
 21
12.62045160566505
 72
     1
 10
-30.41756941167373
 20
12.62045160566505
 11
-30.41756941167373
 21
13.26943119750277
 72
     1
 10
-30.41756941167373
 20
13.26943119750277
 11
-33.21504504690402
 21
13.26943119750231
 97
       18
330
1CD
330
1CC
330
1CB
330
1CA
330
1CF
330
169
330
2D6
330
2B7
330
2D5
330
2B8
330
2D4
330
2D3
330
16A
330
2D2
330
2D1
330
2B9
330
2BA
330
1CE
 75
     1
 76
     0
 52
45.0
 41
0.1
 77
     0
 78
     1
 53
45.0
 43
0.0
 44
0.0
 45
-0.0707106781186548
 46
0.0707106781186548
 79
     0
 98
        1
 10
0.0
 20
0.0
  0
HATCH
  5
34D
330
74
100
AcDbEntity
  8
1
  6
Continuous
 62
     2
100
AcDbHatch
 10
0.0
 20
0.0
 30
0.0
210
0.0
220
0.0
230
1.0
  2
_USER
 70
     0
 71
     1
 91
        4
 92
        1
 93
        8
 72
     2
 10
-53.13418479623712
 20
15.69500628905019
 40
0.3506153846147395
 50
90.0
 51
180.0
 73
     1
 72
     1
 10
-53.48480018085101
 20
15.69500628905019
 11
-53.48480018085101
 21
11.09623705830622
 72
     2
 10
-53.13418479623712
 20
11.09623705830622
 40
0.3506153846138886
 50
180.0
 51
270.0
 73
     1
 72
     1
 10
-53.13418479623712
 20
10.74562167369194
 11
-48.61078637415707
 21
10.74562167369194
 72
     2
 10
-48.61078637415707
 20
11.09623705830622
 40
0.3506153846142812
 50
270.0
 51
360.0
 73
     1
 72
     1
 10
-48.26017098954227
 20
11.09623705830622
 11
-48.26017098954227
 21
15.69500628905019
 72
     2
 10
-48.61078637415707
 20
15.69500628905019
 40
0.3506153846148052
 50
0.0
 51
90.0
 73
     1
 72
     1
 10
-48.61078637415707
 20
16.04562167366493
 11
-53.13418479623712
 21
16.04562167366493
 97
        8
330
2CA
330
198
330
2C9
330
199
330
2C0
330
196
330
2CB
330
197
 92
       16
 93
        1
 72
     2
 10
-50.96923797762756
 20
13.77857469536795
 40
0.3892387874202541
 50
0.0
 51
360.0
 73
     1
 97
        1
330
2DE
 92
       16
 93
        8
 72
     2
 10
-50.9495561473195
 20
13.77857469536795
 40
0.7535935125161034
 50
295.3740086781784
 51
424.6259913218066
 73
     1
 72
     2
 10
-50.51481011584187
 20
14.69522064575457
 40
0.2609230769229498
 50
115.3740086783585
 51
180.0
 73
     0
 72
     1
 10
-50.77573319276482
 20
14.69522064575457
 11
-50.77573319276482
 21
15.19566303295024
 72
     2
 10
-50.51481011584187
 20
15.19566303295024
 40
0.2609230769224198
 50
180.0
 51
269.8110329574465
 73
     0
 72
     2
 10
-50.5101686817014
 20
13.78836142338906
 40
1.668232340440702
 50
269.8110329575862
 51
450.1889670424138
 73
     0
 72
     2
 10
-50.51481011584187
 20
12.38105981382789
 40
0.2609230769229498
 50
90.18896704255353
 51
180.0
 73
     0
 72
     1
 10
-50.77573319276482
 20
12.38105981382789
 11
-50.77573319276482
 21
12.86192874498086
 72
     2
 10
-50.51481011584187
 20
12.86192874498086
 40
0.2609230769227294
 50
180.0
 51
244.6259913216425
 73
     0
 97
        8
330
2D8
330
2B4
330
1D1
330
2D7
330
2B5
330
2B6
330
1D0
330
2B3
 92
       16
 93
       12
 72
     1
 10
-52.64336274933916
 20
11.33451056258196
 11
-51.42366583941393
 21
11.33451056258196
 72
     2
 10
-51.42366583941393
 20
11.59543363950485
 40
0.2609230769228912
 50
270.0
 51
360.0
 73
     1
 72
     1
 10
-51.16274276249109
 20
11.59543363950485
 11
-51.16274276249109
 21
12.86053358291941
 72
     2
 10
-51.42366583941393
 20
12.86053358291941
 40
0.2609230769228361
 50
0.0
 51
64.8055893514401
 73
     1
 72
     2
 10
-50.99177786621144
 20
13.77857469536795
 40
0.7536343169897642
 50
115.1944106485081
 51
244.805589351477
 73
     0
 72
     2
 10
-51.42366583941393
 20
14.69661580781603
 40
0.2609230769224081
 50
295.1944106485599
 51
360.0
 73
     1
 72
     1
 10
-51.16274276249109
 20
14.69661580781603
 11
-51.16274276249109
 21
15.19580970786609
 72
     2
 10
-51.42366583941393
 20
15.19580970786609
 40
0.2609230769228361
 50
0.0
 51
90.0
 73
     1
 72
     1
 10
-51.42366583941393
 20
15.45673278478854
 11
-52.64336274933916
 21
15.45673278478854
 72
     2
 10
-52.64336274933916
 20
15.19580970786609
 40
0.2609230769224506
 50
90.0
 51
180.0
 73
     1
 72
     1
 10
-52.9042858262612
 20
15.19580970786609
 11
-52.9042858262612
 21
11.59543363950485
 72
     2
 10
-52.64336274933916
 20
11.59543363950485
 40
0.2609230769220403
 50
180.0
 51
270.0
 73
     1
 97
       12
330
19D
330
2BD
330
19C
330
2CE
330
19B
330
2CD
330
2BE
330
2BF
330
19A
330
2CC
330
195
330
2CF
 75
     1
 76
     0
 52
45.0
 41
0.1
 77
     0
 78
     1
 53
45.0
 43
0.0
 44
0.0
 45
-0.0707106781186548
 46
0.0707106781186548
 79
     0
 98
        1
 10
0.0
 20
0.0
  0
HATCH
  5
34E
330
74
100
AcDbEntity
  8
1
  6
Continuous
 62
     2
100
AcDbHatch
 10
0.0
 20
0.0
 30
0.0
210
0.0
220
0.0
230
1.0
  2
_USER
 70
     0
 71
     1
 91
        4
 92
        1
 93
        8
 72
     2
 10
-53.13418479623712
 20
15.69500628905019
 40
0.3506153846147395
 50
90.0
 51
180.0
 73
     1
 72
     1
 10
-53.48480018085101
 20
15.69500628905019
 11
-53.48480018085101
 21
11.09623705830622
 72
     2
 10
-53.13418479623712
 20
11.09623705830622
 40
0.3506153846138886
 50
180.0
 51
270.0
 73
     1
 72
     1
 10
-53.13418479623712
 20
10.74562167369194
 11
-48.61078637415707
 21
10.74562167369194
 72
     2
 10
-48.61078637415707
 20
11.09623705830622
 40
0.3506153846142812
 50
270.0
 51
360.0
 73
     1
 72
     1
 10
-48.26017098954227
 20
11.09623705830622
 11
-48.26017098954227
 21
15.69500628905019
 72
     2
 10
-48.61078637415707
 20
15.69500628905019
 40
0.3506153846148052
 50
0.0
 51
90.0
 73
     1
 72
     1
 10
-48.61078637415707
 20
16.04562167366493
 11
-53.13418479623712
 21
16.04562167366493
 97
        8
330
2CA
330
198
330
2C9
330
199
330
2C0
330
196
330
2CB
330
197
 92
       16
 93
        1
 72
     2
 10
-50.96923797762756
 20
13.77857469536795
 40
0.3892387874202541
 50
0.0
 51
360.0
 73
     1
 97
        1
330
2DE
 92
       16
 93
        8
 72
     2
 10
-50.9495561473195
 20
13.77857469536795
 40
0.7535935125161034
 50
295.3740086781784
 51
424.6259913218066
 73
     1
 72
     2
 10
-50.51481011584187
 20
14.69522064575457
 40
0.2609230769229498
 50
115.3740086783585
 51
180.0
 73
     0
 72
     1
 10
-50.77573319276482
 20
14.69522064575457
 11
-50.77573319276482
 21
15.19566303295024
 72
     2
 10
-50.51481011584187
 20
15.19566303295024
 40
0.2609230769224198
 50
180.0
 51
269.8110329574465
 73
     0
 72
     2
 10
-50.5101686817014
 20
13.78836142338906
 40
1.668232340440702
 50
269.8110329575862
 51
450.1889670424138
 73
     0
 72
     2
 10
-50.51481011584187
 20
12.38105981382789
 40
0.2609230769229498
 50
90.18896704255353
 51
180.0
 73
     0
 72
     1
 10
-50.77573319276482
 20
12.38105981382789
 11
-50.77573319276482
 21
12.86192874498086
 72
     2
 10
-50.51481011584187
 20
12.86192874498086
 40
0.2609230769227294
 50
180.0
 51
244.6259913216425
 73
     0
 97
        8
330
2D8
330
2B4
330
1D1
330
2D7
330
2B5
330
2B6
330
1D0
330
2B3
 92
       16
 93
       12
 72
     1
 10
-52.64336274933916
 20
11.33451056258196
 11
-51.42366583941393
 21
11.33451056258196
 72
     2
 10
-51.42366583941393
 20
11.59543363950485
 40
0.2609230769228912
 50
270.0
 51
360.0
 73
     1
 72
     1
 10
-51.16274276249109
 20
11.59543363950485
 11
-51.16274276249109
 21
12.86053358291941
 72
     2
 10
-51.42366583941393
 20
12.86053358291941
 40
0.2609230769228361
 50
0.0
 51
64.8055893514401
 73
     1
 72
     2
 10
-50.99177786621144
 20
13.77857469536795
 40
0.7536343169897642
 50
115.1944106485081
 51
244.805589351477
 73
     0
 72
     2
 10
-51.42366583941393
 20
14.69661580781603
 40
0.2609230769224081
 50
295.1944106485599
 51
360.0
 73
     1
 72
     1
 10
-51.16274276249109
 20
14.69661580781603
 11
-51.16274276249109
 21
15.19580970786609
 72
     2
 10
-51.42366583941393
 20
15.19580970786609
 40
0.2609230769228361
 50
0.0
 51
90.0
 73
     1
 72
     1
 10
-51.42366583941393
 20
15.45673278478854
 11
-52.64336274933916
 21
15.45673278478854
 72
     2
 10
-52.64336274933916
 20
15.19580970786609
 40
0.2609230769224506
 50
90.0
 51
180.0
 73
     1
 72
     1
 10
-52.9042858262612
 20
15.19580970786609
 11
-52.9042858262612
 21
11.59543363950485
 72
     2
 10
-52.64336274933916
 20
11.59543363950485
 40
0.2609230769220403
 50
180.0
 51
270.0
 73
     1
 97
       12
330
19D
330
2BD
330
19C
330
2CE
330
19B
330
2CD
330
2BE
330
2BF
330
19A
330
2CC
330
195
330
2CF
 75
     1
 76
     0
 52
45.0
 41
0.1
 77
     0
 78
     1
 53
45.0
 43
0.0
 44
0.0
 45
-0.0707106781186548
 46
0.0707106781186548
 79
     0
 98
        1
 10
0.0
 20
0.0
  0
HATCH
  5
34F
330
74
100
AcDbEntity
  8
1
  6
Continuous
 62
     2
100
AcDbHatch
 10
0.0
 20
0.0
 30
0.0
210
0.0
220
0.0
230
1.0
  2
_USER
 70
     0
 71
     1
 91
        2
 92
        1
 93
       12
 72
     2
 10
-41.00595008219634
 20
14.78371691177428
 40
1.261904761905642
 50
90.0
 51
270.0
 73
     1
 72
     1
 10
-41.00595008219634
 20
13.52181214986909
 11
-38.40238006254263
 21
13.52181214986909
 72
     1
 10
-38.40238006254263
 20
13.52181214986909
 11
-38.40238006254263
 21
14.09868289816858
 72
     1
 10
-38.40238006254263
 20
14.09868289816858
 11
-39.50645264636714
 21
14.09868289816858
 72
     1
 10
-39.50645264636714
 20
14.09868289816858
 11
-39.50645264636714
 21
14.49528153762454
 72
     1
 10
-39.50645264636714
 20
14.49528153762454
 11
-38.40238006254263
 21
14.49528153762454
 72
     1
 10
-38.40238006254263
 20
14.49528153762454
 11
-38.40238006254263
 21
15.07215228592402
 72
     1
 10
-38.40238006254263
 20
15.07215228592402
 11
-39.50645264636714
 21
15.07215228592402
 72
     1
 10
-39.50645264636714
 20
15.07215228592402
 11
-39.50645264636714
 21
15.46875092537998
 72
     1
 10
-39.50645264636714
 20
15.46875092537998
 11
-38.40238006254263
 21
15.46875092537998
 72
     1
 10
-38.40238006254263
 20
15.46875092537998
 11
-38.40238006254263
 21
16.04562167367992
 72
     1
 10
-38.40238006254263
 20
16.04562167367992
 11
-41.00595008219634
 21
16.04562167367992
 97
       12
330
18C
330
186
330
1AD
330
1AC
330
1AB
330
1AA
330
187
330
188
330
189
330
18A
330
2BB
330
18B
 92
       16
 93
        4
 72
     2
 10
-40.6621384735092
 20
14.78371691177428
 40
0.6378510567600112
 50
141.879580202842
 51
218.1204197971578
 73
     1
 72
     2
 10
-40.82721288371269
 20
14.65418701250115
 40
0.4280236140606907
 50
218.1204197971427
 51
321.8795802028561
 73
     1
 72
     2
 10
-40.99228729391617
 20
14.78371691177428
 40
0.6378510567599934
 50
321.8795802028411
 51
398.1204197971591
 73
     1
 72
     2
 10
-40.82721288371269
 20
14.9132468110474
 40
0.428023614060685
 50
38.12041979714484
 51
141.8795802028563
 73
     1
 97
        4
330
2C8
330
2C7
330
2C2
330
2C1
 75
     1
 76
     0
 52
45.0
 41
0.1
 77
     0
 78
     1
 53
45.0
 43
0.0
 44
0.0
 45
-0.0707106781186548
 46
0.0707106781186548
 79
     0
 98
        1
 10
0.0
 20
0.0
  0
HATCH
  5
350
330
74
100
AcDbEntity
  8
1
  6
Continuous
 62
     2
100
AcDbHatch
 10
0.0
 20
0.0
 30
0.0
210
0.0
220
0.0
230
1.0
  2
_USER
 70
     0
 71
     1
 91
        2
 92
        1
 93
       12
 72
     2
 10
-41.00595008219634
 20
14.78371691177428
 40
1.261904761905642
 50
90.0
 51
270.0
 73
     1
 72
     1
 10
-41.00595008219634
 20
13.52181214986909
 11
-38.40238006254263
 21
13.52181214986909
 72
     1
 10
-38.40238006254263
 20
13.52181214986909
 11
-38.40238006254263
 21
14.09868289816858
 72
     1
 10
-38.40238006254263
 20
14.09868289816858
 11
-39.50645264636714
 21
14.09868289816858
 72
     1
 10
-39.50645264636714
 20
14.09868289816858
 11
-39.50645264636714
 21
14.49528153762454
 72
     1
 10
-39.50645264636714
 20
14.49528153762454
 11
-38.40238006254263
 21
14.49528153762454
 72
     1
 10
-38.40238006254263
 20
14.49528153762454
 11
-38.40238006254263
 21
15.07215228592402
 72
     1
 10
-38.40238006254263
 20
15.07215228592402
 11
-39.50645264636714
 21
15.07215228592402
 72
     1
 10
-39.50645264636714
 20
15.07215228592402
 11
-39.50645264636714
 21
15.46875092537998
 72
     1
 10
-39.50645264636714
 20
15.46875092537998
 11
-38.40238006254263
 21
15.46875092537998
 72
     1
 10
-38.40238006254263
 20
15.46875092537998
 11
-38.40238006254263
 21
16.04562167367992
 72
     1
 10
-38.40238006254263
 20
16.04562167367992
 11
-41.00595008219634
 21
16.04562167367992
 97
       12
330
18C
330
186
330
1AD
330
1AC
330
1AB
330
1AA
330
187
330
188
330
189
330
18A
330
2BB
330
18B
 92
       16
 93
        4
 72
     2
 10
-40.6621384735092
 20
14.78371691177428
 40
0.6378510567600112
 50
141.879580202842
 51
218.1204197971578
 73
     1
 72
     2
 10
-40.82721288371269
 20
14.65418701250115
 40
0.4280236140606907
 50
218.1204197971427
 51
321.8795802028561
 73
     1
 72
     2
 10
-40.99228729391617
 20
14.78371691177428
 40
0.6378510567599934
 50
321.8795802028411
 51
398.1204197971591
 73
     1
 72
     2
 10
-40.82721288371269
 20
14.9132468110474
 40
0.428023614060685
 50
38.12041979714484
 51
141.8795802028563
 73
     1
 97
        4
330
2C8
330
2C7
330
2C2
330
2C1
 75
     1
 76
     0
 52
45.0
 41
0.1
 77
     0
 78
     1
 53
45.0
 43
0.0
 44
0.0
 45
-0.0707106781186548
 46
0.0707106781186548
 79
     0
 98
        1
 10
0.0
 20
0.0
  0
HATCH
  5
351
330
74
100
AcDbEntity
  8
1
  6
Continuous
 62
     2
100
AcDbHatch
 10
0.0
 20
0.0
 30
0.0
210
0.0
220
0.0
230
1.0
  2
_USER
 70
     0
 71
     1
 91
        2
 92
        1
 93
        4
 72
     2
 10
-44.33290492720593
 20
12.00752643559713
 40
1.204986845992995
 50
117.5481481756635
 51
242.451851824337
 73
     1
 72
     2
 10
-44.10072319841808
 20
12.4526297498974
 40
1.70700807620544
 50
242.4518518243401
 51
297.548148175687
 73
     1
 72
     2
 10
-43.86854146963023
 20
12.00752643559713
 40
1.204986845993433
 50
297.5481481757013
 51
422.4518518242982
 73
     1
 72
     2
 10
-44.10072319841808
 20
11.56242312129731
 40
1.707008076205444
 50
62.45185182430569
 51
117.5481481756673
 73
     1
 97
        4
330
2C6
330
2C3
330
2C5
330
2C4
 92
       16
 93
        4
 72
     2
 10
-44.10072319841808
 20
12.13705633487025
 40
0.4280236140605899
 50
38.12041979715482
 51
141.8795802028552
 73
     1
 72
     2
 10
-43.93564878821471
 20
12.00752643559713
 40
0.637851056759904
 50
141.8795802028347
 51
218.1204197971661
 73
     1
 72
     2
 10
-44.10072319841808
 20
11.87799653632445
 40
0.4280236140609624
 50
218.1204197971922
 51
321.8795802027979
 73
     1
 72
     2
 10
-44.26579760862168
 20
12.00752643559713
 40
0.6378510567599999
 50
321.8795802028403
 51
398.1204197971591
 73
     1
 97
        4
330
2A9
330
2AA
330
2AB
330
2A8
 75
     1
 76
     0
 52
45.0
 41
0.1
 77
     0
 78
     1
 53
45.0
 43
0.0
 44
0.0
 45
-0.0707106781186548
 46
0.0707106781186548
 79
     0
 98
        1
 10
0.0
 20
0.0
  0
HATCH
  5
352
330
74
100
AcDbEntity
  8
1
  6
Continuous
 62
     2
100
AcDbHatch
 10
0.0
 20
0.0
 30
0.0
210
0.0
220
0.0
230
1.0
  2
_USER
 70
     0
 71
     1
 91
        2
 92
        1
 93
        4
 72
     2
 10
-44.33290492720593
 20
12.00752643559713
 40
1.204986845992995
 50
117.5481481756635
 51
242.451851824337
 73
     1
 72
     2
 10
-44.10072319841808
 20
12.4526297498974
 40
1.70700807620544
 50
242.4518518243401
 51
297.548148175687
 73
     1
 72
     2
 10
-43.86854146963023
 20
12.00752643559713
 40
1.204986845993433
 50
297.5481481757013
 51
422.4518518242982
 73
     1
 72
     2
 10
-44.10072319841808
 20
11.56242312129731
 40
1.707008076205444
 50
62.45185182430569
 51
117.5481481756673
 73
     1
 97
        4
330
2C6
330
2C3
330
2C5
330
2C4
 92
       16
 93
        4
 72
     2
 10
-44.10072319841808
 20
12.13705633487025
 40
0.4280236140605899
 50
38.12041979715482
 51
141.8795802028552
 73
     1
 72
     2
 10
-43.93564878821471
 20
12.00752643559713
 40
0.637851056759904
 50
141.8795802028347
 51
218.1204197971661
 73
     1
 72
     2
 10
-44.10072319841808
 20
11.87799653632445
 40
0.4280236140609624
 50
218.1204197971922
 51
321.8795802027979
 73
     1
 72
     2
 10
-44.26579760862168
 20
12.00752643559713
 40
0.6378510567599999
 50
321.8795802028403
 51
398.1204197971591
 73
     1
 97
        4
330
2A9
330
2AA
330
2AB
330
2A8
 75
     1
 76
     0
 52
45.0
 41
0.1
 77
     0
 78
     1
 53
45.0
 43
0.0
 44
0.0
 45
-0.0707106781186548
 46
0.0707106781186548
 79
     0
 98
        1
 10
0.0
 20
0.0
  0
HATCH
  5
353
330
74
100
AcDbEntity
  8
1
  6
Continuous
 62
     2
100
AcDbHatch
 10
0.0
 20
0.0
 30
0.0
210
0.0
220
0.0
230
1.0
  2
_USER
 70
     0
 71
     1
 91
        2
 92
        1
 93
        6
 72
     1
 10
-47.86585935246225
 20
16.04562167367992
 11
-47.86585935246225
 21
13.52181214986909
 72
     1
 10
-47.86585935246225
 20
13.52181214986909
 11
-46.84064909605397
 21
13.52181214986909
 72
     1
 10
-46.84064909605397
 20
13.52181214986909
 11
-46.84064909605397
 21
14.30121565494656
 72
     1
 10
-46.84064909605397
 20
14.30121565494656
 11
-46.21356844499584
 21
14.30121565494656
 72
     2
 10
-46.21356844499584
 20
15.17341866431323
 40
0.87220300936667
 50
270.0
 51
450.0
 73
     1
 72
     1
 10
-46.21356844499584
 20
16.04562167367992
 11
-47.86585935246225
 21
16.04562167367992
 97
        6
330
2D0
330
19E
330
194
330
193
330
1A0
330
19F
 92
       16
 93
        4
 72
     1
 10
-46.57842177246559
 20
15.49760031381211
 11
-46.84064909605397
 21
15.49760031381211
 72
     1
 10
-46.84064909605397
 20
15.49760031381211
 11
-46.84064909605397
 21
14.91435432262015
 72
     1
 10
-46.84064909605397
 20
14.91435432262015
 11
-46.57842177246559
 21
14.91435432262015
 72
     2
 10
-46.57842177246559
 20
15.20597731821614
 40
0.2916229955959899
 50
270.0
 51
450.0
 73
     1
 97
        4
330
1A1
330
192
330
1A2
330
2BC
 75
     1
 76
     0
 52
45.0
 41
0.1
 77
     0
 78
     1
 53
45.0
 43
0.0
 44
0.0
 45
-0.0707106781186548
 46
0.0707106781186548
 79
     0
 98
        1
 10
0.0
 20
0.0
  0
HATCH
  5
354
330
74
100
AcDbEntity
  8
1
  6
Continuous
 62
     2
100
AcDbHatch
 10
0.0
 20
0.0
 30
0.0
210
0.0
220
0.0
230
1.0
  2
_USER
 70
     0
 71
     1
 91
        2
 92
        1
 93
        6
 72
     1
 10
-47.86585935246225
 20
16.04562167367992
 11
-47.86585935246225
 21
13.52181214986909
 72
     1
 10
-47.86585935246225
 20
13.52181214986909
 11
-46.84064909605397
 21
13.52181214986909
 72
     1
 10
-46.84064909605397
 20
13.52181214986909
 11
-46.84064909605397
 21
14.30121565494656
 72
     1
 10
-46.84064909605397
 20
14.30121565494656
 11
-46.21356844499584
 21
14.30121565494656
 72
     2
 10
-46.21356844499584
 20
15.17341866431323
 40
0.87220300936667
 50
270.0
 51
450.0
 73
     1
 72
     1
 10
-46.21356844499584
 20
16.04562167367992
 11
-47.86585935246225
 21
16.04562167367992
 97
        6
330
2D0
330
19E
330
194
330
193
330
1A0
330
19F
 92
       16
 93
        4
 72
     1
 10
-46.57842177246559
 20
15.49760031381211
 11
-46.84064909605397
 21
15.49760031381211
 72
     1
 10
-46.84064909605397
 20
15.49760031381211
 11
-46.84064909605397
 21
14.91435432262015
 72
     1
 10
-46.84064909605397
 20
14.91435432262015
 11
-46.57842177246559
 21
14.91435432262015
 72
     2
 10
-46.57842177246559
 20
15.20597731821614
 40
0.2916229955959899
 50
270.0
 51
450.0
 73
     1
 97
        4
330
1A1
330
192
330
1A2
330
2BC
 75
     1
 76
     0
 52
45.0
 41
0.1
 77
     0
 78
     1
 53
45.0
 43
0.0
 44
0.0
 45
-0.0707106781186548
 46
0.0707106781186548
 79
     0
 98
        1
 10
0.0
 20
0.0
  0
HATCH
  5
355
330
74
100
AcDbEntity
  8
1
  6
Continuous
 62
     2
100
AcDbHatch
 10
0.0
 20
0.0
 30
0.0
210
0.0
220
0.0
230
1.0
  2
_USER
 70
     0
 71
     1
 91
        1
 92
        1
 93
       12
 72
     1
 10
-31.65570795210429
 20
16.04562167367992
 11
-30.49643173909007
 21
16.04562167367992
 72
     1
 10
-30.49643173909007
 20
16.04562167367992
 11
-31.57290250831861
 21
14.8283071860467
 72
     1
 10
-31.57290250831861
 20
14.8283071860467
 11
-30.41756941167373
 21
13.52181214986909
 72
     1
 10
-30.41756941167373
 20
13.52181214986909
 11
-31.57684562468884
 21
13.52181214986909
 72
     1
 10
-31.57684562468884
 20
13.52181214986909
 11
-32.1525406148256
 21
14.17283015424403
 72
     1
 10
-32.1525406148256
 20
14.17283015424403
 11
-32.72823560496257
 21
13.52181214986909
 72
     1
 10
-32.72823560496257
 20
13.52181214986909
 11
-33.88751181797758
 21
13.52181214986909
 72
     1
 10
-33.88751181797758
 20
13.52181214986909
 11
-32.7321787213327
 21
14.8283071860467
 72
     1
 10
-32.7321787213327
 20
14.8283071860467
 11
-33.80864949056203
 21
16.04562167367992
 72
     1
 10
-33.80864949056203
 20
16.04562167367992
 11
-32.64937327754613
 21
16.04562167367992
 72
     1
 10
-32.64937327754613
 20
16.04562167367992
 11
-32.1525406148256
 21
15.48378421784893
 72
     1
 10
-32.1525406148256
 20
15.48378421784893
 11
-31.65570795210429
 21
16.04562167367992
 97
       12
330
16D
330
1C6
330
1C5
330
1C4
330
1C3
330
16E
330
16F
330
16B
330
16C
330
1C9
330
1C8
330
1C7
 75
     1
 76
     0
 52
45.0
 41
0.1
 77
     0
 78
     1
 53
45.0
 43
0.0
 44
0.0
 45
-0.0707106781186548
 46
0.0707106781186548
 79
     0
 98
        1
 10
0.0
 20
0.0
  0
HATCH
  5
356
330
74
100
AcDbEntity
  8
1
  6
Continuous
 62
     2
100
AcDbHatch
 10
0.0
 20
0.0
 30
0.0
210
0.0
220
0.0
230
1.0
  2
_USER
 70
     0
 71
     1
 91
        1
 92
        1
 93
       12
 72
     1
 10
-31.65570795210429
 20
16.04562167367992
 11
-30.49643173909007
 21
16.04562167367992
 72
     1
 10
-30.49643173909007
 20
16.04562167367992
 11
-31.57290250831861
 21
14.8283071860467
 72
     1
 10
-31.57290250831861
 20
14.8283071860467
 11
-30.41756941167373
 21
13.52181214986909
 72
     1
 10
-30.41756941167373
 20
13.52181214986909
 11
-31.57684562468884
 21
13.52181214986909
 72
     1
 10
-31.57684562468884
 20
13.52181214986909
 11
-32.1525406148256
 21
14.17283015424403
 72
     1
 10
-32.1525406148256
 20
14.17283015424403
 11
-32.72823560496257
 21
13.52181214986909
 72
     1
 10
-32.72823560496257
 20
13.52181214986909
 11
-33.88751181797758
 21
13.52181214986909
 72
     1
 10
-33.88751181797758
 20
13.52181214986909
 11
-32.7321787213327
 21
14.8283071860467
 72
     1
 10
-32.7321787213327
 20
14.8283071860467
 11
-33.80864949056203
 21
16.04562167367992
 72
     1
 10
-33.80864949056203
 20
16.04562167367992
 11
-32.64937327754613
 21
16.04562167367992
 72
     1
 10
-32.64937327754613
 20
16.04562167367992
 11
-32.1525406148256
 21
15.48378421784893
 72
     1
 10
-32.1525406148256
 20
15.48378421784893
 11
-31.65570795210429
 21
16.04562167367992
 97
       12
330
16D
330
1C6
330
1C5
330
1C4
330
1C3
330
16E
330
16F
330
16B
330
16C
330
1C9
330
1C8
330
1C7
 75
     1
 76
     0
 52
45.0
 41
0.1
 77
     0
 78
     1
 53
45.0
 43
0.0
 44
0.0
 45
-0.0707106781186548
 46
0.0707106781186548
 79
     0
 98
        1
 10
0.0
 20
0.0
  0
HATCH
  5
357
330
74
100
AcDbEntity
  8
1
  6
Continuous
 62
     2
100
AcDbHatch
 10
0.0
 20
0.0
 30
0.0
210
0.0
220
0.0
230
1.0
  2
_USER
 70
     0
 71
     1
 91
        1
 92
        1
 93
        4
 72
     1
 10
-33.98608972724773
 20
16.04562167367992
 11
-33.98608972724773
 21
13.52181214986909
 72
     1
 10
-33.98608972724773
 20
13.52181214986909
 11
-35.01129998365511
 21
13.52181214986909
 72
     1
 10
-35.01129998365511
 20
13.52181214986909
 11
-35.01129998365511
 21
16.04562167367992
 72
     1
 10
-35.01129998365511
 20
16.04562167367992
 11
-33.98608972724773
 21
16.04562167367992
 97
        4
330
1C1
330
170
330
1C0
330
1C2
 75
     1
 76
     0
 52
45.0
 41
0.1
 77
     0
 78
     1
 53
45.0
 43
0.0
 44
0.0
 45
-0.0707106781186548
 46
0.0707106781186548
 79
     0
 98
        1
 10
0.0
 20
0.0
  0
HATCH
  5
358
330
74
100
AcDbEntity
  8
1
  6
Continuous
 62
     2
100
AcDbHatch
 10
0.0
 20
0.0
 30
0.0
210
0.0
220
0.0
230
1.0
  2
_USER
 70
     0
 71
     1
 91
        1
 92
        1
 93
        4
 72
     1
 10
-33.98608972724773
 20
16.04562167367992
 11
-33.98608972724773
 21
13.52181214986909
 72
     1
 10
-33.98608972724773
 20
13.52181214986909
 11
-35.01129998365511
 21
13.52181214986909
 72
     1
 10
-35.01129998365511
 20
13.52181214986909
 11
-35.01129998365511
 21
16.04562167367992
 72
     1
 10
-35.01129998365511
 20
16.04562167367992
 11
-33.98608972724773
 21
16.04562167367992
 97
        4
330
1C1
330
170
330
1C0
330
1C2
 75
     1
 76
     0
 52
45.0
 41
0.1
 77
     0
 78
     1
 53
45.0
 43
0.0
 44
0.0
 45
-0.0707106781186548
 46
0.0707106781186548
 79
     0
 98
        1
 10
0.0
 20
0.0
  0
HATCH
  5
359
330
74
100
AcDbEntity
  8
1
  6
Continuous
 62
     2
100
AcDbHatch
 10
0.0
 20
0.0
 30
0.0
210
0.0
220
0.0
230
1.0
  2
_USER
 70
     0
 71
     1
 91
        2
 92
        1
 93
        8
 72
     1
 10
-34.30877072190227
 20
10.74562167369194
 11
-35.33398097831046
 21
10.74562167369194
 72
     1
 10
-35.33398097831046
 20
10.74562167369194
 11
-35.50875788200946
 21
11.19269650362406
 72
     1
 10
-35.50875788200946
 20
11.19269650362406
 11
-36.44466001149201
 21
11.19269650362406
 72
     1
 10
-36.44466001149201
 20
11.19269650362406
 11
-36.61943691519102
 21
10.74562167369194
 72
     1
 10
-36.61943691519102
 20
10.74562167369194
 11
-37.64464717159839
 21
10.74562167369194
 72
     1
 10
-37.64464717159839
 20
10.74562167369194
 11
-36.48931407495442
 21
13.26943119750277
 72
     1
 10
-36.48931407495442
 20
13.26943119750277
 11
-35.46410381854717
 21
13.26943119750277
 72
     1
 10
-35.46410381854717
 20
13.26943119750277
 11
-34.30877072190227
 21
10.74562167369194
 97
        8
330
1BC
330
176
330
1BB
330
1BE
330
173
330
1BD
330
174
330
175
 92
       16
 93
        3
 72
     1
 10
-36.22477939071096
 20
11.75514548321626
 11
-35.72863850279154
 21
11.75514548321626
 72
     1
 10
-35.72863850279154
 20
11.75514548321626
 11
-35.97670894675034
 21
12.3897033063458
 72
     1
 10
-35.97670894675034
 20
12.3897033063458
 11
-36.22477939071096
 21
11.75514548321626
 97
        3
330
172
330
171
330
1BF
 75
     1
 76
     0
 52
45.0
 41
0.1
 77
     0
 78
     1
 53
45.0
 43
0.0
 44
0.0
 45
-0.0707106781186548
 46
0.0707106781186548
 79
     0
 98
        1
 10
0.0
 20
0.0
  0
HATCH
  5
35A
330
74
100
AcDbEntity
  8
1
  6
Continuous
 62
     2
100
AcDbHatch
 10
0.0
 20
0.0
 30
0.0
210
0.0
220
0.0
230
1.0
  2
_USER
 70
     0
 71
     1
 91
        2
 92
        1
 93
        8
 72
     1
 10
-34.30877072190227
 20
10.74562167369194
 11
-35.33398097831046
 21
10.74562167369194
 72
     1
 10
-35.33398097831046
 20
10.74562167369194
 11
-35.50875788200946
 21
11.19269650362406
 72
     1
 10
-35.50875788200946
 20
11.19269650362406
 11
-36.44466001149201
 21
11.19269650362406
 72
     1
 10
-36.44466001149201
 20
11.19269650362406
 11
-36.61943691519102
 21
10.74562167369194
 72
     1
 10
-36.61943691519102
 20
10.74562167369194
 11
-37.64464717159839
 21
10.74562167369194
 72
     1
 10
-37.64464717159839
 20
10.74562167369194
 11
-36.48931407495442
 21
13.26943119750277
 72
     1
 10
-36.48931407495442
 20
13.26943119750277
 11
-35.46410381854717
 21
13.26943119750277
 72
     1
 10
-35.46410381854717
 20
13.26943119750277
 11
-34.30877072190227
 21
10.74562167369194
 97
        8
330
1BC
330
176
330
1BB
330
1BE
330
173
330
1BD
330
174
330
175
 92
       16
 93
        3
 72
     1
 10
-36.22477939071096
 20
11.75514548321626
 11
-35.72863850279154
 21
11.75514548321626
 72
     1
 10
-35.72863850279154
 20
11.75514548321626
 11
-35.97670894675034
 21
12.3897033063458
 72
     1
 10
-35.97670894675034
 20
12.3897033063458
 11
-36.22477939071096
 21
11.75514548321626
 97
        3
330
172
330
171
330
1BF
 75
     1
 76
     0
 52
45.0
 41
0.1
 77
     0
 78
     1
 53
45.0
 43
0.0
 44
0.0
 45
-0.0707106781186548
 46
0.0707106781186548
 79
     0
 98
        1
 10
0.0
 20
0.0
  0
HATCH
  5
35B
330
74
100
AcDbEntity
  8
1
  6
Continuous
 62
     2
100
AcDbHatch
 10
0.0
 20
0.0
 30
0.0
210
0.0
220
0.0
230
1.0
  2
_USER
 70
     0
 71
     1
 91
        1
 92
        1
 93
        8
 72
     1
 10
-39.42771505522009
 20
13.26943119750277
 11
-39.42771505522009
 21
12.62045160566505
 72
     1
 10
-39.42771505522009
 20
12.62045160566505
 11
-38.75738527218321
 21
12.62045160566505
 72
     1
 10
-38.75738527218321
 20
12.62045160566505
 11
-38.75738527218321
 21
10.74562167369194
 72
     1
 10
-38.75738527218321
 20
10.74562167369194
 11
-37.77160617948366
 21
10.74562167369194
 72
     1
 10
-37.77160617948366
 20
10.74562167369194
 11
-37.77160617948366
 21
12.62045160566505
 72
     1
 10
-37.77160617948366
 20
12.62045160566505
 11
-37.10127639644848
 21
12.62045160566505
 72
     1
 10
-37.10127639644848
 20
12.62045160566505
 11
-37.10127639644848
 21
13.26943119750277
 72
     1
 10
-37.10127639644848
 20
13.26943119750277
 11
-39.42771505522009
 21
13.26943119750277
 97
        8
330
1B8
330
1B7
330
1B6
330
177
330
178
330
1BA
330
179
330
1B9
 75
     1
 76
     0
 52
45.0
 41
0.1
 77
     0
 78
     1
 53
45.0
 43
0.0
 44
0.0
 45
-0.0707106781186548
 46
0.0707106781186548
 79
     0
 98
        1
 10
0.0
 20
0.0
  0
HATCH
  5
35C
330
74
100
AcDbEntity
  8
1
  6
Continuous
 62
     2
100
AcDbHatch
 10
0.0
 20
0.0
 30
0.0
210
0.0
220
0.0
230
1.0
  2
_USER
 70
     0
 71
     1
 91
        1
 92
        1
 93
        8
 72
     1
 10
-39.42771505522009
 20
13.26943119750277
 11
-39.42771505522009
 21
12.62045160566505
 72
     1
 10
-39.42771505522009
 20
12.62045160566505
 11
-38.75738527218321
 21
12.62045160566505
 72
     1
 10
-38.75738527218321
 20
12.62045160566505
 11
-38.75738527218321
 21
10.74562167369194
 72
     1
 10
-38.75738527218321
 20
10.74562167369194
 11
-37.77160617948366
 21
10.74562167369194
 72
     1
 10
-37.77160617948366
 20
10.74562167369194
 11
-37.77160617948366
 21
12.62045160566505
 72
     1
 10
-37.77160617948366
 20
12.62045160566505
 11
-37.10127639644848
 21
12.62045160566505
 72
     1
 10
-37.10127639644848
 20
12.62045160566505
 11
-37.10127639644848
 21
13.26943119750277
 72
     1
 10
-37.10127639644848
 20
13.26943119750277
 11
-39.42771505522009
 21
13.26943119750277
 97
        8
330
1B8
330
1B7
330
1B6
330
177
330
178
330
1BA
330
179
330
1B9
 75
     1
 76
     0
 52
45.0
 41
0.1
 77
     0
 78
     1
 53
45.0
 43
0.0
 44
0.0
 45
-0.0707106781186548
 46
0.0707106781186548
 79
     0
 98
        1
 10
0.0
 20
0.0
  0
HATCH
  5
35D
330
74
100
AcDbEntity
  8
1
  6
Continuous
 62
     2
100
AcDbHatch
 10
0.0
 20
0.0
 30
0.0
210
0.0
220
0.0
230
1.0
  2
_USER
 70
     0
 71
     1
 91
        1
 92
        1
 93
       10
 72
     1
 10
-37.21944515130346
 20
16.04562167367992
 11
-38.20522424400301
 21
16.04562167367992
 72
     1
 10
-38.20522424400301
 20
16.04562167367992
 11
-38.20522424400301
 21
13.52181214986909
 72
     1
 10
-38.20522424400301
 20
13.52181214986909
 11
-37.21944515130346
 21
13.52181214986909
 72
     1
 10
-37.21944515130346
 20
13.52181214986909
 11
-37.21944515130346
 21
14.60344480293075
 72
     1
 10
-37.21944515130346
 20
14.60344480293075
 11
-36.19423489489518
 21
13.52181214986909
 72
     1
 10
-36.19423489489518
 20
13.52181214986909
 11
-35.20845580219552
 21
13.52181214986909
 72
     1
 10
-35.20845580219552
 20
13.52181214986909
 11
-35.20845580219552
 21
16.04562167367992
 72
     1
 10
-35.20845580219552
 20
16.04562167367992
 11
-36.19423489489518
 21
16.04562167367992
 72
     1
 10
-36.19423489489518
 20
16.04562167367992
 11
-36.19423489489518
 21
14.96398902061781
 72
     1
 10
-36.19423489489518
 20
14.96398902061781
 11
-37.21944515130346
 21
16.04562167367992
 97
       10
330
1B2
330
17C
330
17D
330
17E
330
17F
330
1B5
330
17A
330
1B4
330
1B3
330
17B
 75
     1
 76
     0
 52
45.0
 41
0.1
 77
     0
 78
     1
 53
45.0
 43
0.0
 44
0.0
 45
-0.0707106781186548
 46
0.0707106781186548
 79
     0
 98
        1
 10
0.0
 20
0.0
  0
HATCH
  5
35E
330
74
100
AcDbEntity
  8
1
  6
Continuous
 62
     2
100
AcDbHatch
 10
0.0
 20
0.0
 30
0.0
210
0.0
220
0.0
230
1.0
  2
_USER
 70
     0
 71
     1
 91
        1
 92
        1
 93
       10
 72
     1
 10
-37.21944515130346
 20
16.04562167367992
 11
-38.20522424400301
 21
16.04562167367992
 72
     1
 10
-38.20522424400301
 20
16.04562167367992
 11
-38.20522424400301
 21
13.52181214986909
 72
     1
 10
-38.20522424400301
 20
13.52181214986909
 11
-37.21944515130346
 21
13.52181214986909
 72
     1
 10
-37.21944515130346
 20
13.52181214986909
 11
-37.21944515130346
 21
14.60344480293075
 72
     1
 10
-37.21944515130346
 20
14.60344480293075
 11
-36.19423489489518
 21
13.52181214986909
 72
     1
 10
-36.19423489489518
 20
13.52181214986909
 11
-35.20845580219552
 21
13.52181214986909
 72
     1
 10
-35.20845580219552
 20
13.52181214986909
 11
-35.20845580219552
 21
16.04562167367992
 72
     1
 10
-35.20845580219552
 20
16.04562167367992
 11
-36.19423489489518
 21
16.04562167367992
 72
     1
 10
-36.19423489489518
 20
16.04562167367992
 11
-36.19423489489518
 21
14.96398902061781
 72
     1
 10
-36.19423489489518
 20
14.96398902061781
 11
-37.21944515130346
 21
16.04562167367992
 97
       10
330
1B2
330
17C
330
17D
330
17E
330
17F
330
1B5
330
17A
330
1B4
330
1B3
330
17B
 75
     1
 76
     0
 52
45.0
 41
0.1
 77
     0
 78
     1
 53
45.0
 43
0.0
 44
0.0
 45
-0.0707106781186548
 46
0.0707106781186548
 79
     0
 98
        1
 10
0.0
 20
0.0
  0
HATCH
  5
35F
330
74
100
AcDbEntity
  8
1
  6
Continuous
 62
     2
100
AcDbHatch
 10
0.0
 20
0.0
 30
0.0
210
0.0
220
0.0
230
1.0
  2
_USER
 70
     0
 71
     1
 91
        1
 92
        1
 93
       10
 72
     1
 10
-41.55699789545108
 20
13.26943119750277
 11
-42.54277698815153
 21
13.26943119750277
 72
     1
 10
-42.54277698815153
 20
13.26943119750277
 11
-42.54277698815153
 21
10.74562167369194
 72
     1
 10
-42.54277698815153
 20
10.74562167369194
 11
-41.55699789545108
 21
10.74562167369194
 72
     1
 10
-41.55699789545108
 20
10.74562167369194
 11
-41.55699789545108
 21
11.82725432675359
 72
     1
 10
-41.55699789545108
 20
11.82725432675359
 11
-40.53178763904371
 21
10.74562167369194
 72
     1
 10
-40.53178763904371
 20
10.74562167369194
 11
-39.54600854634415
 21
10.74562167369194
 72
     1
 10
-39.54600854634415
 20
10.74562167369194
 11
-39.54600854634415
 21
13.26943119750277
 72
     1
 10
-39.54600854634415
 20
13.26943119750277
 11
-40.53178763904371
 21
13.26943119750277
 72
     1
 10
-40.53178763904371
 20
13.26943119750277
 11
-40.53178763904371
 21
12.18779854444066
 72
     1
 10
-40.53178763904371
 20
12.18779854444066
 11
-41.55699789545108
 21
13.26943119750277
 97
       10
330
181
330
182
330
183
330
1AF
330
184
330
185
330
1AE
330
1B1
330
1B0
330
180
 75
     1
 76
     0
 52
45.0
 41
0.1
 77
     0
 78
     1
 53
45.0
 43
0.0
 44
0.0
 45
-0.0707106781186548
 46
0.0707106781186548
 79
     0
 98
        1
 10
0.0
 20
0.0
  0
HATCH
  5
360
330
74
100
AcDbEntity
  8
1
  6
Continuous
 62
     2
100
AcDbHatch
 10
0.0
 20
0.0
 30
0.0
210
0.0
220
0.0
230
1.0
  2
_USER
 70
     0
 71
     1
 91
        1
 92
        1
 93
       10
 72
     1
 10
-41.55699789545108
 20
13.26943119750277
 11
-42.54277698815153
 21
13.26943119750277
 72
     1
 10
-42.54277698815153
 20
13.26943119750277
 11
-42.54277698815153
 21
10.74562167369194
 72
     1
 10
-42.54277698815153
 20
10.74562167369194
 11
-41.55699789545108
 21
10.74562167369194
 72
     1
 10
-41.55699789545108
 20
10.74562167369194
 11
-41.55699789545108
 21
11.82725432675359
 72
     1
 10
-41.55699789545108
 20
11.82725432675359
 11
-40.53178763904371
 21
10.74562167369194
 72
     1
 10
-40.53178763904371
 20
10.74562167369194
 11
-39.54600854634415
 21
10.74562167369194
 72
     1
 10
-39.54600854634415
 20
10.74562167369194
 11
-39.54600854634415
 21
13.26943119750277
 72
     1
 10
-39.54600854634415
 20
13.26943119750277
 11
-40.53178763904371
 21
13.26943119750277
 72
     1
 10
-40.53178763904371
 20
13.26943119750277
 11
-40.53178763904371
 21
12.18779854444066
 72
     1
 10
-40.53178763904371
 20
12.18779854444066
 11
-41.55699789545108
 21
13.26943119750277
 97
       10
330
181
330
182
330
183
330
1AF
330
184
330
185
330
1AE
330
1B1
330
1B0
330
180
 75
     1
 76
     0
 52
45.0
 41
0.1
 77
     0
 78
     1
 53
45.0
 43
0.0
 44
0.0
 45
-0.0707106781186548
 46
0.0707106781186548
 79
     0
 98
        1
 10
0.0
 20
0.0
  0
HATCH
  5
361
330
74
100
AcDbEntity
  8
1
  6
Continuous
 62
     2
100
AcDbHatch
 10
0.0
 20
0.0
 30
0.0
210
0.0
220
0.0
230
1.0
  2
_USER
 70
     0
 71
     1
 91
        1
 92
        1
 93
       12
 72
     1
 10
-42.38492759705056
 20
16.04562167367992
 11
-42.38492759705056
 21
13.52181214986909
 72
     1
 10
-42.38492759705056
 20
13.52181214986909
 11
-43.37070668975011
 21
13.52181214986909
 72
     1
 10
-43.37070668975011
 20
13.52181214986909
 11
-43.37070668975011
 21
14.45922711585565
 72
     1
 10
-43.37070668975011
 20
14.45922711585565
 11
-44.2381922913265
 21
14.45922711585565
 72
     1
 10
-44.2381922913265
 20
14.45922711585565
 11
-44.2381922913265
 21
13.52181214986909
 72
     1
 10
-44.2381922913265
 20
13.52181214986909
 11
-45.22397138402616
 21
13.52181214986909
 72
     1
 10
-45.22397138402616
 20
13.52181214986909
 11
-45.22397138402616
 21
16.04562167367992
 72
     1
 10
-45.22397138402616
 20
16.04562167367992
 11
-44.2381922913265
 21
16.04562167367992
 72
     1
 10
-44.2381922913265
 20
16.04562167367992
 11
-44.2381922913265
 21
15.16228834034556
 72
     1
 10
-44.2381922913265
 20
15.16228834034556
 11
-43.37070668975011
 21
15.16228834034556
 72
     1
 10
-43.37070668975011
 20
15.16228834034556
 11
-43.37070668975011
 21
16.04562167367992
 72
     1
 10
-43.37070668975011
 20
16.04562167367992
 11
-42.38492759705056
 21
16.04562167367992
 97
       12
330
1A9
330
1A8
330
1A7
330
18F
330
190
330
1A6
330
191
330
1A5
330
1A4
330
1A3
330
18D
330
18E
 75
     1
 76
     0
 52
45.0
 41
0.1
 77
     0
 78
     1
 53
45.0
 43
0.0
 44
0.0
 45
-0.0707106781186548
 46
0.0707106781186548
 79
     0
 98
        1
 10
0.0
 20
0.0
  0
HATCH
  5
362
330
74
100
AcDbEntity
  8
1
  6
Continuous
 62
     2
100
AcDbHatch
 10
0.0
 20
0.0
 30
0.0
210
0.0
220
0.0
230
1.0
  2
_USER
 70
     0
 71
     1
 91
        1
 92
        1
 93
       12
 72
     1
 10
-42.38492759705056
 20
16.04562167367992
 11
-42.38492759705056
 21
13.52181214986909
 72
     1
 10
-42.38492759705056
 20
13.52181214986909
 11
-43.37070668975011
 21
13.52181214986909
 72
     1
 10
-43.37070668975011
 20
13.52181214986909
 11
-43.37070668975011
 21
14.45922711585565
 72
     1
 10
-43.37070668975011
 20
14.45922711585565
 11
-44.2381922913265
 21
14.45922711585565
 72
     1
 10
-44.2381922913265
 20
14.45922711585565
 11
-44.2381922913265
 21
13.52181214986909
 72
     1
 10
-44.2381922913265
 20
13.52181214986909
 11
-45.22397138402616
 21
13.52181214986909
 72
     1
 10
-45.22397138402616
 20
13.52181214986909
 11
-45.22397138402616
 21
16.04562167367992
 72
     1
 10
-45.22397138402616
 20
16.04562167367992
 11
-44.2381922913265
 21
16.04562167367992
 72
     1
 10
-44.2381922913265
 20
16.04562167367992
 11
-44.2381922913265
 21
15.16228834034556
 72
     1
 10
-44.2381922913265
 20
15.16228834034556
 11
-43.37070668975011
 21
15.16228834034556
 72
     1
 10
-43.37070668975011
 20
15.16228834034556
 11
-43.37070668975011
 21
16.04562167367992
 72
     1
 10
-43.37070668975011
 20
16.04562167367992
 11
-42.38492759705056
 21
16.04562167367992
 97
       12
330
1A9
330
1A8
330
1A7
330
18F
330
190
330
1A6
330
191
330
1A5
330
1A4
330
1A3
330
18D
330
18E
 75
     1
 76
     0
 52
45.0
 41
0.1
 77
     0
 78
     1
 53
45.0
 43
0.0
 44
0.0
 45
-0.0707106781186548
 46
0.0707106781186548
 79
     0
 98
        1
 10
0.0
 20
0.0
  0
ENDBLK
  5
76
330
74
100
AcDbEntity
  8
0
100
AcDbBlockEnd
  0
BLOCK
  5
7A
330
77
100
AcDbEntity
  8
0
100
AcDbBlockBegin
  2
A4I
 70
     0
 10
69.39995898510344
 20
-0.10437832631402
 30
0.0
  3
A4I
  1

  0
INSERT
  5
78
330
77
100
AcDbEntity
  8
1
100
AcDbBlockReference
  2
_punkt
 10
69.39995898510344
 20
4.89562167368609
 30
0.0
  0
INSERT
  5
79
330
77
100
AcDbEntity
  8
1
100
AcDbBlockReference
  2
_rahmen
 10
69.39995898510344
 20
-0.10437832631402
 30
0.0
  0
ENDBLK
  5
7B
330
77
100
AcDbEntity
  8
0
100
AcDbBlockEnd
  0
BLOCK
  5
10E
330
105
100
AcDbEntity
  8
0
100
AcDbBlockBegin
  2
*D16
 70
     1
 10
0.0
 20
0.0
 30
0.0
  3
*D16
  1

  0
LINE
  5
106
330
105
100
AcDbEntity
  8
1
  6
Continuous
 62
     2
100
AcDbLine
 10
-73.61850205410502
 20
116.4384596291293
 30
0.0
 11
-66.61850205410502
 21
116.4384596291293
 31
0.0
  0
LINE
  5
107
330
105
100
AcDbEntity
  8
1
  6
Continuous
 62
     2
100
AcDbLine
 10
-66.61850205410502
 20
116.4384596291293
 30
0.0
 11
-63.47131011025142
 21
116.4384596291293
 31
0.0
  0
LINE
  5
108
330
105
100
AcDbEntity
  8
1
  6
Continuous
 62
     2
100
AcDbLine
 10
-63.47131011025142
 20
116.4384596291293
 30
0.0
 11
-53.89090685668498
 21
116.4384596291293
 31
0.0
  0
LINE
  5
109
330
105
100
AcDbEntity
  8
1
  6
Continuous
 62
     2
100
AcDbLine
 10
-66.61850205410502
 20
127.970954482805
 30
0.0
 11
-66.61850205410502
 21
114.4384596291293
 31
0.0
  0
LINE
  5
10A
330
105
100
AcDbEntity
  8
1
  6
Continuous
 62
     2
100
AcDbLine
 10
-63.47131011025142
 20
128.1910196461257
 30
0.0
 11
-63.47131011025142
 21
114.4384596291293
 31
0.0
  0
SOLID
  5
10B
330
105
100
AcDbEntity
  8
1
 62
     2
100
AcDbTrace
 10
-70.11850205410502
 20
115.9776758875734
 30
0.0
 11
-70.11850205410502
 21
116.8992433706852
 31
0.0
 12
-66.61850205410502
 22
116.4384596291293
 32
0.0
 13
-66.61850205410502
 23
116.4384596291293
 33
0.0
  0
SOLID
  5
10C
330
105
100
AcDbEntity
  8
1
 62
     2
100
AcDbTrace
 10
-59.97131011025142
 20
116.8992433706852
 30
0.0
 11
-59.97131011025142
 21
115.9776758875734
 31
0.0
 12
-63.47131011025142
 22
116.4384596291293
 32
0.0
 13
-63.47131011025142
 23
116.4384596291293
 33
0.0
  0
MTEXT
  5
10D
330
105
100
AcDbEntity
  8
1
 62
     3
100
AcDbMText
 10
-59.31590685668498
 20
118.7884596291293
 30
0.0
 40
3.5
 41
0.0
 71
     7
 72
     1
  1
3,1
  7
CONVERTER_11
 11
0.9999999999970619
 21
2.424068405545306E-6
 31
0.0
 73
     1
 44
0.60024009603842
  0
ENDBLK
  5
10F
330
105
100
AcDbEntity
  8
0
100
AcDbBlockEnd
  0
BLOCK
  5
119
330
112
100
AcDbEntity
  8
0
100
AcDbBlockBegin
  2
*D17
 70
     1
 10
0.0
 20
0.0
 30
0.0
  3
*D17
  1

  0
LINE
  5
113
330
112
100
AcDbEntity
  8
1
  6
Continuous
 62
     2
100
AcDbLine
 10
-76.61850205410502
 20
168.0328676376838
 30
0.0
 11
-76.61850205410502
 21
127.970954482805
 31
0.0
  0
LINE
  5
114
330
112
100
AcDbEntity
  8
1
  6
Continuous
 62
     2
100
AcDbLine
 10
-66.45519183002872
 20
168.0328676376838
 30
0.0
 11
-78.61850205410502
 21
168.0328676376838
 31
0.0
  0
LINE
  5
115
330
112
100
AcDbEntity
  8
1
  6
Continuous
 62
     2
100
AcDbLine
 10
-66.61850205410502
 20
127.970954482805
 30
0.0
 11
-78.61850205410502
 21
127.970954482805
 31
0.0
  0
SOLID
  5
116
330
112
100
AcDbEntity
  8
1
 62
     2
100
AcDbTrace
 10
-76.15771831254914
 20
164.5328676376838
 30
0.0
 11
-77.07928579566091
 21
164.5328676376838
 31
0.0
 12
-76.61850205410502
 22
168.0328676376838
 32
0.0
 13
-76.61850205410502
 23
168.0328676376838
 33
0.0
  0
SOLID
  5
117
330
112
100
AcDbEntity
  8
1
 62
     2
100
AcDbTrace
 10
-77.07928579566091
 20
131.470954482805
 30
0.0
 11
-76.15771831254914
 21
131.470954482805
 31
0.0
 12
-76.61850205410502
 22
127.970954482805
 32
0.0
 13
-76.61850205410502
 23
127.970954482805
 33
0.0
  0
MTEXT
  5
118
330
112
100
AcDbEntity
  8
1
 62
     3
100
AcDbMText
 10
-78.96850205410502
 20
143.949235138667
 30
0.0
 40
3.5
 41
0.0
 71
     7
 72
     1
  1
40,1
  7
CONVERTER_11
 11
0.0
 21
1.0
 31
0.0
 73
     1
 44
0.60024009603842
  0
ENDBLK
  5
11A
330
112
100
AcDbEntity
  8
0
100
AcDbBlockEnd
  0
BLOCK
  5
160
330
159
100
AcDbEntity
  8
0
100
AcDbBlockBegin
  2
*D18
 70
     1
 10
0.0
 20
0.0
 30
0.0
  3
*D18
  1

  0
LINE
  5
15A
330
159
100
AcDbEntity
  8
1
  6
Continuous
 62
     2
100
AcDbLine
 10
-105.9999970524355
 20
116.4384489227862
 30
0.0
 11
-135.5285661129995
 21
116.438442390446
 31
0.0
  0
LINE
  5
15B
330
159
100
AcDbEntity
  8
1
  6
Continuous
 62
     2
100
AcDbLine
 10
-105.9999996036696
 20
127.9709610151451
 30
0.0
 11
-105.9999966099934
 21
114.4384489227862
 31
0.0
  0
LINE
  5
15C
330
159
100
AcDbEntity
  8
1
  6
Continuous
 62
     2
100
AcDbLine
 10
-135.5285686642336
 20
127.970954482805
 30
0.0
 11
-135.5285656705575
 21
114.438442390446
 31
0.0
  0
SOLID
  5
15D
330
159
100
AcDbEntity
  8
1
 62
     2
100
AcDbTrace
 10
-109.4999969505003
 20
115.9776644069567
 30
0.0
 11
-109.4999971543704
 21
116.8992318900685
 31
0.0
 12
-105.9999970524355
 22
116.4384489227862
 32
0.0
 13
-105.9999970524355
 23
116.4384489227862
 33
0.0
  0
SOLID
  5
15E
330
159
100
AcDbEntity
  8
1
 62
     2
100
AcDbTrace
 10
-132.0285662149346
 20
116.8992269062754
 30
0.0
 11
-132.0285660110645
 21
115.9776594231636
 31
0.0
 12
-135.5285661129995
 22
116.438442390446
 32
0.0
 13
-135.5285661129995
 23
116.438442390446
 33
0.0
  0
MTEXT
  5
15F
330
159
100
AcDbEntity
  8
1
 62
     3
100
AcDbMText
 10
-125.3373838113023
 20
118.7884446449498
 30
0.0
 40
3.5
 41
0.0
 71
     7
 72
     1
  1
29,5
  7
CONVERTER_11
 11
0.9999999999970619
 21
2.424068405545306E-6
 31
0.0
 73
     1
 44
0.60024009603842
  0
ENDBLK
  5
161
330
159
100
AcDbEntity
  8
0
100
AcDbBlockEnd
  0
ENDSEC
  0
SECTION
  2
ENTITIES
  0
INSERT
  5
7C
330
1F
100
AcDbEntity
  8
0
100
AcDbBlockReference
  2
Allg1
 10
13.99999999996806
 20
81.99999999999591
 30
0.0
  0
INSERT
  5
7D
330
1F
100
AcDbEntity
  8
0
100
AcDbBlockReference
  2
Drfsicht1
 10
-120.7642843323028
 20
93.35245241966825
 30
0.0
  0
INSERT
  5
7E
330
1F
100
AcDbEntity
  8
0
100
AcDbBlockReference
  2
Rckans1
 10
-11.23571566769704
 20
148.0000000000101
 30
0.0
  0
INSERT
  5
7F
330
1F
100
AcDbEntity
  8
0
100
AcDbBlockReference
  2
SA_Links1
 10
-64.99999999996999
 20
148.00000000001
 30
0.0
  0
INSERT
  5
80
330
1F
100
AcDbEntity
  8
0
100
AcDbBlockReference
  2
SA_Rechts1
 10
-166.5285686645956
 20
148.00000000001
 30
0.0
  0
INSERT
  5
81
330
1F
100
AcDbEntity
  8
0
100
AcDbBlockReference
  2
Vordans1
 10
-120.7642843323028
 20
148.00000000001
 30
0.0
  0
INSERT
  5
82
330
1F
100
AcDbEntity
  8
0
100
AcDbBlockReference
  2
A4I
 10
69.39995898510344
 20
-0.10437832631402
 30
0.0
  0
ENDSEC
  0
SECTION
  2
OBJECTS
  0
DICTIONARY
  5
C
330
0
100
AcDbDictionary
281
     1
  3
ACAD_GROUP
350
D
  3
ACAD_LAYOUT
350
1A
  3
ACAD_MATERIAL
350
3B
  3
ACAD_MLEADERSTYLE
350
365
  3
ACAD_MLINESTYLE
350
17
  3
ACAD_PLOTSETTINGS
350
19
  3
ACAD_PLOTSTYLENAME
350
E
  3
ACAD_VISUALSTYLE
350
2A
  3
AcDbVariableDictionary
350
363
  0
DICTIONARY
  5
D
102
{ACAD_REACTORS
330
C
102
}
330
C
100
AcDbDictionary
281
     1
  0
DICTIONARY
  5
1A
102
{ACAD_REACTORS
330
C
102
}
330
C
100
AcDbDictionary
281
     1
  3
Layout1
350
1E
  3
Layout2
350
26
  3
Model
350
22
  0
DICTIONARY
  5
3B
102
{ACAD_REACTORS
330
C
102
}
330
C
100
AcDbDictionary
281
     1
  3
ByBlock
350
3D
  3
ByLayer
350
3C
  3
Global
350
3E
  0
DICTIONARY
  5
365
102
{ACAD_REACTORS
330
C
102
}
330
C
100
AcDbDictionary
281
     1
  0
DICTIONARY
  5
17
102
{ACAD_REACTORS
330
C
102
}
330
C
100
AcDbDictionary
281
     1
  3
Standard
350
18
  0
DICTIONARY
  5
19
102
{ACAD_REACTORS
330
C
102
}
330
C
100
AcDbDictionary
281
     1
  0
ACDBDICTIONARYWDFLT
  5
E
102
{ACAD_REACTORS
330
C
102
}
330
C
100
AcDbDictionary
281
     1
  3
Normal
350
F
100
AcDbDictionaryWithDefault
340
F
  0
DICTIONARY
  5
2A
102
{ACAD_REACTORS
330
C
102
}
330
C
100
AcDbDictionary
281
     1
  3
2dWireframe
350
2F
  3
3D Hidden
350
31
  3
3dWireframe
350
30
  3
Basic
350
32
  3
Brighten
350
36
  3
ColorChange
350
3A
  3
Conceptual
350
34
  3
Dim
350
35
  3
Facepattern
350
39
  3
Flat
350
2B
  3
FlatWithEdges
350
2C
  3
Gouraud
350
2D
  3
GouraudWithEdges
350
2E
  3
Linepattern
350
38
  3
Realistic
350
33
  3
Thicken
350
37
  0
DICTIONARY
  5
363
102
{ACAD_REACTORS
330
C
102
}
330
C
100
AcDbDictionary
281
     1
  3
DIMASSOC
350
366
  3
HIDETEXT
350
367
  0
LAYOUT
  5
1E
102
{ACAD_REACTORS
330
1A
102
}
330
1A
100
AcDbPlotSettings
  1

  2
none_device
  4

  6

 40
0.0
 41
0.0
 42
0.0
 43
0.0
 44
0.0
 45
0.0
 46
0.0
 47
0.0
 48
0.0
 49
0.0
140
0.0
141
0.0
142
1.0
143
1.0
 70
   688
 72
     0
 73
     0
 74
     5
  7

 75
    16
147
1.0
148
0.0
149
0.0
100
AcDbLayout
  1
Layout1
 70
     1
 71
     1
 10
0.0
 20
0.0
 11
12.0
 21
9.0
 12
0.0
 22
0.0
 32
0.0
 14
1.00000000000000E+20
 24
1.00000000000000E+20
 34
1.00000000000000E+20
 15
-1.00000000000000E+20
 25
-1.00000000000000E+20
 35
-1.00000000000000E+20
146
0.0
 13
0.0
 23
0.0
 33
0.0
 16
1.0
 26
0.0
 36
0.0
 17
0.0
 27
1.0
 37
0.0
 76
     0
330
1B
  0
LAYOUT
  5
26
102
{ACAD_REACTORS
330
1A
102
}
330
1A
100
AcDbPlotSettings
  1

  2
none_device
  4

  6

 40
0.0
 41
0.0
 42
0.0
 43
0.0
 44
0.0
 45
0.0
 46
0.0
 47
0.0
 48
0.0
 49
0.0
140
0.0
141
0.0
142
1.0
143
1.0
 70
   688
 72
     0
 73
     0
 74
     5
  7

 75
    16
147
1.0
148
0.0
149
0.0
100
AcDbLayout
  1
Layout2
 70
     1
 71
     2
 10
0.0
 20
0.0
 11
0.0
 21
0.0
 12
0.0
 22
0.0
 32
0.0
 14
0.0
 24
0.0
 34
0.0
 15
0.0
 25
0.0
 35
0.0
146
0.0
 13
0.0
 23
0.0
 33
0.0
 16
1.0
 26
0.0
 36
0.0
 17
0.0
 27
1.0
 37
0.0
 76
     0
330
23
  0
LAYOUT
  5
22
102
{ACAD_REACTORS
330
1A
102
}
330
1A
100
AcDbPlotSettings
  1

  2
none_device
  4

  6

 40
0.0
 41
0.0
 42
0.0
 43
0.0
 44
0.0
 45
0.0
 46
0.0
 47
0.0
 48
0.0
 49
0.0
140
0.0
141
0.0
142
1.0
143
1.0
 70
  1712
 72
     0
 73
     0
 74
     0
  7

 75
     0
147
1.0
148
0.0
149
0.0
100
AcDbLayout
  1
Model
 70
     1
 71
     0
 10
0.0
 20
0.0
 11
12.0
 21
9.0
 12
0.0
 22
0.0
 32
0.0
 14
-222.6000410148957
 24
-0.10437832631402
 34
0.0
 15
74.39995898510244
 25
209.895621673686
 35
0.0
146
0.0
 13
0.0
 23
0.0
 33
0.0
 16
1.0
 26
0.0
 36
0.0
 17
0.0
 27
1.0
 37
0.0
 76
     0
330
1F
331
29
  0
MATERIAL
  5
3D
102
{ACAD_REACTORS
330
3B
102
}
102
{ACAD_XDICTIONARY
360
38A
102
}
330
3B
100
AcDbMaterial
  1
ByBlock
  0
MATERIAL
  5
3C
102
{ACAD_REACTORS
330
3B
102
}
102
{ACAD_XDICTIONARY
360
388
102
}
330
3B
100
AcDbMaterial
  1
ByLayer
  0
MATERIAL
  5
3E
102
{ACAD_REACTORS
330
3B
102
}
102
{ACAD_XDICTIONARY
360
38C
102
}
330
3B
100
AcDbMaterial
  1
Global
  0
MLINESTYLE
  5
18
102
{ACAD_REACTORS
330
17
102
}
330
17
100
AcDbMlineStyle
  2
Standard
 70
     0
  3

 62
   256
 51
90.0
 52
90.0
 71
     2
 49
0.5
 62
   256
  6
BYLAYER
 49
-0.5
 62
   256
  6
BYLAYER
  0
ACDBPLACEHOLDER
  5
F
102
{ACAD_REACTORS
330
E
102
}
330
E
  0
VISUALSTYLE
  5
2F
102
{ACAD_REACTORS
330
2A
102
}
102
{ACAD_XDICTIONARY
360
370
102
}
330
2A
100
AcDbVisualStyle
  2
2dWireframe
 70
     4
 71
     0
 72
     2
 73
     0
 90
        0
 40
-0.6
 41
-30.0
 62
     5
 63
     7
 74
     1
 91
        4
 64
     7
 65
   257
 75
     1
175
     1
 42
1.0
 92
        0
 66
   257
 43
1.0
 76
     1
 77
     6
 78
     2
 67
     7
 79
     5
170
     0
171
     0
290
     0
174
     0
 93
        1
 44
0.0
173
     0
291
     0
 45
0.0
1001
ACAD
1000
AcDbSavedByObjectVersion
1070
     0
  0
VISUALSTYLE
  5
31
102
{ACAD_REACTORS
330
2A
102
}
102
{ACAD_XDICTIONARY
360
374
102
}
330
2A
100
AcDbVisualStyle
  2
3D Hidden
 70
     6
 71
     1
 72
     2
 73
     2
 90
        0
 40
-0.6
 41
-30.0
 62
     5
 63
     7
 74
     2
 91
        2
 64
     7
 65
   257
 75
     2
175
     1
 42
40.0
 92
        0
 66
   257
 43
1.0
 76
     1
 77
     6
 78
     2
 67
     7
 79
     3
170
     0
171
     0
290
     0
174
     0
 93
        1
 44
0.0
173
     0
291
     0
 45
0.0
1001
ACAD
1000
AcDbSavedByObjectVersion
1070
     0
  0
VISUALSTYLE
  5
30
102
{ACAD_REACTORS
330
2A
102
}
102
{ACAD_XDICTIONARY
360
372
102
}
330
2A
100
AcDbVisualStyle
  2
3dWireframe
 70
     5
 71
     0
 72
     2
 73
     0
 90
        0
 40
-0.6
 41
-30.0
 62
     5
 63
     7
 74
     1
 91
        4
 64
     7
 65
   257
 75
     1
175
     1
 42
1.0
 92
        0
 66
   257
 43
1.0
 76
     1
 77
     6
 78
     2
 67
     7
 79
     5
170
     0
171
     0
290
     0
174
     0
 93
        1
 44
0.0
173
     0
291
     0
 45
0.0
1001
ACAD
1000
AcDbSavedByObjectVersion
1070
     0
  0
VISUALSTYLE
  5
32
102
{ACAD_REACTORS
330
2A
102
}
102
{ACAD_XDICTIONARY
360
376
102
}
330
2A
100
AcDbVisualStyle
  2
Basic
 70
     7
 71
     1
 72
     0
 73
     1
 90
        0
 40
-0.6
 41
-30.0
 62
     5
 63
     7
 74
     0
 91
        4
 64
     7
 65
   257
 75
     1
175
     1
 42
1.0
 92
        8
 66
     7
 43
1.0
 76
     1
 77
     6
 78
     2
 67
     7
 79
     5
170
     0
171
     0
290
     0
174
     0
 93
        1
 44
0.0
173
     0
291
     1
 45
0.0
1001
ACAD
1000
AcDbSavedByObjectVersion
1070
     0
  0
VISUALSTYLE
  5
36
102
{ACAD_REACTORS
330
2A
102
}
102
{ACAD_XDICTIONARY
360
37E
102
}
330
2A
100
AcDbVisualStyle
  2
Brighten
 70
    12
 71
     2
 72
     2
 73
     0
 90
        0
 40
-0.6
 41
-30.0
 62
     5
 63
     7
 74
     1
 91
        4
 64
     7
 65
   257
 75
     1
175
     1
 42
1.0
 92
        8
 66
     7
 43
1.0
 76
     1
 77
     6
 78
     2
 67
     7
 79
     5
170
     0
171
     0
290
     0
174
     0
 93
        1
 44
50.0
173
     0
291
     1
 45
0.0
1001
ACAD
1000
AcDbSavedByObjectVersion
1070
     0
  0
VISUALSTYLE
  5
3A
102
{ACAD_REACTORS
330
2A
102
}
102
{ACAD_XDICTIONARY
360
386
102
}
330
2A
100
AcDbVisualStyle
  2
ColorChange
 70
    16
 71
     2
 72
     2
 73
     3
 90
        0
 40
-0.6
 41
-30.0
 62
     5
 63
     8
 74
     1
 91
        4
 64
     7
 65
   257
 75
     1
175
     1
 42
1.0
 92
        8
 66
     8
 43
1.0
 76
     1
 77
     6
 78
     2
 67
     7
 79
     5
170
     0
171
     0
290
     0
174
     0
 93
        1
 44
0.0
173
     0
291
     1
 45
0.0
1001
ACAD
1000
AcDbSavedByObjectVersion
1070
     0
  0
VISUALSTYLE
  5
34
102
{ACAD_REACTORS
330
2A
102
}
102
{ACAD_XDICTIONARY
360
37A
102
}
330
2A
100
AcDbVisualStyle
  2
Conceptual
 70
     9
 71
     3
 72
     2
 73
     0
 90
        0
 40
-0.6
 41
-30.0
 62
     5
 63
     7
 74
     2
 91
        2
 64
     7
 65
   257
 75
     1
175
     1
 42
40.0
 92
        8
 66
     7
 43
1.0
 76
     1
 77
     6
 78
     2
 67
     7
 79
     3
170
     0
171
     0
290
     0
174
     0
 93
        1
 44
0.0
173
     0
291
     0
 45
0.0
1001
ACAD
1000
AcDbSavedByObjectVersion
1070
     0
  0
VISUALSTYLE
  5
35
102
{ACAD_REACTORS
330
2A
102
}
102
{ACAD_XDICTIONARY
360
37C
102
}
330
2A
100
AcDbVisualStyle
  2
Dim
 70
    11
 71
     2
 72
     2
 73
     0
 90
        0
 40
-0.6
 41
-30.0
 62
     5
 63
     7
 74
     1
 91
        4
 64
     7
 65
   257
 75
     1
175
     1
 42
1.0
 92
        8
 66
     7
 43
1.0
 76
     1
 77
     6
 78
     2
 67
     7
 79
     5
170
     0
171
     0
290
     0
174
     0
 93
        1
 44
-50.0
173
     0
291
     1
 45
0.0
1001
ACAD
1000
AcDbSavedByObjectVersion
1070
     0
  0
VISUALSTYLE
  5
39
102
{ACAD_REACTORS
330
2A
102
}
102
{ACAD_XDICTIONARY
360
384
102
}
330
2A
100
AcDbVisualStyle
  2
Facepattern
 70
    15
 71
     2
 72
     2
 73
     0
 90
        0
 40
-0.6
 41
-30.0
 62
     5
 63
     7
 74
     1
 91
        4
 64
     7
 65
   257
 75
     1
175
     1
 42
1.0
 92
        8
 66
     7
 43
1.0
 76
     1
 77
     6
 78
     2
 67
     7
 79
     5
170
     0
171
     0
290
     0
174
     0
 93
        1
 44
0.0
173
     0
291
     1
 45
0.0
1001
ACAD
1000
AcDbSavedByObjectVersion
1070
     0
  0
VISUALSTYLE
  5
2B
102
{ACAD_REACTORS
330
2A
102
}
102
{ACAD_XDICTIONARY
360
368
102
}
330
2A
100
AcDbVisualStyle
  2
Flat
 70
     0
 71
     2
 72
     1
 73
     1
 90
        2
 40
-0.6
 41
30.0
 62
     5
 63
     7
 74
     0
 91
        4
 64
     7
 65
   257
 75
     1
175
     1
 42
1.0
 92
        8
 66
     7
 43
1.0
 76
     1
 77
     6
 78
     2
 67
     7
 79
     5
170
     0
171
     0
290
     0
174
     0
 93
       13
 44
0.0
173
     0
291
     1
 45
0.0
1001
ACAD
1000
AcDbSavedByObjectVersion
1070
     0
  0
VISUALSTYLE
  5
2C
102
{ACAD_REACTORS
330
2A
102
}
102
{ACAD_XDICTIONARY
360
36A
102
}
330
2A
100
AcDbVisualStyle
  2
FlatWithEdges
 70
     1
 71
     2
 72
     1
 73
     1
 90
        2
 40
-0.6
 41
30.0
 62
     5
 63
     7
 74
     1
 91
        4
 64
     7
 65
   257
 75
     1
175
     1
 42
1.0
 92
        0
 66
   257
 43
1.0
 76
     1
 77
     6
 78
     2
 67
     7
 79
     5
170
     0
171
     0
290
     0
174
     0
 93
       13
 44
0.0
173
     0
291
     1
 45
0.0
1001
ACAD
1000
AcDbSavedByObjectVersion
1070
     0
  0
VISUALSTYLE
  5
2D
102
{ACAD_REACTORS
330
2A
102
}
102
{ACAD_XDICTIONARY
360
36C
102
}
330
2A
100
AcDbVisualStyle
  2
Gouraud
 70
     2
 71
     2
 72
     2
 73
     1
 90
        2
 40
-0.6
 41
30.0
 62
     5
 63
     7
 74
     0
 91
        4
 64
     7
 65
   257
 75
     1
175
     1
 42
1.0
 92
        0
 66
     7
 43
1.0
 76
     1
 77
     6
 78
     2
 67
     7
 79
     5
170
     0
171
     0
290
     0
174
     0
 93
       13
 44
0.0
173
     0
291
     1
 45
0.0
1001
ACAD
1000
AcDbSavedByObjectVersion
1070
     0
  0
VISUALSTYLE
  5
2E
102
{ACAD_REACTORS
330
2A
102
}
102
{ACAD_XDICTIONARY
360
36E
102
}
330
2A
100
AcDbVisualStyle
  2
GouraudWithEdges
 70
     3
 71
     2
 72
     2
 73
     1
 90
        2
 40
-0.6
 41
30.0
 62
     5
 63
     7
 74
     1
 91
        4
 64
     7
 65
   257
 75
     1
175
     1
 42
1.0
 92
        0
 66
   257
 43
1.0
 76
     1
 77
     6
 78
     2
 67
     7
 79
     5
170
     0
171
     0
290
     0
174
     0
 93
       13
 44
0.0
173
     0
291
     1
 45
0.0
1001
ACAD
1000
AcDbSavedByObjectVersion
1070
     0
  0
VISUALSTYLE
  5
38
102
{ACAD_REACTORS
330
2A
102
}
102
{ACAD_XDICTIONARY
360
382
102
}
330
2A
100
AcDbVisualStyle
  2
Linepattern
 70
    14
 71
     2
 72
     2
 73
     0
 90
        0
 40
-0.6
 41
-30.0
 62
     5
 63
     7
 74
     1
 91
        4
 64
     7
 65
   257
 75
     7
175
     7
 42
1.0
 92
        8
 66
     7
 43
1.0
 76
     1
 77
     6
 78
     2
 67
     7
 79
     5
170
     0
171
     0
290
     0
174
     0
 93
        1
 44
0.0
173
     0
291
     1
 45
0.0
1001
ACAD
1000
AcDbSavedByObjectVersion
1070
     0
  0
VISUALSTYLE
  5
33
102
{ACAD_REACTORS
330
2A
102
}
102
{ACAD_XDICTIONARY
360
378
102
}
330
2A
100
AcDbVisualStyle
  2
Realistic
 70
     8
 71
     2
 72
     2
 73
     0
 90
        0
 40
-0.6
 41
-30.0
 62
     5
 63
     7
 74
     1
 91
        0
 64
     7
 65
   257
 75
     1
175
     1
 42
1.0
 92
        8
 66
     8
 43
1.0
 76
     1
 77
     6
 78
     2
 67
     7
 79
     5
170
     0
171
     0
290
     0
174
     0
 93
       13
 44
0.0
173
     0
291
     0
 45
0.0
1001
ACAD
1000
AcDbSavedByObjectVersion
1070
     0
  0
VISUALSTYLE
  5
37
102
{ACAD_REACTORS
330
2A
102
}
102
{ACAD_XDICTIONARY
360
380
102
}
330
2A
100
AcDbVisualStyle
  2
Thicken
 70
    13
 71
     2
 72
     2
 73
     0
 90
        0
 40
-0.6
 41
-30.0
 62
     5
 63
     7
 74
     1
 91
        4
 64
     7
 65
   257
 75
     1
175
     1
 42
1.0
 92
       12
 66
     7
 43
1.0
 76
     1
 77
     6
 78
     2
 67
     7
 79
     5
170
     0
171
     0
290
     0
174
     0
 93
        1
 44
0.0
173
     0
291
     1
 45
0.0
1001
ACAD
1000
AcDbSavedByObjectVersion
1070
     0
  0
DICTIONARYVAR
  5
366
102
{ACAD_REACTORS
330
363
102
}
330
363
100
DictionaryVariables
280
     0
  1
2
  0
DICTIONARYVAR
  5
367
102
{ACAD_REACTORS
330
363
102
}
330
363
100
DictionaryVariables
280
     0
  1
1
  0
DICTIONARY
  5
38A
330
3D
100
AcDbDictionary
280
     1
281
     1
  3
ACAD_XREC_ROUNDTRIP
360
38B
  0
DICTIONARY
  5
388
330
3C
100
AcDbDictionary
280
     1
281
     1
  3
ACAD_XREC_ROUNDTRIP
360
389
  0
DICTIONARY
  5
38C
330
3E
100
AcDbDictionary
280
     1
281
     1
  3
ACAD_XREC_ROUNDTRIP
360
38D
  0
DICTIONARY
  5
370
330
2F
100
AcDbDictionary
280
     1
281
     1
  3
ACAD_XREC_ROUNDTRIP
360
371
  0
DICTIONARY
  5
374
330
31
100
AcDbDictionary
280
     1
281
     1
  3
ACAD_XREC_ROUNDTRIP
360
375
  0
DICTIONARY
  5
372
330
30
100
AcDbDictionary
280
     1
281
     1
  3
ACAD_XREC_ROUNDTRIP
360
373
  0
DICTIONARY
  5
376
330
32
100
AcDbDictionary
280
     1
281
     1
  3
ACAD_XREC_ROUNDTRIP
360
377
  0
DICTIONARY
  5
37E
330
36
100
AcDbDictionary
280
     1
281
     1
  3
ACAD_XREC_ROUNDTRIP
360
37F
  0
DICTIONARY
  5
386
330
3A
100
AcDbDictionary
280
     1
281
     1
  3
ACAD_XREC_ROUNDTRIP
360
387
  0
DICTIONARY
  5
37A
330
34
100
AcDbDictionary
280
     1
281
     1
  3
ACAD_XREC_ROUNDTRIP
360
37B
  0
DICTIONARY
  5
37C
330
35
100
AcDbDictionary
280
     1
281
     1
  3
ACAD_XREC_ROUNDTRIP
360
37D
  0
DICTIONARY
  5
384
330
39
100
AcDbDictionary
280
     1
281
     1
  3
ACAD_XREC_ROUNDTRIP
360
385
  0
DICTIONARY
  5
368
330
2B
100
AcDbDictionary
280
     1
281
     1
  3
ACAD_XREC_ROUNDTRIP
360
369
  0
DICTIONARY
  5
36A
330
2C
100
AcDbDictionary
280
     1
281
     1
  3
ACAD_XREC_ROUNDTRIP
360
36B
  0
DICTIONARY
  5
36C
330
2D
100
AcDbDictionary
280
     1
281
     1
  3
ACAD_XREC_ROUNDTRIP
360
36D
  0
DICTIONARY
  5
36E
330
2E
100
AcDbDictionary
280
     1
281
     1
  3
ACAD_XREC_ROUNDTRIP
360
36F
  0
DICTIONARY
  5
382
330
38
100
AcDbDictionary
280
     1
281
     1
  3
ACAD_XREC_ROUNDTRIP
360
383
  0
DICTIONARY
  5
378
330
33
100
AcDbDictionary
280
     1
281
     1
  3
ACAD_XREC_ROUNDTRIP
360
379
  0
DICTIONARY
  5
380
330
37
100
AcDbDictionary
280
     1
281
     1
  3
ACAD_XREC_ROUNDTRIP
360
381
  0
XRECORD
  5
38B
102
{ACAD_REACTORS
330
38A
102
}
330
38A
100
AcDbXrecord
280
     1
102
MATERIAL
148
0.0
149
0.0
149
0.0
 93
        0
 94
      127
282
     0
 72
     1
 77
     1
171
     1
175
     1
179
     1
273
     0
  0
XRECORD
  5
389
102
{ACAD_REACTORS
330
388
102
}
330
388
100
AcDbXrecord
280
     1
102
MATERIAL
148
0.0
149
0.0
149
0.0
 93
        0
 94
      127
282
     0
 72
     1
 77
     1
171
     1
175
     1
179
     1
273
     0
  0
XRECORD
  5
38D
102
{ACAD_REACTORS
330
38C
102
}
330
38C
100
AcDbXrecord
280
     1
102
MATERIAL
148
0.0
149
0.0
149
0.0
 93
        0
 94
      127
282
     0
 72
     1
 77
     1
171
     1
175
     1
179
     1
273
     0
  0
XRECORD
  5
371
102
{ACAD_REACTORS
330
370
102
}
330
370
100
AcDbXrecord
280
     1
102
RTVSPropertyOp0
 70
     1
102
RTVSPropertyOp1
 70
     1
102
RTVSPropertyOp2
 70
     1
102
RTVSPropertyOp3
 70
     1
102
RTVSPropertyOp4
 70
     1
102
RTVSPropertyOp5
 70
     1
102
RTVSPropertyOp6
 70
     1
102
RTVSPropertyOp7
 70
     1
102
RTVSPropertyOp8
 70
     1
102
RTVSPropertyOp9
 70
     1
102
RTVSPropertyOp10
 70
     1
102
RTVSPropertyOp11
 70
     1
102
RTVSPropertyOp12
 70
     1
102
RTVSPropertyOp13
 70
     1
102
RTVSPropertyOp14
 70
     1
102
RTVSPropertyOp15
 70
     1
102
RTVSPropertyOp16
 70
     1
102
RTVSPropertyOp17
 70
     1
102
RTVSPropertyOp18
 70
     1
102
RTVSPropertyOp19
 70
     1
102
RTVSPropertyOp20
 70
     1
102
RTVSPropertyOp21
 70
     1
102
RTVSPropertyOp22
 70
     1
102
RTVSPropertyOp23
 70
     1
102
RTVSPropertyOp24
 70
     1
102
RTVSPropertyOp25
 70
     1
102
RTVSPropertyOp26
 70
     1
102
RTVSPropertyOp27
 70
     1
102
RTVSPropertyOp28
 70
     1
102
RTVSPropertyOp29
 70
     1
102
RTVSPropertyOp30
 70
     1
102
RTVSPropertyOp31
 70
     1
102
RTVSPropertyOp32
 70
     1
  0
XRECORD
  5
375
102
{ACAD_REACTORS
330
374
102
}
330
374
100
AcDbXrecord
280
     1
102
RTVSPropertyOp0
 70
     1
102
RTVSPropertyOp1
 70
     1
102
RTVSPropertyOp2
 70
     1
102
RTVSPropertyOp3
 70
     1
102
RTVSPropertyOp4
 70
     1
102
RTVSPropertyOp5
 70
     1
102
RTVSPropertyOp6
 70
     1
102
RTVSPropertyOp7
 70
     1
102
RTVSPropertyOp8
 70
     1
102
RTVSPropertyOp9
 70
     1
102
RTVSPropertyOp10
 70
     1
102
RTVSPropertyOp11
 70
     1
102
RTVSPropertyOp12
 70
     1
102
RTVSPropertyOp13
 70
     1
102
RTVSPropertyOp14
 70
     1
102
RTVSPropertyOp15
 70
     1
102
RTVSPropertyOp16
 70
     1
102
RTVSPropertyOp17
 70
     1
102
RTVSPropertyOp18
 70
     1
102
RTVSPropertyOp19
 70
     1
102
RTVSPropertyOp20
 70
     1
102
RTVSPropertyOp21
 70
     1
102
RTVSPropertyOp22
 70
     1
102
RTVSPropertyOp23
 70
     1
102
RTVSPropertyOp24
 70
     1
102
RTVSPropertyOp25
 70
     1
102
RTVSPropertyOp26
 70
     1
102
RTVSPropertyOp27
 70
     1
102
RTVSPropertyOp28
 70
     1
102
RTVSPropertyOp29
 70
     1
102
RTVSPropertyOp30
 70
     1
102
RTVSPropertyOp31
 70
     1
102
RTVSPropertyOp32
 70
     1
  0
XRECORD
  5
373
102
{ACAD_REACTORS
330
372
102
}
330
372
100
AcDbXrecord
280
     1
102
RTVSPropertyOp0
 70
     1
102
RTVSPropertyOp1
 70
     1
102
RTVSPropertyOp2
 70
     1
102
RTVSPropertyOp3
 70
     1
102
RTVSPropertyOp4
 70
     1
102
RTVSPropertyOp5
 70
     1
102
RTVSPropertyOp6
 70
     1
102
RTVSPropertyOp7
 70
     1
102
RTVSPropertyOp8
 70
     1
102
RTVSPropertyOp9
 70
     1
102
RTVSPropertyOp10
 70
     1
102
RTVSPropertyOp11
 70
     1
102
RTVSPropertyOp12
 70
     1
102
RTVSPropertyOp13
 70
     1
102
RTVSPropertyOp14
 70
     1
102
RTVSPropertyOp15
 70
     1
102
RTVSPropertyOp16
 70
     1
102
RTVSPropertyOp17
 70
     1
102
RTVSPropertyOp18
 70
     1
102
RTVSPropertyOp19
 70
     1
102
RTVSPropertyOp20
 70
     1
102
RTVSPropertyOp21
 70
     1
102
RTVSPropertyOp22
 70
     1
102
RTVSPropertyOp23
 70
     1
102
RTVSPropertyOp24
 70
     1
102
RTVSPropertyOp25
 70
     1
102
RTVSPropertyOp26
 70
     1
102
RTVSPropertyOp27
 70
     1
102
RTVSPropertyOp28
 70
     1
102
RTVSPropertyOp29
 70
     1
102
RTVSPropertyOp30
 70
     1
102
RTVSPropertyOp31
 70
     1
102
RTVSPropertyOp32
 70
     1
  0
XRECORD
  5
377
102
{ACAD_REACTORS
330
376
102
}
330
376
100
AcDbXrecord
280
     1
102
RTVSPropertyOp0
 70
     1
102
RTVSPropertyOp1
 70
     1
102
RTVSPropertyOp2
 70
     1
102
RTVSPropertyOp3
 70
     1
102
RTVSPropertyOp4
 70
     1
102
RTVSPropertyOp5
 70
     1
102
RTVSPropertyOp6
 70
     1
102
RTVSPropertyOp7
 70
     1
102
RTVSPropertyOp8
 70
     1
102
RTVSPropertyOp9
 70
     1
102
RTVSPropertyOp10
 70
     1
102
RTVSPropertyOp11
 70
     1
102
RTVSPropertyOp12
 70
     1
102
RTVSPropertyOp13
 70
     1
102
RTVSPropertyOp14
 70
     1
102
RTVSPropertyOp15
 70
     1
102
RTVSPropertyOp16
 70
     1
102
RTVSPropertyOp17
 70
     1
102
RTVSPropertyOp18
 70
     1
102
RTVSPropertyOp19
 70
     1
102
RTVSPropertyOp20
 70
     1
102
RTVSPropertyOp21
 70
     1
102
RTVSPropertyOp22
 70
     1
102
RTVSPropertyOp23
 70
     1
102
RTVSPropertyOp24
 70
     1
102
RTVSPropertyOp25
 70
     1
102
RTVSPropertyOp26
 70
     1
102
RTVSPropertyOp27
 70
     1
102
RTVSPropertyOp28
 70
     1
102
RTVSPropertyOp29
 70
     1
102
RTVSPropertyOp30
 70
     1
102
RTVSPropertyOp31
 70
     1
102
RTVSPropertyOp32
 70
     1
  0
XRECORD
  5
37F
102
{ACAD_REACTORS
330
37E
102
}
330
37E
100
AcDbXrecord
280
     1
102
RTVSPropertyOp0
 70
     1
102
RTVSPropertyOp1
 70
     1
102
RTVSPropertyOp2
 70
     1
102
RTVSPropertyOp3
 70
     1
102
RTVSPropertyOp4
 70
     1
102
RTVSPropertyOp5
 70
     1
102
RTVSPropertyOp6
 70
     1
102
RTVSPropertyOp7
 70
     1
102
RTVSPropertyOp8
 70
     1
102
RTVSPropertyOp9
 70
     1
102
RTVSPropertyOp10
 70
     1
102
RTVSPropertyOp11
 70
     1
102
RTVSPropertyOp12
 70
     1
102
RTVSPropertyOp13
 70
     1
102
RTVSPropertyOp14
 70
     1
102
RTVSPropertyOp15
 70
     1
102
RTVSPropertyOp16
 70
     1
102
RTVSPropertyOp17
 70
     1
102
RTVSPropertyOp18
 70
     1
102
RTVSPropertyOp19
 70
     1
102
RTVSPropertyOp20
 70
     1
102
RTVSPropertyOp21
 70
     1
102
RTVSPropertyOp22
 70
     1
102
RTVSPropertyOp23
 70
     1
102
RTVSPropertyOp24
 70
     1
102
RTVSPropertyOp25
 70
     1
102
RTVSPropertyOp26
 70
     1
102
RTVSPropertyOp27
 70
     1
102
RTVSPropertyOp28
 70
     1
102
RTVSPropertyOp29
 70
     1
102
RTVSPropertyOp30
 70
     1
102
RTVSPropertyOp31
 70
     1
102
RTVSPropertyOp32
 70
     1
  0
XRECORD
  5
387
102
{ACAD_REACTORS
330
386
102
}
330
386
100
AcDbXrecord
280
     1
102
RTVSPropertyOp0
 70
     1
102
RTVSPropertyOp1
 70
     1
102
RTVSPropertyOp2
 70
     1
102
RTVSPropertyOp3
 70
     1
102
RTVSPropertyOp4
 70
     1
102
RTVSPropertyOp5
 70
     1
102
RTVSPropertyOp6
 70
     1
102
RTVSPropertyOp7
 70
     1
102
RTVSPropertyOp8
 70
     1
102
RTVSPropertyOp9
 70
     1
102
RTVSPropertyOp10
 70
     1
102
RTVSPropertyOp11
 70
     1
102
RTVSPropertyOp12
 70
     1
102
RTVSPropertyOp13
 70
     1
102
RTVSPropertyOp14
 70
     1
102
RTVSPropertyOp15
 70
     1
102
RTVSPropertyOp16
 70
     1
102
RTVSPropertyOp17
 70
     1
102
RTVSPropertyOp18
 70
     1
102
RTVSPropertyOp19
 70
     1
102
RTVSPropertyOp20
 70
     1
102
RTVSPropertyOp21
 70
     1
102
RTVSPropertyOp22
 70
     1
102
RTVSPropertyOp23
 70
     1
102
RTVSPropertyOp24
 70
     1
102
RTVSPropertyOp25
 70
     1
102
RTVSPropertyOp26
 70
     1
102
RTVSPropertyOp27
 70
     1
102
RTVSPropertyOp28
 70
     1
102
RTVSPropertyOp29
 70
     1
102
RTVSPropertyOp30
 70
     1
102
RTVSPropertyOp31
 70
     1
102
RTVSPropertyOp32
 70
     1
  0
XRECORD
  5
37B
102
{ACAD_REACTORS
330
37A
102
}
330
37A
100
AcDbXrecord
280
     1
102
RTVSPropertyOp0
 70
     1
102
RTVSPropertyOp1
 70
     1
102
RTVSPropertyOp2
 70
     1
102
RTVSPropertyOp3
 70
     1
102
RTVSPropertyOp4
 70
     1
102
RTVSPropertyOp5
 70
     1
102
RTVSPropertyOp6
 70
     1
102
RTVSPropertyOp7
 70
     1
102
RTVSPropertyOp8
 70
     1
102
RTVSPropertyOp9
 70
     1
102
RTVSPropertyOp10
 70
     1
102
RTVSPropertyOp11
 70
     1
102
RTVSPropertyOp12
 70
     1
102
RTVSPropertyOp13
 70
     1
102
RTVSPropertyOp14
 70
     1
102
RTVSPropertyOp15
 70
     1
102
RTVSPropertyOp16
 70
     1
102
RTVSPropertyOp17
 70
     1
102
RTVSPropertyOp18
 70
     1
102
RTVSPropertyOp19
 70
     1
102
RTVSPropertyOp20
 70
     1
102
RTVSPropertyOp21
 70
     1
102
RTVSPropertyOp22
 70
     1
102
RTVSPropertyOp23
 70
     1
102
RTVSPropertyOp24
 70
     1
102
RTVSPropertyOp25
 70
     1
102
RTVSPropertyOp26
 70
     1
102
RTVSPropertyOp27
 70
     1
102
RTVSPropertyOp28
 70
     1
102
RTVSPropertyOp29
 70
     1
102
RTVSPropertyOp30
 70
     1
102
RTVSPropertyOp31
 70
     1
102
RTVSPropertyOp32
 70
     1
  0
XRECORD
  5
37D
102
{ACAD_REACTORS
330
37C
102
}
330
37C
100
AcDbXrecord
280
     1
102
RTVSPropertyOp0
 70
     1
102
RTVSPropertyOp1
 70
     1
102
RTVSPropertyOp2
 70
     1
102
RTVSPropertyOp3
 70
     1
102
RTVSPropertyOp4
 70
     1
102
RTVSPropertyOp5
 70
     1
102
RTVSPropertyOp6
 70
     1
102
RTVSPropertyOp7
 70
     1
102
RTVSPropertyOp8
 70
     1
102
RTVSPropertyOp9
 70
     1
102
RTVSPropertyOp10
 70
     1
102
RTVSPropertyOp11
 70
     1
102
RTVSPropertyOp12
 70
     1
102
RTVSPropertyOp13
 70
     1
102
RTVSPropertyOp14
 70
     1
102
RTVSPropertyOp15
 70
     1
102
RTVSPropertyOp16
 70
     1
102
RTVSPropertyOp17
 70
     1
102
RTVSPropertyOp18
 70
     1
102
RTVSPropertyOp19
 70
     1
102
RTVSPropertyOp20
 70
     1
102
RTVSPropertyOp21
 70
     1
102
RTVSPropertyOp22
 70
     1
102
RTVSPropertyOp23
 70
     1
102
RTVSPropertyOp24
 70
     1
102
RTVSPropertyOp25
 70
     1
102
RTVSPropertyOp26
 70
     1
102
RTVSPropertyOp27
 70
     1
102
RTVSPropertyOp28
 70
     1
102
RTVSPropertyOp29
 70
     1
102
RTVSPropertyOp30
 70
     1
102
RTVSPropertyOp31
 70
     1
102
RTVSPropertyOp32
 70
     1
  0
XRECORD
  5
385
102
{ACAD_REACTORS
330
384
102
}
330
384
100
AcDbXrecord
280
     1
102
RTVSPropertyOp0
 70
     1
102
RTVSPropertyOp1
 70
     1
102
RTVSPropertyOp2
 70
     1
102
RTVSPropertyOp3
 70
     1
102
RTVSPropertyOp4
 70
     1
102
RTVSPropertyOp5
 70
     1
102
RTVSPropertyOp6
 70
     1
102
RTVSPropertyOp7
 70
     1
102
RTVSPropertyOp8
 70
     1
102
RTVSPropertyOp9
 70
     1
102
RTVSPropertyOp10
 70
     1
102
RTVSPropertyOp11
 70
     1
102
RTVSPropertyOp12
 70
     1
102
RTVSPropertyOp13
 70
     1
102
RTVSPropertyOp14
 70
     1
102
RTVSPropertyOp15
 70
     1
102
RTVSPropertyOp16
 70
     1
102
RTVSPropertyOp17
 70
     1
102
RTVSPropertyOp18
 70
     1
102
RTVSPropertyOp19
 70
     1
102
RTVSPropertyOp20
 70
     1
102
RTVSPropertyOp21
 70
     1
102
RTVSPropertyOp22
 70
     1
102
RTVSPropertyOp23
 70
     1
102
RTVSPropertyOp24
 70
     1
102
RTVSPropertyOp25
 70
     1
102
RTVSPropertyOp26
 70
     1
102
RTVSPropertyOp27
 70
     1
102
RTVSPropertyOp28
 70
     1
102
RTVSPropertyOp29
 70
     1
102
RTVSPropertyOp30
 70
     1
102
RTVSPropertyOp31
 70
     1
102
RTVSPropertyOp32
 70
     1
  0
XRECORD
  5
369
102
{ACAD_REACTORS
330
368
102
}
330
368
100
AcDbXrecord
280
     1
102
RTVSPropertyOp0
 70
     1
102
RTVSPropertyOp1
 70
     1
102
RTVSPropertyOp2
 70
     1
102
RTVSPropertyOp3
 70
     1
102
RTVSPropertyOp4
 70
     1
102
RTVSPropertyOp5
 70
     1
102
RTVSPropertyOp6
 70
     1
102
RTVSPropertyOp7
 70
     1
102
RTVSPropertyOp8
 70
     1
102
RTVSPropertyOp9
 70
     1
102
RTVSPropertyOp10
 70
     1
102
RTVSPropertyOp11
 70
     1
102
RTVSPropertyOp12
 70
     1
102
RTVSPropertyOp13
 70
     1
102
RTVSPropertyOp14
 70
     1
102
RTVSPropertyOp15
 70
     1
102
RTVSPropertyOp16
 70
     1
102
RTVSPropertyOp17
 70
     1
102
RTVSPropertyOp18
 70
     1
102
RTVSPropertyOp19
 70
     1
102
RTVSPropertyOp20
 70
     1
102
RTVSPropertyOp21
 70
     1
102
RTVSPropertyOp22
 70
     1
102
RTVSPropertyOp23
 70
     1
102
RTVSPropertyOp24
 70
     1
102
RTVSPropertyOp25
 70
     1
102
RTVSPropertyOp26
 70
     1
102
RTVSPropertyOp27
 70
     1
102
RTVSPropertyOp28
 70
     1
102
RTVSPropertyOp29
 70
     1
102
RTVSPropertyOp30
 70
     1
102
RTVSPropertyOp31
 70
     1
102
RTVSPropertyOp32
 70
     1
  0
XRECORD
  5
36B
102
{ACAD_REACTORS
330
36A
102
}
330
36A
100
AcDbXrecord
280
     1
102
RTVSPropertyOp0
 70
     1
102
RTVSPropertyOp1
 70
     1
102
RTVSPropertyOp2
 70
     1
102
RTVSPropertyOp3
 70
     1
102
RTVSPropertyOp4
 70
     1
102
RTVSPropertyOp5
 70
     1
102
RTVSPropertyOp6
 70
     1
102
RTVSPropertyOp7
 70
     1
102
RTVSPropertyOp8
 70
     1
102
RTVSPropertyOp9
 70
     1
102
RTVSPropertyOp10
 70
     1
102
RTVSPropertyOp11
 70
     1
102
RTVSPropertyOp12
 70
     1
102
RTVSPropertyOp13
 70
     1
102
RTVSPropertyOp14
 70
     1
102
RTVSPropertyOp15
 70
     1
102
RTVSPropertyOp16
 70
     1
102
RTVSPropertyOp17
 70
     1
102
RTVSPropertyOp18
 70
     1
102
RTVSPropertyOp19
 70
     1
102
RTVSPropertyOp20
 70
     1
102
RTVSPropertyOp21
 70
     1
102
RTVSPropertyOp22
 70
     1
102
RTVSPropertyOp23
 70
     1
102
RTVSPropertyOp24
 70
     1
102
RTVSPropertyOp25
 70
     1
102
RTVSPropertyOp26
 70
     1
102
RTVSPropertyOp27
 70
     1
102
RTVSPropertyOp28
 70
     1
102
RTVSPropertyOp29
 70
     1
102
RTVSPropertyOp30
 70
     1
102
RTVSPropertyOp31
 70
     1
102
RTVSPropertyOp32
 70
     1
  0
XRECORD
  5
36D
102
{ACAD_REACTORS
330
36C
102
}
330
36C
100
AcDbXrecord
280
     1
102
RTVSPropertyOp0
 70
     1
102
RTVSPropertyOp1
 70
     1
102
RTVSPropertyOp2
 70
     1
102
RTVSPropertyOp3
 70
     1
102
RTVSPropertyOp4
 70
     1
102
RTVSPropertyOp5
 70
     1
102
RTVSPropertyOp6
 70
     1
102
RTVSPropertyOp7
 70
     1
102
RTVSPropertyOp8
 70
     1
102
RTVSPropertyOp9
 70
     1
102
RTVSPropertyOp10
 70
     1
102
RTVSPropertyOp11
 70
     1
102
RTVSPropertyOp12
 70
     1
102
RTVSPropertyOp13
 70
     1
102
RTVSPropertyOp14
 70
     1
102
RTVSPropertyOp15
 70
     1
102
RTVSPropertyOp16
 70
     1
102
RTVSPropertyOp17
 70
     1
102
RTVSPropertyOp18
 70
     1
102
RTVSPropertyOp19
 70
     1
102
RTVSPropertyOp20
 70
     1
102
RTVSPropertyOp21
 70
     1
102
RTVSPropertyOp22
 70
     1
102
RTVSPropertyOp23
 70
     1
102
RTVSPropertyOp24
 70
     1
102
RTVSPropertyOp25
 70
     1
102
RTVSPropertyOp26
 70
     1
102
RTVSPropertyOp27
 70
     1
102
RTVSPropertyOp28
 70
     1
102
RTVSPropertyOp29
 70
     1
102
RTVSPropertyOp30
 70
     1
102
RTVSPropertyOp31
 70
     1
102
RTVSPropertyOp32
 70
     1
  0
XRECORD
  5
36F
102
{ACAD_REACTORS
330
36E
102
}
330
36E
100
AcDbXrecord
280
     1
102
RTVSPropertyOp0
 70
     1
102
RTVSPropertyOp1
 70
     1
102
RTVSPropertyOp2
 70
     1
102
RTVSPropertyOp3
 70
     1
102
RTVSPropertyOp4
 70
     1
102
RTVSPropertyOp5
 70
     1
102
RTVSPropertyOp6
 70
     1
102
RTVSPropertyOp7
 70
     1
102
RTVSPropertyOp8
 70
     1
102
RTVSPropertyOp9
 70
     1
102
RTVSPropertyOp10
 70
     1
102
RTVSPropertyOp11
 70
     1
102
RTVSPropertyOp12
 70
     1
102
RTVSPropertyOp13
 70
     1
102
RTVSPropertyOp14
 70
     1
102
RTVSPropertyOp15
 70
     1
102
RTVSPropertyOp16
 70
     1
102
RTVSPropertyOp17
 70
     1
102
RTVSPropertyOp18
 70
     1
102
RTVSPropertyOp19
 70
     1
102
RTVSPropertyOp20
 70
     1
102
RTVSPropertyOp21
 70
     1
102
RTVSPropertyOp22
 70
     1
102
RTVSPropertyOp23
 70
     1
102
RTVSPropertyOp24
 70
     1
102
RTVSPropertyOp25
 70
     1
102
RTVSPropertyOp26
 70
     1
102
RTVSPropertyOp27
 70
     1
102
RTVSPropertyOp28
 70
     1
102
RTVSPropertyOp29
 70
     1
102
RTVSPropertyOp30
 70
     1
102
RTVSPropertyOp31
 70
     1
102
RTVSPropertyOp32
 70
     1
  0
XRECORD
  5
383
102
{ACAD_REACTORS
330
382
102
}
330
382
100
AcDbXrecord
280
     1
102
RTVSPropertyOp0
 70
     1
102
RTVSPropertyOp1
 70
     1
102
RTVSPropertyOp2
 70
     1
102
RTVSPropertyOp3
 70
     1
102
RTVSPropertyOp4
 70
     1
102
RTVSPropertyOp5
 70
     1
102
RTVSPropertyOp6
 70
     1
102
RTVSPropertyOp7
 70
     1
102
RTVSPropertyOp8
 70
     1
102
RTVSPropertyOp9
 70
     1
102
RTVSPropertyOp10
 70
     1
102
RTVSPropertyOp11
 70
     1
102
RTVSPropertyOp12
 70
     1
102
RTVSPropertyOp13
 70
     1
102
RTVSPropertyOp14
 70
     1
102
RTVSPropertyOp15
 70
     1
102
RTVSPropertyOp16
 70
     1
102
RTVSPropertyOp17
 70
     1
102
RTVSPropertyOp18
 70
     1
102
RTVSPropertyOp19
 70
     1
102
RTVSPropertyOp20
 70
     1
102
RTVSPropertyOp21
 70
     1
102
RTVSPropertyOp22
 70
     1
102
RTVSPropertyOp23
 70
     1
102
RTVSPropertyOp24
 70
     1
102
RTVSPropertyOp25
 70
     1
102
RTVSPropertyOp26
 70
     1
102
RTVSPropertyOp27
 70
     1
102
RTVSPropertyOp28
 70
     1
102
RTVSPropertyOp29
 70
     1
102
RTVSPropertyOp30
 70
     1
102
RTVSPropertyOp31
 70
     1
102
RTVSPropertyOp32
 70
     1
  0
XRECORD
  5
379
102
{ACAD_REACTORS
330
378
102
}
330
378
100
AcDbXrecord
280
     1
102
RTVSPropertyOp0
 70
     1
102
RTVSPropertyOp1
 70
     1
102
RTVSPropertyOp2
 70
     1
102
RTVSPropertyOp3
 70
     1
102
RTVSPropertyOp4
 70
     1
102
RTVSPropertyOp5
 70
     1
102
RTVSPropertyOp6
 70
     1
102
RTVSPropertyOp7
 70
     1
102
RTVSPropertyOp8
 70
     1
102
RTVSPropertyOp9
 70
     1
102
RTVSPropertyOp10
 70
     1
102
RTVSPropertyOp11
 70
     1
102
RTVSPropertyOp12
 70
     1
102
RTVSPropertyOp13
 70
     1
102
RTVSPropertyOp14
 70
     1
102
RTVSPropertyOp15
 70
     1
102
RTVSPropertyOp16
 70
     1
102
RTVSPropertyOp17
 70
     1
102
RTVSPropertyOp18
 70
     1
102
RTVSPropertyOp19
 70
     1
102
RTVSPropertyOp20
 70
     1
102
RTVSPropertyOp21
 70
     1
102
RTVSPropertyOp22
 70
     1
102
RTVSPropertyOp23
 70
     1
102
RTVSPropertyOp24
 70
     1
102
RTVSPropertyOp25
 70
     1
102
RTVSPropertyOp26
 70
     1
102
RTVSPropertyOp27
 70
     1
102
RTVSPropertyOp28
 70
     1
102
RTVSPropertyOp29
 70
     1
102
RTVSPropertyOp30
 70
     1
102
RTVSPropertyOp31
 70
     1
102
RTVSPropertyOp32
 70
     1
  0
XRECORD
  5
381
102
{ACAD_REACTORS
330
380
102
}
330
380
100
AcDbXrecord
280
     1
102
RTVSPropertyOp0
 70
     1
102
RTVSPropertyOp1
 70
     1
102
RTVSPropertyOp2
 70
     1
102
RTVSPropertyOp3
 70
     1
102
RTVSPropertyOp4
 70
     1
102
RTVSPropertyOp5
 70
     1
102
RTVSPropertyOp6
 70
     1
102
RTVSPropertyOp7
 70
     1
102
RTVSPropertyOp8
 70
     1
102
RTVSPropertyOp9
 70
     1
102
RTVSPropertyOp10
 70
     1
102
RTVSPropertyOp11
 70
     1
102
RTVSPropertyOp12
 70
     1
102
RTVSPropertyOp13
 70
     1
102
RTVSPropertyOp14
 70
     1
102
RTVSPropertyOp15
 70
     1
102
RTVSPropertyOp16
 70
     1
102
RTVSPropertyOp17
 70
     1
102
RTVSPropertyOp18
 70
     1
102
RTVSPropertyOp19
 70
     1
102
RTVSPropertyOp20
 70
     1
102
RTVSPropertyOp21
 70
     1
102
RTVSPropertyOp22
 70
     1
102
RTVSPropertyOp23
 70
     1
102
RTVSPropertyOp24
 70
     1
102
RTVSPropertyOp25
 70
     1
102
RTVSPropertyOp26
 70
     1
102
RTVSPropertyOp27
 70
     1
102
RTVSPropertyOp28
 70
     1
102
RTVSPropertyOp29
 70
     1
102
RTVSPropertyOp30
 70
     1
102
RTVSPropertyOp31
 70
     1
102
RTVSPropertyOp32
 70
     1
  0
ENDSEC
  0
EOF
