  0
SECTION
  2
HEADER
  9
$ACADVER
  1
AC1015
  9
$ACADMAINTVER
 70
     6
  9
$DWGCODEPAGE
  3
ANSI_1252
  9
$INSBASE
 10
0.0
 20
0.0
 30
0.0
  9
$EXTMIN
 10
-354.6999991329935
 20
-263.5207398594571
 30
0.0
  9
$EXTMAX
 10
-57.69999913299543
 20
-53.520739859457
 30
0.0
  9
$LIMMIN
 10
0.0
 20
0.0
  9
$LIMMAX
 10
12.0
 20
9.0
  9
$ORTHOMODE
 70
     0
  9
$REGENMODE
 70
     1
  9
$FILLMODE
 70
     1
  9
$QTEXTMODE
 70
     0
  9
$MIRRTEXT
 70
     1
  9
$LTSCALE
 40
1.0
  9
$ATTMODE
 70
     1
  9
$TEXTSIZE
 40
0.2
  9
$TRACEWID
 40
0.05
  9
$TEXTSTYLE
  7
Standard
  9
$CLAYER
  8
0
  9
$CELTYPE
  6
ByLayer
  9
$CECOLOR
 62
   256
  9
$CELTSCALE
 40
1.0
  9
$DISPSILH
 70
     0
  9
$DIMSCALE
 40
1.0
  9
$DIMASZ
 40
0.18
  9
$DIMEXO
 40
0.0625
  9
$DIMDLI
 40
0.38
  9
$DIMRND
 40
0.0
  9
$DIMDLE
 40
0.0
  9
$DIMEXE
 40
0.18
  9
$DIMTP
 40
0.0
  9
$DIMTM
 40
0.0
  9
$DIMTXT
 40
0.18
  9
$DIMCEN
 40
0.09
  9
$DIMTSZ
 40
0.0
  9
$DIMTOL
 70
     0
  9
$DIMLIM
 70
     0
  9
$DIMTIH
 70
     1
  9
$DIMTOH
 70
     1
  9
$DIMSE1
 70
     0
  9
$DIMSE2
 70
     0
  9
$DIMTAD
 70
     0
  9
$DIMZIN
 70
     0
  9
$DIMBLK
  1

  9
$DIMASO
 70
     1
  9
$DIMSHO
 70
     1
  9
$DIMPOST
  1

  9
$DIMAPOST
  1

  9
$DIMALT
 70
     0
  9
$DIMALTD
 70
     2
  9
$DIMALTF
 40
25.4
  9
$DIMLFAC
 40
1.0
  9
$DIMTOFL
 70
     0
  9
$DIMTVP
 40
0.0
  9
$DIMTIX
 70
     0
  9
$DIMSOXD
 70
     0
  9
$DIMSAH
 70
     0
  9
$DIMBLK1
  1

  9
$DIMBLK2
  1

  9
$DIMSTYLE
  2
Standard
  9
$DIMCLRD
 70
     0
  9
$DIMCLRE
 70
     0
  9
$DIMCLRT
 70
     0
  9
$DIMTFAC
 40
1.0
  9
$DIMGAP
 40
0.09
  9
$DIMJUST
 70
     0
  9
$DIMSD1
 70
     0
  9
$DIMSD2
 70
     0
  9
$DIMTOLJ
 70
     1
  9
$DIMTZIN
 70
     0
  9
$DIMALTZ
 70
     0
  9
$DIMALTTZ
 70
     0
  9
$DIMUPT
 70
     0
  9
$DIMDEC
 70
     4
  9
$DIMTDEC
 70
     4
  9
$DIMALTU
 70
     2
  9
$DIMALTTD
 70
     2
  9
$DIMTXSTY
  7
Standard
  9
$DIMAUNIT
 70
     0
  9
$DIMADEC
 70
     0
  9
$DIMALTRND
 40
0.0
  9
$DIMAZIN
 70
     0
  9
$DIMDSEP
 70
    46
  9
$DIMATFIT
 70
     3
  9
$DIMFRAC
 70
     0
  9
$DIMLDRBLK
  1

  9
$DIMLUNIT
 70
     2
  9
$DIMLWD
 70
    -2
  9
$DIMLWE
 70
    -2
  9
$DIMTMOVE
 70
     0
  9
$LUNITS
 70
     2
  9
$LUPREC
 70
     4
  9
$SKETCHINC
 40
0.1
  9
$FILLETRAD
 40
0.5
  9
$AUNITS
 70
     0
  9
$AUPREC
 70
     0
  9
$MENU
  1
.
  9
$ELEVATION
 40
0.0
  9
$PELEVATION
 40
0.0
  9
$THICKNESS
 40
0.0
  9
$LIMCHECK
 70
     0
  9
$CHAMFERA
 40
0.5
  9
$CHAMFERB
 40
0.5
  9
$CHAMFERC
 40
1.0
  9
$CHAMFERD
 40
0.0
  9
$SKPOLY
 70
     0
  9
$TDCREATE
 40
2457212.657540972
  9
$TDUCREATE
 40
2457212.574207639
  9
$TDUPDATE
 40
2457212.657541921
  9
$TDUUPDATE
 40
2457212.574208588
  9
$TDINDWG
 40
0.0000000116
  9
$TDUSRTIMER
 40
0.0000000116
  9
$USRTIMER
 70
     1
  9
$ANGBASE
 50
0.0
  9
$ANGDIR
 70
     0
  9
$PDMODE
 70
     0
  9
$PDSIZE
 40
0.0
  9
$PLINEWID
 40
0.0
  9
$SPLFRAME
 70
     0
  9
$SPLINETYPE
 70
     6
  9
$SPLINESEGS
 70
     8
  9
$HANDSEED
  5
2F9
  9
$SURFTAB1
 70
     6
  9
$SURFTAB2
 70
     6
  9
$SURFTYPE
 70
     6
  9
$SURFU
 70
     6
  9
$SURFV
 70
     6
  9
$UCSBASE
  2

  9
$UCSNAME
  2

  9
$UCSORG
 10
0.0
 20
0.0
 30
0.0
  9
$UCSXDIR
 10
1.0
 20
0.0
 30
0.0
  9
$UCSYDIR
 10
0.0
 20
1.0
 30
0.0
  9
$UCSORTHOREF
  2

  9
$UCSORTHOVIEW
 70
     0
  9
$UCSORGTOP
 10
0.0
 20
0.0
 30
0.0
  9
$UCSORGBOTTOM
 10
0.0
 20
0.0
 30
0.0
  9
$UCSORGLEFT
 10
0.0
 20
0.0
 30
0.0
  9
$UCSORGRIGHT
 10
0.0
 20
0.0
 30
0.0
  9
$UCSORGFRONT
 10
0.0
 20
0.0
 30
0.0
  9
$UCSORGBACK
 10
0.0
 20
0.0
 30
0.0
  9
$PUCSBASE
  2

  9
$PUCSNAME
  2

  9
$PUCSORG
 10
0.0
 20
0.0
 30
0.0
  9
$PUCSXDIR
 10
1.0
 20
0.0
 30
0.0
  9
$PUCSYDIR
 10
0.0
 20
1.0
 30
0.0
  9
$PUCSORTHOREF
  2

  9
$PUCSORTHOVIEW
 70
     0
  9
$PUCSORGTOP
 10
0.0
 20
0.0
 30
0.0
  9
$PUCSORGBOTTOM
 10
0.0
 20
0.0
 30
0.0
  9
$PUCSORGLEFT
 10
0.0
 20
0.0
 30
0.0
  9
$PUCSORGRIGHT
 10
0.0
 20
0.0
 30
0.0
  9
$PUCSORGFRONT
 10
0.0
 20
0.0
 30
0.0
  9
$PUCSORGBACK
 10
0.0
 20
0.0
 30
0.0
  9
$USERI1
 70
     0
  9
$USERI2
 70
     0
  9
$USERI3
 70
     0
  9
$USERI4
 70
     0
  9
$USERI5
 70
     0
  9
$USERR1
 40
18.1
  9
$USERR2
 40
0.0
  9
$USERR3
 40
0.0
  9
$USERR4
 40
0.0
  9
$USERR5
 40
0.0
  9
$WORLDVIEW
 70
     1
  9
$SHADEDGE
 70
     3
  9
$SHADEDIF
 70
    70
  9
$TILEMODE
 70
     1
  9
$MAXACTVP
 70
    64
  9
$PINSBASE
 10
0.0
 20
0.0
 30
0.0
  9
$PLIMCHECK
 70
     0
  9
$PEXTMIN
 10
1.00000000000000E+20
 20
1.00000000000000E+20
 30
1.00000000000000E+20
  9
$PEXTMAX
 10
-1.00000000000000E+20
 20
-1.00000000000000E+20
 30
-1.00000000000000E+20
  9
$PLIMMIN
 10
0.0
 20
0.0
  9
$PLIMMAX
 10
12.0
 20
9.0
  9
$UNITMODE
 70
     0
  9
$VISRETAIN
 70
     1
  9
$PLINEGEN
 70
     0
  9
$PSLTSCALE
 70
     1
  9
$TREEDEPTH
 70
  3020
  9
$CMLSTYLE
  2
Standard
  9
$CMLJUST
 70
     0
  9
$CMLSCALE
 40
1.0
  9
$PROXYGRAPHICS
 70
     1
  9
$MEASUREMENT
 70
     1
  9
$CELWEIGHT
370
    -1
  9
$ENDCAPS
280
     0
  9
$JOINSTYLE
280
     0
  9
$LWDISPLAY
290
     0
  9
$INSUNITS
 70
     4
  9
$HYPERLINKBASE
  1

  9
$STYLESHEET
  1

  9
$XEDIT
290
     1
  9
$CEPSNTYPE
380
     0
  9
$PSTYLEMODE
290
     1
  9
$FINGERPRINTGUID
  2
{6AE498A8-725E-422C-8E52-822D9257FAF0}
  9
$VERSIONGUID
  2
{FAEB1C32-E019-11D5-929B-00C0DF256EC4}
  9
$EXTNAMES
290
     1
  9
$PSVPSCALE
 40
0.0
  9
$OLESTARTUP
290
     0
  0
ENDSEC
  0
SECTION
  2
CLASSES
  0
CLASS
  1
ACDBDICTIONARYWDFLT
  2
AcDbDictionaryWithDefault
  3
ObjectDBX Classes
 90
        0
280
     0
281
     0
  0
CLASS
  1
VISUALSTYLE
  2
AcDbVisualStyle
  3
ObjectDBX Classes
 90
     4095
280
     0
281
     0
  0
CLASS
  1
MATERIAL
  2
AcDbMaterial
  3
ObjectDBX Classes
 90
     1153
280
     0
281
     0
  0
CLASS
  1
DICTIONARYVAR
  2
AcDbDictionaryVar
  3
ObjectDBX Classes
 90
        0
280
     0
281
     0
  0
CLASS
  1
ACDBPLACEHOLDER
  2
AcDbPlaceHolder
  3
ObjectDBX Classes
 90
        0
280
     0
281
     0
  0
CLASS
  1
LAYOUT
  2
AcDbLayout
  3
ObjectDBX Classes
 90
        0
280
     0
281
     0
  0
ENDSEC
  0
SECTION
  2
TABLES
  0
TABLE
  2
VPORT
  5
8
330
0
100
AcDbSymbolTable
 70
     1
  0
VPORT
  5
29
330
8
100
AcDbSymbolTableRecord
100
AcDbViewportTableRecord
  2
*Active
 70
     0
 10
0.0
 20
0.0
 11
1.0
 21
1.0
 12
-206.1999991329945
 22
-158.5207398594571
 13
0.0
 23
0.0
 14
0.5
 24
0.5
 15
0.5
 25
0.5
 16
0.0
 26
0.0
 36
1.0
 17
0.0
 27
0.0
 37
0.0
 40
231.0000000000001
 41
1.60267857142857
 42
50.0
 43
0.0
 44
0.0
 50
0.0
 51
0.0
 71
     0
 72
   100
 73
     1
 74
     3
 75
     0
 76
     0
 77
     0
 78
     0
281
     0
 65
     1
110
0.0
120
0.0
130
0.0
111
1.0
121
0.0
131
0.0
112
0.0
122
1.0
132
0.0
 79
     0
146
0.0
  0
ENDTAB
  0
TABLE
  2
LTYPE
  5
5
330
0
100
AcDbSymbolTable
 70
     8
  0
LTYPE
  5
14
330
5
100
AcDbSymbolTableRecord
100
AcDbLinetypeTableRecord
  2
ByBlock
 70
     0
  3

 72
    65
 73
     0
 40
0.0
  0
LTYPE
  5
15
330
5
100
AcDbSymbolTableRecord
100
AcDbLinetypeTableRecord
  2
ByLayer
 70
     0
  3

 72
    65
 73
     0
 40
0.0
  0
LTYPE
  5
16
330
5
100
AcDbSymbolTableRecord
100
AcDbLinetypeTableRecord
  2
Continuous
 70
     0
  3
Solid line
 72
    65
 73
     0
 40
0.0
  0
LTYPE
  5
3F
330
5
100
AcDbSymbolTableRecord
100
AcDbLinetypeTableRecord
  2
DASHED
 70
     0
  3
Dashed
 72
    65
 73
     2
 40
15.0
 49
7.0
 74
     0
 49
-8.0
 74
     0
  0
LTYPE
  5
40
330
5
100
AcDbSymbolTableRecord
100
AcDbLinetypeTableRecord
  2
DOTTED
 70
     0
  3
Dotted
 72
    65
 73
     2
 40
1.0
 49
0.0
 74
     0
 49
-1.0
 74
     0
  0
LTYPE
  5
41
330
5
100
AcDbSymbolTableRecord
100
AcDbLinetypeTableRecord
  2
DOT_CENTER
 70
     0
  3
Dot_Center
 72
    65
 73
     4
 40
14.0
 49
12.0
 74
     0
 49
-1.0
 74
     0
 49
0.0
 74
     0
 49
-1.0
 74
     0
  0
LTYPE
  5
42
330
5
100
AcDbSymbolTableRecord
100
AcDbLinetypeTableRecord
  2
LONG_DASHED
 70
     0
  3
Long_Dashed
 72
    65
 73
     2
 40
15.0
 49
10.0
 74
     0
 49
-5.0
 74
     0
  0
LTYPE
  5
43
330
5
100
AcDbSymbolTableRecord
100
AcDbLinetypeTableRecord
  2
DASH_CENTER
 70
     0
  3
Dash_Center
 72
    65
 73
     4
 40
14.0
 49
11.0
 74
     0
 49
-1.0
 74
     0
 49
1.0
 74
     0
 49
-1.0
 74
     0
  0
LTYPE
  5
44
330
5
100
AcDbSymbolTableRecord
100
AcDbLinetypeTableRecord
  2
PHANTOM
 70
     0
  3
Phantom
 72
    65
 73
     6
 40
13.0
 49
10.0
 74
     0
 49
-1.0
 74
     0
 49
0.0
 74
     0
 49
-1.0
 74
     0
 49
0.0
 74
     0
 49
-1.0
 74
     0
  0
LTYPE
  5
45
330
5
100
AcDbSymbolTableRecord
100
AcDbLinetypeTableRecord
  2
CENTER_DASH_DASH
 70
     0
  3
Center_Dash_Dash
 72
    65
 73
     6
 40
14.0
 49
9.0
 74
     0
 49
-1.0
 74
     0
 49
1.0
 74
     0
 49
-1.0
 74
     0
 49
1.0
 74
     0
 49
-1.0
 74
     0
  0
ENDTAB
  0
TABLE
  2
LAYER
  5
2
330
0
100
AcDbSymbolTable
 70
     2
  0
LAYER
  5
10
330
2
100
AcDbSymbolTableRecord
100
AcDbLayerTableRecord
  2
0
 70
     0
 62
     7
  6
Continuous
370
    -3
390
F
  0
LAYER
  5
46
330
2
100
AcDbSymbolTableRecord
100
AcDbLayerTableRecord
  2
1
 70
     0
 62
     7
  6
Continuous
370
    -3
390
F
  0
ENDTAB
  0
TABLE
  2
STYLE
  5
3
330
0
100
AcDbSymbolTable
 70
     5
  0
STYLE
  5
11
330
3
100
AcDbSymbolTableRecord
100
AcDbTextStyleTableRecord
  2
Standard
 70
     0
 40
0.0
 41
1.0
 50
0.0
 71
     0
 42
0.2
  3
txt
  4

  0
STYLE
  5
D3
330
3
100
AcDbSymbolTableRecord
100
AcDbTextStyleTableRecord
  2
CONVERTER_11
 70
     0
 40
0.0
 41
0.9
 50
0.0
 71
     0
 42
0.2
  3
txt.shx
  4

  0
STYLE
  5
293
330
3
100
AcDbSymbolTableRecord
100
AcDbTextStyleTableRecord
  2
CONVERTER_12
 70
     0
 40
0.0
 41
0.81
 50
0.0
 71
     0
 42
0.2
  3
txt.shx
  4

  0
STYLE
  5
2A9
330
3
100
AcDbSymbolTableRecord
100
AcDbTextStyleTableRecord
  2
CONVERTER_13
 70
     0
 40
0.0
 41
0.72
 50
0.0
 71
     0
 42
0.2
  3
txt.shx
  4

  0
STYLE
  5
2AC
330
3
100
AcDbSymbolTableRecord
100
AcDbTextStyleTableRecord
  2
CONVERTER_14
 70
     0
 40
0.0
 41
0.855
 50
0.0
 71
     0
 42
0.2
  3
txt.shx
  4

  0
ENDTAB
  0
TABLE
  2
VIEW
  5
6
330
0
100
AcDbSymbolTable
 70
     0
  0
ENDTAB
  0
TABLE
  2
UCS
  5
7
330
0
100
AcDbSymbolTable
 70
     0
  0
ENDTAB
  0
TABLE
  2
APPID
  5
9
330
0
100
AcDbSymbolTable
 70
     1
  0
APPID
  5
12
330
9
100
AcDbSymbolTableRecord
100
AcDbRegAppTableRecord
  2
ACAD
 70
     0
  0
ENDTAB
  0
TABLE
  2
DIMSTYLE
  5
A
330
0
100
AcDbSymbolTable
 70
     4
100
AcDbDimStyleTable
  0
DIMSTYLE
105
27
330
A
100
AcDbSymbolTableRecord
100
AcDbDimStyleTableRecord
  2
Standard
 70
     0
178
     0
340
11
  0
DIMSTYLE
105
FB
102
{ACAD_REACTORS
330
FC
102
}
330
A
100
AcDbSymbolTableRecord
100
AcDbDimStyleTableRecord
  2
ME10_DIM_10
 70
     0
 41
1.75
 42
0.0
 44
0.75
 73
     0
 74
     0
 77
     1
 78
     8
140
1.75
147
0.75
172
     1
173
     1
174
     1
175
     1
176
     2
177
     2
271
     1
178
     3
271
     1
340
D3
  0
DIMSTYLE
105
188
102
{ACAD_REACTORS
330
189
102
}
330
A
100
AcDbSymbolTableRecord
100
AcDbDimStyleTableRecord
  2
ME10_DIM_11
 70
     0
 41
1.75
 42
0.0
 44
0.75
 73
     0
 74
     0
 77
     1
 78
     8
140
1.75
147
0.75
172
     1
173
     1
174
     1
175
     1
176
     2
177
     2
271
     1
178
     3
271
     1
340
D3
  0
DIMSTYLE
105
193
102
{ACAD_REACTORS
330
194
102
}
330
A
100
AcDbSymbolTableRecord
100
AcDbDimStyleTableRecord
  2
ME10_DIM_12
 70
     0
 41
1.75
 42
0.0
 44
0.75
 73
     0
 74
     0
 77
     1
 78
     8
140
1.75
147
0.75
172
     1
173
     1
174
     1
175
     1
176
     2
177
     2
271
     1
178
     3
271
     1
340
D3
  0
ENDTAB
  0
TABLE
  2
BLOCK_RECORD
  5
1
330
0
100
AcDbSymbolTable
 70
    19
  0
BLOCK_RECORD
  5
1F
330
1
100
AcDbSymbolTableRecord
100
AcDbBlockTableRecord
  2
*Model_Space
340
22
  0
BLOCK_RECORD
  5
1B
330
1
100
AcDbSymbolTableRecord
100
AcDbBlockTableRecord
  2
*Paper_Space
340
1E
  0
BLOCK_RECORD
  5
23
330
1
100
AcDbSymbolTableRecord
100
AcDbBlockTableRecord
  2
*Paper_Space0
340
26
  0
BLOCK_RECORD
  5
47
330
1
100
AcDbSymbolTableRecord
100
AcDbBlockTableRecord
  2
0828062_PATG_6_18-select__1
340
0
102
{BLKREFS
331
4B
102
}
  0
BLOCK_RECORD
  5
4A
330
1
100
AcDbSymbolTableRecord
100
AcDbBlockTableRecord
  2
Allg1
340
0
102
{BLKREFS
331
7C
102
}
  0
BLOCK_RECORD
  5
4E
330
1
100
AcDbSymbolTableRecord
100
AcDbBlockTableRecord
  2
0828062_PATG_6_18-select__2
340
0
102
{BLKREFS
331
52
102
}
  0
BLOCK_RECORD
  5
51
330
1
100
AcDbSymbolTableRecord
100
AcDbBlockTableRecord
  2
Drfsicht1
340
0
102
{BLKREFS
331
7D
102
}
  0
BLOCK_RECORD
  5
55
330
1
100
AcDbSymbolTableRecord
100
AcDbBlockTableRecord
  2
0828062_PATG_6_18-select__3
340
0
102
{BLKREFS
331
59
102
}
  0
BLOCK_RECORD
  5
58
330
1
100
AcDbSymbolTableRecord
100
AcDbBlockTableRecord
  2
Rckans1
340
0
102
{BLKREFS
331
7E
102
}
  0
BLOCK_RECORD
  5
5C
330
1
100
AcDbSymbolTableRecord
100
AcDbBlockTableRecord
  2
0828062_PATG_6_18-select__4
340
0
102
{BLKREFS
331
60
102
}
  0
BLOCK_RECORD
  5
5F
330
1
100
AcDbSymbolTableRecord
100
AcDbBlockTableRecord
  2
SA_Links1
340
0
102
{BLKREFS
331
7F
102
}
  0
BLOCK_RECORD
  5
63
330
1
100
AcDbSymbolTableRecord
100
AcDbBlockTableRecord
  2
0828062_PATG_6_18-select__5
340
0
102
{BLKREFS
331
67
102
}
  0
BLOCK_RECORD
  5
66
330
1
100
AcDbSymbolTableRecord
100
AcDbBlockTableRecord
  2
SA_Rechts1
340
0
102
{BLKREFS
331
80
102
}
  0
BLOCK_RECORD
  5
6A
330
1
100
AcDbSymbolTableRecord
100
AcDbBlockTableRecord
  2
0828062_PATG_6_18-select__6
340
0
102
{BLKREFS
331
6E
102
}
  0
BLOCK_RECORD
  5
6D
330
1
100
AcDbSymbolTableRecord
100
AcDbBlockTableRecord
  2
Vordans1
340
0
102
{BLKREFS
331
81
102
}
  0
BLOCK_RECORD
  5
71
330
1
100
AcDbSymbolTableRecord
100
AcDbBlockTableRecord
  2
_punkt
340
0
102
{BLKREFS
331
78
102
}
  0
BLOCK_RECORD
  5
74
330
1
100
AcDbSymbolTableRecord
100
AcDbBlockTableRecord
  2
_rahmen
340
0
102
{BLKREFS
331
79
102
}
  0
BLOCK_RECORD
  5
77
330
1
100
AcDbSymbolTableRecord
100
AcDbBlockTableRecord
  2
A4I_CS
340
0
102
{BLKREFS
331
82
102
}
  0
BLOCK_RECORD
  5
F2
330
1
100
AcDbSymbolTableRecord
100
AcDbBlockTableRecord
  2
*D16
340
0
  0
BLOCK_RECORD
  5
17F
330
1
100
AcDbSymbolTableRecord
100
AcDbBlockTableRecord
  2
*D17
340
0
  0
BLOCK_RECORD
  5
18A
330
1
100
AcDbSymbolTableRecord
100
AcDbBlockTableRecord
  2
*D18
340
0
  0
ENDTAB
  0
ENDSEC
  0
SECTION
  2
BLOCKS
  0
BLOCK
  5
20
330
1F
100
AcDbEntity
  8
0
100
AcDbBlockBegin
  2
*Model_Space
 70
     0
 10
0.0
 20
0.0
 30
0.0
  3
*Model_Space
  1

  0
ENDBLK
  5
21
330
1F
100
AcDbEntity
  8
0
100
AcDbBlockEnd
  0
BLOCK
  5
1C
330
1B
100
AcDbEntity
 67
     1
  8
0
100
AcDbBlockBegin
  2
*Paper_Space
 70
     0
 10
0.0
 20
0.0
 30
0.0
  3
*Paper_Space
  1

  0
ENDBLK
  5
1D
330
1B
100
AcDbEntity
 67
     1
  8
0
100
AcDbBlockEnd
  0
BLOCK
  5
24
330
23
100
AcDbEntity
  8
0
100
AcDbBlockBegin
  2
*Paper_Space0
 70
     0
 10
0.0
 20
0.0
 30
0.0
  3
*Paper_Space0
  1

  0
ENDBLK
  5
25
330
23
100
AcDbEntity
  8
0
100
AcDbBlockEnd
  0
BLOCK
  5
48
330
47
100
AcDbEntity
  8
0
100
AcDbBlockBegin
  2
0828062_PATG_6_18-select__1
 70
     0
 10
-68.44422796000778
 20
-106.7493362656136
 30
0.0
  3
0828062_PATG_6_18-select__1
  1

  0
LINE
  5
83
330
47
100
AcDbEntity
  8
0
  6
Continuous
 62
     7
100
AcDbLine
 10
-52.85577069188788
 20
-100.9981135354577
 30
0.0
 11
-52.85577069188788
 21
-101.7775363988637
 31
0.0
  0
LINE
  5
84
330
47
100
AcDbEntity
  8
0
  6
Continuous
 62
     7
100
AcDbLine
 10
-52.17587165687553
 20
-97.42975961371229
 30
0.0
 11
-49.89551078720947
 21
-98.08804309468789
 31
0.0
  0
LINE
  5
85
330
47
100
AcDbEntity
  8
0
  6
Continuous
 62
     7
100
AcDbLine
 10
-52.50577069188788
 20
-100.6950046441331
 30
0.0
 11
-52.50577069188788
 21
-101.4744275075391
 31
0.0
  0
LINE
  5
86
330
47
100
AcDbEntity
  8
0
  6
Continuous
 62
     2
100
AcDbLine
 10
-48.68351807810332
 20
-103.0943194290597
 30
0.0
 11
-47.64641906238509
 21
-103.3937041270103
 31
0.0
  0
LINE
  5
87
330
47
100
AcDbEntity
  8
0
  6
Continuous
 62
     2
100
AcDbLine
 10
-68.44422796000778
 20
-97.27753639886366
 30
0.0
 11
-52.85577069188788
 21
-101.7775363988637
 31
0.0
  0
LINE
  5
88
330
47
100
AcDbEntity
  8
0
  6
Continuous
 62
     2
100
AcDbLine
 10
-67.8824859369916
 20
-92.0234483316315
 30
0.0
 11
-52.29402866887168
 21
-96.5234483316315
 31
0.0
  0
LINE
  5
89
330
47
100
AcDbEntity
  8
0
  6
Continuous
 62
     2
100
AcDbLine
 10
-49.80311356965783
 20
-101.3505788423844
 30
0.0
 11
-47.61494313890199
 21
-101.9822492359992
 31
0.0
  0
LINE
  5
8A
330
47
100
AcDbEntity
  8
0
  6
Continuous
 62
     7
100
AcDbLine
 10
-46.51603059656631
 20
-95.16132739800463
 30
0.0
 11
-49.89551078720947
 21
-98.08804309468789
 31
0.0
  0
LINE
  5
8B
330
47
100
AcDbEntity
  8
0
  6
Continuous
 62
     7
100
AcDbLine
 10
-49.67495436371297
 20
-98.50325341162119
 30
0.0
 11
-46.7365870200628
 21
-95.95855264636954
 31
0.0
  0
LINE
  5
8C
330
47
100
AcDbEntity
  8
0
  6
Continuous
 62
     7
100
AcDbLine
 10
-51.0945951241457
 20
-93.83960966675461
 30
0.0
 11
-46.51603059656631
 21
-95.16132739800463
 31
0.0
  0
LINE
  5
8D
330
47
100
AcDbEntity
  8
0
  6
Continuous
 62
     7
100
AcDbLine
 10
-48.66787509153162
 20
-103.1182549487238
 30
0.0
 11
-47.48868322904411
 21
-103.4586583183405
 31
0.0
  0
LINE
  5
8E
330
47
100
AcDbEntity
  8
0
  6
Continuous
 62
     2
100
AcDbLine
 10
-50.25499054785973
 20
-92.19374713849821
 30
0.0
 11
-43.9057706918879
 21
-94.02660903499293
 31
0.0
  0
LINE
  5
8F
330
47
100
AcDbEntity
  8
0
  6
Continuous
 62
     2
100
AcDbLine
 10
-52.39892144275768
 20
-103.0985306856107
 30
0.0
 11
-48.98607618073873
 21
-104.0837342509752
 31
0.0
  0
LINE
  5
90
330
47
100
AcDbEntity
  8
0
  6
Continuous
 62
     2
100
AcDbLine
 10
-52.44902322170363
 20
-102.6797123450674
 30
0.0
 11
-48.99551895778366
 21
-103.6766531532783
 31
0.0
  0
LINE
  5
91
330
47
100
AcDbEntity
  8
0
  6
Continuous
 62
     7
100
AcDbLine
 10
-51.20745461974653
 20
-106.6792088135556
 30
0.0
 11
-66.79591188786644
 21
-102.1792088135556
 31
0.0
  0
LINE
  5
92
330
47
100
AcDbEntity
  8
0
  6
Continuous
 62
     2
100
AcDbLine
 10
-67.20080168999418
 20
-101.9159808068245
 30
0.0
 11
-51.61234442187428
 21
-106.4159808068245
 31
0.0
  0
LINE
  5
93
330
47
100
AcDbEntity
  8
0
  6
Continuous
 62
     7
100
AcDbLine
 10
-47.06178554530504
 20
-87.55620842119046
 30
0.0
 11
-45.44931831159019
 21
-88.02168761691281
 31
0.0
  0
LINE
  5
94
330
47
100
AcDbEntity
  8
0
  6
Continuous
 62
     2
100
AcDbLine
 10
-47.30582693995493
 20
-89.15990364819037
 30
0.0
 11
-44.42819077329295
 21
-89.99060565591645
 31
0.0
  0
LINE
  5
95
330
47
100
AcDbEntity
  8
0
  6
Continuous
 62
     7
100
AcDbLine
 10
-64.87344734955985
 20
-85.74368119757274
 30
0.0
 11
-49.28499008143994
 21
-90.24368119757274
 31
0.0
  0
LINE
  5
96
330
47
100
AcDbEntity
  8
0
  6
Continuous
 62
     2
100
AcDbLine
 10
-64.9442371109472
 20
-84.71895731628831
 30
0.0
 11
-49.35577984282729
 21
-89.21895731628832
 31
0.0
  0
LINE
  5
97
330
47
100
AcDbEntity
  8
0
  6
Continuous
 62
     2
100
AcDbLine
 10
-64.31455439555722
 20
-82.8571423343166
 30
0.0
 11
-48.72609712743732
 21
-87.3571423343166
 31
0.0
  0
LINE
  5
98
330
47
100
AcDbEntity
  8
0
  6
Continuous
 62
     2
100
AcDbLine
 10
-63.27390152445834
 20
-81.95591051142375
 30
0.0
 11
-47.68544425633844
 21
-86.45591051142375
 31
0.0
  0
LINE
  5
99
330
47
100
AcDbEntity
  8
0
  6
Continuous
 62
     7
100
AcDbLine
 10
-47.40086799617409
 20
-86.41109753515964
 30
0.0
 11
-62.989325264294
 21
-81.91109753515964
 31
0.0
  0
LINE
  5
9A
330
47
100
AcDbEntity
  8
0
  6
Continuous
 62
     2
100
AcDbLine
 10
-48.80915402613
 20
-90.63069499742198
 30
0.0
 11
-48.67679769953276
 21
-90.66890297781693
 31
0.0
  0
LINE
  5
9B
330
47
100
AcDbEntity
  8
0
  6
Continuous
 62
     7
100
AcDbLine
 10
-48.8348035708137
 20
-90.62975394210082
 30
0.0
 11
-48.6217958390568
 21
-90.69124397773547
 31
0.0
  0
LINE
  5
9C
330
47
100
AcDbEntity
  8
0
  6
Continuous
 62
     2
100
AcDbLine
 10
-46.55049122704574
 20
-99.91363733845957
 30
0.0
 11
-45.06215712300055
 21
-100.3432823862669
 31
0.0
  0
LINE
  5
9D
330
47
100
AcDbEntity
  8
0
  6
Continuous
 62
     7
100
AcDbLine
 10
-43.55577069188789
 20
-92.94407728026239
 30
0.0
 11
-43.55577069188789
 21
-93.72350014366837
 31
0.0
  0
LINE
  5
9E
330
47
100
AcDbEntity
  8
0
  6
Continuous
 62
     7
100
AcDbLine
 10
-43.9057706918879
 20
-93.24718617158695
 30
0.0
 11
-43.9057706918879
 21
-94.02660903499293
 31
0.0
  0
LINE
  5
9F
330
47
100
AcDbEntity
  8
0
  6
Continuous
 62
     2
100
AcDbLine
 10
-49.82544377141004
 20
-91.5383237485986
 30
0.0
 11
-43.9057706918879
 21
-93.24718617158695
 31
0.0
  0
LINE
  5
A0
330
47
100
AcDbEntity
  8
0
  6
Continuous
 62
     7
100
AcDbLine
 10
-68.44422796000778
 20
-96.49811353545766
 30
0.0
 11
-68.44422796000778
 21
-97.27753639886366
 31
0.0
  0
LINE
  5
A1
330
47
100
AcDbEntity
  8
0
  6
Continuous
 62
     2
100
AcDbLine
 10
-68.44422796000778
 20
-96.49811353545766
 30
0.0
 11
-52.85577069188788
 21
-100.9981135354577
 31
0.0
  0
SPLINE
  5
A2
330
47
100
AcDbEntity
  8
0
  6
Continuous
 62
     7
100
AcDbSpline
210
0.0
220
0.0
230
1.0
 70
     8
 71
     3
 72
     9
 73
     5
 74
     3
 42
0.000000001
 43
0.0000000001
 44
0.00000001
 40
0.0
 40
0.0
 40
0.0
 40
0.0
 40
0.1956091190829055
 40
0.4048279598540208
 40
0.4048279598540208
 40
0.4048279598540208
 40
0.4048279598540208
 10
-51.0133095510677
 20
-106.0066705675743
 30
0.0
 10
-51.07492270979989
 20
-105.9831116259128
 30
0.0
 10
-51.20243582182511
 20
-105.9343545857493
 30
0.0
 10
-51.29931579763883
 20
-105.8379853362215
 30
0.0
 10
-51.34938426077522
 20
-105.7881808069427
 30
0.0
 11
-51.0133095510677
 21
-106.0066705675743
 31
0.0
 11
-51.19099700465432
 21
-105.9248775553213
 31
0.0
 11
-51.34938426077522
 21
-105.7881808069427
 31
0.0
  0
SPLINE
  5
A3
330
47
100
AcDbEntity
  8
0
  6
Continuous
 62
     7
100
AcDbSpline
210
0.0
220
0.0
230
1.0
 70
     8
 71
     3
 72
    11
 73
     7
 74
     5
 42
0.000000001
 43
0.0000000001
 44
0.00000001
 40
0.0
 40
0.0
 40
0.0
 40
0.0
 40
0.8920636410846446
 40
1.946211028427515
 40
3.169949267706878
 40
4.550192795836592
 40
4.550192795836592
 40
4.550192795836592
 40
4.550192795836592
 10
-51.34938426077522
 20
-105.7881808069427
 30
0.0
 10
-51.52660663118476
 20
-105.547394191222
 30
0.0
 10
-51.91325182591322
 20
-105.0220711615939
 30
0.0
 10
-52.24631291889517
 20
-104.0049150607902
 30
0.0
 10
-52.47009351382982
 20
-102.8045434401498
 30
0.0
 10
-52.49341115603658
 20
-101.9352156841379
 30
0.0
 10
-52.50577069188788
 20
-101.4744275075391
 30
0.0
 11
-51.34938426077522
 21
-105.7881808069427
 31
0.0
 11
-51.84278077315687
 21
-105.0449867374899
 31
0.0
 11
-52.2070810172569
 21
-104.0557890550922
 31
0.0
 11
-52.4304887510589
 21
-102.8526164704665
 31
0.0
 11
-52.50577069188788
 21
-101.4744275075391
 31
0.0
  0
SPLINE
  5
A4
330
47
100
AcDbEntity
  8
0
  6
Continuous
 62
     7
100
AcDbSpline
210
0.0
220
0.0
230
1.0
 70
     8
 71
     3
 72
    11
 73
     7
 74
     5
 42
0.000000001
 43
0.0000000001
 44
0.00000001
 40
0.0
 40
0.0
 40
0.0
 40
0.0
 40
1.065232317532724
 40
2.181666044866873
 40
3.337294262357346
 40
4.519158028816147
 40
4.519158028816147
 40
4.519158028816147
 40
4.519158028816147
 10
-52.85577069188788
 20
-100.9981135354577
 30
0.0
 10
-52.84855593148092
 20
-100.6429776681518
 30
0.0
 10
-52.83377961115511
 20
-99.91563598909876
 30
0.0
 10
-52.72070592832254
 20
-98.80799523553118
 30
0.0
 10
-52.5487264475546
 20
-97.6689233075844
 30
0.0
 10
-52.37956082721825
 20
-96.90811969250673
 30
0.0
 10
-52.29402866887168
 20
-96.5234483316315
 30
0.0
 11
-52.85577069188788
 21
-100.9981135354577
 31
0.0
 11
-52.8200266318203
 21
-99.93348108558912
 31
0.0
 11
-52.71330555459957
 21
-98.82215985358573
 31
0.0
 11
-52.53713327021359
 21
-97.68003906112011
 31
0.0
 11
-52.29402866887168
 21
-96.5234483316315
 31
0.0
  0
SPLINE
  5
A5
330
47
100
AcDbEntity
  8
0
  6
Continuous
 62
     7
100
AcDbSpline
210
0.0
220
0.0
230
1.0
 70
     8
 71
     3
 72
    11
 73
     7
 74
     5
 42
0.000000001
 43
0.0000000001
 44
0.00000001
 40
0.0
 40
0.0
 40
0.0
 40
0.0
 40
0.9592082163699781
 40
2.092700031019588
 40
3.408547600310698
 40
4.892680426016828
 40
4.892680426016828
 40
4.892680426016828
 40
4.892680426016828
 10
-51.61234442187428
 20
-106.4159808068245
 30
0.0
 10
-51.80290611051647
 20
-106.1570704672994
 30
0.0
 10
-52.21865363279497
 20
-105.5922069950953
 30
0.0
 10
-52.57678383977078
 20
-104.4984907571373
 30
0.0
 10
-52.81740813586073
 20
-103.207768584443
 30
0.0
 10
-52.84248086839401
 20
-102.2730075564168
 30
0.0
 10
-52.85577069188788
 20
-101.7775363988637
 30
0.0
 11
-51.61234442187428
 21
-106.4159808068245
 31
0.0
 11
-52.14287830615561
 21
-105.6168473988108
 31
0.0
 11
-52.53459899873629
 21
-104.5531939768778
 31
0.0
 11
-52.77482236841587
 21
-103.2594600149147
 31
0.0
 11
-52.85577069188788
 21
-101.7775363988637
 31
0.0
  0
SPLINE
  5
A6
330
47
100
AcDbEntity
  8
0
  6
Continuous
 62
     7
100
AcDbSpline
210
0.0
220
0.0
230
1.0
 70
     8
 71
     3
 72
    11
 73
     7
 74
     5
 42
0.000000001
 43
0.0000000001
 44
0.00000001
 40
0.0
 40
0.0
 40
0.0
 40
0.0
 40
0.9906660552782122
 40
2.028949421652084
 40
3.103683663878617
 40
4.202816966677468
 40
4.202816966677468
 40
4.202816966677468
 40
4.202816966677468
 10
-52.50577069188788
 20
-100.6950046441331
 30
0.0
 10
-52.49906096470959
 20
-100.3647282875477
 30
0.0
 10
-52.48531898574627
 20
-99.68830052609252
 30
0.0
 10
-52.38016046125531
 20
-98.65819462527632
 30
0.0
 10
-52.2202195436293
 20
-97.5988577324032
 30
0.0
 10
-52.06289551774456
 20
-96.89131037018623
 30
0.0
 10
-51.98335061048283
 20
-96.53356600457478
 30
0.0
 11
-52.50577069188788
 21
-100.6950046441331
 31
0.0
 11
-52.47252871602502
 21
-99.70489646575537
 31
0.0
 11
-52.37327811420975
 21
-98.67136771999222
 31
0.0
 11
-52.20943788973079
 21
-97.60919538299919
 31
0.0
 11
-51.98335061048283
 21
-96.53356600457478
 31
0.0
  0
SPLINE
  5
A7
330
47
100
AcDbEntity
  8
0
  6
Continuous
 62
     7
100
AcDbSpline
210
0.0
220
0.0
230
1.0
 70
     8
 71
     3
 72
    11
 73
     7
 74
     5
 42
0.000000001
 43
0.0000000001
 44
0.00000001
 40
0.0
 40
0.0
 40
0.0
 40
0.0
 40
1.670404761242485
 40
3.303759364002004
 40
4.83230259754505
 40
6.197788053105184
 40
6.197788053105184
 40
6.197788053105184
 40
6.197788053105184
 10
-51.98335061048283
 20
-96.53356600457478
 30
0.0
 10
-51.83916881034614
 20
-95.99515365035698
 30
0.0
 10
-51.5540031982264
 20
-94.93027111950016
 30
0.0
 10
-50.94019067059497
 20
-93.43803641181898
 30
0.0
 10
-50.2439820758436
 20
-92.09233902190121
 30
0.0
 10
-49.65601624656906
 20
-91.32546483796963
 30
0.0
 10
-49.37859715656754
 20
-90.96363168264801
 30
0.0
 11
-51.98335061048283
 21
-96.53356600457478
 31
0.0
 11
-51.51642509622866
 21
-94.92974786349477
 31
0.0
 11
-50.90430319338537
 21
-93.41543150352899
 31
0.0
 11
-50.17903502417619
 21
-92.06990911256345
 31
0.0
 11
-49.37859715656754
 21
-90.96363168264801
 31
0.0
  0
SPLINE
  5
A8
330
47
100
AcDbEntity
  8
0
  6
Continuous
 62
     7
100
AcDbSpline
210
0.0
220
0.0
230
1.0
 70
     8
 71
     3
 72
    13
 73
     9
 74
     7
 42
0.000000001
 43
0.0000000001
 44
0.00000001
 40
0.0
 40
0.0
 40
0.0
 40
0.0
 40
1.273408161580373
 40
2.53859026061944
 40
3.769682679061906
 40
4.942223938773575
 40
6.034314413861817
 40
7.027982339210713
 40
7.027982339210713
 40
7.027982339210713
 40
7.027982339210713
 10
-52.29402866887168
 20
-96.5234483316315
 30
0.0
 10
-52.18750992762813
 20
-96.11238308749324
 30
0.0
 10
-51.97516052925409
 20
-95.29290803480552
 30
0.0
 10
-51.55452966975349
 20
-94.1073007949978
 30
0.0
 10
-51.07095845490549
 20
-92.98283420160962
 30
0.0
 10
-50.52590514337935
 20
-91.95209048502778
 30
0.0
 10
-49.94551802664863
 20
-91.03071382519315
 30
0.0
 10
-49.49812895056536
 20
-90.49764053485283
 30
0.0
 10
-49.28499008143994
 20
-90.24368119757274
 30
0.0
 11
-52.29402866887168
 21
-96.5234483316315
 31
0.0
 11
-51.95662910824522
 21
-95.29555180540632
 31
0.0
 11
-51.53775812036438
 21
-94.10172064577122
 31
0.0
 11
-51.04803610339425
 21
-92.9722247889668
 31
0.0
 11
-50.49988019550747
 21
-91.93570266617317
 31
0.0
 11
-49.90718889252738
 21
-91.01843573130908
 31
0.0
 11
-49.28499008143994
 21
-90.24368119757274
 31
0.0
  0
SPLINE
  5
A9
330
47
100
AcDbEntity
  8
0
  6
Continuous
 62
     7
100
AcDbSpline
210
0.0
220
0.0
230
1.0
 70
     8
 71
     3
 72
    13
 73
     9
 74
     7
 42
0.000000001
 43
0.0000000001
 44
0.00000001
 40
0.0
 40
0.0
 40
0.0
 40
0.0
 40
0.0904590196893237
 40
0.1825126964842992
 40
0.2691303983521839
 40
0.3441527964189686
 40
0.4036862688405424
 40
0.4486441709949892
 40
0.4486441709949892
 40
0.4486441709949892
 40
0.4486441709949892
 10
-47.41602242599212
 20
-102.3087690315574
 30
0.0
 10
-47.427994038297
 20
-102.3365012142942
 30
0.0
 10
-47.45214830329418
 20
-102.3924544567817
 30
0.0
 10
-47.47322617195609
 20
-102.4799664622998
 30
0.0
 10
-47.48298326136214
 20
-102.564546702471
 30
0.0
 10
-47.47826733484789
 20
-102.637674049459
 30
0.0
 10
-47.46334464304152
 20
-102.698417312769
 30
0.0
 10
-47.43686024499957
 20
-102.7220412108198
 30
0.0
 10
-47.42546520303705
 20
-102.7322054988607
 30
0.0
 11
-47.41602242599212
 21
-102.3087690315574
 31
0.0
 11
-47.44951510565689
 21
-102.3927992216261
 31
0.0
 11
-47.47176153541585
 21
-102.4821243351124
 31
0.0
 11
-47.48065437494833
 21
-102.5682843239499
 31
0.0
 11
-47.4753517731712
 21
-102.6431190917042
 31
0.0
 11
-47.45635554090254
 21
-102.6995405246825
 31
0.0
 11
-47.42546520303705
 21
-102.7322054988607
 31
0.0
  0
SPLINE
  5
AA
330
47
100
AcDbEntity
  8
0
  6
Continuous
 62
     7
100
AcDbSpline
210
0.0
220
0.0
230
1.0
 70
     8
 71
     3
 72
    15
 73
    11
 74
     9
 42
0.000000001
 43
0.0000000001
 44
0.00000001
 40
0.0
 40
0.0
 40
0.0
 40
0.0
 40
0.9991302720231411
 40
2.027885586382754
 40
3.058950611561383
 40
4.064889776114115
 40
5.01959776891097
 40
5.899857017570783
 40
6.68719131778438
 40
7.370414556450139
 40
7.370414556450139
 40
7.370414556450139
 40
7.370414556450139
 10
-47.41602242599212
 20
-102.3087690315574
 30
0.0
 10
-47.2784723561288
 20
-102.0052496923937
 30
0.0
 10
-46.99929375576151
 20
-101.3892114081285
 30
0.0
 10
-46.67674117107568
 20
-100.4201518066875
 30
0.0
 10
-46.42360394194461
 20
-99.42924457523667
 30
0.0
 10
-46.25607840396935
 20
-98.44509369528336
 30
0.0
 10
-46.17587392255088
 20
-97.49982337254968
 30
0.0
 10
-46.19111548343633
 20
-96.62534093422227
 30
0.0
 10
-46.2841996657971
 20
-95.84254914782832
 30
0.0
 10
-46.44248908633537
 20
-95.37742484475542
 30
0.0
 10
-46.51603059656631
 20
-95.16132739800463
 30
0.0
 11
-47.41602242599212
 21
-102.3087690315574
 31
0.0
 11
-47.01923518470718
 21
-101.3918060154631
 31
0.0
 11
-46.68873860182963
 21
-100.4175835052221
 31
0.0
 11
-46.43539735650992
 21
-99.41812700207699
 31
0.0
 11
-46.2675392550565
 21
-98.42629170270423
 31
0.0
 11
-46.19068261525295
 21
-97.47468232534023
 31
0.0
 11
-46.20735362052189
 21
-96.59458095711994
 31
0.0
 11
-46.31700457522972
 21
-95.8149195033526
 31
0.0
 11
-46.51603059656631
 21
-95.16132739800463
 31
0.0
  0
SPLINE
  5
AB
330
47
100
AcDbEntity
  8
0
  6
Continuous
 62
     7
100
AcDbSpline
210
0.0
220
0.0
230
1.0
 70
     8
 71
     3
 72
     9
 73
     5
 74
     3
 42
0.000000001
 43
0.0000000001
 44
0.00000001
 40
0.0
 40
0.0
 40
0.0
 40
0.0
 40
0.0712449123212921
 40
0.1418030949863635
 40
0.1418030949863635
 40
0.1418030949863635
 40
0.1418030949863635
 10
-47.42546520303705
 20
-102.7322054988607
 30
0.0
 10
-47.40427420286746
 20
-102.7430230669553
 30
0.0
 10
-47.36209645447754
 20
-102.7645539143773
 30
0.0
 10
-47.31698477120165
 20
-102.7789546059653
 30
0.0
 10
-47.29453816036528
 20
-102.7861200723592
 30
0.0
 11
-47.42546520303705
 21
-102.7322054988607
 31
0.0
 11
-47.36115159299686
 21
-102.762858348202
 31
0.0
 11
-47.29453816036528
 21
-102.7861200723592
 31
0.0
  0
SPLINE
  5
AC
330
47
100
AcDbEntity
  8
0
  6
Continuous
 62
     7
100
AcDbSpline
210
0.0
220
0.0
230
1.0
 70
     8
 71
     3
 72
     9
 73
     5
 74
     3
 42
0.000000001
 43
0.0000000001
 44
0.00000001
 40
0.0
 40
0.0
 40
0.0
 40
0.0
 40
0.5880740144235473
 40
1.150026480729105
 40
1.150026480729105
 40
1.150026480729105
 40
1.150026480729105
 10
-47.12655130233583
 20
-88.3744183823551
 30
0.0
 10
-47.10581466508926
 20
-88.17938148919632
 30
0.0
 10
-47.0652625072914
 20
-87.79797100814599
 30
0.0
 10
-47.05888020093737
 20
-87.41447547265533
 30
0.0
 10
-47.05576154094848
 20
-87.22708303769213
 30
0.0
 11
-47.12655130233583
 21
-88.3744183823551
 31
0.0
 11
-47.0732763358163
 21
-87.78876248958812
 31
0.0
 11
-47.05576154094848
 21
-87.22708303769213
 31
0.0
  0
SPLINE
  5
AD
330
47
100
AcDbEntity
  8
0
  6
Continuous
 62
     7
100
AcDbSpline
210
0.0
220
0.0
230
1.0
 70
     8
 71
     3
 72
    11
 73
     7
 74
     5
 42
0.000000001
 43
0.0000000001
 44
0.00000001
 40
0.0
 40
0.0
 40
0.0
 40
0.0
 40
0.1694815246595752
 40
0.3746644991819587
 40
0.6309779451704425
 40
0.9374838013731472
 40
0.9374838013731472
 40
0.9374838013731472
 40
0.9374838013731472
 10
-47.40086799617409
 20
-86.41109753515964
 30
0.0
 10
-47.3493725735031
 20
-86.43706509654005
 30
0.0
 10
-47.23553417512998
 20
-86.4944703242659
 30
0.0
 10
-47.13227650055064
 20
-86.68903208091288
 30
0.0
 10
-47.06634073141231
 20
-86.936108764775
 30
0.0
 10
-47.05949153940549
 20
-87.12449159862692
 30
0.0
 10
-47.05576154094848
 20
-87.22708303769213
 30
0.0
 11
-47.40086799617409
 21
-86.41109753515964
 31
0.0
 11
-47.25712981427866
 21
-86.50089354637677
 31
0.0
 11
-47.14774055451583
 21
-86.6744851543067
 31
0.0
 11
-47.07925090646196
 21
-86.92147857973944
 31
0.0
 11
-47.05576154094848
 21
-87.22708303769213
 31
0.0
  0
SPLINE
  5
AE
330
47
100
AcDbEntity
  8
0
  6
Continuous
 62
     7
100
AcDbSpline
210
0.0
220
0.0
230
1.0
 70
     8
 71
     3
 72
     9
 73
     5
 74
     3
 42
0.000000001
 43
0.0000000001
 44
0.00000001
 40
0.0
 40
0.0
 40
0.0
 40
0.0
 40
0.1570300971118046
 40
0.2936839449579753
 40
0.2936839449579753
 40
0.2936839449579753
 40
0.2936839449579753
 10
-47.68544425633844
 20
-86.45591051142375
 30
0.0
 10
-47.63684509980538
 20
-86.43313094425126
 30
0.0
 10
-47.54595301630673
 20
-86.39052770889614
 30
0.0
 10
-47.44693977206313
 20
-86.40456557674294
 30
0.0
 10
-47.40086799617409
 20
-86.41109753515964
 30
0.0
 11
-47.68544425633844
 21
-86.45591051142375
 31
0.0
 11
-47.53732499050018
 21
-86.40376518470715
 31
0.0
 11
-47.40086799617409
 21
-86.41109753515964
 31
0.0
  0
SPLINE
  5
AF
330
47
100
AcDbEntity
  8
0
  6
Continuous
 62
     7
100
AcDbSpline
210
0.0
220
0.0
230
1.0
 70
     8
 71
     3
 72
    13
 73
     9
 74
     7
 42
0.000000001
 43
0.0000000001
 44
0.00000001
 40
0.0
 40
0.0
 40
0.0
 40
0.0
 40
1.107043678601578
 40
2.245485207242278
 40
3.367464711980037
 40
4.426491253011178
 40
5.38162282124961
 40
6.202557867810522
 40
6.202557867810522
 40
6.202557867810522
 40
6.202557867810522
 10
-47.61494313890199
 20
-101.9822492359992
 30
0.0
 10
-47.46472229348024
 20
-101.6448304495007
 30
0.0
 10
-47.16002006944203
 20
-100.9604230365991
 30
0.0
 10
-46.83873005670107
 20
-99.882084751441
 30
0.0
 10
-46.6170615475598
 20
-98.79604320794691
 30
0.0
 10
-46.52323677885568
 20
-97.75405449359498
 30
0.0
 10
-46.53617333453003
 20
-96.80295767104943
 30
0.0
 10
-46.67323448814967
 20
-96.22547649399995
 30
0.0
 10
-46.7365870200628
 20
-95.95855264636954
 30
0.0
 11
-47.61494313890199
 21
-101.9822492359992
 31
0.0
 11
-47.18626767825819
 21
-100.9615714960507
 31
0.0
 11
-46.85357564591315
 21
-99.87282675206757
 31
0.0
 11
-46.6341333919172
 21
-98.77251629356009
 31
0.0
 11
-46.53932807342191
 21
-97.7177418268137
 31
0.0
 11
-46.57408083825103
 21
-96.76324270744873
 31
0.0
 11
-46.7365870200628
 21
-95.95855264636954
 31
0.0
  0
SPLINE
  5
B0
330
47
100
AcDbEntity
  8
0
  6
Continuous
 62
     7
100
AcDbSpline
210
0.0
220
0.0
230
1.0
 70
     8
 71
     3
 72
     9
 73
     5
 74
     3
 42
0.000000001
 43
0.0000000001
 44
0.00000001
 40
0.0
 40
0.0
 40
0.0
 40
0.0
 40
0.0858331128661837
 40
0.1708388804231101
 40
0.1708388804231101
 40
0.1708388804231101
 40
0.1708388804231101
 10
-47.64641906238509
 20
-103.3937041270103
 30
0.0
 10
-47.62088896556779
 20
-103.4067367143622
 30
0.0
 10
-47.57007484843142
 20
-103.4326762497299
 30
0.0
 10
-47.51572603699534
 20
-103.4500256417649
 30
0.0
 10
-47.48868322904411
 20
-103.4586583183405
 30
0.0
 11
-47.64641906238509
 21
-103.3937041270103
 31
0.0
 11
-47.56893651433512
 21
-103.4306334934457
 31
0.0
 11
-47.48868322904411
 21
-103.4586583183405
 31
0.0
  0
SPLINE
  5
B1
330
47
100
AcDbEntity
  8
0
  6
Continuous
 62
     7
100
AcDbSpline
210
0.0
220
0.0
230
1.0
 70
     8
 71
     3
 72
    13
 73
     9
 74
     7
 42
0.000000001
 43
0.0000000001
 44
0.00000001
 40
0.0
 40
0.0
 40
0.0
 40
0.0
 40
0.3647403848327956
 40
0.8034548065049402
 40
1.349297066379538
 40
2.001737781244981
 40
2.741254602254177
 40
3.537645789596089
 40
3.537645789596089
 40
3.537645789596089
 40
3.537645789596089
 10
-47.29453816036528
 20
-102.7861200723592
 30
0.0
 10
-47.17114606167416
 20
-102.7984976633735
 30
0.0
 10
-46.89933636272582
 20
-102.8257631643443
 30
0.0
 10
-46.48730724812039
 20
-102.5980876362054
 30
0.0
 10
-46.08554445012578
 20
-102.2308169107274
 30
0.0
 10
-45.69846953400148
 20
-101.708120824838
 30
0.0
 10
-45.34216503614742
 20
-101.0695403079487
 30
0.0
 10
-45.15776914178209
 20
-100.5912717564979
 30
0.0
 10
-45.06215712300055
 20
-100.3432823862669
 30
0.0
 11
-47.29453816036528
 21
-102.7861200723592
 31
0.0
 11
-46.92981528467
 21
-102.7896945803187
 31
0.0
 11
-46.53173786959945
 21
-102.6052908903812
 31
0.0
 11
-46.12306377181499
 21
-102.2434494150286
 31
0.0
 11
-45.72715688330096
 21
-101.7248584185288
 31
0.0
 11
-45.36665146299766
 21
-101.0791642410963
 31
0.0
 11
-45.06215712300055
 21
-100.3432823862669
 31
0.0
  0
SPLINE
  5
B2
330
47
100
AcDbEntity
  8
0
  6
Continuous
 62
     7
100
AcDbSpline
210
0.0
220
0.0
230
1.0
 70
     8
 71
     3
 72
    13
 73
     9
 74
     7
 42
0.000000001
 43
0.0000000001
 44
0.00000001
 40
0.0
 40
0.0
 40
0.0
 40
0.0
 40
0.4394250993403779
 40
0.967971254940444
 40
1.62558088201284
 40
2.411616201811942
 40
3.302557444020491
 40
4.262018719318599
 40
4.262018719318599
 40
4.262018719318599
 40
4.262018719318599
 10
-47.48868322904411
 20
-103.4586583183405
 30
0.0
 10
-47.34002520410395
 20
-103.4735703609528
 30
0.0
 10
-47.01255939827571
 20
-103.5064187844585
 30
0.0
 10
-46.51616267025894
 20
-103.2321241145619
 30
0.0
 10
-46.03213440152987
 20
-102.7896505612109
 30
0.0
 10
-45.56580152509854
 20
-102.1599265478378
 30
0.0
 10
-45.13653965719334
 20
-101.3905894589985
 30
0.0
 10
-44.91438662111926
 20
-100.8143900206843
 30
0.0
 10
-44.7991969619015
 20
-100.5156220267586
 30
0.0
 11
-47.48868322904411
 21
-103.4586583183405
 31
0.0
 11
-47.04927922539196
 21
-103.4629647471751
 31
0.0
 11
-46.56969096372328
 21
-103.2408023190786
 31
0.0
 11
-46.0773362288767
 21
-102.8048697150317
 31
0.0
 11
-45.6003629335908
 21
-102.180091355063
 31
0.0
 11
-45.16603995695382
 21
-101.4021840023699
 31
0.0
 11
-44.7991969619015
 21
-100.5156220267586
 31
0.0
  0
SPLINE
  5
B3
330
47
100
AcDbEntity
  8
0
  6
Continuous
 62
     7
100
AcDbSpline
210
0.0
220
0.0
230
1.0
 70
     8
 71
     3
 72
    13
 73
     9
 74
     7
 42
0.000000001
 43
0.0000000001
 44
0.00000001
 40
0.0
 40
0.0
 40
0.0
 40
0.0
 40
0.3015300422996887
 40
0.6083756331988646
 40
0.8971013060183974
 40
1.147175963733694
 40
1.34562088358648
 40
1.495480571587231
 40
1.495480571587231
 40
1.495480571587231
 40
1.495480571587231
 10
-47.61494313890199
 20
-101.9822492359992
 30
0.0
 10
-47.65484851016381
 20
-102.074689837969
 30
0.0
 10
-47.73536272678187
 20
-102.2612006392533
 30
0.0
 10
-47.8056222741929
 20
-102.5529073187808
 30
0.0
 10
-47.83814591601507
 20
-102.8348414555586
 30
0.0
 10
-47.82242613753406
 20
-103.0785992703395
 30
0.0
 10
-47.77268390485391
 20
-103.2810768552689
 30
0.0
 10
-47.68440253918057
 20
-103.359823163674
 30
0.0
 10
-47.64641906238509
 20
-103.3937041270103
 30
0.0
 11
-47.61494313890199
 21
-101.9822492359992
 31
0.0
 11
-47.72658540445124
 21
-102.2623498695618
 31
0.0
 11
-47.80074017031444
 21
-102.5601002478492
 31
0.0
 11
-47.83038296875601
 21
-102.8473002106408
 31
0.0
 11
-47.8127076294989
 21
-103.0967494364887
 31
0.0
 11
-47.74938685527005
 21
-103.2848208797498
 31
0.0
 11
-47.64641906238509
 21
-103.3937041270103
 31
0.0
  0
SPLINE
  5
B4
330
47
100
AcDbEntity
  8
0
  6
Continuous
 62
     7
100
AcDbSpline
210
0.0
220
0.0
230
1.0
 70
     8
 71
     3
 72
     9
 73
     5
 74
     3
 42
0.000000001
 43
0.0000000001
 44
0.00000001
 40
0.0
 40
0.0
 40
0.0
 40
0.0
 40
0.235662295699135
 40
0.4877210573095053
 40
0.4877210573095053
 40
0.4877210573095053
 40
0.4877210573095053
 10
-66.79591188786644
 20
-102.1792088135556
 30
0.0
 10
-66.87014103679459
 20
-102.1508259124812
 30
0.0
 10
-67.02376390073354
 20
-102.0920853211609
 30
0.0
 10
-67.14048114349188
 20
-101.9759833760307
 30
0.0
 10
-67.20080168999418
 20
-101.9159808068245
 30
0.0
 11
-66.79591188786644
 21
-102.1792088135556
 31
0.0
 11
-67.00998285436637
 21
-102.0806677582785
 31
0.0
 11
-67.20080168999418
 21
-101.9159808068245
 31
0.0
  0
SPLINE
  5
B5
330
47
100
AcDbEntity
  8
0
  6
Continuous
 62
     7
100
AcDbSpline
210
0.0
220
0.0
230
1.0
 70
     8
 71
     3
 72
    13
 73
     9
 74
     7
 42
0.000000001
 43
0.0000000001
 44
0.00000001
 40
0.0
 40
0.0
 40
0.0
 40
0.0
 40
0.0424117442153049
 40
0.0978630646516495
 40
0.1691768463130084
 40
0.2533631520574443
 40
0.3446846223892462
 40
0.436222832716561
 40
0.436222832716561
 40
0.436222832716561
 40
0.436222832716561
 10
-48.99551895778366
 20
-103.6766531532783
 30
0.0
 10
-48.98326273863674
 20
-103.6843905557606
 30
0.0
 10
-48.95498211233118
 20
-103.7022442516245
 30
0.0
 10
-48.93624596936721
 20
-103.7589439390992
 30
0.0
 10
-48.92833861347236
 20
-103.8282341959758
 30
0.0
 10
-48.93467756726595
 20
-103.910941222387
 30
0.0
 10
-48.95274688199942
 20
-103.9983847686192
 30
0.0
 10
-48.97495763906436
 20
-104.0552619516516
 30
0.0
 10
-48.98607618073873
 20
-104.0837342509752
 30
0.0
 11
-48.99551895778366
 21
-103.6766531532783
 31
0.0
 11
-48.96202627811889
 21
-103.702672320486
 31
0.0
 11
-48.93977984835993
 21
-103.7534654873427
 31
0.0
 11
-48.93088700882745
 21
-103.8242226262864
 31
0.0
 11
-48.93618961060459
 21
-103.9082417697311
 31
0.0
 11
-48.95518584287324
 21
-103.9975656421511
 31
0.0
 11
-48.98607618073873
 21
-104.0837342509752
 31
0.0
  0
SPLINE
  5
B6
330
47
100
AcDbEntity
  8
0
  6
Continuous
 62
     7
100
AcDbSpline
210
0.0
220
0.0
230
1.0
 70
     8
 71
     3
 72
    13
 73
     9
 74
     7
 42
0.000000001
 43
0.0000000001
 44
0.00000001
 40
0.0
 40
0.0
 40
0.0
 40
0.0
 40
0.6757031916947014
 40
1.292425166826229
 40
1.832546997472498
 40
2.286867759582889
 40
2.660317874022767
 40
2.980858858198264
 40
2.980858858198264
 40
2.980858858198264
 40
2.980858858198264
 10
-48.98607618073873
 20
-104.0837342509752
 30
0.0
 10
-49.08232191644431
 20
-104.287642191738
 30
0.0
 10
-49.26641222866753
 20
-104.6776592246608
 30
0.0
 10
-49.60088951034813
 20
-105.1906551766318
 30
0.0
 10
-49.95235407823377
 20
-105.6012618294587
 30
0.0
 10
-50.3101302046894
 20
-105.8838626935403
 30
0.0
 10
-50.67211352436028
 20
-106.0493550234463
 30
0.0
 10
-50.90550880992879
 20
-106.0201567083359
 30
0.0
 10
-51.0133095510677
 20
-106.0066705675743
 30
0.0
 11
-48.98607618073873
 21
-104.0837342509752
 31
0.0
 11
-49.28897333888131
 21
-104.6877442685662
 31
0.0
 11
-49.62658261009931
 21
-105.2038508222207
 31
0.0
 11
-49.98380571113845
 21
-105.6089720975277
 31
0.0
 11
-50.34466694093284
 21
-105.8849911676544
 31
0.0
 11
-50.69302794221581
 21
-106.0195631044024
 31
0.0
 11
-51.0133095510677
 21
-106.0066705675743
 31
0.0
  0
SPLINE
  5
B7
330
47
100
AcDbEntity
  8
0
  6
Continuous
 62
     7
100
AcDbSpline
210
0.0
220
0.0
230
1.0
 70
     8
 71
     3
 72
     9
 73
     5
 74
     3
 42
0.000000001
 43
0.0000000001
 44
0.00000001
 40
0.0
 40
0.0
 40
0.0
 40
0.0
 40
0.2356622956991241
 40
0.4877210573095316
 40
0.4877210573095316
 40
0.4877210573095316
 40
0.4877210573095316
 10
-51.20745461974653
 20
-106.6792088135556
 30
0.0
 10
-51.28168376867466
 20
-106.6508259124812
 30
0.0
 10
-51.43530663261369
 20
-106.592085321161
 30
0.0
 10
-51.55202387537202
 20
-106.4759833760308
 30
0.0
 10
-51.61234442187428
 20
-106.4159808068245
 30
0.0
 11
-51.20745461974653
 21
-106.6792088135556
 31
0.0
 11
-51.42152558624647
 21
-106.5806677582786
 31
0.0
 11
-51.61234442187428
 21
-106.4159808068245
 31
0.0
  0
SPLINE
  5
B8
330
47
100
AcDbEntity
  8
0
  6
Continuous
 62
     7
100
AcDbSpline
210
0.0
220
0.0
230
1.0
 70
     8
 71
     3
 72
    13
 73
     9
 74
     7
 42
0.000000001
 43
0.0000000001
 44
0.00000001
 40
0.0
 40
0.0
 40
0.0
 40
0.0
 40
0.8140610494991463
 40
1.557063814280987
 40
2.207781689795243
 40
2.75512975887445
 40
3.205048003449424
 40
3.591223375563426
 40
3.591223375563426
 40
3.591223375563426
 40
3.591223375563426
 10
-48.76512232139069
 20
-104.3625295686056
 30
0.0
 10
-48.8810754581841
 20
-104.6081899625461
 30
0.0
 10
-49.10286034049889
 20
-105.0780673872977
 30
0.0
 10
-49.50582562316546
 20
-105.6961050532286
 30
0.0
 10
-49.9292565304422
 20
-106.1907880561012
 30
0.0
 10
-50.36029135955634
 20
-106.5312546382873
 30
0.0
 10
-50.79639485162826
 20
-106.7306333971934
 30
0.0
 10
-51.07758045894126
 20
-106.6954563940027
 30
0.0
 10
-51.20745461974653
 20
-106.6792088135556
 30
0.0
 11
-48.76512232139069
 21
-104.3625295686056
 31
0.0
 11
-49.13004109356529
 21
-105.0902174589512
 31
0.0
 11
-49.53677967600402
 21
-105.712002658343
 31
0.0
 11
-49.96714824143719
 21
-106.2000770901843
 31
0.0
 11
-50.40189988357704
 21
-106.5326141822623
 31
0.0
 11
-50.82159173424094
 21
-106.6947412429069
 31
0.0
 11
-51.20745461974653
 21
-106.6792088135556
 31
0.0
  0
SPLINE
  5
B9
330
47
100
AcDbEntity
  8
0
  6
Continuous
 62
     7
100
AcDbSpline
210
0.0
220
0.0
230
1.0
 70
     8
 71
     3
 72
     9
 73
     5
 74
     3
 42
0.000000001
 43
0.0000000001
 44
0.00000001
 40
0.0
 40
0.0
 40
0.0
 40
0.0
 40
0.6357931218913307
 40
1.382713692423744
 40
1.382713692423744
 40
1.382713692423744
 40
1.382713692423744
 10
-63.27390152445834
 20
-81.95591051142375
 30
0.0
 10
-63.45327640677271
 20
-82.07074332412252
 30
0.0
 10
-63.84337829621542
 20
-82.3204800813989
 30
0.0
 10
-64.14930014652992
 20
-82.66892030292705
 30
0.0
 10
-64.31455439555722
 20
-82.8571423343166
 30
0.0
 11
-63.27390152445834
 21
-81.95591051142375
 31
0.0
 11
-63.79422796000777
 21
-82.32127785466305
 31
0.0
 11
-64.31455439555722
 21
-82.8571423343166
 31
0.0
  0
SPLINE
  5
BA
330
47
100
AcDbEntity
  8
0
  6
Continuous
 62
     7
100
AcDbSpline
210
0.0
220
0.0
230
1.0
 70
     8
 71
     3
 72
    13
 73
     9
 74
     7
 42
0.000000001
 43
0.0000000001
 44
0.00000001
 40
0.0
 40
0.0
 40
0.0
 40
0.0
 40
0.3246959842097862
 40
0.6722237951361514
 40
1.028088945507343
 40
1.377087998196213
 40
1.704599199421769
 40
1.99795040660691
 40
1.99795040660691
 40
1.99795040660691
 40
1.99795040660691
 10
-49.35577984282729
 20
-89.21895731628832
 30
0.0
 10
-49.3513934660633
 20
-89.1106932952073
 30
0.0
 10
-49.34231225828597
 20
-88.88655239310022
 30
0.0
 10
-49.27901568440944
 20
-88.5487127167518
 30
0.0
 10
-49.18415229552233
 20
-88.21049334745493
 30
0.0
 10
-49.05691030092807
 20
-87.89035718401752
 30
0.0
 10
-48.90948344193775
 20
-87.60112926385708
 30
0.0
 10
-48.78494179945825
 20
-87.4354324150219
 30
0.0
 10
-48.72609712743732
 20
-87.3571423343166
 30
0.0
 11
-49.35577984282729
 21
-89.21895731628832
 31
0.0
 11
-49.33508358233284
 21
-88.89492159814837
 31
0.0
 11
-49.27462280585762
 21
-88.55269349632229
 31
0.0
 11
-49.17758448665163
 21
-88.21031421779527
 31
0.0
 11
-49.04908451726168
 21
-87.88583294186645
 31
0.0
 11
-48.89589679496675
 21
-87.59635563688359
 31
0.0
 11
-48.72609712743732
 21
-87.3571423343166
 31
0.0
  0
SPLINE
  5
BB
330
47
100
AcDbEntity
  8
0
  6
Continuous
 62
     7
100
AcDbSpline
210
0.0
220
0.0
230
1.0
 70
     8
 71
     3
 72
     9
 73
     5
 74
     3
 42
0.000000001
 43
0.0000000001
 44
0.00000001
 40
0.0
 40
0.0
 40
0.0
 40
0.0
 40
0.6357931218913249
 40
1.382713692423738
 40
1.382713692423738
 40
1.382713692423738
 40
1.382713692423738
 10
-47.68544425633844
 20
-86.45591051142375
 30
0.0
 10
-47.86481913865281
 20
-86.57074332412252
 30
0.0
 10
-48.25492102809551
 20
-86.82048008139888
 30
0.0
 10
-48.56084287841004
 20
-87.16892030292708
 30
0.0
 10
-48.72609712743732
 20
-87.3571423343166
 30
0.0
 11
-47.68544425633844
 21
-86.45591051142375
 31
0.0
 11
-48.20577069188787
 21
-86.82127785466305
 31
0.0
 11
-48.72609712743732
 21
-87.3571423343166
 31
0.0
  0
SPLINE
  5
BC
330
47
100
AcDbEntity
  8
0
  6
Continuous
 62
     7
100
AcDbSpline
210
0.0
220
0.0
230
1.0
 70
     8
 71
     3
 72
     9
 73
     5
 74
     3
 42
0.000000001
 43
0.0000000001
 44
0.00000001
 40
0.0
 40
0.0
 40
0.0
 40
0.0
 40
0.4962489068740124
 40
1.027880437788174
 40
1.027880437788174
 40
1.027880437788174
 40
1.027880437788174
 10
-49.28499008143994
 20
-90.24368119757274
 30
0.0
 10
-49.30571963441495
 20
-90.07942997687252
 30
0.0
 10
-49.34865674078885
 20
-89.73921639615574
 30
0.0
 10
-49.35335161200859
 20
-89.39631160225399
 30
0.0
 10
-49.35577984282729
 20
-89.21895731628832
 30
0.0
 11
-49.28499008143994
 21
-90.24368119757274
 31
0.0
 11
-49.33826504795947
 21
-89.75030025358912
 31
0.0
 11
-49.35577984282729
 21
-89.21895731628832
 31
0.0
  0
SPLINE
  5
BD
330
47
100
AcDbEntity
  8
0
  6
Continuous
 62
     7
100
AcDbSpline
210
0.0
220
0.0
230
1.0
 70
     8
 71
     3
 72
    11
 73
     7
 74
     5
 42
0.000000001
 43
0.0000000001
 44
0.00000001
 40
0.0
 40
0.0
 40
0.0
 40
0.0
 40
0.1471173414320389
 40
0.3144859241817168
 40
0.5140710680161277
 40
0.7494642056714332
 40
0.7494642056714332
 40
0.7494642056714332
 40
0.7494642056714332
 10
-48.7409665367547
 20
-90.64283847791195
 30
0.0
 10
-48.79021216229771
 20
-90.63576907756661
 30
0.0
 10
-48.8954822549675
 20
-90.62065716277175
 30
0.0
 10
-49.06070993016041
 20
-90.68450391934086
 30
0.0
 10
-49.22691971607678
 20
-90.79833702959543
 30
0.0
 10
-49.32533738797385
 20
-90.90559038193695
 30
0.0
 10
-49.37859715656754
 20
-90.96363168264801
 30
0.0
 11
-48.7409665367547
 21
-90.64283847791195
 31
0.0
 11
-48.88778623620831
 21
-90.63348492276248
 31
0.0
 11
-49.04688390885198
 21
-90.68544813028404
 31
0.0
 11
-49.21248957092282
 21
-90.79684380186106
 31
0.0
 11
-49.37859715656754
 21
-90.96363168264801
 31
0.0
  0
SPLINE
  5
BE
330
47
100
AcDbEntity
  8
0
  6
Continuous
 62
     7
100
AcDbSpline
210
0.0
220
0.0
230
1.0
 70
     8
 71
     3
 72
     9
 73
     5
 74
     3
 42
0.000000001
 43
0.0000000001
 44
0.00000001
 40
0.0
 40
0.0
 40
0.0
 40
0.0
 40
0.0348307822321108
 40
0.0693542809549011
 40
0.0693542809549011
 40
0.0693542809549011
 40
0.0693542809549011
 10
-48.67679769953276
 20
-90.66890297781693
 30
0.0
 10
-48.68719962139613
 20
-90.66370137604804
 30
0.0
 10
-48.70791170545142
 20
-90.65334408027705
 30
0.0
 10
-48.72998085076826
 20
-90.64632998019572
 30
0.0
 10
-48.7409665367547
 20
-90.64283847791195
 30
0.0
 11
-48.67679769953276
 21
-90.66890297781693
 31
0.0
 11
-48.7083457476732
 21
-90.65414140318308
 31
0.0
 11
-48.7409665367547
 21
-90.64283847791195
 31
0.0
  0
SPLINE
  5
BF
330
47
100
AcDbEntity
  8
0
  6
Continuous
 62
     7
100
AcDbSpline
210
0.0
220
0.0
230
1.0
 70
     8
 71
     3
 72
     9
 73
     5
 74
     3
 42
0.000000001
 43
0.0000000001
 44
0.00000001
 40
0.0
 40
0.0
 40
0.0
 40
0.0
 40
0.0298549561246425
 40
0.0594465263841413
 40
0.0594465263841413
 40
0.0594465263841413
 40
0.0594465263841413
 10
-48.67679769953276
 20
-90.66890297781693
 30
0.0
 10
-48.66788176652918
 20
-90.67336149360774
 30
0.0
 10
-48.65012855052917
 20
-90.68223917306236
 30
0.0
 10
-48.63121214130727
 20
-90.6882512614998
 30
0.0
 10
-48.6217958390568
 20
-90.69124397773547
 30
0.0
 11
-48.67679769953276
 21
-90.66890297781693
 31
0.0
 11
-48.64975651541237
 21
-90.6815557560745
 31
0.0
 11
-48.6217958390568
 21
-90.69124397773547
 31
0.0
  0
SPLINE
  5
C0
330
47
100
AcDbEntity
  8
0
  6
Continuous
 62
     7
100
AcDbSpline
210
0.0
220
0.0
230
1.0
 70
     8
 71
     3
 72
    13
 73
     9
 74
     7
 42
0.000000001
 43
0.0000000001
 44
0.00000001
 40
0.0
 40
0.0
 40
0.0
 40
0.0
 40
0.1401611873587929
 40
0.3033276955653575
 40
0.5017045365163941
 40
0.7374968856811333
 40
1.006760106119003
 40
1.301880993556047
 40
1.301880993556047
 40
1.301880993556047
 40
1.301880993556047
 10
-48.6217958390568
 20
-90.69124397773547
 30
0.0
 10
-48.57466581916152
 20
-90.697168979637
 30
0.0
 10
-48.47267010625391
 20
-90.70999146658521
 30
0.0
 10
-48.31440101643702
 20
-90.63801251827272
 30
0.0
 10
-48.15791811836781
 20
-90.51490231020841
 30
0.0
 10
-48.00412994404928
 20
-90.33592681566807
 30
0.0
 10
-47.85766645007087
 20
-90.11219867754298
 30
0.0
 10
-47.77695062394231
 20
-89.94203841060732
 30
0.0
 10
-47.73474368424301
 20
-89.85306026883886
 30
0.0
 11
-48.6217958390568
 21
-90.69124397773547
 31
0.0
 11
-48.48175244951961
 21
-90.69698934170223
 31
0.0
 11
-48.32944779200071
 21
-90.63845214784178
 31
0.0
 11
-48.17164839497389
 21
-90.51823267749654
 31
0.0
 11
-48.01536497722847
 21
-90.34167241830968
 31
0.0
 11
-47.86754092505614
 21
-90.11661524438671
 31
0.0
 11
-47.73474368424301
 21
-89.85306026883886
 31
0.0
  0
SPLINE
  5
C1
330
47
100
AcDbEntity
  8
0
  6
Continuous
 62
     7
100
AcDbSpline
210
0.0
220
0.0
230
1.0
 70
     8
 71
     3
 72
    11
 73
     7
 74
     5
 42
0.000000001
 43
0.0000000001
 44
0.00000001
 40
0.0
 40
0.0
 40
0.0
 40
0.0
 40
0.2322656383342135
 40
0.5091869989264743
 40
0.8261699999422456
 40
1.174097285990687
 40
1.174097285990687
 40
1.174097285990687
 40
1.174097285990687
 10
-47.03294422720823
 20
-88.93223665736146
 30
0.0
 10
-47.09706706696566
 20
-88.97617218585455
 30
0.0
 10
-47.2376410855009
 20
-89.07249036252387
 30
0.0
 10
-47.41615377694576
 20
-89.28559476509305
 30
0.0
 10
-47.59002371183362
 20
-89.54746163745094
 30
0.0
 10
-47.6850298661335
 20
-89.74808183245293
 30
0.0
 10
-47.73474368424301
 20
-89.85306026883886
 30
0.0
 11
-47.03294422720823
 21
-88.93223665736146
 31
0.0
 11
-47.21895556647509
 21
-89.07133054357651
 31
0.0
 11
-47.40343486705927
 21
-89.27785615827264
 31
0.0
 11
-47.57800621679622
 21
-89.5424370872164
 31
0.0
 11
-47.73474368424301
 21
-89.85306026883886
 31
0.0
  0
SPLINE
  5
C2
330
47
100
AcDbEntity
  8
0
  6
Continuous
 62
     7
100
AcDbSpline
210
0.0
220
0.0
230
1.0
 70
     8
 71
     3
 72
     9
 73
     5
 74
     3
 42
0.000000001
 43
0.0000000001
 44
0.00000001
 40
0.0
 40
0.0
 40
0.0
 40
0.0
 40
0.6665677779444075
 40
1.438477332245777
 40
1.438477332245777
 40
1.438477332245777
 40
1.438477332245777
 10
-45.64346338026903
 20
-88.69422586289419
 30
0.0
 10
-45.86858223391686
 20
-88.6636911565537
 30
0.0
 10
-46.35439684758481
 20
-88.59779617720584
 30
0.0
 10
-46.79598245142201
 20
-88.81544361173462
 30
0.0
 10
-47.03294422720823
 20
-88.93223665736146
 30
0.0
 11
-45.64346338026903
 21
-88.69422586289419
 31
0.0
 11
-46.30932286845297
 21
-88.6635053933545
 31
0.0
 11
-47.03294422720823
 21
-88.93223665736146
 31
0.0
  0
SPLINE
  5
C3
330
47
100
AcDbEntity
  8
0
  6
Continuous
 62
     7
100
AcDbSpline
210
0.0
220
0.0
230
1.0
 70
     8
 71
     3
 72
    11
 73
     7
 74
     5
 42
0.000000001
 43
0.0000000001
 44
0.00000001
 40
0.0
 40
0.0
 40
0.0
 40
0.0
 40
0.5327691247276718
 40
1.006650685995616
 40
1.434238295670266
 40
1.835839779545289
 40
1.835839779545289
 40
1.835839779545289
 40
1.835839779545289
 10
-44.42819077329295
 20
-89.99060565591645
 30
0.0
 10
-44.50117366309415
 20
-89.82810816303667
 30
0.0
 10
-44.63907257545945
 20
-89.52107421240466
 30
0.0
 10
-44.92751031251565
 20
-89.13629381706087
 30
0.0
 10
-45.25798843180634
 20
-88.84295088303361
 30
0.0
 10
-45.51768461931848
 20
-88.7427541702141
 30
0.0
 10
-45.64346338026903
 20
-88.69422586289419
 30
0.0
 11
-44.42819077329295
 21
-89.99060565591645
 31
0.0
 11
-44.66521944101705
 21
-89.51346799224389
 31
0.0
 11
-44.9499001733342
 21
-89.13462684234788
 31
0.0
 11
-45.27771549757692
 21
-88.8600940031718
 31
0.0
 11
-45.64346338026903
 21
-88.69422586289419
 31
0.0
  0
SPLINE
  5
C4
330
47
100
AcDbEntity
  8
0
  6
Continuous
 62
     7
100
AcDbSpline
210
0.0
220
0.0
230
1.0
 70
     8
 71
     3
 72
    11
 73
     7
 74
     5
 42
0.000000001
 43
0.0000000001
 44
0.00000001
 40
0.0
 40
0.0
 40
0.0
 40
0.0
 40
0.5838565749679518
 40
1.103178834103937
 40
1.571767995688065
 40
2.011879211108726
 40
2.011879211108726
 40
2.011879211108726
 40
2.011879211108726
 10
-44.11751271490408
 20
-89.4423778010468
 30
0.0
 10
-44.19749396399085
 20
-89.26429835681819
 30
0.0
 10
-44.34861605853605
 20
-88.927822793803
 30
0.0
 10
-44.66471220930836
 20
-88.50614564847888
 30
0.0
 10
-45.02688001107589
 20
-88.1846739391543
 30
0.0
 10
-45.31147857349477
 20
-88.07486932359073
 30
0.0
 10
-45.44931831159019
 20
-88.02168761691281
 30
0.0
 11
-44.11751271490408
 21
-89.4423778010468
 31
0.0
 11
-44.37727015898528
 21
-88.91948721072072
 31
0.0
 11
-44.6892490437164
 21
-88.50431882727304
 31
0.0
 11
-45.04849871411939
 21
-88.20346092132662
 31
0.0
 11
-45.44931831159019
 21
-88.02168761691281
 31
0.0
  0
SPLINE
  5
C5
330
47
100
AcDbEntity
  8
0
  6
Continuous
 62
     7
100
AcDbSpline
210
0.0
220
0.0
230
1.0
 70
     8
 71
     3
 72
     9
 73
     5
 74
     3
 42
0.000000001
 43
0.0000000001
 44
0.00000001
 40
0.0
 40
0.0
 40
0.0
 40
0.0
 40
0.8028151284506635
 40
1.753488572989002
 40
1.753488572989002
 40
1.753488572989002
 40
1.753488572989002
 10
-45.44931831159019
 20
-88.02168761691281
 30
0.0
 10
-45.72172186767185
 20
-87.9895912047981
 30
0.0
 10
-46.31669884918333
 20
-87.9194870496413
 30
0.0
 10
-46.84184010116608
 20
-88.21448301164332
 30
0.0
 10
-47.12655130233583
 20
-88.3744183823551
 30
0.0
 11
-45.44931831159019
 21
-88.02168761691281
 31
0.0
 11
-46.25189026779609
 21
-88.0019293532027
 31
0.0
 11
-47.12655130233583
 21
-88.3744183823551
 31
0.0
  0
SPLINE
  5
C6
330
47
100
AcDbEntity
  8
0
  6
Continuous
 62
     7
100
AcDbSpline
210
0.0
220
0.0
230
1.0
 70
     8
 71
     3
 72
    13
 73
     9
 74
     7
 42
0.000000001
 43
0.0000000001
 44
0.00000001
 40
0.0
 40
0.0
 40
0.0
 40
0.0
 40
0.1413724973855981
 40
0.3262102426557084
 40
0.5639228457658526
 40
0.8445438645797376
 40
1.148948766719911
 40
1.454076111156707
 40
1.454076111156707
 40
1.454076111156707
 40
1.454076111156707
 10
-48.79659824487379
 20
-103.0055925762824
 30
0.0
 10
-48.75574417623402
 20
-103.0313839209309
 30
0.0
 10
-48.66147538775835
 20
-103.0908962199626
 30
0.0
 10
-48.59902164366594
 20
-103.279895223976
 30
0.0
 10
-48.57266376972547
 20
-103.510862736103
 30
0.0
 10
-48.59379362538306
 20
-103.786552827773
 30
0.0
 10
-48.65402466374636
 20
-104.078031307795
 30
0.0
 10
-48.72806051864208
 20
-104.2676219114474
 30
0.0
 10
-48.76512232139069
 20
-104.3625295686056
 30
0.0
 11
-48.79659824487379
 21
-103.0055925762824
 31
0.0
 11
-48.68495597932455
 21
-103.0923231336415
 31
0.0
 11
-48.61080121346135
 21
-103.2616336898305
 31
0.0
 11
-48.58115841501978
 21
-103.4974908196429
 31
0.0
 11
-48.59883375427688
 21
-103.777554631125
 31
0.0
 11
-48.66215452850574
 21
-104.075300872525
 31
0.0
 11
-48.76512232139069
 21
-104.3625295686056
 31
0.0
  0
SPLINE
  5
C7
330
47
100
AcDbEntity
  8
0
  6
Continuous
 62
     7
100
AcDbSpline
210
0.0
220
0.0
230
1.0
 70
     8
 71
     3
 72
    15
 73
    11
 74
     9
 42
0.000000001
 43
0.0000000001
 44
0.00000001
 40
0.0
 40
0.0
 40
0.0
 40
0.0
 40
0.4584818169399935
 40
0.978731454756092
 40
1.593969299275573
 40
2.314880320381663
 40
3.136970614026794
 40
4.046099874139649
 40
5.021862915990484
 40
6.039824009755652
 40
6.039824009755652
 40
6.039824009755652
 40
6.039824009755652
 10
-48.99551895778366
 20
-103.6766531532783
 30
0.0
 10
-49.13484257550994
 20
-103.6092950930782
 30
0.0
 10
-49.43225982992028
 20
-103.465504314285
 30
0.0
 10
-49.75941884240999
 20
-103.0262424782231
 30
0.0
 10
-50.00710972789859
 20
-102.4581282209342
 30
0.0
 10
-50.16657902027526
 20
-101.7522061593169
 30
0.0
 10
-50.23782519988868
 20
-100.9363752686437
 30
0.0
 10
-50.21636284425744
 20
-100.0328689190418
 30
0.0
 10
-50.10925065794096
 20
-99.06949270453183
 30
0.0
 10
-49.9677556785712
 20
-98.41977680599899
 30
0.0
 10
-49.89551078720947
 20
-98.08804309468789
 30
0.0
 11
-48.99551895778366
 21
-103.6766531532783
 31
0.0
 11
-49.3923061990686
 21
-103.4469457988845
 31
0.0
 11
-49.72280278194615
 21
-103.0451601619154
 31
0.0
 11
-49.97614402726587
 21
-102.4845035673168
 31
0.0
 11
-50.14400212871929
 21
-101.7834070281234
 31
0.0
 11
-50.22085876852282
 21
-100.9649172557982
 31
0.0
 11
-50.20418776325388
 21
-100.0559408594389
 31
0.0
 11
-50.09453680854607
 21
-99.08635838101915
 31
0.0
 11
-49.89551078720947
 21
-98.08804309468789
 31
0.0
  0
SPLINE
  5
C8
330
47
100
AcDbEntity
  8
0
  6
Continuous
 62
     7
100
AcDbSpline
210
0.0
220
0.0
230
1.0
 70
     8
 71
     3
 72
    13
 73
     9
 74
     7
 42
0.000000001
 43
0.0000000001
 44
0.00000001
 40
0.0
 40
0.0
 40
0.0
 40
0.0
 40
0.5110306789384037
 40
1.122050811163832
 40
1.874964766127317
 40
2.77056363973962
 40
3.785851272106361
 40
4.884099744736188
 40
4.884099744736188
 40
4.884099744736188
 40
4.884099744736188
 10
-48.79659824487379
 20
-103.0055925762824
 30
0.0
 10
-48.94956914468312
 20
-102.9239948389532
 30
0.0
 10
-49.28544157699844
 20
-102.7448337484655
 30
0.0
 10
-49.60310291604701
 20
-102.1764125683472
 30
0.0
 10
-49.81176812805307
 20
-101.4539912391414
 30
0.0
 10
-49.89367097862485
 20
-100.5640592768553
 30
0.0
 10
-49.85874645631144
 20
-99.55918538881694
 30
0.0
 10
-49.73780085303122
 20
-98.86432236047105
 30
0.0
 10
-49.67495436371297
 20
-98.50325341162119
 30
0.0
 11
-48.79659824487379
 21
-103.0055925762824
 31
0.0
 11
-49.22527370551759
 21
-102.727402514127
 31
0.0
 11
-49.55796573786263
 21
-102.2148972734388
 31
0.0
 11
-49.77740799185858
 21
-101.4946719481797
 31
0.0
 11
-49.87221331035386
 21
-100.6041051098949
 31
0.0
 11
-49.83746054552474
 21
-99.5894124361424
 31
0.0
 11
-49.67495436371297
 21
-98.50325341162119
 31
0.0
  0
SPLINE
  5
C9
330
47
100
AcDbEntity
  8
0
  6
Continuous
 62
     7
100
AcDbSpline
210
0.0
220
0.0
230
1.0
 70
     8
 71
     3
 72
    11
 73
     7
 74
     5
 42
0.000000001
 43
0.0000000001
 44
0.00000001
 40
0.0
 40
0.0
 40
0.0
 40
0.0
 40
1.672228186847203
 40
3.332864075196666
 40
4.938607554975855
 40
6.449065873640887
 40
6.449065873640887
 40
6.449065873640887
 40
6.449065873640887
 10
-45.06215712300055
 20
-100.3432823862669
 30
0.0
 10
-44.88867115963324
 20
-99.8132053286903
 30
0.0
 10
-44.5429018947784
 20
-98.7567258341937
 30
0.0
 10
-44.189831350524
 20
-97.1467995073136
 30
0.0
 10
-43.95329999350585
 20
-95.56930200779368
 30
0.0
 10
-43.92128750190422
 20
-94.53024953941639
 30
0.0
 10
-43.9057706918879
 20
-94.02660903499293
 30
0.0
 11
-45.06215712300055
 21
-100.3432823862669
 31
0.0
 11
-44.5687606106189
 21
-98.74550048909187
 31
0.0
 11
-44.20446036651887
 21
-97.12531627470312
 31
0.0
 11
-43.98105263271687
 21
-95.53519014432851
 31
0.0
 11
-43.9057706918879
 21
-94.02660903499293
 31
0.0
  0
SPLINE
  5
CA
330
47
100
AcDbEntity
  8
0
  6
Continuous
 62
     7
100
AcDbSpline
210
0.0
220
0.0
230
1.0
 70
     8
 71
     3
 72
    11
 73
     7
 74
     5
 42
0.000000001
 43
0.0000000001
 44
0.00000001
 40
0.0
 40
0.0
 40
0.0
 40
0.0
 40
0.9331236884135462
 40
1.80044287218949
 40
2.595891727016205
 40
3.316321432114741
 40
3.316321432114741
 40
3.316321432114741
 40
3.316321432114741
 10
-43.9057706918879
 20
-93.24718617158695
 30
0.0
 10
-43.91156313627708
 20
-92.93600384245543
 30
0.0
 10
-43.92273955276099
 20
-92.3355839701795
 30
0.0
 10
-44.0240102602432
 20
-91.47534562208375
 30
0.0
 10
-44.17729620369045
 20
-90.69351476791604
 30
0.0
 10
-44.34736474670376
 20
-90.21704876699057
 30
0.0
 10
-44.42819077329295
 20
-89.99060565591645
 30
0.0
 11
-43.9057706918879
 21
-93.24718617158695
 31
0.0
 11
-43.93901266775076
 21
-92.31465478434764
 31
0.0
 11
-44.03826326956602
 21
-91.45303312361031
 31
0.0
 11
-44.20210349404498
 21
-90.67464037973835
 31
0.0
 11
-44.42819077329295
 21
-89.99060565591645
 31
0.0
  0
SPLINE
  5
CB
330
47
100
AcDbEntity
  8
0
  6
Continuous
 62
     7
100
AcDbSpline
210
0.0
220
0.0
230
1.0
 70
     8
 71
     3
 72
    11
 73
     7
 74
     5
 42
0.000000001
 43
0.0000000001
 44
0.00000001
 40
0.0
 40
0.0
 40
0.0
 40
0.0
 40
1.003358804716197
 40
1.935960077665877
 40
2.791281427047154
 40
3.565937023992279
 40
3.565937023992279
 40
3.565937023992279
 40
3.565937023992279
 10
-43.55577069188789
 20
-92.94407728026239
 30
0.0
 10
-43.56199912671477
 20
-92.6094726252921
 30
0.0
 10
-43.57401677773836
 20
-91.9638598593396
 30
0.0
 10
-43.68291001214128
 20
-91.03887238828298
 30
0.0
 10
-43.8477336066811
 20
-90.1981940502257
 30
0.0
 10
-44.03060300888691
 20
-89.68586501727599
 30
0.0
 10
-44.11751271490408
 20
-89.4423778010468
 30
0.0
 11
-43.55577069188789
 21
-92.94407728026239
 31
0.0
 11
-43.59151475195547
 21
-91.94135535849969
 31
0.0
 11
-43.69823582917618
 21
-91.01488045448106
 31
0.0
 11
-43.87440811356218
 21
-90.17789900945746
 31
0.0
 11
-44.11751271490408
 21
-89.4423778010468
 31
0.0
  0
SPLINE
  5
CC
330
47
100
AcDbEntity
  8
0
  6
Continuous
 62
     7
100
AcDbSpline
210
0.0
220
0.0
230
1.0
 70
     8
 71
     3
 72
    11
 73
     7
 74
     5
 42
0.000000001
 43
0.0000000001
 44
0.00000001
 40
0.0
 40
0.0
 40
0.0
 40
0.0
 40
1.798094824577743
 40
3.583724812112171
 40
5.310330704422136
 40
6.934479434210214
 40
6.934479434210214
 40
6.934479434210214
 40
6.934479434210214
 10
-44.7991969619015
 20
-100.5156220267586
 30
0.0
 10
-44.61265291526885
 20
-99.94564669602764
 30
0.0
 10
-44.24085800573398
 20
-98.80964723988252
 30
0.0
 10
-43.86121225976744
 20
-97.07854366240855
 30
0.0
 10
-43.60687746667853
 20
-95.38230979195615
 30
0.0
 10
-43.57245543384136
 20
-94.26504907316952
 30
0.0
 10
-43.55577069188789
 20
-93.72350014366837
 30
0.0
 11
-44.7991969619015
 21
-100.5156220267586
 31
0.0
 11
-44.26866307762016
 21
-98.7975769760328
 31
0.0
 11
-43.87694238503948
 21
-97.05544341217396
 31
0.0
 11
-43.6367190153599
 21
-95.3456303687604
 31
0.0
 11
-43.55577069188789
 21
-93.72350014366837
 31
0.0
  0
SPLINE
  5
CD
330
47
100
AcDbEntity
  8
0
  6
Continuous
 62
     7
100
AcDbSpline
210
0.0
220
0.0
230
1.0
 70
     8
 71
     3
 72
     9
 73
     5
 74
     3
 42
0.000000001
 43
0.0000000001
 44
0.00000001
 40
0.0
 40
0.0
 40
0.0
 40
0.0
 40
0.1570300971117979
 40
0.2936839449579616
 40
0.2936839449579616
 40
0.2936839449579616
 40
0.2936839449579616
 10
-63.27390152445834
 20
-81.95591051142375
 30
0.0
 10
-63.22530236792529
 20
-81.93313094425127
 30
0.0
 10
-63.13441028442664
 20
-81.89052770889617
 30
0.0
 10
-63.03539704018301
 20
-81.90456557674288
 30
0.0
 10
-62.989325264294
 20
-81.91109753515964
 30
0.0
 11
-63.27390152445834
 21
-81.95591051142375
 31
0.0
 11
-63.12578225862008
 21
-81.90376518470715
 31
0.0
 11
-62.989325264294
 21
-81.91109753515964
 31
0.0
  0
SPLINE
  5
CE
330
47
100
AcDbEntity
  8
0
  6
Continuous
 62
     7
100
AcDbSpline
210
0.0
220
0.0
230
1.0
 70
     8
 71
     3
 72
    13
 73
     9
 74
     7
 42
0.000000001
 43
0.0000000001
 44
0.00000001
 40
0.0
 40
0.0
 40
0.0
 40
0.0
 40
0.3246959842097862
 40
0.6722237951361525
 40
1.028088945507353
 40
1.377087998196203
 40
1.704599199421749
 40
1.997950406606902
 40
1.997950406606902
 40
1.997950406606902
 40
1.997950406606902
 10
-64.9442371109472
 20
-84.71895731628831
 30
0.0
 10
-64.93985073418322
 20
-84.61069329520728
 30
0.0
 10
-64.93076952640588
 20
-84.38655239310017
 30
0.0
 10
-64.86747295252934
 20
-84.04871271675177
 30
0.0
 10
-64.77260956364228
 20
-83.71049334745496
 30
0.0
 10
-64.64536756904796
 20
-83.39035718401749
 30
0.0
 10
-64.49794071005769
 20
-83.10112926385708
 30
0.0
 10
-64.37339906757816
 20
-82.93543241502189
 30
0.0
 10
-64.31455439555722
 20
-82.8571423343166
 30
0.0
 11
-64.9442371109472
 21
-84.71895731628831
 31
0.0
 11
-64.92354085045275
 21
-84.39492159814836
 31
0.0
 11
-64.86308007397753
 21
-84.05269349632228
 31
0.0
 11
-64.76604175477155
 21
-83.71031421779524
 31
0.0
 11
-64.63754178538159
 21
-83.38583294186645
 31
0.0
 11
-64.48435406308667
 21
-83.09635563688359
 31
0.0
 11
-64.31455439555722
 21
-82.8571423343166
 31
0.0
  0
SPLINE
  5
CF
330
47
100
AcDbEntity
  8
0
  6
Continuous
 62
     7
100
AcDbSpline
210
0.0
220
0.0
230
1.0
 70
     8
 71
     3
 72
    11
 73
     7
 74
     5
 42
0.000000001
 43
0.0000000001
 44
0.00000001
 40
0.0
 40
0.0
 40
0.0
 40
0.0
 40
0.9592082163699899
 40
2.092700031019597
 40
3.40854760031075
 40
4.892680426016879
 40
4.892680426016879
 40
4.892680426016879
 40
4.892680426016879
 10
-67.20080168999418
 20
-101.9159808068245
 30
0.0
 10
-67.39136337863638
 20
-101.6570704672994
 30
0.0
 10
-67.80711090091484
 20
-101.0922069950953
 30
0.0
 10
-68.16524110789074
 20
-99.99849075713733
 30
0.0
 10
-68.40586540398064
 20
-98.70776858444296
 30
0.0
 10
-68.43093813651387
 20
-97.7730075564167
 30
0.0
 10
-68.44422796000778
 20
-97.27753639886366
 30
0.0
 11
-67.20080168999418
 21
-101.9159808068245
 31
0.0
 11
-67.73133557427553
 21
-101.1168473988108
 31
0.0
 11
-68.1230562668562
 21
-100.0531939768778
 31
0.0
 11
-68.36327963653578
 21
-98.75946001491464
 31
0.0
 11
-68.44422796000778
 21
-97.27753639886366
 31
0.0
  0
SPLINE
  5
D0
330
47
100
AcDbEntity
  8
0
  6
Continuous
 62
     7
100
AcDbSpline
210
0.0
220
0.0
230
1.0
 70
     8
 71
     3
 72
    11
 73
     7
 74
     5
 42
0.000000001
 43
0.0000000001
 44
0.00000001
 40
0.0
 40
0.0
 40
0.0
 40
0.0
 40
1.065232317532681
 40
2.181666044866845
 40
3.337294262357303
 40
4.519158028816101
 40
4.519158028816101
 40
4.519158028816101
 40
4.519158028816101
 10
-68.44422796000778
 20
-96.49811353545766
 30
0.0
 10
-68.43701319960081
 20
-96.14297766815183
 30
0.0
 10
-68.422236879275
 20
-95.41563598909873
 30
0.0
 10
-68.30916319644246
 20
-94.30799523553122
 30
0.0
 10
-68.13718371567447
 20
-93.16892330758435
 30
0.0
 10
-67.96801809533817
 20
-92.40811969250676
 30
0.0
 10
-67.8824859369916
 20
-92.0234483316315
 30
0.0
 11
-68.44422796000778
 21
-96.49811353545766
 31
0.0
 11
-68.4084838999402
 21
-95.43348108558912
 31
0.0
 11
-68.30176282271947
 21
-94.32215985358572
 31
0.0
 11
-68.12559053833348
 21
-93.18003906112011
 31
0.0
 11
-67.8824859369916
 21
-92.0234483316315
 31
0.0
  0
SPLINE
  5
D1
330
47
100
AcDbEntity
  8
0
  6
Continuous
 62
     7
100
AcDbSpline
210
0.0
220
0.0
230
1.0
 70
     8
 71
     3
 72
    13
 73
     9
 74
     7
 42
0.000000001
 43
0.0000000001
 44
0.00000001
 40
0.0
 40
0.0
 40
0.0
 40
0.0
 40
1.273408161580375
 40
2.538590260619442
 40
3.769682679061937
 40
4.942223938773607
 40
6.034314413861825
 40
7.027982339210716
 40
7.027982339210716
 40
7.027982339210716
 40
7.027982339210716
 10
-67.8824859369916
 20
-92.0234483316315
 30
0.0
 10
-67.77596719574805
 20
-91.61238308749324
 30
0.0
 10
-67.56361779737398
 20
-90.79290803480549
 30
0.0
 10
-67.14298693787342
 20
-89.60730079499783
 30
0.0
 10
-66.6594157230254
 20
-88.48283420160962
 30
0.0
 10
-66.11436241149926
 20
-87.45209048502775
 30
0.0
 10
-65.53397529476857
 20
-86.53071382519319
 30
0.0
 10
-65.08658621868523
 20
-85.9976405348528
 30
0.0
 10
-64.87344734955985
 20
-85.74368119757274
 30
0.0
 11
-67.8824859369916
 21
-92.0234483316315
 31
0.0
 11
-67.54508637636513
 21
-90.79555180540632
 31
0.0
 11
-67.12621538848428
 21
-89.60172064577122
 31
0.0
 11
-66.63649337151415
 21
-88.47222478896677
 31
0.0
 11
-66.08833746362737
 21
-87.43570266617314
 31
0.0
 11
-65.49564616064728
 21
-86.51843573130908
 31
0.0
 11
-64.87344734955985
 21
-85.74368119757274
 31
0.0
  0
SPLINE
  5
D2
330
47
100
AcDbEntity
  8
0
  6
Continuous
 62
     7
100
AcDbSpline
210
0.0
220
0.0
230
1.0
 70
     8
 71
     3
 72
     9
 73
     5
 74
     3
 42
0.000000001
 43
0.0000000001
 44
0.00000001
 40
0.0
 40
0.0
 40
0.0
 40
0.0
 40
0.4962489068740132
 40
1.027880437788188
 40
1.027880437788188
 40
1.027880437788188
 40
1.027880437788188
 10
-64.87344734955985
 20
-85.74368119757274
 30
0.0
 10
-64.89417690253485
 20
-85.57942997687253
 30
0.0
 10
-64.93711400890881
 20
-85.23921639615577
 30
0.0
 10
-64.9418088801285
 20
-84.89631160225397
 30
0.0
 10
-64.9442371109472
 20
-84.71895731628831
 30
0.0
 11
-64.87344734955985
 21
-85.74368119757274
 31
0.0
 11
-64.92672231607938
 21
-85.25030025358912
 31
0.0
 11
-64.9442371109472
 21
-84.71895731628831
 31
0.0
  0
ENDBLK
  5
49
330
47
100
AcDbEntity
  8
0
100
AcDbBlockEnd
  0
BLOCK
  5
4C
330
4A
100
AcDbEntity
  8
0
100
AcDbBlockBegin
  2
Allg1
 70
     0
 10
-53.83493600000002
 20
-94.125
 30
0.0
  3
Allg1
  1

  0
INSERT
  5
4B
330
4A
100
AcDbEntity
  8
0
100
AcDbBlockReference
  2
0828062_PATG_6_18-select__1
 10
-68.44422796000778
 20
-106.7493362656136
 30
0.0
  0
MTEXT
  5
D4
330
4A
100
AcDbEntity
  8
1
 62
     6
100
AcDbMText
 10
-55.99999999999602
 20
-111.8307401510812
 30
0.0
 40
2.5
 41
0.0
 71
     2
 72
     1
  1
 
  7
CONVERTER_11
 73
     1
 44
1.32052821128451
  0
ENDBLK
  5
4D
330
4A
100
AcDbEntity
  8
0
100
AcDbBlockEnd
  0
BLOCK
  5
4F
330
4E
100
AcDbEntity
  8
0
100
AcDbBlockBegin
  2
0828062_PATG_6_18-select__2
 70
     0
 10
-126.100000999995
 20
-98.40999963298206
 30
0.0
  3
0828062_PATG_6_18-select__2
  1

  0
LINE
  5
D5
330
4E
100
AcDbEntity
  8
0
  6
Continuous
 62
     7
100
AcDbLine
 10
-126.100000999995
 20
-91.41001793486089
 30
0.0
 11
-126.100000999995
 21
-90.15065250408095
 31
0.0
  0
LINE
  5
D6
330
4E
100
AcDbEntity
  8
0
  6
Continuous
 62
     7
100
AcDbLine
 10
-108.100000999995
 20
-91.41001793486089
 30
0.0
 11
-108.100000999995
 21
-90.15065250408095
 31
0.0
  0
LINE
  5
D7
330
4E
100
AcDbEntity
  8
0
  6
Continuous
 62
     2
100
AcDbLine
 10
-126.100000999995
 20
-90.15065250408095
 30
0.0
 11
-108.100000999995
 21
-90.15065250408095
 31
0.0
  0
LINE
  5
D8
330
4E
100
AcDbEntity
  8
0
  6
Continuous
 62
     7
100
AcDbLine
 10
-126.100000999995
 20
-90.15065250408095
 30
0.0
 11
-126.100000999995
 21
-88.06934676188317
 31
0.0
  0
LINE
  5
D9
330
4E
100
AcDbEntity
  8
0
  6
Continuous
 62
     7
100
AcDbLine
 10
-108.100000999995
 20
-90.15065250408095
 30
0.0
 11
-108.100000999995
 21
-88.06934676188317
 31
0.0
  0
LINE
  5
DA
330
4E
100
AcDbEntity
  8
0
  6
Continuous
 62
     7
100
AcDbLine
 10
-108.100000999995
 20
-91.41002432774354
 30
0.0
 11
-126.100000999995
 21
-91.41002432774354
 31
0.0
  0
LINE
  5
DB
330
4E
100
AcDbEntity
  8
0
  6
Continuous
 62
     7
100
AcDbLine
 10
-126.100000999995
 20
-79.80999963298207
 30
0.0
 11
-108.100000999995
 21
-79.80999963298207
 31
0.0
  0
LINE
  5
DC
330
4E
100
AcDbEntity
  8
0
  6
Continuous
 62
     7
100
AcDbLine
 10
-126.100000999995
 20
-79.80999963298207
 30
0.0
 11
-126.100000999995
 21
-80.93348367901446
 31
0.0
  0
LINE
  5
DD
330
4E
100
AcDbEntity
  8
0
  6
Continuous
 62
     2
100
AcDbLine
 10
-126.100000999995
 20
-80.93348367901446
 30
0.0
 11
-108.100000999995
 21
-80.93348367901446
 31
0.0
  0
LINE
  5
DE
330
4E
100
AcDbEntity
  8
0
  6
Continuous
 62
     7
100
AcDbLine
 10
-126.100000999995
 20
-80.93348367901446
 30
0.0
 11
-126.100000999995
 21
-86.80997493822059
 31
0.0
  0
LINE
  5
DF
330
4E
100
AcDbEntity
  8
0
  6
Continuous
 62
     7
100
AcDbLine
 10
-108.100000999995
 20
-88.06934676188317
 30
0.0
 11
-108.100000999995
 21
-86.80998133110324
 31
0.0
  0
LINE
  5
E0
330
4E
100
AcDbEntity
  8
0
  6
Continuous
 62
     7
100
AcDbLine
 10
-108.100000999995
 20
-86.80998133110324
 30
0.0
 11
-108.100000999995
 21
-86.80997493822059
 31
0.0
  0
LINE
  5
E1
330
4E
100
AcDbEntity
  8
0
  6
Continuous
 62
     7
100
AcDbLine
 10
-108.100000999995
 20
-86.80997493822059
 30
0.0
 11
-108.100000999995
 21
-80.93348367901446
 31
0.0
  0
LINE
  5
E2
330
4E
100
AcDbEntity
  8
0
  6
Continuous
 62
     7
100
AcDbLine
 10
-108.100000999995
 20
-98.40999963298206
 30
0.0
 11
-126.100000999995
 21
-98.40999963298206
 31
0.0
  0
LINE
  5
E3
330
4E
100
AcDbEntity
  8
0
  6
Continuous
 62
     7
100
AcDbLine
 10
-108.100000999995
 20
-97.28651558694966
 30
0.0
 11
-108.100000999995
 21
-91.41002432774354
 31
0.0
  0
LINE
  5
E4
330
4E
100
AcDbEntity
  8
0
  6
Continuous
 62
     7
100
AcDbLine
 10
-108.100000999995
 20
-91.41002432774354
 30
0.0
 11
-108.100000999995
 21
-91.41001793486089
 31
0.0
  0
LINE
  5
E5
330
4E
100
AcDbEntity
  8
0
  6
Continuous
 62
     7
100
AcDbLine
 10
-108.100000999995
 20
-98.40999963298206
 30
0.0
 11
-108.100000999995
 21
-97.28651558694966
 31
0.0
  0
LINE
  5
E6
330
4E
100
AcDbEntity
  8
0
  6
Continuous
 62
     7
100
AcDbLine
 10
-108.100000999995
 20
-79.80999963298207
 30
0.0
 11
-108.100000999995
 21
-80.93348367901446
 31
0.0
  0
LINE
  5
E7
330
4E
100
AcDbEntity
  8
0
  6
Continuous
 62
     7
100
AcDbLine
 10
-126.100000999995
 20
-86.80998133110324
 30
0.0
 11
-126.100000999995
 21
-86.80997493822059
 31
0.0
  0
LINE
  5
E8
330
4E
100
AcDbEntity
  8
0
  6
Continuous
 62
     7
100
AcDbLine
 10
-126.100000999995
 20
-88.06934676188317
 30
0.0
 11
-126.100000999995
 21
-86.80998133110324
 31
0.0
  0
LINE
  5
E9
330
4E
100
AcDbEntity
  8
0
  6
Continuous
 62
     2
100
AcDbLine
 10
-126.100000999995
 20
-88.06934676188317
 30
0.0
 11
-108.100000999995
 21
-88.06934676188317
 31
0.0
  0
LINE
  5
EA
330
4E
100
AcDbEntity
  8
0
  6
Continuous
 62
     2
100
AcDbLine
 10
-126.100000999995
 20
-86.80998133110324
 30
0.0
 11
-108.100000999995
 21
-86.80998133110324
 31
0.0
  0
LINE
  5
EB
330
4E
100
AcDbEntity
  8
0
  6
Continuous
 62
     7
100
AcDbLine
 10
-126.100000999995
 20
-86.80997493822059
 30
0.0
 11
-108.100000999995
 21
-86.80997493822059
 31
0.0
  0
LINE
  5
EC
330
4E
100
AcDbEntity
  8
0
  6
Continuous
 62
     7
100
AcDbLine
 10
-126.100000999995
 20
-97.28651558694966
 30
0.0
 11
-126.100000999995
 21
-91.41002432774354
 31
0.0
  0
LINE
  5
ED
330
4E
100
AcDbEntity
  8
0
  6
Continuous
 62
     7
100
AcDbLine
 10
-126.100000999995
 20
-91.41002432774354
 30
0.0
 11
-126.100000999995
 21
-91.41001793486089
 31
0.0
  0
LINE
  5
EE
330
4E
100
AcDbEntity
  8
0
  6
Continuous
 62
     7
100
AcDbLine
 10
-126.100000999995
 20
-98.40999963298206
 30
0.0
 11
-126.100000999995
 21
-97.28651558694966
 31
0.0
  0
LINE
  5
EF
330
4E
100
AcDbEntity
  8
0
  6
Continuous
 62
     2
100
AcDbLine
 10
-126.100000999995
 20
-97.28651558694966
 30
0.0
 11
-108.100000999995
 21
-97.28651558694966
 31
0.0
  0
LINE
  5
F0
330
4E
100
AcDbEntity
  8
0
  6
Continuous
 62
     2
100
AcDbLine
 10
-126.100000999995
 20
-91.41001793486089
 30
0.0
 11
-108.100000999995
 21
-91.41001793486089
 31
0.0
  0
ENDBLK
  5
50
330
4E
100
AcDbEntity
  8
0
100
AcDbBlockEnd
  0
BLOCK
  5
53
330
51
100
AcDbEntity
  8
0
100
AcDbBlockBegin
  2
Drfsicht1
 70
     0
 10
-114.600001
 20
-89.11
 30
0.0
  3
Drfsicht1
  1

  0
INSERT
  5
52
330
51
100
AcDbEntity
  8
0
100
AcDbBlockReference
  2
0828062_PATG_6_18-select__2
 10
-126.100000999995
 20
-98.40999963298206
 30
0.0
  0
MTEXT
  5
F1
330
51
100
AcDbEntity
  8
1
 62
     6
100
AcDbMText
 10
-117.1000011304461
 20
-100.9099999010563
 30
0.0
 40
2.5
 41
0.0
 71
     2
 72
     1
  1
 
  7
CONVERTER_11
 73
     1
 44
1.32052821128451
  0
DIMENSION
  5
FC
330
51
100
AcDbEntity
  8
1
100
AcDbDimension
  2
*D16
 10
-131.100000999995
 20
-79.80999963298207
 30
0.0
 11
-132.812500999995
 21
-89.10999963298205
 31
0.0
 70
    32
  1
<>
 71
     5
 42
-1.0
 53
90.0
  3
ME10_DIM_10
100
AcDbAlignedDimension
 13
-126.100000999995
 23
-98.40999963298206
 33
0.0
 14
-126.100000999995
 24
-79.80999963298207
 34
0.0
 50
90.0
100
AcDbRotatedDimension
  0
ENDBLK
  5
54
330
51
100
AcDbEntity
  8
0
100
AcDbBlockEnd
  0
BLOCK
  5
56
330
55
100
AcDbEntity
  8
0
100
AcDbBlockBegin
  2
0828062_PATG_6_18-select__3
 70
     0
 10
-64.50000000000497
 20
-64.80999970837598
 30
0.0
  3
0828062_PATG_6_18-select__3
  1

  0
LINE
  5
FD
330
55
100
AcDbEntity
  8
0
  6
Continuous
 62
     2
100
AcDbLine
 10
-46.50000000000498
 20
-63.40944023350419
 30
0.0
 11
-64.50000000000497
 21
-63.40944023350419
 31
0.0
  0
LINE
  5
FE
330
55
100
AcDbEntity
  8
0
  6
Continuous
 62
     7
100
AcDbLine
 10
-46.50000000000498
 20
-64.80999970837598
 30
0.0
 11
-46.50000000000498
 21
-63.40944023350419
 31
0.0
  0
LINE
  5
FF
330
55
100
AcDbEntity
  8
0
  6
Continuous
 62
     7
100
AcDbLine
 10
-46.50000000000498
 20
-64.80999970837598
 30
0.0
 11
-64.50000000000497
 21
-64.80999970837598
 31
0.0
  0
LINE
  5
100
330
55
100
AcDbEntity
  8
0
  6
Continuous
 62
     7
100
AcDbLine
 10
-64.50000000000497
 20
-64.80999970837598
 30
0.0
 11
-64.50000000000497
 21
-63.40944023350419
 31
0.0
  0
LINE
  5
101
330
55
100
AcDbEntity
  8
0
  6
Continuous
 62
     2
100
AcDbLine
 10
-46.50000000000498
 20
-55.90999970837599
 30
0.0
 11
-64.50000000000497
 21
-55.90999970837599
 31
0.0
  0
LINE
  5
102
330
55
100
AcDbEntity
  8
0
  6
Continuous
 62
     2
100
AcDbLine
 10
-46.50000000000498
 20
-51.3048434114672
 30
0.0
 11
-64.50000000000497
 21
-51.3048434114672
 31
0.0
  0
LINE
  5
103
330
55
100
AcDbEntity
  8
0
  6
Continuous
 62
     7
100
AcDbLine
 10
-64.50000000000497
 20
-55.90999970837599
 30
0.0
 11
-64.50000000000497
 21
-51.3048434114672
 31
0.0
  0
LINE
  5
104
330
55
100
AcDbEntity
  8
0
  6
Continuous
 62
     7
100
AcDbLine
 10
-64.50000000000497
 20
-51.3048434114672
 30
0.0
 11
-64.50000000000497
 21
-47.06263150830496
 31
0.0
  0
LINE
  5
105
330
55
100
AcDbEntity
  8
0
  6
Continuous
 62
     7
100
AcDbLine
 10
-64.50000000000497
 20
-47.06263150830496
 30
0.0
 11
-64.50000000000497
 21
-45.80859252950842
 31
0.0
  0
LINE
  5
106
330
55
100
AcDbEntity
  8
0
  6
Continuous
 62
     7
100
AcDbLine
 10
-64.50000000000497
 20
-44.28843648285309
 30
0.0
 11
-64.50000000000497
 21
-45.80859252950842
 31
0.0
  0
LINE
  5
107
330
55
100
AcDbEntity
  8
0
  6
Continuous
 62
     7
100
AcDbLine
 10
-64.50000000000497
 20
-63.40944023350419
 30
0.0
 11
-64.50000000000497
 21
-56.80999970837597
 31
0.0
  0
LINE
  5
108
330
55
100
AcDbEntity
  8
0
  6
Continuous
 62
     7
100
AcDbLine
 10
-64.50000000000497
 20
-55.90999970837599
 30
0.0
 11
-64.50000000000497
 21
-56.80999970837597
 31
0.0
  0
LINE
  5
109
330
55
100
AcDbEntity
  8
0
  6
Continuous
 62
     7
100
AcDbLine
 10
-46.50000000000498
 20
-55.90999970837599
 30
0.0
 11
-46.50000000000498
 21
-51.3048434114672
 31
0.0
  0
LINE
  5
10A
330
55
100
AcDbEntity
  8
0
  6
Continuous
 62
     7
100
AcDbLine
 10
-46.50000000000498
 20
-51.3048434114672
 30
0.0
 11
-46.50000000000498
 21
-47.06263150830496
 31
0.0
  0
LINE
  5
10B
330
55
100
AcDbEntity
  8
0
  6
Continuous
 62
     7
100
AcDbLine
 10
-46.50000000000498
 20
-47.06263150830496
 30
0.0
 11
-46.50000000000498
 21
-45.80859252950842
 31
0.0
  0
LINE
  5
10C
330
55
100
AcDbEntity
  8
0
  6
Continuous
 62
     7
100
AcDbLine
 10
-46.50000000000498
 20
-63.40944023350419
 30
0.0
 11
-46.50000000000498
 21
-56.80999970837597
 31
0.0
  0
LINE
  5
10D
330
55
100
AcDbEntity
  8
0
  6
Continuous
 62
     7
100
AcDbLine
 10
-46.50000000000498
 20
-55.90999970837599
 30
0.0
 11
-46.50000000000498
 21
-56.80999970837597
 31
0.0
  0
LINE
  5
10E
330
55
100
AcDbEntity
  8
0
  6
Continuous
 62
     7
100
AcDbLine
 10
-46.50000000000498
 20
-44.28843648285309
 30
0.0
 11
-46.50000000000498
 21
-44.18999970837598
 31
0.0
  0
LINE
  5
10F
330
55
100
AcDbEntity
  8
0
  6
Continuous
 62
     7
100
AcDbLine
 10
-64.50000000000497
 20
-44.28843648285309
 30
0.0
 11
-64.50000000000497
 21
-44.18999970837598
 31
0.0
  0
LINE
  5
110
330
55
100
AcDbEntity
  8
0
  6
Continuous
 62
     7
100
AcDbLine
 10
-46.50000000000498
 20
-44.28843648285309
 30
0.0
 11
-46.50000000000498
 21
-45.80859252950842
 31
0.0
  0
LINE
  5
111
330
55
100
AcDbEntity
  8
0
  6
Continuous
 62
     2
100
AcDbLine
 10
-46.50000000000498
 20
-44.28843648285309
 30
0.0
 11
-64.50000000000497
 21
-44.28843648285309
 31
0.0
  0
LINE
  5
112
330
55
100
AcDbEntity
  8
0
  6
Continuous
 62
     2
100
AcDbLine
 10
-46.50000000000498
 20
-45.80859252950842
 30
0.0
 11
-64.50000000000497
 21
-45.80859252950842
 31
0.0
  0
LINE
  5
113
330
55
100
AcDbEntity
  8
0
  6
Continuous
 62
     7
100
AcDbLine
 10
-46.50000000000498
 20
-47.06263150830496
 30
0.0
 11
-64.50000000000497
 21
-47.06263150830496
 31
0.0
  0
LINE
  5
114
330
55
100
AcDbEntity
  8
0
  6
Continuous
 62
     7
100
AcDbLine
 10
-46.50000000000498
 20
-44.18999970837598
 30
0.0
 11
-64.50000000000497
 21
-44.18999970837598
 31
0.0
  0
LINE
  5
115
330
55
100
AcDbEntity
  8
0
  6
Continuous
 62
     2
100
AcDbLine
 10
-46.50000000000498
 20
-56.80999970837597
 30
0.0
 11
-64.50000000000497
 21
-56.80999970837597
 31
0.0
  0
ENDBLK
  5
57
330
55
100
AcDbEntity
  8
0
100
AcDbBlockEnd
  0
BLOCK
  5
5A
330
58
100
AcDbEntity
  8
0
100
AcDbBlockBegin
  2
Rckans1
 70
     0
 10
-58.0
 20
-54.50000000000005
 30
0.0
  3
Rckans1
  1

  0
INSERT
  5
59
330
58
100
AcDbEntity
  8
0
100
AcDbBlockReference
  2
0828062_PATG_6_18-select__3
 10
-64.50000000000497
 20
-64.80999970837598
 30
0.0
  0
MTEXT
  5
116
330
58
100
AcDbEntity
  8
1
 62
     6
100
AcDbMText
 10
-55.50000000001251
 20
-67.30999994277954
 30
0.0
 40
2.5
 41
0.0
 71
     2
 72
     1
  1
 
  7
CONVERTER_11
 73
     1
 44
1.32052821128451
  0
ENDBLK
  5
5B
330
58
100
AcDbEntity
  8
0
100
AcDbBlockEnd
  0
BLOCK
  5
5D
330
5C
100
AcDbEntity
  8
0
100
AcDbBlockBegin
  2
0828062_PATG_6_18-select__4
 70
     0
 10
-95.59999981269483
 20
-64.80999970837593
 30
0.0
  3
0828062_PATG_6_18-select__4
  1

  0
LINE
  5
117
330
5C
100
AcDbEntity
  8
0
  6
Continuous
 62
     7
100
AcDbLine
 10
-95.59999981269483
 20
-55.90999970837593
 30
0.0
 11
-95.59999981269483
 21
-56.80999970837593
 31
0.0
  0
LINE
  5
118
330
5C
100
AcDbEntity
  8
0
  6
Continuous
 62
     7
100
AcDbLine
 10
-89.67948000333799
 20
-55.50999970837594
 30
0.0
 11
-82.92051962205167
 21
-55.50999970837594
 31
0.0
  0
LINE
  5
119
330
5C
100
AcDbEntity
  8
0
  6
Continuous
 62
     7
100
AcDbLine
 10
-83.36163246904465
 20
-56.20999970837593
 30
0.0
 11
-89.23836715634499
 21
-56.20999970837593
 31
0.0
  0
LINE
  5
11A
330
5C
100
AcDbEntity
  8
0
  6
Continuous
 62
     7
100
AcDbLine
 10
-76.99999981269482
 20
-55.90999970837593
 30
0.0
 11
-76.99999981269482
 21
-56.80999970837593
 31
0.0
  0
LINE
  5
11B
330
5C
100
AcDbEntity
  8
0
  6
Continuous
 62
     7
100
AcDbLine
 10
-77.69999981269484
 20
-55.90999970837593
 30
0.0
 11
-77.69999981269483
 21
-56.80999970837593
 31
0.0
  0
LINE
  5
11C
330
5C
100
AcDbEntity
  8
0
  6
Continuous
 62
     7
100
AcDbLine
 10
-94.89999981269482
 20
-55.90999970837593
 30
0.0
 11
-94.89999981269482
 21
-56.80999970837593
 31
0.0
  0
ARC
  5
11D
330
5C
100
AcDbEntity
  8
0
  6
Continuous
 62
     7
100
AcDbCircle
 10
-85.59999981269483
 20
-55.90999970837593
 30
0.0
 40
9.300000000000027
100
AcDbArc
 50
152.5796148504468
 51
180.0
  0
ARC
  5
11E
330
5C
100
AcDbEntity
  8
0
  6
Continuous
 62
     7
100
AcDbCircle
 10
-85.59999981269483
 20
-55.90999970837593
 30
0.0
 40
9.999999999999995
100
AcDbArc
 50
152.5796148504468
 51
180.0
  0
ARC
  5
11F
330
5C
100
AcDbEntity
  8
0
  6
Continuous
 62
     7
100
AcDbCircle
 10
-84.63993044852575
 20
-58.17325716581252
 30
0.0
 40
4.999999999999989
100
AcDbArc
 50
156.8804161268833
 51
235.3651093591449
  0
ARC
  5
120
330
5C
100
AcDbEntity
  8
0
  6
Continuous
 62
     7
100
AcDbCircle
 10
-88.34111684582263
 20
-49.52365019458705
 30
0.0
 40
1.749999999999994
100
AcDbArc
 50
51.09462888819254
 51
100.0216630149555
  0
ARC
  5
121
330
5C
100
AcDbEntity
  8
0
  6
Continuous
 62
     7
100
AcDbCircle
 10
-84.63993044852575
 20
-58.17325716581252
 30
0.0
 40
5.699999999999982
100
AcDbArc
 50
152.1448322651394
 51
235.3651093591447
  0
ARC
  5
122
330
5C
100
AcDbEntity
  8
0
  6
Continuous
 62
     7
100
AcDbCircle
 10
-84.54999981269484
 20
-63.10999970837593
 30
0.0
 40
0.9999999999999949
100
AcDbArc
 50
124.6348906408559
 51
230.8541413369846
  0
ARC
  5
123
330
5C
100
AcDbEntity
  8
0
  6
Continuous
 62
     7
100
AcDbCircle
 10
-82.58122842199239
 20
-60.6913848591985
 30
0.0
 40
3.418614849177424
100
AcDbArc
 50
230.854141336985
 51
318.7043939417159
  0
ARC
  5
124
330
5C
100
AcDbEntity
  8
0
  6
Continuous
 62
     7
100
AcDbCircle
 10
-88.04999981269484
 20
-63.10999970837593
 30
0.0
 40
0.2999999999999976
100
AcDbArc
 50
309.1458586630178
 51
55.36510935914325
  0
ARC
  5
125
330
5C
100
AcDbEntity
  8
0
  6
Continuous
 62
     7
100
AcDbCircle
 10
-90.01877120339725
 20
-60.6913848591985
 30
0.0
 40
3.418614849177424
100
AcDbArc
 50
221.2956060582838
 51
309.1458586630148
  0
ARC
  5
126
330
5C
100
AcDbEntity
  8
0
  6
Continuous
 62
     7
100
AcDbCircle
 10
-90.01877120339725
 20
-60.6913848591985
 30
0.0
 40
4.118614849177431
100
AcDbArc
 50
221.2956060582838
 51
309.1458586630147
  0
ARC
  5
127
330
5C
100
AcDbEntity
  8
0
  6
Continuous
 62
     7
100
AcDbCircle
 10
-88.04999981269484
 20
-63.10999970837593
 30
0.0
 40
0.9999999999999978
100
AcDbArc
 50
309.1458586630154
 51
55.36510935914344
  0
ARC
  5
128
330
5C
100
AcDbEntity
  8
0
  6
Continuous
 62
     7
100
AcDbCircle
 10
-82.58122842199239
 20
-60.6913848591985
 30
0.0
 40
4.118614849177433
100
AcDbArc
 50
230.8541413369849
 51
318.7043939417158
  0
ARC
  5
129
330
5C
100
AcDbEntity
  8
0
  6
Continuous
 62
     7
100
AcDbCircle
 10
-86.99999981269482
 20
-56.80999970837593
 30
0.0
 40
9.299999999999988
100
AcDbArc
 50
318.7043939417161
 51
0.0
  0
ARC
  5
12A
330
5C
100
AcDbEntity
  8
0
  6
Continuous
 62
     7
100
AcDbCircle
 10
-86.99999981269482
 20
-56.80999970837593
 30
0.0
 40
9.99999999999999
100
AcDbArc
 50
318.704393941716
 51
0.0
  0
ARC
  5
12B
330
5C
100
AcDbEntity
  8
0
  6
Continuous
 62
     7
100
AcDbCircle
 10
-83.0500245074563
 20
-45.81701636216861
 30
0.0
 40
5.550000000000007
100
AcDbArc
 50
179.9130359920588
 51
192.9696658582868
  0
ARC
  5
12C
330
5C
100
AcDbEntity
  8
0
  6
Continuous
 62
     7
100
AcDbCircle
 10
-86.29999981269484
 20
-49.73999970837593
 30
0.0
 40
5.550000000000013
100
AcDbArc
 50
79.19278420079999
 51
100.8072157991999
  0
ARC
  5
12D
330
5C
100
AcDbEntity
  8
0
  6
Continuous
 62
     7
100
AcDbCircle
 10
-86.29999981269484
 20
-46.9945512923937
 30
0.0
 40
1.500000000000004
100
AcDbArc
 50
231.0946288881922
 51
308.9053711118082
  0
ARC
  5
12E
330
5C
100
AcDbEntity
  8
0
  6
Continuous
 62
     7
100
AcDbCircle
 10
-87.37530300348837
 20
-54.98896844899416
 30
0.0
 40
7.300000000000005
100
AcDbArc
 50
100.0216630149554
 51
152.5796148504469
  0
ARC
  5
12F
330
5C
100
AcDbEntity
  8
0
  6
Continuous
 62
     7
100
AcDbCircle
 10
-87.05001989997331
 20
-45.81094513142249
 30
0.0
 40
1.550000000000012
100
AcDbArc
 50
100.8072157992
 51
179.9130359920585
  0
ARC
  5
130
330
5C
100
AcDbEntity
  8
0
  6
Continuous
 62
     7
100
AcDbCircle
 10
-86.99999981269482
 20
-55.90999970837593
 30
0.0
 40
9.299999999999983
100
AcDbArc
 50
0.0
 51
27.42038514955315
  0
ARC
  5
131
330
5C
100
AcDbEntity
  8
0
  6
Continuous
 62
     7
100
AcDbCircle
 10
-86.99999981269482
 20
-55.90999970837593
 30
0.0
 40
10.0
100
AcDbArc
 50
0.0
 51
27.42038514955316
  0
ARC
  5
132
330
5C
100
AcDbEntity
  8
0
  6
Continuous
 62
     7
100
AcDbCircle
 10
-84.54999981269484
 20
-63.10999970837593
 30
0.0
 40
0.3000000000000013
100
AcDbArc
 50
124.6348906408545
 51
230.8541413369843
  0
ARC
  5
133
330
5C
100
AcDbEntity
  8
0
  6
Continuous
 62
     7
100
AcDbCircle
 10
-87.96006917686393
 20
-58.17325716581252
 30
0.0
 40
5.699999999999999
100
AcDbArc
 50
304.6348906408554
 51
27.8551677348605
  0
ARC
  5
134
330
5C
100
AcDbEntity
  8
0
  6
Continuous
 62
     7
100
AcDbCircle
 10
-87.96006917686393
 20
-58.17325716581252
 30
0.0
 40
5.000000000000005
100
AcDbArc
 50
304.6348906408552
 51
23.11958387311653
  0
ARC
  5
135
330
5C
100
AcDbEntity
  8
0
  6
Continuous
 62
     7
100
AcDbCircle
 10
-84.25888277956703
 20
-49.52365019458705
 30
0.0
 40
1.750000000000002
100
AcDbArc
 50
79.97833698504452
 51
128.9053711118075
  0
ARC
  5
136
330
5C
100
AcDbEntity
  8
0
  6
Continuous
 62
     7
100
AcDbCircle
 10
-85.22469662190127
 20
-54.98896844899416
 30
0.0
 40
7.299999999999991
100
AcDbArc
 50
27.42038514955316
 51
79.97833698504478
  0
ARC
  5
137
330
5C
100
AcDbEntity
  8
0
  6
Continuous
 62
     7
100
AcDbCircle
 10
-89.54997511793334
 20
-45.81701636216862
 30
0.0
 40
5.549999999999992
100
AcDbArc
 50
347.0303341417133
 51
0.08696400794134
  0
ARC
  5
138
330
5C
100
AcDbEntity
  8
0
  6
Continuous
 62
     7
100
AcDbCircle
 10
-85.54997972541635
 20
-45.81094513142249
 30
0.0
 40
1.549999999999999
100
AcDbArc
 50
0.08696400794154
 51
79.19278420080005
  0
ARC
  5
139
330
5C
100
AcDbEntity
  8
0
  6
Continuous
 62
     7
100
AcDbCircle
 10
-85.22469662190127
 20
-54.98896844899416
 30
0.0
 40
7.999999999999961
100
AcDbArc
 50
27.42038514955318
 51
82.21871502325304
  0
ARC
  5
13A
330
5C
100
AcDbEntity
  8
0
  6
Continuous
 62
     7
100
AcDbCircle
 10
-85.59999981269483
 20
-56.80999970837593
 30
0.0
 40
9.299999999999983
100
AcDbArc
 50
180.0
 51
221.2956060582839
  0
ARC
  5
13B
330
5C
100
AcDbEntity
  8
0
  6
Continuous
 62
     7
100
AcDbCircle
 10
-85.59999981269483
 20
-56.80999970837593
 30
0.0
 40
10.0
100
AcDbArc
 50
180.0
 51
221.2956060582839
  0
ARC
  5
13C
330
5C
100
AcDbEntity
  8
0
  6
Continuous
 62
     7
100
AcDbCircle
 10
-87.37530300348837
 20
-54.98896844899416
 30
0.0
 40
8.000000000000005
100
AcDbArc
 50
97.78128497674707
 51
152.5796148504469
  0
ENDBLK
  5
5E
330
5C
100
AcDbEntity
  8
0
100
AcDbBlockEnd
  0
BLOCK
  5
61
330
5F
100
AcDbEntity
  8
0
100
AcDbBlockBegin
  2
SA_Links1
 70
     0
 10
-86.29999944567689
 20
-54.5
 30
0.0
  3
SA_Links1
  1

  0
INSERT
  5
60
330
5F
100
AcDbEntity
  8
0
100
AcDbBlockReference
  2
0828062_PATG_6_18-select__4
 10
-95.59999981269483
 20
-64.80999970837593
 30
0.0
  0
MTEXT
  5
13D
330
5F
100
AcDbEntity
  8
1
 62
     6
100
AcDbMText
 10
-86.2999994456768
 20
-67.30999994277954
 30
0.0
 40
2.5
 41
0.0
 71
     2
 72
     1
  1
 
  7
CONVERTER_11
 73
     1
 44
1.32052821128451
  0
ENDBLK
  5
62
330
5F
100
AcDbEntity
  8
0
100
AcDbBlockEnd
  0
BLOCK
  5
64
330
63
100
AcDbEntity
  8
0
100
AcDbBlockBegin
  2
0828062_PATG_6_18-select__5
 70
     0
 10
-162.1999991329771
 20
-64.80999970837605
 30
0.0
  3
0828062_PATG_6_18-select__5
  1

  0
LINE
  5
13E
330
63
100
AcDbEntity
  8
0
  6
Continuous
 62
     7
100
AcDbLine
 10
-143.5999991329771
 20
-55.90999970837606
 30
0.0
 11
-143.5999991329771
 21
-56.80999970837604
 31
0.0
  0
LINE
  5
13F
330
63
100
AcDbEntity
  8
0
  6
Continuous
 62
     7
100
AcDbLine
 10
-144.2999991329772
 20
-55.90999970837606
 30
0.0
 11
-144.2999991329772
 21
-56.80999970837604
 31
0.0
  0
LINE
  5
140
330
63
100
AcDbEntity
  8
0
  6
Continuous
 62
     7
100
AcDbLine
 10
-162.1999991329771
 20
-55.90999970837606
 30
0.0
 11
-162.1999991329771
 21
-56.80999970837604
 31
0.0
  0
LINE
  5
141
330
63
100
AcDbEntity
  8
0
  6
Continuous
 62
     7
100
AcDbLine
 10
-161.4999991329771
 20
-55.90999970837606
 30
0.0
 11
-161.4999991329771
 21
-56.80999970837604
 31
0.0
  0
LINE
  5
142
330
63
100
AcDbEntity
  8
0
  6
Continuous
 62
     7
100
AcDbLine
 10
-149.520518942334
 20
-55.50999970837605
 30
0.0
 11
-156.2794793236203
 21
-55.50999970837605
 31
0.0
  0
LINE
  5
143
330
63
100
AcDbEntity
  8
0
  6
Continuous
 62
     7
100
AcDbLine
 10
-155.8383664766273
 20
-56.20999970837605
 30
0.0
 11
-149.961631789327
 21
-56.20999970837605
 31
0.0
  0
ARC
  5
144
330
63
100
AcDbEntity
  8
0
  6
Continuous
 62
     7
100
AcDbCircle
 10
-153.5999991329771
 20
-56.80999970837604
 30
0.0
 40
9.299999999999933
100
AcDbArc
 50
318.7043939417157
 51
0.0
  0
ARC
  5
145
330
63
100
AcDbEntity
  8
0
  6
Continuous
 62
     7
100
AcDbCircle
 10
-153.5999991329771
 20
-55.90999970837606
 30
0.0
 40
9.299999999999898
100
AcDbArc
 50
0.0
 51
27.42038514955323
  0
ARC
  5
146
330
63
100
AcDbEntity
  8
0
  6
Continuous
 62
     7
100
AcDbCircle
 10
-153.5999991329771
 20
-55.90999970837606
 30
0.0
 40
10.0
100
AcDbArc
 50
0.0
 51
27.4203851495532
  0
ARC
  5
147
330
63
100
AcDbEntity
  8
0
  6
Continuous
 62
     7
100
AcDbCircle
 10
-153.5999991329771
 20
-56.80999970837604
 30
0.0
 40
9.999999999999956
100
AcDbArc
 50
318.7043939417158
 51
0.0
  0
ARC
  5
148
330
63
100
AcDbEntity
  8
0
  6
Continuous
 62
     7
100
AcDbCircle
 10
-151.1499991329771
 20
-63.10999970837607
 30
0.0
 40
1.00000000000002
100
AcDbArc
 50
124.6348906408559
 51
230.8541413369838
  0
ARC
  5
149
330
63
100
AcDbEntity
  8
0
  6
Continuous
 62
     7
100
AcDbCircle
 10
-149.1812277422747
 20
-60.69138485919864
 30
0.0
 40
3.418614849177436
100
AcDbArc
 50
230.8541413369845
 51
318.7043939417155
  0
ARC
  5
14A
330
63
100
AcDbEntity
  8
0
  6
Continuous
 62
     7
100
AcDbCircle
 10
-154.6499991329771
 20
-63.10999970837607
 30
0.0
 40
0.9999999999999634
100
AcDbArc
 50
309.145858663015
 51
55.36510935914414
  0
ARC
  5
14B
330
63
100
AcDbEntity
  8
0
  6
Continuous
 62
     7
100
AcDbCircle
 10
-149.1812277422747
 20
-60.69138485919864
 30
0.0
 40
4.118614849177381
100
AcDbArc
 50
230.8541413369854
 51
318.7043939417158
  0
ARC
  5
14C
330
63
100
AcDbEntity
  8
0
  6
Continuous
 62
     7
100
AcDbCircle
 10
-152.8999991329771
 20
-46.99455129239382
 30
0.0
 40
1.50000000000004
100
AcDbArc
 50
231.0946288881905
 51
308.9053711118061
  0
ARC
  5
14D
330
63
100
AcDbEntity
  8
0
  6
Continuous
 62
     7
100
AcDbCircle
 10
-151.8246959421836
 20
-54.98896844899429
 30
0.0
 40
7.300000000000048
100
AcDbArc
 50
27.42038514955305
 51
79.97833698504444
  0
ARC
  5
14E
330
63
100
AcDbEntity
  8
0
  6
Continuous
 62
     7
100
AcDbCircle
 10
-152.8999991329771
 20
-49.73999970837605
 30
0.0
 40
5.549999999999992
100
AcDbArc
 50
79.19278420079995
 51
100.8072157992001
  0
ARC
  5
14F
330
63
100
AcDbEntity
  8
0
  6
Continuous
 62
     7
100
AcDbCircle
 10
-154.9411161661049
 20
-49.52365019458718
 30
0.0
 40
1.749999999999982
100
AcDbArc
 50
51.09462888819342
 51
100.0216630149573
  0
ARC
  5
150
330
63
100
AcDbEntity
  8
0
  6
Continuous
 62
     7
100
AcDbCircle
 10
-150.8588820998493
 20
-49.52365019458718
 30
0.0
 40
1.749999999999997
100
AcDbArc
 50
79.97833698504544
 51
128.9053711118088
  0
ARC
  5
151
330
63
100
AcDbEntity
  8
0
  6
Continuous
 62
     7
100
AcDbCircle
 10
-153.9753023237707
 20
-54.98896844899429
 30
0.0
 40
7.300000000000011
100
AcDbArc
 50
100.0216630149553
 51
152.5796148504465
  0
ARC
  5
152
330
63
100
AcDbEntity
  8
0
  6
Continuous
 62
     7
100
AcDbCircle
 10
-153.9753023237707
 20
-54.98896844899429
 30
0.0
 40
8.000000000000007
100
AcDbArc
 50
97.78128497674717
 51
152.5796148504466
  0
ARC
  5
153
330
63
100
AcDbEntity
  8
0
  6
Continuous
 62
     7
100
AcDbCircle
 10
-152.1999991329771
 20
-55.90999970837606
 30
0.0
 40
9.300000000000031
100
AcDbArc
 50
152.5796148504468
 51
180.0
  0
ARC
  5
154
330
63
100
AcDbEntity
  8
0
  6
Continuous
 62
     7
100
AcDbCircle
 10
-152.1999991329771
 20
-55.90999970837606
 30
0.0
 40
10.00000000000001
100
AcDbArc
 50
152.5796148504468
 51
180.0
  0
ARC
  5
155
330
63
100
AcDbEntity
  8
0
  6
Continuous
 62
     7
100
AcDbCircle
 10
-152.1999991329771
 20
-56.80999970837604
 30
0.0
 40
9.300000000000011
100
AcDbArc
 50
180.0
 51
221.2956060582839
  0
ARC
  5
156
330
63
100
AcDbEntity
  8
0
  6
Continuous
 62
     7
100
AcDbCircle
 10
-152.1999991329771
 20
-56.80999970837604
 30
0.0
 40
10.0
100
AcDbArc
 50
180.0
 51
221.2956060582839
  0
ARC
  5
157
330
63
100
AcDbEntity
  8
0
  6
Continuous
 62
     7
100
AcDbCircle
 10
-153.6500192202556
 20
-45.81094513142261
 30
0.0
 40
1.549999999999996
100
AcDbArc
 50
100.8072157991995
 51
179.9130359920588
  0
ARC
  5
158
330
63
100
AcDbEntity
  8
0
  6
Continuous
 62
     7
100
AcDbCircle
 10
-149.6500238277386
 20
-45.81701636216874
 30
0.0
 40
5.55000000000005
100
AcDbArc
 50
179.9130359920588
 51
192.9696658582868
  0
ARC
  5
159
330
63
100
AcDbEntity
  8
0
  6
Continuous
 62
     7
100
AcDbCircle
 10
-151.2399297688081
 20
-58.17325716581265
 30
0.0
 40
5.699999999999954
100
AcDbArc
 50
152.1448322651391
 51
235.3651093591449
  0
ARC
  5
15A
330
63
100
AcDbEntity
  8
0
  6
Continuous
 62
     7
100
AcDbCircle
 10
-151.2399297688081
 20
-58.17325716581265
 30
0.0
 40
4.99999999999994
100
AcDbArc
 50
156.880416126883
 51
235.3651093591459
  0
ARC
  5
15B
330
63
100
AcDbEntity
  8
0
  6
Continuous
 62
     7
100
AcDbCircle
 10
-152.1499790456987
 20
-45.81094513142261
 30
0.0
 40
1.55000000000007
100
AcDbArc
 50
0.08696400794127
 51
79.19278420079635
  0
ARC
  5
15C
330
63
100
AcDbEntity
  8
0
  6
Continuous
 62
     7
100
AcDbCircle
 10
-151.1499991329771
 20
-63.10999970837607
 30
0.0
 40
0.3000000000000593
100
AcDbArc
 50
124.6348906408634
 51
230.8541413369708
  0
ARC
  5
15D
330
63
100
AcDbEntity
  8
0
  6
Continuous
 62
     7
100
AcDbCircle
 10
-154.5600684971462
 20
-58.17325716581265
 30
0.0
 40
5.699999999999969
100
AcDbArc
 50
304.6348906408551
 51
27.85516773486095
  0
ARC
  5
15E
330
63
100
AcDbEntity
  8
0
  6
Continuous
 62
     7
100
AcDbCircle
 10
-156.1499744382157
 20
-45.81701636216873
 30
0.0
 40
5.550000000000053
100
AcDbArc
 50
347.0303341417131
 51
0.08696400794112
  0
ARC
  5
15F
330
63
100
AcDbEntity
  8
0
  6
Continuous
 62
     7
100
AcDbCircle
 10
-154.5600684971462
 20
-58.17325716581265
 30
0.0
 40
5.000000000000008
100
AcDbArc
 50
304.6348906408554
 51
23.11958387311686
  0
ARC
  5
160
330
63
100
AcDbEntity
  8
0
  6
Continuous
 62
     7
100
AcDbCircle
 10
-154.6499991329771
 20
-63.10999970837607
 30
0.0
 40
0.2999999999999652
100
AcDbArc
 50
309.1458586630123
 51
55.36510935915896
  0
ARC
  5
161
330
63
100
AcDbEntity
  8
0
  6
Continuous
 62
     7
100
AcDbCircle
 10
-156.6187705236796
 20
-60.69138485919864
 30
0.0
 40
3.418614849177382
100
AcDbArc
 50
221.2956060582841
 51
309.1458586630155
  0
ARC
  5
162
330
63
100
AcDbEntity
  8
0
  6
Continuous
 62
     7
100
AcDbCircle
 10
-156.6187705236796
 20
-60.69138485919864
 30
0.0
 40
4.118614849177384
100
AcDbArc
 50
221.2956060582842
 51
309.1458586630155
  0
ARC
  5
163
330
63
100
AcDbEntity
  8
0
  6
Continuous
 62
     7
100
AcDbCircle
 10
-151.8246959421836
 20
-54.98896844899429
 30
0.0
 40
8.00000000000003
100
AcDbArc
 50
27.42038514955303
 51
82.21871502325283
  0
ENDBLK
  5
65
330
63
100
AcDbEntity
  8
0
100
AcDbBlockEnd
  0
BLOCK
  5
68
330
66
100
AcDbEntity
  8
0
100
AcDbBlockBegin
  2
SA_Rechts1
 70
     0
 10
-152.8999994999951
 20
-54.50000000000012
 30
0.0
  3
SA_Rechts1
  1

  0
INSERT
  5
67
330
66
100
AcDbEntity
  8
0
100
AcDbBlockReference
  2
0828062_PATG_6_18-select__5
 10
-162.1999991329771
 20
-64.80999970837605
 30
0.0
  0
MTEXT
  5
164
330
66
100
AcDbEntity
  8
1
 62
     6
100
AcDbMText
 10
-152.8999994999949
 20
-67.30999994277954
 30
0.0
 40
2.5
 41
0.0
 71
     2
 72
     1
  1
 
  7
CONVERTER_11
 73
     1
 44
1.32052821128451
  0
ENDBLK
  5
69
330
66
100
AcDbEntity
  8
0
100
AcDbBlockEnd
  0
BLOCK
  5
6B
330
6A
100
AcDbEntity
  8
0
100
AcDbBlockBegin
  2
0828062_PATG_6_18-select__6
 70
     0
 10
-126.1000009999951
 20
-64.80999970837598
 30
0.0
  3
0828062_PATG_6_18-select__6
  1

  0
LINE
  5
165
330
6A
100
AcDbEntity
  8
0
  6
Continuous
 62
     2
100
AcDbLine
 10
-126.1000009999951
 20
-55.90999970837599
 30
0.0
 11
-108.1000009999951
 21
-55.90999970837599
 31
0.0
  0
LINE
  5
166
330
6A
100
AcDbEntity
  8
0
  6
Continuous
 62
     7
100
AcDbLine
 10
-126.1000009999951
 20
-55.90999970837599
 30
0.0
 11
-126.1000009999951
 21
-51.3048434114672
 31
0.0
  0
LINE
  5
167
330
6A
100
AcDbEntity
  8
0
  6
Continuous
 62
     7
100
AcDbLine
 10
-126.1000009999951
 20
-55.90999970837599
 30
0.0
 11
-126.1000009999951
 21
-56.80999970837597
 31
0.0
  0
LINE
  5
168
330
6A
100
AcDbEntity
  8
0
  6
Continuous
 62
     7
100
AcDbLine
 10
-108.1000009999951
 20
-44.18999970837598
 30
0.0
 11
-108.1000009999951
 21
-44.28843648285309
 31
0.0
  0
LINE
  5
169
330
6A
100
AcDbEntity
  8
0
  6
Continuous
 62
     7
100
AcDbLine
 10
-108.1000009999951
 20
-55.90999970837599
 30
0.0
 11
-108.1000009999951
 21
-51.3048434114672
 31
0.0
  0
LINE
  5
16A
330
6A
100
AcDbEntity
  8
0
  6
Continuous
 62
     7
100
AcDbLine
 10
-108.1000009999951
 20
-55.90999970837599
 30
0.0
 11
-108.1000009999951
 21
-56.80999970837597
 31
0.0
  0
LINE
  5
16B
330
6A
100
AcDbEntity
  8
0
  6
Continuous
 62
     7
100
AcDbLine
 10
-108.1000009999951
 20
-47.06263150830496
 30
0.0
 11
-108.1000009999951
 21
-45.80859252950842
 31
0.0
  0
LINE
  5
16C
330
6A
100
AcDbEntity
  8
0
  6
Continuous
 62
     7
100
AcDbLine
 10
-108.1000009999951
 20
-45.80859252950842
 30
0.0
 11
-108.1000009999951
 21
-44.28843648285309
 31
0.0
  0
LINE
  5
16D
330
6A
100
AcDbEntity
  8
0
  6
Continuous
 62
     2
100
AcDbLine
 10
-126.1000009999951
 20
-63.40944023350419
 30
0.0
 11
-108.1000009999951
 21
-63.40944023350419
 31
0.0
  0
LINE
  5
16E
330
6A
100
AcDbEntity
  8
0
  6
Continuous
 62
     7
100
AcDbLine
 10
-108.1000009999951
 20
-63.40944023350419
 30
0.0
 11
-108.1000009999951
 21
-64.80999970837598
 31
0.0
  0
LINE
  5
16F
330
6A
100
AcDbEntity
  8
0
  6
Continuous
 62
     7
100
AcDbLine
 10
-108.1000009999951
 20
-56.80999970837597
 30
0.0
 11
-108.1000009999951
 21
-63.40944023350419
 31
0.0
  0
LINE
  5
170
330
6A
100
AcDbEntity
  8
0
  6
Continuous
 62
     2
100
AcDbLine
 10
-126.1000009999951
 20
-56.80999970837597
 30
0.0
 11
-108.1000009999951
 21
-56.80999970837597
 31
0.0
  0
LINE
  5
171
330
6A
100
AcDbEntity
  8
0
  6
Continuous
 62
     2
100
AcDbLine
 10
-126.1000009999951
 20
-51.3048434114672
 30
0.0
 11
-108.1000009999951
 21
-51.3048434114672
 31
0.0
  0
LINE
  5
172
330
6A
100
AcDbEntity
  8
0
  6
Continuous
 62
     7
100
AcDbLine
 10
-126.1000009999951
 20
-56.80999970837597
 30
0.0
 11
-126.1000009999951
 21
-63.40944023350419
 31
0.0
  0
LINE
  5
173
330
6A
100
AcDbEntity
  8
0
  6
Continuous
 62
     7
100
AcDbLine
 10
-126.1000009999951
 20
-63.40944023350419
 30
0.0
 11
-126.1000009999951
 21
-64.80999970837598
 31
0.0
  0
LINE
  5
174
330
6A
100
AcDbEntity
  8
0
  6
Continuous
 62
     7
100
AcDbLine
 10
-126.1000009999951
 20
-44.18999970837598
 30
0.0
 11
-108.1000009999951
 21
-44.18999970837598
 31
0.0
  0
LINE
  5
175
330
6A
100
AcDbEntity
  8
0
  6
Continuous
 62
     7
100
AcDbLine
 10
-126.1000009999951
 20
-44.18999970837598
 30
0.0
 11
-126.1000009999951
 21
-44.28843648285309
 31
0.0
  0
LINE
  5
176
330
6A
100
AcDbEntity
  8
0
  6
Continuous
 62
     2
100
AcDbLine
 10
-126.1000009999951
 20
-44.28843648285309
 30
0.0
 11
-108.1000009999951
 21
-44.28843648285309
 31
0.0
  0
LINE
  5
177
330
6A
100
AcDbEntity
  8
0
  6
Continuous
 62
     7
100
AcDbLine
 10
-126.1000009999951
 20
-45.80859252950842
 30
0.0
 11
-126.1000009999951
 21
-44.28843648285309
 31
0.0
  0
LINE
  5
178
330
6A
100
AcDbEntity
  8
0
  6
Continuous
 62
     2
100
AcDbLine
 10
-126.1000009999951
 20
-45.80859252950842
 30
0.0
 11
-108.1000009999951
 21
-45.80859252950842
 31
0.0
  0
LINE
  5
179
330
6A
100
AcDbEntity
  8
0
  6
Continuous
 62
     7
100
AcDbLine
 10
-126.1000009999951
 20
-47.06263150830496
 30
0.0
 11
-126.1000009999951
 21
-45.80859252950842
 31
0.0
  0
LINE
  5
17A
330
6A
100
AcDbEntity
  8
0
  6
Continuous
 62
     7
100
AcDbLine
 10
-126.1000009999951
 20
-51.3048434114672
 30
0.0
 11
-126.1000009999951
 21
-47.06263150830496
 31
0.0
  0
LINE
  5
17B
330
6A
100
AcDbEntity
  8
0
  6
Continuous
 62
     7
100
AcDbLine
 10
-108.1000009999951
 20
-51.3048434114672
 30
0.0
 11
-108.1000009999951
 21
-47.06263150830496
 31
0.0
  0
LINE
  5
17C
330
6A
100
AcDbEntity
  8
0
  6
Continuous
 62
     7
100
AcDbLine
 10
-126.1000009999951
 20
-47.06263150830496
 30
0.0
 11
-108.1000009999951
 21
-47.06263150830496
 31
0.0
  0
LINE
  5
17D
330
6A
100
AcDbEntity
  8
0
  6
Continuous
 62
     7
100
AcDbLine
 10
-126.1000009999951
 20
-64.80999970837598
 30
0.0
 11
-108.1000009999951
 21
-64.80999970837598
 31
0.0
  0
ENDBLK
  5
6C
330
6A
100
AcDbEntity
  8
0
100
AcDbBlockEnd
  0
BLOCK
  5
6F
330
6D
100
AcDbEntity
  8
0
100
AcDbBlockBegin
  2
Vordans1
 70
     0
 10
-114.600001
 20
-54.50000000000005
 30
0.0
  3
Vordans1
  1

  0
INSERT
  5
6E
330
6D
100
AcDbEntity
  8
0
100
AcDbBlockReference
  2
0828062_PATG_6_18-select__6
 10
-126.1000009999951
 20
-64.80999970837598
 30
0.0
  0
MTEXT
  5
17E
330
6D
100
AcDbEntity
  8
1
 62
     6
100
AcDbMText
 10
-117.1000007390926
 20
-67.30999994277954
 30
0.0
 40
2.5
 41
0.0
 71
     2
 72
     1
  1
 
  7
CONVERTER_11
 73
     1
 44
1.32052821128451
  0
DIMENSION
  5
189
330
6D
100
AcDbEntity
  8
1
100
AcDbDimension
  2
*D17
 10
-126.1000009999951
 20
-69.80999970837598
 30
0.0
 11
-117.1000009999951
 21
-68.18499970837598
 31
0.0
 70
    33
  1
<>
 71
     5
 42
-1.0
 53
0.00013888888889
  3
ME10_DIM_11
100
AcDbAlignedDimension
 13
-108.1000009999951
 23
-64.80999970837598
 33
0.0
 14
-126.1000009999951
 24
-64.80999970837598
 34
0.0
  0
DIMENSION
  5
194
330
6D
100
AcDbEntity
  8
1
100
AcDbDimension
  2
*D18
 10
-131.1000009999951
 20
-64.80999970837598
 30
0.0
 11
-132.8125009999951
 21
-54.49999970837598
 31
0.0
 70
    32
  1
<>
 71
     5
 42
-1.0
 53
90.0
  3
ME10_DIM_12
100
AcDbAlignedDimension
 13
-126.1000009999951
 23
-44.18999970837598
 33
0.0
 14
-126.1000009999951
 24
-64.80999970837598
 34
0.0
 50
90.0
100
AcDbRotatedDimension
  0
ENDBLK
  5
70
330
6D
100
AcDbEntity
  8
0
100
AcDbBlockEnd
  0
BLOCK
  5
72
330
71
100
AcDbEntity
  8
0
100
AcDbBlockBegin
  2
_punkt
 70
     0
 10
-62.69999913299442
 20
-258.520739859457
 30
0.0
  3
_punkt
  1

  0
LINE
  5
195
330
71
100
AcDbEntity
  8
1
  6
Continuous
 62
     2
100
AcDbLine
 10
-62.69999913299442
 20
-258.520739859457
 30
0.0
 11
-57.69999913299543
 21
-258.520739859457
 31
0.0
  0
LINE
  5
196
330
71
100
AcDbEntity
  8
1
  6
Continuous
 62
     2
100
AcDbLine
 10
-62.69999913299442
 20
-258.520739859457
 30
0.0
 11
-62.69999913299442
 21
-263.5207398594571
 31
0.0
  0
ENDBLK
  5
73
330
71
100
AcDbEntity
  8
0
100
AcDbBlockEnd
  0
BLOCK
  5
75
330
74
100
AcDbEntity
  8
0
100
AcDbBlockBegin
  2
_rahmen
 70
     0
 10
-62.69999913299442
 20
-263.5207398594571
 30
0.0
  3
_rahmen
  1

  0
LINE
  5
197
330
74
100
AcDbEntity
  8
1
  6
Continuous
 62
     6
100
AcDbLine
 10
-192.2448036597444
 20
-233.020739859457
 30
0.0
 11
-62.69999913299273
 21
-233.020739859457
 31
0.0
  0
LINE
  5
198
330
74
100
AcDbEntity
  8
1
  6
Continuous
 62
     7
100
AcDbLine
 10
-174.0448036597444
 20
-254.270739859457
 30
0.0
 11
-155.8448036597445
 21
-254.270739859457
 31
0.0
  0
LINE
  5
199
330
74
100
AcDbEntity
  8
1
  6
Continuous
 62
     6
100
AcDbLine
 10
-174.0448036597444
 20
-258.520739859457
 30
0.0
 11
-192.2448036597444
 21
-258.5207398594571
 31
0.0
  0
LINE
  5
19A
330
74
100
AcDbEntity
  8
1
  6
Continuous
 62
     7
100
AcDbLine
 10
-174.0448036597444
 20
-254.270739859457
 30
0.0
 11
-174.0448036597444
 21
-258.520739859457
 31
0.0
  0
LINE
  5
19B
330
74
100
AcDbEntity
  8
1
  6
Continuous
 62
     7
100
AcDbLine
 10
-155.8448036597445
 20
-254.270739859457
 30
0.0
 11
-155.8448036597445
 21
-258.5207398594571
 31
0.0
  0
LINE
  5
19C
330
74
100
AcDbEntity
  8
1
  6
Continuous
 62
     7
100
AcDbLine
 10
-192.2448036597444
 20
-254.2707398594571
 30
0.0
 11
-192.2448036597444
 21
-258.5207398594571
 31
0.0
  0
LINE
  5
19D
330
74
100
AcDbEntity
  8
1
  6
Continuous
 62
     7
100
AcDbLine
 10
-192.2448036597444
 20
-254.2707398594571
 30
0.0
 11
-174.0448036597444
 21
-254.270739859457
 31
0.0
  0
LINE
  5
19E
330
74
100
AcDbEntity
  8
1
  6
Continuous
 62
     2
100
AcDbLine
 10
-183.0081487731818
 20
-234.8957398594571
 30
0.0
 11
-183.0081487731818
 21
-239.8957398594571
 31
0.0
  0
LINE
  5
19F
330
74
100
AcDbEntity
  8
1
  6
Continuous
 62
     2
100
AcDbLine
 10
-183.0081487731818
 20
-239.8957398594571
 30
0.0
 11
-188.0081487731818
 21
-238.6457398594571
 31
0.0
  0
LINE
  5
1A0
330
74
100
AcDbEntity
  8
1
  6
Continuous
 62
     2
100
AcDbLine
 10
-188.0081487731818
 20
-238.6457398594571
 30
0.0
 11
-188.0081487731818
 21
-236.1457398594571
 31
0.0
  0
LINE
  5
1A1
330
74
100
AcDbEntity
  8
1
  6
Continuous
 62
     2
100
AcDbLine
 10
-188.0081487731818
 20
-236.1457398594571
 30
0.0
 11
-183.0081487731818
 21
-234.8957398594571
 31
0.0
  0
LINE
  5
1A2
330
74
100
AcDbEntity
  8
1
  6
Continuous
 62
     6
100
AcDbLine
 10
-314.6999991329926
 20
-258.520739859457
 30
0.0
 11
-349.6999991329925
 21
-258.520739859457
 31
0.0
  0
LINE
  5
1A3
330
74
100
AcDbEntity
  8
1
  6
Continuous
 62
     6
100
AcDbLine
 10
-62.69999913299273
 20
-241.520739859457
 30
0.0
 11
-62.69999913299313
 21
-250.020739859457
 31
0.0
  0
LINE
  5
1A4
330
74
100
AcDbEntity
  8
1
  6
Continuous
 62
     6
100
AcDbLine
 10
-155.8448036597445
 20
-258.5207398594571
 30
0.0
 11
-156.1999991329944
 21
-258.520739859457
 31
0.0
  0
LINE
  5
1A5
330
74
100
AcDbEntity
  8
1
  6
Continuous
 62
     6
100
AcDbLine
 10
-308.4999991329946
 20
-258.5207398594571
 30
0.0
 11
-314.6999991329926
 21
-258.520739859457
 31
0.0
  0
LINE
  5
1A6
330
74
100
AcDbEntity
  8
1
  6
Continuous
 62
     7
100
AcDbLine
 10
-155.8448036597445
 20
-241.520739859457
 30
0.0
 11
-155.8448036597445
 21
-254.270739859457
 31
0.0
  0
LINE
  5
1A7
330
74
100
AcDbEntity
  8
1
  6
Continuous
 62
     7
100
AcDbLine
 10
-192.2448036597444
 20
-241.520739859457
 30
0.0
 11
-192.2448036597444
 21
-254.2707398594571
 31
0.0
  0
LINE
  5
1A8
330
74
100
AcDbEntity
  8
1
  6
Continuous
 62
     6
100
AcDbLine
 10
-206.1999991329944
 20
-258.520739859457
 30
0.0
 11
-256.1999991329947
 21
-258.520739859457
 31
0.0
  0
LINE
  5
1A9
330
74
100
AcDbEntity
  8
1
  6
Continuous
 62
     6
100
AcDbLine
 10
-308.4999991329946
 20
-258.5207398594571
 30
0.0
 11
-306.1999991329944
 21
-258.520739859457
 31
0.0
  0
LINE
  5
1AA
330
74
100
AcDbEntity
  8
1
  6
Continuous
 62
     6
100
AcDbLine
 10
-155.8448036597445
 20
-258.5207398594571
 30
0.0
 11
-106.1999991329944
 21
-258.520739859457
 31
0.0
  0
LINE
  5
1AB
330
74
100
AcDbEntity
  8
1
  6
Continuous
 62
     6
100
AcDbLine
 10
-62.69999913299442
 20
-258.520739859457
 30
0.0
 11
-62.69999913299313
 21
-250.020739859457
 31
0.0
  0
LINE
  5
1AC
330
74
100
AcDbEntity
  8
1
  6
Continuous
 62
     2
100
AcDbLine
 10
-354.6999991329935
 20
-258.520739859457
 30
0.0
 11
-354.6999991329935
 21
-263.5207398594571
 31
0.0
  0
LINE
  5
1AD
330
74
100
AcDbEntity
  8
1
  6
Continuous
 62
     2
100
AcDbLine
 10
-349.6999991329925
 20
-258.520739859457
 30
0.0
 11
-354.6999991329935
 21
-258.520739859457
 31
0.0
  0
LINE
  5
1AE
330
74
100
AcDbEntity
  8
1
  6
Continuous
 62
     2
100
AcDbLine
 10
-349.6999991329925
 20
-263.5207398594571
 30
0.0
 11
-306.1999991329944
 21
-263.5207398594571
 31
0.0
  0
LINE
  5
1AF
330
74
100
AcDbEntity
  8
1
  6
Continuous
 62
     2
100
AcDbLine
 10
-349.6999991329925
 20
-258.520739859457
 30
0.0
 11
-349.6999991329925
 21
-263.5207398594571
 31
0.0
  0
LINE
  5
1B0
330
74
100
AcDbEntity
  8
1
  6
Continuous
 62
     2
100
AcDbLine
 10
-106.1999991329944
 20
-263.5207398594571
 30
0.0
 11
-156.1999991329944
 21
-263.5207398594571
 31
0.0
  0
LINE
  5
1B1
330
74
100
AcDbEntity
  8
1
  6
Continuous
 62
     2
100
AcDbLine
 10
-106.1999991329944
 20
-263.5207398594571
 30
0.0
 11
-106.1999991329944
 21
-258.520739859457
 31
0.0
  0
LINE
  5
1B2
330
74
100
AcDbEntity
  8
1
  6
Continuous
 62
     2
100
AcDbLine
 10
-156.1999991329944
 20
-263.5207398594571
 30
0.0
 11
-156.1999991329944
 21
-258.520739859457
 31
0.0
  0
LINE
  5
1B3
330
74
100
AcDbEntity
  8
1
  6
Continuous
 62
     2
100
AcDbLine
 10
-206.1999991329944
 20
-263.5207398594571
 30
0.0
 11
-156.1999991329944
 21
-263.5207398594571
 31
0.0
  0
LINE
  5
1B4
330
74
100
AcDbEntity
  8
1
  6
Continuous
 62
     2
100
AcDbLine
 10
-206.1999991329944
 20
-263.5207398594571
 30
0.0
 11
-206.1999991329944
 21
-258.520739859457
 31
0.0
  0
LINE
  5
1B5
330
74
100
AcDbEntity
  8
1
  6
Continuous
 62
     2
100
AcDbLine
 10
-256.1999991329947
 20
-263.5207398594571
 30
0.0
 11
-206.1999991329944
 21
-263.5207398594571
 31
0.0
  0
LINE
  5
1B6
330
74
100
AcDbEntity
  8
1
  6
Continuous
 62
     2
100
AcDbLine
 10
-256.1999991329947
 20
-263.5207398594571
 30
0.0
 11
-256.1999991329947
 21
-258.520739859457
 31
0.0
  0
LINE
  5
1B7
330
74
100
AcDbEntity
  8
1
  6
Continuous
 62
     2
100
AcDbLine
 10
-306.1999991329944
 20
-263.5207398594571
 30
0.0
 11
-256.1999991329947
 21
-263.5207398594571
 31
0.0
  0
LINE
  5
1B8
330
74
100
AcDbEntity
  8
1
  6
Continuous
 62
     2
100
AcDbLine
 10
-306.1999991329944
 20
-263.5207398594571
 30
0.0
 11
-306.1999991329944
 21
-258.520739859457
 31
0.0
  0
LINE
  5
1B9
330
74
100
AcDbEntity
  8
1
  6
Continuous
 62
     6
100
AcDbLine
 10
-349.6999991329927
 20
-208.5207398594569
 30
0.0
 11
-349.6999991329925
 21
-258.520739859457
 31
0.0
  0
LINE
  5
1BA
330
74
100
AcDbEntity
  8
1
  6
Continuous
 62
     2
100
AcDbLine
 10
-354.6999991329935
 20
-208.5207398594569
 30
0.0
 11
-354.6999991329935
 21
-258.520739859457
 31
0.0
  0
LINE
  5
1BB
330
74
100
AcDbEntity
  8
1
  6
Continuous
 62
     2
100
AcDbLine
 10
-354.6999991329935
 20
-208.5207398594569
 30
0.0
 11
-349.6999991329927
 21
-208.5207398594569
 31
0.0
  0
LINE
  5
1BC
330
74
100
AcDbEntity
  8
1
  6
Continuous
 62
     6
100
AcDbLine
 10
-349.699999132993
 20
-158.5207398594571
 30
0.0
 11
-349.6999991329927
 21
-208.5207398594569
 31
0.0
  0
LINE
  5
1BD
330
74
100
AcDbEntity
  8
1
  6
Continuous
 62
     2
100
AcDbLine
 10
-354.6999991329935
 20
-158.5207398594571
 30
0.0
 11
-354.6999991329935
 21
-208.5207398594569
 31
0.0
  0
LINE
  5
1BE
330
74
100
AcDbEntity
  8
1
  6
Continuous
 62
     2
100
AcDbLine
 10
-354.6999991329935
 20
-158.5207398594571
 30
0.0
 11
-349.699999132993
 21
-158.5207398594571
 31
0.0
  0
LINE
  5
1BF
330
74
100
AcDbEntity
  8
1
  6
Continuous
 62
     6
100
AcDbLine
 10
-349.6999991329934
 20
-108.520739859457
 30
0.0
 11
-349.699999132993
 21
-158.5207398594571
 31
0.0
  0
LINE
  5
1C0
330
74
100
AcDbEntity
  8
1
  6
Continuous
 62
     2
100
AcDbLine
 10
-354.6999991329935
 20
-108.520739859457
 30
0.0
 11
-354.6999991329935
 21
-158.5207398594571
 31
0.0
  0
LINE
  5
1C1
330
74
100
AcDbEntity
  8
1
  6
Continuous
 62
     2
100
AcDbLine
 10
-354.6999991329935
 20
-108.520739859457
 30
0.0
 11
-349.6999991329934
 21
-108.520739859457
 31
0.0
  0
LINE
  5
1C2
330
74
100
AcDbEntity
  8
1
  6
Continuous
 62
     6
100
AcDbLine
 10
-349.6999991329935
 20
-73.520739859457
 30
0.0
 11
-349.6999991329934
 21
-108.520739859457
 31
0.0
  0
LINE
  5
1C3
330
74
100
AcDbEntity
  8
1
  6
Continuous
 62
     2
100
AcDbLine
 10
-354.6999991329935
 20
-53.520739859457
 30
0.0
 11
-354.6999991329935
 21
-108.520739859457
 31
0.0
  0
LINE
  5
1C4
330
74
100
AcDbEntity
  8
1
  6
Continuous
 62
     2
100
AcDbLine
 10
-354.6999991329935
 20
-263.5207398594571
 30
0.0
 11
-349.6999991329925
 21
-263.5207398594571
 31
0.0
  0
LINE
  5
1C5
330
74
100
AcDbEntity
  8
1
  6
Continuous
 62
     2
100
AcDbLine
 10
-206.1999991329944
 20
-53.520739859457
 30
0.0
 11
-206.1999991329944
 21
-62.72943170415832
 31
0.0
  0
LINE
  5
1C6
330
74
100
AcDbEntity
  8
1
  6
Continuous
 62
     2
100
AcDbLine
 10
-206.1999991329944
 20
-53.520739859457
 30
0.0
 11
-354.6999991329935
 21
-53.520739859457
 31
0.0
  0
LINE
  5
1C7
330
74
100
AcDbEntity
  8
1
  6
Continuous
 62
     2
100
AcDbLine
 10
-57.69999913299543
 20
-258.520739859457
 30
0.0
 11
-57.69999913299543
 21
-208.5207398594569
 31
0.0
  0
LINE
  5
1C8
330
74
100
AcDbEntity
  8
1
  6
Continuous
 62
     2
100
AcDbLine
 10
-57.69999913299543
 20
-108.520739859457
 30
0.0
 11
-57.69999913299543
 21
-53.520739859457
 31
0.0
  0
LINE
  5
1C9
330
74
100
AcDbEntity
  8
1
  6
Continuous
 62
     6
100
AcDbLine
 10
-62.69999913299523
 20
-108.520739859457
 30
0.0
 11
-62.69999913299543
 21
-73.520739859457
 31
0.0
  0
LINE
  5
1CA
330
74
100
AcDbEntity
  8
1
  6
Continuous
 62
     2
100
AcDbLine
 10
-62.69999913299523
 20
-108.520739859457
 30
0.0
 11
-57.69999913299543
 21
-108.520739859457
 31
0.0
  0
LINE
  5
1CB
330
74
100
AcDbEntity
  8
1
  6
Continuous
 62
     2
100
AcDbLine
 10
-57.69999913299543
 20
-158.5207398594571
 30
0.0
 11
-57.69999913299543
 21
-108.520739859457
 31
0.0
  0
LINE
  5
1CC
330
74
100
AcDbEntity
  8
1
  6
Continuous
 62
     6
100
AcDbLine
 10
-62.69999913299402
 20
-158.5207398594571
 30
0.0
 11
-62.69999913299523
 21
-108.520739859457
 31
0.0
  0
LINE
  5
1CD
330
74
100
AcDbEntity
  8
1
  6
Continuous
 62
     2
100
AcDbLine
 10
-62.69999913299402
 20
-158.5207398594571
 30
0.0
 11
-57.69999913299543
 21
-158.5207398594571
 31
0.0
  0
LINE
  5
1CE
330
74
100
AcDbEntity
  8
1
  6
Continuous
 62
     2
100
AcDbLine
 10
-57.69999913299543
 20
-208.5207398594569
 30
0.0
 11
-57.69999913299543
 21
-158.5207398594571
 31
0.0
  0
LINE
  5
1CF
330
74
100
AcDbEntity
  8
1
  6
Continuous
 62
     6
100
AcDbLine
 10
-62.69999913299353
 20
-208.5207398594569
 30
0.0
 11
-62.69999913299402
 21
-158.5207398594571
 31
0.0
  0
LINE
  5
1D0
330
74
100
AcDbEntity
  8
1
  6
Continuous
 62
     2
100
AcDbLine
 10
-62.69999913299353
 20
-208.5207398594569
 30
0.0
 11
-57.69999913299543
 21
-208.5207398594569
 31
0.0
  0
LINE
  5
1D1
330
74
100
AcDbEntity
  8
1
  6
Continuous
 62
     6
100
AcDbLine
 10
-62.69999913299543
 20
-73.520739859457
 30
0.0
 11
-349.6999991329935
 21
-73.520739859457
 31
0.0
  0
LINE
  5
1D2
330
74
100
AcDbEntity
  8
1
  6
Continuous
 62
     2
100
AcDbLine
 10
-57.69999913299543
 20
-53.520739859457
 30
0.0
 11
-206.1999991329944
 21
-53.520739859457
 31
0.0
  0
LINE
  5
1D3
330
74
100
AcDbEntity
  8
1
  6
Continuous
 62
     6
100
AcDbLine
 10
-62.69999913299273
 20
-241.520739859457
 30
0.0
 11
-62.69999913299353
 21
-208.5207398594569
 31
0.0
  0
LINE
  5
1D4
330
74
100
AcDbEntity
  8
1
  6
Continuous
 62
     2
100
AcDbLine
 10
-62.69999913299442
 20
-263.5207398594571
 30
0.0
 11
-106.1999991329944
 21
-263.5207398594571
 31
0.0
  0
LINE
  5
1D5
330
74
100
AcDbEntity
  8
1
  6
Continuous
 62
     2
100
AcDbLine
 10
-57.69999913299543
 20
-263.5207398594571
 30
0.0
 11
-62.69999913299442
 21
-263.5207398594571
 31
0.0
  0
LINE
  5
1D6
330
74
100
AcDbEntity
  8
1
  6
Continuous
 62
     2
100
AcDbLine
 10
-57.69999913299543
 20
-263.5207398594571
 30
0.0
 11
-57.69999913299543
 21
-258.520739859457
 31
0.0
  0
LINE
  5
1D7
330
74
100
AcDbEntity
  8
1
  6
Continuous
 62
     6
100
AcDbLine
 10
-192.2448036597444
 20
-241.520739859457
 30
0.0
 11
-155.8448036597445
 21
-241.520739859457
 31
0.0
  0
LINE
  5
1D8
330
74
100
AcDbEntity
  8
1
  6
Continuous
 62
     2
100
AcDbLine
 10
-62.69999913299442
 20
-258.520739859457
 30
0.0
 11
-62.69999913299442
 21
-263.5207398594571
 31
0.0
  0
LINE
  5
1D9
330
74
100
AcDbEntity
  8
1
  6
Continuous
 62
     2
100
AcDbLine
 10
-62.69999913299442
 20
-258.520739859457
 30
0.0
 11
-57.69999913299543
 21
-258.520739859457
 31
0.0
  0
LINE
  5
1DA
330
74
100
AcDbEntity
  8
1
  6
Continuous
 62
     6
100
AcDbLine
 10
-156.1999991329944
 20
-258.520739859457
 30
0.0
 11
-174.0448036597444
 21
-258.520739859457
 31
0.0
  0
LINE
  5
1DB
330
74
100
AcDbEntity
  8
1
  6
Continuous
 62
     6
100
AcDbLine
 10
-106.1999991329944
 20
-258.520739859457
 30
0.0
 11
-62.69999913299442
 21
-258.520739859457
 31
0.0
  0
LINE
  5
1DC
330
74
100
AcDbEntity
  8
1
  6
Continuous
 62
     6
100
AcDbLine
 10
-256.1999991329947
 20
-258.520739859457
 30
0.0
 11
-261.2448036597444
 21
-258.520739859457
 31
0.0
  0
LINE
  5
1DD
330
74
100
AcDbEntity
  8
1
  6
Continuous
 62
     6
100
AcDbLine
 10
-206.1999991329944
 20
-258.520739859457
 30
0.0
 11
-192.2448036597444
 21
-258.5207398594571
 31
0.0
  0
LINE
  5
1DE
102
{ACAD_REACTORS
330
2C8
330
2C9
102
}
330
74
100
AcDbEntity
  8
0
  6
Continuous
 62
     2
100
AcDbLine
 10
-184.7301777175976
 20
-246.4482251032449
 30
0.0
 11
-184.7301777175976
 21
-245.8426898147381
 31
0.0
  0
LINE
  5
1DF
102
{ACAD_REACTORS
330
2C8
330
2C9
102
}
330
74
100
AcDbEntity
  8
0
  6
Continuous
 62
     2
100
AcDbLine
 10
-184.7301777175976
 20
-249.2483597098762
 30
0.0
 11
-184.7301777175976
 21
-248.6665083031811
 31
0.0
  0
LINE
  5
1E0
102
{ACAD_REACTORS
330
2CA
330
2CB
102
}
330
74
100
AcDbEntity
  8
0
  6
Continuous
 62
     2
100
AcDbLine
 10
-162.1006912821184
 20
-248.9586956417532
 30
0.0
 11
-162.1006912821184
 21
-251.2272398594407
 31
0.0
  0
LINE
  5
1E1
102
{ACAD_REACTORS
330
2CA
330
2CB
102
}
330
74
100
AcDbEntity
  8
0
  6
Continuous
 62
     2
100
AcDbLine
 10
-163.481745061106
 20
-248.1734303356301
 30
0.0
 11
-160.0967995424773
 21
-248.1734303356296
 31
0.0
  0
LINE
  5
1E2
102
{ACAD_REACTORS
330
2CA
330
2CB
102
}
330
74
100
AcDbEntity
  8
0
  6
Continuous
 62
     2
100
AcDbLine
 10
-160.0967995424773
 20
-248.9586956417532
 30
0.0
 11
-160.0967995424773
 21
-248.1734303356296
 31
0.0
  0
LINE
  5
1E3
102
{ACAD_REACTORS
330
2CA
330
2CB
102
}
330
74
100
AcDbEntity
  8
0
  6
Continuous
 62
     2
100
AcDbLine
 10
-160.9078985799507
 20
-248.9586956417532
 30
0.0
 11
-160.0967995424773
 21
-248.9586956417532
 31
0.0
  0
LINE
  5
1E4
102
{ACAD_REACTORS
330
2CA
330
2CB
102
}
330
74
100
AcDbEntity
  8
0
  6
Continuous
 62
     2
100
AcDbLine
 10
-160.9078985799507
 20
-251.2272398594407
 30
0.0
 11
-160.9078985799507
 21
-248.9586956417532
 31
0.0
  0
LINE
  5
1E5
102
{ACAD_REACTORS
330
2CA
330
2CB
102
}
330
74
100
AcDbEntity
  8
0
  6
Continuous
 62
     2
100
AcDbLine
 10
-162.1006912821184
 20
-251.2272398594407
 30
0.0
 11
-160.9078985799507
 21
-251.2272398594407
 31
0.0
  0
LINE
  5
1E6
102
{ACAD_REACTORS
330
2C0
330
2C1
102
}
330
74
100
AcDbEntity
  8
0
  6
Continuous
 62
     2
100
AcDbLine
 10
-162.7972822201829
 20
-244.8142398594552
 30
0.0
 11
-164.2000064379322
 21
-244.8142398594552
 31
0.0
  0
LINE
  5
1E7
102
{ACAD_REACTORS
330
2C0
330
2C1
102
}
330
74
100
AcDbEntity
  8
0
  6
Continuous
 62
     2
100
AcDbLine
 10
-162.7972822201829
 20
-244.8142398594552
 30
0.0
 11
-162.1961146982911
 21
-245.4940631810107
 31
0.0
  0
LINE
  5
1E8
102
{ACAD_REACTORS
330
2C0
330
2C1
102
}
330
74
100
AcDbEntity
  8
0
  6
Continuous
 62
     2
100
AcDbLine
 10
-162.1961146982911
 20
-245.4940631810107
 30
0.0
 11
-161.5949471763983
 21
-244.8142398594552
 31
0.0
  0
LINE
  5
1E9
102
{ACAD_REACTORS
330
2C0
330
2C1
102
}
330
74
100
AcDbEntity
  8
0
  6
Continuous
 62
     2
100
AcDbLine
 10
-161.4947525894176
 20
-246.2871903894914
 30
0.0
 11
-160.1922229586511
 21
-244.8142398594552
 31
0.0
  0
LINE
  5
1EA
102
{ACAD_REACTORS
330
2C0
330
2C1
102
}
330
74
100
AcDbEntity
  8
0
  6
Continuous
 62
     2
100
AcDbLine
 10
-161.4947525894176
 20
-246.2871903894914
 30
0.0
 11
-160.0967995424773
 21
-247.8680493832664
 31
0.0
  0
LINE
  5
1EB
102
{ACAD_REACTORS
330
2C0
330
2C1
102
}
330
74
100
AcDbEntity
  8
0
  6
Continuous
 62
     2
100
AcDbLine
 10
-161.4995237602256
 20
-247.8680493832664
 30
0.0
 11
-160.0967995424773
 21
-247.8680493832664
 31
0.0
  0
LINE
  5
1EC
102
{ACAD_REACTORS
330
2C0
330
2C1
102
}
330
74
100
AcDbEntity
  8
0
  6
Continuous
 62
     2
100
AcDbLine
 10
-162.1961146982911
 20
-247.0803175979727
 30
0.0
 11
-161.4995237602256
 21
-247.8680493832664
 31
0.0
  0
LINE
  5
1ED
102
{ACAD_REACTORS
330
2BE
330
2BF
102
}
330
74
100
AcDbEntity
  8
0
  6
Continuous
 62
     2
100
AcDbLine
 10
-165.6552135345748
 20
-244.8142398594552
 30
0.0
 11
-164.4147091243219
 21
-244.8142398594552
 31
0.0
  0
LINE
  5
1EE
102
{ACAD_REACTORS
330
2BE
330
2BF
102
}
330
74
100
AcDbEntity
  8
0
  6
Continuous
 62
     2
100
AcDbLine
 10
-164.4147091243219
 20
-244.8142398594552
 30
0.0
 11
-164.4147091243219
 21
-247.8680493832664
 31
0.0
  0
LINE
  5
1EF
102
{ACAD_REACTORS
330
2BE
330
2BF
102
}
330
74
100
AcDbEntity
  8
0
  6
Continuous
 62
     2
100
AcDbLine
 10
-165.6552135345748
 20
-247.8680493832664
 30
0.0
 11
-165.6552135345748
 21
-244.8142398594552
 31
0.0
  0
LINE
  5
1F0
102
{ACAD_REACTORS
330
2BC
330
2BD
102
}
330
74
100
AcDbEntity
  8
0
  6
Continuous
 62
     2
100
AcDbLine
 10
-167.1235236171124
 20
-250.0057160499162
 30
0.0
 11
-166.82335837992
 21
-249.2379010839295
 31
0.0
  0
LINE
  5
1F1
102
{ACAD_REACTORS
330
2BC
330
2BD
102
}
330
74
100
AcDbEntity
  8
0
  6
Continuous
 62
     2
100
AcDbLine
 10
-167.6010592217332
 20
-251.2272398594407
 30
0.0
 11
-167.3895791682574
 21
-250.6862793152228
 31
0.0
  0
LINE
  5
1F2
102
{ACAD_REACTORS
330
2BC
330
2BD
102
}
330
74
100
AcDbEntity
  8
0
  6
Continuous
 62
     2
100
AcDbLine
 10
-167.4436105850469
 20
-248.1734303356296
 30
0.0
 11
-168.8415636319862
 21
-251.2272398594407
 31
0.0
  0
LINE
  5
1F3
102
{ACAD_REACTORS
330
2BC
330
2BD
102
}
330
74
100
AcDbEntity
  8
0
  6
Continuous
 62
     2
100
AcDbLine
 10
-164.8051531278539
 20
-251.2272398594407
 30
0.0
 11
-166.0456575381078
 21
-251.2272398594407
 31
0.0
  0
LINE
  5
1F4
102
{ACAD_REACTORS
330
2BC
330
2BD
102
}
330
74
100
AcDbEntity
  8
0
  6
Continuous
 62
     2
100
AcDbLine
 10
-167.3895791682574
 20
-250.6862793152228
 30
0.0
 11
-166.2571375915836
 21
-250.6862793152228
 31
0.0
  0
LINE
  5
1F5
102
{ACAD_REACTORS
330
2BA
330
2BB
102
}
330
74
100
AcDbEntity
  8
0
  6
Continuous
 62
     2
100
AcDbLine
 10
-170.9990757711684
 20
-248.9586956417532
 30
0.0
 11
-170.1879767336938
 21
-248.9586956417532
 31
0.0
  0
LINE
  5
1F6
102
{ACAD_REACTORS
330
2BA
330
2BB
102
}
330
74
100
AcDbEntity
  8
0
  6
Continuous
 62
     2
100
AcDbLine
 10
-168.1840849940548
 20
-248.1734303356296
 30
0.0
 11
-170.9990757711684
 21
-248.1734303356296
 31
0.0
  0
LINE
  5
1F7
102
{ACAD_REACTORS
330
2BA
330
2BB
102
}
330
74
100
AcDbEntity
  8
0
  6
Continuous
 62
     2
100
AcDbLine
 10
-168.1840849940548
 20
-248.9586956417532
 30
0.0
 11
-168.1840849940548
 21
-248.1734303356296
 31
0.0
  0
LINE
  5
1F8
102
{ACAD_REACTORS
330
2BA
330
2BB
102
}
330
74
100
AcDbEntity
  8
0
  6
Continuous
 62
     2
100
AcDbLine
 10
-168.9951840315273
 20
-248.9586956417532
 30
0.0
 11
-168.1840849940548
 21
-248.9586956417532
 31
0.0
  0
LINE
  5
1F9
102
{ACAD_REACTORS
330
2BA
330
2BB
102
}
330
74
100
AcDbEntity
  8
0
  6
Continuous
 62
     2
100
AcDbLine
 10
-168.9951840315273
 20
-251.2272398594407
 30
0.0
 11
-168.9951840315273
 21
-248.9586956417532
 31
0.0
  0
LINE
  5
1FA
102
{ACAD_REACTORS
330
2B8
330
2B9
102
}
330
74
100
AcDbEntity
  8
0
  6
Continuous
 62
     2
100
AcDbLine
 10
-168.3270691874293
 20
-247.8680493832664
 30
0.0
 11
-168.3270691874293
 21
-246.5592738730617
 31
0.0
  0
LINE
  5
1FB
102
{ACAD_REACTORS
330
2B8
330
2B9
102
}
330
74
100
AcDbEntity
  8
0
  6
Continuous
 62
     2
100
AcDbLine
 10
-169.5198618895958
 20
-244.8142398594552
 30
0.0
 11
-169.5198618895958
 21
-247.8680493832664
 31
0.0
  0
LINE
  5
1FC
102
{ACAD_REACTORS
330
2B8
330
2B9
102
}
330
74
100
AcDbEntity
  8
0
  6
Continuous
 62
     2
100
AcDbLine
 10
-168.3270691874293
 20
-244.8142398594552
 30
0.0
 11
-169.5198618895958
 21
-244.8142398594552
 31
0.0
  0
LINE
  5
1FD
102
{ACAD_REACTORS
330
2B8
330
2B9
102
}
330
74
100
AcDbEntity
  8
0
  6
Continuous
 62
     2
100
AcDbLine
 10
-167.0865647771753
 20
-244.8142398594552
 30
0.0
 11
-167.0865647771753
 21
-246.1230153696604
 31
0.0
  0
LINE
  5
1FE
102
{ACAD_REACTORS
330
2B6
330
2B7
102
}
330
74
100
AcDbEntity
  8
0
  6
Continuous
 62
     2
100
AcDbLine
 10
-174.7683007100155
 20
-248.1734303356296
 30
0.0
 11
-174.7683007100155
 21
-251.2272398594407
 31
0.0
  0
LINE
  5
1FF
102
{ACAD_REACTORS
330
2B6
330
2B7
102
}
330
74
100
AcDbEntity
  8
0
  6
Continuous
 62
     2
100
AcDbLine
 10
-173.5755080078479
 20
-248.1734303356296
 30
0.0
 11
-174.7683007100155
 21
-248.1734303356296
 31
0.0
  0
LINE
  5
200
102
{ACAD_REACTORS
330
2B6
330
2B7
102
}
330
74
100
AcDbEntity
  8
0
  6
Continuous
 62
     2
100
AcDbLine
 10
-172.335003597595
 20
-251.2272398594407
 30
0.0
 11
-171.1422108954286
 21
-251.2272398594407
 31
0.0
  0
LINE
  5
201
102
{ACAD_REACTORS
330
2B6
330
2B7
102
}
330
74
100
AcDbEntity
  8
0
  6
Continuous
 62
     2
100
AcDbLine
 10
-174.7683007100155
 20
-251.2272398594407
 30
0.0
 11
-173.5755080078479
 21
-251.2272398594407
 31
0.0
  0
LINE
  5
202
102
{ACAD_REACTORS
330
2C6
330
2C7
102
}
330
74
100
AcDbEntity
  8
0
  6
Continuous
 62
     2
100
AcDbLine
 10
-171.0943482564564
 20
-245.9921378186399
 30
0.0
 11
-171.0943482564564
 21
-245.5122534648982
 31
0.0
  0
LINE
  5
203
102
{ACAD_REACTORS
330
2C6
330
2C7
102
}
330
74
100
AcDbEntity
  8
0
  6
Continuous
 62
     2
100
AcDbLine
 10
-169.7584204300287
 20
-245.9921378186399
 30
0.0
 11
-171.0943482564564
 21
-245.9921378186399
 31
0.0
  0
LINE
  5
204
102
{ACAD_REACTORS
330
2C6
330
2C7
102
}
330
74
100
AcDbEntity
  8
0
  6
Continuous
 62
     2
100
AcDbLine
 10
-169.7584204300287
 20
-246.6901514240822
 30
0.0
 11
-169.7584204300287
 21
-245.9921378186399
 31
0.0
  0
LINE
  5
205
102
{ACAD_REACTORS
330
2C6
330
2C7
102
}
330
74
100
AcDbEntity
  8
0
  6
Continuous
 62
     2
100
AcDbLine
 10
-171.0943482564564
 20
-246.6901514240822
 30
0.0
 11
-169.7584204300287
 21
-246.6901514240822
 31
0.0
  0
LINE
  5
206
102
{ACAD_REACTORS
330
2B4
330
2B5
102
}
330
74
100
AcDbEntity
  8
0
  6
Continuous
 62
     2
100
AcDbLine
 10
-174.5773029467833
 20
-244.8142398594552
 30
0.0
 11
-174.5773029467833
 21
-247.8680493832664
 31
0.0
  0
LINE
  5
207
102
{ACAD_REACTORS
330
2B4
330
2B5
102
}
330
74
100
AcDbEntity
  8
0
  6
Continuous
 62
     2
100
AcDbLine
 10
-174.5773029467833
 20
-247.8680493832664
 30
0.0
 11
-175.7700956489497
 21
-247.8680493832664
 31
0.0
  0
LINE
  5
208
102
{ACAD_REACTORS
330
2B4
330
2B5
102
}
330
74
100
AcDbEntity
  8
0
  6
Continuous
 62
     2
100
AcDbLine
 10
-175.7700956489497
 20
-247.8680493832664
 30
0.0
 11
-175.7700956489497
 21
-246.7337772744226
 31
0.0
  0
LINE
  5
209
102
{ACAD_REACTORS
330
2B4
330
2B5
102
}
330
74
100
AcDbEntity
  8
0
  6
Continuous
 62
     2
100
AcDbLine
 10
-176.8197532268572
 20
-247.8680493832664
 30
0.0
 11
-178.0125459290238
 21
-247.8680493832664
 31
0.0
  0
LINE
  5
20A
102
{ACAD_REACTORS
330
2B4
330
2B5
102
}
330
74
100
AcDbEntity
  8
0
  6
Continuous
 62
     2
100
AcDbLine
 10
-178.0125459290238
 20
-244.8142398594552
 30
0.0
 11
-176.8197532268572
 21
-244.8142398594552
 31
0.0
  0
LINE
  5
20B
102
{ACAD_REACTORS
330
2B4
330
2B5
102
}
330
74
100
AcDbEntity
  8
0
  6
Continuous
 62
     2
100
AcDbLine
 10
-176.8197532268572
 20
-244.8142398594552
 30
0.0
 11
-176.8197532268572
 21
-245.8830731927898
 31
0.0
  0
LINE
  5
20C
102
{ACAD_REACTORS
330
2B4
330
2B5
102
}
330
74
100
AcDbEntity
  8
0
  6
Continuous
 62
     2
100
AcDbLine
 10
-176.8197532268572
 20
-245.8830731927898
 30
0.0
 11
-175.7700956489497
 21
-245.8830731927898
 31
0.0
  0
LINE
  5
20D
102
{ACAD_REACTORS
330
2C2
330
2C3
102
}
330
74
100
AcDbEntity
  8
0
  6
Continuous
 62
     2
100
AcDbLine
 10
-179.9687259605774
 20
-245.4773457048953
 30
0.0
 11
-179.6514308990355
 21
-245.4773457048953
 31
0.0
  0
LINE
  5
20E
102
{ACAD_REACTORS
330
2C2
330
2C3
102
}
330
74
100
AcDbEntity
  8
0
  6
Continuous
 62
     2
100
AcDbLine
 10
-179.9687259605774
 20
-246.1830733542375
 30
0.0
 11
-179.6514308990355
 21
-246.1830733542375
 31
0.0
  0
LINE
  5
20F
102
{ACAD_REACTORS
330
2C2
330
2C3
102
}
330
74
100
AcDbEntity
  8
0
  6
Continuous
 62
     2
100
AcDbLine
 10
-181.2092303708315
 20
-244.8142398594552
 30
0.0
 11
-181.2092303708315
 21
-247.8680493832664
 31
0.0
  0
LINE
  5
210
102
{ACAD_REACTORS
330
2C2
330
2C3
102
}
330
74
100
AcDbEntity
  8
0
  6
Continuous
 62
     2
100
AcDbLine
 10
-181.2092303708315
 20
-244.8142398594552
 30
0.0
 11
-179.2099583727971
 21
-244.8142398594552
 31
0.0
  0
LINE
  5
211
102
{ACAD_REACTORS
330
2C2
330
2C3
102
}
330
74
100
AcDbEntity
  8
0
  6
Continuous
 62
     2
100
AcDbLine
 10
-179.9687259605774
 20
-246.9249711421226
 30
0.0
 11
-179.2099583727971
 21
-246.9249711421226
 31
0.0
  0
LINE
  5
212
102
{ACAD_REACTORS
330
2C8
330
2C9
102
}
330
74
100
AcDbEntity
  8
0
  6
Continuous
 62
     2
100
AcDbLine
 10
-187.3057264041282
 20
-245.84251233809
 30
0.0
 11
-187.3057264041282
 21
-250.1989673808071
 31
0.0
  0
LINE
  5
213
102
{ACAD_REACTORS
330
2C8
330
2C9
102
}
330
74
100
AcDbEntity
  8
0
  6
Continuous
 62
     2
100
AcDbLine
 10
-186.9900094810525
 20
-245.5267954150138
 30
0.0
 11
-185.5141762200429
 21
-245.5267954150138
 31
0.0
  0
LINE
  5
214
102
{ACAD_REACTORS
330
2C8
330
2C9
102
}
330
74
100
AcDbEntity
  8
0
  6
Continuous
 62
     2
100
AcDbLine
 10
-185.1984592969663
 20
-246.4465369571505
 30
0.0
 11
-185.1984592969663
 21
-245.84251233809
 31
0.0
  0
LINE
  5
215
102
{ACAD_REACTORS
330
2C8
330
2C9
102
}
330
74
100
AcDbEntity
  8
0
  6
Continuous
 62
     2
100
AcDbLine
 10
-185.1984592969663
 20
-250.1989673808071
 30
0.0
 11
-185.1984592969663
 21
-248.6681964492755
 31
0.0
  0
LINE
  5
216
102
{ACAD_REACTORS
330
2C8
330
2C9
102
}
330
74
100
AcDbEntity
  8
0
  6
Continuous
 62
     2
100
AcDbLine
 10
-182.1105920670822
 20
-251.2272398594407
 30
0.0
 11
-187.583904157799
 21
-251.2272398594407
 31
0.0
  0
LINE
  5
217
102
{ACAD_REACTORS
330
2C8
330
2C9
102
}
330
74
100
AcDbEntity
  8
0
  6
Continuous
 62
     2
100
AcDbLine
 10
-181.6863474516983
 20
-245.2384844748572
 30
0.0
 11
-181.6863474516983
 21
-250.8029952440574
 31
0.0
  0
LINE
  5
218
102
{ACAD_REACTORS
330
2C8
330
2C9
102
}
330
74
100
AcDbEntity
  8
0
  6
Continuous
 62
     2
100
AcDbLine
 10
-187.583904157799
 20
-244.8142398594734
 30
0.0
 11
-182.1105920670822
 21
-244.8142398594734
 31
0.0
  0
LINE
  5
219
102
{ACAD_REACTORS
330
2C8
330
2C9
102
}
330
74
100
AcDbEntity
  8
0
  6
Continuous
 62
     2
100
AcDbLine
 10
-188.0081487731818
 20
-245.2384844748572
 30
0.0
 11
-188.0081487731818
 21
-250.8029952440574
 31
0.0
  0
LINE
  5
21A
102
{ACAD_REACTORS
330
2C8
330
2C9
102
}
330
74
100
AcDbEntity
  8
0
  6
Continuous
 62
     2
100
AcDbLine
 10
-185.5141762200429
 20
-250.5146843038838
 30
0.0
 11
-186.9900094810525
 21
-250.5146843038838
 31
0.0
  0
LINE
  5
21B
102
{ACAD_REACTORS
330
2C2
330
2C3
102
}
330
74
100
AcDbEntity
  8
0
  6
Continuous
 62
     2
100
AcDbLine
 10
-179.9687259605774
 20
-247.8680493832664
 30
0.0
 11
-179.9687259605774
 21
-246.9249711421226
 31
0.0
  0
LINE
  5
21C
102
{ACAD_REACTORS
330
2C2
330
2C3
102
}
330
74
100
AcDbEntity
  8
0
  6
Continuous
 62
     2
100
AcDbLine
 10
-181.2092303708315
 20
-247.8680493832664
 30
0.0
 11
-179.9687259605774
 21
-247.8680493832664
 31
0.0
  0
LINE
  5
21D
102
{ACAD_REACTORS
330
2C2
330
2C3
102
}
330
74
100
AcDbEntity
  8
0
  6
Continuous
 62
     2
100
AcDbLine
 10
-179.9687259605774
 20
-246.1830733542375
 30
0.0
 11
-179.9687259605774
 21
-245.4773457048953
 31
0.0
  0
LINE
  5
21E
102
{ACAD_REACTORS
330
2B4
330
2B5
102
}
330
74
100
AcDbEntity
  8
0
  6
Continuous
 62
     2
100
AcDbLine
 10
-178.0125459290238
 20
-244.8142398594552
 30
0.0
 11
-178.0125459290238
 21
-247.8680493832664
 31
0.0
  0
LINE
  5
21F
102
{ACAD_REACTORS
330
2B4
330
2B5
102
}
330
74
100
AcDbEntity
  8
0
  6
Continuous
 62
     2
100
AcDbLine
 10
-176.8197532268572
 20
-246.7337772744226
 30
0.0
 11
-176.8197532268572
 21
-247.8680493832664
 31
0.0
  0
LINE
  5
220
102
{ACAD_REACTORS
330
2B4
330
2B5
102
}
330
74
100
AcDbEntity
  8
0
  6
Continuous
 62
     2
100
AcDbLine
 10
-175.7700956489497
 20
-246.7337772744226
 30
0.0
 11
-176.8197532268572
 21
-246.7337772744226
 31
0.0
  0
LINE
  5
221
102
{ACAD_REACTORS
330
2B4
330
2B5
102
}
330
74
100
AcDbEntity
  8
0
  6
Continuous
 62
     2
100
AcDbLine
 10
-175.7700956489497
 20
-244.8142398594552
 30
0.0
 11
-174.5773029467833
 21
-244.8142398594552
 31
0.0
  0
LINE
  5
222
102
{ACAD_REACTORS
330
2B4
330
2B5
102
}
330
74
100
AcDbEntity
  8
0
  6
Continuous
 62
     2
100
AcDbLine
 10
-175.7700956489497
 20
-245.8830731927898
 30
0.0
 11
-175.7700956489497
 21
-244.8142398594552
 31
0.0
  0
LINE
  5
223
102
{ACAD_REACTORS
330
2C6
330
2C7
102
}
330
74
100
AcDbEntity
  8
0
  6
Continuous
 62
     2
100
AcDbLine
 10
-169.7584204300287
 20
-245.5122534648982
 30
0.0
 11
-169.7584204300287
 21
-244.8142398594552
 31
0.0
  0
LINE
  5
224
102
{ACAD_REACTORS
330
2C6
330
2C7
102
}
330
74
100
AcDbEntity
  8
0
  6
Continuous
 62
     2
100
AcDbLine
 10
-172.9087401538097
 20
-244.8142398594552
 30
0.0
 11
-169.7584204300287
 21
-244.8142398594552
 31
0.0
  0
LINE
  5
225
102
{ACAD_REACTORS
330
2C6
330
2C7
102
}
330
74
100
AcDbEntity
  8
0
  6
Continuous
 62
     2
100
AcDbLine
 10
-172.9087401538097
 20
-247.8680493832664
 30
0.0
 11
-169.7584204300287
 21
-247.8680493832664
 31
0.0
  0
LINE
  5
226
102
{ACAD_REACTORS
330
2C6
330
2C7
102
}
330
74
100
AcDbEntity
  8
0
  6
Continuous
 62
     2
100
AcDbLine
 10
-169.7584204300287
 20
-247.8680493832664
 30
0.0
 11
-169.7584204300287
 21
-247.1700357778239
 31
0.0
  0
LINE
  5
227
102
{ACAD_REACTORS
330
2C6
330
2C7
102
}
330
74
100
AcDbEntity
  8
0
  6
Continuous
 62
     2
100
AcDbLine
 10
-169.7584204300287
 20
-247.1700357778239
 30
0.0
 11
-171.0943482564564
 21
-247.1700357778239
 31
0.0
  0
LINE
  5
228
102
{ACAD_REACTORS
330
2C6
330
2C7
102
}
330
74
100
AcDbEntity
  8
0
  6
Continuous
 62
     2
100
AcDbLine
 10
-171.0943482564564
 20
-247.1700357778239
 30
0.0
 11
-171.0943482564564
 21
-246.6901514240822
 31
0.0
  0
LINE
  5
229
102
{ACAD_REACTORS
330
2C6
330
2C7
102
}
330
74
100
AcDbEntity
  8
0
  6
Continuous
 62
     2
100
AcDbLine
 10
-171.0943482564564
 20
-245.5122534648982
 30
0.0
 11
-169.7584204300287
 21
-245.5122534648982
 31
0.0
  0
LINE
  5
22A
102
{ACAD_REACTORS
330
2B6
330
2B7
102
}
330
74
100
AcDbEntity
  8
0
  6
Continuous
 62
     2
100
AcDbLine
 10
-173.5755080078479
 20
-251.2272398594407
 30
0.0
 11
-173.5755080078479
 21
-249.9184643492361
 31
0.0
  0
LINE
  5
22B
102
{ACAD_REACTORS
330
2B6
330
2B7
102
}
330
74
100
AcDbEntity
  8
0
  6
Continuous
 62
     2
100
AcDbLine
 10
-173.5755080078479
 20
-249.9184643492361
 30
0.0
 11
-172.335003597595
 21
-251.2272398594407
 31
0.0
  0
LINE
  5
22C
102
{ACAD_REACTORS
330
2B6
330
2B7
102
}
330
74
100
AcDbEntity
  8
0
  6
Continuous
 62
     2
100
AcDbLine
 10
-171.1422108954286
 20
-251.2272398594407
 30
0.0
 11
-171.1422108954286
 21
-248.1734303356296
 31
0.0
  0
LINE
  5
22D
102
{ACAD_REACTORS
330
2B6
330
2B7
102
}
330
74
100
AcDbEntity
  8
0
  6
Continuous
 62
     2
100
AcDbLine
 10
-171.1422108954286
 20
-248.1734303356296
 30
0.0
 11
-172.335003597595
 21
-248.1734303356296
 31
0.0
  0
LINE
  5
22E
102
{ACAD_REACTORS
330
2B6
330
2B7
102
}
330
74
100
AcDbEntity
  8
0
  6
Continuous
 62
     2
100
AcDbLine
 10
-172.335003597595
 20
-248.1734303356296
 30
0.0
 11
-172.335003597595
 21
-249.4822058458347
 31
0.0
  0
LINE
  5
22F
102
{ACAD_REACTORS
330
2B6
330
2B7
102
}
330
74
100
AcDbEntity
  8
0
  6
Continuous
 62
     2
100
AcDbLine
 10
-172.335003597595
 20
-249.4822058458347
 30
0.0
 11
-173.5755080078479
 21
-248.1734303356296
 31
0.0
  0
LINE
  5
230
102
{ACAD_REACTORS
330
2B8
330
2B9
102
}
330
74
100
AcDbEntity
  8
0
  6
Continuous
 62
     2
100
AcDbLine
 10
-168.3270691874293
 20
-246.5592738730617
 30
0.0
 11
-167.0865647771753
 21
-247.8680493832664
 31
0.0
  0
LINE
  5
231
102
{ACAD_REACTORS
330
2B8
330
2B9
102
}
330
74
100
AcDbEntity
  8
0
  6
Continuous
 62
     2
100
AcDbLine
 10
-167.0865647771753
 20
-247.8680493832664
 30
0.0
 11
-165.8937720750087
 21
-247.8680493832664
 31
0.0
  0
LINE
  5
232
102
{ACAD_REACTORS
330
2B8
330
2B9
102
}
330
74
100
AcDbEntity
  8
0
  6
Continuous
 62
     2
100
AcDbLine
 10
-165.8937720750087
 20
-247.8680493832664
 30
0.0
 11
-165.8937720750087
 21
-244.8142398594552
 31
0.0
  0
LINE
  5
233
102
{ACAD_REACTORS
330
2B8
330
2B9
102
}
330
74
100
AcDbEntity
  8
0
  6
Continuous
 62
     2
100
AcDbLine
 10
-165.8937720750087
 20
-244.8142398594552
 30
0.0
 11
-167.0865647771753
 21
-244.8142398594552
 31
0.0
  0
LINE
  5
234
102
{ACAD_REACTORS
330
2B8
330
2B9
102
}
330
74
100
AcDbEntity
  8
0
  6
Continuous
 62
     2
100
AcDbLine
 10
-167.0865647771753
 20
-246.1230153696604
 30
0.0
 11
-168.3270691874293
 21
-244.8142398594552
 31
0.0
  0
LINE
  5
235
102
{ACAD_REACTORS
330
2B8
330
2B9
102
}
330
74
100
AcDbEntity
  8
0
  6
Continuous
 62
     2
100
AcDbLine
 10
-169.5198618895958
 20
-247.8680493832664
 30
0.0
 11
-168.3270691874293
 21
-247.8680493832664
 31
0.0
  0
LINE
  5
236
102
{ACAD_REACTORS
330
2BA
330
2BB
102
}
330
74
100
AcDbEntity
  8
0
  6
Continuous
 62
     2
100
AcDbLine
 10
-170.9990757711684
 20
-248.1734303356296
 30
0.0
 11
-170.9990757711684
 21
-248.9586956417532
 31
0.0
  0
LINE
  5
237
102
{ACAD_REACTORS
330
2BA
330
2BB
102
}
330
74
100
AcDbEntity
  8
0
  6
Continuous
 62
     2
100
AcDbLine
 10
-170.1879767336938
 20
-248.9586956417532
 30
0.0
 11
-170.1879767336938
 21
-251.2272398594407
 31
0.0
  0
LINE
  5
238
102
{ACAD_REACTORS
330
2BA
330
2BB
102
}
330
74
100
AcDbEntity
  8
0
  6
Continuous
 62
     2
100
AcDbLine
 10
-170.1879767336938
 20
-251.2272398594407
 30
0.0
 11
-168.9951840315273
 21
-251.2272398594407
 31
0.0
  0
LINE
  5
239
102
{ACAD_REACTORS
330
2BC
330
2BD
102
}
330
74
100
AcDbEntity
  8
0
  6
Continuous
 62
     2
100
AcDbLine
 10
-166.0456575381078
 20
-251.2272398594407
 30
0.0
 11
-166.2571375915836
 21
-250.6862793152228
 31
0.0
  0
LINE
  5
23A
102
{ACAD_REACTORS
330
2BC
330
2BD
102
}
330
74
100
AcDbEntity
  8
0
  6
Continuous
 62
     2
100
AcDbLine
 10
-166.2031061747942
 20
-248.1734303356296
 30
0.0
 11
-164.8051531278539
 21
-251.2272398594407
 31
0.0
  0
LINE
  5
23B
102
{ACAD_REACTORS
330
2BC
330
2BD
102
}
330
74
100
AcDbEntity
  8
0
  6
Continuous
 62
     2
100
AcDbLine
 10
-167.4436105850469
 20
-248.1734303356296
 30
0.0
 11
-166.2031061747942
 21
-248.1734303356296
 31
0.0
  0
LINE
  5
23C
102
{ACAD_REACTORS
330
2BC
330
2BD
102
}
330
74
100
AcDbEntity
  8
0
  6
Continuous
 62
     2
100
AcDbLine
 10
-168.8415636319862
 20
-251.2272398594407
 30
0.0
 11
-167.6010592217332
 21
-251.2272398594407
 31
0.0
  0
LINE
  5
23D
102
{ACAD_REACTORS
330
2BC
330
2BD
102
}
330
74
100
AcDbEntity
  8
0
  6
Continuous
 62
     2
100
AcDbLine
 10
-167.1235236171124
 20
-250.0057160499162
 30
0.0
 11
-166.5231931427299
 21
-250.0057160499162
 31
0.0
  0
LINE
  5
23E
102
{ACAD_REACTORS
330
2BC
330
2BD
102
}
330
74
100
AcDbEntity
  8
0
  6
Continuous
 62
     2
100
AcDbLine
 10
-166.5231931427299
 20
-250.0057160499162
 30
0.0
 11
-166.82335837992
 21
-249.2379010839295
 31
0.0
  0
LINE
  5
23F
102
{ACAD_REACTORS
330
2BE
330
2BF
102
}
330
74
100
AcDbEntity
  8
0
  6
Continuous
 62
     2
100
AcDbLine
 10
-164.4147091243219
 20
-247.8680493832664
 30
0.0
 11
-165.6552135345748
 21
-247.8680493832664
 31
0.0
  0
LINE
  5
240
102
{ACAD_REACTORS
330
2C0
330
2C1
102
}
330
74
100
AcDbEntity
  8
0
  6
Continuous
 62
     2
100
AcDbLine
 10
-162.8927056363568
 20
-247.8680493832664
 30
0.0
 11
-164.295429854105
 21
-247.8680493832664
 31
0.0
  0
LINE
  5
241
102
{ACAD_REACTORS
330
2C0
330
2C1
102
}
330
74
100
AcDbEntity
  8
0
  6
Continuous
 62
     2
100
AcDbLine
 10
-162.8927056363568
 20
-247.8680493832664
 30
0.0
 11
-162.1961146982911
 21
-247.0803175979727
 31
0.0
  0
LINE
  5
242
102
{ACAD_REACTORS
330
2C0
330
2C1
102
}
330
74
100
AcDbEntity
  8
0
  6
Continuous
 62
     2
100
AcDbLine
 10
-161.5949471763983
 20
-244.8142398594552
 30
0.0
 11
-160.1922229586511
 21
-244.8142398594552
 31
0.0
  0
LINE
  5
243
102
{ACAD_REACTORS
330
2C0
330
2C1
102
}
330
74
100
AcDbEntity
  8
0
  6
Continuous
 62
     2
100
AcDbLine
 10
-164.2000064379322
 20
-244.8142398594552
 30
0.0
 11
-162.8974768071647
 21
-246.2871903894914
 31
0.0
  0
LINE
  5
244
102
{ACAD_REACTORS
330
2C0
330
2C1
102
}
330
74
100
AcDbEntity
  8
0
  6
Continuous
 62
     2
100
AcDbLine
 10
-164.295429854105
 20
-247.8680493832664
 30
0.0
 11
-162.8974768071647
 21
-246.2871903894914
 31
0.0
  0
LINE
  5
245
102
{ACAD_REACTORS
330
2CA
330
2CB
102
}
330
74
100
AcDbEntity
  8
0
  6
Continuous
 62
     2
100
AcDbLine
 10
-162.4346732387251
 20
-250.1802194512771
 30
0.0
 11
-162.4346732387251
 21
-251.0527364580804
 31
0.0
  0
LINE
  5
246
102
{ACAD_REACTORS
330
2CA
330
2CB
102
}
330
74
100
AcDbEntity
  8
0
  6
Continuous
 62
     2
100
AcDbLine
 10
-163.2043305816865
 20
-248.9586956417532
 30
0.0
 11
-162.1006912821184
 21
-248.9586956417532
 31
0.0
  0
LINE
  5
247
102
{ACAD_REACTORS
330
2CC
330
2CD
102
}
330
74
100
AcDbEntity
  8
0
  6
Continuous
 62
     2
100
AcDbLine
 10
-178.537374717977
 20
-250.1802194512766
 30
0.0
 11
-178.537374717977
 21
-251.0527364580798
 31
0.0
  0
LINE
  5
248
102
{ACAD_REACTORS
330
2CC
330
2CD
102
}
330
74
100
AcDbEntity
  8
0
  6
Continuous
 62
     2
100
AcDbLine
 10
-178.537374717977
 20
-249.2204507437937
 30
0.0
 11
-178.537374717977
 21
-248.3479337369904
 31
0.0
  0
LINE
  5
249
330
74
100
AcDbEntity
  8
1
  6
Continuous
 62
     7
100
AcDbLine
 10
-62.69999913299313
 20
-250.020739859457
 30
0.0
 11
-155.8448036597445
 21
-250.020739859457
 31
0.0
  0
LINE
  5
24A
330
74
100
AcDbEntity
  8
1
  6
Continuous
 62
     6
100
AcDbLine
 10
-261.2448036597444
 20
-258.520739859457
 30
0.0
 11
-306.1999991329944
 21
-258.520739859457
 31
0.0
  0
LINE
  5
24B
330
74
100
AcDbEntity
  8
1
  6
Continuous
 62
     7
100
AcDbLine
 10
-71.61840741467194
 20
-233.020739859457
 30
0.0
 11
-71.61840741467194
 21
-241.520739859457
 31
0.0
  0
LINE
  5
24C
330
74
100
AcDbEntity
  8
1
  6
Continuous
 62
     7
100
AcDbLine
 10
-98.11840741467154
 20
-233.020739859457
 30
0.0
 11
-98.11840741467154
 21
-241.520739859457
 31
0.0
  0
LINE
  5
24D
330
74
100
AcDbEntity
  8
1
  6
Continuous
 62
     7
100
AcDbLine
 10
-155.8448036597445
 20
-241.520739859457
 30
0.0
 11
-155.8448036597445
 21
-233.020739859457
 31
0.0
  0
LINE
  5
24E
330
74
100
AcDbEntity
  8
1
  6
Continuous
 62
     7
100
AcDbLine
 10
-192.2448036597444
 20
-241.520739859457
 30
0.0
 11
-192.2448036597444
 21
-233.020739859457
 31
0.0
  0
LINE
  5
24F
330
74
100
AcDbEntity
  8
1
  6
Continuous
 62
     6
100
AcDbLine
 10
-155.8448036597445
 20
-241.520739859457
 30
0.0
 11
-62.69999913299273
 21
-241.520739859457
 31
0.0
  0
LINE
  5
250
330
74
100
AcDbEntity
  8
1
  6
Continuous
 62
     7
100
AcDbLine
 10
-127.9448036597444
 20
-250.0207398594571
 30
0.0
 11
-127.9448036597444
 21
-241.520739859457
 31
0.0
  0
LINE
  5
251
330
74
100
AcDbEntity
  8
1
  6
PHANTOM
 62
     2
100
AcDbLine
 10
-176.7581487731818
 20
-237.3957398594571
 30
0.0
 11
-182.2581487731818
 21
-237.3957398594571
 31
0.0
  0
LINE
  5
252
330
74
100
AcDbEntity
  8
1
  6
PHANTOM
 62
     2
100
AcDbLine
 10
-179.5081487731818
 20
-234.6457398594571
 30
0.0
 11
-179.5081487731818
 21
-240.1457398594571
 31
0.0
  0
LINE
  5
253
330
74
100
AcDbEntity
  8
1
  6
DOT_CENTER
 62
     2
100
AcDbLine
 10
-188.2581487731818
 20
-237.3957398594571
 30
0.0
 11
-182.7581487731818
 21
-237.3957398594571
 31
0.0
  0
ARC
  5
254
102
{ACAD_REACTORS
330
2CC
330
2CD
102
}
330
74
100
AcDbEntity
  8
0
  6
Continuous
 62
     2
100
AcDbCircle
 10
-179.8733026350948
 20
-253.0130160427913
 30
0.0
 40
4.852596863498068
100
AcDbArc
 50
74.02000874164739
 51
84.84185523037506
  0
ARC
  5
255
102
{ACAD_REACTORS
330
2CC
330
2CD
102
}
330
74
100
AcDbEntity
  8
0
  6
Continuous
 62
     2
100
AcDbCircle
 10
-179.2972620263411
 20
-249.857255686907
 30
0.0
 40
0.9059297849853228
100
AcDbArc
 50
71.55192388185348
 51
113.3722778881306
  0
ARC
  5
256
102
{ACAD_REACTORS
330
2CC
330
2CD
102
}
330
74
100
AcDbEntity
  8
0
  6
Continuous
 62
     2
100
AcDbCircle
 10
-179.4537020590431
 20
-249.9054065268739
 30
0.0
 40
0.5115800601948034
100
AcDbArc
 50
208.5214732576956
 51
246.6277221118245
  0
ARC
  5
257
102
{ACAD_REACTORS
330
2CC
330
2CD
102
}
330
74
100
AcDbEntity
  8
0
  6
Continuous
 62
     2
100
AcDbCircle
 10
-179.2972620263411
 20
-249.5434145081639
 30
0.0
 40
0.9059297849849305
100
AcDbArc
 50
246.6277221118694
 51
288.4480761181579
  0
ARC
  5
258
102
{ACAD_REACTORS
330
2CC
330
2CD
102
}
330
74
100
AcDbEntity
  8
0
  6
Continuous
 62
     2
100
AcDbCircle
 10
-179.7154297600019
 20
-248.2898687321267
 30
0.0
 40
2.227384008972773
100
AcDbArc
 50
288.4480761181333
 51
301.9309089499599
  0
ARC
  5
259
102
{ACAD_REACTORS
330
2C8
330
2C9
102
}
330
74
100
AcDbEntity
  8
0
  6
Continuous
 62
     2
100
AcDbCircle
 10
-184.9405034926087
 20
-247.5573667032127
 30
0.0
 40
0.9118481501444968
100
AcDbArc
 50
295.3740086781773
 51
64.62599132180586
  0
ARC
  5
25A
102
{ACAD_REACTORS
330
2C8
330
2C9
102
}
330
74
100
AcDbEntity
  8
0
  6
Continuous
 62
     2
100
AcDbCircle
 10
-184.4144607945208
 20
-245.8426898147381
 30
0.0
 40
0.3157169230760711
100
AcDbArc
 50
90.18896704254594
 51
180.0
  0
ARC
  5
25B
102
{ACAD_REACTORS
330
2CA
330
2CB
102
}
330
74
100
AcDbEntity
  8
0
  6
Continuous
 62
     2
100
AcDbCircle
 10
-163.2043305816865
 20
-249.9132186485793
 30
0.0
 40
0.9545230068260935
100
AcDbArc
 50
90.0
 51
109.337143219432
  0
ARC
  5
25C
102
{ACAD_REACTORS
330
2CA
330
2CB
102
}
330
74
100
AcDbEntity
  8
0
  6
Continuous
 62
     2
100
AcDbCircle
 10
-162.9736433217088
 20
-249.7003350975354
 30
0.0
 40
0.9410597353348924
100
AcDbArc
 50
151.4785267423624
 51
208.5214732576695
  0
ARC
  5
25D
102
{ACAD_REACTORS
330
2CA
330
2CB
102
}
330
74
100
AcDbEntity
  8
0
  6
Continuous
 62
     2
100
AcDbCircle
 10
-163.1945605470871
 20
-249.5434145081639
 30
0.0
 40
0.9059297849852801
100
AcDbArc
 50
246.6277221118183
 51
288.4480761180811
  0
ARC
  5
25E
102
{ACAD_REACTORS
330
2CA
330
2CB
102
}
330
74
100
AcDbEntity
  8
0
  6
Continuous
 62
     2
100
AcDbCircle
 10
-163.612728280749
 20
-248.2898687321273
 30
0.0
 40
2.227384008972773
100
AcDbArc
 50
288.4480761181333
 51
301.9309089499387
  0
ARC
  5
25F
102
{ACAD_REACTORS
330
2CA
330
2CB
102
}
330
74
100
AcDbEntity
  8
0
  6
Continuous
 62
     2
100
AcDbCircle
 10
-163.7706011558418
 20
-246.387654152279
 30
0.0
 40
4.852596863498825
100
AcDbArc
 50
275.1581447696364
 51
285.9799912583383
  0
ARC
  5
260
102
{ACAD_REACTORS
330
2CA
330
2CB
102
}
330
74
100
AcDbEntity
  8
0
  6
Continuous
 62
     2
100
AcDbCircle
 10
-163.481745061106
 20
-249.5875447355006
 30
0.0
 40
1.639695123940421
100
AcDbArc
 50
195.0618917771015
 51
275.1581447696772
  0
ARC
  5
261
102
{ACAD_REACTORS
330
2C2
330
2C3
102
}
330
74
100
AcDbEntity
  8
0
  6
Continuous
 62
     2
100
AcDbCircle
 10
-179.2099583727971
 20
-245.8696055007889
 30
0.0
 40
1.05536564133368
100
AcDbArc
 50
270.0
 51
90.0
  0
ARC
  5
262
102
{ACAD_REACTORS
330
2C8
330
2C9
102
}
330
74
100
AcDbEntity
  8
0
  6
Continuous
 62
     2
100
AcDbCircle
 10
-186.9900094810525
 20
-250.1989673808071
 30
0.0
 40
0.3157169230756836
100
AcDbArc
 50
180.0
 51
270.0
  0
ARC
  5
263
102
{ACAD_REACTORS
330
2C8
330
2C9
102
}
330
74
100
AcDbEntity
  8
0
  6
Continuous
 62
     2
100
AcDbCircle
 10
-185.5141762200429
 20
-245.84251233809
 30
0.0
 40
0.3157169230766215
100
AcDbArc
 50
0.0
 51
90.0
  0
ARC
  5
264
102
{ACAD_REACTORS
330
2C8
330
2C9
102
}
330
74
100
AcDbEntity
  8
0
  6
Continuous
 62
     2
100
AcDbCircle
 10
-185.5141762200429
 20
-246.4465369571505
 30
0.0
 40
0.3157169230761581
100
AcDbArc
 50
295.1944106485421
 51
0.0
  0
ARC
  5
265
102
{ACAD_REACTORS
330
2C8
330
2C9
102
}
330
74
100
AcDbEntity
  8
0
  6
Continuous
 62
     2
100
AcDbCircle
 10
-185.5141762200429
 20
-250.1989673808071
 30
0.0
 40
0.3157169230767067
100
AcDbArc
 50
270.0
 51
0.0
  0
ARC
  5
266
102
{ACAD_REACTORS
330
2C8
330
2C9
102
}
330
74
100
AcDbEntity
  8
0
  6
Continuous
 62
     2
100
AcDbCircle
 10
-187.583904157799
 20
-245.2384844748572
 30
0.0
 40
0.4242446153837989
100
AcDbArc
 50
90.0
 51
180.0
  0
ARC
  5
267
102
{ACAD_REACTORS
330
2C8
330
2C9
102
}
330
74
100
AcDbEntity
  8
0
  6
Continuous
 62
     2
100
AcDbCircle
 10
-182.1105920670822
 20
-245.2384844748572
 30
0.0
 40
0.4242446153838841
100
AcDbArc
 50
0.0
 51
90.0
  0
ARC
  5
268
102
{ACAD_REACTORS
330
2C8
330
2C9
102
}
330
74
100
AcDbEntity
  8
0
  6
Continuous
 62
     2
100
AcDbCircle
 10
-182.1105920670822
 20
-250.8029952440574
 30
0.0
 40
0.4242446153832873
100
AcDbArc
 50
270.0
 51
0.0
  0
ARC
  5
269
102
{ACAD_REACTORS
330
2C6
330
2C7
102
}
330
74
100
AcDbEntity
  8
0
  6
Continuous
 62
     2
100
AcDbCircle
 10
-172.8922081799907
 20
-246.3411446213611
 30
0.0
 40
0.7717997786796198
100
AcDbArc
 50
321.8795802028454
 51
38.12041979716123
  0
ARC
  5
26A
102
{ACAD_REACTORS
330
2C6
330
2C7
102
}
330
74
100
AcDbEntity
  8
0
  6
Continuous
 62
     2
100
AcDbCircle
 10
-172.6924681436445
 20
-246.4978757994815
 30
0.0
 40
0.5179085730134372
100
AcDbArc
 50
218.1204197971511
 51
321.8795802028566
  0
ARC
  5
26B
102
{ACAD_REACTORS
330
2C4
330
2C5
102
}
330
74
100
AcDbEntity
  8
0
  6
Continuous
 62
     2
100
AcDbCircle
 10
-176.3724757326047
 20
-249.7003350975354
 30
0.0
 40
1.458034083652003
100
AcDbArc
 50
297.548148175701
 51
62.45185182429896
  0
ARC
  5
26C
102
{ACAD_REACTORS
330
2C4
330
2C5
102
}
330
74
100
AcDbEntity
  8
0
  6
Continuous
 62
     2
100
AcDbCircle
 10
-176.9343555162713
 20
-249.7003350975354
 30
0.0
 40
1.458034083651503
100
AcDbArc
 50
117.5481481756634
 51
242.4518518243366
  0
ARC
  5
26D
102
{ACAD_REACTORS
330
2C4
330
2C5
102
}
330
74
100
AcDbEntity
  8
0
  6
Continuous
 62
     2
100
AcDbCircle
 10
-176.653415624438
 20
-250.2389101078382
 30
0.0
 40
2.065479772208568
100
AcDbArc
 50
62.45185182430637
 51
117.5481481756671
  0
ARC
  5
26E
102
{ACAD_REACTORS
330
2C4
330
2C5
102
}
330
74
100
AcDbEntity
  8
0
  6
Continuous
 62
     2
100
AcDbCircle
 10
-176.653415624438
 20
-249.1617600872321
 30
0.0
 40
2.065479772208522
100
AcDbArc
 50
242.4518518243395
 51
297.5481481756871
  0
ARC
  5
26F
102
{ACAD_REACTORS
330
2C6
330
2C7
102
}
330
74
100
AcDbEntity
  8
0
  6
Continuous
 62
     2
100
AcDbCircle
 10
-172.4927281072982
 20
-246.3411446213611
 30
0.0
 40
0.77179977867969
100
AcDbArc
 50
141.8795802028388
 51
218.1204197971546
  0
ARC
  5
270
102
{ACAD_REACTORS
330
2C6
330
2C7
102
}
330
74
100
AcDbEntity
  8
0
  6
Continuous
 62
     2
100
AcDbCircle
 10
-172.6924681436445
 20
-246.1844134432406
 30
0.0
 40
0.5179085730135266
100
AcDbArc
 50
38.12041979714334
 51
141.8795802028489
  0
ARC
  5
271
102
{ACAD_REACTORS
330
2C8
330
2C9
102
}
330
74
100
AcDbEntity
  8
0
  6
Continuous
 62
     2
100
AcDbCircle
 10
-187.583904157799
 20
-250.8029952440574
 30
0.0
 40
0.4242446153828041
100
AcDbArc
 50
180.0
 51
270.0
  0
ARC
  5
272
102
{ACAD_REACTORS
330
2C8
330
2C9
102
}
330
74
100
AcDbEntity
  8
0
  6
Continuous
 62
     2
100
AcDbCircle
 10
-185.5141762200429
 20
-248.6681964492755
 30
0.0
 40
0.3157169230766215
100
AcDbArc
 50
0.0
 51
64.80558935145781
  0
ARC
  5
273
102
{ACAD_REACTORS
330
2C8
330
2C9
102
}
330
74
100
AcDbEntity
  8
0
  6
Continuous
 62
     2
100
AcDbCircle
 10
-184.9915917724679
 20
-247.5573667032127
 30
0.0
 40
0.9118975235575889
100
AcDbArc
 50
115.194410648529
 51
244.8055893514878
  0
ARC
  5
274
102
{ACAD_REACTORS
330
2C8
330
2C9
102
}
330
74
100
AcDbEntity
  8
0
  6
Continuous
 62
     2
100
AcDbCircle
 10
-186.9900094810525
 20
-245.84251233809
 30
0.0
 40
0.3157169230761951
100
AcDbArc
 50
90.0
 51
180.0
  0
ARC
  5
275
102
{ACAD_REACTORS
330
2C2
330
2C3
102
}
330
74
100
AcDbEntity
  8
0
  6
Continuous
 62
     2
100
AcDbCircle
 10
-179.6514308990355
 20
-245.8302095295664
 30
0.0
 40
0.3528638246711182
100
AcDbArc
 50
270.0
 51
90.0
  0
ARC
  5
276
102
{ACAD_REACTORS
330
2C6
330
2C7
102
}
330
74
100
AcDbEntity
  8
0
  6
Continuous
 62
     2
100
AcDbCircle
 10
-172.9087401538097
 20
-246.3411446213611
 30
0.0
 40
1.526904761905911
100
AcDbArc
 50
90.0
 51
270.0
  0
ARC
  5
277
102
{ACAD_REACTORS
330
2CA
330
2CB
102
}
330
74
100
AcDbEntity
  8
0
  6
Continuous
 62
     2
100
AcDbCircle
 10
-163.481745061106
 20
-249.8131254595703
 30
0.0
 40
1.639695123940214
100
AcDbArc
 50
90.0
 51
164.9381082228957
  0
ARC
  5
278
102
{ACAD_REACTORS
330
2CA
330
2CB
102
}
330
74
100
AcDbEntity
  8
0
  6
Continuous
 62
     2
100
AcDbCircle
 10
-163.9008729045676
 20
-249.7003350975354
 30
0.0
 40
1.205656168392995
100
AcDbArc
 50
164.9381082229041
 51
195.0618917770959
  0
ARC
  5
279
102
{ACAD_REACTORS
330
2CA
330
2CB
102
}
330
74
100
AcDbEntity
  8
0
  6
Continuous
 62
     2
100
AcDbCircle
 10
-163.3510005797902
 20
-249.9054065268739
 30
0.0
 40
0.5115800601960215
100
AcDbArc
 50
208.5214732576866
 51
246.6277221118449
  0
ARC
  5
27A
102
{ACAD_REACTORS
330
2CA
330
2CB
102
}
330
74
100
AcDbEntity
  8
0
  6
Continuous
 62
     2
100
AcDbCircle
 10
-163.3510005797902
 20
-249.4952636681964
 30
0.0
 40
0.5115800601944143
100
AcDbArc
 50
109.3371432194853
 51
151.4785267424225
  0
ARC
  5
27B
102
{ACAD_REACTORS
330
2C8
330
2C9
102
}
330
74
100
AcDbEntity
  8
0
  6
Continuous
 62
     2
100
AcDbCircle
 10
-184.4144607945208
 20
-249.2483597098762
 30
0.0
 40
0.315716923076792
100
AcDbArc
 50
180.0
 51
269.8110329574541
  0
ARC
  5
27C
102
{ACAD_REACTORS
330
2C8
330
2C9
102
}
330
74
100
AcDbEntity
  8
0
  6
Continuous
 62
     2
100
AcDbCircle
 10
-184.4088446592108
 20
-247.5455247623072
 30
0.0
 40
2.018561131933266
100
AcDbArc
 50
269.8110329575866
 51
90.18896704241334
  0
ARC
  5
27D
102
{ACAD_REACTORS
330
2C8
330
2C9
102
}
330
74
100
AcDbEntity
  8
0
  6
Continuous
 62
     2
100
AcDbCircle
 10
-184.4144607945208
 20
-246.4482251032449
 30
0.0
 40
0.315716923076792
100
AcDbArc
 50
180.0
 51
244.6259913216459
  0
ARC
  5
27E
102
{ACAD_REACTORS
330
2C8
330
2C9
102
}
330
74
100
AcDbEntity
  8
0
  6
Continuous
 62
     2
100
AcDbCircle
 10
-184.4144607945208
 20
-248.6665083031811
 30
0.0
 40
0.3157169230765071
100
AcDbArc
 50
115.3740086783541
 51
180.0
  0
ARC
  5
27F
102
{ACAD_REACTORS
330
2CC
330
2CD
102
}
330
74
100
AcDbEntity
  8
0
  6
Continuous
 62
     2
100
AcDbCircle
 10
-179.5844465403589
 20
-249.8131254595703
 30
0.0
 40
1.639695123940507
100
AcDbArc
 50
84.84185523036236
 51
164.9381082228877
  0
ARC
  5
280
102
{ACAD_REACTORS
330
2CC
330
2CD
102
}
330
74
100
AcDbEntity
  8
0
  6
Continuous
 62
     2
100
AcDbCircle
 10
-180.0035743838217
 20
-249.7003350975354
 30
0.0
 40
1.205656168390964
100
AcDbArc
 50
164.9381082228781
 51
195.0618917770945
  0
ARC
  5
281
102
{ACAD_REACTORS
330
2CC
330
2CD
102
}
330
74
100
AcDbEntity
  8
0
  6
Continuous
 62
     2
100
AcDbCircle
 10
-179.5844465403589
 20
-249.5875447355006
 30
0.0
 40
1.639695123939415
100
AcDbArc
 50
195.0618917770893
 51
275.1581447696395
  0
ARC
  5
282
102
{ACAD_REACTORS
330
2CC
330
2CD
102
}
330
74
100
AcDbEntity
  8
0
  6
Continuous
 62
     2
100
AcDbCircle
 10
-179.8733026350948
 20
-246.387654152279
 30
0.0
 40
4.852596863498138
100
AcDbArc
 50
275.1581447696249
 51
285.9799912583529
  0
ARC
  5
283
102
{ACAD_REACTORS
330
2CC
330
2CD
102
}
330
74
100
AcDbEntity
  8
0
  6
Continuous
 62
     2
100
AcDbCircle
 10
-179.0763448009628
 20
-249.7003350975354
 30
0.0
 40
0.9410597353332545
100
AcDbArc
 50
151.4785267422669
 51
208.5214732577057
  0
ARC
  5
284
102
{ACAD_REACTORS
330
2CC
330
2CD
102
}
330
74
100
AcDbEntity
  8
0
  6
Continuous
 62
     2
100
AcDbCircle
 10
-179.4537020590431
 20
-249.4952636681964
 30
0.0
 40
0.5115800601948891
100
AcDbArc
 50
113.3722778882021
 51
151.4785267423044
  0
ARC
  5
285
102
{ACAD_REACTORS
330
2CC
330
2CD
102
}
330
74
100
AcDbEntity
  8
0
  6
Continuous
 62
     2
100
AcDbCircle
 10
-179.7154297600019
 20
-251.1108014629436
 30
0.0
 40
2.227384008973517
100
AcDbArc
 50
58.06909105004049
 51
71.55192388186676
  0
ARC
  5
286
102
{ACAD_REACTORS
330
2C4
330
2C5
102
}
330
74
100
AcDbEntity
  8
0
  6
Continuous
 62
     2
100
AcDbCircle
 10
-176.653415624438
 20
-249.5436039194149
 30
0.0
 40
0.5179085730132998
100
AcDbArc
 50
38.12041979714704
 51
141.8795802028588
  0
ARC
  5
287
102
{ACAD_REACTORS
330
2C4
330
2C5
102
}
330
74
100
AcDbEntity
  8
0
  6
Continuous
 62
     2
100
AcDbCircle
 10
-176.4536755880919
 20
-249.7003350975354
 30
0.0
 40
0.7717997786794633
100
AcDbArc
 50
141.8795802028363
 51
218.1204197971703
  0
ARC
  5
288
102
{ACAD_REACTORS
330
2C4
330
2C5
102
}
330
74
100
AcDbEntity
  8
0
  6
Continuous
 62
     2
100
AcDbCircle
 10
-176.653415624438
 20
-249.8570662756554
 30
0.0
 40
0.5179085730137529
100
AcDbArc
 50
218.1204197971956
 51
321.8795802027985
  0
ARC
  5
289
102
{ACAD_REACTORS
330
2C4
330
2C5
102
}
330
74
100
AcDbEntity
  8
0
  6
Continuous
 62
     2
100
AcDbCircle
 10
-176.8531556607844
 20
-249.7003350975354
 30
0.0
 40
0.7717997786797123
100
AcDbArc
 50
321.8795802028401
 51
38.12041979715329
  0
CIRCLE
  5
28A
330
74
100
AcDbEntity
  8
1
  6
Continuous
 62
     2
100
AcDbCircle
 10
-179.5081487731818
 20
-237.3957398594571
 30
0.0
 40
2.5
  0
CIRCLE
  5
28B
330
74
100
AcDbEntity
  8
1
  6
Continuous
 62
     2
100
AcDbCircle
 10
-179.5081487731818
 20
-237.3957398594571
 30
0.0
 40
1.249999999999915
  0
CIRCLE
  5
28C
102
{ACAD_REACTORS
330
2C8
330
2C9
102
}
330
74
100
AcDbEntity
  8
0
  6
Continuous
 62
     2
100
AcDbCircle
 10
-184.9643185072815
 20
-247.5573667032127
 30
0.0
 40
0.470978932778479
  0
MTEXT
  5
28D
330
74
100
AcDbEntity
  8
1
 62
     3
100
AcDbMText
 10
-349.6949313469227
 20
-71.7294317041582
 30
0.0
 40
1.8
 41
0.0
 71
     7
 72
     1
  3
Weitergabe sowie Vervielf\U+00e4ltigung dieses Dokuments, Verwertung und \PMitteilung seines Inhalts sind verboten, soweit nicht ausdr\U+00fccklich gestattet. \PZuwiderhandlungen verpflichten zu Schadenersatz. Alle Rechte f\U+00fcr den Fall\Pder Pat
  1
ent-, Gebrauchsmuster- oder Designeintragung vorbehalten.
  7
CONVERTER_11
 73
     1
 44
0.99639855942377
  0
MTEXT
  5
28E
330
74
100
AcDbEntity
  8
1
 62
     3
100
AcDbMText
 10
-166.8418215081345
 20
-71.7294317041582
 30
0.0
 40
1.8
 41
0.0
 71
     7
 72
     1
  3
Transfer or duplication of this document as well as the utilisation or\Pcommunication of its content are not permitted unless express consen\Pis granted. Violations give rise to claims for damages. All rights reserved\Pin case of patent, utility mod
  1
el or design patent registrations.
  7
CONVERTER_11
 73
     1
 44
0.99639855942377
  0
TEXT
  5
28F
330
74
100
AcDbEntity
  8
1
 62
     2
100
AcDbText
 10
-173.0448036597446
 20
-257.2797570744486
 30
0.0
 40
1.8
  1
of
 41
0.9
  7
CONVERTER_11
100
AcDbText
  0
TEXT
  5
290
330
74
100
AcDbEntity
  8
1
 62
     2
100
AcDbText
 10
-191.2448036597444
 20
-257.2797570744486
 30
0.0
 40
1.8
  1
page
 41
0.9
  7
CONVERTER_11
100
AcDbText
  0
TEXT
  5
291
330
74
100
AcDbEntity
  8
1
 62
     2
100
AcDbText
 10
-182.5985386894024
 20
-257.319988513259
 30
0.0
 40
1.8
  1
1
 41
0.9
  7
CONVERTER_11
100
AcDbText
  0
TEXT
  5
292
330
74
100
AcDbEntity
  8
1
 62
     2
100
AcDbText
 10
-167.8094948499309
 20
-257.2707398594571
 30
0.0
 40
1.8
  1
1
 41
0.9
  7
CONVERTER_11
100
AcDbText
  0
MTEXT
  5
294
330
74
100
AcDbEntity
  8
1
 62
     7
100
AcDbMText
 10
-109.2724013963689
 20
-255.2707398594568
 30
0.0
 40
3.0
 41
0.0
 71
     5
 72
     1
  1
PATG 6/18
  7
CONVERTER_12
 73
     1
 44
1.20048019207683
  0
MTEXT
  5
295
330
74
100
AcDbEntity
  8
1
 62
     2
100
AcDbMText
 10
-154.8448036597445
 20
-251.020739859457
 30
0.0
 40
1.8
 41
0.0
 71
     1
 72
     1
  1
description
  7
CONVERTER_11
 73
     1
 44
1.20048019207683
  0
MTEXT
  5
296
330
74
100
AcDbEntity
  8
1
 62
     3
100
AcDbMText
 10
-166.0448036597445
 20
-237.395739859457
 30
0.0
 40
2.5
 41
0.0
 71
     5
 72
     1
  1
DIN A4
  7
CONVERTER_11
 73
     1
 44
1.20048019207683
  0
MTEXT
  5
297
330
74
100
AcDbEntity
  8
1
 62
     7
100
AcDbMText
 10
-352.1999991329935
 20
-236.020739859457
 30
0.0
 40
3.5
 41
0.0
 71
     5
 72
     1
  1
D
  7
CONVERTER_11
 73
     1
 44
1.20048019207683
  0
MTEXT
  5
298
330
74
100
AcDbEntity
  8
1
 62
     7
100
AcDbMText
 10
-352.1999991329935
 20
-183.520739859457
 30
0.0
 40
3.5
 41
0.0
 71
     5
 72
     1
  1
C
  7
CONVERTER_11
 73
     1
 44
1.20048019207683
  0
MTEXT
  5
299
330
74
100
AcDbEntity
  8
1
 62
     7
100
AcDbMText
 10
-352.1999991329935
 20
-133.520739859457
 30
0.0
 40
3.5
 41
0.0
 71
     5
 72
     1
  1
B
  7
CONVERTER_11
 73
     1
 44
1.20048019207683
  0
MTEXT
  5
29A
330
74
100
AcDbEntity
  8
1
 62
     7
100
AcDbMText
 10
-352.1999991329935
 20
-81.020739859457
 30
0.0
 40
3.5
 41
0.0
 71
     5
 72
     1
  1
A
  7
CONVERTER_11
 73
     1
 44
1.20048019207683
  0
MTEXT
  5
29B
330
74
100
AcDbEntity
  8
1
 62
     7
100
AcDbMText
 10
-81.94999913299523
 20
-261.0207398594571
 30
0.0
 40
3.5
 41
0.0
 71
     5
 72
     1
  1
6
  7
CONVERTER_11
 73
     1
 44
1.20048019207683
  0
MTEXT
  5
29C
330
74
100
AcDbEntity
  8
1
 62
     7
100
AcDbMText
 10
-131.1999991329944
 20
-261.0207398594571
 30
0.0
 40
3.5
 41
0.0
 71
     5
 72
     1
  1
5
  7
CONVERTER_11
 73
     1
 44
1.20048019207683
  0
MTEXT
  5
29D
330
74
100
AcDbEntity
  8
1
 62
     7
100
AcDbMText
 10
-181.1999991329945
 20
-261.0207398594571
 30
0.0
 40
3.5
 41
0.0
 71
     5
 72
     1
  1
4
  7
CONVERTER_11
 73
     1
 44
1.20048019207683
  0
MTEXT
  5
29E
330
74
100
AcDbEntity
  8
1
 62
     7
100
AcDbMText
 10
-231.1999991329944
 20
-261.0207398594571
 30
0.0
 40
3.5
 41
0.0
 71
     5
 72
     1
  1
3
  7
CONVERTER_11
 73
     1
 44
1.20048019207683
  0
MTEXT
  5
29F
330
74
100
AcDbEntity
  8
1
 62
     7
100
AcDbMText
 10
-281.1999991329944
 20
-261.0207398594571
 30
0.0
 40
3.5
 41
0.0
 71
     5
 72
     1
  1
2
  7
CONVERTER_11
 73
     1
 44
1.20048019207683
  0
MTEXT
  5
2A0
330
74
100
AcDbEntity
  8
1
 62
     7
100
AcDbMText
 10
-330.449999132994
 20
-261.0207398594571
 30
0.0
 40
3.5
 41
0.0
 71
     5
 72
     1
  1
1
  7
CONVERTER_11
 73
     1
 44
1.20048019207683
  0
MTEXT
  5
2A1
330
74
100
AcDbEntity
  8
1
 62
     7
100
AcDbMText
 10
-60.19999913299543
 20
-236.020739859457
 30
0.0
 40
3.5
 41
0.0
 71
     5
 72
     1
  1
D
  7
CONVERTER_11
 73
     1
 44
1.20048019207683
  0
MTEXT
  5
2A2
330
74
100
AcDbEntity
  8
1
 62
     7
100
AcDbMText
 10
-60.19999913299543
 20
-133.5207398594551
 30
0.0
 40
3.5
 41
0.0
 71
     5
 72
     1
  1
B
  7
CONVERTER_11
 73
     1
 44
1.20048019207683
  0
MTEXT
  5
2A3
330
74
100
AcDbEntity
  8
1
 62
     7
100
AcDbMText
 10
-60.19999913299543
 20
-81.020739859457
 30
0.0
 40
3.5
 41
0.0
 71
     5
 72
     1
  1
A
  7
CONVERTER_11
 73
     1
 44
1.20048019207683
  0
MTEXT
  5
2A4
330
74
100
AcDbEntity
  8
1
 62
     7
100
AcDbMText
 10
-60.19999913299543
 20
-183.5207398594551
 30
0.0
 40
3.5
 41
0.0
 71
     5
 72
     1
  1
C
  7
CONVERTER_11
 73
     1
 44
1.20048019207683
  0
MTEXT
  5
2A5
330
74
100
AcDbEntity
  8
1
 62
     2
100
AcDbMText
 10
-226.6828183847919
 20
-245.7707398594571
 30
0.0
 40
2.0
 41
0.0
 71
     5
 72
     1
  1
General Information\P- Simplified representation\P- Document excluded from change process\P- Linear dimensions [mm]
  7
CONVERTER_11
 73
     1
 44
1.20048019207683
  0
TEXT
  5
2A6
330
74
100
AcDbEntity
  8
1
 62
     7
100
AcDbText
 10
-154.3448036597447
 20
-248.7207398594571
 30
0.0
 40
2.5
  1
0828062
 41
0.81
  7
CONVERTER_12
100
AcDbText
  0
MTEXT
  5
2A7
330
74
100
AcDbEntity
  8
1
 62
     2
100
AcDbMText
 10
-154.7448036597444
 20
-242.520739859457
 30
0.0
 40
1.8
 41
0.0
 71
     1
 72
     1
  1
ident.-No.
  7
CONVERTER_11
 73
     1
 44
1.20048019207683
  0
MTEXT
  5
2A8
330
74
100
AcDbEntity
  8
1
 62
     2
100
AcDbMText
 10
-70.51840741467171
 20
-234.020739859457
 30
0.0
 40
1.8
 41
0.0
 71
     1
 72
     1
  1
scale
  7
CONVERTER_11
 73
     1
 44
1.20048019207683
  0
MTEXT
  5
2AA
330
74
100
AcDbEntity
  8
1
 62
     3
100
AcDbMText
 10
-67.15920327383212
 20
-240.2207398594569
 30
0.0
 40
2.5
 41
0.0
 71
     8
 72
     1
  1
2:1
  7
CONVERTER_13
 73
     1
 44
1.32052821128451
  0
TEXT
  5
2AB
330
74
100
AcDbEntity
  8
1
 62
     7
100
AcDbText
 10
-154.7448036597444
 20
-240.2207398594571
 30
0.0
 40
2.5
  1
00882664
 41
0.81
  7
CONVERTER_12
100
AcDbText
  0
MTEXT
  5
2AD
330
74
100
AcDbEntity
  8
1
 62
     2
100
AcDbMText
 10
-154.7448036597444
 20
-234.020739859457
 30
0.0
 40
1.8
 41
0.0
 71
     1
 72
     1
  1
document-No. / RI
  7
CONVERTER_14
 73
     1
 44
1.32052821128451
  0
TEXT
  5
2AE
330
74
100
AcDbEntity
  8
1
 62
     3
100
AcDbText
 10
-126.9448036597444
 20
-248.7207398594571
 30
0.0
 40
2.5
  1
Customer drawing select
 41
0.81
  7
CONVERTER_12
100
AcDbText
  0
MTEXT
  5
2AF
330
74
100
AcDbEntity
  8
1
 62
     2
100
AcDbMText
 10
-126.9448036597444
 20
-242.5207398594571
 30
0.0
 40
1.8
 41
0.0
 71
     1
 72
     1
  1
document-type
  7
CONVERTER_11
 73
     1
 44
1.20048019207683
  0
MTEXT
  5
2B0
330
74
100
AcDbEntity
  8
1
 62
     2
100
AcDbMText
 10
-97.11840741467154
 20
-234.0207398594571
 30
0.0
 40
1.8
 41
0.0
 71
     1
 72
     1
  1
date
  7
CONVERTER_11
 73
     1
 44
1.32052821128451
  0
TEXT
  5
2B1
330
74
100
AcDbEntity
  8
1
 62
     3
100
AcDbText
 10
-97.11840741467154
 20
-240.2207398594571
 30
0.0
 40
2.5
  1
08.07.2015
 41
0.81
  7
CONVERTER_12
100
AcDbText
  0
TEXT
  5
2B2
330
74
100
AcDbEntity
  8
1
 62
     7
100
AcDbText
 10
-134.7148914406886
 20
-240.2207398594571
 30
0.0
 40
2.5
  1
00
 41
0.81
  7
CONVERTER_12
100
AcDbText
  0
TEXT
  5
2B3
330
74
100
AcDbEntity
  8
1
 62
     7
100
AcDbText
 10
-136.8712559377306
 20
-240.2207398594571
 30
0.0
 40
2.5
  1
/
 41
0.9
  7
CONVERTER_11
100
AcDbText
  0
HATCH
  5
2B4
330
74
100
AcDbEntity
  8
1
  6
Continuous
 62
     2
100
AcDbHatch
 10
0.0
 20
0.0
 30
0.0
210
0.0
220
0.0
230
1.0
  2
_USER
 70
     0
 71
     1
 91
        1
 92
        1
 93
       12
 72
     1
 10
-174.5773029467833
 20
-247.8680493832664
 11
-175.7700956489497
 21
-247.8680493832664
 72
     1
 10
-175.7700956489497
 20
-247.8680493832664
 11
-175.7700956489497
 21
-246.7337772744226
 72
     1
 10
-175.7700956489497
 20
-246.7337772744226
 11
-176.8197532268572
 21
-246.7337772744226
 72
     1
 10
-176.8197532268572
 20
-246.7337772744226
 11
-176.8197532268572
 21
-247.8680493832664
 72
     1
 10
-176.8197532268572
 20
-247.8680493832664
 11
-178.0125459290238
 21
-247.8680493832664
 72
     1
 10
-178.0125459290238
 20
-247.8680493832664
 11
-178.0125459290238
 21
-244.8142398594552
 72
     1
 10
-178.0125459290238
 20
-244.8142398594552
 11
-176.8197532268572
 21
-244.8142398594552
 72
     1
 10
-176.8197532268572
 20
-244.8142398594552
 11
-176.8197532268572
 21
-245.8830731927898
 72
     1
 10
-176.8197532268572
 20
-245.8830731927898
 11
-175.7700956489497
 21
-245.8830731927898
 72
     1
 10
-175.7700956489497
 20
-245.8830731927898
 11
-175.7700956489497
 21
-244.8142398594552
 72
     1
 10
-175.7700956489497
 20
-244.8142398594552
 11
-174.5773029467833
 21
-244.8142398594552
 72
     1
 10
-174.5773029467833
 20
-244.8142398594552
 11
-174.5773029467833
 21
-247.8680493832664
 97
       12
330
221
330
222
330
20C
330
20B
330
20A
330
21E
330
209
330
21F
330
220
330
208
330
207
330
206
 75
     1
 76
     0
 52
45.0
 41
0.1
 77
     0
 78
     1
 53
45.0
 43
0.0
 44
0.0
 45
-0.0707106781186548
 46
0.0707106781186548
 79
     0
 98
        1
 10
0.0
 20
0.0
  0
HATCH
  5
2B5
330
74
100
AcDbEntity
  8
1
  6
Continuous
 62
     2
100
AcDbHatch
 10
0.0
 20
0.0
 30
0.0
210
0.0
220
0.0
230
1.0
  2
_USER
 70
     0
 71
     1
 91
        1
 92
        1
 93
       12
 72
     1
 10
-174.5773029467833
 20
-247.8680493832664
 11
-175.7700956489497
 21
-247.8680493832664
 72
     1
 10
-175.7700956489497
 20
-247.8680493832664
 11
-175.7700956489497
 21
-246.7337772744226
 72
     1
 10
-175.7700956489497
 20
-246.7337772744226
 11
-176.8197532268572
 21
-246.7337772744226
 72
     1
 10
-176.8197532268572
 20
-246.7337772744226
 11
-176.8197532268572
 21
-247.8680493832664
 72
     1
 10
-176.8197532268572
 20
-247.8680493832664
 11
-178.0125459290238
 21
-247.8680493832664
 72
     1
 10
-178.0125459290238
 20
-247.8680493832664
 11
-178.0125459290238
 21
-244.8142398594552
 72
     1
 10
-178.0125459290238
 20
-244.8142398594552
 11
-176.8197532268572
 21
-244.8142398594552
 72
     1
 10
-176.8197532268572
 20
-244.8142398594552
 11
-176.8197532268572
 21
-245.8830731927898
 72
     1
 10
-176.8197532268572
 20
-245.8830731927898
 11
-175.7700956489497
 21
-245.8830731927898
 72
     1
 10
-175.7700956489497
 20
-245.8830731927898
 11
-175.7700956489497
 21
-244.8142398594552
 72
     1
 10
-175.7700956489497
 20
-244.8142398594552
 11
-174.5773029467833
 21
-244.8142398594552
 72
     1
 10
-174.5773029467833
 20
-244.8142398594552
 11
-174.5773029467833
 21
-247.8680493832664
 97
       12
330
221
330
222
330
20C
330
20B
330
20A
330
21E
330
209
330
21F
330
220
330
208
330
207
330
206
 75
     1
 76
     0
 52
45.0
 41
0.1
 77
     0
 78
     1
 53
45.0
 43
0.0
 44
0.0
 45
-0.0707106781186548
 46
0.0707106781186548
 79
     0
 98
        1
 10
0.0
 20
0.0
  0
HATCH
  5
2B6
330
74
100
AcDbEntity
  8
1
  6
Continuous
 62
     2
100
AcDbHatch
 10
0.0
 20
0.0
 30
0.0
210
0.0
220
0.0
230
1.0
  2
_USER
 70
     0
 71
     1
 91
        1
 92
        1
 93
       10
 72
     1
 10
-172.335003597595
 20
-249.4822058458347
 11
-173.5755080078479
 21
-248.1734303356296
 72
     1
 10
-173.5755080078479
 20
-248.1734303356296
 11
-174.7683007100155
 21
-248.1734303356296
 72
     1
 10
-174.7683007100155
 20
-248.1734303356296
 11
-174.7683007100155
 21
-251.2272398594407
 72
     1
 10
-174.7683007100155
 20
-251.2272398594407
 11
-173.5755080078479
 21
-251.2272398594407
 72
     1
 10
-173.5755080078479
 20
-251.2272398594407
 11
-173.5755080078479
 21
-249.9184643492361
 72
     1
 10
-173.5755080078479
 20
-249.9184643492361
 11
-172.335003597595
 21
-251.2272398594407
 72
     1
 10
-172.335003597595
 20
-251.2272398594407
 11
-171.1422108954286
 21
-251.2272398594407
 72
     1
 10
-171.1422108954286
 20
-251.2272398594407
 11
-171.1422108954286
 21
-248.1734303356296
 72
     1
 10
-171.1422108954286
 20
-248.1734303356296
 11
-172.335003597595
 21
-248.1734303356296
 72
     1
 10
-172.335003597595
 20
-248.1734303356296
 11
-172.335003597595
 21
-249.4822058458347
 97
       10
330
22F
330
1FF
330
1FE
330
201
330
22A
330
22B
330
200
330
22C
330
22D
330
22E
 75
     1
 76
     0
 52
45.0
 41
0.1
 77
     0
 78
     1
 53
45.0
 43
0.0
 44
0.0
 45
-0.0707106781186548
 46
0.0707106781186548
 79
     0
 98
        1
 10
0.0
 20
0.0
  0
HATCH
  5
2B7
330
74
100
AcDbEntity
  8
1
  6
Continuous
 62
     2
100
AcDbHatch
 10
0.0
 20
0.0
 30
0.0
210
0.0
220
0.0
230
1.0
  2
_USER
 70
     0
 71
     1
 91
        1
 92
        1
 93
       10
 72
     1
 10
-172.335003597595
 20
-249.4822058458347
 11
-173.5755080078479
 21
-248.1734303356296
 72
     1
 10
-173.5755080078479
 20
-248.1734303356296
 11
-174.7683007100155
 21
-248.1734303356296
 72
     1
 10
-174.7683007100155
 20
-248.1734303356296
 11
-174.7683007100155
 21
-251.2272398594407
 72
     1
 10
-174.7683007100155
 20
-251.2272398594407
 11
-173.5755080078479
 21
-251.2272398594407
 72
     1
 10
-173.5755080078479
 20
-251.2272398594407
 11
-173.5755080078479
 21
-249.9184643492361
 72
     1
 10
-173.5755080078479
 20
-249.9184643492361
 11
-172.335003597595
 21
-251.2272398594407
 72
     1
 10
-172.335003597595
 20
-251.2272398594407
 11
-171.1422108954286
 21
-251.2272398594407
 72
     1
 10
-171.1422108954286
 20
-251.2272398594407
 11
-171.1422108954286
 21
-248.1734303356296
 72
     1
 10
-171.1422108954286
 20
-248.1734303356296
 11
-172.335003597595
 21
-248.1734303356296
 72
     1
 10
-172.335003597595
 20
-248.1734303356296
 11
-172.335003597595
 21
-249.4822058458347
 97
       10
330
22F
330
1FF
330
1FE
330
201
330
22A
330
22B
330
200
330
22C
330
22D
330
22E
 75
     1
 76
     0
 52
45.0
 41
0.1
 77
     0
 78
     1
 53
45.0
 43
0.0
 44
0.0
 45
-0.0707106781186548
 46
0.0707106781186548
 79
     0
 98
        1
 10
0.0
 20
0.0
  0
HATCH
  5
2B8
330
74
100
AcDbEntity
  8
1
  6
Continuous
 62
     2
100
AcDbHatch
 10
0.0
 20
0.0
 30
0.0
210
0.0
220
0.0
230
1.0
  2
_USER
 70
     0
 71
     1
 91
        1
 92
        1
 93
       10
 72
     1
 10
-167.0865647771753
 20
-246.1230153696604
 11
-168.3270691874293
 21
-244.8142398594552
 72
     1
 10
-168.3270691874293
 20
-244.8142398594552
 11
-169.5198618895958
 21
-244.8142398594552
 72
     1
 10
-169.5198618895958
 20
-244.8142398594552
 11
-169.5198618895958
 21
-247.8680493832664
 72
     1
 10
-169.5198618895958
 20
-247.8680493832664
 11
-168.3270691874293
 21
-247.8680493832664
 72
     1
 10
-168.3270691874293
 20
-247.8680493832664
 11
-168.3270691874293
 21
-246.5592738730617
 72
     1
 10
-168.3270691874293
 20
-246.5592738730617
 11
-167.0865647771753
 21
-247.8680493832664
 72
     1
 10
-167.0865647771753
 20
-247.8680493832664
 11
-165.8937720750087
 21
-247.8680493832664
 72
     1
 10
-165.8937720750087
 20
-247.8680493832664
 11
-165.8937720750087
 21
-244.8142398594552
 72
     1
 10
-165.8937720750087
 20
-244.8142398594552
 11
-167.0865647771753
 21
-244.8142398594552
 72
     1
 10
-167.0865647771753
 20
-244.8142398594552
 11
-167.0865647771753
 21
-246.1230153696604
 97
       10
330
234
330
1FC
330
1FB
330
235
330
1FA
330
230
330
231
330
232
330
233
330
1FD
 75
     1
 76
     0
 52
45.0
 41
0.1
 77
     0
 78
     1
 53
45.0
 43
0.0
 44
0.0
 45
-0.0707106781186548
 46
0.0707106781186548
 79
     0
 98
        1
 10
0.0
 20
0.0
  0
HATCH
  5
2B9
330
74
100
AcDbEntity
  8
1
  6
Continuous
 62
     2
100
AcDbHatch
 10
0.0
 20
0.0
 30
0.0
210
0.0
220
0.0
230
1.0
  2
_USER
 70
     0
 71
     1
 91
        1
 92
        1
 93
       10
 72
     1
 10
-167.0865647771753
 20
-246.1230153696604
 11
-168.3270691874293
 21
-244.8142398594552
 72
     1
 10
-168.3270691874293
 20
-244.8142398594552
 11
-169.5198618895958
 21
-244.8142398594552
 72
     1
 10
-169.5198618895958
 20
-244.8142398594552
 11
-169.5198618895958
 21
-247.8680493832664
 72
     1
 10
-169.5198618895958
 20
-247.8680493832664
 11
-168.3270691874293
 21
-247.8680493832664
 72
     1
 10
-168.3270691874293
 20
-247.8680493832664
 11
-168.3270691874293
 21
-246.5592738730617
 72
     1
 10
-168.3270691874293
 20
-246.5592738730617
 11
-167.0865647771753
 21
-247.8680493832664
 72
     1
 10
-167.0865647771753
 20
-247.8680493832664
 11
-165.8937720750087
 21
-247.8680493832664
 72
     1
 10
-165.8937720750087
 20
-247.8680493832664
 11
-165.8937720750087
 21
-244.8142398594552
 72
     1
 10
-165.8937720750087
 20
-244.8142398594552
 11
-167.0865647771753
 21
-244.8142398594552
 72
     1
 10
-167.0865647771753
 20
-244.8142398594552
 11
-167.0865647771753
 21
-246.1230153696604
 97
       10
330
234
330
1FC
330
1FB
330
235
330
1FA
330
230
330
231
330
232
330
233
330
1FD
 75
     1
 76
     0
 52
45.0
 41
0.1
 77
     0
 78
     1
 53
45.0
 43
0.0
 44
0.0
 45
-0.0707106781186548
 46
0.0707106781186548
 79
     0
 98
        1
 10
0.0
 20
0.0
  0
HATCH
  5
2BA
330
74
100
AcDbEntity
  8
1
  6
Continuous
 62
     2
100
AcDbHatch
 10
0.0
 20
0.0
 30
0.0
210
0.0
220
0.0
230
1.0
  2
_USER
 70
     0
 71
     1
 91
        1
 92
        1
 93
        8
 72
     1
 10
-168.1840849940548
 20
-248.1734303356296
 11
-170.9990757711684
 21
-248.1734303356296
 72
     1
 10
-170.9990757711684
 20
-248.1734303356296
 11
-170.9990757711684
 21
-248.9586956417532
 72
     1
 10
-170.9990757711684
 20
-248.9586956417532
 11
-170.1879767336938
 21
-248.9586956417532
 72
     1
 10
-170.1879767336938
 20
-248.9586956417532
 11
-170.1879767336938
 21
-251.2272398594407
 72
     1
 10
-170.1879767336938
 20
-251.2272398594407
 11
-168.9951840315273
 21
-251.2272398594407
 72
     1
 10
-168.9951840315273
 20
-251.2272398594407
 11
-168.9951840315273
 21
-248.9586956417532
 72
     1
 10
-168.9951840315273
 20
-248.9586956417532
 11
-168.1840849940548
 21
-248.9586956417532
 72
     1
 10
-168.1840849940548
 20
-248.9586956417532
 11
-168.1840849940548
 21
-248.1734303356296
 97
        8
330
1F6
330
236
330
1F5
330
237
330
238
330
1F9
330
1F8
330
1F7
 75
     1
 76
     0
 52
45.0
 41
0.1
 77
     0
 78
     1
 53
45.0
 43
0.0
 44
0.0
 45
-0.0707106781186548
 46
0.0707106781186548
 79
     0
 98
        1
 10
0.0
 20
0.0
  0
HATCH
  5
2BB
330
74
100
AcDbEntity
  8
1
  6
Continuous
 62
     2
100
AcDbHatch
 10
0.0
 20
0.0
 30
0.0
210
0.0
220
0.0
230
1.0
  2
_USER
 70
     0
 71
     1
 91
        1
 92
        1
 93
        8
 72
     1
 10
-168.1840849940548
 20
-248.1734303356296
 11
-170.9990757711684
 21
-248.1734303356296
 72
     1
 10
-170.9990757711684
 20
-248.1734303356296
 11
-170.9990757711684
 21
-248.9586956417532
 72
     1
 10
-170.9990757711684
 20
-248.9586956417532
 11
-170.1879767336938
 21
-248.9586956417532
 72
     1
 10
-170.1879767336938
 20
-248.9586956417532
 11
-170.1879767336938
 21
-251.2272398594407
 72
     1
 10
-170.1879767336938
 20
-251.2272398594407
 11
-168.9951840315273
 21
-251.2272398594407
 72
     1
 10
-168.9951840315273
 20
-251.2272398594407
 11
-168.9951840315273
 21
-248.9586956417532
 72
     1
 10
-168.9951840315273
 20
-248.9586956417532
 11
-168.1840849940548
 21
-248.9586956417532
 72
     1
 10
-168.1840849940548
 20
-248.9586956417532
 11
-168.1840849940548
 21
-248.1734303356296
 97
        8
330
1F6
330
236
330
1F5
330
237
330
238
330
1F9
330
1F8
330
1F7
 75
     1
 76
     0
 52
45.0
 41
0.1
 77
     0
 78
     1
 53
45.0
 43
0.0
 44
0.0
 45
-0.0707106781186548
 46
0.0707106781186548
 79
     0
 98
        1
 10
0.0
 20
0.0
  0
HATCH
  5
2BC
330
74
100
AcDbEntity
  8
1
  6
Continuous
 62
     2
100
AcDbHatch
 10
0.0
 20
0.0
 30
0.0
210
0.0
220
0.0
230
1.0
  2
_USER
 70
     0
 71
     1
 91
        2
 92
        1
 93
        8
 72
     1
 10
-166.0456575381078
 20
-251.2272398594407
 11
-166.2571375915836
 21
-250.6862793152228
 72
     1
 10
-166.2571375915836
 20
-250.6862793152228
 11
-167.3895791682574
 21
-250.6862793152228
 72
     1
 10
-167.3895791682574
 20
-250.6862793152228
 11
-167.6010592217332
 21
-251.2272398594407
 72
     1
 10
-167.6010592217332
 20
-251.2272398594407
 11
-168.8415636319862
 21
-251.2272398594407
 72
     1
 10
-168.8415636319862
 20
-251.2272398594407
 11
-167.4436105850469
 21
-248.1734303356296
 72
     1
 10
-167.4436105850469
 20
-248.1734303356296
 11
-166.2031061747942
 21
-248.1734303356296
 72
     1
 10
-166.2031061747942
 20
-248.1734303356296
 11
-164.8051531278539
 21
-251.2272398594407
 72
     1
 10
-164.8051531278539
 20
-251.2272398594407
 11
-166.0456575381078
 21
-251.2272398594407
 97
        8
330
23A
330
23B
330
1F2
330
23C
330
1F1
330
1F4
330
239
330
1F3
 92
       16
 93
        3
 72
     1
 10
-167.1235236171124
 20
-250.0057160499162
 11
-166.82335837992
 21
-249.2379010839295
 72
     1
 10
-166.82335837992
 20
-249.2379010839295
 11
-166.5231931427299
 21
-250.0057160499162
 72
     1
 10
-166.5231931427299
 20
-250.0057160499162
 11
-167.1235236171124
 21
-250.0057160499162
 97
        3
330
1F0
330
23E
330
23D
 75
     1
 76
     0
 52
45.0
 41
0.1
 77
     0
 78
     1
 53
45.0
 43
0.0
 44
0.0
 45
-0.0707106781186548
 46
0.0707106781186548
 79
     0
 98
        1
 10
0.0
 20
0.0
  0
HATCH
  5
2BD
330
74
100
AcDbEntity
  8
1
  6
Continuous
 62
     2
100
AcDbHatch
 10
0.0
 20
0.0
 30
0.0
210
0.0
220
0.0
230
1.0
  2
_USER
 70
     0
 71
     1
 91
        2
 92
        1
 93
        8
 72
     1
 10
-166.0456575381078
 20
-251.2272398594407
 11
-166.2571375915836
 21
-250.6862793152228
 72
     1
 10
-166.2571375915836
 20
-250.6862793152228
 11
-167.3895791682574
 21
-250.6862793152228
 72
     1
 10
-167.3895791682574
 20
-250.6862793152228
 11
-167.6010592217332
 21
-251.2272398594407
 72
     1
 10
-167.6010592217332
 20
-251.2272398594407
 11
-168.8415636319862
 21
-251.2272398594407
 72
     1
 10
-168.8415636319862
 20
-251.2272398594407
 11
-167.4436105850469
 21
-248.1734303356296
 72
     1
 10
-167.4436105850469
 20
-248.1734303356296
 11
-166.2031061747942
 21
-248.1734303356296
 72
     1
 10
-166.2031061747942
 20
-248.1734303356296
 11
-164.8051531278539
 21
-251.2272398594407
 72
     1
 10
-164.8051531278539
 20
-251.2272398594407
 11
-166.0456575381078
 21
-251.2272398594407
 97
        8
330
23A
330
23B
330
1F2
330
23C
330
1F1
330
1F4
330
239
330
1F3
 92
       16
 93
        3
 72
     1
 10
-167.1235236171124
 20
-250.0057160499162
 11
-166.82335837992
 21
-249.2379010839295
 72
     1
 10
-166.82335837992
 20
-249.2379010839295
 11
-166.5231931427299
 21
-250.0057160499162
 72
     1
 10
-166.5231931427299
 20
-250.0057160499162
 11
-167.1235236171124
 21
-250.0057160499162
 97
        3
330
1F0
330
23E
330
23D
 75
     1
 76
     0
 52
45.0
 41
0.1
 77
     0
 78
     1
 53
45.0
 43
0.0
 44
0.0
 45
-0.0707106781186548
 46
0.0707106781186548
 79
     0
 98
        1
 10
0.0
 20
0.0
  0
HATCH
  5
2BE
330
74
100
AcDbEntity
  8
1
  6
Continuous
 62
     2
100
AcDbHatch
 10
0.0
 20
0.0
 30
0.0
210
0.0
220
0.0
230
1.0
  2
_USER
 70
     0
 71
     1
 91
        1
 92
        1
 93
        4
 72
     1
 10
-164.4147091243219
 20
-247.8680493832664
 11
-165.6552135345748
 21
-247.8680493832664
 72
     1
 10
-165.6552135345748
 20
-247.8680493832664
 11
-165.6552135345748
 21
-244.8142398594552
 72
     1
 10
-165.6552135345748
 20
-244.8142398594552
 11
-164.4147091243219
 21
-244.8142398594552
 72
     1
 10
-164.4147091243219
 20
-244.8142398594552
 11
-164.4147091243219
 21
-247.8680493832664
 97
        4
330
1ED
330
1EF
330
23F
330
1EE
 75
     1
 76
     0
 52
45.0
 41
0.1
 77
     0
 78
     1
 53
45.0
 43
0.0
 44
0.0
 45
-0.0707106781186548
 46
0.0707106781186548
 79
     0
 98
        1
 10
0.0
 20
0.0
  0
HATCH
  5
2BF
330
74
100
AcDbEntity
  8
1
  6
Continuous
 62
     2
100
AcDbHatch
 10
0.0
 20
0.0
 30
0.0
210
0.0
220
0.0
230
1.0
  2
_USER
 70
     0
 71
     1
 91
        1
 92
        1
 93
        4
 72
     1
 10
-164.4147091243219
 20
-247.8680493832664
 11
-165.6552135345748
 21
-247.8680493832664
 72
     1
 10
-165.6552135345748
 20
-247.8680493832664
 11
-165.6552135345748
 21
-244.8142398594552
 72
     1
 10
-165.6552135345748
 20
-244.8142398594552
 11
-164.4147091243219
 21
-244.8142398594552
 72
     1
 10
-164.4147091243219
 20
-244.8142398594552
 11
-164.4147091243219
 21
-247.8680493832664
 97
        4
330
1ED
330
1EF
330
23F
330
1EE
 75
     1
 76
     0
 52
45.0
 41
0.1
 77
     0
 78
     1
 53
45.0
 43
0.0
 44
0.0
 45
-0.0707106781186548
 46
0.0707106781186548
 79
     0
 98
        1
 10
0.0
 20
0.0
  0
HATCH
  5
2C0
330
74
100
AcDbEntity
  8
1
  6
Continuous
 62
     2
100
AcDbHatch
 10
0.0
 20
0.0
 30
0.0
210
0.0
220
0.0
230
1.0
  2
_USER
 70
     0
 71
     1
 91
        1
 92
        1
 93
       12
 72
     1
 10
-160.1922229586511
 20
-244.8142398594552
 11
-161.4947525894176
 21
-246.2871903894914
 72
     1
 10
-161.4947525894176
 20
-246.2871903894914
 11
-160.0967995424773
 21
-247.8680493832664
 72
     1
 10
-160.0967995424773
 20
-247.8680493832664
 11
-161.4995237602256
 21
-247.8680493832664
 72
     1
 10
-161.4995237602256
 20
-247.8680493832664
 11
-162.1961146982911
 21
-247.0803175979727
 72
     1
 10
-162.1961146982911
 20
-247.0803175979727
 11
-162.8927056363568
 21
-247.8680493832664
 72
     1
 10
-162.8927056363568
 20
-247.8680493832664
 11
-164.295429854105
 21
-247.8680493832664
 72
     1
 10
-164.295429854105
 20
-247.8680493832664
 11
-162.8974768071647
 21
-246.2871903894914
 72
     1
 10
-162.8974768071647
 20
-246.2871903894914
 11
-164.2000064379322
 21
-244.8142398594552
 72
     1
 10
-164.2000064379322
 20
-244.8142398594552
 11
-162.7972822201829
 21
-244.8142398594552
 72
     1
 10
-162.7972822201829
 20
-244.8142398594552
 11
-162.1961146982911
 21
-245.4940631810107
 72
     1
 10
-162.1961146982911
 20
-245.4940631810107
 11
-161.5949471763983
 21
-244.8142398594552
 72
     1
 10
-161.5949471763983
 20
-244.8142398594552
 11
-160.1922229586511
 21
-244.8142398594552
 97
       12
330
1E8
330
1E7
330
1E6
330
243
330
244
330
240
330
241
330
1EC
330
1EB
330
1EA
330
1E9
330
242
 75
     1
 76
     0
 52
45.0
 41
0.1
 77
     0
 78
     1
 53
45.0
 43
0.0
 44
0.0
 45
-0.0707106781186548
 46
0.0707106781186548
 79
     0
 98
        1
 10
0.0
 20
0.0
  0
HATCH
  5
2C1
330
74
100
AcDbEntity
  8
1
  6
Continuous
 62
     2
100
AcDbHatch
 10
0.0
 20
0.0
 30
0.0
210
0.0
220
0.0
230
1.0
  2
_USER
 70
     0
 71
     1
 91
        1
 92
        1
 93
       12
 72
     1
 10
-160.1922229586511
 20
-244.8142398594552
 11
-161.4947525894176
 21
-246.2871903894914
 72
     1
 10
-161.4947525894176
 20
-246.2871903894914
 11
-160.0967995424773
 21
-247.8680493832664
 72
     1
 10
-160.0967995424773
 20
-247.8680493832664
 11
-161.4995237602256
 21
-247.8680493832664
 72
     1
 10
-161.4995237602256
 20
-247.8680493832664
 11
-162.1961146982911
 21
-247.0803175979727
 72
     1
 10
-162.1961146982911
 20
-247.0803175979727
 11
-162.8927056363568
 21
-247.8680493832664
 72
     1
 10
-162.8927056363568
 20
-247.8680493832664
 11
-164.295429854105
 21
-247.8680493832664
 72
     1
 10
-164.295429854105
 20
-247.8680493832664
 11
-162.8974768071647
 21
-246.2871903894914
 72
     1
 10
-162.8974768071647
 20
-246.2871903894914
 11
-164.2000064379322
 21
-244.8142398594552
 72
     1
 10
-164.2000064379322
 20
-244.8142398594552
 11
-162.7972822201829
 21
-244.8142398594552
 72
     1
 10
-162.7972822201829
 20
-244.8142398594552
 11
-162.1961146982911
 21
-245.4940631810107
 72
     1
 10
-162.1961146982911
 20
-245.4940631810107
 11
-161.5949471763983
 21
-244.8142398594552
 72
     1
 10
-161.5949471763983
 20
-244.8142398594552
 11
-160.1922229586511
 21
-244.8142398594552
 97
       12
330
1E8
330
1E7
330
1E6
330
243
330
244
330
240
330
241
330
1EC
330
1EB
330
1EA
330
1E9
330
242
 75
     1
 76
     0
 52
45.0
 41
0.1
 77
     0
 78
     1
 53
45.0
 43
0.0
 44
0.0
 45
-0.0707106781186548
 46
0.0707106781186548
 79
     0
 98
        1
 10
0.0
 20
0.0
  0
HATCH
  5
2C2
330
74
100
AcDbEntity
  8
1
  6
Continuous
 62
     2
100
AcDbHatch
 10
0.0
 20
0.0
 30
0.0
210
0.0
220
0.0
230
1.0
  2
_USER
 70
     0
 71
     1
 91
        2
 92
        1
 93
        6
 72
     1
 10
-179.2099583727971
 20
-246.9249711421226
 11
-179.9687259605774
 21
-246.9249711421226
 72
     1
 10
-179.9687259605774
 20
-246.9249711421226
 11
-179.9687259605774
 21
-247.8680493832664
 72
     1
 10
-179.9687259605774
 20
-247.8680493832664
 11
-181.2092303708315
 21
-247.8680493832664
 72
     1
 10
-181.2092303708315
 20
-247.8680493832664
 11
-181.2092303708315
 21
-244.8142398594552
 72
     1
 10
-181.2092303708315
 20
-244.8142398594552
 11
-179.2099583727971
 21
-244.8142398594552
 72
     2
 10
-179.2099583727971
 20
-245.8696055007889
 40
1.05536564133368
 50
270.0
 51
450.0
 73
     0
 97
        6
330
210
330
20F
330
21C
330
21B
330
211
330
261
 92
       16
 93
        4
 72
     2
 10
-179.6514308990355
 20
-245.8302095295664
 40
0.3528638246711182
 50
270.0
 51
450.0
 73
     1
 72
     1
 10
-179.6514308990355
 20
-245.4773457048953
 11
-179.9687259605774
 21
-245.4773457048953
 72
     1
 10
-179.9687259605774
 20
-245.4773457048953
 11
-179.9687259605774
 21
-246.1830733542375
 72
     1
 10
-179.9687259605774
 20
-246.1830733542375
 11
-179.6514308990355
 21
-246.1830733542375
 97
        4
330
275
330
20D
330
21D
330
20E
 75
     1
 76
     0
 52
45.0
 41
0.1
 77
     0
 78
     1
 53
45.0
 43
0.0
 44
0.0
 45
-0.0707106781186548
 46
0.0707106781186548
 79
     0
 98
        1
 10
0.0
 20
0.0
  0
HATCH
  5
2C3
330
74
100
AcDbEntity
  8
1
  6
Continuous
 62
     2
100
AcDbHatch
 10
0.0
 20
0.0
 30
0.0
210
0.0
220
0.0
230
1.0
  2
_USER
 70
     0
 71
     1
 91
        2
 92
        1
 93
        6
 72
     1
 10
-179.2099583727971
 20
-246.9249711421226
 11
-179.9687259605774
 21
-246.9249711421226
 72
     1
 10
-179.9687259605774
 20
-246.9249711421226
 11
-179.9687259605774
 21
-247.8680493832664
 72
     1
 10
-179.9687259605774
 20
-247.8680493832664
 11
-181.2092303708315
 21
-247.8680493832664
 72
     1
 10
-181.2092303708315
 20
-247.8680493832664
 11
-181.2092303708315
 21
-244.8142398594552
 72
     1
 10
-181.2092303708315
 20
-244.8142398594552
 11
-179.2099583727971
 21
-244.8142398594552
 72
     2
 10
-179.2099583727971
 20
-245.8696055007889
 40
1.05536564133368
 50
270.0
 51
450.0
 73
     0
 97
        6
330
210
330
20F
330
21C
330
21B
330
211
330
261
 92
       16
 93
        4
 72
     2
 10
-179.6514308990355
 20
-245.8302095295664
 40
0.3528638246711182
 50
270.0
 51
450.0
 73
     1
 72
     1
 10
-179.6514308990355
 20
-245.4773457048953
 11
-179.9687259605774
 21
-245.4773457048953
 72
     1
 10
-179.9687259605774
 20
-245.4773457048953
 11
-179.9687259605774
 21
-246.1830733542375
 72
     1
 10
-179.9687259605774
 20
-246.1830733542375
 11
-179.6514308990355
 21
-246.1830733542375
 97
        4
330
275
330
20D
330
21D
330
20E
 75
     1
 76
     0
 52
45.0
 41
0.1
 77
     0
 78
     1
 53
45.0
 43
0.0
 44
0.0
 45
-0.0707106781186548
 46
0.0707106781186548
 79
     0
 98
        1
 10
0.0
 20
0.0
  0
HATCH
  5
2C4
330
74
100
AcDbEntity
  8
1
  6
Continuous
 62
     2
100
AcDbHatch
 10
0.0
 20
0.0
 30
0.0
210
0.0
220
0.0
230
1.0
  2
_USER
 70
     0
 71
     1
 91
        2
 92
        1
 93
        4
 72
     2
 10
-176.653415624438
 20
-250.2389101078382
 40
2.065479772208568
 50
62.45185182430637
 51
117.5481481756671
 73
     1
 72
     2
 10
-176.9343555162713
 20
-249.7003350975354
 40
1.458034083651503
 50
117.5481481756634
 51
242.4518518243366
 73
     1
 72
     2
 10
-176.653415624438
 20
-249.1617600872321
 40
2.065479772208522
 50
242.4518518243395
 51
297.5481481756871
 73
     1
 72
     2
 10
-176.3724757326047
 20
-249.7003350975354
 40
1.458034083652003
 50
297.548148175701
 51
422.451851824299
 73
     1
 97
        4
330
26D
330
26C
330
26E
330
26B
 92
       16
 93
        4
 72
     2
 10
-176.8531556607844
 20
-249.7003350975354
 40
0.7717997786797123
 50
321.8795802028401
 51
398.1204197971533
 73
     1
 72
     2
 10
-176.653415624438
 20
-249.5436039194149
 40
0.5179085730132998
 50
38.12041979714704
 51
141.8795802028588
 73
     1
 72
     2
 10
-176.4536755880919
 20
-249.7003350975354
 40
0.7717997786794633
 50
141.8795802028363
 51
218.1204197971703
 73
     1
 72
     2
 10
-176.653415624438
 20
-249.8570662756554
 40
0.5179085730137529
 50
218.1204197971956
 51
321.8795802027985
 73
     1
 97
        4
330
289
330
286
330
287
330
288
 75
     1
 76
     0
 52
45.0
 41
0.1
 77
     0
 78
     1
 53
45.0
 43
0.0
 44
0.0
 45
-0.0707106781186548
 46
0.0707106781186548
 79
     0
 98
        1
 10
0.0
 20
0.0
  0
HATCH
  5
2C5
330
74
100
AcDbEntity
  8
1
  6
Continuous
 62
     2
100
AcDbHatch
 10
0.0
 20
0.0
 30
0.0
210
0.0
220
0.0
230
1.0
  2
_USER
 70
     0
 71
     1
 91
        2
 92
        1
 93
        4
 72
     2
 10
-176.653415624438
 20
-250.2389101078382
 40
2.065479772208568
 50
62.45185182430637
 51
117.5481481756671
 73
     1
 72
     2
 10
-176.9343555162713
 20
-249.7003350975354
 40
1.458034083651503
 50
117.5481481756634
 51
242.4518518243366
 73
     1
 72
     2
 10
-176.653415624438
 20
-249.1617600872321
 40
2.065479772208522
 50
242.4518518243395
 51
297.5481481756871
 73
     1
 72
     2
 10
-176.3724757326047
 20
-249.7003350975354
 40
1.458034083652003
 50
297.548148175701
 51
422.451851824299
 73
     1
 97
        4
330
26D
330
26C
330
26E
330
26B
 92
       16
 93
        4
 72
     2
 10
-176.8531556607844
 20
-249.7003350975354
 40
0.7717997786797123
 50
321.8795802028401
 51
398.1204197971533
 73
     1
 72
     2
 10
-176.653415624438
 20
-249.5436039194149
 40
0.5179085730132998
 50
38.12041979714704
 51
141.8795802028588
 73
     1
 72
     2
 10
-176.4536755880919
 20
-249.7003350975354
 40
0.7717997786794633
 50
141.8795802028363
 51
218.1204197971703
 73
     1
 72
     2
 10
-176.653415624438
 20
-249.8570662756554
 40
0.5179085730137529
 50
218.1204197971956
 51
321.8795802027985
 73
     1
 97
        4
330
289
330
286
330
287
330
288
 75
     1
 76
     0
 52
45.0
 41
0.1
 77
     0
 78
     1
 53
45.0
 43
0.0
 44
0.0
 45
-0.0707106781186548
 46
0.0707106781186548
 79
     0
 98
        1
 10
0.0
 20
0.0
  0
HATCH
  5
2C6
330
74
100
AcDbEntity
  8
1
  6
Continuous
 62
     2
100
AcDbHatch
 10
0.0
 20
0.0
 30
0.0
210
0.0
220
0.0
230
1.0
  2
_USER
 70
     0
 71
     1
 91
        2
 92
        1
 93
       12
 72
     1
 10
-169.7584204300287
 20
-245.5122534648982
 11
-171.0943482564564
 21
-245.5122534648982
 72
     1
 10
-171.0943482564564
 20
-245.5122534648982
 11
-171.0943482564564
 21
-245.9921378186399
 72
     1
 10
-171.0943482564564
 20
-245.9921378186399
 11
-169.7584204300287
 21
-245.9921378186399
 72
     1
 10
-169.7584204300287
 20
-245.9921378186399
 11
-169.7584204300287
 21
-246.6901514240822
 72
     1
 10
-169.7584204300287
 20
-246.6901514240822
 11
-171.0943482564564
 21
-246.6901514240822
 72
     1
 10
-171.0943482564564
 20
-246.6901514240822
 11
-171.0943482564564
 21
-247.1700357778239
 72
     1
 10
-171.0943482564564
 20
-247.1700357778239
 11
-169.7584204300287
 21
-247.1700357778239
 72
     1
 10
-169.7584204300287
 20
-247.1700357778239
 11
-169.7584204300287
 21
-247.8680493832664
 72
     1
 10
-169.7584204300287
 20
-247.8680493832664
 11
-172.9087401538097
 21
-247.8680493832664
 72
     2
 10
-172.9087401538097
 20
-246.3411446213611
 40
1.526904761905911
 50
90.0
 51
270.0
 73
     0
 72
     1
 10
-172.9087401538097
 20
-244.8142398594552
 11
-169.7584204300287
 21
-244.8142398594552
 72
     1
 10
-169.7584204300287
 20
-244.8142398594552
 11
-169.7584204300287
 21
-245.5122534648982
 97
       12
330
224
330
276
330
225
330
226
330
227
330
228
330
205
330
204
330
203
330
202
330
229
330
223
 92
       16
 93
        4
 72
     2
 10
-172.6924681436445
 20
-246.1844134432406
 40
0.5179085730135266
 50
38.12041979714334
 51
141.8795802028489
 73
     1
 72
     2
 10
-172.4927281072982
 20
-246.3411446213611
 40
0.77179977867969
 50
141.8795802028388
 51
218.1204197971546
 73
     1
 72
     2
 10
-172.6924681436445
 20
-246.4978757994815
 40
0.5179085730134372
 50
218.1204197971511
 51
321.8795802028566
 73
     1
 72
     2
 10
-172.8922081799907
 20
-246.3411446213611
 40
0.7717997786796198
 50
321.8795802028454
 51
398.1204197971612
 73
     1
 97
        4
330
270
330
26F
330
26A
330
269
 75
     1
 76
     0
 52
45.0
 41
0.1
 77
     0
 78
     1
 53
45.0
 43
0.0
 44
0.0
 45
-0.0707106781186548
 46
0.0707106781186548
 79
     0
 98
        1
 10
0.0
 20
0.0
  0
HATCH
  5
2C7
330
74
100
AcDbEntity
  8
1
  6
Continuous
 62
     2
100
AcDbHatch
 10
0.0
 20
0.0
 30
0.0
210
0.0
220
0.0
230
1.0
  2
_USER
 70
     0
 71
     1
 91
        2
 92
        1
 93
       12
 72
     1
 10
-169.7584204300287
 20
-245.5122534648982
 11
-171.0943482564564
 21
-245.5122534648982
 72
     1
 10
-171.0943482564564
 20
-245.5122534648982
 11
-171.0943482564564
 21
-245.9921378186399
 72
     1
 10
-171.0943482564564
 20
-245.9921378186399
 11
-169.7584204300287
 21
-245.9921378186399
 72
     1
 10
-169.7584204300287
 20
-245.9921378186399
 11
-169.7584204300287
 21
-246.6901514240822
 72
     1
 10
-169.7584204300287
 20
-246.6901514240822
 11
-171.0943482564564
 21
-246.6901514240822
 72
     1
 10
-171.0943482564564
 20
-246.6901514240822
 11
-171.0943482564564
 21
-247.1700357778239
 72
     1
 10
-171.0943482564564
 20
-247.1700357778239
 11
-169.7584204300287
 21
-247.1700357778239
 72
     1
 10
-169.7584204300287
 20
-247.1700357778239
 11
-169.7584204300287
 21
-247.8680493832664
 72
     1
 10
-169.7584204300287
 20
-247.8680493832664
 11
-172.9087401538097
 21
-247.8680493832664
 72
     2
 10
-172.9087401538097
 20
-246.3411446213611
 40
1.526904761905911
 50
90.0
 51
270.0
 73
     0
 72
     1
 10
-172.9087401538097
 20
-244.8142398594552
 11
-169.7584204300287
 21
-244.8142398594552
 72
     1
 10
-169.7584204300287
 20
-244.8142398594552
 11
-169.7584204300287
 21
-245.5122534648982
 97
       12
330
224
330
276
330
225
330
226
330
227
330
228
330
205
330
204
330
203
330
202
330
229
330
223
 92
       16
 93
        4
 72
     2
 10
-172.6924681436445
 20
-246.1844134432406
 40
0.5179085730135266
 50
38.12041979714334
 51
141.8795802028489
 73
     1
 72
     2
 10
-172.4927281072982
 20
-246.3411446213611
 40
0.77179977867969
 50
141.8795802028388
 51
218.1204197971546
 73
     1
 72
     2
 10
-172.6924681436445
 20
-246.4978757994815
 40
0.5179085730134372
 50
218.1204197971511
 51
321.8795802028566
 73
     1
 72
     2
 10
-172.8922081799907
 20
-246.3411446213611
 40
0.7717997786796198
 50
321.8795802028454
 51
398.1204197971612
 73
     1
 97
        4
330
270
330
26F
330
26A
330
269
 75
     1
 76
     0
 52
45.0
 41
0.1
 77
     0
 78
     1
 53
45.0
 43
0.0
 44
0.0
 45
-0.0707106781186548
 46
0.0707106781186548
 79
     0
 98
        1
 10
0.0
 20
0.0
  0
HATCH
  5
2C8
330
74
100
AcDbEntity
  8
1
  6
Continuous
 62
     2
100
AcDbHatch
 10
0.0
 20
0.0
 30
0.0
210
0.0
220
0.0
230
1.0
  2
_USER
 70
     0
 71
     1
 91
        4
 92
        1
 93
        8
 72
     1
 10
-181.6863474516983
 20
-245.2384844748572
 11
-181.6863474516983
 21
-250.8029952440574
 72
     2
 10
-182.1105920670822
 20
-250.8029952440574
 40
0.4242446153832873
 50
0.0
 51
90.0
 73
     0
 72
     1
 10
-182.1105920670822
 20
-251.2272398594407
 11
-187.583904157799
 21
-251.2272398594407
 72
     2
 10
-187.583904157799
 20
-250.8029952440574
 40
0.4242446153828041
 50
90.0
 51
180.0
 73
     0
 72
     1
 10
-188.0081487731818
 20
-250.8029952440574
 11
-188.0081487731818
 21
-245.2384844748572
 72
     2
 10
-187.583904157799
 20
-245.2384844748572
 40
0.4242446153837989
 50
180.0
 51
270.0
 73
     0
 72
     1
 10
-187.583904157799
 20
-244.8142398594734
 11
-182.1105920670822
 21
-244.8142398594734
 72
     2
 10
-182.1105920670822
 20
-245.2384844748572
 40
0.4242446153838841
 50
270.0
 51
360.0
 73
     0
 97
        8
330
218
330
266
330
219
330
271
330
216
330
268
330
217
330
267
 92
       16
 93
        1
 72
     2
 10
-184.9643185072815
 20
-247.5573667032127
 40
0.470978932778479
 50
0.0
 51
360.0
 73
     1
 97
        1
330
28C
 92
       16
 93
        8
 72
     2
 10
-184.4144607945208
 20
-248.6665083031811
 40
0.3157169230765071
 50
115.3740086783541
 51
180.0
 73
     1
 72
     1
 10
-184.7301777175976
 20
-248.6665083031811
 11
-184.7301777175976
 21
-249.2483597098762
 72
     2
 10
-184.4144607945208
 20
-249.2483597098762
 40
0.315716923076792
 50
180.0
 51
269.8110329574541
 73
     1
 72
     2
 10
-184.4088446592108
 20
-247.5455247623072
 40
2.018561131933266
 50
269.8110329575866
 51
450.1889670424133
 73
     1
 72
     2
 10
-184.4144607945208
 20
-245.8426898147381
 40
0.3157169230760711
 50
90.18896704254594
 51
180.0
 73
     1
 72
     1
 10
-184.7301777175976
 20
-245.8426898147381
 11
-184.7301777175976
 21
-246.4482251032449
 72
     2
 10
-184.4144607945208
 20
-246.4482251032449
 40
0.315716923076792
 50
180.0
 51
244.6259913216459
 73
     1
 72
     2
 10
-184.9405034926087
 20
-247.5573667032127
 40
0.9118481501444968
 50
295.3740086781942
 51
424.6259913218228
 73
     0
 97
        8
330
27E
330
1DF
330
27B
330
27C
330
25A
330
1DE
330
27D
330
259
 92
       16
 93
       12
 72
     2
 10
-186.9900094810525
 20
-250.1989673808071
 40
0.3157169230756836
 50
180.0
 51
270.0
 73
     1
 72
     1
 10
-186.9900094810525
 20
-250.5146843038838
 11
-185.5141762200429
 21
-250.5146843038838
 72
     2
 10
-185.5141762200429
 20
-250.1989673808071
 40
0.3157169230767067
 50
270.0
 51
360.0
 73
     1
 72
     1
 10
-185.1984592969663
 20
-250.1989673808071
 11
-185.1984592969663
 21
-248.6681964492755
 72
     2
 10
-185.5141762200429
 20
-248.6681964492755
 40
0.3157169230766215
 50
0.0
 51
64.80558935145781
 73
     1
 72
     2
 10
-184.9915917724679
 20
-247.5573667032127
 40
0.9118975235575889
 50
115.1944106485122
 51
244.805589351471
 73
     0
 72
     2
 10
-185.5141762200429
 20
-246.4465369571505
 40
0.3157169230761581
 50
295.1944106485421
 51
360.0
 73
     1
 72
     1
 10
-185.1984592969663
 20
-246.4465369571505
 11
-185.1984592969663
 21
-245.84251233809
 72
     2
 10
-185.5141762200429
 20
-245.84251233809
 40
0.3157169230766215
 50
0.0
 51
90.0
 73
     1
 72
     1
 10
-185.5141762200429
 20
-245.5267954150138
 11
-186.9900094810525
 21
-245.5267954150138
 72
     2
 10
-186.9900094810525
 20
-245.84251233809
 40
0.3157169230761951
 50
90.0
 51
180.0
 73
     1
 72
     1
 10
-187.3057264041282
 20
-245.84251233809
 11
-187.3057264041282
 21
-250.1989673808071
 97
       12
330
262
330
21A
330
265
330
215
330
272
330
273
330
264
330
214
330
263
330
213
330
274
330
212
 75
     1
 76
     0
 52
45.0
 41
0.1
 77
     0
 78
     1
 53
45.0
 43
0.0
 44
0.0
 45
-0.0707106781186548
 46
0.0707106781186548
 79
     0
 98
        1
 10
0.0
 20
0.0
  0
HATCH
  5
2C9
330
74
100
AcDbEntity
  8
1
  6
Continuous
 62
     2
100
AcDbHatch
 10
0.0
 20
0.0
 30
0.0
210
0.0
220
0.0
230
1.0
  2
_USER
 70
     0
 71
     1
 91
        4
 92
        1
 93
        8
 72
     1
 10
-181.6863474516983
 20
-245.2384844748572
 11
-181.6863474516983
 21
-250.8029952440574
 72
     2
 10
-182.1105920670822
 20
-250.8029952440574
 40
0.4242446153832873
 50
0.0
 51
90.0
 73
     0
 72
     1
 10
-182.1105920670822
 20
-251.2272398594407
 11
-187.583904157799
 21
-251.2272398594407
 72
     2
 10
-187.583904157799
 20
-250.8029952440574
 40
0.4242446153828041
 50
90.0
 51
180.0
 73
     0
 72
     1
 10
-188.0081487731818
 20
-250.8029952440574
 11
-188.0081487731818
 21
-245.2384844748572
 72
     2
 10
-187.583904157799
 20
-245.2384844748572
 40
0.4242446153837989
 50
180.0
 51
270.0
 73
     0
 72
     1
 10
-187.583904157799
 20
-244.8142398594734
 11
-182.1105920670822
 21
-244.8142398594734
 72
     2
 10
-182.1105920670822
 20
-245.2384844748572
 40
0.4242446153838841
 50
270.0
 51
360.0
 73
     0
 97
        8
330
218
330
266
330
219
330
271
330
216
330
268
330
217
330
267
 92
       16
 93
        1
 72
     2
 10
-184.9643185072815
 20
-247.5573667032127
 40
0.470978932778479
 50
0.0
 51
360.0
 73
     1
 97
        1
330
28C
 92
       16
 93
        8
 72
     2
 10
-184.4144607945208
 20
-248.6665083031811
 40
0.3157169230765071
 50
115.3740086783541
 51
180.0
 73
     1
 72
     1
 10
-184.7301777175976
 20
-248.6665083031811
 11
-184.7301777175976
 21
-249.2483597098762
 72
     2
 10
-184.4144607945208
 20
-249.2483597098762
 40
0.315716923076792
 50
180.0
 51
269.8110329574541
 73
     1
 72
     2
 10
-184.4088446592108
 20
-247.5455247623072
 40
2.018561131933266
 50
269.8110329575866
 51
450.1889670424133
 73
     1
 72
     2
 10
-184.4144607945208
 20
-245.8426898147381
 40
0.3157169230760711
 50
90.18896704254594
 51
180.0
 73
     1
 72
     1
 10
-184.7301777175976
 20
-245.8426898147381
 11
-184.7301777175976
 21
-246.4482251032449
 72
     2
 10
-184.4144607945208
 20
-246.4482251032449
 40
0.315716923076792
 50
180.0
 51
244.6259913216459
 73
     1
 72
     2
 10
-184.9405034926087
 20
-247.5573667032127
 40
0.9118481501444968
 50
295.3740086781942
 51
424.6259913218228
 73
     0
 97
        8
330
27E
330
1DF
330
27B
330
27C
330
25A
330
1DE
330
27D
330
259
 92
       16
 93
       12
 72
     2
 10
-186.9900094810525
 20
-250.1989673808071
 40
0.3157169230756836
 50
180.0
 51
270.0
 73
     1
 72
     1
 10
-186.9900094810525
 20
-250.5146843038838
 11
-185.5141762200429
 21
-250.5146843038838
 72
     2
 10
-185.5141762200429
 20
-250.1989673808071
 40
0.3157169230767067
 50
270.0
 51
360.0
 73
     1
 72
     1
 10
-185.1984592969663
 20
-250.1989673808071
 11
-185.1984592969663
 21
-248.6681964492755
 72
     2
 10
-185.5141762200429
 20
-248.6681964492755
 40
0.3157169230766215
 50
0.0
 51
64.80558935145781
 73
     1
 72
     2
 10
-184.9915917724679
 20
-247.5573667032127
 40
0.9118975235575889
 50
115.1944106485122
 51
244.805589351471
 73
     0
 72
     2
 10
-185.5141762200429
 20
-246.4465369571505
 40
0.3157169230761581
 50
295.1944106485421
 51
360.0
 73
     1
 72
     1
 10
-185.1984592969663
 20
-246.4465369571505
 11
-185.1984592969663
 21
-245.84251233809
 72
     2
 10
-185.5141762200429
 20
-245.84251233809
 40
0.3157169230766215
 50
0.0
 51
90.0
 73
     1
 72
     1
 10
-185.5141762200429
 20
-245.5267954150138
 11
-186.9900094810525
 21
-245.5267954150138
 72
     2
 10
-186.9900094810525
 20
-245.84251233809
 40
0.3157169230761951
 50
90.0
 51
180.0
 73
     1
 72
     1
 10
-187.3057264041282
 20
-245.84251233809
 11
-187.3057264041282
 21
-250.1989673808071
 97
       12
330
262
330
21A
330
265
330
215
330
272
330
273
330
264
330
214
330
263
330
213
330
274
330
212
 75
     1
 76
     0
 52
45.0
 41
0.1
 77
     0
 78
     1
 53
45.0
 43
0.0
 44
0.0
 45
-0.0707106781186548
 46
0.0707106781186548
 79
     0
 98
        1
 10
0.0
 20
0.0
  0
HATCH
  5
2CA
330
74
100
AcDbEntity
  8
1
  6
Continuous
 62
     2
100
AcDbHatch
 10
0.0
 20
0.0
 30
0.0
210
0.0
220
0.0
230
1.0
  2
_USER
 70
     0
 71
     1
 91
        1
 92
        1
 93
       18
 72
     1
 10
-160.0967995424773
 20
-248.9586956417532
 11
-160.9078985799507
 21
-248.9586956417532
 72
     1
 10
-160.9078985799507
 20
-248.9586956417532
 11
-160.9078985799507
 21
-251.2272398594407
 72
     1
 10
-160.9078985799507
 20
-251.2272398594407
 11
-162.1006912821184
 21
-251.2272398594407
 72
     1
 10
-162.1006912821184
 20
-251.2272398594407
 11
-162.1006912821184
 21
-248.9586956417532
 72
     1
 10
-162.1006912821184
 20
-248.9586956417532
 11
-163.2043305816865
 21
-248.9586956417532
 72
     2
 10
-163.2043305816865
 20
-249.9132186485793
 40
0.9545230068260935
 50
90.0
 51
109.337143219432
 73
     1
 72
     2
 10
-163.3510005797902
 20
-249.4952636681964
 40
0.5115800601944143
 50
109.3371432194853
 51
151.4785267424225
 73
     1
 72
     2
 10
-162.9736433217088
 20
-249.7003350975354
 40
0.9410597353348924
 50
151.4785267423624
 51
208.5214732576695
 73
     1
 72
     2
 10
-163.3510005797902
 20
-249.9054065268739
 40
0.5115800601960215
 50
208.5214732576866
 51
246.6277221118449
 73
     1
 72
     2
 10
-163.1945605470871
 20
-249.5434145081639
 40
0.9059297849852801
 50
246.6277221118183
 51
288.4480761180811
 73
     1
 72
     2
 10
-163.612728280749
 20
-248.2898687321273
 40
2.227384008972773
 50
288.4480761181333
 51
301.9309089499387
 73
     1
 72
     1
 10
-162.4346732387251
 20
-250.1802194512771
 11
-162.4346732387251
 21
-251.0527364580804
 72
     2
 10
-163.7706011558418
 20
-246.387654152279
 40
4.852596863498825
 50
74.02000874166164
 51
84.84185523036365
 73
     0
 72
     2
 10
-163.481745061106
 20
-249.5875447355006
 40
1.639695123940421
 50
84.84185523032279
 51
164.9381082228985
 73
     0
 72
     2
 10
-163.9008729045676
 20
-249.7003350975354
 40
1.205656168392995
 50
164.9381082229041
 51
195.0618917770959
 73
     0
 72
     2
 10
-163.481745061106
 20
-249.8131254595703
 40
1.639695123940214
 50
195.0618917771043
 51
270.0
 73
     0
 72
     1
 10
-163.481745061106
 20
-248.1734303356301
 11
-160.0967995424773
 21
-248.1734303356296
 72
     1
 10
-160.0967995424773
 20
-248.1734303356296
 11
-160.0967995424773
 21
-248.9586956417532
 97
       18
330
1E1
330
277
330
278
330
260
330
25F
330
245
330
25E
330
25D
330
279
330
25C
330
27A
330
25B
330
246
330
1E0
330
1E5
330
1E4
330
1E3
330
1E2
 75
     1
 76
     0
 52
45.0
 41
0.1
 77
     0
 78
     1
 53
45.0
 43
0.0
 44
0.0
 45
-0.0707106781186548
 46
0.0707106781186548
 79
     0
 98
        1
 10
0.0
 20
0.0
  0
HATCH
  5
2CB
330
74
100
AcDbEntity
  8
1
  6
Continuous
 62
     2
100
AcDbHatch
 10
0.0
 20
0.0
 30
0.0
210
0.0
220
0.0
230
1.0
  2
_USER
 70
     0
 71
     1
 91
        1
 92
        1
 93
       18
 72
     1
 10
-160.0967995424773
 20
-248.9586956417532
 11
-160.9078985799507
 21
-248.9586956417532
 72
     1
 10
-160.9078985799507
 20
-248.9586956417532
 11
-160.9078985799507
 21
-251.2272398594407
 72
     1
 10
-160.9078985799507
 20
-251.2272398594407
 11
-162.1006912821184
 21
-251.2272398594407
 72
     1
 10
-162.1006912821184
 20
-251.2272398594407
 11
-162.1006912821184
 21
-248.9586956417532
 72
     1
 10
-162.1006912821184
 20
-248.9586956417532
 11
-163.2043305816865
 21
-248.9586956417532
 72
     2
 10
-163.2043305816865
 20
-249.9132186485793
 40
0.9545230068260935
 50
90.0
 51
109.337143219432
 73
     1
 72
     2
 10
-163.3510005797902
 20
-249.4952636681964
 40
0.5115800601944143
 50
109.3371432194853
 51
151.4785267424225
 73
     1
 72
     2
 10
-162.9736433217088
 20
-249.7003350975354
 40
0.9410597353348924
 50
151.4785267423624
 51
208.5214732576695
 73
     1
 72
     2
 10
-163.3510005797902
 20
-249.9054065268739
 40
0.5115800601960215
 50
208.5214732576866
 51
246.6277221118449
 73
     1
 72
     2
 10
-163.1945605470871
 20
-249.5434145081639
 40
0.9059297849852801
 50
246.6277221118183
 51
288.4480761180811
 73
     1
 72
     2
 10
-163.612728280749
 20
-248.2898687321273
 40
2.227384008972773
 50
288.4480761181333
 51
301.9309089499387
 73
     1
 72
     1
 10
-162.4346732387251
 20
-250.1802194512771
 11
-162.4346732387251
 21
-251.0527364580804
 72
     2
 10
-163.7706011558418
 20
-246.387654152279
 40
4.852596863498825
 50
74.02000874166164
 51
84.84185523036365
 73
     0
 72
     2
 10
-163.481745061106
 20
-249.5875447355006
 40
1.639695123940421
 50
84.84185523032279
 51
164.9381082228985
 73
     0
 72
     2
 10
-163.9008729045676
 20
-249.7003350975354
 40
1.205656168392995
 50
164.9381082229041
 51
195.0618917770959
 73
     0
 72
     2
 10
-163.481745061106
 20
-249.8131254595703
 40
1.639695123940214
 50
195.0618917771043
 51
270.0
 73
     0
 72
     1
 10
-163.481745061106
 20
-248.1734303356301
 11
-160.0967995424773
 21
-248.1734303356296
 72
     1
 10
-160.0967995424773
 20
-248.1734303356296
 11
-160.0967995424773
 21
-248.9586956417532
 97
       18
330
1E1
330
277
330
278
330
260
330
25F
330
245
330
25E
330
25D
330
279
330
25C
330
27A
330
25B
330
246
330
1E0
330
1E5
330
1E4
330
1E3
330
1E2
 75
     1
 76
     0
 52
45.0
 41
0.1
 77
     0
 78
     1
 53
45.0
 43
0.0
 44
0.0
 45
-0.0707106781186548
 46
0.0707106781186548
 79
     0
 98
        1
 10
0.0
 20
0.0
  0
HATCH
  5
2CC
330
74
100
AcDbEntity
  8
1
  6
Continuous
 62
     2
100
AcDbHatch
 10
0.0
 20
0.0
 30
0.0
210
0.0
220
0.0
230
1.0
  2
_USER
 70
     0
 71
     1
 91
        1
 92
        1
 93
       14
 72
     2
 10
-179.5844465403589
 20
-249.8131254595703
 40
1.639695123940507
 50
84.84185523036236
 51
164.9381082228877
 73
     1
 72
     2
 10
-180.0035743838217
 20
-249.7003350975354
 40
1.205656168390964
 50
164.9381082228781
 51
195.0618917770945
 73
     1
 72
     2
 10
-179.5844465403589
 20
-249.5875447355006
 40
1.639695123939415
 50
195.0618917770893
 51
275.1581447696395
 73
     1
 72
     2
 10
-179.8733026350948
 20
-246.387654152279
 40
4.852596863498138
 50
275.1581447696249
 51
285.9799912583529
 73
     1
 72
     1
 10
-178.537374717977
 20
-251.0527364580798
 11
-178.537374717977
 21
-250.1802194512766
 72
     2
 10
-179.7154297600019
 20
-248.2898687321267
 40
2.227384008972773
 50
58.06909105004009
 51
71.55192388186677
 73
     0
 72
     2
 10
-179.2972620263411
 20
-249.5434145081639
 40
0.9059297849849305
 50
71.55192388184209
 51
113.3722778881306
 73
     0
 72
     2
 10
-179.4537020590431
 20
-249.9054065268739
 40
0.5115800601948034
 50
113.3722778881755
 51
151.4785267423044
 73
     0
 72
     2
 10
-179.0763448009628
 20
-249.7003350975354
 40
0.9410597353332545
 50
151.4785267422943
 51
208.5214732577331
 73
     0
 72
     2
 10
-179.4537020590431
 20
-249.4952636681964
 40
0.5115800601948891
 50
208.5214732576956
 51
246.627722111798
 73
     0
 72
     2
 10
-179.2972620263411
 20
-249.857255686907
 40
0.9059297849853228
 50
246.6277221118694
 51
288.4480761181465
 73
     0
 72
     2
 10
-179.7154297600019
 20
-251.1108014629436
 40
2.227384008973517
 50
288.4480761181333
 51
301.9309089499595
 73
     0
 72
     1
 10
-178.537374717977
 20
-249.2204507437937
 11
-178.537374717977
 21
-248.3479337369904
 72
     2
 10
-179.8733026350948
 20
-253.0130160427913
 40
4.852596863498068
 50
74.02000874164739
 51
84.84185523037506
 73
     1
 97
       14
330
27F
330
280
330
281
330
282
330
247
330
258
330
257
330
256
330
283
330
284
330
255
330
285
330
248
330
254
 75
     1
 76
     0
 52
45.0
 41
0.1
 77
     0
 78
     1
 53
45.0
 43
0.0
 44
0.0
 45
-0.0707106781186548
 46
0.0707106781186548
 79
     0
 98
        1
 10
0.0
 20
0.0
  0
HATCH
  5
2CD
330
74
100
AcDbEntity
  8
1
  6
Continuous
 62
     2
100
AcDbHatch
 10
0.0
 20
0.0
 30
0.0
210
0.0
220
0.0
230
1.0
  2
_USER
 70
     0
 71
     1
 91
        1
 92
        1
 93
       14
 72
     2
 10
-179.5844465403589
 20
-249.8131254595703
 40
1.639695123940507
 50
84.84185523036236
 51
164.9381082228877
 73
     1
 72
     2
 10
-180.0035743838217
 20
-249.7003350975354
 40
1.205656168390964
 50
164.9381082228781
 51
195.0618917770945
 73
     1
 72
     2
 10
-179.5844465403589
 20
-249.5875447355006
 40
1.639695123939415
 50
195.0618917770893
 51
275.1581447696395
 73
     1
 72
     2
 10
-179.8733026350948
 20
-246.387654152279
 40
4.852596863498138
 50
275.1581447696249
 51
285.9799912583529
 73
     1
 72
     1
 10
-178.537374717977
 20
-251.0527364580798
 11
-178.537374717977
 21
-250.1802194512766
 72
     2
 10
-179.7154297600019
 20
-248.2898687321267
 40
2.227384008972773
 50
58.06909105004009
 51
71.55192388186677
 73
     0
 72
     2
 10
-179.2972620263411
 20
-249.5434145081639
 40
0.9059297849849305
 50
71.55192388184209
 51
113.3722778881306
 73
     0
 72
     2
 10
-179.4537020590431
 20
-249.9054065268739
 40
0.5115800601948034
 50
113.3722778881755
 51
151.4785267423044
 73
     0
 72
     2
 10
-179.0763448009628
 20
-249.7003350975354
 40
0.9410597353332545
 50
151.4785267422943
 51
208.5214732577331
 73
     0
 72
     2
 10
-179.4537020590431
 20
-249.4952636681964
 40
0.5115800601948891
 50
208.5214732576956
 51
246.627722111798
 73
     0
 72
     2
 10
-179.2972620263411
 20
-249.857255686907
 40
0.9059297849853228
 50
246.6277221118694
 51
288.4480761181465
 73
     0
 72
     2
 10
-179.7154297600019
 20
-251.1108014629436
 40
2.227384008973517
 50
288.4480761181333
 51
301.9309089499595
 73
     0
 72
     1
 10
-178.537374717977
 20
-249.2204507437937
 11
-178.537374717977
 21
-248.3479337369904
 72
     2
 10
-179.8733026350948
 20
-253.0130160427913
 40
4.852596863498068
 50
74.02000874164739
 51
84.84185523037506
 73
     1
 97
       14
330
27F
330
280
330
281
330
282
330
247
330
258
330
257
330
256
330
283
330
284
330
255
330
285
330
248
330
254
 75
     1
 76
     0
 52
45.0
 41
0.1
 77
     0
 78
     1
 53
45.0
 43
0.0
 44
0.0
 45
-0.0707106781186548
 46
0.0707106781186548
 79
     0
 98
        1
 10
0.0
 20
0.0
  0
ENDBLK
  5
76
330
74
100
AcDbEntity
  8
0
100
AcDbBlockEnd
  0
BLOCK
  5
7A
330
77
100
AcDbEntity
  8
0
100
AcDbBlockBegin
  2
A4I_CS
 70
     0
 10
-62.69999913299442
 20
-263.5207398594571
 30
0.0
  3
A4I_CS
  1

  0
INSERT
  5
78
330
77
100
AcDbEntity
  8
1
100
AcDbBlockReference
  2
_punkt
 10
-62.69999913299442
 20
-258.520739859457
 30
0.0
  0
INSERT
  5
79
330
77
100
AcDbEntity
  8
1
100
AcDbBlockReference
  2
_rahmen
 10
-62.69999913299442
 20
-263.5207398594571
 30
0.0
  0
ENDBLK
  5
7B
330
77
100
AcDbEntity
  8
0
100
AcDbBlockEnd
  0
BLOCK
  5
F9
330
F2
100
AcDbEntity
  8
0
100
AcDbBlockBegin
  2
*D16
 70
     1
 10
0.0
 20
0.0
 30
0.0
  3
*D16
  1

  0
LINE
  5
F3
330
F2
100
AcDbEntity
  8
1
  6
Continuous
 62
     2
100
AcDbLine
 10
-131.100000999995
 20
-79.80999963298207
 30
0.0
 11
-131.100000999995
 21
-98.40999963298206
 31
0.0
  0
LINE
  5
F4
330
F2
100
AcDbEntity
  8
1
  6
Continuous
 62
     2
100
AcDbLine
 10
-126.100000999995
 20
-79.80999963298207
 30
0.0
 11
-131.850000999995
 21
-79.80999963298207
 31
0.0
  0
LINE
  5
F5
330
F2
100
AcDbEntity
  8
1
  6
Continuous
 62
     2
100
AcDbLine
 10
-126.100000999995
 20
-98.40999963298206
 30
0.0
 11
-131.850000999995
 21
-98.40999963298206
 31
0.0
  0
SOLID
  5
F6
330
F2
100
AcDbEntity
  8
1
 62
     2
100
AcDbTrace
 10
-130.8696091292171
 20
-81.55999963298207
 30
0.0
 11
-131.3303928707729
 21
-81.55999963298207
 31
0.0
 12
-131.100000999995
 22
-79.80999963298207
 32
0.0
 13
-131.100000999995
 23
-79.80999963298207
 33
0.0
  0
SOLID
  5
F7
330
F2
100
AcDbEntity
  8
1
 62
     2
100
AcDbTrace
 10
-131.3303928707729
 20
-96.65999963298206
 30
0.0
 11
-130.8696091292171
 21
-96.65999963298206
 31
0.0
 12
-131.100000999995
 22
-98.40999963298206
 32
0.0
 13
-131.100000999995
 23
-98.40999963298206
 33
0.0
  0
MTEXT
  5
F8
330
F2
100
AcDbEntity
  8
1
 62
     3
100
AcDbMText
 10
-132.025000999995
 20
-91.25374963298205
 30
0.0
 40
1.75
 41
0.0
 71
     7
 72
     1
  1
18,6
  7
CONVERTER_11
 11
0.0
 21
1.0
 31
0.0
 73
     1
 44
0.60024009603842
  0
ENDBLK
  5
FA
330
F2
100
AcDbEntity
  8
0
100
AcDbBlockEnd
  0
BLOCK
  5
186
330
17F
100
AcDbEntity
  8
0
100
AcDbBlockBegin
  2
*D17
 70
     1
 10
0.0
 20
0.0
 30
0.0
  3
*D17
  1

  0
LINE
  5
180
330
17F
100
AcDbEntity
  8
1
  6
Continuous
 62
     2
100
AcDbLine
 10
-126.1000009999951
 20
-69.80999970837598
 30
0.0
 11
-108.1000009999951
 21
-69.80999970837598
 31
0.0
  0
LINE
  5
181
330
17F
100
AcDbEntity
  8
1
  6
Continuous
 62
     2
100
AcDbLine
 10
-126.1000009999951
 20
-64.80999970837598
 30
0.0
 11
-126.1000009999951
 21
-70.55999970837598
 31
0.0
  0
LINE
  5
182
330
17F
100
AcDbEntity
  8
1
  6
Continuous
 62
     2
100
AcDbLine
 10
-108.1000009999951
 20
-64.80999970837598
 30
0.0
 11
-108.1000009999951
 21
-70.55999970837598
 31
0.0
  0
SOLID
  5
183
330
17F
100
AcDbEntity
  8
1
 62
     2
100
AcDbTrace
 10
-124.3500009999951
 20
-69.57960783759805
 30
0.0
 11
-124.3500009999951
 21
-70.04039157915392
 31
0.0
 12
-126.1000009999951
 22
-69.80999970837598
 32
0.0
 13
-126.1000009999951
 23
-69.80999970837598
 33
0.0
  0
SOLID
  5
184
330
17F
100
AcDbEntity
  8
1
 62
     2
100
AcDbTrace
 10
-109.8500009999951
 20
-70.04039157915392
 30
0.0
 11
-109.8500009999951
 21
-69.57960783759805
 31
0.0
 12
-108.1000009999951
 22
-69.80999970837598
 32
0.0
 13
-108.1000009999951
 23
-69.80999970837598
 33
0.0
  0
MTEXT
  5
185
330
17F
100
AcDbEntity
  8
1
 62
     3
100
AcDbMText
 10
-118.1500009999951
 20
-69.05999970837598
 30
0.0
 40
1.75
 41
0.0
 71
     7
 72
     1
  1
18
  7
CONVERTER_11
 11
0.9999999999970619
 21
2.424068405545306E-6
 31
0.0
 73
     1
 44
0.60024009603842
  0
ENDBLK
  5
187
330
17F
100
AcDbEntity
  8
0
100
AcDbBlockEnd
  0
BLOCK
  5
191
330
18A
100
AcDbEntity
  8
0
100
AcDbBlockBegin
  2
*D18
 70
     1
 10
0.0
 20
0.0
 30
0.0
  3
*D18
  1

  0
LINE
  5
18B
330
18A
100
AcDbEntity
  8
1
  6
Continuous
 62
     2
100
AcDbLine
 10
-131.1000009999951
 20
-64.80999970837598
 30
0.0
 11
-131.1000009999951
 21
-44.18999970837598
 31
0.0
  0
LINE
  5
18C
330
18A
100
AcDbEntity
  8
1
  6
Continuous
 62
     2
100
AcDbLine
 10
-126.1000009999951
 20
-64.80999970837598
 30
0.0
 11
-131.8500009999951
 21
-64.80999970837598
 31
0.0
  0
LINE
  5
18D
330
18A
100
AcDbEntity
  8
1
  6
Continuous
 62
     2
100
AcDbLine
 10
-126.1000009999951
 20
-44.18999970837598
 30
0.0
 11
-131.8500009999951
 21
-44.18999970837598
 31
0.0
  0
SOLID
  5
18E
330
18A
100
AcDbEntity
  8
1
 62
     2
100
AcDbTrace
 10
-131.330392870773
 20
-63.05999970837598
 30
0.0
 11
-130.8696091292172
 21
-63.05999970837598
 31
0.0
 12
-131.1000009999951
 22
-64.80999970837598
 32
0.0
 13
-131.1000009999951
 23
-64.80999970837598
 33
0.0
  0
SOLID
  5
18F
330
18A
100
AcDbEntity
  8
1
 62
     2
100
AcDbTrace
 10
-130.8696091292172
 20
-45.93999970837598
 30
0.0
 11
-131.330392870773
 21
-45.93999970837598
 31
0.0
 12
-131.1000009999951
 22
-44.18999970837598
 32
0.0
 13
-131.1000009999951
 23
-44.18999970837598
 33
0.0
  0
MTEXT
  5
190
330
18A
100
AcDbEntity
  8
1
 62
     3
100
AcDbMText
 10
-132.0250009999951
 20
-56.90624970837598
 30
0.0
 40
1.75
 41
0.0
 71
     7
 72
     1
  1
20,6
  7
CONVERTER_11
 11
0.0
 21
1.0
 31
0.0
 73
     1
 44
0.60024009603842
  0
ENDBLK
  5
192
330
18A
100
AcDbEntity
  8
0
100
AcDbBlockEnd
  0
ENDSEC
  0
SECTION
  2
ENTITIES
  0
INSERT
  5
7C
330
1F
100
AcDbEntity
  8
0
100
AcDbBlockReference
  2
Allg1
 10
-107.669872
 20
-188.25
 30
0.0
 41
2.0
 42
2.0
 43
2.0
  0
INSERT
  5
7D
330
1F
100
AcDbEntity
  8
0
100
AcDbBlockReference
  2
Drfsicht1
 10
-229.200002
 20
-178.22
 30
0.0
 41
2.0
 42
2.0
 43
2.0
  0
INSERT
  5
7E
330
1F
100
AcDbEntity
  8
0
100
AcDbBlockReference
  2
Rckans1
 10
-116.0
 20
-109.0000000000001
 30
0.0
 41
2.0
 42
2.0
 43
2.0
  0
INSERT
  5
7F
330
1F
100
AcDbEntity
  8
0
100
AcDbBlockReference
  2
SA_Links1
 10
-172.5999988913538
 20
-109.0
 30
0.0
 41
2.0
 42
2.0
 43
2.0
  0
INSERT
  5
80
330
1F
100
AcDbEntity
  8
0
100
AcDbBlockReference
  2
SA_Rechts1
 10
-305.7999989999902
 20
-109.0000000000002
 30
0.0
 41
2.0
 42
2.0
 43
2.0
  0
INSERT
  5
81
330
1F
100
AcDbEntity
  8
0
100
AcDbBlockReference
  2
Vordans1
 10
-229.200002
 20
-109.0000000000001
 30
0.0
 41
2.0
 42
2.0
 43
2.0
  0
INSERT
  5
82
330
1F
100
AcDbEntity
  8
0
100
AcDbBlockReference
  2
A4I_CS
 10
-62.69999913299442
 20
-263.5207398594571
 30
0.0
  0
ENDSEC
  0
SECTION
  2
OBJECTS
  0
DICTIONARY
  5
C
330
0
100
AcDbDictionary
281
     1
  3
ACAD_GROUP
350
D
  3
ACAD_LAYOUT
350
1A
  3
ACAD_MATERIAL
350
3B
  3
ACAD_MLEADERSTYLE
350
2D0
  3
ACAD_MLINESTYLE
350
17
  3
ACAD_PLOTSETTINGS
350
19
  3
ACAD_PLOTSTYLENAME
350
E
  3
ACAD_VISUALSTYLE
350
2A
  3
AcDbVariableDictionary
350
2CE
  0
DICTIONARY
  5
D
102
{ACAD_REACTORS
330
C
102
}
330
C
100
AcDbDictionary
281
     1
  0
DICTIONARY
  5
1A
102
{ACAD_REACTORS
330
C
102
}
330
C
100
AcDbDictionary
281
     1
  3
Layout1
350
1E
  3
Layout2
350
26
  3
Model
350
22
  0
DICTIONARY
  5
3B
102
{ACAD_REACTORS
330
C
102
}
330
C
100
AcDbDictionary
281
     1
  3
ByBlock
350
3D
  3
ByLayer
350
3C
  3
Global
350
3E
  0
DICTIONARY
  5
2D0
102
{ACAD_REACTORS
330
C
102
}
330
C
100
AcDbDictionary
281
     1
  0
DICTIONARY
  5
17
102
{ACAD_REACTORS
330
C
102
}
330
C
100
AcDbDictionary
281
     1
  3
Standard
350
18
  0
DICTIONARY
  5
19
102
{ACAD_REACTORS
330
C
102
}
330
C
100
AcDbDictionary
281
     1
  0
ACDBDICTIONARYWDFLT
  5
E
102
{ACAD_REACTORS
330
C
102
}
330
C
100
AcDbDictionary
281
     1
  3
Normal
350
F
100
AcDbDictionaryWithDefault
340
F
  0
DICTIONARY
  5
2A
102
{ACAD_REACTORS
330
C
102
}
330
C
100
AcDbDictionary
281
     1
  3
2dWireframe
350
2F
  3
3D Hidden
350
31
  3
3dWireframe
350
30
  3
Basic
350
32
  3
Brighten
350
36
  3
ColorChange
350
3A
  3
Conceptual
350
34
  3
Dim
350
35
  3
Facepattern
350
39
  3
Flat
350
2B
  3
FlatWithEdges
350
2C
  3
Gouraud
350
2D
  3
GouraudWithEdges
350
2E
  3
Linepattern
350
38
  3
Realistic
350
33
  3
Thicken
350
37
  0
DICTIONARY
  5
2CE
102
{ACAD_REACTORS
330
C
102
}
330
C
100
AcDbDictionary
281
     1
  3
DIMASSOC
350
2D1
  3
HIDETEXT
350
2D2
  0
LAYOUT
  5
1E
102
{ACAD_REACTORS
330
1A
102
}
330
1A
100
AcDbPlotSettings
  1

  2
none_device
  4

  6

 40
0.0
 41
0.0
 42
0.0
 43
0.0
 44
0.0
 45
0.0
 46
0.0
 47
0.0
 48
0.0
 49
0.0
140
0.0
141
0.0
142
1.0
143
1.0
 70
   688
 72
     0
 73
     0
 74
     5
  7

 75
    16
147
1.0
148
0.0
149
0.0
100
AcDbLayout
  1
Layout1
 70
     1
 71
     1
 10
0.0
 20
0.0
 11
12.0
 21
9.0
 12
0.0
 22
0.0
 32
0.0
 14
1.00000000000000E+20
 24
1.00000000000000E+20
 34
1.00000000000000E+20
 15
-1.00000000000000E+20
 25
-1.00000000000000E+20
 35
-1.00000000000000E+20
146
0.0
 13
0.0
 23
0.0
 33
0.0
 16
1.0
 26
0.0
 36
0.0
 17
0.0
 27
1.0
 37
0.0
 76
     0
330
1B
  0
LAYOUT
  5
26
102
{ACAD_REACTORS
330
1A
102
}
330
1A
100
AcDbPlotSettings
  1

  2
none_device
  4

  6

 40
0.0
 41
0.0
 42
0.0
 43
0.0
 44
0.0
 45
0.0
 46
0.0
 47
0.0
 48
0.0
 49
0.0
140
0.0
141
0.0
142
1.0
143
1.0
 70
   688
 72
     0
 73
     0
 74
     5
  7

 75
    16
147
1.0
148
0.0
149
0.0
100
AcDbLayout
  1
Layout2
 70
     1
 71
     2
 10
0.0
 20
0.0
 11
0.0
 21
0.0
 12
0.0
 22
0.0
 32
0.0
 14
0.0
 24
0.0
 34
0.0
 15
0.0
 25
0.0
 35
0.0
146
0.0
 13
0.0
 23
0.0
 33
0.0
 16
1.0
 26
0.0
 36
0.0
 17
0.0
 27
1.0
 37
0.0
 76
     0
330
23
  0
LAYOUT
  5
22
102
{ACAD_REACTORS
330
1A
102
}
330
1A
100
AcDbPlotSettings
  1

  2
none_device
  4

  6

 40
0.0
 41
0.0
 42
0.0
 43
0.0
 44
0.0
 45
0.0
 46
0.0
 47
0.0
 48
0.0
 49
0.0
140
0.0
141
0.0
142
1.0
143
1.0
 70
  1712
 72
     0
 73
     0
 74
     0
  7

 75
     0
147
1.0
148
0.0
149
0.0
100
AcDbLayout
  1
Model
 70
     1
 71
     0
 10
0.0
 20
0.0
 11
12.0
 21
9.0
 12
0.0
 22
0.0
 32
0.0
 14
-354.6999991329935
 24
-263.5207398594571
 34
0.0
 15
-57.69999913299543
 25
-53.520739859457
 35
0.0
146
0.0
 13
0.0
 23
0.0
 33
0.0
 16
1.0
 26
0.0
 36
0.0
 17
0.0
 27
1.0
 37
0.0
 76
     0
330
1F
331
29
  0
MATERIAL
  5
3D
102
{ACAD_REACTORS
330
3B
102
}
102
{ACAD_XDICTIONARY
360
2F5
102
}
330
3B
100
AcDbMaterial
  1
ByBlock
  0
MATERIAL
  5
3C
102
{ACAD_REACTORS
330
3B
102
}
102
{ACAD_XDICTIONARY
360
2F3
102
}
330
3B
100
AcDbMaterial
  1
ByLayer
  0
MATERIAL
  5
3E
102
{ACAD_REACTORS
330
3B
102
}
102
{ACAD_XDICTIONARY
360
2F7
102
}
330
3B
100
AcDbMaterial
  1
Global
  0
MLINESTYLE
  5
18
102
{ACAD_REACTORS
330
17
102
}
330
17
100
AcDbMlineStyle
  2
Standard
 70
     0
  3

 62
   256
 51
90.0
 52
90.0
 71
     2
 49
0.5
 62
   256
  6
BYLAYER
 49
-0.5
 62
   256
  6
BYLAYER
  0
ACDBPLACEHOLDER
  5
F
102
{ACAD_REACTORS
330
E
102
}
330
E
  0
VISUALSTYLE
  5
2F
102
{ACAD_REACTORS
330
2A
102
}
102
{ACAD_XDICTIONARY
360
2DB
102
}
330
2A
100
AcDbVisualStyle
  2
2dWireframe
 70
     4
 71
     0
 72
     2
 73
     0
 90
        0
 40
-0.6
 41
-30.0
 62
     5
 63
     7
 74
     1
 91
        4
 64
     7
 65
   257
 75
     1
175
     1
 42
1.0
 92
        0
 66
   257
 43
1.0
 76
     1
 77
     6
 78
     2
 67
     7
 79
     5
170
     0
171
     0
290
     0
174
     0
 93
        1
 44
0.0
173
     0
291
     0
 45
0.0
1001
ACAD
1000
AcDbSavedByObjectVersion
1070
     0
  0
VISUALSTYLE
  5
31
102
{ACAD_REACTORS
330
2A
102
}
102
{ACAD_XDICTIONARY
360
2DF
102
}
330
2A
100
AcDbVisualStyle
  2
3D Hidden
 70
     6
 71
     1
 72
     2
 73
     2
 90
        0
 40
-0.6
 41
-30.0
 62
     5
 63
     7
 74
     2
 91
        2
 64
     7
 65
   257
 75
     2
175
     1
 42
40.0
 92
        0
 66
   257
 43
1.0
 76
     1
 77
     6
 78
     2
 67
     7
 79
     3
170
     0
171
     0
290
     0
174
     0
 93
        1
 44
0.0
173
     0
291
     0
 45
0.0
1001
ACAD
1000
AcDbSavedByObjectVersion
1070
     0
  0
VISUALSTYLE
  5
30
102
{ACAD_REACTORS
330
2A
102
}
102
{ACAD_XDICTIONARY
360
2DD
102
}
330
2A
100
AcDbVisualStyle
  2
3dWireframe
 70
     5
 71
     0
 72
     2
 73
     0
 90
        0
 40
-0.6
 41
-30.0
 62
     5
 63
     7
 74
     1
 91
        4
 64
     7
 65
   257
 75
     1
175
     1
 42
1.0
 92
        0
 66
   257
 43
1.0
 76
     1
 77
     6
 78
     2
 67
     7
 79
     5
170
     0
171
     0
290
     0
174
     0
 93
        1
 44
0.0
173
     0
291
     0
 45
0.0
1001
ACAD
1000
AcDbSavedByObjectVersion
1070
     0
  0
VISUALSTYLE
  5
32
102
{ACAD_REACTORS
330
2A
102
}
102
{ACAD_XDICTIONARY
360
2E1
102
}
330
2A
100
AcDbVisualStyle
  2
Basic
 70
     7
 71
     1
 72
     0
 73
     1
 90
        0
 40
-0.6
 41
-30.0
 62
     5
 63
     7
 74
     0
 91
        4
 64
     7
 65
   257
 75
     1
175
     1
 42
1.0
 92
        8
 66
     7
 43
1.0
 76
     1
 77
     6
 78
     2
 67
     7
 79
     5
170
     0
171
     0
290
     0
174
     0
 93
        1
 44
0.0
173
     0
291
     1
 45
0.0
1001
ACAD
1000
AcDbSavedByObjectVersion
1070
     0
  0
VISUALSTYLE
  5
36
102
{ACAD_REACTORS
330
2A
102
}
102
{ACAD_XDICTIONARY
360
2E9
102
}
330
2A
100
AcDbVisualStyle
  2
Brighten
 70
    12
 71
     2
 72
     2
 73
     0
 90
        0
 40
-0.6
 41
-30.0
 62
     5
 63
     7
 74
     1
 91
        4
 64
     7
 65
   257
 75
     1
175
     1
 42
1.0
 92
        8
 66
     7
 43
1.0
 76
     1
 77
     6
 78
     2
 67
     7
 79
     5
170
     0
171
     0
290
     0
174
     0
 93
        1
 44
50.0
173
     0
291
     1
 45
0.0
1001
ACAD
1000
AcDbSavedByObjectVersion
1070
     0
  0
VISUALSTYLE
  5
3A
102
{ACAD_REACTORS
330
2A
102
}
102
{ACAD_XDICTIONARY
360
2F1
102
}
330
2A
100
AcDbVisualStyle
  2
ColorChange
 70
    16
 71
     2
 72
     2
 73
     3
 90
        0
 40
-0.6
 41
-30.0
 62
     5
 63
     8
 74
     1
 91
        4
 64
     7
 65
   257
 75
     1
175
     1
 42
1.0
 92
        8
 66
     8
 43
1.0
 76
     1
 77
     6
 78
     2
 67
     7
 79
     5
170
     0
171
     0
290
     0
174
     0
 93
        1
 44
0.0
173
     0
291
     1
 45
0.0
1001
ACAD
1000
AcDbSavedByObjectVersion
1070
     0
  0
VISUALSTYLE
  5
34
102
{ACAD_REACTORS
330
2A
102
}
102
{ACAD_XDICTIONARY
360
2E5
102
}
330
2A
100
AcDbVisualStyle
  2
Conceptual
 70
     9
 71
     3
 72
     2
 73
     0
 90
        0
 40
-0.6
 41
-30.0
 62
     5
 63
     7
 74
     2
 91
        2
 64
     7
 65
   257
 75
     1
175
     1
 42
40.0
 92
        8
 66
     7
 43
1.0
 76
     1
 77
     6
 78
     2
 67
     7
 79
     3
170
     0
171
     0
290
     0
174
     0
 93
        1
 44
0.0
173
     0
291
     0
 45
0.0
1001
ACAD
1000
AcDbSavedByObjectVersion
1070
     0
  0
VISUALSTYLE
  5
35
102
{ACAD_REACTORS
330
2A
102
}
102
{ACAD_XDICTIONARY
360
2E7
102
}
330
2A
100
AcDbVisualStyle
  2
Dim
 70
    11
 71
     2
 72
     2
 73
     0
 90
        0
 40
-0.6
 41
-30.0
 62
     5
 63
     7
 74
     1
 91
        4
 64
     7
 65
   257
 75
     1
175
     1
 42
1.0
 92
        8
 66
     7
 43
1.0
 76
     1
 77
     6
 78
     2
 67
     7
 79
     5
170
     0
171
     0
290
     0
174
     0
 93
        1
 44
-50.0
173
     0
291
     1
 45
0.0
1001
ACAD
1000
AcDbSavedByObjectVersion
1070
     0
  0
VISUALSTYLE
  5
39
102
{ACAD_REACTORS
330
2A
102
}
102
{ACAD_XDICTIONARY
360
2EF
102
}
330
2A
100
AcDbVisualStyle
  2
Facepattern
 70
    15
 71
     2
 72
     2
 73
     0
 90
        0
 40
-0.6
 41
-30.0
 62
     5
 63
     7
 74
     1
 91
        4
 64
     7
 65
   257
 75
     1
175
     1
 42
1.0
 92
        8
 66
     7
 43
1.0
 76
     1
 77
     6
 78
     2
 67
     7
 79
     5
170
     0
171
     0
290
     0
174
     0
 93
        1
 44
0.0
173
     0
291
     1
 45
0.0
1001
ACAD
1000
AcDbSavedByObjectVersion
1070
     0
  0
VISUALSTYLE
  5
2B
102
{ACAD_REACTORS
330
2A
102
}
102
{ACAD_XDICTIONARY
360
2D3
102
}
330
2A
100
AcDbVisualStyle
  2
Flat
 70
     0
 71
     2
 72
     1
 73
     1
 90
        2
 40
-0.6
 41
30.0
 62
     5
 63
     7
 74
     0
 91
        4
 64
     7
 65
   257
 75
     1
175
     1
 42
1.0
 92
        8
 66
     7
 43
1.0
 76
     1
 77
     6
 78
     2
 67
     7
 79
     5
170
     0
171
     0
290
     0
174
     0
 93
       13
 44
0.0
173
     0
291
     1
 45
0.0
1001
ACAD
1000
AcDbSavedByObjectVersion
1070
     0
  0
VISUALSTYLE
  5
2C
102
{ACAD_REACTORS
330
2A
102
}
102
{ACAD_XDICTIONARY
360
2D5
102
}
330
2A
100
AcDbVisualStyle
  2
FlatWithEdges
 70
     1
 71
     2
 72
     1
 73
     1
 90
        2
 40
-0.6
 41
30.0
 62
     5
 63
     7
 74
     1
 91
        4
 64
     7
 65
   257
 75
     1
175
     1
 42
1.0
 92
        0
 66
   257
 43
1.0
 76
     1
 77
     6
 78
     2
 67
     7
 79
     5
170
     0
171
     0
290
     0
174
     0
 93
       13
 44
0.0
173
     0
291
     1
 45
0.0
1001
ACAD
1000
AcDbSavedByObjectVersion
1070
     0
  0
VISUALSTYLE
  5
2D
102
{ACAD_REACTORS
330
2A
102
}
102
{ACAD_XDICTIONARY
360
2D7
102
}
330
2A
100
AcDbVisualStyle
  2
Gouraud
 70
     2
 71
     2
 72
     2
 73
     1
 90
        2
 40
-0.6
 41
30.0
 62
     5
 63
     7
 74
     0
 91
        4
 64
     7
 65
   257
 75
     1
175
     1
 42
1.0
 92
        0
 66
     7
 43
1.0
 76
     1
 77
     6
 78
     2
 67
     7
 79
     5
170
     0
171
     0
290
     0
174
     0
 93
       13
 44
0.0
173
     0
291
     1
 45
0.0
1001
ACAD
1000
AcDbSavedByObjectVersion
1070
     0
  0
VISUALSTYLE
  5
2E
102
{ACAD_REACTORS
330
2A
102
}
102
{ACAD_XDICTIONARY
360
2D9
102
}
330
2A
100
AcDbVisualStyle
  2
GouraudWithEdges
 70
     3
 71
     2
 72
     2
 73
     1
 90
        2
 40
-0.6
 41
30.0
 62
     5
 63
     7
 74
     1
 91
        4
 64
     7
 65
   257
 75
     1
175
     1
 42
1.0
 92
        0
 66
   257
 43
1.0
 76
     1
 77
     6
 78
     2
 67
     7
 79
     5
170
     0
171
     0
290
     0
174
     0
 93
       13
 44
0.0
173
     0
291
     1
 45
0.0
1001
ACAD
1000
AcDbSavedByObjectVersion
1070
     0
  0
VISUALSTYLE
  5
38
102
{ACAD_REACTORS
330
2A
102
}
102
{ACAD_XDICTIONARY
360
2ED
102
}
330
2A
100
AcDbVisualStyle
  2
Linepattern
 70
    14
 71
     2
 72
     2
 73
     0
 90
        0
 40
-0.6
 41
-30.0
 62
     5
 63
     7
 74
     1
 91
        4
 64
     7
 65
   257
 75
     7
175
     7
 42
1.0
 92
        8
 66
     7
 43
1.0
 76
     1
 77
     6
 78
     2
 67
     7
 79
     5
170
     0
171
     0
290
     0
174
     0
 93
        1
 44
0.0
173
     0
291
     1
 45
0.0
1001
ACAD
1000
AcDbSavedByObjectVersion
1070
     0
  0
VISUALSTYLE
  5
33
102
{ACAD_REACTORS
330
2A
102
}
102
{ACAD_XDICTIONARY
360
2E3
102
}
330
2A
100
AcDbVisualStyle
  2
Realistic
 70
     8
 71
     2
 72
     2
 73
     0
 90
        0
 40
-0.6
 41
-30.0
 62
     5
 63
     7
 74
     1
 91
        0
 64
     7
 65
   257
 75
     1
175
     1
 42
1.0
 92
        8
 66
     8
 43
1.0
 76
     1
 77
     6
 78
     2
 67
     7
 79
     5
170
     0
171
     0
290
     0
174
     0
 93
       13
 44
0.0
173
     0
291
     0
 45
0.0
1001
ACAD
1000
AcDbSavedByObjectVersion
1070
     0
  0
VISUALSTYLE
  5
37
102
{ACAD_REACTORS
330
2A
102
}
102
{ACAD_XDICTIONARY
360
2EB
102
}
330
2A
100
AcDbVisualStyle
  2
Thicken
 70
    13
 71
     2
 72
     2
 73
     0
 90
        0
 40
-0.6
 41
-30.0
 62
     5
 63
     7
 74
     1
 91
        4
 64
     7
 65
   257
 75
     1
175
     1
 42
1.0
 92
       12
 66
     7
 43
1.0
 76
     1
 77
     6
 78
     2
 67
     7
 79
     5
170
     0
171
     0
290
     0
174
     0
 93
        1
 44
0.0
173
     0
291
     1
 45
0.0
1001
ACAD
1000
AcDbSavedByObjectVersion
1070
     0
  0
DICTIONARYVAR
  5
2D1
102
{ACAD_REACTORS
330
2CE
102
}
330
2CE
100
DictionaryVariables
280
     0
  1
2
  0
DICTIONARYVAR
  5
2D2
102
{ACAD_REACTORS
330
2CE
102
}
330
2CE
100
DictionaryVariables
280
     0
  1
1
  0
DICTIONARY
  5
2F5
330
3D
100
AcDbDictionary
280
     1
281
     1
  3
ACAD_XREC_ROUNDTRIP
360
2F6
  0
DICTIONARY
  5
2F3
330
3C
100
AcDbDictionary
280
     1
281
     1
  3
ACAD_XREC_ROUNDTRIP
360
2F4
  0
DICTIONARY
  5
2F7
330
3E
100
AcDbDictionary
280
     1
281
     1
  3
ACAD_XREC_ROUNDTRIP
360
2F8
  0
DICTIONARY
  5
2DB
330
2F
100
AcDbDictionary
280
     1
281
     1
  3
ACAD_XREC_ROUNDTRIP
360
2DC
  0
DICTIONARY
  5
2DF
330
31
100
AcDbDictionary
280
     1
281
     1
  3
ACAD_XREC_ROUNDTRIP
360
2E0
  0
DICTIONARY
  5
2DD
330
30
100
AcDbDictionary
280
     1
281
     1
  3
ACAD_XREC_ROUNDTRIP
360
2DE
  0
DICTIONARY
  5
2E1
330
32
100
AcDbDictionary
280
     1
281
     1
  3
ACAD_XREC_ROUNDTRIP
360
2E2
  0
DICTIONARY
  5
2E9
330
36
100
AcDbDictionary
280
     1
281
     1
  3
ACAD_XREC_ROUNDTRIP
360
2EA
  0
DICTIONARY
  5
2F1
330
3A
100
AcDbDictionary
280
     1
281
     1
  3
ACAD_XREC_ROUNDTRIP
360
2F2
  0
DICTIONARY
  5
2E5
330
34
100
AcDbDictionary
280
     1
281
     1
  3
ACAD_XREC_ROUNDTRIP
360
2E6
  0
DICTIONARY
  5
2E7
330
35
100
AcDbDictionary
280
     1
281
     1
  3
ACAD_XREC_ROUNDTRIP
360
2E8
  0
DICTIONARY
  5
2EF
330
39
100
AcDbDictionary
280
     1
281
     1
  3
ACAD_XREC_ROUNDTRIP
360
2F0
  0
DICTIONARY
  5
2D3
330
2B
100
AcDbDictionary
280
     1
281
     1
  3
ACAD_XREC_ROUNDTRIP
360
2D4
  0
DICTIONARY
  5
2D5
330
2C
100
AcDbDictionary
280
     1
281
     1
  3
ACAD_XREC_ROUNDTRIP
360
2D6
  0
DICTIONARY
  5
2D7
330
2D
100
AcDbDictionary
280
     1
281
     1
  3
ACAD_XREC_ROUNDTRIP
360
2D8
  0
DICTIONARY
  5
2D9
330
2E
100
AcDbDictionary
280
     1
281
     1
  3
ACAD_XREC_ROUNDTRIP
360
2DA
  0
DICTIONARY
  5
2ED
330
38
100
AcDbDictionary
280
     1
281
     1
  3
ACAD_XREC_ROUNDTRIP
360
2EE
  0
DICTIONARY
  5
2E3
330
33
100
AcDbDictionary
280
     1
281
     1
  3
ACAD_XREC_ROUNDTRIP
360
2E4
  0
DICTIONARY
  5
2EB
330
37
100
AcDbDictionary
280
     1
281
     1
  3
ACAD_XREC_ROUNDTRIP
360
2EC
  0
XRECORD
  5
2F6
102
{ACAD_REACTORS
330
2F5
102
}
330
2F5
100
AcDbXrecord
280
     1
102
MATERIAL
148
0.0
149
0.0
149
0.0
 93
        0
 94
      127
282
     0
 72
     1
 77
     1
171
     1
175
     1
179
     1
273
     0
  0
XRECORD
  5
2F4
102
{ACAD_REACTORS
330
2F3
102
}
330
2F3
100
AcDbXrecord
280
     1
102
MATERIAL
148
0.0
149
0.0
149
0.0
 93
        0
 94
      127
282
     0
 72
     1
 77
     1
171
     1
175
     1
179
     1
273
     0
  0
XRECORD
  5
2F8
102
{ACAD_REACTORS
330
2F7
102
}
330
2F7
100
AcDbXrecord
280
     1
102
MATERIAL
148
0.0
149
0.0
149
0.0
 93
        0
 94
      127
282
     0
 72
     1
 77
     1
171
     1
175
     1
179
     1
273
     0
  0
XRECORD
  5
2DC
102
{ACAD_REACTORS
330
2DB
102
}
330
2DB
100
AcDbXrecord
280
     1
102
RTVSPropertyOp0
 70
     1
102
RTVSPropertyOp1
 70
     1
102
RTVSPropertyOp2
 70
     1
102
RTVSPropertyOp3
 70
     1
102
RTVSPropertyOp4
 70
     1
102
RTVSPropertyOp5
 70
     1
102
RTVSPropertyOp6
 70
     1
102
RTVSPropertyOp7
 70
     1
102
RTVSPropertyOp8
 70
     1
102
RTVSPropertyOp9
 70
     1
102
RTVSPropertyOp10
 70
     1
102
RTVSPropertyOp11
 70
     1
102
RTVSPropertyOp12
 70
     1
102
RTVSPropertyOp13
 70
     1
102
RTVSPropertyOp14
 70
     1
102
RTVSPropertyOp15
 70
     1
102
RTVSPropertyOp16
 70
     1
102
RTVSPropertyOp17
 70
     1
102
RTVSPropertyOp18
 70
     1
102
RTVSPropertyOp19
 70
     1
102
RTVSPropertyOp20
 70
     1
102
RTVSPropertyOp21
 70
     1
102
RTVSPropertyOp22
 70
     1
102
RTVSPropertyOp23
 70
     1
102
RTVSPropertyOp24
 70
     1
102
RTVSPropertyOp25
 70
     1
102
RTVSPropertyOp26
 70
     1
102
RTVSPropertyOp27
 70
     1
102
RTVSPropertyOp28
 70
     1
102
RTVSPropertyOp29
 70
     1
102
RTVSPropertyOp30
 70
     1
102
RTVSPropertyOp31
 70
     1
102
RTVSPropertyOp32
 70
     1
  0
XRECORD
  5
2E0
102
{ACAD_REACTORS
330
2DF
102
}
330
2DF
100
AcDbXrecord
280
     1
102
RTVSPropertyOp0
 70
     1
102
RTVSPropertyOp1
 70
     1
102
RTVSPropertyOp2
 70
     1
102
RTVSPropertyOp3
 70
     1
102
RTVSPropertyOp4
 70
     1
102
RTVSPropertyOp5
 70
     1
102
RTVSPropertyOp6
 70
     1
102
RTVSPropertyOp7
 70
     1
102
RTVSPropertyOp8
 70
     1
102
RTVSPropertyOp9
 70
     1
102
RTVSPropertyOp10
 70
     1
102
RTVSPropertyOp11
 70
     1
102
RTVSPropertyOp12
 70
     1
102
RTVSPropertyOp13
 70
     1
102
RTVSPropertyOp14
 70
     1
102
RTVSPropertyOp15
 70
     1
102
RTVSPropertyOp16
 70
     1
102
RTVSPropertyOp17
 70
     1
102
RTVSPropertyOp18
 70
     1
102
RTVSPropertyOp19
 70
     1
102
RTVSPropertyOp20
 70
     1
102
RTVSPropertyOp21
 70
     1
102
RTVSPropertyOp22
 70
     1
102
RTVSPropertyOp23
 70
     1
102
RTVSPropertyOp24
 70
     1
102
RTVSPropertyOp25
 70
     1
102
RTVSPropertyOp26
 70
     1
102
RTVSPropertyOp27
 70
     1
102
RTVSPropertyOp28
 70
     1
102
RTVSPropertyOp29
 70
     1
102
RTVSPropertyOp30
 70
     1
102
RTVSPropertyOp31
 70
     1
102
RTVSPropertyOp32
 70
     1
  0
XRECORD
  5
2DE
102
{ACAD_REACTORS
330
2DD
102
}
330
2DD
100
AcDbXrecord
280
     1
102
RTVSPropertyOp0
 70
     1
102
RTVSPropertyOp1
 70
     1
102
RTVSPropertyOp2
 70
     1
102
RTVSPropertyOp3
 70
     1
102
RTVSPropertyOp4
 70
     1
102
RTVSPropertyOp5
 70
     1
102
RTVSPropertyOp6
 70
     1
102
RTVSPropertyOp7
 70
     1
102
RTVSPropertyOp8
 70
     1
102
RTVSPropertyOp9
 70
     1
102
RTVSPropertyOp10
 70
     1
102
RTVSPropertyOp11
 70
     1
102
RTVSPropertyOp12
 70
     1
102
RTVSPropertyOp13
 70
     1
102
RTVSPropertyOp14
 70
     1
102
RTVSPropertyOp15
 70
     1
102
RTVSPropertyOp16
 70
     1
102
RTVSPropertyOp17
 70
     1
102
RTVSPropertyOp18
 70
     1
102
RTVSPropertyOp19
 70
     1
102
RTVSPropertyOp20
 70
     1
102
RTVSPropertyOp21
 70
     1
102
RTVSPropertyOp22
 70
     1
102
RTVSPropertyOp23
 70
     1
102
RTVSPropertyOp24
 70
     1
102
RTVSPropertyOp25
 70
     1
102
RTVSPropertyOp26
 70
     1
102
RTVSPropertyOp27
 70
     1
102
RTVSPropertyOp28
 70
     1
102
RTVSPropertyOp29
 70
     1
102
RTVSPropertyOp30
 70
     1
102
RTVSPropertyOp31
 70
     1
102
RTVSPropertyOp32
 70
     1
  0
XRECORD
  5
2E2
102
{ACAD_REACTORS
330
2E1
102
}
330
2E1
100
AcDbXrecord
280
     1
102
RTVSPropertyOp0
 70
     1
102
RTVSPropertyOp1
 70
     1
102
RTVSPropertyOp2
 70
     1
102
RTVSPropertyOp3
 70
     1
102
RTVSPropertyOp4
 70
     1
102
RTVSPropertyOp5
 70
     1
102
RTVSPropertyOp6
 70
     1
102
RTVSPropertyOp7
 70
     1
102
RTVSPropertyOp8
 70
     1
102
RTVSPropertyOp9
 70
     1
102
RTVSPropertyOp10
 70
     1
102
RTVSPropertyOp11
 70
     1
102
RTVSPropertyOp12
 70
     1
102
RTVSPropertyOp13
 70
     1
102
RTVSPropertyOp14
 70
     1
102
RTVSPropertyOp15
 70
     1
102
RTVSPropertyOp16
 70
     1
102
RTVSPropertyOp17
 70
     1
102
RTVSPropertyOp18
 70
     1
102
RTVSPropertyOp19
 70
     1
102
RTVSPropertyOp20
 70
     1
102
RTVSPropertyOp21
 70
     1
102
RTVSPropertyOp22
 70
     1
102
RTVSPropertyOp23
 70
     1
102
RTVSPropertyOp24
 70
     1
102
RTVSPropertyOp25
 70
     1
102
RTVSPropertyOp26
 70
     1
102
RTVSPropertyOp27
 70
     1
102
RTVSPropertyOp28
 70
     1
102
RTVSPropertyOp29
 70
     1
102
RTVSPropertyOp30
 70
     1
102
RTVSPropertyOp31
 70
     1
102
RTVSPropertyOp32
 70
     1
  0
XRECORD
  5
2EA
102
{ACAD_REACTORS
330
2E9
102
}
330
2E9
100
AcDbXrecord
280
     1
102
RTVSPropertyOp0
 70
     1
102
RTVSPropertyOp1
 70
     1
102
RTVSPropertyOp2
 70
     1
102
RTVSPropertyOp3
 70
     1
102
RTVSPropertyOp4
 70
     1
102
RTVSPropertyOp5
 70
     1
102
RTVSPropertyOp6
 70
     1
102
RTVSPropertyOp7
 70
     1
102
RTVSPropertyOp8
 70
     1
102
RTVSPropertyOp9
 70
     1
102
RTVSPropertyOp10
 70
     1
102
RTVSPropertyOp11
 70
     1
102
RTVSPropertyOp12
 70
     1
102
RTVSPropertyOp13
 70
     1
102
RTVSPropertyOp14
 70
     1
102
RTVSPropertyOp15
 70
     1
102
RTVSPropertyOp16
 70
     1
102
RTVSPropertyOp17
 70
     1
102
RTVSPropertyOp18
 70
     1
102
RTVSPropertyOp19
 70
     1
102
RTVSPropertyOp20
 70
     1
102
RTVSPropertyOp21
 70
     1
102
RTVSPropertyOp22
 70
     1
102
RTVSPropertyOp23
 70
     1
102
RTVSPropertyOp24
 70
     1
102
RTVSPropertyOp25
 70
     1
102
RTVSPropertyOp26
 70
     1
102
RTVSPropertyOp27
 70
     1
102
RTVSPropertyOp28
 70
     1
102
RTVSPropertyOp29
 70
     1
102
RTVSPropertyOp30
 70
     1
102
RTVSPropertyOp31
 70
     1
102
RTVSPropertyOp32
 70
     1
  0
XRECORD
  5
2F2
102
{ACAD_REACTORS
330
2F1
102
}
330
2F1
100
AcDbXrecord
280
     1
102
RTVSPropertyOp0
 70
     1
102
RTVSPropertyOp1
 70
     1
102
RTVSPropertyOp2
 70
     1
102
RTVSPropertyOp3
 70
     1
102
RTVSPropertyOp4
 70
     1
102
RTVSPropertyOp5
 70
     1
102
RTVSPropertyOp6
 70
     1
102
RTVSPropertyOp7
 70
     1
102
RTVSPropertyOp8
 70
     1
102
RTVSPropertyOp9
 70
     1
102
RTVSPropertyOp10
 70
     1
102
RTVSPropertyOp11
 70
     1
102
RTVSPropertyOp12
 70
     1
102
RTVSPropertyOp13
 70
     1
102
RTVSPropertyOp14
 70
     1
102
RTVSPropertyOp15
 70
     1
102
RTVSPropertyOp16
 70
     1
102
RTVSPropertyOp17
 70
     1
102
RTVSPropertyOp18
 70
     1
102
RTVSPropertyOp19
 70
     1
102
RTVSPropertyOp20
 70
     1
102
RTVSPropertyOp21
 70
     1
102
RTVSPropertyOp22
 70
     1
102
RTVSPropertyOp23
 70
     1
102
RTVSPropertyOp24
 70
     1
102
RTVSPropertyOp25
 70
     1
102
RTVSPropertyOp26
 70
     1
102
RTVSPropertyOp27
 70
     1
102
RTVSPropertyOp28
 70
     1
102
RTVSPropertyOp29
 70
     1
102
RTVSPropertyOp30
 70
     1
102
RTVSPropertyOp31
 70
     1
102
RTVSPropertyOp32
 70
     1
  0
XRECORD
  5
2E6
102
{ACAD_REACTORS
330
2E5
102
}
330
2E5
100
AcDbXrecord
280
     1
102
RTVSPropertyOp0
 70
     1
102
RTVSPropertyOp1
 70
     1
102
RTVSPropertyOp2
 70
     1
102
RTVSPropertyOp3
 70
     1
102
RTVSPropertyOp4
 70
     1
102
RTVSPropertyOp5
 70
     1
102
RTVSPropertyOp6
 70
     1
102
RTVSPropertyOp7
 70
     1
102
RTVSPropertyOp8
 70
     1
102
RTVSPropertyOp9
 70
     1
102
RTVSPropertyOp10
 70
     1
102
RTVSPropertyOp11
 70
     1
102
RTVSPropertyOp12
 70
     1
102
RTVSPropertyOp13
 70
     1
102
RTVSPropertyOp14
 70
     1
102
RTVSPropertyOp15
 70
     1
102
RTVSPropertyOp16
 70
     1
102
RTVSPropertyOp17
 70
     1
102
RTVSPropertyOp18
 70
     1
102
RTVSPropertyOp19
 70
     1
102
RTVSPropertyOp20
 70
     1
102
RTVSPropertyOp21
 70
     1
102
RTVSPropertyOp22
 70
     1
102
RTVSPropertyOp23
 70
     1
102
RTVSPropertyOp24
 70
     1
102
RTVSPropertyOp25
 70
     1
102
RTVSPropertyOp26
 70
     1
102
RTVSPropertyOp27
 70
     1
102
RTVSPropertyOp28
 70
     1
102
RTVSPropertyOp29
 70
     1
102
RTVSPropertyOp30
 70
     1
102
RTVSPropertyOp31
 70
     1
102
RTVSPropertyOp32
 70
     1
  0
XRECORD
  5
2E8
102
{ACAD_REACTORS
330
2E7
102
}
330
2E7
100
AcDbXrecord
280
     1
102
RTVSPropertyOp0
 70
     1
102
RTVSPropertyOp1
 70
     1
102
RTVSPropertyOp2
 70
     1
102
RTVSPropertyOp3
 70
     1
102
RTVSPropertyOp4
 70
     1
102
RTVSPropertyOp5
 70
     1
102
RTVSPropertyOp6
 70
     1
102
RTVSPropertyOp7
 70
     1
102
RTVSPropertyOp8
 70
     1
102
RTVSPropertyOp9
 70
     1
102
RTVSPropertyOp10
 70
     1
102
RTVSPropertyOp11
 70
     1
102
RTVSPropertyOp12
 70
     1
102
RTVSPropertyOp13
 70
     1
102
RTVSPropertyOp14
 70
     1
102
RTVSPropertyOp15
 70
     1
102
RTVSPropertyOp16
 70
     1
102
RTVSPropertyOp17
 70
     1
102
RTVSPropertyOp18
 70
     1
102
RTVSPropertyOp19
 70
     1
102
RTVSPropertyOp20
 70
     1
102
RTVSPropertyOp21
 70
     1
102
RTVSPropertyOp22
 70
     1
102
RTVSPropertyOp23
 70
     1
102
RTVSPropertyOp24
 70
     1
102
RTVSPropertyOp25
 70
     1
102
RTVSPropertyOp26
 70
     1
102
RTVSPropertyOp27
 70
     1
102
RTVSPropertyOp28
 70
     1
102
RTVSPropertyOp29
 70
     1
102
RTVSPropertyOp30
 70
     1
102
RTVSPropertyOp31
 70
     1
102
RTVSPropertyOp32
 70
     1
  0
XRECORD
  5
2F0
102
{ACAD_REACTORS
330
2EF
102
}
330
2EF
100
AcDbXrecord
280
     1
102
RTVSPropertyOp0
 70
     1
102
RTVSPropertyOp1
 70
     1
102
RTVSPropertyOp2
 70
     1
102
RTVSPropertyOp3
 70
     1
102
RTVSPropertyOp4
 70
     1
102
RTVSPropertyOp5
 70
     1
102
RTVSPropertyOp6
 70
     1
102
RTVSPropertyOp7
 70
     1
102
RTVSPropertyOp8
 70
     1
102
RTVSPropertyOp9
 70
     1
102
RTVSPropertyOp10
 70
     1
102
RTVSPropertyOp11
 70
     1
102
RTVSPropertyOp12
 70
     1
102
RTVSPropertyOp13
 70
     1
102
RTVSPropertyOp14
 70
     1
102
RTVSPropertyOp15
 70
     1
102
RTVSPropertyOp16
 70
     1
102
RTVSPropertyOp17
 70
     1
102
RTVSPropertyOp18
 70
     1
102
RTVSPropertyOp19
 70
     1
102
RTVSPropertyOp20
 70
     1
102
RTVSPropertyOp21
 70
     1
102
RTVSPropertyOp22
 70
     1
102
RTVSPropertyOp23
 70
     1
102
RTVSPropertyOp24
 70
     1
102
RTVSPropertyOp25
 70
     1
102
RTVSPropertyOp26
 70
     1
102
RTVSPropertyOp27
 70
     1
102
RTVSPropertyOp28
 70
     1
102
RTVSPropertyOp29
 70
     1
102
RTVSPropertyOp30
 70
     1
102
RTVSPropertyOp31
 70
     1
102
RTVSPropertyOp32
 70
     1
  0
XRECORD
  5
2D4
102
{ACAD_REACTORS
330
2D3
102
}
330
2D3
100
AcDbXrecord
280
     1
102
RTVSPropertyOp0
 70
     1
102
RTVSPropertyOp1
 70
     1
102
RTVSPropertyOp2
 70
     1
102
RTVSPropertyOp3
 70
     1
102
RTVSPropertyOp4
 70
     1
102
RTVSPropertyOp5
 70
     1
102
RTVSPropertyOp6
 70
     1
102
RTVSPropertyOp7
 70
     1
102
RTVSPropertyOp8
 70
     1
102
RTVSPropertyOp9
 70
     1
102
RTVSPropertyOp10
 70
     1
102
RTVSPropertyOp11
 70
     1
102
RTVSPropertyOp12
 70
     1
102
RTVSPropertyOp13
 70
     1
102
RTVSPropertyOp14
 70
     1
102
RTVSPropertyOp15
 70
     1
102
RTVSPropertyOp16
 70
     1
102
RTVSPropertyOp17
 70
     1
102
RTVSPropertyOp18
 70
     1
102
RTVSPropertyOp19
 70
     1
102
RTVSPropertyOp20
 70
     1
102
RTVSPropertyOp21
 70
     1
102
RTVSPropertyOp22
 70
     1
102
RTVSPropertyOp23
 70
     1
102
RTVSPropertyOp24
 70
     1
102
RTVSPropertyOp25
 70
     1
102
RTVSPropertyOp26
 70
     1
102
RTVSPropertyOp27
 70
     1
102
RTVSPropertyOp28
 70
     1
102
RTVSPropertyOp29
 70
     1
102
RTVSPropertyOp30
 70
     1
102
RTVSPropertyOp31
 70
     1
102
RTVSPropertyOp32
 70
     1
  0
XRECORD
  5
2D6
102
{ACAD_REACTORS
330
2D5
102
}
330
2D5
100
AcDbXrecord
280
     1
102
RTVSPropertyOp0
 70
     1
102
RTVSPropertyOp1
 70
     1
102
RTVSPropertyOp2
 70
     1
102
RTVSPropertyOp3
 70
     1
102
RTVSPropertyOp4
 70
     1
102
RTVSPropertyOp5
 70
     1
102
RTVSPropertyOp6
 70
     1
102
RTVSPropertyOp7
 70
     1
102
RTVSPropertyOp8
 70
     1
102
RTVSPropertyOp9
 70
     1
102
RTVSPropertyOp10
 70
     1
102
RTVSPropertyOp11
 70
     1
102
RTVSPropertyOp12
 70
     1
102
RTVSPropertyOp13
 70
     1
102
RTVSPropertyOp14
 70
     1
102
RTVSPropertyOp15
 70
     1
102
RTVSPropertyOp16
 70
     1
102
RTVSPropertyOp17
 70
     1
102
RTVSPropertyOp18
 70
     1
102
RTVSPropertyOp19
 70
     1
102
RTVSPropertyOp20
 70
     1
102
RTVSPropertyOp21
 70
     1
102
RTVSPropertyOp22
 70
     1
102
RTVSPropertyOp23
 70
     1
102
RTVSPropertyOp24
 70
     1
102
RTVSPropertyOp25
 70
     1
102
RTVSPropertyOp26
 70
     1
102
RTVSPropertyOp27
 70
     1
102
RTVSPropertyOp28
 70
     1
102
RTVSPropertyOp29
 70
     1
102
RTVSPropertyOp30
 70
     1
102
RTVSPropertyOp31
 70
     1
102
RTVSPropertyOp32
 70
     1
  0
XRECORD
  5
2D8
102
{ACAD_REACTORS
330
2D7
102
}
330
2D7
100
AcDbXrecord
280
     1
102
RTVSPropertyOp0
 70
     1
102
RTVSPropertyOp1
 70
     1
102
RTVSPropertyOp2
 70
     1
102
RTVSPropertyOp3
 70
     1
102
RTVSPropertyOp4
 70
     1
102
RTVSPropertyOp5
 70
     1
102
RTVSPropertyOp6
 70
     1
102
RTVSPropertyOp7
 70
     1
102
RTVSPropertyOp8
 70
     1
102
RTVSPropertyOp9
 70
     1
102
RTVSPropertyOp10
 70
     1
102
RTVSPropertyOp11
 70
     1
102
RTVSPropertyOp12
 70
     1
102
RTVSPropertyOp13
 70
     1
102
RTVSPropertyOp14
 70
     1
102
RTVSPropertyOp15
 70
     1
102
RTVSPropertyOp16
 70
     1
102
RTVSPropertyOp17
 70
     1
102
RTVSPropertyOp18
 70
     1
102
RTVSPropertyOp19
 70
     1
102
RTVSPropertyOp20
 70
     1
102
RTVSPropertyOp21
 70
     1
102
RTVSPropertyOp22
 70
     1
102
RTVSPropertyOp23
 70
     1
102
RTVSPropertyOp24
 70
     1
102
RTVSPropertyOp25
 70
     1
102
RTVSPropertyOp26
 70
     1
102
RTVSPropertyOp27
 70
     1
102
RTVSPropertyOp28
 70
     1
102
RTVSPropertyOp29
 70
     1
102
RTVSPropertyOp30
 70
     1
102
RTVSPropertyOp31
 70
     1
102
RTVSPropertyOp32
 70
     1
  0
XRECORD
  5
2DA
102
{ACAD_REACTORS
330
2D9
102
}
330
2D9
100
AcDbXrecord
280
     1
102
RTVSPropertyOp0
 70
     1
102
RTVSPropertyOp1
 70
     1
102
RTVSPropertyOp2
 70
     1
102
RTVSPropertyOp3
 70
     1
102
RTVSPropertyOp4
 70
     1
102
RTVSPropertyOp5
 70
     1
102
RTVSPropertyOp6
 70
     1
102
RTVSPropertyOp7
 70
     1
102
RTVSPropertyOp8
 70
     1
102
RTVSPropertyOp9
 70
     1
102
RTVSPropertyOp10
 70
     1
102
RTVSPropertyOp11
 70
     1
102
RTVSPropertyOp12
 70
     1
102
RTVSPropertyOp13
 70
     1
102
RTVSPropertyOp14
 70
     1
102
RTVSPropertyOp15
 70
     1
102
RTVSPropertyOp16
 70
     1
102
RTVSPropertyOp17
 70
     1
102
RTVSPropertyOp18
 70
     1
102
RTVSPropertyOp19
 70
     1
102
RTVSPropertyOp20
 70
     1
102
RTVSPropertyOp21
 70
     1
102
RTVSPropertyOp22
 70
     1
102
RTVSPropertyOp23
 70
     1
102
RTVSPropertyOp24
 70
     1
102
RTVSPropertyOp25
 70
     1
102
RTVSPropertyOp26
 70
     1
102
RTVSPropertyOp27
 70
     1
102
RTVSPropertyOp28
 70
     1
102
RTVSPropertyOp29
 70
     1
102
RTVSPropertyOp30
 70
     1
102
RTVSPropertyOp31
 70
     1
102
RTVSPropertyOp32
 70
     1
  0
XRECORD
  5
2EE
102
{ACAD_REACTORS
330
2ED
102
}
330
2ED
100
AcDbXrecord
280
     1
102
RTVSPropertyOp0
 70
     1
102
RTVSPropertyOp1
 70
     1
102
RTVSPropertyOp2
 70
     1
102
RTVSPropertyOp3
 70
     1
102
RTVSPropertyOp4
 70
     1
102
RTVSPropertyOp5
 70
     1
102
RTVSPropertyOp6
 70
     1
102
RTVSPropertyOp7
 70
     1
102
RTVSPropertyOp8
 70
     1
102
RTVSPropertyOp9
 70
     1
102
RTVSPropertyOp10
 70
     1
102
RTVSPropertyOp11
 70
     1
102
RTVSPropertyOp12
 70
     1
102
RTVSPropertyOp13
 70
     1
102
RTVSPropertyOp14
 70
     1
102
RTVSPropertyOp15
 70
     1
102
RTVSPropertyOp16
 70
     1
102
RTVSPropertyOp17
 70
     1
102
RTVSPropertyOp18
 70
     1
102
RTVSPropertyOp19
 70
     1
102
RTVSPropertyOp20
 70
     1
102
RTVSPropertyOp21
 70
     1
102
RTVSPropertyOp22
 70
     1
102
RTVSPropertyOp23
 70
     1
102
RTVSPropertyOp24
 70
     1
102
RTVSPropertyOp25
 70
     1
102
RTVSPropertyOp26
 70
     1
102
RTVSPropertyOp27
 70
     1
102
RTVSPropertyOp28
 70
     1
102
RTVSPropertyOp29
 70
     1
102
RTVSPropertyOp30
 70
     1
102
RTVSPropertyOp31
 70
     1
102
RTVSPropertyOp32
 70
     1
  0
XRECORD
  5
2E4
102
{ACAD_REACTORS
330
2E3
102
}
330
2E3
100
AcDbXrecord
280
     1
102
RTVSPropertyOp0
 70
     1
102
RTVSPropertyOp1
 70
     1
102
RTVSPropertyOp2
 70
     1
102
RTVSPropertyOp3
 70
     1
102
RTVSPropertyOp4
 70
     1
102
RTVSPropertyOp5
 70
     1
102
RTVSPropertyOp6
 70
     1
102
RTVSPropertyOp7
 70
     1
102
RTVSPropertyOp8
 70
     1
102
RTVSPropertyOp9
 70
     1
102
RTVSPropertyOp10
 70
     1
102
RTVSPropertyOp11
 70
     1
102
RTVSPropertyOp12
 70
     1
102
RTVSPropertyOp13
 70
     1
102
RTVSPropertyOp14
 70
     1
102
RTVSPropertyOp15
 70
     1
102
RTVSPropertyOp16
 70
     1
102
RTVSPropertyOp17
 70
     1
102
RTVSPropertyOp18
 70
     1
102
RTVSPropertyOp19
 70
     1
102
RTVSPropertyOp20
 70
     1
102
RTVSPropertyOp21
 70
     1
102
RTVSPropertyOp22
 70
     1
102
RTVSPropertyOp23
 70
     1
102
RTVSPropertyOp24
 70
     1
102
RTVSPropertyOp25
 70
     1
102
RTVSPropertyOp26
 70
     1
102
RTVSPropertyOp27
 70
     1
102
RTVSPropertyOp28
 70
     1
102
RTVSPropertyOp29
 70
     1
102
RTVSPropertyOp30
 70
     1
102
RTVSPropertyOp31
 70
     1
102
RTVSPropertyOp32
 70
     1
  0
XRECORD
  5
2EC
102
{ACAD_REACTORS
330
2EB
102
}
330
2EB
100
AcDbXrecord
280
     1
102
RTVSPropertyOp0
 70
     1
102
RTVSPropertyOp1
 70
     1
102
RTVSPropertyOp2
 70
     1
102
RTVSPropertyOp3
 70
     1
102
RTVSPropertyOp4
 70
     1
102
RTVSPropertyOp5
 70
     1
102
RTVSPropertyOp6
 70
     1
102
RTVSPropertyOp7
 70
     1
102
RTVSPropertyOp8
 70
     1
102
RTVSPropertyOp9
 70
     1
102
RTVSPropertyOp10
 70
     1
102
RTVSPropertyOp11
 70
     1
102
RTVSPropertyOp12
 70
     1
102
RTVSPropertyOp13
 70
     1
102
RTVSPropertyOp14
 70
     1
102
RTVSPropertyOp15
 70
     1
102
RTVSPropertyOp16
 70
     1
102
RTVSPropertyOp17
 70
     1
102
RTVSPropertyOp18
 70
     1
102
RTVSPropertyOp19
 70
     1
102
RTVSPropertyOp20
 70
     1
102
RTVSPropertyOp21
 70
     1
102
RTVSPropertyOp22
 70
     1
102
RTVSPropertyOp23
 70
     1
102
RTVSPropertyOp24
 70
     1
102
RTVSPropertyOp25
 70
     1
102
RTVSPropertyOp26
 70
     1
102
RTVSPropertyOp27
 70
     1
102
RTVSPropertyOp28
 70
     1
102
RTVSPropertyOp29
 70
     1
102
RTVSPropertyOp30
 70
     1
102
RTVSPropertyOp31
 70
     1
102
RTVSPropertyOp32
 70
     1
  0
ENDSEC
  0
EOF
