  0
SECTION
  2
HEADER
  9
$ACADVER
  1
AC1015
  9
$ACADMAINTVER
 70
     6
  9
$DWGCODEPAGE
  3
ANSI_1252
  9
$INSBASE
 10
0.0
 20
0.0
 30
0.0
  9
$EXTMIN
 10
-438.5262107912481
 20
-271.6457593733221
 30
0.0
  9
$EXTMAX
 10
-141.52621079125
 20
-61.64575937332194
 30
0.0
  9
$LIMMIN
 10
0.0
 20
0.0
  9
$LIMMAX
 10
12.0
 20
9.0
  9
$ORTHOMODE
 70
     0
  9
$REGENMODE
 70
     1
  9
$FILLMODE
 70
     1
  9
$QTEXTMODE
 70
     0
  9
$MIRRTEXT
 70
     1
  9
$LTSCALE
 40
1.0
  9
$ATTMODE
 70
     1
  9
$TEXTSIZE
 40
0.2
  9
$TRACEWID
 40
0.05
  9
$TEXTSTYLE
  7
Standard
  9
$CLAYER
  8
0
  9
$CELTYPE
  6
ByLayer
  9
$CECOLOR
 62
   256
  9
$CELTSCALE
 40
1.0
  9
$DISPSILH
 70
     0
  9
$DIMSCALE
 40
1.0
  9
$DIMASZ
 40
0.18
  9
$DIMEXO
 40
0.0625
  9
$DIMDLI
 40
0.38
  9
$DIMRND
 40
0.0
  9
$DIMDLE
 40
0.0
  9
$DIMEXE
 40
0.18
  9
$DIMTP
 40
0.0
  9
$DIMTM
 40
0.0
  9
$DIMTXT
 40
0.18
  9
$DIMCEN
 40
0.09
  9
$DIMTSZ
 40
0.0
  9
$DIMTOL
 70
     0
  9
$DIMLIM
 70
     0
  9
$DIMTIH
 70
     1
  9
$DIMTOH
 70
     1
  9
$DIMSE1
 70
     0
  9
$DIMSE2
 70
     0
  9
$DIMTAD
 70
     0
  9
$DIMZIN
 70
     0
  9
$DIMBLK
  1

  9
$DIMASO
 70
     1
  9
$DIMSHO
 70
     1
  9
$DIMPOST
  1

  9
$DIMAPOST
  1

  9
$DIMALT
 70
     0
  9
$DIMALTD
 70
     2
  9
$DIMALTF
 40
25.4
  9
$DIMLFAC
 40
1.0
  9
$DIMTOFL
 70
     0
  9
$DIMTVP
 40
0.0
  9
$DIMTIX
 70
     0
  9
$DIMSOXD
 70
     0
  9
$DIMSAH
 70
     0
  9
$DIMBLK1
  1

  9
$DIMBLK2
  1

  9
$DIMSTYLE
  2
Standard
  9
$DIMCLRD
 70
     0
  9
$DIMCLRE
 70
     0
  9
$DIMCLRT
 70
     0
  9
$DIMTFAC
 40
1.0
  9
$DIMGAP
 40
0.09
  9
$DIMJUST
 70
     0
  9
$DIMSD1
 70
     0
  9
$DIMSD2
 70
     0
  9
$DIMTOLJ
 70
     1
  9
$DIMTZIN
 70
     0
  9
$DIMALTZ
 70
     0
  9
$DIMALTTZ
 70
     0
  9
$DIMUPT
 70
     0
  9
$DIMDEC
 70
     4
  9
$DIMTDEC
 70
     4
  9
$DIMALTU
 70
     2
  9
$DIMALTTD
 70
     2
  9
$DIMTXSTY
  7
Standard
  9
$DIMAUNIT
 70
     0
  9
$DIMADEC
 70
     0
  9
$DIMALTRND
 40
0.0
  9
$DIMAZIN
 70
     0
  9
$DIMDSEP
 70
    46
  9
$DIMATFIT
 70
     3
  9
$DIMFRAC
 70
     0
  9
$DIMLDRBLK
  1

  9
$DIMLUNIT
 70
     2
  9
$DIMLWD
 70
    -2
  9
$DIMLWE
 70
    -2
  9
$DIMTMOVE
 70
     0
  9
$LUNITS
 70
     2
  9
$LUPREC
 70
     4
  9
$SKETCHINC
 40
0.1
  9
$FILLETRAD
 40
0.5
  9
$AUNITS
 70
     0
  9
$AUPREC
 70
     0
  9
$MENU
  1
.
  9
$ELEVATION
 40
0.0
  9
$PELEVATION
 40
0.0
  9
$THICKNESS
 40
0.0
  9
$LIMCHECK
 70
     0
  9
$CHAMFERA
 40
0.5
  9
$CHAMFERB
 40
0.5
  9
$CHAMFERC
 40
1.0
  9
$CHAMFERD
 40
0.0
  9
$SKPOLY
 70
     0
  9
$TDCREATE
 40
2457423.544942766
  9
$TDUCREATE
 40
2457423.503276099
  9
$TDUPDATE
 40
2457423.544943854
  9
$TDUUPDATE
 40
2457423.503277188
  9
$TDINDWG
 40
0.0000000116
  9
$TDUSRTIMER
 40
0.0000000116
  9
$USRTIMER
 70
     1
  9
$ANGBASE
 50
0.0
  9
$ANGDIR
 70
     0
  9
$PDMODE
 70
     0
  9
$PDSIZE
 40
0.0
  9
$PLINEWID
 40
0.0
  9
$SPLFRAME
 70
     0
  9
$SPLINETYPE
 70
     6
  9
$SPLINESEGS
 70
     8
  9
$HANDSEED
  5
2C7
  9
$SURFTAB1
 70
     6
  9
$SURFTAB2
 70
     6
  9
$SURFTYPE
 70
     6
  9
$SURFU
 70
     6
  9
$SURFV
 70
     6
  9
$UCSBASE
  2

  9
$UCSNAME
  2

  9
$UCSORG
 10
0.0
 20
0.0
 30
0.0
  9
$UCSXDIR
 10
1.0
 20
0.0
 30
0.0
  9
$UCSYDIR
 10
0.0
 20
1.0
 30
0.0
  9
$UCSORTHOREF
  2

  9
$UCSORTHOVIEW
 70
     0
  9
$UCSORGTOP
 10
0.0
 20
0.0
 30
0.0
  9
$UCSORGBOTTOM
 10
0.0
 20
0.0
 30
0.0
  9
$UCSORGLEFT
 10
0.0
 20
0.0
 30
0.0
  9
$UCSORGRIGHT
 10
0.0
 20
0.0
 30
0.0
  9
$UCSORGFRONT
 10
0.0
 20
0.0
 30
0.0
  9
$UCSORGBACK
 10
0.0
 20
0.0
 30
0.0
  9
$PUCSBASE
  2

  9
$PUCSNAME
  2

  9
$PUCSORG
 10
0.0
 20
0.0
 30
0.0
  9
$PUCSXDIR
 10
1.0
 20
0.0
 30
0.0
  9
$PUCSYDIR
 10
0.0
 20
1.0
 30
0.0
  9
$PUCSORTHOREF
  2

  9
$PUCSORTHOVIEW
 70
     0
  9
$PUCSORGTOP
 10
0.0
 20
0.0
 30
0.0
  9
$PUCSORGBOTTOM
 10
0.0
 20
0.0
 30
0.0
  9
$PUCSORGLEFT
 10
0.0
 20
0.0
 30
0.0
  9
$PUCSORGRIGHT
 10
0.0
 20
0.0
 30
0.0
  9
$PUCSORGFRONT
 10
0.0
 20
0.0
 30
0.0
  9
$PUCSORGBACK
 10
0.0
 20
0.0
 30
0.0
  9
$USERI1
 70
     0
  9
$USERI2
 70
     0
  9
$USERI3
 70
     0
  9
$USERI4
 70
     0
  9
$USERI5
 70
     0
  9
$USERR1
 40
18.1
  9
$USERR2
 40
0.0
  9
$USERR3
 40
0.0
  9
$USERR4
 40
0.0
  9
$USERR5
 40
0.0
  9
$WORLDVIEW
 70
     1
  9
$SHADEDGE
 70
     3
  9
$SHADEDIF
 70
    70
  9
$TILEMODE
 70
     1
  9
$MAXACTVP
 70
    64
  9
$PINSBASE
 10
0.0
 20
0.0
 30
0.0
  9
$PLIMCHECK
 70
     0
  9
$PEXTMIN
 10
1.00000000000000E+20
 20
1.00000000000000E+20
 30
1.00000000000000E+20
  9
$PEXTMAX
 10
-1.00000000000000E+20
 20
-1.00000000000000E+20
 30
-1.00000000000000E+20
  9
$PLIMMIN
 10
0.0
 20
0.0
  9
$PLIMMAX
 10
12.0
 20
9.0
  9
$UNITMODE
 70
     0
  9
$VISRETAIN
 70
     1
  9
$PLINEGEN
 70
     0
  9
$PSLTSCALE
 70
     1
  9
$TREEDEPTH
 70
  3020
  9
$CMLSTYLE
  2
Standard
  9
$CMLJUST
 70
     0
  9
$CMLSCALE
 40
1.0
  9
$PROXYGRAPHICS
 70
     1
  9
$MEASUREMENT
 70
     1
  9
$CELWEIGHT
370
    -1
  9
$ENDCAPS
280
     0
  9
$JOINSTYLE
280
     0
  9
$LWDISPLAY
290
     0
  9
$INSUNITS
 70
     1
  9
$HYPERLINKBASE
  1

  9
$STYLESHEET
  1

  9
$XEDIT
290
     1
  9
$CEPSNTYPE
380
     0
  9
$PSTYLEMODE
290
     1
  9
$FINGERPRINTGUID
  2
{0BE9201D-0769-4C5D-8BD9-52767D600709}
  9
$VERSIONGUID
  2
{FAEB1C32-E019-11D5-929B-00C0DF256EC4}
  9
$EXTNAMES
290
     1
  9
$PSVPSCALE
 40
0.0
  9
$OLESTARTUP
290
     0
  0
ENDSEC
  0
SECTION
  2
CLASSES
  0
CLASS
  1
ACDBDICTIONARYWDFLT
  2
AcDbDictionaryWithDefault
  3
ObjectDBX Classes
 90
        0
280
     0
281
     0
  0
CLASS
  1
VISUALSTYLE
  2
AcDbVisualStyle
  3
ObjectDBX Classes
 90
     4095
280
     0
281
     0
  0
CLASS
  1
MATERIAL
  2
AcDbMaterial
  3
ObjectDBX Classes
 90
     1153
280
     0
281
     0
  0
CLASS
  1
DICTIONARYVAR
  2
AcDbDictionaryVar
  3
ObjectDBX Classes
 90
        0
280
     0
281
     0
  0
CLASS
  1
ACDBPLACEHOLDER
  2
AcDbPlaceHolder
  3
ObjectDBX Classes
 90
        0
280
     0
281
     0
  0
CLASS
  1
LAYOUT
  2
AcDbLayout
  3
ObjectDBX Classes
 90
        0
280
     0
281
     0
  0
ENDSEC
  0
SECTION
  2
TABLES
  0
TABLE
  2
VPORT
  5
8
330
0
100
AcDbSymbolTable
 70
     1
  0
VPORT
  5
29
330
8
100
AcDbSymbolTableRecord
100
AcDbViewportTableRecord
  2
*Active
 70
     0
 10
0.0
 20
0.0
 11
1.0
 21
1.0
 12
-290.0262107912491
 22
-166.645759373322
 13
0.0
 23
0.0
 14
0.5
 24
0.5
 15
0.5
 25
0.5
 16
0.0
 26
0.0
 36
1.0
 17
0.0
 27
0.0
 37
0.0
 40
231.0000000000002
 41
1.60267857142857
 42
50.0
 43
0.0
 44
0.0
 50
0.0
 51
0.0
 71
     0
 72
   100
 73
     1
 74
     3
 75
     0
 76
     0
 77
     0
 78
     0
281
     0
 65
     1
110
0.0
120
0.0
130
0.0
111
1.0
121
0.0
131
0.0
112
0.0
122
1.0
132
0.0
 79
     0
146
0.0
  0
ENDTAB
  0
TABLE
  2
LTYPE
  5
5
330
0
100
AcDbSymbolTable
 70
     8
  0
LTYPE
  5
14
330
5
100
AcDbSymbolTableRecord
100
AcDbLinetypeTableRecord
  2
ByBlock
 70
     0
  3

 72
    65
 73
     0
 40
0.0
  0
LTYPE
  5
15
330
5
100
AcDbSymbolTableRecord
100
AcDbLinetypeTableRecord
  2
ByLayer
 70
     0
  3

 72
    65
 73
     0
 40
0.0
  0
LTYPE
  5
16
330
5
100
AcDbSymbolTableRecord
100
AcDbLinetypeTableRecord
  2
Continuous
 70
     0
  3
Solid line
 72
    65
 73
     0
 40
0.0
  0
LTYPE
  5
3F
330
5
100
AcDbSymbolTableRecord
100
AcDbLinetypeTableRecord
  2
DASHED
 70
     0
  3
Dashed
 72
    65
 73
     2
 40
15.0
 49
7.0
 74
     0
 49
-8.0
 74
     0
  0
LTYPE
  5
40
330
5
100
AcDbSymbolTableRecord
100
AcDbLinetypeTableRecord
  2
DOTTED
 70
     0
  3
Dotted
 72
    65
 73
     2
 40
1.0
 49
0.0
 74
     0
 49
-1.0
 74
     0
  0
LTYPE
  5
41
330
5
100
AcDbSymbolTableRecord
100
AcDbLinetypeTableRecord
  2
DOT_CENTER
 70
     0
  3
Dot_Center
 72
    65
 73
     4
 40
14.0
 49
12.0
 74
     0
 49
-1.0
 74
     0
 49
0.0
 74
     0
 49
-1.0
 74
     0
  0
LTYPE
  5
42
330
5
100
AcDbSymbolTableRecord
100
AcDbLinetypeTableRecord
  2
LONG_DASHED
 70
     0
  3
Long_Dashed
 72
    65
 73
     2
 40
15.0
 49
10.0
 74
     0
 49
-5.0
 74
     0
  0
LTYPE
  5
43
330
5
100
AcDbSymbolTableRecord
100
AcDbLinetypeTableRecord
  2
DASH_CENTER
 70
     0
  3
Dash_Center
 72
    65
 73
     4
 40
14.0
 49
11.0
 74
     0
 49
-1.0
 74
     0
 49
1.0
 74
     0
 49
-1.0
 74
     0
  0
LTYPE
  5
44
330
5
100
AcDbSymbolTableRecord
100
AcDbLinetypeTableRecord
  2
PHANTOM
 70
     0
  3
Phantom
 72
    65
 73
     6
 40
13.0
 49
10.0
 74
     0
 49
-1.0
 74
     0
 49
0.0
 74
     0
 49
-1.0
 74
     0
 49
0.0
 74
     0
 49
-1.0
 74
     0
  0
LTYPE
  5
45
330
5
100
AcDbSymbolTableRecord
100
AcDbLinetypeTableRecord
  2
CENTER_DASH_DASH
 70
     0
  3
Center_Dash_Dash
 72
    65
 73
     6
 40
14.0
 49
9.0
 74
     0
 49
-1.0
 74
     0
 49
1.0
 74
     0
 49
-1.0
 74
     0
 49
1.0
 74
     0
 49
-1.0
 74
     0
  0
ENDTAB
  0
TABLE
  2
LAYER
  5
2
330
0
100
AcDbSymbolTable
 70
     2
  0
LAYER
  5
10
330
2
100
AcDbSymbolTableRecord
100
AcDbLayerTableRecord
  2
0
 70
     0
 62
     7
  6
Continuous
370
    -3
390
F
  0
LAYER
  5
46
330
2
100
AcDbSymbolTableRecord
100
AcDbLayerTableRecord
  2
1
 70
     0
 62
     7
  6
Continuous
370
    -3
390
F
  0
ENDTAB
  0
TABLE
  2
STYLE
  5
3
330
0
100
AcDbSymbolTable
 70
     5
  0
STYLE
  5
11
330
3
100
AcDbSymbolTableRecord
100
AcDbTextStyleTableRecord
  2
Standard
 70
     0
 40
0.0
 41
1.0
 50
0.0
 71
     0
 42
0.2
  3
txt
  4

  0
STYLE
  5
107
330
3
100
AcDbSymbolTableRecord
100
AcDbTextStyleTableRecord
  2
CONVERTER_11
 70
     0
 40
0.0
 41
0.9
 50
0.0
 71
     0
 42
0.2
  3
txt.shx
  4

  0
STYLE
  5
25F
330
3
100
AcDbSymbolTableRecord
100
AcDbTextStyleTableRecord
  2
CONVERTER_12
 70
     0
 40
0.0
 41
0.81
 50
0.0
 71
     0
 42
0.2
  3
txt.shx
  4

  0
STYLE
  5
275
330
3
100
AcDbSymbolTableRecord
100
AcDbTextStyleTableRecord
  2
CONVERTER_13
 70
     0
 40
0.0
 41
0.72
 50
0.0
 71
     0
 42
0.2
  3
txt.shx
  4

  0
STYLE
  5
278
330
3
100
AcDbSymbolTableRecord
100
AcDbTextStyleTableRecord
  2
CONVERTER_14
 70
     0
 40
0.0
 41
0.855
 50
0.0
 71
     0
 42
0.2
  3
txt.shx
  4

  0
ENDTAB
  0
TABLE
  2
VIEW
  5
6
330
0
100
AcDbSymbolTable
 70
     0
  0
ENDTAB
  0
TABLE
  2
UCS
  5
7
330
0
100
AcDbSymbolTable
 70
     0
  0
ENDTAB
  0
TABLE
  2
APPID
  5
9
330
0
100
AcDbSymbolTable
 70
     1
  0
APPID
  5
12
330
9
100
AcDbSymbolTableRecord
100
AcDbRegAppTableRecord
  2
ACAD
 70
     0
  0
ENDTAB
  0
TABLE
  2
DIMSTYLE
  5
A
330
0
100
AcDbSymbolTable
 70
     4
100
AcDbDimStyleTable
  0
DIMSTYLE
105
27
330
A
100
AcDbSymbolTableRecord
100
AcDbDimStyleTableRecord
  2
Standard
 70
     0
178
     0
340
11
  0
DIMSTYLE
105
10B
102
{ACAD_REACTORS
330
10C
102
}
330
A
100
AcDbSymbolTableRecord
100
AcDbDimStyleTableRecord
  2
ME10_DIM_10
 70
     0
 41
1.75
 42
0.0
 44
0.75
 73
     0
 74
     0
 77
     1
 78
     8
140
1.75
147
0.75
172
     1
173
     1
174
     1
175
     1
176
     2
177
     2
271
     1
178
     3
271
     1
340
107
  0
DIMSTYLE
105
116
102
{ACAD_REACTORS
330
117
102
}
330
A
100
AcDbSymbolTableRecord
100
AcDbDimStyleTableRecord
  2
ME10_DIM_11
 70
     0
 41
1.75
 42
0.0
 44
0.75
 73
     0
 74
     0
 77
     1
 78
     8
140
1.75
147
0.75
172
     1
173
     1
174
     1
175
     1
176
     2
177
     2
178
     3
340
107
  0
DIMSTYLE
105
161
102
{ACAD_REACTORS
330
162
102
}
330
A
100
AcDbSymbolTableRecord
100
AcDbDimStyleTableRecord
  2
ME10_DIM_12
 70
     0
 41
1.75
 42
0.0
 44
0.75
 73
     0
 74
     0
 77
     1
 78
     8
140
1.75
147
0.75
172
     1
173
     1
174
     1
175
     1
176
     2
177
     2
178
     3
340
107
  0
ENDTAB
  0
TABLE
  2
BLOCK_RECORD
  5
1
330
0
100
AcDbSymbolTable
 70
    19
  0
BLOCK_RECORD
  5
1F
330
1
100
AcDbSymbolTableRecord
100
AcDbBlockTableRecord
  2
*Model_Space
340
22
  0
BLOCK_RECORD
  5
1B
330
1
100
AcDbSymbolTableRecord
100
AcDbBlockTableRecord
  2
*Paper_Space
340
1E
  0
BLOCK_RECORD
  5
23
330
1
100
AcDbSymbolTableRecord
100
AcDbBlockTableRecord
  2
*Paper_Space0
340
26
  0
BLOCK_RECORD
  5
47
330
1
100
AcDbSymbolTableRecord
100
AcDbBlockTableRecord
  2
0825503_UC_EM_20x9-select__1
340
0
102
{BLKREFS
331
4B
102
}
  0
BLOCK_RECORD
  5
4A
330
1
100
AcDbSymbolTableRecord
100
AcDbBlockTableRecord
  2
Allg1
340
0
102
{BLKREFS
331
7C
102
}
  0
BLOCK_RECORD
  5
4E
330
1
100
AcDbSymbolTableRecord
100
AcDbBlockTableRecord
  2
0825503_UC_EM_20x9-select__2
340
0
102
{BLKREFS
331
52
102
}
  0
BLOCK_RECORD
  5
51
330
1
100
AcDbSymbolTableRecord
100
AcDbBlockTableRecord
  2
Drfsicht1
340
0
102
{BLKREFS
331
7D
102
}
  0
BLOCK_RECORD
  5
55
330
1
100
AcDbSymbolTableRecord
100
AcDbBlockTableRecord
  2
0825503_UC_EM_20x9-select__3
340
0
102
{BLKREFS
331
59
102
}
  0
BLOCK_RECORD
  5
58
330
1
100
AcDbSymbolTableRecord
100
AcDbBlockTableRecord
  2
Rckans1
340
0
102
{BLKREFS
331
7E
102
}
  0
BLOCK_RECORD
  5
5C
330
1
100
AcDbSymbolTableRecord
100
AcDbBlockTableRecord
  2
0825503_UC_EM_20x9-select__4
340
0
102
{BLKREFS
331
60
102
}
  0
BLOCK_RECORD
  5
5F
330
1
100
AcDbSymbolTableRecord
100
AcDbBlockTableRecord
  2
SA_Links1
340
0
102
{BLKREFS
331
7F
102
}
  0
BLOCK_RECORD
  5
63
330
1
100
AcDbSymbolTableRecord
100
AcDbBlockTableRecord
  2
0825503_UC_EM_20x9-select__5
340
0
102
{BLKREFS
331
67
102
}
  0
BLOCK_RECORD
  5
66
330
1
100
AcDbSymbolTableRecord
100
AcDbBlockTableRecord
  2
SA_Rechts1
340
0
102
{BLKREFS
331
80
102
}
  0
BLOCK_RECORD
  5
6A
330
1
100
AcDbSymbolTableRecord
100
AcDbBlockTableRecord
  2
0825503_UC_EM_20x9-select__6
340
0
102
{BLKREFS
331
6E
102
}
  0
BLOCK_RECORD
  5
6D
330
1
100
AcDbSymbolTableRecord
100
AcDbBlockTableRecord
  2
Vordans1
340
0
102
{BLKREFS
331
81
102
}
  0
BLOCK_RECORD
  5
71
330
1
100
AcDbSymbolTableRecord
100
AcDbBlockTableRecord
  2
_rahmen
340
0
102
{BLKREFS
331
78
102
}
  0
BLOCK_RECORD
  5
74
330
1
100
AcDbSymbolTableRecord
100
AcDbBlockTableRecord
  2
_punkt
340
0
102
{BLKREFS
331
79
102
}
  0
BLOCK_RECORD
  5
77
330
1
100
AcDbSymbolTableRecord
100
AcDbBlockTableRecord
  2
A4I_CS
340
0
102
{BLKREFS
331
82
102
}
  0
BLOCK_RECORD
  5
FF
330
1
100
AcDbSymbolTableRecord
100
AcDbBlockTableRecord
  2
*D16
340
0
  0
BLOCK_RECORD
  5
10D
330
1
100
AcDbSymbolTableRecord
100
AcDbBlockTableRecord
  2
*D17
340
0
  0
BLOCK_RECORD
  5
158
330
1
100
AcDbSymbolTableRecord
100
AcDbBlockTableRecord
  2
*D18
340
0
  0
ENDTAB
  0
ENDSEC
  0
SECTION
  2
BLOCKS
  0
BLOCK
  5
20
330
1F
100
AcDbEntity
  8
0
100
AcDbBlockBegin
  2
*Model_Space
 70
     0
 10
0.0
 20
0.0
 30
0.0
  3
*Model_Space
  1

  0
ENDBLK
  5
21
330
1F
100
AcDbEntity
  8
0
100
AcDbBlockEnd
  0
BLOCK
  5
1C
330
1B
100
AcDbEntity
 67
     1
  8
0
100
AcDbBlockBegin
  2
*Paper_Space
 70
     0
 10
0.0
 20
0.0
 30
0.0
  3
*Paper_Space
  1

  0
ENDBLK
  5
1D
330
1B
100
AcDbEntity
 67
     1
  8
0
100
AcDbBlockEnd
  0
BLOCK
  5
24
330
23
100
AcDbEntity
  8
0
100
AcDbBlockBegin
  2
*Paper_Space0
 70
     0
 10
0.0
 20
0.0
 30
0.0
  3
*Paper_Space0
  1

  0
ENDBLK
  5
25
330
23
100
AcDbEntity
  8
0
100
AcDbBlockEnd
  0
BLOCK
  5
48
330
47
100
AcDbEntity
  8
0
100
AcDbBlockBegin
  2
0825503_UC_EM_20x9-select__1
 70
     0
 10
-118.0025849170822
 20
-98.70987840145625
 30
0.0
  3
0825503_UC_EM_20x9-select__1
  1

  0
LINE
  5
83
330
47
100
AcDbEntity
  8
0
  6
Continuous
 62
     7
100
AcDbLine
 10
-100.8119806519612
 20
-97.54738229548371
 30
0.0
 11
-118.0025849170822
 21
-92.58488229548368
 31
0.0
  0
LINE
  5
84
330
47
100
AcDbEntity
  8
0
  6
Continuous
 62
     2
100
AcDbLine
 10
-100.0619806519612
 20
-98.02472350192511
 30
0.0
 11
-105.7993989520331
 21
-96.36847350192511
 31
0.0
  0
LINE
  5
85
330
47
100
AcDbEntity
  8
0
  6
Continuous
 62
     2
100
AcDbLine
 10
-100.1369806519613
 20
-98.4350583343628
 30
0.0
 11
-105.8743989520332
 21
-96.7788083343628
 31
0.0
  0
LINE
  5
86
330
47
100
AcDbEntity
  8
0
  6
Continuous
 62
     7
100
AcDbLine
 10
-100.3369806519612
 20
-97.1360202286861
 30
0.0
 11
-99.98698065196123
 21
-97.34158845519556
 31
0.0
  0
LINE
  5
87
330
47
100
AcDbEntity
  8
0
  6
Continuous
 62
     2
100
AcDbLine
 10
-100.1369806519613
 20
-98.39890832913028
 30
0.0
 11
-105.8743989520332
 21
-96.74265832913022
 31
0.0
  0
LINE
  5
88
330
47
100
AcDbEntity
  8
0
  6
Continuous
 62
     7
100
AcDbLine
 10
-100.8119806519612
 20
-96.6813568916993
 30
0.0
 11
-100.8119806519612
 21
-97.54738229548371
 31
0.0
  0
LINE
  5
89
330
47
100
AcDbEntity
  8
0
  6
Continuous
 62
     7
100
AcDbLine
 10
-100.8119806519612
 20
-97.54738229548371
 30
0.0
 11
-100.3369806519612
 21
-97.1360202286861
 31
0.0
  0
LINE
  5
8A
330
47
100
AcDbEntity
  8
0
  6
Continuous
 62
     7
100
AcDbLine
 10
-99.98698065196123
 20
-97.34158845519556
 30
0.0
 11
-99.98698065196123
 21
-97.65053867471994
 31
0.0
  0
LINE
  5
8B
330
47
100
AcDbEntity
  8
0
  6
Continuous
 62
     7
100
AcDbLine
 10
-99.98698065196123
 20
-97.34158845519556
 30
0.0
 11
-100.4275079583293
 21
-97.21441917573702
 31
0.0
  0
LINE
  5
8C
330
47
100
AcDbEntity
  8
0
  6
Continuous
 62
     7
100
AcDbLine
 10
-105.8743989520332
 20
-96.7788083343628
 30
0.0
 11
-105.8743989520332
 21
-96.74265832913022
 31
0.0
  0
LINE
  5
8D
330
47
100
AcDbEntity
  8
0
  6
Continuous
 62
     2
100
AcDbLine
 10
-99.98698065196123
 20
-97.65053867471994
 30
0.0
 11
-100.6950666969423
 21
-97.44613184038036
 31
0.0
  0
LINE
  5
8E
330
47
100
AcDbEntity
  8
0
  6
Continuous
 62
     7
100
AcDbLine
 10
-100.0256557010175
 20
-98.69893644483193
 30
0.0
 11
-105.7630740010894
 21
-97.04268644483193
 31
0.0
  0
LINE
  5
8F
330
47
100
AcDbEntity
  8
0
  6
Continuous
 62
     7
100
AcDbLine
 10
-100.1369806519613
 20
-98.39890832913028
 30
0.0
 11
-100.1369806519613
 21
-98.4350583343628
 31
0.0
  0
LINE
  5
90
330
47
100
AcDbEntity
  8
0
  6
Continuous
 62
     7
100
AcDbLine
 10
-100.8119806519612
 20
-96.6813568916993
 30
0.0
 11
-118.0025849170822
 21
-91.71885689169926
 31
0.0
  0
LINE
  5
91
330
47
100
AcDbEntity
  8
0
  6
Continuous
 62
     7
100
AcDbLine
 10
-118.0025849170822
 20
-91.71885689169926
 30
0.0
 11
-118.0025849170822
 21
-92.58488229548368
 31
0.0
  0
LINE
  5
92
330
47
100
AcDbEntity
  8
0
  6
Continuous
 62
     7
100
AcDbLine
 10
-111.4788416660667
 20
-95.3926864448319
 30
0.0
 11
-117.2162599661385
 21
-93.7364364448319
 31
0.0
  0
LINE
  5
93
330
47
100
AcDbEntity
  8
0
  6
Continuous
 62
     2
100
AcDbLine
 10
-111.5151666170104
 20
-94.71847350192508
 30
0.0
 11
-117.2525849170822
 21
-93.06222350192508
 31
0.0
  0
LINE
  5
94
330
47
100
AcDbEntity
  8
0
  6
Continuous
 62
     2
100
AcDbLine
 10
-111.5901666170105
 20
-95.09265832913024
 30
0.0
 11
-117.3275849170823
 21
-93.43640832913024
 31
0.0
  0
LINE
  5
95
330
47
100
AcDbEntity
  8
0
  6
Continuous
 62
     7
100
AcDbLine
 10
-111.5901666170105
 20
-95.09265832913024
 30
0.0
 11
-111.5901666170105
 21
-95.12880833436276
 31
0.0
  0
LINE
  5
96
330
47
100
AcDbEntity
  8
0
  6
Continuous
 62
     7
100
AcDbLine
 10
-117.3275849170823
 20
-93.43640832913024
 30
0.0
 11
-117.3275849170823
 21
-93.47255833436276
 31
0.0
  0
LINE
  5
97
330
47
100
AcDbEntity
  8
0
  6
Continuous
 62
     2
100
AcDbLine
 10
-111.5901666170105
 20
-95.12880833436276
 30
0.0
 11
-117.3275849170823
 21
-93.47255833436276
 31
0.0
  0
LINE
  5
98
330
47
100
AcDbEntity
  8
0
  6
Continuous
 62
     7
100
AcDbLine
 10
-99.5869806519612
 20
-96.48650117584782
 30
0.0
 11
-97.5869806519612
 21
-94.75445036827892
 31
0.0
  0
LINE
  5
99
330
47
100
AcDbEntity
  8
0
  6
Continuous
 62
     7
100
AcDbLine
 10
-97.5869806519612
 20
-94.75445036827892
 30
0.0
 11
-97.41487719145715
 21
-96.29596778654775
 31
0.0
  0
LINE
  5
9A
330
47
100
AcDbEntity
  8
0
  6
Continuous
 62
     2
100
AcDbLine
 10
-97.41487719145715
 20
-96.29596778654775
 30
0.0
 11
-98.87894803143223
 21
-95.87332693976163
 31
0.0
  0
LINE
  5
9B
330
47
100
AcDbEntity
  8
0
  6
Continuous
 62
     7
100
AcDbLine
 10
-97.35036105793915
 20
-96.41115306364992
 30
0.0
 11
-98.962572374165
 21
-95.9457477449431
 31
0.0
  0
LINE
  5
9C
330
47
100
AcDbEntity
  8
0
  6
Continuous
 62
     7
100
AcDbLine
 10
-111.2122700775144
 20
-95.01986053186806
 30
0.0
 11
-111.1690200888293
 21
-94.55756254204204
 31
0.0
  0
LINE
  5
9D
330
47
100
AcDbEntity
  8
0
  6
Continuous
 62
     7
100
AcDbLine
 10
-96.36198065196123
 20
-92.82754384485855
 30
0.0
 11
-100.8119806519612
 21
-96.6813568916993
 31
0.0
  0
LINE
  5
9E
330
47
100
AcDbEntity
  8
0
  6
Continuous
 62
     7
100
AcDbLine
 10
-97.03698065196113
 20
-95.75037958263107
 30
0.0
 11
-97.03698065196124
 21
-95.7142295773985
 31
0.0
  0
LINE
  5
9F
330
47
100
AcDbEntity
  8
0
  6
Continuous
 62
     7
100
AcDbLine
 10
-97.18698065196122
 20
-94.91671732459912
 30
0.0
 11
-96.8369806519612
 21
-94.10493131544058
 31
0.0
  0
LINE
  5
A0
330
47
100
AcDbEntity
  8
0
  6
Continuous
 62
     7
100
AcDbLine
 10
-97.18698065196122
 20
-95.22566754412355
 30
0.0
 11
-97.18698065196122
 21
-94.91671732459912
 31
0.0
  0
LINE
  5
A1
330
47
100
AcDbEntity
  8
0
  6
Continuous
 62
     7
100
AcDbLine
 10
-96.36198065196123
 20
-92.82754384485855
 30
0.0
 11
-113.5525849170822
 21
-87.86504384485852
 31
0.0
  0
LINE
  5
A2
330
47
100
AcDbEntity
  8
0
  6
Continuous
 62
     7
100
AcDbLine
 10
-113.5525849170822
 20
-87.86504384485852
 30
0.0
 11
-118.0025849170822
 21
-91.71885689169926
 31
0.0
  0
LINE
  5
A3
330
47
100
AcDbEntity
  8
0
  6
Continuous
 62
     7
100
AcDbLine
 10
-96.8369806519612
 20
-94.10493131544058
 30
0.0
 11
-96.36198065196123
 21
-93.69356924864297
 31
0.0
  0
LINE
  5
A4
330
47
100
AcDbEntity
  8
0
  6
Continuous
 62
     7
100
AcDbLine
 10
-96.36198065196123
 20
-93.69356924864297
 30
0.0
 11
-96.36198065196123
 21
-92.82754384485855
 31
0.0
  0
LINE
  5
A5
330
47
100
AcDbEntity
  8
0
  6
Continuous
 62
     7
100
AcDbLine
 10
-99.7590841124653
 20
-98.3261105318681
 30
0.0
 11
-99.5869806519612
 21
-96.48650117584782
 31
0.0
  0
SPLINE
  5
A6
330
47
100
AcDbEntity
  8
0
  6
Continuous
 62
     7
100
AcDbSpline
210
0.0
220
0.0
230
1.0
 70
     8
 71
     3
 72
    11
 73
     7
 74
     5
 42
0.000000001
 43
0.0000000001
 44
0.00000001
 40
0.0
 40
0.0
 40
0.0
 40
0.0
 40
0.0899395273981015
 40
0.1858528901602898
 40
0.2847813365837698
 40
0.3835730779765872
 40
0.3835730779765872
 40
0.3835730779765872
 40
0.3835730779765872
 10
-99.98698065196123
 20
-97.65053867471994
 30
0.0
 10
-99.98800163114372
 20
-97.6805291179565
 30
0.0
 10
-99.99011141874797
 20
-97.74250198607265
 30
0.0
 10
-100.0055369027477
 20
-97.83637112668978
 30
0.0
 10
-100.0283977409476
 20
-97.93168934152766
 30
0.0
 10
-100.0507915046019
 20
-97.99372641431694
 30
0.0
 10
-100.0619806519612
 20
-98.02472350192511
 30
0.0
 11
-99.98698065196123
 21
-97.65053867471994
 31
0.0
 11
-99.99190705019618
 21
-97.74034318068742
 31
0.0
 11
-100.0064920405289
 21
-97.83514113119514
 31
0.0
 11
-100.0301608603699
 21
-97.93119645201816
 31
0.0
 11
-100.0619806519612
 21
-98.02472350192511
 31
0.0
  0
SPLINE
  5
A7
330
47
100
AcDbEntity
  8
0
  6
Continuous
 62
     7
100
AcDbSpline
210
0.0
220
0.0
230
1.0
 70
     8
 71
     3
 72
    11
 73
     7
 74
     5
 42
0.000000001
 43
0.0000000001
 44
0.00000001
 40
0.0
 40
0.0
 40
0.0
 40
0.0
 40
0.0899395273981038
 40
0.1858528901602986
 40
0.284781336583751
 40
0.3835730779766044
 40
0.3835730779766044
 40
0.3835730779766044
 40
0.3835730779766044
 10
-100.1369806519613
 20
-98.39890832913028
 30
0.0
 10
-100.1359596727788
 20
-98.36891788589372
 30
0.0
 10
-100.1338498851745
 20
-98.30694501777754
 30
0.0
 10
-100.1184244011748
 20
-98.21307587716048
 30
0.0
 10
-100.0955635629749
 20
-98.11775766232257
 30
0.0
 10
-100.0731697993205
 20
-98.05572058953328
 30
0.0
 10
-100.0619806519612
 20
-98.02472350192511
 30
0.0
 11
-100.1369806519613
 21
-98.39890832913028
 31
0.0
 11
-100.1320542537263
 21
-98.3091038231628
 31
0.0
 11
-100.1174692633935
 21
-98.21430587265507
 31
0.0
 11
-100.0938004435526
 21
-98.11825055183209
 31
0.0
 11
-100.0619806519612
 21
-98.02472350192511
 31
0.0
  0
SPLINE
  5
A8
330
47
100
AcDbEntity
  8
0
  6
Continuous
 62
     7
100
AcDbSpline
210
0.0
220
0.0
230
1.0
 70
     8
 71
     3
 72
    11
 73
     7
 74
     5
 42
0.000000001
 43
0.0000000001
 44
0.00000001
 40
0.0
 40
0.0
 40
0.0
 40
0.0
 40
0.0899395273980873
 40
0.1858528901602681
 40
0.2847813365837307
 40
0.3835730779765618
 40
0.3835730779765618
 40
0.3835730779765618
 40
0.3835730779765618
 10
-105.8743989520332
 20
-96.74265832913022
 30
0.0
 10
-105.8733779728507
 20
-96.71266788589367
 30
0.0
 10
-105.8712681852465
 20
-96.6506950177775
 30
0.0
 10
-105.8558427012468
 20
-96.55682587716046
 30
0.0
 10
-105.8329818630467
 20
-96.4615076623225
 30
0.0
 10
-105.8105880993924
 20
-96.39947058953324
 30
0.0
 10
-105.7993989520331
 20
-96.36847350192511
 30
0.0
 11
-105.8743989520332
 21
-96.74265832913022
 31
0.0
 11
-105.8694725537983
 21
-96.65285382316276
 31
0.0
 11
-105.8548875634655
 21
-96.55805587265505
 31
0.0
 11
-105.8312187436245
 21
-96.46200055183206
 31
0.0
 11
-105.7993989520331
 21
-96.36847350192511
 31
0.0
  0
SPLINE
  5
A9
330
47
100
AcDbEntity
  8
0
  6
Continuous
 62
     7
100
AcDbSpline
210
0.0
220
0.0
230
1.0
 70
     8
 71
     3
 72
    11
 73
     7
 74
     5
 42
0.000000001
 43
0.0000000001
 44
0.00000001
 40
0.0
 40
0.0
 40
0.0
 40
0.0
 40
0.0547607328360615
 40
0.1210858197646149
 40
0.2039606013107106
 40
0.3030665174306894
 40
0.3030665174306894
 40
0.3030665174306894
 40
0.3030665174306894
 10
-105.7630740010894
 20
-97.04268644483193
 30
0.0
 10
-105.779710355392
 20
-97.03429009701642
 30
0.0
 10
-105.8164963155795
 20
-97.01572425071323
 30
0.0
 10
-105.8498147913061
 20
-96.95279485204357
 30
0.0
 10
-105.8710606726348
 20
-96.87289521174448
 30
0.0
 10
-105.8732219394284
 20
-96.81198161916797
 30
0.0
 10
-105.8743989520332
 20
-96.7788083343628
 30
0.0
 11
-105.7630740010894
 21
-97.04268644483193
 31
0.0
 11
-105.8095049307728
 21
-97.01365358292234
 31
0.0
 11
-105.8448176017251
 21
-96.95751060876165
 31
0.0
 11
-105.8668908277529
 21
-96.8776294307954
 31
0.0
 11
-105.8743989520332
 21
-96.7788083343628
 31
0.0
  0
SPLINE
  5
AA
330
47
100
AcDbEntity
  8
0
  6
Continuous
 62
     7
100
AcDbSpline
210
0.0
220
0.0
230
1.0
 70
     8
 71
     3
 72
     9
 73
     5
 74
     3
 42
0.000000001
 43
0.0000000001
 44
0.00000001
 40
0.0
 40
0.0
 40
0.0
 40
0.0
 40
0.1249188118972245
 40
0.2510350709017624
 40
0.2510350709017624
 40
0.2510350709017624
 40
0.2510350709017624
 10
-105.7347126828333
 20
-96.12631196389748
 30
0.0
 10
-105.7421052142145
 20
-96.16737016103363
 30
0.0
 10
-105.7569611597343
 20
-96.24988012648737
 30
0.0
 10
-105.7852081018553
 20
-96.32881686822905
 30
0.0
 10
-105.7993989520331
 20
-96.36847350192511
 30
0.0
 11
-105.7347126828333
 21
-96.12631196389748
 31
0.0
 11
-105.7602061741649
 21
-96.2486017492578
 31
0.0
 11
-105.7993989520331
 21
-96.36847350192511
 31
0.0
  0
SPLINE
  5
AB
330
47
100
AcDbEntity
  8
0
  6
Continuous
 62
     7
100
AcDbSpline
210
0.0
220
0.0
230
1.0
 70
     8
 71
     3
 72
    11
 73
     7
 74
     5
 42
0.000000001
 43
0.0000000001
 44
0.00000001
 40
0.0
 40
0.0
 40
0.0
 40
0.0
 40
0.0547607328360419
 40
0.1210858197645833
 40
0.2039606013107064
 40
0.3030665174306852
 40
0.3030665174306852
 40
0.3030665174306852
 40
0.3030665174306852
 10
-100.0256557010175
 20
-98.69893644483193
 30
0.0
 10
-100.0422920553201
 20
-98.69054009701644
 30
0.0
 10
-100.0790780155075
 20
-98.67197425071322
 30
0.0
 10
-100.1123964912342
 20
-98.60904485204361
 30
0.0
 10
-100.1336423725629
 20
-98.52914521174446
 30
0.0
 10
-100.1358036393565
 20
-98.46823161916798
 30
0.0
 10
-100.1369806519613
 20
-98.4350583343628
 30
0.0
 11
-100.0256557010175
 21
-98.69893644483193
 31
0.0
 11
-100.0720866307009
 21
-98.66990358292236
 31
0.0
 11
-100.1073993016531
 21
-98.61376060876168
 31
0.0
 11
-100.129472527681
 21
-98.5338794307954
 31
0.0
 11
-100.1369806519613
 21
-98.4350583343628
 31
0.0
  0
SPLINE
  5
AC
330
47
100
AcDbEntity
  8
0
  6
Continuous
 62
     7
100
AcDbSpline
210
0.0
220
0.0
230
1.0
 70
     8
 71
     3
 72
    11
 73
     7
 74
     5
 42
0.000000001
 43
0.0000000001
 44
0.00000001
 40
0.0
 40
0.0
 40
0.0
 40
0.0
 40
0.0547607328362136
 40
0.1210858197647399
 40
0.2039606013108091
 40
0.3030665174307847
 40
0.3030665174307847
 40
0.3030665174307847
 40
0.3030665174307847
 10
-117.2162599661385
 20
-93.7364364448319
 30
0.0
 10
-117.2328963204412
 20
-93.72804009701639
 30
0.0
 10
-117.2696822806287
 20
-93.70947425071321
 30
0.0
 10
-117.3030007563554
 20
-93.64654485204356
 30
0.0
 10
-117.3242466376838
 20
-93.5666452117444
 30
0.0
 10
-117.3264079044775
 20
-93.50573161916795
 30
0.0
 10
-117.3275849170823
 20
-93.47255833436276
 30
0.0
 11
-117.2162599661385
 21
-93.7364364448319
 31
0.0
 11
-117.262690895822
 21
-93.7074035829223
 31
0.0
 11
-117.2980035667743
 21
-93.65126060876162
 31
0.0
 11
-117.3200767928021
 21
-93.57137943079536
 31
0.0
 11
-117.3275849170823
 21
-93.47255833436276
 31
0.0
  0
SPLINE
  5
AD
330
47
100
AcDbEntity
  8
0
  6
Continuous
 62
     7
100
AcDbSpline
210
0.0
220
0.0
230
1.0
 70
     8
 71
     3
 72
    11
 73
     7
 74
     5
 42
0.000000001
 43
0.0000000001
 44
0.00000001
 40
0.0
 40
0.0
 40
0.0
 40
0.0
 40
0.089939527398118
 40
0.1858528901603009
 40
0.2847813365837499
 40
0.383573077976608
 40
0.383573077976608
 40
0.383573077976608
 40
0.383573077976608
 10
-111.5901666170105
 20
-95.09265832913024
 30
0.0
 10
-111.589145637828
 20
-95.06266788589372
 30
0.0
 10
-111.5870358502237
 20
-95.00069501777749
 30
0.0
 10
-111.571610366224
 20
-94.90682587716047
 30
0.0
 10
-111.548749528024
 20
-94.81150766232247
 30
0.0
 10
-111.5263557643697
 20
-94.74947058953325
 30
0.0
 10
-111.5151666170104
 20
-94.71847350192508
 30
0.0
 11
-111.5901666170105
 21
-95.09265832913024
 31
0.0
 11
-111.5852402187755
 21
-95.00285382316275
 31
0.0
 11
-111.5706552284427
 21
-94.90805587265504
 31
0.0
 11
-111.5469864086018
 21
-94.81200055183206
 31
0.0
 11
-111.5151666170104
 21
-94.71847350192508
 31
0.0
  0
SPLINE
  5
AE
330
47
100
AcDbEntity
  8
0
  6
Continuous
 62
     7
100
AcDbSpline
210
0.0
220
0.0
230
1.0
 70
     8
 71
     3
 72
    11
 73
     7
 74
     5
 42
0.000000001
 43
0.0000000001
 44
0.00000001
 40
0.0
 40
0.0
 40
0.0
 40
0.0
 40
0.0899395273981164
 40
0.1858528901603253
 40
0.2847813365837777
 40
0.383573077976618
 40
0.383573077976618
 40
0.383573077976618
 40
0.383573077976618
 10
-117.3275849170823
 20
-93.43640832913024
 30
0.0
 10
-117.3265639378998
 20
-93.40641788589372
 30
0.0
 10
-117.3244541502955
 20
-93.34444501777746
 30
0.0
 10
-117.3090286662958
 20
-93.25057587716044
 30
0.0
 10
-117.2861678280959
 20
-93.15525766232246
 30
0.0
 10
-117.2637740644416
 20
-93.09322058953323
 30
0.0
 10
-117.2525849170822
 20
-93.06222350192508
 30
0.0
 11
-117.3275849170823
 21
-93.43640832913024
 31
0.0
 11
-117.3226585188473
 21
-93.34660382316275
 31
0.0
 11
-117.3080735285145
 21
-93.25180587265501
 31
0.0
 11
-117.2844047086736
 21
-93.15575055183203
 31
0.0
 11
-117.2525849170822
 21
-93.06222350192508
 31
0.0
  0
SPLINE
  5
AF
330
47
100
AcDbEntity
  8
0
  6
Continuous
 62
     7
100
AcDbSpline
210
0.0
220
0.0
230
1.0
 70
     8
 71
     3
 72
    11
 73
     7
 74
     5
 42
0.000000001
 43
0.0000000001
 44
0.00000001
 40
0.0
 40
0.0
 40
0.0
 40
0.0
 40
0.0547607328361022
 40
0.1210858197646284
 40
0.2039606013107401
 40
0.3030665174307189
 40
0.3030665174307189
 40
0.3030665174307189
 40
0.3030665174307189
 10
-111.4788416660667
 20
-95.3926864448319
 30
0.0
 10
-111.4954780203693
 20
-95.38429009701642
 30
0.0
 10
-111.5322639805568
 20
-95.36572425071321
 30
0.0
 10
-111.5655824562835
 20
-95.30279485204359
 30
0.0
 10
-111.5868283376121
 20
-95.22289521174446
 30
0.0
 10
-111.5889896044057
 20
-95.16198161916797
 30
0.0
 10
-111.5901666170105
 20
-95.12880833436276
 30
0.0
 11
-111.4788416660667
 21
-95.3926864448319
 31
0.0
 11
-111.5252725957501
 21
-95.36365358292232
 31
0.0
 11
-111.5605852667024
 21
-95.30751060876165
 31
0.0
 11
-111.5826584927302
 21
-95.22762943079536
 31
0.0
 11
-111.5901666170105
 21
-95.12880833436276
 31
0.0
  0
SPLINE
  5
B0
330
47
100
AcDbEntity
  8
0
  6
Continuous
 62
     7
100
AcDbSpline
210
0.0
220
0.0
230
1.0
 70
     8
 71
     3
 72
    11
 73
     7
 74
     5
 42
0.000000001
 43
0.0000000001
 44
0.00000001
 40
0.0
 40
0.0
 40
0.0
 40
0.0
 40
0.0974832524241841
 40
0.1970890577165226
 40
0.2899161279300079
 40
0.3683541556557345
 40
0.3683541556557345
 40
0.3683541556557345
 40
0.3683541556557345
 10
-111.2122700775144
 20
-95.01986053186806
 30
0.0
 10
-111.2168573260238
 20
-95.05210676220823
 30
0.0
 10
-111.2261317183644
 20
-95.11730133379089
 30
0.0
 10
-111.2577353467198
 20
-95.20896258057434
 30
0.0
 10
-111.2968430884146
 20
-95.29121674038859
 30
0.0
 10
-111.334220302755
 20
-95.33466055006491
 30
0.0
 10
-111.3513387698532
 20
-95.35455745862868
 30
0.0
 11
-111.2122700775144
 21
-95.01986053186806
 31
0.0
 11
-111.2290189824285
 21
-95.11589416427238
 31
0.0
 11
-111.260297773913
 21
-95.2104613570666
 31
0.0
 11
-111.3026368630462
 21
-95.29307047896248
 31
0.0
 11
-111.3513387698532
 21
-95.35455745862868
 31
0.0
  0
SPLINE
  5
B1
330
47
100
AcDbEntity
  8
0
  6
Continuous
 62
     7
100
AcDbSpline
210
0.0
220
0.0
230
1.0
 70
     8
 71
     3
 72
     9
 73
     5
 74
     3
 42
0.000000001
 43
0.0000000001
 44
0.00000001
 40
0.0
 40
0.0
 40
0.0
 40
0.0
 40
0.0760093467098473
 40
0.1369273199295567
 40
0.1369273199295567
 40
0.1369273199295567
 40
0.1369273199295567
 10
-111.3513387698532
 20
-95.35455745862868
 30
0.0
 10
-111.372671864515
 20
-95.36998068654697
 30
0.0
 10
-111.4111024538237
 20
-95.39776489980781
 30
0.0
 10
-111.4579842800245
 20
-95.39425014316272
 30
0.0
 10
-111.4788416660667
 20
-95.3926864448319
 30
0.0
 11
-111.3513387698532
 21
-95.35455745862868
 31
0.0
 11
-111.4179422570191
 21
-95.39118254080648
 31
0.0
 11
-111.4788416660667
 21
-95.3926864448319
 31
0.0
  0
SPLINE
  5
B2
330
47
100
AcDbEntity
  8
0
  6
Continuous
 62
     7
100
AcDbSpline
210
0.0
220
0.0
230
1.0
 70
     8
 71
     3
 72
     9
 73
     5
 74
     3
 42
0.000000001
 43
0.0000000001
 44
0.00000001
 40
0.0
 40
0.0
 40
0.0
 40
0.0
 40
0.1249188118971515
 40
0.251035070901654
 40
0.251035070901654
 40
0.251035070901654
 40
0.251035070901654
 10
-117.1878986478826
 20
-92.8200619638975
 30
0.0
 10
-117.1952911792638
 20
-92.86112016103365
 30
0.0
 10
-117.2101471247836
 20
-92.94363012648736
 30
0.0
 10
-117.2383940669044
 20
-93.02256686822902
 30
0.0
 10
-117.2525849170822
 20
-93.06222350192508
 30
0.0
 11
-117.1878986478826
 21
-92.8200619638975
 31
0.0
 11
-117.2133921392142
 21
-92.94235174925777
 31
0.0
 11
-117.2525849170822
 21
-93.06222350192508
 31
0.0
  0
SPLINE
  5
B3
330
47
100
AcDbEntity
  8
0
  6
Continuous
 62
     7
100
AcDbSpline
210
0.0
220
0.0
230
1.0
 70
     8
 71
     3
 72
    11
 73
     7
 74
     5
 42
0.000000001
 43
0.0000000001
 44
0.00000001
 40
0.0
 40
0.0
 40
0.0
 40
0.0
 40
0.0267757545403724
 40
0.0576263883511267
 40
0.094822806130076
 40
0.1389000472953501
 40
0.1389000472953501
 40
0.1389000472953501
 40
0.1389000472953501
 10
-97.35036105793915
 20
-96.41115306364992
 30
0.0
 10
-97.35860605235963
 20
-96.40738103700394
 30
0.0
 10
-97.37635080162055
 20
-96.3992629234763
 30
0.0
 10
-97.39503241873282
 20
-96.37234619621734
 30
0.0
 10
-97.40872939661492
 20
-96.33747023457337
 30
0.0
 10
-97.41271544118625
 20
-96.31056132774194
 30
0.0
 10
-97.41487719145715
 20
-96.29596778654775
 30
0.0
 11
-97.35036105793915
 21
-96.41115306364992
 31
0.0
 11
-97.37371617154895
 21
-96.39805803068471
 31
0.0
 11
-97.39273519341984
 21
-96.37376731649707
 31
0.0
 11
-97.40664418335447
 21
-96.33926929122653
 31
0.0
 11
-97.41487719145715
 21
-96.29596778654775
 31
0.0
  0
SPLINE
  5
B4
330
47
100
AcDbEntity
  8
0
  6
Continuous
 62
     7
100
AcDbSpline
210
0.0
220
0.0
230
1.0
 70
     8
 71
     3
 72
     9
 73
     5
 74
     3
 42
0.000000001
 43
0.0000000001
 44
0.00000001
 40
0.0
 40
0.0
 40
0.0
 40
0.0
 40
0.124918811897137
 40
0.2510350709016616
 40
0.2510350709016616
 40
0.2510350709016616
 40
0.2510350709016616
 10
-111.4504803478108
 20
-94.4763119638975
 30
0.0
 10
-111.4578728791919
 20
-94.51737016103367
 30
0.0
 10
-111.4727288247117
 20
-94.59988012648736
 30
0.0
 10
-111.5009757668326
 20
-94.67881686822905
 30
0.0
 10
-111.5151666170104
 20
-94.71847350192508
 30
0.0
 11
-111.4504803478108
 21
-94.4763119638975
 31
0.0
 11
-111.4759738391423
 21
-94.59860174925777
 31
0.0
 11
-111.5151666170104
 21
-94.71847350192508
 31
0.0
  0
SPLINE
  5
B5
330
47
100
AcDbEntity
  8
0
  6
Continuous
 62
     7
100
AcDbSpline
210
0.0
220
0.0
230
1.0
 70
     8
 71
     3
 72
     9
 73
     5
 74
     3
 42
0.000000001
 43
0.0000000001
 44
0.00000001
 40
0.0
 40
0.0
 40
0.0
 40
0.0
 40
0.0441141957860912
 40
0.07973297286639
 40
0.07973297286639
 40
0.07973297286639
 40
0.07973297286639
 10
-97.27580849911834
 20
-96.38979067243542
 30
0.0
 10
-97.28831174389687
 20
-96.39854072781563
 30
0.0
 10
-97.3109103914807
 20
-96.41435575334123
 30
0.0
 10
-97.33817932189434
 20
-96.41214200898763
 30
0.0
 10
-97.35036105793915
 20
-96.41115306364992
 30
0.0
 11
-97.27580849911834
 21
-96.38979067243542
 31
0.0
 11
-97.31474786929707
 21
-96.41052199960038
 31
0.0
 11
-97.35036105793915
 21
-96.41115306364992
 31
0.0
  0
SPLINE
  5
B6
330
47
100
AcDbEntity
  8
0
  6
Continuous
 62
     7
100
AcDbSpline
210
0.0
220
0.0
230
1.0
 70
     8
 71
     3
 72
    13
 73
     9
 74
     7
 42
0.000000001
 43
0.0000000001
 44
0.00000001
 40
0.0
 40
0.0
 40
0.0
 40
0.0
 40
0.1161969044015067
 40
0.2408442551872841
 40
0.3675580773508678
 40
0.4897401502301244
 40
0.6012694085522381
 40
0.697279249527772
 40
0.697279249527772
 40
0.697279249527772
 40
0.697279249527772
 10
-97.03698065196113
 20
-95.75037958263107
 30
0.0
 10
-97.0386819650377
 20
-95.78912642078373
 30
0.0
 10
-97.04220833468656
 20
-95.8694379686595
 30
0.0
 10
-97.0668613982787
 20
-95.98988999965727
 30
0.0
 10
-97.1034765528423
 20
-96.10913372377712
 30
0.0
 10
-97.15208334120628
 20
-96.21913672226202
 30
0.0
 10
-97.20720750906332
 20
-96.31505984280494
 30
0.0
 10
-97.2541106099748
 20
-96.36615397613603
 30
0.0
 10
-97.27580849911834
 20
-96.38979067243542
 30
0.0
 11
-97.03698065196113
 21
-95.75037958263107
 31
0.0
 11
-97.04502386831669
 21
-95.86629777298444
 31
0.0
 11
-97.06863576075372
 21
-95.98868829474475
 31
0.0
 11
-97.10629721479158
 21
-96.10967592764162
 31
0.0
 11
-97.15558471982999
 21
-96.22147575794091
 31
0.0
 11
-97.21332699215134
 21
-96.31689381992601
 31
0.0
 11
-97.27580849911834
 21
-96.38979067243542
 31
0.0
  0
SPLINE
  5
B7
330
47
100
AcDbEntity
  8
0
  6
Continuous
 62
     7
100
AcDbSpline
210
0.0
220
0.0
230
1.0
 70
     8
 71
     3
 72
    11
 73
     7
 74
     5
 42
0.000000001
 43
0.0000000001
 44
0.00000001
 40
0.0
 40
0.0
 40
0.0
 40
0.0
 40
0.049880858391551
 40
0.1098123643271124
 40
0.180861486069671
 40
0.2622823981944074
 40
0.2622823981944074
 40
0.2622823981944074
 40
0.2622823981944074
 10
-97.11198065196123
 20
-95.46994856076105
 30
0.0
 10
-97.10054501789402
 20
-95.48220663189886
 30
0.0
 10
-97.0753695607038
 20
-95.50919270036931
 30
0.0
 10
-97.05375837758803
 20
-95.56672460042677
 30
0.0
 10
-97.0392627680778
 20
-95.63609982584032
 30
0.0
 10
-97.03777508624069
 20
-95.68703145008897
 30
0.0
 10
-97.03698065196124
 20
-95.7142295773985
 30
0.0
 11
-97.11198065196123
 21
-95.46994856076105
 31
0.0
 11
-97.08016086036986
 21
-95.50836211494556
 31
0.0
 11
-97.05649204052887
 21
-95.56342183724874
 31
0.0
 11
-97.04190705019612
 21
-95.63295784347221
 31
0.0
 11
-97.03698065196124
 21
-95.7142295773985
 31
0.0
  0
SPLINE
  5
B8
330
47
100
AcDbEntity
  8
0
  6
Continuous
 62
     7
100
AcDbSpline
210
0.0
220
0.0
230
1.0
 70
     8
 71
     3
 72
    11
 73
     7
 74
     5
 42
0.000000001
 43
0.0000000001
 44
0.00000001
 40
0.0
 40
0.0
 40
0.0
 40
0.0
 40
0.0498808583915476
 40
0.109812364327122
 40
0.1808614860696807
 40
0.2622823981944205
 40
0.2622823981944205
 40
0.2622823981944205
 40
0.2622823981944205
 10
-97.11198065196123
 20
-95.46994856076105
 30
0.0
 10
-97.12341628602842
 20
-95.45769048962323
 30
0.0
 10
-97.14859174321862
 20
-95.43070442115274
 30
0.0
 10
-97.17020292633435
 20
-95.37317252109526
 30
0.0
 10
-97.1846985358446
 20
-95.30379729568176
 30
0.0
 10
-97.1861862176818
 20
-95.25286567143313
 30
0.0
 10
-97.18698065196122
 20
-95.22566754412355
 30
0.0
 11
-97.11198065196123
 21
-95.46994856076105
 31
0.0
 11
-97.14380044355255
 21
-95.43153500657651
 31
0.0
 11
-97.16746926339354
 21
-95.37647528427331
 31
0.0
 11
-97.18205425372629
 21
-95.30693927804984
 31
0.0
 11
-97.18698065196122
 21
-95.22566754412355
 31
0.0
  0
SPLINE
  5
B9
330
47
100
AcDbEntity
  8
0
  6
Continuous
 62
     7
100
AcDbSpline
210
0.0
220
0.0
230
1.0
 70
     8
 71
     3
 72
     9
 73
     5
 74
     3
 42
0.000000001
 43
0.0000000001
 44
0.00000001
 40
0.0
 40
0.0
 40
0.0
 40
0.0
 40
0.0760093467098666
 40
0.1369273199295615
 40
0.1369273199295615
 40
0.1369273199295615
 40
0.1369273199295615
 10
-99.898152804804
 20
-98.66080745862871
 30
0.0
 10
-99.91948589946576
 20
-98.676230686547
 30
0.0
 10
-99.95791648877446
 20
-98.70401489980777
 30
0.0
 10
-100.0047983149753
 20
-98.70050014316281
 30
0.0
 10
-100.0256557010175
 20
-98.69893644483193
 30
0.0
 11
-99.898152804804
 21
-98.66080745862871
 31
0.0
 11
-99.9647562919699
 21
-98.69743254080653
 31
0.0
 11
-100.0256557010175
 21
-98.69893644483193
 31
0.0
  0
SPLINE
  5
BA
330
47
100
AcDbEntity
  8
0
  6
Continuous
 62
     7
100
AcDbSpline
210
0.0
220
0.0
230
1.0
 70
     8
 71
     3
 72
    11
 73
     7
 74
     5
 42
0.000000001
 43
0.0000000001
 44
0.00000001
 40
0.0
 40
0.0
 40
0.0
 40
0.0
 40
0.0974832524241677
 40
0.1970890577164972
 40
0.2899161279299373
 40
0.3683541556556797
 40
0.3683541556556797
 40
0.3683541556556797
 40
0.3683541556556797
 10
-99.7590841124653
 20
-98.3261105318681
 30
0.0
 10
-99.76367136097468
 20
-98.35835676220825
 30
0.0
 10
-99.77294575331527
 20
-98.42355133379095
 30
0.0
 10
-99.80454938167071
 20
-98.51521258057433
 30
0.0
 10
-99.84365712336535
 20
-98.59746674038854
 30
0.0
 10
-99.88103433770587
 20
-98.64091055006494
 30
0.0
 10
-99.898152804804
 20
-98.66080745862871
 30
0.0
 11
-99.7590841124653
 21
-98.3261105318681
 31
0.0
 11
-99.77583301737941
 21
-98.4221441642724
 31
0.0
 11
-99.80711180886385
 21
-98.51671135706661
 31
0.0
 11
-99.84945089799703
 21
-98.59932047896247
 31
0.0
 11
-99.898152804804
 21
-98.66080745862871
 31
0.0
  0
ENDBLK
  5
49
330
47
100
AcDbEntity
  8
0
100
AcDbBlockEnd
  0
BLOCK
  5
4C
330
4A
100
AcDbEntity
  8
0
100
AcDbBlockBegin
  2
Allg1
 70
     0
 10
-84.00000000025943
 20
-114.5538059389826
 30
0.0
  3
Allg1
  1

  0
INSERT
  5
4B
330
4A
100
AcDbEntity
  8
0
100
AcDbBlockReference
  2
0825503_UC_EM_20x9-select__1
 10
-118.0025849170822
 20
-98.70987840145625
 30
0.0
  0
ENDBLK
  5
4D
330
4A
100
AcDbEntity
  8
0
100
AcDbBlockEnd
  0
BLOCK
  5
4F
330
4E
100
AcDbEntity
  8
0
100
AcDbBlockBegin
  2
0825503_UC_EM_20x9-select__2
 70
     0
 10
-172.9000001905264
 20
-83.28970016224235
 30
0.0
  3
0825503_UC_EM_20x9-select__2
  1

  0
LINE
  5
BB
330
4E
100
AcDbEntity
  8
0
  6
Continuous
 62
     7
100
AcDbLine
 10
-153.0500001905263
 20
-74.38970016224232
 30
0.0
 11
-172.9000001905264
 21
-74.3897001622422
 31
0.0
  0
LINE
  5
BC
330
4E
100
AcDbEntity
  8
0
  6
Continuous
 62
     7
100
AcDbLine
 10
-153.0500001905263
 20
-74.38970016224232
 30
0.0
 11
-153.0500001905263
 21
-83.28970016224235
 31
0.0
  0
LINE
  5
BD
330
4E
100
AcDbEntity
  8
0
  6
Continuous
 62
     7
100
AcDbLine
 10
-172.9000001905264
 20
-74.3897001622422
 30
0.0
 11
-172.9000001905264
 21
-83.28970016224224
 31
0.0
  0
LINE
  5
BE
330
4E
100
AcDbEntity
  8
0
  6
Continuous
 62
     7
100
AcDbLine
 10
-153.0500001905263
 20
-83.28970016224235
 30
0.0
 11
-172.9000001905264
 21
-83.28970016224224
 31
0.0
  0
ENDBLK
  5
50
330
4E
100
AcDbEntity
  8
0
100
AcDbBlockEnd
  0
BLOCK
  5
53
330
51
100
AcDbEntity
  8
0
100
AcDbBlockBegin
  2
Drfsicht1
 70
     0
 10
-122.3499996185408
 20
-102.8396996419115
 30
0.0
  3
Drfsicht1
  1

  0
INSERT
  5
52
330
51
100
AcDbEntity
  8
0
100
AcDbBlockReference
  2
0825503_UC_EM_20x9-select__2
 10
-172.9000001905264
 20
-83.28970016224235
 30
0.0
  0
ENDBLK
  5
54
330
51
100
AcDbEntity
  8
0
100
AcDbBlockEnd
  0
BLOCK
  5
56
330
55
100
AcDbEntity
  8
0
100
AcDbBlockBegin
  2
0825503_UC_EM_20x9-select__3
 70
     0
 10
-110.7999994279944
 20
-61.69950048236535
 30
0.0
  3
0825503_UC_EM_20x9-select__3
  1

  0
LINE
  5
BF
330
55
100
AcDbEntity
  8
0
  6
Continuous
 62
     7
100
AcDbLine
 10
-110.7999994279944
 20
-58.49999999987966
 30
0.0
 11
-90.94999942799438
 21
-58.49999999987966
 31
0.0
  0
LINE
  5
C0
330
55
100
AcDbEntity
  8
0
  6
Continuous
 62
     2
100
AcDbLine
 10
-110.7999994279944
 20
-61.15825756937528
 30
0.0
 11
-104.1749994279944
 21
-61.15825756937528
 31
0.0
  0
LINE
  5
C1
330
55
100
AcDbEntity
  8
0
  6
Continuous
 62
     7
100
AcDbLine
 10
-104.1749994279944
 20
-61.15825756937528
 30
0.0
 11
-104.1749994279944
 21
-61.19999999987968
 31
0.0
  0
LINE
  5
C2
330
55
100
AcDbEntity
  8
0
  6
Continuous
 62
     2
100
AcDbLine
 10
-110.7999994279944
 20
-61.19999999987968
 30
0.0
 11
-104.1749994279944
 21
-61.19999999987968
 31
0.0
  0
LINE
  5
C3
330
55
100
AcDbEntity
  8
0
  6
Continuous
 62
     7
100
AcDbLine
 10
-110.7999994279944
 20
-61.19999999987968
 30
0.0
 11
-110.7999994279944
 21
-61.15825756937528
 31
0.0
  0
LINE
  5
C4
330
55
100
AcDbEntity
  8
0
  6
Continuous
 62
     2
100
AcDbLine
 10
-110.7999994279944
 20
-60.44411472652098
 30
0.0
 11
-104.1749994279944
 21
-60.44411472652098
 31
0.0
  0
LINE
  5
C5
330
55
100
AcDbEntity
  8
0
  6
Continuous
 62
     7
100
AcDbLine
 10
-104.1749994279944
 20
-59.49999999987966
 30
0.0
 11
-104.1749994279944
 21
-60.08736974170375
 31
0.0
  0
LINE
  5
C6
330
55
100
AcDbEntity
  8
0
  6
Continuous
 62
     7
100
AcDbLine
 10
-104.1749994279944
 20
-60.80118614794813
 30
0.0
 11
-104.1749994279944
 21
-61.15825756937528
 31
0.0
  0
LINE
  5
C7
330
55
100
AcDbEntity
  8
0
  6
Continuous
 62
     7
100
AcDbLine
 10
-104.1749994279944
 20
-60.44411472652098
 30
0.0
 11
-104.1749994279944
 21
-60.80118614794813
 31
0.0
  0
LINE
  5
C8
330
55
100
AcDbEntity
  8
0
  6
Continuous
 62
     7
100
AcDbLine
 10
-104.1749994279944
 20
-60.08736974170375
 30
0.0
 11
-104.1749994279944
 21
-60.44411472652098
 31
0.0
  0
LINE
  5
C9
330
55
100
AcDbEntity
  8
0
  6
Continuous
 62
     7
100
AcDbLine
 10
-110.7999994279944
 20
-60.44411472652098
 30
0.0
 11
-110.7999994279944
 21
-60.08736974170375
 31
0.0
  0
LINE
  5
CA
330
55
100
AcDbEntity
  8
0
  6
Continuous
 62
     7
100
AcDbLine
 10
-110.7999994279944
 20
-60.80118614794813
 30
0.0
 11
-110.7999994279944
 21
-60.44411472652098
 31
0.0
  0
LINE
  5
CB
330
55
100
AcDbEntity
  8
0
  6
Continuous
 62
     7
100
AcDbLine
 10
-110.7999994279944
 20
-59.49999999987966
 30
0.0
 11
-104.1749994279944
 21
-59.49999999987966
 31
0.0
  0
LINE
  5
CC
330
55
100
AcDbEntity
  8
0
  6
Continuous
 62
     7
100
AcDbLine
 10
-110.7999994279944
 20
-60.08736974170375
 30
0.0
 11
-104.1749994279944
 21
-60.08736974170375
 31
0.0
  0
LINE
  5
CD
330
55
100
AcDbEntity
  8
0
  6
Continuous
 62
     7
100
AcDbLine
 10
-110.7999994279944
 20
-60.08736974170375
 30
0.0
 11
-110.7999994279944
 21
-59.49999999987966
 31
0.0
  0
LINE
  5
CE
330
55
100
AcDbEntity
  8
0
  6
Continuous
 62
     7
100
AcDbLine
 10
-110.7999994279944
 20
-61.69950048236535
 30
0.0
 11
-104.1749994279944
 21
-61.69950048236535
 31
0.0
  0
LINE
  5
CF
330
55
100
AcDbEntity
  8
0
  6
Continuous
 62
     7
100
AcDbLine
 10
-97.57499942799433
 20
-61.69950048236535
 30
0.0
 11
-90.94999942799438
 21
-61.69950048236535
 31
0.0
  0
LINE
  5
D0
330
55
100
AcDbEntity
  8
0
  6
Continuous
 62
     7
100
AcDbLine
 10
-97.57499942799438
 20
-60.80118614794813
 30
0.0
 11
-97.57499942799438
 21
-60.44411472652098
 31
0.0
  0
LINE
  5
D1
330
55
100
AcDbEntity
  8
0
  6
Continuous
 62
     7
100
AcDbLine
 10
-97.57499942799438
 20
-60.80118614794813
 30
0.0
 11
-97.57499942799438
 21
-61.15825756937528
 31
0.0
  0
LINE
  5
D2
330
55
100
AcDbEntity
  8
0
  6
Continuous
 62
     7
100
AcDbLine
 10
-97.57499942799438
 20
-61.19999999987968
 30
0.0
 11
-97.57499942799433
 21
-61.69950048236535
 31
0.0
  0
LINE
  5
D3
330
55
100
AcDbEntity
  8
0
  6
Continuous
 62
     2
100
AcDbLine
 10
-97.57499942799438
 20
-60.80118614794813
 30
0.0
 11
-90.94999942799438
 21
-60.80118614794813
 31
0.0
  0
LINE
  5
D4
330
55
100
AcDbEntity
  8
0
  6
Continuous
 62
     2
100
AcDbLine
 10
-110.7999994279944
 20
-60.80118614794813
 30
0.0
 11
-104.1749994279944
 21
-60.80118614794813
 31
0.0
  0
LINE
  5
D5
330
55
100
AcDbEntity
  8
0
  6
Continuous
 62
     7
100
AcDbLine
 10
-97.57499942799433
 20
-59.49999999987966
 30
0.0
 11
-90.94999942799438
 21
-59.49999999987966
 31
0.0
  0
LINE
  5
D6
330
55
100
AcDbEntity
  8
0
  6
Continuous
 62
     7
100
AcDbLine
 10
-97.57499942799438
 20
-60.44411472652098
 30
0.0
 11
-97.57499942799438
 21
-60.08736974170375
 31
0.0
  0
LINE
  5
D7
330
55
100
AcDbEntity
  8
0
  6
Continuous
 62
     7
100
AcDbLine
 10
-97.57499942799438
 20
-60.08736974170375
 30
0.0
 11
-97.57499942799433
 21
-59.49999999987966
 31
0.0
  0
LINE
  5
D8
330
55
100
AcDbEntity
  8
0
  6
Continuous
 62
     7
100
AcDbLine
 10
-97.57499942799438
 20
-61.19999999987968
 30
0.0
 11
-97.57499942799438
 21
-61.15825756937528
 31
0.0
  0
LINE
  5
D9
330
55
100
AcDbEntity
  8
0
  6
Continuous
 62
     7
100
AcDbLine
 10
-104.1749994279944
 20
-59.49999999987966
 30
0.0
 11
-97.57499942799433
 21
-59.49999999987966
 31
0.0
  0
LINE
  5
DA
330
55
100
AcDbEntity
  8
0
  6
Continuous
 62
     7
100
AcDbLine
 10
-90.94999942799438
 20
-60.80118614794813
 30
0.0
 11
-90.94999942799438
 21
-60.44411472652098
 31
0.0
  0
LINE
  5
DB
330
55
100
AcDbEntity
  8
0
  6
Continuous
 62
     7
100
AcDbLine
 10
-90.94999942799438
 20
-60.80118614794813
 30
0.0
 11
-90.94999942799438
 21
-61.15825756937528
 31
0.0
  0
LINE
  5
DC
330
55
100
AcDbEntity
  8
0
  6
Continuous
 62
     7
100
AcDbLine
 10
-97.57499942799438
 20
-60.08736974170375
 30
0.0
 11
-90.94999942799438
 21
-60.08736974170378
 31
0.0
  0
LINE
  5
DD
330
55
100
AcDbEntity
  8
0
  6
Continuous
 62
     2
100
AcDbLine
 10
-97.57499942799438
 20
-61.19999999987968
 30
0.0
 11
-90.94999942799438
 21
-61.19999999987968
 31
0.0
  0
LINE
  5
DE
330
55
100
AcDbEntity
  8
0
  6
Continuous
 62
     2
100
AcDbLine
 10
-97.57499942799438
 20
-61.15825756937528
 30
0.0
 11
-90.94999942799438
 21
-61.15825756937528
 31
0.0
  0
LINE
  5
DF
330
55
100
AcDbEntity
  8
0
  6
Continuous
 62
     2
100
AcDbLine
 10
-97.57499942799438
 20
-60.44411472652098
 30
0.0
 11
-90.94999942799438
 21
-60.44411472652098
 31
0.0
  0
LINE
  5
E0
330
55
100
AcDbEntity
  8
0
  6
Continuous
 62
     7
100
AcDbLine
 10
-90.94999942799438
 20
-61.19999999987968
 30
0.0
 11
-90.94999942799438
 21
-61.15825756937528
 31
0.0
  0
LINE
  5
E1
330
55
100
AcDbEntity
  8
0
  6
Continuous
 62
     7
100
AcDbLine
 10
-90.94999942799438
 20
-60.08736974170378
 30
0.0
 11
-90.94999942799438
 21
-59.49999999987966
 31
0.0
  0
LINE
  5
E2
330
55
100
AcDbEntity
  8
0
  6
Continuous
 62
     7
100
AcDbLine
 10
-90.94999942799438
 20
-60.44411472652098
 30
0.0
 11
-90.94999942799438
 21
-60.08736974170378
 31
0.0
  0
LINE
  5
E3
330
55
100
AcDbEntity
  8
0
  6
Continuous
 62
     7
100
AcDbLine
 10
-90.94999942799438
 20
-59.49999999987966
 30
0.0
 11
-90.94999942799438
 21
-58.49999999987966
 31
0.0
  0
LINE
  5
E4
330
55
100
AcDbEntity
  8
0
  6
Continuous
 62
     7
100
AcDbLine
 10
-90.94999942799438
 20
-61.19999999987968
 30
0.0
 11
-90.94999942799438
 21
-61.69950048236535
 31
0.0
  0
LINE
  5
E5
330
55
100
AcDbEntity
  8
0
  6
Continuous
 62
     7
100
AcDbLine
 10
-110.7999994279944
 20
-59.49999999987966
 30
0.0
 11
-110.7999994279944
 21
-58.49999999987966
 31
0.0
  0
LINE
  5
E6
330
55
100
AcDbEntity
  8
0
  6
Continuous
 62
     7
100
AcDbLine
 10
-110.7999994279944
 20
-60.80118614794813
 30
0.0
 11
-110.7999994279944
 21
-61.15825756937528
 31
0.0
  0
LINE
  5
E7
330
55
100
AcDbEntity
  8
0
  6
Continuous
 62
     7
100
AcDbLine
 10
-110.7999994279944
 20
-61.69950048236535
 30
0.0
 11
-110.7999994279944
 21
-61.19999999987968
 31
0.0
  0
LINE
  5
E8
330
55
100
AcDbEntity
  8
0
  6
Continuous
 62
     7
100
AcDbLine
 10
-104.1749994279944
 20
-61.19999999987968
 30
0.0
 11
-104.1749994279944
 21
-61.69950048236535
 31
0.0
  0
ENDBLK
  5
57
330
55
100
AcDbEntity
  8
0
100
AcDbBlockEnd
  0
BLOCK
  5
5A
330
58
100
AcDbEntity
  8
0
100
AcDbBlockBegin
  2
Rckans1
 70
     0
 10
-141.49999999998
 20
-60.49999999992002
 30
0.0
  3
Rckans1
  1

  0
INSERT
  5
59
330
58
100
AcDbEntity
  8
0
100
AcDbBlockReference
  2
0825503_UC_EM_20x9-select__3
 10
-110.7999994279944
 20
-61.69950048236535
 30
0.0
  0
ENDBLK
  5
5B
330
58
100
AcDbEntity
  8
0
100
AcDbBlockEnd
  0
BLOCK
  5
5D
330
5C
100
AcDbEntity
  8
0
100
AcDbBlockBegin
  2
0825503_UC_EM_20x9-select__4
 70
     0
 10
-138.8749996704026
 20
-61.69950048240534
 30
0.0
  3
0825503_UC_EM_20x9-select__4
  1

  0
LINE
  5
E9
330
5C
100
AcDbEntity
  8
0
  6
Continuous
 62
     7
100
AcDbLine
 10
-136.4249996704027
 20
-59.49999999991965
 30
0.0
 11
-136.7692065914108
 21
-61.45209445321973
 31
0.0
  0
LINE
  5
EA
330
5C
100
AcDbEntity
  8
0
  6
Continuous
 62
     7
100
AcDbLine
 10
-131.3249996704026
 20
-61.15825756941524
 30
0.0
 11
-131.3249996704026
 21
-61.19999999991967
 31
0.0
  0
LINE
  5
EB
330
5C
100
AcDbEntity
  8
0
  6
Continuous
 62
     7
100
AcDbLine
 10
-137.5249996704027
 20
-61.19999999991967
 30
0.0
 11
-137.5249996704027
 21
-61.15825756941524
 31
0.0
  0
LINE
  5
EC
330
5C
100
AcDbEntity
  8
0
  6
Continuous
 62
     7
100
AcDbLine
 10
-137.2249996704027
 20
-60.44411472656097
 30
0.0
 11
-137.2249996704027
 21
-60.08736974174377
 31
0.0
  0
LINE
  5
ED
330
5C
100
AcDbEntity
  8
0
  6
Continuous
 62
     7
100
AcDbLine
 10
-131.6249996704028
 20
-60.08736974174377
 30
0.0
 11
-131.6249996704026
 21
-60.44411472656097
 31
0.0
  0
LINE
  5
EE
330
5C
100
AcDbEntity
  8
0
  6
Continuous
 62
     7
100
AcDbLine
 10
-137.2249996704027
 20
-60.08736974174377
 30
0.0
 11
-137.9249996704027
 21
-59.49999999991965
 31
0.0
  0
LINE
  5
EF
330
5C
100
AcDbEntity
  8
0
  6
Continuous
 62
     7
100
AcDbLine
 10
-138.8749996704026
 20
-59.49999999991965
 30
0.0
 11
-138.8749996704026
 21
-58.49999999991965
 31
0.0
  0
LINE
  5
F0
330
5C
100
AcDbEntity
  8
0
  6
Continuous
 62
     7
100
AcDbLine
 10
-130.9249996704027
 20
-59.49999999991965
 30
0.0
 11
-131.6249996704028
 21
-60.08736974174377
 31
0.0
  0
LINE
  5
F1
330
5C
100
AcDbEntity
  8
0
  6
Continuous
 62
     7
100
AcDbLine
 10
-132.4249996704027
 20
-59.49999999991965
 30
0.0
 11
-136.4249996704027
 21
-59.49999999991965
 31
0.0
  0
LINE
  5
F2
330
5C
100
AcDbEntity
  8
0
  6
Continuous
 62
     7
100
AcDbLine
 10
-129.9749996704027
 20
-59.49999999991965
 30
0.0
 11
-130.9249996704027
 21
-59.49999999991965
 31
0.0
  0
LINE
  5
F3
330
5C
100
AcDbEntity
  8
0
  6
Continuous
 62
     7
100
AcDbLine
 10
-137.9249996704027
 20
-59.49999999991965
 30
0.0
 11
-138.8749996704026
 21
-59.49999999991965
 31
0.0
  0
LINE
  5
F4
330
5C
100
AcDbEntity
  8
0
  6
Continuous
 62
     7
100
AcDbLine
 10
-129.9749996704027
 20
-58.49999999991965
 30
0.0
 11
-129.9749996704027
 21
-59.49999999991965
 31
0.0
  0
LINE
  5
F5
330
5C
100
AcDbEntity
  8
0
  6
Continuous
 62
     7
100
AcDbLine
 10
-138.8749996704026
 20
-58.49999999991965
 30
0.0
 11
-129.9749996704027
 21
-58.49999999991965
 31
0.0
  0
LINE
  5
F6
330
5C
100
AcDbEntity
  8
0
  6
Continuous
 62
     7
100
AcDbLine
 10
-132.0807927493946
 20
-61.45209445321973
 30
0.0
 11
-132.4249996704027
 21
-59.49999999991965
 31
0.0
  0
ARC
  5
F7
330
5C
100
AcDbEntity
  8
0
  6
Continuous
 62
     7
100
AcDbCircle
 10
-131.8249996704026
 20
-61.15825756941524
 30
0.0
 40
0.5
100
AcDbArc
 50
0.0
 51
45.5729959992001
  0
ARC
  5
F8
330
5C
100
AcDbEntity
  8
0
  6
Continuous
 62
     7
100
AcDbCircle
 10
-137.0249996704027
 20
-61.15825756941524
 30
0.0
 40
0.4999999999999018
100
AcDbArc
 50
134.4270040007976
 51
180.0
  0
ARC
  5
F9
330
5C
100
AcDbEntity
  8
0
  6
Continuous
 62
     7
100
AcDbCircle
 10
-137.0249996704027
 20
-61.19999999991967
 30
0.0
 40
0.5
100
AcDbArc
 50
180.0
 51
267.4386781692081
  0
ARC
  5
FA
330
5C
100
AcDbEntity
  8
0
  6
Continuous
 62
     7
100
AcDbCircle
 10
-131.7853504234909
 20
-61.39999999991963
 30
0.0
 40
0.3000000000000196
100
AcDbArc
 50
190.0000000000034
 51
266.6931641146416
  0
ARC
  5
FB
330
5C
100
AcDbEntity
  8
0
  6
Continuous
 62
     7
100
AcDbCircle
 10
-137.0646489173144
 20
-61.39999999991963
 30
0.0
 40
0.3000000000000095
100
AcDbArc
 50
273.3068358852988
 51
349.9999999999938
  0
ARC
  5
FC
330
5C
100
AcDbEntity
  8
0
  6
Continuous
 62
     7
100
AcDbCircle
 10
-137.7249996704027
 20
-60.44411472656097
 30
0.0
 40
0.5000000000000813
100
AcDbArc
 50
314.4270040008139
 51
0.0
  0
ARC
  5
FD
330
5C
100
AcDbEntity
  8
0
  6
Continuous
 62
     7
100
AcDbCircle
 10
-131.1249996704026
 20
-60.44411472656097
 30
0.0
 40
0.5
100
AcDbArc
 50
180.0
 51
225.5729959991861
  0
ARC
  5
FE
330
5C
100
AcDbEntity
  8
0
  6
Continuous
 62
     7
100
AcDbCircle
 10
-131.8249996704026
 20
-61.19999999991967
 30
0.0
 40
0.499999999999986
100
AcDbArc
 50
272.5613218307561
 51
0.0
  0
ENDBLK
  5
5E
330
5C
100
AcDbEntity
  8
0
100
AcDbBlockEnd
  0
BLOCK
  5
61
330
5F
100
AcDbEntity
  8
0
100
AcDbBlockBegin
  2
SA_Links1
 70
     0
 10
-110.4250001907333
 20
-60.49999999996001
 30
0.0
  3
SA_Links1
  1

  0
INSERT
  5
60
330
5F
100
AcDbEntity
  8
0
100
AcDbBlockReference
  2
0825503_UC_EM_20x9-select__4
 10
-138.8749996704026
 20
-61.69950048240534
 30
0.0
  0
DIMENSION
  5
10C
330
5F
100
AcDbEntity
  8
1
100
AcDbDimension
  2
*D16
 10
-122.197456938082
 20
-58.49999999991965
 30
0.0
 11
-123.909956938082
 21
-54.5775990169115
 31
0.0
 70
    32
  1
<>
 71
     5
 42
-1.0
 53
90.0
  3
ME10_DIM_10
100
AcDbAlignedDimension
 13
-131.8026553647171
 23
-61.69950048240534
 33
0.0
 14
-129.9749996704027
 24
-58.49999999991965
 34
0.0
 50
90.0
100
AcDbRotatedDimension
  0
DIMENSION
  5
117
330
5F
100
AcDbEntity
  8
1
100
AcDbDimension
  2
*D17
 10
-138.8749996704026
 20
-53.49999999991965
 30
0.0
 11
-134.3983807750495
 21
-51.78749999991965
 31
0.0
 70
    32
  1
<>
 71
     5
 42
-1.0
 53
0.00013888888889
  3
ME10_DIM_11
100
AcDbAlignedDimension
 13
-129.9749996704027
 23
-58.49999999991965
 33
0.0
 14
-138.8749996704026
 24
-58.49999999991965
 34
0.0
100
AcDbRotatedDimension
  0
ENDBLK
  5
62
330
5F
100
AcDbEntity
  8
0
100
AcDbBlockEnd
  0
BLOCK
  5
64
330
63
100
AcDbEntity
  8
0
100
AcDbBlockBegin
  2
0825503_UC_EM_20x9-select__5
 70
     0
 10
-193.7250008047424
 20
-61.69950048240537
 30
0.0
  3
0825503_UC_EM_20x9-select__5
  1

  0
LINE
  5
118
330
63
100
AcDbEntity
  8
0
  6
Continuous
 62
     7
100
AcDbLine
 10
-187.2750008047423
 20
-59.49999999991968
 30
0.0
 11
-186.9307938837342
 21
-61.45209445321979
 31
0.0
  0
LINE
  5
119
330
63
100
AcDbEntity
  8
0
  6
Continuous
 62
     7
100
AcDbLine
 10
-186.1750008047422
 20
-61.1999999999197
 30
0.0
 11
-186.1750008047422
 21
-61.1582575694153
 31
0.0
  0
LINE
  5
11A
330
63
100
AcDbEntity
  8
0
  6
Continuous
 62
     7
100
AcDbLine
 10
-192.3750008047424
 20
-61.1582575694153
 30
0.0
 11
-192.3750008047424
 21
-61.1999999999197
 31
0.0
  0
LINE
  5
11B
330
63
100
AcDbEntity
  8
0
  6
Continuous
 62
     7
100
AcDbLine
 10
-192.7750008047424
 20
-59.49999999991968
 30
0.0
 11
-192.0750008047423
 21
-60.08736974174383
 31
0.0
  0
LINE
  5
11C
330
63
100
AcDbEntity
  8
0
  6
Continuous
 62
     7
100
AcDbLine
 10
-186.4750008047423
 20
-60.08736974174377
 30
0.0
 11
-185.7750008047423
 21
-59.49999999991968
 31
0.0
  0
LINE
  5
11D
330
63
100
AcDbEntity
  8
0
  6
Continuous
 62
     7
100
AcDbLine
 10
-193.7250008047424
 20
-58.49999999991968
 30
0.0
 11
-193.7250008047424
 21
-59.49999999991968
 31
0.0
  0
LINE
  5
11E
330
63
100
AcDbEntity
  8
0
  6
Continuous
 62
     7
100
AcDbLine
 10
-191.2750008047424
 20
-59.49999999991968
 30
0.0
 11
-187.2750008047423
 21
-59.49999999991968
 31
0.0
  0
LINE
  5
11F
330
63
100
AcDbEntity
  8
0
  6
Continuous
 62
     7
100
AcDbLine
 10
-193.7250008047424
 20
-59.49999999991968
 30
0.0
 11
-192.7750008047424
 21
-59.49999999991968
 31
0.0
  0
LINE
  5
120
330
63
100
AcDbEntity
  8
0
  6
Continuous
 62
     7
100
AcDbLine
 10
-184.8250008047423
 20
-58.49999999991968
 30
0.0
 11
-193.7250008047424
 21
-58.49999999991968
 31
0.0
  0
LINE
  5
121
330
63
100
AcDbEntity
  8
0
  6
Continuous
 62
     7
100
AcDbLine
 10
-185.7750008047423
 20
-59.49999999991968
 30
0.0
 11
-184.8250008047423
 21
-59.49999999991968
 31
0.0
  0
LINE
  5
122
330
63
100
AcDbEntity
  8
0
  6
Continuous
 62
     7
100
AcDbLine
 10
-184.8250008047423
 20
-59.49999999991968
 30
0.0
 11
-184.8250008047423
 21
-58.49999999991968
 31
0.0
  0
LINE
  5
123
330
63
100
AcDbEntity
  8
0
  6
Continuous
 62
     7
100
AcDbLine
 10
-191.6192077257505
 20
-61.45209445321979
 30
0.0
 11
-191.2750008047424
 21
-59.49999999991968
 31
0.0
  0
LINE
  5
124
330
63
100
AcDbEntity
  8
0
  6
Continuous
 62
     7
100
AcDbLine
 10
-192.0750008047423
 20
-60.08736974174383
 30
0.0
 11
-192.0750008047423
 21
-60.444114726561
 31
0.0
  0
LINE
  5
125
330
63
100
AcDbEntity
  8
0
  6
Continuous
 62
     7
100
AcDbLine
 10
-186.4750008047423
 20
-60.444114726561
 30
0.0
 11
-186.4750008047423
 21
-60.08736974174377
 31
0.0
  0
ARC
  5
126
330
63
100
AcDbEntity
  8
0
  6
Continuous
 62
     7
100
AcDbCircle
 10
-191.8750008047424
 20
-61.1582575694153
 30
0.0
 40
0.5000000000000017
100
AcDbArc
 50
134.4270040008046
 51
180.0
  0
ARC
  5
127
330
63
100
AcDbEntity
  8
0
  6
Continuous
 62
     7
100
AcDbCircle
 10
-186.6750008047422
 20
-61.1582575694153
 30
0.0
 40
0.5
100
AcDbArc
 50
0.0
 51
45.57299599920238
  0
ARC
  5
128
330
63
100
AcDbEntity
  8
0
  6
Continuous
 62
     7
100
AcDbCircle
 10
-186.6750008047422
 20
-61.1999999999197
 30
0.0
 40
0.4999999999999873
100
AcDbArc
 50
272.5613218307594
 51
0.0
  0
ARC
  5
129
330
63
100
AcDbEntity
  8
0
  6
Continuous
 62
     7
100
AcDbCircle
 10
-192.5750008047423
 20
-60.444114726561
 30
0.0
 40
0.499999999999942
100
AcDbArc
 50
314.4270040007976
 51
0.0
  0
ARC
  5
12A
330
63
100
AcDbEntity
  8
0
  6
Continuous
 62
     7
100
AcDbCircle
 10
-185.9750008047423
 20
-60.444114726561
 30
0.0
 40
0.5
100
AcDbArc
 50
180.0
 51
225.5729959991954
  0
ARC
  5
12B
330
63
100
AcDbEntity
  8
0
  6
Continuous
 62
     7
100
AcDbCircle
 10
-191.8750008047424
 20
-61.1999999999197
 30
0.0
 40
0.5
100
AcDbArc
 50
180.0
 51
267.4386781692211
  0
ARC
  5
12C
330
63
100
AcDbEntity
  8
0
  6
Continuous
 62
     7
100
AcDbCircle
 10
-186.6353515578305
 20
-61.39999999991966
 30
0.0
 40
0.3000000000000538
100
AcDbArc
 50
190.0000000000091
 51
266.6931641146416
  0
ARC
  5
12D
330
63
100
AcDbEntity
  8
0
  6
Continuous
 62
     7
100
AcDbCircle
 10
-191.9146500516542
 20
-61.39999999991966
 30
0.0
 40
0.3000000000000226
100
AcDbArc
 50
273.3068358853421
 51
349.9999999999908
  0
ENDBLK
  5
65
330
63
100
AcDbEntity
  8
0
100
AcDbBlockEnd
  0
BLOCK
  5
68
330
66
100
AcDbEntity
  8
0
100
AcDbBlockBegin
  2
SA_Rechts1
 70
     0
 10
-213.2750002844116
 20
-60.49999999996004
 30
0.0
  3
SA_Rechts1
  1

  0
INSERT
  5
67
330
66
100
AcDbEntity
  8
0
100
AcDbBlockReference
  2
0825503_UC_EM_20x9-select__5
 10
-193.7250008047424
 20
-61.69950048240537
 30
0.0
  0
ENDBLK
  5
69
330
66
100
AcDbEntity
  8
0
100
AcDbBlockEnd
  0
BLOCK
  5
6B
330
6A
100
AcDbEntity
  8
0
100
AcDbBlockBegin
  2
0825503_UC_EM_20x9-select__6
 70
     0
 10
-172.9000001905266
 20
-61.69950048240526
 30
0.0
  3
0825503_UC_EM_20x9-select__6
  1

  0
LINE
  5
12E
330
6A
100
AcDbEntity
  8
0
  6
Continuous
 62
     7
100
AcDbLine
 10
-153.0500001905266
 20
-58.49999999991957
 30
0.0
 11
-172.9000001905266
 21
-58.49999999991957
 31
0.0
  0
LINE
  5
12F
330
6A
100
AcDbEntity
  8
0
  6
Continuous
 62
     7
100
AcDbLine
 10
-166.2750001905266
 20
-61.69950048240526
 30
0.0
 11
-172.9000001905266
 21
-61.69950048240526
 31
0.0
  0
LINE
  5
130
330
6A
100
AcDbEntity
  8
0
  6
Continuous
 62
     7
100
AcDbLine
 10
-166.2750001905266
 20
-61.69950048240526
 30
0.0
 11
-166.2750001905266
 21
-61.19999999991958
 31
0.0
  0
LINE
  5
131
330
6A
100
AcDbEntity
  8
0
  6
Continuous
 62
     7
100
AcDbLine
 10
-172.9000001905266
 20
-61.69950048240526
 30
0.0
 11
-172.9000001905266
 21
-61.19999999991958
 31
0.0
  0
LINE
  5
132
330
6A
100
AcDbEntity
  8
0
  6
Continuous
 62
     2
100
AcDbLine
 10
-166.2750001905266
 20
-60.80118614798803
 30
0.0
 11
-172.9000001905266
 21
-60.80118614798803
 31
0.0
  0
LINE
  5
133
330
6A
100
AcDbEntity
  8
0
  6
Continuous
 62
     2
100
AcDbLine
 10
-153.0500001905266
 20
-60.80118614798803
 30
0.0
 11
-159.6750001905266
 21
-60.80118614798801
 31
0.0
  0
LINE
  5
134
330
6A
100
AcDbEntity
  8
0
  6
Continuous
 62
     7
100
AcDbLine
 10
-172.9000001905266
 20
-58.49999999991957
 30
0.0
 11
-172.9000001905266
 21
-59.49999999991957
 31
0.0
  0
LINE
  5
135
330
6A
100
AcDbEntity
  8
0
  6
Continuous
 62
     7
100
AcDbLine
 10
-172.9000001905266
 20
-59.49999999991957
 30
0.0
 11
-172.9000001905266
 21
-60.08736974174369
 31
0.0
  0
LINE
  5
136
330
6A
100
AcDbEntity
  8
0
  6
Continuous
 62
     7
100
AcDbLine
 10
-172.9000001905266
 20
-60.44411472656088
 30
0.0
 11
-172.9000001905266
 21
-60.80118614798803
 31
0.0
  0
LINE
  5
137
330
6A
100
AcDbEntity
  8
0
  6
Continuous
 62
     7
100
AcDbLine
 10
-172.9000001905266
 20
-61.15825756941516
 30
0.0
 11
-172.9000001905266
 21
-60.80118614798803
 31
0.0
  0
LINE
  5
138
330
6A
100
AcDbEntity
  8
0
  6
Continuous
 62
     7
100
AcDbLine
 10
-172.9000001905266
 20
-61.15825756941516
 30
0.0
 11
-172.9000001905266
 21
-61.19999999991958
 31
0.0
  0
LINE
  5
139
330
6A
100
AcDbEntity
  8
0
  6
Continuous
 62
     7
100
AcDbLine
 10
-172.9000001905266
 20
-60.08736974174369
 30
0.0
 11
-172.9000001905266
 21
-60.44411472656088
 31
0.0
  0
LINE
  5
13A
330
6A
100
AcDbEntity
  8
0
  6
Continuous
 62
     2
100
AcDbLine
 10
-166.2750001905266
 20
-60.44411472656088
 30
0.0
 11
-172.9000001905266
 21
-60.44411472656088
 31
0.0
  0
LINE
  5
13B
330
6A
100
AcDbEntity
  8
0
  6
Continuous
 62
     2
100
AcDbLine
 10
-153.0500001905266
 20
-60.44411472656088
 30
0.0
 11
-159.6750001905266
 21
-60.44411472656088
 31
0.0
  0
LINE
  5
13C
330
6A
100
AcDbEntity
  8
0
  6
Continuous
 62
     7
100
AcDbLine
 10
-153.0500001905266
 20
-60.08736974174371
 30
0.0
 11
-159.6750001905266
 21
-60.08736974174366
 31
0.0
  0
LINE
  5
13D
330
6A
100
AcDbEntity
  8
0
  6
Continuous
 62
     7
100
AcDbLine
 10
-153.0500001905266
 20
-60.08736974174371
 30
0.0
 11
-153.0500001905266
 21
-60.44411472656088
 31
0.0
  0
LINE
  5
13E
330
6A
100
AcDbEntity
  8
0
  6
Continuous
 62
     7
100
AcDbLine
 10
-159.6750001905266
 20
-60.44411472656088
 30
0.0
 11
-159.6750001905266
 21
-60.08736974174366
 31
0.0
  0
LINE
  5
13F
330
6A
100
AcDbEntity
  8
0
  6
Continuous
 62
     7
100
AcDbLine
 10
-166.2750001905266
 20
-60.08736974174366
 30
0.0
 11
-172.9000001905266
 21
-60.08736974174369
 31
0.0
  0
LINE
  5
140
330
6A
100
AcDbEntity
  8
0
  6
Continuous
 62
     2
100
AcDbLine
 10
-153.0500001905266
 20
-61.19999999991958
 30
0.0
 11
-159.6750001905266
 21
-61.19999999991958
 31
0.0
  0
LINE
  5
141
330
6A
100
AcDbEntity
  8
0
  6
Continuous
 62
     2
100
AcDbLine
 10
-166.2750001905266
 20
-61.19999999991958
 30
0.0
 11
-172.9000001905266
 21
-61.19999999991958
 31
0.0
  0
LINE
  5
142
330
6A
100
AcDbEntity
  8
0
  6
Continuous
 62
     7
100
AcDbLine
 10
-166.2750001905266
 20
-59.49999999991957
 30
0.0
 11
-166.2750001905266
 21
-60.08736974174366
 31
0.0
  0
LINE
  5
143
330
6A
100
AcDbEntity
  8
0
  6
Continuous
 62
     7
100
AcDbLine
 10
-166.2750001905266
 20
-60.44411472656088
 30
0.0
 11
-166.2750001905266
 21
-60.80118614798803
 31
0.0
  0
LINE
  5
144
330
6A
100
AcDbEntity
  8
0
  6
Continuous
 62
     7
100
AcDbLine
 10
-166.2750001905266
 20
-61.15825756941516
 30
0.0
 11
-166.2750001905266
 21
-60.80118614798803
 31
0.0
  0
LINE
  5
145
330
6A
100
AcDbEntity
  8
0
  6
Continuous
 62
     7
100
AcDbLine
 10
-166.2750001905266
 20
-61.15825756941516
 30
0.0
 11
-166.2750001905266
 21
-61.19999999991958
 31
0.0
  0
LINE
  5
146
330
6A
100
AcDbEntity
  8
0
  6
Continuous
 62
     7
100
AcDbLine
 10
-166.2750001905266
 20
-60.08736974174366
 30
0.0
 11
-166.2750001905266
 21
-60.44411472656088
 31
0.0
  0
LINE
  5
147
330
6A
100
AcDbEntity
  8
0
  6
Continuous
 62
     7
100
AcDbLine
 10
-153.0500001905266
 20
-59.49999999991957
 30
0.0
 11
-159.6750001905266
 21
-59.49999999991957
 31
0.0
  0
LINE
  5
148
330
6A
100
AcDbEntity
  8
0
  6
Continuous
 62
     7
100
AcDbLine
 10
-153.0500001905266
 20
-58.49999999991957
 30
0.0
 11
-153.0500001905266
 21
-59.49999999991957
 31
0.0
  0
LINE
  5
149
330
6A
100
AcDbEntity
  8
0
  6
Continuous
 62
     7
100
AcDbLine
 10
-153.0500001905266
 20
-59.49999999991957
 30
0.0
 11
-153.0500001905266
 21
-60.08736974174371
 31
0.0
  0
LINE
  5
14A
330
6A
100
AcDbEntity
  8
0
  6
Continuous
 62
     7
100
AcDbLine
 10
-166.2750001905266
 20
-59.49999999991957
 30
0.0
 11
-172.9000001905266
 21
-59.49999999991957
 31
0.0
  0
LINE
  5
14B
330
6A
100
AcDbEntity
  8
0
  6
Continuous
 62
     7
100
AcDbLine
 10
-159.6750001905266
 20
-60.08736974174366
 30
0.0
 11
-159.6750001905266
 21
-59.49999999991957
 31
0.0
  0
LINE
  5
14C
330
6A
100
AcDbEntity
  8
0
  6
Continuous
 62
     7
100
AcDbLine
 10
-159.6750001905266
 20
-59.49999999991957
 30
0.0
 11
-166.2750001905266
 21
-59.49999999991957
 31
0.0
  0
LINE
  5
14D
330
6A
100
AcDbEntity
  8
0
  6
Continuous
 62
     2
100
AcDbLine
 10
-153.0500001905266
 20
-61.15825756941516
 30
0.0
 11
-159.6750001905266
 21
-61.15825756941516
 31
0.0
  0
LINE
  5
14E
330
6A
100
AcDbEntity
  8
0
  6
Continuous
 62
     7
100
AcDbLine
 10
-153.0500001905266
 20
-60.44411472656088
 30
0.0
 11
-153.0500001905266
 21
-60.80118614798803
 31
0.0
  0
LINE
  5
14F
330
6A
100
AcDbEntity
  8
0
  6
Continuous
 62
     7
100
AcDbLine
 10
-153.0500001905266
 20
-61.15825756941516
 30
0.0
 11
-153.0500001905266
 21
-60.80118614798803
 31
0.0
  0
LINE
  5
150
330
6A
100
AcDbEntity
  8
0
  6
Continuous
 62
     7
100
AcDbLine
 10
-153.0500001905266
 20
-61.69950048240526
 30
0.0
 11
-153.0500001905266
 21
-61.19999999991958
 31
0.0
  0
LINE
  5
151
330
6A
100
AcDbEntity
  8
0
  6
Continuous
 62
     7
100
AcDbLine
 10
-159.6750001905266
 20
-60.44411472656088
 30
0.0
 11
-159.6750001905266
 21
-60.80118614798801
 31
0.0
  0
LINE
  5
152
330
6A
100
AcDbEntity
  8
0
  6
Continuous
 62
     7
100
AcDbLine
 10
-159.6750001905266
 20
-61.15825756941516
 30
0.0
 11
-159.6750001905266
 21
-60.80118614798801
 31
0.0
  0
LINE
  5
153
330
6A
100
AcDbEntity
  8
0
  6
Continuous
 62
     7
100
AcDbLine
 10
-159.6750001905266
 20
-61.69950048240526
 30
0.0
 11
-159.6750001905266
 21
-61.19999999991958
 31
0.0
  0
LINE
  5
154
330
6A
100
AcDbEntity
  8
0
  6
Continuous
 62
     7
100
AcDbLine
 10
-153.0500001905266
 20
-61.69950048240526
 30
0.0
 11
-159.6750001905266
 21
-61.69950048240526
 31
0.0
  0
LINE
  5
155
330
6A
100
AcDbEntity
  8
0
  6
Continuous
 62
     7
100
AcDbLine
 10
-159.6750001905266
 20
-61.19999999991958
 30
0.0
 11
-159.6750001905266
 21
-61.15825756941516
 31
0.0
  0
LINE
  5
156
330
6A
100
AcDbEntity
  8
0
  6
Continuous
 62
     7
100
AcDbLine
 10
-153.0500001905266
 20
-61.15825756941516
 30
0.0
 11
-153.0500001905266
 21
-61.19999999991958
 31
0.0
  0
LINE
  5
157
330
6A
100
AcDbEntity
  8
0
  6
Continuous
 62
     2
100
AcDbLine
 10
-166.2750001905266
 20
-61.15825756941516
 30
0.0
 11
-172.9000001905266
 21
-61.15825756941516
 31
0.0
  0
ENDBLK
  5
6C
330
6A
100
AcDbEntity
  8
0
100
AcDbBlockEnd
  0
BLOCK
  5
6F
330
6D
100
AcDbEntity
  8
0
100
AcDbBlockBegin
  2
Vordans1
 70
     0
 10
-122.349999618541
 20
-60.49999999995993
 30
0.0
  3
Vordans1
  1

  0
INSERT
  5
6E
330
6D
100
AcDbEntity
  8
0
100
AcDbBlockReference
  2
0825503_UC_EM_20x9-select__6
 10
-172.9000001905266
 20
-61.69950048240526
 30
0.0
  0
DIMENSION
  5
162
330
6D
100
AcDbEntity
  8
1
100
AcDbDimension
  2
*D18
 10
-172.9000001905266
 20
-53.49999999991957
 30
0.0
 11
-162.9750001905266
 21
-51.78749999991957
 31
0.0
 70
    32
  1
<>
 71
     5
 42
-1.0
 53
0.00013888888889
  3
ME10_DIM_12
100
AcDbAlignedDimension
 13
-153.0500001905266
 23
-59.49999999991957
 33
0.0
 14
-172.9000001905266
 24
-58.49999999991957
 34
0.0
100
AcDbRotatedDimension
  0
ENDBLK
  5
70
330
6D
100
AcDbEntity
  8
0
100
AcDbBlockEnd
  0
BLOCK
  5
72
330
71
100
AcDbEntity
  8
0
100
AcDbBlockBegin
  2
_rahmen
 70
     0
 10
-146.526210791249
 20
-271.6457593733221
 30
0.0
  3
_rahmen
  1

  0
LINE
  5
163
330
71
100
AcDbEntity
  8
1
  6
Continuous
 62
     6
100
AcDbLine
 10
-276.071015317999
 20
-241.1457593733219
 30
0.0
 11
-146.5262107912473
 21
-241.1457593733219
 31
0.0
  0
LINE
  5
164
330
71
100
AcDbEntity
  8
1
  6
Continuous
 62
     7
100
AcDbLine
 10
-257.871015317999
 20
-262.3957593733219
 30
0.0
 11
-239.6710153179991
 21
-262.3957593733219
 31
0.0
  0
LINE
  5
165
330
71
100
AcDbEntity
  8
1
  6
Continuous
 62
     6
100
AcDbLine
 10
-257.871015317999
 20
-266.6457593733219
 30
0.0
 11
-276.071015317999
 21
-266.6457593733221
 31
0.0
  0
LINE
  5
166
330
71
100
AcDbEntity
  8
1
  6
Continuous
 62
     7
100
AcDbLine
 10
-257.871015317999
 20
-262.3957593733219
 30
0.0
 11
-257.871015317999
 21
-266.6457593733219
 31
0.0
  0
LINE
  5
167
330
71
100
AcDbEntity
  8
1
  6
Continuous
 62
     7
100
AcDbLine
 10
-239.6710153179991
 20
-262.3957593733219
 30
0.0
 11
-239.6710153179991
 21
-266.6457593733221
 31
0.0
  0
LINE
  5
168
330
71
100
AcDbEntity
  8
1
  6
Continuous
 62
     7
100
AcDbLine
 10
-276.071015317999
 20
-262.3957593733221
 30
0.0
 11
-276.071015317999
 21
-266.6457593733221
 31
0.0
  0
LINE
  5
169
330
71
100
AcDbEntity
  8
1
  6
Continuous
 62
     7
100
AcDbLine
 10
-276.071015317999
 20
-262.3957593733221
 30
0.0
 11
-257.871015317999
 21
-262.3957593733219
 31
0.0
  0
LINE
  5
16A
330
71
100
AcDbEntity
  8
1
  6
Continuous
 62
     2
100
AcDbLine
 10
-266.8343604314364
 20
-243.020759373322
 30
0.0
 11
-266.8343604314364
 21
-248.020759373322
 31
0.0
  0
LINE
  5
16B
330
71
100
AcDbEntity
  8
1
  6
Continuous
 62
     2
100
AcDbLine
 10
-266.8343604314364
 20
-248.020759373322
 30
0.0
 11
-271.8343604314364
 21
-246.770759373322
 31
0.0
  0
LINE
  5
16C
330
71
100
AcDbEntity
  8
1
  6
Continuous
 62
     2
100
AcDbLine
 10
-271.8343604314364
 20
-246.770759373322
 30
0.0
 11
-271.8343604314364
 21
-244.270759373322
 31
0.0
  0
LINE
  5
16D
330
71
100
AcDbEntity
  8
1
  6
Continuous
 62
     2
100
AcDbLine
 10
-271.8343604314364
 20
-244.270759373322
 30
0.0
 11
-266.8343604314364
 21
-243.020759373322
 31
0.0
  0
LINE
  5
16E
330
71
100
AcDbEntity
  8
1
  6
Continuous
 62
     6
100
AcDbLine
 10
-398.5262107912472
 20
-266.6457593733219
 30
0.0
 11
-433.5262107912471
 21
-266.6457593733219
 31
0.0
  0
LINE
  5
16F
330
71
100
AcDbEntity
  8
1
  6
Continuous
 62
     6
100
AcDbLine
 10
-146.5262107912473
 20
-249.6457593733219
 30
0.0
 11
-146.5262107912477
 21
-258.1457593733219
 31
0.0
  0
LINE
  5
170
330
71
100
AcDbEntity
  8
1
  6
Continuous
 62
     6
100
AcDbLine
 10
-239.6710153179991
 20
-266.6457593733221
 30
0.0
 11
-240.026210791249
 21
-266.6457593733219
 31
0.0
  0
LINE
  5
171
330
71
100
AcDbEntity
  8
1
  6
Continuous
 62
     6
100
AcDbLine
 10
-392.3262107912492
 20
-266.6457593733221
 30
0.0
 11
-398.5262107912472
 21
-266.6457593733219
 31
0.0
  0
LINE
  5
172
330
71
100
AcDbEntity
  8
1
  6
Continuous
 62
     7
100
AcDbLine
 10
-239.6710153179991
 20
-249.6457593733219
 30
0.0
 11
-239.6710153179991
 21
-262.3957593733219
 31
0.0
  0
LINE
  5
173
330
71
100
AcDbEntity
  8
1
  6
Continuous
 62
     7
100
AcDbLine
 10
-276.071015317999
 20
-249.6457593733219
 30
0.0
 11
-276.071015317999
 21
-262.3957593733221
 31
0.0
  0
LINE
  5
174
330
71
100
AcDbEntity
  8
1
  6
Continuous
 62
     6
100
AcDbLine
 10
-290.026210791249
 20
-266.6457593733219
 30
0.0
 11
-340.0262107912492
 21
-266.6457593733219
 31
0.0
  0
LINE
  5
175
330
71
100
AcDbEntity
  8
1
  6
Continuous
 62
     6
100
AcDbLine
 10
-392.3262107912492
 20
-266.6457593733221
 30
0.0
 11
-390.026210791249
 21
-266.6457593733219
 31
0.0
  0
LINE
  5
176
330
71
100
AcDbEntity
  8
1
  6
Continuous
 62
     6
100
AcDbLine
 10
-239.6710153179991
 20
-266.6457593733221
 30
0.0
 11
-190.026210791249
 21
-266.6457593733219
 31
0.0
  0
LINE
  5
177
330
71
100
AcDbEntity
  8
1
  6
Continuous
 62
     6
100
AcDbLine
 10
-146.526210791249
 20
-266.6457593733219
 30
0.0
 11
-146.5262107912477
 21
-258.1457593733219
 31
0.0
  0
LINE
  5
178
330
71
100
AcDbEntity
  8
1
  6
Continuous
 62
     2
100
AcDbLine
 10
-438.5262107912481
 20
-266.6457593733219
 30
0.0
 11
-438.5262107912481
 21
-271.6457593733221
 31
0.0
  0
LINE
  5
179
330
71
100
AcDbEntity
  8
1
  6
Continuous
 62
     2
100
AcDbLine
 10
-433.5262107912471
 20
-266.6457593733219
 30
0.0
 11
-438.5262107912481
 21
-266.6457593733219
 31
0.0
  0
LINE
  5
17A
330
71
100
AcDbEntity
  8
1
  6
Continuous
 62
     2
100
AcDbLine
 10
-433.5262107912471
 20
-271.6457593733221
 30
0.0
 11
-390.026210791249
 21
-271.6457593733221
 31
0.0
  0
LINE
  5
17B
330
71
100
AcDbEntity
  8
1
  6
Continuous
 62
     2
100
AcDbLine
 10
-433.5262107912471
 20
-266.6457593733219
 30
0.0
 11
-433.5262107912471
 21
-271.6457593733221
 31
0.0
  0
LINE
  5
17C
330
71
100
AcDbEntity
  8
1
  6
Continuous
 62
     2
100
AcDbLine
 10
-190.026210791249
 20
-271.6457593733221
 30
0.0
 11
-240.026210791249
 21
-271.6457593733221
 31
0.0
  0
LINE
  5
17D
330
71
100
AcDbEntity
  8
1
  6
Continuous
 62
     2
100
AcDbLine
 10
-190.026210791249
 20
-271.6457593733221
 30
0.0
 11
-190.026210791249
 21
-266.6457593733219
 31
0.0
  0
LINE
  5
17E
330
71
100
AcDbEntity
  8
1
  6
Continuous
 62
     2
100
AcDbLine
 10
-240.026210791249
 20
-271.6457593733221
 30
0.0
 11
-240.026210791249
 21
-266.6457593733219
 31
0.0
  0
LINE
  5
17F
330
71
100
AcDbEntity
  8
1
  6
Continuous
 62
     2
100
AcDbLine
 10
-290.026210791249
 20
-271.6457593733221
 30
0.0
 11
-240.026210791249
 21
-271.6457593733221
 31
0.0
  0
LINE
  5
180
330
71
100
AcDbEntity
  8
1
  6
Continuous
 62
     2
100
AcDbLine
 10
-290.026210791249
 20
-271.6457593733221
 30
0.0
 11
-290.026210791249
 21
-266.6457593733219
 31
0.0
  0
LINE
  5
181
330
71
100
AcDbEntity
  8
1
  6
Continuous
 62
     2
100
AcDbLine
 10
-340.0262107912492
 20
-271.6457593733221
 30
0.0
 11
-290.026210791249
 21
-271.6457593733221
 31
0.0
  0
LINE
  5
182
330
71
100
AcDbEntity
  8
1
  6
Continuous
 62
     2
100
AcDbLine
 10
-340.0262107912492
 20
-271.6457593733221
 30
0.0
 11
-340.0262107912492
 21
-266.6457593733219
 31
0.0
  0
LINE
  5
183
330
71
100
AcDbEntity
  8
1
  6
Continuous
 62
     2
100
AcDbLine
 10
-390.026210791249
 20
-271.6457593733221
 30
0.0
 11
-340.0262107912492
 21
-271.6457593733221
 31
0.0
  0
LINE
  5
184
330
71
100
AcDbEntity
  8
1
  6
Continuous
 62
     2
100
AcDbLine
 10
-390.026210791249
 20
-271.6457593733221
 30
0.0
 11
-390.026210791249
 21
-266.6457593733219
 31
0.0
  0
LINE
  5
185
330
71
100
AcDbEntity
  8
1
  6
Continuous
 62
     6
100
AcDbLine
 10
-433.5262107912473
 20
-216.6457593733218
 30
0.0
 11
-433.5262107912471
 21
-266.6457593733219
 31
0.0
  0
LINE
  5
186
330
71
100
AcDbEntity
  8
1
  6
Continuous
 62
     2
100
AcDbLine
 10
-438.5262107912481
 20
-216.6457593733218
 30
0.0
 11
-438.5262107912481
 21
-266.6457593733219
 31
0.0
  0
LINE
  5
187
330
71
100
AcDbEntity
  8
1
  6
Continuous
 62
     2
100
AcDbLine
 10
-438.5262107912481
 20
-216.6457593733218
 30
0.0
 11
-433.5262107912473
 21
-216.6457593733218
 31
0.0
  0
LINE
  5
188
330
71
100
AcDbEntity
  8
1
  6
Continuous
 62
     6
100
AcDbLine
 10
-433.5262107912475
 20
-166.645759373322
 30
0.0
 11
-433.5262107912473
 21
-216.6457593733218
 31
0.0
  0
LINE
  5
189
330
71
100
AcDbEntity
  8
1
  6
Continuous
 62
     2
100
AcDbLine
 10
-438.5262107912481
 20
-166.645759373322
 30
0.0
 11
-438.5262107912481
 21
-216.6457593733218
 31
0.0
  0
LINE
  5
18A
330
71
100
AcDbEntity
  8
1
  6
Continuous
 62
     2
100
AcDbLine
 10
-438.5262107912481
 20
-166.645759373322
 30
0.0
 11
-433.5262107912475
 21
-166.645759373322
 31
0.0
  0
LINE
  5
18B
330
71
100
AcDbEntity
  8
1
  6
Continuous
 62
     6
100
AcDbLine
 10
-433.526210791248
 20
-116.6457593733219
 30
0.0
 11
-433.5262107912475
 21
-166.645759373322
 31
0.0
  0
LINE
  5
18C
330
71
100
AcDbEntity
  8
1
  6
Continuous
 62
     2
100
AcDbLine
 10
-438.5262107912481
 20
-116.6457593733219
 30
0.0
 11
-438.5262107912481
 21
-166.645759373322
 31
0.0
  0
LINE
  5
18D
330
71
100
AcDbEntity
  8
1
  6
Continuous
 62
     2
100
AcDbLine
 10
-438.5262107912481
 20
-116.6457593733219
 30
0.0
 11
-433.526210791248
 21
-116.6457593733219
 31
0.0
  0
LINE
  5
18E
330
71
100
AcDbEntity
  8
1
  6
Continuous
 62
     6
100
AcDbLine
 10
-433.5262107912481
 20
-81.64575937332194
 30
0.0
 11
-433.526210791248
 21
-116.6457593733219
 31
0.0
  0
LINE
  5
18F
330
71
100
AcDbEntity
  8
1
  6
Continuous
 62
     2
100
AcDbLine
 10
-438.5262107912481
 20
-61.64575937332194
 30
0.0
 11
-438.5262107912481
 21
-116.6457593733219
 31
0.0
  0
LINE
  5
190
330
71
100
AcDbEntity
  8
1
  6
Continuous
 62
     2
100
AcDbLine
 10
-438.5262107912481
 20
-271.6457593733221
 30
0.0
 11
-433.5262107912471
 21
-271.6457593733221
 31
0.0
  0
LINE
  5
191
330
71
100
AcDbEntity
  8
1
  6
Continuous
 62
     2
100
AcDbLine
 10
-290.026210791249
 20
-61.64575937332194
 30
0.0
 11
-290.026210791249
 21
-70.85445121802326
 31
0.0
  0
LINE
  5
192
330
71
100
AcDbEntity
  8
1
  6
Continuous
 62
     2
100
AcDbLine
 10
-290.026210791249
 20
-61.64575937332194
 30
0.0
 11
-438.5262107912481
 21
-61.64575937332194
 31
0.0
  0
LINE
  5
193
330
71
100
AcDbEntity
  8
1
  6
Continuous
 62
     2
100
AcDbLine
 10
-141.52621079125
 20
-266.6457593733219
 30
0.0
 11
-141.52621079125
 21
-216.6457593733218
 31
0.0
  0
LINE
  5
194
330
71
100
AcDbEntity
  8
1
  6
Continuous
 62
     2
100
AcDbLine
 10
-141.52621079125
 20
-116.6457593733219
 30
0.0
 11
-141.52621079125
 21
-61.64575937332194
 31
0.0
  0
LINE
  5
195
330
71
100
AcDbEntity
  8
1
  6
Continuous
 62
     6
100
AcDbLine
 10
-146.5262107912498
 20
-116.6457593733219
 30
0.0
 11
-146.52621079125
 21
-81.64575937332194
 31
0.0
  0
LINE
  5
196
330
71
100
AcDbEntity
  8
1
  6
Continuous
 62
     2
100
AcDbLine
 10
-146.5262107912498
 20
-116.6457593733219
 30
0.0
 11
-141.52621079125
 21
-116.6457593733219
 31
0.0
  0
LINE
  5
197
330
71
100
AcDbEntity
  8
1
  6
Continuous
 62
     2
100
AcDbLine
 10
-141.52621079125
 20
-166.645759373322
 30
0.0
 11
-141.52621079125
 21
-116.6457593733219
 31
0.0
  0
LINE
  5
198
330
71
100
AcDbEntity
  8
1
  6
Continuous
 62
     6
100
AcDbLine
 10
-146.5262107912486
 20
-166.645759373322
 30
0.0
 11
-146.5262107912498
 21
-116.6457593733219
 31
0.0
  0
LINE
  5
199
330
71
100
AcDbEntity
  8
1
  6
Continuous
 62
     2
100
AcDbLine
 10
-146.5262107912486
 20
-166.645759373322
 30
0.0
 11
-141.52621079125
 21
-166.645759373322
 31
0.0
  0
LINE
  5
19A
330
71
100
AcDbEntity
  8
1
  6
Continuous
 62
     2
100
AcDbLine
 10
-141.52621079125
 20
-216.6457593733218
 30
0.0
 11
-141.52621079125
 21
-166.645759373322
 31
0.0
  0
LINE
  5
19B
330
71
100
AcDbEntity
  8
1
  6
Continuous
 62
     6
100
AcDbLine
 10
-146.5262107912481
 20
-216.6457593733218
 30
0.0
 11
-146.5262107912486
 21
-166.645759373322
 31
0.0
  0
LINE
  5
19C
330
71
100
AcDbEntity
  8
1
  6
Continuous
 62
     2
100
AcDbLine
 10
-146.5262107912481
 20
-216.6457593733218
 30
0.0
 11
-141.52621079125
 21
-216.6457593733218
 31
0.0
  0
LINE
  5
19D
330
71
100
AcDbEntity
  8
1
  6
Continuous
 62
     6
100
AcDbLine
 10
-146.52621079125
 20
-81.64575937332194
 30
0.0
 11
-433.5262107912481
 21
-81.64575937332194
 31
0.0
  0
LINE
  5
19E
330
71
100
AcDbEntity
  8
1
  6
Continuous
 62
     2
100
AcDbLine
 10
-141.52621079125
 20
-61.64575937332194
 30
0.0
 11
-290.026210791249
 21
-61.64575937332194
 31
0.0
  0
LINE
  5
19F
330
71
100
AcDbEntity
  8
1
  6
Continuous
 62
     6
100
AcDbLine
 10
-146.5262107912473
 20
-249.6457593733219
 30
0.0
 11
-146.5262107912481
 21
-216.6457593733218
 31
0.0
  0
LINE
  5
1A0
330
71
100
AcDbEntity
  8
1
  6
Continuous
 62
     2
100
AcDbLine
 10
-146.526210791249
 20
-271.6457593733221
 30
0.0
 11
-190.026210791249
 21
-271.6457593733221
 31
0.0
  0
LINE
  5
1A1
330
71
100
AcDbEntity
  8
1
  6
Continuous
 62
     2
100
AcDbLine
 10
-141.52621079125
 20
-271.6457593733221
 30
0.0
 11
-146.526210791249
 21
-271.6457593733221
 31
0.0
  0
LINE
  5
1A2
330
71
100
AcDbEntity
  8
1
  6
Continuous
 62
     2
100
AcDbLine
 10
-141.52621079125
 20
-271.6457593733221
 30
0.0
 11
-141.52621079125
 21
-266.6457593733219
 31
0.0
  0
LINE
  5
1A3
330
71
100
AcDbEntity
  8
1
  6
Continuous
 62
     6
100
AcDbLine
 10
-276.071015317999
 20
-249.6457593733219
 30
0.0
 11
-239.6710153179991
 21
-249.6457593733219
 31
0.0
  0
LINE
  5
1A4
330
71
100
AcDbEntity
  8
1
  6
Continuous
 62
     2
100
AcDbLine
 10
-146.526210791249
 20
-266.6457593733219
 30
0.0
 11
-146.526210791249
 21
-271.6457593733221
 31
0.0
  0
LINE
  5
1A5
330
71
100
AcDbEntity
  8
1
  6
Continuous
 62
     2
100
AcDbLine
 10
-146.526210791249
 20
-266.6457593733219
 30
0.0
 11
-141.52621079125
 21
-266.6457593733219
 31
0.0
  0
LINE
  5
1A6
330
71
100
AcDbEntity
  8
1
  6
Continuous
 62
     6
100
AcDbLine
 10
-240.026210791249
 20
-266.6457593733219
 30
0.0
 11
-257.871015317999
 21
-266.6457593733219
 31
0.0
  0
LINE
  5
1A7
330
71
100
AcDbEntity
  8
1
  6
Continuous
 62
     6
100
AcDbLine
 10
-190.026210791249
 20
-266.6457593733219
 30
0.0
 11
-146.526210791249
 21
-266.6457593733219
 31
0.0
  0
LINE
  5
1A8
330
71
100
AcDbEntity
  8
1
  6
Continuous
 62
     6
100
AcDbLine
 10
-340.0262107912492
 20
-266.6457593733219
 30
0.0
 11
-345.071015317999
 21
-266.6457593733219
 31
0.0
  0
LINE
  5
1A9
330
71
100
AcDbEntity
  8
1
  6
Continuous
 62
     6
100
AcDbLine
 10
-290.026210791249
 20
-266.6457593733219
 30
0.0
 11
-276.071015317999
 21
-266.6457593733221
 31
0.0
  0
LINE
  5
1AA
102
{ACAD_REACTORS
330
294
330
295
102
}
330
71
100
AcDbEntity
  8
0
  6
Continuous
 62
     2
100
AcDbLine
 10
-268.5563893758522
 20
-254.5732446171098
 30
0.0
 11
-268.5563893758522
 21
-253.967709328603
 31
0.0
  0
LINE
  5
1AB
102
{ACAD_REACTORS
330
294
330
295
102
}
330
71
100
AcDbEntity
  8
0
  6
Continuous
 62
     2
100
AcDbLine
 10
-268.5563893758522
 20
-257.3733792237412
 30
0.0
 11
-268.5563893758522
 21
-256.791527817046
 31
0.0
  0
LINE
  5
1AC
102
{ACAD_REACTORS
330
296
330
297
102
}
330
71
100
AcDbEntity
  8
0
  6
Continuous
 62
     2
100
AcDbLine
 10
-245.926902940373
 20
-257.0837151556182
 30
0.0
 11
-245.926902940373
 21
-259.3522593733056
 31
0.0
  0
LINE
  5
1AD
102
{ACAD_REACTORS
330
296
330
297
102
}
330
71
100
AcDbEntity
  8
0
  6
Continuous
 62
     2
100
AcDbLine
 10
-247.3079567193606
 20
-256.298449849495
 30
0.0
 11
-243.9230112007319
 21
-256.2984498494946
 31
0.0
  0
LINE
  5
1AE
102
{ACAD_REACTORS
330
296
330
297
102
}
330
71
100
AcDbEntity
  8
0
  6
Continuous
 62
     2
100
AcDbLine
 10
-243.9230112007319
 20
-257.0837151556182
 30
0.0
 11
-243.9230112007319
 21
-256.2984498494946
 31
0.0
  0
LINE
  5
1AF
102
{ACAD_REACTORS
330
296
330
297
102
}
330
71
100
AcDbEntity
  8
0
  6
Continuous
 62
     2
100
AcDbLine
 10
-244.7341102382053
 20
-257.0837151556182
 30
0.0
 11
-243.9230112007319
 21
-257.0837151556182
 31
0.0
  0
LINE
  5
1B0
102
{ACAD_REACTORS
330
296
330
297
102
}
330
71
100
AcDbEntity
  8
0
  6
Continuous
 62
     2
100
AcDbLine
 10
-244.7341102382053
 20
-259.3522593733056
 30
0.0
 11
-244.7341102382053
 21
-257.0837151556182
 31
0.0
  0
LINE
  5
1B1
102
{ACAD_REACTORS
330
296
330
297
102
}
330
71
100
AcDbEntity
  8
0
  6
Continuous
 62
     2
100
AcDbLine
 10
-245.926902940373
 20
-259.3522593733056
 30
0.0
 11
-244.7341102382053
 21
-259.3522593733056
 31
0.0
  0
LINE
  5
1B2
102
{ACAD_REACTORS
330
28C
330
28D
102
}
330
71
100
AcDbEntity
  8
0
  6
Continuous
 62
     2
100
AcDbLine
 10
-246.6234938784375
 20
-252.9392593733201
 30
0.0
 11
-248.0262180961868
 21
-252.9392593733201
 31
0.0
  0
LINE
  5
1B3
102
{ACAD_REACTORS
330
28C
330
28D
102
}
330
71
100
AcDbEntity
  8
0
  6
Continuous
 62
     2
100
AcDbLine
 10
-246.6234938784375
 20
-252.9392593733201
 30
0.0
 11
-246.0223263565457
 21
-253.6190826948756
 31
0.0
  0
LINE
  5
1B4
102
{ACAD_REACTORS
330
28C
330
28D
102
}
330
71
100
AcDbEntity
  8
0
  6
Continuous
 62
     2
100
AcDbLine
 10
-246.0223263565457
 20
-253.6190826948756
 30
0.0
 11
-245.4211588346529
 21
-252.9392593733201
 31
0.0
  0
LINE
  5
1B5
102
{ACAD_REACTORS
330
28C
330
28D
102
}
330
71
100
AcDbEntity
  8
0
  6
Continuous
 62
     2
100
AcDbLine
 10
-245.3209642476722
 20
-254.4122099033563
 30
0.0
 11
-244.0184346169057
 21
-252.9392593733201
 31
0.0
  0
LINE
  5
1B6
102
{ACAD_REACTORS
330
28C
330
28D
102
}
330
71
100
AcDbEntity
  8
0
  6
Continuous
 62
     2
100
AcDbLine
 10
-245.3209642476722
 20
-254.4122099033563
 30
0.0
 11
-243.9230112007319
 21
-255.9930688971313
 31
0.0
  0
LINE
  5
1B7
102
{ACAD_REACTORS
330
28C
330
28D
102
}
330
71
100
AcDbEntity
  8
0
  6
Continuous
 62
     2
100
AcDbLine
 10
-245.3257354184802
 20
-255.9930688971313
 30
0.0
 11
-243.9230112007319
 21
-255.9930688971313
 31
0.0
  0
LINE
  5
1B8
102
{ACAD_REACTORS
330
28C
330
28D
102
}
330
71
100
AcDbEntity
  8
0
  6
Continuous
 62
     2
100
AcDbLine
 10
-246.0223263565457
 20
-255.2053371118376
 30
0.0
 11
-245.3257354184802
 21
-255.9930688971313
 31
0.0
  0
LINE
  5
1B9
102
{ACAD_REACTORS
330
28A
330
28B
102
}
330
71
100
AcDbEntity
  8
0
  6
Continuous
 62
     2
100
AcDbLine
 10
-249.4814251928294
 20
-252.9392593733201
 30
0.0
 11
-248.2409207825765
 21
-252.9392593733201
 31
0.0
  0
LINE
  5
1BA
102
{ACAD_REACTORS
330
28A
330
28B
102
}
330
71
100
AcDbEntity
  8
0
  6
Continuous
 62
     2
100
AcDbLine
 10
-248.2409207825765
 20
-252.9392593733201
 30
0.0
 11
-248.2409207825765
 21
-255.9930688971313
 31
0.0
  0
LINE
  5
1BB
102
{ACAD_REACTORS
330
28A
330
28B
102
}
330
71
100
AcDbEntity
  8
0
  6
Continuous
 62
     2
100
AcDbLine
 10
-249.4814251928294
 20
-255.9930688971313
 30
0.0
 11
-249.4814251928294
 21
-252.9392593733201
 31
0.0
  0
LINE
  5
1BC
102
{ACAD_REACTORS
330
288
330
289
102
}
330
71
100
AcDbEntity
  8
0
  6
Continuous
 62
     2
100
AcDbLine
 10
-250.949735275367
 20
-258.1307355637812
 30
0.0
 11
-250.6495700381746
 21
-257.3629205977944
 31
0.0
  0
LINE
  5
1BD
102
{ACAD_REACTORS
330
288
330
289
102
}
330
71
100
AcDbEntity
  8
0
  6
Continuous
 62
     2
100
AcDbLine
 10
-251.4272708799878
 20
-259.3522593733056
 30
0.0
 11
-251.215790826512
 21
-258.8112988290877
 31
0.0
  0
LINE
  5
1BE
102
{ACAD_REACTORS
330
288
330
289
102
}
330
71
100
AcDbEntity
  8
0
  6
Continuous
 62
     2
100
AcDbLine
 10
-251.2698222433015
 20
-256.2984498494946
 30
0.0
 11
-252.6677752902408
 21
-259.3522593733056
 31
0.0
  0
LINE
  5
1BF
102
{ACAD_REACTORS
330
288
330
289
102
}
330
71
100
AcDbEntity
  8
0
  6
Continuous
 62
     2
100
AcDbLine
 10
-248.6313647861085
 20
-259.3522593733056
 30
0.0
 11
-249.8718691963624
 21
-259.3522593733056
 31
0.0
  0
LINE
  5
1C0
102
{ACAD_REACTORS
330
288
330
289
102
}
330
71
100
AcDbEntity
  8
0
  6
Continuous
 62
     2
100
AcDbLine
 10
-251.215790826512
 20
-258.8112988290877
 30
0.0
 11
-250.0833492498382
 21
-258.8112988290877
 31
0.0
  0
LINE
  5
1C1
102
{ACAD_REACTORS
330
286
330
287
102
}
330
71
100
AcDbEntity
  8
0
  6
Continuous
 62
     2
100
AcDbLine
 10
-254.825287429423
 20
-257.0837151556182
 30
0.0
 11
-254.0141883919484
 21
-257.0837151556182
 31
0.0
  0
LINE
  5
1C2
102
{ACAD_REACTORS
330
286
330
287
102
}
330
71
100
AcDbEntity
  8
0
  6
Continuous
 62
     2
100
AcDbLine
 10
-252.0102966523094
 20
-256.2984498494946
 30
0.0
 11
-254.825287429423
 21
-256.2984498494946
 31
0.0
  0
LINE
  5
1C3
102
{ACAD_REACTORS
330
286
330
287
102
}
330
71
100
AcDbEntity
  8
0
  6
Continuous
 62
     2
100
AcDbLine
 10
-252.0102966523094
 20
-257.0837151556182
 30
0.0
 11
-252.0102966523094
 21
-256.2984498494946
 31
0.0
  0
LINE
  5
1C4
102
{ACAD_REACTORS
330
286
330
287
102
}
330
71
100
AcDbEntity
  8
0
  6
Continuous
 62
     2
100
AcDbLine
 10
-252.8213956897819
 20
-257.0837151556182
 30
0.0
 11
-252.0102966523094
 21
-257.0837151556182
 31
0.0
  0
LINE
  5
1C5
102
{ACAD_REACTORS
330
286
330
287
102
}
330
71
100
AcDbEntity
  8
0
  6
Continuous
 62
     2
100
AcDbLine
 10
-252.8213956897819
 20
-259.3522593733056
 30
0.0
 11
-252.8213956897819
 21
-257.0837151556182
 31
0.0
  0
LINE
  5
1C6
102
{ACAD_REACTORS
330
284
330
285
102
}
330
71
100
AcDbEntity
  8
0
  6
Continuous
 62
     2
100
AcDbLine
 10
-252.1532808456839
 20
-255.9930688971313
 30
0.0
 11
-252.1532808456839
 21
-254.6842933869266
 31
0.0
  0
LINE
  5
1C7
102
{ACAD_REACTORS
330
284
330
285
102
}
330
71
100
AcDbEntity
  8
0
  6
Continuous
 62
     2
100
AcDbLine
 10
-253.3460735478504
 20
-252.9392593733201
 30
0.0
 11
-253.3460735478504
 21
-255.9930688971313
 31
0.0
  0
LINE
  5
1C8
102
{ACAD_REACTORS
330
284
330
285
102
}
330
71
100
AcDbEntity
  8
0
  6
Continuous
 62
     2
100
AcDbLine
 10
-252.1532808456839
 20
-252.9392593733201
 30
0.0
 11
-253.3460735478504
 21
-252.9392593733201
 31
0.0
  0
LINE
  5
1C9
102
{ACAD_REACTORS
330
284
330
285
102
}
330
71
100
AcDbEntity
  8
0
  6
Continuous
 62
     2
100
AcDbLine
 10
-250.9127764354299
 20
-252.9392593733201
 30
0.0
 11
-250.9127764354299
 21
-254.2480348835253
 31
0.0
  0
LINE
  5
1CA
102
{ACAD_REACTORS
330
282
330
283
102
}
330
71
100
AcDbEntity
  8
0
  6
Continuous
 62
     2
100
AcDbLine
 10
-258.5945123682701
 20
-256.2984498494946
 30
0.0
 11
-258.5945123682701
 21
-259.3522593733056
 31
0.0
  0
LINE
  5
1CB
102
{ACAD_REACTORS
330
282
330
283
102
}
330
71
100
AcDbEntity
  8
0
  6
Continuous
 62
     2
100
AcDbLine
 10
-257.4017196661025
 20
-256.2984498494946
 30
0.0
 11
-258.5945123682701
 21
-256.2984498494946
 31
0.0
  0
LINE
  5
1CC
102
{ACAD_REACTORS
330
282
330
283
102
}
330
71
100
AcDbEntity
  8
0
  6
Continuous
 62
     2
100
AcDbLine
 10
-256.1612152558496
 20
-259.3522593733056
 30
0.0
 11
-254.9684225536832
 21
-259.3522593733056
 31
0.0
  0
LINE
  5
1CD
102
{ACAD_REACTORS
330
282
330
283
102
}
330
71
100
AcDbEntity
  8
0
  6
Continuous
 62
     2
100
AcDbLine
 10
-258.5945123682701
 20
-259.3522593733056
 30
0.0
 11
-257.4017196661025
 21
-259.3522593733056
 31
0.0
  0
LINE
  5
1CE
102
{ACAD_REACTORS
330
292
330
293
102
}
330
71
100
AcDbEntity
  8
0
  6
Continuous
 62
     2
100
AcDbLine
 10
-254.920559914711
 20
-254.1171573325048
 30
0.0
 11
-254.920559914711
 21
-253.6372729787631
 31
0.0
  0
LINE
  5
1CF
102
{ACAD_REACTORS
330
292
330
293
102
}
330
71
100
AcDbEntity
  8
0
  6
Continuous
 62
     2
100
AcDbLine
 10
-253.5846320882833
 20
-254.1171573325048
 30
0.0
 11
-254.920559914711
 21
-254.1171573325048
 31
0.0
  0
LINE
  5
1D0
102
{ACAD_REACTORS
330
292
330
293
102
}
330
71
100
AcDbEntity
  8
0
  6
Continuous
 62
     2
100
AcDbLine
 10
-253.5846320882833
 20
-254.8151709379471
 30
0.0
 11
-253.5846320882833
 21
-254.1171573325048
 31
0.0
  0
LINE
  5
1D1
102
{ACAD_REACTORS
330
292
330
293
102
}
330
71
100
AcDbEntity
  8
0
  6
Continuous
 62
     2
100
AcDbLine
 10
-254.920559914711
 20
-254.8151709379471
 30
0.0
 11
-253.5846320882833
 21
-254.8151709379471
 31
0.0
  0
LINE
  5
1D2
102
{ACAD_REACTORS
330
280
330
281
102
}
330
71
100
AcDbEntity
  8
0
  6
Continuous
 62
     2
100
AcDbLine
 10
-258.4035146050379
 20
-252.9392593733201
 30
0.0
 11
-258.4035146050379
 21
-255.9930688971313
 31
0.0
  0
LINE
  5
1D3
102
{ACAD_REACTORS
330
280
330
281
102
}
330
71
100
AcDbEntity
  8
0
  6
Continuous
 62
     2
100
AcDbLine
 10
-258.4035146050379
 20
-255.9930688971313
 30
0.0
 11
-259.5963073072043
 21
-255.9930688971313
 31
0.0
  0
LINE
  5
1D4
102
{ACAD_REACTORS
330
280
330
281
102
}
330
71
100
AcDbEntity
  8
0
  6
Continuous
 62
     2
100
AcDbLine
 10
-259.5963073072043
 20
-255.9930688971313
 30
0.0
 11
-259.5963073072043
 21
-254.8587967882875
 31
0.0
  0
LINE
  5
1D5
102
{ACAD_REACTORS
330
280
330
281
102
}
330
71
100
AcDbEntity
  8
0
  6
Continuous
 62
     2
100
AcDbLine
 10
-260.6459648851118
 20
-255.9930688971313
 30
0.0
 11
-261.8387575872783
 21
-255.9930688971313
 31
0.0
  0
LINE
  5
1D6
102
{ACAD_REACTORS
330
280
330
281
102
}
330
71
100
AcDbEntity
  8
0
  6
Continuous
 62
     2
100
AcDbLine
 10
-261.8387575872783
 20
-252.9392593733201
 30
0.0
 11
-260.6459648851118
 21
-252.9392593733201
 31
0.0
  0
LINE
  5
1D7
102
{ACAD_REACTORS
330
280
330
281
102
}
330
71
100
AcDbEntity
  8
0
  6
Continuous
 62
     2
100
AcDbLine
 10
-260.6459648851118
 20
-252.9392593733201
 30
0.0
 11
-260.6459648851118
 21
-254.0080927066547
 31
0.0
  0
LINE
  5
1D8
102
{ACAD_REACTORS
330
280
330
281
102
}
330
71
100
AcDbEntity
  8
0
  6
Continuous
 62
     2
100
AcDbLine
 10
-260.6459648851118
 20
-254.0080927066547
 30
0.0
 11
-259.5963073072043
 21
-254.0080927066547
 31
0.0
  0
LINE
  5
1D9
102
{ACAD_REACTORS
330
28E
330
28F
102
}
330
71
100
AcDbEntity
  8
0
  6
Continuous
 62
     2
100
AcDbLine
 10
-263.794937618832
 20
-253.6023652187602
 30
0.0
 11
-263.4776425572901
 21
-253.6023652187602
 31
0.0
  0
LINE
  5
1DA
102
{ACAD_REACTORS
330
28E
330
28F
102
}
330
71
100
AcDbEntity
  8
0
  6
Continuous
 62
     2
100
AcDbLine
 10
-263.794937618832
 20
-254.3080928681025
 30
0.0
 11
-263.4776425572901
 21
-254.3080928681025
 31
0.0
  0
LINE
  5
1DB
102
{ACAD_REACTORS
330
28E
330
28F
102
}
330
71
100
AcDbEntity
  8
0
  6
Continuous
 62
     2
100
AcDbLine
 10
-265.0354420290861
 20
-252.9392593733201
 30
0.0
 11
-265.0354420290861
 21
-255.9930688971313
 31
0.0
  0
LINE
  5
1DC
102
{ACAD_REACTORS
330
28E
330
28F
102
}
330
71
100
AcDbEntity
  8
0
  6
Continuous
 62
     2
100
AcDbLine
 10
-265.0354420290861
 20
-252.9392593733201
 30
0.0
 11
-263.0361700310517
 21
-252.9392593733201
 31
0.0
  0
LINE
  5
1DD
102
{ACAD_REACTORS
330
28E
330
28F
102
}
330
71
100
AcDbEntity
  8
0
  6
Continuous
 62
     2
100
AcDbLine
 10
-263.794937618832
 20
-255.0499906559875
 30
0.0
 11
-263.0361700310517
 21
-255.0499906559875
 31
0.0
  0
LINE
  5
1DE
102
{ACAD_REACTORS
330
294
330
295
102
}
330
71
100
AcDbEntity
  8
0
  6
Continuous
 62
     2
100
AcDbLine
 10
-271.1319380623828
 20
-253.9675318519549
 30
0.0
 11
-271.1319380623828
 21
-258.323986894672
 31
0.0
  0
LINE
  5
1DF
102
{ACAD_REACTORS
330
294
330
295
102
}
330
71
100
AcDbEntity
  8
0
  6
Continuous
 62
     2
100
AcDbLine
 10
-270.8162211393071
 20
-253.6518149288787
 30
0.0
 11
-269.3403878782975
 21
-253.6518149288787
 31
0.0
  0
LINE
  5
1E0
102
{ACAD_REACTORS
330
294
330
295
102
}
330
71
100
AcDbEntity
  8
0
  6
Continuous
 62
     2
100
AcDbLine
 10
-269.0246709552209
 20
-254.5715564710154
 30
0.0
 11
-269.0246709552209
 21
-253.9675318519549
 31
0.0
  0
LINE
  5
1E1
102
{ACAD_REACTORS
330
294
330
295
102
}
330
71
100
AcDbEntity
  8
0
  6
Continuous
 62
     2
100
AcDbLine
 10
-269.0246709552209
 20
-258.323986894672
 30
0.0
 11
-269.0246709552209
 21
-256.7932159631404
 31
0.0
  0
LINE
  5
1E2
102
{ACAD_REACTORS
330
294
330
295
102
}
330
71
100
AcDbEntity
  8
0
  6
Continuous
 62
     2
100
AcDbLine
 10
-265.9368037253367
 20
-259.3522593733056
 30
0.0
 11
-271.4101158160536
 21
-259.3522593733056
 31
0.0
  0
LINE
  5
1E3
102
{ACAD_REACTORS
330
294
330
295
102
}
330
71
100
AcDbEntity
  8
0
  6
Continuous
 62
     2
100
AcDbLine
 10
-265.5125591099529
 20
-253.3635039887221
 30
0.0
 11
-265.5125591099529
 21
-258.9280147579224
 31
0.0
  0
LINE
  5
1E4
102
{ACAD_REACTORS
330
294
330
295
102
}
330
71
100
AcDbEntity
  8
0
  6
Continuous
 62
     2
100
AcDbLine
 10
-271.4101158160536
 20
-252.9392593733383
 30
0.0
 11
-265.9368037253367
 21
-252.9392593733383
 31
0.0
  0
LINE
  5
1E5
102
{ACAD_REACTORS
330
294
330
295
102
}
330
71
100
AcDbEntity
  8
0
  6
Continuous
 62
     2
100
AcDbLine
 10
-271.8343604314364
 20
-253.3635039887221
 30
0.0
 11
-271.8343604314364
 21
-258.9280147579224
 31
0.0
  0
LINE
  5
1E6
102
{ACAD_REACTORS
330
294
330
295
102
}
330
71
100
AcDbEntity
  8
0
  6
Continuous
 62
     2
100
AcDbLine
 10
-269.3403878782975
 20
-258.6397038177487
 30
0.0
 11
-270.8162211393071
 21
-258.6397038177487
 31
0.0
  0
LINE
  5
1E7
102
{ACAD_REACTORS
330
28E
330
28F
102
}
330
71
100
AcDbEntity
  8
0
  6
Continuous
 62
     2
100
AcDbLine
 10
-263.794937618832
 20
-255.9930688971313
 30
0.0
 11
-263.794937618832
 21
-255.0499906559875
 31
0.0
  0
LINE
  5
1E8
102
{ACAD_REACTORS
330
28E
330
28F
102
}
330
71
100
AcDbEntity
  8
0
  6
Continuous
 62
     2
100
AcDbLine
 10
-265.0354420290861
 20
-255.9930688971313
 30
0.0
 11
-263.794937618832
 21
-255.9930688971313
 31
0.0
  0
LINE
  5
1E9
102
{ACAD_REACTORS
330
28E
330
28F
102
}
330
71
100
AcDbEntity
  8
0
  6
Continuous
 62
     2
100
AcDbLine
 10
-263.794937618832
 20
-254.3080928681025
 30
0.0
 11
-263.794937618832
 21
-253.6023652187602
 31
0.0
  0
LINE
  5
1EA
102
{ACAD_REACTORS
330
280
330
281
102
}
330
71
100
AcDbEntity
  8
0
  6
Continuous
 62
     2
100
AcDbLine
 10
-261.8387575872783
 20
-252.9392593733201
 30
0.0
 11
-261.8387575872783
 21
-255.9930688971313
 31
0.0
  0
LINE
  5
1EB
102
{ACAD_REACTORS
330
280
330
281
102
}
330
71
100
AcDbEntity
  8
0
  6
Continuous
 62
     2
100
AcDbLine
 10
-260.6459648851118
 20
-254.8587967882875
 30
0.0
 11
-260.6459648851118
 21
-255.9930688971313
 31
0.0
  0
LINE
  5
1EC
102
{ACAD_REACTORS
330
280
330
281
102
}
330
71
100
AcDbEntity
  8
0
  6
Continuous
 62
     2
100
AcDbLine
 10
-259.5963073072043
 20
-254.8587967882875
 30
0.0
 11
-260.6459648851118
 21
-254.8587967882875
 31
0.0
  0
LINE
  5
1ED
102
{ACAD_REACTORS
330
280
330
281
102
}
330
71
100
AcDbEntity
  8
0
  6
Continuous
 62
     2
100
AcDbLine
 10
-259.5963073072043
 20
-252.9392593733201
 30
0.0
 11
-258.4035146050379
 21
-252.9392593733201
 31
0.0
  0
LINE
  5
1EE
102
{ACAD_REACTORS
330
280
330
281
102
}
330
71
100
AcDbEntity
  8
0
  6
Continuous
 62
     2
100
AcDbLine
 10
-259.5963073072043
 20
-254.0080927066547
 30
0.0
 11
-259.5963073072043
 21
-252.9392593733201
 31
0.0
  0
LINE
  5
1EF
102
{ACAD_REACTORS
330
292
330
293
102
}
330
71
100
AcDbEntity
  8
0
  6
Continuous
 62
     2
100
AcDbLine
 10
-253.5846320882833
 20
-253.6372729787631
 30
0.0
 11
-253.5846320882833
 21
-252.9392593733201
 31
0.0
  0
LINE
  5
1F0
102
{ACAD_REACTORS
330
292
330
293
102
}
330
71
100
AcDbEntity
  8
0
  6
Continuous
 62
     2
100
AcDbLine
 10
-256.7349518120643
 20
-252.9392593733201
 30
0.0
 11
-253.5846320882833
 21
-252.9392593733201
 31
0.0
  0
LINE
  5
1F1
102
{ACAD_REACTORS
330
292
330
293
102
}
330
71
100
AcDbEntity
  8
0
  6
Continuous
 62
     2
100
AcDbLine
 10
-256.7349518120643
 20
-255.9930688971313
 30
0.0
 11
-253.5846320882833
 21
-255.9930688971313
 31
0.0
  0
LINE
  5
1F2
102
{ACAD_REACTORS
330
292
330
293
102
}
330
71
100
AcDbEntity
  8
0
  6
Continuous
 62
     2
100
AcDbLine
 10
-253.5846320882833
 20
-255.9930688971313
 30
0.0
 11
-253.5846320882833
 21
-255.2950552916888
 31
0.0
  0
LINE
  5
1F3
102
{ACAD_REACTORS
330
292
330
293
102
}
330
71
100
AcDbEntity
  8
0
  6
Continuous
 62
     2
100
AcDbLine
 10
-253.5846320882833
 20
-255.2950552916888
 30
0.0
 11
-254.920559914711
 21
-255.2950552916888
 31
0.0
  0
LINE
  5
1F4
102
{ACAD_REACTORS
330
292
330
293
102
}
330
71
100
AcDbEntity
  8
0
  6
Continuous
 62
     2
100
AcDbLine
 10
-254.920559914711
 20
-255.2950552916888
 30
0.0
 11
-254.920559914711
 21
-254.8151709379471
 31
0.0
  0
LINE
  5
1F5
102
{ACAD_REACTORS
330
292
330
293
102
}
330
71
100
AcDbEntity
  8
0
  6
Continuous
 62
     2
100
AcDbLine
 10
-254.920559914711
 20
-253.6372729787631
 30
0.0
 11
-253.5846320882833
 21
-253.6372729787631
 31
0.0
  0
LINE
  5
1F6
102
{ACAD_REACTORS
330
282
330
283
102
}
330
71
100
AcDbEntity
  8
0
  6
Continuous
 62
     2
100
AcDbLine
 10
-257.4017196661025
 20
-259.3522593733056
 30
0.0
 11
-257.4017196661025
 21
-258.0434838631011
 31
0.0
  0
LINE
  5
1F7
102
{ACAD_REACTORS
330
282
330
283
102
}
330
71
100
AcDbEntity
  8
0
  6
Continuous
 62
     2
100
AcDbLine
 10
-257.4017196661025
 20
-258.0434838631011
 30
0.0
 11
-256.1612152558496
 21
-259.3522593733056
 31
0.0
  0
LINE
  5
1F8
102
{ACAD_REACTORS
330
282
330
283
102
}
330
71
100
AcDbEntity
  8
0
  6
Continuous
 62
     2
100
AcDbLine
 10
-254.9684225536832
 20
-259.3522593733056
 30
0.0
 11
-254.9684225536832
 21
-256.2984498494946
 31
0.0
  0
LINE
  5
1F9
102
{ACAD_REACTORS
330
282
330
283
102
}
330
71
100
AcDbEntity
  8
0
  6
Continuous
 62
     2
100
AcDbLine
 10
-254.9684225536832
 20
-256.2984498494946
 30
0.0
 11
-256.1612152558496
 21
-256.2984498494946
 31
0.0
  0
LINE
  5
1FA
102
{ACAD_REACTORS
330
282
330
283
102
}
330
71
100
AcDbEntity
  8
0
  6
Continuous
 62
     2
100
AcDbLine
 10
-256.1612152558496
 20
-256.2984498494946
 30
0.0
 11
-256.1612152558496
 21
-257.6072253596997
 31
0.0
  0
LINE
  5
1FB
102
{ACAD_REACTORS
330
282
330
283
102
}
330
71
100
AcDbEntity
  8
0
  6
Continuous
 62
     2
100
AcDbLine
 10
-256.1612152558496
 20
-257.6072253596997
 30
0.0
 11
-257.4017196661025
 21
-256.2984498494946
 31
0.0
  0
LINE
  5
1FC
102
{ACAD_REACTORS
330
284
330
285
102
}
330
71
100
AcDbEntity
  8
0
  6
Continuous
 62
     2
100
AcDbLine
 10
-252.1532808456839
 20
-254.6842933869266
 30
0.0
 11
-250.9127764354299
 21
-255.9930688971313
 31
0.0
  0
LINE
  5
1FD
102
{ACAD_REACTORS
330
284
330
285
102
}
330
71
100
AcDbEntity
  8
0
  6
Continuous
 62
     2
100
AcDbLine
 10
-250.9127764354299
 20
-255.9930688971313
 30
0.0
 11
-249.7199837332633
 21
-255.9930688971313
 31
0.0
  0
LINE
  5
1FE
102
{ACAD_REACTORS
330
284
330
285
102
}
330
71
100
AcDbEntity
  8
0
  6
Continuous
 62
     2
100
AcDbLine
 10
-249.7199837332633
 20
-255.9930688971313
 30
0.0
 11
-249.7199837332633
 21
-252.9392593733201
 31
0.0
  0
LINE
  5
1FF
102
{ACAD_REACTORS
330
284
330
285
102
}
330
71
100
AcDbEntity
  8
0
  6
Continuous
 62
     2
100
AcDbLine
 10
-249.7199837332633
 20
-252.9392593733201
 30
0.0
 11
-250.9127764354299
 21
-252.9392593733201
 31
0.0
  0
LINE
  5
200
102
{ACAD_REACTORS
330
284
330
285
102
}
330
71
100
AcDbEntity
  8
0
  6
Continuous
 62
     2
100
AcDbLine
 10
-250.9127764354299
 20
-254.2480348835253
 30
0.0
 11
-252.1532808456839
 21
-252.9392593733201
 31
0.0
  0
LINE
  5
201
102
{ACAD_REACTORS
330
284
330
285
102
}
330
71
100
AcDbEntity
  8
0
  6
Continuous
 62
     2
100
AcDbLine
 10
-253.3460735478504
 20
-255.9930688971313
 30
0.0
 11
-252.1532808456839
 21
-255.9930688971313
 31
0.0
  0
LINE
  5
202
102
{ACAD_REACTORS
330
286
330
287
102
}
330
71
100
AcDbEntity
  8
0
  6
Continuous
 62
     2
100
AcDbLine
 10
-254.825287429423
 20
-256.2984498494946
 30
0.0
 11
-254.825287429423
 21
-257.0837151556182
 31
0.0
  0
LINE
  5
203
102
{ACAD_REACTORS
330
286
330
287
102
}
330
71
100
AcDbEntity
  8
0
  6
Continuous
 62
     2
100
AcDbLine
 10
-254.0141883919484
 20
-257.0837151556182
 30
0.0
 11
-254.0141883919484
 21
-259.3522593733056
 31
0.0
  0
LINE
  5
204
102
{ACAD_REACTORS
330
286
330
287
102
}
330
71
100
AcDbEntity
  8
0
  6
Continuous
 62
     2
100
AcDbLine
 10
-254.0141883919484
 20
-259.3522593733056
 30
0.0
 11
-252.8213956897819
 21
-259.3522593733056
 31
0.0
  0
LINE
  5
205
102
{ACAD_REACTORS
330
288
330
289
102
}
330
71
100
AcDbEntity
  8
0
  6
Continuous
 62
     2
100
AcDbLine
 10
-249.8718691963624
 20
-259.3522593733056
 30
0.0
 11
-250.0833492498382
 21
-258.8112988290877
 31
0.0
  0
LINE
  5
206
102
{ACAD_REACTORS
330
288
330
289
102
}
330
71
100
AcDbEntity
  8
0
  6
Continuous
 62
     2
100
AcDbLine
 10
-250.0293178330488
 20
-256.2984498494946
 30
0.0
 11
-248.6313647861085
 21
-259.3522593733056
 31
0.0
  0
LINE
  5
207
102
{ACAD_REACTORS
330
288
330
289
102
}
330
71
100
AcDbEntity
  8
0
  6
Continuous
 62
     2
100
AcDbLine
 10
-251.2698222433015
 20
-256.2984498494946
 30
0.0
 11
-250.0293178330488
 21
-256.2984498494946
 31
0.0
  0
LINE
  5
208
102
{ACAD_REACTORS
330
288
330
289
102
}
330
71
100
AcDbEntity
  8
0
  6
Continuous
 62
     2
100
AcDbLine
 10
-252.6677752902408
 20
-259.3522593733056
 30
0.0
 11
-251.4272708799878
 21
-259.3522593733056
 31
0.0
  0
LINE
  5
209
102
{ACAD_REACTORS
330
288
330
289
102
}
330
71
100
AcDbEntity
  8
0
  6
Continuous
 62
     2
100
AcDbLine
 10
-250.949735275367
 20
-258.1307355637812
 30
0.0
 11
-250.3494048009845
 21
-258.1307355637812
 31
0.0
  0
LINE
  5
20A
102
{ACAD_REACTORS
330
288
330
289
102
}
330
71
100
AcDbEntity
  8
0
  6
Continuous
 62
     2
100
AcDbLine
 10
-250.3494048009845
 20
-258.1307355637812
 30
0.0
 11
-250.6495700381746
 21
-257.3629205977944
 31
0.0
  0
LINE
  5
20B
102
{ACAD_REACTORS
330
28A
330
28B
102
}
330
71
100
AcDbEntity
  8
0
  6
Continuous
 62
     2
100
AcDbLine
 10
-248.2409207825765
 20
-255.9930688971313
 30
0.0
 11
-249.4814251928294
 21
-255.9930688971313
 31
0.0
  0
LINE
  5
20C
102
{ACAD_REACTORS
330
28C
330
28D
102
}
330
71
100
AcDbEntity
  8
0
  6
Continuous
 62
     2
100
AcDbLine
 10
-246.7189172946114
 20
-255.9930688971313
 30
0.0
 11
-248.1216415123596
 21
-255.9930688971313
 31
0.0
  0
LINE
  5
20D
102
{ACAD_REACTORS
330
28C
330
28D
102
}
330
71
100
AcDbEntity
  8
0
  6
Continuous
 62
     2
100
AcDbLine
 10
-246.7189172946114
 20
-255.9930688971313
 30
0.0
 11
-246.0223263565457
 21
-255.2053371118376
 31
0.0
  0
LINE
  5
20E
102
{ACAD_REACTORS
330
28C
330
28D
102
}
330
71
100
AcDbEntity
  8
0
  6
Continuous
 62
     2
100
AcDbLine
 10
-245.4211588346529
 20
-252.9392593733201
 30
0.0
 11
-244.0184346169057
 21
-252.9392593733201
 31
0.0
  0
LINE
  5
20F
102
{ACAD_REACTORS
330
28C
330
28D
102
}
330
71
100
AcDbEntity
  8
0
  6
Continuous
 62
     2
100
AcDbLine
 10
-248.0262180961868
 20
-252.9392593733201
 30
0.0
 11
-246.7236884654193
 21
-254.4122099033563
 31
0.0
  0
LINE
  5
210
102
{ACAD_REACTORS
330
28C
330
28D
102
}
330
71
100
AcDbEntity
  8
0
  6
Continuous
 62
     2
100
AcDbLine
 10
-248.1216415123596
 20
-255.9930688971313
 30
0.0
 11
-246.7236884654193
 21
-254.4122099033563
 31
0.0
  0
LINE
  5
211
102
{ACAD_REACTORS
330
296
330
297
102
}
330
71
100
AcDbEntity
  8
0
  6
Continuous
 62
     2
100
AcDbLine
 10
-246.2608848969797
 20
-258.3052389651421
 30
0.0
 11
-246.2608848969797
 21
-259.1777559719453
 31
0.0
  0
LINE
  5
212
102
{ACAD_REACTORS
330
296
330
297
102
}
330
71
100
AcDbEntity
  8
0
  6
Continuous
 62
     2
100
AcDbLine
 10
-247.0305422399411
 20
-257.0837151556182
 30
0.0
 11
-245.926902940373
 21
-257.0837151556182
 31
0.0
  0
LINE
  5
213
102
{ACAD_REACTORS
330
298
330
299
102
}
330
71
100
AcDbEntity
  8
0
  6
Continuous
 62
     2
100
AcDbLine
 10
-262.3635863762316
 20
-258.3052389651415
 30
0.0
 11
-262.3635863762316
 21
-259.1777559719448
 31
0.0
  0
LINE
  5
214
102
{ACAD_REACTORS
330
298
330
299
102
}
330
71
100
AcDbEntity
  8
0
  6
Continuous
 62
     2
100
AcDbLine
 10
-262.3635863762316
 20
-257.3454702576586
 30
0.0
 11
-262.3635863762316
 21
-256.4729532508553
 31
0.0
  0
LINE
  5
215
330
71
100
AcDbEntity
  8
1
  6
Continuous
 62
     7
100
AcDbLine
 10
-146.5262107912477
 20
-258.1457593733219
 30
0.0
 11
-239.6710153179991
 21
-258.1457593733219
 31
0.0
  0
LINE
  5
216
330
71
100
AcDbEntity
  8
1
  6
Continuous
 62
     6
100
AcDbLine
 10
-345.071015317999
 20
-266.6457593733219
 30
0.0
 11
-390.026210791249
 21
-266.6457593733219
 31
0.0
  0
LINE
  5
217
330
71
100
AcDbEntity
  8
1
  6
Continuous
 62
     7
100
AcDbLine
 10
-155.4446190729265
 20
-241.1457593733219
 30
0.0
 11
-155.4446190729265
 21
-249.6457593733219
 31
0.0
  0
LINE
  5
218
330
71
100
AcDbEntity
  8
1
  6
Continuous
 62
     7
100
AcDbLine
 10
-181.9446190729261
 20
-241.1457593733219
 30
0.0
 11
-181.9446190729261
 21
-249.6457593733219
 31
0.0
  0
LINE
  5
219
330
71
100
AcDbEntity
  8
1
  6
Continuous
 62
     7
100
AcDbLine
 10
-239.6710153179991
 20
-249.6457593733219
 30
0.0
 11
-239.6710153179991
 21
-241.1457593733219
 31
0.0
  0
LINE
  5
21A
330
71
100
AcDbEntity
  8
1
  6
Continuous
 62
     7
100
AcDbLine
 10
-276.071015317999
 20
-249.6457593733219
 30
0.0
 11
-276.071015317999
 21
-241.1457593733219
 31
0.0
  0
LINE
  5
21B
330
71
100
AcDbEntity
  8
1
  6
Continuous
 62
     6
100
AcDbLine
 10
-239.6710153179991
 20
-249.6457593733219
 30
0.0
 11
-146.5262107912473
 21
-249.6457593733219
 31
0.0
  0
LINE
  5
21C
330
71
100
AcDbEntity
  8
1
  6
Continuous
 62
     7
100
AcDbLine
 10
-211.771015317999
 20
-258.145759373322
 30
0.0
 11
-211.771015317999
 21
-249.6457593733219
 31
0.0
  0
LINE
  5
21D
330
71
100
AcDbEntity
  8
1
  6
PHANTOM
 62
     2
100
AcDbLine
 10
-260.5843604314364
 20
-245.520759373322
 30
0.0
 11
-266.0843604314364
 21
-245.520759373322
 31
0.0
  0
LINE
  5
21E
330
71
100
AcDbEntity
  8
1
  6
PHANTOM
 62
     2
100
AcDbLine
 10
-263.3343604314364
 20
-242.770759373322
 30
0.0
 11
-263.3343604314364
 21
-248.270759373322
 31
0.0
  0
LINE
  5
21F
330
71
100
AcDbEntity
  8
1
  6
DOT_CENTER
 62
     2
100
AcDbLine
 10
-272.0843604314364
 20
-245.520759373322
 30
0.0
 11
-266.5843604314364
 21
-245.520759373322
 31
0.0
  0
ARC
  5
220
102
{ACAD_REACTORS
330
298
330
299
102
}
330
71
100
AcDbEntity
  8
0
  6
Continuous
 62
     2
100
AcDbCircle
 10
-263.6995142933494
 20
-261.1380355566562
 30
0.0
 40
4.852596863498049
100
AcDbArc
 50
74.02000874164696
 51
84.84185523037458
  0
ARC
  5
221
102
{ACAD_REACTORS
330
298
330
299
102
}
330
71
100
AcDbEntity
  8
0
  6
Continuous
 62
     2
100
AcDbCircle
 10
-263.1234736845956
 20
-257.9822752007719
 30
0.0
 40
0.9059297849851791
100
AcDbArc
 50
71.55192388185802
 51
113.3722778881356
  0
ARC
  5
222
102
{ACAD_REACTORS
330
298
330
299
102
}
330
71
100
AcDbEntity
  8
0
  6
Continuous
 62
     2
100
AcDbCircle
 10
-263.2799137172977
 20
-258.0304260407388
 30
0.0
 40
0.5115800601948284
100
AcDbArc
 50
208.521473257694
 51
246.6277221118295
  0
ARC
  5
223
102
{ACAD_REACTORS
330
298
330
299
102
}
330
71
100
AcDbEntity
  8
0
  6
Continuous
 62
     2
100
AcDbCircle
 10
-263.1234736845956
 20
-257.6684340220288
 30
0.0
 40
0.9059297849850687
100
AcDbArc
 50
246.6277221118673
 51
288.4480761181511
  0
ARC
  5
224
102
{ACAD_REACTORS
330
298
330
299
102
}
330
71
100
AcDbEntity
  8
0
  6
Continuous
 62
     2
100
AcDbCircle
 10
-263.5416414182565
 20
-256.4148882459916
 30
0.0
 40
2.227384008972773
100
AcDbArc
 50
288.4480761181333
 51
301.9309089499609
  0
ARC
  5
225
102
{ACAD_REACTORS
330
294
330
295
102
}
330
71
100
AcDbEntity
  8
0
  6
Continuous
 62
     2
100
AcDbCircle
 10
-268.7667151508633
 20
-255.6823862170776
 30
0.0
 40
0.9118481501445617
100
AcDbArc
 50
295.3740086781734
 51
64.62599132180748
  0
ARC
  5
226
102
{ACAD_REACTORS
330
294
330
295
102
}
330
71
100
AcDbEntity
  8
0
  6
Continuous
 62
     2
100
AcDbCircle
 10
-268.2406724527754
 20
-253.967709328603
 30
0.0
 40
0.315716923076071
100
AcDbArc
 50
90.18896704254078
 51
180.0
  0
ARC
  5
227
102
{ACAD_REACTORS
330
296
330
297
102
}
330
71
100
AcDbEntity
  8
0
  6
Continuous
 62
     2
100
AcDbCircle
 10
-247.0305422399411
 20
-258.0382381624443
 30
0.0
 40
0.9545230068260935
100
AcDbArc
 50
90.0
 51
109.3371432194309
  0
ARC
  5
228
102
{ACAD_REACTORS
330
296
330
297
102
}
330
71
100
AcDbEntity
  8
0
  6
Continuous
 62
     2
100
AcDbCircle
 10
-246.7998549799634
 20
-257.8253546114004
 30
0.0
 40
0.9410597353349602
100
AcDbArc
 50
151.4785267423548
 51
208.5214732576695
  0
ARC
  5
229
102
{ACAD_REACTORS
330
296
330
297
102
}
330
71
100
AcDbEntity
  8
0
  6
Continuous
 62
     2
100
AcDbCircle
 10
-247.0207722053417
 20
-257.6684340220288
 30
0.0
 40
0.9059297849853845
100
AcDbArc
 50
246.6277221118211
 51
288.4480761180794
  0
ARC
  5
22A
102
{ACAD_REACTORS
330
296
330
297
102
}
330
71
100
AcDbEntity
  8
0
  6
Continuous
 62
     2
100
AcDbCircle
 10
-247.4389399390036
 20
-256.4148882459922
 30
0.0
 40
2.22738400897288
100
AcDbArc
 50
288.4480761181323
 51
301.9309089499378
  0
ARC
  5
22B
102
{ACAD_REACTORS
330
296
330
297
102
}
330
71
100
AcDbEntity
  8
0
  6
Continuous
 62
     2
100
AcDbCircle
 10
-247.5968128140964
 20
-254.5126736661439
 30
0.0
 40
4.852596863498796
100
AcDbArc
 50
275.1581447696364
 51
285.9799912583387
  0
ARC
  5
22C
102
{ACAD_REACTORS
330
296
330
297
102
}
330
71
100
AcDbEntity
  8
0
  6
Continuous
 62
     2
100
AcDbCircle
 10
-247.3079567193606
 20
-257.7125642493655
 30
0.0
 40
1.639695123940434
100
AcDbArc
 50
195.0618917770993
 51
275.1581447696764
  0
ARC
  5
22D
102
{ACAD_REACTORS
330
28E
330
28F
102
}
330
71
100
AcDbEntity
  8
0
  6
Continuous
 62
     2
100
AcDbCircle
 10
-263.0361700310517
 20
-253.9946250146538
 30
0.0
 40
1.055365641333708
100
AcDbArc
 50
270.0
 51
90.0
  0
ARC
  5
22E
102
{ACAD_REACTORS
330
294
330
295
102
}
330
71
100
AcDbEntity
  8
0
  6
Continuous
 62
     2
100
AcDbCircle
 10
-270.8162211393071
 20
-258.323986894672
 30
0.0
 40
0.3157169230756836
100
AcDbArc
 50
180.0
 51
270.0
  0
ARC
  5
22F
102
{ACAD_REACTORS
330
294
330
295
102
}
330
71
100
AcDbEntity
  8
0
  6
Continuous
 62
     2
100
AcDbCircle
 10
-269.3403878782975
 20
-253.9675318519549
 30
0.0
 40
0.315716923076593
100
AcDbArc
 50
0.0
 51
90.0
  0
ARC
  5
230
102
{ACAD_REACTORS
330
294
330
295
102
}
330
71
100
AcDbEntity
  8
0
  6
Continuous
 62
     2
100
AcDbCircle
 10
-269.3403878782975
 20
-254.5715564710154
 30
0.0
 40
0.3157169230761203
100
AcDbArc
 50
295.1944106485397
 51
0.0
  0
ARC
  5
231
102
{ACAD_REACTORS
330
294
330
295
102
}
330
71
100
AcDbEntity
  8
0
  6
Continuous
 62
     2
100
AcDbCircle
 10
-269.3403878782975
 20
-258.323986894672
 30
0.0
 40
0.3157169230767067
100
AcDbArc
 50
270.0
 51
0.0
  0
ARC
  5
232
102
{ACAD_REACTORS
330
294
330
295
102
}
330
71
100
AcDbEntity
  8
0
  6
Continuous
 62
     2
100
AcDbCircle
 10
-271.4101158160536
 20
-253.3635039887221
 30
0.0
 40
0.4242446153837989
100
AcDbArc
 50
90.0
 51
180.0
  0
ARC
  5
233
102
{ACAD_REACTORS
330
294
330
295
102
}
330
71
100
AcDbEntity
  8
0
  6
Continuous
 62
     2
100
AcDbCircle
 10
-265.9368037253367
 20
-253.3635039887221
 30
0.0
 40
0.4242446153837705
100
AcDbArc
 50
0.0
 51
90.0
  0
ARC
  5
234
102
{ACAD_REACTORS
330
294
330
295
102
}
330
71
100
AcDbEntity
  8
0
  6
Continuous
 62
     2
100
AcDbCircle
 10
-265.9368037253367
 20
-258.9280147579224
 30
0.0
 40
0.424244615383202
100
AcDbArc
 50
270.0
 51
0.0
  0
ARC
  5
235
102
{ACAD_REACTORS
330
292
330
293
102
}
330
71
100
AcDbEntity
  8
0
  6
Continuous
 62
     2
100
AcDbCircle
 10
-256.7184198382453
 20
-254.466164135226
 30
0.0
 40
0.7717997786797123
100
AcDbArc
 50
321.8795802028401
 51
38.12041979715993
  0
ARC
  5
236
102
{ACAD_REACTORS
330
292
330
293
102
}
330
71
100
AcDbEntity
  8
0
  6
Continuous
 62
     2
100
AcDbCircle
 10
-256.5186798018991
 20
-254.6228953133465
 30
0.0
 40
0.5179085730134372
100
AcDbArc
 50
218.1204197971511
 51
321.8795802028566
  0
ARC
  5
237
102
{ACAD_REACTORS
330
290
330
291
102
}
330
71
100
AcDbEntity
  8
0
  6
Continuous
 62
     2
100
AcDbCircle
 10
-260.1986873908593
 20
-257.8253546114004
 30
0.0
 40
1.458034083651863
100
AcDbArc
 50
297.5481481757027
 51
62.45185182430252
  0
ARC
  5
238
102
{ACAD_REACTORS
330
290
330
291
102
}
330
71
100
AcDbEntity
  8
0
  6
Continuous
 62
     2
100
AcDbCircle
 10
-260.7605671745259
 20
-257.8253546114004
 30
0.0
 40
1.458034083651642
100
AcDbArc
 50
117.5481481756618
 51
242.451851824333
  0
ARC
  5
239
102
{ACAD_REACTORS
330
290
330
291
102
}
330
71
100
AcDbEntity
  8
0
  6
Continuous
 62
     2
100
AcDbCircle
 10
-260.4796272826926
 20
-258.3639296217032
 30
0.0
 40
2.065479772208694
100
AcDbArc
 50
62.45185182430819
 51
117.5481481756653
  0
ARC
  5
23A
102
{ACAD_REACTORS
330
290
330
291
102
}
330
71
100
AcDbEntity
  8
0
  6
Continuous
 62
     2
100
AcDbCircle
 10
-260.4796272826926
 20
-257.286779601097
 30
0.0
 40
2.065479772208497
100
AcDbArc
 50
242.4518518243391
 51
297.5481481756875
  0
ARC
  5
23B
102
{ACAD_REACTORS
330
292
330
293
102
}
330
71
100
AcDbEntity
  8
0
  6
Continuous
 62
     2
100
AcDbCircle
 10
-256.3189397655528
 20
-254.466164135226
 30
0.0
 40
0.7717997786797123
100
AcDbArc
 50
141.8795802028401
 51
218.1204197971599
  0
ARC
  5
23C
102
{ACAD_REACTORS
330
292
330
293
102
}
330
71
100
AcDbEntity
  8
0
  6
Continuous
 62
     2
100
AcDbCircle
 10
-256.5186798018991
 20
-254.3094329571055
 30
0.0
 40
0.5179085730135441
100
AcDbArc
 50
38.12041979714581
 51
141.8795802028464
  0
ARC
  5
23D
102
{ACAD_REACTORS
330
294
330
295
102
}
330
71
100
AcDbEntity
  8
0
  6
Continuous
 62
     2
100
AcDbCircle
 10
-271.4101158160536
 20
-258.9280147579224
 30
0.0
 40
0.4242446153828041
100
AcDbArc
 50
180.0
 51
270.0
  0
ARC
  5
23E
102
{ACAD_REACTORS
330
294
330
295
102
}
330
71
100
AcDbEntity
  8
0
  6
Continuous
 62
     2
100
AcDbCircle
 10
-269.3403878782975
 20
-256.7932159631404
 30
0.0
 40
0.315716923076593
100
AcDbArc
 50
0.0
 51
64.8055893514559
  0
ARC
  5
23F
102
{ACAD_REACTORS
330
294
330
295
102
}
330
71
100
AcDbEntity
  8
0
  6
Continuous
 62
     2
100
AcDbCircle
 10
-268.8178034307225
 20
-255.6823862170776
 30
0.0
 40
0.9118975235576268
100
AcDbArc
 50
115.1944106485298
 51
244.8055893514884
  0
ARC
  5
240
102
{ACAD_REACTORS
330
294
330
295
102
}
330
71
100
AcDbEntity
  8
0
  6
Continuous
 62
     2
100
AcDbCircle
 10
-270.8162211393071
 20
-253.9675318519549
 30
0.0
 40
0.3157169230761951
100
AcDbArc
 50
90.0
 51
180.0
  0
ARC
  5
241
102
{ACAD_REACTORS
330
28E
330
28F
102
}
330
71
100
AcDbEntity
  8
0
  6
Continuous
 62
     2
100
AcDbCircle
 10
-263.4776425572901
 20
-253.9552290434313
 30
0.0
 40
0.3528638246712035
100
AcDbArc
 50
270.0
 51
90.0
  0
ARC
  5
242
102
{ACAD_REACTORS
330
292
330
293
102
}
330
71
100
AcDbEntity
  8
0
  6
Continuous
 62
     2
100
AcDbCircle
 10
-256.7349518120643
 20
-254.466164135226
 30
0.0
 40
1.526904761905882
100
AcDbArc
 50
90.0
 51
270.0
  0
ARC
  5
243
102
{ACAD_REACTORS
330
296
330
297
102
}
330
71
100
AcDbEntity
  8
0
  6
Continuous
 62
     2
100
AcDbCircle
 10
-247.3079567193606
 20
-257.9381449734352
 30
0.0
 40
1.639695123940214
100
AcDbArc
 50
90.0
 51
164.938108222895
  0
ARC
  5
244
102
{ACAD_REACTORS
330
296
330
297
102
}
330
71
100
AcDbEntity
  8
0
  6
Continuous
 62
     2
100
AcDbCircle
 10
-247.7270845628222
 20
-257.8253546114004
 30
0.0
 40
1.205656168393032
100
AcDbArc
 50
164.9381082228976
 51
195.0618917770894
  0
ARC
  5
245
102
{ACAD_REACTORS
330
296
330
297
102
}
330
71
100
AcDbEntity
  8
0
  6
Continuous
 62
     2
100
AcDbCircle
 10
-247.1772122380448
 20
-258.0304260407388
 30
0.0
 40
0.5115800601960759
100
AcDbArc
 50
208.5214732576978
 51
246.6277221118499
  0
ARC
  5
246
102
{ACAD_REACTORS
330
296
330
297
102
}
330
71
100
AcDbEntity
  8
0
  6
Continuous
 62
     2
100
AcDbCircle
 10
-247.1772122380448
 20
-257.6202831820614
 30
0.0
 40
0.511580060194468
100
AcDbArc
 50
109.3371432194832
 51
151.4785267424085
  0
ARC
  5
247
102
{ACAD_REACTORS
330
294
330
295
102
}
330
71
100
AcDbEntity
  8
0
  6
Continuous
 62
     2
100
AcDbCircle
 10
-268.2406724527754
 20
-257.3733792237412
 30
0.0
 40
0.3157169230767636
100
AcDbArc
 50
180.0
 51
269.8110329574592
  0
ARC
  5
248
102
{ACAD_REACTORS
330
294
330
295
102
}
330
71
100
AcDbEntity
  8
0
  6
Continuous
 62
     2
100
AcDbCircle
 10
-268.2350563174654
 20
-255.6705442761721
 30
0.0
 40
2.018561131933266
100
AcDbArc
 50
269.8110329575874
 51
90.18896704241254
  0
ARC
  5
249
102
{ACAD_REACTORS
330
294
330
295
102
}
330
71
100
AcDbEntity
  8
0
  6
Continuous
 62
     2
100
AcDbCircle
 10
-268.2406724527754
 20
-254.5732446171098
 30
0.0
 40
0.3157169230767636
100
AcDbArc
 50
180.0
 51
244.6259913216435
  0
ARC
  5
24A
102
{ACAD_REACTORS
330
294
330
295
102
}
330
71
100
AcDbEntity
  8
0
  6
Continuous
 62
     2
100
AcDbCircle
 10
-268.2406724527754
 20
-256.791527817046
 30
0.0
 40
0.3157169230764423
100
AcDbArc
 50
115.3740086783653
 51
180.0
  0
ARC
  5
24B
102
{ACAD_REACTORS
330
298
330
299
102
}
330
71
100
AcDbEntity
  8
0
  6
Continuous
 62
     2
100
AcDbCircle
 10
-263.4106581986135
 20
-257.9381449734352
 30
0.0
 40
1.639695123940393
100
AcDbArc
 50
84.841855230362
 51
164.938108222887
  0
ARC
  5
24C
102
{ACAD_REACTORS
330
298
330
299
102
}
330
71
100
AcDbEntity
  8
0
  6
Continuous
 62
     2
100
AcDbCircle
 10
-263.8297860420763
 20
-257.8253546114004
 30
0.0
 40
1.205656168391001
100
AcDbArc
 50
164.9381082228716
 51
195.0618917770945
  0
ARC
  5
24D
102
{ACAD_REACTORS
330
298
330
299
102
}
330
71
100
AcDbEntity
  8
0
  6
Continuous
 62
     2
100
AcDbCircle
 10
-263.4106581986135
 20
-257.7125642493655
 30
0.0
 40
1.639695123939464
100
AcDbArc
 50
195.0618917770919
 51
275.1581447696396
  0
ARC
  5
24E
102
{ACAD_REACTORS
330
298
330
299
102
}
330
71
100
AcDbEntity
  8
0
  6
Continuous
 62
     2
100
AcDbCircle
 10
-263.6995142933494
 20
-254.5126736661439
 30
0.0
 40
4.852596863498141
100
AcDbArc
 50
275.1581447696253
 51
285.979991258353
  0
ARC
  5
24F
102
{ACAD_REACTORS
330
298
330
299
102
}
330
71
100
AcDbEntity
  8
0
  6
Continuous
 62
     2
100
AcDbCircle
 10
-262.9025564592174
 20
-257.8253546114004
 30
0.0
 40
0.9410597353332545
100
AcDbArc
 50
151.4785267422669
 51
208.5214732576997
  0
ARC
  5
250
102
{ACAD_REACTORS
330
298
330
299
102
}
330
71
100
AcDbEntity
  8
0
  6
Continuous
 62
     2
100
AcDbCircle
 10
-263.2799137172977
 20
-257.6202831820614
 30
0.0
 40
0.5115800601950196
100
AcDbArc
 50
113.3722778881958
 51
151.4785267423059
  0
ARC
  5
251
102
{ACAD_REACTORS
330
298
330
299
102
}
330
71
100
AcDbEntity
  8
0
  6
Continuous
 62
     2
100
AcDbCircle
 10
-263.5416414182565
 20
-259.2358209768086
 30
0.0
 40
2.227384008973628
100
AcDbArc
 50
58.06909105004141
 51
71.55192388186676
  0
ARC
  5
252
102
{ACAD_REACTORS
330
290
330
291
102
}
330
71
100
AcDbEntity
  8
0
  6
Continuous
 62
     2
100
AcDbCircle
 10
-260.4796272826926
 20
-257.6686234332798
 30
0.0
 40
0.5179085730132074
100
AcDbArc
 50
38.12041979713908
 51
141.8795802028687
  0
ARC
  5
253
102
{ACAD_REACTORS
330
290
330
291
102
}
330
71
100
AcDbEntity
  8
0
  6
Continuous
 62
     2
100
AcDbCircle
 10
-260.2798872463465
 20
-257.8253546114004
 30
0.0
 40
0.7717997786794808
100
AcDbArc
 50
141.8795802028346
 51
218.120419797162
  0
ARC
  5
254
102
{ACAD_REACTORS
330
290
330
291
102
}
330
71
100
AcDbEntity
  8
0
  6
Continuous
 62
     2
100
AcDbCircle
 10
-260.4796272826926
 20
-257.9820857895203
 30
0.0
 40
0.5179085730137529
100
AcDbArc
 50
218.1204197971956
 51
321.8795802027966
  0
ARC
  5
255
102
{ACAD_REACTORS
330
290
330
291
102
}
330
71
100
AcDbEntity
  8
0
  6
Continuous
 62
     2
100
AcDbCircle
 10
-260.679367319039
 20
-257.8253546114004
 30
0.0
 40
0.7717997786795798
100
AcDbArc
 50
321.8795802028458
 51
38.12041979715755
  0
CIRCLE
  5
256
330
71
100
AcDbEntity
  8
1
  6
Continuous
 62
     2
100
AcDbCircle
 10
-263.3343604314364
 20
-245.520759373322
 30
0.0
 40
2.5
  0
CIRCLE
  5
257
330
71
100
AcDbEntity
  8
1
  6
Continuous
 62
     2
100
AcDbCircle
 10
-263.3343604314364
 20
-245.520759373322
 30
0.0
 40
1.249999999999886
  0
CIRCLE
  5
258
102
{ACAD_REACTORS
330
294
330
295
102
}
330
71
100
AcDbEntity
  8
0
  6
Continuous
 62
     2
100
AcDbCircle
 10
-268.7905301655361
 20
-255.6823862170776
 30
0.0
 40
0.4709789327785074
  0
MTEXT
  5
259
330
71
100
AcDbEntity
  8
1
 62
     3
100
AcDbMText
 10
-433.5211430051772
 20
-79.85445121802314
 30
0.0
 40
1.8
 41
0.0
 71
     7
 72
     1
  3
Weitergabe sowie Vervielf\U+00e4ltigung dieses Dokuments, Verwertung und \PMitteilung seines Inhalts sind verboten, soweit nicht ausdr\U+00fccklich gestattet. \PZuwiderhandlungen verpflichten zu Schadenersatz. Alle Rechte f\U+00fcr den Fall\Pder Pat
  1
ent-, Gebrauchsmuster- oder Designeintragung vorbehalten.
  7
CONVERTER_11
 73
     1
 44
0.99639855942377
  0
MTEXT
  5
25A
330
71
100
AcDbEntity
  8
1
 62
     3
100
AcDbMText
 10
-250.6680331663891
 20
-79.85445121802314
 30
0.0
 40
1.8
 41
0.0
 71
     7
 72
     1
  3
Transfer or duplication of this document as well as the utilisation or\Pcommunication of its content are not permitted unless express consent\Pis granted. Violations give rise to claims for damages. All rights reserved\Pin case of patent, utility mo
  1
del or design patent registrations.
  7
CONVERTER_11
 73
     1
 44
0.99639855942377
  0
TEXT
  5
25B
330
71
100
AcDbEntity
  8
1
 62
     2
100
AcDbText
 10
-256.8710153179992
 20
-265.4047765883136
 30
0.0
 40
1.8
  1
of
 41
0.9
  7
CONVERTER_11
100
AcDbText
  0
TEXT
  5
25C
330
71
100
AcDbEntity
  8
1
 62
     2
100
AcDbText
 10
-275.071015317999
 20
-265.4047765883136
 30
0.0
 40
1.8
  1
page
 41
0.9
  7
CONVERTER_11
100
AcDbText
  0
TEXT
  5
25D
330
71
100
AcDbEntity
  8
1
 62
     2
100
AcDbText
 10
-266.424750347657
 20
-265.445008027124
 30
0.0
 40
1.8
  1
1
 41
0.9
  7
CONVERTER_11
100
AcDbText
  0
TEXT
  5
25E
330
71
100
AcDbEntity
  8
1
 62
     2
100
AcDbText
 10
-251.6357065081855
 20
-265.3957593733221
 30
0.0
 40
1.8
  1
1
 41
0.9
  7
CONVERTER_11
100
AcDbText
  0
MTEXT
  5
260
330
71
100
AcDbEntity
  8
1
 62
     7
100
AcDbMText
 10
-193.0986130546235
 20
-263.3957593733217
 30
0.0
 40
3.0
 41
0.0
 71
     5
 72
     1
  1
UC-EM (20X9)
  7
CONVERTER_12
 73
     1
 44
1.20048019207683
  0
MTEXT
  5
261
330
71
100
AcDbEntity
  8
1
 62
     2
100
AcDbMText
 10
-238.6710153179991
 20
-259.1457593733219
 30
0.0
 40
1.8
 41
0.0
 71
     1
 72
     1
  1
description
  7
CONVERTER_11
 73
     1
 44
1.20048019207683
  0
MTEXT
  5
262
330
71
100
AcDbEntity
  8
1
 62
     3
100
AcDbMText
 10
-249.8710153179991
 20
-245.5207593733219
 30
0.0
 40
2.5
 41
0.0
 71
     5
 72
     1
  1
DIN A4
  7
CONVERTER_11
 73
     1
 44
1.20048019207683
  0
MTEXT
  5
263
330
71
100
AcDbEntity
  8
1
 62
     7
100
AcDbMText
 10
-436.0262107912481
 20
-244.1457593733219
 30
0.0
 40
3.5
 41
0.0
 71
     5
 72
     1
  1
D
  7
CONVERTER_11
 73
     1
 44
1.20048019207683
  0
MTEXT
  5
264
330
71
100
AcDbEntity
  8
1
 62
     7
100
AcDbMText
 10
-436.0262107912481
 20
-191.6457593733219
 30
0.0
 40
3.5
 41
0.0
 71
     5
 72
     1
  1
C
  7
CONVERTER_11
 73
     1
 44
1.20048019207683
  0
MTEXT
  5
265
330
71
100
AcDbEntity
  8
1
 62
     7
100
AcDbMText
 10
-436.0262107912481
 20
-141.6457593733219
 30
0.0
 40
3.5
 41
0.0
 71
     5
 72
     1
  1
B
  7
CONVERTER_11
 73
     1
 44
1.20048019207683
  0
MTEXT
  5
266
330
71
100
AcDbEntity
  8
1
 62
     7
100
AcDbMText
 10
-436.0262107912481
 20
-89.14575937332194
 30
0.0
 40
3.5
 41
0.0
 71
     5
 72
     1
  1
A
  7
CONVERTER_11
 73
     1
 44
1.20048019207683
  0
MTEXT
  5
267
330
71
100
AcDbEntity
  8
1
 62
     7
100
AcDbMText
 10
-165.7762107912498
 20
-269.1457593733221
 30
0.0
 40
3.5
 41
0.0
 71
     5
 72
     1
  1
6
  7
CONVERTER_11
 73
     1
 44
1.20048019207683
  0
MTEXT
  5
268
330
71
100
AcDbEntity
  8
1
 62
     7
100
AcDbMText
 10
-215.026210791249
 20
-269.1457593733221
 30
0.0
 40
3.5
 41
0.0
 71
     5
 72
     1
  1
5
  7
CONVERTER_11
 73
     1
 44
1.20048019207683
  0
MTEXT
  5
269
330
71
100
AcDbEntity
  8
1
 62
     7
100
AcDbMText
 10
-265.0262107912491
 20
-269.1457593733221
 30
0.0
 40
3.5
 41
0.0
 71
     5
 72
     1
  1
4
  7
CONVERTER_11
 73
     1
 44
1.20048019207683
  0
MTEXT
  5
26A
330
71
100
AcDbEntity
  8
1
 62
     7
100
AcDbMText
 10
-315.026210791249
 20
-269.1457593733221
 30
0.0
 40
3.5
 41
0.0
 71
     5
 72
     1
  1
3
  7
CONVERTER_11
 73
     1
 44
1.20048019207683
  0
MTEXT
  5
26B
330
71
100
AcDbEntity
  8
1
 62
     7
100
AcDbMText
 10
-365.026210791249
 20
-269.1457593733221
 30
0.0
 40
3.5
 41
0.0
 71
     5
 72
     1
  1
2
  7
CONVERTER_11
 73
     1
 44
1.20048019207683
  0
MTEXT
  5
26C
330
71
100
AcDbEntity
  8
1
 62
     7
100
AcDbMText
 10
-414.2762107912486
 20
-269.1457593733221
 30
0.0
 40
3.5
 41
0.0
 71
     5
 72
     1
  1
1
  7
CONVERTER_11
 73
     1
 44
1.20048019207683
  0
MTEXT
  5
26D
330
71
100
AcDbEntity
  8
1
 62
     7
100
AcDbMText
 10
-144.02621079125
 20
-244.1457593733219
 30
0.0
 40
3.5
 41
0.0
 71
     5
 72
     1
  1
D
  7
CONVERTER_11
 73
     1
 44
1.20048019207683
  0
MTEXT
  5
26E
330
71
100
AcDbEntity
  8
1
 62
     7
100
AcDbMText
 10
-144.02621079125
 20
-141.64575937332
 30
0.0
 40
3.5
 41
0.0
 71
     5
 72
     1
  1
B
  7
CONVERTER_11
 73
     1
 44
1.20048019207683
  0
MTEXT
  5
26F
330
71
100
AcDbEntity
  8
1
 62
     7
100
AcDbMText
 10
-144.02621079125
 20
-89.14575937332194
 30
0.0
 40
3.5
 41
0.0
 71
     5
 72
     1
  1
A
  7
CONVERTER_11
 73
     1
 44
1.20048019207683
  0
MTEXT
  5
270
330
71
100
AcDbEntity
  8
1
 62
     7
100
AcDbMText
 10
-144.02621079125
 20
-191.64575937332
 30
0.0
 40
3.5
 41
0.0
 71
     5
 72
     1
  1
C
  7
CONVERTER_11
 73
     1
 44
1.20048019207683
  0
MTEXT
  5
271
330
71
100
AcDbEntity
  8
1
 62
     2
100
AcDbMText
 10
-310.5090300430465
 20
-253.895759373322
 30
0.0
 40
2.0
 41
0.0
 71
     5
 72
     1
  1
General Information\P- Simplified representation\P- Document excluded from change process\P- Linear dimensions [mm]
  7
CONVERTER_11
 73
     1
 44
1.20048019207683
  0
TEXT
  5
272
330
71
100
AcDbEntity
  8
1
 62
     7
100
AcDbText
 10
-238.1710153179993
 20
-256.845759373322
 30
0.0
 40
2.5
  1
0825503
 41
0.81
  7
CONVERTER_12
100
AcDbText
  0
MTEXT
  5
273
330
71
100
AcDbEntity
  8
1
 62
     2
100
AcDbMText
 10
-238.571015317999
 20
-250.6457593733219
 30
0.0
 40
1.8
 41
0.0
 71
     1
 72
     1
  1
ident.-No.
  7
CONVERTER_11
 73
     1
 44
1.20048019207683
  0
MTEXT
  5
274
330
71
100
AcDbEntity
  8
1
 62
     2
100
AcDbMText
 10
-154.3446190729263
 20
-242.1457593733219
 30
0.0
 40
1.8
 41
0.0
 71
     1
 72
     1
  1
scale
  7
CONVERTER_11
 73
     1
 44
1.20048019207683
  0
MTEXT
  5
276
330
71
100
AcDbEntity
  8
1
 62
     3
100
AcDbMText
 10
-150.9854149320867
 20
-248.3457593733218
 30
0.0
 40
2.5
 41
0.0
 71
     8
 72
     1
  1
1:2
  7
CONVERTER_13
 73
     1
 44
1.32052821128451
  0
TEXT
  5
277
330
71
100
AcDbEntity
  8
1
 62
     7
100
AcDbText
 10
-238.571015317999
 20
-248.345759373322
 30
0.0
 40
2.5
  1
00920746
 41
0.81
  7
CONVERTER_12
100
AcDbText
  0
MTEXT
  5
279
330
71
100
AcDbEntity
  8
1
 62
     2
100
AcDbMText
 10
-238.571015317999
 20
-242.1457593733219
 30
0.0
 40
1.8
 41
0.0
 71
     1
 72
     1
  1
document-No. / RI
  7
CONVERTER_14
 73
     1
 44
1.32052821128451
  0
TEXT
  5
27A
330
71
100
AcDbEntity
  8
1
 62
     3
100
AcDbText
 10
-210.771015317999
 20
-256.845759373322
 30
0.0
 40
2.5
  1
Customer drawing select
 41
0.81
  7
CONVERTER_12
100
AcDbText
  0
MTEXT
  5
27B
330
71
100
AcDbEntity
  8
1
 62
     2
100
AcDbMText
 10
-210.771015317999
 20
-250.645759373322
 30
0.0
 40
1.8
 41
0.0
 71
     1
 72
     1
  1
document-type
  7
CONVERTER_11
 73
     1
 44
1.20048019207683
  0
MTEXT
  5
27C
330
71
100
AcDbEntity
  8
1
 62
     2
100
AcDbMText
 10
-180.9446190729261
 20
-242.145759373322
 30
0.0
 40
1.8
 41
0.0
 71
     1
 72
     1
  1
date
  7
CONVERTER_11
 73
     1
 44
1.32052821128451
  0
TEXT
  5
27D
330
71
100
AcDbEntity
  8
1
 62
     3
100
AcDbText
 10
-180.9446190729261
 20
-248.345759373322
 30
0.0
 40
2.5
  1
01.02.2016
 41
0.81
  7
CONVERTER_12
100
AcDbText
  0
TEXT
  5
27E
330
71
100
AcDbEntity
  8
1
 62
     7
100
AcDbText
 10
-218.5411030989432
 20
-248.345759373322
 30
0.0
 40
2.5
  1
00
 41
0.81
  7
CONVERTER_12
100
AcDbText
  0
TEXT
  5
27F
330
71
100
AcDbEntity
  8
1
 62
     7
100
AcDbText
 10
-220.6974675959852
 20
-248.345759373322
 30
0.0
 40
2.5
  1
/
 41
0.9
  7
CONVERTER_11
100
AcDbText
  0
HATCH
  5
280
330
71
100
AcDbEntity
  8
1
  6
Continuous
 62
     2
100
AcDbHatch
 10
0.0
 20
0.0
 30
0.0
210
0.0
220
0.0
230
1.0
  2
_USER
 70
     0
 71
     1
 91
        1
 92
        1
 93
       12
 72
     1
 10
-258.4035146050379
 20
-255.9930688971313
 11
-259.5963073072043
 21
-255.9930688971313
 72
     1
 10
-259.5963073072043
 20
-255.9930688971313
 11
-259.5963073072043
 21
-254.8587967882875
 72
     1
 10
-259.5963073072043
 20
-254.8587967882875
 11
-260.6459648851118
 21
-254.8587967882875
 72
     1
 10
-260.6459648851118
 20
-254.8587967882875
 11
-260.6459648851118
 21
-255.9930688971313
 72
     1
 10
-260.6459648851118
 20
-255.9930688971313
 11
-261.8387575872783
 21
-255.9930688971313
 72
     1
 10
-261.8387575872783
 20
-255.9930688971313
 11
-261.8387575872783
 21
-252.9392593733201
 72
     1
 10
-261.8387575872783
 20
-252.9392593733201
 11
-260.6459648851118
 21
-252.9392593733201
 72
     1
 10
-260.6459648851118
 20
-252.9392593733201
 11
-260.6459648851118
 21
-254.0080927066547
 72
     1
 10
-260.6459648851118
 20
-254.0080927066547
 11
-259.5963073072043
 21
-254.0080927066547
 72
     1
 10
-259.5963073072043
 20
-254.0080927066547
 11
-259.5963073072043
 21
-252.9392593733201
 72
     1
 10
-259.5963073072043
 20
-252.9392593733201
 11
-258.4035146050379
 21
-252.9392593733201
 72
     1
 10
-258.4035146050379
 20
-252.9392593733201
 11
-258.4035146050379
 21
-255.9930688971313
 97
       12
330
1ED
330
1EE
330
1D8
330
1D7
330
1D6
330
1EA
330
1D5
330
1EB
330
1EC
330
1D4
330
1D3
330
1D2
 75
     1
 76
     0
 52
45.0
 41
0.1
 77
     0
 78
     1
 53
45.0
 43
0.0
 44
0.0
 45
-0.0707106781186548
 46
0.0707106781186548
 79
     0
 98
        1
 10
0.0
 20
0.0
  0
HATCH
  5
281
330
71
100
AcDbEntity
  8
1
  6
Continuous
 62
     2
100
AcDbHatch
 10
0.0
 20
0.0
 30
0.0
210
0.0
220
0.0
230
1.0
  2
_USER
 70
     0
 71
     1
 91
        1
 92
        1
 93
       12
 72
     1
 10
-258.4035146050379
 20
-255.9930688971313
 11
-259.5963073072043
 21
-255.9930688971313
 72
     1
 10
-259.5963073072043
 20
-255.9930688971313
 11
-259.5963073072043
 21
-254.8587967882875
 72
     1
 10
-259.5963073072043
 20
-254.8587967882875
 11
-260.6459648851118
 21
-254.8587967882875
 72
     1
 10
-260.6459648851118
 20
-254.8587967882875
 11
-260.6459648851118
 21
-255.9930688971313
 72
     1
 10
-260.6459648851118
 20
-255.9930688971313
 11
-261.8387575872783
 21
-255.9930688971313
 72
     1
 10
-261.8387575872783
 20
-255.9930688971313
 11
-261.8387575872783
 21
-252.9392593733201
 72
     1
 10
-261.8387575872783
 20
-252.9392593733201
 11
-260.6459648851118
 21
-252.9392593733201
 72
     1
 10
-260.6459648851118
 20
-252.9392593733201
 11
-260.6459648851118
 21
-254.0080927066547
 72
     1
 10
-260.6459648851118
 20
-254.0080927066547
 11
-259.5963073072043
 21
-254.0080927066547
 72
     1
 10
-259.5963073072043
 20
-254.0080927066547
 11
-259.5963073072043
 21
-252.9392593733201
 72
     1
 10
-259.5963073072043
 20
-252.9392593733201
 11
-258.4035146050379
 21
-252.9392593733201
 72
     1
 10
-258.4035146050379
 20
-252.9392593733201
 11
-258.4035146050379
 21
-255.9930688971313
 97
       12
330
1ED
330
1EE
330
1D8
330
1D7
330
1D6
330
1EA
330
1D5
330
1EB
330
1EC
330
1D4
330
1D3
330
1D2
 75
     1
 76
     0
 52
45.0
 41
0.1
 77
     0
 78
     1
 53
45.0
 43
0.0
 44
0.0
 45
-0.0707106781186548
 46
0.0707106781186548
 79
     0
 98
        1
 10
0.0
 20
0.0
  0
HATCH
  5
282
330
71
100
AcDbEntity
  8
1
  6
Continuous
 62
     2
100
AcDbHatch
 10
0.0
 20
0.0
 30
0.0
210
0.0
220
0.0
230
1.0
  2
_USER
 70
     0
 71
     1
 91
        1
 92
        1
 93
       10
 72
     1
 10
-256.1612152558496
 20
-257.6072253596997
 11
-257.4017196661025
 21
-256.2984498494946
 72
     1
 10
-257.4017196661025
 20
-256.2984498494946
 11
-258.5945123682701
 21
-256.2984498494946
 72
     1
 10
-258.5945123682701
 20
-256.2984498494946
 11
-258.5945123682701
 21
-259.3522593733056
 72
     1
 10
-258.5945123682701
 20
-259.3522593733056
 11
-257.4017196661025
 21
-259.3522593733056
 72
     1
 10
-257.4017196661025
 20
-259.3522593733056
 11
-257.4017196661025
 21
-258.0434838631011
 72
     1
 10
-257.4017196661025
 20
-258.0434838631011
 11
-256.1612152558496
 21
-259.3522593733056
 72
     1
 10
-256.1612152558496
 20
-259.3522593733056
 11
-254.9684225536832
 21
-259.3522593733056
 72
     1
 10
-254.9684225536832
 20
-259.3522593733056
 11
-254.9684225536832
 21
-256.2984498494946
 72
     1
 10
-254.9684225536832
 20
-256.2984498494946
 11
-256.1612152558496
 21
-256.2984498494946
 72
     1
 10
-256.1612152558496
 20
-256.2984498494946
 11
-256.1612152558496
 21
-257.6072253596997
 97
       10
330
1FB
330
1CB
330
1CA
330
1CD
330
1F6
330
1F7
330
1CC
330
1F8
330
1F9
330
1FA
 75
     1
 76
     0
 52
45.0
 41
0.1
 77
     0
 78
     1
 53
45.0
 43
0.0
 44
0.0
 45
-0.0707106781186548
 46
0.0707106781186548
 79
     0
 98
        1
 10
0.0
 20
0.0
  0
HATCH
  5
283
330
71
100
AcDbEntity
  8
1
  6
Continuous
 62
     2
100
AcDbHatch
 10
0.0
 20
0.0
 30
0.0
210
0.0
220
0.0
230
1.0
  2
_USER
 70
     0
 71
     1
 91
        1
 92
        1
 93
       10
 72
     1
 10
-256.1612152558496
 20
-257.6072253596997
 11
-257.4017196661025
 21
-256.2984498494946
 72
     1
 10
-257.4017196661025
 20
-256.2984498494946
 11
-258.5945123682701
 21
-256.2984498494946
 72
     1
 10
-258.5945123682701
 20
-256.2984498494946
 11
-258.5945123682701
 21
-259.3522593733056
 72
     1
 10
-258.5945123682701
 20
-259.3522593733056
 11
-257.4017196661025
 21
-259.3522593733056
 72
     1
 10
-257.4017196661025
 20
-259.3522593733056
 11
-257.4017196661025
 21
-258.0434838631011
 72
     1
 10
-257.4017196661025
 20
-258.0434838631011
 11
-256.1612152558496
 21
-259.3522593733056
 72
     1
 10
-256.1612152558496
 20
-259.3522593733056
 11
-254.9684225536832
 21
-259.3522593733056
 72
     1
 10
-254.9684225536832
 20
-259.3522593733056
 11
-254.9684225536832
 21
-256.2984498494946
 72
     1
 10
-254.9684225536832
 20
-256.2984498494946
 11
-256.1612152558496
 21
-256.2984498494946
 72
     1
 10
-256.1612152558496
 20
-256.2984498494946
 11
-256.1612152558496
 21
-257.6072253596997
 97
       10
330
1FB
330
1CB
330
1CA
330
1CD
330
1F6
330
1F7
330
1CC
330
1F8
330
1F9
330
1FA
 75
     1
 76
     0
 52
45.0
 41
0.1
 77
     0
 78
     1
 53
45.0
 43
0.0
 44
0.0
 45
-0.0707106781186548
 46
0.0707106781186548
 79
     0
 98
        1
 10
0.0
 20
0.0
  0
HATCH
  5
284
330
71
100
AcDbEntity
  8
1
  6
Continuous
 62
     2
100
AcDbHatch
 10
0.0
 20
0.0
 30
0.0
210
0.0
220
0.0
230
1.0
  2
_USER
 70
     0
 71
     1
 91
        1
 92
        1
 93
       10
 72
     1
 10
-250.9127764354299
 20
-254.2480348835253
 11
-252.1532808456839
 21
-252.9392593733201
 72
     1
 10
-252.1532808456839
 20
-252.9392593733201
 11
-253.3460735478504
 21
-252.9392593733201
 72
     1
 10
-253.3460735478504
 20
-252.9392593733201
 11
-253.3460735478504
 21
-255.9930688971313
 72
     1
 10
-253.3460735478504
 20
-255.9930688971313
 11
-252.1532808456839
 21
-255.9930688971313
 72
     1
 10
-252.1532808456839
 20
-255.9930688971313
 11
-252.1532808456839
 21
-254.6842933869266
 72
     1
 10
-252.1532808456839
 20
-254.6842933869266
 11
-250.9127764354299
 21
-255.9930688971313
 72
     1
 10
-250.9127764354299
 20
-255.9930688971313
 11
-249.7199837332633
 21
-255.9930688971313
 72
     1
 10
-249.7199837332633
 20
-255.9930688971313
 11
-249.7199837332633
 21
-252.9392593733201
 72
     1
 10
-249.7199837332633
 20
-252.9392593733201
 11
-250.9127764354299
 21
-252.9392593733201
 72
     1
 10
-250.9127764354299
 20
-252.9392593733201
 11
-250.9127764354299
 21
-254.2480348835253
 97
       10
330
200
330
1C8
330
1C7
330
201
330
1C6
330
1FC
330
1FD
330
1FE
330
1FF
330
1C9
 75
     1
 76
     0
 52
45.0
 41
0.1
 77
     0
 78
     1
 53
45.0
 43
0.0
 44
0.0
 45
-0.0707106781186548
 46
0.0707106781186548
 79
     0
 98
        1
 10
0.0
 20
0.0
  0
HATCH
  5
285
330
71
100
AcDbEntity
  8
1
  6
Continuous
 62
     2
100
AcDbHatch
 10
0.0
 20
0.0
 30
0.0
210
0.0
220
0.0
230
1.0
  2
_USER
 70
     0
 71
     1
 91
        1
 92
        1
 93
       10
 72
     1
 10
-250.9127764354299
 20
-254.2480348835253
 11
-252.1532808456839
 21
-252.9392593733201
 72
     1
 10
-252.1532808456839
 20
-252.9392593733201
 11
-253.3460735478504
 21
-252.9392593733201
 72
     1
 10
-253.3460735478504
 20
-252.9392593733201
 11
-253.3460735478504
 21
-255.9930688971313
 72
     1
 10
-253.3460735478504
 20
-255.9930688971313
 11
-252.1532808456839
 21
-255.9930688971313
 72
     1
 10
-252.1532808456839
 20
-255.9930688971313
 11
-252.1532808456839
 21
-254.6842933869266
 72
     1
 10
-252.1532808456839
 20
-254.6842933869266
 11
-250.9127764354299
 21
-255.9930688971313
 72
     1
 10
-250.9127764354299
 20
-255.9930688971313
 11
-249.7199837332633
 21
-255.9930688971313
 72
     1
 10
-249.7199837332633
 20
-255.9930688971313
 11
-249.7199837332633
 21
-252.9392593733201
 72
     1
 10
-249.7199837332633
 20
-252.9392593733201
 11
-250.9127764354299
 21
-252.9392593733201
 72
     1
 10
-250.9127764354299
 20
-252.9392593733201
 11
-250.9127764354299
 21
-254.2480348835253
 97
       10
330
200
330
1C8
330
1C7
330
201
330
1C6
330
1FC
330
1FD
330
1FE
330
1FF
330
1C9
 75
     1
 76
     0
 52
45.0
 41
0.1
 77
     0
 78
     1
 53
45.0
 43
0.0
 44
0.0
 45
-0.0707106781186548
 46
0.0707106781186548
 79
     0
 98
        1
 10
0.0
 20
0.0
  0
HATCH
  5
286
330
71
100
AcDbEntity
  8
1
  6
Continuous
 62
     2
100
AcDbHatch
 10
0.0
 20
0.0
 30
0.0
210
0.0
220
0.0
230
1.0
  2
_USER
 70
     0
 71
     1
 91
        1
 92
        1
 93
        8
 72
     1
 10
-252.0102966523094
 20
-256.2984498494946
 11
-254.825287429423
 21
-256.2984498494946
 72
     1
 10
-254.825287429423
 20
-256.2984498494946
 11
-254.825287429423
 21
-257.0837151556182
 72
     1
 10
-254.825287429423
 20
-257.0837151556182
 11
-254.0141883919484
 21
-257.0837151556182
 72
     1
 10
-254.0141883919484
 20
-257.0837151556182
 11
-254.0141883919484
 21
-259.3522593733056
 72
     1
 10
-254.0141883919484
 20
-259.3522593733056
 11
-252.8213956897819
 21
-259.3522593733056
 72
     1
 10
-252.8213956897819
 20
-259.3522593733056
 11
-252.8213956897819
 21
-257.0837151556182
 72
     1
 10
-252.8213956897819
 20
-257.0837151556182
 11
-252.0102966523094
 21
-257.0837151556182
 72
     1
 10
-252.0102966523094
 20
-257.0837151556182
 11
-252.0102966523094
 21
-256.2984498494946
 97
        8
330
1C2
330
202
330
1C1
330
203
330
204
330
1C5
330
1C4
330
1C3
 75
     1
 76
     0
 52
45.0
 41
0.1
 77
     0
 78
     1
 53
45.0
 43
0.0
 44
0.0
 45
-0.0707106781186548
 46
0.0707106781186548
 79
     0
 98
        1
 10
0.0
 20
0.0
  0
HATCH
  5
287
330
71
100
AcDbEntity
  8
1
  6
Continuous
 62
     2
100
AcDbHatch
 10
0.0
 20
0.0
 30
0.0
210
0.0
220
0.0
230
1.0
  2
_USER
 70
     0
 71
     1
 91
        1
 92
        1
 93
        8
 72
     1
 10
-252.0102966523094
 20
-256.2984498494946
 11
-254.825287429423
 21
-256.2984498494946
 72
     1
 10
-254.825287429423
 20
-256.2984498494946
 11
-254.825287429423
 21
-257.0837151556182
 72
     1
 10
-254.825287429423
 20
-257.0837151556182
 11
-254.0141883919484
 21
-257.0837151556182
 72
     1
 10
-254.0141883919484
 20
-257.0837151556182
 11
-254.0141883919484
 21
-259.3522593733056
 72
     1
 10
-254.0141883919484
 20
-259.3522593733056
 11
-252.8213956897819
 21
-259.3522593733056
 72
     1
 10
-252.8213956897819
 20
-259.3522593733056
 11
-252.8213956897819
 21
-257.0837151556182
 72
     1
 10
-252.8213956897819
 20
-257.0837151556182
 11
-252.0102966523094
 21
-257.0837151556182
 72
     1
 10
-252.0102966523094
 20
-257.0837151556182
 11
-252.0102966523094
 21
-256.2984498494946
 97
        8
330
1C2
330
202
330
1C1
330
203
330
204
330
1C5
330
1C4
330
1C3
 75
     1
 76
     0
 52
45.0
 41
0.1
 77
     0
 78
     1
 53
45.0
 43
0.0
 44
0.0
 45
-0.0707106781186548
 46
0.0707106781186548
 79
     0
 98
        1
 10
0.0
 20
0.0
  0
HATCH
  5
288
330
71
100
AcDbEntity
  8
1
  6
Continuous
 62
     2
100
AcDbHatch
 10
0.0
 20
0.0
 30
0.0
210
0.0
220
0.0
230
1.0
  2
_USER
 70
     0
 71
     1
 91
        2
 92
        1
 93
        8
 72
     1
 10
-249.8718691963624
 20
-259.3522593733056
 11
-250.0833492498382
 21
-258.8112988290877
 72
     1
 10
-250.0833492498382
 20
-258.8112988290877
 11
-251.215790826512
 21
-258.8112988290877
 72
     1
 10
-251.215790826512
 20
-258.8112988290877
 11
-251.4272708799878
 21
-259.3522593733056
 72
     1
 10
-251.4272708799878
 20
-259.3522593733056
 11
-252.6677752902408
 21
-259.3522593733056
 72
     1
 10
-252.6677752902408
 20
-259.3522593733056
 11
-251.2698222433015
 21
-256.2984498494946
 72
     1
 10
-251.2698222433015
 20
-256.2984498494946
 11
-250.0293178330488
 21
-256.2984498494946
 72
     1
 10
-250.0293178330488
 20
-256.2984498494946
 11
-248.6313647861085
 21
-259.3522593733056
 72
     1
 10
-248.6313647861085
 20
-259.3522593733056
 11
-249.8718691963624
 21
-259.3522593733056
 97
        8
330
206
330
207
330
1BE
330
208
330
1BD
330
1C0
330
205
330
1BF
 92
       16
 93
        3
 72
     1
 10
-250.949735275367
 20
-258.1307355637812
 11
-250.6495700381746
 21
-257.3629205977944
 72
     1
 10
-250.6495700381746
 20
-257.3629205977944
 11
-250.3494048009845
 21
-258.1307355637812
 72
     1
 10
-250.3494048009845
 20
-258.1307355637812
 11
-250.949735275367
 21
-258.1307355637812
 97
        3
330
1BC
330
20A
330
209
 75
     1
 76
     0
 52
45.0
 41
0.1
 77
     0
 78
     1
 53
45.0
 43
0.0
 44
0.0
 45
-0.0707106781186548
 46
0.0707106781186548
 79
     0
 98
        1
 10
0.0
 20
0.0
  0
HATCH
  5
289
330
71
100
AcDbEntity
  8
1
  6
Continuous
 62
     2
100
AcDbHatch
 10
0.0
 20
0.0
 30
0.0
210
0.0
220
0.0
230
1.0
  2
_USER
 70
     0
 71
     1
 91
        2
 92
        1
 93
        8
 72
     1
 10
-249.8718691963624
 20
-259.3522593733056
 11
-250.0833492498382
 21
-258.8112988290877
 72
     1
 10
-250.0833492498382
 20
-258.8112988290877
 11
-251.215790826512
 21
-258.8112988290877
 72
     1
 10
-251.215790826512
 20
-258.8112988290877
 11
-251.4272708799878
 21
-259.3522593733056
 72
     1
 10
-251.4272708799878
 20
-259.3522593733056
 11
-252.6677752902408
 21
-259.3522593733056
 72
     1
 10
-252.6677752902408
 20
-259.3522593733056
 11
-251.2698222433015
 21
-256.2984498494946
 72
     1
 10
-251.2698222433015
 20
-256.2984498494946
 11
-250.0293178330488
 21
-256.2984498494946
 72
     1
 10
-250.0293178330488
 20
-256.2984498494946
 11
-248.6313647861085
 21
-259.3522593733056
 72
     1
 10
-248.6313647861085
 20
-259.3522593733056
 11
-249.8718691963624
 21
-259.3522593733056
 97
        8
330
206
330
207
330
1BE
330
208
330
1BD
330
1C0
330
205
330
1BF
 92
       16
 93
        3
 72
     1
 10
-250.949735275367
 20
-258.1307355637812
 11
-250.6495700381746
 21
-257.3629205977944
 72
     1
 10
-250.6495700381746
 20
-257.3629205977944
 11
-250.3494048009845
 21
-258.1307355637812
 72
     1
 10
-250.3494048009845
 20
-258.1307355637812
 11
-250.949735275367
 21
-258.1307355637812
 97
        3
330
1BC
330
20A
330
209
 75
     1
 76
     0
 52
45.0
 41
0.1
 77
     0
 78
     1
 53
45.0
 43
0.0
 44
0.0
 45
-0.0707106781186548
 46
0.0707106781186548
 79
     0
 98
        1
 10
0.0
 20
0.0
  0
HATCH
  5
28A
330
71
100
AcDbEntity
  8
1
  6
Continuous
 62
     2
100
AcDbHatch
 10
0.0
 20
0.0
 30
0.0
210
0.0
220
0.0
230
1.0
  2
_USER
 70
     0
 71
     1
 91
        1
 92
        1
 93
        4
 72
     1
 10
-248.2409207825765
 20
-255.9930688971313
 11
-249.4814251928294
 21
-255.9930688971313
 72
     1
 10
-249.4814251928294
 20
-255.9930688971313
 11
-249.4814251928294
 21
-252.9392593733201
 72
     1
 10
-249.4814251928294
 20
-252.9392593733201
 11
-248.2409207825765
 21
-252.9392593733201
 72
     1
 10
-248.2409207825765
 20
-252.9392593733201
 11
-248.2409207825765
 21
-255.9930688971313
 97
        4
330
1B9
330
1BB
330
20B
330
1BA
 75
     1
 76
     0
 52
45.0
 41
0.1
 77
     0
 78
     1
 53
45.0
 43
0.0
 44
0.0
 45
-0.0707106781186548
 46
0.0707106781186548
 79
     0
 98
        1
 10
0.0
 20
0.0
  0
HATCH
  5
28B
330
71
100
AcDbEntity
  8
1
  6
Continuous
 62
     2
100
AcDbHatch
 10
0.0
 20
0.0
 30
0.0
210
0.0
220
0.0
230
1.0
  2
_USER
 70
     0
 71
     1
 91
        1
 92
        1
 93
        4
 72
     1
 10
-248.2409207825765
 20
-255.9930688971313
 11
-249.4814251928294
 21
-255.9930688971313
 72
     1
 10
-249.4814251928294
 20
-255.9930688971313
 11
-249.4814251928294
 21
-252.9392593733201
 72
     1
 10
-249.4814251928294
 20
-252.9392593733201
 11
-248.2409207825765
 21
-252.9392593733201
 72
     1
 10
-248.2409207825765
 20
-252.9392593733201
 11
-248.2409207825765
 21
-255.9930688971313
 97
        4
330
1B9
330
1BB
330
20B
330
1BA
 75
     1
 76
     0
 52
45.0
 41
0.1
 77
     0
 78
     1
 53
45.0
 43
0.0
 44
0.0
 45
-0.0707106781186548
 46
0.0707106781186548
 79
     0
 98
        1
 10
0.0
 20
0.0
  0
HATCH
  5
28C
330
71
100
AcDbEntity
  8
1
  6
Continuous
 62
     2
100
AcDbHatch
 10
0.0
 20
0.0
 30
0.0
210
0.0
220
0.0
230
1.0
  2
_USER
 70
     0
 71
     1
 91
        1
 92
        1
 93
       12
 72
     1
 10
-244.0184346169057
 20
-252.9392593733201
 11
-245.3209642476722
 21
-254.4122099033563
 72
     1
 10
-245.3209642476722
 20
-254.4122099033563
 11
-243.9230112007319
 21
-255.9930688971313
 72
     1
 10
-243.9230112007319
 20
-255.9930688971313
 11
-245.3257354184802
 21
-255.9930688971313
 72
     1
 10
-245.3257354184802
 20
-255.9930688971313
 11
-246.0223263565457
 21
-255.2053371118376
 72
     1
 10
-246.0223263565457
 20
-255.2053371118376
 11
-246.7189172946114
 21
-255.9930688971313
 72
     1
 10
-246.7189172946114
 20
-255.9930688971313
 11
-248.1216415123596
 21
-255.9930688971313
 72
     1
 10
-248.1216415123596
 20
-255.9930688971313
 11
-246.7236884654193
 21
-254.4122099033563
 72
     1
 10
-246.7236884654193
 20
-254.4122099033563
 11
-248.0262180961868
 21
-252.9392593733201
 72
     1
 10
-248.0262180961868
 20
-252.9392593733201
 11
-246.6234938784375
 21
-252.9392593733201
 72
     1
 10
-246.6234938784375
 20
-252.9392593733201
 11
-246.0223263565457
 21
-253.6190826948756
 72
     1
 10
-246.0223263565457
 20
-253.6190826948756
 11
-245.4211588346529
 21
-252.9392593733201
 72
     1
 10
-245.4211588346529
 20
-252.9392593733201
 11
-244.0184346169057
 21
-252.9392593733201
 97
       12
330
1B4
330
1B3
330
1B2
330
20F
330
210
330
20C
330
20D
330
1B8
330
1B7
330
1B6
330
1B5
330
20E
 75
     1
 76
     0
 52
45.0
 41
0.1
 77
     0
 78
     1
 53
45.0
 43
0.0
 44
0.0
 45
-0.0707106781186548
 46
0.0707106781186548
 79
     0
 98
        1
 10
0.0
 20
0.0
  0
HATCH
  5
28D
330
71
100
AcDbEntity
  8
1
  6
Continuous
 62
     2
100
AcDbHatch
 10
0.0
 20
0.0
 30
0.0
210
0.0
220
0.0
230
1.0
  2
_USER
 70
     0
 71
     1
 91
        1
 92
        1
 93
       12
 72
     1
 10
-244.0184346169057
 20
-252.9392593733201
 11
-245.3209642476722
 21
-254.4122099033563
 72
     1
 10
-245.3209642476722
 20
-254.4122099033563
 11
-243.9230112007319
 21
-255.9930688971313
 72
     1
 10
-243.9230112007319
 20
-255.9930688971313
 11
-245.3257354184802
 21
-255.9930688971313
 72
     1
 10
-245.3257354184802
 20
-255.9930688971313
 11
-246.0223263565457
 21
-255.2053371118376
 72
     1
 10
-246.0223263565457
 20
-255.2053371118376
 11
-246.7189172946114
 21
-255.9930688971313
 72
     1
 10
-246.7189172946114
 20
-255.9930688971313
 11
-248.1216415123596
 21
-255.9930688971313
 72
     1
 10
-248.1216415123596
 20
-255.9930688971313
 11
-246.7236884654193
 21
-254.4122099033563
 72
     1
 10
-246.7236884654193
 20
-254.4122099033563
 11
-248.0262180961868
 21
-252.9392593733201
 72
     1
 10
-248.0262180961868
 20
-252.9392593733201
 11
-246.6234938784375
 21
-252.9392593733201
 72
     1
 10
-246.6234938784375
 20
-252.9392593733201
 11
-246.0223263565457
 21
-253.6190826948756
 72
     1
 10
-246.0223263565457
 20
-253.6190826948756
 11
-245.4211588346529
 21
-252.9392593733201
 72
     1
 10
-245.4211588346529
 20
-252.9392593733201
 11
-244.0184346169057
 21
-252.9392593733201
 97
       12
330
1B4
330
1B3
330
1B2
330
20F
330
210
330
20C
330
20D
330
1B8
330
1B7
330
1B6
330
1B5
330
20E
 75
     1
 76
     0
 52
45.0
 41
0.1
 77
     0
 78
     1
 53
45.0
 43
0.0
 44
0.0
 45
-0.0707106781186548
 46
0.0707106781186548
 79
     0
 98
        1
 10
0.0
 20
0.0
  0
HATCH
  5
28E
330
71
100
AcDbEntity
  8
1
  6
Continuous
 62
     2
100
AcDbHatch
 10
0.0
 20
0.0
 30
0.0
210
0.0
220
0.0
230
1.0
  2
_USER
 70
     0
 71
     1
 91
        2
 92
        1
 93
        6
 72
     1
 10
-263.0361700310517
 20
-255.0499906559875
 11
-263.794937618832
 21
-255.0499906559875
 72
     1
 10
-263.794937618832
 20
-255.0499906559875
 11
-263.794937618832
 21
-255.9930688971313
 72
     1
 10
-263.794937618832
 20
-255.9930688971313
 11
-265.0354420290861
 21
-255.9930688971313
 72
     1
 10
-265.0354420290861
 20
-255.9930688971313
 11
-265.0354420290861
 21
-252.9392593733201
 72
     1
 10
-265.0354420290861
 20
-252.9392593733201
 11
-263.0361700310517
 21
-252.9392593733201
 72
     2
 10
-263.0361700310517
 20
-253.9946250146538
 40
1.055365641333708
 50
270.0
 51
450.0
 73
     0
 97
        6
330
1DC
330
1DB
330
1E8
330
1E7
330
1DD
330
22D
 92
       16
 93
        4
 72
     2
 10
-263.4776425572901
 20
-253.9552290434313
 40
0.3528638246712035
 50
270.0
 51
450.0
 73
     1
 72
     1
 10
-263.4776425572901
 20
-253.6023652187602
 11
-263.794937618832
 21
-253.6023652187602
 72
     1
 10
-263.794937618832
 20
-253.6023652187602
 11
-263.794937618832
 21
-254.3080928681025
 72
     1
 10
-263.794937618832
 20
-254.3080928681025
 11
-263.4776425572901
 21
-254.3080928681025
 97
        4
330
241
330
1D9
330
1E9
330
1DA
 75
     1
 76
     0
 52
45.0
 41
0.1
 77
     0
 78
     1
 53
45.0
 43
0.0
 44
0.0
 45
-0.0707106781186548
 46
0.0707106781186548
 79
     0
 98
        1
 10
0.0
 20
0.0
  0
HATCH
  5
28F
330
71
100
AcDbEntity
  8
1
  6
Continuous
 62
     2
100
AcDbHatch
 10
0.0
 20
0.0
 30
0.0
210
0.0
220
0.0
230
1.0
  2
_USER
 70
     0
 71
     1
 91
        2
 92
        1
 93
        6
 72
     1
 10
-263.0361700310517
 20
-255.0499906559875
 11
-263.794937618832
 21
-255.0499906559875
 72
     1
 10
-263.794937618832
 20
-255.0499906559875
 11
-263.794937618832
 21
-255.9930688971313
 72
     1
 10
-263.794937618832
 20
-255.9930688971313
 11
-265.0354420290861
 21
-255.9930688971313
 72
     1
 10
-265.0354420290861
 20
-255.9930688971313
 11
-265.0354420290861
 21
-252.9392593733201
 72
     1
 10
-265.0354420290861
 20
-252.9392593733201
 11
-263.0361700310517
 21
-252.9392593733201
 72
     2
 10
-263.0361700310517
 20
-253.9946250146538
 40
1.055365641333708
 50
270.0
 51
450.0
 73
     0
 97
        6
330
1DC
330
1DB
330
1E8
330
1E7
330
1DD
330
22D
 92
       16
 93
        4
 72
     2
 10
-263.4776425572901
 20
-253.9552290434313
 40
0.3528638246712035
 50
270.0
 51
450.0
 73
     1
 72
     1
 10
-263.4776425572901
 20
-253.6023652187602
 11
-263.794937618832
 21
-253.6023652187602
 72
     1
 10
-263.794937618832
 20
-253.6023652187602
 11
-263.794937618832
 21
-254.3080928681025
 72
     1
 10
-263.794937618832
 20
-254.3080928681025
 11
-263.4776425572901
 21
-254.3080928681025
 97
        4
330
241
330
1D9
330
1E9
330
1DA
 75
     1
 76
     0
 52
45.0
 41
0.1
 77
     0
 78
     1
 53
45.0
 43
0.0
 44
0.0
 45
-0.0707106781186548
 46
0.0707106781186548
 79
     0
 98
        1
 10
0.0
 20
0.0
  0
HATCH
  5
290
330
71
100
AcDbEntity
  8
1
  6
Continuous
 62
     2
100
AcDbHatch
 10
0.0
 20
0.0
 30
0.0
210
0.0
220
0.0
230
1.0
  2
_USER
 70
     0
 71
     1
 91
        2
 92
        1
 93
        4
 72
     2
 10
-260.4796272826926
 20
-258.3639296217032
 40
2.065479772208694
 50
62.45185182430819
 51
117.5481481756653
 73
     1
 72
     2
 10
-260.7605671745259
 20
-257.8253546114004
 40
1.458034083651642
 50
117.5481481756618
 51
242.451851824333
 73
     1
 72
     2
 10
-260.4796272826926
 20
-257.286779601097
 40
2.065479772208497
 50
242.4518518243391
 51
297.5481481756875
 73
     1
 72
     2
 10
-260.1986873908593
 20
-257.8253546114004
 40
1.458034083651863
 50
297.5481481757027
 51
422.4518518243025
 73
     1
 97
        4
330
239
330
238
330
23A
330
237
 92
       16
 93
        4
 72
     2
 10
-260.679367319039
 20
-257.8253546114004
 40
0.7717997786795798
 50
321.8795802028458
 51
398.1204197971575
 73
     1
 72
     2
 10
-260.4796272826926
 20
-257.6686234332798
 40
0.5179085730132074
 50
38.12041979713908
 51
141.8795802028687
 73
     1
 72
     2
 10
-260.2798872463465
 20
-257.8253546114004
 40
0.7717997786794808
 50
141.8795802028346
 51
218.120419797162
 73
     1
 72
     2
 10
-260.4796272826926
 20
-257.9820857895203
 40
0.5179085730137529
 50
218.1204197971956
 51
321.8795802027966
 73
     1
 97
        4
330
255
330
252
330
253
330
254
 75
     1
 76
     0
 52
45.0
 41
0.1
 77
     0
 78
     1
 53
45.0
 43
0.0
 44
0.0
 45
-0.0707106781186548
 46
0.0707106781186548
 79
     0
 98
        1
 10
0.0
 20
0.0
  0
HATCH
  5
291
330
71
100
AcDbEntity
  8
1
  6
Continuous
 62
     2
100
AcDbHatch
 10
0.0
 20
0.0
 30
0.0
210
0.0
220
0.0
230
1.0
  2
_USER
 70
     0
 71
     1
 91
        2
 92
        1
 93
        4
 72
     2
 10
-260.4796272826926
 20
-258.3639296217032
 40
2.065479772208694
 50
62.45185182430819
 51
117.5481481756653
 73
     1
 72
     2
 10
-260.7605671745259
 20
-257.8253546114004
 40
1.458034083651642
 50
117.5481481756618
 51
242.451851824333
 73
     1
 72
     2
 10
-260.4796272826926
 20
-257.286779601097
 40
2.065479772208497
 50
242.4518518243391
 51
297.5481481756875
 73
     1
 72
     2
 10
-260.1986873908593
 20
-257.8253546114004
 40
1.458034083651863
 50
297.5481481757027
 51
422.4518518243025
 73
     1
 97
        4
330
239
330
238
330
23A
330
237
 92
       16
 93
        4
 72
     2
 10
-260.679367319039
 20
-257.8253546114004
 40
0.7717997786795798
 50
321.8795802028458
 51
398.1204197971575
 73
     1
 72
     2
 10
-260.4796272826926
 20
-257.6686234332798
 40
0.5179085730132074
 50
38.12041979713908
 51
141.8795802028687
 73
     1
 72
     2
 10
-260.2798872463465
 20
-257.8253546114004
 40
0.7717997786794808
 50
141.8795802028346
 51
218.120419797162
 73
     1
 72
     2
 10
-260.4796272826926
 20
-257.9820857895203
 40
0.5179085730137529
 50
218.1204197971956
 51
321.8795802027966
 73
     1
 97
        4
330
255
330
252
330
253
330
254
 75
     1
 76
     0
 52
45.0
 41
0.1
 77
     0
 78
     1
 53
45.0
 43
0.0
 44
0.0
 45
-0.0707106781186548
 46
0.0707106781186548
 79
     0
 98
        1
 10
0.0
 20
0.0
  0
HATCH
  5
292
330
71
100
AcDbEntity
  8
1
  6
Continuous
 62
     2
100
AcDbHatch
 10
0.0
 20
0.0
 30
0.0
210
0.0
220
0.0
230
1.0
  2
_USER
 70
     0
 71
     1
 91
        2
 92
        1
 93
       12
 72
     1
 10
-253.5846320882833
 20
-253.6372729787631
 11
-254.920559914711
 21
-253.6372729787631
 72
     1
 10
-254.920559914711
 20
-253.6372729787631
 11
-254.920559914711
 21
-254.1171573325048
 72
     1
 10
-254.920559914711
 20
-254.1171573325048
 11
-253.5846320882833
 21
-254.1171573325048
 72
     1
 10
-253.5846320882833
 20
-254.1171573325048
 11
-253.5846320882833
 21
-254.8151709379471
 72
     1
 10
-253.5846320882833
 20
-254.8151709379471
 11
-254.920559914711
 21
-254.8151709379471
 72
     1
 10
-254.920559914711
 20
-254.8151709379471
 11
-254.920559914711
 21
-255.2950552916888
 72
     1
 10
-254.920559914711
 20
-255.2950552916888
 11
-253.5846320882833
 21
-255.2950552916888
 72
     1
 10
-253.5846320882833
 20
-255.2950552916888
 11
-253.5846320882833
 21
-255.9930688971313
 72
     1
 10
-253.5846320882833
 20
-255.9930688971313
 11
-256.7349518120643
 21
-255.9930688971313
 72
     2
 10
-256.7349518120643
 20
-254.466164135226
 40
1.526904761905882
 50
90.0
 51
270.0
 73
     0
 72
     1
 10
-256.7349518120643
 20
-252.9392593733201
 11
-253.5846320882833
 21
-252.9392593733201
 72
     1
 10
-253.5846320882833
 20
-252.9392593733201
 11
-253.5846320882833
 21
-253.6372729787631
 97
       12
330
1F0
330
242
330
1F1
330
1F2
330
1F3
330
1F4
330
1D1
330
1D0
330
1CF
330
1CE
330
1F5
330
1EF
 92
       16
 93
        4
 72
     2
 10
-256.5186798018991
 20
-254.3094329571055
 40
0.5179085730135441
 50
38.12041979714581
 51
141.8795802028464
 73
     1
 72
     2
 10
-256.3189397655528
 20
-254.466164135226
 40
0.7717997786797123
 50
141.8795802028401
 51
218.1204197971599
 73
     1
 72
     2
 10
-256.5186798018991
 20
-254.6228953133465
 40
0.5179085730134372
 50
218.1204197971511
 51
321.8795802028566
 73
     1
 72
     2
 10
-256.7184198382453
 20
-254.466164135226
 40
0.7717997786797123
 50
321.8795802028401
 51
398.1204197971599
 73
     1
 97
        4
330
23C
330
23B
330
236
330
235
 75
     1
 76
     0
 52
45.0
 41
0.1
 77
     0
 78
     1
 53
45.0
 43
0.0
 44
0.0
 45
-0.0707106781186548
 46
0.0707106781186548
 79
     0
 98
        1
 10
0.0
 20
0.0
  0
HATCH
  5
293
330
71
100
AcDbEntity
  8
1
  6
Continuous
 62
     2
100
AcDbHatch
 10
0.0
 20
0.0
 30
0.0
210
0.0
220
0.0
230
1.0
  2
_USER
 70
     0
 71
     1
 91
        2
 92
        1
 93
       12
 72
     1
 10
-253.5846320882833
 20
-253.6372729787631
 11
-254.920559914711
 21
-253.6372729787631
 72
     1
 10
-254.920559914711
 20
-253.6372729787631
 11
-254.920559914711
 21
-254.1171573325048
 72
     1
 10
-254.920559914711
 20
-254.1171573325048
 11
-253.5846320882833
 21
-254.1171573325048
 72
     1
 10
-253.5846320882833
 20
-254.1171573325048
 11
-253.5846320882833
 21
-254.8151709379471
 72
     1
 10
-253.5846320882833
 20
-254.8151709379471
 11
-254.920559914711
 21
-254.8151709379471
 72
     1
 10
-254.920559914711
 20
-254.8151709379471
 11
-254.920559914711
 21
-255.2950552916888
 72
     1
 10
-254.920559914711
 20
-255.2950552916888
 11
-253.5846320882833
 21
-255.2950552916888
 72
     1
 10
-253.5846320882833
 20
-255.2950552916888
 11
-253.5846320882833
 21
-255.9930688971313
 72
     1
 10
-253.5846320882833
 20
-255.9930688971313
 11
-256.7349518120643
 21
-255.9930688971313
 72
     2
 10
-256.7349518120643
 20
-254.466164135226
 40
1.526904761905882
 50
90.0
 51
270.0
 73
     0
 72
     1
 10
-256.7349518120643
 20
-252.9392593733201
 11
-253.5846320882833
 21
-252.9392593733201
 72
     1
 10
-253.5846320882833
 20
-252.9392593733201
 11
-253.5846320882833
 21
-253.6372729787631
 97
       12
330
1F0
330
242
330
1F1
330
1F2
330
1F3
330
1F4
330
1D1
330
1D0
330
1CF
330
1CE
330
1F5
330
1EF
 92
       16
 93
        4
 72
     2
 10
-256.5186798018991
 20
-254.3094329571055
 40
0.5179085730135441
 50
38.12041979714581
 51
141.8795802028464
 73
     1
 72
     2
 10
-256.3189397655528
 20
-254.466164135226
 40
0.7717997786797123
 50
141.8795802028401
 51
218.1204197971599
 73
     1
 72
     2
 10
-256.5186798018991
 20
-254.6228953133465
 40
0.5179085730134372
 50
218.1204197971511
 51
321.8795802028566
 73
     1
 72
     2
 10
-256.7184198382453
 20
-254.466164135226
 40
0.7717997786797123
 50
321.8795802028401
 51
398.1204197971599
 73
     1
 97
        4
330
23C
330
23B
330
236
330
235
 75
     1
 76
     0
 52
45.0
 41
0.1
 77
     0
 78
     1
 53
45.0
 43
0.0
 44
0.0
 45
-0.0707106781186548
 46
0.0707106781186548
 79
     0
 98
        1
 10
0.0
 20
0.0
  0
HATCH
  5
294
330
71
100
AcDbEntity
  8
1
  6
Continuous
 62
     2
100
AcDbHatch
 10
0.0
 20
0.0
 30
0.0
210
0.0
220
0.0
230
1.0
  2
_USER
 70
     0
 71
     1
 91
        4
 92
        1
 93
        8
 72
     1
 10
-265.5125591099529
 20
-253.3635039887221
 11
-265.5125591099529
 21
-258.9280147579224
 72
     2
 10
-265.9368037253367
 20
-258.9280147579224
 40
0.424244615383202
 50
0.0
 51
90.0
 73
     0
 72
     1
 10
-265.9368037253367
 20
-259.3522593733056
 11
-271.4101158160536
 21
-259.3522593733056
 72
     2
 10
-271.4101158160536
 20
-258.9280147579224
 40
0.4242446153828041
 50
90.0
 51
180.0
 73
     0
 72
     1
 10
-271.8343604314364
 20
-258.9280147579224
 11
-271.8343604314364
 21
-253.3635039887221
 72
     2
 10
-271.4101158160536
 20
-253.3635039887221
 40
0.4242446153837989
 50
180.0
 51
270.0
 73
     0
 72
     1
 10
-271.4101158160536
 20
-252.9392593733383
 11
-265.9368037253367
 21
-252.9392593733383
 72
     2
 10
-265.9368037253367
 20
-253.3635039887221
 40
0.4242446153837705
 50
270.0
 51
360.0
 73
     0
 97
        8
330
1E4
330
232
330
1E5
330
23D
330
1E2
330
234
330
1E3
330
233
 92
       16
 93
        1
 72
     2
 10
-268.7905301655361
 20
-255.6823862170776
 40
0.4709789327785074
 50
0.0
 51
360.0
 73
     1
 97
        1
330
258
 92
       16
 93
        8
 72
     2
 10
-268.2406724527754
 20
-256.791527817046
 40
0.3157169230764423
 50
115.3740086783653
 51
180.0
 73
     1
 72
     1
 10
-268.5563893758522
 20
-256.791527817046
 11
-268.5563893758522
 21
-257.3733792237412
 72
     2
 10
-268.2406724527754
 20
-257.3733792237412
 40
0.3157169230767636
 50
180.0
 51
269.8110329574592
 73
     1
 72
     2
 10
-268.2350563174654
 20
-255.6705442761721
 40
2.018561131933266
 50
269.8110329575874
 51
450.1889670424126
 73
     1
 72
     2
 10
-268.2406724527754
 20
-253.967709328603
 40
0.315716923076071
 50
90.18896704254078
 51
180.0
 73
     1
 72
     1
 10
-268.5563893758522
 20
-253.967709328603
 11
-268.5563893758522
 21
-254.5732446171098
 72
     2
 10
-268.2406724527754
 20
-254.5732446171098
 40
0.3157169230767636
 50
180.0
 51
244.6259913216435
 73
     1
 72
     2
 10
-268.7667151508633
 20
-255.6823862170776
 40
0.9118481501445617
 50
295.3740086781925
 51
424.6259913218266
 73
     0
 97
        8
330
24A
330
1AB
330
247
330
248
330
226
330
1AA
330
249
330
225
 92
       16
 93
       12
 72
     2
 10
-270.8162211393071
 20
-258.323986894672
 40
0.3157169230756836
 50
180.0
 51
270.0
 73
     1
 72
     1
 10
-270.8162211393071
 20
-258.6397038177487
 11
-269.3403878782975
 21
-258.6397038177487
 72
     2
 10
-269.3403878782975
 20
-258.323986894672
 40
0.3157169230767067
 50
270.0
 51
360.0
 73
     1
 72
     1
 10
-269.0246709552209
 20
-258.323986894672
 11
-269.0246709552209
 21
-256.7932159631404
 72
     2
 10
-269.3403878782975
 20
-256.7932159631404
 40
0.315716923076593
 50
0.0
 51
64.8055893514559
 73
     1
 72
     2
 10
-268.8178034307225
 20
-255.6823862170776
 40
0.9118975235576268
 50
115.1944106485116
 51
244.8055893514702
 73
     0
 72
     2
 10
-269.3403878782975
 20
-254.5715564710154
 40
0.3157169230761203
 50
295.1944106485397
 51
360.0
 73
     1
 72
     1
 10
-269.0246709552209
 20
-254.5715564710154
 11
-269.0246709552209
 21
-253.9675318519549
 72
     2
 10
-269.3403878782975
 20
-253.9675318519549
 40
0.315716923076593
 50
0.0
 51
90.0
 73
     1
 72
     1
 10
-269.3403878782975
 20
-253.6518149288787
 11
-270.8162211393071
 21
-253.6518149288787
 72
     2
 10
-270.8162211393071
 20
-253.9675318519549
 40
0.3157169230761951
 50
90.0
 51
180.0
 73
     1
 72
     1
 10
-271.1319380623828
 20
-253.9675318519549
 11
-271.1319380623828
 21
-258.323986894672
 97
       12
330
22E
330
1E6
330
231
330
1E1
330
23E
330
23F
330
230
330
1E0
330
22F
330
1DF
330
240
330
1DE
 75
     1
 76
     0
 52
45.0
 41
0.1
 77
     0
 78
     1
 53
45.0
 43
0.0
 44
0.0
 45
-0.0707106781186548
 46
0.0707106781186548
 79
     0
 98
        1
 10
0.0
 20
0.0
  0
HATCH
  5
295
330
71
100
AcDbEntity
  8
1
  6
Continuous
 62
     2
100
AcDbHatch
 10
0.0
 20
0.0
 30
0.0
210
0.0
220
0.0
230
1.0
  2
_USER
 70
     0
 71
     1
 91
        4
 92
        1
 93
        8
 72
     1
 10
-265.5125591099529
 20
-253.3635039887221
 11
-265.5125591099529
 21
-258.9280147579224
 72
     2
 10
-265.9368037253367
 20
-258.9280147579224
 40
0.424244615383202
 50
0.0
 51
90.0
 73
     0
 72
     1
 10
-265.9368037253367
 20
-259.3522593733056
 11
-271.4101158160536
 21
-259.3522593733056
 72
     2
 10
-271.4101158160536
 20
-258.9280147579224
 40
0.4242446153828041
 50
90.0
 51
180.0
 73
     0
 72
     1
 10
-271.8343604314364
 20
-258.9280147579224
 11
-271.8343604314364
 21
-253.3635039887221
 72
     2
 10
-271.4101158160536
 20
-253.3635039887221
 40
0.4242446153837989
 50
180.0
 51
270.0
 73
     0
 72
     1
 10
-271.4101158160536
 20
-252.9392593733383
 11
-265.9368037253367
 21
-252.9392593733383
 72
     2
 10
-265.9368037253367
 20
-253.3635039887221
 40
0.4242446153837705
 50
270.0
 51
360.0
 73
     0
 97
        8
330
1E4
330
232
330
1E5
330
23D
330
1E2
330
234
330
1E3
330
233
 92
       16
 93
        1
 72
     2
 10
-268.7905301655361
 20
-255.6823862170776
 40
0.4709789327785074
 50
0.0
 51
360.0
 73
     1
 97
        1
330
258
 92
       16
 93
        8
 72
     2
 10
-268.2406724527754
 20
-256.791527817046
 40
0.3157169230764423
 50
115.3740086783653
 51
180.0
 73
     1
 72
     1
 10
-268.5563893758522
 20
-256.791527817046
 11
-268.5563893758522
 21
-257.3733792237412
 72
     2
 10
-268.2406724527754
 20
-257.3733792237412
 40
0.3157169230767636
 50
180.0
 51
269.8110329574592
 73
     1
 72
     2
 10
-268.2350563174654
 20
-255.6705442761721
 40
2.018561131933266
 50
269.8110329575874
 51
450.1889670424126
 73
     1
 72
     2
 10
-268.2406724527754
 20
-253.967709328603
 40
0.315716923076071
 50
90.18896704254078
 51
180.0
 73
     1
 72
     1
 10
-268.5563893758522
 20
-253.967709328603
 11
-268.5563893758522
 21
-254.5732446171098
 72
     2
 10
-268.2406724527754
 20
-254.5732446171098
 40
0.3157169230767636
 50
180.0
 51
244.6259913216435
 73
     1
 72
     2
 10
-268.7667151508633
 20
-255.6823862170776
 40
0.9118481501445617
 50
295.3740086781925
 51
424.6259913218266
 73
     0
 97
        8
330
24A
330
1AB
330
247
330
248
330
226
330
1AA
330
249
330
225
 92
       16
 93
       12
 72
     2
 10
-270.8162211393071
 20
-258.323986894672
 40
0.3157169230756836
 50
180.0
 51
270.0
 73
     1
 72
     1
 10
-270.8162211393071
 20
-258.6397038177487
 11
-269.3403878782975
 21
-258.6397038177487
 72
     2
 10
-269.3403878782975
 20
-258.323986894672
 40
0.3157169230767067
 50
270.0
 51
360.0
 73
     1
 72
     1
 10
-269.0246709552209
 20
-258.323986894672
 11
-269.0246709552209
 21
-256.7932159631404
 72
     2
 10
-269.3403878782975
 20
-256.7932159631404
 40
0.315716923076593
 50
0.0
 51
64.8055893514559
 73
     1
 72
     2
 10
-268.8178034307225
 20
-255.6823862170776
 40
0.9118975235576268
 50
115.1944106485116
 51
244.8055893514702
 73
     0
 72
     2
 10
-269.3403878782975
 20
-254.5715564710154
 40
0.3157169230761203
 50
295.1944106485397
 51
360.0
 73
     1
 72
     1
 10
-269.0246709552209
 20
-254.5715564710154
 11
-269.0246709552209
 21
-253.9675318519549
 72
     2
 10
-269.3403878782975
 20
-253.9675318519549
 40
0.315716923076593
 50
0.0
 51
90.0
 73
     1
 72
     1
 10
-269.3403878782975
 20
-253.6518149288787
 11
-270.8162211393071
 21
-253.6518149288787
 72
     2
 10
-270.8162211393071
 20
-253.9675318519549
 40
0.3157169230761951
 50
90.0
 51
180.0
 73
     1
 72
     1
 10
-271.1319380623828
 20
-253.9675318519549
 11
-271.1319380623828
 21
-258.323986894672
 97
       12
330
22E
330
1E6
330
231
330
1E1
330
23E
330
23F
330
230
330
1E0
330
22F
330
1DF
330
240
330
1DE
 75
     1
 76
     0
 52
45.0
 41
0.1
 77
     0
 78
     1
 53
45.0
 43
0.0
 44
0.0
 45
-0.0707106781186548
 46
0.0707106781186548
 79
     0
 98
        1
 10
0.0
 20
0.0
  0
HATCH
  5
296
330
71
100
AcDbEntity
  8
1
  6
Continuous
 62
     2
100
AcDbHatch
 10
0.0
 20
0.0
 30
0.0
210
0.0
220
0.0
230
1.0
  2
_USER
 70
     0
 71
     1
 91
        1
 92
        1
 93
       18
 72
     1
 10
-243.9230112007319
 20
-257.0837151556182
 11
-244.7341102382053
 21
-257.0837151556182
 72
     1
 10
-244.7341102382053
 20
-257.0837151556182
 11
-244.7341102382053
 21
-259.3522593733056
 72
     1
 10
-244.7341102382053
 20
-259.3522593733056
 11
-245.926902940373
 21
-259.3522593733056
 72
     1
 10
-245.926902940373
 20
-259.3522593733056
 11
-245.926902940373
 21
-257.0837151556182
 72
     1
 10
-245.926902940373
 20
-257.0837151556182
 11
-247.0305422399411
 21
-257.0837151556182
 72
     2
 10
-247.0305422399411
 20
-258.0382381624443
 40
0.9545230068260935
 50
90.0
 51
109.3371432194309
 73
     1
 72
     2
 10
-247.1772122380448
 20
-257.6202831820614
 40
0.511580060194468
 50
109.3371432194832
 51
151.4785267424085
 73
     1
 72
     2
 10
-246.7998549799634
 20
-257.8253546114004
 40
0.9410597353349602
 50
151.4785267423548
 51
208.5214732576695
 73
     1
 72
     2
 10
-247.1772122380448
 20
-258.0304260407388
 40
0.5115800601960759
 50
208.5214732576978
 51
246.6277221118499
 73
     1
 72
     2
 10
-247.0207722053417
 20
-257.6684340220288
 40
0.9059297849853845
 50
246.6277221118211
 51
288.4480761180794
 73
     1
 72
     2
 10
-247.4389399390036
 20
-256.4148882459922
 40
2.22738400897288
 50
288.4480761181323
 51
301.9309089499378
 73
     1
 72
     1
 10
-246.2608848969797
 20
-258.3052389651421
 11
-246.2608848969797
 21
-259.1777559719453
 72
     2
 10
-247.5968128140964
 20
-254.5126736661439
 40
4.852596863498796
 50
74.02000874166129
 51
84.8418552303636
 73
     0
 72
     2
 10
-247.3079567193606
 20
-257.7125642493655
 40
1.639695123940434
 50
84.8418552303236
 51
164.9381082229007
 73
     0
 72
     2
 10
-247.7270845628222
 20
-257.8253546114004
 40
1.205656168393032
 50
164.9381082229106
 51
195.0618917771024
 73
     0
 72
     2
 10
-247.3079567193606
 20
-257.9381449734352
 40
1.639695123940214
 50
195.061891777105
 51
270.0
 73
     0
 72
     1
 10
-247.3079567193606
 20
-256.298449849495
 11
-243.9230112007319
 21
-256.2984498494946
 72
     1
 10
-243.9230112007319
 20
-256.2984498494946
 11
-243.9230112007319
 21
-257.0837151556182
 97
       18
330
1AD
330
243
330
244
330
22C
330
22B
330
211
330
22A
330
229
330
245
330
228
330
246
330
227
330
212
330
1AC
330
1B1
330
1B0
330
1AF
330
1AE
 75
     1
 76
     0
 52
45.0
 41
0.1
 77
     0
 78
     1
 53
45.0
 43
0.0
 44
0.0
 45
-0.0707106781186548
 46
0.0707106781186548
 79
     0
 98
        1
 10
0.0
 20
0.0
  0
HATCH
  5
297
330
71
100
AcDbEntity
  8
1
  6
Continuous
 62
     2
100
AcDbHatch
 10
0.0
 20
0.0
 30
0.0
210
0.0
220
0.0
230
1.0
  2
_USER
 70
     0
 71
     1
 91
        1
 92
        1
 93
       18
 72
     1
 10
-243.9230112007319
 20
-257.0837151556182
 11
-244.7341102382053
 21
-257.0837151556182
 72
     1
 10
-244.7341102382053
 20
-257.0837151556182
 11
-244.7341102382053
 21
-259.3522593733056
 72
     1
 10
-244.7341102382053
 20
-259.3522593733056
 11
-245.926902940373
 21
-259.3522593733056
 72
     1
 10
-245.926902940373
 20
-259.3522593733056
 11
-245.926902940373
 21
-257.0837151556182
 72
     1
 10
-245.926902940373
 20
-257.0837151556182
 11
-247.0305422399411
 21
-257.0837151556182
 72
     2
 10
-247.0305422399411
 20
-258.0382381624443
 40
0.9545230068260935
 50
90.0
 51
109.3371432194309
 73
     1
 72
     2
 10
-247.1772122380448
 20
-257.6202831820614
 40
0.511580060194468
 50
109.3371432194832
 51
151.4785267424085
 73
     1
 72
     2
 10
-246.7998549799634
 20
-257.8253546114004
 40
0.9410597353349602
 50
151.4785267423548
 51
208.5214732576695
 73
     1
 72
     2
 10
-247.1772122380448
 20
-258.0304260407388
 40
0.5115800601960759
 50
208.5214732576978
 51
246.6277221118499
 73
     1
 72
     2
 10
-247.0207722053417
 20
-257.6684340220288
 40
0.9059297849853845
 50
246.6277221118211
 51
288.4480761180794
 73
     1
 72
     2
 10
-247.4389399390036
 20
-256.4148882459922
 40
2.22738400897288
 50
288.4480761181323
 51
301.9309089499378
 73
     1
 72
     1
 10
-246.2608848969797
 20
-258.3052389651421
 11
-246.2608848969797
 21
-259.1777559719453
 72
     2
 10
-247.5968128140964
 20
-254.5126736661439
 40
4.852596863498796
 50
74.02000874166129
 51
84.8418552303636
 73
     0
 72
     2
 10
-247.3079567193606
 20
-257.7125642493655
 40
1.639695123940434
 50
84.8418552303236
 51
164.9381082229007
 73
     0
 72
     2
 10
-247.7270845628222
 20
-257.8253546114004
 40
1.205656168393032
 50
164.9381082229106
 51
195.0618917771024
 73
     0
 72
     2
 10
-247.3079567193606
 20
-257.9381449734352
 40
1.639695123940214
 50
195.061891777105
 51
270.0
 73
     0
 72
     1
 10
-247.3079567193606
 20
-256.298449849495
 11
-243.9230112007319
 21
-256.2984498494946
 72
     1
 10
-243.9230112007319
 20
-256.2984498494946
 11
-243.9230112007319
 21
-257.0837151556182
 97
       18
330
1AD
330
243
330
244
330
22C
330
22B
330
211
330
22A
330
229
330
245
330
228
330
246
330
227
330
212
330
1AC
330
1B1
330
1B0
330
1AF
330
1AE
 75
     1
 76
     0
 52
45.0
 41
0.1
 77
     0
 78
     1
 53
45.0
 43
0.0
 44
0.0
 45
-0.0707106781186548
 46
0.0707106781186548
 79
     0
 98
        1
 10
0.0
 20
0.0
  0
HATCH
  5
298
330
71
100
AcDbEntity
  8
1
  6
Continuous
 62
     2
100
AcDbHatch
 10
0.0
 20
0.0
 30
0.0
210
0.0
220
0.0
230
1.0
  2
_USER
 70
     0
 71
     1
 91
        1
 92
        1
 93
       14
 72
     2
 10
-263.4106581986135
 20
-257.9381449734352
 40
1.639695123940393
 50
84.841855230362
 51
164.938108222887
 73
     1
 72
     2
 10
-263.8297860420763
 20
-257.8253546114004
 40
1.205656168391001
 50
164.9381082228716
 51
195.0618917770945
 73
     1
 72
     2
 10
-263.4106581986135
 20
-257.7125642493655
 40
1.639695123939464
 50
195.0618917770919
 51
275.1581447696396
 73
     1
 72
     2
 10
-263.6995142933494
 20
-254.5126736661439
 40
4.852596863498141
 50
275.1581447696253
 51
285.979991258353
 73
     1
 72
     1
 10
-262.3635863762316
 20
-259.1777559719448
 11
-262.3635863762316
 21
-258.3052389651415
 72
     2
 10
-263.5416414182565
 20
-256.4148882459916
 40
2.227384008972773
 50
58.06909105003913
 51
71.55192388186677
 73
     0
 72
     2
 10
-263.1234736845956
 20
-257.6684340220288
 40
0.9059297849850687
 50
71.55192388184892
 51
113.3722778881327
 73
     0
 72
     2
 10
-263.2799137172977
 20
-258.0304260407388
 40
0.5115800601948284
 50
113.3722778881705
 51
151.4785267423059
 73
     0
 72
     2
 10
-262.9025564592174
 20
-257.8253546114004
 40
0.9410597353332545
 50
151.4785267423003
 51
208.5214732577331
 73
     0
 72
     2
 10
-263.2799137172977
 20
-257.6202831820614
 40
0.5115800601950196
 50
208.521473257694
 51
246.6277221118043
 73
     0
 72
     2
 10
-263.1234736845956
 20
-257.9822752007719
 40
0.9059297849851791
 50
246.6277221118644
 51
288.448076118142
 73
     0
 72
     2
 10
-263.5416414182565
 20
-259.2358209768086
 40
2.227384008973628
 50
288.4480761181333
 51
301.9309089499586
 73
     0
 72
     1
 10
-262.3635863762316
 20
-257.3454702576586
 11
-262.3635863762316
 21
-256.4729532508553
 72
     2
 10
-263.6995142933494
 20
-261.1380355566562
 40
4.852596863498049
 50
74.02000874164696
 51
84.84185523037458
 73
     1
 97
       14
330
24B
330
24C
330
24D
330
24E
330
213
330
224
330
223
330
222
330
24F
330
250
330
221
330
251
330
214
330
220
 75
     1
 76
     0
 52
45.0
 41
0.1
 77
     0
 78
     1
 53
45.0
 43
0.0
 44
0.0
 45
-0.0707106781186548
 46
0.0707106781186548
 79
     0
 98
        1
 10
0.0
 20
0.0
  0
HATCH
  5
299
330
71
100
AcDbEntity
  8
1
  6
Continuous
 62
     2
100
AcDbHatch
 10
0.0
 20
0.0
 30
0.0
210
0.0
220
0.0
230
1.0
  2
_USER
 70
     0
 71
     1
 91
        1
 92
        1
 93
       14
 72
     2
 10
-263.4106581986135
 20
-257.9381449734352
 40
1.639695123940393
 50
84.841855230362
 51
164.938108222887
 73
     1
 72
     2
 10
-263.8297860420763
 20
-257.8253546114004
 40
1.205656168391001
 50
164.9381082228716
 51
195.0618917770945
 73
     1
 72
     2
 10
-263.4106581986135
 20
-257.7125642493655
 40
1.639695123939464
 50
195.0618917770919
 51
275.1581447696396
 73
     1
 72
     2
 10
-263.6995142933494
 20
-254.5126736661439
 40
4.852596863498141
 50
275.1581447696253
 51
285.979991258353
 73
     1
 72
     1
 10
-262.3635863762316
 20
-259.1777559719448
 11
-262.3635863762316
 21
-258.3052389651415
 72
     2
 10
-263.5416414182565
 20
-256.4148882459916
 40
2.227384008972773
 50
58.06909105003913
 51
71.55192388186677
 73
     0
 72
     2
 10
-263.1234736845956
 20
-257.6684340220288
 40
0.9059297849850687
 50
71.55192388184892
 51
113.3722778881327
 73
     0
 72
     2
 10
-263.2799137172977
 20
-258.0304260407388
 40
0.5115800601948284
 50
113.3722778881705
 51
151.4785267423059
 73
     0
 72
     2
 10
-262.9025564592174
 20
-257.8253546114004
 40
0.9410597353332545
 50
151.4785267423003
 51
208.5214732577331
 73
     0
 72
     2
 10
-263.2799137172977
 20
-257.6202831820614
 40
0.5115800601950196
 50
208.521473257694
 51
246.6277221118043
 73
     0
 72
     2
 10
-263.1234736845956
 20
-257.9822752007719
 40
0.9059297849851791
 50
246.6277221118644
 51
288.448076118142
 73
     0
 72
     2
 10
-263.5416414182565
 20
-259.2358209768086
 40
2.227384008973628
 50
288.4480761181333
 51
301.9309089499586
 73
     0
 72
     1
 10
-262.3635863762316
 20
-257.3454702576586
 11
-262.3635863762316
 21
-256.4729532508553
 72
     2
 10
-263.6995142933494
 20
-261.1380355566562
 40
4.852596863498049
 50
74.02000874164696
 51
84.84185523037458
 73
     1
 97
       14
330
24B
330
24C
330
24D
330
24E
330
213
330
224
330
223
330
222
330
24F
330
250
330
221
330
251
330
214
330
220
 75
     1
 76
     0
 52
45.0
 41
0.1
 77
     0
 78
     1
 53
45.0
 43
0.0
 44
0.0
 45
-0.0707106781186548
 46
0.0707106781186548
 79
     0
 98
        1
 10
0.0
 20
0.0
  0
ENDBLK
  5
73
330
71
100
AcDbEntity
  8
0
100
AcDbBlockEnd
  0
BLOCK
  5
75
330
74
100
AcDbEntity
  8
0
100
AcDbBlockBegin
  2
_punkt
 70
     0
 10
-146.526210791249
 20
-266.6457593733219
 30
0.0
  3
_punkt
  1

  0
LINE
  5
29A
330
74
100
AcDbEntity
  8
1
  6
Continuous
 62
     2
100
AcDbLine
 10
-146.526210791249
 20
-266.6457593733219
 30
0.0
 11
-141.52621079125
 21
-266.6457593733219
 31
0.0
  0
LINE
  5
29B
330
74
100
AcDbEntity
  8
1
  6
Continuous
 62
     2
100
AcDbLine
 10
-146.526210791249
 20
-266.6457593733219
 30
0.0
 11
-146.526210791249
 21
-271.6457593733221
 31
0.0
  0
ENDBLK
  5
76
330
74
100
AcDbEntity
  8
0
100
AcDbBlockEnd
  0
BLOCK
  5
7A
330
77
100
AcDbEntity
  8
0
100
AcDbBlockBegin
  2
A4I_CS
 70
     0
 10
-146.526210791249
 20
-271.6457593733221
 30
0.0
  3
A4I_CS
  1

  0
INSERT
  5
78
330
77
100
AcDbEntity
  8
1
100
AcDbBlockReference
  2
_rahmen
 10
-146.526210791249
 20
-271.6457593733221
 30
0.0
  0
INSERT
  5
79
330
77
100
AcDbEntity
  8
1
100
AcDbBlockReference
  2
_punkt
 10
-146.526210791249
 20
-266.6457593733219
 30
0.0
  0
ENDBLK
  5
7B
330
77
100
AcDbEntity
  8
0
100
AcDbBlockEnd
  0
BLOCK
  5
109
330
FF
100
AcDbEntity
  8
0
100
AcDbBlockBegin
  2
*D16
 70
     1
 10
0.0
 20
0.0
 30
0.0
  3
*D16
  1

  0
LINE
  5
100
330
FF
100
AcDbEntity
  8
1
  6
Continuous
 62
     2
100
AcDbLine
 10
-122.197456938082
 20
-61.69950048240534
 30
0.0
 11
-122.197456938082
 21
-65.19950048240534
 31
0.0
  0
LINE
  5
101
330
FF
100
AcDbEntity
  8
1
  6
Continuous
 62
     2
100
AcDbLine
 10
-122.197456938082
 20
-58.49999999991965
 30
0.0
 11
-122.197456938082
 21
-61.69950048240534
 31
0.0
  0
LINE
  5
102
330
FF
100
AcDbEntity
  8
1
  6
Continuous
 62
     2
100
AcDbLine
 10
-122.197456938082
 20
-52.9588490169115
 30
0.0
 11
-122.197456938082
 21
-58.49999999991965
 31
0.0
  0
LINE
  5
103
330
FF
100
AcDbEntity
  8
1
  6
Continuous
 62
     2
100
AcDbLine
 10
-131.8026553647171
 20
-61.69950048240534
 30
0.0
 11
-121.447456938082
 21
-61.69950048240534
 31
0.0
  0
LINE
  5
104
330
FF
100
AcDbEntity
  8
1
  6
Continuous
 62
     2
100
AcDbLine
 10
-129.9749996704027
 20
-58.49999999991965
 30
0.0
 11
-121.447456938082
 21
-58.49999999991965
 31
0.0
  0
SOLID
  5
105
330
FF
100
AcDbEntity
  8
1
 62
     2
100
AcDbTrace
 10
-122.4278488088599
 20
-56.74999999991965
 30
0.0
 11
-121.9670650673041
 21
-56.74999999991965
 31
0.0
 12
-122.197456938082
 22
-58.49999999991965
 32
0.0
 13
-122.197456938082
 23
-58.49999999991965
 33
0.0
  0
SOLID
  5
106
330
FF
100
AcDbEntity
  8
1
 62
     2
100
AcDbTrace
 10
-121.9670650673041
 20
-63.44950048240534
 30
0.0
 11
-122.4278488088599
 21
-63.44950048240534
 31
0.0
 12
-122.197456938082
 22
-61.69950048240534
 32
0.0
 13
-122.197456938082
 23
-61.69950048240534
 33
0.0
  0
MTEXT
  5
108
330
FF
100
AcDbEntity
  8
1
 62
     3
100
AcDbMText
 10
-123.122456938082
 20
-56.1963490169115
 30
0.0
 40
1.75
 41
0.0
 71
     7
 72
     1
  1
3,2
  7
CONVERTER_11
 11
0.0
 21
1.0
 31
0.0
 73
     1
 44
0.60024009603842
  0
ENDBLK
  5
10A
330
FF
100
AcDbEntity
  8
0
100
AcDbBlockEnd
  0
BLOCK
  5
114
330
10D
100
AcDbEntity
  8
0
100
AcDbBlockBegin
  2
*D17
 70
     1
 10
0.0
 20
0.0
 30
0.0
  3
*D17
  1

  0
LINE
  5
10E
330
10D
100
AcDbEntity
  8
1
  6
Continuous
 62
     2
100
AcDbLine
 10
-138.8749996704026
 20
-53.49999999991965
 30
0.0
 11
-129.9749996704027
 21
-53.49999999991965
 31
0.0
  0
LINE
  5
10F
330
10D
100
AcDbEntity
  8
1
  6
Continuous
 62
     2
100
AcDbLine
 10
-129.9749996704027
 20
-58.49999999991965
 30
0.0
 11
-129.9749996704027
 21
-52.74999999991965
 31
0.0
  0
LINE
  5
110
330
10D
100
AcDbEntity
  8
1
  6
Continuous
 62
     2
100
AcDbLine
 10
-138.8749996704026
 20
-58.49999999991965
 30
0.0
 11
-138.8749996704026
 21
-52.74999999991965
 31
0.0
  0
SOLID
  5
111
330
10D
100
AcDbEntity
  8
1
 62
     2
100
AcDbTrace
 10
-137.1249996704026
 20
-53.26960812914171
 30
0.0
 11
-137.1249996704026
 21
-53.73039187069759
 31
0.0
 12
-138.8749996704026
 22
-53.49999999991965
 32
0.0
 13
-138.8749996704026
 23
-53.49999999991965
 33
0.0
  0
SOLID
  5
112
330
10D
100
AcDbEntity
  8
1
 62
     2
100
AcDbTrace
 10
-131.7249996704027
 20
-53.73039187069759
 30
0.0
 11
-131.7249996704027
 21
-53.26960812914171
 31
0.0
 12
-129.9749996704027
 22
-53.49999999991965
 32
0.0
 13
-129.9749996704027
 23
-53.49999999991965
 33
0.0
  0
MTEXT
  5
113
330
10D
100
AcDbEntity
  8
1
 62
     3
100
AcDbMText
 10
-136.0171307750495
 20
-52.57499999991965
 30
0.0
 40
1.75
 41
0.0
 71
     7
 72
     1
  1
8,9
  7
CONVERTER_11
 11
0.9999999999970619
 21
2.424068405545306E-6
 31
0.0
 73
     1
 44
0.60024009603842
  0
ENDBLK
  5
115
330
10D
100
AcDbEntity
  8
0
100
AcDbBlockEnd
  0
BLOCK
  5
15F
330
158
100
AcDbEntity
  8
0
100
AcDbBlockBegin
  2
*D18
 70
     1
 10
0.0
 20
0.0
 30
0.0
  3
*D18
  1

  0
LINE
  5
159
330
158
100
AcDbEntity
  8
1
  6
Continuous
 62
     2
100
AcDbLine
 10
-172.9000001905266
 20
-53.49999999991957
 30
0.0
 11
-153.0500001905266
 21
-53.49999999991957
 31
0.0
  0
LINE
  5
15A
330
158
100
AcDbEntity
  8
1
  6
Continuous
 62
     2
100
AcDbLine
 10
-153.0500001905266
 20
-59.49999999991957
 30
0.0
 11
-153.0500001905266
 21
-52.74999999991957
 31
0.0
  0
LINE
  5
15B
330
158
100
AcDbEntity
  8
1
  6
Continuous
 62
     2
100
AcDbLine
 10
-172.9000001905266
 20
-58.49999999991957
 30
0.0
 11
-172.9000001905266
 21
-52.74999999991957
 31
0.0
  0
SOLID
  5
15C
330
158
100
AcDbEntity
  8
1
 62
     2
100
AcDbTrace
 10
-171.1500001905266
 20
-53.26960812914162
 30
0.0
 11
-171.1500001905266
 21
-53.73039187069751
 31
0.0
 12
-172.9000001905266
 22
-53.49999999991957
 32
0.0
 13
-172.9000001905266
 23
-53.49999999991957
 33
0.0
  0
SOLID
  5
15D
330
158
100
AcDbEntity
  8
1
 62
     2
100
AcDbTrace
 10
-154.8000001905266
 20
-53.73039187069751
 30
0.0
 11
-154.8000001905266
 21
-53.26960812914162
 31
0.0
 12
-153.0500001905266
 22
-53.49999999991957
 32
0.0
 13
-153.0500001905266
 23
-53.49999999991957
 33
0.0
  0
MTEXT
  5
15E
330
158
100
AcDbEntity
  8
1
 62
     3
100
AcDbMText
 10
-165.9062501905266
 20
-52.57499999991957
 30
0.0
 40
1.75
 41
0.0
 71
     7
 72
     1
  1
19,85
  7
CONVERTER_11
 11
0.9999999999970619
 21
2.424068405545306E-6
 31
0.0
 73
     1
 44
0.60024009603842
  0
ENDBLK
  5
160
330
158
100
AcDbEntity
  8
0
100
AcDbBlockEnd
  0
ENDSEC
  0
SECTION
  2
ENTITIES
  0
INSERT
  5
7C
330
1F
100
AcDbEntity
  8
0
100
AcDbBlockReference
  2
Allg1
 10
-168.0000000005189
 20
-229.1076118779652
 30
0.0
 41
2.0
 42
2.0
 43
2.0
  0
INSERT
  5
7D
330
1F
100
AcDbEntity
  8
0
100
AcDbBlockReference
  2
Drfsicht1
 10
-244.6999992370816
 20
-205.679399283823
 30
0.0
 41
2.0
 42
2.0
 43
2.0
  0
INSERT
  5
7E
330
1F
100
AcDbEntity
  8
0
100
AcDbBlockReference
  2
Rckans1
 10
-282.99999999996
 20
-120.99999999984
 30
0.0
 41
2.0
 42
2.0
 43
2.0
  0
INSERT
  5
7F
330
1F
100
AcDbEntity
  8
0
100
AcDbBlockReference
  2
SA_Links1
 10
-220.8500003814666
 20
-120.99999999992
 30
0.0
 41
2.0
 42
2.0
 43
2.0
  0
INSERT
  5
80
330
1F
100
AcDbEntity
  8
0
100
AcDbBlockReference
  2
SA_Rechts1
 10
-426.5500005688232
 20
-120.9999999999201
 30
0.0
 41
2.0
 42
2.0
 43
2.0
  0
INSERT
  5
81
330
1F
100
AcDbEntity
  8
0
100
AcDbBlockReference
  2
Vordans1
 10
-244.699999237082
 20
-120.9999999999199
 30
0.0
 41
2.0
 42
2.0
 43
2.0
  0
INSERT
  5
82
330
1F
100
AcDbEntity
  8
0
100
AcDbBlockReference
  2
A4I_CS
 10
-146.526210791249
 20
-271.6457593733221
 30
0.0
  0
ENDSEC
  0
SECTION
  2
OBJECTS
  0
DICTIONARY
  5
C
330
0
100
AcDbDictionary
281
     1
  3
ACAD_GROUP
350
D
  3
ACAD_LAYOUT
350
1A
  3
ACAD_MATERIAL
350
3B
  3
ACAD_MLEADERSTYLE
350
29E
  3
ACAD_MLINESTYLE
350
17
  3
ACAD_PLOTSETTINGS
350
19
  3
ACAD_PLOTSTYLENAME
350
E
  3
ACAD_VISUALSTYLE
350
2A
  3
AcDbVariableDictionary
350
29C
  0
DICTIONARY
  5
D
102
{ACAD_REACTORS
330
C
102
}
330
C
100
AcDbDictionary
281
     1
  0
DICTIONARY
  5
1A
102
{ACAD_REACTORS
330
C
102
}
330
C
100
AcDbDictionary
281
     1
  3
Layout1
350
1E
  3
Layout2
350
26
  3
Model
350
22
  0
DICTIONARY
  5
3B
102
{ACAD_REACTORS
330
C
102
}
330
C
100
AcDbDictionary
281
     1
  3
ByBlock
350
3D
  3
ByLayer
350
3C
  3
Global
350
3E
  0
DICTIONARY
  5
29E
102
{ACAD_REACTORS
330
C
102
}
330
C
100
AcDbDictionary
281
     1
  0
DICTIONARY
  5
17
102
{ACAD_REACTORS
330
C
102
}
330
C
100
AcDbDictionary
281
     1
  3
Standard
350
18
  0
DICTIONARY
  5
19
102
{ACAD_REACTORS
330
C
102
}
330
C
100
AcDbDictionary
281
     1
  0
ACDBDICTIONARYWDFLT
  5
E
102
{ACAD_REACTORS
330
C
102
}
330
C
100
AcDbDictionary
281
     1
  3
Normal
350
F
100
AcDbDictionaryWithDefault
340
F
  0
DICTIONARY
  5
2A
102
{ACAD_REACTORS
330
C
102
}
330
C
100
AcDbDictionary
281
     1
  3
2dWireframe
350
2F
  3
3D Hidden
350
31
  3
3dWireframe
350
30
  3
Basic
350
32
  3
Brighten
350
36
  3
ColorChange
350
3A
  3
Conceptual
350
34
  3
Dim
350
35
  3
Facepattern
350
39
  3
Flat
350
2B
  3
FlatWithEdges
350
2C
  3
Gouraud
350
2D
  3
GouraudWithEdges
350
2E
  3
Linepattern
350
38
  3
Realistic
350
33
  3
Thicken
350
37
  0
DICTIONARY
  5
29C
102
{ACAD_REACTORS
330
C
102
}
330
C
100
AcDbDictionary
281
     1
  3
DIMASSOC
350
29F
  3
HIDETEXT
350
2A0
  0
LAYOUT
  5
1E
102
{ACAD_REACTORS
330
1A
102
}
330
1A
100
AcDbPlotSettings
  1

  2
none_device
  4

  6

 40
0.0
 41
0.0
 42
0.0
 43
0.0
 44
0.0
 45
0.0
 46
0.0
 47
0.0
 48
0.0
 49
0.0
140
0.0
141
0.0
142
1.0
143
1.0
 70
   688
 72
     0
 73
     0
 74
     5
  7

 75
    16
147
1.0
148
0.0
149
0.0
100
AcDbLayout
  1
Layout1
 70
     1
 71
     1
 10
0.0
 20
0.0
 11
12.0
 21
9.0
 12
0.0
 22
0.0
 32
0.0
 14
1.00000000000000E+20
 24
1.00000000000000E+20
 34
1.00000000000000E+20
 15
-1.00000000000000E+20
 25
-1.00000000000000E+20
 35
-1.00000000000000E+20
146
0.0
 13
0.0
 23
0.0
 33
0.0
 16
1.0
 26
0.0
 36
0.0
 17
0.0
 27
1.0
 37
0.0
 76
     0
330
1B
  0
LAYOUT
  5
26
102
{ACAD_REACTORS
330
1A
102
}
330
1A
100
AcDbPlotSettings
  1

  2
none_device
  4

  6

 40
0.0
 41
0.0
 42
0.0
 43
0.0
 44
0.0
 45
0.0
 46
0.0
 47
0.0
 48
0.0
 49
0.0
140
0.0
141
0.0
142
1.0
143
1.0
 70
   688
 72
     0
 73
     0
 74
     5
  7

 75
    16
147
1.0
148
0.0
149
0.0
100
AcDbLayout
  1
Layout2
 70
     1
 71
     2
 10
0.0
 20
0.0
 11
0.0
 21
0.0
 12
0.0
 22
0.0
 32
0.0
 14
0.0
 24
0.0
 34
0.0
 15
0.0
 25
0.0
 35
0.0
146
0.0
 13
0.0
 23
0.0
 33
0.0
 16
1.0
 26
0.0
 36
0.0
 17
0.0
 27
1.0
 37
0.0
 76
     0
330
23
  0
LAYOUT
  5
22
102
{ACAD_REACTORS
330
1A
102
}
330
1A
100
AcDbPlotSettings
  1

  2
none_device
  4

  6

 40
0.0
 41
0.0
 42
0.0
 43
0.0
 44
0.0
 45
0.0
 46
0.0
 47
0.0
 48
0.0
 49
0.0
140
0.0
141
0.0
142
1.0
143
1.0
 70
  1712
 72
     0
 73
     0
 74
     0
  7

 75
     0
147
1.0
148
0.0
149
0.0
100
AcDbLayout
  1
Model
 70
     1
 71
     0
 10
0.0
 20
0.0
 11
12.0
 21
9.0
 12
0.0
 22
0.0
 32
0.0
 14
-438.5262107912481
 24
-271.6457593733221
 34
0.0
 15
-141.52621079125
 25
-61.64575937332194
 35
0.0
146
0.0
 13
0.0
 23
0.0
 33
0.0
 16
1.0
 26
0.0
 36
0.0
 17
0.0
 27
1.0
 37
0.0
 76
     0
330
1F
331
29
  0
MATERIAL
  5
3D
102
{ACAD_REACTORS
330
3B
102
}
102
{ACAD_XDICTIONARY
360
2C3
102
}
330
3B
100
AcDbMaterial
  1
ByBlock
  0
MATERIAL
  5
3C
102
{ACAD_REACTORS
330
3B
102
}
102
{ACAD_XDICTIONARY
360
2C1
102
}
330
3B
100
AcDbMaterial
  1
ByLayer
  0
MATERIAL
  5
3E
102
{ACAD_REACTORS
330
3B
102
}
102
{ACAD_XDICTIONARY
360
2C5
102
}
330
3B
100
AcDbMaterial
  1
Global
  0
MLINESTYLE
  5
18
102
{ACAD_REACTORS
330
17
102
}
330
17
100
AcDbMlineStyle
  2
Standard
 70
     0
  3

 62
   256
 51
90.0
 52
90.0
 71
     2
 49
0.5
 62
   256
  6
BYLAYER
 49
-0.5
 62
   256
  6
BYLAYER
  0
ACDBPLACEHOLDER
  5
F
102
{ACAD_REACTORS
330
E
102
}
330
E
  0
VISUALSTYLE
  5
2F
102
{ACAD_REACTORS
330
2A
102
}
102
{ACAD_XDICTIONARY
360
2A9
102
}
330
2A
100
AcDbVisualStyle
  2
2dWireframe
 70
     4
 71
     0
 72
     2
 73
     0
 90
        0
 40
-0.6
 41
-30.0
 62
     5
 63
     7
 74
     1
 91
        4
 64
     7
 65
   257
 75
     1
175
     1
 42
1.0
 92
        0
 66
   257
 43
1.0
 76
     1
 77
     6
 78
     2
 67
     7
 79
     5
170
     0
171
     0
290
     0
174
     0
 93
        1
 44
0.0
173
     0
291
     0
 45
0.0
1001
ACAD
1000
AcDbSavedByObjectVersion
1070
     0
  0
VISUALSTYLE
  5
31
102
{ACAD_REACTORS
330
2A
102
}
102
{ACAD_XDICTIONARY
360
2AD
102
}
330
2A
100
AcDbVisualStyle
  2
3D Hidden
 70
     6
 71
     1
 72
     2
 73
     2
 90
        0
 40
-0.6
 41
-30.0
 62
     5
 63
     7
 74
     2
 91
        2
 64
     7
 65
   257
 75
     2
175
     1
 42
40.0
 92
        0
 66
   257
 43
1.0
 76
     1
 77
     6
 78
     2
 67
     7
 79
     3
170
     0
171
     0
290
     0
174
     0
 93
        1
 44
0.0
173
     0
291
     0
 45
0.0
1001
ACAD
1000
AcDbSavedByObjectVersion
1070
     0
  0
VISUALSTYLE
  5
30
102
{ACAD_REACTORS
330
2A
102
}
102
{ACAD_XDICTIONARY
360
2AB
102
}
330
2A
100
AcDbVisualStyle
  2
3dWireframe
 70
     5
 71
     0
 72
     2
 73
     0
 90
        0
 40
-0.6
 41
-30.0
 62
     5
 63
     7
 74
     1
 91
        4
 64
     7
 65
   257
 75
     1
175
     1
 42
1.0
 92
        0
 66
   257
 43
1.0
 76
     1
 77
     6
 78
     2
 67
     7
 79
     5
170
     0
171
     0
290
     0
174
     0
 93
        1
 44
0.0
173
     0
291
     0
 45
0.0
1001
ACAD
1000
AcDbSavedByObjectVersion
1070
     0
  0
VISUALSTYLE
  5
32
102
{ACAD_REACTORS
330
2A
102
}
102
{ACAD_XDICTIONARY
360
2AF
102
}
330
2A
100
AcDbVisualStyle
  2
Basic
 70
     7
 71
     1
 72
     0
 73
     1
 90
        0
 40
-0.6
 41
-30.0
 62
     5
 63
     7
 74
     0
 91
        4
 64
     7
 65
   257
 75
     1
175
     1
 42
1.0
 92
        8
 66
     7
 43
1.0
 76
     1
 77
     6
 78
     2
 67
     7
 79
     5
170
     0
171
     0
290
     0
174
     0
 93
        1
 44
0.0
173
     0
291
     1
 45
0.0
1001
ACAD
1000
AcDbSavedByObjectVersion
1070
     0
  0
VISUALSTYLE
  5
36
102
{ACAD_REACTORS
330
2A
102
}
102
{ACAD_XDICTIONARY
360
2B7
102
}
330
2A
100
AcDbVisualStyle
  2
Brighten
 70
    12
 71
     2
 72
     2
 73
     0
 90
        0
 40
-0.6
 41
-30.0
 62
     5
 63
     7
 74
     1
 91
        4
 64
     7
 65
   257
 75
     1
175
     1
 42
1.0
 92
        8
 66
     7
 43
1.0
 76
     1
 77
     6
 78
     2
 67
     7
 79
     5
170
     0
171
     0
290
     0
174
     0
 93
        1
 44
50.0
173
     0
291
     1
 45
0.0
1001
ACAD
1000
AcDbSavedByObjectVersion
1070
     0
  0
VISUALSTYLE
  5
3A
102
{ACAD_REACTORS
330
2A
102
}
102
{ACAD_XDICTIONARY
360
2BF
102
}
330
2A
100
AcDbVisualStyle
  2
ColorChange
 70
    16
 71
     2
 72
     2
 73
     3
 90
        0
 40
-0.6
 41
-30.0
 62
     5
 63
     8
 74
     1
 91
        4
 64
     7
 65
   257
 75
     1
175
     1
 42
1.0
 92
        8
 66
     8
 43
1.0
 76
     1
 77
     6
 78
     2
 67
     7
 79
     5
170
     0
171
     0
290
     0
174
     0
 93
        1
 44
0.0
173
     0
291
     1
 45
0.0
1001
ACAD
1000
AcDbSavedByObjectVersion
1070
     0
  0
VISUALSTYLE
  5
34
102
{ACAD_REACTORS
330
2A
102
}
102
{ACAD_XDICTIONARY
360
2B3
102
}
330
2A
100
AcDbVisualStyle
  2
Conceptual
 70
     9
 71
     3
 72
     2
 73
     0
 90
        0
 40
-0.6
 41
-30.0
 62
     5
 63
     7
 74
     2
 91
        2
 64
     7
 65
   257
 75
     1
175
     1
 42
40.0
 92
        8
 66
     7
 43
1.0
 76
     1
 77
     6
 78
     2
 67
     7
 79
     3
170
     0
171
     0
290
     0
174
     0
 93
        1
 44
0.0
173
     0
291
     0
 45
0.0
1001
ACAD
1000
AcDbSavedByObjectVersion
1070
     0
  0
VISUALSTYLE
  5
35
102
{ACAD_REACTORS
330
2A
102
}
102
{ACAD_XDICTIONARY
360
2B5
102
}
330
2A
100
AcDbVisualStyle
  2
Dim
 70
    11
 71
     2
 72
     2
 73
     0
 90
        0
 40
-0.6
 41
-30.0
 62
     5
 63
     7
 74
     1
 91
        4
 64
     7
 65
   257
 75
     1
175
     1
 42
1.0
 92
        8
 66
     7
 43
1.0
 76
     1
 77
     6
 78
     2
 67
     7
 79
     5
170
     0
171
     0
290
     0
174
     0
 93
        1
 44
-50.0
173
     0
291
     1
 45
0.0
1001
ACAD
1000
AcDbSavedByObjectVersion
1070
     0
  0
VISUALSTYLE
  5
39
102
{ACAD_REACTORS
330
2A
102
}
102
{ACAD_XDICTIONARY
360
2BD
102
}
330
2A
100
AcDbVisualStyle
  2
Facepattern
 70
    15
 71
     2
 72
     2
 73
     0
 90
        0
 40
-0.6
 41
-30.0
 62
     5
 63
     7
 74
     1
 91
        4
 64
     7
 65
   257
 75
     1
175
     1
 42
1.0
 92
        8
 66
     7
 43
1.0
 76
     1
 77
     6
 78
     2
 67
     7
 79
     5
170
     0
171
     0
290
     0
174
     0
 93
        1
 44
0.0
173
     0
291
     1
 45
0.0
1001
ACAD
1000
AcDbSavedByObjectVersion
1070
     0
  0
VISUALSTYLE
  5
2B
102
{ACAD_REACTORS
330
2A
102
}
102
{ACAD_XDICTIONARY
360
2A1
102
}
330
2A
100
AcDbVisualStyle
  2
Flat
 70
     0
 71
     2
 72
     1
 73
     1
 90
        2
 40
-0.6
 41
30.0
 62
     5
 63
     7
 74
     0
 91
        4
 64
     7
 65
   257
 75
     1
175
     1
 42
1.0
 92
        8
 66
     7
 43
1.0
 76
     1
 77
     6
 78
     2
 67
     7
 79
     5
170
     0
171
     0
290
     0
174
     0
 93
       13
 44
0.0
173
     0
291
     1
 45
0.0
1001
ACAD
1000
AcDbSavedByObjectVersion
1070
     0
  0
VISUALSTYLE
  5
2C
102
{ACAD_REACTORS
330
2A
102
}
102
{ACAD_XDICTIONARY
360
2A3
102
}
330
2A
100
AcDbVisualStyle
  2
FlatWithEdges
 70
     1
 71
     2
 72
     1
 73
     1
 90
        2
 40
-0.6
 41
30.0
 62
     5
 63
     7
 74
     1
 91
        4
 64
     7
 65
   257
 75
     1
175
     1
 42
1.0
 92
        0
 66
   257
 43
1.0
 76
     1
 77
     6
 78
     2
 67
     7
 79
     5
170
     0
171
     0
290
     0
174
     0
 93
       13
 44
0.0
173
     0
291
     1
 45
0.0
1001
ACAD
1000
AcDbSavedByObjectVersion
1070
     0
  0
VISUALSTYLE
  5
2D
102
{ACAD_REACTORS
330
2A
102
}
102
{ACAD_XDICTIONARY
360
2A5
102
}
330
2A
100
AcDbVisualStyle
  2
Gouraud
 70
     2
 71
     2
 72
     2
 73
     1
 90
        2
 40
-0.6
 41
30.0
 62
     5
 63
     7
 74
     0
 91
        4
 64
     7
 65
   257
 75
     1
175
     1
 42
1.0
 92
        0
 66
     7
 43
1.0
 76
     1
 77
     6
 78
     2
 67
     7
 79
     5
170
     0
171
     0
290
     0
174
     0
 93
       13
 44
0.0
173
     0
291
     1
 45
0.0
1001
ACAD
1000
AcDbSavedByObjectVersion
1070
     0
  0
VISUALSTYLE
  5
2E
102
{ACAD_REACTORS
330
2A
102
}
102
{ACAD_XDICTIONARY
360
2A7
102
}
330
2A
100
AcDbVisualStyle
  2
GouraudWithEdges
 70
     3
 71
     2
 72
     2
 73
     1
 90
        2
 40
-0.6
 41
30.0
 62
     5
 63
     7
 74
     1
 91
        4
 64
     7
 65
   257
 75
     1
175
     1
 42
1.0
 92
        0
 66
   257
 43
1.0
 76
     1
 77
     6
 78
     2
 67
     7
 79
     5
170
     0
171
     0
290
     0
174
     0
 93
       13
 44
0.0
173
     0
291
     1
 45
0.0
1001
ACAD
1000
AcDbSavedByObjectVersion
1070
     0
  0
VISUALSTYLE
  5
38
102
{ACAD_REACTORS
330
2A
102
}
102
{ACAD_XDICTIONARY
360
2BB
102
}
330
2A
100
AcDbVisualStyle
  2
Linepattern
 70
    14
 71
     2
 72
     2
 73
     0
 90
        0
 40
-0.6
 41
-30.0
 62
     5
 63
     7
 74
     1
 91
        4
 64
     7
 65
   257
 75
     7
175
     7
 42
1.0
 92
        8
 66
     7
 43
1.0
 76
     1
 77
     6
 78
     2
 67
     7
 79
     5
170
     0
171
     0
290
     0
174
     0
 93
        1
 44
0.0
173
     0
291
     1
 45
0.0
1001
ACAD
1000
AcDbSavedByObjectVersion
1070
     0
  0
VISUALSTYLE
  5
33
102
{ACAD_REACTORS
330
2A
102
}
102
{ACAD_XDICTIONARY
360
2B1
102
}
330
2A
100
AcDbVisualStyle
  2
Realistic
 70
     8
 71
     2
 72
     2
 73
     0
 90
        0
 40
-0.6
 41
-30.0
 62
     5
 63
     7
 74
     1
 91
        0
 64
     7
 65
   257
 75
     1
175
     1
 42
1.0
 92
        8
 66
     8
 43
1.0
 76
     1
 77
     6
 78
     2
 67
     7
 79
     5
170
     0
171
     0
290
     0
174
     0
 93
       13
 44
0.0
173
     0
291
     0
 45
0.0
1001
ACAD
1000
AcDbSavedByObjectVersion
1070
     0
  0
VISUALSTYLE
  5
37
102
{ACAD_REACTORS
330
2A
102
}
102
{ACAD_XDICTIONARY
360
2B9
102
}
330
2A
100
AcDbVisualStyle
  2
Thicken
 70
    13
 71
     2
 72
     2
 73
     0
 90
        0
 40
-0.6
 41
-30.0
 62
     5
 63
     7
 74
     1
 91
        4
 64
     7
 65
   257
 75
     1
175
     1
 42
1.0
 92
       12
 66
     7
 43
1.0
 76
     1
 77
     6
 78
     2
 67
     7
 79
     5
170
     0
171
     0
290
     0
174
     0
 93
        1
 44
0.0
173
     0
291
     1
 45
0.0
1001
ACAD
1000
AcDbSavedByObjectVersion
1070
     0
  0
DICTIONARYVAR
  5
29F
102
{ACAD_REACTORS
330
29C
102
}
330
29C
100
DictionaryVariables
280
     0
  1
2
  0
DICTIONARYVAR
  5
2A0
102
{ACAD_REACTORS
330
29C
102
}
330
29C
100
DictionaryVariables
280
     0
  1
1
  0
DICTIONARY
  5
2C3
330
3D
100
AcDbDictionary
280
     1
281
     1
  3
ACAD_XREC_ROUNDTRIP
360
2C4
  0
DICTIONARY
  5
2C1
330
3C
100
AcDbDictionary
280
     1
281
     1
  3
ACAD_XREC_ROUNDTRIP
360
2C2
  0
DICTIONARY
  5
2C5
330
3E
100
AcDbDictionary
280
     1
281
     1
  3
ACAD_XREC_ROUNDTRIP
360
2C6
  0
DICTIONARY
  5
2A9
330
2F
100
AcDbDictionary
280
     1
281
     1
  3
ACAD_XREC_ROUNDTRIP
360
2AA
  0
DICTIONARY
  5
2AD
330
31
100
AcDbDictionary
280
     1
281
     1
  3
ACAD_XREC_ROUNDTRIP
360
2AE
  0
DICTIONARY
  5
2AB
330
30
100
AcDbDictionary
280
     1
281
     1
  3
ACAD_XREC_ROUNDTRIP
360
2AC
  0
DICTIONARY
  5
2AF
330
32
100
AcDbDictionary
280
     1
281
     1
  3
ACAD_XREC_ROUNDTRIP
360
2B0
  0
DICTIONARY
  5
2B7
330
36
100
AcDbDictionary
280
     1
281
     1
  3
ACAD_XREC_ROUNDTRIP
360
2B8
  0
DICTIONARY
  5
2BF
330
3A
100
AcDbDictionary
280
     1
281
     1
  3
ACAD_XREC_ROUNDTRIP
360
2C0
  0
DICTIONARY
  5
2B3
330
34
100
AcDbDictionary
280
     1
281
     1
  3
ACAD_XREC_ROUNDTRIP
360
2B4
  0
DICTIONARY
  5
2B5
330
35
100
AcDbDictionary
280
     1
281
     1
  3
ACAD_XREC_ROUNDTRIP
360
2B6
  0
DICTIONARY
  5
2BD
330
39
100
AcDbDictionary
280
     1
281
     1
  3
ACAD_XREC_ROUNDTRIP
360
2BE
  0
DICTIONARY
  5
2A1
330
2B
100
AcDbDictionary
280
     1
281
     1
  3
ACAD_XREC_ROUNDTRIP
360
2A2
  0
DICTIONARY
  5
2A3
330
2C
100
AcDbDictionary
280
     1
281
     1
  3
ACAD_XREC_ROUNDTRIP
360
2A4
  0
DICTIONARY
  5
2A5
330
2D
100
AcDbDictionary
280
     1
281
     1
  3
ACAD_XREC_ROUNDTRIP
360
2A6
  0
DICTIONARY
  5
2A7
330
2E
100
AcDbDictionary
280
     1
281
     1
  3
ACAD_XREC_ROUNDTRIP
360
2A8
  0
DICTIONARY
  5
2BB
330
38
100
AcDbDictionary
280
     1
281
     1
  3
ACAD_XREC_ROUNDTRIP
360
2BC
  0
DICTIONARY
  5
2B1
330
33
100
AcDbDictionary
280
     1
281
     1
  3
ACAD_XREC_ROUNDTRIP
360
2B2
  0
DICTIONARY
  5
2B9
330
37
100
AcDbDictionary
280
     1
281
     1
  3
ACAD_XREC_ROUNDTRIP
360
2BA
  0
XRECORD
  5
2C4
102
{ACAD_REACTORS
330
2C3
102
}
330
2C3
100
AcDbXrecord
280
     1
102
MATERIAL
148
0.0
149
0.0
149
0.0
 93
        0
 94
      127
282
     0
 72
     1
 77
     1
171
     1
175
     1
179
     1
273
     0
  0
XRECORD
  5
2C2
102
{ACAD_REACTORS
330
2C1
102
}
330
2C1
100
AcDbXrecord
280
     1
102
MATERIAL
148
0.0
149
0.0
149
0.0
 93
        0
 94
      127
282
     0
 72
     1
 77
     1
171
     1
175
     1
179
     1
273
     0
  0
XRECORD
  5
2C6
102
{ACAD_REACTORS
330
2C5
102
}
330
2C5
100
AcDbXrecord
280
     1
102
MATERIAL
148
0.0
149
0.0
149
0.0
 93
        0
 94
      127
282
     0
 72
     1
 77
     1
171
     1
175
     1
179
     1
273
     0
  0
XRECORD
  5
2AA
102
{ACAD_REACTORS
330
2A9
102
}
330
2A9
100
AcDbXrecord
280
     1
102
RTVSPropertyOp0
 70
     1
102
RTVSPropertyOp1
 70
     1
102
RTVSPropertyOp2
 70
     1
102
RTVSPropertyOp3
 70
     1
102
RTVSPropertyOp4
 70
     1
102
RTVSPropertyOp5
 70
     1
102
RTVSPropertyOp6
 70
     1
102
RTVSPropertyOp7
 70
     1
102
RTVSPropertyOp8
 70
     1
102
RTVSPropertyOp9
 70
     1
102
RTVSPropertyOp10
 70
     1
102
RTVSPropertyOp11
 70
     1
102
RTVSPropertyOp12
 70
     1
102
RTVSPropertyOp13
 70
     1
102
RTVSPropertyOp14
 70
     1
102
RTVSPropertyOp15
 70
     1
102
RTVSPropertyOp16
 70
     1
102
RTVSPropertyOp17
 70
     1
102
RTVSPropertyOp18
 70
     1
102
RTVSPropertyOp19
 70
     1
102
RTVSPropertyOp20
 70
     1
102
RTVSPropertyOp21
 70
     1
102
RTVSPropertyOp22
 70
     1
102
RTVSPropertyOp23
 70
     1
102
RTVSPropertyOp24
 70
     1
102
RTVSPropertyOp25
 70
     1
102
RTVSPropertyOp26
 70
     1
102
RTVSPropertyOp27
 70
     1
102
RTVSPropertyOp28
 70
     1
102
RTVSPropertyOp29
 70
     1
102
RTVSPropertyOp30
 70
     1
102
RTVSPropertyOp31
 70
     1
102
RTVSPropertyOp32
 70
     1
  0
XRECORD
  5
2AE
102
{ACAD_REACTORS
330
2AD
102
}
330
2AD
100
AcDbXrecord
280
     1
102
RTVSPropertyOp0
 70
     1
102
RTVSPropertyOp1
 70
     1
102
RTVSPropertyOp2
 70
     1
102
RTVSPropertyOp3
 70
     1
102
RTVSPropertyOp4
 70
     1
102
RTVSPropertyOp5
 70
     1
102
RTVSPropertyOp6
 70
     1
102
RTVSPropertyOp7
 70
     1
102
RTVSPropertyOp8
 70
     1
102
RTVSPropertyOp9
 70
     1
102
RTVSPropertyOp10
 70
     1
102
RTVSPropertyOp11
 70
     1
102
RTVSPropertyOp12
 70
     1
102
RTVSPropertyOp13
 70
     1
102
RTVSPropertyOp14
 70
     1
102
RTVSPropertyOp15
 70
     1
102
RTVSPropertyOp16
 70
     1
102
RTVSPropertyOp17
 70
     1
102
RTVSPropertyOp18
 70
     1
102
RTVSPropertyOp19
 70
     1
102
RTVSPropertyOp20
 70
     1
102
RTVSPropertyOp21
 70
     1
102
RTVSPropertyOp22
 70
     1
102
RTVSPropertyOp23
 70
     1
102
RTVSPropertyOp24
 70
     1
102
RTVSPropertyOp25
 70
     1
102
RTVSPropertyOp26
 70
     1
102
RTVSPropertyOp27
 70
     1
102
RTVSPropertyOp28
 70
     1
102
RTVSPropertyOp29
 70
     1
102
RTVSPropertyOp30
 70
     1
102
RTVSPropertyOp31
 70
     1
102
RTVSPropertyOp32
 70
     1
  0
XRECORD
  5
2AC
102
{ACAD_REACTORS
330
2AB
102
}
330
2AB
100
AcDbXrecord
280
     1
102
RTVSPropertyOp0
 70
     1
102
RTVSPropertyOp1
 70
     1
102
RTVSPropertyOp2
 70
     1
102
RTVSPropertyOp3
 70
     1
102
RTVSPropertyOp4
 70
     1
102
RTVSPropertyOp5
 70
     1
102
RTVSPropertyOp6
 70
     1
102
RTVSPropertyOp7
 70
     1
102
RTVSPropertyOp8
 70
     1
102
RTVSPropertyOp9
 70
     1
102
RTVSPropertyOp10
 70
     1
102
RTVSPropertyOp11
 70
     1
102
RTVSPropertyOp12
 70
     1
102
RTVSPropertyOp13
 70
     1
102
RTVSPropertyOp14
 70
     1
102
RTVSPropertyOp15
 70
     1
102
RTVSPropertyOp16
 70
     1
102
RTVSPropertyOp17
 70
     1
102
RTVSPropertyOp18
 70
     1
102
RTVSPropertyOp19
 70
     1
102
RTVSPropertyOp20
 70
     1
102
RTVSPropertyOp21
 70
     1
102
RTVSPropertyOp22
 70
     1
102
RTVSPropertyOp23
 70
     1
102
RTVSPropertyOp24
 70
     1
102
RTVSPropertyOp25
 70
     1
102
RTVSPropertyOp26
 70
     1
102
RTVSPropertyOp27
 70
     1
102
RTVSPropertyOp28
 70
     1
102
RTVSPropertyOp29
 70
     1
102
RTVSPropertyOp30
 70
     1
102
RTVSPropertyOp31
 70
     1
102
RTVSPropertyOp32
 70
     1
  0
XRECORD
  5
2B0
102
{ACAD_REACTORS
330
2AF
102
}
330
2AF
100
AcDbXrecord
280
     1
102
RTVSPropertyOp0
 70
     1
102
RTVSPropertyOp1
 70
     1
102
RTVSPropertyOp2
 70
     1
102
RTVSPropertyOp3
 70
     1
102
RTVSPropertyOp4
 70
     1
102
RTVSPropertyOp5
 70
     1
102
RTVSPropertyOp6
 70
     1
102
RTVSPropertyOp7
 70
     1
102
RTVSPropertyOp8
 70
     1
102
RTVSPropertyOp9
 70
     1
102
RTVSPropertyOp10
 70
     1
102
RTVSPropertyOp11
 70
     1
102
RTVSPropertyOp12
 70
     1
102
RTVSPropertyOp13
 70
     1
102
RTVSPropertyOp14
 70
     1
102
RTVSPropertyOp15
 70
     1
102
RTVSPropertyOp16
 70
     1
102
RTVSPropertyOp17
 70
     1
102
RTVSPropertyOp18
 70
     1
102
RTVSPropertyOp19
 70
     1
102
RTVSPropertyOp20
 70
     1
102
RTVSPropertyOp21
 70
     1
102
RTVSPropertyOp22
 70
     1
102
RTVSPropertyOp23
 70
     1
102
RTVSPropertyOp24
 70
     1
102
RTVSPropertyOp25
 70
     1
102
RTVSPropertyOp26
 70
     1
102
RTVSPropertyOp27
 70
     1
102
RTVSPropertyOp28
 70
     1
102
RTVSPropertyOp29
 70
     1
102
RTVSPropertyOp30
 70
     1
102
RTVSPropertyOp31
 70
     1
102
RTVSPropertyOp32
 70
     1
  0
XRECORD
  5
2B8
102
{ACAD_REACTORS
330
2B7
102
}
330
2B7
100
AcDbXrecord
280
     1
102
RTVSPropertyOp0
 70
     1
102
RTVSPropertyOp1
 70
     1
102
RTVSPropertyOp2
 70
     1
102
RTVSPropertyOp3
 70
     1
102
RTVSPropertyOp4
 70
     1
102
RTVSPropertyOp5
 70
     1
102
RTVSPropertyOp6
 70
     1
102
RTVSPropertyOp7
 70
     1
102
RTVSPropertyOp8
 70
     1
102
RTVSPropertyOp9
 70
     1
102
RTVSPropertyOp10
 70
     1
102
RTVSPropertyOp11
 70
     1
102
RTVSPropertyOp12
 70
     1
102
RTVSPropertyOp13
 70
     1
102
RTVSPropertyOp14
 70
     1
102
RTVSPropertyOp15
 70
     1
102
RTVSPropertyOp16
 70
     1
102
RTVSPropertyOp17
 70
     1
102
RTVSPropertyOp18
 70
     1
102
RTVSPropertyOp19
 70
     1
102
RTVSPropertyOp20
 70
     1
102
RTVSPropertyOp21
 70
     1
102
RTVSPropertyOp22
 70
     1
102
RTVSPropertyOp23
 70
     1
102
RTVSPropertyOp24
 70
     1
102
RTVSPropertyOp25
 70
     1
102
RTVSPropertyOp26
 70
     1
102
RTVSPropertyOp27
 70
     1
102
RTVSPropertyOp28
 70
     1
102
RTVSPropertyOp29
 70
     1
102
RTVSPropertyOp30
 70
     1
102
RTVSPropertyOp31
 70
     1
102
RTVSPropertyOp32
 70
     1
  0
XRECORD
  5
2C0
102
{ACAD_REACTORS
330
2BF
102
}
330
2BF
100
AcDbXrecord
280
     1
102
RTVSPropertyOp0
 70
     1
102
RTVSPropertyOp1
 70
     1
102
RTVSPropertyOp2
 70
     1
102
RTVSPropertyOp3
 70
     1
102
RTVSPropertyOp4
 70
     1
102
RTVSPropertyOp5
 70
     1
102
RTVSPropertyOp6
 70
     1
102
RTVSPropertyOp7
 70
     1
102
RTVSPropertyOp8
 70
     1
102
RTVSPropertyOp9
 70
     1
102
RTVSPropertyOp10
 70
     1
102
RTVSPropertyOp11
 70
     1
102
RTVSPropertyOp12
 70
     1
102
RTVSPropertyOp13
 70
     1
102
RTVSPropertyOp14
 70
     1
102
RTVSPropertyOp15
 70
     1
102
RTVSPropertyOp16
 70
     1
102
RTVSPropertyOp17
 70
     1
102
RTVSPropertyOp18
 70
     1
102
RTVSPropertyOp19
 70
     1
102
RTVSPropertyOp20
 70
     1
102
RTVSPropertyOp21
 70
     1
102
RTVSPropertyOp22
 70
     1
102
RTVSPropertyOp23
 70
     1
102
RTVSPropertyOp24
 70
     1
102
RTVSPropertyOp25
 70
     1
102
RTVSPropertyOp26
 70
     1
102
RTVSPropertyOp27
 70
     1
102
RTVSPropertyOp28
 70
     1
102
RTVSPropertyOp29
 70
     1
102
RTVSPropertyOp30
 70
     1
102
RTVSPropertyOp31
 70
     1
102
RTVSPropertyOp32
 70
     1
  0
XRECORD
  5
2B4
102
{ACAD_REACTORS
330
2B3
102
}
330
2B3
100
AcDbXrecord
280
     1
102
RTVSPropertyOp0
 70
     1
102
RTVSPropertyOp1
 70
     1
102
RTVSPropertyOp2
 70
     1
102
RTVSPropertyOp3
 70
     1
102
RTVSPropertyOp4
 70
     1
102
RTVSPropertyOp5
 70
     1
102
RTVSPropertyOp6
 70
     1
102
RTVSPropertyOp7
 70
     1
102
RTVSPropertyOp8
 70
     1
102
RTVSPropertyOp9
 70
     1
102
RTVSPropertyOp10
 70
     1
102
RTVSPropertyOp11
 70
     1
102
RTVSPropertyOp12
 70
     1
102
RTVSPropertyOp13
 70
     1
102
RTVSPropertyOp14
 70
     1
102
RTVSPropertyOp15
 70
     1
102
RTVSPropertyOp16
 70
     1
102
RTVSPropertyOp17
 70
     1
102
RTVSPropertyOp18
 70
     1
102
RTVSPropertyOp19
 70
     1
102
RTVSPropertyOp20
 70
     1
102
RTVSPropertyOp21
 70
     1
102
RTVSPropertyOp22
 70
     1
102
RTVSPropertyOp23
 70
     1
102
RTVSPropertyOp24
 70
     1
102
RTVSPropertyOp25
 70
     1
102
RTVSPropertyOp26
 70
     1
102
RTVSPropertyOp27
 70
     1
102
RTVSPropertyOp28
 70
     1
102
RTVSPropertyOp29
 70
     1
102
RTVSPropertyOp30
 70
     1
102
RTVSPropertyOp31
 70
     1
102
RTVSPropertyOp32
 70
     1
  0
XRECORD
  5
2B6
102
{ACAD_REACTORS
330
2B5
102
}
330
2B5
100
AcDbXrecord
280
     1
102
RTVSPropertyOp0
 70
     1
102
RTVSPropertyOp1
 70
     1
102
RTVSPropertyOp2
 70
     1
102
RTVSPropertyOp3
 70
     1
102
RTVSPropertyOp4
 70
     1
102
RTVSPropertyOp5
 70
     1
102
RTVSPropertyOp6
 70
     1
102
RTVSPropertyOp7
 70
     1
102
RTVSPropertyOp8
 70
     1
102
RTVSPropertyOp9
 70
     1
102
RTVSPropertyOp10
 70
     1
102
RTVSPropertyOp11
 70
     1
102
RTVSPropertyOp12
 70
     1
102
RTVSPropertyOp13
 70
     1
102
RTVSPropertyOp14
 70
     1
102
RTVSPropertyOp15
 70
     1
102
RTVSPropertyOp16
 70
     1
102
RTVSPropertyOp17
 70
     1
102
RTVSPropertyOp18
 70
     1
102
RTVSPropertyOp19
 70
     1
102
RTVSPropertyOp20
 70
     1
102
RTVSPropertyOp21
 70
     1
102
RTVSPropertyOp22
 70
     1
102
RTVSPropertyOp23
 70
     1
102
RTVSPropertyOp24
 70
     1
102
RTVSPropertyOp25
 70
     1
102
RTVSPropertyOp26
 70
     1
102
RTVSPropertyOp27
 70
     1
102
RTVSPropertyOp28
 70
     1
102
RTVSPropertyOp29
 70
     1
102
RTVSPropertyOp30
 70
     1
102
RTVSPropertyOp31
 70
     1
102
RTVSPropertyOp32
 70
     1
  0
XRECORD
  5
2BE
102
{ACAD_REACTORS
330
2BD
102
}
330
2BD
100
AcDbXrecord
280
     1
102
RTVSPropertyOp0
 70
     1
102
RTVSPropertyOp1
 70
     1
102
RTVSPropertyOp2
 70
     1
102
RTVSPropertyOp3
 70
     1
102
RTVSPropertyOp4
 70
     1
102
RTVSPropertyOp5
 70
     1
102
RTVSPropertyOp6
 70
     1
102
RTVSPropertyOp7
 70
     1
102
RTVSPropertyOp8
 70
     1
102
RTVSPropertyOp9
 70
     1
102
RTVSPropertyOp10
 70
     1
102
RTVSPropertyOp11
 70
     1
102
RTVSPropertyOp12
 70
     1
102
RTVSPropertyOp13
 70
     1
102
RTVSPropertyOp14
 70
     1
102
RTVSPropertyOp15
 70
     1
102
RTVSPropertyOp16
 70
     1
102
RTVSPropertyOp17
 70
     1
102
RTVSPropertyOp18
 70
     1
102
RTVSPropertyOp19
 70
     1
102
RTVSPropertyOp20
 70
     1
102
RTVSPropertyOp21
 70
     1
102
RTVSPropertyOp22
 70
     1
102
RTVSPropertyOp23
 70
     1
102
RTVSPropertyOp24
 70
     1
102
RTVSPropertyOp25
 70
     1
102
RTVSPropertyOp26
 70
     1
102
RTVSPropertyOp27
 70
     1
102
RTVSPropertyOp28
 70
     1
102
RTVSPropertyOp29
 70
     1
102
RTVSPropertyOp30
 70
     1
102
RTVSPropertyOp31
 70
     1
102
RTVSPropertyOp32
 70
     1
  0
XRECORD
  5
2A2
102
{ACAD_REACTORS
330
2A1
102
}
330
2A1
100
AcDbXrecord
280
     1
102
RTVSPropertyOp0
 70
     1
102
RTVSPropertyOp1
 70
     1
102
RTVSPropertyOp2
 70
     1
102
RTVSPropertyOp3
 70
     1
102
RTVSPropertyOp4
 70
     1
102
RTVSPropertyOp5
 70
     1
102
RTVSPropertyOp6
 70
     1
102
RTVSPropertyOp7
 70
     1
102
RTVSPropertyOp8
 70
     1
102
RTVSPropertyOp9
 70
     1
102
RTVSPropertyOp10
 70
     1
102
RTVSPropertyOp11
 70
     1
102
RTVSPropertyOp12
 70
     1
102
RTVSPropertyOp13
 70
     1
102
RTVSPropertyOp14
 70
     1
102
RTVSPropertyOp15
 70
     1
102
RTVSPropertyOp16
 70
     1
102
RTVSPropertyOp17
 70
     1
102
RTVSPropertyOp18
 70
     1
102
RTVSPropertyOp19
 70
     1
102
RTVSPropertyOp20
 70
     1
102
RTVSPropertyOp21
 70
     1
102
RTVSPropertyOp22
 70
     1
102
RTVSPropertyOp23
 70
     1
102
RTVSPropertyOp24
 70
     1
102
RTVSPropertyOp25
 70
     1
102
RTVSPropertyOp26
 70
     1
102
RTVSPropertyOp27
 70
     1
102
RTVSPropertyOp28
 70
     1
102
RTVSPropertyOp29
 70
     1
102
RTVSPropertyOp30
 70
     1
102
RTVSPropertyOp31
 70
     1
102
RTVSPropertyOp32
 70
     1
  0
XRECORD
  5
2A4
102
{ACAD_REACTORS
330
2A3
102
}
330
2A3
100
AcDbXrecord
280
     1
102
RTVSPropertyOp0
 70
     1
102
RTVSPropertyOp1
 70
     1
102
RTVSPropertyOp2
 70
     1
102
RTVSPropertyOp3
 70
     1
102
RTVSPropertyOp4
 70
     1
102
RTVSPropertyOp5
 70
     1
102
RTVSPropertyOp6
 70
     1
102
RTVSPropertyOp7
 70
     1
102
RTVSPropertyOp8
 70
     1
102
RTVSPropertyOp9
 70
     1
102
RTVSPropertyOp10
 70
     1
102
RTVSPropertyOp11
 70
     1
102
RTVSPropertyOp12
 70
     1
102
RTVSPropertyOp13
 70
     1
102
RTVSPropertyOp14
 70
     1
102
RTVSPropertyOp15
 70
     1
102
RTVSPropertyOp16
 70
     1
102
RTVSPropertyOp17
 70
     1
102
RTVSPropertyOp18
 70
     1
102
RTVSPropertyOp19
 70
     1
102
RTVSPropertyOp20
 70
     1
102
RTVSPropertyOp21
 70
     1
102
RTVSPropertyOp22
 70
     1
102
RTVSPropertyOp23
 70
     1
102
RTVSPropertyOp24
 70
     1
102
RTVSPropertyOp25
 70
     1
102
RTVSPropertyOp26
 70
     1
102
RTVSPropertyOp27
 70
     1
102
RTVSPropertyOp28
 70
     1
102
RTVSPropertyOp29
 70
     1
102
RTVSPropertyOp30
 70
     1
102
RTVSPropertyOp31
 70
     1
102
RTVSPropertyOp32
 70
     1
  0
XRECORD
  5
2A6
102
{ACAD_REACTORS
330
2A5
102
}
330
2A5
100
AcDbXrecord
280
     1
102
RTVSPropertyOp0
 70
     1
102
RTVSPropertyOp1
 70
     1
102
RTVSPropertyOp2
 70
     1
102
RTVSPropertyOp3
 70
     1
102
RTVSPropertyOp4
 70
     1
102
RTVSPropertyOp5
 70
     1
102
RTVSPropertyOp6
 70
     1
102
RTVSPropertyOp7
 70
     1
102
RTVSPropertyOp8
 70
     1
102
RTVSPropertyOp9
 70
     1
102
RTVSPropertyOp10
 70
     1
102
RTVSPropertyOp11
 70
     1
102
RTVSPropertyOp12
 70
     1
102
RTVSPropertyOp13
 70
     1
102
RTVSPropertyOp14
 70
     1
102
RTVSPropertyOp15
 70
     1
102
RTVSPropertyOp16
 70
     1
102
RTVSPropertyOp17
 70
     1
102
RTVSPropertyOp18
 70
     1
102
RTVSPropertyOp19
 70
     1
102
RTVSPropertyOp20
 70
     1
102
RTVSPropertyOp21
 70
     1
102
RTVSPropertyOp22
 70
     1
102
RTVSPropertyOp23
 70
     1
102
RTVSPropertyOp24
 70
     1
102
RTVSPropertyOp25
 70
     1
102
RTVSPropertyOp26
 70
     1
102
RTVSPropertyOp27
 70
     1
102
RTVSPropertyOp28
 70
     1
102
RTVSPropertyOp29
 70
     1
102
RTVSPropertyOp30
 70
     1
102
RTVSPropertyOp31
 70
     1
102
RTVSPropertyOp32
 70
     1
  0
XRECORD
  5
2A8
102
{ACAD_REACTORS
330
2A7
102
}
330
2A7
100
AcDbXrecord
280
     1
102
RTVSPropertyOp0
 70
     1
102
RTVSPropertyOp1
 70
     1
102
RTVSPropertyOp2
 70
     1
102
RTVSPropertyOp3
 70
     1
102
RTVSPropertyOp4
 70
     1
102
RTVSPropertyOp5
 70
     1
102
RTVSPropertyOp6
 70
     1
102
RTVSPropertyOp7
 70
     1
102
RTVSPropertyOp8
 70
     1
102
RTVSPropertyOp9
 70
     1
102
RTVSPropertyOp10
 70
     1
102
RTVSPropertyOp11
 70
     1
102
RTVSPropertyOp12
 70
     1
102
RTVSPropertyOp13
 70
     1
102
RTVSPropertyOp14
 70
     1
102
RTVSPropertyOp15
 70
     1
102
RTVSPropertyOp16
 70
     1
102
RTVSPropertyOp17
 70
     1
102
RTVSPropertyOp18
 70
     1
102
RTVSPropertyOp19
 70
     1
102
RTVSPropertyOp20
 70
     1
102
RTVSPropertyOp21
 70
     1
102
RTVSPropertyOp22
 70
     1
102
RTVSPropertyOp23
 70
     1
102
RTVSPropertyOp24
 70
     1
102
RTVSPropertyOp25
 70
     1
102
RTVSPropertyOp26
 70
     1
102
RTVSPropertyOp27
 70
     1
102
RTVSPropertyOp28
 70
     1
102
RTVSPropertyOp29
 70
     1
102
RTVSPropertyOp30
 70
     1
102
RTVSPropertyOp31
 70
     1
102
RTVSPropertyOp32
 70
     1
  0
XRECORD
  5
2BC
102
{ACAD_REACTORS
330
2BB
102
}
330
2BB
100
AcDbXrecord
280
     1
102
RTVSPropertyOp0
 70
     1
102
RTVSPropertyOp1
 70
     1
102
RTVSPropertyOp2
 70
     1
102
RTVSPropertyOp3
 70
     1
102
RTVSPropertyOp4
 70
     1
102
RTVSPropertyOp5
 70
     1
102
RTVSPropertyOp6
 70
     1
102
RTVSPropertyOp7
 70
     1
102
RTVSPropertyOp8
 70
     1
102
RTVSPropertyOp9
 70
     1
102
RTVSPropertyOp10
 70
     1
102
RTVSPropertyOp11
 70
     1
102
RTVSPropertyOp12
 70
     1
102
RTVSPropertyOp13
 70
     1
102
RTVSPropertyOp14
 70
     1
102
RTVSPropertyOp15
 70
     1
102
RTVSPropertyOp16
 70
     1
102
RTVSPropertyOp17
 70
     1
102
RTVSPropertyOp18
 70
     1
102
RTVSPropertyOp19
 70
     1
102
RTVSPropertyOp20
 70
     1
102
RTVSPropertyOp21
 70
     1
102
RTVSPropertyOp22
 70
     1
102
RTVSPropertyOp23
 70
     1
102
RTVSPropertyOp24
 70
     1
102
RTVSPropertyOp25
 70
     1
102
RTVSPropertyOp26
 70
     1
102
RTVSPropertyOp27
 70
     1
102
RTVSPropertyOp28
 70
     1
102
RTVSPropertyOp29
 70
     1
102
RTVSPropertyOp30
 70
     1
102
RTVSPropertyOp31
 70
     1
102
RTVSPropertyOp32
 70
     1
  0
XRECORD
  5
2B2
102
{ACAD_REACTORS
330
2B1
102
}
330
2B1
100
AcDbXrecord
280
     1
102
RTVSPropertyOp0
 70
     1
102
RTVSPropertyOp1
 70
     1
102
RTVSPropertyOp2
 70
     1
102
RTVSPropertyOp3
 70
     1
102
RTVSPropertyOp4
 70
     1
102
RTVSPropertyOp5
 70
     1
102
RTVSPropertyOp6
 70
     1
102
RTVSPropertyOp7
 70
     1
102
RTVSPropertyOp8
 70
     1
102
RTVSPropertyOp9
 70
     1
102
RTVSPropertyOp10
 70
     1
102
RTVSPropertyOp11
 70
     1
102
RTVSPropertyOp12
 70
     1
102
RTVSPropertyOp13
 70
     1
102
RTVSPropertyOp14
 70
     1
102
RTVSPropertyOp15
 70
     1
102
RTVSPropertyOp16
 70
     1
102
RTVSPropertyOp17
 70
     1
102
RTVSPropertyOp18
 70
     1
102
RTVSPropertyOp19
 70
     1
102
RTVSPropertyOp20
 70
     1
102
RTVSPropertyOp21
 70
     1
102
RTVSPropertyOp22
 70
     1
102
RTVSPropertyOp23
 70
     1
102
RTVSPropertyOp24
 70
     1
102
RTVSPropertyOp25
 70
     1
102
RTVSPropertyOp26
 70
     1
102
RTVSPropertyOp27
 70
     1
102
RTVSPropertyOp28
 70
     1
102
RTVSPropertyOp29
 70
     1
102
RTVSPropertyOp30
 70
     1
102
RTVSPropertyOp31
 70
     1
102
RTVSPropertyOp32
 70
     1
  0
XRECORD
  5
2BA
102
{ACAD_REACTORS
330
2B9
102
}
330
2B9
100
AcDbXrecord
280
     1
102
RTVSPropertyOp0
 70
     1
102
RTVSPropertyOp1
 70
     1
102
RTVSPropertyOp2
 70
     1
102
RTVSPropertyOp3
 70
     1
102
RTVSPropertyOp4
 70
     1
102
RTVSPropertyOp5
 70
     1
102
RTVSPropertyOp6
 70
     1
102
RTVSPropertyOp7
 70
     1
102
RTVSPropertyOp8
 70
     1
102
RTVSPropertyOp9
 70
     1
102
RTVSPropertyOp10
 70
     1
102
RTVSPropertyOp11
 70
     1
102
RTVSPropertyOp12
 70
     1
102
RTVSPropertyOp13
 70
     1
102
RTVSPropertyOp14
 70
     1
102
RTVSPropertyOp15
 70
     1
102
RTVSPropertyOp16
 70
     1
102
RTVSPropertyOp17
 70
     1
102
RTVSPropertyOp18
 70
     1
102
RTVSPropertyOp19
 70
     1
102
RTVSPropertyOp20
 70
     1
102
RTVSPropertyOp21
 70
     1
102
RTVSPropertyOp22
 70
     1
102
RTVSPropertyOp23
 70
     1
102
RTVSPropertyOp24
 70
     1
102
RTVSPropertyOp25
 70
     1
102
RTVSPropertyOp26
 70
     1
102
RTVSPropertyOp27
 70
     1
102
RTVSPropertyOp28
 70
     1
102
RTVSPropertyOp29
 70
     1
102
RTVSPropertyOp30
 70
     1
102
RTVSPropertyOp31
 70
     1
102
RTVSPropertyOp32
 70
     1
  0
ENDSEC
  0
EOF
