  0
SECTION
  2
HEADER
  9
$ACADVER
  1
AC1015
  9
$ACADMAINTVER
 70
     6
  9
$DWGCODEPAGE
  3
ANSI_1252
  9
$INSBASE
 10
0.0
 20
0.0
 30
0.0
  9
$EXTMIN
 10
-395.9000003814913
 20
-253.4626588213376
 30
0.0
  9
$EXTMAX
 10
-98.90000038149327
 20
-43.46265882133744
 30
0.0
  9
$LIMMIN
 10
0.0
 20
0.0
  9
$LIMMAX
 10
12.0
 20
9.0
  9
$ORTHOMODE
 70
     0
  9
$REGENMODE
 70
     1
  9
$FILLMODE
 70
     1
  9
$QTEXTMODE
 70
     0
  9
$MIRRTEXT
 70
     1
  9
$LTSCALE
 40
1.0
  9
$ATTMODE
 70
     1
  9
$TEXTSIZE
 40
0.2
  9
$TRACEWID
 40
0.05
  9
$TEXTSTYLE
  7
Standard
  9
$CLAYER
  8
0
  9
$CELTYPE
  6
ByLayer
  9
$CECOLOR
 62
   256
  9
$CELTSCALE
 40
1.0
  9
$DISPSILH
 70
     0
  9
$DIMSCALE
 40
1.0
  9
$DIMASZ
 40
0.18
  9
$DIMEXO
 40
0.0625
  9
$DIMDLI
 40
0.38
  9
$DIMRND
 40
0.0
  9
$DIMDLE
 40
0.0
  9
$DIMEXE
 40
0.18
  9
$DIMTP
 40
0.0
  9
$DIMTM
 40
0.0
  9
$DIMTXT
 40
0.18
  9
$DIMCEN
 40
0.09
  9
$DIMTSZ
 40
0.0
  9
$DIMTOL
 70
     0
  9
$DIMLIM
 70
     0
  9
$DIMTIH
 70
     1
  9
$DIMTOH
 70
     1
  9
$DIMSE1
 70
     0
  9
$DIMSE2
 70
     0
  9
$DIMTAD
 70
     0
  9
$DIMZIN
 70
     0
  9
$DIMBLK
  1

  9
$DIMASO
 70
     1
  9
$DIMSHO
 70
     1
  9
$DIMPOST
  1

  9
$DIMAPOST
  1

  9
$DIMALT
 70
     0
  9
$DIMALTD
 70
     2
  9
$DIMALTF
 40
25.4
  9
$DIMLFAC
 40
1.0
  9
$DIMTOFL
 70
     0
  9
$DIMTVP
 40
0.0
  9
$DIMTIX
 70
     0
  9
$DIMSOXD
 70
     0
  9
$DIMSAH
 70
     0
  9
$DIMBLK1
  1

  9
$DIMBLK2
  1

  9
$DIMSTYLE
  2
Standard
  9
$DIMCLRD
 70
     0
  9
$DIMCLRE
 70
     0
  9
$DIMCLRT
 70
     0
  9
$DIMTFAC
 40
1.0
  9
$DIMGAP
 40
0.09
  9
$DIMJUST
 70
     0
  9
$DIMSD1
 70
     0
  9
$DIMSD2
 70
     0
  9
$DIMTOLJ
 70
     1
  9
$DIMTZIN
 70
     0
  9
$DIMALTZ
 70
     0
  9
$DIMALTTZ
 70
     0
  9
$DIMUPT
 70
     0
  9
$DIMDEC
 70
     4
  9
$DIMTDEC
 70
     4
  9
$DIMALTU
 70
     2
  9
$DIMALTTD
 70
     2
  9
$DIMTXSTY
  7
Standard
  9
$DIMAUNIT
 70
     0
  9
$DIMADEC
 70
     0
  9
$DIMALTRND
 40
0.0
  9
$DIMAZIN
 70
     0
  9
$DIMDSEP
 70
    46
  9
$DIMATFIT
 70
     3
  9
$DIMFRAC
 70
     0
  9
$DIMLDRBLK
  1

  9
$DIMLUNIT
 70
     2
  9
$DIMLWD
 70
    -2
  9
$DIMLWE
 70
    -2
  9
$DIMTMOVE
 70
     0
  9
$LUNITS
 70
     2
  9
$LUPREC
 70
     4
  9
$SKETCHINC
 40
0.1
  9
$FILLETRAD
 40
0.5
  9
$AUNITS
 70
     0
  9
$AUPREC
 70
     0
  9
$MENU
  1
.
  9
$ELEVATION
 40
0.0
  9
$PELEVATION
 40
0.0
  9
$THICKNESS
 40
0.0
  9
$LIMCHECK
 70
     0
  9
$CHAMFERA
 40
0.5
  9
$CHAMFERB
 40
0.5
  9
$CHAMFERC
 40
1.0
  9
$CHAMFERD
 40
0.0
  9
$SKPOLY
 70
     0
  9
$TDCREATE
 40
2457213.526354699
  9
$TDUCREATE
 40
2457213.443021366
  9
$TDUPDATE
 40
2457213.526355637
  9
$TDUUPDATE
 40
2457213.443022303
  9
$TDINDWG
 40
0.0000000116
  9
$TDUSRTIMER
 40
0.0000000116
  9
$USRTIMER
 70
     1
  9
$ANGBASE
 50
0.0
  9
$ANGDIR
 70
     0
  9
$PDMODE
 70
     0
  9
$PDSIZE
 40
0.0
  9
$PLINEWID
 40
0.0
  9
$SPLFRAME
 70
     0
  9
$SPLINETYPE
 70
     6
  9
$SPLINESEGS
 70
     8
  9
$HANDSEED
  5
2A9
  9
$SURFTAB1
 70
     6
  9
$SURFTAB2
 70
     6
  9
$SURFTYPE
 70
     6
  9
$SURFU
 70
     6
  9
$SURFV
 70
     6
  9
$UCSBASE
  2

  9
$UCSNAME
  2

  9
$UCSORG
 10
0.0
 20
0.0
 30
0.0
  9
$UCSXDIR
 10
1.0
 20
0.0
 30
0.0
  9
$UCSYDIR
 10
0.0
 20
1.0
 30
0.0
  9
$UCSORTHOREF
  2

  9
$UCSORTHOVIEW
 70
     0
  9
$UCSORGTOP
 10
0.0
 20
0.0
 30
0.0
  9
$UCSORGBOTTOM
 10
0.0
 20
0.0
 30
0.0
  9
$UCSORGLEFT
 10
0.0
 20
0.0
 30
0.0
  9
$UCSORGRIGHT
 10
0.0
 20
0.0
 30
0.0
  9
$UCSORGFRONT
 10
0.0
 20
0.0
 30
0.0
  9
$UCSORGBACK
 10
0.0
 20
0.0
 30
0.0
  9
$PUCSBASE
  2

  9
$PUCSNAME
  2

  9
$PUCSORG
 10
0.0
 20
0.0
 30
0.0
  9
$PUCSXDIR
 10
1.0
 20
0.0
 30
0.0
  9
$PUCSYDIR
 10
0.0
 20
1.0
 30
0.0
  9
$PUCSORTHOREF
  2

  9
$PUCSORTHOVIEW
 70
     0
  9
$PUCSORGTOP
 10
0.0
 20
0.0
 30
0.0
  9
$PUCSORGBOTTOM
 10
0.0
 20
0.0
 30
0.0
  9
$PUCSORGLEFT
 10
0.0
 20
0.0
 30
0.0
  9
$PUCSORGRIGHT
 10
0.0
 20
0.0
 30
0.0
  9
$PUCSORGFRONT
 10
0.0
 20
0.0
 30
0.0
  9
$PUCSORGBACK
 10
0.0
 20
0.0
 30
0.0
  9
$USERI1
 70
     0
  9
$USERI2
 70
     0
  9
$USERI3
 70
     0
  9
$USERI4
 70
     0
  9
$USERI5
 70
     0
  9
$USERR1
 40
18.1
  9
$USERR2
 40
0.0
  9
$USERR3
 40
0.0
  9
$USERR4
 40
0.0
  9
$USERR5
 40
0.0
  9
$WORLDVIEW
 70
     1
  9
$SHADEDGE
 70
     3
  9
$SHADEDIF
 70
    70
  9
$TILEMODE
 70
     1
  9
$MAXACTVP
 70
    64
  9
$PINSBASE
 10
0.0
 20
0.0
 30
0.0
  9
$PLIMCHECK
 70
     0
  9
$PEXTMIN
 10
1.00000000000000E+20
 20
1.00000000000000E+20
 30
1.00000000000000E+20
  9
$PEXTMAX
 10
-1.00000000000000E+20
 20
-1.00000000000000E+20
 30
-1.00000000000000E+20
  9
$PLIMMIN
 10
0.0
 20
0.0
  9
$PLIMMAX
 10
12.0
 20
9.0
  9
$UNITMODE
 70
     0
  9
$VISRETAIN
 70
     1
  9
$PLINEGEN
 70
     0
  9
$PSLTSCALE
 70
     1
  9
$TREEDEPTH
 70
  3020
  9
$CMLSTYLE
  2
Standard
  9
$CMLJUST
 70
     0
  9
$CMLSCALE
 40
1.0
  9
$PROXYGRAPHICS
 70
     1
  9
$MEASUREMENT
 70
     1
  9
$CELWEIGHT
370
    -1
  9
$ENDCAPS
280
     0
  9
$JOINSTYLE
280
     0
  9
$LWDISPLAY
290
     0
  9
$INSUNITS
 70
     4
  9
$HYPERLINKBASE
  1

  9
$STYLESHEET
  1

  9
$XEDIT
290
     1
  9
$CEPSNTYPE
380
     0
  9
$PSTYLEMODE
290
     1
  9
$FINGERPRINTGUID
  2
{D2FA87AD-7F7F-4C7C-A37A-11002C62E7D3}
  9
$VERSIONGUID
  2
{FAEB1C32-E019-11D5-929B-00C0DF256EC4}
  9
$EXTNAMES
290
     1
  9
$PSVPSCALE
 40
0.0
  9
$OLESTARTUP
290
     0
  0
ENDSEC
  0
SECTION
  2
CLASSES
  0
CLASS
  1
ACDBDICTIONARYWDFLT
  2
AcDbDictionaryWithDefault
  3
ObjectDBX Classes
 90
        0
280
     0
281
     0
  0
CLASS
  1
VISUALSTYLE
  2
AcDbVisualStyle
  3
ObjectDBX Classes
 90
     4095
280
     0
281
     0
  0
CLASS
  1
MATERIAL
  2
AcDbMaterial
  3
ObjectDBX Classes
 90
     1153
280
     0
281
     0
  0
CLASS
  1
DICTIONARYVAR
  2
AcDbDictionaryVar
  3
ObjectDBX Classes
 90
        0
280
     0
281
     0
  0
CLASS
  1
ACDBPLACEHOLDER
  2
AcDbPlaceHolder
  3
ObjectDBX Classes
 90
        0
280
     0
281
     0
  0
CLASS
  1
LAYOUT
  2
AcDbLayout
  3
ObjectDBX Classes
 90
        0
280
     0
281
     0
  0
ENDSEC
  0
SECTION
  2
TABLES
  0
TABLE
  2
VPORT
  5
8
330
0
100
AcDbSymbolTable
 70
     1
  0
VPORT
  5
29
330
8
100
AcDbSymbolTableRecord
100
AcDbViewportTableRecord
  2
*Active
 70
     0
 10
0.0
 20
0.0
 11
1.0
 21
1.0
 12
-247.4000003814923
 22
-148.4626588213375
 13
0.0
 23
0.0
 14
0.5
 24
0.5
 15
0.5
 25
0.5
 16
0.0
 26
0.0
 36
1.0
 17
0.0
 27
0.0
 37
0.0
 40
231.0000000000002
 41
1.60267857142857
 42
50.0
 43
0.0
 44
0.0
 50
0.0
 51
0.0
 71
     0
 72
   100
 73
     1
 74
     3
 75
     0
 76
     0
 77
     0
 78
     0
281
     0
 65
     1
110
0.0
120
0.0
130
0.0
111
1.0
121
0.0
131
0.0
112
0.0
122
1.0
132
0.0
 79
     0
146
0.0
  0
ENDTAB
  0
TABLE
  2
LTYPE
  5
5
330
0
100
AcDbSymbolTable
 70
     8
  0
LTYPE
  5
14
330
5
100
AcDbSymbolTableRecord
100
AcDbLinetypeTableRecord
  2
ByBlock
 70
     0
  3

 72
    65
 73
     0
 40
0.0
  0
LTYPE
  5
15
330
5
100
AcDbSymbolTableRecord
100
AcDbLinetypeTableRecord
  2
ByLayer
 70
     0
  3

 72
    65
 73
     0
 40
0.0
  0
LTYPE
  5
16
330
5
100
AcDbSymbolTableRecord
100
AcDbLinetypeTableRecord
  2
Continuous
 70
     0
  3
Solid line
 72
    65
 73
     0
 40
0.0
  0
LTYPE
  5
3F
330
5
100
AcDbSymbolTableRecord
100
AcDbLinetypeTableRecord
  2
DASHED
 70
     0
  3
Dashed
 72
    65
 73
     2
 40
15.0
 49
7.0
 74
     0
 49
-8.0
 74
     0
  0
LTYPE
  5
40
330
5
100
AcDbSymbolTableRecord
100
AcDbLinetypeTableRecord
  2
DOTTED
 70
     0
  3
Dotted
 72
    65
 73
     2
 40
1.0
 49
0.0
 74
     0
 49
-1.0
 74
     0
  0
LTYPE
  5
41
330
5
100
AcDbSymbolTableRecord
100
AcDbLinetypeTableRecord
  2
DOT_CENTER
 70
     0
  3
Dot_Center
 72
    65
 73
     4
 40
14.0
 49
12.0
 74
     0
 49
-1.0
 74
     0
 49
0.0
 74
     0
 49
-1.0
 74
     0
  0
LTYPE
  5
42
330
5
100
AcDbSymbolTableRecord
100
AcDbLinetypeTableRecord
  2
LONG_DASHED
 70
     0
  3
Long_Dashed
 72
    65
 73
     2
 40
15.0
 49
10.0
 74
     0
 49
-5.0
 74
     0
  0
LTYPE
  5
43
330
5
100
AcDbSymbolTableRecord
100
AcDbLinetypeTableRecord
  2
DASH_CENTER
 70
     0
  3
Dash_Center
 72
    65
 73
     4
 40
14.0
 49
11.0
 74
     0
 49
-1.0
 74
     0
 49
1.0
 74
     0
 49
-1.0
 74
     0
  0
LTYPE
  5
44
330
5
100
AcDbSymbolTableRecord
100
AcDbLinetypeTableRecord
  2
PHANTOM
 70
     0
  3
Phantom
 72
    65
 73
     6
 40
13.0
 49
10.0
 74
     0
 49
-1.0
 74
     0
 49
0.0
 74
     0
 49
-1.0
 74
     0
 49
0.0
 74
     0
 49
-1.0
 74
     0
  0
LTYPE
  5
45
330
5
100
AcDbSymbolTableRecord
100
AcDbLinetypeTableRecord
  2
CENTER_DASH_DASH
 70
     0
  3
Center_Dash_Dash
 72
    65
 73
     6
 40
14.0
 49
9.0
 74
     0
 49
-1.0
 74
     0
 49
1.0
 74
     0
 49
-1.0
 74
     0
 49
1.0
 74
     0
 49
-1.0
 74
     0
  0
ENDTAB
  0
TABLE
  2
LAYER
  5
2
330
0
100
AcDbSymbolTable
 70
     2
  0
LAYER
  5
10
330
2
100
AcDbSymbolTableRecord
100
AcDbLayerTableRecord
  2
0
 70
     0
 62
     7
  6
Continuous
370
    -3
390
F
  0
LAYER
  5
46
330
2
100
AcDbSymbolTableRecord
100
AcDbLayerTableRecord
  2
1
 70
     0
 62
     7
  6
Continuous
370
    -3
390
F
  0
ENDTAB
  0
TABLE
  2
STYLE
  5
3
330
0
100
AcDbSymbolTable
 70
     5
  0
STYLE
  5
11
330
3
100
AcDbSymbolTableRecord
100
AcDbTextStyleTableRecord
  2
Standard
 70
     0
 40
0.0
 41
1.0
 50
0.0
 71
     0
 42
0.2
  3
txt
  4

  0
STYLE
  5
B7
330
3
100
AcDbSymbolTableRecord
100
AcDbTextStyleTableRecord
  2
CONVERTER_11
 70
     0
 40
0.0
 41
0.9
 50
0.0
 71
     0
 42
0.2
  3
txt.shx
  4

  0
STYLE
  5
23E
330
3
100
AcDbSymbolTableRecord
100
AcDbTextStyleTableRecord
  2
CONVERTER_12
 70
     0
 40
0.0
 41
0.81
 50
0.0
 71
     0
 42
0.2
  3
txt.shx
  4

  0
STYLE
  5
244
330
3
100
AcDbSymbolTableRecord
100
AcDbTextStyleTableRecord
  2
CONVERTER_13
 70
     0
 40
0.0
 41
0.855
 50
0.0
 71
     0
 42
0.2
  3
txt.shx
  4

  0
STYLE
  5
247
330
3
100
AcDbSymbolTableRecord
100
AcDbTextStyleTableRecord
  2
CONVERTER_14
 70
     0
 40
0.0
 41
0.72
 50
0.0
 71
     0
 42
0.2
  3
txt.shx
  4

  0
ENDTAB
  0
TABLE
  2
VIEW
  5
6
330
0
100
AcDbSymbolTable
 70
     0
  0
ENDTAB
  0
TABLE
  2
UCS
  5
7
330
0
100
AcDbSymbolTable
 70
     0
  0
ENDTAB
  0
TABLE
  2
APPID
  5
9
330
0
100
AcDbSymbolTable
 70
     1
  0
APPID
  5
12
330
9
100
AcDbSymbolTableRecord
100
AcDbRegAppTableRecord
  2
ACAD
 70
     0
  0
ENDTAB
  0
TABLE
  2
DIMSTYLE
  5
A
330
0
100
AcDbSymbolTable
 70
     4
100
AcDbDimStyleTable
  0
DIMSTYLE
105
27
330
A
100
AcDbSymbolTableRecord
100
AcDbDimStyleTableRecord
  2
Standard
 70
     0
178
     0
340
11
  0
DIMSTYLE
105
D3
102
{ACAD_REACTORS
330
D4
102
}
330
A
100
AcDbSymbolTableRecord
100
AcDbDimStyleTableRecord
  2
ME10_DIM_10
 70
     0
 41
1.75
 42
0.0
 44
0.75
 73
     0
 74
     0
 77
     1
 78
     8
140
1.75
147
0.75
172
     1
173
     1
174
     1
175
     1
176
     2
177
     2
271
     1
178
     3
271
     1
340
B7
  0
DIMSTYLE
105
138
102
{ACAD_REACTORS
330
139
102
}
330
A
100
AcDbSymbolTableRecord
100
AcDbDimStyleTableRecord
  2
ME10_DIM_11
 70
     0
 41
1.75
 42
0.0
 44
0.75
 73
     0
 74
     0
 77
     1
 78
     8
140
1.75
147
0.75
172
     1
173
     1
174
     1
175
     1
176
     2
177
     2
271
     1
178
     3
271
     1
340
B7
  0
DIMSTYLE
105
143
102
{ACAD_REACTORS
330
144
102
}
330
A
100
AcDbSymbolTableRecord
100
AcDbDimStyleTableRecord
  2
ME10_DIM_12
 70
     0
 41
1.75
 42
0.0
 44
0.75
 73
     0
 74
     0
 77
     1
 78
     8
140
1.75
147
0.75
172
     1
173
     1
174
     1
175
     1
176
     2
177
     2
271
     1
178
     3
271
     1
340
B7
  0
ENDTAB
  0
TABLE
  2
BLOCK_RECORD
  5
1
330
0
100
AcDbSymbolTable
 70
    19
  0
BLOCK_RECORD
  5
1F
330
1
100
AcDbSymbolTableRecord
100
AcDbBlockTableRecord
  2
*Model_Space
340
22
  0
BLOCK_RECORD
  5
1B
330
1
100
AcDbSymbolTableRecord
100
AcDbBlockTableRecord
  2
*Paper_Space
340
1E
  0
BLOCK_RECORD
  5
23
330
1
100
AcDbSymbolTableRecord
100
AcDbBlockTableRecord
  2
*Paper_Space0
340
26
  0
BLOCK_RECORD
  5
47
330
1
100
AcDbSymbolTableRecord
100
AcDbBlockTableRecord
  2
0823753_PATO_2_18-select__1
340
0
102
{BLKREFS
331
4B
102
}
  0
BLOCK_RECORD
  5
4A
330
1
100
AcDbSymbolTableRecord
100
AcDbBlockTableRecord
  2
Allg1
340
0
102
{BLKREFS
331
7C
102
}
  0
BLOCK_RECORD
  5
4E
330
1
100
AcDbSymbolTableRecord
100
AcDbBlockTableRecord
  2
0823753_PATO_2_18-select__2
340
0
102
{BLKREFS
331
52
102
}
  0
BLOCK_RECORD
  5
51
330
1
100
AcDbSymbolTableRecord
100
AcDbBlockTableRecord
  2
Drfsicht1
340
0
102
{BLKREFS
331
7D
102
}
  0
BLOCK_RECORD
  5
55
330
1
100
AcDbSymbolTableRecord
100
AcDbBlockTableRecord
  2
0823753_PATO_2_18-select__3
340
0
102
{BLKREFS
331
59
102
}
  0
BLOCK_RECORD
  5
58
330
1
100
AcDbSymbolTableRecord
100
AcDbBlockTableRecord
  2
Rckans1
340
0
102
{BLKREFS
331
7E
102
}
  0
BLOCK_RECORD
  5
5C
330
1
100
AcDbSymbolTableRecord
100
AcDbBlockTableRecord
  2
0823753_PATO_2_18-select__4
340
0
102
{BLKREFS
331
60
102
}
  0
BLOCK_RECORD
  5
5F
330
1
100
AcDbSymbolTableRecord
100
AcDbBlockTableRecord
  2
SA_Links1
340
0
102
{BLKREFS
331
7F
102
}
  0
BLOCK_RECORD
  5
63
330
1
100
AcDbSymbolTableRecord
100
AcDbBlockTableRecord
  2
0823753_PATO_2_18-select__5
340
0
102
{BLKREFS
331
67
102
}
  0
BLOCK_RECORD
  5
66
330
1
100
AcDbSymbolTableRecord
100
AcDbBlockTableRecord
  2
SA_Rechts1
340
0
102
{BLKREFS
331
80
102
}
  0
BLOCK_RECORD
  5
6A
330
1
100
AcDbSymbolTableRecord
100
AcDbBlockTableRecord
  2
0823753_PATO_2_18-select__6
340
0
102
{BLKREFS
331
6E
102
}
  0
BLOCK_RECORD
  5
6D
330
1
100
AcDbSymbolTableRecord
100
AcDbBlockTableRecord
  2
Vordans1
340
0
102
{BLKREFS
331
81
102
}
  0
BLOCK_RECORD
  5
71
330
1
100
AcDbSymbolTableRecord
100
AcDbBlockTableRecord
  2
_punkt
340
0
102
{BLKREFS
331
78
102
}
  0
BLOCK_RECORD
  5
74
330
1
100
AcDbSymbolTableRecord
100
AcDbBlockTableRecord
  2
_rahmen
340
0
102
{BLKREFS
331
79
102
}
  0
BLOCK_RECORD
  5
77
330
1
100
AcDbSymbolTableRecord
100
AcDbBlockTableRecord
  2
A4I_CS
340
0
102
{BLKREFS
331
82
102
}
  0
BLOCK_RECORD
  5
CA
330
1
100
AcDbSymbolTableRecord
100
AcDbBlockTableRecord
  2
*D16
340
0
  0
BLOCK_RECORD
  5
12F
330
1
100
AcDbSymbolTableRecord
100
AcDbBlockTableRecord
  2
*D17
340
0
  0
BLOCK_RECORD
  5
13A
330
1
100
AcDbSymbolTableRecord
100
AcDbBlockTableRecord
  2
*D18
340
0
  0
ENDTAB
  0
ENDSEC
  0
SECTION
  2
BLOCKS
  0
BLOCK
  5
20
330
1F
100
AcDbEntity
  8
0
100
AcDbBlockBegin
  2
*Model_Space
 70
     0
 10
0.0
 20
0.0
 30
0.0
  3
*Model_Space
  1

  0
ENDBLK
  5
21
330
1F
100
AcDbEntity
  8
0
100
AcDbBlockEnd
  0
BLOCK
  5
1C
330
1B
100
AcDbEntity
 67
     1
  8
0
100
AcDbBlockBegin
  2
*Paper_Space
 70
     0
 10
0.0
 20
0.0
 30
0.0
  3
*Paper_Space
  1

  0
ENDBLK
  5
1D
330
1B
100
AcDbEntity
 67
     1
  8
0
100
AcDbBlockEnd
  0
BLOCK
  5
24
330
23
100
AcDbEntity
  8
0
100
AcDbBlockBegin
  2
*Paper_Space0
 70
     0
 10
0.0
 20
0.0
 30
0.0
  3
*Paper_Space0
  1

  0
ENDBLK
  5
25
330
23
100
AcDbEntity
  8
0
100
AcDbBlockEnd
  0
BLOCK
  5
48
330
47
100
AcDbEntity
  8
0
100
AcDbBlockBegin
  2
0823753_PATO_2_18-select__1
 70
     0
 10
-86.92512731971003
 20
-97.83306846830735
 30
0.0
  3
0823753_PATO_2_18-select__1
  1

  0
LINE
  5
83
330
47
100
AcDbEntity
  8
0
  6
Continuous
 62
     7
100
AcDbLine
 10
-86.57512731971002
 20
-87.7973720971347
 30
0.0
 11
-86.57512731971002
 21
-88.04032471447378
 31
0.0
  0
LINE
  5
84
330
47
100
AcDbEntity
  8
0
  6
Continuous
 62
     2
100
AcDbLine
 10
-86.57512731971002
 20
-87.7973720971347
 30
0.0
 11
-70.98667005159012
 21
-92.2973720971347
 31
0.0
  0
LINE
  5
85
330
47
100
AcDbEntity
  8
0
  6
Continuous
 62
     2
100
AcDbLine
 10
-86.02288304860927
 20
-93.31860605766894
 30
0.0
 11
-70.43442578048936
 21
-97.81860605766892
 31
0.0
  0
LINE
  5
86
330
47
100
AcDbEntity
  8
0
  6
Continuous
 62
     2
100
AcDbLine
 10
-70.46400900491514
 20
-92.53755467617312
 30
0.0
 11
-68.5437729032298
 21
-93.09187909128096
 31
0.0
  0
LINE
  5
87
330
47
100
AcDbEntity
  8
0
  6
Continuous
 62
     7
100
AcDbLine
 10
-68.81839935224029
 20
-91.11241491224384
 30
0.0
 11
-70.75494075093998
 21
-92.78950895899801
 31
0.0
  0
LINE
  5
88
330
47
100
AcDbEntity
  8
0
  6
Continuous
 62
     7
100
AcDbLine
 10
-70.83169872646553
 20
-93.121667495094
 30
0.0
 11
-69.29928797516433
 21
-93.5640363749804
 31
0.0
  0
LINE
  5
89
330
47
100
AcDbEntity
  8
0
  6
Continuous
 62
     7
100
AcDbLine
 10
-68.58667005159013
 20
-90.46186374539113
 30
0.0
 11
-68.58667005159013
 21
-90.21891112805204
 31
0.0
  0
LINE
  5
8A
330
47
100
AcDbEntity
  8
0
  6
Continuous
 62
     7
100
AcDbLine
 10
-70.97537191410535
 20
-93.97443131159343
 30
0.0
 11
-70.07372140059098
 21
-94.23471539493968
 31
0.0
  0
LINE
  5
8B
330
47
100
AcDbEntity
  8
0
  6
Continuous
 62
     7
100
AcDbLine
 10
-70.99984709352444
 20
-94.1986879346919
 30
0.0
 11
-70.27405212801594
 21
-94.4082068940483
 31
0.0
  0
LINE
  5
8C
330
47
100
AcDbEntity
  8
0
  6
Continuous
 62
     7
100
AcDbLine
 10
-70.87591803169704
 20
-93.34022448001609
 30
0.0
 11
-69.49961870258929
 21
-93.73752787408903
 31
0.0
  0
LINE
  5
8D
330
47
100
AcDbEntity
  8
0
  6
Continuous
 62
     7
100
AcDbLine
 10
-70.98667005159012
 20
-92.2973720971347
 30
0.0
 11
-70.98667005159012
 21
-92.54032471447377
 31
0.0
  0
LINE
  5
8E
330
47
100
AcDbEntity
  8
0
  6
Continuous
 62
     2
100
AcDbLine
 10
-70.68732863505458
 20
-96.9798899907962
 30
0.0
 11
-70.34245754185693
 21
-97.0794457000429
 31
0.0
  0
LINE
  5
8F
330
47
100
AcDbEntity
  8
0
  6
Continuous
 62
     7
100
AcDbLine
 10
-69.49961870258929
 20
-93.73752787408903
 30
0.0
 11
-69.29928797516433
 21
-93.5640363749804
 31
0.0
  0
LINE
  5
90
330
47
100
AcDbEntity
  8
0
  6
Continuous
 62
     7
100
AcDbLine
 10
-70.07372140059098
 20
-94.23471539493968
 30
0.0
 11
-70.27405212801594
 21
-94.4082068940483
 31
0.0
  0
LINE
  5
91
330
47
100
AcDbEntity
  8
0
  6
Continuous
 62
     2
100
AcDbLine
 10
-70.1147183771833
 20
-96.54865534735319
 30
0.0
 11
-69.38407489574867
 21
-96.75957395269715
 31
0.0
  0
LINE
  5
92
330
47
100
AcDbEntity
  8
0
  6
Continuous
 62
     2
100
AcDbLine
 10
-86.92512731971003
 20
-90.69855719981257
 30
0.0
 11
-71.33667005159013
 21
-95.19855719981257
 31
0.0
  0
LINE
  5
93
330
47
100
AcDbEntity
  8
0
  6
Continuous
 62
     7
100
AcDbLine
 10
-86.57512731971002
 20
-88.04032471447378
 30
0.0
 11
-70.98667005159012
 21
-92.54032471447377
 31
0.0
  0
LINE
  5
94
330
47
100
AcDbEntity
  8
0
  6
Continuous
 62
     7
100
AcDbLine
 10
-69.12102981611986
 20
-88.95229619780012
 30
0.0
 11
-84.70948708423975
 21
-84.45229619780012
 31
0.0
  0
LINE
  5
95
330
47
100
AcDbEntity
  8
0
  6
Continuous
 62
     2
100
AcDbLine
 10
-69.2436010190724
 20
-95.9745817721096
 30
0.0
 11
-69.04914538510155
 21
-96.03071627841886
 31
0.0
  0
LINE
  5
96
330
47
100
AcDbEntity
  8
0
  6
Continuous
 62
     7
100
AcDbLine
 10
-70.12090571909077
 20
-96.64114095151389
 30
0.0
 11
-69.3198318282993
 21
-96.87239106475852
 31
0.0
  0
LINE
  5
97
330
47
100
AcDbEntity
  8
0
  6
Continuous
 62
     7
100
AcDbLine
 10
-70.41991833374854
 20
-97.825093924838
 30
0.0
 11
-86.00837560186844
 21
-93.325093924838
 31
0.0
  0
LINE
  5
98
330
47
100
AcDbEntity
  8
0
  6
Continuous
 62
     7
100
AcDbLine
 10
-68.58667005159013
 20
-90.23070903321454
 30
0.0
 11
-68.36167005159014
 21
-90.29566093849837
 31
0.0
  0
LINE
  5
99
330
47
100
AcDbEntity
  8
0
  6
Continuous
 62
     7
100
AcDbLine
 10
-86.80012731971004
 20
-88.26383333928405
 30
0.0
 11
-71.21167005159015
 21
-92.76383333928405
 31
0.0
  0
SPLINE
  5
9A
330
47
100
AcDbEntity
  8
0
  6
Continuous
 62
     7
100
AcDbSpline
210
0.0
220
0.0
230
1.0
 70
     8
 71
     3
 72
     9
 73
     5
 74
     3
 42
0.000000001
 43
0.0000000001
 44
0.00000001
 40
0.0
 40
0.0
 40
0.0
 40
0.0
 40
0.0079027539812137
 40
0.0159299151488721
 40
0.0159299151488721
 40
0.0159299151488721
 40
0.0159299151488721
 10
-86.00837560186844
 20
-93.325093924838
 30
0.0
 10
-86.0108858900291
 20
-93.32427021410776
 30
0.0
 10
-86.01594597647279
 20
-93.32260980711999
 30
0.0
 10
-86.02055868626962
 20
-93.31994757720089
 30
0.0
 10
-86.02288304860927
 20
-93.31860605766894
 30
0.0
 11
-86.00837560186844
 21
-93.325093924838
 31
0.0
 11
-86.01579635895274
 21
-93.32237622440017
 31
0.0
 11
-86.02288304860927
 21
-93.31860605766894
 31
0.0
  0
SPLINE
  5
9B
330
47
100
AcDbEntity
  8
0
  6
Continuous
 62
     7
100
AcDbSpline
210
0.0
220
0.0
230
1.0
 70
     8
 71
     3
 72
    11
 73
     7
 74
     5
 42
0.000000001
 43
0.0000000001
 44
0.00000001
 40
0.0
 40
0.0
 40
0.0
 40
0.0
 40
0.5328834860118709
 40
1.179422519454222
 40
1.960411129012114
 40
2.868541921256405
 40
2.868541921256405
 40
2.868541921256405
 40
2.868541921256405
 10
-86.02288304860927
 20
-93.31860605766894
 30
0.0
 10
-86.15966897515385
 20
-93.20206418757581
 30
0.0
 10
-86.46241507350486
 20
-92.94412391460467
 30
0.0
 10
-86.72397188884679
 20
-92.32593328432391
 30
0.0
 10
-86.89793218423851
 20
-91.56671355303924
 30
0.0
 10
-86.91561852053385
 20
-91.00210882516782
 30
0.0
 10
-86.92512731971003
 20
-90.69855719981257
 30
0.0
 11
-86.02288304860927
 21
-93.31860605766894
 31
0.0
 11
-86.4035614268418
 21
-92.94571359972387
 31
0.0
 11
-86.68877498375636
 21
-92.36548437139048
 31
0.0
 11
-86.86534872189777
 21
-91.60471835737346
 31
0.0
 11
-86.92512731971003
 21
-90.69855719981257
 31
0.0
  0
SPLINE
  5
9C
330
47
100
AcDbEntity
  8
0
  6
Continuous
 62
     7
100
AcDbSpline
210
0.0
220
0.0
230
1.0
 70
     8
 71
     3
 72
     9
 73
     5
 74
     3
 42
0.000000001
 43
0.0000000001
 44
0.00000001
 40
0.0
 40
0.0
 40
0.0
 40
0.0
 40
0.1589715342159295
 40
0.3171464528113072
 40
0.3171464528113072
 40
0.3171464528113072
 40
0.3171464528113072
 10
-71.21167005159015
 20
-92.76383333928405
 30
0.0
 10
-71.17423043878456
 20
-92.72633271867866
 30
0.0
 10
-71.0995388111402
 20
-92.6515194094325
 30
0.0
 10
-71.02422992193068
 20
-92.5773274890888
 30
0.0
 10
-70.98667005159012
 20
-92.54032471447377
 30
0.0
 11
-71.21167005159015
 21
-92.76383333928405
 31
0.0
 11
-71.09919611448032
 21
-92.65148761319372
 31
0.0
 11
-70.98667005159012
 21
-92.54032471447377
 31
0.0
  0
SPLINE
  5
9D
330
47
100
AcDbEntity
  8
0
  6
Continuous
 62
     7
100
AcDbSpline
210
0.0
220
0.0
230
1.0
 70
     8
 71
     3
 72
    11
 73
     7
 74
     5
 42
0.000000001
 43
0.0000000001
 44
0.00000001
 40
0.0
 40
0.0
 40
0.0
 40
0.0
 40
0.2628515329204638
 40
0.5812119822995134
 40
0.9790109448225597
 40
1.454719311914761
 40
1.454719311914761
 40
1.454719311914761
 40
1.454719311914761
 10
-69.12102981611986
 20
-88.95229619780012
 30
0.0
 10
-69.04117531081694
 20
-88.99259866966153
 30
0.0
 10
-68.86460265553997
 20
-89.08171469123752
 30
0.0
 10
-68.70467399812554
 20
-89.3837758600192
 30
0.0
 10
-68.60269376333544
 20
-89.76729412871919
 30
0.0
 10
-68.5923197117334
 20
-90.05967937112388
 30
0.0
 10
-68.58667005159013
 20
-90.21891112805204
 30
0.0
 11
-69.12102981611986
 21
-88.95229619780012
 31
0.0
 11
-68.89816135363967
 21
-89.09165393496609
 31
0.0
 11
-68.72866053306859
 21
-89.36114021093736
 31
0.0
 11
-68.6227090481351
 21
-89.74456986517548
 31
0.0
 11
-68.58667005159013
 21
-90.21891112805204
 31
0.0
  0
SPLINE
  5
9E
330
47
100
AcDbEntity
  8
0
  6
Continuous
 62
     7
100
AcDbSpline
210
0.0
220
0.0
230
1.0
 70
     8
 71
     3
 72
    15
 73
    11
 74
     9
 42
0.000000001
 43
0.0000000001
 44
0.00000001
 40
0.0
 40
0.0
 40
0.0
 40
0.0
 40
0.5932905820497422
 40
1.230199145619215
 40
1.873909179135739
 40
2.486810201325663
 40
3.035000136240982
 40
3.493603976731868
 40
3.855129729679796
 40
4.145470252556556
 40
4.145470252556556
 40
4.145470252556556
 40
4.145470252556556
 10
-70.98667005159012
 20
-92.2973720971347
 30
0.0
 10
-70.97744266888675
 20
-92.0995357206623
 30
0.0
 10
-70.95830951558733
 20
-91.68931828504932
 30
0.0
 10
-70.82604678417638
 20
-91.07630626573312
 30
0.0
 10
-70.63010515202441
 20
-90.47512022194077
 30
0.0
 10
-70.37515909918966
 20
-89.92910252520869
 30
0.0
 10
-70.08068593998497
 20
-89.4714241213171
 30
0.0
 10
-69.76754474146662
 20
-89.1431404675173
 30
0.0
 10
-69.44153381463147
 20
-88.92901513039061
 30
0.0
 10
-69.21979295317635
 20
-88.94512214630396
 30
0.0
 10
-69.12102981611986
 20
-88.95229619780012
 30
0.0
 11
-70.98667005159012
 21
-92.2973720971347
 31
0.0
 11
-70.94324279883072
 21
-91.70567303792872
 31
0.0
 11
-70.8161056767669
 21
-91.0815827631993
 31
0.0
 11
-70.61445928621289
 21
-90.47027159810244
 31
0.0
 11
-70.35289956222856
 21
-89.9159845122079
 31
0.0
 11
-70.05035685144702
 21
-89.45884108571553
 31
0.0
 11
-69.72872914354272
 21
-89.1319265724529
 31
0.0
 11
-69.41129512640325
 21
-88.95890485580539
 31
0.0
 11
-69.12102981611986
 21
-88.95229619780012
 31
0.0
  0
SPLINE
  5
9F
330
47
100
AcDbEntity
  8
0
  6
Continuous
 62
     7
100
AcDbSpline
210
0.0
220
0.0
230
1.0
 70
     8
 71
     3
 72
     9
 73
     5
 74
     3
 42
0.000000001
 43
0.0000000001
 44
0.00000001
 40
0.0
 40
0.0
 40
0.0
 40
0.0
 40
1.19579342486975
 40
2.438669749654805
 40
2.438669749654805
 40
2.438669749654805
 40
2.438669749654805
 10
-71.33667005159013
 20
-95.19855719981257
 30
0.0
 10
-71.33103766005542
 20
-94.7998516250364
 30
0.0
 10
-71.31955108849274
 20
-93.98674193309942
 30
0.0
 10
-71.24809029698517
 20
-93.17668275263938
 30
0.0
 10
-71.21167005159015
 20
-92.76383333928405
 30
0.0
 11
-71.33667005159013
 21
-95.19855719981257
 31
0.0
 11
-71.30535267852837
 21
-94.00317394006063
 31
0.0
 11
-71.21167005159015
 21
-92.76383333928405
 31
0.0
  0
SPLINE
  5
A0
330
47
100
AcDbEntity
  8
0
  6
Continuous
 62
     7
100
AcDbSpline
210
0.0
220
0.0
230
1.0
 70
     8
 71
     3
 72
    11
 73
     7
 74
     5
 42
0.000000001
 43
0.0000000001
 44
0.00000001
 40
0.0
 40
0.0
 40
0.0
 40
0.0
 40
0.5726543400161108
 40
1.183059262331263
 40
1.821768086658028
 40
2.478305989172522
 40
2.478305989172522
 40
2.478305989172522
 40
2.478305989172522
 10
-71.02956719995048
 20
-95.24464010082355
 30
0.0
 10
-71.03346296529729
 20
-95.05368032317193
 30
0.0
 10
-71.04151129783482
 20
-94.65917229644143
 30
0.0
 10
-70.9907762877765
 20
-94.05318126512242
 30
0.0
 10
-70.90065369088859
 20
-93.42385762784275
 30
0.0
 10
-70.8039554199363
 20
-93.00289005455615
 30
0.0
 10
-70.75494075093998
 20
-92.78950895899801
 30
0.0
 11
-71.02956719995048
 21
-95.24464010082355
 31
0.0
 11
-71.03164919477015
 21
-94.67198954504802
 31
0.0
 11
-70.98576496700787
 21
-94.06331162701488
 31
0.0
 11
-70.89287835921907
 21
-93.43139308696404
 31
0.0
 11
-70.75494075093998
 21
-92.78950895899801
 31
0.0
  0
SPLINE
  5
A1
330
47
100
AcDbEntity
  8
0
  6
Continuous
 62
     7
100
AcDbSpline
210
0.0
220
0.0
230
1.0
 70
     8
 71
     3
 72
    11
 73
     7
 74
     5
 42
0.000000001
 43
0.0000000001
 44
0.00000001
 40
0.0
 40
0.0
 40
0.0
 40
0.0
 40
0.0432293428631768
 40
0.079745615200606
 40
0.1101053631291458
 40
0.1365307575148636
 40
0.1365307575148636
 40
0.1365307575148636
 40
0.1365307575148636
 10
-69.38407489574867
 20
-96.75957395269715
 30
0.0
 10
-69.3818502640009
 20
-96.77387036742162
 30
0.0
 10
-69.37774645147971
 20
-96.80024310860253
 30
0.0
 10
-69.3640380176456
 20
-96.83439613227978
 30
0.0
 10
-69.34547227860128
 20
-96.86072784328745
 30
0.0
 10
-69.32797453755633
 20
-96.86868714815496
 30
0.0
 10
-69.3198318282993
 20
-96.87239106475852
 30
0.0
 11
-69.38407489574867
 21
-96.75957395269715
 31
0.0
 11
-69.37568932543682
 21
-96.80198218138763
 31
0.0
 11
-69.36178639307454
 21
-96.8357482422222
 31
0.0
 11
-69.34291767751154
 21
-96.85953240156256
 31
0.0
 11
-69.3198318282993
 21
-96.87239106475852
 31
0.0
  0
SPLINE
  5
A2
330
47
100
AcDbEntity
  8
0
  6
Continuous
 62
     7
100
AcDbSpline
210
0.0
220
0.0
230
1.0
 70
     8
 71
     3
 72
     9
 73
     5
 74
     3
 42
0.000000001
 43
0.0000000001
 44
0.00000001
 40
0.0
 40
0.0
 40
0.0
 40
0.0
 40
1.313308157701024
 40
2.554931120069564
 40
2.554931120069564
 40
2.554931120069564
 40
2.554931120069564
 10
-69.29928797516433
 20
-93.5640363749804
 30
0.0
 10
-69.30797544625652
 20
-94.00199813367203
 30
0.0
 10
-69.32487617428183
 20
-94.85401608527191
 30
0.0
 10
-69.26162218742584
 20
-95.70381548729594
 30
0.0
 10
-69.23088256132334
 20
-96.11679352868957
 30
0.0
 11
-69.29928797516433
 21
-93.5640363749804
 31
0.0
 11
-69.30417145031387
 21
-94.87733545347656
 31
0.0
 11
-69.23088256132334
 21
-96.11679352868957
 31
0.0
  0
SPLINE
  5
A3
330
47
100
AcDbEntity
  8
0
  6
Continuous
 62
     7
100
AcDbSpline
210
0.0
220
0.0
230
1.0
 70
     8
 71
     3
 72
     9
 73
     5
 74
     3
 42
0.000000001
 43
0.0000000001
 44
0.00000001
 40
0.0
 40
0.0
 40
0.0
 40
0.0
 40
1.569971220781846
 40
3.225984961389858
 40
3.225984961389858
 40
3.225984961389858
 40
3.225984961389858
 10
-70.07372140059098
 20
-94.23471539493968
 30
0.0
 10
-70.06646257426365
 20
-94.7583304841406
 30
0.0
 10
-70.05154712048247
 20
-95.83425746955574
 30
0.0
 10
-70.14255010337095
 20
-96.90647930694735
 30
0.0
 10
-70.18926520743159
 20
-97.45688921749567
 30
0.0
 11
-70.07372140059098
 21
-94.23471539493968
 31
0.0
 11
-70.07703086464424
 21
-95.80468312790826
 31
0.0
 11
-70.18926520743159
 21
-97.45688921749567
 31
0.0
  0
SPLINE
  5
A4
330
47
100
AcDbEntity
  8
0
  6
Continuous
 62
     7
100
AcDbSpline
210
0.0
220
0.0
230
1.0
 70
     8
 71
     3
 72
     9
 73
     5
 74
     3
 42
0.000000001
 43
0.0000000001
 44
0.00000001
 40
0.0
 40
0.0
 40
0.0
 40
0.0
 40
1.564239073633086
 40
3.026363561024481
 40
3.026363561024481
 40
3.026363561024481
 40
3.026363561024481
 10
-69.49961870258929
 20
-93.73752787408903
 30
0.0
 10
-69.50857413964395
 20
-94.25933701316828
 30
0.0
 10
-69.52590037676381
 20
-95.26889123684641
 30
0.0
 10
-69.43027453707134
 20
-96.27398422258533
 30
0.0
 10
-69.38407489574867
 20
-96.75957395269715
 30
0.0
 11
-69.49961870258929
 21
-93.73752787408903
 31
0.0
 11
-69.49630923853601
 21
-95.30176344717152
 31
0.0
 11
-69.38407489574867
 21
-96.75957395269715
 31
0.0
  0
SPLINE
  5
A5
330
47
100
AcDbEntity
  8
0
  6
Continuous
 62
     7
100
AcDbSpline
210
0.0
220
0.0
230
1.0
 70
     8
 71
     3
 72
    11
 73
     7
 74
     5
 42
0.000000001
 43
0.0000000001
 44
0.00000001
 40
0.0
 40
0.0
 40
0.0
 40
0.0
 40
0.4526922956191451
 40
0.9611977287666169
 40
1.525630068320497
 40
2.142866951364764
 40
2.142866951364764
 40
2.142866951364764
 40
2.142866951364764
 10
-70.52419471807872
 20
-97.30814647261238
 30
0.0
 10
-70.59359325584556
 20
-97.1738036590189
 30
0.0
 10
-70.74094657119369
 20
-96.88855469075037
 30
0.0
 10
-70.88318942150403
 20
-96.39769099358728
 30
0.0
 10
-70.9882245929644
 20
-95.8434129865021
 30
0.0
 10
-71.01538181650841
 20
-95.45008979570763
 30
0.0
 10
-71.02956719995048
 20
-95.24464010082355
 30
0.0
 11
-70.52419471807872
 21
-97.30814647261238
 31
0.0
 11
-70.71958400914572
 21
-96.89979204260612
 31
0.0
 11
-70.87048215619416
 21
-96.41419187092228
 31
0.0
 11
-70.97438468902564
 21
-95.85940530741823
 31
0.0
 11
-71.02956719995048
 21
-95.24464010082355
 31
0.0
  0
SPLINE
  5
A6
330
47
100
AcDbEntity
  8
0
  6
Continuous
 62
     7
100
AcDbSpline
210
0.0
220
0.0
230
1.0
 70
     8
 71
     3
 72
     9
 73
     5
 74
     3
 42
0.000000001
 43
0.0000000001
 44
0.00000001
 40
0.0
 40
0.0
 40
0.0
 40
0.0
 40
0.0171262856622076
 40
0.0366845684488019
 40
0.0366845684488019
 40
0.0366845684488019
 40
0.0366845684488019
 10
-70.4968208835306
 20
-97.3315466769667
 30
0.0
 10
-70.50215030497013
 20
-97.32918956769008
 30
0.0
 10
-70.513565935022
 20
-97.3241406144918
 30
0.0
 10
-70.52049859539628
 20
-97.31370839227544
 30
0.0
 10
-70.52419471807872
 20
-97.30814647261238
 30
0.0
 11
-70.4968208835306
 21
-97.3315466769667
 31
0.0
 11
-70.51183207496317
 21
-97.3233020509734
 31
0.0
 11
-70.52419471807872
 21
-97.30814647261238
 31
0.0
  0
SPLINE
  5
A7
330
47
100
AcDbEntity
  8
0
  6
Continuous
 62
     7
100
AcDbSpline
210
0.0
220
0.0
230
1.0
 70
     8
 71
     3
 72
    11
 73
     7
 74
     5
 42
0.000000001
 43
0.0000000001
 44
0.00000001
 40
0.0
 40
0.0
 40
0.0
 40
0.0
 40
0.5328834860118509
 40
1.179422519454221
 40
1.960411129012102
 40
2.868541921256392
 40
2.868541921256392
 40
2.868541921256392
 40
2.868541921256392
 10
-70.43442578048936
 20
-97.81860605766892
 30
0.0
 10
-70.57121170703394
 20
-97.70206418757576
 30
0.0
 10
-70.87395780538495
 20
-97.4441239146047
 30
0.0
 10
-71.13551462072691
 20
-96.82593328432395
 30
0.0
 10
-71.30947491611863
 20
-96.0667135530392
 30
0.0
 10
-71.32716125241397
 20
-95.50210882516782
 30
0.0
 10
-71.33667005159013
 20
-95.19855719981257
 30
0.0
 11
-70.43442578048936
 21
-97.81860605766892
 31
0.0
 11
-70.8151041587219
 21
-97.44571359972387
 31
0.0
 11
-71.10031771563646
 21
-96.86548437139047
 31
0.0
 11
-71.27689145377789
 21
-96.10471835737346
 31
0.0
 11
-71.33667005159013
 21
-95.19855719981257
 31
0.0
  0
SPLINE
  5
A8
330
47
100
AcDbEntity
  8
0
  6
Continuous
 62
     7
100
AcDbSpline
210
0.0
220
0.0
230
1.0
 70
     8
 71
     3
 72
     9
 73
     5
 74
     3
 42
0.000000001
 43
0.0000000001
 44
0.00000001
 40
0.0
 40
0.0
 40
0.0
 40
0.0
 40
1.304849789507948
 40
2.673212013953961
 40
2.673212013953961
 40
2.673212013953961
 40
2.673212013953961
 10
-70.27405212801594
 20
-94.4082068940483
 30
0.0
 10
-70.26634145290141
 20
-94.84330540180845
 30
0.0
 10
-70.25054481222631
 20
-95.73468046067853
 30
0.0
 10
-70.3113384958873
 20
-96.62414639222473
 30
0.0
 10
-70.34245754185693
 20
-97.0794457000429
 30
0.0
 11
-70.27405212801594
 21
-94.4082068940483
 31
0.0
 11
-70.26916865286638
 21
-95.71304754546799
 31
0.0
 11
-70.34245754185693
 21
-97.0794457000429
 31
0.0
  0
SPLINE
  5
A9
330
47
100
AcDbEntity
  8
0
  6
Continuous
 62
     7
100
AcDbSpline
210
0.0
220
0.0
230
1.0
 70
     8
 71
     3
 72
     9
 73
     5
 74
     3
 42
0.000000001
 43
0.0000000001
 44
0.00000001
 40
0.0
 40
0.0
 40
0.0
 40
0.0
 40
0.1589715342159295
 40
0.3171464528112972
 40
0.3171464528112972
 40
0.3171464528112972
 40
0.3171464528112972
 10
-86.80012731971004
 20
-88.26383333928405
 30
0.0
 10
-86.76268770690447
 20
-88.22633271867868
 30
0.0
 10
-86.6879960792601
 20
-88.1515194094325
 30
0.0
 10
-86.61268719005056
 20
-88.0773274890888
 30
0.0
 10
-86.57512731971002
 20
-88.04032471447378
 30
0.0
 11
-86.80012731971004
 21
-88.26383333928405
 31
0.0
 11
-86.68765338260022
 21
-88.15148761319372
 31
0.0
 11
-86.57512731971002
 21
-88.04032471447378
 31
0.0
  0
SPLINE
  5
AA
330
47
100
AcDbEntity
  8
0
  6
Continuous
 62
     7
100
AcDbSpline
210
0.0
220
0.0
230
1.0
 70
     8
 71
     3
 72
    11
 73
     7
 74
     5
 42
0.000000001
 43
0.0000000001
 44
0.00000001
 40
0.0
 40
0.0
 40
0.0
 40
0.0
 40
0.0363015547277575
 40
0.0876460119654735
 40
0.1547801525501935
 40
0.2312166082426476
 40
0.2312166082426476
 40
0.2312166082426476
 40
0.2312166082426476
 10
-69.18745925889472
 20
-96.19760624729155
 30
0.0
 10
-69.17497930752079
 20
-96.19707658653925
 30
0.0
 10
-69.14484787590689
 20
-96.19579776357705
 30
0.0
 10
-69.10743944920416
 20
-96.15479457117799
 30
0.0
 10
-69.07294348463171
 20
-96.10067832445253
 30
0.0
 10
-69.05741349399412
 20
-96.05502300392345
 30
0.0
 10
-69.04914538510155
 20
-96.03071627841886
 30
0.0
 11
-69.18745925889472
 21
-96.19760624729155
 31
0.0
 11
-69.15155449893892
 21
-96.19225354361689
 31
0.0
 11
-69.11269542327207
 21
-96.15869424429687
 31
0.0
 11
-69.07674988747334
 21
-96.10199405672194
 31
0.0
 11
-69.04914538510155
 21
-96.03071627841886
 31
0.0
  0
SPLINE
  5
AB
330
47
100
AcDbEntity
  8
0
  6
Continuous
 62
     7
100
AcDbSpline
210
0.0
220
0.0
230
1.0
 70
     8
 71
     3
 72
     9
 73
     5
 74
     3
 42
0.000000001
 43
0.0000000001
 44
0.00000001
 40
0.0
 40
0.0
 40
0.0
 40
0.0
 40
0.0565103519121434
 40
0.0955431164173003
 40
0.0955431164173003
 40
0.0955431164173003
 40
0.0955431164173003
 10
-69.23088256132334
 20
-96.11679352868957
 30
0.0
 10
-69.22875891184356
 20
-96.1366483991617
 30
0.0
 10
-69.22516840060445
 20
-96.17021739424563
 30
0.0
 10
-69.19839652787796
 20
-96.18966231164214
 30
0.0
 10
-69.18745925889472
 20
-96.19760624729155
 30
0.0
 11
-69.23088256132334
 21
-96.11679352868957
 31
0.0
 11
-69.2164020624204
 21
-96.17141710735177
 31
0.0
 11
-69.18745925889472
 21
-96.19760624729155
 31
0.0
  0
SPLINE
  5
AC
330
47
100
AcDbEntity
  8
0
  6
Continuous
 62
     7
100
AcDbSpline
210
0.0
220
0.0
230
1.0
 70
     8
 71
     3
 72
     9
 73
     5
 74
     3
 42
0.000000001
 43
0.0000000001
 44
0.00000001
 40
0.0
 40
0.0
 40
0.0
 40
0.0
 40
0.0079027539812137
 40
0.0159299151488729
 40
0.0159299151488729
 40
0.0159299151488729
 40
0.0159299151488729
 10
-70.41991833374854
 20
-97.825093924838
 30
0.0
 10
-70.4224286219092
 20
-97.82427021410774
 30
0.0
 10
-70.42748870835291
 20
-97.82260980711999
 30
0.0
 10
-70.43210141814971
 20
-97.81994757720089
 30
0.0
 10
-70.43442578048936
 20
-97.81860605766892
 30
0.0
 11
-70.41991833374854
 21
-97.825093924838
 31
0.0
 11
-70.42733909083285
 21
-97.82237622440017
 31
0.0
 11
-70.43442578048936
 21
-97.81860605766892
 31
0.0
  0
SPLINE
  5
AD
330
47
100
AcDbEntity
  8
0
  6
Continuous
 62
     7
100
AcDbSpline
210
0.0
220
0.0
230
1.0
 70
     8
 71
     3
 72
    13
 73
     9
 74
     7
 42
0.000000001
 43
0.0000000001
 44
0.00000001
 40
0.0
 40
0.0
 40
0.0
 40
0.0
 40
0.0960003874398031
 40
0.1939348961848812
 40
0.2853401052259569
 40
0.3629521849736013
 40
0.4227078048587147
 40
0.4676597792427046
 40
0.4676597792427046
 40
0.4676597792427046
 40
0.4676597792427046
 10
-70.18926520743159
 20
-97.45688921749567
 30
0.0
 10
-70.19393068246346
 20
-97.48861339991402
 30
0.0
 10
-70.20335562863181
 20
-97.55270091190914
 30
0.0
 10
-70.2341225222504
 20
-97.64305796699415
 30
0.0
 10
-70.27383979447553
 20
-97.72357421042167
 30
0.0
 10
-70.31964077749008
 20
-97.78356554624243
 30
0.0
 10
-70.36862641046218
 20
-97.82595913607884
 30
0.0
 10
-70.404512213016
 20
-97.82535380545153
 30
0.0
 10
-70.41991833374854
 20
-97.825093924838
 30
0.0
 11
-70.18926520743159
 21
-97.45688921749567
 31
0.0
 11
-70.20607617855775
 21
-97.55140621976716
 31
0.0
 11
-70.23690117517889
 21
-97.64436313277541
 31
0.0
 11
-70.27843385989004
 21
-97.72578762736947
 31
0.0
 11
-70.3262184398053
 21
-97.78694536353692
 31
0.0
 11
-70.3751288922642
 21
-97.82127468402622
 31
0.0
 11
-70.41991833374854
 21
-97.825093924838
 31
0.0
  0
SPLINE
  5
AE
330
47
100
AcDbEntity
  8
0
  6
Continuous
 62
     7
100
AcDbSpline
210
0.0
220
0.0
230
1.0
 70
     8
 71
     3
 72
    13
 73
     9
 74
     7
 42
0.000000001
 43
0.0000000001
 44
0.00000001
 40
0.0
 40
0.0
 40
0.0
 40
0.0
 40
0.0647044093976041
 40
0.1312790744790828
 40
0.1937532341578754
 40
0.2469317977802801
 40
0.2878181691952638
 40
0.3183822903737918
 40
0.3183822903737918
 40
0.3183822903737918
 40
0.3183822903737918
 10
-70.34245754185693
 20
-97.0794457000429
 30
0.0
 10
-70.34526711082877
 20
-97.10087665921255
 30
0.0
 10
-70.35096745920936
 20
-97.14435803058426
 30
0.0
 10
-70.37120113025163
 20
-97.20594618141699
 30
0.0
 10
-70.39774993036603
 20
-97.2611908297298
 30
0.0
 10
-70.42867417097098
 20
-97.30252356846606
 30
0.0
 10
-70.46184068071568
 20
-97.33193755866205
 30
0.0
 10
-70.48634062750097
 20
-97.3316637916443
 30
0.0
 10
-70.4968208835306
 20
-97.3315466769667
 30
0.0
 11
-70.34245754185693
 21
-97.0794457000429
 31
0.0
 11
-70.35283188843117
 21
-97.14331300180798
 31
0.0
 11
-70.37304643640796
 21
-97.20674452507606
 31
0.0
 11
-70.40085434003882
 21
-97.26268861422747
 31
0.0
 11
-70.43316403493904
 21
-97.30492654909597
 31
0.0
 11
-70.46638385391637
 21
-97.32876222258835
 31
0.0
 11
-70.4968208835306
 21
-97.3315466769667
 31
0.0
  0
SPLINE
  5
AF
330
47
100
AcDbEntity
  8
0
  6
Continuous
 62
     7
100
AcDbSpline
210
0.0
220
0.0
230
1.0
 70
     8
 71
     3
 72
    11
 73
     7
 74
     5
 42
0.000000001
 43
0.0000000001
 44
0.00000001
 40
0.0
 40
0.0
 40
0.0
 40
0.0
 40
0.04425809193558
 40
0.1028006292771711
 40
0.1787453046502383
 40
0.2683492698762346
 40
0.2683492698762346
 40
0.2683492698762346
 40
0.2683492698762346
 10
-69.3198318282993
 20
-96.87239106475852
 30
0.0
 10
-69.30466632318914
 20
-96.87271533629777
 30
0.0
 10
-69.26944059861977
 20
-96.8734685228114
 30
0.0
 10
-69.2211452604804
 20
-96.8323706413622
 30
0.0
 10
-69.17534195351135
 20
-96.77411043158205
 30
0.0
 10
-69.15170690211104
 20
-96.72385902907709
 30
0.0
 10
-69.13891432269091
 20
-96.69666022432166
 30
0.0
 11
-69.3198318282993
 21
-96.87239106475852
 31
0.0
 11
-69.27571616009588
 21
-96.8688432588384
 31
0.0
 11
-69.22752384733613
 21
-96.83560576652998
 31
0.0
 11
-69.18028091820231
 21
-96.776144018879
 31
0.0
 11
-69.13891432269091
 21
-96.69666022432166
 31
0.0
  0
SPLINE
  5
B0
330
47
100
AcDbEntity
  8
0
  6
Continuous
 62
     7
100
AcDbSpline
210
0.0
220
0.0
230
1.0
 70
     8
 71
     3
 72
    15
 73
    11
 74
     9
 42
0.000000001
 43
0.0000000001
 44
0.00000001
 40
0.0
 40
0.0
 40
0.0
 40
0.0
 40
0.5932905820497301
 40
1.230199145619211
 40
1.873909179135721
 40
2.486810201325659
 40
3.035000136240985
 40
3.493603976731861
 40
3.855129729679802
 40
4.145470252556547
 40
4.145470252556547
 40
4.145470252556547
 40
4.145470252556547
 10
-86.57512731971002
 20
-87.7973720971347
 30
0.0
 10
-86.56589993700665
 20
-87.59953572066235
 30
0.0
 10
-86.54676678370714
 20
-87.18931828504928
 30
0.0
 10
-86.41450405229632
 20
-86.57630626573314
 30
0.0
 10
-86.21856242014428
 20
-85.97512022194081
 30
0.0
 10
-85.96361636730957
 20
-85.42910252520863
 30
0.0
 10
-85.66914320810481
 20
-84.97142412131711
 30
0.0
 10
-85.35600200958653
 20
-84.6431404675173
 30
0.0
 10
-85.02999108275134
 20
-84.42901513039061
 30
0.0
 10
-84.80825022129625
 20
-84.44512214630394
 30
0.0
 10
-84.70948708423975
 20
-84.45229619780012
 30
0.0
 11
-86.57512731971002
 21
-87.7973720971347
 31
0.0
 11
-86.53170006695059
 21
-87.20567303792873
 31
0.0
 11
-86.40456294488679
 21
-86.5815827631993
 31
0.0
 11
-86.20291655433279
 21
-85.97027159810246
 31
0.0
 11
-85.94135683034845
 21
-85.4159845122079
 31
0.0
 11
-85.6388141195669
 21
-84.95884108571553
 31
0.0
 11
-85.31718641166262
 21
-84.6319265724529
 31
0.0
 11
-84.99975239452313
 21
-84.45890485580539
 31
0.0
 11
-84.70948708423975
 21
-84.45229619780012
 31
0.0
  0
SPLINE
  5
B1
330
47
100
AcDbEntity
  8
0
  6
Continuous
 62
     7
100
AcDbSpline
210
0.0
220
0.0
230
1.0
 70
     8
 71
     3
 72
     9
 73
     5
 74
     3
 42
0.000000001
 43
0.0000000001
 44
0.00000001
 40
0.0
 40
0.0
 40
0.0
 40
0.0
 40
0.1402646094386908
 40
0.2797308691366196
 40
0.2797308691366196
 40
0.2797308691366196
 40
0.2797308691366196
 10
-68.58667005159013
 20
-90.46186374539113
 30
0.0
 10
-68.5492108139663
 20
-90.43388414704093
 30
0.0
 10
-68.47450553506249
 20
-90.3780842190162
 30
0.0
 10
-68.39921025263615
 20
-90.32308303566602
 30
0.0
 10
-68.36167005159014
 20
-90.29566093849837
 30
0.0
 11
-68.58667005159013
 21
-90.46186374539113
 31
0.0
 11
-68.47414398869996
 21
-90.37812578600959
 31
0.0
 11
-68.36167005159014
 21
-90.29566093849837
 31
0.0
  0
SPLINE
  5
B2
330
47
100
AcDbEntity
  8
0
  6
Continuous
 62
     7
100
AcDbSpline
210
0.0
220
0.0
230
1.0
 70
     8
 71
     3
 72
    11
 73
     7
 74
     5
 42
0.000000001
 43
0.0000000001
 44
0.00000001
 40
0.0
 40
0.0
 40
0.0
 40
0.0
 40
0.5762604384178945
 40
1.107449995067213
 40
1.587555351019696
 40
2.01347898810434
 40
2.01347898810434
 40
2.01347898810434
 40
2.01347898810434
 10
-68.5437729032298
 20
-93.09187909128096
 30
0.0
 10
-68.53934662676104
 20
-92.89968196206702
 30
0.0
 10
-68.53084027952613
 20
-92.53031995915856
 30
0.0
 10
-68.57792654011882
 20
-92.00260301249818
 30
0.0
 10
-68.66245033718349
 20
-91.52896022359549
 30
0.0
 10
-68.76853092868953
 20
-91.2456152137545
 30
0.0
 10
-68.81839935224029
 20
-91.11241491224384
 30
0.0
 11
-68.5437729032298
 21
-93.09187909128096
 31
0.0
 11
-68.54169090841012
 21
-92.51562241469667
 31
0.0
 11
-68.5875751361724
 21
-91.98641831041385
 31
0.0
 11
-68.6804617439612
 21
-91.51538409439593
 31
0.0
 11
-68.81839935224029
 21
-91.11241491224384
 31
0.0
  0
SPLINE
  5
B3
330
47
100
AcDbEntity
  8
0
  6
Continuous
 62
     7
100
AcDbSpline
210
0.0
220
0.0
230
1.0
 70
     8
 71
     3
 72
    11
 73
     7
 74
     5
 42
0.000000001
 43
0.0000000001
 44
0.00000001
 40
0.0
 40
0.0
 40
0.0
 40
0.0
 40
0.7719166187269628
 40
1.533969513452755
 40
2.276030704018077
 40
2.988515003264235
 40
2.988515003264235
 40
2.988515003264235
 40
2.988515003264235
 10
-69.04914538510155
 20
-96.03071627841886
 30
0.0
 10
-68.98097984276009
 20
-95.78252203967305
 30
0.0
 10
-68.84551980719692
 20
-95.28930504021098
 30
0.0
 10
-68.6978942840453
 20
-94.54462657621758
 30
0.0
 10
-68.59006511727209
 20
-93.81301269914717
 30
0.0
 10
-68.5589930285339
 20
-93.32897614307706
 30
0.0
 10
-68.5437729032298
 20
-93.09187909128096
 30
0.0
 11
-69.04914538510155
 21
-96.03071627841886
 31
0.0
 11
-68.85375609403455
 21
-95.2839376690297
 31
0.0
 11
-68.70285794698611
 21
-94.53697423988999
 31
0.0
 11
-68.59895541415463
 21
-93.80222321048667
 31
0.0
 11
-68.5437729032298
 21
-93.09187909128096
 31
0.0
  0
SPLINE
  5
B4
330
47
100
AcDbEntity
  8
0
  6
Continuous
 62
     7
100
AcDbSpline
210
0.0
220
0.0
230
1.0
 70
     8
 71
     3
 72
    11
 73
     7
 74
     5
 42
0.000000001
 43
0.0000000001
 44
0.00000001
 40
0.0
 40
0.0
 40
0.0
 40
0.0
 40
1.100204245079208
 40
2.211655817595518
 40
3.292773450059074
 40
4.304242201924486
 40
4.304242201924486
 40
4.304242201924486
 40
4.304242201924486
 10
-69.13891432269091
 20
-96.69666022432166
 30
0.0
 10
-69.0050304819699
 20
-96.3548945872579
 30
0.0
 10
-68.73589412757087
 20
-95.66786945673105
 30
0.0
 10
-68.46137823890248
 20
-94.60319509845125
 30
0.0
 10
-68.27485995447975
 20
-93.54897366532308
 30
0.0
 10
-68.24911437887175
 20
-92.85116835515896
 30
0.0
 10
-68.23667005159014
 20
-92.51387844808082
 30
0.0
 11
-69.13891432269091
 21
-96.69666022432166
 31
0.0
 11
-68.75823594445838
 21
-95.66441347393493
 31
0.0
 11
-68.4730223875438
 21
-94.59017987401808
 31
0.0
 11
-68.29644864940238
 21
-93.52357917425775
 31
0.0
 11
-68.23667005159014
 21
-92.51387844808082
 31
0.0
  0
SPLINE
  5
B5
330
47
100
AcDbEntity
  8
0
  6
Continuous
 62
     7
100
AcDbSpline
210
0.0
220
0.0
230
1.0
 70
     8
 71
     3
 72
     9
 73
     5
 74
     3
 42
0.000000001
 43
0.0000000001
 44
0.00000001
 40
0.0
 40
0.0
 40
0.0
 40
0.0
 40
1.141569633265432
 40
2.222713676407011
 40
2.222713676407011
 40
2.222713676407011
 40
2.222713676407011
 10
-68.23667005159014
 20
-92.51387844808082
 30
0.0
 10
-68.24132259361768
 20
-92.13316768996783
 30
0.0
 10
-68.25038142919152
 20
-91.39189796522129
 30
0.0
 10
-68.325252305139
 20
-90.65439010614044
 30
0.0
 10
-68.36167005159014
 20
-90.29566093849837
 30
0.0
 11
-68.23667005159014
 21
-92.51387844808082
 31
0.0
 11
-68.26798742465192
 21
-91.37273846963146
 31
0.0
 11
-68.36167005159014
 21
-90.29566093849837
 31
0.0
  0
SPLINE
  5
B6
330
47
100
AcDbEntity
  8
0
  6
Continuous
 62
     7
100
AcDbSpline
210
0.0
220
0.0
230
1.0
 70
     8
 71
     3
 72
     9
 73
     5
 74
     3
 42
0.000000001
 43
0.0000000001
 44
0.00000001
 40
0.0
 40
0.0
 40
0.0
 40
0.0
 40
1.195793424869751
 40
2.438669749654804
 40
2.438669749654804
 40
2.438669749654804
 40
2.438669749654804
 10
-86.92512731971003
 20
-90.69855719981257
 30
0.0
 10
-86.9194949281753
 20
-90.29985162503638
 30
0.0
 10
-86.9080083566126
 20
-89.4867419330994
 30
0.0
 10
-86.83654756510506
 20
-88.6766827526394
 30
0.0
 10
-86.80012731971004
 20
-88.26383333928405
 30
0.0
 11
-86.92512731971003
 21
-90.69855719981257
 31
0.0
 11
-86.89380994664825
 21
-89.50317394006063
 31
0.0
 11
-86.80012731971004
 21
-88.26383333928405
 31
0.0
  0
ENDBLK
  5
49
330
47
100
AcDbEntity
  8
0
100
AcDbBlockEnd
  0
BLOCK
  5
4C
330
4A
100
AcDbEntity
  8
0
100
AcDbBlockBegin
  2
Allg1
 70
     0
 10
-77.5808986856544
 20
-91.00000000000102
 30
0.0
  3
Allg1
  1

  0
INSERT
  5
4B
330
4A
100
AcDbEntity
  8
0
100
AcDbBlockReference
  2
0823753_PATO_2_18-select__1
 10
-86.92512731971003
 20
-97.83306846830735
 30
0.0
  0
MTEXT
  5
B8
330
4A
100
AcDbEntity
  8
1
 62
     6
100
AcDbMText
 10
-77.58089868565452
 20
-102.6626587736538
 30
0.0
 40
2.5
 41
0.0
 71
     2
 72
     1
  1
 
  7
CONVERTER_11
 73
     1
 44
1.32052821128451
  0
ENDBLK
  5
4D
330
4A
100
AcDbEntity
  8
0
100
AcDbBlockEnd
  0
BLOCK
  5
4F
330
4E
100
AcDbEntity
  8
0
100
AcDbBlockBegin
  2
0823753_PATO_2_18-select__2
 70
     0
 10
-150.2000002860973
 20
-80.90000007152557
 30
0.0
  3
0823753_PATO_2_18-select__2
  1

  0
LINE
  5
B9
330
4E
100
AcDbEntity
  8
0
  6
Continuous
 62
     7
100
AcDbLine
 10
-150.2000002860973
 20
-75.40000007152557
 30
0.0
 11
-150.2000002860973
 21
-74.95000007152557
 31
0.0
  0
LINE
  5
BA
330
4E
100
AcDbEntity
  8
0
  6
Continuous
 62
     7
100
AcDbLine
 10
-150.2000002860973
 20
-80.20000007152557
 30
0.0
 11
-150.2000002860973
 21
-75.40000007152557
 31
0.0
  0
LINE
  5
BB
330
4E
100
AcDbEntity
  8
0
  6
Continuous
 62
     7
100
AcDbLine
 10
-150.2000002860973
 20
-74.70000007152558
 30
0.0
 11
-150.2000002860973
 21
-74.95000007152557
 31
0.0
  0
LINE
  5
BC
330
4E
100
AcDbEntity
  8
0
  6
Continuous
 62
     7
100
AcDbLine
 10
-132.2000002860973
 20
-80.20000007152557
 30
0.0
 11
-132.2000002860973
 21
-75.40000007152557
 31
0.0
  0
LINE
  5
BD
330
4E
100
AcDbEntity
  8
0
  6
Continuous
 62
     7
100
AcDbLine
 10
-132.2000002860973
 20
-75.40000007152557
 30
0.0
 11
-132.2000002860973
 21
-74.95000007152557
 31
0.0
  0
LINE
  5
BE
330
4E
100
AcDbEntity
  8
0
  6
Continuous
 62
     7
100
AcDbLine
 10
-132.2000002860973
 20
-74.70000007152558
 30
0.0
 11
-132.2000002860973
 21
-74.95000007152557
 31
0.0
  0
LINE
  5
BF
330
4E
100
AcDbEntity
  8
0
  6
Continuous
 62
     7
100
AcDbLine
 10
-132.2000002860973
 20
-75.40000007152557
 30
0.0
 11
-150.2000002860973
 21
-75.40000007152557
 31
0.0
  0
LINE
  5
C0
330
4E
100
AcDbEntity
  8
0
  6
Continuous
 62
     7
100
AcDbLine
 10
-150.2000002860973
 20
-74.95000007152557
 30
0.0
 11
-132.2000002860973
 21
-74.95000007152557
 31
0.0
  0
LINE
  5
C1
330
4E
100
AcDbEntity
  8
0
  6
Continuous
 62
     7
100
AcDbLine
 10
-150.2000002860973
 20
-74.70000007152558
 30
0.0
 11
-132.2000002860973
 21
-74.70000007152558
 31
0.0
  0
LINE
  5
C2
330
4E
100
AcDbEntity
  8
0
  6
Continuous
 62
     7
100
AcDbLine
 10
-150.2000002860973
 20
-80.90000007152557
 30
0.0
 11
-150.2000002860973
 21
-80.6500000715256
 31
0.0
  0
LINE
  5
C3
330
4E
100
AcDbEntity
  8
0
  6
Continuous
 62
     7
100
AcDbLine
 10
-132.2000002860973
 20
-80.90000007152557
 30
0.0
 11
-132.2000002860973
 21
-80.6500000715256
 31
0.0
  0
LINE
  5
C4
330
4E
100
AcDbEntity
  8
0
  6
Continuous
 62
     7
100
AcDbLine
 10
-150.2000002860973
 20
-80.6500000715256
 30
0.0
 11
-150.2000002860973
 21
-80.20000007152557
 31
0.0
  0
LINE
  5
C5
330
4E
100
AcDbEntity
  8
0
  6
Continuous
 62
     7
100
AcDbLine
 10
-132.2000002860973
 20
-80.6500000715256
 30
0.0
 11
-132.2000002860973
 21
-80.20000007152557
 31
0.0
  0
LINE
  5
C6
330
4E
100
AcDbEntity
  8
0
  6
Continuous
 62
     7
100
AcDbLine
 10
-150.2000002860973
 20
-80.6500000715256
 30
0.0
 11
-132.2000002860973
 21
-80.6500000715256
 31
0.0
  0
LINE
  5
C7
330
4E
100
AcDbEntity
  8
0
  6
Continuous
 62
     7
100
AcDbLine
 10
-132.2000002860973
 20
-80.20000007152557
 30
0.0
 11
-150.2000002860973
 21
-80.20000007152557
 31
0.0
  0
LINE
  5
C8
330
4E
100
AcDbEntity
  8
0
  6
Continuous
 62
     7
100
AcDbLine
 10
-132.2000002860973
 20
-80.90000007152557
 30
0.0
 11
-150.2000002860973
 21
-80.90000007152557
 31
0.0
  0
ENDBLK
  5
50
330
4E
100
AcDbEntity
  8
0
100
AcDbBlockEnd
  0
BLOCK
  5
53
330
51
100
AcDbEntity
  8
0
100
AcDbBlockBegin
  2
Drfsicht1
 70
     0
 10
-141.2000002861023
 20
-77.80000007152557
 30
0.0
  3
Drfsicht1
  1

  0
INSERT
  5
52
330
51
100
AcDbEntity
  8
0
100
AcDbBlockReference
  2
0823753_PATO_2_18-select__2
 10
-150.2000002860973
 20
-80.90000007152557
 30
0.0
  0
MTEXT
  5
C9
330
51
100
AcDbEntity
  8
1
 62
     6
100
AcDbMText
 10
-141.2000002861023
 20
-83.39999997615814
 30
0.0
 40
2.5
 41
0.0
 71
     2
 72
     1
  1
 
  7
CONVERTER_11
 73
     1
 44
1.32052821128451
  0
DIMENSION
  5
D4
330
51
100
AcDbEntity
  8
1
100
AcDbDimension
  2
*D16
 10
-155.2000002860973
 20
-80.90000007152557
 30
0.0
 11
-156.9125002860973
 21
-77.80000007152557
 31
0.0
 70
    32
  1
<>
 71
     5
 42
-1.0
 53
90.0
  3
ME10_DIM_10
100
AcDbAlignedDimension
 13
-150.2000002860973
 23
-74.70000007152558
 33
0.0
 14
-150.2000002860973
 24
-80.90000007152557
 34
0.0
 50
90.0
100
AcDbRotatedDimension
  0
ENDBLK
  5
54
330
51
100
AcDbEntity
  8
0
100
AcDbBlockEnd
  0
BLOCK
  5
56
330
55
100
AcDbEntity
  8
0
100
AcDbBlockBegin
  2
0823753_PATO_2_18-select__3
 70
     0
 10
-94.0000000000175
 20
-59.70000004768362
 30
0.0
  3
0823753_PATO_2_18-select__3
  1

  0
LINE
  5
D5
330
55
100
AcDbEntity
  8
0
  6
Continuous
 62
     7
100
AcDbLine
 10
-76.0000000000175
 20
-50.30000004768363
 30
0.0
 11
-76.0000000000175
 21
-52.70000004768363
 31
0.0
  0
LINE
  5
D6
330
55
100
AcDbEntity
  8
0
  6
Continuous
 62
     7
100
AcDbLine
 10
-94.0000000000175
 20
-50.30000004768363
 30
0.0
 11
-94.0000000000175
 21
-52.70000004768363
 31
0.0
  0
LINE
  5
D7
330
55
100
AcDbEntity
  8
0
  6
Continuous
 62
     7
100
AcDbLine
 10
-76.0000000000175
 20
-52.98053756572571
 30
0.0
 11
-76.0000000000175
 21
-52.70000004768363
 31
0.0
  0
LINE
  5
D8
330
55
100
AcDbEntity
  8
0
  6
Continuous
 62
     7
100
AcDbLine
 10
-94.0000000000175
 20
-52.98053756572571
 30
0.0
 11
-94.0000000000175
 21
-52.70000004768363
 31
0.0
  0
LINE
  5
D9
330
55
100
AcDbEntity
  8
0
  6
Continuous
 62
     2
100
AcDbLine
 10
-76.0000000000175
 20
-52.70000004768363
 30
0.0
 11
-94.0000000000175
 21
-52.70000004768363
 31
0.0
  0
LINE
  5
DA
330
55
100
AcDbEntity
  8
0
  6
Continuous
 62
     7
100
AcDbLine
 10
-76.0000000000175
 20
-52.98053756572571
 30
0.0
 11
-94.0000000000175
 21
-52.98053756572571
 31
0.0
  0
LINE
  5
DB
330
55
100
AcDbEntity
  8
0
  6
Continuous
 62
     7
100
AcDbLine
 10
-94.0000000000175
 20
-50.30000004768363
 30
0.0
 11
-76.0000000000175
 21
-50.30000004768363
 31
0.0
  0
LINE
  5
DC
330
55
100
AcDbEntity
  8
0
  6
Continuous
 62
     7
100
AcDbLine
 10
-76.0000000000175
 20
-55.70000004768363
 30
0.0
 11
-76.0000000000175
 21
-53.01362309512651
 31
0.0
  0
LINE
  5
DD
330
55
100
AcDbEntity
  8
0
  6
Continuous
 62
     7
100
AcDbLine
 10
-76.0000000000175
 20
-59.62761614553109
 30
0.0
 11
-76.0000000000175
 21
-55.70000004768363
 31
0.0
  0
LINE
  5
DE
330
55
100
AcDbEntity
  8
0
  6
Continuous
 62
     7
100
AcDbLine
 10
-76.0000000000175
 20
-59.70000004768362
 30
0.0
 11
-76.0000000000175
 21
-59.62761614553109
 31
0.0
  0
LINE
  5
DF
330
55
100
AcDbEntity
  8
0
  6
Continuous
 62
     7
100
AcDbLine
 10
-76.0000000000175
 20
-59.70000004768362
 30
0.0
 11
-94.0000000000175
 21
-59.70000004768362
 31
0.0
  0
LINE
  5
E0
330
55
100
AcDbEntity
  8
0
  6
Continuous
 62
     7
100
AcDbLine
 10
-94.0000000000175
 20
-59.70000004768362
 30
0.0
 11
-94.0000000000175
 21
-59.62761614553109
 31
0.0
  0
LINE
  5
E1
330
55
100
AcDbEntity
  8
0
  6
Continuous
 62
     7
100
AcDbLine
 10
-94.0000000000175
 20
-55.70000004768363
 30
0.0
 11
-94.0000000000175
 21
-53.01362309512651
 31
0.0
  0
LINE
  5
E2
330
55
100
AcDbEntity
  8
0
  6
Continuous
 62
     7
100
AcDbLine
 10
-76.0000000000175
 20
-52.98053756572571
 30
0.0
 11
-76.0000000000175
 21
-53.01362309512651
 31
0.0
  0
LINE
  5
E3
330
55
100
AcDbEntity
  8
0
  6
Continuous
 62
     7
100
AcDbLine
 10
-94.0000000000175
 20
-52.98053756572571
 30
0.0
 11
-94.0000000000175
 21
-53.01362309512651
 31
0.0
  0
LINE
  5
E4
330
55
100
AcDbEntity
  8
0
  6
Continuous
 62
     7
100
AcDbLine
 10
-76.0000000000175
 20
-53.01362309512651
 30
0.0
 11
-94.0000000000175
 21
-53.01362309512651
 31
0.0
  0
LINE
  5
E5
330
55
100
AcDbEntity
  8
0
  6
Continuous
 62
     2
100
AcDbLine
 10
-76.0000000000175
 20
-55.70000004768363
 30
0.0
 11
-94.0000000000175
 21
-55.70000004768363
 31
0.0
  0
LINE
  5
E6
330
55
100
AcDbEntity
  8
0
  6
Continuous
 62
     7
100
AcDbLine
 10
-94.0000000000175
 20
-59.62761614553109
 30
0.0
 11
-94.0000000000175
 21
-55.70000004768363
 31
0.0
  0
LINE
  5
E7
330
55
100
AcDbEntity
  8
0
  6
Continuous
 62
     2
100
AcDbLine
 10
-76.0000000000175
 20
-59.62761614553109
 30
0.0
 11
-94.0000000000175
 21
-59.62761614553109
 31
0.0
  0
ENDBLK
  5
57
330
55
100
AcDbEntity
  8
0
100
AcDbBlockEnd
  0
BLOCK
  5
5A
330
58
100
AcDbEntity
  8
0
100
AcDbBlockBegin
  2
Rckans1
 70
     0
 10
-85.0000000000125
 20
-54.99999999999991
 30
0.0
  3
Rckans1
  1

  0
INSERT
  5
59
330
58
100
AcDbEntity
  8
0
100
AcDbBlockReference
  2
0823753_PATO_2_18-select__3
 10
-94.0000000000175
 20
-59.70000004768362
 30
0.0
  0
MTEXT
  5
E8
330
58
100
AcDbEntity
  8
1
 62
     6
100
AcDbMText
 10
-85.0000000000125
 20
-62.20000004768372
 30
0.0
 40
2.5
 41
0.0
 71
     2
 72
     1
  1
 
  7
CONVERTER_11
 73
     1
 44
1.32052821128451
  0
ENDBLK
  5
5B
330
58
100
AcDbEntity
  8
0
100
AcDbBlockEnd
  0
BLOCK
  5
5D
330
5C
100
AcDbEntity
  8
0
100
AcDbBlockBegin
  2
0823753_PATO_2_18-select__4
 70
     0
 10
-116.2000001430513
 20
-59.70000004768372
 30
0.0
  3
0823753_PATO_2_18-select__4
  1

  0
LINE
  5
E9
330
5C
100
AcDbEntity
  8
0
  6
Continuous
 62
     7
100
AcDbLine
 10
-115.5000001430513
 20
-52.9805375657258
 30
0.0
 11
-115.5000001430513
 21
-52.70000004768372
 31
0.0
  0
LINE
  5
EA
330
5C
100
AcDbEntity
  8
0
  6
Continuous
 62
     7
100
AcDbLine
 10
-115.036541541751
 20
-53.50000004768371
 30
0.0
 11
-111.1634587443516
 21
-53.50000004768371
 31
0.0
  0
LINE
  5
EB
330
5C
100
AcDbEntity
  8
0
  6
Continuous
 62
     7
100
AcDbLine
 10
-110.7000001430513
 20
-52.70000004768372
 30
0.0
 11
-110.7000001430513
 21
-52.9805375657258
 31
0.0
  0
LINE
  5
EC
330
5C
100
AcDbEntity
  8
0
  6
Continuous
 62
     7
100
AcDbLine
 10
-113.674102841053
 20
-55.85000004768374
 30
0.0
 11
-114.0747642959029
 21
-55.85000004768372
 31
0.0
  0
LINE
  5
ED
330
5C
100
AcDbEntity
  8
0
  6
Continuous
 62
     7
100
AcDbLine
 10
-112.5258974450496
 20
-55.85000004768372
 30
0.0
 11
-112.1252359901997
 21
-55.85000004768372
 31
0.0
  0
ARC
  5
EE
330
5C
100
AcDbEntity
  8
0
  6
Continuous
 62
     7
100
AcDbCircle
 10
-111.02336790791
 20
-55.70000004768372
 30
0.0
 40
4.576632235100027
100
AcDbArc
 50
151.2686859476882
 51
184.515526463005
  0
ARC
  5
EF
330
5C
100
AcDbEntity
  8
0
  6
Continuous
 62
     7
100
AcDbCircle
 10
-101.6417578805912
 20
-55.70000004768372
 30
0.0
 40
14.5582422624601
100
AcDbArc
 50
169.3664905978526
 51
180.0
  0
ARC
  5
F0
330
5C
100
AcDbEntity
  8
0
  6
Continuous
 62
     7
100
AcDbCircle
 10
-116.5955820603129
 20
-55.5879393776562
 30
0.0
 40
6.000000000000015
100
AcDbArc
 50
325.9386710127813
 51
355.484473536995
  0
ARC
  5
F1
330
5C
100
AcDbEntity
  8
0
  6
Continuous
 62
     7
100
AcDbCircle
 10
-111.7906385184154
 20
-58.83640325450284
 30
0.0
 40
0.1999999999999146
100
AcDbArc
 50
188.5319753824434
 51
325.9386710127839
  0
ARC
  5
F2
330
5C
100
AcDbEntity
  8
0
  6
Continuous
 62
     7
100
AcDbCircle
 10
-97.55000014305125
 20
-56.70000004768372
 30
0.0
 40
14.60000000000004
100
AcDbArc
 50
176.6623995443785
 51
188.5319753824427
  0
ARC
  5
F3
330
5C
100
AcDbEntity
  8
0
  6
Continuous
 62
     7
100
AcDbCircle
 10
-97.55000014305125
 20
-56.70000004768372
 30
0.0
 40
15.00000000000004
100
AcDbArc
 50
176.7514990269563
 51
190.5838025965105
  0
ARC
  5
F4
330
5C
100
AcDbEntity
  8
0
  6
Continuous
 62
     7
100
AcDbCircle
 10
-115.1766323781926
 20
-55.70000004768372
 30
0.0
 40
5.176632235141287
100
AcDbArc
 50
310.6484858224265
 51
0.0
  0
ARC
  5
F5
330
5C
100
AcDbEntity
  8
0
  6
Continuous
 62
     7
100
AcDbCircle
 10
-124.5582424055113
 20
-55.70000004768372
 30
0.0
 40
14.55824226246
100
AcDbArc
 50
0.0
 51
10.63350940214732
  0
ARC
  5
F6
330
5C
100
AcDbEntity
  8
0
  6
Continuous
 62
     7
100
AcDbCircle
 10
-113.1000001430513
 20
-88.70000004768372
 30
0.0
 40
35.79999999999999
100
AcDbArc
 50
85.43391212743269
 51
86.15605921415741
  0
ARC
  5
F7
330
5C
100
AcDbEntity
  8
0
  6
Continuous
 62
     7
100
AcDbCircle
 10
-113.1000001430513
 20
-88.70000004768372
 30
0.0
 40
35.79999999999999
100
AcDbArc
 50
93.84394078584256
 51
94.56608787256714
  0
ARC
  5
F8
330
5C
100
AcDbEntity
  8
0
  6
Continuous
 62
     7
100
AcDbCircle
 10
-114.4093617676871
 20
-58.83640325450281
 30
0.0
 40
0.2000000000000092
100
AcDbArc
 50
214.0613289872217
 51
351.4680246175571
  0
ARC
  5
F9
330
5C
100
AcDbEntity
  8
0
  6
Continuous
 62
     7
100
AcDbCircle
 10
-109.6044182257896
 20
-55.5879393776562
 30
0.0
 40
6.000000000000093
100
AcDbArc
 50
184.515526463005
 51
214.0613289872187
  0
ARC
  5
FA
330
5C
100
AcDbEntity
  8
0
  6
Continuous
 62
     7
100
AcDbCircle
 10
-111.02336790791
 20
-55.70000004768372
 30
0.0
 40
5.176632235141298
100
AcDbArc
 50
180.0
 51
229.3515141775744
  0
ARC
  5
FB
330
5C
100
AcDbEntity
  8
0
  6
Continuous
 62
     7
100
AcDbCircle
 10
-115.1766323781926
 20
-55.70000004768372
 30
0.0
 40
4.576632235100017
100
AcDbArc
 50
355.4844735369952
 51
28.73131405231188
  0
ARC
  5
FC
330
5C
100
AcDbEntity
  8
0
  6
Continuous
 62
     7
100
AcDbCircle
 10
-128.6500001430513
 20
-56.70000004768372
 30
0.0
 40
14.60000000000001
100
AcDbArc
 50
351.4680246175574
 51
3.33760045562152
  0
ARC
  5
FD
330
5C
100
AcDbEntity
  8
0
  6
Continuous
 62
     7
100
AcDbCircle
 10
-128.6500001430513
 20
-56.70000004768372
 30
0.0
 40
15.0
100
AcDbArc
 50
349.4161974034896
 51
3.24850097304365
  0
ARC
  5
FE
330
5C
100
AcDbEntity
  8
0
  6
Continuous
 62
     7
100
AcDbCircle
 10
-114.2000866485005
 20
-59.4000000476837
 30
0.0
 40
0.3000000000000013
100
AcDbArc
 50
229.3515141775796
 51
349.4161974034876
  0
ARC
  5
FF
330
5C
100
AcDbEntity
  8
0
  6
Continuous
 62
     7
100
AcDbCircle
 10
-111.999913637602
 20
-59.4000000476837
 30
0.0
 40
0.3000000000000514
100
AcDbArc
 50
190.583802596512
 51
310.6484858224231
  0
ARC
  5
100
330
5C
100
AcDbEntity
  8
0
  6
Continuous
 62
     7
100
AcDbCircle
 10
-113.1000001430513
 20
-52.70000004768372
 30
0.0
 40
2.400000000000006
100
AcDbArc
 50
0.0
 51
180.0
  0
ENDBLK
  5
5E
330
5C
100
AcDbEntity
  8
0
100
AcDbBlockEnd
  0
BLOCK
  5
61
330
5F
100
AcDbEntity
  8
0
100
AcDbBlockBegin
  2
SA_Links1
 70
     0
 10
-113.1000001430513
 20
-55.0
 30
0.0
  3
SA_Links1
  1

  0
INSERT
  5
60
330
5F
100
AcDbEntity
  8
0
100
AcDbBlockReference
  2
0823753_PATO_2_18-select__4
 10
-116.2000001430513
 20
-59.70000004768372
 30
0.0
  0
MTEXT
  5
101
330
5F
100
AcDbEntity
  8
1
 62
     6
100
AcDbMText
 10
-113.1000001430512
 20
-62.20000004768372
 30
0.0
 40
2.5
 41
0.0
 71
     2
 72
     1
  1
 
  7
CONVERTER_11
 73
     1
 44
1.32052821128451
  0
ENDBLK
  5
62
330
5F
100
AcDbEntity
  8
0
100
AcDbBlockEnd
  0
BLOCK
  5
64
330
63
100
AcDbEntity
  8
0
100
AcDbBlockBegin
  2
0823753_PATO_2_18-select__5
 70
     0
 10
-177.4000003814749
 20
-59.70000004768361
 30
0.0
  3
0823753_PATO_2_18-select__5
  1

  0
LINE
  5
102
330
63
100
AcDbEntity
  8
0
  6
Continuous
 62
     7
100
AcDbLine
 10
-171.9000003814749
 20
-52.98053756572571
 30
0.0
 11
-171.9000003814749
 21
-52.70000004768363
 31
0.0
  0
LINE
  5
103
330
63
100
AcDbEntity
  8
0
  6
Continuous
 62
     7
100
AcDbLine
 10
-173.7258976834732
 20
-55.85000004768363
 30
0.0
 11
-173.3252362286233
 21
-55.85000004768364
 31
0.0
  0
LINE
  5
104
330
63
100
AcDbEntity
  8
0
  6
Continuous
 62
     7
100
AcDbLine
 10
-174.8741030794766
 20
-55.85000004768363
 30
0.0
 11
-175.2747645343265
 21
-55.85000004768364
 31
0.0
  0
LINE
  5
105
330
63
100
AcDbEntity
  8
0
  6
Continuous
 62
     7
100
AcDbLine
 10
-172.3634589827752
 20
-53.50000004768361
 30
0.0
 11
-176.2365417801746
 21
-53.50000004768361
 31
0.0
  0
LINE
  5
106
330
63
100
AcDbEntity
  8
0
  6
Continuous
 62
     7
100
AcDbLine
 10
-176.7000003814749
 20
-52.70000004768363
 30
0.0
 11
-176.7000003814749
 21
-52.98053756572571
 31
0.0
  0
ARC
  5
107
330
63
100
AcDbEntity
  8
0
  6
Continuous
 62
     7
100
AcDbCircle
 10
-176.3766326166162
 20
-55.70000004768363
 30
0.0
 40
4.57663223510003
100
AcDbArc
 50
355.4844735369952
 51
28.73131405231188
  0
ARC
  5
108
330
63
100
AcDbEntity
  8
0
  6
Continuous
 62
     7
100
AcDbCircle
 10
-177.7955822987365
 20
-55.58793937765611
 30
0.0
 40
5.999999999999996
100
AcDbArc
 50
325.9386710127813
 51
355.4844735369952
  0
ARC
  5
109
330
63
100
AcDbEntity
  8
0
  6
Continuous
 62
     7
100
AcDbCircle
 10
-176.3766326166162
 20
-55.70000004768363
 30
0.0
 40
5.176632235141319
100
AcDbArc
 50
310.6484858224264
 51
0.0
  0
ARC
  5
10A
330
63
100
AcDbEntity
  8
0
  6
Continuous
 62
     7
100
AcDbCircle
 10
-189.8500003814749
 20
-56.70000004768363
 30
0.0
 40
14.6
100
AcDbArc
 50
351.4680246175573
 51
3.33760045562147
  0
ARC
  5
10B
330
63
100
AcDbEntity
  8
0
  6
Continuous
 62
     7
100
AcDbCircle
 10
-158.7500003814749
 20
-56.70000004768363
 30
0.0
 40
14.6
100
AcDbArc
 50
176.6623995443786
 51
188.5319753824426
  0
ARC
  5
10C
330
63
100
AcDbEntity
  8
0
  6
Continuous
 62
     7
100
AcDbCircle
 10
-172.990638756839
 20
-58.83640325450271
 30
0.0
 40
0.2000000000000281
100
AcDbArc
 50
188.5319753824406
 51
325.9386710127749
  0
ARC
  5
10D
330
63
100
AcDbEntity
  8
0
  6
Continuous
 62
     7
100
AcDbCircle
 10
-175.4000868869241
 20
-59.40000004768361
 30
0.0
 40
0.2999999999999836
100
AcDbArc
 50
229.3515141775731
 51
349.4161974034836
  0
ARC
  5
10E
330
63
100
AcDbEntity
  8
0
  6
Continuous
 62
     7
100
AcDbCircle
 10
-175.6093620061108
 20
-58.83640325450275
 30
0.0
 40
0.2000000000000013
100
AcDbArc
 50
214.0613289872183
 51
351.4680246175594
  0
ARC
  5
10F
330
63
100
AcDbEntity
  8
0
  6
Continuous
 62
     7
100
AcDbCircle
 10
-173.1999138760257
 20
-59.40000004768361
 30
0.0
 40
0.299999999999965
100
AcDbArc
 50
190.5838025965124
 51
310.6484858224348
  0
ARC
  5
110
330
63
100
AcDbEntity
  8
0
  6
Continuous
 62
     7
100
AcDbCircle
 10
-170.8044184642133
 20
-55.58793937765611
 30
0.0
 40
5.999999999999978
100
AcDbArc
 50
184.5155264630049
 51
214.0613289872188
  0
ARC
  5
111
330
63
100
AcDbEntity
  8
0
  6
Continuous
 62
     7
100
AcDbCircle
 10
-172.2233681463336
 20
-55.70000004768363
 30
0.0
 40
5.176632235141312
100
AcDbArc
 50
180.0
 51
229.351514177574
  0
ARC
  5
112
330
63
100
AcDbEntity
  8
0
  6
Continuous
 62
     7
100
AcDbCircle
 10
-162.8417581190149
 20
-55.70000004768363
 30
0.0
 40
14.55824226246
100
AcDbArc
 50
169.3664905978526
 51
180.0
  0
ARC
  5
113
330
63
100
AcDbEntity
  8
0
  6
Continuous
 62
     7
100
AcDbCircle
 10
-174.3000003814749
 20
-88.70000004768363
 30
0.0
 40
35.79999999999999
100
AcDbArc
 50
93.84394078584259
 51
94.56608787256715
  0
ARC
  5
114
330
63
100
AcDbEntity
  8
0
  6
Continuous
 62
     7
100
AcDbCircle
 10
-189.8500003814749
 20
-56.70000004768363
 30
0.0
 40
15.00000000000001
100
AcDbArc
 50
349.4161974034895
 51
3.24850097304374
  0
ARC
  5
115
330
63
100
AcDbEntity
  8
0
  6
Continuous
 62
     7
100
AcDbCircle
 10
-158.7500003814749
 20
-56.70000004768363
 30
0.0
 40
14.99999999999999
100
AcDbArc
 50
176.7514990269563
 51
190.5838025965105
  0
ARC
  5
116
330
63
100
AcDbEntity
  8
0
  6
Continuous
 62
     7
100
AcDbCircle
 10
-185.7582426439349
 20
-55.70000004768363
 30
0.0
 40
14.55824226246
100
AcDbArc
 50
0.0
 51
10.63350940214742
  0
ARC
  5
117
330
63
100
AcDbEntity
  8
0
  6
Continuous
 62
     7
100
AcDbCircle
 10
-174.3000003814749
 20
-88.70000004768363
 30
0.0
 40
35.8
100
AcDbArc
 50
85.43391212743288
 51
86.15605921415745
  0
ARC
  5
118
330
63
100
AcDbEntity
  8
0
  6
Continuous
 62
     7
100
AcDbCircle
 10
-172.2233681463336
 20
-55.70000004768363
 30
0.0
 40
4.576632235100031
100
AcDbArc
 50
151.2686859476881
 51
184.5155264630048
  0
ARC
  5
119
330
63
100
AcDbEntity
  8
0
  6
Continuous
 62
     7
100
AcDbCircle
 10
-174.3000003814749
 20
-52.70000004768363
 30
0.0
 40
2.399999999999977
100
AcDbArc
 50
0.0
 51
180.0
  0
ENDBLK
  5
65
330
63
100
AcDbEntity
  8
0
100
AcDbBlockEnd
  0
BLOCK
  5
68
330
66
100
AcDbEntity
  8
0
100
AcDbBlockBegin
  2
SA_Rechts1
 70
     0
 10
-174.3000003814749
 20
-54.99999999999991
 30
0.0
  3
SA_Rechts1
  1

  0
INSERT
  5
67
330
66
100
AcDbEntity
  8
0
100
AcDbBlockReference
  2
0823753_PATO_2_18-select__5
 10
-177.4000003814749
 20
-59.70000004768361
 30
0.0
  0
MTEXT
  5
11A
330
66
100
AcDbEntity
  8
1
 62
     6
100
AcDbMText
 10
-174.3000003814748
 20
-62.20000004768372
 30
0.0
 40
2.5
 41
0.0
 71
     2
 72
     1
  1
 
  7
CONVERTER_11
 73
     1
 44
1.32052821128451
  0
ENDBLK
  5
69
330
66
100
AcDbEntity
  8
0
100
AcDbBlockEnd
  0
BLOCK
  5
6B
330
6A
100
AcDbEntity
  8
0
100
AcDbBlockBegin
  2
0823753_PATO_2_18-select__6
 70
     0
 10
-150.1999999999949
 20
-59.70000004768362
 30
0.0
  3
0823753_PATO_2_18-select__6
  1

  0
LINE
  5
11B
330
6A
100
AcDbEntity
  8
0
  6
Continuous
 62
     7
100
AcDbLine
 10
-150.1999999999949
 20
-59.70000004768362
 30
0.0
 11
-150.1999999999949
 21
-59.62761614553106
 31
0.0
  0
LINE
  5
11C
330
6A
100
AcDbEntity
  8
0
  6
Continuous
 62
     7
100
AcDbLine
 10
-150.1999999999949
 20
-53.01362309512652
 30
0.0
 11
-150.1999999999949
 21
-52.98053756572571
 31
0.0
  0
LINE
  5
11D
330
6A
100
AcDbEntity
  8
0
  6
Continuous
 62
     7
100
AcDbLine
 10
-150.1999999999949
 20
-55.70000004768363
 30
0.0
 11
-150.1999999999949
 21
-59.62761614553106
 31
0.0
  0
LINE
  5
11E
330
6A
100
AcDbEntity
  8
0
  6
Continuous
 62
     7
100
AcDbLine
 10
-132.1999999999949
 20
-59.70000004768362
 30
0.0
 11
-132.1999999999949
 21
-59.62761614553106
 31
0.0
  0
LINE
  5
11F
330
6A
100
AcDbEntity
  8
0
  6
Continuous
 62
     7
100
AcDbLine
 10
-132.1999999999949
 20
-59.62761614553106
 30
0.0
 11
-132.1999999999949
 21
-55.70000004768363
 31
0.0
  0
LINE
  5
120
330
6A
100
AcDbEntity
  8
0
  6
Continuous
 62
     7
100
AcDbLine
 10
-150.1999999999949
 20
-55.70000004768363
 30
0.0
 11
-150.1999999999949
 21
-53.01362309512652
 31
0.0
  0
LINE
  5
121
330
6A
100
AcDbEntity
  8
0
  6
Continuous
 62
     7
100
AcDbLine
 10
-132.1999999999949
 20
-55.70000004768363
 30
0.0
 11
-132.1999999999949
 21
-53.01362309512652
 31
0.0
  0
LINE
  5
122
330
6A
100
AcDbEntity
  8
0
  6
Continuous
 62
     2
100
AcDbLine
 10
-150.1999999999949
 20
-55.70000004768363
 30
0.0
 11
-132.1999999999949
 21
-55.70000004768363
 31
0.0
  0
LINE
  5
123
330
6A
100
AcDbEntity
  8
0
  6
Continuous
 62
     7
100
AcDbLine
 10
-150.1999999999949
 20
-53.01362309512652
 30
0.0
 11
-132.1999999999949
 21
-53.01362309512652
 31
0.0
  0
LINE
  5
124
330
6A
100
AcDbEntity
  8
0
  6
Continuous
 62
     7
100
AcDbLine
 10
-132.1999999999949
 20
-53.01362309512652
 30
0.0
 11
-132.1999999999949
 21
-52.98053756572571
 31
0.0
  0
LINE
  5
125
330
6A
100
AcDbEntity
  8
0
  6
Continuous
 62
     7
100
AcDbLine
 10
-132.1999999999949
 20
-52.70000004768363
 30
0.0
 11
-132.1999999999949
 21
-52.98053756572571
 31
0.0
  0
LINE
  5
126
330
6A
100
AcDbEntity
  8
0
  6
Continuous
 62
     7
100
AcDbLine
 10
-132.1999999999949
 20
-52.70000004768363
 30
0.0
 11
-132.1999999999949
 21
-50.30000004768363
 31
0.0
  0
LINE
  5
127
330
6A
100
AcDbEntity
  8
0
  6
Continuous
 62
     7
100
AcDbLine
 10
-150.1999999999949
 20
-52.70000004768363
 30
0.0
 11
-150.1999999999949
 21
-50.30000004768363
 31
0.0
  0
LINE
  5
128
330
6A
100
AcDbEntity
  8
0
  6
Continuous
 62
     7
100
AcDbLine
 10
-150.1999999999949
 20
-52.70000004768363
 30
0.0
 11
-150.1999999999949
 21
-52.98053756572571
 31
0.0
  0
LINE
  5
129
330
6A
100
AcDbEntity
  8
0
  6
Continuous
 62
     7
100
AcDbLine
 10
-150.1999999999949
 20
-52.98053756572571
 30
0.0
 11
-132.1999999999949
 21
-52.98053756572571
 31
0.0
  0
LINE
  5
12A
330
6A
100
AcDbEntity
  8
0
  6
Continuous
 62
     2
100
AcDbLine
 10
-150.1999999999949
 20
-52.70000004768363
 30
0.0
 11
-132.1999999999949
 21
-52.70000004768363
 31
0.0
  0
LINE
  5
12B
330
6A
100
AcDbEntity
  8
0
  6
Continuous
 62
     7
100
AcDbLine
 10
-132.1999999999949
 20
-50.30000004768363
 30
0.0
 11
-150.1999999999949
 21
-50.30000004768363
 31
0.0
  0
LINE
  5
12C
330
6A
100
AcDbEntity
  8
0
  6
Continuous
 62
     2
100
AcDbLine
 10
-150.1999999999949
 20
-59.62761614553106
 30
0.0
 11
-132.1999999999949
 21
-59.62761614553106
 31
0.0
  0
LINE
  5
12D
330
6A
100
AcDbEntity
  8
0
  6
Continuous
 62
     7
100
AcDbLine
 10
-132.1999999999949
 20
-59.70000004768362
 30
0.0
 11
-150.1999999999949
 21
-59.70000004768362
 31
0.0
  0
ENDBLK
  5
6C
330
6A
100
AcDbEntity
  8
0
100
AcDbBlockEnd
  0
BLOCK
  5
6F
330
6D
100
AcDbEntity
  8
0
100
AcDbBlockBegin
  2
Vordans1
 70
     0
 10
-141.1999999999999
 20
-54.99999999999991
 30
0.0
  3
Vordans1
  1

  0
INSERT
  5
6E
330
6D
100
AcDbEntity
  8
0
100
AcDbBlockReference
  2
0823753_PATO_2_18-select__6
 10
-150.1999999999949
 20
-59.70000004768362
 30
0.0
  0
MTEXT
  5
12E
330
6D
100
AcDbEntity
  8
1
 62
     6
100
AcDbMText
 10
-141.2000000000001
 20
-62.20000004768372
 30
0.0
 40
2.5
 41
0.0
 71
     2
 72
     1
  1
 
  7
CONVERTER_11
 73
     1
 44
1.32052821128451
  0
DIMENSION
  5
139
330
6D
100
AcDbEntity
  8
1
100
AcDbDimension
  2
*D17
 10
-150.1999999999949
 20
-64.70000004768363
 30
0.0
 11
-141.1999999999949
 21
-63.07500004768362
 31
0.0
 70
    33
  1
<>
 71
     5
 42
-1.0
 53
0.00013888888889
  3
ME10_DIM_11
100
AcDbAlignedDimension
 13
-132.1999999999949
 23
-59.70000004768362
 33
0.0
 14
-150.1999999999949
 24
-59.70000004768362
 34
0.0
  0
DIMENSION
  5
144
330
6D
100
AcDbEntity
  8
1
100
AcDbDimension
  2
*D18
 10
-155.1999999999949
 20
-59.70000004768362
 30
0.0
 11
-156.9124999999949
 21
-54.9674211569665
 31
0.0
 70
    32
  1
<>
 71
     5
 42
-1.0
 53
90.0
  3
ME10_DIM_12
100
AcDbAlignedDimension
 13
-150.1999999999949
 23
-50.30000004768363
 33
0.0
 14
-150.1999999999949
 24
-59.70000004768362
 34
0.0
 50
90.0
100
AcDbRotatedDimension
  0
ENDBLK
  5
70
330
6D
100
AcDbEntity
  8
0
100
AcDbBlockEnd
  0
BLOCK
  5
72
330
71
100
AcDbEntity
  8
0
100
AcDbBlockBegin
  2
_punkt
 70
     0
 10
-103.9000003814923
 20
-248.4626588213374
 30
0.0
  3
_punkt
  1

  0
LINE
  5
145
330
71
100
AcDbEntity
  8
1
  6
Continuous
 62
     2
100
AcDbLine
 10
-103.9000003814923
 20
-248.4626588213374
 30
0.0
 11
-103.9000003814923
 21
-253.4626588213376
 31
0.0
  0
LINE
  5
146
330
71
100
AcDbEntity
  8
1
  6
Continuous
 62
     2
100
AcDbLine
 10
-103.9000003814923
 20
-248.4626588213374
 30
0.0
 11
-98.90000038149327
 21
-248.4626588213374
 31
0.0
  0
ENDBLK
  5
73
330
71
100
AcDbEntity
  8
0
100
AcDbBlockEnd
  0
BLOCK
  5
75
330
74
100
AcDbEntity
  8
0
100
AcDbBlockBegin
  2
_rahmen
 70
     0
 10
-103.9000003814923
 20
-253.4626588213376
 30
0.0
  3
_rahmen
  1

  0
LINE
  5
147
330
74
100
AcDbEntity
  8
1
  6
DOT_CENTER
 62
     2
100
AcDbLine
 10
-229.4581500216797
 20
-227.3376588213375
 30
0.0
 11
-223.9581500216797
 21
-227.3376588213375
 31
0.0
  0
LINE
  5
148
330
74
100
AcDbEntity
  8
1
  6
PHANTOM
 62
     2
100
AcDbLine
 10
-220.7081500216797
 20
-224.5876588213375
 30
0.0
 11
-220.7081500216797
 21
-230.0876588213375
 31
0.0
  0
LINE
  5
149
330
74
100
AcDbEntity
  8
1
  6
PHANTOM
 62
     2
100
AcDbLine
 10
-217.9581500216797
 20
-227.3376588213375
 30
0.0
 11
-223.4581500216797
 21
-227.3376588213375
 31
0.0
  0
LINE
  5
14A
330
74
100
AcDbEntity
  8
1
  6
Continuous
 62
     7
100
AcDbLine
 10
-169.1448049082423
 20
-239.9626588213375
 30
0.0
 11
-169.1448049082423
 21
-231.4626588213374
 31
0.0
  0
LINE
  5
14B
330
74
100
AcDbEntity
  8
1
  6
Continuous
 62
     6
100
AcDbLine
 10
-197.0448049082424
 20
-231.4626588213374
 30
0.0
 11
-103.9000003814906
 21
-231.4626588213374
 31
0.0
  0
LINE
  5
14C
330
74
100
AcDbEntity
  8
1
  6
Continuous
 62
     7
100
AcDbLine
 10
-233.4448049082423
 20
-231.4626588213374
 30
0.0
 11
-233.4448049082423
 21
-222.9626588213374
 31
0.0
  0
LINE
  5
14D
330
74
100
AcDbEntity
  8
1
  6
Continuous
 62
     7
100
AcDbLine
 10
-197.0448049082424
 20
-231.4626588213374
 30
0.0
 11
-197.0448049082424
 21
-222.9626588213374
 31
0.0
  0
LINE
  5
14E
330
74
100
AcDbEntity
  8
1
  6
Continuous
 62
     7
100
AcDbLine
 10
-139.3184086631694
 20
-222.9626588213374
 30
0.0
 11
-139.3184086631694
 21
-231.4626588213374
 31
0.0
  0
LINE
  5
14F
330
74
100
AcDbEntity
  8
1
  6
Continuous
 62
     7
100
AcDbLine
 10
-112.8184086631698
 20
-222.9626588213374
 30
0.0
 11
-112.8184086631698
 21
-231.4626588213374
 31
0.0
  0
LINE
  5
150
330
74
100
AcDbEntity
  8
1
  6
Continuous
 62
     6
100
AcDbLine
 10
-302.4448049082423
 20
-248.4626588213374
 30
0.0
 11
-347.4000003814923
 21
-248.4626588213374
 31
0.0
  0
LINE
  5
151
330
74
100
AcDbEntity
  8
1
  6
Continuous
 62
     7
100
AcDbLine
 10
-103.900000381491
 20
-239.9626588213374
 30
0.0
 11
-197.0448049082424
 21
-239.9626588213374
 31
0.0
  0
LINE
  5
152
102
{ACAD_REACTORS
330
264
330
265
102
}
330
74
100
AcDbEntity
  8
0
  6
Continuous
 62
     2
100
AcDbLine
 10
-219.7373759664749
 20
-239.1623697056741
 30
0.0
 11
-219.7373759664749
 21
-238.2898526988709
 31
0.0
  0
LINE
  5
153
102
{ACAD_REACTORS
330
264
330
265
102
}
330
74
100
AcDbEntity
  8
0
  6
Continuous
 62
     2
100
AcDbLine
 10
-219.7373759664749
 20
-240.1221384131571
 30
0.0
 11
-219.7373759664749
 21
-240.9946554199603
 31
0.0
  0
LINE
  5
154
102
{ACAD_REACTORS
330
266
330
267
102
}
330
74
100
AcDbEntity
  8
0
  6
Continuous
 62
     2
100
AcDbLine
 10
-204.4043318301844
 20
-238.9006146036336
 30
0.0
 11
-203.3006925306163
 21
-238.9006146036336
 31
0.0
  0
LINE
  5
155
102
{ACAD_REACTORS
330
266
330
267
102
}
330
74
100
AcDbEntity
  8
0
  6
Continuous
 62
     2
100
AcDbLine
 10
-203.634674487223
 20
-240.1221384131575
 30
0.0
 11
-203.634674487223
 21
-240.9946554199609
 31
0.0
  0
LINE
  5
156
102
{ACAD_REACTORS
330
270
330
271
102
}
330
74
100
AcDbEntity
  8
0
  6
Continuous
 62
     2
100
AcDbLine
 10
-205.4954311026029
 20
-237.8099683451468
 30
0.0
 11
-204.0974780556626
 21
-236.2291093513719
 31
0.0
  0
LINE
  5
157
102
{ACAD_REACTORS
330
270
330
271
102
}
330
74
100
AcDbEntity
  8
0
  6
Continuous
 62
     2
100
AcDbLine
 10
-205.4000076864301
 20
-234.7561588213357
 30
0.0
 11
-204.0974780556626
 21
-236.2291093513719
 31
0.0
  0
LINE
  5
158
102
{ACAD_REACTORS
330
270
330
271
102
}
330
74
100
AcDbEntity
  8
0
  6
Continuous
 62
     2
100
AcDbLine
 10
-202.7949484248962
 20
-234.7561588213357
 30
0.0
 11
-201.392224207149
 21
-234.7561588213357
 31
0.0
  0
LINE
  5
159
102
{ACAD_REACTORS
330
270
330
271
102
}
330
74
100
AcDbEntity
  8
0
  6
Continuous
 62
     2
100
AcDbLine
 10
-204.0927068848547
 20
-237.8099683451468
 30
0.0
 11
-203.396115946789
 21
-237.0222365598531
 31
0.0
  0
LINE
  5
15A
102
{ACAD_REACTORS
330
270
330
271
102
}
330
74
100
AcDbEntity
  8
0
  6
Continuous
 62
     2
100
AcDbLine
 10
-204.0927068848547
 20
-237.8099683451468
 30
0.0
 11
-205.4954311026029
 21
-237.8099683451468
 31
0.0
  0
LINE
  5
15B
102
{ACAD_REACTORS
330
272
330
273
102
}
330
74
100
AcDbEntity
  8
0
  6
Continuous
 62
     2
100
AcDbLine
 10
-205.6147103728198
 20
-237.8099683451468
 30
0.0
 11
-206.8552147830727
 21
-237.8099683451468
 31
0.0
  0
LINE
  5
15C
102
{ACAD_REACTORS
330
274
330
275
102
}
330
74
100
AcDbEntity
  8
0
  6
Continuous
 62
     2
100
AcDbLine
 10
-207.7231943912278
 20
-239.9476350117967
 30
0.0
 11
-208.0233596284179
 21
-239.17982004581
 31
0.0
  0
LINE
  5
15D
102
{ACAD_REACTORS
330
274
330
275
102
}
330
74
100
AcDbEntity
  8
0
  6
Continuous
 62
     2
100
AcDbLine
 10
-208.3235248656103
 20
-239.9476350117967
 30
0.0
 11
-207.7231943912278
 21
-239.9476350117967
 31
0.0
  0
LINE
  5
15E
102
{ACAD_REACTORS
330
274
330
275
102
}
330
74
100
AcDbEntity
  8
0
  6
Continuous
 62
     2
100
AcDbLine
 10
-210.0415648804841
 20
-241.1691588213211
 30
0.0
 11
-208.8010604702311
 21
-241.1691588213211
 31
0.0
  0
LINE
  5
15F
102
{ACAD_REACTORS
330
274
330
275
102
}
330
74
100
AcDbEntity
  8
0
  6
Continuous
 62
     2
100
AcDbLine
 10
-208.6436118335448
 20
-238.1153492975101
 30
0.0
 11
-207.4031074232921
 21
-238.1153492975101
 31
0.0
  0
LINE
  5
160
102
{ACAD_REACTORS
330
274
330
275
102
}
330
74
100
AcDbEntity
  8
0
  6
Continuous
 62
     2
100
AcDbLine
 10
-207.4031074232921
 20
-238.1153492975101
 30
0.0
 11
-206.0051543763518
 21
-241.1691588213211
 31
0.0
  0
LINE
  5
161
102
{ACAD_REACTORS
330
274
330
275
102
}
330
74
100
AcDbEntity
  8
0
  6
Continuous
 62
     2
100
AcDbLine
 10
-207.2456587866057
 20
-241.1691588213211
 30
0.0
 11
-207.4571388400815
 21
-240.6281982771033
 31
0.0
  0
LINE
  5
162
102
{ACAD_REACTORS
330
276
330
277
102
}
330
74
100
AcDbEntity
  8
0
  6
Continuous
 62
     2
100
AcDbLine
 10
-211.3879779821917
 20
-241.1691588213211
 30
0.0
 11
-210.1951852800252
 21
-241.1691588213211
 31
0.0
  0
LINE
  5
163
102
{ACAD_REACTORS
330
276
330
277
102
}
330
74
100
AcDbEntity
  8
0
  6
Continuous
 62
     2
100
AcDbLine
 10
-211.3879779821917
 20
-238.9006146036336
 30
0.0
 11
-211.3879779821917
 21
-241.1691588213211
 31
0.0
  0
LINE
  5
164
102
{ACAD_REACTORS
330
276
330
277
102
}
330
74
100
AcDbEntity
  8
0
  6
Continuous
 62
     2
100
AcDbLine
 10
-212.1990770196663
 20
-238.1153492975101
 30
0.0
 11
-212.1990770196663
 21
-238.9006146036336
 31
0.0
  0
LINE
  5
165
102
{ACAD_REACTORS
330
278
330
279
102
}
330
74
100
AcDbEntity
  8
0
  6
Continuous
 62
     2
100
AcDbLine
 10
-210.7198631380937
 20
-237.8099683451468
 30
0.0
 11
-209.5270704359272
 21
-237.8099683451468
 31
0.0
  0
LINE
  5
166
102
{ACAD_REACTORS
330
278
330
279
102
}
330
74
100
AcDbEntity
  8
0
  6
Continuous
 62
     2
100
AcDbLine
 10
-208.2865660256732
 20
-236.0649343315408
 30
0.0
 11
-209.5270704359272
 21
-234.7561588213357
 31
0.0
  0
LINE
  5
167
102
{ACAD_REACTORS
330
278
330
279
102
}
330
74
100
AcDbEntity
  8
0
  6
Continuous
 62
     2
100
AcDbLine
 10
-207.0937733235066
 20
-234.7561588213357
 30
0.0
 11
-208.2865660256732
 21
-234.7561588213357
 31
0.0
  0
LINE
  5
168
102
{ACAD_REACTORS
330
278
330
279
102
}
330
74
100
AcDbEntity
  8
0
  6
Continuous
 62
     2
100
AcDbLine
 10
-207.0937733235066
 20
-237.8099683451468
 30
0.0
 11
-207.0937733235066
 21
-234.7561588213357
 31
0.0
  0
LINE
  5
169
102
{ACAD_REACTORS
330
278
330
279
102
}
330
74
100
AcDbEntity
  8
0
  6
Continuous
 62
     2
100
AcDbLine
 10
-208.2865660256732
 20
-237.8099683451468
 30
0.0
 11
-207.0937733235066
 21
-237.8099683451468
 31
0.0
  0
LINE
  5
16A
102
{ACAD_REACTORS
330
278
330
279
102
}
330
74
100
AcDbEntity
  8
0
  6
Continuous
 62
     2
100
AcDbLine
 10
-209.5270704359272
 20
-236.5011928349422
 30
0.0
 11
-208.2865660256732
 21
-237.8099683451468
 31
0.0
  0
LINE
  5
16B
102
{ACAD_REACTORS
330
27A
330
27B
102
}
330
74
100
AcDbEntity
  8
0
  6
Continuous
 62
     2
100
AcDbLine
 10
-213.5350048460929
 20
-239.4241248077152
 30
0.0
 11
-214.7755092563458
 21
-238.1153492975101
 31
0.0
  0
LINE
  5
16C
102
{ACAD_REACTORS
330
27A
330
27B
102
}
330
74
100
AcDbEntity
  8
0
  6
Continuous
 62
     2
100
AcDbLine
 10
-213.5350048460929
 20
-238.1153492975101
 30
0.0
 11
-213.5350048460929
 21
-239.4241248077152
 31
0.0
  0
LINE
  5
16D
102
{ACAD_REACTORS
330
27A
330
27B
102
}
330
74
100
AcDbEntity
  8
0
  6
Continuous
 62
     2
100
AcDbLine
 10
-212.3422121439265
 20
-238.1153492975101
 30
0.0
 11
-213.5350048460929
 21
-238.1153492975101
 31
0.0
  0
LINE
  5
16E
102
{ACAD_REACTORS
330
27A
330
27B
102
}
330
74
100
AcDbEntity
  8
0
  6
Continuous
 62
     2
100
AcDbLine
 10
-212.3422121439265
 20
-241.1691588213211
 30
0.0
 11
-212.3422121439265
 21
-238.1153492975101
 31
0.0
  0
LINE
  5
16F
102
{ACAD_REACTORS
330
27A
330
27B
102
}
330
74
100
AcDbEntity
  8
0
  6
Continuous
 62
     2
100
AcDbLine
 10
-214.7755092563458
 20
-239.8603833111166
 30
0.0
 11
-213.5350048460929
 21
-241.1691588213211
 31
0.0
  0
LINE
  5
170
102
{ACAD_REACTORS
330
27A
330
27B
102
}
330
74
100
AcDbEntity
  8
0
  6
Continuous
 62
     2
100
AcDbLine
 10
-214.7755092563458
 20
-241.1691588213211
 30
0.0
 11
-214.7755092563458
 21
-239.8603833111166
 31
0.0
  0
LINE
  5
171
102
{ACAD_REACTORS
330
26A
330
26B
102
}
330
74
100
AcDbEntity
  8
0
  6
Continuous
 62
     2
100
AcDbLine
 10
-212.2943495049543
 20
-235.4541724267786
 30
0.0
 11
-210.9584216785266
 21
-235.4541724267786
 31
0.0
  0
LINE
  5
172
102
{ACAD_REACTORS
330
26A
330
26B
102
}
330
74
100
AcDbEntity
  8
0
  6
Continuous
 62
     2
100
AcDbLine
 10
-212.2943495049543
 20
-237.1119547397043
 30
0.0
 11
-212.2943495049543
 21
-236.6320703859626
 31
0.0
  0
LINE
  5
173
102
{ACAD_REACTORS
330
26A
330
26B
102
}
330
74
100
AcDbEntity
  8
0
  6
Continuous
 62
     2
100
AcDbLine
 10
-210.9584216785266
 20
-237.1119547397043
 30
0.0
 11
-212.2943495049543
 21
-237.1119547397043
 31
0.0
  0
LINE
  5
174
102
{ACAD_REACTORS
330
26A
330
26B
102
}
330
74
100
AcDbEntity
  8
0
  6
Continuous
 62
     2
100
AcDbLine
 10
-210.9584216785266
 20
-237.8099683451468
 30
0.0
 11
-210.9584216785266
 21
-237.1119547397043
 31
0.0
  0
LINE
  5
175
102
{ACAD_REACTORS
330
26A
330
26B
102
}
330
74
100
AcDbEntity
  8
0
  6
Continuous
 62
     2
100
AcDbLine
 10
-214.1087414023076
 20
-237.8099683451468
 30
0.0
 11
-210.9584216785266
 21
-237.8099683451468
 31
0.0
  0
LINE
  5
176
102
{ACAD_REACTORS
330
26A
330
26B
102
}
330
74
100
AcDbEntity
  8
0
  6
Continuous
 62
     2
100
AcDbLine
 10
-214.1087414023076
 20
-234.7561588213357
 30
0.0
 11
-210.9584216785266
 21
-234.7561588213357
 31
0.0
  0
LINE
  5
177
102
{ACAD_REACTORS
330
26A
330
26B
102
}
330
74
100
AcDbEntity
  8
0
  6
Continuous
 62
     2
100
AcDbLine
 10
-210.9584216785266
 20
-235.4541724267786
 30
0.0
 11
-210.9584216785266
 21
-234.7561588213357
 31
0.0
  0
LINE
  5
178
102
{ACAD_REACTORS
330
27C
330
27D
102
}
330
74
100
AcDbEntity
  8
0
  6
Continuous
 62
     2
100
AcDbLine
 10
-216.9700968974476
 20
-235.8249921546702
 30
0.0
 11
-216.9700968974476
 21
-234.7561588213357
 31
0.0
  0
LINE
  5
179
102
{ACAD_REACTORS
330
27C
330
27D
102
}
330
74
100
AcDbEntity
  8
0
  6
Continuous
 62
     2
100
AcDbLine
 10
-216.9700968974476
 20
-234.7561588213357
 30
0.0
 11
-215.7773041952812
 21
-234.7561588213357
 31
0.0
  0
LINE
  5
17A
102
{ACAD_REACTORS
330
27C
330
27D
102
}
330
74
100
AcDbEntity
  8
0
  6
Continuous
 62
     2
100
AcDbLine
 10
-216.9700968974476
 20
-236.675696236303
 30
0.0
 11
-218.0197544753551
 21
-236.675696236303
 31
0.0
  0
LINE
  5
17B
102
{ACAD_REACTORS
330
27C
330
27D
102
}
330
74
100
AcDbEntity
  8
0
  6
Continuous
 62
     2
100
AcDbLine
 10
-218.0197544753551
 20
-236.675696236303
 30
0.0
 11
-218.0197544753551
 21
-237.8099683451468
 31
0.0
  0
LINE
  5
17C
102
{ACAD_REACTORS
330
27C
330
27D
102
}
330
74
100
AcDbEntity
  8
0
  6
Continuous
 62
     2
100
AcDbLine
 10
-219.2125471775217
 20
-234.7561588213357
 30
0.0
 11
-219.2125471775217
 21
-237.8099683451468
 31
0.0
  0
LINE
  5
17D
102
{ACAD_REACTORS
330
26E
330
26F
102
}
330
74
100
AcDbEntity
  8
0
  6
Continuous
 62
     2
100
AcDbLine
 10
-221.1687272090753
 20
-236.124992316118
 30
0.0
 11
-221.1687272090753
 21
-235.4192646667758
 31
0.0
  0
LINE
  5
17E
102
{ACAD_REACTORS
330
26E
330
26F
102
}
330
74
100
AcDbEntity
  8
0
  6
Continuous
 62
     2
100
AcDbLine
 10
-222.4092316193294
 20
-237.8099683451468
 30
0.0
 11
-221.1687272090753
 21
-237.8099683451468
 31
0.0
  0
LINE
  5
17F
102
{ACAD_REACTORS
330
26E
330
26F
102
}
330
74
100
AcDbEntity
  8
0
  6
Continuous
 62
     2
100
AcDbLine
 10
-221.1687272090753
 20
-237.8099683451468
 30
0.0
 11
-221.1687272090753
 21
-236.866890104003
 31
0.0
  0
LINE
  5
180
102
{ACAD_REACTORS
330
268
330
269
102
}
330
74
100
AcDbEntity
  8
0
  6
Continuous
 62
     2
100
AcDbLine
 10
-226.7141774685408
 20
-240.4566032657642
 30
0.0
 11
-228.1900107295504
 21
-240.4566032657642
 31
0.0
  0
LINE
  5
181
102
{ACAD_REACTORS
330
268
330
269
102
}
330
74
100
AcDbEntity
  8
0
  6
Continuous
 62
     2
100
AcDbLine
 10
-229.2081500216797
 20
-235.1804034367376
 30
0.0
 11
-229.2081500216797
 21
-240.7449142059379
 31
0.0
  0
LINE
  5
182
102
{ACAD_REACTORS
330
268
330
269
102
}
330
74
100
AcDbEntity
  8
0
  6
Continuous
 62
     2
100
AcDbLine
 10
-228.7839054062969
 20
-234.7561588213538
 30
0.0
 11
-223.3105933155801
 21
-234.7561588213538
 31
0.0
  0
LINE
  5
183
102
{ACAD_REACTORS
330
268
330
269
102
}
330
74
100
AcDbEntity
  8
0
  6
Continuous
 62
     2
100
AcDbLine
 10
-222.8863487001962
 20
-235.1804034367376
 30
0.0
 11
-222.8863487001962
 21
-240.7449142059379
 31
0.0
  0
LINE
  5
184
102
{ACAD_REACTORS
330
268
330
269
102
}
330
74
100
AcDbEntity
  8
0
  6
Continuous
 62
     2
100
AcDbLine
 10
-223.3105933155801
 20
-241.1691588213211
 30
0.0
 11
-228.7839054062969
 21
-241.1691588213211
 31
0.0
  0
LINE
  5
185
102
{ACAD_REACTORS
330
268
330
269
102
}
330
74
100
AcDbEntity
  8
0
  6
Continuous
 62
     2
100
AcDbLine
 10
-226.3984605454642
 20
-240.1408863426875
 30
0.0
 11
-226.3984605454642
 21
-238.6101154111559
 31
0.0
  0
LINE
  5
186
102
{ACAD_REACTORS
330
268
330
269
102
}
330
74
100
AcDbEntity
  8
0
  6
Continuous
 62
     2
100
AcDbLine
 10
-226.3984605454642
 20
-236.388455919031
 30
0.0
 11
-226.3984605454642
 21
-235.7844312999704
 31
0.0
  0
LINE
  5
187
102
{ACAD_REACTORS
330
268
330
269
102
}
330
74
100
AcDbEntity
  8
0
  6
Continuous
 62
     2
100
AcDbLine
 10
-228.1900107295504
 20
-235.4687143768942
 30
0.0
 11
-226.7141774685408
 21
-235.4687143768942
 31
0.0
  0
LINE
  5
188
102
{ACAD_REACTORS
330
268
330
269
102
}
330
74
100
AcDbEntity
  8
0
  6
Continuous
 62
     2
100
AcDbLine
 10
-228.5057276526261
 20
-235.7844312999704
 30
0.0
 11
-228.5057276526261
 21
-240.1408863426875
 31
0.0
  0
LINE
  5
189
102
{ACAD_REACTORS
330
26E
330
26F
102
}
330
74
100
AcDbEntity
  8
0
  6
Continuous
 62
     2
100
AcDbLine
 10
-221.1687272090753
 20
-236.866890104003
 30
0.0
 11
-220.409959621295
 21
-236.866890104003
 31
0.0
  0
LINE
  5
18A
102
{ACAD_REACTORS
330
26E
330
26F
102
}
330
74
100
AcDbEntity
  8
0
  6
Continuous
 62
     2
100
AcDbLine
 10
-222.4092316193294
 20
-234.7561588213357
 30
0.0
 11
-220.409959621295
 21
-234.7561588213357
 31
0.0
  0
LINE
  5
18B
102
{ACAD_REACTORS
330
26E
330
26F
102
}
330
74
100
AcDbEntity
  8
0
  6
Continuous
 62
     2
100
AcDbLine
 10
-222.4092316193294
 20
-234.7561588213357
 30
0.0
 11
-222.4092316193294
 21
-237.8099683451468
 31
0.0
  0
LINE
  5
18C
102
{ACAD_REACTORS
330
26E
330
26F
102
}
330
74
100
AcDbEntity
  8
0
  6
Continuous
 62
     2
100
AcDbLine
 10
-221.1687272090753
 20
-236.124992316118
 30
0.0
 11
-220.8514321475334
 21
-236.124992316118
 31
0.0
  0
LINE
  5
18D
102
{ACAD_REACTORS
330
26E
330
26F
102
}
330
74
100
AcDbEntity
  8
0
  6
Continuous
 62
     2
100
AcDbLine
 10
-221.1687272090753
 20
-235.4192646667758
 30
0.0
 11
-220.8514321475334
 21
-235.4192646667758
 31
0.0
  0
LINE
  5
18E
102
{ACAD_REACTORS
330
27C
330
27D
102
}
330
74
100
AcDbEntity
  8
0
  6
Continuous
 62
     2
100
AcDbLine
 10
-218.0197544753551
 20
-235.8249921546702
 30
0.0
 11
-216.9700968974476
 21
-235.8249921546702
 31
0.0
  0
LINE
  5
18F
102
{ACAD_REACTORS
330
27C
330
27D
102
}
330
74
100
AcDbEntity
  8
0
  6
Continuous
 62
     2
100
AcDbLine
 10
-218.0197544753551
 20
-234.7561588213357
 30
0.0
 11
-218.0197544753551
 21
-235.8249921546702
 31
0.0
  0
LINE
  5
190
102
{ACAD_REACTORS
330
27C
330
27D
102
}
330
74
100
AcDbEntity
  8
0
  6
Continuous
 62
     2
100
AcDbLine
 10
-219.2125471775217
 20
-234.7561588213357
 30
0.0
 11
-218.0197544753551
 21
-234.7561588213357
 31
0.0
  0
LINE
  5
191
102
{ACAD_REACTORS
330
27C
330
27D
102
}
330
74
100
AcDbEntity
  8
0
  6
Continuous
 62
     2
100
AcDbLine
 10
-218.0197544753551
 20
-237.8099683451468
 30
0.0
 11
-219.2125471775217
 21
-237.8099683451468
 31
0.0
  0
LINE
  5
192
102
{ACAD_REACTORS
330
27C
330
27D
102
}
330
74
100
AcDbEntity
  8
0
  6
Continuous
 62
     2
100
AcDbLine
 10
-216.9700968974476
 20
-237.8099683451468
 30
0.0
 11
-216.9700968974476
 21
-236.675696236303
 31
0.0
  0
LINE
  5
193
102
{ACAD_REACTORS
330
27C
330
27D
102
}
330
74
100
AcDbEntity
  8
0
  6
Continuous
 62
     2
100
AcDbLine
 10
-215.7773041952812
 20
-237.8099683451468
 30
0.0
 11
-216.9700968974476
 21
-237.8099683451468
 31
0.0
  0
LINE
  5
194
102
{ACAD_REACTORS
330
27C
330
27D
102
}
330
74
100
AcDbEntity
  8
0
  6
Continuous
 62
     2
100
AcDbLine
 10
-215.7773041952812
 20
-234.7561588213357
 30
0.0
 11
-215.7773041952812
 21
-237.8099683451468
 31
0.0
  0
LINE
  5
195
102
{ACAD_REACTORS
330
26A
330
26B
102
}
330
74
100
AcDbEntity
  8
0
  6
Continuous
 62
     2
100
AcDbLine
 10
-212.2943495049543
 20
-236.6320703859626
 30
0.0
 11
-210.9584216785266
 21
-236.6320703859626
 31
0.0
  0
LINE
  5
196
102
{ACAD_REACTORS
330
26A
330
26B
102
}
330
74
100
AcDbEntity
  8
0
  6
Continuous
 62
     2
100
AcDbLine
 10
-210.9584216785266
 20
-236.6320703859626
 30
0.0
 11
-210.9584216785266
 21
-235.9340567805203
 31
0.0
  0
LINE
  5
197
102
{ACAD_REACTORS
330
26A
330
26B
102
}
330
74
100
AcDbEntity
  8
0
  6
Continuous
 62
     2
100
AcDbLine
 10
-210.9584216785266
 20
-235.9340567805203
 30
0.0
 11
-212.2943495049543
 21
-235.9340567805203
 31
0.0
  0
LINE
  5
198
102
{ACAD_REACTORS
330
26A
330
26B
102
}
330
74
100
AcDbEntity
  8
0
  6
Continuous
 62
     2
100
AcDbLine
 10
-212.2943495049543
 20
-235.9340567805203
 30
0.0
 11
-212.2943495049543
 21
-235.4541724267786
 31
0.0
  0
LINE
  5
199
102
{ACAD_REACTORS
330
27A
330
27B
102
}
330
74
100
AcDbEntity
  8
0
  6
Continuous
 62
     2
100
AcDbLine
 10
-215.9683019585134
 20
-241.1691588213211
 30
0.0
 11
-214.7755092563458
 21
-241.1691588213211
 31
0.0
  0
LINE
  5
19A
102
{ACAD_REACTORS
330
27A
330
27B
102
}
330
74
100
AcDbEntity
  8
0
  6
Continuous
 62
     2
100
AcDbLine
 10
-213.5350048460929
 20
-241.1691588213211
 30
0.0
 11
-212.3422121439265
 21
-241.1691588213211
 31
0.0
  0
LINE
  5
19B
102
{ACAD_REACTORS
330
27A
330
27B
102
}
330
74
100
AcDbEntity
  8
0
  6
Continuous
 62
     2
100
AcDbLine
 10
-214.7755092563458
 20
-238.1153492975101
 30
0.0
 11
-215.9683019585134
 21
-238.1153492975101
 31
0.0
  0
LINE
  5
19C
102
{ACAD_REACTORS
330
27A
330
27B
102
}
330
74
100
AcDbEntity
  8
0
  6
Continuous
 62
     2
100
AcDbLine
 10
-215.9683019585134
 20
-238.1153492975101
 30
0.0
 11
-215.9683019585134
 21
-241.1691588213211
 31
0.0
  0
LINE
  5
19D
102
{ACAD_REACTORS
330
278
330
279
102
}
330
74
100
AcDbEntity
  8
0
  6
Continuous
 62
     2
100
AcDbLine
 10
-208.2865660256732
 20
-234.7561588213357
 30
0.0
 11
-208.2865660256732
 21
-236.0649343315408
 31
0.0
  0
LINE
  5
19E
102
{ACAD_REACTORS
330
278
330
279
102
}
330
74
100
AcDbEntity
  8
0
  6
Continuous
 62
     2
100
AcDbLine
 10
-209.5270704359272
 20
-234.7561588213357
 30
0.0
 11
-210.7198631380937
 21
-234.7561588213357
 31
0.0
  0
LINE
  5
19F
102
{ACAD_REACTORS
330
278
330
279
102
}
330
74
100
AcDbEntity
  8
0
  6
Continuous
 62
     2
100
AcDbLine
 10
-210.7198631380937
 20
-234.7561588213357
 30
0.0
 11
-210.7198631380937
 21
-237.8099683451468
 31
0.0
  0
LINE
  5
1A0
102
{ACAD_REACTORS
330
278
330
279
102
}
330
74
100
AcDbEntity
  8
0
  6
Continuous
 62
     2
100
AcDbLine
 10
-209.5270704359272
 20
-237.8099683451468
 30
0.0
 11
-209.5270704359272
 21
-236.5011928349422
 31
0.0
  0
LINE
  5
1A1
102
{ACAD_REACTORS
330
276
330
277
102
}
330
74
100
AcDbEntity
  8
0
  6
Continuous
 62
     2
100
AcDbLine
 10
-210.1951852800252
 20
-241.1691588213211
 30
0.0
 11
-210.1951852800252
 21
-238.9006146036336
 31
0.0
  0
LINE
  5
1A2
102
{ACAD_REACTORS
330
276
330
277
102
}
330
74
100
AcDbEntity
  8
0
  6
Continuous
 62
     2
100
AcDbLine
 10
-210.1951852800252
 20
-238.9006146036336
 30
0.0
 11
-209.3840862425527
 21
-238.9006146036336
 31
0.0
  0
LINE
  5
1A3
102
{ACAD_REACTORS
330
276
330
277
102
}
330
74
100
AcDbEntity
  8
0
  6
Continuous
 62
     2
100
AcDbLine
 10
-209.3840862425527
 20
-238.9006146036336
 30
0.0
 11
-209.3840862425527
 21
-238.1153492975101
 31
0.0
  0
LINE
  5
1A4
102
{ACAD_REACTORS
330
276
330
277
102
}
330
74
100
AcDbEntity
  8
0
  6
Continuous
 62
     2
100
AcDbLine
 10
-209.3840862425527
 20
-238.1153492975101
 30
0.0
 11
-212.1990770196663
 21
-238.1153492975101
 31
0.0
  0
LINE
  5
1A5
102
{ACAD_REACTORS
330
276
330
277
102
}
330
74
100
AcDbEntity
  8
0
  6
Continuous
 62
     2
100
AcDbLine
 10
-212.1990770196663
 20
-238.9006146036336
 30
0.0
 11
-211.3879779821917
 21
-238.9006146036336
 31
0.0
  0
LINE
  5
1A6
102
{ACAD_REACTORS
330
274
330
275
102
}
330
74
100
AcDbEntity
  8
0
  6
Continuous
 62
     2
100
AcDbLine
 10
-208.5895804167553
 20
-240.6281982771033
 30
0.0
 11
-207.4571388400815
 21
-240.6281982771033
 31
0.0
  0
LINE
  5
1A7
102
{ACAD_REACTORS
330
274
330
275
102
}
330
74
100
AcDbEntity
  8
0
  6
Continuous
 62
     2
100
AcDbLine
 10
-206.0051543763518
 20
-241.1691588213211
 30
0.0
 11
-207.2456587866057
 21
-241.1691588213211
 31
0.0
  0
LINE
  5
1A8
102
{ACAD_REACTORS
330
274
330
275
102
}
330
74
100
AcDbEntity
  8
0
  6
Continuous
 62
     2
100
AcDbLine
 10
-208.6436118335448
 20
-238.1153492975101
 30
0.0
 11
-210.0415648804841
 21
-241.1691588213211
 31
0.0
  0
LINE
  5
1A9
102
{ACAD_REACTORS
330
274
330
275
102
}
330
74
100
AcDbEntity
  8
0
  6
Continuous
 62
     2
100
AcDbLine
 10
-208.8010604702311
 20
-241.1691588213211
 30
0.0
 11
-208.5895804167553
 21
-240.6281982771033
 31
0.0
  0
LINE
  5
1AA
102
{ACAD_REACTORS
330
274
330
275
102
}
330
74
100
AcDbEntity
  8
0
  6
Continuous
 62
     2
100
AcDbLine
 10
-208.3235248656103
 20
-239.9476350117967
 30
0.0
 11
-208.0233596284179
 21
-239.17982004581
 31
0.0
  0
LINE
  5
1AB
102
{ACAD_REACTORS
330
272
330
273
102
}
330
74
100
AcDbEntity
  8
0
  6
Continuous
 62
     2
100
AcDbLine
 10
-206.8552147830727
 20
-237.8099683451468
 30
0.0
 11
-206.8552147830727
 21
-234.7561588213357
 31
0.0
  0
LINE
  5
1AC
102
{ACAD_REACTORS
330
272
330
273
102
}
330
74
100
AcDbEntity
  8
0
  6
Continuous
 62
     2
100
AcDbLine
 10
-205.6147103728198
 20
-234.7561588213357
 30
0.0
 11
-205.6147103728198
 21
-237.8099683451468
 31
0.0
  0
LINE
  5
1AD
102
{ACAD_REACTORS
330
272
330
273
102
}
330
74
100
AcDbEntity
  8
0
  6
Continuous
 62
     2
100
AcDbLine
 10
-206.8552147830727
 20
-234.7561588213357
 30
0.0
 11
-205.6147103728198
 21
-234.7561588213357
 31
0.0
  0
LINE
  5
1AE
102
{ACAD_REACTORS
330
270
330
271
102
}
330
74
100
AcDbEntity
  8
0
  6
Continuous
 62
     2
100
AcDbLine
 10
-203.396115946789
 20
-237.0222365598531
 30
0.0
 11
-202.6995250087235
 21
-237.8099683451468
 31
0.0
  0
LINE
  5
1AF
102
{ACAD_REACTORS
330
270
330
271
102
}
330
74
100
AcDbEntity
  8
0
  6
Continuous
 62
     2
100
AcDbLine
 10
-202.6995250087235
 20
-237.8099683451468
 30
0.0
 11
-201.2968007909752
 21
-237.8099683451468
 31
0.0
  0
LINE
  5
1B0
102
{ACAD_REACTORS
330
270
330
271
102
}
330
74
100
AcDbEntity
  8
0
  6
Continuous
 62
     2
100
AcDbLine
 10
-202.6947538379155
 20
-236.2291093513719
 30
0.0
 11
-201.2968007909752
 21
-237.8099683451468
 31
0.0
  0
LINE
  5
1B1
102
{ACAD_REACTORS
330
270
330
271
102
}
330
74
100
AcDbEntity
  8
0
  6
Continuous
 62
     2
100
AcDbLine
 10
-202.6947538379155
 20
-236.2291093513719
 30
0.0
 11
-201.392224207149
 21
-234.7561588213357
 31
0.0
  0
LINE
  5
1B2
102
{ACAD_REACTORS
330
270
330
271
102
}
330
74
100
AcDbEntity
  8
0
  6
Continuous
 62
     2
100
AcDbLine
 10
-203.396115946789
 20
-235.4359821428911
 30
0.0
 11
-202.7949484248962
 21
-234.7561588213357
 31
0.0
  0
LINE
  5
1B3
102
{ACAD_REACTORS
330
270
330
271
102
}
330
74
100
AcDbEntity
  8
0
  6
Continuous
 62
     2
100
AcDbLine
 10
-203.9972834686808
 20
-234.7561588213357
 30
0.0
 11
-203.396115946789
 21
-235.4359821428911
 31
0.0
  0
LINE
  5
1B4
102
{ACAD_REACTORS
330
270
330
271
102
}
330
74
100
AcDbEntity
  8
0
  6
Continuous
 62
     2
100
AcDbLine
 10
-203.9972834686808
 20
-234.7561588213357
 30
0.0
 11
-205.4000076864301
 21
-234.7561588213357
 31
0.0
  0
LINE
  5
1B5
102
{ACAD_REACTORS
330
266
330
267
102
}
330
74
100
AcDbEntity
  8
0
  6
Continuous
 62
     2
100
AcDbLine
 10
-203.3006925306163
 20
-241.1691588213211
 30
0.0
 11
-202.1078998284486
 21
-241.1691588213211
 31
0.0
  0
LINE
  5
1B6
102
{ACAD_REACTORS
330
266
330
267
102
}
330
74
100
AcDbEntity
  8
0
  6
Continuous
 62
     2
100
AcDbLine
 10
-202.1078998284486
 20
-241.1691588213211
 30
0.0
 11
-202.1078998284486
 21
-238.9006146036336
 31
0.0
  0
LINE
  5
1B7
102
{ACAD_REACTORS
330
266
330
267
102
}
330
74
100
AcDbEntity
  8
0
  6
Continuous
 62
     2
100
AcDbLine
 10
-202.1078998284486
 20
-238.9006146036336
 30
0.0
 11
-201.2968007909752
 21
-238.9006146036336
 31
0.0
  0
LINE
  5
1B8
102
{ACAD_REACTORS
330
266
330
267
102
}
330
74
100
AcDbEntity
  8
0
  6
Continuous
 62
     2
100
AcDbLine
 10
-201.2968007909752
 20
-238.9006146036336
 30
0.0
 11
-201.2968007909752
 21
-238.1153492975101
 31
0.0
  0
LINE
  5
1B9
102
{ACAD_REACTORS
330
266
330
267
102
}
330
74
100
AcDbEntity
  8
0
  6
Continuous
 62
     2
100
AcDbLine
 10
-204.6817463096039
 20
-238.1153492975105
 30
0.0
 11
-201.2968007909752
 21
-238.1153492975101
 31
0.0
  0
LINE
  5
1BA
102
{ACAD_REACTORS
330
266
330
267
102
}
330
74
100
AcDbEntity
  8
0
  6
Continuous
 62
     2
100
AcDbLine
 10
-203.3006925306163
 20
-238.9006146036336
 30
0.0
 11
-203.3006925306163
 21
-241.1691588213211
 31
0.0
  0
LINE
  5
1BB
102
{ACAD_REACTORS
330
268
330
269
102
}
330
74
100
AcDbEntity
  8
0
  6
Continuous
 62
     2
100
AcDbLine
 10
-225.9301789660955
 20
-239.1902786717566
 30
0.0
 11
-225.9301789660955
 21
-238.6084272650616
 31
0.0
  0
LINE
  5
1BC
102
{ACAD_REACTORS
330
268
330
269
102
}
330
74
100
AcDbEntity
  8
0
  6
Continuous
 62
     2
100
AcDbLine
 10
-225.9301789660955
 20
-236.3901440651253
 30
0.0
 11
-225.9301789660955
 21
-235.7846087766185
 31
0.0
  0
LINE
  5
1BD
330
74
100
AcDbEntity
  8
1
  6
Continuous
 62
     6
100
AcDbLine
 10
-247.4000003814923
 20
-248.4626588213374
 30
0.0
 11
-233.4448049082423
 21
-248.4626588213376
 31
0.0
  0
LINE
  5
1BE
330
74
100
AcDbEntity
  8
1
  6
Continuous
 62
     6
100
AcDbLine
 10
-297.4000003814925
 20
-248.4626588213374
 30
0.0
 11
-302.4448049082423
 21
-248.4626588213374
 31
0.0
  0
LINE
  5
1BF
330
74
100
AcDbEntity
  8
1
  6
Continuous
 62
     6
100
AcDbLine
 10
-147.4000003814923
 20
-248.4626588213374
 30
0.0
 11
-103.9000003814923
 21
-248.4626588213374
 31
0.0
  0
LINE
  5
1C0
330
74
100
AcDbEntity
  8
1
  6
Continuous
 62
     6
100
AcDbLine
 10
-197.4000003814923
 20
-248.4626588213374
 30
0.0
 11
-215.2448049082423
 21
-248.4626588213374
 31
0.0
  0
LINE
  5
1C1
330
74
100
AcDbEntity
  8
1
  6
Continuous
 62
     2
100
AcDbLine
 10
-103.9000003814923
 20
-248.4626588213374
 30
0.0
 11
-98.90000038149327
 21
-248.4626588213374
 31
0.0
  0
LINE
  5
1C2
330
74
100
AcDbEntity
  8
1
  6
Continuous
 62
     2
100
AcDbLine
 10
-103.9000003814923
 20
-248.4626588213374
 30
0.0
 11
-103.9000003814923
 21
-253.4626588213376
 31
0.0
  0
LINE
  5
1C3
330
74
100
AcDbEntity
  8
1
  6
Continuous
 62
     6
100
AcDbLine
 10
-233.4448049082423
 20
-231.4626588213374
 30
0.0
 11
-197.0448049082424
 21
-231.4626588213374
 31
0.0
  0
LINE
  5
1C4
330
74
100
AcDbEntity
  8
1
  6
Continuous
 62
     2
100
AcDbLine
 10
-98.90000038149327
 20
-253.4626588213376
 30
0.0
 11
-98.90000038149327
 21
-248.4626588213374
 31
0.0
  0
LINE
  5
1C5
330
74
100
AcDbEntity
  8
1
  6
Continuous
 62
     2
100
AcDbLine
 10
-98.90000038149327
 20
-253.4626588213376
 30
0.0
 11
-103.9000003814923
 21
-253.4626588213376
 31
0.0
  0
LINE
  5
1C6
330
74
100
AcDbEntity
  8
1
  6
Continuous
 62
     2
100
AcDbLine
 10
-103.9000003814923
 20
-253.4626588213376
 30
0.0
 11
-147.4000003814923
 21
-253.4626588213376
 31
0.0
  0
LINE
  5
1C7
330
74
100
AcDbEntity
  8
1
  6
Continuous
 62
     6
100
AcDbLine
 10
-103.9000003814906
 20
-231.4626588213374
 30
0.0
 11
-103.9000003814914
 21
-198.4626588213373
 31
0.0
  0
LINE
  5
1C8
330
74
100
AcDbEntity
  8
1
  6
Continuous
 62
     2
100
AcDbLine
 10
-98.90000038149327
 20
-43.46265882133744
 30
0.0
 11
-247.4000003814923
 21
-43.46265882133744
 31
0.0
  0
LINE
  5
1C9
330
74
100
AcDbEntity
  8
1
  6
Continuous
 62
     6
100
AcDbLine
 10
-103.9000003814933
 20
-63.46265882133744
 30
0.0
 11
-390.9000003814913
 21
-63.46265882133744
 31
0.0
  0
LINE
  5
1CA
330
74
100
AcDbEntity
  8
1
  6
Continuous
 62
     2
100
AcDbLine
 10
-103.9000003814914
 20
-198.4626588213373
 30
0.0
 11
-98.90000038149327
 21
-198.4626588213373
 31
0.0
  0
LINE
  5
1CB
330
74
100
AcDbEntity
  8
1
  6
Continuous
 62
     6
100
AcDbLine
 10
-103.9000003814914
 20
-198.4626588213373
 30
0.0
 11
-103.9000003814919
 21
-148.4626588213375
 31
0.0
  0
LINE
  5
1CC
330
74
100
AcDbEntity
  8
1
  6
Continuous
 62
     2
100
AcDbLine
 10
-98.90000038149327
 20
-198.4626588213373
 30
0.0
 11
-98.90000038149327
 21
-148.4626588213375
 31
0.0
  0
LINE
  5
1CD
330
74
100
AcDbEntity
  8
1
  6
Continuous
 62
     2
100
AcDbLine
 10
-103.9000003814919
 20
-148.4626588213375
 30
0.0
 11
-98.90000038149327
 21
-148.4626588213375
 31
0.0
  0
LINE
  5
1CE
330
74
100
AcDbEntity
  8
1
  6
Continuous
 62
     6
100
AcDbLine
 10
-103.9000003814919
 20
-148.4626588213375
 30
0.0
 11
-103.9000003814931
 21
-98.46265882133744
 31
0.0
  0
LINE
  5
1CF
330
74
100
AcDbEntity
  8
1
  6
Continuous
 62
     2
100
AcDbLine
 10
-98.90000038149327
 20
-148.4626588213375
 30
0.0
 11
-98.90000038149327
 21
-98.46265882133744
 31
0.0
  0
LINE
  5
1D0
330
74
100
AcDbEntity
  8
1
  6
Continuous
 62
     2
100
AcDbLine
 10
-103.9000003814931
 20
-98.46265882133744
 30
0.0
 11
-98.90000038149327
 21
-98.46265882133744
 31
0.0
  0
LINE
  5
1D1
330
74
100
AcDbEntity
  8
1
  6
Continuous
 62
     6
100
AcDbLine
 10
-103.9000003814931
 20
-98.46265882133744
 30
0.0
 11
-103.9000003814933
 21
-63.46265882133744
 31
0.0
  0
LINE
  5
1D2
330
74
100
AcDbEntity
  8
1
  6
Continuous
 62
     2
100
AcDbLine
 10
-98.90000038149327
 20
-98.46265882133744
 30
0.0
 11
-98.90000038149327
 21
-43.46265882133744
 31
0.0
  0
LINE
  5
1D3
330
74
100
AcDbEntity
  8
1
  6
Continuous
 62
     2
100
AcDbLine
 10
-98.90000038149327
 20
-248.4626588213374
 30
0.0
 11
-98.90000038149327
 21
-198.4626588213373
 31
0.0
  0
LINE
  5
1D4
330
74
100
AcDbEntity
  8
1
  6
Continuous
 62
     2
100
AcDbLine
 10
-247.4000003814923
 20
-43.46265882133744
 30
0.0
 11
-395.9000003814913
 21
-43.46265882133744
 31
0.0
  0
LINE
  5
1D5
330
74
100
AcDbEntity
  8
1
  6
Continuous
 62
     2
100
AcDbLine
 10
-247.4000003814923
 20
-43.46265882133744
 30
0.0
 11
-247.4000003814923
 21
-52.67135066603876
 31
0.0
  0
LINE
  5
1D6
330
74
100
AcDbEntity
  8
1
  6
Continuous
 62
     2
100
AcDbLine
 10
-395.9000003814913
 20
-253.4626588213376
 30
0.0
 11
-390.9000003814904
 21
-253.4626588213376
 31
0.0
  0
LINE
  5
1D7
330
74
100
AcDbEntity
  8
1
  6
Continuous
 62
     2
100
AcDbLine
 10
-395.9000003814913
 20
-43.46265882133744
 30
0.0
 11
-395.9000003814913
 21
-98.46265882133744
 31
0.0
  0
LINE
  5
1D8
330
74
100
AcDbEntity
  8
1
  6
Continuous
 62
     6
100
AcDbLine
 10
-390.9000003814913
 20
-63.46265882133744
 30
0.0
 11
-390.9000003814913
 21
-98.46265882133744
 31
0.0
  0
LINE
  5
1D9
330
74
100
AcDbEntity
  8
1
  6
Continuous
 62
     2
100
AcDbLine
 10
-395.9000003814913
 20
-98.46265882133744
 30
0.0
 11
-390.9000003814913
 21
-98.46265882133744
 31
0.0
  0
LINE
  5
1DA
330
74
100
AcDbEntity
  8
1
  6
Continuous
 62
     2
100
AcDbLine
 10
-395.9000003814913
 20
-98.46265882133744
 30
0.0
 11
-395.9000003814913
 21
-148.4626588213375
 31
0.0
  0
LINE
  5
1DB
330
74
100
AcDbEntity
  8
1
  6
Continuous
 62
     6
100
AcDbLine
 10
-390.9000003814913
 20
-98.46265882133744
 30
0.0
 11
-390.9000003814908
 21
-148.4626588213375
 31
0.0
  0
LINE
  5
1DC
330
74
100
AcDbEntity
  8
1
  6
Continuous
 62
     2
100
AcDbLine
 10
-395.9000003814913
 20
-148.4626588213375
 30
0.0
 11
-390.9000003814908
 21
-148.4626588213375
 31
0.0
  0
LINE
  5
1DD
330
74
100
AcDbEntity
  8
1
  6
Continuous
 62
     2
100
AcDbLine
 10
-395.9000003814913
 20
-148.4626588213375
 30
0.0
 11
-395.9000003814913
 21
-198.4626588213373
 31
0.0
  0
LINE
  5
1DE
330
74
100
AcDbEntity
  8
1
  6
Continuous
 62
     6
100
AcDbLine
 10
-390.9000003814908
 20
-148.4626588213375
 30
0.0
 11
-390.9000003814905
 21
-198.4626588213373
 31
0.0
  0
LINE
  5
1DF
330
74
100
AcDbEntity
  8
1
  6
Continuous
 62
     2
100
AcDbLine
 10
-395.9000003814913
 20
-198.4626588213373
 30
0.0
 11
-390.9000003814905
 21
-198.4626588213373
 31
0.0
  0
LINE
  5
1E0
330
74
100
AcDbEntity
  8
1
  6
Continuous
 62
     2
100
AcDbLine
 10
-395.9000003814913
 20
-198.4626588213373
 30
0.0
 11
-395.9000003814913
 21
-248.4626588213374
 31
0.0
  0
LINE
  5
1E1
330
74
100
AcDbEntity
  8
1
  6
Continuous
 62
     6
100
AcDbLine
 10
-390.9000003814905
 20
-198.4626588213373
 30
0.0
 11
-390.9000003814904
 21
-248.4626588213374
 31
0.0
  0
LINE
  5
1E2
330
74
100
AcDbEntity
  8
1
  6
Continuous
 62
     2
100
AcDbLine
 10
-347.4000003814923
 20
-253.4626588213376
 30
0.0
 11
-347.4000003814923
 21
-248.4626588213374
 31
0.0
  0
LINE
  5
1E3
330
74
100
AcDbEntity
  8
1
  6
Continuous
 62
     2
100
AcDbLine
 10
-347.4000003814923
 20
-253.4626588213376
 30
0.0
 11
-297.4000003814925
 21
-253.4626588213376
 31
0.0
  0
LINE
  5
1E4
330
74
100
AcDbEntity
  8
1
  6
Continuous
 62
     2
100
AcDbLine
 10
-297.4000003814925
 20
-253.4626588213376
 30
0.0
 11
-297.4000003814925
 21
-248.4626588213374
 31
0.0
  0
LINE
  5
1E5
330
74
100
AcDbEntity
  8
1
  6
Continuous
 62
     2
100
AcDbLine
 10
-297.4000003814925
 20
-253.4626588213376
 30
0.0
 11
-247.4000003814923
 21
-253.4626588213376
 31
0.0
  0
LINE
  5
1E6
330
74
100
AcDbEntity
  8
1
  6
Continuous
 62
     2
100
AcDbLine
 10
-247.4000003814923
 20
-253.4626588213376
 30
0.0
 11
-247.4000003814923
 21
-248.4626588213374
 31
0.0
  0
LINE
  5
1E7
330
74
100
AcDbEntity
  8
1
  6
Continuous
 62
     2
100
AcDbLine
 10
-247.4000003814923
 20
-253.4626588213376
 30
0.0
 11
-197.4000003814923
 21
-253.4626588213376
 31
0.0
  0
LINE
  5
1E8
330
74
100
AcDbEntity
  8
1
  6
Continuous
 62
     2
100
AcDbLine
 10
-197.4000003814923
 20
-253.4626588213376
 30
0.0
 11
-197.4000003814923
 21
-248.4626588213374
 31
0.0
  0
LINE
  5
1E9
330
74
100
AcDbEntity
  8
1
  6
Continuous
 62
     2
100
AcDbLine
 10
-147.4000003814923
 20
-253.4626588213376
 30
0.0
 11
-147.4000003814923
 21
-248.4626588213374
 31
0.0
  0
LINE
  5
1EA
330
74
100
AcDbEntity
  8
1
  6
Continuous
 62
     2
100
AcDbLine
 10
-147.4000003814923
 20
-253.4626588213376
 30
0.0
 11
-197.4000003814923
 21
-253.4626588213376
 31
0.0
  0
LINE
  5
1EB
330
74
100
AcDbEntity
  8
1
  6
Continuous
 62
     2
100
AcDbLine
 10
-390.9000003814904
 20
-248.4626588213374
 30
0.0
 11
-390.9000003814904
 21
-253.4626588213376
 31
0.0
  0
LINE
  5
1EC
330
74
100
AcDbEntity
  8
1
  6
Continuous
 62
     2
100
AcDbLine
 10
-390.9000003814904
 20
-253.4626588213376
 30
0.0
 11
-347.4000003814923
 21
-253.4626588213376
 31
0.0
  0
LINE
  5
1ED
330
74
100
AcDbEntity
  8
1
  6
Continuous
 62
     2
100
AcDbLine
 10
-390.9000003814904
 20
-248.4626588213374
 30
0.0
 11
-395.9000003814913
 21
-248.4626588213374
 31
0.0
  0
LINE
  5
1EE
330
74
100
AcDbEntity
  8
1
  6
Continuous
 62
     2
100
AcDbLine
 10
-395.9000003814913
 20
-248.4626588213374
 30
0.0
 11
-395.9000003814913
 21
-253.4626588213376
 31
0.0
  0
LINE
  5
1EF
330
74
100
AcDbEntity
  8
1
  6
Continuous
 62
     6
100
AcDbLine
 10
-103.9000003814923
 20
-248.4626588213374
 30
0.0
 11
-103.900000381491
 21
-239.9626588213374
 31
0.0
  0
LINE
  5
1F0
330
74
100
AcDbEntity
  8
1
  6
Continuous
 62
     6
100
AcDbLine
 10
-197.0448049082424
 20
-248.4626588213376
 30
0.0
 11
-147.4000003814923
 21
-248.4626588213374
 31
0.0
  0
LINE
  5
1F1
330
74
100
AcDbEntity
  8
1
  6
Continuous
 62
     6
100
AcDbLine
 10
-349.7000003814925
 20
-248.4626588213376
 30
0.0
 11
-347.4000003814923
 21
-248.4626588213374
 31
0.0
  0
LINE
  5
1F2
330
74
100
AcDbEntity
  8
1
  6
Continuous
 62
     6
100
AcDbLine
 10
-247.4000003814923
 20
-248.4626588213374
 30
0.0
 11
-297.4000003814925
 21
-248.4626588213374
 31
0.0
  0
LINE
  5
1F3
330
74
100
AcDbEntity
  8
1
  6
Continuous
 62
     7
100
AcDbLine
 10
-233.4448049082423
 20
-231.4626588213374
 30
0.0
 11
-233.4448049082423
 21
-244.2126588213376
 31
0.0
  0
LINE
  5
1F4
330
74
100
AcDbEntity
  8
1
  6
Continuous
 62
     7
100
AcDbLine
 10
-197.0448049082424
 20
-231.4626588213374
 30
0.0
 11
-197.0448049082424
 21
-244.2126588213374
 31
0.0
  0
LINE
  5
1F5
330
74
100
AcDbEntity
  8
1
  6
Continuous
 62
     6
100
AcDbLine
 10
-349.7000003814925
 20
-248.4626588213376
 30
0.0
 11
-355.9000003814905
 21
-248.4626588213374
 31
0.0
  0
LINE
  5
1F6
330
74
100
AcDbEntity
  8
1
  6
Continuous
 62
     6
100
AcDbLine
 10
-197.0448049082424
 20
-248.4626588213376
 30
0.0
 11
-197.4000003814923
 21
-248.4626588213374
 31
0.0
  0
LINE
  5
1F7
330
74
100
AcDbEntity
  8
1
  6
Continuous
 62
     6
100
AcDbLine
 10
-103.9000003814906
 20
-231.4626588213374
 30
0.0
 11
-103.900000381491
 21
-239.9626588213374
 31
0.0
  0
LINE
  5
1F8
330
74
100
AcDbEntity
  8
1
  6
Continuous
 62
     6
100
AcDbLine
 10
-355.9000003814905
 20
-248.4626588213374
 30
0.0
 11
-390.9000003814904
 21
-248.4626588213374
 31
0.0
  0
LINE
  5
1F9
330
74
100
AcDbEntity
  8
1
  6
Continuous
 62
     2
100
AcDbLine
 10
-229.2081500216797
 20
-226.0876588213375
 30
0.0
 11
-224.2081500216797
 21
-224.8376588213375
 31
0.0
  0
LINE
  5
1FA
330
74
100
AcDbEntity
  8
1
  6
Continuous
 62
     2
100
AcDbLine
 10
-229.2081500216797
 20
-228.5876588213375
 30
0.0
 11
-229.2081500216797
 21
-226.0876588213375
 31
0.0
  0
LINE
  5
1FB
330
74
100
AcDbEntity
  8
1
  6
Continuous
 62
     2
100
AcDbLine
 10
-224.2081500216797
 20
-229.8376588213375
 30
0.0
 11
-229.2081500216797
 21
-228.5876588213375
 31
0.0
  0
LINE
  5
1FC
330
74
100
AcDbEntity
  8
1
  6
Continuous
 62
     2
100
AcDbLine
 10
-224.2081500216797
 20
-224.8376588213375
 30
0.0
 11
-224.2081500216797
 21
-229.8376588213375
 31
0.0
  0
LINE
  5
1FD
330
74
100
AcDbEntity
  8
1
  6
Continuous
 62
     7
100
AcDbLine
 10
-233.4448049082423
 20
-244.2126588213376
 30
0.0
 11
-215.2448049082423
 21
-244.2126588213374
 31
0.0
  0
LINE
  5
1FE
330
74
100
AcDbEntity
  8
1
  6
Continuous
 62
     7
100
AcDbLine
 10
-233.4448049082423
 20
-244.2126588213376
 30
0.0
 11
-233.4448049082423
 21
-248.4626588213376
 31
0.0
  0
LINE
  5
1FF
330
74
100
AcDbEntity
  8
1
  6
Continuous
 62
     7
100
AcDbLine
 10
-197.0448049082424
 20
-244.2126588213374
 30
0.0
 11
-197.0448049082424
 21
-248.4626588213376
 31
0.0
  0
LINE
  5
200
330
74
100
AcDbEntity
  8
1
  6
Continuous
 62
     7
100
AcDbLine
 10
-215.2448049082423
 20
-244.2126588213374
 30
0.0
 11
-215.2448049082423
 21
-248.4626588213374
 31
0.0
  0
LINE
  5
201
330
74
100
AcDbEntity
  8
1
  6
Continuous
 62
     6
100
AcDbLine
 10
-215.2448049082423
 20
-248.4626588213374
 30
0.0
 11
-233.4448049082423
 21
-248.4626588213376
 31
0.0
  0
LINE
  5
202
330
74
100
AcDbEntity
  8
1
  6
Continuous
 62
     7
100
AcDbLine
 10
-215.2448049082423
 20
-244.2126588213374
 30
0.0
 11
-197.0448049082424
 21
-244.2126588213374
 31
0.0
  0
LINE
  5
203
330
74
100
AcDbEntity
  8
1
  6
Continuous
 62
     6
100
AcDbLine
 10
-233.4448049082423
 20
-222.9626588213374
 30
0.0
 11
-103.9000003814906
 21
-222.9626588213374
 31
0.0
  0
ARC
  5
204
102
{ACAD_REACTORS
330
26C
330
26D
102
}
330
74
100
AcDbEntity
  8
0
  6
Continuous
 62
     2
100
AcDbCircle
 10
-218.0531569092823
 20
-239.6422540594159
 30
0.0
 40
0.7717997786796421
100
AcDbArc
 50
321.8795802028467
 51
38.12041979715329
  0
ARC
  5
205
102
{ACAD_REACTORS
330
26C
330
26D
102
}
330
74
100
AcDbEntity
  8
0
  6
Continuous
 62
     2
100
AcDbCircle
 10
-217.8534168729359
 20
-239.7989852375359
 30
0.0
 40
0.5179085730136828
100
AcDbArc
 50
218.1204197971857
 51
321.8795802028085
  0
ARC
  5
206
102
{ACAD_REACTORS
330
26C
330
26D
102
}
330
74
100
AcDbEntity
  8
0
  6
Continuous
 62
     2
100
AcDbCircle
 10
-217.6536768365898
 20
-239.6422540594159
 30
0.0
 40
0.7717997786794633
100
AcDbArc
 50
141.8795802028363
 51
218.1204197971637
  0
ARC
  5
207
102
{ACAD_REACTORS
330
26C
330
26D
102
}
330
74
100
AcDbEntity
  8
0
  6
Continuous
 62
     2
100
AcDbCircle
 10
-217.8534168729359
 20
-239.4855228812953
 30
0.0
 40
0.5179085730132472
100
AcDbArc
 50
38.12041979713961
 51
141.8795802028662
  0
ARC
  5
208
102
{ACAD_REACTORS
330
264
330
265
102
}
330
74
100
AcDbEntity
  8
0
  6
Continuous
 62
     2
100
AcDbCircle
 10
-220.9154310084998
 20
-241.052720424824
 30
0.0
 40
2.227384008973492
100
AcDbArc
 50
58.0690910500401
 51
71.55192388186583
  0
ARC
  5
209
102
{ACAD_REACTORS
330
264
330
265
102
}
330
74
100
AcDbEntity
  8
0
  6
Continuous
 62
     2
100
AcDbCircle
 10
-220.653703307541
 20
-239.4371826300769
 30
0.0
 40
0.5115800601949674
100
AcDbArc
 50
113.3722778881983
 51
151.4785267423044
  0
ARC
  5
20A
102
{ACAD_REACTORS
330
264
330
265
102
}
330
74
100
AcDbEntity
  8
0
  6
Continuous
 62
     2
100
AcDbCircle
 10
-220.2763460494607
 20
-239.6422540594159
 30
0.0
 40
0.9410597353332545
100
AcDbArc
 50
151.4785267422669
 51
208.5214732577012
  0
ARC
  5
20B
102
{ACAD_REACTORS
330
264
330
265
102
}
330
74
100
AcDbEntity
  8
0
  6
Continuous
 62
     2
100
AcDbCircle
 10
-221.0733038835927
 20
-236.3295731141594
 30
0.0
 40
4.852596863498166
100
AcDbArc
 50
275.1581447696249
 51
285.9799912583526
  0
ARC
  5
20C
102
{ACAD_REACTORS
330
264
330
265
102
}
330
74
100
AcDbEntity
  8
0
  6
Continuous
 62
     2
100
AcDbCircle
 10
-220.7844477888568
 20
-239.529463697381
 30
0.0
 40
1.639695123939408
100
AcDbArc
 50
195.0618917770884
 51
275.1581447696395
  0
ARC
  5
20D
102
{ACAD_REACTORS
330
264
330
265
102
}
330
74
100
AcDbEntity
  8
0
  6
Continuous
 62
     2
100
AcDbCircle
 10
-221.2035756323196
 20
-239.6422540594159
 30
0.0
 40
1.205656168390994
100
AcDbArc
 50
164.9381082228729
 51
195.0618917770893
  0
ARC
  5
20E
102
{ACAD_REACTORS
330
264
330
265
102
}
330
74
100
AcDbEntity
  8
0
  6
Continuous
 62
     2
100
AcDbCircle
 10
-220.7844477888568
 20
-239.7550444214508
 30
0.0
 40
1.639695123940507
100
AcDbArc
 50
84.84185523036236
 51
164.9381082228838
  0
ARC
  5
20F
102
{ACAD_REACTORS
330
268
330
269
102
}
330
74
100
AcDbEntity
  8
0
  6
Continuous
 62
     2
100
AcDbCircle
 10
-225.6144620430187
 20
-238.6084272650616
 30
0.0
 40
0.3157169230766099
100
AcDbArc
 50
115.3740086783452
 51
180.0
  0
ARC
  5
210
102
{ACAD_REACTORS
330
268
330
269
102
}
330
74
100
AcDbEntity
  8
0
  6
Continuous
 62
     2
100
AcDbCircle
 10
-225.6144620430187
 20
-236.3901440651253
 30
0.0
 40
0.315716923076792
100
AcDbArc
 50
180.0
 51
244.6259913216548
  0
ARC
  5
211
102
{ACAD_REACTORS
330
268
330
269
102
}
330
74
100
AcDbEntity
  8
0
  6
Continuous
 62
     2
100
AcDbCircle
 10
-225.6088459077087
 20
-237.4874437241876
 30
0.0
 40
2.018561131933351
100
AcDbArc
 50
269.8110329575866
 51
90.18896704241334
  0
ARC
  5
212
102
{ACAD_REACTORS
330
268
330
269
102
}
330
74
100
AcDbEntity
  8
0
  6
Continuous
 62
     2
100
AcDbCircle
 10
-225.6144620430187
 20
-239.1902786717566
 30
0.0
 40
0.315716923076792
100
AcDbArc
 50
180.0
 51
269.8110329574542
  0
ARC
  5
213
102
{ACAD_REACTORS
330
266
330
267
102
}
330
74
100
AcDbEntity
  8
0
  6
Continuous
 62
     2
100
AcDbCircle
 10
-204.5510018282881
 20
-239.4371826300769
 30
0.0
 40
0.5115800601944143
100
AcDbArc
 50
109.3371432194853
 51
151.4785267424113
  0
ARC
  5
214
102
{ACAD_REACTORS
330
266
330
267
102
}
330
74
100
AcDbEntity
  8
0
  6
Continuous
 62
     2
100
AcDbCircle
 10
-204.5510018282881
 20
-239.8473254887543
 30
0.0
 40
0.5115800601960623
100
AcDbArc
 50
208.521473257695
 51
246.6277221118449
  0
ARC
  5
215
102
{ACAD_REACTORS
330
266
330
267
102
}
330
74
100
AcDbEntity
  8
0
  6
Continuous
 62
     2
100
AcDbCircle
 10
-205.1008741530655
 20
-239.6422540594159
 30
0.0
 40
1.205656168393024
100
AcDbArc
 50
164.9381082228989
 51
195.061891777092
  0
ARC
  5
216
102
{ACAD_REACTORS
330
266
330
267
102
}
330
74
100
AcDbEntity
  8
0
  6
Continuous
 62
     2
100
AcDbCircle
 10
-204.6817463096039
 20
-239.7550444214508
 30
0.0
 40
1.639695123940299
100
AcDbArc
 50
90.0
 51
164.9381082228918
  0
ARC
  5
217
102
{ACAD_REACTORS
330
26A
330
26B
102
}
330
74
100
AcDbEntity
  8
0
  6
Continuous
 62
     2
100
AcDbCircle
 10
-214.1087414023076
 20
-236.2830635832415
 30
0.0
 40
1.526904761905797
100
AcDbArc
 50
90.0
 51
270.0
  0
ARC
  5
218
102
{ACAD_REACTORS
330
26E
330
26F
102
}
330
74
100
AcDbEntity
  8
0
  6
Continuous
 62
     2
100
AcDbCircle
 10
-220.8514321475334
 20
-235.7721284914468
 30
0.0
 40
0.3528638246712035
100
AcDbArc
 50
270.0
 51
90.0
  0
ARC
  5
219
102
{ACAD_REACTORS
330
268
330
269
102
}
330
74
100
AcDbEntity
  8
0
  6
Continuous
 62
     2
100
AcDbCircle
 10
-228.1900107295504
 20
-235.7844312999704
 30
0.0
 40
0.3157169230761951
100
AcDbArc
 50
90.0
 51
180.0
  0
ARC
  5
21A
102
{ACAD_REACTORS
330
268
330
269
102
}
330
74
100
AcDbEntity
  8
0
  6
Continuous
 62
     2
100
AcDbCircle
 10
-226.1915930209658
 20
-237.4992856650931
 30
0.0
 40
0.9118975235576268
100
AcDbArc
 50
115.1944106485298
 51
244.8055893514884
  0
ARC
  5
21B
102
{ACAD_REACTORS
330
268
330
269
102
}
330
74
100
AcDbEntity
  8
0
  6
Continuous
 62
     2
100
AcDbCircle
 10
-226.7141774685408
 20
-238.6101154111559
 30
0.0
 40
0.3157169230766215
100
AcDbArc
 50
0.0
 51
64.80558935145369
  0
ARC
  5
21C
102
{ACAD_REACTORS
330
268
330
269
102
}
330
74
100
AcDbEntity
  8
0
  6
Continuous
 62
     2
100
AcDbCircle
 10
-228.7839054062969
 20
-240.7449142059379
 30
0.0
 40
0.4242446153828041
100
AcDbArc
 50
180.0
 51
270.0
  0
ARC
  5
21D
102
{ACAD_REACTORS
330
26A
330
26B
102
}
330
74
100
AcDbEntity
  8
0
  6
Continuous
 62
     2
100
AcDbCircle
 10
-213.8924693921424
 20
-236.1263324051211
 30
0.0
 40
0.5179085730135266
100
AcDbArc
 50
38.12041979714334
 51
141.8795802028489
  0
ARC
  5
21E
102
{ACAD_REACTORS
330
26A
330
26B
102
}
330
74
100
AcDbEntity
  8
0
  6
Continuous
 62
     2
100
AcDbCircle
 10
-213.6927293557961
 20
-236.2830635832415
 30
0.0
 40
0.7717997786796198
100
AcDbArc
 50
141.8795802028454
 51
218.1204197971612
  0
ARC
  5
21F
102
{ACAD_REACTORS
330
26C
330
26D
102
}
330
74
100
AcDbEntity
  8
0
  6
Continuous
 62
     2
100
AcDbCircle
 10
-217.8534168729359
 20
-239.1036790491125
 30
0.0
 40
2.065479772208623
100
AcDbArc
 50
242.451851824341
 51
297.5481481756856
  0
ARC
  5
220
102
{ACAD_REACTORS
330
26C
330
26D
102
}
330
74
100
AcDbEntity
  8
0
  6
Continuous
 62
     2
100
AcDbCircle
 10
-217.8534168729359
 20
-240.1808290697186
 30
0.0
 40
2.065479772208492
100
AcDbArc
 50
62.45185182430527
 51
117.5481481756682
  0
ARC
  5
221
102
{ACAD_REACTORS
330
26C
330
26D
102
}
330
74
100
AcDbEntity
  8
0
  6
Continuous
 62
     2
100
AcDbCircle
 10
-218.1343567647692
 20
-239.6422540594159
 30
0.0
 40
1.458034083651503
100
AcDbArc
 50
117.5481481756634
 51
242.4518518243366
  0
ARC
  5
222
102
{ACAD_REACTORS
330
26C
330
26D
102
}
330
74
100
AcDbEntity
  8
0
  6
Continuous
 62
     2
100
AcDbCircle
 10
-217.5724769811026
 20
-239.6422540594159
 30
0.0
 40
1.458034083652003
100
AcDbArc
 50
297.548148175701
 51
62.45185182429896
  0
ARC
  5
223
102
{ACAD_REACTORS
330
26A
330
26B
102
}
330
74
100
AcDbEntity
  8
0
  6
Continuous
 62
     2
100
AcDbCircle
 10
-213.8924693921424
 20
-236.439794761362
 30
0.0
 40
0.5179085730134372
100
AcDbArc
 50
218.1204197971511
 51
321.8795802028566
  0
ARC
  5
224
102
{ACAD_REACTORS
330
26A
330
26B
102
}
330
74
100
AcDbEntity
  8
0
  6
Continuous
 62
     2
100
AcDbCircle
 10
-214.0922094284886
 20
-236.2830635832415
 30
0.0
 40
0.77179977867969
100
AcDbArc
 50
321.8795802028388
 51
38.12041979715458
  0
ARC
  5
225
102
{ACAD_REACTORS
330
268
330
269
102
}
330
74
100
AcDbEntity
  8
0
  6
Continuous
 62
     2
100
AcDbCircle
 10
-223.3105933155801
 20
-240.7449142059379
 30
0.0
 40
0.424244615383202
100
AcDbArc
 50
270.0
 51
0.0
  0
ARC
  5
226
102
{ACAD_REACTORS
330
268
330
269
102
}
330
74
100
AcDbEntity
  8
0
  6
Continuous
 62
     2
100
AcDbCircle
 10
-223.3105933155801
 20
-235.1804034367376
 30
0.0
 40
0.4242446153838841
100
AcDbArc
 50
0.0
 51
90.0
  0
ARC
  5
227
102
{ACAD_REACTORS
330
268
330
269
102
}
330
74
100
AcDbEntity
  8
0
  6
Continuous
 62
     2
100
AcDbCircle
 10
-228.7839054062969
 20
-235.1804034367376
 30
0.0
 40
0.4242446153837989
100
AcDbArc
 50
90.0
 51
180.0
  0
ARC
  5
228
102
{ACAD_REACTORS
330
268
330
269
102
}
330
74
100
AcDbEntity
  8
0
  6
Continuous
 62
     2
100
AcDbCircle
 10
-226.7141774685408
 20
-240.1408863426875
 30
0.0
 40
0.3157169230766783
100
AcDbArc
 50
270.0
 51
0.0
  0
ARC
  5
229
102
{ACAD_REACTORS
330
268
330
269
102
}
330
74
100
AcDbEntity
  8
0
  6
Continuous
 62
     2
100
AcDbCircle
 10
-226.7141774685408
 20
-236.388455919031
 30
0.0
 40
0.3157169230760431
100
AcDbArc
 50
295.1944106485464
 51
0.0
  0
ARC
  5
22A
102
{ACAD_REACTORS
330
268
330
269
102
}
330
74
100
AcDbEntity
  8
0
  6
Continuous
 62
     2
100
AcDbCircle
 10
-226.7141774685408
 20
-235.7844312999704
 30
0.0
 40
0.3157169230766215
100
AcDbArc
 50
0.0
 51
90.0
  0
ARC
  5
22B
102
{ACAD_REACTORS
330
268
330
269
102
}
330
74
100
AcDbEntity
  8
0
  6
Continuous
 62
     2
100
AcDbCircle
 10
-228.1900107295504
 20
-240.1408863426875
 30
0.0
 40
0.3157169230756836
100
AcDbArc
 50
180.0
 51
270.0
  0
ARC
  5
22C
102
{ACAD_REACTORS
330
26E
330
26F
102
}
330
74
100
AcDbEntity
  8
0
  6
Continuous
 62
     2
100
AcDbCircle
 10
-220.409959621295
 20
-235.8115244626693
 30
0.0
 40
1.055365641333708
100
AcDbArc
 50
270.0
 51
90.0
  0
ARC
  5
22D
102
{ACAD_REACTORS
330
266
330
267
102
}
330
74
100
AcDbEntity
  8
0
  6
Continuous
 62
     2
100
AcDbCircle
 10
-204.6817463096039
 20
-239.529463697381
 30
0.0
 40
1.639695123940421
100
AcDbArc
 50
195.0618917771015
 51
275.1581447696762
  0
ARC
  5
22E
102
{ACAD_REACTORS
330
266
330
267
102
}
330
74
100
AcDbEntity
  8
0
  6
Continuous
 62
     2
100
AcDbCircle
 10
-204.9706024043397
 20
-236.3295731141594
 30
0.0
 40
4.85259686349885
100
AcDbArc
 50
275.158144769636
 51
285.979991258338
  0
ARC
  5
22F
102
{ACAD_REACTORS
330
266
330
267
102
}
330
74
100
AcDbEntity
  8
0
  6
Continuous
 62
     2
100
AcDbCircle
 10
-204.8127295292469
 20
-238.2317876940078
 30
0.0
 40
2.227384008972665
100
AcDbArc
 50
288.4480761181342
 51
301.9309089499403
  0
ARC
  5
230
102
{ACAD_REACTORS
330
266
330
267
102
}
330
74
100
AcDbEntity
  8
0
  6
Continuous
 62
     2
100
AcDbCircle
 10
-204.394561795585
 20
-239.4853334700443
 30
0.0
 40
0.9059297849852801
100
AcDbArc
 50
246.6277221118183
 51
288.4480761180817
  0
ARC
  5
231
102
{ACAD_REACTORS
330
266
330
267
102
}
330
74
100
AcDbEntity
  8
0
  6
Continuous
 62
     2
100
AcDbCircle
 10
-204.1736445702067
 20
-239.6422540594159
 30
0.0
 40
0.9410597353349467
100
AcDbArc
 50
151.4785267423563
 51
208.5214732576695
  0
ARC
  5
232
102
{ACAD_REACTORS
330
266
330
267
102
}
330
74
100
AcDbEntity
  8
0
  6
Continuous
 62
     2
100
AcDbCircle
 10
-204.4043318301844
 20
-239.8551376104597
 30
0.0
 40
0.9545230068260935
100
AcDbArc
 50
90.0
 51
109.3371432194337
  0
ARC
  5
233
102
{ACAD_REACTORS
330
268
330
269
102
}
330
74
100
AcDbEntity
  8
0
  6
Continuous
 62
     2
100
AcDbCircle
 10
-225.6144620430187
 20
-235.7846087766185
 30
0.0
 40
0.3157169230760711
100
AcDbArc
 50
90.18896704254594
 51
180.0
  0
ARC
  5
234
102
{ACAD_REACTORS
330
268
330
269
102
}
330
74
100
AcDbEntity
  8
0
  6
Continuous
 62
     2
100
AcDbCircle
 10
-226.1405047411066
 20
-237.4992856650931
 30
0.0
 40
0.9118481501444712
100
AcDbArc
 50
295.3740086781781
 51
64.62599132180354
  0
ARC
  5
235
102
{ACAD_REACTORS
330
264
330
265
102
}
330
74
100
AcDbEntity
  8
0
  6
Continuous
 62
     2
100
AcDbCircle
 10
-220.9154310084998
 20
-238.2317876940072
 30
0.0
 40
2.227384008972665
100
AcDbArc
 50
288.4480761181342
 51
301.9309089499599
  0
ARC
  5
236
102
{ACAD_REACTORS
330
264
330
265
102
}
330
74
100
AcDbEntity
  8
0
  6
Continuous
 62
     2
100
AcDbCircle
 10
-220.497263274839
 20
-239.4853334700443
 30
0.0
 40
0.9059297849849192
100
AcDbArc
 50
246.627722111871
 51
288.4480761181601
  0
ARC
  5
237
102
{ACAD_REACTORS
330
264
330
265
102
}
330
74
100
AcDbEntity
  8
0
  6
Continuous
 62
     2
100
AcDbCircle
 10
-220.653703307541
 20
-239.8473254887543
 30
0.0
 40
0.5115800601948034
100
AcDbArc
 50
208.5214732576956
 51
246.6277221118245
  0
ARC
  5
238
102
{ACAD_REACTORS
330
264
330
265
102
}
330
74
100
AcDbEntity
  8
0
  6
Continuous
 62
     2
100
AcDbCircle
 10
-220.497263274839
 20
-239.7991746487874
 30
0.0
 40
0.9059297849852509
100
AcDbArc
 50
71.55192388185006
 51
113.372277888129
  0
ARC
  5
239
102
{ACAD_REACTORS
330
264
330
265
102
}
330
74
100
AcDbEntity
  8
0
  6
Continuous
 62
     2
100
AcDbCircle
 10
-221.0733038835927
 20
-242.9549350046717
 30
0.0
 40
4.852596863497986
100
AcDbArc
 50
74.0200087416471
 51
84.84185523037496
  0
CIRCLE
  5
23A
102
{ACAD_REACTORS
330
268
330
269
102
}
330
74
100
AcDbEntity
  8
0
  6
Continuous
 62
     2
100
AcDbCircle
 10
-226.1643197557794
 20
-237.4992856650931
 30
0.0
 40
0.470978932778479
  0
CIRCLE
  5
23B
330
74
100
AcDbEntity
  8
1
  6
Continuous
 62
     2
100
AcDbCircle
 10
-220.7081500216797
 20
-227.3376588213375
 30
0.0
 40
1.249999999999886
  0
CIRCLE
  5
23C
330
74
100
AcDbEntity
  8
1
  6
Continuous
 62
     2
100
AcDbCircle
 10
-220.7081500216797
 20
-227.3376588213375
 30
0.0
 40
2.5
  0
TEXT
  5
23D
330
74
100
AcDbEntity
  8
1
 62
     7
100
AcDbText
 10
-178.0712571862285
 20
-230.1626588213375
 30
0.0
 40
2.5
  1
/
 41
0.9
  7
CONVERTER_11
100
AcDbText
  0
TEXT
  5
23F
330
74
100
AcDbEntity
  8
1
 62
     7
100
AcDbText
 10
-175.9148926891865
 20
-230.1626588213375
 30
0.0
 40
2.5
  1
00
 41
0.81
  7
CONVERTER_12
100
AcDbText
  0
TEXT
  5
240
330
74
100
AcDbEntity
  8
1
 62
     3
100
AcDbText
 10
-138.3184086631694
 20
-230.1626588213375
 30
0.0
 40
2.5
  1
09.07.2015
 41
0.81
  7
CONVERTER_12
100
AcDbText
  0
MTEXT
  5
241
330
74
100
AcDbEntity
  8
1
 62
     2
100
AcDbMText
 10
-138.3184086631694
 20
-223.9626588213375
 30
0.0
 40
1.8
 41
0.0
 71
     1
 72
     1
  1
date
  7
CONVERTER_11
 73
     1
 44
1.32052821128451
  0
MTEXT
  5
242
330
74
100
AcDbEntity
  8
1
 62
     2
100
AcDbMText
 10
-168.1448049082423
 20
-232.4626588213375
 30
0.0
 40
1.8
 41
0.0
 71
     1
 72
     1
  1
document-type
  7
CONVERTER_11
 73
     1
 44
1.20048019207683
  0
TEXT
  5
243
330
74
100
AcDbEntity
  8
1
 62
     3
100
AcDbText
 10
-168.1448049082423
 20
-238.6626588213375
 30
0.0
 40
2.5
  1
Customer drawing select
 41
0.81
  7
CONVERTER_12
100
AcDbText
  0
MTEXT
  5
245
330
74
100
AcDbEntity
  8
1
 62
     2
100
AcDbMText
 10
-195.9448049082423
 20
-223.9626588213374
 30
0.0
 40
1.8
 41
0.0
 71
     1
 72
     1
  1
document-No. / RI
  7
CONVERTER_13
 73
     1
 44
1.32052821128451
  0
TEXT
  5
246
330
74
100
AcDbEntity
  8
1
 62
     7
100
AcDbText
 10
-195.9448049082423
 20
-230.1626588213375
 30
0.0
 40
2.5
  1
00882952
 41
0.81
  7
CONVERTER_12
100
AcDbText
  0
MTEXT
  5
248
330
74
100
AcDbEntity
  8
1
 62
     3
100
AcDbMText
 10
-108.35920452233
 20
-230.1626588213374
 30
0.0
 40
2.5
 41
0.0
 71
     8
 72
     1
  1
2:1
  7
CONVERTER_14
 73
     1
 44
1.32052821128451
  0
MTEXT
  5
249
330
74
100
AcDbEntity
  8
1
 62
     2
100
AcDbMText
 10
-111.7184086631696
 20
-223.9626588213374
 30
0.0
 40
1.8
 41
0.0
 71
     1
 72
     1
  1
scale
  7
CONVERTER_11
 73
     1
 44
1.20048019207683
  0
MTEXT
  5
24A
330
74
100
AcDbEntity
  8
1
 62
     2
100
AcDbMText
 10
-195.9448049082423
 20
-232.4626588213374
 30
0.0
 40
1.8
 41
0.0
 71
     1
 72
     1
  1
ident.-No.
  7
CONVERTER_11
 73
     1
 44
1.20048019207683
  0
TEXT
  5
24B
330
74
100
AcDbEntity
  8
1
 62
     7
100
AcDbText
 10
-195.5448049082426
 20
-238.6626588213375
 30
0.0
 40
2.5
  1
0823753
 41
0.81
  7
CONVERTER_12
100
AcDbText
  0
MTEXT
  5
24C
330
74
100
AcDbEntity
  8
1
 62
     2
100
AcDbMText
 10
-267.8828196332898
 20
-235.7126588213375
 30
0.0
 40
2.0
 41
0.0
 71
     5
 72
     1
  1
General Information\P- Simplified representation\P- Document excluded from change process\P- Linear dimensions [mm]
  7
CONVERTER_11
 73
     1
 44
1.20048019207683
  0
MTEXT
  5
24D
330
74
100
AcDbEntity
  8
1
 62
     7
100
AcDbMText
 10
-101.4000003814933
 20
-173.4626588213355
 30
0.0
 40
3.5
 41
0.0
 71
     5
 72
     1
  1
C
  7
CONVERTER_11
 73
     1
 44
1.20048019207683
  0
MTEXT
  5
24E
330
74
100
AcDbEntity
  8
1
 62
     7
100
AcDbMText
 10
-101.4000003814933
 20
-70.96265882133744
 30
0.0
 40
3.5
 41
0.0
 71
     5
 72
     1
  1
A
  7
CONVERTER_11
 73
     1
 44
1.20048019207683
  0
MTEXT
  5
24F
330
74
100
AcDbEntity
  8
1
 62
     7
100
AcDbMText
 10
-101.4000003814933
 20
-123.4626588213355
 30
0.0
 40
3.5
 41
0.0
 71
     5
 72
     1
  1
B
  7
CONVERTER_11
 73
     1
 44
1.20048019207683
  0
MTEXT
  5
250
330
74
100
AcDbEntity
  8
1
 62
     7
100
AcDbMText
 10
-101.4000003814933
 20
-225.9626588213374
 30
0.0
 40
3.5
 41
0.0
 71
     5
 72
     1
  1
D
  7
CONVERTER_11
 73
     1
 44
1.20048019207683
  0
MTEXT
  5
251
330
74
100
AcDbEntity
  8
1
 62
     7
100
AcDbMText
 10
-371.6500003814919
 20
-250.9626588213376
 30
0.0
 40
3.5
 41
0.0
 71
     5
 72
     1
  1
1
  7
CONVERTER_11
 73
     1
 44
1.20048019207683
  0
MTEXT
  5
252
330
74
100
AcDbEntity
  8
1
 62
     7
100
AcDbMText
 10
-322.4000003814923
 20
-250.9626588213376
 30
0.0
 40
3.5
 41
0.0
 71
     5
 72
     1
  1
2
  7
CONVERTER_11
 73
     1
 44
1.20048019207683
  0
MTEXT
  5
253
330
74
100
AcDbEntity
  8
1
 62
     7
100
AcDbMText
 10
-272.4000003814923
 20
-250.9626588213376
 30
0.0
 40
3.5
 41
0.0
 71
     5
 72
     1
  1
3
  7
CONVERTER_11
 73
     1
 44
1.20048019207683
  0
MTEXT
  5
254
330
74
100
AcDbEntity
  8
1
 62
     7
100
AcDbMText
 10
-222.4000003814924
 20
-250.9626588213376
 30
0.0
 40
3.5
 41
0.0
 71
     5
 72
     1
  1
4
  7
CONVERTER_11
 73
     1
 44
1.20048019207683
  0
MTEXT
  5
255
330
74
100
AcDbEntity
  8
1
 62
     7
100
AcDbMText
 10
-172.4000003814923
 20
-250.9626588213376
 30
0.0
 40
3.5
 41
0.0
 71
     5
 72
     1
  1
5
  7
CONVERTER_11
 73
     1
 44
1.20048019207683
  0
MTEXT
  5
256
330
74
100
AcDbEntity
  8
1
 62
     7
100
AcDbMText
 10
-123.1500003814931
 20
-250.9626588213376
 30
0.0
 40
3.5
 41
0.0
 71
     5
 72
     1
  1
6
  7
CONVERTER_11
 73
     1
 44
1.20048019207683
  0
MTEXT
  5
257
330
74
100
AcDbEntity
  8
1
 62
     7
100
AcDbMText
 10
-393.4000003814913
 20
-70.96265882133744
 30
0.0
 40
3.5
 41
0.0
 71
     5
 72
     1
  1
A
  7
CONVERTER_11
 73
     1
 44
1.20048019207683
  0
MTEXT
  5
258
330
74
100
AcDbEntity
  8
1
 62
     7
100
AcDbMText
 10
-393.4000003814913
 20
-123.4626588213374
 30
0.0
 40
3.5
 41
0.0
 71
     5
 72
     1
  1
B
  7
CONVERTER_11
 73
     1
 44
1.20048019207683
  0
MTEXT
  5
259
330
74
100
AcDbEntity
  8
1
 62
     7
100
AcDbMText
 10
-393.4000003814913
 20
-173.4626588213374
 30
0.0
 40
3.5
 41
0.0
 71
     5
 72
     1
  1
C
  7
CONVERTER_11
 73
     1
 44
1.20048019207683
  0
MTEXT
  5
25A
330
74
100
AcDbEntity
  8
1
 62
     7
100
AcDbMText
 10
-393.4000003814913
 20
-225.9626588213374
 30
0.0
 40
3.5
 41
0.0
 71
     5
 72
     1
  1
D
  7
CONVERTER_11
 73
     1
 44
1.20048019207683
  0
MTEXT
  5
25B
330
74
100
AcDbEntity
  8
1
 62
     3
100
AcDbMText
 10
-207.2448049082424
 20
-227.3376588213374
 30
0.0
 40
2.5
 41
0.0
 71
     5
 72
     1
  1
DIN A4
  7
CONVERTER_11
 73
     1
 44
1.20048019207683
  0
MTEXT
  5
25C
330
74
100
AcDbEntity
  8
1
 62
     2
100
AcDbMText
 10
-196.0448049082424
 20
-240.9626588213374
 30
0.0
 40
1.8
 41
0.0
 71
     1
 72
     1
  1
description
  7
CONVERTER_11
 73
     1
 44
1.20048019207683
  0
MTEXT
  5
25D
330
74
100
AcDbEntity
  8
1
 62
     7
100
AcDbMText
 10
-150.4724026448668
 20
-245.2126588213372
 30
0.0
 40
3.0
 41
0.0
 71
     5
 72
     1
  1
PATO 2/18
  7
CONVERTER_12
 73
     1
 44
1.20048019207683
  0
TEXT
  5
25E
330
74
100
AcDbEntity
  8
1
 62
     2
100
AcDbText
 10
-209.0094960984288
 20
-247.2126588213376
 30
0.0
 40
1.8
  1
1
 41
0.9
  7
CONVERTER_11
100
AcDbText
  0
TEXT
  5
25F
330
74
100
AcDbEntity
  8
1
 62
     2
100
AcDbText
 10
-223.7985399379003
 20
-247.2619074751395
 30
0.0
 40
1.8
  1
1
 41
0.9
  7
CONVERTER_11
100
AcDbText
  0
TEXT
  5
260
330
74
100
AcDbEntity
  8
1
 62
     2
100
AcDbText
 10
-232.4448049082423
 20
-247.2216760363291
 30
0.0
 40
1.8
  1
page
 41
0.9
  7
CONVERTER_11
100
AcDbText
  0
TEXT
  5
261
330
74
100
AcDbEntity
  8
1
 62
     2
100
AcDbText
 10
-214.2448049082425
 20
-247.2216760363291
 30
0.0
 40
1.8
  1
of
 41
0.9
  7
CONVERTER_11
100
AcDbText
  0
MTEXT
  5
262
330
74
100
AcDbEntity
  8
1
 62
     3
100
AcDbMText
 10
-208.0418227566324
 20
-61.67135066603865
 30
0.0
 40
1.8
 41
0.0
 71
     7
 72
     1
  3
Transfer or duplication of this document as well as the utilisation or\Pcommunication of its content are not permitted unless express consen\Pis granted. Violations give rise to claims for damages. All rights reserved\Pin case of patent, utility mod
  1
el or design patent registrations.
  7
CONVERTER_11
 73
     1
 44
0.99639855942377
  0
MTEXT
  5
263
330
74
100
AcDbEntity
  8
1
 62
     3
100
AcDbMText
 10
-390.8949325954205
 20
-61.67135066603865
 30
0.0
 40
1.8
 41
0.0
 71
     7
 72
     1
  3
Weitergabe sowie Vervielf\U+00e4ltigung dieses Dokuments, Verwertung und \PMitteilung seines Inhalts sind verboten, soweit nicht ausdr\U+00fccklich gestattet. \PZuwiderhandlungen verpflichten zu Schadenersatz. Alle Rechte f\U+00fcr den Fall\Pder Pat
  1
ent-, Gebrauchsmuster- oder Designeintragung vorbehalten.
  7
CONVERTER_11
 73
     1
 44
0.99639855942377
  0
HATCH
  5
264
330
74
100
AcDbEntity
  8
1
  6
Continuous
 62
     2
100
AcDbHatch
 10
0.0
 20
0.0
 30
0.0
210
0.0
220
0.0
230
1.0
  2
_USER
 70
     0
 71
     1
 91
        1
 92
        1
 93
       14
 72
     2
 10
-221.2035756323196
 20
-239.6422540594159
 40
1.205656168390994
 50
164.9381082228729
 51
195.0618917770893
 73
     1
 72
     2
 10
-220.7844477888568
 20
-239.529463697381
 40
1.639695123939408
 50
195.0618917770884
 51
275.1581447696395
 73
     1
 72
     2
 10
-221.0733038835927
 20
-236.3295731141594
 40
4.852596863498166
 50
275.1581447696249
 51
285.9799912583526
 73
     1
 72
     1
 10
-219.7373759664749
 20
-240.9946554199603
 11
-219.7373759664749
 21
-240.1221384131571
 72
     2
 10
-220.9154310084998
 20
-238.2317876940072
 40
2.227384008972665
 50
58.06909105004009
 51
71.5519238818658
 73
     0
 72
     2
 10
-220.497263274839
 20
-239.4853334700443
 40
0.9059297849849192
 50
71.55192388183985
 51
113.372277888129
 73
     0
 72
     2
 10
-220.653703307541
 20
-239.8473254887543
 40
0.5115800601948034
 50
113.3722778881755
 51
151.4785267423044
 73
     0
 72
     2
 10
-220.2763460494607
 20
-239.6422540594159
 40
0.9410597353332545
 50
151.4785267422988
 51
208.5214732577331
 73
     0
 72
     2
 10
-220.653703307541
 20
-239.4371826300769
 40
0.5115800601949674
 50
208.5214732576956
 51
246.6277221118017
 73
     0
 72
     2
 10
-220.497263274839
 20
-239.7991746487874
 40
0.9059297849852509
 50
246.627722111871
 51
288.4480761181499
 73
     0
 72
     2
 10
-220.9154310084998
 20
-241.052720424824
 40
2.227384008973492
 50
288.4480761181342
 51
301.9309089499599
 73
     0
 72
     1
 10
-219.7373759664749
 20
-239.1623697056741
 11
-219.7373759664749
 21
-238.2898526988709
 72
     2
 10
-221.0733038835927
 20
-242.9549350046717
 40
4.852596863497986
 50
74.0200087416471
 51
84.84185523037496
 73
     1
 72
     2
 10
-220.7844477888568
 20
-239.7550444214508
 40
1.639695123940507
 50
84.84185523036236
 51
164.9381082228838
 73
     1
 97
       14
330
239
330
152
330
208
330
238
330
209
330
20A
330
237
330
236
330
235
330
153
330
20B
330
20C
330
20D
330
20E
 75
     1
 76
     0
 52
45.0
 41
0.1
 77
     0
 78
     1
 53
45.0
 43
0.0
 44
0.0
 45
-0.0707106781186548
 46
0.0707106781186548
 79
     0
 98
        1
 10
0.0
 20
0.0
  0
HATCH
  5
265
330
74
100
AcDbEntity
  8
1
  6
Continuous
 62
     2
100
AcDbHatch
 10
0.0
 20
0.0
 30
0.0
210
0.0
220
0.0
230
1.0
  2
_USER
 70
     0
 71
     1
 91
        1
 92
        1
 93
       14
 72
     2
 10
-221.2035756323196
 20
-239.6422540594159
 40
1.205656168390994
 50
164.9381082228729
 51
195.0618917770893
 73
     1
 72
     2
 10
-220.7844477888568
 20
-239.529463697381
 40
1.639695123939408
 50
195.0618917770884
 51
275.1581447696395
 73
     1
 72
     2
 10
-221.0733038835927
 20
-236.3295731141594
 40
4.852596863498166
 50
275.1581447696249
 51
285.9799912583526
 73
     1
 72
     1
 10
-219.7373759664749
 20
-240.9946554199603
 11
-219.7373759664749
 21
-240.1221384131571
 72
     2
 10
-220.9154310084998
 20
-238.2317876940072
 40
2.227384008972665
 50
58.06909105004009
 51
71.5519238818658
 73
     0
 72
     2
 10
-220.497263274839
 20
-239.4853334700443
 40
0.9059297849849192
 50
71.55192388183985
 51
113.372277888129
 73
     0
 72
     2
 10
-220.653703307541
 20
-239.8473254887543
 40
0.5115800601948034
 50
113.3722778881755
 51
151.4785267423044
 73
     0
 72
     2
 10
-220.2763460494607
 20
-239.6422540594159
 40
0.9410597353332545
 50
151.4785267422988
 51
208.5214732577331
 73
     0
 72
     2
 10
-220.653703307541
 20
-239.4371826300769
 40
0.5115800601949674
 50
208.5214732576956
 51
246.6277221118017
 73
     0
 72
     2
 10
-220.497263274839
 20
-239.7991746487874
 40
0.9059297849852509
 50
246.627722111871
 51
288.4480761181499
 73
     0
 72
     2
 10
-220.9154310084998
 20
-241.052720424824
 40
2.227384008973492
 50
288.4480761181342
 51
301.9309089499599
 73
     0
 72
     1
 10
-219.7373759664749
 20
-239.1623697056741
 11
-219.7373759664749
 21
-238.2898526988709
 72
     2
 10
-221.0733038835927
 20
-242.9549350046717
 40
4.852596863497986
 50
74.0200087416471
 51
84.84185523037496
 73
     1
 72
     2
 10
-220.7844477888568
 20
-239.7550444214508
 40
1.639695123940507
 50
84.84185523036236
 51
164.9381082228838
 73
     1
 97
       14
330
239
330
152
330
208
330
238
330
209
330
20A
330
237
330
236
330
235
330
153
330
20B
330
20C
330
20D
330
20E
 75
     1
 76
     0
 52
45.0
 41
0.1
 77
     0
 78
     1
 53
45.0
 43
0.0
 44
0.0
 45
-0.0707106781186548
 46
0.0707106781186548
 79
     0
 98
        1
 10
0.0
 20
0.0
  0
HATCH
  5
266
330
74
100
AcDbEntity
  8
1
  6
Continuous
 62
     2
100
AcDbHatch
 10
0.0
 20
0.0
 30
0.0
210
0.0
220
0.0
230
1.0
  2
_USER
 70
     0
 71
     1
 91
        1
 92
        1
 93
       18
 72
     2
 10
-204.6817463096039
 20
-239.7550444214508
 40
1.639695123940299
 50
90.0
 51
164.9381082228918
 73
     1
 72
     2
 10
-205.1008741530655
 20
-239.6422540594159
 40
1.205656168393024
 50
164.9381082228989
 51
195.061891777092
 73
     1
 72
     2
 10
-204.6817463096039
 20
-239.529463697381
 40
1.639695123940421
 50
195.0618917771015
 51
275.1581447696762
 73
     1
 72
     2
 10
-204.9706024043397
 20
-236.3295731141594
 40
4.85259686349885
 50
275.158144769636
 51
285.979991258338
 73
     1
 72
     1
 10
-203.634674487223
 20
-240.9946554199609
 11
-203.634674487223
 21
-240.1221384131575
 72
     2
 10
-204.8127295292469
 20
-238.2317876940078
 40
2.227384008972665
 50
58.06909105005974
 51
71.5519238818658
 73
     0
 72
     2
 10
-204.394561795585
 20
-239.4853334700443
 40
0.9059297849852801
 50
71.55192388191827
 51
113.3722778881817
 73
     0
 72
     2
 10
-204.5510018282881
 20
-239.8473254887543
 40
0.5115800601960623
 50
113.3722778881551
 51
151.478526742305
 73
     0
 72
     2
 10
-204.1736445702067
 20
-239.6422540594159
 40
0.9410597353349467
 50
151.4785267423305
 51
208.5214732576437
 73
     0
 72
     2
 10
-204.5510018282881
 20
-239.4371826300769
 40
0.5115800601944143
 50
208.5214732575887
 51
250.6628567805147
 73
     0
 72
     2
 10
-204.4043318301844
 20
-239.8551376104597
 40
0.9545230068260935
 50
250.6628567805663
 51
270.0
 73
     0
 72
     1
 10
-204.4043318301844
 20
-238.9006146036336
 11
-203.3006925306163
 21
-238.9006146036336
 72
     1
 10
-203.3006925306163
 20
-238.9006146036336
 11
-203.3006925306163
 21
-241.1691588213211
 72
     1
 10
-203.3006925306163
 20
-241.1691588213211
 11
-202.1078998284486
 21
-241.1691588213211
 72
     1
 10
-202.1078998284486
 20
-241.1691588213211
 11
-202.1078998284486
 21
-238.9006146036336
 72
     1
 10
-202.1078998284486
 20
-238.9006146036336
 11
-201.2968007909752
 21
-238.9006146036336
 72
     1
 10
-201.2968007909752
 20
-238.9006146036336
 11
-201.2968007909752
 21
-238.1153492975101
 72
     1
 10
-201.2968007909752
 20
-238.1153492975101
 11
-204.6817463096039
 21
-238.1153492975105
 97
       18
330
1B8
330
1B7
330
1B6
330
1B5
330
1BA
330
154
330
232
330
213
330
231
330
214
330
230
330
22F
330
155
330
22E
330
22D
330
215
330
216
330
1B9
 75
     1
 76
     0
 52
45.0
 41
0.1
 77
     0
 78
     1
 53
45.0
 43
0.0
 44
0.0
 45
-0.0707106781186548
 46
0.0707106781186548
 79
     0
 98
        1
 10
0.0
 20
0.0
  0
HATCH
  5
267
330
74
100
AcDbEntity
  8
1
  6
Continuous
 62
     2
100
AcDbHatch
 10
0.0
 20
0.0
 30
0.0
210
0.0
220
0.0
230
1.0
  2
_USER
 70
     0
 71
     1
 91
        1
 92
        1
 93
       18
 72
     2
 10
-204.6817463096039
 20
-239.7550444214508
 40
1.639695123940299
 50
90.0
 51
164.9381082228918
 73
     1
 72
     2
 10
-205.1008741530655
 20
-239.6422540594159
 40
1.205656168393024
 50
164.9381082228989
 51
195.061891777092
 73
     1
 72
     2
 10
-204.6817463096039
 20
-239.529463697381
 40
1.639695123940421
 50
195.0618917771015
 51
275.1581447696762
 73
     1
 72
     2
 10
-204.9706024043397
 20
-236.3295731141594
 40
4.85259686349885
 50
275.158144769636
 51
285.979991258338
 73
     1
 72
     1
 10
-203.634674487223
 20
-240.9946554199609
 11
-203.634674487223
 21
-240.1221384131575
 72
     2
 10
-204.8127295292469
 20
-238.2317876940078
 40
2.227384008972665
 50
58.06909105005974
 51
71.5519238818658
 73
     0
 72
     2
 10
-204.394561795585
 20
-239.4853334700443
 40
0.9059297849852801
 50
71.55192388191827
 51
113.3722778881817
 73
     0
 72
     2
 10
-204.5510018282881
 20
-239.8473254887543
 40
0.5115800601960623
 50
113.3722778881551
 51
151.478526742305
 73
     0
 72
     2
 10
-204.1736445702067
 20
-239.6422540594159
 40
0.9410597353349467
 50
151.4785267423305
 51
208.5214732576437
 73
     0
 72
     2
 10
-204.5510018282881
 20
-239.4371826300769
 40
0.5115800601944143
 50
208.5214732575887
 51
250.6628567805147
 73
     0
 72
     2
 10
-204.4043318301844
 20
-239.8551376104597
 40
0.9545230068260935
 50
250.6628567805663
 51
270.0
 73
     0
 72
     1
 10
-204.4043318301844
 20
-238.9006146036336
 11
-203.3006925306163
 21
-238.9006146036336
 72
     1
 10
-203.3006925306163
 20
-238.9006146036336
 11
-203.3006925306163
 21
-241.1691588213211
 72
     1
 10
-203.3006925306163
 20
-241.1691588213211
 11
-202.1078998284486
 21
-241.1691588213211
 72
     1
 10
-202.1078998284486
 20
-241.1691588213211
 11
-202.1078998284486
 21
-238.9006146036336
 72
     1
 10
-202.1078998284486
 20
-238.9006146036336
 11
-201.2968007909752
 21
-238.9006146036336
 72
     1
 10
-201.2968007909752
 20
-238.9006146036336
 11
-201.2968007909752
 21
-238.1153492975101
 72
     1
 10
-201.2968007909752
 20
-238.1153492975101
 11
-204.6817463096039
 21
-238.1153492975105
 97
       18
330
1B8
330
1B7
330
1B6
330
1B5
330
1BA
330
154
330
232
330
213
330
231
330
214
330
230
330
22F
330
155
330
22E
330
22D
330
215
330
216
330
1B9
 75
     1
 76
     0
 52
45.0
 41
0.1
 77
     0
 78
     1
 53
45.0
 43
0.0
 44
0.0
 45
-0.0707106781186548
 46
0.0707106781186548
 79
     0
 98
        1
 10
0.0
 20
0.0
  0
HATCH
  5
268
330
74
100
AcDbEntity
  8
1
  6
Continuous
 62
     2
100
AcDbHatch
 10
0.0
 20
0.0
 30
0.0
210
0.0
220
0.0
230
1.0
  2
_USER
 70
     0
 71
     1
 91
        4
 92
        1
 93
        8
 72
     2
 10
-228.7839054062969
 20
-235.1804034367376
 40
0.4242446153837989
 50
90.0
 51
180.0
 73
     1
 72
     1
 10
-229.2081500216797
 20
-235.1804034367376
 11
-229.2081500216797
 21
-240.7449142059379
 72
     2
 10
-228.7839054062969
 20
-240.7449142059379
 40
0.4242446153828041
 50
180.0
 51
270.0
 73
     1
 72
     1
 10
-228.7839054062969
 20
-241.1691588213211
 11
-223.3105933155801
 21
-241.1691588213211
 72
     2
 10
-223.3105933155801
 20
-240.7449142059379
 40
0.424244615383202
 50
270.0
 51
360.0
 73
     1
 72
     1
 10
-222.8863487001962
 20
-240.7449142059379
 11
-222.8863487001962
 21
-235.1804034367376
 72
     2
 10
-223.3105933155801
 20
-235.1804034367376
 40
0.4242446153838841
 50
0.0
 51
90.0
 73
     1
 72
     1
 10
-223.3105933155801
 20
-234.7561588213538
 11
-228.7839054062969
 21
-234.7561588213538
 97
        8
330
226
330
183
330
225
330
184
330
21C
330
181
330
227
330
182
 92
       16
 93
        1
 72
     2
 10
-226.1643197557794
 20
-237.4992856650931
 40
0.470978932778479
 50
0.0
 51
360.0
 73
     1
 97
        1
330
23A
 92
       16
 93
        8
 72
     2
 10
-226.1405047411066
 20
-237.4992856650931
 40
0.9118481501444712
 50
295.3740086781781
 51
424.6259913218036
 73
     1
 72
     2
 10
-225.6144620430187
 20
-236.3901440651253
 40
0.315716923076792
 50
115.3740086783452
 51
180.0
 73
     0
 72
     1
 10
-225.9301789660955
 20
-236.3901440651253
 11
-225.9301789660955
 21
-235.7846087766185
 72
     2
 10
-225.6144620430187
 20
-235.7846087766185
 40
0.3157169230760711
 50
180.0
 51
269.8110329574541
 73
     0
 72
     2
 10
-225.6088459077087
 20
-237.4874437241876
 40
2.018561131933351
 50
269.8110329575866
 51
450.1889670424133
 73
     0
 72
     2
 10
-225.6144620430187
 20
-239.1902786717566
 40
0.315716923076792
 50
90.1889670425458
 51
180.0
 73
     0
 72
     1
 10
-225.9301789660955
 20
-239.1902786717566
 11
-225.9301789660955
 21
-238.6084272650616
 72
     2
 10
-225.6144620430187
 20
-238.6084272650616
 40
0.3157169230766099
 50
180.0
 51
244.6259913216548
 73
     0
 97
        8
330
234
330
210
330
1BC
330
233
330
211
330
212
330
1BB
330
20F
 92
       16
 93
       12
 72
     1
 10
-228.1900107295504
 20
-240.4566032657642
 11
-226.7141774685408
 21
-240.4566032657642
 72
     2
 10
-226.7141774685408
 20
-240.1408863426875
 40
0.3157169230766783
 50
270.0
 51
360.0
 73
     1
 72
     1
 10
-226.3984605454642
 20
-240.1408863426875
 11
-226.3984605454642
 21
-238.6101154111559
 72
     2
 10
-226.7141774685408
 20
-238.6101154111559
 40
0.3157169230766215
 50
0.0
 51
64.80558935145369
 73
     1
 72
     2
 10
-226.1915930209658
 20
-237.4992856650931
 40
0.9118975235576268
 50
115.1944106485116
 51
244.8055893514702
 73
     0
 72
     2
 10
-226.7141774685408
 20
-236.388455919031
 40
0.3157169230760431
 50
295.1944106485464
 51
360.0
 73
     1
 72
     1
 10
-226.3984605454642
 20
-236.388455919031
 11
-226.3984605454642
 21
-235.7844312999704
 72
     2
 10
-226.7141774685408
 20
-235.7844312999704
 40
0.3157169230766215
 50
0.0
 51
90.0
 73
     1
 72
     1
 10
-226.7141774685408
 20
-235.4687143768942
 11
-228.1900107295504
 21
-235.4687143768942
 72
     2
 10
-228.1900107295504
 20
-235.7844312999704
 40
0.3157169230761951
 50
90.0
 51
180.0
 73
     1
 72
     1
 10
-228.5057276526261
 20
-235.7844312999704
 11
-228.5057276526261
 21
-240.1408863426875
 72
     2
 10
-228.1900107295504
 20
-240.1408863426875
 40
0.3157169230756836
 50
180.0
 51
270.0
 73
     1
 97
       12
330
188
330
219
330
187
330
22A
330
186
330
229
330
21A
330
21B
330
185
330
228
330
180
330
22B
 75
     1
 76
     0
 52
45.0
 41
0.1
 77
     0
 78
     1
 53
45.0
 43
0.0
 44
0.0
 45
-0.0707106781186548
 46
0.0707106781186548
 79
     0
 98
        1
 10
0.0
 20
0.0
  0
HATCH
  5
269
330
74
100
AcDbEntity
  8
1
  6
Continuous
 62
     2
100
AcDbHatch
 10
0.0
 20
0.0
 30
0.0
210
0.0
220
0.0
230
1.0
  2
_USER
 70
     0
 71
     1
 91
        4
 92
        1
 93
        8
 72
     2
 10
-228.7839054062969
 20
-235.1804034367376
 40
0.4242446153837989
 50
90.0
 51
180.0
 73
     1
 72
     1
 10
-229.2081500216797
 20
-235.1804034367376
 11
-229.2081500216797
 21
-240.7449142059379
 72
     2
 10
-228.7839054062969
 20
-240.7449142059379
 40
0.4242446153828041
 50
180.0
 51
270.0
 73
     1
 72
     1
 10
-228.7839054062969
 20
-241.1691588213211
 11
-223.3105933155801
 21
-241.1691588213211
 72
     2
 10
-223.3105933155801
 20
-240.7449142059379
 40
0.424244615383202
 50
270.0
 51
360.0
 73
     1
 72
     1
 10
-222.8863487001962
 20
-240.7449142059379
 11
-222.8863487001962
 21
-235.1804034367376
 72
     2
 10
-223.3105933155801
 20
-235.1804034367376
 40
0.4242446153838841
 50
0.0
 51
90.0
 73
     1
 72
     1
 10
-223.3105933155801
 20
-234.7561588213538
 11
-228.7839054062969
 21
-234.7561588213538
 97
        8
330
226
330
183
330
225
330
184
330
21C
330
181
330
227
330
182
 92
       16
 93
        1
 72
     2
 10
-226.1643197557794
 20
-237.4992856650931
 40
0.470978932778479
 50
0.0
 51
360.0
 73
     1
 97
        1
330
23A
 92
       16
 93
        8
 72
     2
 10
-226.1405047411066
 20
-237.4992856650931
 40
0.9118481501444712
 50
295.3740086781781
 51
424.6259913218036
 73
     1
 72
     2
 10
-225.6144620430187
 20
-236.3901440651253
 40
0.315716923076792
 50
115.3740086783452
 51
180.0
 73
     0
 72
     1
 10
-225.9301789660955
 20
-236.3901440651253
 11
-225.9301789660955
 21
-235.7846087766185
 72
     2
 10
-225.6144620430187
 20
-235.7846087766185
 40
0.3157169230760711
 50
180.0
 51
269.8110329574541
 73
     0
 72
     2
 10
-225.6088459077087
 20
-237.4874437241876
 40
2.018561131933351
 50
269.8110329575866
 51
450.1889670424133
 73
     0
 72
     2
 10
-225.6144620430187
 20
-239.1902786717566
 40
0.315716923076792
 50
90.1889670425458
 51
180.0
 73
     0
 72
     1
 10
-225.9301789660955
 20
-239.1902786717566
 11
-225.9301789660955
 21
-238.6084272650616
 72
     2
 10
-225.6144620430187
 20
-238.6084272650616
 40
0.3157169230766099
 50
180.0
 51
244.6259913216548
 73
     0
 97
        8
330
234
330
210
330
1BC
330
233
330
211
330
212
330
1BB
330
20F
 92
       16
 93
       12
 72
     1
 10
-228.1900107295504
 20
-240.4566032657642
 11
-226.7141774685408
 21
-240.4566032657642
 72
     2
 10
-226.7141774685408
 20
-240.1408863426875
 40
0.3157169230766783
 50
270.0
 51
360.0
 73
     1
 72
     1
 10
-226.3984605454642
 20
-240.1408863426875
 11
-226.3984605454642
 21
-238.6101154111559
 72
     2
 10
-226.7141774685408
 20
-238.6101154111559
 40
0.3157169230766215
 50
0.0
 51
64.80558935145369
 73
     1
 72
     2
 10
-226.1915930209658
 20
-237.4992856650931
 40
0.9118975235576268
 50
115.1944106485116
 51
244.8055893514702
 73
     0
 72
     2
 10
-226.7141774685408
 20
-236.388455919031
 40
0.3157169230760431
 50
295.1944106485464
 51
360.0
 73
     1
 72
     1
 10
-226.3984605454642
 20
-236.388455919031
 11
-226.3984605454642
 21
-235.7844312999704
 72
     2
 10
-226.7141774685408
 20
-235.7844312999704
 40
0.3157169230766215
 50
0.0
 51
90.0
 73
     1
 72
     1
 10
-226.7141774685408
 20
-235.4687143768942
 11
-228.1900107295504
 21
-235.4687143768942
 72
     2
 10
-228.1900107295504
 20
-235.7844312999704
 40
0.3157169230761951
 50
90.0
 51
180.0
 73
     1
 72
     1
 10
-228.5057276526261
 20
-235.7844312999704
 11
-228.5057276526261
 21
-240.1408863426875
 72
     2
 10
-228.1900107295504
 20
-240.1408863426875
 40
0.3157169230756836
 50
180.0
 51
270.0
 73
     1
 97
       12
330
188
330
219
330
187
330
22A
330
186
330
229
330
21A
330
21B
330
185
330
228
330
180
330
22B
 75
     1
 76
     0
 52
45.0
 41
0.1
 77
     0
 78
     1
 53
45.0
 43
0.0
 44
0.0
 45
-0.0707106781186548
 46
0.0707106781186548
 79
     0
 98
        1
 10
0.0
 20
0.0
  0
HATCH
  5
26A
330
74
100
AcDbEntity
  8
1
  6
Continuous
 62
     2
100
AcDbHatch
 10
0.0
 20
0.0
 30
0.0
210
0.0
220
0.0
230
1.0
  2
_USER
 70
     0
 71
     1
 91
        2
 92
        1
 93
       12
 72
     2
 10
-214.1087414023076
 20
-236.2830635832415
 40
1.526904761905797
 50
90.0
 51
270.0
 73
     1
 72
     1
 10
-214.1087414023076
 20
-237.8099683451468
 11
-210.9584216785266
 21
-237.8099683451468
 72
     1
 10
-210.9584216785266
 20
-237.8099683451468
 11
-210.9584216785266
 21
-237.1119547397043
 72
     1
 10
-210.9584216785266
 20
-237.1119547397043
 11
-212.2943495049543
 21
-237.1119547397043
 72
     1
 10
-212.2943495049543
 20
-237.1119547397043
 11
-212.2943495049543
 21
-236.6320703859626
 72
     1
 10
-212.2943495049543
 20
-236.6320703859626
 11
-210.9584216785266
 21
-236.6320703859626
 72
     1
 10
-210.9584216785266
 20
-236.6320703859626
 11
-210.9584216785266
 21
-235.9340567805203
 72
     1
 10
-210.9584216785266
 20
-235.9340567805203
 11
-212.2943495049543
 21
-235.9340567805203
 72
     1
 10
-212.2943495049543
 20
-235.9340567805203
 11
-212.2943495049543
 21
-235.4541724267786
 72
     1
 10
-212.2943495049543
 20
-235.4541724267786
 11
-210.9584216785266
 21
-235.4541724267786
 72
     1
 10
-210.9584216785266
 20
-235.4541724267786
 11
-210.9584216785266
 21
-234.7561588213357
 72
     1
 10
-210.9584216785266
 20
-234.7561588213357
 11
-214.1087414023076
 21
-234.7561588213357
 97
       12
330
177
330
171
330
198
330
197
330
196
330
195
330
172
330
173
330
174
330
175
330
217
330
176
 92
       16
 93
        4
 72
     2
 10
-213.6927293557961
 20
-236.2830635832415
 40
0.7717997786796198
 50
141.8795802028454
 51
218.1204197971612
 73
     1
 72
     2
 10
-213.8924693921424
 20
-236.439794761362
 40
0.5179085730134372
 50
218.1204197971511
 51
321.8795802028566
 73
     1
 72
     2
 10
-214.0922094284886
 20
-236.2830635832415
 40
0.77179977867969
 50
321.8795802028388
 51
398.1204197971546
 73
     1
 72
     2
 10
-213.8924693921424
 20
-236.1263324051211
 40
0.5179085730135266
 50
38.12041979714334
 51
141.8795802028489
 73
     1
 97
        4
330
224
330
223
330
21E
330
21D
 75
     1
 76
     0
 52
45.0
 41
0.1
 77
     0
 78
     1
 53
45.0
 43
0.0
 44
0.0
 45
-0.0707106781186548
 46
0.0707106781186548
 79
     0
 98
        1
 10
0.0
 20
0.0
  0
HATCH
  5
26B
330
74
100
AcDbEntity
  8
1
  6
Continuous
 62
     2
100
AcDbHatch
 10
0.0
 20
0.0
 30
0.0
210
0.0
220
0.0
230
1.0
  2
_USER
 70
     0
 71
     1
 91
        2
 92
        1
 93
       12
 72
     2
 10
-214.1087414023076
 20
-236.2830635832415
 40
1.526904761905797
 50
90.0
 51
270.0
 73
     1
 72
     1
 10
-214.1087414023076
 20
-237.8099683451468
 11
-210.9584216785266
 21
-237.8099683451468
 72
     1
 10
-210.9584216785266
 20
-237.8099683451468
 11
-210.9584216785266
 21
-237.1119547397043
 72
     1
 10
-210.9584216785266
 20
-237.1119547397043
 11
-212.2943495049543
 21
-237.1119547397043
 72
     1
 10
-212.2943495049543
 20
-237.1119547397043
 11
-212.2943495049543
 21
-236.6320703859626
 72
     1
 10
-212.2943495049543
 20
-236.6320703859626
 11
-210.9584216785266
 21
-236.6320703859626
 72
     1
 10
-210.9584216785266
 20
-236.6320703859626
 11
-210.9584216785266
 21
-235.9340567805203
 72
     1
 10
-210.9584216785266
 20
-235.9340567805203
 11
-212.2943495049543
 21
-235.9340567805203
 72
     1
 10
-212.2943495049543
 20
-235.9340567805203
 11
-212.2943495049543
 21
-235.4541724267786
 72
     1
 10
-212.2943495049543
 20
-235.4541724267786
 11
-210.9584216785266
 21
-235.4541724267786
 72
     1
 10
-210.9584216785266
 20
-235.4541724267786
 11
-210.9584216785266
 21
-234.7561588213357
 72
     1
 10
-210.9584216785266
 20
-234.7561588213357
 11
-214.1087414023076
 21
-234.7561588213357
 97
       12
330
177
330
171
330
198
330
197
330
196
330
195
330
172
330
173
330
174
330
175
330
217
330
176
 92
       16
 93
        4
 72
     2
 10
-213.6927293557961
 20
-236.2830635832415
 40
0.7717997786796198
 50
141.8795802028454
 51
218.1204197971612
 73
     1
 72
     2
 10
-213.8924693921424
 20
-236.439794761362
 40
0.5179085730134372
 50
218.1204197971511
 51
321.8795802028566
 73
     1
 72
     2
 10
-214.0922094284886
 20
-236.2830635832415
 40
0.77179977867969
 50
321.8795802028388
 51
398.1204197971546
 73
     1
 72
     2
 10
-213.8924693921424
 20
-236.1263324051211
 40
0.5179085730135266
 50
38.12041979714334
 51
141.8795802028489
 73
     1
 97
        4
330
224
330
223
330
21E
330
21D
 75
     1
 76
     0
 52
45.0
 41
0.1
 77
     0
 78
     1
 53
45.0
 43
0.0
 44
0.0
 45
-0.0707106781186548
 46
0.0707106781186548
 79
     0
 98
        1
 10
0.0
 20
0.0
  0
HATCH
  5
26C
330
74
100
AcDbEntity
  8
1
  6
Continuous
 62
     2
100
AcDbHatch
 10
0.0
 20
0.0
 30
0.0
210
0.0
220
0.0
230
1.0
  2
_USER
 70
     0
 71
     1
 91
        2
 92
        1
 93
        4
 72
     2
 10
-218.1343567647692
 20
-239.6422540594159
 40
1.458034083651503
 50
117.5481481756634
 51
242.4518518243366
 73
     1
 72
     2
 10
-217.8534168729359
 20
-239.1036790491125
 40
2.065479772208623
 50
242.451851824341
 51
297.5481481756856
 73
     1
 72
     2
 10
-217.5724769811026
 20
-239.6422540594159
 40
1.458034083652003
 50
297.548148175701
 51
422.451851824299
 73
     1
 72
     2
 10
-217.8534168729359
 20
-240.1808290697186
 40
2.065479772208492
 50
62.45185182430527
 51
117.5481481756682
 73
     1
 97
        4
330
222
330
21F
330
221
330
220
 92
       16
 93
        4
 72
     2
 10
-217.8534168729359
 20
-239.4855228812953
 40
0.5179085730132472
 50
38.12041979713961
 51
141.8795802028662
 73
     1
 72
     2
 10
-217.6536768365898
 20
-239.6422540594159
 40
0.7717997786794633
 50
141.8795802028363
 51
218.1204197971637
 73
     1
 72
     2
 10
-217.8534168729359
 20
-239.7989852375359
 40
0.5179085730136828
 50
218.1204197971857
 51
321.8795802028085
 73
     1
 72
     2
 10
-218.0531569092823
 20
-239.6422540594159
 40
0.7717997786796421
 50
321.8795802028467
 51
398.1204197971533
 73
     1
 97
        4
330
205
330
206
330
207
330
204
 75
     1
 76
     0
 52
45.0
 41
0.1
 77
     0
 78
     1
 53
45.0
 43
0.0
 44
0.0
 45
-0.0707106781186548
 46
0.0707106781186548
 79
     0
 98
        1
 10
0.0
 20
0.0
  0
HATCH
  5
26D
330
74
100
AcDbEntity
  8
1
  6
Continuous
 62
     2
100
AcDbHatch
 10
0.0
 20
0.0
 30
0.0
210
0.0
220
0.0
230
1.0
  2
_USER
 70
     0
 71
     1
 91
        2
 92
        1
 93
        4
 72
     2
 10
-218.1343567647692
 20
-239.6422540594159
 40
1.458034083651503
 50
117.5481481756634
 51
242.4518518243366
 73
     1
 72
     2
 10
-217.8534168729359
 20
-239.1036790491125
 40
2.065479772208623
 50
242.451851824341
 51
297.5481481756856
 73
     1
 72
     2
 10
-217.5724769811026
 20
-239.6422540594159
 40
1.458034083652003
 50
297.548148175701
 51
422.451851824299
 73
     1
 72
     2
 10
-217.8534168729359
 20
-240.1808290697186
 40
2.065479772208492
 50
62.45185182430527
 51
117.5481481756682
 73
     1
 97
        4
330
222
330
21F
330
221
330
220
 92
       16
 93
        4
 72
     2
 10
-217.8534168729359
 20
-239.4855228812953
 40
0.5179085730132472
 50
38.12041979713961
 51
141.8795802028662
 73
     1
 72
     2
 10
-217.6536768365898
 20
-239.6422540594159
 40
0.7717997786794633
 50
141.8795802028363
 51
218.1204197971637
 73
     1
 72
     2
 10
-217.8534168729359
 20
-239.7989852375359
 40
0.5179085730136828
 50
218.1204197971857
 51
321.8795802028085
 73
     1
 72
     2
 10
-218.0531569092823
 20
-239.6422540594159
 40
0.7717997786796421
 50
321.8795802028467
 51
398.1204197971533
 73
     1
 97
        4
330
205
330
206
330
207
330
204
 75
     1
 76
     0
 52
45.0
 41
0.1
 77
     0
 78
     1
 53
45.0
 43
0.0
 44
0.0
 45
-0.0707106781186548
 46
0.0707106781186548
 79
     0
 98
        1
 10
0.0
 20
0.0
  0
HATCH
  5
26E
330
74
100
AcDbEntity
  8
1
  6
Continuous
 62
     2
100
AcDbHatch
 10
0.0
 20
0.0
 30
0.0
210
0.0
220
0.0
230
1.0
  2
_USER
 70
     0
 71
     1
 91
        2
 92
        1
 93
        6
 72
     1
 10
-222.4092316193294
 20
-234.7561588213357
 11
-222.4092316193294
 21
-237.8099683451468
 72
     1
 10
-222.4092316193294
 20
-237.8099683451468
 11
-221.1687272090753
 21
-237.8099683451468
 72
     1
 10
-221.1687272090753
 20
-237.8099683451468
 11
-221.1687272090753
 21
-236.866890104003
 72
     1
 10
-221.1687272090753
 20
-236.866890104003
 11
-220.409959621295
 21
-236.866890104003
 72
     2
 10
-220.409959621295
 20
-235.8115244626693
 40
1.055365641333708
 50
270.0
 51
450.0
 73
     1
 72
     1
 10
-220.409959621295
 20
-234.7561588213357
 11
-222.4092316193294
 21
-234.7561588213357
 97
        6
330
22C
330
189
330
17F
330
17E
330
18B
330
18A
 92
       16
 93
        4
 72
     1
 10
-220.8514321475334
 20
-235.4192646667758
 11
-221.1687272090753
 21
-235.4192646667758
 72
     1
 10
-221.1687272090753
 20
-235.4192646667758
 11
-221.1687272090753
 21
-236.124992316118
 72
     1
 10
-221.1687272090753
 20
-236.124992316118
 11
-220.8514321475334
 21
-236.124992316118
 72
     2
 10
-220.8514321475334
 20
-235.7721284914468
 40
0.3528638246712035
 50
270.0
 51
450.0
 73
     1
 97
        4
330
18C
330
17D
330
18D
330
218
 75
     1
 76
     0
 52
45.0
 41
0.1
 77
     0
 78
     1
 53
45.0
 43
0.0
 44
0.0
 45
-0.0707106781186548
 46
0.0707106781186548
 79
     0
 98
        1
 10
0.0
 20
0.0
  0
HATCH
  5
26F
330
74
100
AcDbEntity
  8
1
  6
Continuous
 62
     2
100
AcDbHatch
 10
0.0
 20
0.0
 30
0.0
210
0.0
220
0.0
230
1.0
  2
_USER
 70
     0
 71
     1
 91
        2
 92
        1
 93
        6
 72
     1
 10
-222.4092316193294
 20
-234.7561588213357
 11
-222.4092316193294
 21
-237.8099683451468
 72
     1
 10
-222.4092316193294
 20
-237.8099683451468
 11
-221.1687272090753
 21
-237.8099683451468
 72
     1
 10
-221.1687272090753
 20
-237.8099683451468
 11
-221.1687272090753
 21
-236.866890104003
 72
     1
 10
-221.1687272090753
 20
-236.866890104003
 11
-220.409959621295
 21
-236.866890104003
 72
     2
 10
-220.409959621295
 20
-235.8115244626693
 40
1.055365641333708
 50
270.0
 51
450.0
 73
     1
 72
     1
 10
-220.409959621295
 20
-234.7561588213357
 11
-222.4092316193294
 21
-234.7561588213357
 97
        6
330
22C
330
189
330
17F
330
17E
330
18B
330
18A
 92
       16
 93
        4
 72
     1
 10
-220.8514321475334
 20
-235.4192646667758
 11
-221.1687272090753
 21
-235.4192646667758
 72
     1
 10
-221.1687272090753
 20
-235.4192646667758
 11
-221.1687272090753
 21
-236.124992316118
 72
     1
 10
-221.1687272090753
 20
-236.124992316118
 11
-220.8514321475334
 21
-236.124992316118
 72
     2
 10
-220.8514321475334
 20
-235.7721284914468
 40
0.3528638246712035
 50
270.0
 51
450.0
 73
     1
 97
        4
330
18C
330
17D
330
18D
330
218
 75
     1
 76
     0
 52
45.0
 41
0.1
 77
     0
 78
     1
 53
45.0
 43
0.0
 44
0.0
 45
-0.0707106781186548
 46
0.0707106781186548
 79
     0
 98
        1
 10
0.0
 20
0.0
  0
HATCH
  5
270
330
74
100
AcDbEntity
  8
1
  6
Continuous
 62
     2
100
AcDbHatch
 10
0.0
 20
0.0
 30
0.0
210
0.0
220
0.0
230
1.0
  2
_USER
 70
     0
 71
     1
 91
        1
 92
        1
 93
       12
 72
     1
 10
-202.7949484248962
 20
-234.7561588213357
 11
-201.392224207149
 21
-234.7561588213357
 72
     1
 10
-201.392224207149
 20
-234.7561588213357
 11
-202.6947538379155
 21
-236.2291093513719
 72
     1
 10
-202.6947538379155
 20
-236.2291093513719
 11
-201.2968007909752
 21
-237.8099683451468
 72
     1
 10
-201.2968007909752
 20
-237.8099683451468
 11
-202.6995250087235
 21
-237.8099683451468
 72
     1
 10
-202.6995250087235
 20
-237.8099683451468
 11
-203.396115946789
 21
-237.0222365598531
 72
     1
 10
-203.396115946789
 20
-237.0222365598531
 11
-204.0927068848547
 21
-237.8099683451468
 72
     1
 10
-204.0927068848547
 20
-237.8099683451468
 11
-205.4954311026029
 21
-237.8099683451468
 72
     1
 10
-205.4954311026029
 20
-237.8099683451468
 11
-204.0974780556626
 21
-236.2291093513719
 72
     1
 10
-204.0974780556626
 20
-236.2291093513719
 11
-205.4000076864301
 21
-234.7561588213357
 72
     1
 10
-205.4000076864301
 20
-234.7561588213357
 11
-203.9972834686808
 21
-234.7561588213357
 72
     1
 10
-203.9972834686808
 20
-234.7561588213357
 11
-203.396115946789
 21
-235.4359821428911
 72
     1
 10
-203.396115946789
 20
-235.4359821428911
 11
-202.7949484248962
 21
-234.7561588213357
 97
       12
330
158
330
1B1
330
1B0
330
1AF
330
1AE
330
159
330
15A
330
156
330
157
330
1B4
330
1B3
330
1B2
 75
     1
 76
     0
 52
45.0
 41
0.1
 77
     0
 78
     1
 53
45.0
 43
0.0
 44
0.0
 45
-0.0707106781186548
 46
0.0707106781186548
 79
     0
 98
        1
 10
0.0
 20
0.0
  0
HATCH
  5
271
330
74
100
AcDbEntity
  8
1
  6
Continuous
 62
     2
100
AcDbHatch
 10
0.0
 20
0.0
 30
0.0
210
0.0
220
0.0
230
1.0
  2
_USER
 70
     0
 71
     1
 91
        1
 92
        1
 93
       12
 72
     1
 10
-202.7949484248962
 20
-234.7561588213357
 11
-201.392224207149
 21
-234.7561588213357
 72
     1
 10
-201.392224207149
 20
-234.7561588213357
 11
-202.6947538379155
 21
-236.2291093513719
 72
     1
 10
-202.6947538379155
 20
-236.2291093513719
 11
-201.2968007909752
 21
-237.8099683451468
 72
     1
 10
-201.2968007909752
 20
-237.8099683451468
 11
-202.6995250087235
 21
-237.8099683451468
 72
     1
 10
-202.6995250087235
 20
-237.8099683451468
 11
-203.396115946789
 21
-237.0222365598531
 72
     1
 10
-203.396115946789
 20
-237.0222365598531
 11
-204.0927068848547
 21
-237.8099683451468
 72
     1
 10
-204.0927068848547
 20
-237.8099683451468
 11
-205.4954311026029
 21
-237.8099683451468
 72
     1
 10
-205.4954311026029
 20
-237.8099683451468
 11
-204.0974780556626
 21
-236.2291093513719
 72
     1
 10
-204.0974780556626
 20
-236.2291093513719
 11
-205.4000076864301
 21
-234.7561588213357
 72
     1
 10
-205.4000076864301
 20
-234.7561588213357
 11
-203.9972834686808
 21
-234.7561588213357
 72
     1
 10
-203.9972834686808
 20
-234.7561588213357
 11
-203.396115946789
 21
-235.4359821428911
 72
     1
 10
-203.396115946789
 20
-235.4359821428911
 11
-202.7949484248962
 21
-234.7561588213357
 97
       12
330
158
330
1B1
330
1B0
330
1AF
330
1AE
330
159
330
15A
330
156
330
157
330
1B4
330
1B3
330
1B2
 75
     1
 76
     0
 52
45.0
 41
0.1
 77
     0
 78
     1
 53
45.0
 43
0.0
 44
0.0
 45
-0.0707106781186548
 46
0.0707106781186548
 79
     0
 98
        1
 10
0.0
 20
0.0
  0
HATCH
  5
272
330
74
100
AcDbEntity
  8
1
  6
Continuous
 62
     2
100
AcDbHatch
 10
0.0
 20
0.0
 30
0.0
210
0.0
220
0.0
230
1.0
  2
_USER
 70
     0
 71
     1
 91
        1
 92
        1
 93
        4
 72
     1
 10
-205.6147103728198
 20
-234.7561588213357
 11
-205.6147103728198
 21
-237.8099683451468
 72
     1
 10
-205.6147103728198
 20
-237.8099683451468
 11
-206.8552147830727
 21
-237.8099683451468
 72
     1
 10
-206.8552147830727
 20
-237.8099683451468
 11
-206.8552147830727
 21
-234.7561588213357
 72
     1
 10
-206.8552147830727
 20
-234.7561588213357
 11
-205.6147103728198
 21
-234.7561588213357
 97
        4
330
1AC
330
15B
330
1AB
330
1AD
 75
     1
 76
     0
 52
45.0
 41
0.1
 77
     0
 78
     1
 53
45.0
 43
0.0
 44
0.0
 45
-0.0707106781186548
 46
0.0707106781186548
 79
     0
 98
        1
 10
0.0
 20
0.0
  0
HATCH
  5
273
330
74
100
AcDbEntity
  8
1
  6
Continuous
 62
     2
100
AcDbHatch
 10
0.0
 20
0.0
 30
0.0
210
0.0
220
0.0
230
1.0
  2
_USER
 70
     0
 71
     1
 91
        1
 92
        1
 93
        4
 72
     1
 10
-205.6147103728198
 20
-234.7561588213357
 11
-205.6147103728198
 21
-237.8099683451468
 72
     1
 10
-205.6147103728198
 20
-237.8099683451468
 11
-206.8552147830727
 21
-237.8099683451468
 72
     1
 10
-206.8552147830727
 20
-237.8099683451468
 11
-206.8552147830727
 21
-234.7561588213357
 72
     1
 10
-206.8552147830727
 20
-234.7561588213357
 11
-205.6147103728198
 21
-234.7561588213357
 97
        4
330
1AC
330
15B
330
1AB
330
1AD
 75
     1
 76
     0
 52
45.0
 41
0.1
 77
     0
 78
     1
 53
45.0
 43
0.0
 44
0.0
 45
-0.0707106781186548
 46
0.0707106781186548
 79
     0
 98
        1
 10
0.0
 20
0.0
  0
HATCH
  5
274
330
74
100
AcDbEntity
  8
1
  6
Continuous
 62
     2
100
AcDbHatch
 10
0.0
 20
0.0
 30
0.0
210
0.0
220
0.0
230
1.0
  2
_USER
 70
     0
 71
     1
 91
        2
 92
        1
 93
        8
 72
     1
 10
-206.0051543763518
 20
-241.1691588213211
 11
-207.2456587866057
 21
-241.1691588213211
 72
     1
 10
-207.2456587866057
 20
-241.1691588213211
 11
-207.4571388400815
 21
-240.6281982771033
 72
     1
 10
-207.4571388400815
 20
-240.6281982771033
 11
-208.5895804167553
 21
-240.6281982771033
 72
     1
 10
-208.5895804167553
 20
-240.6281982771033
 11
-208.8010604702311
 21
-241.1691588213211
 72
     1
 10
-208.8010604702311
 20
-241.1691588213211
 11
-210.0415648804841
 21
-241.1691588213211
 72
     1
 10
-210.0415648804841
 20
-241.1691588213211
 11
-208.6436118335448
 21
-238.1153492975101
 72
     1
 10
-208.6436118335448
 20
-238.1153492975101
 11
-207.4031074232921
 21
-238.1153492975101
 72
     1
 10
-207.4031074232921
 20
-238.1153492975101
 11
-206.0051543763518
 21
-241.1691588213211
 97
        8
330
1A7
330
161
330
1A6
330
1A9
330
15E
330
1A8
330
15F
330
160
 92
       16
 93
        3
 72
     1
 10
-208.3235248656103
 20
-239.9476350117967
 11
-207.7231943912278
 21
-239.9476350117967
 72
     1
 10
-207.7231943912278
 20
-239.9476350117967
 11
-208.0233596284179
 21
-239.17982004581
 72
     1
 10
-208.0233596284179
 20
-239.17982004581
 11
-208.3235248656103
 21
-239.9476350117967
 97
        3
330
15D
330
15C
330
1AA
 75
     1
 76
     0
 52
45.0
 41
0.1
 77
     0
 78
     1
 53
45.0
 43
0.0
 44
0.0
 45
-0.0707106781186548
 46
0.0707106781186548
 79
     0
 98
        1
 10
0.0
 20
0.0
  0
HATCH
  5
275
330
74
100
AcDbEntity
  8
1
  6
Continuous
 62
     2
100
AcDbHatch
 10
0.0
 20
0.0
 30
0.0
210
0.0
220
0.0
230
1.0
  2
_USER
 70
     0
 71
     1
 91
        2
 92
        1
 93
        8
 72
     1
 10
-206.0051543763518
 20
-241.1691588213211
 11
-207.2456587866057
 21
-241.1691588213211
 72
     1
 10
-207.2456587866057
 20
-241.1691588213211
 11
-207.4571388400815
 21
-240.6281982771033
 72
     1
 10
-207.4571388400815
 20
-240.6281982771033
 11
-208.5895804167553
 21
-240.6281982771033
 72
     1
 10
-208.5895804167553
 20
-240.6281982771033
 11
-208.8010604702311
 21
-241.1691588213211
 72
     1
 10
-208.8010604702311
 20
-241.1691588213211
 11
-210.0415648804841
 21
-241.1691588213211
 72
     1
 10
-210.0415648804841
 20
-241.1691588213211
 11
-208.6436118335448
 21
-238.1153492975101
 72
     1
 10
-208.6436118335448
 20
-238.1153492975101
 11
-207.4031074232921
 21
-238.1153492975101
 72
     1
 10
-207.4031074232921
 20
-238.1153492975101
 11
-206.0051543763518
 21
-241.1691588213211
 97
        8
330
1A7
330
161
330
1A6
330
1A9
330
15E
330
1A8
330
15F
330
160
 92
       16
 93
        3
 72
     1
 10
-208.3235248656103
 20
-239.9476350117967
 11
-207.7231943912278
 21
-239.9476350117967
 72
     1
 10
-207.7231943912278
 20
-239.9476350117967
 11
-208.0233596284179
 21
-239.17982004581
 72
     1
 10
-208.0233596284179
 20
-239.17982004581
 11
-208.3235248656103
 21
-239.9476350117967
 97
        3
330
15D
330
15C
330
1AA
 75
     1
 76
     0
 52
45.0
 41
0.1
 77
     0
 78
     1
 53
45.0
 43
0.0
 44
0.0
 45
-0.0707106781186548
 46
0.0707106781186548
 79
     0
 98
        1
 10
0.0
 20
0.0
  0
HATCH
  5
276
330
74
100
AcDbEntity
  8
1
  6
Continuous
 62
     2
100
AcDbHatch
 10
0.0
 20
0.0
 30
0.0
210
0.0
220
0.0
230
1.0
  2
_USER
 70
     0
 71
     1
 91
        1
 92
        1
 93
        8
 72
     1
 10
-212.1990770196663
 20
-238.1153492975101
 11
-212.1990770196663
 21
-238.9006146036336
 72
     1
 10
-212.1990770196663
 20
-238.9006146036336
 11
-211.3879779821917
 21
-238.9006146036336
 72
     1
 10
-211.3879779821917
 20
-238.9006146036336
 11
-211.3879779821917
 21
-241.1691588213211
 72
     1
 10
-211.3879779821917
 20
-241.1691588213211
 11
-210.1951852800252
 21
-241.1691588213211
 72
     1
 10
-210.1951852800252
 20
-241.1691588213211
 11
-210.1951852800252
 21
-238.9006146036336
 72
     1
 10
-210.1951852800252
 20
-238.9006146036336
 11
-209.3840862425527
 21
-238.9006146036336
 72
     1
 10
-209.3840862425527
 20
-238.9006146036336
 11
-209.3840862425527
 21
-238.1153492975101
 72
     1
 10
-209.3840862425527
 20
-238.1153492975101
 11
-212.1990770196663
 21
-238.1153492975101
 97
        8
330
1A3
330
1A2
330
1A1
330
162
330
163
330
1A5
330
164
330
1A4
 75
     1
 76
     0
 52
45.0
 41
0.1
 77
     0
 78
     1
 53
45.0
 43
0.0
 44
0.0
 45
-0.0707106781186548
 46
0.0707106781186548
 79
     0
 98
        1
 10
0.0
 20
0.0
  0
HATCH
  5
277
330
74
100
AcDbEntity
  8
1
  6
Continuous
 62
     2
100
AcDbHatch
 10
0.0
 20
0.0
 30
0.0
210
0.0
220
0.0
230
1.0
  2
_USER
 70
     0
 71
     1
 91
        1
 92
        1
 93
        8
 72
     1
 10
-212.1990770196663
 20
-238.1153492975101
 11
-212.1990770196663
 21
-238.9006146036336
 72
     1
 10
-212.1990770196663
 20
-238.9006146036336
 11
-211.3879779821917
 21
-238.9006146036336
 72
     1
 10
-211.3879779821917
 20
-238.9006146036336
 11
-211.3879779821917
 21
-241.1691588213211
 72
     1
 10
-211.3879779821917
 20
-241.1691588213211
 11
-210.1951852800252
 21
-241.1691588213211
 72
     1
 10
-210.1951852800252
 20
-241.1691588213211
 11
-210.1951852800252
 21
-238.9006146036336
 72
     1
 10
-210.1951852800252
 20
-238.9006146036336
 11
-209.3840862425527
 21
-238.9006146036336
 72
     1
 10
-209.3840862425527
 20
-238.9006146036336
 11
-209.3840862425527
 21
-238.1153492975101
 72
     1
 10
-209.3840862425527
 20
-238.1153492975101
 11
-212.1990770196663
 21
-238.1153492975101
 97
        8
330
1A3
330
1A2
330
1A1
330
162
330
163
330
1A5
330
164
330
1A4
 75
     1
 76
     0
 52
45.0
 41
0.1
 77
     0
 78
     1
 53
45.0
 43
0.0
 44
0.0
 45
-0.0707106781186548
 46
0.0707106781186548
 79
     0
 98
        1
 10
0.0
 20
0.0
  0
HATCH
  5
278
330
74
100
AcDbEntity
  8
1
  6
Continuous
 62
     2
100
AcDbHatch
 10
0.0
 20
0.0
 30
0.0
210
0.0
220
0.0
230
1.0
  2
_USER
 70
     0
 71
     1
 91
        1
 92
        1
 93
       10
 72
     1
 10
-209.5270704359272
 20
-234.7561588213357
 11
-210.7198631380937
 21
-234.7561588213357
 72
     1
 10
-210.7198631380937
 20
-234.7561588213357
 11
-210.7198631380937
 21
-237.8099683451468
 72
     1
 10
-210.7198631380937
 20
-237.8099683451468
 11
-209.5270704359272
 21
-237.8099683451468
 72
     1
 10
-209.5270704359272
 20
-237.8099683451468
 11
-209.5270704359272
 21
-236.5011928349422
 72
     1
 10
-209.5270704359272
 20
-236.5011928349422
 11
-208.2865660256732
 21
-237.8099683451468
 72
     1
 10
-208.2865660256732
 20
-237.8099683451468
 11
-207.0937733235066
 21
-237.8099683451468
 72
     1
 10
-207.0937733235066
 20
-237.8099683451468
 11
-207.0937733235066
 21
-234.7561588213357
 72
     1
 10
-207.0937733235066
 20
-234.7561588213357
 11
-208.2865660256732
 21
-234.7561588213357
 72
     1
 10
-208.2865660256732
 20
-234.7561588213357
 11
-208.2865660256732
 21
-236.0649343315408
 72
     1
 10
-208.2865660256732
 20
-236.0649343315408
 11
-209.5270704359272
 21
-234.7561588213357
 97
       10
330
19D
330
167
330
168
330
169
330
16A
330
1A0
330
165
330
19F
330
19E
330
166
 75
     1
 76
     0
 52
45.0
 41
0.1
 77
     0
 78
     1
 53
45.0
 43
0.0
 44
0.0
 45
-0.0707106781186548
 46
0.0707106781186548
 79
     0
 98
        1
 10
0.0
 20
0.0
  0
HATCH
  5
279
330
74
100
AcDbEntity
  8
1
  6
Continuous
 62
     2
100
AcDbHatch
 10
0.0
 20
0.0
 30
0.0
210
0.0
220
0.0
230
1.0
  2
_USER
 70
     0
 71
     1
 91
        1
 92
        1
 93
       10
 72
     1
 10
-209.5270704359272
 20
-234.7561588213357
 11
-210.7198631380937
 21
-234.7561588213357
 72
     1
 10
-210.7198631380937
 20
-234.7561588213357
 11
-210.7198631380937
 21
-237.8099683451468
 72
     1
 10
-210.7198631380937
 20
-237.8099683451468
 11
-209.5270704359272
 21
-237.8099683451468
 72
     1
 10
-209.5270704359272
 20
-237.8099683451468
 11
-209.5270704359272
 21
-236.5011928349422
 72
     1
 10
-209.5270704359272
 20
-236.5011928349422
 11
-208.2865660256732
 21
-237.8099683451468
 72
     1
 10
-208.2865660256732
 20
-237.8099683451468
 11
-207.0937733235066
 21
-237.8099683451468
 72
     1
 10
-207.0937733235066
 20
-237.8099683451468
 11
-207.0937733235066
 21
-234.7561588213357
 72
     1
 10
-207.0937733235066
 20
-234.7561588213357
 11
-208.2865660256732
 21
-234.7561588213357
 72
     1
 10
-208.2865660256732
 20
-234.7561588213357
 11
-208.2865660256732
 21
-236.0649343315408
 72
     1
 10
-208.2865660256732
 20
-236.0649343315408
 11
-209.5270704359272
 21
-234.7561588213357
 97
       10
330
19D
330
167
330
168
330
169
330
16A
330
1A0
330
165
330
19F
330
19E
330
166
 75
     1
 76
     0
 52
45.0
 41
0.1
 77
     0
 78
     1
 53
45.0
 43
0.0
 44
0.0
 45
-0.0707106781186548
 46
0.0707106781186548
 79
     0
 98
        1
 10
0.0
 20
0.0
  0
HATCH
  5
27A
330
74
100
AcDbEntity
  8
1
  6
Continuous
 62
     2
100
AcDbHatch
 10
0.0
 20
0.0
 30
0.0
210
0.0
220
0.0
230
1.0
  2
_USER
 70
     0
 71
     1
 91
        1
 92
        1
 93
       10
 72
     1
 10
-214.7755092563458
 20
-238.1153492975101
 11
-215.9683019585134
 21
-238.1153492975101
 72
     1
 10
-215.9683019585134
 20
-238.1153492975101
 11
-215.9683019585134
 21
-241.1691588213211
 72
     1
 10
-215.9683019585134
 20
-241.1691588213211
 11
-214.7755092563458
 21
-241.1691588213211
 72
     1
 10
-214.7755092563458
 20
-241.1691588213211
 11
-214.7755092563458
 21
-239.8603833111166
 72
     1
 10
-214.7755092563458
 20
-239.8603833111166
 11
-213.5350048460929
 21
-241.1691588213211
 72
     1
 10
-213.5350048460929
 20
-241.1691588213211
 11
-212.3422121439265
 21
-241.1691588213211
 72
     1
 10
-212.3422121439265
 20
-241.1691588213211
 11
-212.3422121439265
 21
-238.1153492975101
 72
     1
 10
-212.3422121439265
 20
-238.1153492975101
 11
-213.5350048460929
 21
-238.1153492975101
 72
     1
 10
-213.5350048460929
 20
-238.1153492975101
 11
-213.5350048460929
 21
-239.4241248077152
 72
     1
 10
-213.5350048460929
 20
-239.4241248077152
 11
-214.7755092563458
 21
-238.1153492975101
 97
       10
330
16C
330
16D
330
16E
330
19A
330
16F
330
170
330
199
330
19C
330
19B
330
16B
 75
     1
 76
     0
 52
45.0
 41
0.1
 77
     0
 78
     1
 53
45.0
 43
0.0
 44
0.0
 45
-0.0707106781186548
 46
0.0707106781186548
 79
     0
 98
        1
 10
0.0
 20
0.0
  0
HATCH
  5
27B
330
74
100
AcDbEntity
  8
1
  6
Continuous
 62
     2
100
AcDbHatch
 10
0.0
 20
0.0
 30
0.0
210
0.0
220
0.0
230
1.0
  2
_USER
 70
     0
 71
     1
 91
        1
 92
        1
 93
       10
 72
     1
 10
-214.7755092563458
 20
-238.1153492975101
 11
-215.9683019585134
 21
-238.1153492975101
 72
     1
 10
-215.9683019585134
 20
-238.1153492975101
 11
-215.9683019585134
 21
-241.1691588213211
 72
     1
 10
-215.9683019585134
 20
-241.1691588213211
 11
-214.7755092563458
 21
-241.1691588213211
 72
     1
 10
-214.7755092563458
 20
-241.1691588213211
 11
-214.7755092563458
 21
-239.8603833111166
 72
     1
 10
-214.7755092563458
 20
-239.8603833111166
 11
-213.5350048460929
 21
-241.1691588213211
 72
     1
 10
-213.5350048460929
 20
-241.1691588213211
 11
-212.3422121439265
 21
-241.1691588213211
 72
     1
 10
-212.3422121439265
 20
-241.1691588213211
 11
-212.3422121439265
 21
-238.1153492975101
 72
     1
 10
-212.3422121439265
 20
-238.1153492975101
 11
-213.5350048460929
 21
-238.1153492975101
 72
     1
 10
-213.5350048460929
 20
-238.1153492975101
 11
-213.5350048460929
 21
-239.4241248077152
 72
     1
 10
-213.5350048460929
 20
-239.4241248077152
 11
-214.7755092563458
 21
-238.1153492975101
 97
       10
330
16C
330
16D
330
16E
330
19A
330
16F
330
170
330
199
330
19C
330
19B
330
16B
 75
     1
 76
     0
 52
45.0
 41
0.1
 77
     0
 78
     1
 53
45.0
 43
0.0
 44
0.0
 45
-0.0707106781186548
 46
0.0707106781186548
 79
     0
 98
        1
 10
0.0
 20
0.0
  0
HATCH
  5
27C
330
74
100
AcDbEntity
  8
1
  6
Continuous
 62
     2
100
AcDbHatch
 10
0.0
 20
0.0
 30
0.0
210
0.0
220
0.0
230
1.0
  2
_USER
 70
     0
 71
     1
 91
        1
 92
        1
 93
       12
 72
     1
 10
-215.7773041952812
 20
-234.7561588213357
 11
-215.7773041952812
 21
-237.8099683451468
 72
     1
 10
-215.7773041952812
 20
-237.8099683451468
 11
-216.9700968974476
 21
-237.8099683451468
 72
     1
 10
-216.9700968974476
 20
-237.8099683451468
 11
-216.9700968974476
 21
-236.675696236303
 72
     1
 10
-216.9700968974476
 20
-236.675696236303
 11
-218.0197544753551
 21
-236.675696236303
 72
     1
 10
-218.0197544753551
 20
-236.675696236303
 11
-218.0197544753551
 21
-237.8099683451468
 72
     1
 10
-218.0197544753551
 20
-237.8099683451468
 11
-219.2125471775217
 21
-237.8099683451468
 72
     1
 10
-219.2125471775217
 20
-237.8099683451468
 11
-219.2125471775217
 21
-234.7561588213357
 72
     1
 10
-219.2125471775217
 20
-234.7561588213357
 11
-218.0197544753551
 21
-234.7561588213357
 72
     1
 10
-218.0197544753551
 20
-234.7561588213357
 11
-218.0197544753551
 21
-235.8249921546702
 72
     1
 10
-218.0197544753551
 20
-235.8249921546702
 11
-216.9700968974476
 21
-235.8249921546702
 72
     1
 10
-216.9700968974476
 20
-235.8249921546702
 11
-216.9700968974476
 21
-234.7561588213357
 72
     1
 10
-216.9700968974476
 20
-234.7561588213357
 11
-215.7773041952812
 21
-234.7561588213357
 97
       12
330
194
330
193
330
192
330
17A
330
17B
330
191
330
17C
330
190
330
18F
330
18E
330
178
330
179
 75
     1
 76
     0
 52
45.0
 41
0.1
 77
     0
 78
     1
 53
45.0
 43
0.0
 44
0.0
 45
-0.0707106781186548
 46
0.0707106781186548
 79
     0
 98
        1
 10
0.0
 20
0.0
  0
HATCH
  5
27D
330
74
100
AcDbEntity
  8
1
  6
Continuous
 62
     2
100
AcDbHatch
 10
0.0
 20
0.0
 30
0.0
210
0.0
220
0.0
230
1.0
  2
_USER
 70
     0
 71
     1
 91
        1
 92
        1
 93
       12
 72
     1
 10
-215.7773041952812
 20
-234.7561588213357
 11
-215.7773041952812
 21
-237.8099683451468
 72
     1
 10
-215.7773041952812
 20
-237.8099683451468
 11
-216.9700968974476
 21
-237.8099683451468
 72
     1
 10
-216.9700968974476
 20
-237.8099683451468
 11
-216.9700968974476
 21
-236.675696236303
 72
     1
 10
-216.9700968974476
 20
-236.675696236303
 11
-218.0197544753551
 21
-236.675696236303
 72
     1
 10
-218.0197544753551
 20
-236.675696236303
 11
-218.0197544753551
 21
-237.8099683451468
 72
     1
 10
-218.0197544753551
 20
-237.8099683451468
 11
-219.2125471775217
 21
-237.8099683451468
 72
     1
 10
-219.2125471775217
 20
-237.8099683451468
 11
-219.2125471775217
 21
-234.7561588213357
 72
     1
 10
-219.2125471775217
 20
-234.7561588213357
 11
-218.0197544753551
 21
-234.7561588213357
 72
     1
 10
-218.0197544753551
 20
-234.7561588213357
 11
-218.0197544753551
 21
-235.8249921546702
 72
     1
 10
-218.0197544753551
 20
-235.8249921546702
 11
-216.9700968974476
 21
-235.8249921546702
 72
     1
 10
-216.9700968974476
 20
-235.8249921546702
 11
-216.9700968974476
 21
-234.7561588213357
 72
     1
 10
-216.9700968974476
 20
-234.7561588213357
 11
-215.7773041952812
 21
-234.7561588213357
 97
       12
330
194
330
193
330
192
330
17A
330
17B
330
191
330
17C
330
190
330
18F
330
18E
330
178
330
179
 75
     1
 76
     0
 52
45.0
 41
0.1
 77
     0
 78
     1
 53
45.0
 43
0.0
 44
0.0
 45
-0.0707106781186548
 46
0.0707106781186548
 79
     0
 98
        1
 10
0.0
 20
0.0
  0
ENDBLK
  5
76
330
74
100
AcDbEntity
  8
0
100
AcDbBlockEnd
  0
BLOCK
  5
7A
330
77
100
AcDbEntity
  8
0
100
AcDbBlockBegin
  2
A4I_CS
 70
     0
 10
-103.9000003814923
 20
-253.4626588213376
 30
0.0
  3
A4I_CS
  1

  0
INSERT
  5
78
330
77
100
AcDbEntity
  8
1
100
AcDbBlockReference
  2
_punkt
 10
-103.9000003814923
 20
-248.4626588213374
 30
0.0
  0
INSERT
  5
79
330
77
100
AcDbEntity
  8
1
100
AcDbBlockReference
  2
_rahmen
 10
-103.9000003814923
 20
-253.4626588213376
 30
0.0
  0
ENDBLK
  5
7B
330
77
100
AcDbEntity
  8
0
100
AcDbBlockEnd
  0
BLOCK
  5
D1
330
CA
100
AcDbEntity
  8
0
100
AcDbBlockBegin
  2
*D16
 70
     1
 10
0.0
 20
0.0
 30
0.0
  3
*D16
  1

  0
LINE
  5
CB
330
CA
100
AcDbEntity
  8
1
  6
Continuous
 62
     2
100
AcDbLine
 10
-155.2000002860973
 20
-80.90000007152557
 30
0.0
 11
-155.2000002860973
 21
-74.70000007152558
 31
0.0
  0
LINE
  5
CC
330
CA
100
AcDbEntity
  8
1
  6
Continuous
 62
     2
100
AcDbLine
 10
-150.2000002860973
 20
-80.90000007152557
 30
0.0
 11
-155.9500002860973
 21
-80.90000007152557
 31
0.0
  0
LINE
  5
CD
330
CA
100
AcDbEntity
  8
1
  6
Continuous
 62
     2
100
AcDbLine
 10
-150.2000002860973
 20
-74.70000007152558
 30
0.0
 11
-155.9500002860973
 21
-74.70000007152558
 31
0.0
  0
SOLID
  5
CE
330
CA
100
AcDbEntity
  8
1
 62
     2
100
AcDbTrace
 10
-155.4303921568752
 20
-79.15000007152557
 30
0.0
 11
-154.9696084153194
 21
-79.15000007152557
 31
0.0
 12
-155.2000002860973
 22
-80.90000007152557
 32
0.0
 13
-155.2000002860973
 23
-80.90000007152557
 33
0.0
  0
SOLID
  5
CF
330
CA
100
AcDbEntity
  8
1
 62
     2
100
AcDbTrace
 10
-154.9696084153194
 20
-76.45000007152558
 30
0.0
 11
-155.4303921568752
 21
-76.45000007152558
 31
0.0
 12
-155.2000002860973
 22
-74.70000007152558
 32
0.0
 13
-155.2000002860973
 23
-74.70000007152558
 33
0.0
  0
MTEXT
  5
D0
330
CA
100
AcDbEntity
  8
1
 62
     3
100
AcDbMText
 10
-156.1250002860973
 20
-79.41875007152558
 30
0.0
 40
1.75
 41
0.0
 71
     7
 72
     1
  1
6,2
  7
CONVERTER_11
 11
0.0
 21
1.0
 31
0.0
 73
     1
 44
0.60024009603842
  0
ENDBLK
  5
D2
330
CA
100
AcDbEntity
  8
0
100
AcDbBlockEnd
  0
BLOCK
  5
136
330
12F
100
AcDbEntity
  8
0
100
AcDbBlockBegin
  2
*D17
 70
     1
 10
0.0
 20
0.0
 30
0.0
  3
*D17
  1

  0
LINE
  5
130
330
12F
100
AcDbEntity
  8
1
  6
Continuous
 62
     2
100
AcDbLine
 10
-150.1999999999949
 20
-64.70000004768363
 30
0.0
 11
-132.1999999999949
 21
-64.70000004768363
 31
0.0
  0
LINE
  5
131
330
12F
100
AcDbEntity
  8
1
  6
Continuous
 62
     2
100
AcDbLine
 10
-150.1999999999949
 20
-59.70000004768362
 30
0.0
 11
-150.1999999999949
 21
-65.45000004768363
 31
0.0
  0
LINE
  5
132
330
12F
100
AcDbEntity
  8
1
  6
Continuous
 62
     2
100
AcDbLine
 10
-132.1999999999949
 20
-59.70000004768362
 30
0.0
 11
-132.1999999999949
 21
-65.45000004768363
 31
0.0
  0
SOLID
  5
133
330
12F
100
AcDbEntity
  8
1
 62
     2
100
AcDbTrace
 10
-148.4499999999949
 20
-64.4696081769057
 30
0.0
 11
-148.4499999999949
 21
-64.93039191846157
 31
0.0
 12
-150.1999999999949
 22
-64.70000004768363
 32
0.0
 13
-150.1999999999949
 23
-64.70000004768363
 33
0.0
  0
SOLID
  5
134
330
12F
100
AcDbEntity
  8
1
 62
     2
100
AcDbTrace
 10
-133.9499999999949
 20
-64.93039191846157
 30
0.0
 11
-133.9499999999949
 21
-64.4696081769057
 31
0.0
 12
-132.1999999999949
 22
-64.70000004768363
 32
0.0
 13
-132.1999999999949
 23
-64.70000004768363
 33
0.0
  0
MTEXT
  5
135
330
12F
100
AcDbEntity
  8
1
 62
     3
100
AcDbMText
 10
-142.2499999999949
 20
-63.95000004768362
 30
0.0
 40
1.75
 41
0.0
 71
     7
 72
     1
  1
18
  7
CONVERTER_11
 11
0.9999999999970619
 21
2.424068405545306E-6
 31
0.0
 73
     1
 44
0.60024009603842
  0
ENDBLK
  5
137
330
12F
100
AcDbEntity
  8
0
100
AcDbBlockEnd
  0
BLOCK
  5
141
330
13A
100
AcDbEntity
  8
0
100
AcDbBlockBegin
  2
*D18
 70
     1
 10
0.0
 20
0.0
 30
0.0
  3
*D18
  1

  0
LINE
  5
13B
330
13A
100
AcDbEntity
  8
1
  6
Continuous
 62
     2
100
AcDbLine
 10
-155.1999999999949
 20
-59.70000004768362
 30
0.0
 11
-155.1999999999949
 21
-50.30000004768362
 31
0.0
  0
LINE
  5
13C
330
13A
100
AcDbEntity
  8
1
  6
Continuous
 62
     2
100
AcDbLine
 10
-150.1999999999949
 20
-59.70000004768362
 30
0.0
 11
-155.9499999999949
 21
-59.70000004768362
 31
0.0
  0
LINE
  5
13D
330
13A
100
AcDbEntity
  8
1
  6
Continuous
 62
     2
100
AcDbLine
 10
-150.1999999999949
 20
-50.30000004768362
 30
0.0
 11
-155.9499999999949
 21
-50.30000004768362
 31
0.0
  0
SOLID
  5
13E
330
13A
100
AcDbEntity
  8
1
 62
     2
100
AcDbTrace
 10
-155.4303918707728
 20
-57.95000004768362
 30
0.0
 11
-154.969608129217
 21
-57.95000004768362
 31
0.0
 12
-155.1999999999949
 22
-59.70000004768362
 32
0.0
 13
-155.1999999999949
 23
-59.70000004768362
 33
0.0
  0
SOLID
  5
13F
330
13A
100
AcDbEntity
  8
1
 62
     2
100
AcDbTrace
 10
-154.969608129217
 20
-52.05000004768362
 30
0.0
 11
-155.4303918707728
 21
-52.05000004768362
 31
0.0
 12
-155.1999999999949
 22
-50.30000004768362
 32
0.0
 13
-155.1999999999949
 23
-50.30000004768362
 33
0.0
  0
MTEXT
  5
140
330
13A
100
AcDbEntity
  8
1
 62
     3
100
AcDbMText
 10
-156.1249999999949
 20
-56.5861711569665
 30
0.0
 40
1.75
 41
0.0
 71
     7
 72
     1
  1
9,4
  7
CONVERTER_11
 11
0.0
 21
1.0
 31
0.0
 73
     1
 44
0.60024009603842
  0
ENDBLK
  5
142
330
13A
100
AcDbEntity
  8
0
100
AcDbBlockEnd
  0
ENDSEC
  0
SECTION
  2
ENTITIES
  0
INSERT
  5
7C
330
1F
100
AcDbEntity
  8
0
100
AcDbBlockReference
  2
Allg1
 10
-155.1617973713088
 20
-182.000000000002
 30
0.0
 41
2.0
 42
2.0
 43
2.0
  0
INSERT
  5
7D
330
1F
100
AcDbEntity
  8
0
100
AcDbBlockReference
  2
Drfsicht1
 10
-282.4000005722046
 20
-155.6000001430511
 30
0.0
 41
2.0
 42
2.0
 43
2.0
  0
INSERT
  5
7E
330
1F
100
AcDbEntity
  8
0
100
AcDbBlockReference
  2
Rckans1
 10
-170.000000000025
 20
-109.9999999999998
 30
0.0
 41
2.0
 42
2.0
 43
2.0
  0
INSERT
  5
7F
330
1F
100
AcDbEntity
  8
0
100
AcDbBlockReference
  2
SA_Links1
 10
-226.2000002861026
 20
-110.0
 30
0.0
 41
2.0
 42
2.0
 43
2.0
  0
INSERT
  5
80
330
1F
100
AcDbEntity
  8
0
100
AcDbBlockReference
  2
SA_Rechts1
 10
-348.6000007629498
 20
-109.9999999999998
 30
0.0
 41
2.0
 42
2.0
 43
2.0
  0
INSERT
  5
81
330
1F
100
AcDbEntity
  8
0
100
AcDbBlockReference
  2
Vordans1
 10
-282.3999999999998
 20
-109.9999999999998
 30
0.0
 41
2.0
 42
2.0
 43
2.0
  0
INSERT
  5
82
330
1F
100
AcDbEntity
  8
0
100
AcDbBlockReference
  2
A4I_CS
 10
-103.9000003814923
 20
-253.4626588213376
 30
0.0
  0
ENDSEC
  0
SECTION
  2
OBJECTS
  0
DICTIONARY
  5
C
330
0
100
AcDbDictionary
281
     1
  3
ACAD_GROUP
350
D
  3
ACAD_LAYOUT
350
1A
  3
ACAD_MATERIAL
350
3B
  3
ACAD_MLEADERSTYLE
350
280
  3
ACAD_MLINESTYLE
350
17
  3
ACAD_PLOTSETTINGS
350
19
  3
ACAD_PLOTSTYLENAME
350
E
  3
ACAD_VISUALSTYLE
350
2A
  3
AcDbVariableDictionary
350
27E
  0
DICTIONARY
  5
D
102
{ACAD_REACTORS
330
C
102
}
330
C
100
AcDbDictionary
281
     1
  0
DICTIONARY
  5
1A
102
{ACAD_REACTORS
330
C
102
}
330
C
100
AcDbDictionary
281
     1
  3
Layout1
350
1E
  3
Layout2
350
26
  3
Model
350
22
  0
DICTIONARY
  5
3B
102
{ACAD_REACTORS
330
C
102
}
330
C
100
AcDbDictionary
281
     1
  3
ByBlock
350
3D
  3
ByLayer
350
3C
  3
Global
350
3E
  0
DICTIONARY
  5
280
102
{ACAD_REACTORS
330
C
102
}
330
C
100
AcDbDictionary
281
     1
  0
DICTIONARY
  5
17
102
{ACAD_REACTORS
330
C
102
}
330
C
100
AcDbDictionary
281
     1
  3
Standard
350
18
  0
DICTIONARY
  5
19
102
{ACAD_REACTORS
330
C
102
}
330
C
100
AcDbDictionary
281
     1
  0
ACDBDICTIONARYWDFLT
  5
E
102
{ACAD_REACTORS
330
C
102
}
330
C
100
AcDbDictionary
281
     1
  3
Normal
350
F
100
AcDbDictionaryWithDefault
340
F
  0
DICTIONARY
  5
2A
102
{ACAD_REACTORS
330
C
102
}
330
C
100
AcDbDictionary
281
     1
  3
2dWireframe
350
2F
  3
3D Hidden
350
31
  3
3dWireframe
350
30
  3
Basic
350
32
  3
Brighten
350
36
  3
ColorChange
350
3A
  3
Conceptual
350
34
  3
Dim
350
35
  3
Facepattern
350
39
  3
Flat
350
2B
  3
FlatWithEdges
350
2C
  3
Gouraud
350
2D
  3
GouraudWithEdges
350
2E
  3
Linepattern
350
38
  3
Realistic
350
33
  3
Thicken
350
37
  0
DICTIONARY
  5
27E
102
{ACAD_REACTORS
330
C
102
}
330
C
100
AcDbDictionary
281
     1
  3
DIMASSOC
350
281
  3
HIDETEXT
350
282
  0
LAYOUT
  5
1E
102
{ACAD_REACTORS
330
1A
102
}
330
1A
100
AcDbPlotSettings
  1

  2
none_device
  4

  6

 40
0.0
 41
0.0
 42
0.0
 43
0.0
 44
0.0
 45
0.0
 46
0.0
 47
0.0
 48
0.0
 49
0.0
140
0.0
141
0.0
142
1.0
143
1.0
 70
   688
 72
     0
 73
     0
 74
     5
  7

 75
    16
147
1.0
148
0.0
149
0.0
100
AcDbLayout
  1
Layout1
 70
     1
 71
     1
 10
0.0
 20
0.0
 11
12.0
 21
9.0
 12
0.0
 22
0.0
 32
0.0
 14
1.00000000000000E+20
 24
1.00000000000000E+20
 34
1.00000000000000E+20
 15
-1.00000000000000E+20
 25
-1.00000000000000E+20
 35
-1.00000000000000E+20
146
0.0
 13
0.0
 23
0.0
 33
0.0
 16
1.0
 26
0.0
 36
0.0
 17
0.0
 27
1.0
 37
0.0
 76
     0
330
1B
  0
LAYOUT
  5
26
102
{ACAD_REACTORS
330
1A
102
}
330
1A
100
AcDbPlotSettings
  1

  2
none_device
  4

  6

 40
0.0
 41
0.0
 42
0.0
 43
0.0
 44
0.0
 45
0.0
 46
0.0
 47
0.0
 48
0.0
 49
0.0
140
0.0
141
0.0
142
1.0
143
1.0
 70
   688
 72
     0
 73
     0
 74
     5
  7

 75
    16
147
1.0
148
0.0
149
0.0
100
AcDbLayout
  1
Layout2
 70
     1
 71
     2
 10
0.0
 20
0.0
 11
0.0
 21
0.0
 12
0.0
 22
0.0
 32
0.0
 14
0.0
 24
0.0
 34
0.0
 15
0.0
 25
0.0
 35
0.0
146
0.0
 13
0.0
 23
0.0
 33
0.0
 16
1.0
 26
0.0
 36
0.0
 17
0.0
 27
1.0
 37
0.0
 76
     0
330
23
  0
LAYOUT
  5
22
102
{ACAD_REACTORS
330
1A
102
}
330
1A
100
AcDbPlotSettings
  1

  2
none_device
  4

  6

 40
0.0
 41
0.0
 42
0.0
 43
0.0
 44
0.0
 45
0.0
 46
0.0
 47
0.0
 48
0.0
 49
0.0
140
0.0
141
0.0
142
1.0
143
1.0
 70
  1712
 72
     0
 73
     0
 74
     0
  7

 75
     0
147
1.0
148
0.0
149
0.0
100
AcDbLayout
  1
Model
 70
     1
 71
     0
 10
0.0
 20
0.0
 11
12.0
 21
9.0
 12
0.0
 22
0.0
 32
0.0
 14
-395.9000003814913
 24
-253.4626588213376
 34
0.0
 15
-98.90000038149327
 25
-43.46265882133744
 35
0.0
146
0.0
 13
0.0
 23
0.0
 33
0.0
 16
1.0
 26
0.0
 36
0.0
 17
0.0
 27
1.0
 37
0.0
 76
     0
330
1F
331
29
  0
MATERIAL
  5
3D
102
{ACAD_REACTORS
330
3B
102
}
102
{ACAD_XDICTIONARY
360
2A5
102
}
330
3B
100
AcDbMaterial
  1
ByBlock
  0
MATERIAL
  5
3C
102
{ACAD_REACTORS
330
3B
102
}
102
{ACAD_XDICTIONARY
360
2A3
102
}
330
3B
100
AcDbMaterial
  1
ByLayer
  0
MATERIAL
  5
3E
102
{ACAD_REACTORS
330
3B
102
}
102
{ACAD_XDICTIONARY
360
2A7
102
}
330
3B
100
AcDbMaterial
  1
Global
  0
MLINESTYLE
  5
18
102
{ACAD_REACTORS
330
17
102
}
330
17
100
AcDbMlineStyle
  2
Standard
 70
     0
  3

 62
   256
 51
90.0
 52
90.0
 71
     2
 49
0.5
 62
   256
  6
BYLAYER
 49
-0.5
 62
   256
  6
BYLAYER
  0
ACDBPLACEHOLDER
  5
F
102
{ACAD_REACTORS
330
E
102
}
330
E
  0
VISUALSTYLE
  5
2F
102
{ACAD_REACTORS
330
2A
102
}
102
{ACAD_XDICTIONARY
360
28B
102
}
330
2A
100
AcDbVisualStyle
  2
2dWireframe
 70
     4
 71
     0
 72
     2
 73
     0
 90
        0
 40
-0.6
 41
-30.0
 62
     5
 63
     7
 74
     1
 91
        4
 64
     7
 65
   257
 75
     1
175
     1
 42
1.0
 92
        0
 66
   257
 43
1.0
 76
     1
 77
     6
 78
     2
 67
     7
 79
     5
170
     0
171
     0
290
     0
174
     0
 93
        1
 44
0.0
173
     0
291
     0
 45
0.0
1001
ACAD
1000
AcDbSavedByObjectVersion
1070
     0
  0
VISUALSTYLE
  5
31
102
{ACAD_REACTORS
330
2A
102
}
102
{ACAD_XDICTIONARY
360
28F
102
}
330
2A
100
AcDbVisualStyle
  2
3D Hidden
 70
     6
 71
     1
 72
     2
 73
     2
 90
        0
 40
-0.6
 41
-30.0
 62
     5
 63
     7
 74
     2
 91
        2
 64
     7
 65
   257
 75
     2
175
     1
 42
40.0
 92
        0
 66
   257
 43
1.0
 76
     1
 77
     6
 78
     2
 67
     7
 79
     3
170
     0
171
     0
290
     0
174
     0
 93
        1
 44
0.0
173
     0
291
     0
 45
0.0
1001
ACAD
1000
AcDbSavedByObjectVersion
1070
     0
  0
VISUALSTYLE
  5
30
102
{ACAD_REACTORS
330
2A
102
}
102
{ACAD_XDICTIONARY
360
28D
102
}
330
2A
100
AcDbVisualStyle
  2
3dWireframe
 70
     5
 71
     0
 72
     2
 73
     0
 90
        0
 40
-0.6
 41
-30.0
 62
     5
 63
     7
 74
     1
 91
        4
 64
     7
 65
   257
 75
     1
175
     1
 42
1.0
 92
        0
 66
   257
 43
1.0
 76
     1
 77
     6
 78
     2
 67
     7
 79
     5
170
     0
171
     0
290
     0
174
     0
 93
        1
 44
0.0
173
     0
291
     0
 45
0.0
1001
ACAD
1000
AcDbSavedByObjectVersion
1070
     0
  0
VISUALSTYLE
  5
32
102
{ACAD_REACTORS
330
2A
102
}
102
{ACAD_XDICTIONARY
360
291
102
}
330
2A
100
AcDbVisualStyle
  2
Basic
 70
     7
 71
     1
 72
     0
 73
     1
 90
        0
 40
-0.6
 41
-30.0
 62
     5
 63
     7
 74
     0
 91
        4
 64
     7
 65
   257
 75
     1
175
     1
 42
1.0
 92
        8
 66
     7
 43
1.0
 76
     1
 77
     6
 78
     2
 67
     7
 79
     5
170
     0
171
     0
290
     0
174
     0
 93
        1
 44
0.0
173
     0
291
     1
 45
0.0
1001
ACAD
1000
AcDbSavedByObjectVersion
1070
     0
  0
VISUALSTYLE
  5
36
102
{ACAD_REACTORS
330
2A
102
}
102
{ACAD_XDICTIONARY
360
299
102
}
330
2A
100
AcDbVisualStyle
  2
Brighten
 70
    12
 71
     2
 72
     2
 73
     0
 90
        0
 40
-0.6
 41
-30.0
 62
     5
 63
     7
 74
     1
 91
        4
 64
     7
 65
   257
 75
     1
175
     1
 42
1.0
 92
        8
 66
     7
 43
1.0
 76
     1
 77
     6
 78
     2
 67
     7
 79
     5
170
     0
171
     0
290
     0
174
     0
 93
        1
 44
50.0
173
     0
291
     1
 45
0.0
1001
ACAD
1000
AcDbSavedByObjectVersion
1070
     0
  0
VISUALSTYLE
  5
3A
102
{ACAD_REACTORS
330
2A
102
}
102
{ACAD_XDICTIONARY
360
2A1
102
}
330
2A
100
AcDbVisualStyle
  2
ColorChange
 70
    16
 71
     2
 72
     2
 73
     3
 90
        0
 40
-0.6
 41
-30.0
 62
     5
 63
     8
 74
     1
 91
        4
 64
     7
 65
   257
 75
     1
175
     1
 42
1.0
 92
        8
 66
     8
 43
1.0
 76
     1
 77
     6
 78
     2
 67
     7
 79
     5
170
     0
171
     0
290
     0
174
     0
 93
        1
 44
0.0
173
     0
291
     1
 45
0.0
1001
ACAD
1000
AcDbSavedByObjectVersion
1070
     0
  0
VISUALSTYLE
  5
34
102
{ACAD_REACTORS
330
2A
102
}
102
{ACAD_XDICTIONARY
360
295
102
}
330
2A
100
AcDbVisualStyle
  2
Conceptual
 70
     9
 71
     3
 72
     2
 73
     0
 90
        0
 40
-0.6
 41
-30.0
 62
     5
 63
     7
 74
     2
 91
        2
 64
     7
 65
   257
 75
     1
175
     1
 42
40.0
 92
        8
 66
     7
 43
1.0
 76
     1
 77
     6
 78
     2
 67
     7
 79
     3
170
     0
171
     0
290
     0
174
     0
 93
        1
 44
0.0
173
     0
291
     0
 45
0.0
1001
ACAD
1000
AcDbSavedByObjectVersion
1070
     0
  0
VISUALSTYLE
  5
35
102
{ACAD_REACTORS
330
2A
102
}
102
{ACAD_XDICTIONARY
360
297
102
}
330
2A
100
AcDbVisualStyle
  2
Dim
 70
    11
 71
     2
 72
     2
 73
     0
 90
        0
 40
-0.6
 41
-30.0
 62
     5
 63
     7
 74
     1
 91
        4
 64
     7
 65
   257
 75
     1
175
     1
 42
1.0
 92
        8
 66
     7
 43
1.0
 76
     1
 77
     6
 78
     2
 67
     7
 79
     5
170
     0
171
     0
290
     0
174
     0
 93
        1
 44
-50.0
173
     0
291
     1
 45
0.0
1001
ACAD
1000
AcDbSavedByObjectVersion
1070
     0
  0
VISUALSTYLE
  5
39
102
{ACAD_REACTORS
330
2A
102
}
102
{ACAD_XDICTIONARY
360
29F
102
}
330
2A
100
AcDbVisualStyle
  2
Facepattern
 70
    15
 71
     2
 72
     2
 73
     0
 90
        0
 40
-0.6
 41
-30.0
 62
     5
 63
     7
 74
     1
 91
        4
 64
     7
 65
   257
 75
     1
175
     1
 42
1.0
 92
        8
 66
     7
 43
1.0
 76
     1
 77
     6
 78
     2
 67
     7
 79
     5
170
     0
171
     0
290
     0
174
     0
 93
        1
 44
0.0
173
     0
291
     1
 45
0.0
1001
ACAD
1000
AcDbSavedByObjectVersion
1070
     0
  0
VISUALSTYLE
  5
2B
102
{ACAD_REACTORS
330
2A
102
}
102
{ACAD_XDICTIONARY
360
283
102
}
330
2A
100
AcDbVisualStyle
  2
Flat
 70
     0
 71
     2
 72
     1
 73
     1
 90
        2
 40
-0.6
 41
30.0
 62
     5
 63
     7
 74
     0
 91
        4
 64
     7
 65
   257
 75
     1
175
     1
 42
1.0
 92
        8
 66
     7
 43
1.0
 76
     1
 77
     6
 78
     2
 67
     7
 79
     5
170
     0
171
     0
290
     0
174
     0
 93
       13
 44
0.0
173
     0
291
     1
 45
0.0
1001
ACAD
1000
AcDbSavedByObjectVersion
1070
     0
  0
VISUALSTYLE
  5
2C
102
{ACAD_REACTORS
330
2A
102
}
102
{ACAD_XDICTIONARY
360
285
102
}
330
2A
100
AcDbVisualStyle
  2
FlatWithEdges
 70
     1
 71
     2
 72
     1
 73
     1
 90
        2
 40
-0.6
 41
30.0
 62
     5
 63
     7
 74
     1
 91
        4
 64
     7
 65
   257
 75
     1
175
     1
 42
1.0
 92
        0
 66
   257
 43
1.0
 76
     1
 77
     6
 78
     2
 67
     7
 79
     5
170
     0
171
     0
290
     0
174
     0
 93
       13
 44
0.0
173
     0
291
     1
 45
0.0
1001
ACAD
1000
AcDbSavedByObjectVersion
1070
     0
  0
VISUALSTYLE
  5
2D
102
{ACAD_REACTORS
330
2A
102
}
102
{ACAD_XDICTIONARY
360
287
102
}
330
2A
100
AcDbVisualStyle
  2
Gouraud
 70
     2
 71
     2
 72
     2
 73
     1
 90
        2
 40
-0.6
 41
30.0
 62
     5
 63
     7
 74
     0
 91
        4
 64
     7
 65
   257
 75
     1
175
     1
 42
1.0
 92
        0
 66
     7
 43
1.0
 76
     1
 77
     6
 78
     2
 67
     7
 79
     5
170
     0
171
     0
290
     0
174
     0
 93
       13
 44
0.0
173
     0
291
     1
 45
0.0
1001
ACAD
1000
AcDbSavedByObjectVersion
1070
     0
  0
VISUALSTYLE
  5
2E
102
{ACAD_REACTORS
330
2A
102
}
102
{ACAD_XDICTIONARY
360
289
102
}
330
2A
100
AcDbVisualStyle
  2
GouraudWithEdges
 70
     3
 71
     2
 72
     2
 73
     1
 90
        2
 40
-0.6
 41
30.0
 62
     5
 63
     7
 74
     1
 91
        4
 64
     7
 65
   257
 75
     1
175
     1
 42
1.0
 92
        0
 66
   257
 43
1.0
 76
     1
 77
     6
 78
     2
 67
     7
 79
     5
170
     0
171
     0
290
     0
174
     0
 93
       13
 44
0.0
173
     0
291
     1
 45
0.0
1001
ACAD
1000
AcDbSavedByObjectVersion
1070
     0
  0
VISUALSTYLE
  5
38
102
{ACAD_REACTORS
330
2A
102
}
102
{ACAD_XDICTIONARY
360
29D
102
}
330
2A
100
AcDbVisualStyle
  2
Linepattern
 70
    14
 71
     2
 72
     2
 73
     0
 90
        0
 40
-0.6
 41
-30.0
 62
     5
 63
     7
 74
     1
 91
        4
 64
     7
 65
   257
 75
     7
175
     7
 42
1.0
 92
        8
 66
     7
 43
1.0
 76
     1
 77
     6
 78
     2
 67
     7
 79
     5
170
     0
171
     0
290
     0
174
     0
 93
        1
 44
0.0
173
     0
291
     1
 45
0.0
1001
ACAD
1000
AcDbSavedByObjectVersion
1070
     0
  0
VISUALSTYLE
  5
33
102
{ACAD_REACTORS
330
2A
102
}
102
{ACAD_XDICTIONARY
360
293
102
}
330
2A
100
AcDbVisualStyle
  2
Realistic
 70
     8
 71
     2
 72
     2
 73
     0
 90
        0
 40
-0.6
 41
-30.0
 62
     5
 63
     7
 74
     1
 91
        0
 64
     7
 65
   257
 75
     1
175
     1
 42
1.0
 92
        8
 66
     8
 43
1.0
 76
     1
 77
     6
 78
     2
 67
     7
 79
     5
170
     0
171
     0
290
     0
174
     0
 93
       13
 44
0.0
173
     0
291
     0
 45
0.0
1001
ACAD
1000
AcDbSavedByObjectVersion
1070
     0
  0
VISUALSTYLE
  5
37
102
{ACAD_REACTORS
330
2A
102
}
102
{ACAD_XDICTIONARY
360
29B
102
}
330
2A
100
AcDbVisualStyle
  2
Thicken
 70
    13
 71
     2
 72
     2
 73
     0
 90
        0
 40
-0.6
 41
-30.0
 62
     5
 63
     7
 74
     1
 91
        4
 64
     7
 65
   257
 75
     1
175
     1
 42
1.0
 92
       12
 66
     7
 43
1.0
 76
     1
 77
     6
 78
     2
 67
     7
 79
     5
170
     0
171
     0
290
     0
174
     0
 93
        1
 44
0.0
173
     0
291
     1
 45
0.0
1001
ACAD
1000
AcDbSavedByObjectVersion
1070
     0
  0
DICTIONARYVAR
  5
281
102
{ACAD_REACTORS
330
27E
102
}
330
27E
100
DictionaryVariables
280
     0
  1
2
  0
DICTIONARYVAR
  5
282
102
{ACAD_REACTORS
330
27E
102
}
330
27E
100
DictionaryVariables
280
     0
  1
1
  0
DICTIONARY
  5
2A5
330
3D
100
AcDbDictionary
280
     1
281
     1
  3
ACAD_XREC_ROUNDTRIP
360
2A6
  0
DICTIONARY
  5
2A3
330
3C
100
AcDbDictionary
280
     1
281
     1
  3
ACAD_XREC_ROUNDTRIP
360
2A4
  0
DICTIONARY
  5
2A7
330
3E
100
AcDbDictionary
280
     1
281
     1
  3
ACAD_XREC_ROUNDTRIP
360
2A8
  0
DICTIONARY
  5
28B
330
2F
100
AcDbDictionary
280
     1
281
     1
  3
ACAD_XREC_ROUNDTRIP
360
28C
  0
DICTIONARY
  5
28F
330
31
100
AcDbDictionary
280
     1
281
     1
  3
ACAD_XREC_ROUNDTRIP
360
290
  0
DICTIONARY
  5
28D
330
30
100
AcDbDictionary
280
     1
281
     1
  3
ACAD_XREC_ROUNDTRIP
360
28E
  0
DICTIONARY
  5
291
330
32
100
AcDbDictionary
280
     1
281
     1
  3
ACAD_XREC_ROUNDTRIP
360
292
  0
DICTIONARY
  5
299
330
36
100
AcDbDictionary
280
     1
281
     1
  3
ACAD_XREC_ROUNDTRIP
360
29A
  0
DICTIONARY
  5
2A1
330
3A
100
AcDbDictionary
280
     1
281
     1
  3
ACAD_XREC_ROUNDTRIP
360
2A2
  0
DICTIONARY
  5
295
330
34
100
AcDbDictionary
280
     1
281
     1
  3
ACAD_XREC_ROUNDTRIP
360
296
  0
DICTIONARY
  5
297
330
35
100
AcDbDictionary
280
     1
281
     1
  3
ACAD_XREC_ROUNDTRIP
360
298
  0
DICTIONARY
  5
29F
330
39
100
AcDbDictionary
280
     1
281
     1
  3
ACAD_XREC_ROUNDTRIP
360
2A0
  0
DICTIONARY
  5
283
330
2B
100
AcDbDictionary
280
     1
281
     1
  3
ACAD_XREC_ROUNDTRIP
360
284
  0
DICTIONARY
  5
285
330
2C
100
AcDbDictionary
280
     1
281
     1
  3
ACAD_XREC_ROUNDTRIP
360
286
  0
DICTIONARY
  5
287
330
2D
100
AcDbDictionary
280
     1
281
     1
  3
ACAD_XREC_ROUNDTRIP
360
288
  0
DICTIONARY
  5
289
330
2E
100
AcDbDictionary
280
     1
281
     1
  3
ACAD_XREC_ROUNDTRIP
360
28A
  0
DICTIONARY
  5
29D
330
38
100
AcDbDictionary
280
     1
281
     1
  3
ACAD_XREC_ROUNDTRIP
360
29E
  0
DICTIONARY
  5
293
330
33
100
AcDbDictionary
280
     1
281
     1
  3
ACAD_XREC_ROUNDTRIP
360
294
  0
DICTIONARY
  5
29B
330
37
100
AcDbDictionary
280
     1
281
     1
  3
ACAD_XREC_ROUNDTRIP
360
29C
  0
XRECORD
  5
2A6
102
{ACAD_REACTORS
330
2A5
102
}
330
2A5
100
AcDbXrecord
280
     1
102
MATERIAL
148
0.0
149
0.0
149
0.0
 93
        0
 94
      127
282
     0
 72
     1
 77
     1
171
     1
175
     1
179
     1
273
     0
  0
XRECORD
  5
2A4
102
{ACAD_REACTORS
330
2A3
102
}
330
2A3
100
AcDbXrecord
280
     1
102
MATERIAL
148
0.0
149
0.0
149
0.0
 93
        0
 94
      127
282
     0
 72
     1
 77
     1
171
     1
175
     1
179
     1
273
     0
  0
XRECORD
  5
2A8
102
{ACAD_REACTORS
330
2A7
102
}
330
2A7
100
AcDbXrecord
280
     1
102
MATERIAL
148
0.0
149
0.0
149
0.0
 93
        0
 94
      127
282
     0
 72
     1
 77
     1
171
     1
175
     1
179
     1
273
     0
  0
XRECORD
  5
28C
102
{ACAD_REACTORS
330
28B
102
}
330
28B
100
AcDbXrecord
280
     1
102
RTVSPropertyOp0
 70
     1
102
RTVSPropertyOp1
 70
     1
102
RTVSPropertyOp2
 70
     1
102
RTVSPropertyOp3
 70
     1
102
RTVSPropertyOp4
 70
     1
102
RTVSPropertyOp5
 70
     1
102
RTVSPropertyOp6
 70
     1
102
RTVSPropertyOp7
 70
     1
102
RTVSPropertyOp8
 70
     1
102
RTVSPropertyOp9
 70
     1
102
RTVSPropertyOp10
 70
     1
102
RTVSPropertyOp11
 70
     1
102
RTVSPropertyOp12
 70
     1
102
RTVSPropertyOp13
 70
     1
102
RTVSPropertyOp14
 70
     1
102
RTVSPropertyOp15
 70
     1
102
RTVSPropertyOp16
 70
     1
102
RTVSPropertyOp17
 70
     1
102
RTVSPropertyOp18
 70
     1
102
RTVSPropertyOp19
 70
     1
102
RTVSPropertyOp20
 70
     1
102
RTVSPropertyOp21
 70
     1
102
RTVSPropertyOp22
 70
     1
102
RTVSPropertyOp23
 70
     1
102
RTVSPropertyOp24
 70
     1
102
RTVSPropertyOp25
 70
     1
102
RTVSPropertyOp26
 70
     1
102
RTVSPropertyOp27
 70
     1
102
RTVSPropertyOp28
 70
     1
102
RTVSPropertyOp29
 70
     1
102
RTVSPropertyOp30
 70
     1
102
RTVSPropertyOp31
 70
     1
102
RTVSPropertyOp32
 70
     1
  0
XRECORD
  5
290
102
{ACAD_REACTORS
330
28F
102
}
330
28F
100
AcDbXrecord
280
     1
102
RTVSPropertyOp0
 70
     1
102
RTVSPropertyOp1
 70
     1
102
RTVSPropertyOp2
 70
     1
102
RTVSPropertyOp3
 70
     1
102
RTVSPropertyOp4
 70
     1
102
RTVSPropertyOp5
 70
     1
102
RTVSPropertyOp6
 70
     1
102
RTVSPropertyOp7
 70
     1
102
RTVSPropertyOp8
 70
     1
102
RTVSPropertyOp9
 70
     1
102
RTVSPropertyOp10
 70
     1
102
RTVSPropertyOp11
 70
     1
102
RTVSPropertyOp12
 70
     1
102
RTVSPropertyOp13
 70
     1
102
RTVSPropertyOp14
 70
     1
102
RTVSPropertyOp15
 70
     1
102
RTVSPropertyOp16
 70
     1
102
RTVSPropertyOp17
 70
     1
102
RTVSPropertyOp18
 70
     1
102
RTVSPropertyOp19
 70
     1
102
RTVSPropertyOp20
 70
     1
102
RTVSPropertyOp21
 70
     1
102
RTVSPropertyOp22
 70
     1
102
RTVSPropertyOp23
 70
     1
102
RTVSPropertyOp24
 70
     1
102
RTVSPropertyOp25
 70
     1
102
RTVSPropertyOp26
 70
     1
102
RTVSPropertyOp27
 70
     1
102
RTVSPropertyOp28
 70
     1
102
RTVSPropertyOp29
 70
     1
102
RTVSPropertyOp30
 70
     1
102
RTVSPropertyOp31
 70
     1
102
RTVSPropertyOp32
 70
     1
  0
XRECORD
  5
28E
102
{ACAD_REACTORS
330
28D
102
}
330
28D
100
AcDbXrecord
280
     1
102
RTVSPropertyOp0
 70
     1
102
RTVSPropertyOp1
 70
     1
102
RTVSPropertyOp2
 70
     1
102
RTVSPropertyOp3
 70
     1
102
RTVSPropertyOp4
 70
     1
102
RTVSPropertyOp5
 70
     1
102
RTVSPropertyOp6
 70
     1
102
RTVSPropertyOp7
 70
     1
102
RTVSPropertyOp8
 70
     1
102
RTVSPropertyOp9
 70
     1
102
RTVSPropertyOp10
 70
     1
102
RTVSPropertyOp11
 70
     1
102
RTVSPropertyOp12
 70
     1
102
RTVSPropertyOp13
 70
     1
102
RTVSPropertyOp14
 70
     1
102
RTVSPropertyOp15
 70
     1
102
RTVSPropertyOp16
 70
     1
102
RTVSPropertyOp17
 70
     1
102
RTVSPropertyOp18
 70
     1
102
RTVSPropertyOp19
 70
     1
102
RTVSPropertyOp20
 70
     1
102
RTVSPropertyOp21
 70
     1
102
RTVSPropertyOp22
 70
     1
102
RTVSPropertyOp23
 70
     1
102
RTVSPropertyOp24
 70
     1
102
RTVSPropertyOp25
 70
     1
102
RTVSPropertyOp26
 70
     1
102
RTVSPropertyOp27
 70
     1
102
RTVSPropertyOp28
 70
     1
102
RTVSPropertyOp29
 70
     1
102
RTVSPropertyOp30
 70
     1
102
RTVSPropertyOp31
 70
     1
102
RTVSPropertyOp32
 70
     1
  0
XRECORD
  5
292
102
{ACAD_REACTORS
330
291
102
}
330
291
100
AcDbXrecord
280
     1
102
RTVSPropertyOp0
 70
     1
102
RTVSPropertyOp1
 70
     1
102
RTVSPropertyOp2
 70
     1
102
RTVSPropertyOp3
 70
     1
102
RTVSPropertyOp4
 70
     1
102
RTVSPropertyOp5
 70
     1
102
RTVSPropertyOp6
 70
     1
102
RTVSPropertyOp7
 70
     1
102
RTVSPropertyOp8
 70
     1
102
RTVSPropertyOp9
 70
     1
102
RTVSPropertyOp10
 70
     1
102
RTVSPropertyOp11
 70
     1
102
RTVSPropertyOp12
 70
     1
102
RTVSPropertyOp13
 70
     1
102
RTVSPropertyOp14
 70
     1
102
RTVSPropertyOp15
 70
     1
102
RTVSPropertyOp16
 70
     1
102
RTVSPropertyOp17
 70
     1
102
RTVSPropertyOp18
 70
     1
102
RTVSPropertyOp19
 70
     1
102
RTVSPropertyOp20
 70
     1
102
RTVSPropertyOp21
 70
     1
102
RTVSPropertyOp22
 70
     1
102
RTVSPropertyOp23
 70
     1
102
RTVSPropertyOp24
 70
     1
102
RTVSPropertyOp25
 70
     1
102
RTVSPropertyOp26
 70
     1
102
RTVSPropertyOp27
 70
     1
102
RTVSPropertyOp28
 70
     1
102
RTVSPropertyOp29
 70
     1
102
RTVSPropertyOp30
 70
     1
102
RTVSPropertyOp31
 70
     1
102
RTVSPropertyOp32
 70
     1
  0
XRECORD
  5
29A
102
{ACAD_REACTORS
330
299
102
}
330
299
100
AcDbXrecord
280
     1
102
RTVSPropertyOp0
 70
     1
102
RTVSPropertyOp1
 70
     1
102
RTVSPropertyOp2
 70
     1
102
RTVSPropertyOp3
 70
     1
102
RTVSPropertyOp4
 70
     1
102
RTVSPropertyOp5
 70
     1
102
RTVSPropertyOp6
 70
     1
102
RTVSPropertyOp7
 70
     1
102
RTVSPropertyOp8
 70
     1
102
RTVSPropertyOp9
 70
     1
102
RTVSPropertyOp10
 70
     1
102
RTVSPropertyOp11
 70
     1
102
RTVSPropertyOp12
 70
     1
102
RTVSPropertyOp13
 70
     1
102
RTVSPropertyOp14
 70
     1
102
RTVSPropertyOp15
 70
     1
102
RTVSPropertyOp16
 70
     1
102
RTVSPropertyOp17
 70
     1
102
RTVSPropertyOp18
 70
     1
102
RTVSPropertyOp19
 70
     1
102
RTVSPropertyOp20
 70
     1
102
RTVSPropertyOp21
 70
     1
102
RTVSPropertyOp22
 70
     1
102
RTVSPropertyOp23
 70
     1
102
RTVSPropertyOp24
 70
     1
102
RTVSPropertyOp25
 70
     1
102
RTVSPropertyOp26
 70
     1
102
RTVSPropertyOp27
 70
     1
102
RTVSPropertyOp28
 70
     1
102
RTVSPropertyOp29
 70
     1
102
RTVSPropertyOp30
 70
     1
102
RTVSPropertyOp31
 70
     1
102
RTVSPropertyOp32
 70
     1
  0
XRECORD
  5
2A2
102
{ACAD_REACTORS
330
2A1
102
}
330
2A1
100
AcDbXrecord
280
     1
102
RTVSPropertyOp0
 70
     1
102
RTVSPropertyOp1
 70
     1
102
RTVSPropertyOp2
 70
     1
102
RTVSPropertyOp3
 70
     1
102
RTVSPropertyOp4
 70
     1
102
RTVSPropertyOp5
 70
     1
102
RTVSPropertyOp6
 70
     1
102
RTVSPropertyOp7
 70
     1
102
RTVSPropertyOp8
 70
     1
102
RTVSPropertyOp9
 70
     1
102
RTVSPropertyOp10
 70
     1
102
RTVSPropertyOp11
 70
     1
102
RTVSPropertyOp12
 70
     1
102
RTVSPropertyOp13
 70
     1
102
RTVSPropertyOp14
 70
     1
102
RTVSPropertyOp15
 70
     1
102
RTVSPropertyOp16
 70
     1
102
RTVSPropertyOp17
 70
     1
102
RTVSPropertyOp18
 70
     1
102
RTVSPropertyOp19
 70
     1
102
RTVSPropertyOp20
 70
     1
102
RTVSPropertyOp21
 70
     1
102
RTVSPropertyOp22
 70
     1
102
RTVSPropertyOp23
 70
     1
102
RTVSPropertyOp24
 70
     1
102
RTVSPropertyOp25
 70
     1
102
RTVSPropertyOp26
 70
     1
102
RTVSPropertyOp27
 70
     1
102
RTVSPropertyOp28
 70
     1
102
RTVSPropertyOp29
 70
     1
102
RTVSPropertyOp30
 70
     1
102
RTVSPropertyOp31
 70
     1
102
RTVSPropertyOp32
 70
     1
  0
XRECORD
  5
296
102
{ACAD_REACTORS
330
295
102
}
330
295
100
AcDbXrecord
280
     1
102
RTVSPropertyOp0
 70
     1
102
RTVSPropertyOp1
 70
     1
102
RTVSPropertyOp2
 70
     1
102
RTVSPropertyOp3
 70
     1
102
RTVSPropertyOp4
 70
     1
102
RTVSPropertyOp5
 70
     1
102
RTVSPropertyOp6
 70
     1
102
RTVSPropertyOp7
 70
     1
102
RTVSPropertyOp8
 70
     1
102
RTVSPropertyOp9
 70
     1
102
RTVSPropertyOp10
 70
     1
102
RTVSPropertyOp11
 70
     1
102
RTVSPropertyOp12
 70
     1
102
RTVSPropertyOp13
 70
     1
102
RTVSPropertyOp14
 70
     1
102
RTVSPropertyOp15
 70
     1
102
RTVSPropertyOp16
 70
     1
102
RTVSPropertyOp17
 70
     1
102
RTVSPropertyOp18
 70
     1
102
RTVSPropertyOp19
 70
     1
102
RTVSPropertyOp20
 70
     1
102
RTVSPropertyOp21
 70
     1
102
RTVSPropertyOp22
 70
     1
102
RTVSPropertyOp23
 70
     1
102
RTVSPropertyOp24
 70
     1
102
RTVSPropertyOp25
 70
     1
102
RTVSPropertyOp26
 70
     1
102
RTVSPropertyOp27
 70
     1
102
RTVSPropertyOp28
 70
     1
102
RTVSPropertyOp29
 70
     1
102
RTVSPropertyOp30
 70
     1
102
RTVSPropertyOp31
 70
     1
102
RTVSPropertyOp32
 70
     1
  0
XRECORD
  5
298
102
{ACAD_REACTORS
330
297
102
}
330
297
100
AcDbXrecord
280
     1
102
RTVSPropertyOp0
 70
     1
102
RTVSPropertyOp1
 70
     1
102
RTVSPropertyOp2
 70
     1
102
RTVSPropertyOp3
 70
     1
102
RTVSPropertyOp4
 70
     1
102
RTVSPropertyOp5
 70
     1
102
RTVSPropertyOp6
 70
     1
102
RTVSPropertyOp7
 70
     1
102
RTVSPropertyOp8
 70
     1
102
RTVSPropertyOp9
 70
     1
102
RTVSPropertyOp10
 70
     1
102
RTVSPropertyOp11
 70
     1
102
RTVSPropertyOp12
 70
     1
102
RTVSPropertyOp13
 70
     1
102
RTVSPropertyOp14
 70
     1
102
RTVSPropertyOp15
 70
     1
102
RTVSPropertyOp16
 70
     1
102
RTVSPropertyOp17
 70
     1
102
RTVSPropertyOp18
 70
     1
102
RTVSPropertyOp19
 70
     1
102
RTVSPropertyOp20
 70
     1
102
RTVSPropertyOp21
 70
     1
102
RTVSPropertyOp22
 70
     1
102
RTVSPropertyOp23
 70
     1
102
RTVSPropertyOp24
 70
     1
102
RTVSPropertyOp25
 70
     1
102
RTVSPropertyOp26
 70
     1
102
RTVSPropertyOp27
 70
     1
102
RTVSPropertyOp28
 70
     1
102
RTVSPropertyOp29
 70
     1
102
RTVSPropertyOp30
 70
     1
102
RTVSPropertyOp31
 70
     1
102
RTVSPropertyOp32
 70
     1
  0
XRECORD
  5
2A0
102
{ACAD_REACTORS
330
29F
102
}
330
29F
100
AcDbXrecord
280
     1
102
RTVSPropertyOp0
 70
     1
102
RTVSPropertyOp1
 70
     1
102
RTVSPropertyOp2
 70
     1
102
RTVSPropertyOp3
 70
     1
102
RTVSPropertyOp4
 70
     1
102
RTVSPropertyOp5
 70
     1
102
RTVSPropertyOp6
 70
     1
102
RTVSPropertyOp7
 70
     1
102
RTVSPropertyOp8
 70
     1
102
RTVSPropertyOp9
 70
     1
102
RTVSPropertyOp10
 70
     1
102
RTVSPropertyOp11
 70
     1
102
RTVSPropertyOp12
 70
     1
102
RTVSPropertyOp13
 70
     1
102
RTVSPropertyOp14
 70
     1
102
RTVSPropertyOp15
 70
     1
102
RTVSPropertyOp16
 70
     1
102
RTVSPropertyOp17
 70
     1
102
RTVSPropertyOp18
 70
     1
102
RTVSPropertyOp19
 70
     1
102
RTVSPropertyOp20
 70
     1
102
RTVSPropertyOp21
 70
     1
102
RTVSPropertyOp22
 70
     1
102
RTVSPropertyOp23
 70
     1
102
RTVSPropertyOp24
 70
     1
102
RTVSPropertyOp25
 70
     1
102
RTVSPropertyOp26
 70
     1
102
RTVSPropertyOp27
 70
     1
102
RTVSPropertyOp28
 70
     1
102
RTVSPropertyOp29
 70
     1
102
RTVSPropertyOp30
 70
     1
102
RTVSPropertyOp31
 70
     1
102
RTVSPropertyOp32
 70
     1
  0
XRECORD
  5
284
102
{ACAD_REACTORS
330
283
102
}
330
283
100
AcDbXrecord
280
     1
102
RTVSPropertyOp0
 70
     1
102
RTVSPropertyOp1
 70
     1
102
RTVSPropertyOp2
 70
     1
102
RTVSPropertyOp3
 70
     1
102
RTVSPropertyOp4
 70
     1
102
RTVSPropertyOp5
 70
     1
102
RTVSPropertyOp6
 70
     1
102
RTVSPropertyOp7
 70
     1
102
RTVSPropertyOp8
 70
     1
102
RTVSPropertyOp9
 70
     1
102
RTVSPropertyOp10
 70
     1
102
RTVSPropertyOp11
 70
     1
102
RTVSPropertyOp12
 70
     1
102
RTVSPropertyOp13
 70
     1
102
RTVSPropertyOp14
 70
     1
102
RTVSPropertyOp15
 70
     1
102
RTVSPropertyOp16
 70
     1
102
RTVSPropertyOp17
 70
     1
102
RTVSPropertyOp18
 70
     1
102
RTVSPropertyOp19
 70
     1
102
RTVSPropertyOp20
 70
     1
102
RTVSPropertyOp21
 70
     1
102
RTVSPropertyOp22
 70
     1
102
RTVSPropertyOp23
 70
     1
102
RTVSPropertyOp24
 70
     1
102
RTVSPropertyOp25
 70
     1
102
RTVSPropertyOp26
 70
     1
102
RTVSPropertyOp27
 70
     1
102
RTVSPropertyOp28
 70
     1
102
RTVSPropertyOp29
 70
     1
102
RTVSPropertyOp30
 70
     1
102
RTVSPropertyOp31
 70
     1
102
RTVSPropertyOp32
 70
     1
  0
XRECORD
  5
286
102
{ACAD_REACTORS
330
285
102
}
330
285
100
AcDbXrecord
280
     1
102
RTVSPropertyOp0
 70
     1
102
RTVSPropertyOp1
 70
     1
102
RTVSPropertyOp2
 70
     1
102
RTVSPropertyOp3
 70
     1
102
RTVSPropertyOp4
 70
     1
102
RTVSPropertyOp5
 70
     1
102
RTVSPropertyOp6
 70
     1
102
RTVSPropertyOp7
 70
     1
102
RTVSPropertyOp8
 70
     1
102
RTVSPropertyOp9
 70
     1
102
RTVSPropertyOp10
 70
     1
102
RTVSPropertyOp11
 70
     1
102
RTVSPropertyOp12
 70
     1
102
RTVSPropertyOp13
 70
     1
102
RTVSPropertyOp14
 70
     1
102
RTVSPropertyOp15
 70
     1
102
RTVSPropertyOp16
 70
     1
102
RTVSPropertyOp17
 70
     1
102
RTVSPropertyOp18
 70
     1
102
RTVSPropertyOp19
 70
     1
102
RTVSPropertyOp20
 70
     1
102
RTVSPropertyOp21
 70
     1
102
RTVSPropertyOp22
 70
     1
102
RTVSPropertyOp23
 70
     1
102
RTVSPropertyOp24
 70
     1
102
RTVSPropertyOp25
 70
     1
102
RTVSPropertyOp26
 70
     1
102
RTVSPropertyOp27
 70
     1
102
RTVSPropertyOp28
 70
     1
102
RTVSPropertyOp29
 70
     1
102
RTVSPropertyOp30
 70
     1
102
RTVSPropertyOp31
 70
     1
102
RTVSPropertyOp32
 70
     1
  0
XRECORD
  5
288
102
{ACAD_REACTORS
330
287
102
}
330
287
100
AcDbXrecord
280
     1
102
RTVSPropertyOp0
 70
     1
102
RTVSPropertyOp1
 70
     1
102
RTVSPropertyOp2
 70
     1
102
RTVSPropertyOp3
 70
     1
102
RTVSPropertyOp4
 70
     1
102
RTVSPropertyOp5
 70
     1
102
RTVSPropertyOp6
 70
     1
102
RTVSPropertyOp7
 70
     1
102
RTVSPropertyOp8
 70
     1
102
RTVSPropertyOp9
 70
     1
102
RTVSPropertyOp10
 70
     1
102
RTVSPropertyOp11
 70
     1
102
RTVSPropertyOp12
 70
     1
102
RTVSPropertyOp13
 70
     1
102
RTVSPropertyOp14
 70
     1
102
RTVSPropertyOp15
 70
     1
102
RTVSPropertyOp16
 70
     1
102
RTVSPropertyOp17
 70
     1
102
RTVSPropertyOp18
 70
     1
102
RTVSPropertyOp19
 70
     1
102
RTVSPropertyOp20
 70
     1
102
RTVSPropertyOp21
 70
     1
102
RTVSPropertyOp22
 70
     1
102
RTVSPropertyOp23
 70
     1
102
RTVSPropertyOp24
 70
     1
102
RTVSPropertyOp25
 70
     1
102
RTVSPropertyOp26
 70
     1
102
RTVSPropertyOp27
 70
     1
102
RTVSPropertyOp28
 70
     1
102
RTVSPropertyOp29
 70
     1
102
RTVSPropertyOp30
 70
     1
102
RTVSPropertyOp31
 70
     1
102
RTVSPropertyOp32
 70
     1
  0
XRECORD
  5
28A
102
{ACAD_REACTORS
330
289
102
}
330
289
100
AcDbXrecord
280
     1
102
RTVSPropertyOp0
 70
     1
102
RTVSPropertyOp1
 70
     1
102
RTVSPropertyOp2
 70
     1
102
RTVSPropertyOp3
 70
     1
102
RTVSPropertyOp4
 70
     1
102
RTVSPropertyOp5
 70
     1
102
RTVSPropertyOp6
 70
     1
102
RTVSPropertyOp7
 70
     1
102
RTVSPropertyOp8
 70
     1
102
RTVSPropertyOp9
 70
     1
102
RTVSPropertyOp10
 70
     1
102
RTVSPropertyOp11
 70
     1
102
RTVSPropertyOp12
 70
     1
102
RTVSPropertyOp13
 70
     1
102
RTVSPropertyOp14
 70
     1
102
RTVSPropertyOp15
 70
     1
102
RTVSPropertyOp16
 70
     1
102
RTVSPropertyOp17
 70
     1
102
RTVSPropertyOp18
 70
     1
102
RTVSPropertyOp19
 70
     1
102
RTVSPropertyOp20
 70
     1
102
RTVSPropertyOp21
 70
     1
102
RTVSPropertyOp22
 70
     1
102
RTVSPropertyOp23
 70
     1
102
RTVSPropertyOp24
 70
     1
102
RTVSPropertyOp25
 70
     1
102
RTVSPropertyOp26
 70
     1
102
RTVSPropertyOp27
 70
     1
102
RTVSPropertyOp28
 70
     1
102
RTVSPropertyOp29
 70
     1
102
RTVSPropertyOp30
 70
     1
102
RTVSPropertyOp31
 70
     1
102
RTVSPropertyOp32
 70
     1
  0
XRECORD
  5
29E
102
{ACAD_REACTORS
330
29D
102
}
330
29D
100
AcDbXrecord
280
     1
102
RTVSPropertyOp0
 70
     1
102
RTVSPropertyOp1
 70
     1
102
RTVSPropertyOp2
 70
     1
102
RTVSPropertyOp3
 70
     1
102
RTVSPropertyOp4
 70
     1
102
RTVSPropertyOp5
 70
     1
102
RTVSPropertyOp6
 70
     1
102
RTVSPropertyOp7
 70
     1
102
RTVSPropertyOp8
 70
     1
102
RTVSPropertyOp9
 70
     1
102
RTVSPropertyOp10
 70
     1
102
RTVSPropertyOp11
 70
     1
102
RTVSPropertyOp12
 70
     1
102
RTVSPropertyOp13
 70
     1
102
RTVSPropertyOp14
 70
     1
102
RTVSPropertyOp15
 70
     1
102
RTVSPropertyOp16
 70
     1
102
RTVSPropertyOp17
 70
     1
102
RTVSPropertyOp18
 70
     1
102
RTVSPropertyOp19
 70
     1
102
RTVSPropertyOp20
 70
     1
102
RTVSPropertyOp21
 70
     1
102
RTVSPropertyOp22
 70
     1
102
RTVSPropertyOp23
 70
     1
102
RTVSPropertyOp24
 70
     1
102
RTVSPropertyOp25
 70
     1
102
RTVSPropertyOp26
 70
     1
102
RTVSPropertyOp27
 70
     1
102
RTVSPropertyOp28
 70
     1
102
RTVSPropertyOp29
 70
     1
102
RTVSPropertyOp30
 70
     1
102
RTVSPropertyOp31
 70
     1
102
RTVSPropertyOp32
 70
     1
  0
XRECORD
  5
294
102
{ACAD_REACTORS
330
293
102
}
330
293
100
AcDbXrecord
280
     1
102
RTVSPropertyOp0
 70
     1
102
RTVSPropertyOp1
 70
     1
102
RTVSPropertyOp2
 70
     1
102
RTVSPropertyOp3
 70
     1
102
RTVSPropertyOp4
 70
     1
102
RTVSPropertyOp5
 70
     1
102
RTVSPropertyOp6
 70
     1
102
RTVSPropertyOp7
 70
     1
102
RTVSPropertyOp8
 70
     1
102
RTVSPropertyOp9
 70
     1
102
RTVSPropertyOp10
 70
     1
102
RTVSPropertyOp11
 70
     1
102
RTVSPropertyOp12
 70
     1
102
RTVSPropertyOp13
 70
     1
102
RTVSPropertyOp14
 70
     1
102
RTVSPropertyOp15
 70
     1
102
RTVSPropertyOp16
 70
     1
102
RTVSPropertyOp17
 70
     1
102
RTVSPropertyOp18
 70
     1
102
RTVSPropertyOp19
 70
     1
102
RTVSPropertyOp20
 70
     1
102
RTVSPropertyOp21
 70
     1
102
RTVSPropertyOp22
 70
     1
102
RTVSPropertyOp23
 70
     1
102
RTVSPropertyOp24
 70
     1
102
RTVSPropertyOp25
 70
     1
102
RTVSPropertyOp26
 70
     1
102
RTVSPropertyOp27
 70
     1
102
RTVSPropertyOp28
 70
     1
102
RTVSPropertyOp29
 70
     1
102
RTVSPropertyOp30
 70
     1
102
RTVSPropertyOp31
 70
     1
102
RTVSPropertyOp32
 70
     1
  0
XRECORD
  5
29C
102
{ACAD_REACTORS
330
29B
102
}
330
29B
100
AcDbXrecord
280
     1
102
RTVSPropertyOp0
 70
     1
102
RTVSPropertyOp1
 70
     1
102
RTVSPropertyOp2
 70
     1
102
RTVSPropertyOp3
 70
     1
102
RTVSPropertyOp4
 70
     1
102
RTVSPropertyOp5
 70
     1
102
RTVSPropertyOp6
 70
     1
102
RTVSPropertyOp7
 70
     1
102
RTVSPropertyOp8
 70
     1
102
RTVSPropertyOp9
 70
     1
102
RTVSPropertyOp10
 70
     1
102
RTVSPropertyOp11
 70
     1
102
RTVSPropertyOp12
 70
     1
102
RTVSPropertyOp13
 70
     1
102
RTVSPropertyOp14
 70
     1
102
RTVSPropertyOp15
 70
     1
102
RTVSPropertyOp16
 70
     1
102
RTVSPropertyOp17
 70
     1
102
RTVSPropertyOp18
 70
     1
102
RTVSPropertyOp19
 70
     1
102
RTVSPropertyOp20
 70
     1
102
RTVSPropertyOp21
 70
     1
102
RTVSPropertyOp22
 70
     1
102
RTVSPropertyOp23
 70
     1
102
RTVSPropertyOp24
 70
     1
102
RTVSPropertyOp25
 70
     1
102
RTVSPropertyOp26
 70
     1
102
RTVSPropertyOp27
 70
     1
102
RTVSPropertyOp28
 70
     1
102
RTVSPropertyOp29
 70
     1
102
RTVSPropertyOp30
 70
     1
102
RTVSPropertyOp31
 70
     1
102
RTVSPropertyOp32
 70
     1
  0
ENDSEC
  0
EOF
