  0
SECTION
  2
HEADER
  9
$ACADVER
  1
AC1015
  9
$ACADMAINTVER
 70
     6
  9
$DWGCODEPAGE
  3
ANSI_1252
  9
$INSBASE
 10
0.0
 20
0.0
 30
0.0
  9
$EXTMIN
 10
-396.3000002490029
 20
-266.900926994912
 30
0.0
  9
$EXTMAX
 10
-99.30000024900482
 20
-56.90092699491191
 30
0.0
  9
$LIMMIN
 10
0.0
 20
0.0
  9
$LIMMAX
 10
12.0
 20
9.0
  9
$ORTHOMODE
 70
     0
  9
$REGENMODE
 70
     1
  9
$FILLMODE
 70
     1
  9
$QTEXTMODE
 70
     0
  9
$MIRRTEXT
 70
     1
  9
$LTSCALE
 40
1.0
  9
$ATTMODE
 70
     1
  9
$TEXTSIZE
 40
0.2
  9
$TRACEWID
 40
0.05
  9
$TEXTSTYLE
  7
Standard
  9
$CLAYER
  8
0
  9
$CELTYPE
  6
ByLayer
  9
$CECOLOR
 62
   256
  9
$CELTSCALE
 40
1.0
  9
$DISPSILH
 70
     0
  9
$DIMSCALE
 40
1.0
  9
$DIMASZ
 40
0.18
  9
$DIMEXO
 40
0.0625
  9
$DIMDLI
 40
0.38
  9
$DIMRND
 40
0.0
  9
$DIMDLE
 40
0.0
  9
$DIMEXE
 40
0.18
  9
$DIMTP
 40
0.0
  9
$DIMTM
 40
0.0
  9
$DIMTXT
 40
0.18
  9
$DIMCEN
 40
0.09
  9
$DIMTSZ
 40
0.0
  9
$DIMTOL
 70
     0
  9
$DIMLIM
 70
     0
  9
$DIMTIH
 70
     1
  9
$DIMTOH
 70
     1
  9
$DIMSE1
 70
     0
  9
$DIMSE2
 70
     0
  9
$DIMTAD
 70
     0
  9
$DIMZIN
 70
     0
  9
$DIMBLK
  1

  9
$DIMASO
 70
     1
  9
$DIMSHO
 70
     1
  9
$DIMPOST
  1

  9
$DIMAPOST
  1

  9
$DIMALT
 70
     0
  9
$DIMALTD
 70
     2
  9
$DIMALTF
 40
25.4
  9
$DIMLFAC
 40
1.0
  9
$DIMTOFL
 70
     0
  9
$DIMTVP
 40
0.0
  9
$DIMTIX
 70
     0
  9
$DIMSOXD
 70
     0
  9
$DIMSAH
 70
     0
  9
$DIMBLK1
  1

  9
$DIMBLK2
  1

  9
$DIMSTYLE
  2
Standard
  9
$DIMCLRD
 70
     0
  9
$DIMCLRE
 70
     0
  9
$DIMCLRT
 70
     0
  9
$DIMTFAC
 40
1.0
  9
$DIMGAP
 40
0.09
  9
$DIMJUST
 70
     0
  9
$DIMSD1
 70
     0
  9
$DIMSD2
 70
     0
  9
$DIMTOLJ
 70
     1
  9
$DIMTZIN
 70
     0
  9
$DIMALTZ
 70
     0
  9
$DIMALTTZ
 70
     0
  9
$DIMUPT
 70
     0
  9
$DIMDEC
 70
     4
  9
$DIMTDEC
 70
     4
  9
$DIMALTU
 70
     2
  9
$DIMALTTD
 70
     2
  9
$DIMTXSTY
  7
Standard
  9
$DIMAUNIT
 70
     0
  9
$DIMADEC
 70
     0
  9
$DIMALTRND
 40
0.0
  9
$DIMAZIN
 70
     0
  9
$DIMDSEP
 70
    46
  9
$DIMATFIT
 70
     3
  9
$DIMFRAC
 70
     0
  9
$DIMLDRBLK
  1

  9
$DIMLUNIT
 70
     2
  9
$DIMLWD
 70
    -2
  9
$DIMLWE
 70
    -2
  9
$DIMTMOVE
 70
     0
  9
$LUNITS
 70
     2
  9
$LUPREC
 70
     4
  9
$SKETCHINC
 40
0.1
  9
$FILLETRAD
 40
0.5
  9
$AUNITS
 70
     0
  9
$AUPREC
 70
     0
  9
$MENU
  1
.
  9
$ELEVATION
 40
0.0
  9
$PELEVATION
 40
0.0
  9
$THICKNESS
 40
0.0
  9
$LIMCHECK
 70
     0
  9
$CHAMFERA
 40
0.5
  9
$CHAMFERB
 40
0.5
  9
$CHAMFERC
 40
1.0
  9
$CHAMFERD
 40
0.0
  9
$SKPOLY
 70
     0
  9
$TDCREATE
 40
2457212.609041146
  9
$TDUCREATE
 40
2457212.525707813
  9
$TDUPDATE
 40
2457212.609042072
  9
$TDUUPDATE
 40
2457212.525708738
  9
$TDINDWG
 40
0.0000000116
  9
$TDUSRTIMER
 40
0.0000000116
  9
$USRTIMER
 70
     1
  9
$ANGBASE
 50
0.0
  9
$ANGDIR
 70
     0
  9
$PDMODE
 70
     0
  9
$PDSIZE
 40
0.0
  9
$PLINEWID
 40
0.0
  9
$SPLFRAME
 70
     0
  9
$SPLINETYPE
 70
     6
  9
$SPLINESEGS
 70
     8
  9
$HANDSEED
  5
286
  9
$SURFTAB1
 70
     6
  9
$SURFTAB2
 70
     6
  9
$SURFTYPE
 70
     6
  9
$SURFU
 70
     6
  9
$SURFV
 70
     6
  9
$UCSBASE
  2

  9
$UCSNAME
  2

  9
$UCSORG
 10
0.0
 20
0.0
 30
0.0
  9
$UCSXDIR
 10
1.0
 20
0.0
 30
0.0
  9
$UCSYDIR
 10
0.0
 20
1.0
 30
0.0
  9
$UCSORTHOREF
  2

  9
$UCSORTHOVIEW
 70
     0
  9
$UCSORGTOP
 10
0.0
 20
0.0
 30
0.0
  9
$UCSORGBOTTOM
 10
0.0
 20
0.0
 30
0.0
  9
$UCSORGLEFT
 10
0.0
 20
0.0
 30
0.0
  9
$UCSORGRIGHT
 10
0.0
 20
0.0
 30
0.0
  9
$UCSORGFRONT
 10
0.0
 20
0.0
 30
0.0
  9
$UCSORGBACK
 10
0.0
 20
0.0
 30
0.0
  9
$PUCSBASE
  2

  9
$PUCSNAME
  2

  9
$PUCSORG
 10
0.0
 20
0.0
 30
0.0
  9
$PUCSXDIR
 10
1.0
 20
0.0
 30
0.0
  9
$PUCSYDIR
 10
0.0
 20
1.0
 30
0.0
  9
$PUCSORTHOREF
  2

  9
$PUCSORTHOVIEW
 70
     0
  9
$PUCSORGTOP
 10
0.0
 20
0.0
 30
0.0
  9
$PUCSORGBOTTOM
 10
0.0
 20
0.0
 30
0.0
  9
$PUCSORGLEFT
 10
0.0
 20
0.0
 30
0.0
  9
$PUCSORGRIGHT
 10
0.0
 20
0.0
 30
0.0
  9
$PUCSORGFRONT
 10
0.0
 20
0.0
 30
0.0
  9
$PUCSORGBACK
 10
0.0
 20
0.0
 30
0.0
  9
$USERI1
 70
     0
  9
$USERI2
 70
     0
  9
$USERI3
 70
     0
  9
$USERI4
 70
     0
  9
$USERI5
 70
     0
  9
$USERR1
 40
18.1
  9
$USERR2
 40
0.0
  9
$USERR3
 40
0.0
  9
$USERR4
 40
0.0
  9
$USERR5
 40
0.0
  9
$WORLDVIEW
 70
     1
  9
$SHADEDGE
 70
     3
  9
$SHADEDIF
 70
    70
  9
$TILEMODE
 70
     1
  9
$MAXACTVP
 70
    64
  9
$PINSBASE
 10
0.0
 20
0.0
 30
0.0
  9
$PLIMCHECK
 70
     0
  9
$PEXTMIN
 10
1.00000000000000E+20
 20
1.00000000000000E+20
 30
1.00000000000000E+20
  9
$PEXTMAX
 10
-1.00000000000000E+20
 20
-1.00000000000000E+20
 30
-1.00000000000000E+20
  9
$PLIMMIN
 10
0.0
 20
0.0
  9
$PLIMMAX
 10
12.0
 20
9.0
  9
$UNITMODE
 70
     0
  9
$VISRETAIN
 70
     1
  9
$PLINEGEN
 70
     0
  9
$PSLTSCALE
 70
     1
  9
$TREEDEPTH
 70
  3020
  9
$CMLSTYLE
  2
Standard
  9
$CMLJUST
 70
     0
  9
$CMLSCALE
 40
1.0
  9
$PROXYGRAPHICS
 70
     1
  9
$MEASUREMENT
 70
     1
  9
$CELWEIGHT
370
    -1
  9
$ENDCAPS
280
     0
  9
$JOINSTYLE
280
     0
  9
$LWDISPLAY
290
     0
  9
$INSUNITS
 70
     4
  9
$HYPERLINKBASE
  1

  9
$STYLESHEET
  1

  9
$XEDIT
290
     1
  9
$CEPSNTYPE
380
     0
  9
$PSTYLEMODE
290
     1
  9
$FINGERPRINTGUID
  2
{7A8EA03C-850C-4966-9A05-0CF7890295BF}
  9
$VERSIONGUID
  2
{FAEB1C32-E019-11D5-929B-00C0DF256EC4}
  9
$EXTNAMES
290
     1
  9
$PSVPSCALE
 40
0.0
  9
$OLESTARTUP
290
     0
  0
ENDSEC
  0
SECTION
  2
CLASSES
  0
CLASS
  1
ACDBDICTIONARYWDFLT
  2
AcDbDictionaryWithDefault
  3
ObjectDBX Classes
 90
        0
280
     0
281
     0
  0
CLASS
  1
VISUALSTYLE
  2
AcDbVisualStyle
  3
ObjectDBX Classes
 90
     4095
280
     0
281
     0
  0
CLASS
  1
MATERIAL
  2
AcDbMaterial
  3
ObjectDBX Classes
 90
     1153
280
     0
281
     0
  0
CLASS
  1
DICTIONARYVAR
  2
AcDbDictionaryVar
  3
ObjectDBX Classes
 90
        0
280
     0
281
     0
  0
CLASS
  1
ACDBPLACEHOLDER
  2
AcDbPlaceHolder
  3
ObjectDBX Classes
 90
        0
280
     0
281
     0
  0
CLASS
  1
LAYOUT
  2
AcDbLayout
  3
ObjectDBX Classes
 90
        0
280
     0
281
     0
  0
ENDSEC
  0
SECTION
  2
TABLES
  0
TABLE
  2
VPORT
  5
8
330
0
100
AcDbSymbolTable
 70
     1
  0
VPORT
  5
29
330
8
100
AcDbSymbolTableRecord
100
AcDbViewportTableRecord
  2
*Active
 70
     0
 10
0.0
 20
0.0
 11
1.0
 21
1.0
 12
-247.8000002490039
 22
-161.900926994912
 13
0.0
 23
0.0
 14
0.5
 24
0.5
 15
0.5
 25
0.5
 16
0.0
 26
0.0
 36
1.0
 17
0.0
 27
0.0
 37
0.0
 40
231.0000000000001
 41
1.60267857142857
 42
50.0
 43
0.0
 44
0.0
 50
0.0
 51
0.0
 71
     0
 72
   100
 73
     1
 74
     3
 75
     0
 76
     0
 77
     0
 78
     0
281
     0
 65
     1
110
0.0
120
0.0
130
0.0
111
1.0
121
0.0
131
0.0
112
0.0
122
1.0
132
0.0
 79
     0
146
0.0
  0
ENDTAB
  0
TABLE
  2
LTYPE
  5
5
330
0
100
AcDbSymbolTable
 70
     8
  0
LTYPE
  5
14
330
5
100
AcDbSymbolTableRecord
100
AcDbLinetypeTableRecord
  2
ByBlock
 70
     0
  3

 72
    65
 73
     0
 40
0.0
  0
LTYPE
  5
15
330
5
100
AcDbSymbolTableRecord
100
AcDbLinetypeTableRecord
  2
ByLayer
 70
     0
  3

 72
    65
 73
     0
 40
0.0
  0
LTYPE
  5
16
330
5
100
AcDbSymbolTableRecord
100
AcDbLinetypeTableRecord
  2
Continuous
 70
     0
  3
Solid line
 72
    65
 73
     0
 40
0.0
  0
LTYPE
  5
3F
330
5
100
AcDbSymbolTableRecord
100
AcDbLinetypeTableRecord
  2
DASHED
 70
     0
  3
Dashed
 72
    65
 73
     2
 40
15.0
 49
7.0
 74
     0
 49
-8.0
 74
     0
  0
LTYPE
  5
40
330
5
100
AcDbSymbolTableRecord
100
AcDbLinetypeTableRecord
  2
DOTTED
 70
     0
  3
Dotted
 72
    65
 73
     2
 40
1.0
 49
0.0
 74
     0
 49
-1.0
 74
     0
  0
LTYPE
  5
41
330
5
100
AcDbSymbolTableRecord
100
AcDbLinetypeTableRecord
  2
DOT_CENTER
 70
     0
  3
Dot_Center
 72
    65
 73
     4
 40
14.0
 49
12.0
 74
     0
 49
-1.0
 74
     0
 49
0.0
 74
     0
 49
-1.0
 74
     0
  0
LTYPE
  5
42
330
5
100
AcDbSymbolTableRecord
100
AcDbLinetypeTableRecord
  2
LONG_DASHED
 70
     0
  3
Long_Dashed
 72
    65
 73
     2
 40
15.0
 49
10.0
 74
     0
 49
-5.0
 74
     0
  0
LTYPE
  5
43
330
5
100
AcDbSymbolTableRecord
100
AcDbLinetypeTableRecord
  2
DASH_CENTER
 70
     0
  3
Dash_Center
 72
    65
 73
     4
 40
14.0
 49
11.0
 74
     0
 49
-1.0
 74
     0
 49
1.0
 74
     0
 49
-1.0
 74
     0
  0
LTYPE
  5
44
330
5
100
AcDbSymbolTableRecord
100
AcDbLinetypeTableRecord
  2
PHANTOM
 70
     0
  3
Phantom
 72
    65
 73
     6
 40
13.0
 49
10.0
 74
     0
 49
-1.0
 74
     0
 49
0.0
 74
     0
 49
-1.0
 74
     0
 49
0.0
 74
     0
 49
-1.0
 74
     0
  0
LTYPE
  5
45
330
5
100
AcDbSymbolTableRecord
100
AcDbLinetypeTableRecord
  2
CENTER_DASH_DASH
 70
     0
  3
Center_Dash_Dash
 72
    65
 73
     6
 40
14.0
 49
9.0
 74
     0
 49
-1.0
 74
     0
 49
1.0
 74
     0
 49
-1.0
 74
     0
 49
1.0
 74
     0
 49
-1.0
 74
     0
  0
ENDTAB
  0
TABLE
  2
LAYER
  5
2
330
0
100
AcDbSymbolTable
 70
     2
  0
LAYER
  5
10
330
2
100
AcDbSymbolTableRecord
100
AcDbLayerTableRecord
  2
0
 70
     0
 62
     7
  6
Continuous
370
    -3
390
F
  0
LAYER
  5
46
330
2
100
AcDbSymbolTableRecord
100
AcDbLayerTableRecord
  2
1
 70
     0
 62
     7
  6
Continuous
370
    -3
390
F
  0
ENDTAB
  0
TABLE
  2
STYLE
  5
3
330
0
100
AcDbSymbolTable
 70
     5
  0
STYLE
  5
11
330
3
100
AcDbSymbolTableRecord
100
AcDbTextStyleTableRecord
  2
Standard
 70
     0
 40
0.0
 41
1.0
 50
0.0
 71
     0
 42
0.2
  3
txt
  4

  0
STYLE
  5
17B
330
3
100
AcDbSymbolTableRecord
100
AcDbTextStyleTableRecord
  2
CONVERTER_11
 70
     0
 40
0.0
 41
0.9
 50
0.0
 71
     0
 42
0.2
  3
txt.shx
  4

  0
STYLE
  5
17D
330
3
100
AcDbSymbolTableRecord
100
AcDbTextStyleTableRecord
  2
CONVERTER_12
 70
     0
 40
0.0
 41
0.81
 50
0.0
 71
     0
 42
0.2
  3
txt.shx
  4

  0
STYLE
  5
183
330
3
100
AcDbSymbolTableRecord
100
AcDbTextStyleTableRecord
  2
CONVERTER_13
 70
     0
 40
0.0
 41
0.855
 50
0.0
 71
     0
 42
0.2
  3
txt.shx
  4

  0
STYLE
  5
186
330
3
100
AcDbSymbolTableRecord
100
AcDbTextStyleTableRecord
  2
CONVERTER_14
 70
     0
 40
0.0
 41
0.72
 50
0.0
 71
     0
 42
0.2
  3
txt.shx
  4

  0
ENDTAB
  0
TABLE
  2
VIEW
  5
6
330
0
100
AcDbSymbolTable
 70
     0
  0
ENDTAB
  0
TABLE
  2
UCS
  5
7
330
0
100
AcDbSymbolTable
 70
     0
  0
ENDTAB
  0
TABLE
  2
APPID
  5
9
330
0
100
AcDbSymbolTable
 70
     1
  0
APPID
  5
12
330
9
100
AcDbSymbolTableRecord
100
AcDbRegAppTableRecord
  2
ACAD
 70
     0
  0
ENDTAB
  0
TABLE
  2
DIMSTYLE
  5
A
330
0
100
AcDbSymbolTable
 70
     4
100
AcDbDimStyleTable
  0
DIMSTYLE
105
27
330
A
100
AcDbSymbolTableRecord
100
AcDbDimStyleTableRecord
  2
Standard
 70
     0
178
     0
340
11
  0
DIMSTYLE
105
1FD
102
{ACAD_REACTORS
330
1FE
102
}
330
A
100
AcDbSymbolTableRecord
100
AcDbDimStyleTableRecord
  2
ME10_DIM_10
 70
     0
 41
1.75
 42
0.0
 44
0.75
 73
     0
 74
     0
 77
     1
 78
     8
140
1.75
147
0.75
172
     1
173
     1
174
     1
175
     1
176
     2
177
     2
271
     1
178
     3
271
     1
340
17B
  0
DIMSTYLE
105
24E
102
{ACAD_REACTORS
330
24F
102
}
330
A
100
AcDbSymbolTableRecord
100
AcDbDimStyleTableRecord
  2
ME10_DIM_11
 70
     0
 41
1.75
 42
0.0
 44
0.75
 73
     0
 74
     0
 77
     1
 78
     8
140
1.75
147
0.75
172
     1
173
     1
174
     1
175
     1
176
     2
177
     2
271
     1
178
     3
271
     1
340
17B
  0
DIMSTYLE
105
259
102
{ACAD_REACTORS
330
25A
102
}
330
A
100
AcDbSymbolTableRecord
100
AcDbDimStyleTableRecord
  2
ME10_DIM_12
 70
     0
 41
1.75
 42
0.0
 44
0.75
 73
     0
 74
     0
 77
     1
 78
     8
140
1.75
147
0.75
172
     1
173
     1
174
     1
175
     1
176
     2
177
     2
271
     1
178
     3
271
     1
340
17B
  0
ENDTAB
  0
TABLE
  2
BLOCK_RECORD
  5
1
330
0
100
AcDbSymbolTable
 70
    19
  0
BLOCK_RECORD
  5
1F
330
1
100
AcDbSymbolTableRecord
100
AcDbBlockTableRecord
  2
*Model_Space
340
22
  0
BLOCK_RECORD
  5
1B
330
1
100
AcDbSymbolTableRecord
100
AcDbBlockTableRecord
  2
*Paper_Space
340
1E
  0
BLOCK_RECORD
  5
23
330
1
100
AcDbSymbolTableRecord
100
AcDbBlockTableRecord
  2
*Paper_Space0
340
26
  0
BLOCK_RECORD
  5
47
330
1
100
AcDbSymbolTableRecord
100
AcDbBlockTableRecord
  2
_punkt
340
0
102
{BLKREFS
331
4E
102
}
  0
BLOCK_RECORD
  5
4A
330
1
100
AcDbSymbolTableRecord
100
AcDbBlockTableRecord
  2
_rahmen
340
0
102
{BLKREFS
331
4F
102
}
  0
BLOCK_RECORD
  5
4D
330
1
100
AcDbSymbolTableRecord
100
AcDbBlockTableRecord
  2
A4I_CS
340
0
102
{BLKREFS
331
7C
102
}
  0
BLOCK_RECORD
  5
52
330
1
100
AcDbSymbolTableRecord
100
AcDbBlockTableRecord
  2
0822479_PATG_4_30-select__1
340
0
102
{BLKREFS
331
56
102
}
  0
BLOCK_RECORD
  5
55
330
1
100
AcDbSymbolTableRecord
100
AcDbBlockTableRecord
  2
Allg1
340
0
102
{BLKREFS
331
7D
102
}
  0
BLOCK_RECORD
  5
59
330
1
100
AcDbSymbolTableRecord
100
AcDbBlockTableRecord
  2
0822479_PATG_4_30-select__2
340
0
102
{BLKREFS
331
5D
102
}
  0
BLOCK_RECORD
  5
5C
330
1
100
AcDbSymbolTableRecord
100
AcDbBlockTableRecord
  2
Drfsicht1
340
0
102
{BLKREFS
331
7E
102
}
  0
BLOCK_RECORD
  5
60
330
1
100
AcDbSymbolTableRecord
100
AcDbBlockTableRecord
  2
0822479_PATG_4_30-select__3
340
0
102
{BLKREFS
331
64
102
}
  0
BLOCK_RECORD
  5
63
330
1
100
AcDbSymbolTableRecord
100
AcDbBlockTableRecord
  2
Rckans1
340
0
102
{BLKREFS
331
7F
102
}
  0
BLOCK_RECORD
  5
67
330
1
100
AcDbSymbolTableRecord
100
AcDbBlockTableRecord
  2
0822479_PATG_4_30-select__4
340
0
102
{BLKREFS
331
6B
102
}
  0
BLOCK_RECORD
  5
6A
330
1
100
AcDbSymbolTableRecord
100
AcDbBlockTableRecord
  2
SA_Links1
340
0
102
{BLKREFS
331
80
102
}
  0
BLOCK_RECORD
  5
6E
330
1
100
AcDbSymbolTableRecord
100
AcDbBlockTableRecord
  2
0822479_PATG_4_30-select__5
340
0
102
{BLKREFS
331
72
102
}
  0
BLOCK_RECORD
  5
71
330
1
100
AcDbSymbolTableRecord
100
AcDbBlockTableRecord
  2
SA_Rechts1
340
0
102
{BLKREFS
331
81
102
}
  0
BLOCK_RECORD
  5
75
330
1
100
AcDbSymbolTableRecord
100
AcDbBlockTableRecord
  2
0822479_PATG_4_30-select__6
340
0
102
{BLKREFS
331
79
102
}
  0
BLOCK_RECORD
  5
78
330
1
100
AcDbSymbolTableRecord
100
AcDbBlockTableRecord
  2
Vordans1
340
0
102
{BLKREFS
331
82
102
}
  0
BLOCK_RECORD
  5
1F4
330
1
100
AcDbSymbolTableRecord
100
AcDbBlockTableRecord
  2
*D16
340
0
  0
BLOCK_RECORD
  5
245
330
1
100
AcDbSymbolTableRecord
100
AcDbBlockTableRecord
  2
*D17
340
0
  0
BLOCK_RECORD
  5
250
330
1
100
AcDbSymbolTableRecord
100
AcDbBlockTableRecord
  2
*D18
340
0
  0
ENDTAB
  0
ENDSEC
  0
SECTION
  2
BLOCKS
  0
BLOCK
  5
20
330
1F
100
AcDbEntity
  8
0
100
AcDbBlockBegin
  2
*Model_Space
 70
     0
 10
0.0
 20
0.0
 30
0.0
  3
*Model_Space
  1

  0
ENDBLK
  5
21
330
1F
100
AcDbEntity
  8
0
100
AcDbBlockEnd
  0
BLOCK
  5
1C
330
1B
100
AcDbEntity
 67
     1
  8
0
100
AcDbBlockBegin
  2
*Paper_Space
 70
     0
 10
0.0
 20
0.0
 30
0.0
  3
*Paper_Space
  1

  0
ENDBLK
  5
1D
330
1B
100
AcDbEntity
 67
     1
  8
0
100
AcDbBlockEnd
  0
BLOCK
  5
24
330
23
100
AcDbEntity
  8
0
100
AcDbBlockBegin
  2
*Paper_Space0
 70
     0
 10
0.0
 20
0.0
 30
0.0
  3
*Paper_Space0
  1

  0
ENDBLK
  5
25
330
23
100
AcDbEntity
  8
0
100
AcDbBlockEnd
  0
BLOCK
  5
48
330
47
100
AcDbEntity
  8
0
100
AcDbBlockBegin
  2
_punkt
 70
     0
 10
-104.3000002490038
 20
-261.9009269949119
 30
0.0
  3
_punkt
  1

  0
LINE
  5
83
330
47
100
AcDbEntity
  8
1
  6
Continuous
 62
     2
100
AcDbLine
 10
-104.3000002490038
 20
-261.9009269949119
 30
0.0
 11
-104.3000002490038
 21
-266.900926994912
 31
0.0
  0
LINE
  5
84
330
47
100
AcDbEntity
  8
1
  6
Continuous
 62
     2
100
AcDbLine
 10
-104.3000002490038
 20
-261.9009269949119
 30
0.0
 11
-99.30000024900482
 21
-261.9009269949119
 31
0.0
  0
ENDBLK
  5
49
330
47
100
AcDbEntity
  8
0
100
AcDbBlockEnd
  0
BLOCK
  5
4B
330
4A
100
AcDbEntity
  8
0
100
AcDbBlockBegin
  2
_rahmen
 70
     0
 10
-104.3000002490038
 20
-266.900926994912
 30
0.0
  3
_rahmen
  1

  0
LINE
  5
85
330
4A
100
AcDbEntity
  8
1
  6
DOT_CENTER
 62
     2
100
AcDbLine
 10
-229.8581498891912
 20
-240.775926994912
 30
0.0
 11
-224.3581498891912
 21
-240.775926994912
 31
0.0
  0
LINE
  5
86
330
4A
100
AcDbEntity
  8
1
  6
PHANTOM
 62
     2
100
AcDbLine
 10
-221.1081498891912
 20
-238.025926994912
 30
0.0
 11
-221.1081498891912
 21
-243.525926994912
 31
0.0
  0
LINE
  5
87
330
4A
100
AcDbEntity
  8
1
  6
PHANTOM
 62
     2
100
AcDbLine
 10
-218.3581498891912
 20
-240.775926994912
 30
0.0
 11
-223.8581498891912
 21
-240.775926994912
 31
0.0
  0
LINE
  5
88
330
4A
100
AcDbEntity
  8
1
  6
Continuous
 62
     7
100
AcDbLine
 10
-169.5448047757538
 20
-253.400926994912
 30
0.0
 11
-169.5448047757538
 21
-244.9009269949119
 31
0.0
  0
LINE
  5
89
330
4A
100
AcDbEntity
  8
1
  6
Continuous
 62
     6
100
AcDbLine
 10
-197.4448047757539
 20
-244.9009269949119
 30
0.0
 11
-104.3000002490021
 21
-244.9009269949119
 31
0.0
  0
LINE
  5
8A
330
4A
100
AcDbEntity
  8
1
  6
Continuous
 62
     7
100
AcDbLine
 10
-233.8448047757538
 20
-244.9009269949119
 30
0.0
 11
-233.8448047757538
 21
-236.4009269949119
 31
0.0
  0
LINE
  5
8B
330
4A
100
AcDbEntity
  8
1
  6
Continuous
 62
     7
100
AcDbLine
 10
-197.4448047757539
 20
-244.9009269949119
 30
0.0
 11
-197.4448047757539
 21
-236.4009269949119
 31
0.0
  0
LINE
  5
8C
330
4A
100
AcDbEntity
  8
1
  6
Continuous
 62
     7
100
AcDbLine
 10
-139.7184085306809
 20
-236.4009269949119
 30
0.0
 11
-139.7184085306809
 21
-244.9009269949119
 31
0.0
  0
LINE
  5
8D
330
4A
100
AcDbEntity
  8
1
  6
Continuous
 62
     7
100
AcDbLine
 10
-113.2184085306813
 20
-236.4009269949119
 30
0.0
 11
-113.2184085306813
 21
-244.9009269949119
 31
0.0
  0
LINE
  5
8E
330
4A
100
AcDbEntity
  8
1
  6
Continuous
 62
     6
100
AcDbLine
 10
-302.8448047757538
 20
-261.9009269949119
 30
0.0
 11
-347.8000002490038
 21
-261.9009269949119
 31
0.0
  0
LINE
  5
8F
330
4A
100
AcDbEntity
  8
1
  6
Continuous
 62
     7
100
AcDbLine
 10
-104.3000002490025
 20
-253.4009269949119
 30
0.0
 11
-197.4448047757539
 21
-253.4009269949119
 31
0.0
  0
LINE
  5
90
102
{ACAD_REACTORS
330
1A3
330
1A4
102
}
330
4A
100
AcDbEntity
  8
0
  6
Continuous
 62
     2
100
AcDbLine
 10
-220.1373758339864
 20
-252.6006378792486
 30
0.0
 11
-220.1373758339864
 21
-251.7281208724453
 31
0.0
  0
LINE
  5
91
102
{ACAD_REACTORS
330
1A3
330
1A4
102
}
330
4A
100
AcDbEntity
  8
0
  6
Continuous
 62
     2
100
AcDbLine
 10
-220.1373758339864
 20
-253.5604065867315
 30
0.0
 11
-220.1373758339864
 21
-254.4329235935347
 31
0.0
  0
LINE
  5
92
102
{ACAD_REACTORS
330
1A5
330
1A6
102
}
330
4A
100
AcDbEntity
  8
0
  6
Continuous
 62
     2
100
AcDbLine
 10
-204.8043316976959
 20
-252.3388827772081
 30
0.0
 11
-203.7006923981278
 21
-252.3388827772081
 31
0.0
  0
LINE
  5
93
102
{ACAD_REACTORS
330
1A5
330
1A6
102
}
330
4A
100
AcDbEntity
  8
0
  6
Continuous
 62
     2
100
AcDbLine
 10
-204.0346743547345
 20
-253.560406586732
 30
0.0
 11
-204.0346743547345
 21
-254.4329235935353
 31
0.0
  0
LINE
  5
94
102
{ACAD_REACTORS
330
1AF
330
1B0
102
}
330
4A
100
AcDbEntity
  8
0
  6
Continuous
 62
     2
100
AcDbLine
 10
-205.8954309701144
 20
-251.2482365187213
 30
0.0
 11
-204.4974779231741
 21
-249.6673775249463
 31
0.0
  0
LINE
  5
95
102
{ACAD_REACTORS
330
1AF
330
1B0
102
}
330
4A
100
AcDbEntity
  8
0
  6
Continuous
 62
     2
100
AcDbLine
 10
-205.8000075539416
 20
-248.1944269949101
 30
0.0
 11
-204.4974779231741
 21
-249.6673775249463
 31
0.0
  0
LINE
  5
96
102
{ACAD_REACTORS
330
1AF
330
1B0
102
}
330
4A
100
AcDbEntity
  8
0
  6
Continuous
 62
     2
100
AcDbLine
 10
-203.1949482924077
 20
-248.1944269949101
 30
0.0
 11
-201.7922240746605
 21
-248.1944269949101
 31
0.0
  0
LINE
  5
97
102
{ACAD_REACTORS
330
1AF
330
1B0
102
}
330
4A
100
AcDbEntity
  8
0
  6
Continuous
 62
     2
100
AcDbLine
 10
-204.4927067523662
 20
-251.2482365187213
 30
0.0
 11
-203.7961158143005
 21
-250.4605047334276
 31
0.0
  0
LINE
  5
98
102
{ACAD_REACTORS
330
1AF
330
1B0
102
}
330
4A
100
AcDbEntity
  8
0
  6
Continuous
 62
     2
100
AcDbLine
 10
-204.4927067523662
 20
-251.2482365187213
 30
0.0
 11
-205.8954309701144
 21
-251.2482365187213
 31
0.0
  0
LINE
  5
99
102
{ACAD_REACTORS
330
1B1
330
1B2
102
}
330
4A
100
AcDbEntity
  8
0
  6
Continuous
 62
     2
100
AcDbLine
 10
-206.0147102403313
 20
-251.2482365187213
 30
0.0
 11
-207.2552146505842
 21
-251.2482365187213
 31
0.0
  0
LINE
  5
9A
102
{ACAD_REACTORS
330
1B3
330
1B4
102
}
330
4A
100
AcDbEntity
  8
0
  6
Continuous
 62
     2
100
AcDbLine
 10
-208.1231942587393
 20
-253.3859031853711
 30
0.0
 11
-208.4233594959294
 21
-252.6180882193844
 31
0.0
  0
LINE
  5
9B
102
{ACAD_REACTORS
330
1B3
330
1B4
102
}
330
4A
100
AcDbEntity
  8
0
  6
Continuous
 62
     2
100
AcDbLine
 10
-208.7235247331218
 20
-253.3859031853711
 30
0.0
 11
-208.1231942587393
 21
-253.3859031853711
 31
0.0
  0
LINE
  5
9C
102
{ACAD_REACTORS
330
1B3
330
1B4
102
}
330
4A
100
AcDbEntity
  8
0
  6
Continuous
 62
     2
100
AcDbLine
 10
-210.4415647479956
 20
-254.6074269948956
 30
0.0
 11
-209.2010603377426
 21
-254.6074269948956
 31
0.0
  0
LINE
  5
9D
102
{ACAD_REACTORS
330
1B3
330
1B4
102
}
330
4A
100
AcDbEntity
  8
0
  6
Continuous
 62
     2
100
AcDbLine
 10
-209.0436117010563
 20
-251.5536174710845
 30
0.0
 11
-207.8031072908036
 21
-251.5536174710845
 31
0.0
  0
LINE
  5
9E
102
{ACAD_REACTORS
330
1B3
330
1B4
102
}
330
4A
100
AcDbEntity
  8
0
  6
Continuous
 62
     2
100
AcDbLine
 10
-207.8031072908036
 20
-251.5536174710845
 30
0.0
 11
-206.4051542438633
 21
-254.6074269948956
 31
0.0
  0
LINE
  5
9F
102
{ACAD_REACTORS
330
1B3
330
1B4
102
}
330
4A
100
AcDbEntity
  8
0
  6
Continuous
 62
     2
100
AcDbLine
 10
-207.6456586541172
 20
-254.6074269948956
 30
0.0
 11
-207.857138707593
 21
-254.0664664506777
 31
0.0
  0
LINE
  5
A0
102
{ACAD_REACTORS
330
1B5
330
1B6
102
}
330
4A
100
AcDbEntity
  8
0
  6
Continuous
 62
     2
100
AcDbLine
 10
-211.7879778497032
 20
-254.6074269948956
 30
0.0
 11
-210.5951851475367
 21
-254.6074269948956
 31
0.0
  0
LINE
  5
A1
102
{ACAD_REACTORS
330
1B5
330
1B6
102
}
330
4A
100
AcDbEntity
  8
0
  6
Continuous
 62
     2
100
AcDbLine
 10
-211.7879778497032
 20
-252.3388827772081
 30
0.0
 11
-211.7879778497032
 21
-254.6074269948956
 31
0.0
  0
LINE
  5
A2
102
{ACAD_REACTORS
330
1B5
330
1B6
102
}
330
4A
100
AcDbEntity
  8
0
  6
Continuous
 62
     2
100
AcDbLine
 10
-212.5990768871778
 20
-251.5536174710845
 30
0.0
 11
-212.5990768871778
 21
-252.3388827772081
 31
0.0
  0
LINE
  5
A3
102
{ACAD_REACTORS
330
1B7
330
1B8
102
}
330
4A
100
AcDbEntity
  8
0
  6
Continuous
 62
     2
100
AcDbLine
 10
-211.1198630056052
 20
-251.2482365187213
 30
0.0
 11
-209.9270703034387
 21
-251.2482365187213
 31
0.0
  0
LINE
  5
A4
102
{ACAD_REACTORS
330
1B7
330
1B8
102
}
330
4A
100
AcDbEntity
  8
0
  6
Continuous
 62
     2
100
AcDbLine
 10
-208.6865658931847
 20
-249.5032025051153
 30
0.0
 11
-209.9270703034387
 21
-248.1944269949101
 31
0.0
  0
LINE
  5
A5
102
{ACAD_REACTORS
330
1B7
330
1B8
102
}
330
4A
100
AcDbEntity
  8
0
  6
Continuous
 62
     2
100
AcDbLine
 10
-207.4937731910181
 20
-248.1944269949101
 30
0.0
 11
-208.6865658931847
 21
-248.1944269949101
 31
0.0
  0
LINE
  5
A6
102
{ACAD_REACTORS
330
1B7
330
1B8
102
}
330
4A
100
AcDbEntity
  8
0
  6
Continuous
 62
     2
100
AcDbLine
 10
-207.4937731910181
 20
-251.2482365187213
 30
0.0
 11
-207.4937731910181
 21
-248.1944269949101
 31
0.0
  0
LINE
  5
A7
102
{ACAD_REACTORS
330
1B7
330
1B8
102
}
330
4A
100
AcDbEntity
  8
0
  6
Continuous
 62
     2
100
AcDbLine
 10
-208.6865658931847
 20
-251.2482365187213
 30
0.0
 11
-207.4937731910181
 21
-251.2482365187213
 31
0.0
  0
LINE
  5
A8
102
{ACAD_REACTORS
330
1B7
330
1B8
102
}
330
4A
100
AcDbEntity
  8
0
  6
Continuous
 62
     2
100
AcDbLine
 10
-209.9270703034387
 20
-249.9394610085166
 30
0.0
 11
-208.6865658931847
 21
-251.2482365187213
 31
0.0
  0
LINE
  5
A9
102
{ACAD_REACTORS
330
1B9
330
1BA
102
}
330
4A
100
AcDbEntity
  8
0
  6
Continuous
 62
     2
100
AcDbLine
 10
-213.9350047136044
 20
-252.8623929812896
 30
0.0
 11
-215.1755091238573
 21
-251.5536174710845
 31
0.0
  0
LINE
  5
AA
102
{ACAD_REACTORS
330
1B9
330
1BA
102
}
330
4A
100
AcDbEntity
  8
0
  6
Continuous
 62
     2
100
AcDbLine
 10
-213.9350047136044
 20
-251.5536174710845
 30
0.0
 11
-213.9350047136044
 21
-252.8623929812896
 31
0.0
  0
LINE
  5
AB
102
{ACAD_REACTORS
330
1B9
330
1BA
102
}
330
4A
100
AcDbEntity
  8
0
  6
Continuous
 62
     2
100
AcDbLine
 10
-212.742212011438
 20
-251.5536174710845
 30
0.0
 11
-213.9350047136044
 21
-251.5536174710845
 31
0.0
  0
LINE
  5
AC
102
{ACAD_REACTORS
330
1B9
330
1BA
102
}
330
4A
100
AcDbEntity
  8
0
  6
Continuous
 62
     2
100
AcDbLine
 10
-212.742212011438
 20
-254.6074269948956
 30
0.0
 11
-212.742212011438
 21
-251.5536174710845
 31
0.0
  0
LINE
  5
AD
102
{ACAD_REACTORS
330
1B9
330
1BA
102
}
330
4A
100
AcDbEntity
  8
0
  6
Continuous
 62
     2
100
AcDbLine
 10
-215.1755091238573
 20
-253.298651484691
 30
0.0
 11
-213.9350047136044
 21
-254.6074269948956
 31
0.0
  0
LINE
  5
AE
102
{ACAD_REACTORS
330
1B9
330
1BA
102
}
330
4A
100
AcDbEntity
  8
0
  6
Continuous
 62
     2
100
AcDbLine
 10
-215.1755091238573
 20
-254.6074269948956
 30
0.0
 11
-215.1755091238573
 21
-253.298651484691
 31
0.0
  0
LINE
  5
AF
102
{ACAD_REACTORS
330
1A9
330
1AA
102
}
330
4A
100
AcDbEntity
  8
0
  6
Continuous
 62
     2
100
AcDbLine
 10
-212.6943493724658
 20
-248.8924406003531
 30
0.0
 11
-211.3584215460381
 21
-248.8924406003531
 31
0.0
  0
LINE
  5
B0
102
{ACAD_REACTORS
330
1A9
330
1AA
102
}
330
4A
100
AcDbEntity
  8
0
  6
Continuous
 62
     2
100
AcDbLine
 10
-212.6943493724658
 20
-250.5502229132788
 30
0.0
 11
-212.6943493724658
 21
-250.0703385595371
 31
0.0
  0
LINE
  5
B1
102
{ACAD_REACTORS
330
1A9
330
1AA
102
}
330
4A
100
AcDbEntity
  8
0
  6
Continuous
 62
     2
100
AcDbLine
 10
-211.3584215460381
 20
-250.5502229132788
 30
0.0
 11
-212.6943493724658
 21
-250.5502229132788
 31
0.0
  0
LINE
  5
B2
102
{ACAD_REACTORS
330
1A9
330
1AA
102
}
330
4A
100
AcDbEntity
  8
0
  6
Continuous
 62
     2
100
AcDbLine
 10
-211.3584215460381
 20
-251.2482365187213
 30
0.0
 11
-211.3584215460381
 21
-250.5502229132788
 31
0.0
  0
LINE
  5
B3
102
{ACAD_REACTORS
330
1A9
330
1AA
102
}
330
4A
100
AcDbEntity
  8
0
  6
Continuous
 62
     2
100
AcDbLine
 10
-214.5087412698191
 20
-251.2482365187213
 30
0.0
 11
-211.3584215460381
 21
-251.2482365187213
 31
0.0
  0
LINE
  5
B4
102
{ACAD_REACTORS
330
1A9
330
1AA
102
}
330
4A
100
AcDbEntity
  8
0
  6
Continuous
 62
     2
100
AcDbLine
 10
-214.5087412698191
 20
-248.1944269949101
 30
0.0
 11
-211.3584215460381
 21
-248.1944269949101
 31
0.0
  0
LINE
  5
B5
102
{ACAD_REACTORS
330
1A9
330
1AA
102
}
330
4A
100
AcDbEntity
  8
0
  6
Continuous
 62
     2
100
AcDbLine
 10
-211.3584215460381
 20
-248.8924406003531
 30
0.0
 11
-211.3584215460381
 21
-248.1944269949101
 31
0.0
  0
LINE
  5
B6
102
{ACAD_REACTORS
330
1BB
330
1BC
102
}
330
4A
100
AcDbEntity
  8
0
  6
Continuous
 62
     2
100
AcDbLine
 10
-217.3700967649591
 20
-249.2632603282447
 30
0.0
 11
-217.3700967649591
 21
-248.1944269949101
 31
0.0
  0
LINE
  5
B7
102
{ACAD_REACTORS
330
1BB
330
1BC
102
}
330
4A
100
AcDbEntity
  8
0
  6
Continuous
 62
     2
100
AcDbLine
 10
-217.3700967649591
 20
-248.1944269949101
 30
0.0
 11
-216.1773040627927
 21
-248.1944269949101
 31
0.0
  0
LINE
  5
B8
102
{ACAD_REACTORS
330
1BB
330
1BC
102
}
330
4A
100
AcDbEntity
  8
0
  6
Continuous
 62
     2
100
AcDbLine
 10
-217.3700967649591
 20
-250.1139644098775
 30
0.0
 11
-218.4197543428666
 21
-250.1139644098775
 31
0.0
  0
LINE
  5
B9
102
{ACAD_REACTORS
330
1BB
330
1BC
102
}
330
4A
100
AcDbEntity
  8
0
  6
Continuous
 62
     2
100
AcDbLine
 10
-218.4197543428666
 20
-250.1139644098775
 30
0.0
 11
-218.4197543428666
 21
-251.2482365187213
 31
0.0
  0
LINE
  5
BA
102
{ACAD_REACTORS
330
1BB
330
1BC
102
}
330
4A
100
AcDbEntity
  8
0
  6
Continuous
 62
     2
100
AcDbLine
 10
-219.6125470450332
 20
-248.1944269949101
 30
0.0
 11
-219.6125470450332
 21
-251.2482365187213
 31
0.0
  0
LINE
  5
BB
102
{ACAD_REACTORS
330
1AD
330
1AE
102
}
330
4A
100
AcDbEntity
  8
0
  6
Continuous
 62
     2
100
AcDbLine
 10
-221.5687270765868
 20
-249.5632604896924
 30
0.0
 11
-221.5687270765868
 21
-248.8575328403502
 31
0.0
  0
LINE
  5
BC
102
{ACAD_REACTORS
330
1AD
330
1AE
102
}
330
4A
100
AcDbEntity
  8
0
  6
Continuous
 62
     2
100
AcDbLine
 10
-222.8092314868409
 20
-251.2482365187213
 30
0.0
 11
-221.5687270765868
 21
-251.2482365187213
 31
0.0
  0
LINE
  5
BD
102
{ACAD_REACTORS
330
1AD
330
1AE
102
}
330
4A
100
AcDbEntity
  8
0
  6
Continuous
 62
     2
100
AcDbLine
 10
-221.5687270765868
 20
-251.2482365187213
 30
0.0
 11
-221.5687270765868
 21
-250.3051582775775
 31
0.0
  0
LINE
  5
BE
102
{ACAD_REACTORS
330
1A7
330
1A8
102
}
330
4A
100
AcDbEntity
  8
0
  6
Continuous
 62
     2
100
AcDbLine
 10
-227.1141773360523
 20
-253.8948714393387
 30
0.0
 11
-228.5900105970619
 21
-253.8948714393387
 31
0.0
  0
LINE
  5
BF
102
{ACAD_REACTORS
330
1A7
330
1A8
102
}
330
4A
100
AcDbEntity
  8
0
  6
Continuous
 62
     2
100
AcDbLine
 10
-229.6081498891912
 20
-248.6186716103121
 30
0.0
 11
-229.6081498891912
 21
-254.1831823795123
 31
0.0
  0
LINE
  5
C0
102
{ACAD_REACTORS
330
1A7
330
1A8
102
}
330
4A
100
AcDbEntity
  8
0
  6
Continuous
 62
     2
100
AcDbLine
 10
-229.1839052738084
 20
-248.1944269949283
 30
0.0
 11
-223.7105931830916
 21
-248.1944269949283
 31
0.0
  0
LINE
  5
C1
102
{ACAD_REACTORS
330
1A7
330
1A8
102
}
330
4A
100
AcDbEntity
  8
0
  6
Continuous
 62
     2
100
AcDbLine
 10
-223.2863485677077
 20
-248.6186716103121
 30
0.0
 11
-223.2863485677077
 21
-254.1831823795123
 31
0.0
  0
LINE
  5
C2
102
{ACAD_REACTORS
330
1A7
330
1A8
102
}
330
4A
100
AcDbEntity
  8
0
  6
Continuous
 62
     2
100
AcDbLine
 10
-223.7105931830916
 20
-254.6074269948956
 30
0.0
 11
-229.1839052738084
 21
-254.6074269948956
 31
0.0
  0
LINE
  5
C3
102
{ACAD_REACTORS
330
1A7
330
1A8
102
}
330
4A
100
AcDbEntity
  8
0
  6
Continuous
 62
     2
100
AcDbLine
 10
-226.7984604129757
 20
-253.579154516262
 30
0.0
 11
-226.7984604129757
 21
-252.0483835847304
 31
0.0
  0
LINE
  5
C4
102
{ACAD_REACTORS
330
1A7
330
1A8
102
}
330
4A
100
AcDbEntity
  8
0
  6
Continuous
 62
     2
100
AcDbLine
 10
-226.7984604129757
 20
-249.8267240926054
 30
0.0
 11
-226.7984604129757
 21
-249.2226994735449
 31
0.0
  0
LINE
  5
C5
102
{ACAD_REACTORS
330
1A7
330
1A8
102
}
330
4A
100
AcDbEntity
  8
0
  6
Continuous
 62
     2
100
AcDbLine
 10
-228.5900105970619
 20
-248.9069825504687
 30
0.0
 11
-227.1141773360523
 21
-248.9069825504687
 31
0.0
  0
LINE
  5
C6
102
{ACAD_REACTORS
330
1A7
330
1A8
102
}
330
4A
100
AcDbEntity
  8
0
  6
Continuous
 62
     2
100
AcDbLine
 10
-228.9057275201376
 20
-249.2226994735449
 30
0.0
 11
-228.9057275201376
 21
-253.579154516262
 31
0.0
  0
LINE
  5
C7
102
{ACAD_REACTORS
330
1AD
330
1AE
102
}
330
4A
100
AcDbEntity
  8
0
  6
Continuous
 62
     2
100
AcDbLine
 10
-221.5687270765868
 20
-250.3051582775775
 30
0.0
 11
-220.8099594888065
 21
-250.3051582775775
 31
0.0
  0
LINE
  5
C8
102
{ACAD_REACTORS
330
1AD
330
1AE
102
}
330
4A
100
AcDbEntity
  8
0
  6
Continuous
 62
     2
100
AcDbLine
 10
-222.8092314868409
 20
-248.1944269949101
 30
0.0
 11
-220.8099594888065
 21
-248.1944269949101
 31
0.0
  0
LINE
  5
C9
102
{ACAD_REACTORS
330
1AD
330
1AE
102
}
330
4A
100
AcDbEntity
  8
0
  6
Continuous
 62
     2
100
AcDbLine
 10
-222.8092314868409
 20
-248.1944269949101
 30
0.0
 11
-222.8092314868409
 21
-251.2482365187213
 31
0.0
  0
LINE
  5
CA
102
{ACAD_REACTORS
330
1AD
330
1AE
102
}
330
4A
100
AcDbEntity
  8
0
  6
Continuous
 62
     2
100
AcDbLine
 10
-221.5687270765868
 20
-249.5632604896924
 30
0.0
 11
-221.2514320150449
 21
-249.5632604896924
 31
0.0
  0
LINE
  5
CB
102
{ACAD_REACTORS
330
1AD
330
1AE
102
}
330
4A
100
AcDbEntity
  8
0
  6
Continuous
 62
     2
100
AcDbLine
 10
-221.5687270765868
 20
-248.8575328403502
 30
0.0
 11
-221.2514320150449
 21
-248.8575328403502
 31
0.0
  0
LINE
  5
CC
102
{ACAD_REACTORS
330
1BB
330
1BC
102
}
330
4A
100
AcDbEntity
  8
0
  6
Continuous
 62
     2
100
AcDbLine
 10
-218.4197543428666
 20
-249.2632603282447
 30
0.0
 11
-217.3700967649591
 21
-249.2632603282447
 31
0.0
  0
LINE
  5
CD
102
{ACAD_REACTORS
330
1BB
330
1BC
102
}
330
4A
100
AcDbEntity
  8
0
  6
Continuous
 62
     2
100
AcDbLine
 10
-218.4197543428666
 20
-248.1944269949101
 30
0.0
 11
-218.4197543428666
 21
-249.2632603282447
 31
0.0
  0
LINE
  5
CE
102
{ACAD_REACTORS
330
1BB
330
1BC
102
}
330
4A
100
AcDbEntity
  8
0
  6
Continuous
 62
     2
100
AcDbLine
 10
-219.6125470450332
 20
-248.1944269949101
 30
0.0
 11
-218.4197543428666
 21
-248.1944269949101
 31
0.0
  0
LINE
  5
CF
102
{ACAD_REACTORS
330
1BB
330
1BC
102
}
330
4A
100
AcDbEntity
  8
0
  6
Continuous
 62
     2
100
AcDbLine
 10
-218.4197543428666
 20
-251.2482365187213
 30
0.0
 11
-219.6125470450332
 21
-251.2482365187213
 31
0.0
  0
LINE
  5
D0
102
{ACAD_REACTORS
330
1BB
330
1BC
102
}
330
4A
100
AcDbEntity
  8
0
  6
Continuous
 62
     2
100
AcDbLine
 10
-217.3700967649591
 20
-251.2482365187213
 30
0.0
 11
-217.3700967649591
 21
-250.1139644098775
 31
0.0
  0
LINE
  5
D1
102
{ACAD_REACTORS
330
1BB
330
1BC
102
}
330
4A
100
AcDbEntity
  8
0
  6
Continuous
 62
     2
100
AcDbLine
 10
-216.1773040627927
 20
-251.2482365187213
 30
0.0
 11
-217.3700967649591
 21
-251.2482365187213
 31
0.0
  0
LINE
  5
D2
102
{ACAD_REACTORS
330
1BB
330
1BC
102
}
330
4A
100
AcDbEntity
  8
0
  6
Continuous
 62
     2
100
AcDbLine
 10
-216.1773040627927
 20
-248.1944269949101
 30
0.0
 11
-216.1773040627927
 21
-251.2482365187213
 31
0.0
  0
LINE
  5
D3
102
{ACAD_REACTORS
330
1A9
330
1AA
102
}
330
4A
100
AcDbEntity
  8
0
  6
Continuous
 62
     2
100
AcDbLine
 10
-212.6943493724658
 20
-250.0703385595371
 30
0.0
 11
-211.3584215460381
 21
-250.0703385595371
 31
0.0
  0
LINE
  5
D4
102
{ACAD_REACTORS
330
1A9
330
1AA
102
}
330
4A
100
AcDbEntity
  8
0
  6
Continuous
 62
     2
100
AcDbLine
 10
-211.3584215460381
 20
-250.0703385595371
 30
0.0
 11
-211.3584215460381
 21
-249.3723249540948
 31
0.0
  0
LINE
  5
D5
102
{ACAD_REACTORS
330
1A9
330
1AA
102
}
330
4A
100
AcDbEntity
  8
0
  6
Continuous
 62
     2
100
AcDbLine
 10
-211.3584215460381
 20
-249.3723249540948
 30
0.0
 11
-212.6943493724658
 21
-249.3723249540948
 31
0.0
  0
LINE
  5
D6
102
{ACAD_REACTORS
330
1A9
330
1AA
102
}
330
4A
100
AcDbEntity
  8
0
  6
Continuous
 62
     2
100
AcDbLine
 10
-212.6943493724658
 20
-249.3723249540948
 30
0.0
 11
-212.6943493724658
 21
-248.8924406003531
 31
0.0
  0
LINE
  5
D7
102
{ACAD_REACTORS
330
1B9
330
1BA
102
}
330
4A
100
AcDbEntity
  8
0
  6
Continuous
 62
     2
100
AcDbLine
 10
-216.3683018260249
 20
-254.6074269948956
 30
0.0
 11
-215.1755091238573
 21
-254.6074269948956
 31
0.0
  0
LINE
  5
D8
102
{ACAD_REACTORS
330
1B9
330
1BA
102
}
330
4A
100
AcDbEntity
  8
0
  6
Continuous
 62
     2
100
AcDbLine
 10
-213.9350047136044
 20
-254.6074269948956
 30
0.0
 11
-212.742212011438
 21
-254.6074269948956
 31
0.0
  0
LINE
  5
D9
102
{ACAD_REACTORS
330
1B9
330
1BA
102
}
330
4A
100
AcDbEntity
  8
0
  6
Continuous
 62
     2
100
AcDbLine
 10
-215.1755091238573
 20
-251.5536174710845
 30
0.0
 11
-216.3683018260249
 21
-251.5536174710845
 31
0.0
  0
LINE
  5
DA
102
{ACAD_REACTORS
330
1B9
330
1BA
102
}
330
4A
100
AcDbEntity
  8
0
  6
Continuous
 62
     2
100
AcDbLine
 10
-216.3683018260249
 20
-251.5536174710845
 30
0.0
 11
-216.3683018260249
 21
-254.6074269948956
 31
0.0
  0
LINE
  5
DB
102
{ACAD_REACTORS
330
1B7
330
1B8
102
}
330
4A
100
AcDbEntity
  8
0
  6
Continuous
 62
     2
100
AcDbLine
 10
-208.6865658931847
 20
-248.1944269949101
 30
0.0
 11
-208.6865658931847
 21
-249.5032025051153
 31
0.0
  0
LINE
  5
DC
102
{ACAD_REACTORS
330
1B7
330
1B8
102
}
330
4A
100
AcDbEntity
  8
0
  6
Continuous
 62
     2
100
AcDbLine
 10
-209.9270703034387
 20
-248.1944269949101
 30
0.0
 11
-211.1198630056052
 21
-248.1944269949101
 31
0.0
  0
LINE
  5
DD
102
{ACAD_REACTORS
330
1B7
330
1B8
102
}
330
4A
100
AcDbEntity
  8
0
  6
Continuous
 62
     2
100
AcDbLine
 10
-211.1198630056052
 20
-248.1944269949101
 30
0.0
 11
-211.1198630056052
 21
-251.2482365187213
 31
0.0
  0
LINE
  5
DE
102
{ACAD_REACTORS
330
1B7
330
1B8
102
}
330
4A
100
AcDbEntity
  8
0
  6
Continuous
 62
     2
100
AcDbLine
 10
-209.9270703034387
 20
-251.2482365187213
 30
0.0
 11
-209.9270703034387
 21
-249.9394610085166
 31
0.0
  0
LINE
  5
DF
102
{ACAD_REACTORS
330
1B5
330
1B6
102
}
330
4A
100
AcDbEntity
  8
0
  6
Continuous
 62
     2
100
AcDbLine
 10
-210.5951851475367
 20
-254.6074269948956
 30
0.0
 11
-210.5951851475367
 21
-252.3388827772081
 31
0.0
  0
LINE
  5
E0
102
{ACAD_REACTORS
330
1B5
330
1B6
102
}
330
4A
100
AcDbEntity
  8
0
  6
Continuous
 62
     2
100
AcDbLine
 10
-210.5951851475367
 20
-252.3388827772081
 30
0.0
 11
-209.7840861100642
 21
-252.3388827772081
 31
0.0
  0
LINE
  5
E1
102
{ACAD_REACTORS
330
1B5
330
1B6
102
}
330
4A
100
AcDbEntity
  8
0
  6
Continuous
 62
     2
100
AcDbLine
 10
-209.7840861100642
 20
-252.3388827772081
 30
0.0
 11
-209.7840861100642
 21
-251.5536174710845
 31
0.0
  0
LINE
  5
E2
102
{ACAD_REACTORS
330
1B5
330
1B6
102
}
330
4A
100
AcDbEntity
  8
0
  6
Continuous
 62
     2
100
AcDbLine
 10
-209.7840861100642
 20
-251.5536174710845
 30
0.0
 11
-212.5990768871778
 21
-251.5536174710845
 31
0.0
  0
LINE
  5
E3
102
{ACAD_REACTORS
330
1B5
330
1B6
102
}
330
4A
100
AcDbEntity
  8
0
  6
Continuous
 62
     2
100
AcDbLine
 10
-212.5990768871778
 20
-252.3388827772081
 30
0.0
 11
-211.7879778497032
 21
-252.3388827772081
 31
0.0
  0
LINE
  5
E4
102
{ACAD_REACTORS
330
1B3
330
1B4
102
}
330
4A
100
AcDbEntity
  8
0
  6
Continuous
 62
     2
100
AcDbLine
 10
-208.9895802842668
 20
-254.0664664506777
 30
0.0
 11
-207.857138707593
 21
-254.0664664506777
 31
0.0
  0
LINE
  5
E5
102
{ACAD_REACTORS
330
1B3
330
1B4
102
}
330
4A
100
AcDbEntity
  8
0
  6
Continuous
 62
     2
100
AcDbLine
 10
-206.4051542438633
 20
-254.6074269948956
 30
0.0
 11
-207.6456586541172
 21
-254.6074269948956
 31
0.0
  0
LINE
  5
E6
102
{ACAD_REACTORS
330
1B3
330
1B4
102
}
330
4A
100
AcDbEntity
  8
0
  6
Continuous
 62
     2
100
AcDbLine
 10
-209.0436117010563
 20
-251.5536174710845
 30
0.0
 11
-210.4415647479956
 21
-254.6074269948956
 31
0.0
  0
LINE
  5
E7
102
{ACAD_REACTORS
330
1B3
330
1B4
102
}
330
4A
100
AcDbEntity
  8
0
  6
Continuous
 62
     2
100
AcDbLine
 10
-209.2010603377426
 20
-254.6074269948956
 30
0.0
 11
-208.9895802842668
 21
-254.0664664506777
 31
0.0
  0
LINE
  5
E8
102
{ACAD_REACTORS
330
1B3
330
1B4
102
}
330
4A
100
AcDbEntity
  8
0
  6
Continuous
 62
     2
100
AcDbLine
 10
-208.7235247331218
 20
-253.3859031853711
 30
0.0
 11
-208.4233594959294
 21
-252.6180882193844
 31
0.0
  0
LINE
  5
E9
102
{ACAD_REACTORS
330
1B1
330
1B2
102
}
330
4A
100
AcDbEntity
  8
0
  6
Continuous
 62
     2
100
AcDbLine
 10
-207.2552146505842
 20
-251.2482365187213
 30
0.0
 11
-207.2552146505842
 21
-248.1944269949101
 31
0.0
  0
LINE
  5
EA
102
{ACAD_REACTORS
330
1B1
330
1B2
102
}
330
4A
100
AcDbEntity
  8
0
  6
Continuous
 62
     2
100
AcDbLine
 10
-206.0147102403313
 20
-248.1944269949101
 30
0.0
 11
-206.0147102403313
 21
-251.2482365187213
 31
0.0
  0
LINE
  5
EB
102
{ACAD_REACTORS
330
1B1
330
1B2
102
}
330
4A
100
AcDbEntity
  8
0
  6
Continuous
 62
     2
100
AcDbLine
 10
-207.2552146505842
 20
-248.1944269949101
 30
0.0
 11
-206.0147102403313
 21
-248.1944269949101
 31
0.0
  0
LINE
  5
EC
102
{ACAD_REACTORS
330
1AF
330
1B0
102
}
330
4A
100
AcDbEntity
  8
0
  6
Continuous
 62
     2
100
AcDbLine
 10
-203.7961158143005
 20
-250.4605047334276
 30
0.0
 11
-203.099524876235
 21
-251.2482365187213
 31
0.0
  0
LINE
  5
ED
102
{ACAD_REACTORS
330
1AF
330
1B0
102
}
330
4A
100
AcDbEntity
  8
0
  6
Continuous
 62
     2
100
AcDbLine
 10
-203.099524876235
 20
-251.2482365187213
 30
0.0
 11
-201.6968006584867
 21
-251.2482365187213
 31
0.0
  0
LINE
  5
EE
102
{ACAD_REACTORS
330
1AF
330
1B0
102
}
330
4A
100
AcDbEntity
  8
0
  6
Continuous
 62
     2
100
AcDbLine
 10
-203.094753705427
 20
-249.6673775249463
 30
0.0
 11
-201.6968006584867
 21
-251.2482365187213
 31
0.0
  0
LINE
  5
EF
102
{ACAD_REACTORS
330
1AF
330
1B0
102
}
330
4A
100
AcDbEntity
  8
0
  6
Continuous
 62
     2
100
AcDbLine
 10
-203.094753705427
 20
-249.6673775249463
 30
0.0
 11
-201.7922240746605
 21
-248.1944269949101
 31
0.0
  0
LINE
  5
F0
102
{ACAD_REACTORS
330
1AF
330
1B0
102
}
330
4A
100
AcDbEntity
  8
0
  6
Continuous
 62
     2
100
AcDbLine
 10
-203.7961158143005
 20
-248.8742503164656
 30
0.0
 11
-203.1949482924077
 21
-248.1944269949101
 31
0.0
  0
LINE
  5
F1
102
{ACAD_REACTORS
330
1AF
330
1B0
102
}
330
4A
100
AcDbEntity
  8
0
  6
Continuous
 62
     2
100
AcDbLine
 10
-204.3972833361923
 20
-248.1944269949101
 30
0.0
 11
-203.7961158143005
 21
-248.8742503164656
 31
0.0
  0
LINE
  5
F2
102
{ACAD_REACTORS
330
1AF
330
1B0
102
}
330
4A
100
AcDbEntity
  8
0
  6
Continuous
 62
     2
100
AcDbLine
 10
-204.3972833361923
 20
-248.1944269949101
 30
0.0
 11
-205.8000075539416
 21
-248.1944269949101
 31
0.0
  0
LINE
  5
F3
102
{ACAD_REACTORS
330
1A5
330
1A6
102
}
330
4A
100
AcDbEntity
  8
0
  6
Continuous
 62
     2
100
AcDbLine
 10
-203.7006923981278
 20
-254.6074269948956
 30
0.0
 11
-202.5078996959601
 21
-254.6074269948956
 31
0.0
  0
LINE
  5
F4
102
{ACAD_REACTORS
330
1A5
330
1A6
102
}
330
4A
100
AcDbEntity
  8
0
  6
Continuous
 62
     2
100
AcDbLine
 10
-202.5078996959601
 20
-254.6074269948956
 30
0.0
 11
-202.5078996959601
 21
-252.3388827772081
 31
0.0
  0
LINE
  5
F5
102
{ACAD_REACTORS
330
1A5
330
1A6
102
}
330
4A
100
AcDbEntity
  8
0
  6
Continuous
 62
     2
100
AcDbLine
 10
-202.5078996959601
 20
-252.3388827772081
 30
0.0
 11
-201.6968006584867
 21
-252.3388827772081
 31
0.0
  0
LINE
  5
F6
102
{ACAD_REACTORS
330
1A5
330
1A6
102
}
330
4A
100
AcDbEntity
  8
0
  6
Continuous
 62
     2
100
AcDbLine
 10
-201.6968006584867
 20
-252.3388827772081
 30
0.0
 11
-201.6968006584867
 21
-251.5536174710845
 31
0.0
  0
LINE
  5
F7
102
{ACAD_REACTORS
330
1A5
330
1A6
102
}
330
4A
100
AcDbEntity
  8
0
  6
Continuous
 62
     2
100
AcDbLine
 10
-205.0817461771154
 20
-251.553617471085
 30
0.0
 11
-201.6968006584867
 21
-251.5536174710845
 31
0.0
  0
LINE
  5
F8
102
{ACAD_REACTORS
330
1A5
330
1A6
102
}
330
4A
100
AcDbEntity
  8
0
  6
Continuous
 62
     2
100
AcDbLine
 10
-203.7006923981278
 20
-252.3388827772081
 30
0.0
 11
-203.7006923981278
 21
-254.6074269948956
 31
0.0
  0
LINE
  5
F9
102
{ACAD_REACTORS
330
1A7
330
1A8
102
}
330
4A
100
AcDbEntity
  8
0
  6
Continuous
 62
     2
100
AcDbLine
 10
-226.330178833607
 20
-252.6285468453311
 30
0.0
 11
-226.330178833607
 21
-252.046695438636
 31
0.0
  0
LINE
  5
FA
102
{ACAD_REACTORS
330
1A7
330
1A8
102
}
330
4A
100
AcDbEntity
  8
0
  6
Continuous
 62
     2
100
AcDbLine
 10
-226.330178833607
 20
-249.8284122386998
 30
0.0
 11
-226.330178833607
 21
-249.222876950193
 31
0.0
  0
LINE
  5
FB
330
4A
100
AcDbEntity
  8
1
  6
Continuous
 62
     6
100
AcDbLine
 10
-247.8000002490038
 20
-261.9009269949119
 30
0.0
 11
-233.8448047757538
 21
-261.900926994912
 31
0.0
  0
LINE
  5
FC
330
4A
100
AcDbEntity
  8
1
  6
Continuous
 62
     6
100
AcDbLine
 10
-297.800000249004
 20
-261.9009269949119
 30
0.0
 11
-302.8448047757538
 21
-261.9009269949119
 31
0.0
  0
LINE
  5
FD
330
4A
100
AcDbEntity
  8
1
  6
Continuous
 62
     6
100
AcDbLine
 10
-147.8000002490038
 20
-261.9009269949119
 30
0.0
 11
-104.3000002490038
 21
-261.9009269949119
 31
0.0
  0
LINE
  5
FE
330
4A
100
AcDbEntity
  8
1
  6
Continuous
 62
     6
100
AcDbLine
 10
-197.8000002490038
 20
-261.9009269949119
 30
0.0
 11
-215.6448047757538
 21
-261.9009269949119
 31
0.0
  0
LINE
  5
FF
330
4A
100
AcDbEntity
  8
1
  6
Continuous
 62
     2
100
AcDbLine
 10
-104.3000002490038
 20
-261.9009269949119
 30
0.0
 11
-99.30000024900482
 21
-261.9009269949119
 31
0.0
  0
LINE
  5
100
330
4A
100
AcDbEntity
  8
1
  6
Continuous
 62
     2
100
AcDbLine
 10
-104.3000002490038
 20
-261.9009269949119
 30
0.0
 11
-104.3000002490038
 21
-266.900926994912
 31
0.0
  0
LINE
  5
101
330
4A
100
AcDbEntity
  8
1
  6
Continuous
 62
     6
100
AcDbLine
 10
-233.8448047757538
 20
-244.9009269949119
 30
0.0
 11
-197.4448047757539
 21
-244.9009269949119
 31
0.0
  0
LINE
  5
102
330
4A
100
AcDbEntity
  8
1
  6
Continuous
 62
     2
100
AcDbLine
 10
-99.30000024900482
 20
-266.900926994912
 30
0.0
 11
-99.30000024900482
 21
-261.9009269949119
 31
0.0
  0
LINE
  5
103
330
4A
100
AcDbEntity
  8
1
  6
Continuous
 62
     2
100
AcDbLine
 10
-99.30000024900482
 20
-266.900926994912
 30
0.0
 11
-104.3000002490038
 21
-266.900926994912
 31
0.0
  0
LINE
  5
104
330
4A
100
AcDbEntity
  8
1
  6
Continuous
 62
     2
100
AcDbLine
 10
-104.3000002490038
 20
-266.900926994912
 30
0.0
 11
-147.8000002490038
 21
-266.900926994912
 31
0.0
  0
LINE
  5
105
330
4A
100
AcDbEntity
  8
1
  6
Continuous
 62
     6
100
AcDbLine
 10
-104.3000002490021
 20
-244.9009269949119
 30
0.0
 11
-104.3000002490029
 21
-211.9009269949118
 31
0.0
  0
LINE
  5
106
330
4A
100
AcDbEntity
  8
1
  6
Continuous
 62
     2
100
AcDbLine
 10
-99.30000024900482
 20
-56.90092699491191
 30
0.0
 11
-247.8000002490038
 21
-56.90092699491191
 31
0.0
  0
LINE
  5
107
330
4A
100
AcDbEntity
  8
1
  6
Continuous
 62
     6
100
AcDbLine
 10
-104.3000002490048
 20
-76.90092699491191
 30
0.0
 11
-391.3000002490029
 21
-76.90092699491191
 31
0.0
  0
LINE
  5
108
330
4A
100
AcDbEntity
  8
1
  6
Continuous
 62
     2
100
AcDbLine
 10
-104.3000002490029
 20
-211.9009269949118
 30
0.0
 11
-99.30000024900482
 21
-211.9009269949118
 31
0.0
  0
LINE
  5
109
330
4A
100
AcDbEntity
  8
1
  6
Continuous
 62
     6
100
AcDbLine
 10
-104.3000002490029
 20
-211.9009269949118
 30
0.0
 11
-104.3000002490034
 21
-161.900926994912
 31
0.0
  0
LINE
  5
10A
330
4A
100
AcDbEntity
  8
1
  6
Continuous
 62
     2
100
AcDbLine
 10
-99.30000024900482
 20
-211.9009269949118
 30
0.0
 11
-99.30000024900482
 21
-161.900926994912
 31
0.0
  0
LINE
  5
10B
330
4A
100
AcDbEntity
  8
1
  6
Continuous
 62
     2
100
AcDbLine
 10
-104.3000002490034
 20
-161.900926994912
 30
0.0
 11
-99.30000024900482
 21
-161.900926994912
 31
0.0
  0
LINE
  5
10C
330
4A
100
AcDbEntity
  8
1
  6
Continuous
 62
     6
100
AcDbLine
 10
-104.3000002490034
 20
-161.900926994912
 30
0.0
 11
-104.3000002490046
 21
-111.9009269949119
 31
0.0
  0
LINE
  5
10D
330
4A
100
AcDbEntity
  8
1
  6
Continuous
 62
     2
100
AcDbLine
 10
-99.30000024900482
 20
-161.900926994912
 30
0.0
 11
-99.30000024900482
 21
-111.9009269949119
 31
0.0
  0
LINE
  5
10E
330
4A
100
AcDbEntity
  8
1
  6
Continuous
 62
     2
100
AcDbLine
 10
-104.3000002490046
 20
-111.9009269949119
 30
0.0
 11
-99.30000024900482
 21
-111.9009269949119
 31
0.0
  0
LINE
  5
10F
330
4A
100
AcDbEntity
  8
1
  6
Continuous
 62
     6
100
AcDbLine
 10
-104.3000002490046
 20
-111.9009269949119
 30
0.0
 11
-104.3000002490048
 21
-76.90092699491191
 31
0.0
  0
LINE
  5
110
330
4A
100
AcDbEntity
  8
1
  6
Continuous
 62
     2
100
AcDbLine
 10
-99.30000024900482
 20
-111.9009269949119
 30
0.0
 11
-99.30000024900482
 21
-56.90092699491191
 31
0.0
  0
LINE
  5
111
330
4A
100
AcDbEntity
  8
1
  6
Continuous
 62
     2
100
AcDbLine
 10
-99.30000024900482
 20
-261.9009269949119
 30
0.0
 11
-99.30000024900482
 21
-211.9009269949118
 31
0.0
  0
LINE
  5
112
330
4A
100
AcDbEntity
  8
1
  6
Continuous
 62
     2
100
AcDbLine
 10
-247.8000002490038
 20
-56.90092699491191
 30
0.0
 11
-396.3000002490029
 21
-56.90092699491191
 31
0.0
  0
LINE
  5
113
330
4A
100
AcDbEntity
  8
1
  6
Continuous
 62
     2
100
AcDbLine
 10
-247.8000002490038
 20
-56.90092699491191
 30
0.0
 11
-247.8000002490038
 21
-66.10961883961323
 31
0.0
  0
LINE
  5
114
330
4A
100
AcDbEntity
  8
1
  6
Continuous
 62
     2
100
AcDbLine
 10
-396.3000002490029
 20
-266.900926994912
 30
0.0
 11
-391.3000002490019
 21
-266.900926994912
 31
0.0
  0
LINE
  5
115
330
4A
100
AcDbEntity
  8
1
  6
Continuous
 62
     2
100
AcDbLine
 10
-396.3000002490029
 20
-56.90092699491191
 30
0.0
 11
-396.3000002490029
 21
-111.9009269949119
 31
0.0
  0
LINE
  5
116
330
4A
100
AcDbEntity
  8
1
  6
Continuous
 62
     6
100
AcDbLine
 10
-391.3000002490029
 20
-76.90092699491191
 30
0.0
 11
-391.3000002490028
 21
-111.9009269949119
 31
0.0
  0
LINE
  5
117
330
4A
100
AcDbEntity
  8
1
  6
Continuous
 62
     2
100
AcDbLine
 10
-396.3000002490029
 20
-111.9009269949119
 30
0.0
 11
-391.3000002490028
 21
-111.9009269949119
 31
0.0
  0
LINE
  5
118
330
4A
100
AcDbEntity
  8
1
  6
Continuous
 62
     2
100
AcDbLine
 10
-396.3000002490029
 20
-111.9009269949119
 30
0.0
 11
-396.3000002490029
 21
-161.900926994912
 31
0.0
  0
LINE
  5
119
330
4A
100
AcDbEntity
  8
1
  6
Continuous
 62
     6
100
AcDbLine
 10
-391.3000002490028
 20
-111.9009269949119
 30
0.0
 11
-391.3000002490023
 21
-161.900926994912
 31
0.0
  0
LINE
  5
11A
330
4A
100
AcDbEntity
  8
1
  6
Continuous
 62
     2
100
AcDbLine
 10
-396.3000002490029
 20
-161.900926994912
 30
0.0
 11
-391.3000002490023
 21
-161.900926994912
 31
0.0
  0
LINE
  5
11B
330
4A
100
AcDbEntity
  8
1
  6
Continuous
 62
     2
100
AcDbLine
 10
-396.3000002490029
 20
-161.900926994912
 30
0.0
 11
-396.3000002490029
 21
-211.9009269949118
 31
0.0
  0
LINE
  5
11C
330
4A
100
AcDbEntity
  8
1
  6
Continuous
 62
     6
100
AcDbLine
 10
-391.3000002490023
 20
-161.900926994912
 30
0.0
 11
-391.3000002490021
 21
-211.9009269949118
 31
0.0
  0
LINE
  5
11D
330
4A
100
AcDbEntity
  8
1
  6
Continuous
 62
     2
100
AcDbLine
 10
-396.3000002490029
 20
-211.9009269949118
 30
0.0
 11
-391.3000002490021
 21
-211.9009269949118
 31
0.0
  0
LINE
  5
11E
330
4A
100
AcDbEntity
  8
1
  6
Continuous
 62
     2
100
AcDbLine
 10
-396.3000002490029
 20
-211.9009269949118
 30
0.0
 11
-396.3000002490029
 21
-261.9009269949119
 31
0.0
  0
LINE
  5
11F
330
4A
100
AcDbEntity
  8
1
  6
Continuous
 62
     6
100
AcDbLine
 10
-391.3000002490021
 20
-211.9009269949118
 30
0.0
 11
-391.3000002490019
 21
-261.9009269949119
 31
0.0
  0
LINE
  5
120
330
4A
100
AcDbEntity
  8
1
  6
Continuous
 62
     2
100
AcDbLine
 10
-347.8000002490038
 20
-266.900926994912
 30
0.0
 11
-347.8000002490038
 21
-261.9009269949119
 31
0.0
  0
LINE
  5
121
330
4A
100
AcDbEntity
  8
1
  6
Continuous
 62
     2
100
AcDbLine
 10
-347.8000002490038
 20
-266.900926994912
 30
0.0
 11
-297.800000249004
 21
-266.900926994912
 31
0.0
  0
LINE
  5
122
330
4A
100
AcDbEntity
  8
1
  6
Continuous
 62
     2
100
AcDbLine
 10
-297.800000249004
 20
-266.900926994912
 30
0.0
 11
-297.800000249004
 21
-261.9009269949119
 31
0.0
  0
LINE
  5
123
330
4A
100
AcDbEntity
  8
1
  6
Continuous
 62
     2
100
AcDbLine
 10
-297.800000249004
 20
-266.900926994912
 30
0.0
 11
-247.8000002490038
 21
-266.900926994912
 31
0.0
  0
LINE
  5
124
330
4A
100
AcDbEntity
  8
1
  6
Continuous
 62
     2
100
AcDbLine
 10
-247.8000002490038
 20
-266.900926994912
 30
0.0
 11
-247.8000002490038
 21
-261.9009269949119
 31
0.0
  0
LINE
  5
125
330
4A
100
AcDbEntity
  8
1
  6
Continuous
 62
     2
100
AcDbLine
 10
-247.8000002490038
 20
-266.900926994912
 30
0.0
 11
-197.8000002490038
 21
-266.900926994912
 31
0.0
  0
LINE
  5
126
330
4A
100
AcDbEntity
  8
1
  6
Continuous
 62
     2
100
AcDbLine
 10
-197.8000002490038
 20
-266.900926994912
 30
0.0
 11
-197.8000002490038
 21
-261.9009269949119
 31
0.0
  0
LINE
  5
127
330
4A
100
AcDbEntity
  8
1
  6
Continuous
 62
     2
100
AcDbLine
 10
-147.8000002490038
 20
-266.900926994912
 30
0.0
 11
-147.8000002490038
 21
-261.9009269949119
 31
0.0
  0
LINE
  5
128
330
4A
100
AcDbEntity
  8
1
  6
Continuous
 62
     2
100
AcDbLine
 10
-147.8000002490038
 20
-266.900926994912
 30
0.0
 11
-197.8000002490038
 21
-266.900926994912
 31
0.0
  0
LINE
  5
129
330
4A
100
AcDbEntity
  8
1
  6
Continuous
 62
     2
100
AcDbLine
 10
-391.3000002490019
 20
-261.9009269949119
 30
0.0
 11
-391.3000002490019
 21
-266.900926994912
 31
0.0
  0
LINE
  5
12A
330
4A
100
AcDbEntity
  8
1
  6
Continuous
 62
     2
100
AcDbLine
 10
-391.3000002490019
 20
-266.900926994912
 30
0.0
 11
-347.8000002490038
 21
-266.900926994912
 31
0.0
  0
LINE
  5
12B
330
4A
100
AcDbEntity
  8
1
  6
Continuous
 62
     2
100
AcDbLine
 10
-391.3000002490019
 20
-261.9009269949119
 30
0.0
 11
-396.3000002490029
 21
-261.9009269949119
 31
0.0
  0
LINE
  5
12C
330
4A
100
AcDbEntity
  8
1
  6
Continuous
 62
     2
100
AcDbLine
 10
-396.3000002490029
 20
-261.9009269949119
 30
0.0
 11
-396.3000002490029
 21
-266.900926994912
 31
0.0
  0
LINE
  5
12D
330
4A
100
AcDbEntity
  8
1
  6
Continuous
 62
     6
100
AcDbLine
 10
-104.3000002490038
 20
-261.9009269949119
 30
0.0
 11
-104.3000002490025
 21
-253.4009269949119
 31
0.0
  0
LINE
  5
12E
330
4A
100
AcDbEntity
  8
1
  6
Continuous
 62
     6
100
AcDbLine
 10
-197.4448047757539
 20
-261.900926994912
 30
0.0
 11
-147.8000002490038
 21
-261.9009269949119
 31
0.0
  0
LINE
  5
12F
330
4A
100
AcDbEntity
  8
1
  6
Continuous
 62
     6
100
AcDbLine
 10
-350.100000249004
 20
-261.900926994912
 30
0.0
 11
-347.8000002490038
 21
-261.9009269949119
 31
0.0
  0
LINE
  5
130
330
4A
100
AcDbEntity
  8
1
  6
Continuous
 62
     6
100
AcDbLine
 10
-247.8000002490038
 20
-261.9009269949119
 30
0.0
 11
-297.800000249004
 21
-261.9009269949119
 31
0.0
  0
LINE
  5
131
330
4A
100
AcDbEntity
  8
1
  6
Continuous
 62
     7
100
AcDbLine
 10
-233.8448047757538
 20
-244.9009269949119
 30
0.0
 11
-233.8448047757538
 21
-257.650926994912
 31
0.0
  0
LINE
  5
132
330
4A
100
AcDbEntity
  8
1
  6
Continuous
 62
     7
100
AcDbLine
 10
-197.4448047757539
 20
-244.9009269949119
 30
0.0
 11
-197.4448047757539
 21
-257.6509269949119
 31
0.0
  0
LINE
  5
133
330
4A
100
AcDbEntity
  8
1
  6
Continuous
 62
     6
100
AcDbLine
 10
-350.100000249004
 20
-261.900926994912
 30
0.0
 11
-356.300000249002
 21
-261.9009269949119
 31
0.0
  0
LINE
  5
134
330
4A
100
AcDbEntity
  8
1
  6
Continuous
 62
     6
100
AcDbLine
 10
-197.4448047757539
 20
-261.900926994912
 30
0.0
 11
-197.8000002490038
 21
-261.9009269949119
 31
0.0
  0
LINE
  5
135
330
4A
100
AcDbEntity
  8
1
  6
Continuous
 62
     6
100
AcDbLine
 10
-104.3000002490021
 20
-244.9009269949119
 30
0.0
 11
-104.3000002490025
 21
-253.4009269949119
 31
0.0
  0
LINE
  5
136
330
4A
100
AcDbEntity
  8
1
  6
Continuous
 62
     6
100
AcDbLine
 10
-356.300000249002
 20
-261.9009269949119
 30
0.0
 11
-391.3000002490019
 21
-261.9009269949119
 31
0.0
  0
LINE
  5
137
330
4A
100
AcDbEntity
  8
1
  6
Continuous
 62
     2
100
AcDbLine
 10
-229.6081498891912
 20
-239.525926994912
 30
0.0
 11
-224.6081498891912
 21
-238.275926994912
 31
0.0
  0
LINE
  5
138
330
4A
100
AcDbEntity
  8
1
  6
Continuous
 62
     2
100
AcDbLine
 10
-229.6081498891912
 20
-242.025926994912
 30
0.0
 11
-229.6081498891912
 21
-239.525926994912
 31
0.0
  0
LINE
  5
139
330
4A
100
AcDbEntity
  8
1
  6
Continuous
 62
     2
100
AcDbLine
 10
-224.6081498891912
 20
-243.275926994912
 30
0.0
 11
-229.6081498891912
 21
-242.025926994912
 31
0.0
  0
LINE
  5
13A
330
4A
100
AcDbEntity
  8
1
  6
Continuous
 62
     2
100
AcDbLine
 10
-224.6081498891912
 20
-238.275926994912
 30
0.0
 11
-224.6081498891912
 21
-243.275926994912
 31
0.0
  0
LINE
  5
13B
330
4A
100
AcDbEntity
  8
1
  6
Continuous
 62
     7
100
AcDbLine
 10
-233.8448047757538
 20
-257.650926994912
 30
0.0
 11
-215.6448047757538
 21
-257.6509269949119
 31
0.0
  0
LINE
  5
13C
330
4A
100
AcDbEntity
  8
1
  6
Continuous
 62
     7
100
AcDbLine
 10
-233.8448047757538
 20
-257.650926994912
 30
0.0
 11
-233.8448047757538
 21
-261.900926994912
 31
0.0
  0
LINE
  5
13D
330
4A
100
AcDbEntity
  8
1
  6
Continuous
 62
     7
100
AcDbLine
 10
-197.4448047757539
 20
-257.6509269949119
 30
0.0
 11
-197.4448047757539
 21
-261.900926994912
 31
0.0
  0
LINE
  5
13E
330
4A
100
AcDbEntity
  8
1
  6
Continuous
 62
     7
100
AcDbLine
 10
-215.6448047757538
 20
-257.6509269949119
 30
0.0
 11
-215.6448047757538
 21
-261.9009269949119
 31
0.0
  0
LINE
  5
13F
330
4A
100
AcDbEntity
  8
1
  6
Continuous
 62
     6
100
AcDbLine
 10
-215.6448047757538
 20
-261.9009269949119
 30
0.0
 11
-233.8448047757538
 21
-261.900926994912
 31
0.0
  0
LINE
  5
140
330
4A
100
AcDbEntity
  8
1
  6
Continuous
 62
     7
100
AcDbLine
 10
-215.6448047757538
 20
-257.6509269949119
 30
0.0
 11
-197.4448047757539
 21
-257.6509269949119
 31
0.0
  0
LINE
  5
141
330
4A
100
AcDbEntity
  8
1
  6
Continuous
 62
     6
100
AcDbLine
 10
-233.8448047757538
 20
-236.4009269949119
 30
0.0
 11
-104.3000002490021
 21
-236.4009269949119
 31
0.0
  0
ARC
  5
142
102
{ACAD_REACTORS
330
1AB
330
1AC
102
}
330
4A
100
AcDbEntity
  8
0
  6
Continuous
 62
     2
100
AcDbCircle
 10
-218.4531567767938
 20
-253.0805222329903
 30
0.0
 40
0.77179977867969
100
AcDbArc
 50
321.8795802028388
 51
38.12041979715458
  0
ARC
  5
143
102
{ACAD_REACTORS
330
1AB
330
1AC
102
}
330
4A
100
AcDbEntity
  8
0
  6
Continuous
 62
     2
100
AcDbCircle
 10
-218.2534167404474
 20
-253.2372534111103
 30
0.0
 40
0.5179085730137754
100
AcDbArc
 50
218.1204197971937
 51
321.8795802027966
  0
ARC
  5
144
102
{ACAD_REACTORS
330
1AB
330
1AC
102
}
330
4A
100
AcDbEntity
  8
0
  6
Continuous
 62
     2
100
AcDbCircle
 10
-218.0536767041013
 20
-253.0805222329903
 30
0.0
 40
0.7717997786794856
100
AcDbArc
 50
141.8795802028376
 51
218.120419797169
  0
ARC
  5
145
102
{ACAD_REACTORS
330
1AB
330
1AC
102
}
330
4A
100
AcDbEntity
  8
0
  6
Continuous
 62
     2
100
AcDbCircle
 10
-218.2534167404474
 20
-252.9237910548698
 30
0.0
 40
0.517908573013295
100
AcDbArc
 50
38.12041979715146
 51
141.8795802028583
  0
ARC
  5
146
102
{ACAD_REACTORS
330
1A3
330
1A4
102
}
330
4A
100
AcDbEntity
  8
0
  6
Continuous
 62
     2
100
AcDbCircle
 10
-221.3154308760113
 20
-254.4909885983985
 30
0.0
 40
2.227384008973492
100
AcDbArc
 50
58.0690910500401
 51
71.55192388186676
  0
ARC
  5
147
102
{ACAD_REACTORS
330
1A3
330
1A4
102
}
330
4A
100
AcDbEntity
  8
0
  6
Continuous
 62
     2
100
AcDbCircle
 10
-221.0537031750525
 20
-252.8754508036513
 30
0.0
 40
0.511580060194863
100
AcDbArc
 50
113.3722778882033
 51
151.4785267423044
  0
ARC
  5
148
102
{ACAD_REACTORS
330
1A3
330
1A4
102
}
330
4A
100
AcDbEntity
  8
0
  6
Continuous
 62
     2
100
AcDbCircle
 10
-220.6763459169722
 20
-253.0805222329903
 30
0.0
 40
0.9410597353332545
100
AcDbArc
 50
151.4785267422669
 51
208.5214732577073
  0
ARC
  5
149
102
{ACAD_REACTORS
330
1A3
330
1A4
102
}
330
4A
100
AcDbEntity
  8
0
  6
Continuous
 62
     2
100
AcDbCircle
 10
-221.4733037511042
 20
-249.7678412877339
 30
0.0
 40
4.852596863498166
100
AcDbArc
 50
275.1581447696249
 51
285.9799912583529
  0
ARC
  5
14A
102
{ACAD_REACTORS
330
1A3
330
1A4
102
}
330
4A
100
AcDbEntity
  8
0
  6
Continuous
 62
     2
100
AcDbCircle
 10
-221.1844476563683
 20
-252.9677318709555
 30
0.0
 40
1.639695123939408
100
AcDbArc
 50
195.0618917770884
 51
275.1581447696395
  0
ARC
  5
14B
102
{ACAD_REACTORS
330
1A3
330
1A4
102
}
330
4A
100
AcDbEntity
  8
0
  6
Continuous
 62
     2
100
AcDbCircle
 10
-221.6035754998311
 20
-253.0805222329903
 30
0.0
 40
1.205656168390964
100
AcDbArc
 50
164.9381082228781
 51
195.0618917770945
  0
ARC
  5
14C
102
{ACAD_REACTORS
330
1A3
330
1A4
102
}
330
4A
100
AcDbEntity
  8
0
  6
Continuous
 62
     2
100
AcDbCircle
 10
-221.1844476563683
 20
-253.1933125950252
 30
0.0
 40
1.639695123940507
100
AcDbArc
 50
84.84185523036236
 51
164.9381082228877
  0
ARC
  5
14D
102
{ACAD_REACTORS
330
1A7
330
1A8
102
}
330
4A
100
AcDbEntity
  8
0
  6
Continuous
 62
     2
100
AcDbCircle
 10
-226.0144619105302
 20
-252.046695438636
 30
0.0
 40
0.3157169230765071
100
AcDbArc
 50
115.3740086783541
 51
180.0
  0
ARC
  5
14E
102
{ACAD_REACTORS
330
1A7
330
1A8
102
}
330
4A
100
AcDbEntity
  8
0
  6
Continuous
 62
     2
100
AcDbCircle
 10
-226.0144619105302
 20
-249.8284122386998
 30
0.0
 40
0.315716923076792
100
AcDbArc
 50
180.0
 51
244.6259913216459
  0
ARC
  5
14F
102
{ACAD_REACTORS
330
1A7
330
1A8
102
}
330
4A
100
AcDbEntity
  8
0
  6
Continuous
 62
     2
100
AcDbCircle
 10
-226.0088457752202
 20
-250.9257118977621
 30
0.0
 40
2.018561131933237
100
AcDbArc
 50
269.8110329575866
 51
90.18896704241334
  0
ARC
  5
150
102
{ACAD_REACTORS
330
1A7
330
1A8
102
}
330
4A
100
AcDbEntity
  8
0
  6
Continuous
 62
     2
100
AcDbCircle
 10
-226.0144619105302
 20
-252.6285468453311
 30
0.0
 40
0.315716923076792
100
AcDbArc
 50
180.0
 51
269.8110329574541
  0
ARC
  5
151
102
{ACAD_REACTORS
330
1A5
330
1A6
102
}
330
4A
100
AcDbEntity
  8
0
  6
Continuous
 62
     2
100
AcDbCircle
 10
-204.9510016957996
 20
-252.8754508036513
 30
0.0
 40
0.5115800601944143
100
AcDbArc
 50
109.3371432194853
 51
151.4785267424225
  0
ARC
  5
152
102
{ACAD_REACTORS
330
1A5
330
1A6
102
}
330
4A
100
AcDbEntity
  8
0
  6
Continuous
 62
     2
100
AcDbCircle
 10
-204.9510016957996
 20
-253.2855936623288
 30
0.0
 40
0.511580060196008
100
AcDbArc
 50
208.5214732576838
 51
246.6277221118449
  0
ARC
  5
153
102
{ACAD_REACTORS
330
1A5
330
1A6
102
}
330
4A
100
AcDbEntity
  8
0
  6
Continuous
 62
     2
100
AcDbCircle
 10
-205.500874020577
 20
-253.0805222329903
 30
0.0
 40
1.205656168392995
100
AcDbArc
 50
164.9381082229041
 51
195.0618917770972
  0
ARC
  5
154
102
{ACAD_REACTORS
330
1A5
330
1A6
102
}
330
4A
100
AcDbEntity
  8
0
  6
Continuous
 62
     2
100
AcDbCircle
 10
-205.0817461771154
 20
-253.1933125950252
 30
0.0
 40
1.639695123940186
100
AcDbArc
 50
90.0
 51
164.9381082228957
  0
ARC
  5
155
102
{ACAD_REACTORS
330
1A9
330
1AA
102
}
330
4A
100
AcDbEntity
  8
0
  6
Continuous
 62
     2
100
AcDbCircle
 10
-214.5087412698191
 20
-249.721331756816
 30
0.0
 40
1.526904761905911
100
AcDbArc
 50
90.0
 51
270.0
  0
ARC
  5
156
102
{ACAD_REACTORS
330
1AD
330
1AE
102
}
330
4A
100
AcDbEntity
  8
0
  6
Continuous
 62
     2
100
AcDbCircle
 10
-221.2514320150449
 20
-249.2103966650213
 30
0.0
 40
0.3528638246710898
100
AcDbArc
 50
270.0
 51
90.0
  0
ARC
  5
157
102
{ACAD_REACTORS
330
1A7
330
1A8
102
}
330
4A
100
AcDbEntity
  8
0
  6
Continuous
 62
     2
100
AcDbCircle
 10
-228.5900105970619
 20
-249.2226994735449
 30
0.0
 40
0.3157169230761951
100
AcDbArc
 50
90.0
 51
180.0
  0
ARC
  5
158
102
{ACAD_REACTORS
330
1A7
330
1A8
102
}
330
4A
100
AcDbEntity
  8
0
  6
Continuous
 62
     2
100
AcDbCircle
 10
-226.5915928884773
 20
-250.9375538386676
 30
0.0
 40
0.9118975235576268
100
AcDbArc
 50
115.1944106485298
 51
244.8055893514854
  0
ARC
  5
159
102
{ACAD_REACTORS
330
1A7
330
1A8
102
}
330
4A
100
AcDbEntity
  8
0
  6
Continuous
 62
     2
100
AcDbCircle
 10
-227.1141773360523
 20
-252.0483835847304
 30
0.0
 40
0.3157169230766215
100
AcDbArc
 50
0.0
 51
64.80558935146249
  0
ARC
  5
15A
102
{ACAD_REACTORS
330
1A7
330
1A8
102
}
330
4A
100
AcDbEntity
  8
0
  6
Continuous
 62
     2
100
AcDbCircle
 10
-229.1839052738084
 20
-254.1831823795123
 30
0.0
 40
0.4242446153828041
100
AcDbArc
 50
180.0
 51
270.0
  0
ARC
  5
15B
102
{ACAD_REACTORS
330
1A9
330
1AA
102
}
330
4A
100
AcDbEntity
  8
0
  6
Continuous
 62
     2
100
AcDbCircle
 10
-214.2924692596539
 20
-249.5646005786955
 30
0.0
 40
0.5179085730135266
100
AcDbArc
 50
38.12041979714334
 51
141.8795802028489
  0
ARC
  5
15C
102
{ACAD_REACTORS
330
1A9
330
1AA
102
}
330
4A
100
AcDbEntity
  8
0
  6
Continuous
 62
     2
100
AcDbCircle
 10
-214.0927292233076
 20
-249.721331756816
 30
0.0
 40
0.77179977867969
100
AcDbArc
 50
141.8795802028388
 51
218.1204197971546
  0
ARC
  5
15D
102
{ACAD_REACTORS
330
1AB
330
1AC
102
}
330
4A
100
AcDbEntity
  8
0
  6
Continuous
 62
     2
100
AcDbCircle
 10
-218.2534167404474
 20
-252.541947222687
 30
0.0
 40
2.065479772208497
100
AcDbArc
 50
242.4518518243391
 51
297.5481481756875
  0
ARC
  5
15E
102
{ACAD_REACTORS
330
1AB
330
1AC
102
}
330
4A
100
AcDbEntity
  8
0
  6
Continuous
 62
     2
100
AcDbCircle
 10
-218.2534167404474
 20
-253.6190972432931
 30
0.0
 40
2.065479772208593
100
AcDbArc
 50
62.45185182430674
 51
117.5481481756667
  0
ARC
  5
15F
102
{ACAD_REACTORS
330
1AB
330
1AC
102
}
330
4A
100
AcDbEntity
  8
0
  6
Continuous
 62
     2
100
AcDbCircle
 10
-218.5343566322807
 20
-253.0805222329903
 30
0.0
 40
1.458034083651503
100
AcDbArc
 50
117.5481481756634
 51
242.4518518243366
  0
ARC
  5
160
102
{ACAD_REACTORS
330
1AB
330
1AC
102
}
330
4A
100
AcDbEntity
  8
0
  6
Continuous
 62
     2
100
AcDbCircle
 10
-217.9724768486141
 20
-253.0805222329903
 30
0.0
 40
1.458034083652003
100
AcDbArc
 50
297.548148175701
 51
62.45185182429896
  0
ARC
  5
161
102
{ACAD_REACTORS
330
1A9
330
1AA
102
}
330
4A
100
AcDbEntity
  8
0
  6
Continuous
 62
     2
100
AcDbCircle
 10
-214.2924692596539
 20
-249.8780629349364
 30
0.0
 40
0.5179085730134372
100
AcDbArc
 50
218.1204197971511
 51
321.8795802028566
  0
ARC
  5
162
102
{ACAD_REACTORS
330
1A9
330
1AA
102
}
330
4A
100
AcDbEntity
  8
0
  6
Continuous
 62
     2
100
AcDbCircle
 10
-214.4922092960001
 20
-249.721331756816
 30
0.0
 40
0.7717997786796421
100
AcDbArc
 50
321.8795802028467
 51
38.12041979715993
  0
ARC
  5
163
102
{ACAD_REACTORS
330
1A7
330
1A8
102
}
330
4A
100
AcDbEntity
  8
0
  6
Continuous
 62
     2
100
AcDbCircle
 10
-223.7105931830916
 20
-254.1831823795123
 30
0.0
 40
0.4242446153833157
100
AcDbArc
 50
270.0
 51
0.0
  0
ARC
  5
164
102
{ACAD_REACTORS
330
1A7
330
1A8
102
}
330
4A
100
AcDbEntity
  8
0
  6
Continuous
 62
     2
100
AcDbCircle
 10
-223.7105931830916
 20
-248.6186716103121
 30
0.0
 40
0.4242446153838841
100
AcDbArc
 50
0.0
 51
90.0
  0
ARC
  5
165
102
{ACAD_REACTORS
330
1A7
330
1A8
102
}
330
4A
100
AcDbEntity
  8
0
  6
Continuous
 62
     2
100
AcDbCircle
 10
-229.1839052738084
 20
-248.6186716103121
 30
0.0
 40
0.4242446153837989
100
AcDbArc
 50
90.0
 51
180.0
  0
ARC
  5
166
102
{ACAD_REACTORS
330
1A7
330
1A8
102
}
330
4A
100
AcDbEntity
  8
0
  6
Continuous
 62
     2
100
AcDbCircle
 10
-227.1141773360523
 20
-253.579154516262
 30
0.0
 40
0.3157169230766783
100
AcDbArc
 50
270.0
 51
0.0
  0
ARC
  5
167
102
{ACAD_REACTORS
330
1A7
330
1A8
102
}
330
4A
100
AcDbEntity
  8
0
  6
Continuous
 62
     2
100
AcDbCircle
 10
-227.1141773360523
 20
-249.8267240926054
 30
0.0
 40
0.315716923076146
100
AcDbArc
 50
295.1944106485375
 51
0.0
  0
ARC
  5
168
102
{ACAD_REACTORS
330
1A7
330
1A8
102
}
330
4A
100
AcDbEntity
  8
0
  6
Continuous
 62
     2
100
AcDbCircle
 10
-227.1141773360523
 20
-249.2226994735449
 30
0.0
 40
0.3157169230766215
100
AcDbArc
 50
0.0
 51
90.0
  0
ARC
  5
169
102
{ACAD_REACTORS
330
1A7
330
1A8
102
}
330
4A
100
AcDbEntity
  8
0
  6
Continuous
 62
     2
100
AcDbCircle
 10
-228.5900105970619
 20
-253.579154516262
 30
0.0
 40
0.3157169230756836
100
AcDbArc
 50
180.0
 51
270.0
  0
ARC
  5
16A
102
{ACAD_REACTORS
330
1AD
330
1AE
102
}
330
4A
100
AcDbEntity
  8
0
  6
Continuous
 62
     2
100
AcDbCircle
 10
-220.8099594888065
 20
-249.2497926362438
 30
0.0
 40
1.055365641333708
100
AcDbArc
 50
270.0
 51
90.0
  0
ARC
  5
16B
102
{ACAD_REACTORS
330
1A5
330
1A6
102
}
330
4A
100
AcDbEntity
  8
0
  6
Continuous
 62
     2
100
AcDbCircle
 10
-205.0817461771154
 20
-252.9677318709555
 30
0.0
 40
1.639695123940421
100
AcDbArc
 50
195.0618917771015
 51
275.1581447696762
  0
ARC
  5
16C
102
{ACAD_REACTORS
330
1A5
330
1A6
102
}
330
4A
100
AcDbEntity
  8
0
  6
Continuous
 62
     2
100
AcDbCircle
 10
-205.3706022718512
 20
-249.7678412877339
 30
0.0
 40
4.85259686349885
100
AcDbArc
 50
275.158144769636
 51
285.9799912583383
  0
ARC
  5
16D
102
{ACAD_REACTORS
330
1A5
330
1A6
102
}
330
4A
100
AcDbEntity
  8
0
  6
Continuous
 62
     2
100
AcDbCircle
 10
-205.2127293967584
 20
-251.6700558675822
 30
0.0
 40
2.227384008972773
100
AcDbArc
 50
288.4480761181333
 51
301.9309089499387
  0
ARC
  5
16E
102
{ACAD_REACTORS
330
1A5
330
1A6
102
}
330
4A
100
AcDbEntity
  8
0
  6
Continuous
 62
     2
100
AcDbCircle
 10
-204.7945616630965
 20
-252.9236016436188
 30
0.0
 40
0.9059297849852801
100
AcDbArc
 50
246.6277221118183
 51
288.4480761180817
  0
ARC
  5
16F
102
{ACAD_REACTORS
330
1A5
330
1A6
102
}
330
4A
100
AcDbEntity
  8
0
  6
Continuous
 62
     2
100
AcDbCircle
 10
-204.5736444377182
 20
-253.0805222329903
 30
0.0
 40
0.9410597353348924
100
AcDbArc
 50
151.4785267423624
 51
208.5214732576695
  0
ARC
  5
170
102
{ACAD_REACTORS
330
1A5
330
1A6
102
}
330
4A
100
AcDbEntity
  8
0
  6
Continuous
 62
     2
100
AcDbCircle
 10
-204.8043316976959
 20
-253.2934057840342
 30
0.0
 40
0.9545230068260935
100
AcDbArc
 50
90.0
 51
109.3371432194314
  0
ARC
  5
171
102
{ACAD_REACTORS
330
1A7
330
1A8
102
}
330
4A
100
AcDbEntity
  8
0
  6
Continuous
 62
     2
100
AcDbCircle
 10
-226.0144619105302
 20
-249.222876950193
 30
0.0
 40
0.3157169230760711
100
AcDbArc
 50
90.18896704254594
 51
180.0
  0
ARC
  5
172
102
{ACAD_REACTORS
330
1A7
330
1A8
102
}
330
4A
100
AcDbEntity
  8
0
  6
Continuous
 62
     2
100
AcDbCircle
 10
-226.5405046086181
 20
-250.9375538386676
 30
0.0
 40
0.9118481501444712
100
AcDbArc
 50
295.3740086781781
 51
64.62599132180661
  0
ARC
  5
173
102
{ACAD_REACTORS
330
1A3
330
1A4
102
}
330
4A
100
AcDbEntity
  8
0
  6
Continuous
 62
     2
100
AcDbCircle
 10
-221.3154308760113
 20
-251.6700558675816
 30
0.0
 40
2.227384008972773
100
AcDbArc
 50
288.4480761181333
 51
301.9309089499599
  0
ARC
  5
174
102
{ACAD_REACTORS
330
1A3
330
1A4
102
}
330
4A
100
AcDbEntity
  8
0
  6
Continuous
 62
     2
100
AcDbCircle
 10
-220.8972631423505
 20
-252.9236016436188
 30
0.0
 40
0.9059297849849192
100
AcDbArc
 50
246.627722111871
 51
288.4480761181601
  0
ARC
  5
175
102
{ACAD_REACTORS
330
1A3
330
1A4
102
}
330
4A
100
AcDbEntity
  8
0
  6
Continuous
 62
     2
100
AcDbCircle
 10
-221.0537031750525
 20
-253.2855936623288
 30
0.0
 40
0.5115800601948034
100
AcDbArc
 50
208.5214732576956
 51
246.6277221118245
  0
ARC
  5
176
102
{ACAD_REACTORS
330
1A3
330
1A4
102
}
330
4A
100
AcDbEntity
  8
0
  6
Continuous
 62
     2
100
AcDbCircle
 10
-220.8972631423505
 20
-253.2374428223619
 30
0.0
 40
0.9059297849853588
100
AcDbArc
 50
71.55192388185235
 51
113.372277888129
  0
ARC
  5
177
102
{ACAD_REACTORS
330
1A3
330
1A4
102
}
330
4A
100
AcDbEntity
  8
0
  6
Continuous
 62
     2
100
AcDbCircle
 10
-221.4733037511042
 20
-256.3932031782462
 30
0.0
 40
4.852596863498095
100
AcDbArc
 50
74.02000874164747
 51
84.84185523037509
  0
CIRCLE
  5
178
102
{ACAD_REACTORS
330
1A7
330
1A8
102
}
330
4A
100
AcDbEntity
  8
0
  6
Continuous
 62
     2
100
AcDbCircle
 10
-226.5643196232909
 20
-250.9375538386676
 30
0.0
 40
0.4709789327785074
  0
CIRCLE
  5
179
330
4A
100
AcDbEntity
  8
1
  6
Continuous
 62
     2
100
AcDbCircle
 10
-221.1081498891912
 20
-240.775926994912
 30
0.0
 40
1.249999999999886
  0
CIRCLE
  5
17A
330
4A
100
AcDbEntity
  8
1
  6
Continuous
 62
     2
100
AcDbCircle
 10
-221.1081498891912
 20
-240.775926994912
 30
0.0
 40
2.5
  0
TEXT
  5
17C
330
4A
100
AcDbEntity
  8
1
 62
     7
100
AcDbText
 10
-178.47125705374
 20
-243.600926994912
 30
0.0
 40
2.5
  1
/
 41
0.9
  7
CONVERTER_11
100
AcDbText
  0
TEXT
  5
17E
330
4A
100
AcDbEntity
  8
1
 62
     7
100
AcDbText
 10
-176.314892556698
 20
-243.600926994912
 30
0.0
 40
2.5
  1
00
 41
0.81
  7
CONVERTER_12
100
AcDbText
  0
TEXT
  5
17F
330
4A
100
AcDbEntity
  8
1
 62
     3
100
AcDbText
 10
-138.7184085306809
 20
-243.600926994912
 30
0.0
 40
2.5
  1
08.07.2015
 41
0.81
  7
CONVERTER_12
100
AcDbText
  0
MTEXT
  5
180
330
4A
100
AcDbEntity
  8
1
 62
     2
100
AcDbMText
 10
-138.7184085306809
 20
-237.400926994912
 30
0.0
 40
1.8
 41
0.0
 71
     1
 72
     1
  1
date
  7
CONVERTER_11
 73
     1
 44
1.32052821128451
  0
MTEXT
  5
181
330
4A
100
AcDbEntity
  8
1
 62
     2
100
AcDbMText
 10
-168.5448047757538
 20
-245.900926994912
 30
0.0
 40
1.8
 41
0.0
 71
     1
 72
     1
  1
document-type
  7
CONVERTER_11
 73
     1
 44
1.20048019207683
  0
TEXT
  5
182
330
4A
100
AcDbEntity
  8
1
 62
     3
100
AcDbText
 10
-168.5448047757538
 20
-252.100926994912
 30
0.0
 40
2.5
  1
Customer drawing select
 41
0.81
  7
CONVERTER_12
100
AcDbText
  0
MTEXT
  5
184
330
4A
100
AcDbEntity
  8
1
 62
     2
100
AcDbMText
 10
-196.3448047757538
 20
-237.4009269949119
 30
0.0
 40
1.8
 41
0.0
 71
     1
 72
     1
  1
document-No. / RI
  7
CONVERTER_13
 73
     1
 44
1.32052821128451
  0
TEXT
  5
185
330
4A
100
AcDbEntity
  8
1
 62
     7
100
AcDbText
 10
-196.3448047757538
 20
-243.600926994912
 30
0.0
 40
2.5
  1
00882594
 41
0.81
  7
CONVERTER_12
100
AcDbText
  0
MTEXT
  5
187
330
4A
100
AcDbEntity
  8
1
 62
     3
100
AcDbMText
 10
-108.7592043898415
 20
-243.6009269949118
 30
0.0
 40
2.5
 41
0.0
 71
     8
 72
     1
  1
2:1
  7
CONVERTER_14
 73
     1
 44
1.32052821128451
  0
MTEXT
  5
188
330
4A
100
AcDbEntity
  8
1
 62
     2
100
AcDbMText
 10
-112.1184085306811
 20
-237.4009269949119
 30
0.0
 40
1.8
 41
0.0
 71
     1
 72
     1
  1
scale
  7
CONVERTER_11
 73
     1
 44
1.20048019207683
  0
MTEXT
  5
189
330
4A
100
AcDbEntity
  8
1
 62
     2
100
AcDbMText
 10
-196.3448047757538
 20
-245.9009269949119
 30
0.0
 40
1.8
 41
0.0
 71
     1
 72
     1
  1
ident.-No.
  7
CONVERTER_11
 73
     1
 44
1.20048019207683
  0
TEXT
  5
18A
330
4A
100
AcDbEntity
  8
1
 62
     7
100
AcDbText
 10
-195.9448047757541
 20
-252.100926994912
 30
0.0
 40
2.5
  1
0822479
 41
0.81
  7
CONVERTER_12
100
AcDbText
  0
MTEXT
  5
18B
330
4A
100
AcDbEntity
  8
1
 62
     2
100
AcDbMText
 10
-268.2828195008013
 20
-249.150926994912
 30
0.0
 40
2.0
 41
0.0
 71
     5
 72
     1
  1
General Information\P- Simplified representation\P- Document excluded from change process\P- Linear dimensions [mm]
  7
CONVERTER_11
 73
     1
 44
1.20048019207683
  0
MTEXT
  5
18C
330
4A
100
AcDbEntity
  8
1
 62
     7
100
AcDbMText
 10
-101.8000002490048
 20
-186.90092699491
 30
0.0
 40
3.5
 41
0.0
 71
     5
 72
     1
  1
C
  7
CONVERTER_11
 73
     1
 44
1.20048019207683
  0
MTEXT
  5
18D
330
4A
100
AcDbEntity
  8
1
 62
     7
100
AcDbMText
 10
-101.8000002490048
 20
-84.40092699491191
 30
0.0
 40
3.5
 41
0.0
 71
     5
 72
     1
  1
A
  7
CONVERTER_11
 73
     1
 44
1.20048019207683
  0
MTEXT
  5
18E
330
4A
100
AcDbEntity
  8
1
 62
     7
100
AcDbMText
 10
-101.8000002490048
 20
-136.90092699491
 30
0.0
 40
3.5
 41
0.0
 71
     5
 72
     1
  1
B
  7
CONVERTER_11
 73
     1
 44
1.20048019207683
  0
MTEXT
  5
18F
330
4A
100
AcDbEntity
  8
1
 62
     7
100
AcDbMText
 10
-101.8000002490048
 20
-239.4009269949119
 30
0.0
 40
3.5
 41
0.0
 71
     5
 72
     1
  1
D
  7
CONVERTER_11
 73
     1
 44
1.20048019207683
  0
MTEXT
  5
190
330
4A
100
AcDbEntity
  8
1
 62
     7
100
AcDbMText
 10
-372.0500002490034
 20
-264.400926994912
 30
0.0
 40
3.5
 41
0.0
 71
     5
 72
     1
  1
1
  7
CONVERTER_11
 73
     1
 44
1.20048019207683
  0
MTEXT
  5
191
330
4A
100
AcDbEntity
  8
1
 62
     7
100
AcDbMText
 10
-322.8000002490038
 20
-264.400926994912
 30
0.0
 40
3.5
 41
0.0
 71
     5
 72
     1
  1
2
  7
CONVERTER_11
 73
     1
 44
1.20048019207683
  0
MTEXT
  5
192
330
4A
100
AcDbEntity
  8
1
 62
     7
100
AcDbMText
 10
-272.8000002490038
 20
-264.400926994912
 30
0.0
 40
3.5
 41
0.0
 71
     5
 72
     1
  1
3
  7
CONVERTER_11
 73
     1
 44
1.20048019207683
  0
MTEXT
  5
193
330
4A
100
AcDbEntity
  8
1
 62
     7
100
AcDbMText
 10
-222.8000002490039
 20
-264.400926994912
 30
0.0
 40
3.5
 41
0.0
 71
     5
 72
     1
  1
4
  7
CONVERTER_11
 73
     1
 44
1.20048019207683
  0
MTEXT
  5
194
330
4A
100
AcDbEntity
  8
1
 62
     7
100
AcDbMText
 10
-172.8000002490038
 20
-264.400926994912
 30
0.0
 40
3.5
 41
0.0
 71
     5
 72
     1
  1
5
  7
CONVERTER_11
 73
     1
 44
1.20048019207683
  0
MTEXT
  5
195
330
4A
100
AcDbEntity
  8
1
 62
     7
100
AcDbMText
 10
-123.5500002490046
 20
-264.400926994912
 30
0.0
 40
3.5
 41
0.0
 71
     5
 72
     1
  1
6
  7
CONVERTER_11
 73
     1
 44
1.20048019207683
  0
MTEXT
  5
196
330
4A
100
AcDbEntity
  8
1
 62
     7
100
AcDbMText
 10
-393.8000002490029
 20
-84.40092699491191
 30
0.0
 40
3.5
 41
0.0
 71
     5
 72
     1
  1
A
  7
CONVERTER_11
 73
     1
 44
1.20048019207683
  0
MTEXT
  5
197
330
4A
100
AcDbEntity
  8
1
 62
     7
100
AcDbMText
 10
-393.8000002490029
 20
-136.9009269949119
 30
0.0
 40
3.5
 41
0.0
 71
     5
 72
     1
  1
B
  7
CONVERTER_11
 73
     1
 44
1.20048019207683
  0
MTEXT
  5
198
330
4A
100
AcDbEntity
  8
1
 62
     7
100
AcDbMText
 10
-393.8000002490029
 20
-186.9009269949119
 30
0.0
 40
3.5
 41
0.0
 71
     5
 72
     1
  1
C
  7
CONVERTER_11
 73
     1
 44
1.20048019207683
  0
MTEXT
  5
199
330
4A
100
AcDbEntity
  8
1
 62
     7
100
AcDbMText
 10
-393.8000002490029
 20
-239.4009269949119
 30
0.0
 40
3.5
 41
0.0
 71
     5
 72
     1
  1
D
  7
CONVERTER_11
 73
     1
 44
1.20048019207683
  0
MTEXT
  5
19A
330
4A
100
AcDbEntity
  8
1
 62
     3
100
AcDbMText
 10
-207.6448047757539
 20
-240.7759269949119
 30
0.0
 40
2.5
 41
0.0
 71
     5
 72
     1
  1
DIN A4
  7
CONVERTER_11
 73
     1
 44
1.20048019207683
  0
MTEXT
  5
19B
330
4A
100
AcDbEntity
  8
1
 62
     2
100
AcDbMText
 10
-196.4448047757539
 20
-254.4009269949119
 30
0.0
 40
1.8
 41
0.0
 71
     1
 72
     1
  1
description
  7
CONVERTER_11
 73
     1
 44
1.20048019207683
  0
MTEXT
  5
19C
330
4A
100
AcDbEntity
  8
1
 62
     7
100
AcDbMText
 10
-150.8724025123783
 20
-258.6509269949117
 30
0.0
 40
3.0
 41
0.0
 71
     5
 72
     1
  1
PATG 4/30
  7
CONVERTER_12
 73
     1
 44
1.20048019207683
  0
TEXT
  5
19D
330
4A
100
AcDbEntity
  8
1
 62
     2
100
AcDbText
 10
-209.4094959659403
 20
-260.650926994912
 30
0.0
 40
1.8
  1
1
 41
0.9
  7
CONVERTER_11
100
AcDbText
  0
TEXT
  5
19E
330
4A
100
AcDbEntity
  8
1
 62
     2
100
AcDbText
 10
-224.1985398054118
 20
-260.7001756487139
 30
0.0
 40
1.8
  1
1
 41
0.9
  7
CONVERTER_11
100
AcDbText
  0
TEXT
  5
19F
330
4A
100
AcDbEntity
  8
1
 62
     2
100
AcDbText
 10
-232.8448047757538
 20
-260.6599442099036
 30
0.0
 40
1.8
  1
page
 41
0.9
  7
CONVERTER_11
100
AcDbText
  0
TEXT
  5
1A0
330
4A
100
AcDbEntity
  8
1
 62
     2
100
AcDbText
 10
-214.644804775754
 20
-260.6599442099035
 30
0.0
 40
1.8
  1
of
 41
0.9
  7
CONVERTER_11
100
AcDbText
  0
MTEXT
  5
1A1
330
4A
100
AcDbEntity
  8
1
 62
     3
100
AcDbMText
 10
-208.4418226241439
 20
-75.10961883961312
 30
0.0
 40
1.8
 41
0.0
 71
     7
 72
     1
  3
Transfer or duplication of this document as well as the utilisation or\Pcommunication of its content are not permitted unless express consen\Pis granted. Violations give rise to claims for damages. All rights reserved\Pin case of patent, utility mod
  1
el or design patent registrations.
  7
CONVERTER_11
 73
     1
 44
0.99639855942377
  0
MTEXT
  5
1A2
330
4A
100
AcDbEntity
  8
1
 62
     3
100
AcDbMText
 10
-391.294932462932
 20
-75.10961883961312
 30
0.0
 40
1.8
 41
0.0
 71
     7
 72
     1
  3
Weitergabe sowie Vervielf\U+00e4ltigung dieses Dokuments, Verwertung und \PMitteilung seines Inhalts sind verboten, soweit nicht ausdr\U+00fccklich gestattet. \PZuwiderhandlungen verpflichten zu Schadenersatz. Alle Rechte f\U+00fcr den Fall\Pder Pat
  1
ent-, Gebrauchsmuster- oder Designeintragung vorbehalten.
  7
CONVERTER_11
 73
     1
 44
0.99639855942377
  0
HATCH
  5
1A3
330
4A
100
AcDbEntity
  8
1
  6
Continuous
 62
     2
100
AcDbHatch
 10
0.0
 20
0.0
 30
0.0
210
0.0
220
0.0
230
1.0
  2
_USER
 70
     0
 71
     1
 91
        1
 92
        1
 93
       14
 72
     2
 10
-221.6035754998311
 20
-253.0805222329903
 40
1.205656168390964
 50
164.9381082228781
 51
195.0618917770945
 73
     1
 72
     2
 10
-221.1844476563683
 20
-252.9677318709555
 40
1.639695123939408
 50
195.0618917770884
 51
275.1581447696395
 73
     1
 72
     2
 10
-221.4733037511042
 20
-249.7678412877339
 40
4.852596863498166
 50
275.1581447696249
 51
285.9799912583529
 73
     1
 72
     1
 10
-220.1373758339864
 20
-254.4329235935347
 11
-220.1373758339864
 21
-253.5604065867315
 72
     2
 10
-221.3154308760113
 20
-251.6700558675816
 40
2.227384008972773
 50
58.06909105004009
 51
71.55192388186677
 73
     0
 72
     2
 10
-220.8972631423505
 20
-252.9236016436188
 40
0.9059297849849192
 50
71.55192388183985
 51
113.372277888129
 73
     0
 72
     2
 10
-221.0537031750525
 20
-253.2855936623288
 40
0.5115800601948034
 50
113.3722778881755
 51
151.4785267423044
 73
     0
 72
     2
 10
-220.6763459169722
 20
-253.0805222329903
 40
0.9410597353332545
 50
151.4785267422927
 51
208.5214732577331
 73
     0
 72
     2
 10
-221.0537031750525
 20
-252.8754508036513
 40
0.511580060194863
 50
208.5214732576956
 51
246.6277221117967
 73
     0
 72
     2
 10
-220.8972631423505
 20
-253.2374428223619
 40
0.9059297849853588
 50
246.627722111871
 51
288.4480761181476
 73
     0
 72
     2
 10
-221.3154308760113
 20
-254.4909885983985
 40
2.227384008973492
 50
288.4480761181333
 51
301.9309089499599
 73
     0
 72
     1
 10
-220.1373758339864
 20
-252.6006378792486
 11
-220.1373758339864
 21
-251.7281208724453
 72
     2
 10
-221.4733037511042
 20
-256.3932031782462
 40
4.852596863498095
 50
74.02000874164747
 51
84.84185523037509
 73
     1
 72
     2
 10
-221.1844476563683
 20
-253.1933125950252
 40
1.639695123940507
 50
84.84185523036236
 51
164.9381082228877
 73
     1
 97
       14
330
177
330
90
330
146
330
176
330
147
330
148
330
175
330
174
330
173
330
91
330
149
330
14A
330
14B
330
14C
 75
     1
 76
     0
 52
45.0
 41
0.1
 77
     0
 78
     1
 53
45.0
 43
0.0
 44
0.0
 45
-0.0707106781186548
 46
0.0707106781186548
 79
     0
 98
        1
 10
0.0
 20
0.0
  0
HATCH
  5
1A4
330
4A
100
AcDbEntity
  8
1
  6
Continuous
 62
     2
100
AcDbHatch
 10
0.0
 20
0.0
 30
0.0
210
0.0
220
0.0
230
1.0
  2
_USER
 70
     0
 71
     1
 91
        1
 92
        1
 93
       14
 72
     2
 10
-221.6035754998311
 20
-253.0805222329903
 40
1.205656168390964
 50
164.9381082228781
 51
195.0618917770945
 73
     1
 72
     2
 10
-221.1844476563683
 20
-252.9677318709555
 40
1.639695123939408
 50
195.0618917770884
 51
275.1581447696395
 73
     1
 72
     2
 10
-221.4733037511042
 20
-249.7678412877339
 40
4.852596863498166
 50
275.1581447696249
 51
285.9799912583529
 73
     1
 72
     1
 10
-220.1373758339864
 20
-254.4329235935347
 11
-220.1373758339864
 21
-253.5604065867315
 72
     2
 10
-221.3154308760113
 20
-251.6700558675816
 40
2.227384008972773
 50
58.06909105004009
 51
71.55192388186677
 73
     0
 72
     2
 10
-220.8972631423505
 20
-252.9236016436188
 40
0.9059297849849192
 50
71.55192388183985
 51
113.372277888129
 73
     0
 72
     2
 10
-221.0537031750525
 20
-253.2855936623288
 40
0.5115800601948034
 50
113.3722778881755
 51
151.4785267423044
 73
     0
 72
     2
 10
-220.6763459169722
 20
-253.0805222329903
 40
0.9410597353332545
 50
151.4785267422927
 51
208.5214732577331
 73
     0
 72
     2
 10
-221.0537031750525
 20
-252.8754508036513
 40
0.511580060194863
 50
208.5214732576956
 51
246.6277221117967
 73
     0
 72
     2
 10
-220.8972631423505
 20
-253.2374428223619
 40
0.9059297849853588
 50
246.627722111871
 51
288.4480761181476
 73
     0
 72
     2
 10
-221.3154308760113
 20
-254.4909885983985
 40
2.227384008973492
 50
288.4480761181333
 51
301.9309089499599
 73
     0
 72
     1
 10
-220.1373758339864
 20
-252.6006378792486
 11
-220.1373758339864
 21
-251.7281208724453
 72
     2
 10
-221.4733037511042
 20
-256.3932031782462
 40
4.852596863498095
 50
74.02000874164747
 51
84.84185523037509
 73
     1
 72
     2
 10
-221.1844476563683
 20
-253.1933125950252
 40
1.639695123940507
 50
84.84185523036236
 51
164.9381082228877
 73
     1
 97
       14
330
177
330
90
330
146
330
176
330
147
330
148
330
175
330
174
330
173
330
91
330
149
330
14A
330
14B
330
14C
 75
     1
 76
     0
 52
45.0
 41
0.1
 77
     0
 78
     1
 53
45.0
 43
0.0
 44
0.0
 45
-0.0707106781186548
 46
0.0707106781186548
 79
     0
 98
        1
 10
0.0
 20
0.0
  0
HATCH
  5
1A5
330
4A
100
AcDbEntity
  8
1
  6
Continuous
 62
     2
100
AcDbHatch
 10
0.0
 20
0.0
 30
0.0
210
0.0
220
0.0
230
1.0
  2
_USER
 70
     0
 71
     1
 91
        1
 92
        1
 93
       18
 72
     2
 10
-205.0817461771154
 20
-253.1933125950252
 40
1.639695123940186
 50
90.0
 51
164.9381082228957
 73
     1
 72
     2
 10
-205.500874020577
 20
-253.0805222329903
 40
1.205656168392995
 50
164.9381082229041
 51
195.0618917770972
 73
     1
 72
     2
 10
-205.0817461771154
 20
-252.9677318709555
 40
1.639695123940421
 50
195.0618917771015
 51
275.1581447696762
 73
     1
 72
     2
 10
-205.3706022718512
 20
-249.7678412877339
 40
4.85259686349885
 50
275.158144769636
 51
285.9799912583383
 73
     1
 72
     1
 10
-204.0346743547345
 20
-254.4329235935353
 11
-204.0346743547345
 21
-253.560406586732
 72
     2
 10
-205.2127293967584
 20
-251.6700558675822
 40
2.227384008972773
 50
58.06909105006127
 51
71.55192388186677
 73
     0
 72
     2
 10
-204.7945616630965
 20
-252.9236016436188
 40
0.9059297849852801
 50
71.55192388191827
 51
113.3722778881817
 73
     0
 72
     2
 10
-204.9510016957996
 20
-253.2855936623288
 40
0.511580060196008
 50
113.3722778881551
 51
151.4785267423162
 73
     0
 72
     2
 10
-204.5736444377182
 20
-253.0805222329903
 40
0.9410597353348924
 50
151.4785267423305
 51
208.5214732576376
 73
     0
 72
     2
 10
-204.9510016957996
 20
-252.8754508036513
 40
0.5115800601944143
 50
208.5214732575775
 51
250.6628567805147
 73
     0
 72
     2
 10
-204.8043316976959
 20
-253.2934057840342
 40
0.9545230068260935
 50
250.6628567805685
 51
270.0
 73
     0
 72
     1
 10
-204.8043316976959
 20
-252.3388827772081
 11
-203.7006923981278
 21
-252.3388827772081
 72
     1
 10
-203.7006923981278
 20
-252.3388827772081
 11
-203.7006923981278
 21
-254.6074269948956
 72
     1
 10
-203.7006923981278
 20
-254.6074269948956
 11
-202.5078996959601
 21
-254.6074269948956
 72
     1
 10
-202.5078996959601
 20
-254.6074269948956
 11
-202.5078996959601
 21
-252.3388827772081
 72
     1
 10
-202.5078996959601
 20
-252.3388827772081
 11
-201.6968006584867
 21
-252.3388827772081
 72
     1
 10
-201.6968006584867
 20
-252.3388827772081
 11
-201.6968006584867
 21
-251.5536174710845
 72
     1
 10
-201.6968006584867
 20
-251.5536174710845
 11
-205.0817461771154
 21
-251.553617471085
 97
       18
330
F6
330
F5
330
F4
330
F3
330
F8
330
92
330
170
330
151
330
16F
330
152
330
16E
330
16D
330
93
330
16C
330
16B
330
153
330
154
330
F7
 75
     1
 76
     0
 52
45.0
 41
0.1
 77
     0
 78
     1
 53
45.0
 43
0.0
 44
0.0
 45
-0.0707106781186548
 46
0.0707106781186548
 79
     0
 98
        1
 10
0.0
 20
0.0
  0
HATCH
  5
1A6
330
4A
100
AcDbEntity
  8
1
  6
Continuous
 62
     2
100
AcDbHatch
 10
0.0
 20
0.0
 30
0.0
210
0.0
220
0.0
230
1.0
  2
_USER
 70
     0
 71
     1
 91
        1
 92
        1
 93
       18
 72
     2
 10
-205.0817461771154
 20
-253.1933125950252
 40
1.639695123940186
 50
90.0
 51
164.9381082228957
 73
     1
 72
     2
 10
-205.500874020577
 20
-253.0805222329903
 40
1.205656168392995
 50
164.9381082229041
 51
195.0618917770972
 73
     1
 72
     2
 10
-205.0817461771154
 20
-252.9677318709555
 40
1.639695123940421
 50
195.0618917771015
 51
275.1581447696762
 73
     1
 72
     2
 10
-205.3706022718512
 20
-249.7678412877339
 40
4.85259686349885
 50
275.158144769636
 51
285.9799912583383
 73
     1
 72
     1
 10
-204.0346743547345
 20
-254.4329235935353
 11
-204.0346743547345
 21
-253.560406586732
 72
     2
 10
-205.2127293967584
 20
-251.6700558675822
 40
2.227384008972773
 50
58.06909105006127
 51
71.55192388186677
 73
     0
 72
     2
 10
-204.7945616630965
 20
-252.9236016436188
 40
0.9059297849852801
 50
71.55192388191827
 51
113.3722778881817
 73
     0
 72
     2
 10
-204.9510016957996
 20
-253.2855936623288
 40
0.511580060196008
 50
113.3722778881551
 51
151.4785267423162
 73
     0
 72
     2
 10
-204.5736444377182
 20
-253.0805222329903
 40
0.9410597353348924
 50
151.4785267423305
 51
208.5214732576376
 73
     0
 72
     2
 10
-204.9510016957996
 20
-252.8754508036513
 40
0.5115800601944143
 50
208.5214732575775
 51
250.6628567805147
 73
     0
 72
     2
 10
-204.8043316976959
 20
-253.2934057840342
 40
0.9545230068260935
 50
250.6628567805685
 51
270.0
 73
     0
 72
     1
 10
-204.8043316976959
 20
-252.3388827772081
 11
-203.7006923981278
 21
-252.3388827772081
 72
     1
 10
-203.7006923981278
 20
-252.3388827772081
 11
-203.7006923981278
 21
-254.6074269948956
 72
     1
 10
-203.7006923981278
 20
-254.6074269948956
 11
-202.5078996959601
 21
-254.6074269948956
 72
     1
 10
-202.5078996959601
 20
-254.6074269948956
 11
-202.5078996959601
 21
-252.3388827772081
 72
     1
 10
-202.5078996959601
 20
-252.3388827772081
 11
-201.6968006584867
 21
-252.3388827772081
 72
     1
 10
-201.6968006584867
 20
-252.3388827772081
 11
-201.6968006584867
 21
-251.5536174710845
 72
     1
 10
-201.6968006584867
 20
-251.5536174710845
 11
-205.0817461771154
 21
-251.553617471085
 97
       18
330
F6
330
F5
330
F4
330
F3
330
F8
330
92
330
170
330
151
330
16F
330
152
330
16E
330
16D
330
93
330
16C
330
16B
330
153
330
154
330
F7
 75
     1
 76
     0
 52
45.0
 41
0.1
 77
     0
 78
     1
 53
45.0
 43
0.0
 44
0.0
 45
-0.0707106781186548
 46
0.0707106781186548
 79
     0
 98
        1
 10
0.0
 20
0.0
  0
HATCH
  5
1A7
330
4A
100
AcDbEntity
  8
1
  6
Continuous
 62
     2
100
AcDbHatch
 10
0.0
 20
0.0
 30
0.0
210
0.0
220
0.0
230
1.0
  2
_USER
 70
     0
 71
     1
 91
        4
 92
        1
 93
        8
 72
     2
 10
-229.1839052738084
 20
-248.6186716103121
 40
0.4242446153837989
 50
90.0
 51
180.0
 73
     1
 72
     1
 10
-229.6081498891912
 20
-248.6186716103121
 11
-229.6081498891912
 21
-254.1831823795123
 72
     2
 10
-229.1839052738084
 20
-254.1831823795123
 40
0.4242446153828041
 50
180.0
 51
270.0
 73
     1
 72
     1
 10
-229.1839052738084
 20
-254.6074269948956
 11
-223.7105931830916
 21
-254.6074269948956
 72
     2
 10
-223.7105931830916
 20
-254.1831823795123
 40
0.4242446153833157
 50
270.0
 51
360.0
 73
     1
 72
     1
 10
-223.2863485677077
 20
-254.1831823795123
 11
-223.2863485677077
 21
-248.6186716103121
 72
     2
 10
-223.7105931830916
 20
-248.6186716103121
 40
0.4242446153838841
 50
0.0
 51
90.0
 73
     1
 72
     1
 10
-223.7105931830916
 20
-248.1944269949283
 11
-229.1839052738084
 21
-248.1944269949283
 97
        8
330
164
330
C1
330
163
330
C2
330
15A
330
BF
330
165
330
C0
 92
       16
 93
        1
 72
     2
 10
-226.5643196232909
 20
-250.9375538386676
 40
0.4709789327785074
 50
0.0
 51
360.0
 73
     1
 97
        1
330
178
 92
       16
 93
        8
 72
     2
 10
-226.5405046086181
 20
-250.9375538386676
 40
0.9118481501444712
 50
295.3740086781781
 51
424.6259913218067
 73
     1
 72
     2
 10
-226.0144619105302
 20
-249.8284122386998
 40
0.315716923076792
 50
115.3740086783541
 51
180.0
 73
     0
 72
     1
 10
-226.330178833607
 20
-249.8284122386998
 11
-226.330178833607
 21
-249.222876950193
 72
     2
 10
-226.0144619105302
 20
-249.222876950193
 40
0.3157169230760711
 50
180.0
 51
269.8110329574541
 73
     0
 72
     2
 10
-226.0088457752202
 20
-250.9257118977621
 40
2.018561131933237
 50
269.8110329575866
 51
450.1889670424133
 73
     0
 72
     2
 10
-226.0144619105302
 20
-252.6285468453311
 40
0.315716923076792
 50
90.1889670425459
 51
180.0
 73
     0
 72
     1
 10
-226.330178833607
 20
-252.6285468453311
 11
-226.330178833607
 21
-252.046695438636
 72
     2
 10
-226.0144619105302
 20
-252.046695438636
 40
0.3157169230765071
 50
180.0
 51
244.6259913216459
 73
     0
 97
        8
330
172
330
14E
330
FA
330
171
330
14F
330
150
330
F9
330
14D
 92
       16
 93
       12
 72
     1
 10
-228.5900105970619
 20
-253.8948714393387
 11
-227.1141773360523
 21
-253.8948714393387
 72
     2
 10
-227.1141773360523
 20
-253.579154516262
 40
0.3157169230766783
 50
270.0
 51
360.0
 73
     1
 72
     1
 10
-226.7984604129757
 20
-253.579154516262
 11
-226.7984604129757
 21
-252.0483835847304
 72
     2
 10
-227.1141773360523
 20
-252.0483835847304
 40
0.3157169230766215
 50
0.0
 51
64.80558935146249
 73
     1
 72
     2
 10
-226.5915928884773
 20
-250.9375538386676
 40
0.9118975235576268
 50
115.1944106485146
 51
244.8055893514702
 73
     0
 72
     2
 10
-227.1141773360523
 20
-249.8267240926054
 40
0.315716923076146
 50
295.1944106485375
 51
360.0
 73
     1
 72
     1
 10
-226.7984604129757
 20
-249.8267240926054
 11
-226.7984604129757
 21
-249.2226994735449
 72
     2
 10
-227.1141773360523
 20
-249.2226994735449
 40
0.3157169230766215
 50
0.0
 51
90.0
 73
     1
 72
     1
 10
-227.1141773360523
 20
-248.9069825504687
 11
-228.5900105970619
 21
-248.9069825504687
 72
     2
 10
-228.5900105970619
 20
-249.2226994735449
 40
0.3157169230761951
 50
90.0
 51
180.0
 73
     1
 72
     1
 10
-228.9057275201376
 20
-249.2226994735449
 11
-228.9057275201376
 21
-253.579154516262
 72
     2
 10
-228.5900105970619
 20
-253.579154516262
 40
0.3157169230756836
 50
180.0
 51
270.0
 73
     1
 97
       12
330
C6
330
157
330
C5
330
168
330
C4
330
167
330
158
330
159
330
C3
330
166
330
BE
330
169
 75
     1
 76
     0
 52
45.0
 41
0.1
 77
     0
 78
     1
 53
45.0
 43
0.0
 44
0.0
 45
-0.0707106781186548
 46
0.0707106781186548
 79
     0
 98
        1
 10
0.0
 20
0.0
  0
HATCH
  5
1A8
330
4A
100
AcDbEntity
  8
1
  6
Continuous
 62
     2
100
AcDbHatch
 10
0.0
 20
0.0
 30
0.0
210
0.0
220
0.0
230
1.0
  2
_USER
 70
     0
 71
     1
 91
        4
 92
        1
 93
        8
 72
     2
 10
-229.1839052738084
 20
-248.6186716103121
 40
0.4242446153837989
 50
90.0
 51
180.0
 73
     1
 72
     1
 10
-229.6081498891912
 20
-248.6186716103121
 11
-229.6081498891912
 21
-254.1831823795123
 72
     2
 10
-229.1839052738084
 20
-254.1831823795123
 40
0.4242446153828041
 50
180.0
 51
270.0
 73
     1
 72
     1
 10
-229.1839052738084
 20
-254.6074269948956
 11
-223.7105931830916
 21
-254.6074269948956
 72
     2
 10
-223.7105931830916
 20
-254.1831823795123
 40
0.4242446153833157
 50
270.0
 51
360.0
 73
     1
 72
     1
 10
-223.2863485677077
 20
-254.1831823795123
 11
-223.2863485677077
 21
-248.6186716103121
 72
     2
 10
-223.7105931830916
 20
-248.6186716103121
 40
0.4242446153838841
 50
0.0
 51
90.0
 73
     1
 72
     1
 10
-223.7105931830916
 20
-248.1944269949283
 11
-229.1839052738084
 21
-248.1944269949283
 97
        8
330
164
330
C1
330
163
330
C2
330
15A
330
BF
330
165
330
C0
 92
       16
 93
        1
 72
     2
 10
-226.5643196232909
 20
-250.9375538386676
 40
0.4709789327785074
 50
0.0
 51
360.0
 73
     1
 97
        1
330
178
 92
       16
 93
        8
 72
     2
 10
-226.5405046086181
 20
-250.9375538386676
 40
0.9118481501444712
 50
295.3740086781781
 51
424.6259913218067
 73
     1
 72
     2
 10
-226.0144619105302
 20
-249.8284122386998
 40
0.315716923076792
 50
115.3740086783541
 51
180.0
 73
     0
 72
     1
 10
-226.330178833607
 20
-249.8284122386998
 11
-226.330178833607
 21
-249.222876950193
 72
     2
 10
-226.0144619105302
 20
-249.222876950193
 40
0.3157169230760711
 50
180.0
 51
269.8110329574541
 73
     0
 72
     2
 10
-226.0088457752202
 20
-250.9257118977621
 40
2.018561131933237
 50
269.8110329575866
 51
450.1889670424133
 73
     0
 72
     2
 10
-226.0144619105302
 20
-252.6285468453311
 40
0.315716923076792
 50
90.1889670425459
 51
180.0
 73
     0
 72
     1
 10
-226.330178833607
 20
-252.6285468453311
 11
-226.330178833607
 21
-252.046695438636
 72
     2
 10
-226.0144619105302
 20
-252.046695438636
 40
0.3157169230765071
 50
180.0
 51
244.6259913216459
 73
     0
 97
        8
330
172
330
14E
330
FA
330
171
330
14F
330
150
330
F9
330
14D
 92
       16
 93
       12
 72
     1
 10
-228.5900105970619
 20
-253.8948714393387
 11
-227.1141773360523
 21
-253.8948714393387
 72
     2
 10
-227.1141773360523
 20
-253.579154516262
 40
0.3157169230766783
 50
270.0
 51
360.0
 73
     1
 72
     1
 10
-226.7984604129757
 20
-253.579154516262
 11
-226.7984604129757
 21
-252.0483835847304
 72
     2
 10
-227.1141773360523
 20
-252.0483835847304
 40
0.3157169230766215
 50
0.0
 51
64.80558935146249
 73
     1
 72
     2
 10
-226.5915928884773
 20
-250.9375538386676
 40
0.9118975235576268
 50
115.1944106485146
 51
244.8055893514702
 73
     0
 72
     2
 10
-227.1141773360523
 20
-249.8267240926054
 40
0.315716923076146
 50
295.1944106485375
 51
360.0
 73
     1
 72
     1
 10
-226.7984604129757
 20
-249.8267240926054
 11
-226.7984604129757
 21
-249.2226994735449
 72
     2
 10
-227.1141773360523
 20
-249.2226994735449
 40
0.3157169230766215
 50
0.0
 51
90.0
 73
     1
 72
     1
 10
-227.1141773360523
 20
-248.9069825504687
 11
-228.5900105970619
 21
-248.9069825504687
 72
     2
 10
-228.5900105970619
 20
-249.2226994735449
 40
0.3157169230761951
 50
90.0
 51
180.0
 73
     1
 72
     1
 10
-228.9057275201376
 20
-249.2226994735449
 11
-228.9057275201376
 21
-253.579154516262
 72
     2
 10
-228.5900105970619
 20
-253.579154516262
 40
0.3157169230756836
 50
180.0
 51
270.0
 73
     1
 97
       12
330
C6
330
157
330
C5
330
168
330
C4
330
167
330
158
330
159
330
C3
330
166
330
BE
330
169
 75
     1
 76
     0
 52
45.0
 41
0.1
 77
     0
 78
     1
 53
45.0
 43
0.0
 44
0.0
 45
-0.0707106781186548
 46
0.0707106781186548
 79
     0
 98
        1
 10
0.0
 20
0.0
  0
HATCH
  5
1A9
330
4A
100
AcDbEntity
  8
1
  6
Continuous
 62
     2
100
AcDbHatch
 10
0.0
 20
0.0
 30
0.0
210
0.0
220
0.0
230
1.0
  2
_USER
 70
     0
 71
     1
 91
        2
 92
        1
 93
       12
 72
     2
 10
-214.5087412698191
 20
-249.721331756816
 40
1.526904761905911
 50
90.0
 51
270.0
 73
     1
 72
     1
 10
-214.5087412698191
 20
-251.2482365187213
 11
-211.3584215460381
 21
-251.2482365187213
 72
     1
 10
-211.3584215460381
 20
-251.2482365187213
 11
-211.3584215460381
 21
-250.5502229132788
 72
     1
 10
-211.3584215460381
 20
-250.5502229132788
 11
-212.6943493724658
 21
-250.5502229132788
 72
     1
 10
-212.6943493724658
 20
-250.5502229132788
 11
-212.6943493724658
 21
-250.0703385595371
 72
     1
 10
-212.6943493724658
 20
-250.0703385595371
 11
-211.3584215460381
 21
-250.0703385595371
 72
     1
 10
-211.3584215460381
 20
-250.0703385595371
 11
-211.3584215460381
 21
-249.3723249540948
 72
     1
 10
-211.3584215460381
 20
-249.3723249540948
 11
-212.6943493724658
 21
-249.3723249540948
 72
     1
 10
-212.6943493724658
 20
-249.3723249540948
 11
-212.6943493724658
 21
-248.8924406003531
 72
     1
 10
-212.6943493724658
 20
-248.8924406003531
 11
-211.3584215460381
 21
-248.8924406003531
 72
     1
 10
-211.3584215460381
 20
-248.8924406003531
 11
-211.3584215460381
 21
-248.1944269949101
 72
     1
 10
-211.3584215460381
 20
-248.1944269949101
 11
-214.5087412698191
 21
-248.1944269949101
 97
       12
330
B5
330
AF
330
D6
330
D5
330
D4
330
D3
330
B0
330
B1
330
B2
330
B3
330
155
330
B4
 92
       16
 93
        4
 72
     2
 10
-214.0927292233076
 20
-249.721331756816
 40
0.77179977867969
 50
141.8795802028388
 51
218.1204197971546
 73
     1
 72
     2
 10
-214.2924692596539
 20
-249.8780629349364
 40
0.5179085730134372
 50
218.1204197971511
 51
321.8795802028566
 73
     1
 72
     2
 10
-214.4922092960001
 20
-249.721331756816
 40
0.7717997786796421
 50
321.8795802028467
 51
398.1204197971599
 73
     1
 72
     2
 10
-214.2924692596539
 20
-249.5646005786955
 40
0.5179085730135266
 50
38.12041979714334
 51
141.8795802028489
 73
     1
 97
        4
330
162
330
161
330
15C
330
15B
 75
     1
 76
     0
 52
45.0
 41
0.1
 77
     0
 78
     1
 53
45.0
 43
0.0
 44
0.0
 45
-0.0707106781186548
 46
0.0707106781186548
 79
     0
 98
        1
 10
0.0
 20
0.0
  0
HATCH
  5
1AA
330
4A
100
AcDbEntity
  8
1
  6
Continuous
 62
     2
100
AcDbHatch
 10
0.0
 20
0.0
 30
0.0
210
0.0
220
0.0
230
1.0
  2
_USER
 70
     0
 71
     1
 91
        2
 92
        1
 93
       12
 72
     2
 10
-214.5087412698191
 20
-249.721331756816
 40
1.526904761905911
 50
90.0
 51
270.0
 73
     1
 72
     1
 10
-214.5087412698191
 20
-251.2482365187213
 11
-211.3584215460381
 21
-251.2482365187213
 72
     1
 10
-211.3584215460381
 20
-251.2482365187213
 11
-211.3584215460381
 21
-250.5502229132788
 72
     1
 10
-211.3584215460381
 20
-250.5502229132788
 11
-212.6943493724658
 21
-250.5502229132788
 72
     1
 10
-212.6943493724658
 20
-250.5502229132788
 11
-212.6943493724658
 21
-250.0703385595371
 72
     1
 10
-212.6943493724658
 20
-250.0703385595371
 11
-211.3584215460381
 21
-250.0703385595371
 72
     1
 10
-211.3584215460381
 20
-250.0703385595371
 11
-211.3584215460381
 21
-249.3723249540948
 72
     1
 10
-211.3584215460381
 20
-249.3723249540948
 11
-212.6943493724658
 21
-249.3723249540948
 72
     1
 10
-212.6943493724658
 20
-249.3723249540948
 11
-212.6943493724658
 21
-248.8924406003531
 72
     1
 10
-212.6943493724658
 20
-248.8924406003531
 11
-211.3584215460381
 21
-248.8924406003531
 72
     1
 10
-211.3584215460381
 20
-248.8924406003531
 11
-211.3584215460381
 21
-248.1944269949101
 72
     1
 10
-211.3584215460381
 20
-248.1944269949101
 11
-214.5087412698191
 21
-248.1944269949101
 97
       12
330
B5
330
AF
330
D6
330
D5
330
D4
330
D3
330
B0
330
B1
330
B2
330
B3
330
155
330
B4
 92
       16
 93
        4
 72
     2
 10
-214.0927292233076
 20
-249.721331756816
 40
0.77179977867969
 50
141.8795802028388
 51
218.1204197971546
 73
     1
 72
     2
 10
-214.2924692596539
 20
-249.8780629349364
 40
0.5179085730134372
 50
218.1204197971511
 51
321.8795802028566
 73
     1
 72
     2
 10
-214.4922092960001
 20
-249.721331756816
 40
0.7717997786796421
 50
321.8795802028467
 51
398.1204197971599
 73
     1
 72
     2
 10
-214.2924692596539
 20
-249.5646005786955
 40
0.5179085730135266
 50
38.12041979714334
 51
141.8795802028489
 73
     1
 97
        4
330
162
330
161
330
15C
330
15B
 75
     1
 76
     0
 52
45.0
 41
0.1
 77
     0
 78
     1
 53
45.0
 43
0.0
 44
0.0
 45
-0.0707106781186548
 46
0.0707106781186548
 79
     0
 98
        1
 10
0.0
 20
0.0
  0
HATCH
  5
1AB
330
4A
100
AcDbEntity
  8
1
  6
Continuous
 62
     2
100
AcDbHatch
 10
0.0
 20
0.0
 30
0.0
210
0.0
220
0.0
230
1.0
  2
_USER
 70
     0
 71
     1
 91
        2
 92
        1
 93
        4
 72
     2
 10
-218.5343566322807
 20
-253.0805222329903
 40
1.458034083651503
 50
117.5481481756634
 51
242.4518518243366
 73
     1
 72
     2
 10
-218.2534167404474
 20
-252.541947222687
 40
2.065479772208497
 50
242.4518518243391
 51
297.5481481756875
 73
     1
 72
     2
 10
-217.9724768486141
 20
-253.0805222329903
 40
1.458034083652003
 50
297.548148175701
 51
422.451851824299
 73
     1
 72
     2
 10
-218.2534167404474
 20
-253.6190972432931
 40
2.065479772208593
 50
62.45185182430674
 51
117.5481481756667
 73
     1
 97
        4
330
160
330
15D
330
15F
330
15E
 92
       16
 93
        4
 72
     2
 10
-218.2534167404474
 20
-252.9237910548698
 40
0.517908573013295
 50
38.12041979715146
 51
141.8795802028583
 73
     1
 72
     2
 10
-218.0536767041013
 20
-253.0805222329903
 40
0.7717997786794856
 50
141.8795802028376
 51
218.120419797169
 73
     1
 72
     2
 10
-218.2534167404474
 20
-253.2372534111103
 40
0.5179085730137754
 50
218.1204197971937
 51
321.8795802027966
 73
     1
 72
     2
 10
-218.4531567767938
 20
-253.0805222329903
 40
0.77179977867969
 50
321.8795802028388
 51
398.1204197971546
 73
     1
 97
        4
330
143
330
144
330
145
330
142
 75
     1
 76
     0
 52
45.0
 41
0.1
 77
     0
 78
     1
 53
45.0
 43
0.0
 44
0.0
 45
-0.0707106781186548
 46
0.0707106781186548
 79
     0
 98
        1
 10
0.0
 20
0.0
  0
HATCH
  5
1AC
330
4A
100
AcDbEntity
  8
1
  6
Continuous
 62
     2
100
AcDbHatch
 10
0.0
 20
0.0
 30
0.0
210
0.0
220
0.0
230
1.0
  2
_USER
 70
     0
 71
     1
 91
        2
 92
        1
 93
        4
 72
     2
 10
-218.5343566322807
 20
-253.0805222329903
 40
1.458034083651503
 50
117.5481481756634
 51
242.4518518243366
 73
     1
 72
     2
 10
-218.2534167404474
 20
-252.541947222687
 40
2.065479772208497
 50
242.4518518243391
 51
297.5481481756875
 73
     1
 72
     2
 10
-217.9724768486141
 20
-253.0805222329903
 40
1.458034083652003
 50
297.548148175701
 51
422.451851824299
 73
     1
 72
     2
 10
-218.2534167404474
 20
-253.6190972432931
 40
2.065479772208593
 50
62.45185182430674
 51
117.5481481756667
 73
     1
 97
        4
330
160
330
15D
330
15F
330
15E
 92
       16
 93
        4
 72
     2
 10
-218.2534167404474
 20
-252.9237910548698
 40
0.517908573013295
 50
38.12041979715146
 51
141.8795802028583
 73
     1
 72
     2
 10
-218.0536767041013
 20
-253.0805222329903
 40
0.7717997786794856
 50
141.8795802028376
 51
218.120419797169
 73
     1
 72
     2
 10
-218.2534167404474
 20
-253.2372534111103
 40
0.5179085730137754
 50
218.1204197971937
 51
321.8795802027966
 73
     1
 72
     2
 10
-218.4531567767938
 20
-253.0805222329903
 40
0.77179977867969
 50
321.8795802028388
 51
398.1204197971546
 73
     1
 97
        4
330
143
330
144
330
145
330
142
 75
     1
 76
     0
 52
45.0
 41
0.1
 77
     0
 78
     1
 53
45.0
 43
0.0
 44
0.0
 45
-0.0707106781186548
 46
0.0707106781186548
 79
     0
 98
        1
 10
0.0
 20
0.0
  0
HATCH
  5
1AD
330
4A
100
AcDbEntity
  8
1
  6
Continuous
 62
     2
100
AcDbHatch
 10
0.0
 20
0.0
 30
0.0
210
0.0
220
0.0
230
1.0
  2
_USER
 70
     0
 71
     1
 91
        2
 92
        1
 93
        6
 72
     1
 10
-222.8092314868409
 20
-248.1944269949101
 11
-222.8092314868409
 21
-251.2482365187213
 72
     1
 10
-222.8092314868409
 20
-251.2482365187213
 11
-221.5687270765868
 21
-251.2482365187213
 72
     1
 10
-221.5687270765868
 20
-251.2482365187213
 11
-221.5687270765868
 21
-250.3051582775775
 72
     1
 10
-221.5687270765868
 20
-250.3051582775775
 11
-220.8099594888065
 21
-250.3051582775775
 72
     2
 10
-220.8099594888065
 20
-249.2497926362438
 40
1.055365641333708
 50
270.0
 51
450.0
 73
     1
 72
     1
 10
-220.8099594888065
 20
-248.1944269949101
 11
-222.8092314868409
 21
-248.1944269949101
 97
        6
330
16A
330
C7
330
BD
330
BC
330
C9
330
C8
 92
       16
 93
        4
 72
     1
 10
-221.2514320150449
 20
-248.8575328403502
 11
-221.5687270765868
 21
-248.8575328403502
 72
     1
 10
-221.5687270765868
 20
-248.8575328403502
 11
-221.5687270765868
 21
-249.5632604896924
 72
     1
 10
-221.5687270765868
 20
-249.5632604896924
 11
-221.2514320150449
 21
-249.5632604896924
 72
     2
 10
-221.2514320150449
 20
-249.2103966650213
 40
0.3528638246710898
 50
270.0
 51
450.0
 73
     1
 97
        4
330
CA
330
BB
330
CB
330
156
 75
     1
 76
     0
 52
45.0
 41
0.1
 77
     0
 78
     1
 53
45.0
 43
0.0
 44
0.0
 45
-0.0707106781186548
 46
0.0707106781186548
 79
     0
 98
        1
 10
0.0
 20
0.0
  0
HATCH
  5
1AE
330
4A
100
AcDbEntity
  8
1
  6
Continuous
 62
     2
100
AcDbHatch
 10
0.0
 20
0.0
 30
0.0
210
0.0
220
0.0
230
1.0
  2
_USER
 70
     0
 71
     1
 91
        2
 92
        1
 93
        6
 72
     1
 10
-222.8092314868409
 20
-248.1944269949101
 11
-222.8092314868409
 21
-251.2482365187213
 72
     1
 10
-222.8092314868409
 20
-251.2482365187213
 11
-221.5687270765868
 21
-251.2482365187213
 72
     1
 10
-221.5687270765868
 20
-251.2482365187213
 11
-221.5687270765868
 21
-250.3051582775775
 72
     1
 10
-221.5687270765868
 20
-250.3051582775775
 11
-220.8099594888065
 21
-250.3051582775775
 72
     2
 10
-220.8099594888065
 20
-249.2497926362438
 40
1.055365641333708
 50
270.0
 51
450.0
 73
     1
 72
     1
 10
-220.8099594888065
 20
-248.1944269949101
 11
-222.8092314868409
 21
-248.1944269949101
 97
        6
330
16A
330
C7
330
BD
330
BC
330
C9
330
C8
 92
       16
 93
        4
 72
     1
 10
-221.2514320150449
 20
-248.8575328403502
 11
-221.5687270765868
 21
-248.8575328403502
 72
     1
 10
-221.5687270765868
 20
-248.8575328403502
 11
-221.5687270765868
 21
-249.5632604896924
 72
     1
 10
-221.5687270765868
 20
-249.5632604896924
 11
-221.2514320150449
 21
-249.5632604896924
 72
     2
 10
-221.2514320150449
 20
-249.2103966650213
 40
0.3528638246710898
 50
270.0
 51
450.0
 73
     1
 97
        4
330
CA
330
BB
330
CB
330
156
 75
     1
 76
     0
 52
45.0
 41
0.1
 77
     0
 78
     1
 53
45.0
 43
0.0
 44
0.0
 45
-0.0707106781186548
 46
0.0707106781186548
 79
     0
 98
        1
 10
0.0
 20
0.0
  0
HATCH
  5
1AF
330
4A
100
AcDbEntity
  8
1
  6
Continuous
 62
     2
100
AcDbHatch
 10
0.0
 20
0.0
 30
0.0
210
0.0
220
0.0
230
1.0
  2
_USER
 70
     0
 71
     1
 91
        1
 92
        1
 93
       12
 72
     1
 10
-203.1949482924077
 20
-248.1944269949101
 11
-201.7922240746605
 21
-248.1944269949101
 72
     1
 10
-201.7922240746605
 20
-248.1944269949101
 11
-203.094753705427
 21
-249.6673775249463
 72
     1
 10
-203.094753705427
 20
-249.6673775249463
 11
-201.6968006584867
 21
-251.2482365187213
 72
     1
 10
-201.6968006584867
 20
-251.2482365187213
 11
-203.099524876235
 21
-251.2482365187213
 72
     1
 10
-203.099524876235
 20
-251.2482365187213
 11
-203.7961158143005
 21
-250.4605047334276
 72
     1
 10
-203.7961158143005
 20
-250.4605047334276
 11
-204.4927067523662
 21
-251.2482365187213
 72
     1
 10
-204.4927067523662
 20
-251.2482365187213
 11
-205.8954309701144
 21
-251.2482365187213
 72
     1
 10
-205.8954309701144
 20
-251.2482365187213
 11
-204.4974779231741
 21
-249.6673775249463
 72
     1
 10
-204.4974779231741
 20
-249.6673775249463
 11
-205.8000075539416
 21
-248.1944269949101
 72
     1
 10
-205.8000075539416
 20
-248.1944269949101
 11
-204.3972833361923
 21
-248.1944269949101
 72
     1
 10
-204.3972833361923
 20
-248.1944269949101
 11
-203.7961158143005
 21
-248.8742503164656
 72
     1
 10
-203.7961158143005
 20
-248.8742503164656
 11
-203.1949482924077
 21
-248.1944269949101
 97
       12
330
96
330
EF
330
EE
330
ED
330
EC
330
97
330
98
330
94
330
95
330
F2
330
F1
330
F0
 75
     1
 76
     0
 52
45.0
 41
0.1
 77
     0
 78
     1
 53
45.0
 43
0.0
 44
0.0
 45
-0.0707106781186548
 46
0.0707106781186548
 79
     0
 98
        1
 10
0.0
 20
0.0
  0
HATCH
  5
1B0
330
4A
100
AcDbEntity
  8
1
  6
Continuous
 62
     2
100
AcDbHatch
 10
0.0
 20
0.0
 30
0.0
210
0.0
220
0.0
230
1.0
  2
_USER
 70
     0
 71
     1
 91
        1
 92
        1
 93
       12
 72
     1
 10
-203.1949482924077
 20
-248.1944269949101
 11
-201.7922240746605
 21
-248.1944269949101
 72
     1
 10
-201.7922240746605
 20
-248.1944269949101
 11
-203.094753705427
 21
-249.6673775249463
 72
     1
 10
-203.094753705427
 20
-249.6673775249463
 11
-201.6968006584867
 21
-251.2482365187213
 72
     1
 10
-201.6968006584867
 20
-251.2482365187213
 11
-203.099524876235
 21
-251.2482365187213
 72
     1
 10
-203.099524876235
 20
-251.2482365187213
 11
-203.7961158143005
 21
-250.4605047334276
 72
     1
 10
-203.7961158143005
 20
-250.4605047334276
 11
-204.4927067523662
 21
-251.2482365187213
 72
     1
 10
-204.4927067523662
 20
-251.2482365187213
 11
-205.8954309701144
 21
-251.2482365187213
 72
     1
 10
-205.8954309701144
 20
-251.2482365187213
 11
-204.4974779231741
 21
-249.6673775249463
 72
     1
 10
-204.4974779231741
 20
-249.6673775249463
 11
-205.8000075539416
 21
-248.1944269949101
 72
     1
 10
-205.8000075539416
 20
-248.1944269949101
 11
-204.3972833361923
 21
-248.1944269949101
 72
     1
 10
-204.3972833361923
 20
-248.1944269949101
 11
-203.7961158143005
 21
-248.8742503164656
 72
     1
 10
-203.7961158143005
 20
-248.8742503164656
 11
-203.1949482924077
 21
-248.1944269949101
 97
       12
330
96
330
EF
330
EE
330
ED
330
EC
330
97
330
98
330
94
330
95
330
F2
330
F1
330
F0
 75
     1
 76
     0
 52
45.0
 41
0.1
 77
     0
 78
     1
 53
45.0
 43
0.0
 44
0.0
 45
-0.0707106781186548
 46
0.0707106781186548
 79
     0
 98
        1
 10
0.0
 20
0.0
  0
HATCH
  5
1B1
330
4A
100
AcDbEntity
  8
1
  6
Continuous
 62
     2
100
AcDbHatch
 10
0.0
 20
0.0
 30
0.0
210
0.0
220
0.0
230
1.0
  2
_USER
 70
     0
 71
     1
 91
        1
 92
        1
 93
        4
 72
     1
 10
-206.0147102403313
 20
-248.1944269949101
 11
-206.0147102403313
 21
-251.2482365187213
 72
     1
 10
-206.0147102403313
 20
-251.2482365187213
 11
-207.2552146505842
 21
-251.2482365187213
 72
     1
 10
-207.2552146505842
 20
-251.2482365187213
 11
-207.2552146505842
 21
-248.1944269949101
 72
     1
 10
-207.2552146505842
 20
-248.1944269949101
 11
-206.0147102403313
 21
-248.1944269949101
 97
        4
330
EA
330
99
330
E9
330
EB
 75
     1
 76
     0
 52
45.0
 41
0.1
 77
     0
 78
     1
 53
45.0
 43
0.0
 44
0.0
 45
-0.0707106781186548
 46
0.0707106781186548
 79
     0
 98
        1
 10
0.0
 20
0.0
  0
HATCH
  5
1B2
330
4A
100
AcDbEntity
  8
1
  6
Continuous
 62
     2
100
AcDbHatch
 10
0.0
 20
0.0
 30
0.0
210
0.0
220
0.0
230
1.0
  2
_USER
 70
     0
 71
     1
 91
        1
 92
        1
 93
        4
 72
     1
 10
-206.0147102403313
 20
-248.1944269949101
 11
-206.0147102403313
 21
-251.2482365187213
 72
     1
 10
-206.0147102403313
 20
-251.2482365187213
 11
-207.2552146505842
 21
-251.2482365187213
 72
     1
 10
-207.2552146505842
 20
-251.2482365187213
 11
-207.2552146505842
 21
-248.1944269949101
 72
     1
 10
-207.2552146505842
 20
-248.1944269949101
 11
-206.0147102403313
 21
-248.1944269949101
 97
        4
330
EA
330
99
330
E9
330
EB
 75
     1
 76
     0
 52
45.0
 41
0.1
 77
     0
 78
     1
 53
45.0
 43
0.0
 44
0.0
 45
-0.0707106781186548
 46
0.0707106781186548
 79
     0
 98
        1
 10
0.0
 20
0.0
  0
HATCH
  5
1B3
330
4A
100
AcDbEntity
  8
1
  6
Continuous
 62
     2
100
AcDbHatch
 10
0.0
 20
0.0
 30
0.0
210
0.0
220
0.0
230
1.0
  2
_USER
 70
     0
 71
     1
 91
        2
 92
        1
 93
        8
 72
     1
 10
-206.4051542438633
 20
-254.6074269948956
 11
-207.6456586541172
 21
-254.6074269948956
 72
     1
 10
-207.6456586541172
 20
-254.6074269948956
 11
-207.857138707593
 21
-254.0664664506777
 72
     1
 10
-207.857138707593
 20
-254.0664664506777
 11
-208.9895802842668
 21
-254.0664664506777
 72
     1
 10
-208.9895802842668
 20
-254.0664664506777
 11
-209.2010603377426
 21
-254.6074269948956
 72
     1
 10
-209.2010603377426
 20
-254.6074269948956
 11
-210.4415647479956
 21
-254.6074269948956
 72
     1
 10
-210.4415647479956
 20
-254.6074269948956
 11
-209.0436117010563
 21
-251.5536174710845
 72
     1
 10
-209.0436117010563
 20
-251.5536174710845
 11
-207.8031072908036
 21
-251.5536174710845
 72
     1
 10
-207.8031072908036
 20
-251.5536174710845
 11
-206.4051542438633
 21
-254.6074269948956
 97
        8
330
E5
330
9F
330
E4
330
E7
330
9C
330
E6
330
9D
330
9E
 92
       16
 93
        3
 72
     1
 10
-208.7235247331218
 20
-253.3859031853711
 11
-208.1231942587393
 21
-253.3859031853711
 72
     1
 10
-208.1231942587393
 20
-253.3859031853711
 11
-208.4233594959294
 21
-252.6180882193844
 72
     1
 10
-208.4233594959294
 20
-252.6180882193844
 11
-208.7235247331218
 21
-253.3859031853711
 97
        3
330
9B
330
9A
330
E8
 75
     1
 76
     0
 52
45.0
 41
0.1
 77
     0
 78
     1
 53
45.0
 43
0.0
 44
0.0
 45
-0.0707106781186548
 46
0.0707106781186548
 79
     0
 98
        1
 10
0.0
 20
0.0
  0
HATCH
  5
1B4
330
4A
100
AcDbEntity
  8
1
  6
Continuous
 62
     2
100
AcDbHatch
 10
0.0
 20
0.0
 30
0.0
210
0.0
220
0.0
230
1.0
  2
_USER
 70
     0
 71
     1
 91
        2
 92
        1
 93
        8
 72
     1
 10
-206.4051542438633
 20
-254.6074269948956
 11
-207.6456586541172
 21
-254.6074269948956
 72
     1
 10
-207.6456586541172
 20
-254.6074269948956
 11
-207.857138707593
 21
-254.0664664506777
 72
     1
 10
-207.857138707593
 20
-254.0664664506777
 11
-208.9895802842668
 21
-254.0664664506777
 72
     1
 10
-208.9895802842668
 20
-254.0664664506777
 11
-209.2010603377426
 21
-254.6074269948956
 72
     1
 10
-209.2010603377426
 20
-254.6074269948956
 11
-210.4415647479956
 21
-254.6074269948956
 72
     1
 10
-210.4415647479956
 20
-254.6074269948956
 11
-209.0436117010563
 21
-251.5536174710845
 72
     1
 10
-209.0436117010563
 20
-251.5536174710845
 11
-207.8031072908036
 21
-251.5536174710845
 72
     1
 10
-207.8031072908036
 20
-251.5536174710845
 11
-206.4051542438633
 21
-254.6074269948956
 97
        8
330
E5
330
9F
330
E4
330
E7
330
9C
330
E6
330
9D
330
9E
 92
       16
 93
        3
 72
     1
 10
-208.7235247331218
 20
-253.3859031853711
 11
-208.1231942587393
 21
-253.3859031853711
 72
     1
 10
-208.1231942587393
 20
-253.3859031853711
 11
-208.4233594959294
 21
-252.6180882193844
 72
     1
 10
-208.4233594959294
 20
-252.6180882193844
 11
-208.7235247331218
 21
-253.3859031853711
 97
        3
330
9B
330
9A
330
E8
 75
     1
 76
     0
 52
45.0
 41
0.1
 77
     0
 78
     1
 53
45.0
 43
0.0
 44
0.0
 45
-0.0707106781186548
 46
0.0707106781186548
 79
     0
 98
        1
 10
0.0
 20
0.0
  0
HATCH
  5
1B5
330
4A
100
AcDbEntity
  8
1
  6
Continuous
 62
     2
100
AcDbHatch
 10
0.0
 20
0.0
 30
0.0
210
0.0
220
0.0
230
1.0
  2
_USER
 70
     0
 71
     1
 91
        1
 92
        1
 93
        8
 72
     1
 10
-212.5990768871778
 20
-251.5536174710845
 11
-212.5990768871778
 21
-252.3388827772081
 72
     1
 10
-212.5990768871778
 20
-252.3388827772081
 11
-211.7879778497032
 21
-252.3388827772081
 72
     1
 10
-211.7879778497032
 20
-252.3388827772081
 11
-211.7879778497032
 21
-254.6074269948956
 72
     1
 10
-211.7879778497032
 20
-254.6074269948956
 11
-210.5951851475367
 21
-254.6074269948956
 72
     1
 10
-210.5951851475367
 20
-254.6074269948956
 11
-210.5951851475367
 21
-252.3388827772081
 72
     1
 10
-210.5951851475367
 20
-252.3388827772081
 11
-209.7840861100642
 21
-252.3388827772081
 72
     1
 10
-209.7840861100642
 20
-252.3388827772081
 11
-209.7840861100642
 21
-251.5536174710845
 72
     1
 10
-209.7840861100642
 20
-251.5536174710845
 11
-212.5990768871778
 21
-251.5536174710845
 97
        8
330
E1
330
E0
330
DF
330
A0
330
A1
330
E3
330
A2
330
E2
 75
     1
 76
     0
 52
45.0
 41
0.1
 77
     0
 78
     1
 53
45.0
 43
0.0
 44
0.0
 45
-0.0707106781186548
 46
0.0707106781186548
 79
     0
 98
        1
 10
0.0
 20
0.0
  0
HATCH
  5
1B6
330
4A
100
AcDbEntity
  8
1
  6
Continuous
 62
     2
100
AcDbHatch
 10
0.0
 20
0.0
 30
0.0
210
0.0
220
0.0
230
1.0
  2
_USER
 70
     0
 71
     1
 91
        1
 92
        1
 93
        8
 72
     1
 10
-212.5990768871778
 20
-251.5536174710845
 11
-212.5990768871778
 21
-252.3388827772081
 72
     1
 10
-212.5990768871778
 20
-252.3388827772081
 11
-211.7879778497032
 21
-252.3388827772081
 72
     1
 10
-211.7879778497032
 20
-252.3388827772081
 11
-211.7879778497032
 21
-254.6074269948956
 72
     1
 10
-211.7879778497032
 20
-254.6074269948956
 11
-210.5951851475367
 21
-254.6074269948956
 72
     1
 10
-210.5951851475367
 20
-254.6074269948956
 11
-210.5951851475367
 21
-252.3388827772081
 72
     1
 10
-210.5951851475367
 20
-252.3388827772081
 11
-209.7840861100642
 21
-252.3388827772081
 72
     1
 10
-209.7840861100642
 20
-252.3388827772081
 11
-209.7840861100642
 21
-251.5536174710845
 72
     1
 10
-209.7840861100642
 20
-251.5536174710845
 11
-212.5990768871778
 21
-251.5536174710845
 97
        8
330
E1
330
E0
330
DF
330
A0
330
A1
330
E3
330
A2
330
E2
 75
     1
 76
     0
 52
45.0
 41
0.1
 77
     0
 78
     1
 53
45.0
 43
0.0
 44
0.0
 45
-0.0707106781186548
 46
0.0707106781186548
 79
     0
 98
        1
 10
0.0
 20
0.0
  0
HATCH
  5
1B7
330
4A
100
AcDbEntity
  8
1
  6
Continuous
 62
     2
100
AcDbHatch
 10
0.0
 20
0.0
 30
0.0
210
0.0
220
0.0
230
1.0
  2
_USER
 70
     0
 71
     1
 91
        1
 92
        1
 93
       10
 72
     1
 10
-209.9270703034387
 20
-248.1944269949101
 11
-211.1198630056052
 21
-248.1944269949101
 72
     1
 10
-211.1198630056052
 20
-248.1944269949101
 11
-211.1198630056052
 21
-251.2482365187213
 72
     1
 10
-211.1198630056052
 20
-251.2482365187213
 11
-209.9270703034387
 21
-251.2482365187213
 72
     1
 10
-209.9270703034387
 20
-251.2482365187213
 11
-209.9270703034387
 21
-249.9394610085166
 72
     1
 10
-209.9270703034387
 20
-249.9394610085166
 11
-208.6865658931847
 21
-251.2482365187213
 72
     1
 10
-208.6865658931847
 20
-251.2482365187213
 11
-207.4937731910181
 21
-251.2482365187213
 72
     1
 10
-207.4937731910181
 20
-251.2482365187213
 11
-207.4937731910181
 21
-248.1944269949101
 72
     1
 10
-207.4937731910181
 20
-248.1944269949101
 11
-208.6865658931847
 21
-248.1944269949101
 72
     1
 10
-208.6865658931847
 20
-248.1944269949101
 11
-208.6865658931847
 21
-249.5032025051153
 72
     1
 10
-208.6865658931847
 20
-249.5032025051153
 11
-209.9270703034387
 21
-248.1944269949101
 97
       10
330
DB
330
A5
330
A6
330
A7
330
A8
330
DE
330
A3
330
DD
330
DC
330
A4
 75
     1
 76
     0
 52
45.0
 41
0.1
 77
     0
 78
     1
 53
45.0
 43
0.0
 44
0.0
 45
-0.0707106781186548
 46
0.0707106781186548
 79
     0
 98
        1
 10
0.0
 20
0.0
  0
HATCH
  5
1B8
330
4A
100
AcDbEntity
  8
1
  6
Continuous
 62
     2
100
AcDbHatch
 10
0.0
 20
0.0
 30
0.0
210
0.0
220
0.0
230
1.0
  2
_USER
 70
     0
 71
     1
 91
        1
 92
        1
 93
       10
 72
     1
 10
-209.9270703034387
 20
-248.1944269949101
 11
-211.1198630056052
 21
-248.1944269949101
 72
     1
 10
-211.1198630056052
 20
-248.1944269949101
 11
-211.1198630056052
 21
-251.2482365187213
 72
     1
 10
-211.1198630056052
 20
-251.2482365187213
 11
-209.9270703034387
 21
-251.2482365187213
 72
     1
 10
-209.9270703034387
 20
-251.2482365187213
 11
-209.9270703034387
 21
-249.9394610085166
 72
     1
 10
-209.9270703034387
 20
-249.9394610085166
 11
-208.6865658931847
 21
-251.2482365187213
 72
     1
 10
-208.6865658931847
 20
-251.2482365187213
 11
-207.4937731910181
 21
-251.2482365187213
 72
     1
 10
-207.4937731910181
 20
-251.2482365187213
 11
-207.4937731910181
 21
-248.1944269949101
 72
     1
 10
-207.4937731910181
 20
-248.1944269949101
 11
-208.6865658931847
 21
-248.1944269949101
 72
     1
 10
-208.6865658931847
 20
-248.1944269949101
 11
-208.6865658931847
 21
-249.5032025051153
 72
     1
 10
-208.6865658931847
 20
-249.5032025051153
 11
-209.9270703034387
 21
-248.1944269949101
 97
       10
330
DB
330
A5
330
A6
330
A7
330
A8
330
DE
330
A3
330
DD
330
DC
330
A4
 75
     1
 76
     0
 52
45.0
 41
0.1
 77
     0
 78
     1
 53
45.0
 43
0.0
 44
0.0
 45
-0.0707106781186548
 46
0.0707106781186548
 79
     0
 98
        1
 10
0.0
 20
0.0
  0
HATCH
  5
1B9
330
4A
100
AcDbEntity
  8
1
  6
Continuous
 62
     2
100
AcDbHatch
 10
0.0
 20
0.0
 30
0.0
210
0.0
220
0.0
230
1.0
  2
_USER
 70
     0
 71
     1
 91
        1
 92
        1
 93
       10
 72
     1
 10
-215.1755091238573
 20
-251.5536174710845
 11
-216.3683018260249
 21
-251.5536174710845
 72
     1
 10
-216.3683018260249
 20
-251.5536174710845
 11
-216.3683018260249
 21
-254.6074269948956
 72
     1
 10
-216.3683018260249
 20
-254.6074269948956
 11
-215.1755091238573
 21
-254.6074269948956
 72
     1
 10
-215.1755091238573
 20
-254.6074269948956
 11
-215.1755091238573
 21
-253.298651484691
 72
     1
 10
-215.1755091238573
 20
-253.298651484691
 11
-213.9350047136044
 21
-254.6074269948956
 72
     1
 10
-213.9350047136044
 20
-254.6074269948956
 11
-212.742212011438
 21
-254.6074269948956
 72
     1
 10
-212.742212011438
 20
-254.6074269948956
 11
-212.742212011438
 21
-251.5536174710845
 72
     1
 10
-212.742212011438
 20
-251.5536174710845
 11
-213.9350047136044
 21
-251.5536174710845
 72
     1
 10
-213.9350047136044
 20
-251.5536174710845
 11
-213.9350047136044
 21
-252.8623929812896
 72
     1
 10
-213.9350047136044
 20
-252.8623929812896
 11
-215.1755091238573
 21
-251.5536174710845
 97
       10
330
AA
330
AB
330
AC
330
D8
330
AD
330
AE
330
D7
330
DA
330
D9
330
A9
 75
     1
 76
     0
 52
45.0
 41
0.1
 77
     0
 78
     1
 53
45.0
 43
0.0
 44
0.0
 45
-0.0707106781186548
 46
0.0707106781186548
 79
     0
 98
        1
 10
0.0
 20
0.0
  0
HATCH
  5
1BA
330
4A
100
AcDbEntity
  8
1
  6
Continuous
 62
     2
100
AcDbHatch
 10
0.0
 20
0.0
 30
0.0
210
0.0
220
0.0
230
1.0
  2
_USER
 70
     0
 71
     1
 91
        1
 92
        1
 93
       10
 72
     1
 10
-215.1755091238573
 20
-251.5536174710845
 11
-216.3683018260249
 21
-251.5536174710845
 72
     1
 10
-216.3683018260249
 20
-251.5536174710845
 11
-216.3683018260249
 21
-254.6074269948956
 72
     1
 10
-216.3683018260249
 20
-254.6074269948956
 11
-215.1755091238573
 21
-254.6074269948956
 72
     1
 10
-215.1755091238573
 20
-254.6074269948956
 11
-215.1755091238573
 21
-253.298651484691
 72
     1
 10
-215.1755091238573
 20
-253.298651484691
 11
-213.9350047136044
 21
-254.6074269948956
 72
     1
 10
-213.9350047136044
 20
-254.6074269948956
 11
-212.742212011438
 21
-254.6074269948956
 72
     1
 10
-212.742212011438
 20
-254.6074269948956
 11
-212.742212011438
 21
-251.5536174710845
 72
     1
 10
-212.742212011438
 20
-251.5536174710845
 11
-213.9350047136044
 21
-251.5536174710845
 72
     1
 10
-213.9350047136044
 20
-251.5536174710845
 11
-213.9350047136044
 21
-252.8623929812896
 72
     1
 10
-213.9350047136044
 20
-252.8623929812896
 11
-215.1755091238573
 21
-251.5536174710845
 97
       10
330
AA
330
AB
330
AC
330
D8
330
AD
330
AE
330
D7
330
DA
330
D9
330
A9
 75
     1
 76
     0
 52
45.0
 41
0.1
 77
     0
 78
     1
 53
45.0
 43
0.0
 44
0.0
 45
-0.0707106781186548
 46
0.0707106781186548
 79
     0
 98
        1
 10
0.0
 20
0.0
  0
HATCH
  5
1BB
330
4A
100
AcDbEntity
  8
1
  6
Continuous
 62
     2
100
AcDbHatch
 10
0.0
 20
0.0
 30
0.0
210
0.0
220
0.0
230
1.0
  2
_USER
 70
     0
 71
     1
 91
        1
 92
        1
 93
       12
 72
     1
 10
-216.1773040627927
 20
-248.1944269949101
 11
-216.1773040627927
 21
-251.2482365187213
 72
     1
 10
-216.1773040627927
 20
-251.2482365187213
 11
-217.3700967649591
 21
-251.2482365187213
 72
     1
 10
-217.3700967649591
 20
-251.2482365187213
 11
-217.3700967649591
 21
-250.1139644098775
 72
     1
 10
-217.3700967649591
 20
-250.1139644098775
 11
-218.4197543428666
 21
-250.1139644098775
 72
     1
 10
-218.4197543428666
 20
-250.1139644098775
 11
-218.4197543428666
 21
-251.2482365187213
 72
     1
 10
-218.4197543428666
 20
-251.2482365187213
 11
-219.6125470450332
 21
-251.2482365187213
 72
     1
 10
-219.6125470450332
 20
-251.2482365187213
 11
-219.6125470450332
 21
-248.1944269949101
 72
     1
 10
-219.6125470450332
 20
-248.1944269949101
 11
-218.4197543428666
 21
-248.1944269949101
 72
     1
 10
-218.4197543428666
 20
-248.1944269949101
 11
-218.4197543428666
 21
-249.2632603282447
 72
     1
 10
-218.4197543428666
 20
-249.2632603282447
 11
-217.3700967649591
 21
-249.2632603282447
 72
     1
 10
-217.3700967649591
 20
-249.2632603282447
 11
-217.3700967649591
 21
-248.1944269949101
 72
     1
 10
-217.3700967649591
 20
-248.1944269949101
 11
-216.1773040627927
 21
-248.1944269949101
 97
       12
330
D2
330
D1
330
D0
330
B8
330
B9
330
CF
330
BA
330
CE
330
CD
330
CC
330
B6
330
B7
 75
     1
 76
     0
 52
45.0
 41
0.1
 77
     0
 78
     1
 53
45.0
 43
0.0
 44
0.0
 45
-0.0707106781186548
 46
0.0707106781186548
 79
     0
 98
        1
 10
0.0
 20
0.0
  0
HATCH
  5
1BC
330
4A
100
AcDbEntity
  8
1
  6
Continuous
 62
     2
100
AcDbHatch
 10
0.0
 20
0.0
 30
0.0
210
0.0
220
0.0
230
1.0
  2
_USER
 70
     0
 71
     1
 91
        1
 92
        1
 93
       12
 72
     1
 10
-216.1773040627927
 20
-248.1944269949101
 11
-216.1773040627927
 21
-251.2482365187213
 72
     1
 10
-216.1773040627927
 20
-251.2482365187213
 11
-217.3700967649591
 21
-251.2482365187213
 72
     1
 10
-217.3700967649591
 20
-251.2482365187213
 11
-217.3700967649591
 21
-250.1139644098775
 72
     1
 10
-217.3700967649591
 20
-250.1139644098775
 11
-218.4197543428666
 21
-250.1139644098775
 72
     1
 10
-218.4197543428666
 20
-250.1139644098775
 11
-218.4197543428666
 21
-251.2482365187213
 72
     1
 10
-218.4197543428666
 20
-251.2482365187213
 11
-219.6125470450332
 21
-251.2482365187213
 72
     1
 10
-219.6125470450332
 20
-251.2482365187213
 11
-219.6125470450332
 21
-248.1944269949101
 72
     1
 10
-219.6125470450332
 20
-248.1944269949101
 11
-218.4197543428666
 21
-248.1944269949101
 72
     1
 10
-218.4197543428666
 20
-248.1944269949101
 11
-218.4197543428666
 21
-249.2632603282447
 72
     1
 10
-218.4197543428666
 20
-249.2632603282447
 11
-217.3700967649591
 21
-249.2632603282447
 72
     1
 10
-217.3700967649591
 20
-249.2632603282447
 11
-217.3700967649591
 21
-248.1944269949101
 72
     1
 10
-217.3700967649591
 20
-248.1944269949101
 11
-216.1773040627927
 21
-248.1944269949101
 97
       12
330
D2
330
D1
330
D0
330
B8
330
B9
330
CF
330
BA
330
CE
330
CD
330
CC
330
B6
330
B7
 75
     1
 76
     0
 52
45.0
 41
0.1
 77
     0
 78
     1
 53
45.0
 43
0.0
 44
0.0
 45
-0.0707106781186548
 46
0.0707106781186548
 79
     0
 98
        1
 10
0.0
 20
0.0
  0
ENDBLK
  5
4C
330
4A
100
AcDbEntity
  8
0
100
AcDbBlockEnd
  0
BLOCK
  5
50
330
4D
100
AcDbEntity
  8
0
100
AcDbBlockBegin
  2
A4I_CS
 70
     0
 10
-104.3000002490038
 20
-266.900926994912
 30
0.0
  3
A4I_CS
  1

  0
INSERT
  5
4E
330
4D
100
AcDbEntity
  8
1
100
AcDbBlockReference
  2
_punkt
 10
-104.3000002490038
 20
-261.9009269949119
 30
0.0
  0
INSERT
  5
4F
330
4D
100
AcDbEntity
  8
1
100
AcDbBlockReference
  2
_rahmen
 10
-104.3000002490038
 20
-266.900926994912
 30
0.0
  0
ENDBLK
  5
51
330
4D
100
AcDbEntity
  8
0
100
AcDbBlockEnd
  0
BLOCK
  5
53
330
52
100
AcDbEntity
  8
0
100
AcDbBlockBegin
  2
0822479_PATG_4_30-select__1
 70
     0
 10
-91.89184970526517
 20
-108.3286903884125
 30
0.0
  3
0822479_PATG_4_30-select__1
  1

  0
LINE
  5
1BD
330
52
100
AcDbEntity
  8
0
  6
Continuous
 62
     7
100
AcDbLine
 10
-65.10735322073631
 20
-100.275547750134
 30
0.0
 11
-63.12316499804327
 21
-100.8483335523814
 31
0.0
  0
LINE
  5
1BE
330
52
100
AcDbEntity
  8
0
  6
Continuous
 62
     7
100
AcDbLine
 10
-63.19187384073166
 20
-97.44373554047638
 30
0.0
 11
-64.82736394899291
 21
-98.86011152186879
 31
0.0
  0
LINE
  5
1BF
330
52
100
AcDbEntity
  8
0
  6
Continuous
 62
     2
100
AcDbLine
 10
-91.15288100839545
 20
-89.89269663737093
 30
0.0
 11
-65.17211889486228
 21
-97.39269663737093
 31
0.0
  0
LINE
  5
1C0
330
52
100
AcDbEntity
  8
0
  6
Continuous
 62
     2
100
AcDbLine
 10
-90.20841672268116
 20
-87.30490301999339
 30
0.0
 11
-64.22765460914799
 21
-94.8049030199934
 31
0.0
  0
LINE
  5
1C1
330
52
100
AcDbEntity
  8
0
  6
Continuous
 62
     2
100
AcDbLine
 10
-89.77234529410973
 20
-86.92725408498598
 30
0.0
 11
-63.79158318057657
 21
-94.42725408498598
 31
0.0
  0
LINE
  5
1C2
330
52
100
AcDbEntity
  8
0
  6
Continuous
 62
     7
100
AcDbLine
 10
-89.2843133072646
 20
-86.79728732064859
 30
0.0
 11
-63.30355119373142
 21
-94.29728732064859
 31
0.0
  0
LINE
  5
1C3
330
52
100
AcDbEntity
  8
0
  6
Continuous
 62
     7
100
AcDbLine
 10
-64.36189317234862
 20
-106.4360653616957
 30
0.0
 11
-63.69696473802023
 21
-106.6280136669714
 31
0.0
  0
LINE
  5
1C4
330
52
100
AcDbEntity
  8
0
  6
Continuous
 62
     7
100
AcDbLine
 10
-64.8960727916813
 20
-102.3837167402393
 30
0.0
 11
-63.12316499804327
 21
-100.8483335523814
 31
0.0
  0
LINE
  5
1C5
330
52
100
AcDbEntity
  8
0
  6
Continuous
 62
     7
100
AcDbLine
 10
-64.56806340931286
 20
-102.6192675246993
 30
0.0
 11
-63.45117438041174
 21
-101.6520132524628
 31
0.0
  0
LINE
  5
1C6
330
52
100
AcDbEntity
  8
0
  6
Continuous
 62
     7
100
AcDbLine
 10
-65.3901352819272
 20
-102.2410931843693
 30
0.0
 11
-64.8960727916813
 21
-102.3837167402393
 31
0.0
  0
LINE
  5
1C7
330
52
100
AcDbEntity
  8
0
  6
Continuous
 62
     7
100
AcDbLine
 10
-64.6502824340728
 20
-106.9339957673595
 30
0.0
 11
-65.41746778999999
 21
-107.5983977750039
 31
0.0
  0
LINE
  5
1C8
330
52
100
AcDbEntity
  8
0
  6
Continuous
 62
     7
100
AcDbLine
 10
-64.8960727916813
 20
-102.3837167402393
 30
0.0
 11
-64.6502824340728
 21
-106.9339957673595
 31
0.0
  0
LINE
  5
1C9
330
52
100
AcDbEntity
  8
0
  6
Continuous
 62
     7
100
AcDbLine
 10
-65.50662497534236
 20
-106.6867909689993
 30
0.0
 11
-64.6502824340728
 21
-106.9339957673595
 31
0.0
  0
LINE
  5
1CA
330
52
100
AcDbEntity
  8
0
  6
Continuous
 62
     7
100
AcDbLine
 10
-64.32227305170434
 20
-107.1695465518195
 30
0.0
 11
-65.66073706387733
 21
-108.3286903884125
 31
0.0
  0
LINE
  5
1CB
330
52
100
AcDbEntity
  8
0
  6
Continuous
 62
     7
100
AcDbLine
 10
-64.32227305170434
 20
-107.1695465518195
 30
0.0
 11
-64.56806340931286
 21
-102.6192675246993
 31
0.0
  0
LINE
  5
1CC
330
52
100
AcDbEntity
  8
0
  6
Continuous
 62
     7
100
AcDbLine
 10
-91.64149917741051
 20
-100.8286903884125
 30
0.0
 11
-65.66073706387733
 21
-108.3286903884125
 31
0.0
  0
LINE
  5
1CD
330
52
100
AcDbEntity
  8
0
  6
Continuous
 62
     7
100
AcDbLine
 10
-63.32581286938333
 20
-104.9509187863945
 30
0.0
 11
-62.6017699997246
 21
-105.1599319592456
 31
0.0
  0
LINE
  5
1CE
330
52
100
AcDbEntity
  8
0
  6
Continuous
 62
     7
100
AcDbLine
 10
-63.12316499804327
 20
-100.8483335523814
 30
0.0
 11
-63.36895535565176
 21
-105.82433396689
 31
0.0
  0
LINE
  5
1CF
330
52
100
AcDbEntity
  8
0
  6
Continuous
 62
     7
100
AcDbLine
 10
-63.36895535565176
 20
-105.82433396689
 30
0.0
 11
-62.6017699997246
 21
-105.1599319592456
 31
0.0
  0
LINE
  5
1D0
330
52
100
AcDbEntity
  8
0
  6
Continuous
 62
     7
100
AcDbLine
 10
-63.69696473802023
 20
-106.6280136669714
 30
0.0
 11
-63.45117438041174
 21
-101.6520132524628
 31
0.0
  0
LINE
  5
1D1
330
52
100
AcDbEntity
  8
0
  6
Continuous
 62
     7
100
AcDbLine
 10
-63.69696473802023
 20
-106.6280136669714
 30
0.0
 11
-62.35850072584725
 21
-105.4688698303783
 31
0.0
  0
LINE
  5
1D2
330
52
100
AcDbEntity
  8
0
  6
Continuous
 62
     7
100
AcDbLine
 10
-91.0196176294618
 20
-91.10610910195385
 30
0.0
 11
-65.03885551592863
 21
-98.60610910195386
 31
0.0
  0
SPLINE
  5
1D3
330
52
100
AcDbEntity
  8
0
  6
Continuous
 62
     7
100
AcDbSpline
210
0.0
220
0.0
230
1.0
 70
     8
 71
     3
 72
    13
 73
     9
 74
     7
 42
0.000000001
 43
0.0000000001
 44
0.00000001
 40
0.0
 40
0.0
 40
0.0
 40
0.0
 40
0.4653550479825797
 40
0.964369427813067
 40
1.472637507281557
 40
1.964836253604373
 40
2.417252439721532
 40
2.810579549371401
 40
2.810579549371401
 40
2.810579549371401
 40
2.810579549371401
 10
-91.15288100839545
 20
-89.89269663737093
 30
0.0
 10
-91.14621956776459
 20
-89.73752174270915
 30
0.0
 10
-91.13241484656528
 20
-89.41594808720211
 30
0.0
 10
-91.03559328155052
 20
-88.93301711877409
 30
0.0
 10
-90.89142599410778
 20
-88.45355643392513
 30
0.0
 10
-90.69952164778212
 20
-88.0083513520019
 30
0.0
 10
-90.48071796200995
 20
-87.61670908764435
 30
0.0
 10
-90.29485528467387
 20
-87.403881879489
 30
0.0
 10
-90.20841672268116
 20
-87.30490301999339
 30
0.0
 11
-91.15288100839545
 21
-89.89269663737093
 31
0.0
 11
-91.12134723443373
 21
-89.42841122892253
 31
0.0
 11
-91.02868691848761
 21
-88.9380752065041
 31
0.0
 11
-90.88060063190301
 21
-88.45185828820023
 31
0.0
 11
-90.68620059406759
 21
-87.99967664789372
 31
0.0
 11
-90.45744753454828
 21
-87.60935313225445
 31
0.0
 11
-90.20841672268116
 21
-87.30490301999339
 31
0.0
  0
SPLINE
  5
1D4
330
52
100
AcDbEntity
  8
0
  6
Continuous
 62
     7
100
AcDbSpline
210
0.0
220
0.0
230
1.0
 70
     8
 71
     3
 72
     9
 73
     5
 74
     3
 42
0.000000001
 43
0.0000000001
 44
0.00000001
 40
0.0
 40
0.0
 40
0.0
 40
0.0
 40
0.2332036620415424
 40
0.5185851815435224
 40
0.5185851815435224
 40
0.5185851815435224
 40
0.5185851815435224
 10
-63.30355119373142
 20
-94.29728732064859
 30
0.0
 10
-63.38315471354306
 20
-94.29003364949668
 30
0.0
 10
-63.56017253980273
 20
-94.27390336301562
 30
0.0
 10
-63.70944007883354
 20
-94.37281965731216
 30
0.0
 10
-63.79158318057657
 20
-94.42725408498598
 30
0.0
 11
-63.30355119373142
 21
-94.29728732064859
 31
0.0
 11
-63.53675000776045
 21
-94.2987913783032
 31
0.0
 11
-63.79158318057657
 21
-94.42725408498598
 31
0.0
  0
SPLINE
  5
1D5
330
52
100
AcDbEntity
  8
0
  6
Continuous
 62
     7
100
AcDbSpline
210
0.0
220
0.0
230
1.0
 70
     8
 71
     3
 72
     9
 73
     5
 74
     3
 42
0.000000001
 43
0.0000000001
 44
0.00000001
 40
0.0
 40
0.0
 40
0.0
 40
0.0
 40
0.5768012827298551
 40
1.222966624236911
 40
1.222966624236911
 40
1.222966624236911
 40
1.222966624236911
 10
-65.03885551592863
 20
-98.60610910195386
 30
0.0
 10
-65.07757080892638
 20
-98.41735721897143
 30
0.0
 10
-65.15965713776737
 20
-98.01715482388843
 30
0.0
 10
-65.16781082951256
 20
-97.60857397821788
 30
0.0
 10
-65.17211889486228
 20
-97.39269663737093
 30
0.0
 11
-65.03885551592863
 21
-98.60610910195386
 31
0.0
 11
-65.13855541889117
 21
-98.03798970445901
 31
0.0
 11
-65.17211889486228
 21
-97.39269663737093
 31
0.0
  0
SPLINE
  5
1D6
330
52
100
AcDbEntity
  8
0
  6
Continuous
 62
     7
100
AcDbSpline
210
0.0
220
0.0
230
1.0
 70
     8
 71
     3
 72
    13
 73
     9
 74
     7
 42
0.000000001
 43
0.0000000001
 44
0.00000001
 40
0.0
 40
0.0
 40
0.0
 40
0.0
 40
0.4653550479825655
 40
0.9643694278130641
 40
1.472637507281563
 40
1.964836253604346
 40
2.41725243972151
 40
2.810579549371389
 40
2.810579549371389
 40
2.810579549371389
 40
2.810579549371389
 10
-65.17211889486228
 20
-97.39269663737093
 30
0.0
 10
-65.16545745423144
 20
-97.23752174270918
 30
0.0
 10
-65.15165273303208
 20
-96.91594808720208
 30
0.0
 10
-65.05483116801736
 20
-96.43301711877407
 30
0.0
 10
-64.91066388057456
 20
-95.95355643392516
 30
0.0
 10
-64.71875953424896
 20
-95.50835135200191
 30
0.0
 10
-64.49995584847679
 20
-95.11670908764441
 30
0.0
 10
-64.31409317114074
 20
-94.903881879489
 30
0.0
 10
-64.22765460914799
 20
-94.8049030199934
 30
0.0
 11
-65.17211889486228
 21
-97.39269663737093
 31
0.0
 11
-65.14058512090055
 21
-96.92841122892254
 31
0.0
 11
-65.04792480495445
 21
-96.4380752065041
 31
0.0
 11
-64.89983851836982
 21
-95.95185828820023
 31
0.0
 11
-64.70543848053441
 21
-95.49967664789375
 31
0.0
 11
-64.47668542101512
 21
-95.10935313225447
 31
0.0
 11
-64.22765460914799
 21
-94.8049030199934
 31
0.0
  0
SPLINE
  5
1D7
330
52
100
AcDbEntity
  8
0
  6
Continuous
 62
     7
100
AcDbSpline
210
0.0
220
0.0
230
1.0
 70
     8
 71
     3
 72
     9
 73
     5
 74
     3
 42
0.000000001
 43
0.0000000001
 44
0.00000001
 40
0.0
 40
0.0
 40
0.0
 40
0.0
 40
0.2789327789492338
 40
0.5773060335457275
 40
0.5773060335457275
 40
0.5773060335457275
 40
0.5773060335457275
 10
-89.77234529410973
 20
-86.92725408498598
 30
0.0
 10
-89.84616784123752
 20
-86.98391805622207
 30
0.0
 10
-89.99895805281344
 20
-87.1011952614991
 30
0.0
 10
-90.13704714491789
 20
-87.23549296067709
 30
0.0
 10
-90.20841672268116
 20
-87.30490301999339
 30
0.0
 11
-89.77234529410973
 21
-86.92725408498598
 31
0.0
 11
-89.99038100839545
 21
-87.10121937659781
 31
0.0
 11
-90.20841672268116
 21
-87.30490301999339
 31
0.0
  0
SPLINE
  5
1D8
330
52
100
AcDbEntity
  8
0
  6
Continuous
 62
     7
100
AcDbSpline
210
0.0
220
0.0
230
1.0
 70
     8
 71
     3
 72
    11
 73
     7
 74
     5
 42
0.000000001
 43
0.0000000001
 44
0.00000001
 40
0.0
 40
0.0
 40
0.0
 40
0.0
 40
0.4063342313867972
 40
0.7461208447825186
 40
1.01805372739438
 40
1.242572744509798
 40
1.242572744509798
 40
1.242572744509798
 40
1.242572744509798
 10
-62.84711889486229
 20
-95.37918757357212
 30
0.0
 10
-62.85194464624846
 20
-95.24317711414027
 30
0.0
 10
-62.86080581643844
 20
-94.99343138617766
 30
0.0
 10
-62.94791393348559
 20
-94.6658428648146
 30
0.0
 10
-63.08451966269443
 20
-94.40783228526416
 30
0.0
 10
-63.23534213729699
 20
-94.3317123486068
 30
0.0
 10
-63.30355119373142
 20
-94.29728732064859
 30
0.0
 11
-62.84711889486229
 21
-95.37918757357212
 31
0.0
 11
-62.87790220441113
 21
-94.97402107819839
 31
0.0
 11
-62.96840243112516
 21
-94.64650824853666
 31
0.0
 11
-63.11318438202962
 21
-94.41632205447786
 31
0.0
 11
-63.30355119373142
 21
-94.29728732064859
 31
0.0
  0
SPLINE
  5
1D9
330
52
100
AcDbEntity
  8
0
  6
Continuous
 62
     7
100
AcDbSpline
210
0.0
220
0.0
230
1.0
 70
     8
 71
     3
 72
     9
 73
     5
 74
     3
 42
0.000000001
 43
0.0000000001
 44
0.00000001
 40
0.0
 40
0.0
 40
0.0
 40
0.0
 40
0.2789327789492282
 40
0.5773060335457213
 40
0.5773060335457213
 40
0.5773060335457213
 40
0.5773060335457213
 10
-63.79158318057657
 20
-94.42725408498598
 30
0.0
 10
-63.86540572770435
 20
-94.48391805622208
 30
0.0
 10
-64.01819593928028
 20
-94.60119526149909
 30
0.0
 10
-64.15628503138471
 20
-94.7354929606771
 30
0.0
 10
-64.22765460914799
 20
-94.8049030199934
 30
0.0
 11
-63.79158318057657
 21
-94.42725408498598
 31
0.0
 11
-64.00961889486229
 21
-94.60121937659781
 31
0.0
 11
-64.22765460914799
 21
-94.8049030199934
 31
0.0
  0
SPLINE
  5
1DA
330
52
100
AcDbEntity
  8
0
  6
Continuous
 62
     7
100
AcDbSpline
210
0.0
220
0.0
230
1.0
 70
     8
 71
     3
 72
    11
 73
     7
 74
     5
 42
0.000000001
 43
0.0000000001
 44
0.00000001
 40
0.0
 40
0.0
 40
0.0
 40
0.0
 40
1.97744606844805
 40
4.128296333284522
 40
6.415513435648256
 40
8.7958403172197
 40
8.7958403172197
 40
8.7958403172197
 40
8.7958403172197
 10
-65.41746778999999
 20
-107.5983977750039
 30
0.0
 10
-65.4765788713412
 20
-106.9413262060831
 30
0.0
 10
-65.59998452779038
 20
-105.569563813202
 30
0.0
 10
-65.52256561478838
 20
-103.4280523158744
 30
0.0
 10
-65.28766008008253
 20
-101.1651703521567
 30
0.0
 10
-64.9828229961497
 20
-99.63861521410715
 30
0.0
 10
-64.82736394899291
 20
-98.86011152186879
 30
0.0
 11
-65.41746778999999
 21
-107.5983977750039
 31
0.0
 11
-65.55505673105532
 21
-105.6257441714651
 31
0.0
 11
-65.50087827370521
 21
-103.4755763730624
 31
0.0
 11
-65.25628213563104
 21
-101.2014754944021
 31
0.0
 11
-64.82736394899291
 21
-98.86011152186879
 31
0.0
  0
SPLINE
  5
1DB
330
52
100
AcDbEntity
  8
0
  6
Continuous
 62
     7
100
AcDbSpline
210
0.0
220
0.0
230
1.0
 70
     8
 71
     3
 72
    11
 73
     7
 74
     5
 42
0.000000001
 43
0.0000000001
 44
0.00000001
 40
0.0
 40
0.0
 40
0.0
 40
0.0
 40
2.177300557696182
 40
4.567914290176283
 40
7.124717200011132
 40
9.791740384369076
 40
9.791740384369076
 40
9.791740384369076
 40
9.791740384369076
 10
-65.66073706387733
 20
-108.3286903884125
 30
0.0
 10
-65.73923874255881
 20
-107.6064073079131
 30
0.0
 10
-65.90393300367519
 20
-106.0910780640857
 30
0.0
 10
-65.83125380696282
 20
-103.7113505657337
 30
0.0
 10
-65.57039304018554
 20
-101.1838263915044
 30
0.0
 10
-65.21850955437009
 20
-99.47735014638968
 30
0.0
 10
-65.03885551592863
 20
-98.60610910195386
 30
0.0
 11
-65.66073706387733
 21
-108.3286903884125
 31
0.0
 11
-65.8482374841793
 21
-106.1594782470638
 31
0.0
 11
-65.80515873410319
 21
-103.7692526833962
 31
0.0
 11
-65.53274358752569
 21
-101.2270034603232
 31
0.0
 11
-65.03885551592863
 21
-98.60610910195386
 31
0.0
  0
SPLINE
  5
1DC
330
52
100
AcDbEntity
  8
0
  6
Continuous
 62
     7
100
AcDbSpline
210
0.0
220
0.0
230
1.0
 70
     8
 71
     3
 72
     9
 73
     5
 74
     3
 42
0.000000001
 43
0.0000000001
 44
0.00000001
 40
0.0
 40
0.0
 40
0.0
 40
0.0
 40
0.5768012827298411
 40
1.222966624236897
 40
1.222966624236897
 40
1.222966624236897
 40
1.222966624236897
 10
-91.0196176294618
 20
-91.10610910195385
 30
0.0
 10
-91.05833292245956
 20
-90.91735721897143
 30
0.0
 10
-91.14041925130056
 20
-90.51715482388839
 30
0.0
 10
-91.14857294304574
 20
-90.10857397821788
 30
0.0
 10
-91.15288100839545
 20
-89.89269663737093
 30
0.0
 11
-91.0196176294618
 21
-91.10610910195385
 31
0.0
 11
-91.11931753242435
 21
-90.53798970445901
 31
0.0
 11
-91.15288100839545
 21
-89.89269663737093
 31
0.0
  0
SPLINE
  5
1DD
330
52
100
AcDbEntity
  8
0
  6
Continuous
 62
     7
100
AcDbSpline
210
0.0
220
0.0
230
1.0
 70
     8
 71
     3
 72
     9
 73
     5
 74
     3
 42
0.000000001
 43
0.0000000001
 44
0.00000001
 40
0.0
 40
0.0
 40
0.0
 40
0.0
 40
0.7474835557027761
 40
1.451710540787456
 40
1.451710540787456
 40
1.451710540787456
 40
1.451710540787456
 10
-62.98038227379594
 20
-96.82341898125642
 30
0.0
 10
-62.94165030175171
 20
-96.57698434406369
 30
0.0
 10
-62.86642778105958
 20
-96.09837614010709
 30
0.0
 10
-62.85342604639452
 20
-95.61410718084076
 30
0.0
 10
-62.84711889486229
 20
-95.37918757357212
 30
0.0
 11
-62.98038227379594
 21
-96.82341898125642
 31
0.0
 11
-62.88068237083338
 21
-96.08261428632076
 31
0.0
 11
-62.84711889486229
 21
-95.37918757357212
 31
0.0
  0
SPLINE
  5
1DE
330
52
100
AcDbEntity
  8
0
  6
Continuous
 62
     7
100
AcDbSpline
210
0.0
220
0.0
230
1.0
 70
     8
 71
     3
 72
    11
 73
     7
 74
     5
 42
0.000000001
 43
0.0000000001
 44
0.00000001
 40
0.0
 40
0.0
 40
0.0
 40
0.0
 40
2.215241602868916
 40
4.272283160490055
 40
6.138826715707856
 40
7.79382883380106
 40
7.79382883380106
 40
7.79382883380106
 40
7.79382883380106
 10
-62.6017699997246
 20
-105.1599319592456
 30
0.0
 10
-62.54181473212715
 20
-104.4233553737869
 30
0.0
 10
-62.42618587827636
 20
-103.0028043422197
 30
0.0
 10
-62.48598587980993
 20
-100.9550204239651
 30
0.0
 10
-62.69819005988119
 20
-99.10014730841327
 30
0.0
 10
-63.0340374291756
 20
-97.97330951300678
 30
0.0
 10
-63.19187384073166
 20
-97.44373554047638
 30
0.0
 11
-62.6017699997246
 21
-105.1599319592456
 31
0.0
 11
-62.46418105866925
 21
-102.9489673192394
 31
0.0
 11
-62.51835951601934
 21
-100.8926393616428
 31
0.0
 11
-62.76295565409353
 21
-99.0421914214622
 31
0.0
 11
-63.19187384073166
 21
-97.44373554047638
 31
0.0
  0
SPLINE
  5
1DF
330
52
100
AcDbEntity
  8
0
  6
Continuous
 62
     7
100
AcDbSpline
210
0.0
220
0.0
230
1.0
 70
     8
 71
     3
 72
    11
 73
     7
 74
     5
 42
0.000000001
 43
0.0000000001
 44
0.00000001
 40
0.0
 40
0.0
 40
0.0
 40
0.0
 40
2.501010740244316
 40
4.817022394530417
 40
6.905279394140225
 40
8.738516209699215
 40
8.738516209699215
 40
8.738516209699215
 40
8.738516209699215
 10
-62.35850072584725
 20
-105.4688698303783
 30
0.0
 10
-62.27916008935369
 20
-104.6382109605643
 30
0.0
 10
-62.12634763638924
 20
-103.0383368312674
 30
0.0
 10
-62.17594968889873
 20
-100.7342783120519
 30
0.0
 10
-62.40765838464073
 20
-98.65816612810808
 30
0.0
 10
-62.7979343690315
 20
-97.40789916377094
 30
0.0
 10
-62.98038227379594
 20
-96.82341898125642
 30
0.0
 11
-62.35850072584725
 21
-105.4688698303783
 31
0.0
 11
-62.17100030554528
 21
-102.9748974346261
 31
0.0
 11
-62.21407905562137
 21
-100.6592864548169
 31
0.0
 11
-62.48649420219888
 21
-98.58887410636743
 31
0.0
 11
-62.98038227379594
 21
-96.82341898125642
 31
0.0
  0
SPLINE
  5
1E0
330
52
100
AcDbEntity
  8
0
  6
Continuous
 62
     7
100
AcDbSpline
210
0.0
220
0.0
230
1.0
 70
     8
 71
     3
 72
     9
 73
     5
 74
     3
 42
0.000000001
 43
0.0000000001
 44
0.00000001
 40
0.0
 40
0.0
 40
0.0
 40
0.0
 40
0.2332036620415353
 40
0.5185851815435026
 40
0.5185851815435026
 40
0.5185851815435026
 40
0.5185851815435026
 10
-89.2843133072646
 20
-86.79728732064859
 30
0.0
 10
-89.36391682707622
 20
-86.79003364949669
 30
0.0
 10
-89.5409346533359
 20
-86.77390336301562
 30
0.0
 10
-89.6902021923667
 20
-86.87281965731215
 30
0.0
 10
-89.77234529410973
 20
-86.92725408498598
 30
0.0
 11
-89.2843133072646
 21
-86.79728732064859
 31
0.0
 11
-89.51751212129362
 21
-86.7987913783032
 31
0.0
 11
-89.77234529410973
 21
-86.92725408498598
 31
0.0
  0
SPLINE
  5
1E1
330
52
100
AcDbEntity
  8
0
  6
Continuous
 62
     7
100
AcDbSpline
210
0.0
220
0.0
230
1.0
 70
     8
 71
     3
 72
    11
 73
     7
 74
     5
 42
0.000000001
 43
0.0000000001
 44
0.00000001
 40
0.0
 40
0.0
 40
0.0
 40
0.0
 40
2.177300557696194
 40
4.567914290176267
 40
7.124717200011157
 40
9.791740384369088
 40
9.791740384369088
 40
9.791740384369088
 40
9.791740384369088
 10
-91.64149917741051
 20
-100.8286903884125
 30
0.0
 10
-91.72000085609194
 20
-100.1064073079131
 30
0.0
 10
-91.88469511720835
 20
-98.5910780640857
 30
0.0
 10
-91.81201592049598
 20
-96.21135056573367
 30
0.0
 10
-91.55115515371871
 20
-93.6838263915044
 30
0.0
 10
-91.19927166790329
 20
-91.9773501463897
 30
0.0
 10
-91.0196176294618
 20
-91.10610910195385
 30
0.0
 11
-91.64149917741051
 21
-100.8286903884125
 31
0.0
 11
-91.82899959771244
 21
-98.65947824706375
 31
0.0
 11
-91.78592084763636
 21
-96.26925268339622
 31
0.0
 11
-91.51350570105886
 21
-93.72700346032317
 31
0.0
 11
-91.0196176294618
 21
-91.10610910195385
 31
0.0
  0
ENDBLK
  5
54
330
52
100
AcDbEntity
  8
0
100
AcDbBlockEnd
  0
BLOCK
  5
57
330
55
100
AcDbEntity
  8
0
100
AcDbBlockBegin
  2
Allg1
 70
     0
 10
-76.99999999999599
 20
-97.00000000000102
 30
0.0
  3
Allg1
  1

  0
INSERT
  5
56
330
55
100
AcDbEntity
  8
0
100
AcDbBlockReference
  2
0822479_PATG_4_30-select__1
 10
-91.89184970526517
 20
-108.3286903884125
 30
0.0
  0
MTEXT
  5
1E2
330
55
100
AcDbEntity
  8
1
 62
     6
100
AcDbMText
 10
-76.99999999999602
 20
-111.0009272438573
 30
0.0
 40
2.5
 41
0.0
 71
     2
 72
     1
  1
 
  7
CONVERTER_11
 73
     1
 44
1.32052821128451
  0
ENDBLK
  5
58
330
55
100
AcDbEntity
  8
0
100
AcDbBlockEnd
  0
BLOCK
  5
5A
330
59
100
AcDbEntity
  8
0
100
AcDbBlockBegin
  2
0822479_PATG_4_30-select__2
 70
     0
 10
-156.4000002592752
 20
-90.50000017596565
 30
0.0
  3
0822479_PATG_4_30-select__2
  1

  0
LINE
  5
1E3
330
59
100
AcDbEntity
  8
0
  6
Continuous
 62
     7
100
AcDbLine
 10
-156.4000002592752
 20
-90.50000017596565
 30
0.0
 11
-156.4000002592752
 21
-89.12500017596564
 31
0.0
  0
LINE
  5
1E4
330
59
100
AcDbEntity
  8
0
  6
Continuous
 62
     7
100
AcDbLine
 10
-126.4000002592752
 20
-90.50000017596565
 30
0.0
 11
-126.4000002592752
 21
-89.12500017596564
 31
0.0
  0
LINE
  5
1E5
330
59
100
AcDbEntity
  8
0
  6
Continuous
 62
     7
100
AcDbLine
 10
-126.4000002592752
 20
-89.12500017596564
 30
0.0
 11
-126.4000002592752
 21
-87.23607160453707
 31
0.0
  0
LINE
  5
1E6
330
59
100
AcDbEntity
  8
0
  6
Continuous
 62
     7
100
AcDbLine
 10
-156.4000002592752
 20
-89.12500017596564
 30
0.0
 11
-156.4000002592752
 21
-87.23607160453707
 31
0.0
  0
LINE
  5
1E7
330
59
100
AcDbEntity
  8
0
  6
Continuous
 62
     7
100
AcDbLine
 10
-126.4000002592752
 20
-90.50000017596565
 30
0.0
 11
-156.4000002592752
 21
-90.50000017596565
 31
0.0
  0
LINE
  5
1E8
330
59
100
AcDbEntity
  8
0
  6
Continuous
 62
     2
100
AcDbLine
 10
-156.4000002592752
 20
-87.23607160453707
 30
0.0
 11
-126.4000002592752
 21
-87.23607160453707
 31
0.0
  0
LINE
  5
1E9
330
59
100
AcDbEntity
  8
0
  6
Continuous
 62
     7
100
AcDbLine
 10
-156.4000002592752
 20
-84.47500017596565
 30
0.0
 11
-156.4000002592752
 21
-86.36392874739421
 31
0.0
  0
LINE
  5
1EA
330
59
100
AcDbEntity
  8
0
  6
Continuous
 62
     2
100
AcDbLine
 10
-156.4000002592752
 20
-86.36392874739421
 30
0.0
 11
-126.4000002592752
 21
-86.36392874739421
 31
0.0
  0
LINE
  5
1EB
330
59
100
AcDbEntity
  8
0
  6
Continuous
 62
     7
100
AcDbLine
 10
-126.4000002592752
 20
-86.36392874739421
 30
0.0
 11
-126.4000002592752
 21
-87.23607160453707
 31
0.0
  0
LINE
  5
1EC
330
59
100
AcDbEntity
  8
0
  6
Continuous
 62
     7
100
AcDbLine
 10
-156.4000002592752
 20
-83.10000017596565
 30
0.0
 11
-156.4000002592752
 21
-84.47500017596565
 31
0.0
  0
LINE
  5
1ED
330
59
100
AcDbEntity
  8
0
  6
Continuous
 62
     7
100
AcDbLine
 10
-126.4000002592752
 20
-84.47500017596565
 30
0.0
 11
-126.4000002592752
 21
-86.36392874739421
 31
0.0
  0
LINE
  5
1EE
330
59
100
AcDbEntity
  8
0
  6
Continuous
 62
     7
100
AcDbLine
 10
-156.4000002592752
 20
-84.47500017596565
 30
0.0
 11
-126.4000002592752
 21
-84.47500017596565
 31
0.0
  0
LINE
  5
1EF
330
59
100
AcDbEntity
  8
0
  6
Continuous
 62
     7
100
AcDbLine
 10
-156.4000002592752
 20
-83.10000017596565
 30
0.0
 11
-126.4000002592752
 21
-83.10000017596565
 31
0.0
  0
LINE
  5
1F0
330
59
100
AcDbEntity
  8
0
  6
Continuous
 62
     7
100
AcDbLine
 10
-126.4000002592752
 20
-83.10000017596565
 30
0.0
 11
-126.4000002592752
 21
-84.47500017596565
 31
0.0
  0
LINE
  5
1F1
330
59
100
AcDbEntity
  8
0
  6
Continuous
 62
     7
100
AcDbLine
 10
-156.4000002592752
 20
-86.36392874739421
 30
0.0
 11
-156.4000002592752
 21
-87.23607160453707
 31
0.0
  0
LINE
  5
1F2
330
59
100
AcDbEntity
  8
0
  6
Continuous
 62
     7
100
AcDbLine
 10
-126.4000002592752
 20
-89.12500017596564
 30
0.0
 11
-156.4000002592752
 21
-89.12500017596564
 31
0.0
  0
ENDBLK
  5
5B
330
59
100
AcDbEntity
  8
0
100
AcDbBlockEnd
  0
BLOCK
  5
5E
330
5C
100
AcDbEntity
  8
0
100
AcDbBlockBegin
  2
Drfsicht1
 70
     0
 10
-141.4000002592802
 20
-86.80000027269125
 30
0.0
  3
Drfsicht1
  1

  0
INSERT
  5
5D
330
5C
100
AcDbEntity
  8
0
100
AcDbBlockReference
  2
0822479_PATG_4_30-select__2
 10
-156.4000002592752
 20
-90.50000017596565
 30
0.0
  0
MTEXT
  5
1F3
330
5C
100
AcDbEntity
  8
1
 62
     6
100
AcDbMText
 10
-141.4000002592802
 20
-93.00000018626451
 30
0.0
 40
2.5
 41
0.0
 71
     2
 72
     1
  1
 
  7
CONVERTER_11
 73
     1
 44
1.32052821128451
  0
DIMENSION
  5
1FE
330
5C
100
AcDbEntity
  8
1
100
AcDbDimension
  2
*D16
 10
-161.4000002592752
 20
-83.10000017596565
 30
0.0
 11
-163.1125002592752
 21
-86.80000017596564
 31
0.0
 70
    32
  1
<>
 71
     5
 42
-1.0
 53
90.0
  3
ME10_DIM_10
100
AcDbAlignedDimension
 13
-156.4000002592752
 23
-90.50000017596565
 33
0.0
 14
-156.4000002592752
 24
-83.10000017596565
 34
0.0
 50
90.0
100
AcDbRotatedDimension
  0
ENDBLK
  5
5F
330
5C
100
AcDbEntity
  8
0
100
AcDbBlockEnd
  0
BLOCK
  5
61
330
60
100
AcDbEntity
  8
0
100
AcDbBlockBegin
  2
0822479_PATG_4_30-select__3
 70
     0
 10
-99.0000000000175
 20
-68.09999975105475
 30
0.0
  3
0822479_PATG_4_30-select__3
  1

  0
LINE
  5
1FF
330
60
100
AcDbEntity
  8
0
  6
Continuous
 62
     7
100
AcDbLine
 10
-69.0000000000175
 20
-57.49521145309363
 30
0.0
 11
-99.0000000000175
 21
-57.49521145309363
 31
0.0
  0
LINE
  5
200
330
60
100
AcDbEntity
  8
0
  6
Continuous
 62
     7
100
AcDbLine
 10
-69.0000000000175
 20
-68.09999975105475
 30
0.0
 11
-69.0000000000175
 21
-57.49521145309363
 31
0.0
  0
LINE
  5
201
330
60
100
AcDbEntity
  8
0
  6
Continuous
 62
     7
100
AcDbLine
 10
-69.0000000000175
 20
-57.49521145309363
 30
0.0
 11
-69.0000000000175
 21
-55.96082004802997
 31
0.0
  0
LINE
  5
202
330
60
100
AcDbEntity
  8
0
  6
Continuous
 62
     7
100
AcDbLine
 10
-69.0000000000175
 20
-55.96082004802997
 30
0.0
 11
-69.0000000000175
 21
-53.91715765054405
 31
0.0
  0
LINE
  5
203
330
60
100
AcDbEntity
  8
0
  6
Continuous
 62
     7
100
AcDbLine
 10
-69.0000000000175
 20
-53.91715765054405
 30
0.0
 11
-69.0000000000175
 21
-53.89999975105474
 31
0.0
  0
LINE
  5
204
330
60
100
AcDbEntity
  8
0
  6
Continuous
 62
     7
100
AcDbLine
 10
-99.0000000000175
 20
-68.09999975105475
 30
0.0
 11
-99.0000000000175
 21
-57.49521145309363
 31
0.0
  0
LINE
  5
205
330
60
100
AcDbEntity
  8
0
  6
Continuous
 62
     7
100
AcDbLine
 10
-99.0000000000175
 20
-57.49521145309363
 30
0.0
 11
-99.0000000000175
 21
-55.96082004802997
 31
0.0
  0
LINE
  5
206
330
60
100
AcDbEntity
  8
0
  6
Continuous
 62
     7
100
AcDbLine
 10
-99.0000000000175
 20
-55.96082004802997
 30
0.0
 11
-99.0000000000175
 21
-53.91715765054405
 31
0.0
  0
LINE
  5
207
330
60
100
AcDbEntity
  8
0
  6
Continuous
 62
     7
100
AcDbLine
 10
-99.0000000000175
 20
-53.91715765054405
 30
0.0
 11
-99.0000000000175
 21
-53.89999975105474
 31
0.0
  0
LINE
  5
208
330
60
100
AcDbEntity
  8
0
  6
Continuous
 62
     2
100
AcDbLine
 10
-69.0000000000175
 20
-55.96082004802997
 30
0.0
 11
-99.0000000000175
 21
-55.96082004802997
 31
0.0
  0
LINE
  5
209
330
60
100
AcDbEntity
  8
0
  6
Continuous
 62
     7
100
AcDbLine
 10
-69.0000000000175
 20
-53.89999975105474
 30
0.0
 11
-99.0000000000175
 21
-53.89999975105474
 31
0.0
  0
LINE
  5
20A
330
60
100
AcDbEntity
  8
0
  6
Continuous
 62
     2
100
AcDbLine
 10
-69.0000000000175
 20
-53.91715765054405
 30
0.0
 11
-99.0000000000175
 21
-53.91715765054405
 31
0.0
  0
LINE
  5
20B
330
60
100
AcDbEntity
  8
0
  6
Continuous
 62
     7
100
AcDbLine
 10
-69.0000000000175
 20
-68.09999975105475
 30
0.0
 11
-99.0000000000175
 21
-68.09999975105475
 31
0.0
  0
ENDBLK
  5
62
330
60
100
AcDbEntity
  8
0
100
AcDbBlockEnd
  0
BLOCK
  5
65
330
63
100
AcDbEntity
  8
0
100
AcDbBlockBegin
  2
Rckans1
 70
     0
 10
-84.0000000000125
 20
-61.00000000000006
 30
0.0
  3
Rckans1
  1

  0
INSERT
  5
64
330
63
100
AcDbEntity
  8
0
100
AcDbBlockReference
  2
0822479_PATG_4_30-select__3
 10
-99.0000000000175
 20
-68.09999975105475
 30
0.0
  0
MTEXT
  5
20C
330
63
100
AcDbEntity
  8
1
 62
     6
100
AcDbMText
 10
-84.0000000000125
 20
-70.59999990463257
 30
0.0
 40
2.5
 41
0.0
 71
     2
 72
     1
  1
 
  7
CONVERTER_11
 73
     1
 44
1.32052821128451
  0
ENDBLK
  5
66
330
63
100
AcDbEntity
  8
0
100
AcDbBlockEnd
  0
BLOCK
  5
68
330
67
100
AcDbEntity
  8
0
100
AcDbBlockBegin
  2
0822479_PATG_4_30-select__4
 70
     0
 10
-116.4000002263658
 20
-68.0999997510547
 30
0.0
  3
0822479_PATG_4_30-select__4
  1

  0
LINE
  5
20D
330
67
100
AcDbEntity
  8
0
  6
Continuous
 62
     7
100
AcDbLine
 10
-114.4729080200038
 20
-61.99999975105469
 30
0.0
 11
-113.9813273047868
 21
-67.49999975105469
 31
0.0
  0
LINE
  5
20E
330
67
100
AcDbEntity
  8
0
  6
Continuous
 62
     7
100
AcDbLine
 10
-113.9813273047868
 20
-67.49999975105469
 30
0.0
 11
-115.5156980166412
 21
-67.49999975105469
 31
0.0
  0
LINE
  5
20F
330
67
100
AcDbEntity
  8
0
  6
Continuous
 62
     7
100
AcDbLine
 10
-114.335490334627
 20
-57.99999975105469
 30
0.0
 11
-111.0645101181045
 21
-57.99999975105469
 31
0.0
  0
LINE
  5
210
330
67
100
AcDbEntity
  8
0
  6
Continuous
 62
     7
100
AcDbLine
 10
-110.9270924327277
 20
-61.99999975105469
 30
0.0
 11
-111.4186731479447
 21
-67.49999975105469
 31
0.0
  0
LINE
  5
211
330
67
100
AcDbEntity
  8
0
  6
Continuous
 62
     7
100
AcDbLine
 10
-112.0746919126816
 20
-68.0999997510547
 30
0.0
 11
-111.5831111974647
 21
-62.59999975105469
 31
0.0
  0
LINE
  5
212
330
67
100
AcDbEntity
  8
0
  6
Continuous
 62
     7
100
AcDbLine
 10
-113.3253085400499
 20
-68.0999997510547
 30
0.0
 11
-113.8168892552669
 21
-62.59999975105469
 31
0.0
  0
LINE
  5
213
330
67
100
AcDbEntity
  8
0
  6
Continuous
 62
     7
100
AcDbLine
 10
-110.9270924327277
 20
-61.99999975105469
 30
0.0
 11
-114.4729080200038
 21
-61.99999975105469
 31
0.0
  0
LINE
  5
214
330
67
100
AcDbEntity
  8
0
  6
Continuous
 62
     7
100
AcDbLine
 10
-111.5831111974647
 20
-62.59999975105469
 30
0.0
 11
-113.8168892552669
 21
-62.59999975105469
 31
0.0
  0
LINE
  5
215
330
67
100
AcDbEntity
  8
0
  6
Continuous
 62
     7
100
AcDbLine
 10
-111.4186731479447
 20
-67.49999975105469
 30
0.0
 11
-109.8843024360904
 21
-67.49999975105469
 31
0.0
  0
LINE
  5
216
330
67
100
AcDbEntity
  8
0
  6
Continuous
 62
     7
100
AcDbLine
 10
-113.3253085400499
 20
-68.0999997510547
 30
0.0
 11
-116.0022365643959
 21
-68.0999997510547
 31
0.0
  0
LINE
  5
217
330
67
100
AcDbEntity
  8
0
  6
Continuous
 62
     7
100
AcDbLine
 10
-112.0746919126816
 20
-68.0999997510547
 30
0.0
 11
-109.3977638883357
 21
-68.0999997510547
 31
0.0
  0
ARC
  5
218
330
67
100
AcDbEntity
  8
0
  6
Continuous
 62
     7
100
AcDbCircle
 10
-100.4000002263658
 20
-64.55454896839623
 30
0.0
 40
15.39999999999994
100
AcDbArc
 50
154.8100812941645
 51
191.0265028185188
  0
ARC
  5
219
330
67
100
AcDbEntity
  8
0
  6
Continuous
 62
     7
100
AcDbCircle
 10
-100.4000002263658
 20
-64.55454896839623
 30
0.0
 40
15.99999999999999
100
AcDbArc
 50
153.8189803144767
 51
192.8024781185146
  0
ARC
  5
21A
330
67
100
AcDbEntity
  8
0
  6
Continuous
 62
     7
100
AcDbCircle
 10
-110.4750002263658
 20
-55.96082004802992
 30
0.0
 40
4.550000000000011
100
AcDbArc
 50
180.0
 51
199.7081321294767
  0
ARC
  5
21B
330
67
100
AcDbEntity
  8
0
  6
Continuous
 62
     7
100
AcDbCircle
 10
-112.9750002263658
 20
-55.96082004802992
 30
0.0
 40
2.050000000000009
100
AcDbArc
 50
94.50645612847919
 51
180.0
  0
ARC
  5
21C
330
67
100
AcDbEntity
  8
0
  6
Continuous
 62
     7
100
AcDbCircle
 10
-125.0000002263658
 20
-64.55454896839623
 30
0.0
 40
15.4
100
AcDbArc
 50
348.9734971814812
 51
25.18991870583532
  0
ARC
  5
21D
330
67
100
AcDbEntity
  8
0
  6
Continuous
 62
     7
100
AcDbCircle
 10
-114.9250002263658
 20
-55.96082004802992
 30
0.0
 40
4.550000000000006
100
AcDbArc
 50
340.2918678705233
 51
0.0
  0
ARC
  5
21E
330
67
100
AcDbEntity
  8
0
  6
Continuous
 62
     7
100
AcDbCircle
 10
-112.4250002263658
 20
-55.96082004802992
 30
0.0
 40
2.049999999999997
100
AcDbArc
 50
0.0
 51
85.49354387151845
  0
ARC
  5
21F
330
67
100
AcDbEntity
  8
0
  6
Continuous
 62
     7
100
AcDbCircle
 10
-112.7000002263658
 20
-59.44999975105468
 30
0.0
 40
5.55000000000001
100
AcDbArc
 50
85.49354387151944
 51
94.50645612847956
  0
ARC
  5
220
330
67
100
AcDbEntity
  8
0
  6
Continuous
 62
     7
100
AcDbCircle
 10
-125.0000002263658
 20
-64.55454896839623
 30
0.0
 40
16.00000000000001
100
AcDbArc
 50
347.1975218814854
 51
26.18101968552332
  0
ENDBLK
  5
69
330
67
100
AcDbEntity
  8
0
100
AcDbBlockEnd
  0
BLOCK
  5
6C
330
6A
100
AcDbEntity
  8
0
100
AcDbBlockBegin
  2
SA_Links1
 70
     0
 10
-112.7000001296402
 20
-61.0
 30
0.0
  3
SA_Links1
  1

  0
INSERT
  5
6B
330
6A
100
AcDbEntity
  8
0
100
AcDbBlockReference
  2
0822479_PATG_4_30-select__4
 10
-116.4000002263658
 20
-68.0999997510547
 30
0.0
  0
MTEXT
  5
221
330
6A
100
AcDbEntity
  8
1
 62
     6
100
AcDbMText
 10
-112.7000001296401
 20
-70.59999990463257
 30
0.0
 40
2.5
 41
0.0
 71
     2
 72
     1
  1
 
  7
CONVERTER_11
 73
     1
 44
1.32052821128451
  0
ENDBLK
  5
6D
330
6A
100
AcDbEntity
  8
0
100
AcDbBlockEnd
  0
BLOCK
  5
6F
330
6E
100
AcDbEntity
  8
0
100
AcDbBlockBegin
  2
0822479_PATG_4_30-select__5
 70
     0
 10
-178.8000002489864
 20
-68.09999975105475
 30
0.0
  3
0822479_PATG_4_30-select__5
  1

  0
LINE
  5
222
330
6E
100
AcDbEntity
  8
0
  6
Continuous
 62
     7
100
AcDbLine
 10
-173.8186731705653
 20
-67.49999975105474
 30
0.0
 11
-172.284302458711
 21
-67.49999975105473
 31
0.0
  0
LINE
  5
223
330
6E
100
AcDbEntity
  8
0
  6
Continuous
 62
     7
100
AcDbLine
 10
-174.4746919353023
 20
-68.09999975105475
 30
0.0
 11
-173.9831112200853
 21
-62.59999975105475
 31
0.0
  0
LINE
  5
224
330
6E
100
AcDbEntity
  8
0
  6
Continuous
 62
     7
100
AcDbLine
 10
-174.4746919353023
 20
-68.09999975105475
 30
0.0
 11
-171.7977639109563
 21
-68.09999975105475
 31
0.0
  0
LINE
  5
225
330
6E
100
AcDbEntity
  8
0
  6
Continuous
 62
     7
100
AcDbLine
 10
-176.3813273274074
 20
-67.49999975105474
 30
0.0
 11
-177.9156980392618
 21
-67.49999975105474
 31
0.0
  0
LINE
  5
226
330
6E
100
AcDbEntity
  8
0
  6
Continuous
 62
     7
100
AcDbLine
 10
-176.8729080426244
 20
-61.99999975105474
 30
0.0
 11
-176.3813273274074
 21
-67.49999975105474
 31
0.0
  0
LINE
  5
227
330
6E
100
AcDbEntity
  8
0
  6
Continuous
 62
     7
100
AcDbLine
 10
-173.4645101407251
 20
-57.99999975105474
 30
0.0
 11
-176.7354903572476
 21
-57.99999975105474
 31
0.0
  0
LINE
  5
228
330
6E
100
AcDbEntity
  8
0
  6
Continuous
 62
     7
100
AcDbLine
 10
-173.3270924553483
 20
-61.99999975105474
 30
0.0
 11
-173.8186731705653
 21
-67.49999975105474
 31
0.0
  0
LINE
  5
229
330
6E
100
AcDbEntity
  8
0
  6
Continuous
 62
     7
100
AcDbLine
 10
-176.8729080426244
 20
-61.99999975105474
 30
0.0
 11
-173.3270924553483
 21
-61.99999975105474
 31
0.0
  0
LINE
  5
22A
330
6E
100
AcDbEntity
  8
0
  6
Continuous
 62
     7
100
AcDbLine
 10
-176.2168892778875
 20
-62.59999975105475
 30
0.0
 11
-173.9831112200853
 21
-62.59999975105475
 31
0.0
  0
LINE
  5
22B
330
6E
100
AcDbEntity
  8
0
  6
Continuous
 62
     7
100
AcDbLine
 10
-175.7253085626705
 20
-68.09999975105475
 30
0.0
 11
-178.4022365870165
 21
-68.09999975105475
 31
0.0
  0
LINE
  5
22C
330
6E
100
AcDbEntity
  8
0
  6
Continuous
 62
     7
100
AcDbLine
 10
-175.7253085626705
 20
-68.09999975105475
 30
0.0
 11
-176.2168892778875
 21
-62.59999975105475
 31
0.0
  0
ARC
  5
22D
330
6E
100
AcDbEntity
  8
0
  6
Continuous
 62
     7
100
AcDbCircle
 10
-172.8750002489864
 20
-55.96082004802997
 30
0.0
 40
4.550000000000011
100
AcDbArc
 50
180.0
 51
199.7081321294766
  0
ARC
  5
22E
330
6E
100
AcDbEntity
  8
0
  6
Continuous
 62
     7
100
AcDbCircle
 10
-162.8000002489864
 20
-64.55454896839629
 30
0.0
 40
15.39999999999996
100
AcDbArc
 50
154.8100812941645
 51
191.0265028185188
  0
ARC
  5
22F
330
6E
100
AcDbEntity
  8
0
  6
Continuous
 62
     7
100
AcDbCircle
 10
-162.8000002489864
 20
-64.55454896839629
 30
0.0
 40
16.00000000000001
100
AcDbArc
 50
153.8189803144767
 51
192.8024781185146
  0
ARC
  5
230
330
6E
100
AcDbEntity
  8
0
  6
Continuous
 62
     7
100
AcDbCircle
 10
-175.1000002489864
 20
-59.44999975105473
 30
0.0
 40
5.549999999999979
100
AcDbArc
 50
85.49354387152059
 51
94.50645612847973
  0
ARC
  5
231
330
6E
100
AcDbEntity
  8
0
  6
Continuous
 62
     7
100
AcDbCircle
 10
-174.8250002489864
 20
-55.96082004802997
 30
0.0
 40
2.050000000000011
100
AcDbArc
 50
0.0
 51
85.49354387152079
  0
ARC
  5
232
330
6E
100
AcDbEntity
  8
0
  6
Continuous
 62
     7
100
AcDbCircle
 10
-177.3250002489864
 20
-55.96082004802997
 30
0.0
 40
4.550000000000019
100
AcDbArc
 50
340.2918678705233
 51
0.0
  0
ARC
  5
233
330
6E
100
AcDbEntity
  8
0
  6
Continuous
 62
     7
100
AcDbCircle
 10
-175.3750002489864
 20
-55.96082004802997
 30
0.0
 40
2.049999999999987
100
AcDbArc
 50
94.50645612847923
 51
180.0
  0
ARC
  5
234
330
6E
100
AcDbEntity
  8
0
  6
Continuous
 62
     7
100
AcDbCircle
 10
-187.4000002489864
 20
-64.55454896839629
 30
0.0
 40
15.39999999999999
100
AcDbArc
 50
348.9734971814813
 51
25.18991870583536
  0
ARC
  5
235
330
6E
100
AcDbEntity
  8
0
  6
Continuous
 62
     7
100
AcDbCircle
 10
-187.4000002489864
 20
-64.55454896839629
 30
0.0
 40
16.00000000000002
100
AcDbArc
 50
347.1975218814854
 51
26.18101968552334
  0
ENDBLK
  5
70
330
6E
100
AcDbEntity
  8
0
100
AcDbBlockEnd
  0
BLOCK
  5
73
330
71
100
AcDbEntity
  8
0
100
AcDbBlockBegin
  2
SA_Rechts1
 70
     0
 10
-175.100000345712
 20
-61.00000000000006
 30
0.0
  3
SA_Rechts1
  1

  0
INSERT
  5
72
330
71
100
AcDbEntity
  8
0
100
AcDbBlockReference
  2
0822479_PATG_4_30-select__5
 10
-178.8000002489864
 20
-68.09999975105475
 30
0.0
  0
MTEXT
  5
236
330
71
100
AcDbEntity
  8
1
 62
     6
100
AcDbMText
 10
-175.1000003457119
 20
-70.59999990463257
 30
0.0
 40
2.5
 41
0.0
 71
     2
 72
     1
  1
 
  7
CONVERTER_11
 73
     1
 44
1.32052821128451
  0
ENDBLK
  5
74
330
71
100
AcDbEntity
  8
0
100
AcDbBlockEnd
  0
BLOCK
  5
76
330
75
100
AcDbEntity
  8
0
100
AcDbBlockBegin
  2
0822479_PATG_4_30-select__6
 70
     0
 10
-156.3999999999949
 20
-68.09999975105477
 30
0.0
  3
0822479_PATG_4_30-select__6
  1

  0
LINE
  5
237
330
75
100
AcDbEntity
  8
0
  6
Continuous
 62
     7
100
AcDbLine
 10
-156.3999999999949
 20
-57.49521145309365
 30
0.0
 11
-126.3999999999949
 21
-57.49521145309365
 31
0.0
  0
LINE
  5
238
330
75
100
AcDbEntity
  8
0
  6
Continuous
 62
     7
100
AcDbLine
 10
-156.3999999999949
 20
-57.49521145309365
 30
0.0
 11
-156.3999999999949
 21
-55.96082004803
 31
0.0
  0
LINE
  5
239
330
75
100
AcDbEntity
  8
0
  6
Continuous
 62
     7
100
AcDbLine
 10
-156.3999999999949
 20
-55.96082004803
 30
0.0
 11
-156.3999999999949
 21
-53.91715765054407
 31
0.0
  0
LINE
  5
23A
330
75
100
AcDbEntity
  8
0
  6
Continuous
 62
     7
100
AcDbLine
 10
-126.3999999999949
 20
-55.96082004803
 30
0.0
 11
-126.3999999999949
 21
-53.91715765054407
 31
0.0
  0
LINE
  5
23B
330
75
100
AcDbEntity
  8
0
  6
Continuous
 62
     7
100
AcDbLine
 10
-126.3999999999949
 20
-53.89999975105476
 30
0.0
 11
-126.3999999999949
 21
-53.91715765054407
 31
0.0
  0
LINE
  5
23C
330
75
100
AcDbEntity
  8
0
  6
Continuous
 62
     2
100
AcDbLine
 10
-156.3999999999949
 20
-55.96082004803
 30
0.0
 11
-126.3999999999949
 21
-55.96082004803
 31
0.0
  0
LINE
  5
23D
330
75
100
AcDbEntity
  8
0
  6
Continuous
 62
     7
100
AcDbLine
 10
-126.3999999999949
 20
-57.49521145309365
 30
0.0
 11
-126.3999999999949
 21
-55.96082004803
 31
0.0
  0
LINE
  5
23E
330
75
100
AcDbEntity
  8
0
  6
Continuous
 62
     7
100
AcDbLine
 10
-156.3999999999949
 20
-68.09999975105477
 30
0.0
 11
-156.3999999999949
 21
-57.49521145309365
 31
0.0
  0
LINE
  5
23F
330
75
100
AcDbEntity
  8
0
  6
Continuous
 62
     7
100
AcDbLine
 10
-156.3999999999949
 20
-53.89999975105476
 30
0.0
 11
-156.3999999999949
 21
-53.91715765054407
 31
0.0
  0
LINE
  5
240
330
75
100
AcDbEntity
  8
0
  6
Continuous
 62
     2
100
AcDbLine
 10
-156.3999999999949
 20
-53.91715765054407
 30
0.0
 11
-126.3999999999949
 21
-53.91715765054407
 31
0.0
  0
LINE
  5
241
330
75
100
AcDbEntity
  8
0
  6
Continuous
 62
     7
100
AcDbLine
 10
-156.3999999999949
 20
-53.89999975105476
 30
0.0
 11
-126.3999999999949
 21
-53.89999975105476
 31
0.0
  0
LINE
  5
242
330
75
100
AcDbEntity
  8
0
  6
Continuous
 62
     7
100
AcDbLine
 10
-126.3999999999949
 20
-68.09999975105477
 30
0.0
 11
-126.3999999999949
 21
-57.49521145309365
 31
0.0
  0
LINE
  5
243
330
75
100
AcDbEntity
  8
0
  6
Continuous
 62
     7
100
AcDbLine
 10
-156.3999999999949
 20
-68.09999975105477
 30
0.0
 11
-126.3999999999949
 21
-68.09999975105477
 31
0.0
  0
ENDBLK
  5
77
330
75
100
AcDbEntity
  8
0
100
AcDbBlockEnd
  0
BLOCK
  5
7A
330
78
100
AcDbEntity
  8
0
100
AcDbBlockBegin
  2
Vordans1
 70
     0
 10
-141.3999999999999
 20
-61.00000000000009
 30
0.0
  3
Vordans1
  1

  0
INSERT
  5
79
330
78
100
AcDbEntity
  8
0
100
AcDbBlockReference
  2
0822479_PATG_4_30-select__6
 10
-156.3999999999949
 20
-68.09999975105477
 30
0.0
  0
MTEXT
  5
244
330
78
100
AcDbEntity
  8
1
 62
     6
100
AcDbMText
 10
-141.4
 20
-70.59999990463257
 30
0.0
 40
2.5
 41
0.0
 71
     2
 72
     1
  1
 
  7
CONVERTER_11
 73
     1
 44
1.32052821128451
  0
DIMENSION
  5
24F
330
78
100
AcDbEntity
  8
1
100
AcDbDimension
  2
*D17
 10
-156.3999999999949
 20
-73.09999975105477
 30
0.0
 11
-141.3999999999949
 21
-71.47499975105477
 31
0.0
 70
    33
  1
<>
 71
     5
 42
-1.0
 53
0.00013888888889
  3
ME10_DIM_11
100
AcDbAlignedDimension
 13
-126.3999999999949
 23
-68.09999975105477
 33
0.0
 14
-156.3999999999949
 24
-68.09999975105477
 34
0.0
  0
DIMENSION
  5
25A
330
78
100
AcDbEntity
  8
1
100
AcDbDimension
  2
*D18
 10
-161.3999999999949
 20
-68.09999975105478
 30
0.0
 11
-163.1124999999949
 21
-60.99999975105477
 31
0.0
 70
    32
  1
<>
 71
     5
 42
-1.0
 53
90.00000000000001
  3
ME10_DIM_12
100
AcDbAlignedDimension
 13
-156.3999999999949
 23
-53.89999975105476
 33
0.0
 14
-156.3999999999949
 24
-68.09999975105477
 34
0.0
 50
90.00000000000001
100
AcDbRotatedDimension
  0
ENDBLK
  5
7B
330
78
100
AcDbEntity
  8
0
100
AcDbBlockEnd
  0
BLOCK
  5
1FB
330
1F4
100
AcDbEntity
  8
0
100
AcDbBlockBegin
  2
*D16
 70
     1
 10
0.0
 20
0.0
 30
0.0
  3
*D16
  1

  0
LINE
  5
1F5
330
1F4
100
AcDbEntity
  8
1
  6
Continuous
 62
     2
100
AcDbLine
 10
-161.4000002592752
 20
-83.10000017596565
 30
0.0
 11
-161.4000002592752
 21
-90.50000017596565
 31
0.0
  0
LINE
  5
1F6
330
1F4
100
AcDbEntity
  8
1
  6
Continuous
 62
     2
100
AcDbLine
 10
-156.4000002592752
 20
-83.10000017596565
 30
0.0
 11
-162.1500002592752
 21
-83.10000017596565
 31
0.0
  0
LINE
  5
1F7
330
1F4
100
AcDbEntity
  8
1
  6
Continuous
 62
     2
100
AcDbLine
 10
-156.4000002592752
 20
-90.50000017596565
 30
0.0
 11
-162.1500002592752
 21
-90.50000017596565
 31
0.0
  0
SOLID
  5
1F8
330
1F4
100
AcDbEntity
  8
1
 62
     2
100
AcDbTrace
 10
-161.1696083884973
 20
-84.85000017596565
 30
0.0
 11
-161.6303921300531
 21
-84.85000017596565
 31
0.0
 12
-161.4000002592752
 22
-83.10000017596565
 32
0.0
 13
-161.4000002592752
 23
-83.10000017596565
 33
0.0
  0
SOLID
  5
1F9
330
1F4
100
AcDbEntity
  8
1
 62
     2
100
AcDbTrace
 10
-161.6303921300531
 20
-88.75000017596565
 30
0.0
 11
-161.1696083884973
 21
-88.75000017596565
 31
0.0
 12
-161.4000002592752
 22
-90.50000017596565
 32
0.0
 13
-161.4000002592752
 23
-90.50000017596565
 33
0.0
  0
MTEXT
  5
1FA
330
1F4
100
AcDbEntity
  8
1
 62
     3
100
AcDbMText
 10
-162.3250002592752
 20
-88.41875017596564
 30
0.0
 40
1.75
 41
0.0
 71
     7
 72
     1
  1
7,4
  7
CONVERTER_11
 11
0.0
 21
1.0
 31
0.0
 73
     1
 44
0.60024009603842
  0
ENDBLK
  5
1FC
330
1F4
100
AcDbEntity
  8
0
100
AcDbBlockEnd
  0
BLOCK
  5
24C
330
245
100
AcDbEntity
  8
0
100
AcDbBlockBegin
  2
*D17
 70
     1
 10
0.0
 20
0.0
 30
0.0
  3
*D17
  1

  0
LINE
  5
246
330
245
100
AcDbEntity
  8
1
  6
Continuous
 62
     2
100
AcDbLine
 10
-156.3999999999949
 20
-73.09999975105477
 30
0.0
 11
-126.3999999999949
 21
-73.09999975105477
 31
0.0
  0
LINE
  5
247
330
245
100
AcDbEntity
  8
1
  6
Continuous
 62
     2
100
AcDbLine
 10
-156.3999999999949
 20
-68.09999975105477
 30
0.0
 11
-156.3999999999949
 21
-73.84999975105477
 31
0.0
  0
LINE
  5
248
330
245
100
AcDbEntity
  8
1
  6
Continuous
 62
     2
100
AcDbLine
 10
-126.3999999999949
 20
-68.09999975105477
 30
0.0
 11
-126.3999999999949
 21
-73.84999975105477
 31
0.0
  0
SOLID
  5
249
330
245
100
AcDbEntity
  8
1
 62
     2
100
AcDbTrace
 10
-154.6499999999949
 20
-72.86960788027683
 30
0.0
 11
-154.6499999999949
 21
-73.3303916218327
 31
0.0
 12
-156.3999999999949
 22
-73.09999975105477
 32
0.0
 13
-156.3999999999949
 23
-73.09999975105477
 33
0.0
  0
SOLID
  5
24A
330
245
100
AcDbEntity
  8
1
 62
     2
100
AcDbTrace
 10
-128.1499999999949
 20
-73.3303916218327
 30
0.0
 11
-128.1499999999949
 21
-72.86960788027683
 31
0.0
 12
-126.3999999999949
 22
-73.09999975105477
 32
0.0
 13
-126.3999999999949
 23
-73.09999975105477
 33
0.0
  0
MTEXT
  5
24B
330
245
100
AcDbEntity
  8
1
 62
     3
100
AcDbMText
 10
-142.7124999999949
 20
-72.34999975105477
 30
0.0
 40
1.75
 41
0.0
 71
     7
 72
     1
  1
30
  7
CONVERTER_11
 11
0.9999999999970619
 21
2.424068405545306E-6
 31
0.0
 73
     1
 44
0.60024009603842
  0
ENDBLK
  5
24D
330
245
100
AcDbEntity
  8
0
100
AcDbBlockEnd
  0
BLOCK
  5
257
330
250
100
AcDbEntity
  8
0
100
AcDbBlockBegin
  2
*D18
 70
     1
 10
0.0
 20
0.0
 30
0.0
  3
*D18
  1

  0
LINE
  5
251
330
250
100
AcDbEntity
  8
1
  6
Continuous
 62
     2
100
AcDbLine
 10
-161.3999999999949
 20
-68.09999975105478
 30
0.0
 11
-161.3999999999949
 21
-53.89999975105477
 31
0.0
  0
LINE
  5
252
330
250
100
AcDbEntity
  8
1
  6
Continuous
 62
     2
100
AcDbLine
 10
-156.3999999999949
 20
-68.09999975105478
 30
0.0
 11
-162.1499999999949
 21
-68.09999975105478
 31
0.0
  0
LINE
  5
253
330
250
100
AcDbEntity
  8
1
  6
Continuous
 62
     2
100
AcDbLine
 10
-156.3999999999949
 20
-53.89999975105477
 30
0.0
 11
-162.1499999999949
 21
-53.89999975105477
 31
0.0
  0
SOLID
  5
254
330
250
100
AcDbEntity
  8
1
 62
     2
100
AcDbTrace
 10
-161.6303918707728
 20
-66.34999975105478
 30
0.0
 11
-161.169608129217
 21
-66.34999975105478
 31
0.0
 12
-161.3999999999949
 22
-68.09999975105478
 32
0.0
 13
-161.3999999999949
 23
-68.09999975105478
 33
0.0
  0
SOLID
  5
255
330
250
100
AcDbEntity
  8
1
 62
     2
100
AcDbTrace
 10
-161.169608129217
 20
-55.64999975105477
 30
0.0
 11
-161.6303918707728
 21
-55.64999975105477
 31
0.0
 12
-161.3999999999949
 22
-53.89999975105477
 32
0.0
 13
-161.3999999999949
 23
-53.89999975105477
 33
0.0
  0
MTEXT
  5
256
330
250
100
AcDbEntity
  8
1
 62
     3
100
AcDbMText
 10
-162.3249999999949
 20
-63.14374975105477
 30
0.0
 40
1.75
 41
0.0
 71
     7
 72
     1
  1
14,2
  7
CONVERTER_11
 11
0.0
 21
1.0
 31
0.0
 73
     1
 44
0.60024009603842
  0
ENDBLK
  5
258
330
250
100
AcDbEntity
  8
0
100
AcDbBlockEnd
  0
ENDSEC
  0
SECTION
  2
ENTITIES
  0
INSERT
  5
7C
330
1F
100
AcDbEntity
  8
0
100
AcDbBlockReference
  2
A4I_CS
 10
-104.3000002490038
 20
-266.900926994912
 30
0.0
  0
INSERT
  5
7D
330
1F
100
AcDbEntity
  8
0
100
AcDbBlockReference
  2
Allg1
 10
-153.999999999992
 20
-194.000000000002
 30
0.0
 41
2.0
 42
2.0
 43
2.0
  0
INSERT
  5
7E
330
1F
100
AcDbEntity
  8
0
100
AcDbBlockReference
  2
Drfsicht1
 10
-282.8000005185604
 20
-173.6000005453825
 30
0.0
 41
2.0
 42
2.0
 43
2.0
  0
INSERT
  5
7F
330
1F
100
AcDbEntity
  8
0
100
AcDbBlockReference
  2
Rckans1
 10
-168.000000000025
 20
-122.0000000000001
 30
0.0
 41
2.0
 42
2.0
 43
2.0
  0
INSERT
  5
80
330
1F
100
AcDbEntity
  8
0
100
AcDbBlockReference
  2
SA_Links1
 10
-225.4000002592804
 20
-122.0
 30
0.0
 41
2.0
 42
2.0
 43
2.0
  0
INSERT
  5
81
330
1F
100
AcDbEntity
  8
0
100
AcDbBlockReference
  2
SA_Rechts1
 10
-350.200000691424
 20
-122.0000000000001
 30
0.0
 41
2.0
 42
2.0
 43
2.0
  0
INSERT
  5
82
330
1F
100
AcDbEntity
  8
0
100
AcDbBlockReference
  2
Vordans1
 10
-282.7999999999998
 20
-122.0000000000002
 30
0.0
 41
2.0
 42
2.0
 43
2.0
  0
ENDSEC
  0
SECTION
  2
OBJECTS
  0
DICTIONARY
  5
C
330
0
100
AcDbDictionary
281
     1
  3
ACAD_GROUP
350
D
  3
ACAD_LAYOUT
350
1A
  3
ACAD_MATERIAL
350
3B
  3
ACAD_MLEADERSTYLE
350
25D
  3
ACAD_MLINESTYLE
350
17
  3
ACAD_PLOTSETTINGS
350
19
  3
ACAD_PLOTSTYLENAME
350
E
  3
ACAD_VISUALSTYLE
350
2A
  3
AcDbVariableDictionary
350
25B
  0
DICTIONARY
  5
D
102
{ACAD_REACTORS
330
C
102
}
330
C
100
AcDbDictionary
281
     1
  0
DICTIONARY
  5
1A
102
{ACAD_REACTORS
330
C
102
}
330
C
100
AcDbDictionary
281
     1
  3
Layout1
350
1E
  3
Layout2
350
26
  3
Model
350
22
  0
DICTIONARY
  5
3B
102
{ACAD_REACTORS
330
C
102
}
330
C
100
AcDbDictionary
281
     1
  3
ByBlock
350
3D
  3
ByLayer
350
3C
  3
Global
350
3E
  0
DICTIONARY
  5
25D
102
{ACAD_REACTORS
330
C
102
}
330
C
100
AcDbDictionary
281
     1
  0
DICTIONARY
  5
17
102
{ACAD_REACTORS
330
C
102
}
330
C
100
AcDbDictionary
281
     1
  3
Standard
350
18
  0
DICTIONARY
  5
19
102
{ACAD_REACTORS
330
C
102
}
330
C
100
AcDbDictionary
281
     1
  0
ACDBDICTIONARYWDFLT
  5
E
102
{ACAD_REACTORS
330
C
102
}
330
C
100
AcDbDictionary
281
     1
  3
Normal
350
F
100
AcDbDictionaryWithDefault
340
F
  0
DICTIONARY
  5
2A
102
{ACAD_REACTORS
330
C
102
}
330
C
100
AcDbDictionary
281
     1
  3
2dWireframe
350
2F
  3
3D Hidden
350
31
  3
3dWireframe
350
30
  3
Basic
350
32
  3
Brighten
350
36
  3
ColorChange
350
3A
  3
Conceptual
350
34
  3
Dim
350
35
  3
Facepattern
350
39
  3
Flat
350
2B
  3
FlatWithEdges
350
2C
  3
Gouraud
350
2D
  3
GouraudWithEdges
350
2E
  3
Linepattern
350
38
  3
Realistic
350
33
  3
Thicken
350
37
  0
DICTIONARY
  5
25B
102
{ACAD_REACTORS
330
C
102
}
330
C
100
AcDbDictionary
281
     1
  3
DIMASSOC
350
25E
  3
HIDETEXT
350
25F
  0
LAYOUT
  5
1E
102
{ACAD_REACTORS
330
1A
102
}
330
1A
100
AcDbPlotSettings
  1

  2
none_device
  4

  6

 40
0.0
 41
0.0
 42
0.0
 43
0.0
 44
0.0
 45
0.0
 46
0.0
 47
0.0
 48
0.0
 49
0.0
140
0.0
141
0.0
142
1.0
143
1.0
 70
   688
 72
     0
 73
     0
 74
     5
  7

 75
    16
147
1.0
148
0.0
149
0.0
100
AcDbLayout
  1
Layout1
 70
     1
 71
     1
 10
0.0
 20
0.0
 11
12.0
 21
9.0
 12
0.0
 22
0.0
 32
0.0
 14
1.00000000000000E+20
 24
1.00000000000000E+20
 34
1.00000000000000E+20
 15
-1.00000000000000E+20
 25
-1.00000000000000E+20
 35
-1.00000000000000E+20
146
0.0
 13
0.0
 23
0.0
 33
0.0
 16
1.0
 26
0.0
 36
0.0
 17
0.0
 27
1.0
 37
0.0
 76
     0
330
1B
  0
LAYOUT
  5
26
102
{ACAD_REACTORS
330
1A
102
}
330
1A
100
AcDbPlotSettings
  1

  2
none_device
  4

  6

 40
0.0
 41
0.0
 42
0.0
 43
0.0
 44
0.0
 45
0.0
 46
0.0
 47
0.0
 48
0.0
 49
0.0
140
0.0
141
0.0
142
1.0
143
1.0
 70
   688
 72
     0
 73
     0
 74
     5
  7

 75
    16
147
1.0
148
0.0
149
0.0
100
AcDbLayout
  1
Layout2
 70
     1
 71
     2
 10
0.0
 20
0.0
 11
0.0
 21
0.0
 12
0.0
 22
0.0
 32
0.0
 14
0.0
 24
0.0
 34
0.0
 15
0.0
 25
0.0
 35
0.0
146
0.0
 13
0.0
 23
0.0
 33
0.0
 16
1.0
 26
0.0
 36
0.0
 17
0.0
 27
1.0
 37
0.0
 76
     0
330
23
  0
LAYOUT
  5
22
102
{ACAD_REACTORS
330
1A
102
}
330
1A
100
AcDbPlotSettings
  1

  2
none_device
  4

  6

 40
0.0
 41
0.0
 42
0.0
 43
0.0
 44
0.0
 45
0.0
 46
0.0
 47
0.0
 48
0.0
 49
0.0
140
0.0
141
0.0
142
1.0
143
1.0
 70
  1712
 72
     0
 73
     0
 74
     0
  7

 75
     0
147
1.0
148
0.0
149
0.0
100
AcDbLayout
  1
Model
 70
     1
 71
     0
 10
0.0
 20
0.0
 11
12.0
 21
9.0
 12
0.0
 22
0.0
 32
0.0
 14
-396.3000002490029
 24
-266.900926994912
 34
0.0
 15
-99.30000024900482
 25
-56.90092699491191
 35
0.0
146
0.0
 13
0.0
 23
0.0
 33
0.0
 16
1.0
 26
0.0
 36
0.0
 17
0.0
 27
1.0
 37
0.0
 76
     0
330
1F
331
29
  0
MATERIAL
  5
3D
102
{ACAD_REACTORS
330
3B
102
}
102
{ACAD_XDICTIONARY
360
282
102
}
330
3B
100
AcDbMaterial
  1
ByBlock
  0
MATERIAL
  5
3C
102
{ACAD_REACTORS
330
3B
102
}
102
{ACAD_XDICTIONARY
360
280
102
}
330
3B
100
AcDbMaterial
  1
ByLayer
  0
MATERIAL
  5
3E
102
{ACAD_REACTORS
330
3B
102
}
102
{ACAD_XDICTIONARY
360
284
102
}
330
3B
100
AcDbMaterial
  1
Global
  0
MLINESTYLE
  5
18
102
{ACAD_REACTORS
330
17
102
}
330
17
100
AcDbMlineStyle
  2
Standard
 70
     0
  3

 62
   256
 51
90.0
 52
90.0
 71
     2
 49
0.5
 62
   256
  6
BYLAYER
 49
-0.5
 62
   256
  6
BYLAYER
  0
ACDBPLACEHOLDER
  5
F
102
{ACAD_REACTORS
330
E
102
}
330
E
  0
VISUALSTYLE
  5
2F
102
{ACAD_REACTORS
330
2A
102
}
102
{ACAD_XDICTIONARY
360
268
102
}
330
2A
100
AcDbVisualStyle
  2
2dWireframe
 70
     4
 71
     0
 72
     2
 73
     0
 90
        0
 40
-0.6
 41
-30.0
 62
     5
 63
     7
 74
     1
 91
        4
 64
     7
 65
   257
 75
     1
175
     1
 42
1.0
 92
        0
 66
   257
 43
1.0
 76
     1
 77
     6
 78
     2
 67
     7
 79
     5
170
     0
171
     0
290
     0
174
     0
 93
        1
 44
0.0
173
     0
291
     0
 45
0.0
1001
ACAD
1000
AcDbSavedByObjectVersion
1070
     0
  0
VISUALSTYLE
  5
31
102
{ACAD_REACTORS
330
2A
102
}
102
{ACAD_XDICTIONARY
360
26C
102
}
330
2A
100
AcDbVisualStyle
  2
3D Hidden
 70
     6
 71
     1
 72
     2
 73
     2
 90
        0
 40
-0.6
 41
-30.0
 62
     5
 63
     7
 74
     2
 91
        2
 64
     7
 65
   257
 75
     2
175
     1
 42
40.0
 92
        0
 66
   257
 43
1.0
 76
     1
 77
     6
 78
     2
 67
     7
 79
     3
170
     0
171
     0
290
     0
174
     0
 93
        1
 44
0.0
173
     0
291
     0
 45
0.0
1001
ACAD
1000
AcDbSavedByObjectVersion
1070
     0
  0
VISUALSTYLE
  5
30
102
{ACAD_REACTORS
330
2A
102
}
102
{ACAD_XDICTIONARY
360
26A
102
}
330
2A
100
AcDbVisualStyle
  2
3dWireframe
 70
     5
 71
     0
 72
     2
 73
     0
 90
        0
 40
-0.6
 41
-30.0
 62
     5
 63
     7
 74
     1
 91
        4
 64
     7
 65
   257
 75
     1
175
     1
 42
1.0
 92
        0
 66
   257
 43
1.0
 76
     1
 77
     6
 78
     2
 67
     7
 79
     5
170
     0
171
     0
290
     0
174
     0
 93
        1
 44
0.0
173
     0
291
     0
 45
0.0
1001
ACAD
1000
AcDbSavedByObjectVersion
1070
     0
  0
VISUALSTYLE
  5
32
102
{ACAD_REACTORS
330
2A
102
}
102
{ACAD_XDICTIONARY
360
26E
102
}
330
2A
100
AcDbVisualStyle
  2
Basic
 70
     7
 71
     1
 72
     0
 73
     1
 90
        0
 40
-0.6
 41
-30.0
 62
     5
 63
     7
 74
     0
 91
        4
 64
     7
 65
   257
 75
     1
175
     1
 42
1.0
 92
        8
 66
     7
 43
1.0
 76
     1
 77
     6
 78
     2
 67
     7
 79
     5
170
     0
171
     0
290
     0
174
     0
 93
        1
 44
0.0
173
     0
291
     1
 45
0.0
1001
ACAD
1000
AcDbSavedByObjectVersion
1070
     0
  0
VISUALSTYLE
  5
36
102
{ACAD_REACTORS
330
2A
102
}
102
{ACAD_XDICTIONARY
360
276
102
}
330
2A
100
AcDbVisualStyle
  2
Brighten
 70
    12
 71
     2
 72
     2
 73
     0
 90
        0
 40
-0.6
 41
-30.0
 62
     5
 63
     7
 74
     1
 91
        4
 64
     7
 65
   257
 75
     1
175
     1
 42
1.0
 92
        8
 66
     7
 43
1.0
 76
     1
 77
     6
 78
     2
 67
     7
 79
     5
170
     0
171
     0
290
     0
174
     0
 93
        1
 44
50.0
173
     0
291
     1
 45
0.0
1001
ACAD
1000
AcDbSavedByObjectVersion
1070
     0
  0
VISUALSTYLE
  5
3A
102
{ACAD_REACTORS
330
2A
102
}
102
{ACAD_XDICTIONARY
360
27E
102
}
330
2A
100
AcDbVisualStyle
  2
ColorChange
 70
    16
 71
     2
 72
     2
 73
     3
 90
        0
 40
-0.6
 41
-30.0
 62
     5
 63
     8
 74
     1
 91
        4
 64
     7
 65
   257
 75
     1
175
     1
 42
1.0
 92
        8
 66
     8
 43
1.0
 76
     1
 77
     6
 78
     2
 67
     7
 79
     5
170
     0
171
     0
290
     0
174
     0
 93
        1
 44
0.0
173
     0
291
     1
 45
0.0
1001
ACAD
1000
AcDbSavedByObjectVersion
1070
     0
  0
VISUALSTYLE
  5
34
102
{ACAD_REACTORS
330
2A
102
}
102
{ACAD_XDICTIONARY
360
272
102
}
330
2A
100
AcDbVisualStyle
  2
Conceptual
 70
     9
 71
     3
 72
     2
 73
     0
 90
        0
 40
-0.6
 41
-30.0
 62
     5
 63
     7
 74
     2
 91
        2
 64
     7
 65
   257
 75
     1
175
     1
 42
40.0
 92
        8
 66
     7
 43
1.0
 76
     1
 77
     6
 78
     2
 67
     7
 79
     3
170
     0
171
     0
290
     0
174
     0
 93
        1
 44
0.0
173
     0
291
     0
 45
0.0
1001
ACAD
1000
AcDbSavedByObjectVersion
1070
     0
  0
VISUALSTYLE
  5
35
102
{ACAD_REACTORS
330
2A
102
}
102
{ACAD_XDICTIONARY
360
274
102
}
330
2A
100
AcDbVisualStyle
  2
Dim
 70
    11
 71
     2
 72
     2
 73
     0
 90
        0
 40
-0.6
 41
-30.0
 62
     5
 63
     7
 74
     1
 91
        4
 64
     7
 65
   257
 75
     1
175
     1
 42
1.0
 92
        8
 66
     7
 43
1.0
 76
     1
 77
     6
 78
     2
 67
     7
 79
     5
170
     0
171
     0
290
     0
174
     0
 93
        1
 44
-50.0
173
     0
291
     1
 45
0.0
1001
ACAD
1000
AcDbSavedByObjectVersion
1070
     0
  0
VISUALSTYLE
  5
39
102
{ACAD_REACTORS
330
2A
102
}
102
{ACAD_XDICTIONARY
360
27C
102
}
330
2A
100
AcDbVisualStyle
  2
Facepattern
 70
    15
 71
     2
 72
     2
 73
     0
 90
        0
 40
-0.6
 41
-30.0
 62
     5
 63
     7
 74
     1
 91
        4
 64
     7
 65
   257
 75
     1
175
     1
 42
1.0
 92
        8
 66
     7
 43
1.0
 76
     1
 77
     6
 78
     2
 67
     7
 79
     5
170
     0
171
     0
290
     0
174
     0
 93
        1
 44
0.0
173
     0
291
     1
 45
0.0
1001
ACAD
1000
AcDbSavedByObjectVersion
1070
     0
  0
VISUALSTYLE
  5
2B
102
{ACAD_REACTORS
330
2A
102
}
102
{ACAD_XDICTIONARY
360
260
102
}
330
2A
100
AcDbVisualStyle
  2
Flat
 70
     0
 71
     2
 72
     1
 73
     1
 90
        2
 40
-0.6
 41
30.0
 62
     5
 63
     7
 74
     0
 91
        4
 64
     7
 65
   257
 75
     1
175
     1
 42
1.0
 92
        8
 66
     7
 43
1.0
 76
     1
 77
     6
 78
     2
 67
     7
 79
     5
170
     0
171
     0
290
     0
174
     0
 93
       13
 44
0.0
173
     0
291
     1
 45
0.0
1001
ACAD
1000
AcDbSavedByObjectVersion
1070
     0
  0
VISUALSTYLE
  5
2C
102
{ACAD_REACTORS
330
2A
102
}
102
{ACAD_XDICTIONARY
360
262
102
}
330
2A
100
AcDbVisualStyle
  2
FlatWithEdges
 70
     1
 71
     2
 72
     1
 73
     1
 90
        2
 40
-0.6
 41
30.0
 62
     5
 63
     7
 74
     1
 91
        4
 64
     7
 65
   257
 75
     1
175
     1
 42
1.0
 92
        0
 66
   257
 43
1.0
 76
     1
 77
     6
 78
     2
 67
     7
 79
     5
170
     0
171
     0
290
     0
174
     0
 93
       13
 44
0.0
173
     0
291
     1
 45
0.0
1001
ACAD
1000
AcDbSavedByObjectVersion
1070
     0
  0
VISUALSTYLE
  5
2D
102
{ACAD_REACTORS
330
2A
102
}
102
{ACAD_XDICTIONARY
360
264
102
}
330
2A
100
AcDbVisualStyle
  2
Gouraud
 70
     2
 71
     2
 72
     2
 73
     1
 90
        2
 40
-0.6
 41
30.0
 62
     5
 63
     7
 74
     0
 91
        4
 64
     7
 65
   257
 75
     1
175
     1
 42
1.0
 92
        0
 66
     7
 43
1.0
 76
     1
 77
     6
 78
     2
 67
     7
 79
     5
170
     0
171
     0
290
     0
174
     0
 93
       13
 44
0.0
173
     0
291
     1
 45
0.0
1001
ACAD
1000
AcDbSavedByObjectVersion
1070
     0
  0
VISUALSTYLE
  5
2E
102
{ACAD_REACTORS
330
2A
102
}
102
{ACAD_XDICTIONARY
360
266
102
}
330
2A
100
AcDbVisualStyle
  2
GouraudWithEdges
 70
     3
 71
     2
 72
     2
 73
     1
 90
        2
 40
-0.6
 41
30.0
 62
     5
 63
     7
 74
     1
 91
        4
 64
     7
 65
   257
 75
     1
175
     1
 42
1.0
 92
        0
 66
   257
 43
1.0
 76
     1
 77
     6
 78
     2
 67
     7
 79
     5
170
     0
171
     0
290
     0
174
     0
 93
       13
 44
0.0
173
     0
291
     1
 45
0.0
1001
ACAD
1000
AcDbSavedByObjectVersion
1070
     0
  0
VISUALSTYLE
  5
38
102
{ACAD_REACTORS
330
2A
102
}
102
{ACAD_XDICTIONARY
360
27A
102
}
330
2A
100
AcDbVisualStyle
  2
Linepattern
 70
    14
 71
     2
 72
     2
 73
     0
 90
        0
 40
-0.6
 41
-30.0
 62
     5
 63
     7
 74
     1
 91
        4
 64
     7
 65
   257
 75
     7
175
     7
 42
1.0
 92
        8
 66
     7
 43
1.0
 76
     1
 77
     6
 78
     2
 67
     7
 79
     5
170
     0
171
     0
290
     0
174
     0
 93
        1
 44
0.0
173
     0
291
     1
 45
0.0
1001
ACAD
1000
AcDbSavedByObjectVersion
1070
     0
  0
VISUALSTYLE
  5
33
102
{ACAD_REACTORS
330
2A
102
}
102
{ACAD_XDICTIONARY
360
270
102
}
330
2A
100
AcDbVisualStyle
  2
Realistic
 70
     8
 71
     2
 72
     2
 73
     0
 90
        0
 40
-0.6
 41
-30.0
 62
     5
 63
     7
 74
     1
 91
        0
 64
     7
 65
   257
 75
     1
175
     1
 42
1.0
 92
        8
 66
     8
 43
1.0
 76
     1
 77
     6
 78
     2
 67
     7
 79
     5
170
     0
171
     0
290
     0
174
     0
 93
       13
 44
0.0
173
     0
291
     0
 45
0.0
1001
ACAD
1000
AcDbSavedByObjectVersion
1070
     0
  0
VISUALSTYLE
  5
37
102
{ACAD_REACTORS
330
2A
102
}
102
{ACAD_XDICTIONARY
360
278
102
}
330
2A
100
AcDbVisualStyle
  2
Thicken
 70
    13
 71
     2
 72
     2
 73
     0
 90
        0
 40
-0.6
 41
-30.0
 62
     5
 63
     7
 74
     1
 91
        4
 64
     7
 65
   257
 75
     1
175
     1
 42
1.0
 92
       12
 66
     7
 43
1.0
 76
     1
 77
     6
 78
     2
 67
     7
 79
     5
170
     0
171
     0
290
     0
174
     0
 93
        1
 44
0.0
173
     0
291
     1
 45
0.0
1001
ACAD
1000
AcDbSavedByObjectVersion
1070
     0
  0
DICTIONARYVAR
  5
25E
102
{ACAD_REACTORS
330
25B
102
}
330
25B
100
DictionaryVariables
280
     0
  1
2
  0
DICTIONARYVAR
  5
25F
102
{ACAD_REACTORS
330
25B
102
}
330
25B
100
DictionaryVariables
280
     0
  1
1
  0
DICTIONARY
  5
282
330
3D
100
AcDbDictionary
280
     1
281
     1
  3
ACAD_XREC_ROUNDTRIP
360
283
  0
DICTIONARY
  5
280
330
3C
100
AcDbDictionary
280
     1
281
     1
  3
ACAD_XREC_ROUNDTRIP
360
281
  0
DICTIONARY
  5
284
330
3E
100
AcDbDictionary
280
     1
281
     1
  3
ACAD_XREC_ROUNDTRIP
360
285
  0
DICTIONARY
  5
268
330
2F
100
AcDbDictionary
280
     1
281
     1
  3
ACAD_XREC_ROUNDTRIP
360
269
  0
DICTIONARY
  5
26C
330
31
100
AcDbDictionary
280
     1
281
     1
  3
ACAD_XREC_ROUNDTRIP
360
26D
  0
DICTIONARY
  5
26A
330
30
100
AcDbDictionary
280
     1
281
     1
  3
ACAD_XREC_ROUNDTRIP
360
26B
  0
DICTIONARY
  5
26E
330
32
100
AcDbDictionary
280
     1
281
     1
  3
ACAD_XREC_ROUNDTRIP
360
26F
  0
DICTIONARY
  5
276
330
36
100
AcDbDictionary
280
     1
281
     1
  3
ACAD_XREC_ROUNDTRIP
360
277
  0
DICTIONARY
  5
27E
330
3A
100
AcDbDictionary
280
     1
281
     1
  3
ACAD_XREC_ROUNDTRIP
360
27F
  0
DICTIONARY
  5
272
330
34
100
AcDbDictionary
280
     1
281
     1
  3
ACAD_XREC_ROUNDTRIP
360
273
  0
DICTIONARY
  5
274
330
35
100
AcDbDictionary
280
     1
281
     1
  3
ACAD_XREC_ROUNDTRIP
360
275
  0
DICTIONARY
  5
27C
330
39
100
AcDbDictionary
280
     1
281
     1
  3
ACAD_XREC_ROUNDTRIP
360
27D
  0
DICTIONARY
  5
260
330
2B
100
AcDbDictionary
280
     1
281
     1
  3
ACAD_XREC_ROUNDTRIP
360
261
  0
DICTIONARY
  5
262
330
2C
100
AcDbDictionary
280
     1
281
     1
  3
ACAD_XREC_ROUNDTRIP
360
263
  0
DICTIONARY
  5
264
330
2D
100
AcDbDictionary
280
     1
281
     1
  3
ACAD_XREC_ROUNDTRIP
360
265
  0
DICTIONARY
  5
266
330
2E
100
AcDbDictionary
280
     1
281
     1
  3
ACAD_XREC_ROUNDTRIP
360
267
  0
DICTIONARY
  5
27A
330
38
100
AcDbDictionary
280
     1
281
     1
  3
ACAD_XREC_ROUNDTRIP
360
27B
  0
DICTIONARY
  5
270
330
33
100
AcDbDictionary
280
     1
281
     1
  3
ACAD_XREC_ROUNDTRIP
360
271
  0
DICTIONARY
  5
278
330
37
100
AcDbDictionary
280
     1
281
     1
  3
ACAD_XREC_ROUNDTRIP
360
279
  0
XRECORD
  5
283
102
{ACAD_REACTORS
330
282
102
}
330
282
100
AcDbXrecord
280
     1
102
MATERIAL
148
0.0
149
0.0
149
0.0
 93
        0
 94
      127
282
     0
 72
     1
 77
     1
171
     1
175
     1
179
     1
273
     0
  0
XRECORD
  5
281
102
{ACAD_REACTORS
330
280
102
}
330
280
100
AcDbXrecord
280
     1
102
MATERIAL
148
0.0
149
0.0
149
0.0
 93
        0
 94
      127
282
     0
 72
     1
 77
     1
171
     1
175
     1
179
     1
273
     0
  0
XRECORD
  5
285
102
{ACAD_REACTORS
330
284
102
}
330
284
100
AcDbXrecord
280
     1
102
MATERIAL
148
0.0
149
0.0
149
0.0
 93
        0
 94
      127
282
     0
 72
     1
 77
     1
171
     1
175
     1
179
     1
273
     0
  0
XRECORD
  5
269
102
{ACAD_REACTORS
330
268
102
}
330
268
100
AcDbXrecord
280
     1
102
RTVSPropertyOp0
 70
     1
102
RTVSPropertyOp1
 70
     1
102
RTVSPropertyOp2
 70
     1
102
RTVSPropertyOp3
 70
     1
102
RTVSPropertyOp4
 70
     1
102
RTVSPropertyOp5
 70
     1
102
RTVSPropertyOp6
 70
     1
102
RTVSPropertyOp7
 70
     1
102
RTVSPropertyOp8
 70
     1
102
RTVSPropertyOp9
 70
     1
102
RTVSPropertyOp10
 70
     1
102
RTVSPropertyOp11
 70
     1
102
RTVSPropertyOp12
 70
     1
102
RTVSPropertyOp13
 70
     1
102
RTVSPropertyOp14
 70
     1
102
RTVSPropertyOp15
 70
     1
102
RTVSPropertyOp16
 70
     1
102
RTVSPropertyOp17
 70
     1
102
RTVSPropertyOp18
 70
     1
102
RTVSPropertyOp19
 70
     1
102
RTVSPropertyOp20
 70
     1
102
RTVSPropertyOp21
 70
     1
102
RTVSPropertyOp22
 70
     1
102
RTVSPropertyOp23
 70
     1
102
RTVSPropertyOp24
 70
     1
102
RTVSPropertyOp25
 70
     1
102
RTVSPropertyOp26
 70
     1
102
RTVSPropertyOp27
 70
     1
102
RTVSPropertyOp28
 70
     1
102
RTVSPropertyOp29
 70
     1
102
RTVSPropertyOp30
 70
     1
102
RTVSPropertyOp31
 70
     1
102
RTVSPropertyOp32
 70
     1
  0
XRECORD
  5
26D
102
{ACAD_REACTORS
330
26C
102
}
330
26C
100
AcDbXrecord
280
     1
102
RTVSPropertyOp0
 70
     1
102
RTVSPropertyOp1
 70
     1
102
RTVSPropertyOp2
 70
     1
102
RTVSPropertyOp3
 70
     1
102
RTVSPropertyOp4
 70
     1
102
RTVSPropertyOp5
 70
     1
102
RTVSPropertyOp6
 70
     1
102
RTVSPropertyOp7
 70
     1
102
RTVSPropertyOp8
 70
     1
102
RTVSPropertyOp9
 70
     1
102
RTVSPropertyOp10
 70
     1
102
RTVSPropertyOp11
 70
     1
102
RTVSPropertyOp12
 70
     1
102
RTVSPropertyOp13
 70
     1
102
RTVSPropertyOp14
 70
     1
102
RTVSPropertyOp15
 70
     1
102
RTVSPropertyOp16
 70
     1
102
RTVSPropertyOp17
 70
     1
102
RTVSPropertyOp18
 70
     1
102
RTVSPropertyOp19
 70
     1
102
RTVSPropertyOp20
 70
     1
102
RTVSPropertyOp21
 70
     1
102
RTVSPropertyOp22
 70
     1
102
RTVSPropertyOp23
 70
     1
102
RTVSPropertyOp24
 70
     1
102
RTVSPropertyOp25
 70
     1
102
RTVSPropertyOp26
 70
     1
102
RTVSPropertyOp27
 70
     1
102
RTVSPropertyOp28
 70
     1
102
RTVSPropertyOp29
 70
     1
102
RTVSPropertyOp30
 70
     1
102
RTVSPropertyOp31
 70
     1
102
RTVSPropertyOp32
 70
     1
  0
XRECORD
  5
26B
102
{ACAD_REACTORS
330
26A
102
}
330
26A
100
AcDbXrecord
280
     1
102
RTVSPropertyOp0
 70
     1
102
RTVSPropertyOp1
 70
     1
102
RTVSPropertyOp2
 70
     1
102
RTVSPropertyOp3
 70
     1
102
RTVSPropertyOp4
 70
     1
102
RTVSPropertyOp5
 70
     1
102
RTVSPropertyOp6
 70
     1
102
RTVSPropertyOp7
 70
     1
102
RTVSPropertyOp8
 70
     1
102
RTVSPropertyOp9
 70
     1
102
RTVSPropertyOp10
 70
     1
102
RTVSPropertyOp11
 70
     1
102
RTVSPropertyOp12
 70
     1
102
RTVSPropertyOp13
 70
     1
102
RTVSPropertyOp14
 70
     1
102
RTVSPropertyOp15
 70
     1
102
RTVSPropertyOp16
 70
     1
102
RTVSPropertyOp17
 70
     1
102
RTVSPropertyOp18
 70
     1
102
RTVSPropertyOp19
 70
     1
102
RTVSPropertyOp20
 70
     1
102
RTVSPropertyOp21
 70
     1
102
RTVSPropertyOp22
 70
     1
102
RTVSPropertyOp23
 70
     1
102
RTVSPropertyOp24
 70
     1
102
RTVSPropertyOp25
 70
     1
102
RTVSPropertyOp26
 70
     1
102
RTVSPropertyOp27
 70
     1
102
RTVSPropertyOp28
 70
     1
102
RTVSPropertyOp29
 70
     1
102
RTVSPropertyOp30
 70
     1
102
RTVSPropertyOp31
 70
     1
102
RTVSPropertyOp32
 70
     1
  0
XRECORD
  5
26F
102
{ACAD_REACTORS
330
26E
102
}
330
26E
100
AcDbXrecord
280
     1
102
RTVSPropertyOp0
 70
     1
102
RTVSPropertyOp1
 70
     1
102
RTVSPropertyOp2
 70
     1
102
RTVSPropertyOp3
 70
     1
102
RTVSPropertyOp4
 70
     1
102
RTVSPropertyOp5
 70
     1
102
RTVSPropertyOp6
 70
     1
102
RTVSPropertyOp7
 70
     1
102
RTVSPropertyOp8
 70
     1
102
RTVSPropertyOp9
 70
     1
102
RTVSPropertyOp10
 70
     1
102
RTVSPropertyOp11
 70
     1
102
RTVSPropertyOp12
 70
     1
102
RTVSPropertyOp13
 70
     1
102
RTVSPropertyOp14
 70
     1
102
RTVSPropertyOp15
 70
     1
102
RTVSPropertyOp16
 70
     1
102
RTVSPropertyOp17
 70
     1
102
RTVSPropertyOp18
 70
     1
102
RTVSPropertyOp19
 70
     1
102
RTVSPropertyOp20
 70
     1
102
RTVSPropertyOp21
 70
     1
102
RTVSPropertyOp22
 70
     1
102
RTVSPropertyOp23
 70
     1
102
RTVSPropertyOp24
 70
     1
102
RTVSPropertyOp25
 70
     1
102
RTVSPropertyOp26
 70
     1
102
RTVSPropertyOp27
 70
     1
102
RTVSPropertyOp28
 70
     1
102
RTVSPropertyOp29
 70
     1
102
RTVSPropertyOp30
 70
     1
102
RTVSPropertyOp31
 70
     1
102
RTVSPropertyOp32
 70
     1
  0
XRECORD
  5
277
102
{ACAD_REACTORS
330
276
102
}
330
276
100
AcDbXrecord
280
     1
102
RTVSPropertyOp0
 70
     1
102
RTVSPropertyOp1
 70
     1
102
RTVSPropertyOp2
 70
     1
102
RTVSPropertyOp3
 70
     1
102
RTVSPropertyOp4
 70
     1
102
RTVSPropertyOp5
 70
     1
102
RTVSPropertyOp6
 70
     1
102
RTVSPropertyOp7
 70
     1
102
RTVSPropertyOp8
 70
     1
102
RTVSPropertyOp9
 70
     1
102
RTVSPropertyOp10
 70
     1
102
RTVSPropertyOp11
 70
     1
102
RTVSPropertyOp12
 70
     1
102
RTVSPropertyOp13
 70
     1
102
RTVSPropertyOp14
 70
     1
102
RTVSPropertyOp15
 70
     1
102
RTVSPropertyOp16
 70
     1
102
RTVSPropertyOp17
 70
     1
102
RTVSPropertyOp18
 70
     1
102
RTVSPropertyOp19
 70
     1
102
RTVSPropertyOp20
 70
     1
102
RTVSPropertyOp21
 70
     1
102
RTVSPropertyOp22
 70
     1
102
RTVSPropertyOp23
 70
     1
102
RTVSPropertyOp24
 70
     1
102
RTVSPropertyOp25
 70
     1
102
RTVSPropertyOp26
 70
     1
102
RTVSPropertyOp27
 70
     1
102
RTVSPropertyOp28
 70
     1
102
RTVSPropertyOp29
 70
     1
102
RTVSPropertyOp30
 70
     1
102
RTVSPropertyOp31
 70
     1
102
RTVSPropertyOp32
 70
     1
  0
XRECORD
  5
27F
102
{ACAD_REACTORS
330
27E
102
}
330
27E
100
AcDbXrecord
280
     1
102
RTVSPropertyOp0
 70
     1
102
RTVSPropertyOp1
 70
     1
102
RTVSPropertyOp2
 70
     1
102
RTVSPropertyOp3
 70
     1
102
RTVSPropertyOp4
 70
     1
102
RTVSPropertyOp5
 70
     1
102
RTVSPropertyOp6
 70
     1
102
RTVSPropertyOp7
 70
     1
102
RTVSPropertyOp8
 70
     1
102
RTVSPropertyOp9
 70
     1
102
RTVSPropertyOp10
 70
     1
102
RTVSPropertyOp11
 70
     1
102
RTVSPropertyOp12
 70
     1
102
RTVSPropertyOp13
 70
     1
102
RTVSPropertyOp14
 70
     1
102
RTVSPropertyOp15
 70
     1
102
RTVSPropertyOp16
 70
     1
102
RTVSPropertyOp17
 70
     1
102
RTVSPropertyOp18
 70
     1
102
RTVSPropertyOp19
 70
     1
102
RTVSPropertyOp20
 70
     1
102
RTVSPropertyOp21
 70
     1
102
RTVSPropertyOp22
 70
     1
102
RTVSPropertyOp23
 70
     1
102
RTVSPropertyOp24
 70
     1
102
RTVSPropertyOp25
 70
     1
102
RTVSPropertyOp26
 70
     1
102
RTVSPropertyOp27
 70
     1
102
RTVSPropertyOp28
 70
     1
102
RTVSPropertyOp29
 70
     1
102
RTVSPropertyOp30
 70
     1
102
RTVSPropertyOp31
 70
     1
102
RTVSPropertyOp32
 70
     1
  0
XRECORD
  5
273
102
{ACAD_REACTORS
330
272
102
}
330
272
100
AcDbXrecord
280
     1
102
RTVSPropertyOp0
 70
     1
102
RTVSPropertyOp1
 70
     1
102
RTVSPropertyOp2
 70
     1
102
RTVSPropertyOp3
 70
     1
102
RTVSPropertyOp4
 70
     1
102
RTVSPropertyOp5
 70
     1
102
RTVSPropertyOp6
 70
     1
102
RTVSPropertyOp7
 70
     1
102
RTVSPropertyOp8
 70
     1
102
RTVSPropertyOp9
 70
     1
102
RTVSPropertyOp10
 70
     1
102
RTVSPropertyOp11
 70
     1
102
RTVSPropertyOp12
 70
     1
102
RTVSPropertyOp13
 70
     1
102
RTVSPropertyOp14
 70
     1
102
RTVSPropertyOp15
 70
     1
102
RTVSPropertyOp16
 70
     1
102
RTVSPropertyOp17
 70
     1
102
RTVSPropertyOp18
 70
     1
102
RTVSPropertyOp19
 70
     1
102
RTVSPropertyOp20
 70
     1
102
RTVSPropertyOp21
 70
     1
102
RTVSPropertyOp22
 70
     1
102
RTVSPropertyOp23
 70
     1
102
RTVSPropertyOp24
 70
     1
102
RTVSPropertyOp25
 70
     1
102
RTVSPropertyOp26
 70
     1
102
RTVSPropertyOp27
 70
     1
102
RTVSPropertyOp28
 70
     1
102
RTVSPropertyOp29
 70
     1
102
RTVSPropertyOp30
 70
     1
102
RTVSPropertyOp31
 70
     1
102
RTVSPropertyOp32
 70
     1
  0
XRECORD
  5
275
102
{ACAD_REACTORS
330
274
102
}
330
274
100
AcDbXrecord
280
     1
102
RTVSPropertyOp0
 70
     1
102
RTVSPropertyOp1
 70
     1
102
RTVSPropertyOp2
 70
     1
102
RTVSPropertyOp3
 70
     1
102
RTVSPropertyOp4
 70
     1
102
RTVSPropertyOp5
 70
     1
102
RTVSPropertyOp6
 70
     1
102
RTVSPropertyOp7
 70
     1
102
RTVSPropertyOp8
 70
     1
102
RTVSPropertyOp9
 70
     1
102
RTVSPropertyOp10
 70
     1
102
RTVSPropertyOp11
 70
     1
102
RTVSPropertyOp12
 70
     1
102
RTVSPropertyOp13
 70
     1
102
RTVSPropertyOp14
 70
     1
102
RTVSPropertyOp15
 70
     1
102
RTVSPropertyOp16
 70
     1
102
RTVSPropertyOp17
 70
     1
102
RTVSPropertyOp18
 70
     1
102
RTVSPropertyOp19
 70
     1
102
RTVSPropertyOp20
 70
     1
102
RTVSPropertyOp21
 70
     1
102
RTVSPropertyOp22
 70
     1
102
RTVSPropertyOp23
 70
     1
102
RTVSPropertyOp24
 70
     1
102
RTVSPropertyOp25
 70
     1
102
RTVSPropertyOp26
 70
     1
102
RTVSPropertyOp27
 70
     1
102
RTVSPropertyOp28
 70
     1
102
RTVSPropertyOp29
 70
     1
102
RTVSPropertyOp30
 70
     1
102
RTVSPropertyOp31
 70
     1
102
RTVSPropertyOp32
 70
     1
  0
XRECORD
  5
27D
102
{ACAD_REACTORS
330
27C
102
}
330
27C
100
AcDbXrecord
280
     1
102
RTVSPropertyOp0
 70
     1
102
RTVSPropertyOp1
 70
     1
102
RTVSPropertyOp2
 70
     1
102
RTVSPropertyOp3
 70
     1
102
RTVSPropertyOp4
 70
     1
102
RTVSPropertyOp5
 70
     1
102
RTVSPropertyOp6
 70
     1
102
RTVSPropertyOp7
 70
     1
102
RTVSPropertyOp8
 70
     1
102
RTVSPropertyOp9
 70
     1
102
RTVSPropertyOp10
 70
     1
102
RTVSPropertyOp11
 70
     1
102
RTVSPropertyOp12
 70
     1
102
RTVSPropertyOp13
 70
     1
102
RTVSPropertyOp14
 70
     1
102
RTVSPropertyOp15
 70
     1
102
RTVSPropertyOp16
 70
     1
102
RTVSPropertyOp17
 70
     1
102
RTVSPropertyOp18
 70
     1
102
RTVSPropertyOp19
 70
     1
102
RTVSPropertyOp20
 70
     1
102
RTVSPropertyOp21
 70
     1
102
RTVSPropertyOp22
 70
     1
102
RTVSPropertyOp23
 70
     1
102
RTVSPropertyOp24
 70
     1
102
RTVSPropertyOp25
 70
     1
102
RTVSPropertyOp26
 70
     1
102
RTVSPropertyOp27
 70
     1
102
RTVSPropertyOp28
 70
     1
102
RTVSPropertyOp29
 70
     1
102
RTVSPropertyOp30
 70
     1
102
RTVSPropertyOp31
 70
     1
102
RTVSPropertyOp32
 70
     1
  0
XRECORD
  5
261
102
{ACAD_REACTORS
330
260
102
}
330
260
100
AcDbXrecord
280
     1
102
RTVSPropertyOp0
 70
     1
102
RTVSPropertyOp1
 70
     1
102
RTVSPropertyOp2
 70
     1
102
RTVSPropertyOp3
 70
     1
102
RTVSPropertyOp4
 70
     1
102
RTVSPropertyOp5
 70
     1
102
RTVSPropertyOp6
 70
     1
102
RTVSPropertyOp7
 70
     1
102
RTVSPropertyOp8
 70
     1
102
RTVSPropertyOp9
 70
     1
102
RTVSPropertyOp10
 70
     1
102
RTVSPropertyOp11
 70
     1
102
RTVSPropertyOp12
 70
     1
102
RTVSPropertyOp13
 70
     1
102
RTVSPropertyOp14
 70
     1
102
RTVSPropertyOp15
 70
     1
102
RTVSPropertyOp16
 70
     1
102
RTVSPropertyOp17
 70
     1
102
RTVSPropertyOp18
 70
     1
102
RTVSPropertyOp19
 70
     1
102
RTVSPropertyOp20
 70
     1
102
RTVSPropertyOp21
 70
     1
102
RTVSPropertyOp22
 70
     1
102
RTVSPropertyOp23
 70
     1
102
RTVSPropertyOp24
 70
     1
102
RTVSPropertyOp25
 70
     1
102
RTVSPropertyOp26
 70
     1
102
RTVSPropertyOp27
 70
     1
102
RTVSPropertyOp28
 70
     1
102
RTVSPropertyOp29
 70
     1
102
RTVSPropertyOp30
 70
     1
102
RTVSPropertyOp31
 70
     1
102
RTVSPropertyOp32
 70
     1
  0
XRECORD
  5
263
102
{ACAD_REACTORS
330
262
102
}
330
262
100
AcDbXrecord
280
     1
102
RTVSPropertyOp0
 70
     1
102
RTVSPropertyOp1
 70
     1
102
RTVSPropertyOp2
 70
     1
102
RTVSPropertyOp3
 70
     1
102
RTVSPropertyOp4
 70
     1
102
RTVSPropertyOp5
 70
     1
102
RTVSPropertyOp6
 70
     1
102
RTVSPropertyOp7
 70
     1
102
RTVSPropertyOp8
 70
     1
102
RTVSPropertyOp9
 70
     1
102
RTVSPropertyOp10
 70
     1
102
RTVSPropertyOp11
 70
     1
102
RTVSPropertyOp12
 70
     1
102
RTVSPropertyOp13
 70
     1
102
RTVSPropertyOp14
 70
     1
102
RTVSPropertyOp15
 70
     1
102
RTVSPropertyOp16
 70
     1
102
RTVSPropertyOp17
 70
     1
102
RTVSPropertyOp18
 70
     1
102
RTVSPropertyOp19
 70
     1
102
RTVSPropertyOp20
 70
     1
102
RTVSPropertyOp21
 70
     1
102
RTVSPropertyOp22
 70
     1
102
RTVSPropertyOp23
 70
     1
102
RTVSPropertyOp24
 70
     1
102
RTVSPropertyOp25
 70
     1
102
RTVSPropertyOp26
 70
     1
102
RTVSPropertyOp27
 70
     1
102
RTVSPropertyOp28
 70
     1
102
RTVSPropertyOp29
 70
     1
102
RTVSPropertyOp30
 70
     1
102
RTVSPropertyOp31
 70
     1
102
RTVSPropertyOp32
 70
     1
  0
XRECORD
  5
265
102
{ACAD_REACTORS
330
264
102
}
330
264
100
AcDbXrecord
280
     1
102
RTVSPropertyOp0
 70
     1
102
RTVSPropertyOp1
 70
     1
102
RTVSPropertyOp2
 70
     1
102
RTVSPropertyOp3
 70
     1
102
RTVSPropertyOp4
 70
     1
102
RTVSPropertyOp5
 70
     1
102
RTVSPropertyOp6
 70
     1
102
RTVSPropertyOp7
 70
     1
102
RTVSPropertyOp8
 70
     1
102
RTVSPropertyOp9
 70
     1
102
RTVSPropertyOp10
 70
     1
102
RTVSPropertyOp11
 70
     1
102
RTVSPropertyOp12
 70
     1
102
RTVSPropertyOp13
 70
     1
102
RTVSPropertyOp14
 70
     1
102
RTVSPropertyOp15
 70
     1
102
RTVSPropertyOp16
 70
     1
102
RTVSPropertyOp17
 70
     1
102
RTVSPropertyOp18
 70
     1
102
RTVSPropertyOp19
 70
     1
102
RTVSPropertyOp20
 70
     1
102
RTVSPropertyOp21
 70
     1
102
RTVSPropertyOp22
 70
     1
102
RTVSPropertyOp23
 70
     1
102
RTVSPropertyOp24
 70
     1
102
RTVSPropertyOp25
 70
     1
102
RTVSPropertyOp26
 70
     1
102
RTVSPropertyOp27
 70
     1
102
RTVSPropertyOp28
 70
     1
102
RTVSPropertyOp29
 70
     1
102
RTVSPropertyOp30
 70
     1
102
RTVSPropertyOp31
 70
     1
102
RTVSPropertyOp32
 70
     1
  0
XRECORD
  5
267
102
{ACAD_REACTORS
330
266
102
}
330
266
100
AcDbXrecord
280
     1
102
RTVSPropertyOp0
 70
     1
102
RTVSPropertyOp1
 70
     1
102
RTVSPropertyOp2
 70
     1
102
RTVSPropertyOp3
 70
     1
102
RTVSPropertyOp4
 70
     1
102
RTVSPropertyOp5
 70
     1
102
RTVSPropertyOp6
 70
     1
102
RTVSPropertyOp7
 70
     1
102
RTVSPropertyOp8
 70
     1
102
RTVSPropertyOp9
 70
     1
102
RTVSPropertyOp10
 70
     1
102
RTVSPropertyOp11
 70
     1
102
RTVSPropertyOp12
 70
     1
102
RTVSPropertyOp13
 70
     1
102
RTVSPropertyOp14
 70
     1
102
RTVSPropertyOp15
 70
     1
102
RTVSPropertyOp16
 70
     1
102
RTVSPropertyOp17
 70
     1
102
RTVSPropertyOp18
 70
     1
102
RTVSPropertyOp19
 70
     1
102
RTVSPropertyOp20
 70
     1
102
RTVSPropertyOp21
 70
     1
102
RTVSPropertyOp22
 70
     1
102
RTVSPropertyOp23
 70
     1
102
RTVSPropertyOp24
 70
     1
102
RTVSPropertyOp25
 70
     1
102
RTVSPropertyOp26
 70
     1
102
RTVSPropertyOp27
 70
     1
102
RTVSPropertyOp28
 70
     1
102
RTVSPropertyOp29
 70
     1
102
RTVSPropertyOp30
 70
     1
102
RTVSPropertyOp31
 70
     1
102
RTVSPropertyOp32
 70
     1
  0
XRECORD
  5
27B
102
{ACAD_REACTORS
330
27A
102
}
330
27A
100
AcDbXrecord
280
     1
102
RTVSPropertyOp0
 70
     1
102
RTVSPropertyOp1
 70
     1
102
RTVSPropertyOp2
 70
     1
102
RTVSPropertyOp3
 70
     1
102
RTVSPropertyOp4
 70
     1
102
RTVSPropertyOp5
 70
     1
102
RTVSPropertyOp6
 70
     1
102
RTVSPropertyOp7
 70
     1
102
RTVSPropertyOp8
 70
     1
102
RTVSPropertyOp9
 70
     1
102
RTVSPropertyOp10
 70
     1
102
RTVSPropertyOp11
 70
     1
102
RTVSPropertyOp12
 70
     1
102
RTVSPropertyOp13
 70
     1
102
RTVSPropertyOp14
 70
     1
102
RTVSPropertyOp15
 70
     1
102
RTVSPropertyOp16
 70
     1
102
RTVSPropertyOp17
 70
     1
102
RTVSPropertyOp18
 70
     1
102
RTVSPropertyOp19
 70
     1
102
RTVSPropertyOp20
 70
     1
102
RTVSPropertyOp21
 70
     1
102
RTVSPropertyOp22
 70
     1
102
RTVSPropertyOp23
 70
     1
102
RTVSPropertyOp24
 70
     1
102
RTVSPropertyOp25
 70
     1
102
RTVSPropertyOp26
 70
     1
102
RTVSPropertyOp27
 70
     1
102
RTVSPropertyOp28
 70
     1
102
RTVSPropertyOp29
 70
     1
102
RTVSPropertyOp30
 70
     1
102
RTVSPropertyOp31
 70
     1
102
RTVSPropertyOp32
 70
     1
  0
XRECORD
  5
271
102
{ACAD_REACTORS
330
270
102
}
330
270
100
AcDbXrecord
280
     1
102
RTVSPropertyOp0
 70
     1
102
RTVSPropertyOp1
 70
     1
102
RTVSPropertyOp2
 70
     1
102
RTVSPropertyOp3
 70
     1
102
RTVSPropertyOp4
 70
     1
102
RTVSPropertyOp5
 70
     1
102
RTVSPropertyOp6
 70
     1
102
RTVSPropertyOp7
 70
     1
102
RTVSPropertyOp8
 70
     1
102
RTVSPropertyOp9
 70
     1
102
RTVSPropertyOp10
 70
     1
102
RTVSPropertyOp11
 70
     1
102
RTVSPropertyOp12
 70
     1
102
RTVSPropertyOp13
 70
     1
102
RTVSPropertyOp14
 70
     1
102
RTVSPropertyOp15
 70
     1
102
RTVSPropertyOp16
 70
     1
102
RTVSPropertyOp17
 70
     1
102
RTVSPropertyOp18
 70
     1
102
RTVSPropertyOp19
 70
     1
102
RTVSPropertyOp20
 70
     1
102
RTVSPropertyOp21
 70
     1
102
RTVSPropertyOp22
 70
     1
102
RTVSPropertyOp23
 70
     1
102
RTVSPropertyOp24
 70
     1
102
RTVSPropertyOp25
 70
     1
102
RTVSPropertyOp26
 70
     1
102
RTVSPropertyOp27
 70
     1
102
RTVSPropertyOp28
 70
     1
102
RTVSPropertyOp29
 70
     1
102
RTVSPropertyOp30
 70
     1
102
RTVSPropertyOp31
 70
     1
102
RTVSPropertyOp32
 70
     1
  0
XRECORD
  5
279
102
{ACAD_REACTORS
330
278
102
}
330
278
100
AcDbXrecord
280
     1
102
RTVSPropertyOp0
 70
     1
102
RTVSPropertyOp1
 70
     1
102
RTVSPropertyOp2
 70
     1
102
RTVSPropertyOp3
 70
     1
102
RTVSPropertyOp4
 70
     1
102
RTVSPropertyOp5
 70
     1
102
RTVSPropertyOp6
 70
     1
102
RTVSPropertyOp7
 70
     1
102
RTVSPropertyOp8
 70
     1
102
RTVSPropertyOp9
 70
     1
102
RTVSPropertyOp10
 70
     1
102
RTVSPropertyOp11
 70
     1
102
RTVSPropertyOp12
 70
     1
102
RTVSPropertyOp13
 70
     1
102
RTVSPropertyOp14
 70
     1
102
RTVSPropertyOp15
 70
     1
102
RTVSPropertyOp16
 70
     1
102
RTVSPropertyOp17
 70
     1
102
RTVSPropertyOp18
 70
     1
102
RTVSPropertyOp19
 70
     1
102
RTVSPropertyOp20
 70
     1
102
RTVSPropertyOp21
 70
     1
102
RTVSPropertyOp22
 70
     1
102
RTVSPropertyOp23
 70
     1
102
RTVSPropertyOp24
 70
     1
102
RTVSPropertyOp25
 70
     1
102
RTVSPropertyOp26
 70
     1
102
RTVSPropertyOp27
 70
     1
102
RTVSPropertyOp28
 70
     1
102
RTVSPropertyOp29
 70
     1
102
RTVSPropertyOp30
 70
     1
102
RTVSPropertyOp31
 70
     1
102
RTVSPropertyOp32
 70
     1
  0
ENDSEC
  0
EOF
