  0
SECTION
  2
HEADER
  9
$ACADVER
  1
AC1015
  9
$ACADMAINTVER
 70
     6
  9
$DWGCODEPAGE
  3
ANSI_1252
  9
$INSBASE
 10
0.0
 20
0.0
 30
0.0
  9
$EXTMIN
 10
-378.6999800182747
 20
-280.6427014628953
 30
0.0
  9
$EXTMAX
 10
-81.69998001827662
 20
-70.64270146289519
 30
0.0
  9
$LIMMIN
 10
0.0
 20
0.0
  9
$LIMMAX
 10
12.0
 20
9.0
  9
$ORTHOMODE
 70
     0
  9
$REGENMODE
 70
     1
  9
$FILLMODE
 70
     1
  9
$QTEXTMODE
 70
     0
  9
$MIRRTEXT
 70
     1
  9
$LTSCALE
 40
1.0
  9
$ATTMODE
 70
     1
  9
$TEXTSIZE
 40
0.2
  9
$TRACEWID
 40
0.05
  9
$TEXTSTYLE
  7
Standard
  9
$CLAYER
  8
0
  9
$CELTYPE
  6
ByLayer
  9
$CECOLOR
 62
   256
  9
$CELTSCALE
 40
1.0
  9
$DISPSILH
 70
     0
  9
$DIMSCALE
 40
1.0
  9
$DIMASZ
 40
0.18
  9
$DIMEXO
 40
0.0625
  9
$DIMDLI
 40
0.38
  9
$DIMRND
 40
0.0
  9
$DIMDLE
 40
0.0
  9
$DIMEXE
 40
0.18
  9
$DIMTP
 40
0.0
  9
$DIMTM
 40
0.0
  9
$DIMTXT
 40
0.18
  9
$DIMCEN
 40
0.09
  9
$DIMTSZ
 40
0.0
  9
$DIMTOL
 70
     0
  9
$DIMLIM
 70
     0
  9
$DIMTIH
 70
     1
  9
$DIMTOH
 70
     1
  9
$DIMSE1
 70
     0
  9
$DIMSE2
 70
     0
  9
$DIMTAD
 70
     0
  9
$DIMZIN
 70
     0
  9
$DIMBLK
  1

  9
$DIMASO
 70
     1
  9
$DIMSHO
 70
     1
  9
$DIMPOST
  1

  9
$DIMAPOST
  1

  9
$DIMALT
 70
     0
  9
$DIMALTD
 70
     2
  9
$DIMALTF
 40
25.4
  9
$DIMLFAC
 40
1.0
  9
$DIMTOFL
 70
     0
  9
$DIMTVP
 40
0.0
  9
$DIMTIX
 70
     0
  9
$DIMSOXD
 70
     0
  9
$DIMSAH
 70
     0
  9
$DIMBLK1
  1

  9
$DIMBLK2
  1

  9
$DIMSTYLE
  2
Standard
  9
$DIMCLRD
 70
     0
  9
$DIMCLRE
 70
     0
  9
$DIMCLRT
 70
     0
  9
$DIMTFAC
 40
1.0
  9
$DIMGAP
 40
0.09
  9
$DIMJUST
 70
     0
  9
$DIMSD1
 70
     0
  9
$DIMSD2
 70
     0
  9
$DIMTOLJ
 70
     1
  9
$DIMTZIN
 70
     0
  9
$DIMALTZ
 70
     0
  9
$DIMALTTZ
 70
     0
  9
$DIMUPT
 70
     0
  9
$DIMDEC
 70
     4
  9
$DIMTDEC
 70
     4
  9
$DIMALTU
 70
     2
  9
$DIMALTTD
 70
     2
  9
$DIMTXSTY
  7
Standard
  9
$DIMAUNIT
 70
     0
  9
$DIMADEC
 70
     0
  9
$DIMALTRND
 40
0.0
  9
$DIMAZIN
 70
     0
  9
$DIMDSEP
 70
    46
  9
$DIMATFIT
 70
     3
  9
$DIMFRAC
 70
     0
  9
$DIMLDRBLK
  1

  9
$DIMLUNIT
 70
     2
  9
$DIMLWD
 70
    -2
  9
$DIMLWE
 70
    -2
  9
$DIMTMOVE
 70
     0
  9
$LUNITS
 70
     2
  9
$LUPREC
 70
     4
  9
$SKETCHINC
 40
0.1
  9
$FILLETRAD
 40
0.5
  9
$AUNITS
 70
     0
  9
$AUPREC
 70
     0
  9
$MENU
  1
.
  9
$ELEVATION
 40
0.0
  9
$PELEVATION
 40
0.0
  9
$THICKNESS
 40
0.0
  9
$LIMCHECK
 70
     0
  9
$CHAMFERA
 40
0.5
  9
$CHAMFERB
 40
0.5
  9
$CHAMFERC
 40
1.0
  9
$CHAMFERD
 40
0.0
  9
$SKPOLY
 70
     0
  9
$TDCREATE
 40
2457212.604180857
  9
$TDUCREATE
 40
2457212.520847523
  9
$TDUPDATE
 40
2457212.604182431
  9
$TDUUPDATE
 40
2457212.520849097
  9
$TDINDWG
 40
0.0000000116
  9
$TDUSRTIMER
 40
0.0000000116
  9
$USRTIMER
 70
     1
  9
$ANGBASE
 50
0.0
  9
$ANGDIR
 70
     0
  9
$PDMODE
 70
     0
  9
$PDSIZE
 40
0.0
  9
$PLINEWID
 40
0.0
  9
$SPLFRAME
 70
     0
  9
$SPLINETYPE
 70
     6
  9
$SPLINESEGS
 70
     8
  9
$HANDSEED
  5
293
  9
$SURFTAB1
 70
     6
  9
$SURFTAB2
 70
     6
  9
$SURFTYPE
 70
     6
  9
$SURFU
 70
     6
  9
$SURFV
 70
     6
  9
$UCSBASE
  2

  9
$UCSNAME
  2

  9
$UCSORG
 10
0.0
 20
0.0
 30
0.0
  9
$UCSXDIR
 10
1.0
 20
0.0
 30
0.0
  9
$UCSYDIR
 10
0.0
 20
1.0
 30
0.0
  9
$UCSORTHOREF
  2

  9
$UCSORTHOVIEW
 70
     0
  9
$UCSORGTOP
 10
0.0
 20
0.0
 30
0.0
  9
$UCSORGBOTTOM
 10
0.0
 20
0.0
 30
0.0
  9
$UCSORGLEFT
 10
0.0
 20
0.0
 30
0.0
  9
$UCSORGRIGHT
 10
0.0
 20
0.0
 30
0.0
  9
$UCSORGFRONT
 10
0.0
 20
0.0
 30
0.0
  9
$UCSORGBACK
 10
0.0
 20
0.0
 30
0.0
  9
$PUCSBASE
  2

  9
$PUCSNAME
  2

  9
$PUCSORG
 10
0.0
 20
0.0
 30
0.0
  9
$PUCSXDIR
 10
1.0
 20
0.0
 30
0.0
  9
$PUCSYDIR
 10
0.0
 20
1.0
 30
0.0
  9
$PUCSORTHOREF
  2

  9
$PUCSORTHOVIEW
 70
     0
  9
$PUCSORGTOP
 10
0.0
 20
0.0
 30
0.0
  9
$PUCSORGBOTTOM
 10
0.0
 20
0.0
 30
0.0
  9
$PUCSORGLEFT
 10
0.0
 20
0.0
 30
0.0
  9
$PUCSORGRIGHT
 10
0.0
 20
0.0
 30
0.0
  9
$PUCSORGFRONT
 10
0.0
 20
0.0
 30
0.0
  9
$PUCSORGBACK
 10
0.0
 20
0.0
 30
0.0
  9
$USERI1
 70
     0
  9
$USERI2
 70
     0
  9
$USERI3
 70
     0
  9
$USERI4
 70
     0
  9
$USERI5
 70
     0
  9
$USERR1
 40
18.1
  9
$USERR2
 40
0.0
  9
$USERR3
 40
0.0
  9
$USERR4
 40
0.0
  9
$USERR5
 40
0.0
  9
$WORLDVIEW
 70
     1
  9
$SHADEDGE
 70
     3
  9
$SHADEDIF
 70
    70
  9
$TILEMODE
 70
     1
  9
$MAXACTVP
 70
    64
  9
$PINSBASE
 10
0.0
 20
0.0
 30
0.0
  9
$PLIMCHECK
 70
     0
  9
$PEXTMIN
 10
1.00000000000000E+20
 20
1.00000000000000E+20
 30
1.00000000000000E+20
  9
$PEXTMAX
 10
-1.00000000000000E+20
 20
-1.00000000000000E+20
 30
-1.00000000000000E+20
  9
$PLIMMIN
 10
0.0
 20
0.0
  9
$PLIMMAX
 10
12.0
 20
9.0
  9
$UNITMODE
 70
     0
  9
$VISRETAIN
 70
     1
  9
$PLINEGEN
 70
     0
  9
$PSLTSCALE
 70
     1
  9
$TREEDEPTH
 70
  3020
  9
$CMLSTYLE
  2
Standard
  9
$CMLJUST
 70
     0
  9
$CMLSCALE
 40
1.0
  9
$PROXYGRAPHICS
 70
     1
  9
$MEASUREMENT
 70
     1
  9
$CELWEIGHT
370
    -1
  9
$ENDCAPS
280
     0
  9
$JOINSTYLE
280
     0
  9
$LWDISPLAY
290
     0
  9
$INSUNITS
 70
     4
  9
$HYPERLINKBASE
  1

  9
$STYLESHEET
  1

  9
$XEDIT
290
     1
  9
$CEPSNTYPE
380
     0
  9
$PSTYLEMODE
290
     1
  9
$FINGERPRINTGUID
  2
{E5670582-4753-464A-A57B-AF5FE5D34C3D}
  9
$VERSIONGUID
  2
{FAEB1C32-E019-11D5-929B-00C0DF256EC4}
  9
$EXTNAMES
290
     1
  9
$PSVPSCALE
 40
0.0
  9
$OLESTARTUP
290
     0
  0
ENDSEC
  0
SECTION
  2
CLASSES
  0
CLASS
  1
ACDBDICTIONARYWDFLT
  2
AcDbDictionaryWithDefault
  3
ObjectDBX Classes
 90
        0
280
     0
281
     0
  0
CLASS
  1
VISUALSTYLE
  2
AcDbVisualStyle
  3
ObjectDBX Classes
 90
     4095
280
     0
281
     0
  0
CLASS
  1
MATERIAL
  2
AcDbMaterial
  3
ObjectDBX Classes
 90
     1153
280
     0
281
     0
  0
CLASS
  1
DICTIONARYVAR
  2
AcDbDictionaryVar
  3
ObjectDBX Classes
 90
        0
280
     0
281
     0
  0
CLASS
  1
ACDBPLACEHOLDER
  2
AcDbPlaceHolder
  3
ObjectDBX Classes
 90
        0
280
     0
281
     0
  0
CLASS
  1
LAYOUT
  2
AcDbLayout
  3
ObjectDBX Classes
 90
        0
280
     0
281
     0
  0
ENDSEC
  0
SECTION
  2
TABLES
  0
TABLE
  2
VPORT
  5
8
330
0
100
AcDbSymbolTable
 70
     1
  0
VPORT
  5
29
330
8
100
AcDbSymbolTableRecord
100
AcDbViewportTableRecord
  2
*Active
 70
     0
 10
0.0
 20
0.0
 11
1.0
 21
1.0
 12
-230.1999800182757
 22
-175.6427014628952
 13
0.0
 23
0.0
 14
0.5
 24
0.5
 15
0.5
 25
0.5
 16
0.0
 26
0.0
 36
1.0
 17
0.0
 27
0.0
 37
0.0
 40
231.0000000000001
 41
1.60267857142857
 42
50.0
 43
0.0
 44
0.0
 50
0.0
 51
0.0
 71
     0
 72
   100
 73
     1
 74
     3
 75
     0
 76
     0
 77
     0
 78
     0
281
     0
 65
     1
110
0.0
120
0.0
130
0.0
111
1.0
121
0.0
131
0.0
112
0.0
122
1.0
132
0.0
 79
     0
146
0.0
  0
ENDTAB
  0
TABLE
  2
LTYPE
  5
5
330
0
100
AcDbSymbolTable
 70
     8
  0
LTYPE
  5
14
330
5
100
AcDbSymbolTableRecord
100
AcDbLinetypeTableRecord
  2
ByBlock
 70
     0
  3

 72
    65
 73
     0
 40
0.0
  0
LTYPE
  5
15
330
5
100
AcDbSymbolTableRecord
100
AcDbLinetypeTableRecord
  2
ByLayer
 70
     0
  3

 72
    65
 73
     0
 40
0.0
  0
LTYPE
  5
16
330
5
100
AcDbSymbolTableRecord
100
AcDbLinetypeTableRecord
  2
Continuous
 70
     0
  3
Solid line
 72
    65
 73
     0
 40
0.0
  0
LTYPE
  5
3F
330
5
100
AcDbSymbolTableRecord
100
AcDbLinetypeTableRecord
  2
DASHED
 70
     0
  3
Dashed
 72
    65
 73
     2
 40
15.0
 49
7.0
 74
     0
 49
-8.0
 74
     0
  0
LTYPE
  5
40
330
5
100
AcDbSymbolTableRecord
100
AcDbLinetypeTableRecord
  2
DOTTED
 70
     0
  3
Dotted
 72
    65
 73
     2
 40
1.0
 49
0.0
 74
     0
 49
-1.0
 74
     0
  0
LTYPE
  5
41
330
5
100
AcDbSymbolTableRecord
100
AcDbLinetypeTableRecord
  2
DOT_CENTER
 70
     0
  3
Dot_Center
 72
    65
 73
     4
 40
14.0
 49
12.0
 74
     0
 49
-1.0
 74
     0
 49
0.0
 74
     0
 49
-1.0
 74
     0
  0
LTYPE
  5
42
330
5
100
AcDbSymbolTableRecord
100
AcDbLinetypeTableRecord
  2
LONG_DASHED
 70
     0
  3
Long_Dashed
 72
    65
 73
     2
 40
15.0
 49
10.0
 74
     0
 49
-5.0
 74
     0
  0
LTYPE
  5
43
330
5
100
AcDbSymbolTableRecord
100
AcDbLinetypeTableRecord
  2
DASH_CENTER
 70
     0
  3
Dash_Center
 72
    65
 73
     4
 40
14.0
 49
11.0
 74
     0
 49
-1.0
 74
     0
 49
1.0
 74
     0
 49
-1.0
 74
     0
  0
LTYPE
  5
44
330
5
100
AcDbSymbolTableRecord
100
AcDbLinetypeTableRecord
  2
PHANTOM
 70
     0
  3
Phantom
 72
    65
 73
     6
 40
13.0
 49
10.0
 74
     0
 49
-1.0
 74
     0
 49
0.0
 74
     0
 49
-1.0
 74
     0
 49
0.0
 74
     0
 49
-1.0
 74
     0
  0
LTYPE
  5
45
330
5
100
AcDbSymbolTableRecord
100
AcDbLinetypeTableRecord
  2
CENTER_DASH_DASH
 70
     0
  3
Center_Dash_Dash
 72
    65
 73
     6
 40
14.0
 49
9.0
 74
     0
 49
-1.0
 74
     0
 49
1.0
 74
     0
 49
-1.0
 74
     0
 49
1.0
 74
     0
 49
-1.0
 74
     0
  0
ENDTAB
  0
TABLE
  2
LAYER
  5
2
330
0
100
AcDbSymbolTable
 70
     2
  0
LAYER
  5
10
330
2
100
AcDbSymbolTableRecord
100
AcDbLayerTableRecord
  2
0
 70
     0
 62
     7
  6
Continuous
370
    -3
390
F
  0
LAYER
  5
46
330
2
100
AcDbSymbolTableRecord
100
AcDbLayerTableRecord
  2
1
 70
     0
 62
     7
  6
Continuous
370
    -3
390
F
  0
ENDTAB
  0
TABLE
  2
STYLE
  5
3
330
0
100
AcDbSymbolTable
 70
     5
  0
STYLE
  5
11
330
3
100
AcDbSymbolTableRecord
100
AcDbTextStyleTableRecord
  2
Standard
 70
     0
 40
0.0
 41
1.0
 50
0.0
 71
     0
 42
0.2
  3
txt
  4

  0
STYLE
  5
17B
330
3
100
AcDbSymbolTableRecord
100
AcDbTextStyleTableRecord
  2
CONVERTER_11
 70
     0
 40
0.0
 41
0.9
 50
0.0
 71
     0
 42
0.2
  3
txt.shx
  4

  0
STYLE
  5
17D
330
3
100
AcDbSymbolTableRecord
100
AcDbTextStyleTableRecord
  2
CONVERTER_12
 70
     0
 40
0.0
 41
0.81
 50
0.0
 71
     0
 42
0.2
  3
txt.shx
  4

  0
STYLE
  5
183
330
3
100
AcDbSymbolTableRecord
100
AcDbTextStyleTableRecord
  2
CONVERTER_13
 70
     0
 40
0.0
 41
0.855
 50
0.0
 71
     0
 42
0.2
  3
txt.shx
  4

  0
STYLE
  5
186
330
3
100
AcDbSymbolTableRecord
100
AcDbTextStyleTableRecord
  2
CONVERTER_14
 70
     0
 40
0.0
 41
0.72
 50
0.0
 71
     0
 42
0.2
  3
txt.shx
  4

  0
ENDTAB
  0
TABLE
  2
VIEW
  5
6
330
0
100
AcDbSymbolTable
 70
     0
  0
ENDTAB
  0
TABLE
  2
UCS
  5
7
330
0
100
AcDbSymbolTable
 70
     0
  0
ENDTAB
  0
TABLE
  2
APPID
  5
9
330
0
100
AcDbSymbolTable
 70
     1
  0
APPID
  5
12
330
9
100
AcDbSymbolTableRecord
100
AcDbRegAppTableRecord
  2
ACAD
 70
     0
  0
ENDTAB
  0
TABLE
  2
DIMSTYLE
  5
A
330
0
100
AcDbSymbolTable
 70
     4
100
AcDbDimStyleTable
  0
DIMSTYLE
105
27
330
A
100
AcDbSymbolTableRecord
100
AcDbDimStyleTableRecord
  2
Standard
 70
     0
178
     0
340
11
  0
DIMSTYLE
105
204
102
{ACAD_REACTORS
330
205
102
}
330
A
100
AcDbSymbolTableRecord
100
AcDbDimStyleTableRecord
  2
ME10_DIM_10
 70
     0
 41
1.75
 42
0.0
 44
0.75
 73
     0
 74
     0
 77
     1
 78
     8
140
1.75
147
0.75
172
     1
173
     1
174
     1
175
     1
176
     2
177
     2
271
     1
178
     3
271
     1
340
17B
  0
DIMSTYLE
105
25B
102
{ACAD_REACTORS
330
25C
102
}
330
A
100
AcDbSymbolTableRecord
100
AcDbDimStyleTableRecord
  2
ME10_DIM_11
 70
     0
 41
1.75
 42
0.0
 44
0.75
 73
     0
 74
     0
 77
     1
 78
     8
140
1.75
147
0.75
172
     1
173
     1
174
     1
175
     1
176
     2
177
     2
271
     1
178
     3
271
     1
340
17B
  0
DIMSTYLE
105
266
102
{ACAD_REACTORS
330
267
102
}
330
A
100
AcDbSymbolTableRecord
100
AcDbDimStyleTableRecord
  2
ME10_DIM_12
 70
     0
 41
1.75
 42
0.0
 44
0.75
 73
     0
 74
     0
 77
     1
 78
     8
140
1.75
147
0.75
172
     1
173
     1
174
     1
175
     1
176
     2
177
     2
271
     1
178
     3
271
     1
340
17B
  0
ENDTAB
  0
TABLE
  2
BLOCK_RECORD
  5
1
330
0
100
AcDbSymbolTable
 70
    19
  0
BLOCK_RECORD
  5
1F
330
1
100
AcDbSymbolTableRecord
100
AcDbBlockTableRecord
  2
*Model_Space
340
22
  0
BLOCK_RECORD
  5
1B
330
1
100
AcDbSymbolTableRecord
100
AcDbBlockTableRecord
  2
*Paper_Space
340
1E
  0
BLOCK_RECORD
  5
23
330
1
100
AcDbSymbolTableRecord
100
AcDbBlockTableRecord
  2
*Paper_Space0
340
26
  0
BLOCK_RECORD
  5
47
330
1
100
AcDbSymbolTableRecord
100
AcDbBlockTableRecord
  2
_punkt
340
0
102
{BLKREFS
331
4E
102
}
  0
BLOCK_RECORD
  5
4A
330
1
100
AcDbSymbolTableRecord
100
AcDbBlockTableRecord
  2
_rahmen
340
0
102
{BLKREFS
331
4F
102
}
  0
BLOCK_RECORD
  5
4D
330
1
100
AcDbSymbolTableRecord
100
AcDbBlockTableRecord
  2
A4I_CS
340
0
102
{BLKREFS
331
7C
102
}
  0
BLOCK_RECORD
  5
52
330
1
100
AcDbSymbolTableRecord
100
AcDbBlockTableRecord
  2
0822466_PATG_3_30-select__1
340
0
102
{BLKREFS
331
56
102
}
  0
BLOCK_RECORD
  5
55
330
1
100
AcDbSymbolTableRecord
100
AcDbBlockTableRecord
  2
Allg1
340
0
102
{BLKREFS
331
7D
102
}
  0
BLOCK_RECORD
  5
59
330
1
100
AcDbSymbolTableRecord
100
AcDbBlockTableRecord
  2
0822466_PATG_3_30-select__2
340
0
102
{BLKREFS
331
5D
102
}
  0
BLOCK_RECORD
  5
5C
330
1
100
AcDbSymbolTableRecord
100
AcDbBlockTableRecord
  2
Drfsicht1
340
0
102
{BLKREFS
331
7E
102
}
  0
BLOCK_RECORD
  5
60
330
1
100
AcDbSymbolTableRecord
100
AcDbBlockTableRecord
  2
0822466_PATG_3_30-select__3
340
0
102
{BLKREFS
331
64
102
}
  0
BLOCK_RECORD
  5
63
330
1
100
AcDbSymbolTableRecord
100
AcDbBlockTableRecord
  2
Rckans1
340
0
102
{BLKREFS
331
7F
102
}
  0
BLOCK_RECORD
  5
67
330
1
100
AcDbSymbolTableRecord
100
AcDbBlockTableRecord
  2
0822466_PATG_3_30-select__4
340
0
102
{BLKREFS
331
6B
102
}
  0
BLOCK_RECORD
  5
6A
330
1
100
AcDbSymbolTableRecord
100
AcDbBlockTableRecord
  2
SA_Links1
340
0
102
{BLKREFS
331
80
102
}
  0
BLOCK_RECORD
  5
6E
330
1
100
AcDbSymbolTableRecord
100
AcDbBlockTableRecord
  2
0822466_PATG_3_30-select__5
340
0
102
{BLKREFS
331
72
102
}
  0
BLOCK_RECORD
  5
71
330
1
100
AcDbSymbolTableRecord
100
AcDbBlockTableRecord
  2
SA_Rechts1
340
0
102
{BLKREFS
331
81
102
}
  0
BLOCK_RECORD
  5
75
330
1
100
AcDbSymbolTableRecord
100
AcDbBlockTableRecord
  2
0822466_PATG_3_30-select__6
340
0
102
{BLKREFS
331
79
102
}
  0
BLOCK_RECORD
  5
78
330
1
100
AcDbSymbolTableRecord
100
AcDbBlockTableRecord
  2
Vordans1
340
0
102
{BLKREFS
331
82
102
}
  0
BLOCK_RECORD
  5
1FB
330
1
100
AcDbSymbolTableRecord
100
AcDbBlockTableRecord
  2
*D16
340
0
  0
BLOCK_RECORD
  5
252
330
1
100
AcDbSymbolTableRecord
100
AcDbBlockTableRecord
  2
*D17
340
0
  0
BLOCK_RECORD
  5
25D
330
1
100
AcDbSymbolTableRecord
100
AcDbBlockTableRecord
  2
*D18
340
0
  0
ENDTAB
  0
ENDSEC
  0
SECTION
  2
BLOCKS
  0
BLOCK
  5
20
330
1F
100
AcDbEntity
  8
0
100
AcDbBlockBegin
  2
*Model_Space
 70
     0
 10
0.0
 20
0.0
 30
0.0
  3
*Model_Space
  1

  0
ENDBLK
  5
21
330
1F
100
AcDbEntity
  8
0
100
AcDbBlockEnd
  0
BLOCK
  5
1C
330
1B
100
AcDbEntity
 67
     1
  8
0
100
AcDbBlockBegin
  2
*Paper_Space
 70
     0
 10
0.0
 20
0.0
 30
0.0
  3
*Paper_Space
  1

  0
ENDBLK
  5
1D
330
1B
100
AcDbEntity
 67
     1
  8
0
100
AcDbBlockEnd
  0
BLOCK
  5
24
330
23
100
AcDbEntity
  8
0
100
AcDbBlockBegin
  2
*Paper_Space0
 70
     0
 10
0.0
 20
0.0
 30
0.0
  3
*Paper_Space0
  1

  0
ENDBLK
  5
25
330
23
100
AcDbEntity
  8
0
100
AcDbBlockEnd
  0
BLOCK
  5
48
330
47
100
AcDbEntity
  8
0
100
AcDbBlockBegin
  2
_punkt
 70
     0
 10
-86.69998001827561
 20
-275.6427014628952
 30
0.0
  3
_punkt
  1

  0
LINE
  5
83
330
47
100
AcDbEntity
  8
1
  6
Continuous
 62
     2
100
AcDbLine
 10
-86.69998001827561
 20
-275.6427014628952
 30
0.0
 11
-86.69998001827561
 21
-280.6427014628953
 31
0.0
  0
LINE
  5
84
330
47
100
AcDbEntity
  8
1
  6
Continuous
 62
     2
100
AcDbLine
 10
-86.69998001827561
 20
-275.6427014628952
 30
0.0
 11
-81.69998001827662
 21
-275.6427014628952
 31
0.0
  0
ENDBLK
  5
49
330
47
100
AcDbEntity
  8
0
100
AcDbBlockEnd
  0
BLOCK
  5
4B
330
4A
100
AcDbEntity
  8
0
100
AcDbBlockBegin
  2
_rahmen
 70
     0
 10
-86.69998001827561
 20
-280.6427014628953
 30
0.0
  3
_rahmen
  1

  0
LINE
  5
85
330
4A
100
AcDbEntity
  8
1
  6
DOT_CENTER
 62
     2
100
AcDbLine
 10
-212.258129658463
 20
-254.5177014628953
 30
0.0
 11
-206.758129658463
 21
-254.5177014628953
 31
0.0
  0
LINE
  5
86
330
4A
100
AcDbEntity
  8
1
  6
PHANTOM
 62
     2
100
AcDbLine
 10
-203.508129658463
 20
-251.7677014628953
 30
0.0
 11
-203.508129658463
 21
-257.2677014628953
 31
0.0
  0
LINE
  5
87
330
4A
100
AcDbEntity
  8
1
  6
PHANTOM
 62
     2
100
AcDbLine
 10
-200.758129658463
 20
-254.5177014628953
 30
0.0
 11
-206.258129658463
 21
-254.5177014628953
 31
0.0
  0
LINE
  5
88
330
4A
100
AcDbEntity
  8
1
  6
Continuous
 62
     7
100
AcDbLine
 10
-151.9447845450256
 20
-267.1427014628953
 30
0.0
 11
-151.9447845450256
 21
-258.6427014628952
 31
0.0
  0
LINE
  5
89
330
4A
100
AcDbEntity
  8
1
  6
Continuous
 62
     6
100
AcDbLine
 10
-179.8447845450257
 20
-258.6427014628952
 30
0.0
 11
-86.69998001827392
 21
-258.6427014628952
 31
0.0
  0
LINE
  5
8A
330
4A
100
AcDbEntity
  8
1
  6
Continuous
 62
     7
100
AcDbLine
 10
-216.2447845450256
 20
-258.6427014628952
 30
0.0
 11
-216.2447845450256
 21
-250.1427014628952
 31
0.0
  0
LINE
  5
8B
330
4A
100
AcDbEntity
  8
1
  6
Continuous
 62
     7
100
AcDbLine
 10
-179.8447845450257
 20
-258.6427014628952
 30
0.0
 11
-179.8447845450257
 21
-250.1427014628952
 31
0.0
  0
LINE
  5
8C
330
4A
100
AcDbEntity
  8
1
  6
Continuous
 62
     7
100
AcDbLine
 10
-122.1183882999527
 20
-250.1427014628952
 30
0.0
 11
-122.1183882999527
 21
-258.6427014628952
 31
0.0
  0
LINE
  5
8D
330
4A
100
AcDbEntity
  8
1
  6
Continuous
 62
     7
100
AcDbLine
 10
-95.61838829995312
 20
-250.1427014628952
 30
0.0
 11
-95.61838829995312
 21
-258.6427014628952
 31
0.0
  0
LINE
  5
8E
330
4A
100
AcDbEntity
  8
1
  6
Continuous
 62
     6
100
AcDbLine
 10
-285.2447845450256
 20
-275.6427014628952
 30
0.0
 11
-330.1999800182756
 21
-275.6427014628952
 31
0.0
  0
LINE
  5
8F
330
4A
100
AcDbEntity
  8
1
  6
Continuous
 62
     7
100
AcDbLine
 10
-86.69998001827432
 20
-267.1427014628952
 30
0.0
 11
-179.8447845450257
 21
-267.1427014628952
 31
0.0
  0
LINE
  5
90
102
{ACAD_REACTORS
330
1A3
330
1A4
102
}
330
4A
100
AcDbEntity
  8
0
  6
Continuous
 62
     2
100
AcDbLine
 10
-202.5373556032582
 20
-266.3424123472319
 30
0.0
 11
-202.5373556032582
 21
-265.4698953404286
 31
0.0
  0
LINE
  5
91
102
{ACAD_REACTORS
330
1A3
330
1A4
102
}
330
4A
100
AcDbEntity
  8
0
  6
Continuous
 62
     2
100
AcDbLine
 10
-202.5373556032582
 20
-267.3021810547148
 30
0.0
 11
-202.5373556032582
 21
-268.174698061518
 31
0.0
  0
LINE
  5
92
102
{ACAD_REACTORS
330
1A5
330
1A6
102
}
330
4A
100
AcDbEntity
  8
0
  6
Continuous
 62
     2
100
AcDbLine
 10
-187.2043114669677
 20
-266.0806572451914
 30
0.0
 11
-186.1006721673996
 21
-266.0806572451914
 31
0.0
  0
LINE
  5
93
102
{ACAD_REACTORS
330
1A5
330
1A6
102
}
330
4A
100
AcDbEntity
  8
0
  6
Continuous
 62
     2
100
AcDbLine
 10
-186.4346541240063
 20
-267.3021810547153
 30
0.0
 11
-186.4346541240063
 21
-268.1746980615186
 31
0.0
  0
LINE
  5
94
102
{ACAD_REACTORS
330
1AF
330
1B0
102
}
330
4A
100
AcDbEntity
  8
0
  6
Continuous
 62
     2
100
AcDbLine
 10
-188.2954107393862
 20
-264.9900109867046
 30
0.0
 11
-186.8974576924459
 21
-263.4091519929296
 31
0.0
  0
LINE
  5
95
102
{ACAD_REACTORS
330
1AF
330
1B0
102
}
330
4A
100
AcDbEntity
  8
0
  6
Continuous
 62
     2
100
AcDbLine
 10
-188.1999873232134
 20
-261.9362014628934
 30
0.0
 11
-186.8974576924459
 21
-263.4091519929296
 31
0.0
  0
LINE
  5
96
102
{ACAD_REACTORS
330
1AF
330
1B0
102
}
330
4A
100
AcDbEntity
  8
0
  6
Continuous
 62
     2
100
AcDbLine
 10
-185.5949280616795
 20
-261.9362014628934
 30
0.0
 11
-184.1922038439323
 21
-261.9362014628934
 31
0.0
  0
LINE
  5
97
102
{ACAD_REACTORS
330
1AF
330
1B0
102
}
330
4A
100
AcDbEntity
  8
0
  6
Continuous
 62
     2
100
AcDbLine
 10
-186.892686521638
 20
-264.9900109867046
 30
0.0
 11
-186.1960955835723
 21
-264.2022792014109
 31
0.0
  0
LINE
  5
98
102
{ACAD_REACTORS
330
1AF
330
1B0
102
}
330
4A
100
AcDbEntity
  8
0
  6
Continuous
 62
     2
100
AcDbLine
 10
-186.892686521638
 20
-264.9900109867046
 30
0.0
 11
-188.2954107393862
 21
-264.9900109867046
 31
0.0
  0
LINE
  5
99
102
{ACAD_REACTORS
330
1B1
330
1B2
102
}
330
4A
100
AcDbEntity
  8
0
  6
Continuous
 62
     2
100
AcDbLine
 10
-188.4146900096031
 20
-264.9900109867046
 30
0.0
 11
-189.655194419856
 21
-264.9900109867046
 31
0.0
  0
LINE
  5
9A
102
{ACAD_REACTORS
330
1B3
330
1B4
102
}
330
4A
100
AcDbEntity
  8
0
  6
Continuous
 62
     2
100
AcDbLine
 10
-190.5231740280111
 20
-267.1276776533544
 30
0.0
 11
-190.8233392652012
 21
-266.3598626873677
 31
0.0
  0
LINE
  5
9B
102
{ACAD_REACTORS
330
1B3
330
1B4
102
}
330
4A
100
AcDbEntity
  8
0
  6
Continuous
 62
     2
100
AcDbLine
 10
-191.1235045023936
 20
-267.1276776533544
 30
0.0
 11
-190.5231740280111
 21
-267.1276776533544
 31
0.0
  0
LINE
  5
9C
102
{ACAD_REACTORS
330
1B3
330
1B4
102
}
330
4A
100
AcDbEntity
  8
0
  6
Continuous
 62
     2
100
AcDbLine
 10
-192.8415445172674
 20
-268.3492014628789
 30
0.0
 11
-191.6010401070144
 21
-268.3492014628789
 31
0.0
  0
LINE
  5
9D
102
{ACAD_REACTORS
330
1B3
330
1B4
102
}
330
4A
100
AcDbEntity
  8
0
  6
Continuous
 62
     2
100
AcDbLine
 10
-191.4435914703281
 20
-265.2953919390678
 30
0.0
 11
-190.2030870600754
 21
-265.2953919390678
 31
0.0
  0
LINE
  5
9E
102
{ACAD_REACTORS
330
1B3
330
1B4
102
}
330
4A
100
AcDbEntity
  8
0
  6
Continuous
 62
     2
100
AcDbLine
 10
-190.2030870600754
 20
-265.2953919390678
 30
0.0
 11
-188.8051340131351
 21
-268.3492014628789
 31
0.0
  0
LINE
  5
9F
102
{ACAD_REACTORS
330
1B3
330
1B4
102
}
330
4A
100
AcDbEntity
  8
0
  6
Continuous
 62
     2
100
AcDbLine
 10
-190.045638423389
 20
-268.3492014628789
 30
0.0
 11
-190.2571184768648
 21
-267.808240918661
 31
0.0
  0
LINE
  5
A0
102
{ACAD_REACTORS
330
1B5
330
1B6
102
}
330
4A
100
AcDbEntity
  8
0
  6
Continuous
 62
     2
100
AcDbLine
 10
-194.187957618975
 20
-268.3492014628789
 30
0.0
 11
-192.9951649168085
 21
-268.3492014628789
 31
0.0
  0
LINE
  5
A1
102
{ACAD_REACTORS
330
1B5
330
1B6
102
}
330
4A
100
AcDbEntity
  8
0
  6
Continuous
 62
     2
100
AcDbLine
 10
-194.187957618975
 20
-266.0806572451914
 30
0.0
 11
-194.187957618975
 21
-268.3492014628789
 31
0.0
  0
LINE
  5
A2
102
{ACAD_REACTORS
330
1B5
330
1B6
102
}
330
4A
100
AcDbEntity
  8
0
  6
Continuous
 62
     2
100
AcDbLine
 10
-194.9990566564496
 20
-265.2953919390678
 30
0.0
 11
-194.9990566564496
 21
-266.0806572451914
 31
0.0
  0
LINE
  5
A3
102
{ACAD_REACTORS
330
1B7
330
1B8
102
}
330
4A
100
AcDbEntity
  8
0
  6
Continuous
 62
     2
100
AcDbLine
 10
-193.519842774877
 20
-264.9900109867046
 30
0.0
 11
-192.3270500727105
 21
-264.9900109867046
 31
0.0
  0
LINE
  5
A4
102
{ACAD_REACTORS
330
1B7
330
1B8
102
}
330
4A
100
AcDbEntity
  8
0
  6
Continuous
 62
     2
100
AcDbLine
 10
-191.0865456624565
 20
-263.2449769730986
 30
0.0
 11
-192.3270500727105
 21
-261.9362014628934
 31
0.0
  0
LINE
  5
A5
102
{ACAD_REACTORS
330
1B7
330
1B8
102
}
330
4A
100
AcDbEntity
  8
0
  6
Continuous
 62
     2
100
AcDbLine
 10
-189.8937529602899
 20
-261.9362014628934
 30
0.0
 11
-191.0865456624565
 21
-261.9362014628934
 31
0.0
  0
LINE
  5
A6
102
{ACAD_REACTORS
330
1B7
330
1B8
102
}
330
4A
100
AcDbEntity
  8
0
  6
Continuous
 62
     2
100
AcDbLine
 10
-189.8937529602899
 20
-264.9900109867046
 30
0.0
 11
-189.8937529602899
 21
-261.9362014628934
 31
0.0
  0
LINE
  5
A7
102
{ACAD_REACTORS
330
1B7
330
1B8
102
}
330
4A
100
AcDbEntity
  8
0
  6
Continuous
 62
     2
100
AcDbLine
 10
-191.0865456624565
 20
-264.9900109867046
 30
0.0
 11
-189.8937529602899
 21
-264.9900109867046
 31
0.0
  0
LINE
  5
A8
102
{ACAD_REACTORS
330
1B7
330
1B8
102
}
330
4A
100
AcDbEntity
  8
0
  6
Continuous
 62
     2
100
AcDbLine
 10
-192.3270500727105
 20
-263.6812354764999
 30
0.0
 11
-191.0865456624565
 21
-264.9900109867046
 31
0.0
  0
LINE
  5
A9
102
{ACAD_REACTORS
330
1B9
330
1BA
102
}
330
4A
100
AcDbEntity
  8
0
  6
Continuous
 62
     2
100
AcDbLine
 10
-196.3349844828762
 20
-266.6041674492729
 30
0.0
 11
-197.5754888931291
 21
-265.2953919390678
 31
0.0
  0
LINE
  5
AA
102
{ACAD_REACTORS
330
1B9
330
1BA
102
}
330
4A
100
AcDbEntity
  8
0
  6
Continuous
 62
     2
100
AcDbLine
 10
-196.3349844828762
 20
-265.2953919390678
 30
0.0
 11
-196.3349844828762
 21
-266.6041674492729
 31
0.0
  0
LINE
  5
AB
102
{ACAD_REACTORS
330
1B9
330
1BA
102
}
330
4A
100
AcDbEntity
  8
0
  6
Continuous
 62
     2
100
AcDbLine
 10
-195.1421917807098
 20
-265.2953919390678
 30
0.0
 11
-196.3349844828762
 21
-265.2953919390678
 31
0.0
  0
LINE
  5
AC
102
{ACAD_REACTORS
330
1B9
330
1BA
102
}
330
4A
100
AcDbEntity
  8
0
  6
Continuous
 62
     2
100
AcDbLine
 10
-195.1421917807098
 20
-268.3492014628789
 30
0.0
 11
-195.1421917807098
 21
-265.2953919390678
 31
0.0
  0
LINE
  5
AD
102
{ACAD_REACTORS
330
1B9
330
1BA
102
}
330
4A
100
AcDbEntity
  8
0
  6
Continuous
 62
     2
100
AcDbLine
 10
-197.5754888931291
 20
-267.0404259526743
 30
0.0
 11
-196.3349844828762
 21
-268.3492014628789
 31
0.0
  0
LINE
  5
AE
102
{ACAD_REACTORS
330
1B9
330
1BA
102
}
330
4A
100
AcDbEntity
  8
0
  6
Continuous
 62
     2
100
AcDbLine
 10
-197.5754888931291
 20
-268.3492014628789
 30
0.0
 11
-197.5754888931291
 21
-267.0404259526743
 31
0.0
  0
LINE
  5
AF
102
{ACAD_REACTORS
330
1A9
330
1AA
102
}
330
4A
100
AcDbEntity
  8
0
  6
Continuous
 62
     2
100
AcDbLine
 10
-195.0943291417376
 20
-262.6342150683364
 30
0.0
 11
-193.7584013153099
 21
-262.6342150683364
 31
0.0
  0
LINE
  5
B0
102
{ACAD_REACTORS
330
1A9
330
1AA
102
}
330
4A
100
AcDbEntity
  8
0
  6
Continuous
 62
     2
100
AcDbLine
 10
-195.0943291417376
 20
-264.2919973812621
 30
0.0
 11
-195.0943291417376
 21
-263.8121130275204
 31
0.0
  0
LINE
  5
B1
102
{ACAD_REACTORS
330
1A9
330
1AA
102
}
330
4A
100
AcDbEntity
  8
0
  6
Continuous
 62
     2
100
AcDbLine
 10
-193.7584013153099
 20
-264.2919973812621
 30
0.0
 11
-195.0943291417376
 21
-264.2919973812621
 31
0.0
  0
LINE
  5
B2
102
{ACAD_REACTORS
330
1A9
330
1AA
102
}
330
4A
100
AcDbEntity
  8
0
  6
Continuous
 62
     2
100
AcDbLine
 10
-193.7584013153099
 20
-264.9900109867046
 30
0.0
 11
-193.7584013153099
 21
-264.2919973812621
 31
0.0
  0
LINE
  5
B3
102
{ACAD_REACTORS
330
1A9
330
1AA
102
}
330
4A
100
AcDbEntity
  8
0
  6
Continuous
 62
     2
100
AcDbLine
 10
-196.9087210390909
 20
-264.9900109867046
 30
0.0
 11
-193.7584013153099
 21
-264.9900109867046
 31
0.0
  0
LINE
  5
B4
102
{ACAD_REACTORS
330
1A9
330
1AA
102
}
330
4A
100
AcDbEntity
  8
0
  6
Continuous
 62
     2
100
AcDbLine
 10
-196.9087210390909
 20
-261.9362014628934
 30
0.0
 11
-193.7584013153099
 21
-261.9362014628934
 31
0.0
  0
LINE
  5
B5
102
{ACAD_REACTORS
330
1A9
330
1AA
102
}
330
4A
100
AcDbEntity
  8
0
  6
Continuous
 62
     2
100
AcDbLine
 10
-193.7584013153099
 20
-262.6342150683364
 30
0.0
 11
-193.7584013153099
 21
-261.9362014628934
 31
0.0
  0
LINE
  5
B6
102
{ACAD_REACTORS
330
1BB
330
1BC
102
}
330
4A
100
AcDbEntity
  8
0
  6
Continuous
 62
     2
100
AcDbLine
 10
-199.7700765342309
 20
-263.005034796228
 30
0.0
 11
-199.7700765342309
 21
-261.9362014628934
 31
0.0
  0
LINE
  5
B7
102
{ACAD_REACTORS
330
1BB
330
1BC
102
}
330
4A
100
AcDbEntity
  8
0
  6
Continuous
 62
     2
100
AcDbLine
 10
-199.7700765342309
 20
-261.9362014628934
 30
0.0
 11
-198.5772838320645
 21
-261.9362014628934
 31
0.0
  0
LINE
  5
B8
102
{ACAD_REACTORS
330
1BB
330
1BC
102
}
330
4A
100
AcDbEntity
  8
0
  6
Continuous
 62
     2
100
AcDbLine
 10
-199.7700765342309
 20
-263.8557388778607
 30
0.0
 11
-200.8197341121384
 21
-263.8557388778607
 31
0.0
  0
LINE
  5
B9
102
{ACAD_REACTORS
330
1BB
330
1BC
102
}
330
4A
100
AcDbEntity
  8
0
  6
Continuous
 62
     2
100
AcDbLine
 10
-200.8197341121384
 20
-263.8557388778607
 30
0.0
 11
-200.8197341121384
 21
-264.9900109867046
 31
0.0
  0
LINE
  5
BA
102
{ACAD_REACTORS
330
1BB
330
1BC
102
}
330
4A
100
AcDbEntity
  8
0
  6
Continuous
 62
     2
100
AcDbLine
 10
-202.012526814305
 20
-261.9362014628934
 30
0.0
 11
-202.012526814305
 21
-264.9900109867046
 31
0.0
  0
LINE
  5
BB
102
{ACAD_REACTORS
330
1AD
330
1AE
102
}
330
4A
100
AcDbEntity
  8
0
  6
Continuous
 62
     2
100
AcDbLine
 10
-203.9687068458586
 20
-263.3050349576757
 30
0.0
 11
-203.9687068458586
 21
-262.5993073083335
 31
0.0
  0
LINE
  5
BC
102
{ACAD_REACTORS
330
1AD
330
1AE
102
}
330
4A
100
AcDbEntity
  8
0
  6
Continuous
 62
     2
100
AcDbLine
 10
-205.2092112561127
 20
-264.9900109867046
 30
0.0
 11
-203.9687068458586
 21
-264.9900109867046
 31
0.0
  0
LINE
  5
BD
102
{ACAD_REACTORS
330
1AD
330
1AE
102
}
330
4A
100
AcDbEntity
  8
0
  6
Continuous
 62
     2
100
AcDbLine
 10
-203.9687068458586
 20
-264.9900109867046
 30
0.0
 11
-203.9687068458586
 21
-264.0469327455608
 31
0.0
  0
LINE
  5
BE
102
{ACAD_REACTORS
330
1A7
330
1A8
102
}
330
4A
100
AcDbEntity
  8
0
  6
Continuous
 62
     2
100
AcDbLine
 10
-209.5141571053241
 20
-267.636645907322
 30
0.0
 11
-210.9899903663337
 21
-267.636645907322
 31
0.0
  0
LINE
  5
BF
102
{ACAD_REACTORS
330
1A7
330
1A8
102
}
330
4A
100
AcDbEntity
  8
0
  6
Continuous
 62
     2
100
AcDbLine
 10
-212.008129658463
 20
-262.3604460782954
 30
0.0
 11
-212.008129658463
 21
-267.9249568474956
 31
0.0
  0
LINE
  5
C0
102
{ACAD_REACTORS
330
1A7
330
1A8
102
}
330
4A
100
AcDbEntity
  8
0
  6
Continuous
 62
     2
100
AcDbLine
 10
-211.5838850430802
 20
-261.9362014629116
 30
0.0
 11
-206.1105729523634
 21
-261.9362014629116
 31
0.0
  0
LINE
  5
C1
102
{ACAD_REACTORS
330
1A7
330
1A8
102
}
330
4A
100
AcDbEntity
  8
0
  6
Continuous
 62
     2
100
AcDbLine
 10
-205.6863283369795
 20
-262.3604460782954
 30
0.0
 11
-205.6863283369795
 21
-267.9249568474956
 31
0.0
  0
LINE
  5
C2
102
{ACAD_REACTORS
330
1A7
330
1A8
102
}
330
4A
100
AcDbEntity
  8
0
  6
Continuous
 62
     2
100
AcDbLine
 10
-206.1105729523634
 20
-268.3492014628789
 30
0.0
 11
-211.5838850430802
 21
-268.3492014628789
 31
0.0
  0
LINE
  5
C3
102
{ACAD_REACTORS
330
1A7
330
1A8
102
}
330
4A
100
AcDbEntity
  8
0
  6
Continuous
 62
     2
100
AcDbLine
 10
-209.1984401822475
 20
-267.3209289842453
 30
0.0
 11
-209.1984401822475
 21
-265.7901580527137
 31
0.0
  0
LINE
  5
C4
102
{ACAD_REACTORS
330
1A7
330
1A8
102
}
330
4A
100
AcDbEntity
  8
0
  6
Continuous
 62
     2
100
AcDbLine
 10
-209.1984401822475
 20
-263.5684985605887
 30
0.0
 11
-209.1984401822475
 21
-262.9644739415282
 31
0.0
  0
LINE
  5
C5
102
{ACAD_REACTORS
330
1A7
330
1A8
102
}
330
4A
100
AcDbEntity
  8
0
  6
Continuous
 62
     2
100
AcDbLine
 10
-210.9899903663337
 20
-262.648757018452
 30
0.0
 11
-209.5141571053241
 21
-262.648757018452
 31
0.0
  0
LINE
  5
C6
102
{ACAD_REACTORS
330
1A7
330
1A8
102
}
330
4A
100
AcDbEntity
  8
0
  6
Continuous
 62
     2
100
AcDbLine
 10
-211.3057072894094
 20
-262.9644739415282
 30
0.0
 11
-211.3057072894094
 21
-267.3209289842453
 31
0.0
  0
LINE
  5
C7
102
{ACAD_REACTORS
330
1AD
330
1AE
102
}
330
4A
100
AcDbEntity
  8
0
  6
Continuous
 62
     2
100
AcDbLine
 10
-203.9687068458586
 20
-264.0469327455608
 30
0.0
 11
-203.2099392580783
 21
-264.0469327455608
 31
0.0
  0
LINE
  5
C8
102
{ACAD_REACTORS
330
1AD
330
1AE
102
}
330
4A
100
AcDbEntity
  8
0
  6
Continuous
 62
     2
100
AcDbLine
 10
-205.2092112561127
 20
-261.9362014628934
 30
0.0
 11
-203.2099392580783
 21
-261.9362014628934
 31
0.0
  0
LINE
  5
C9
102
{ACAD_REACTORS
330
1AD
330
1AE
102
}
330
4A
100
AcDbEntity
  8
0
  6
Continuous
 62
     2
100
AcDbLine
 10
-205.2092112561127
 20
-261.9362014628934
 30
0.0
 11
-205.2092112561127
 21
-264.9900109867046
 31
0.0
  0
LINE
  5
CA
102
{ACAD_REACTORS
330
1AD
330
1AE
102
}
330
4A
100
AcDbEntity
  8
0
  6
Continuous
 62
     2
100
AcDbLine
 10
-203.9687068458586
 20
-263.3050349576757
 30
0.0
 11
-203.6514117843167
 21
-263.3050349576757
 31
0.0
  0
LINE
  5
CB
102
{ACAD_REACTORS
330
1AD
330
1AE
102
}
330
4A
100
AcDbEntity
  8
0
  6
Continuous
 62
     2
100
AcDbLine
 10
-203.9687068458586
 20
-262.5993073083335
 30
0.0
 11
-203.6514117843167
 21
-262.5993073083335
 31
0.0
  0
LINE
  5
CC
102
{ACAD_REACTORS
330
1BB
330
1BC
102
}
330
4A
100
AcDbEntity
  8
0
  6
Continuous
 62
     2
100
AcDbLine
 10
-200.8197341121384
 20
-263.005034796228
 30
0.0
 11
-199.7700765342309
 21
-263.005034796228
 31
0.0
  0
LINE
  5
CD
102
{ACAD_REACTORS
330
1BB
330
1BC
102
}
330
4A
100
AcDbEntity
  8
0
  6
Continuous
 62
     2
100
AcDbLine
 10
-200.8197341121384
 20
-261.9362014628934
 30
0.0
 11
-200.8197341121384
 21
-263.005034796228
 31
0.0
  0
LINE
  5
CE
102
{ACAD_REACTORS
330
1BB
330
1BC
102
}
330
4A
100
AcDbEntity
  8
0
  6
Continuous
 62
     2
100
AcDbLine
 10
-202.012526814305
 20
-261.9362014628934
 30
0.0
 11
-200.8197341121384
 21
-261.9362014628934
 31
0.0
  0
LINE
  5
CF
102
{ACAD_REACTORS
330
1BB
330
1BC
102
}
330
4A
100
AcDbEntity
  8
0
  6
Continuous
 62
     2
100
AcDbLine
 10
-200.8197341121384
 20
-264.9900109867046
 30
0.0
 11
-202.012526814305
 21
-264.9900109867046
 31
0.0
  0
LINE
  5
D0
102
{ACAD_REACTORS
330
1BB
330
1BC
102
}
330
4A
100
AcDbEntity
  8
0
  6
Continuous
 62
     2
100
AcDbLine
 10
-199.7700765342309
 20
-264.9900109867046
 30
0.0
 11
-199.7700765342309
 21
-263.8557388778607
 31
0.0
  0
LINE
  5
D1
102
{ACAD_REACTORS
330
1BB
330
1BC
102
}
330
4A
100
AcDbEntity
  8
0
  6
Continuous
 62
     2
100
AcDbLine
 10
-198.5772838320645
 20
-264.9900109867046
 30
0.0
 11
-199.7700765342309
 21
-264.9900109867046
 31
0.0
  0
LINE
  5
D2
102
{ACAD_REACTORS
330
1BB
330
1BC
102
}
330
4A
100
AcDbEntity
  8
0
  6
Continuous
 62
     2
100
AcDbLine
 10
-198.5772838320645
 20
-261.9362014628934
 30
0.0
 11
-198.5772838320645
 21
-264.9900109867046
 31
0.0
  0
LINE
  5
D3
102
{ACAD_REACTORS
330
1A9
330
1AA
102
}
330
4A
100
AcDbEntity
  8
0
  6
Continuous
 62
     2
100
AcDbLine
 10
-195.0943291417376
 20
-263.8121130275204
 30
0.0
 11
-193.7584013153099
 21
-263.8121130275204
 31
0.0
  0
LINE
  5
D4
102
{ACAD_REACTORS
330
1A9
330
1AA
102
}
330
4A
100
AcDbEntity
  8
0
  6
Continuous
 62
     2
100
AcDbLine
 10
-193.7584013153099
 20
-263.8121130275204
 30
0.0
 11
-193.7584013153099
 21
-263.1140994220781
 31
0.0
  0
LINE
  5
D5
102
{ACAD_REACTORS
330
1A9
330
1AA
102
}
330
4A
100
AcDbEntity
  8
0
  6
Continuous
 62
     2
100
AcDbLine
 10
-193.7584013153099
 20
-263.1140994220781
 30
0.0
 11
-195.0943291417376
 21
-263.1140994220781
 31
0.0
  0
LINE
  5
D6
102
{ACAD_REACTORS
330
1A9
330
1AA
102
}
330
4A
100
AcDbEntity
  8
0
  6
Continuous
 62
     2
100
AcDbLine
 10
-195.0943291417376
 20
-263.1140994220781
 30
0.0
 11
-195.0943291417376
 21
-262.6342150683364
 31
0.0
  0
LINE
  5
D7
102
{ACAD_REACTORS
330
1B9
330
1BA
102
}
330
4A
100
AcDbEntity
  8
0
  6
Continuous
 62
     2
100
AcDbLine
 10
-198.7682815952967
 20
-268.3492014628789
 30
0.0
 11
-197.5754888931291
 21
-268.3492014628789
 31
0.0
  0
LINE
  5
D8
102
{ACAD_REACTORS
330
1B9
330
1BA
102
}
330
4A
100
AcDbEntity
  8
0
  6
Continuous
 62
     2
100
AcDbLine
 10
-196.3349844828762
 20
-268.3492014628789
 30
0.0
 11
-195.1421917807098
 21
-268.3492014628789
 31
0.0
  0
LINE
  5
D9
102
{ACAD_REACTORS
330
1B9
330
1BA
102
}
330
4A
100
AcDbEntity
  8
0
  6
Continuous
 62
     2
100
AcDbLine
 10
-197.5754888931291
 20
-265.2953919390678
 30
0.0
 11
-198.7682815952967
 21
-265.2953919390678
 31
0.0
  0
LINE
  5
DA
102
{ACAD_REACTORS
330
1B9
330
1BA
102
}
330
4A
100
AcDbEntity
  8
0
  6
Continuous
 62
     2
100
AcDbLine
 10
-198.7682815952967
 20
-265.2953919390678
 30
0.0
 11
-198.7682815952967
 21
-268.3492014628789
 31
0.0
  0
LINE
  5
DB
102
{ACAD_REACTORS
330
1B7
330
1B8
102
}
330
4A
100
AcDbEntity
  8
0
  6
Continuous
 62
     2
100
AcDbLine
 10
-191.0865456624565
 20
-261.9362014628934
 30
0.0
 11
-191.0865456624565
 21
-263.2449769730986
 31
0.0
  0
LINE
  5
DC
102
{ACAD_REACTORS
330
1B7
330
1B8
102
}
330
4A
100
AcDbEntity
  8
0
  6
Continuous
 62
     2
100
AcDbLine
 10
-192.3270500727105
 20
-261.9362014628934
 30
0.0
 11
-193.519842774877
 21
-261.9362014628934
 31
0.0
  0
LINE
  5
DD
102
{ACAD_REACTORS
330
1B7
330
1B8
102
}
330
4A
100
AcDbEntity
  8
0
  6
Continuous
 62
     2
100
AcDbLine
 10
-193.519842774877
 20
-261.9362014628934
 30
0.0
 11
-193.519842774877
 21
-264.9900109867046
 31
0.0
  0
LINE
  5
DE
102
{ACAD_REACTORS
330
1B7
330
1B8
102
}
330
4A
100
AcDbEntity
  8
0
  6
Continuous
 62
     2
100
AcDbLine
 10
-192.3270500727105
 20
-264.9900109867046
 30
0.0
 11
-192.3270500727105
 21
-263.6812354764999
 31
0.0
  0
LINE
  5
DF
102
{ACAD_REACTORS
330
1B5
330
1B6
102
}
330
4A
100
AcDbEntity
  8
0
  6
Continuous
 62
     2
100
AcDbLine
 10
-192.9951649168085
 20
-268.3492014628789
 30
0.0
 11
-192.9951649168085
 21
-266.0806572451914
 31
0.0
  0
LINE
  5
E0
102
{ACAD_REACTORS
330
1B5
330
1B6
102
}
330
4A
100
AcDbEntity
  8
0
  6
Continuous
 62
     2
100
AcDbLine
 10
-192.9951649168085
 20
-266.0806572451914
 30
0.0
 11
-192.184065879336
 21
-266.0806572451914
 31
0.0
  0
LINE
  5
E1
102
{ACAD_REACTORS
330
1B5
330
1B6
102
}
330
4A
100
AcDbEntity
  8
0
  6
Continuous
 62
     2
100
AcDbLine
 10
-192.184065879336
 20
-266.0806572451914
 30
0.0
 11
-192.184065879336
 21
-265.2953919390678
 31
0.0
  0
LINE
  5
E2
102
{ACAD_REACTORS
330
1B5
330
1B6
102
}
330
4A
100
AcDbEntity
  8
0
  6
Continuous
 62
     2
100
AcDbLine
 10
-192.184065879336
 20
-265.2953919390678
 30
0.0
 11
-194.9990566564496
 21
-265.2953919390678
 31
0.0
  0
LINE
  5
E3
102
{ACAD_REACTORS
330
1B5
330
1B6
102
}
330
4A
100
AcDbEntity
  8
0
  6
Continuous
 62
     2
100
AcDbLine
 10
-194.9990566564496
 20
-266.0806572451914
 30
0.0
 11
-194.187957618975
 21
-266.0806572451914
 31
0.0
  0
LINE
  5
E4
102
{ACAD_REACTORS
330
1B3
330
1B4
102
}
330
4A
100
AcDbEntity
  8
0
  6
Continuous
 62
     2
100
AcDbLine
 10
-191.3895600535386
 20
-267.808240918661
 30
0.0
 11
-190.2571184768648
 21
-267.808240918661
 31
0.0
  0
LINE
  5
E5
102
{ACAD_REACTORS
330
1B3
330
1B4
102
}
330
4A
100
AcDbEntity
  8
0
  6
Continuous
 62
     2
100
AcDbLine
 10
-188.8051340131351
 20
-268.3492014628789
 30
0.0
 11
-190.045638423389
 21
-268.3492014628789
 31
0.0
  0
LINE
  5
E6
102
{ACAD_REACTORS
330
1B3
330
1B4
102
}
330
4A
100
AcDbEntity
  8
0
  6
Continuous
 62
     2
100
AcDbLine
 10
-191.4435914703281
 20
-265.2953919390678
 30
0.0
 11
-192.8415445172674
 21
-268.3492014628789
 31
0.0
  0
LINE
  5
E7
102
{ACAD_REACTORS
330
1B3
330
1B4
102
}
330
4A
100
AcDbEntity
  8
0
  6
Continuous
 62
     2
100
AcDbLine
 10
-191.6010401070144
 20
-268.3492014628789
 30
0.0
 11
-191.3895600535386
 21
-267.808240918661
 31
0.0
  0
LINE
  5
E8
102
{ACAD_REACTORS
330
1B3
330
1B4
102
}
330
4A
100
AcDbEntity
  8
0
  6
Continuous
 62
     2
100
AcDbLine
 10
-191.1235045023936
 20
-267.1276776533544
 30
0.0
 11
-190.8233392652012
 21
-266.3598626873677
 31
0.0
  0
LINE
  5
E9
102
{ACAD_REACTORS
330
1B1
330
1B2
102
}
330
4A
100
AcDbEntity
  8
0
  6
Continuous
 62
     2
100
AcDbLine
 10
-189.655194419856
 20
-264.9900109867046
 30
0.0
 11
-189.655194419856
 21
-261.9362014628934
 31
0.0
  0
LINE
  5
EA
102
{ACAD_REACTORS
330
1B1
330
1B2
102
}
330
4A
100
AcDbEntity
  8
0
  6
Continuous
 62
     2
100
AcDbLine
 10
-188.4146900096031
 20
-261.9362014628934
 30
0.0
 11
-188.4146900096031
 21
-264.9900109867046
 31
0.0
  0
LINE
  5
EB
102
{ACAD_REACTORS
330
1B1
330
1B2
102
}
330
4A
100
AcDbEntity
  8
0
  6
Continuous
 62
     2
100
AcDbLine
 10
-189.655194419856
 20
-261.9362014628934
 30
0.0
 11
-188.4146900096031
 21
-261.9362014628934
 31
0.0
  0
LINE
  5
EC
102
{ACAD_REACTORS
330
1AF
330
1B0
102
}
330
4A
100
AcDbEntity
  8
0
  6
Continuous
 62
     2
100
AcDbLine
 10
-186.1960955835723
 20
-264.2022792014109
 30
0.0
 11
-185.4995046455068
 21
-264.9900109867046
 31
0.0
  0
LINE
  5
ED
102
{ACAD_REACTORS
330
1AF
330
1B0
102
}
330
4A
100
AcDbEntity
  8
0
  6
Continuous
 62
     2
100
AcDbLine
 10
-185.4995046455068
 20
-264.9900109867046
 30
0.0
 11
-184.0967804277585
 21
-264.9900109867046
 31
0.0
  0
LINE
  5
EE
102
{ACAD_REACTORS
330
1AF
330
1B0
102
}
330
4A
100
AcDbEntity
  8
0
  6
Continuous
 62
     2
100
AcDbLine
 10
-185.4947334746988
 20
-263.4091519929296
 30
0.0
 11
-184.0967804277585
 21
-264.9900109867046
 31
0.0
  0
LINE
  5
EF
102
{ACAD_REACTORS
330
1AF
330
1B0
102
}
330
4A
100
AcDbEntity
  8
0
  6
Continuous
 62
     2
100
AcDbLine
 10
-185.4947334746988
 20
-263.4091519929296
 30
0.0
 11
-184.1922038439323
 21
-261.9362014628934
 31
0.0
  0
LINE
  5
F0
102
{ACAD_REACTORS
330
1AF
330
1B0
102
}
330
4A
100
AcDbEntity
  8
0
  6
Continuous
 62
     2
100
AcDbLine
 10
-186.1960955835723
 20
-262.6160247844489
 30
0.0
 11
-185.5949280616795
 21
-261.9362014628934
 31
0.0
  0
LINE
  5
F1
102
{ACAD_REACTORS
330
1AF
330
1B0
102
}
330
4A
100
AcDbEntity
  8
0
  6
Continuous
 62
     2
100
AcDbLine
 10
-186.7972631054641
 20
-261.9362014628934
 30
0.0
 11
-186.1960955835723
 21
-262.6160247844489
 31
0.0
  0
LINE
  5
F2
102
{ACAD_REACTORS
330
1AF
330
1B0
102
}
330
4A
100
AcDbEntity
  8
0
  6
Continuous
 62
     2
100
AcDbLine
 10
-186.7972631054641
 20
-261.9362014628934
 30
0.0
 11
-188.1999873232134
 21
-261.9362014628934
 31
0.0
  0
LINE
  5
F3
102
{ACAD_REACTORS
330
1A5
330
1A6
102
}
330
4A
100
AcDbEntity
  8
0
  6
Continuous
 62
     2
100
AcDbLine
 10
-186.1006721673996
 20
-268.3492014628789
 30
0.0
 11
-184.9078794652319
 21
-268.3492014628789
 31
0.0
  0
LINE
  5
F4
102
{ACAD_REACTORS
330
1A5
330
1A6
102
}
330
4A
100
AcDbEntity
  8
0
  6
Continuous
 62
     2
100
AcDbLine
 10
-184.9078794652319
 20
-268.3492014628789
 30
0.0
 11
-184.9078794652319
 21
-266.0806572451914
 31
0.0
  0
LINE
  5
F5
102
{ACAD_REACTORS
330
1A5
330
1A6
102
}
330
4A
100
AcDbEntity
  8
0
  6
Continuous
 62
     2
100
AcDbLine
 10
-184.9078794652319
 20
-266.0806572451914
 30
0.0
 11
-184.0967804277585
 21
-266.0806572451914
 31
0.0
  0
LINE
  5
F6
102
{ACAD_REACTORS
330
1A5
330
1A6
102
}
330
4A
100
AcDbEntity
  8
0
  6
Continuous
 62
     2
100
AcDbLine
 10
-184.0967804277585
 20
-266.0806572451914
 30
0.0
 11
-184.0967804277585
 21
-265.2953919390678
 31
0.0
  0
LINE
  5
F7
102
{ACAD_REACTORS
330
1A5
330
1A6
102
}
330
4A
100
AcDbEntity
  8
0
  6
Continuous
 62
     2
100
AcDbLine
 10
-187.4817259463872
 20
-265.2953919390683
 30
0.0
 11
-184.0967804277585
 21
-265.2953919390678
 31
0.0
  0
LINE
  5
F8
102
{ACAD_REACTORS
330
1A5
330
1A6
102
}
330
4A
100
AcDbEntity
  8
0
  6
Continuous
 62
     2
100
AcDbLine
 10
-186.1006721673996
 20
-266.0806572451914
 30
0.0
 11
-186.1006721673996
 21
-268.3492014628789
 31
0.0
  0
LINE
  5
F9
102
{ACAD_REACTORS
330
1A7
330
1A8
102
}
330
4A
100
AcDbEntity
  8
0
  6
Continuous
 62
     2
100
AcDbLine
 10
-208.7301586028788
 20
-266.3703213133144
 30
0.0
 11
-208.7301586028788
 21
-265.7884699066193
 31
0.0
  0
LINE
  5
FA
102
{ACAD_REACTORS
330
1A7
330
1A8
102
}
330
4A
100
AcDbEntity
  8
0
  6
Continuous
 62
     2
100
AcDbLine
 10
-208.7301586028788
 20
-263.5701867066831
 30
0.0
 11
-208.7301586028788
 21
-262.9646514181763
 31
0.0
  0
LINE
  5
FB
330
4A
100
AcDbEntity
  8
1
  6
Continuous
 62
     6
100
AcDbLine
 10
-230.1999800182756
 20
-275.6427014628952
 30
0.0
 11
-216.2447845450256
 21
-275.6427014628953
 31
0.0
  0
LINE
  5
FC
330
4A
100
AcDbEntity
  8
1
  6
Continuous
 62
     6
100
AcDbLine
 10
-280.1999800182758
 20
-275.6427014628952
 30
0.0
 11
-285.2447845450256
 21
-275.6427014628952
 31
0.0
  0
LINE
  5
FD
330
4A
100
AcDbEntity
  8
1
  6
Continuous
 62
     6
100
AcDbLine
 10
-130.1999800182756
 20
-275.6427014628952
 30
0.0
 11
-86.69998001827561
 21
-275.6427014628952
 31
0.0
  0
LINE
  5
FE
330
4A
100
AcDbEntity
  8
1
  6
Continuous
 62
     6
100
AcDbLine
 10
-180.1999800182756
 20
-275.6427014628952
 30
0.0
 11
-198.0447845450256
 21
-275.6427014628952
 31
0.0
  0
LINE
  5
FF
330
4A
100
AcDbEntity
  8
1
  6
Continuous
 62
     2
100
AcDbLine
 10
-86.69998001827561
 20
-275.6427014628952
 30
0.0
 11
-81.69998001827662
 21
-275.6427014628952
 31
0.0
  0
LINE
  5
100
330
4A
100
AcDbEntity
  8
1
  6
Continuous
 62
     2
100
AcDbLine
 10
-86.69998001827561
 20
-275.6427014628952
 30
0.0
 11
-86.69998001827561
 21
-280.6427014628953
 31
0.0
  0
LINE
  5
101
330
4A
100
AcDbEntity
  8
1
  6
Continuous
 62
     6
100
AcDbLine
 10
-216.2447845450256
 20
-258.6427014628952
 30
0.0
 11
-179.8447845450257
 21
-258.6427014628952
 31
0.0
  0
LINE
  5
102
330
4A
100
AcDbEntity
  8
1
  6
Continuous
 62
     2
100
AcDbLine
 10
-81.69998001827662
 20
-280.6427014628953
 30
0.0
 11
-81.69998001827662
 21
-275.6427014628952
 31
0.0
  0
LINE
  5
103
330
4A
100
AcDbEntity
  8
1
  6
Continuous
 62
     2
100
AcDbLine
 10
-81.69998001827662
 20
-280.6427014628953
 30
0.0
 11
-86.69998001827561
 21
-280.6427014628953
 31
0.0
  0
LINE
  5
104
330
4A
100
AcDbEntity
  8
1
  6
Continuous
 62
     2
100
AcDbLine
 10
-86.69998001827561
 20
-280.6427014628953
 30
0.0
 11
-130.1999800182756
 21
-280.6427014628953
 31
0.0
  0
LINE
  5
105
330
4A
100
AcDbEntity
  8
1
  6
Continuous
 62
     6
100
AcDbLine
 10
-86.69998001827392
 20
-258.6427014628952
 30
0.0
 11
-86.69998001827472
 21
-225.6427014628951
 31
0.0
  0
LINE
  5
106
330
4A
100
AcDbEntity
  8
1
  6
Continuous
 62
     2
100
AcDbLine
 10
-81.69998001827662
 20
-70.64270146289519
 30
0.0
 11
-230.1999800182756
 21
-70.64270146289519
 31
0.0
  0
LINE
  5
107
330
4A
100
AcDbEntity
  8
1
  6
Continuous
 62
     6
100
AcDbLine
 10
-86.69998001827662
 20
-90.64270146289519
 30
0.0
 11
-373.6999800182747
 21
-90.64270146289519
 31
0.0
  0
LINE
  5
108
330
4A
100
AcDbEntity
  8
1
  6
Continuous
 62
     2
100
AcDbLine
 10
-86.69998001827472
 20
-225.6427014628951
 30
0.0
 11
-81.69998001827662
 21
-225.6427014628951
 31
0.0
  0
LINE
  5
109
330
4A
100
AcDbEntity
  8
1
  6
Continuous
 62
     6
100
AcDbLine
 10
-86.69998001827472
 20
-225.6427014628951
 30
0.0
 11
-86.69998001827521
 21
-175.6427014628953
 31
0.0
  0
LINE
  5
10A
330
4A
100
AcDbEntity
  8
1
  6
Continuous
 62
     2
100
AcDbLine
 10
-81.69998001827662
 20
-225.6427014628951
 30
0.0
 11
-81.69998001827662
 21
-175.6427014628953
 31
0.0
  0
LINE
  5
10B
330
4A
100
AcDbEntity
  8
1
  6
Continuous
 62
     2
100
AcDbLine
 10
-86.69998001827521
 20
-175.6427014628953
 30
0.0
 11
-81.69998001827662
 21
-175.6427014628953
 31
0.0
  0
LINE
  5
10C
330
4A
100
AcDbEntity
  8
1
  6
Continuous
 62
     6
100
AcDbLine
 10
-86.69998001827521
 20
-175.6427014628953
 30
0.0
 11
-86.69998001827642
 21
-125.6427014628952
 31
0.0
  0
LINE
  5
10D
330
4A
100
AcDbEntity
  8
1
  6
Continuous
 62
     2
100
AcDbLine
 10
-81.69998001827662
 20
-175.6427014628953
 30
0.0
 11
-81.69998001827662
 21
-125.6427014628952
 31
0.0
  0
LINE
  5
10E
330
4A
100
AcDbEntity
  8
1
  6
Continuous
 62
     2
100
AcDbLine
 10
-86.69998001827642
 20
-125.6427014628952
 30
0.0
 11
-81.69998001827662
 21
-125.6427014628952
 31
0.0
  0
LINE
  5
10F
330
4A
100
AcDbEntity
  8
1
  6
Continuous
 62
     6
100
AcDbLine
 10
-86.69998001827642
 20
-125.6427014628952
 30
0.0
 11
-86.69998001827662
 21
-90.64270146289519
 31
0.0
  0
LINE
  5
110
330
4A
100
AcDbEntity
  8
1
  6
Continuous
 62
     2
100
AcDbLine
 10
-81.69998001827662
 20
-125.6427014628952
 30
0.0
 11
-81.69998001827662
 21
-70.64270146289519
 31
0.0
  0
LINE
  5
111
330
4A
100
AcDbEntity
  8
1
  6
Continuous
 62
     2
100
AcDbLine
 10
-81.69998001827662
 20
-275.6427014628952
 30
0.0
 11
-81.69998001827662
 21
-225.6427014628951
 31
0.0
  0
LINE
  5
112
330
4A
100
AcDbEntity
  8
1
  6
Continuous
 62
     2
100
AcDbLine
 10
-230.1999800182756
 20
-70.64270146289519
 30
0.0
 11
-378.6999800182747
 21
-70.64270146289519
 31
0.0
  0
LINE
  5
113
330
4A
100
AcDbEntity
  8
1
  6
Continuous
 62
     2
100
AcDbLine
 10
-230.1999800182756
 20
-70.64270146289519
 30
0.0
 11
-230.1999800182756
 21
-79.85139330759651
 31
0.0
  0
LINE
  5
114
330
4A
100
AcDbEntity
  8
1
  6
Continuous
 62
     2
100
AcDbLine
 10
-378.6999800182747
 20
-280.6427014628953
 30
0.0
 11
-373.6999800182737
 21
-280.6427014628953
 31
0.0
  0
LINE
  5
115
330
4A
100
AcDbEntity
  8
1
  6
Continuous
 62
     2
100
AcDbLine
 10
-378.6999800182747
 20
-70.64270146289519
 30
0.0
 11
-378.6999800182747
 21
-125.6427014628952
 31
0.0
  0
LINE
  5
116
330
4A
100
AcDbEntity
  8
1
  6
Continuous
 62
     6
100
AcDbLine
 10
-373.6999800182747
 20
-90.64270146289519
 30
0.0
 11
-373.6999800182746
 21
-125.6427014628952
 31
0.0
  0
LINE
  5
117
330
4A
100
AcDbEntity
  8
1
  6
Continuous
 62
     2
100
AcDbLine
 10
-378.6999800182747
 20
-125.6427014628952
 30
0.0
 11
-373.6999800182746
 21
-125.6427014628952
 31
0.0
  0
LINE
  5
118
330
4A
100
AcDbEntity
  8
1
  6
Continuous
 62
     2
100
AcDbLine
 10
-378.6999800182747
 20
-125.6427014628952
 30
0.0
 11
-378.6999800182747
 21
-175.6427014628953
 31
0.0
  0
LINE
  5
119
330
4A
100
AcDbEntity
  8
1
  6
Continuous
 62
     6
100
AcDbLine
 10
-373.6999800182746
 20
-125.6427014628952
 30
0.0
 11
-373.6999800182741
 21
-175.6427014628953
 31
0.0
  0
LINE
  5
11A
330
4A
100
AcDbEntity
  8
1
  6
Continuous
 62
     2
100
AcDbLine
 10
-378.6999800182747
 20
-175.6427014628953
 30
0.0
 11
-373.6999800182741
 21
-175.6427014628953
 31
0.0
  0
LINE
  5
11B
330
4A
100
AcDbEntity
  8
1
  6
Continuous
 62
     2
100
AcDbLine
 10
-378.6999800182747
 20
-175.6427014628953
 30
0.0
 11
-378.6999800182747
 21
-225.6427014628951
 31
0.0
  0
LINE
  5
11C
330
4A
100
AcDbEntity
  8
1
  6
Continuous
 62
     6
100
AcDbLine
 10
-373.6999800182741
 20
-175.6427014628953
 30
0.0
 11
-373.6999800182739
 21
-225.6427014628951
 31
0.0
  0
LINE
  5
11D
330
4A
100
AcDbEntity
  8
1
  6
Continuous
 62
     2
100
AcDbLine
 10
-378.6999800182747
 20
-225.6427014628951
 30
0.0
 11
-373.6999800182739
 21
-225.6427014628951
 31
0.0
  0
LINE
  5
11E
330
4A
100
AcDbEntity
  8
1
  6
Continuous
 62
     2
100
AcDbLine
 10
-378.6999800182747
 20
-225.6427014628951
 30
0.0
 11
-378.6999800182747
 21
-275.6427014628952
 31
0.0
  0
LINE
  5
11F
330
4A
100
AcDbEntity
  8
1
  6
Continuous
 62
     6
100
AcDbLine
 10
-373.6999800182739
 20
-225.6427014628951
 30
0.0
 11
-373.6999800182737
 21
-275.6427014628952
 31
0.0
  0
LINE
  5
120
330
4A
100
AcDbEntity
  8
1
  6
Continuous
 62
     2
100
AcDbLine
 10
-330.1999800182756
 20
-280.6427014628953
 30
0.0
 11
-330.1999800182756
 21
-275.6427014628952
 31
0.0
  0
LINE
  5
121
330
4A
100
AcDbEntity
  8
1
  6
Continuous
 62
     2
100
AcDbLine
 10
-330.1999800182756
 20
-280.6427014628953
 30
0.0
 11
-280.1999800182758
 21
-280.6427014628953
 31
0.0
  0
LINE
  5
122
330
4A
100
AcDbEntity
  8
1
  6
Continuous
 62
     2
100
AcDbLine
 10
-280.1999800182758
 20
-280.6427014628953
 30
0.0
 11
-280.1999800182758
 21
-275.6427014628952
 31
0.0
  0
LINE
  5
123
330
4A
100
AcDbEntity
  8
1
  6
Continuous
 62
     2
100
AcDbLine
 10
-280.1999800182758
 20
-280.6427014628953
 30
0.0
 11
-230.1999800182756
 21
-280.6427014628953
 31
0.0
  0
LINE
  5
124
330
4A
100
AcDbEntity
  8
1
  6
Continuous
 62
     2
100
AcDbLine
 10
-230.1999800182756
 20
-280.6427014628953
 30
0.0
 11
-230.1999800182756
 21
-275.6427014628952
 31
0.0
  0
LINE
  5
125
330
4A
100
AcDbEntity
  8
1
  6
Continuous
 62
     2
100
AcDbLine
 10
-230.1999800182756
 20
-280.6427014628953
 30
0.0
 11
-180.1999800182756
 21
-280.6427014628953
 31
0.0
  0
LINE
  5
126
330
4A
100
AcDbEntity
  8
1
  6
Continuous
 62
     2
100
AcDbLine
 10
-180.1999800182756
 20
-280.6427014628953
 30
0.0
 11
-180.1999800182756
 21
-275.6427014628952
 31
0.0
  0
LINE
  5
127
330
4A
100
AcDbEntity
  8
1
  6
Continuous
 62
     2
100
AcDbLine
 10
-130.1999800182756
 20
-280.6427014628953
 30
0.0
 11
-130.1999800182756
 21
-275.6427014628952
 31
0.0
  0
LINE
  5
128
330
4A
100
AcDbEntity
  8
1
  6
Continuous
 62
     2
100
AcDbLine
 10
-130.1999800182756
 20
-280.6427014628953
 30
0.0
 11
-180.1999800182756
 21
-280.6427014628953
 31
0.0
  0
LINE
  5
129
330
4A
100
AcDbEntity
  8
1
  6
Continuous
 62
     2
100
AcDbLine
 10
-373.6999800182737
 20
-275.6427014628952
 30
0.0
 11
-373.6999800182737
 21
-280.6427014628953
 31
0.0
  0
LINE
  5
12A
330
4A
100
AcDbEntity
  8
1
  6
Continuous
 62
     2
100
AcDbLine
 10
-373.6999800182737
 20
-280.6427014628953
 30
0.0
 11
-330.1999800182756
 21
-280.6427014628953
 31
0.0
  0
LINE
  5
12B
330
4A
100
AcDbEntity
  8
1
  6
Continuous
 62
     2
100
AcDbLine
 10
-373.6999800182737
 20
-275.6427014628952
 30
0.0
 11
-378.6999800182747
 21
-275.6427014628952
 31
0.0
  0
LINE
  5
12C
330
4A
100
AcDbEntity
  8
1
  6
Continuous
 62
     2
100
AcDbLine
 10
-378.6999800182747
 20
-275.6427014628952
 30
0.0
 11
-378.6999800182747
 21
-280.6427014628953
 31
0.0
  0
LINE
  5
12D
330
4A
100
AcDbEntity
  8
1
  6
Continuous
 62
     6
100
AcDbLine
 10
-86.69998001827561
 20
-275.6427014628952
 30
0.0
 11
-86.69998001827432
 21
-267.1427014628952
 31
0.0
  0
LINE
  5
12E
330
4A
100
AcDbEntity
  8
1
  6
Continuous
 62
     6
100
AcDbLine
 10
-179.8447845450257
 20
-275.6427014628953
 30
0.0
 11
-130.1999800182756
 21
-275.6427014628952
 31
0.0
  0
LINE
  5
12F
330
4A
100
AcDbEntity
  8
1
  6
Continuous
 62
     6
100
AcDbLine
 10
-332.4999800182758
 20
-275.6427014628953
 30
0.0
 11
-330.1999800182756
 21
-275.6427014628952
 31
0.0
  0
LINE
  5
130
330
4A
100
AcDbEntity
  8
1
  6
Continuous
 62
     6
100
AcDbLine
 10
-230.1999800182756
 20
-275.6427014628952
 30
0.0
 11
-280.1999800182758
 21
-275.6427014628952
 31
0.0
  0
LINE
  5
131
330
4A
100
AcDbEntity
  8
1
  6
Continuous
 62
     7
100
AcDbLine
 10
-216.2447845450256
 20
-258.6427014628952
 30
0.0
 11
-216.2447845450256
 21
-271.3927014628953
 31
0.0
  0
LINE
  5
132
330
4A
100
AcDbEntity
  8
1
  6
Continuous
 62
     7
100
AcDbLine
 10
-179.8447845450257
 20
-258.6427014628952
 30
0.0
 11
-179.8447845450257
 21
-271.3927014628952
 31
0.0
  0
LINE
  5
133
330
4A
100
AcDbEntity
  8
1
  6
Continuous
 62
     6
100
AcDbLine
 10
-332.4999800182758
 20
-275.6427014628953
 30
0.0
 11
-338.6999800182738
 21
-275.6427014628952
 31
0.0
  0
LINE
  5
134
330
4A
100
AcDbEntity
  8
1
  6
Continuous
 62
     6
100
AcDbLine
 10
-179.8447845450257
 20
-275.6427014628953
 30
0.0
 11
-180.1999800182756
 21
-275.6427014628952
 31
0.0
  0
LINE
  5
135
330
4A
100
AcDbEntity
  8
1
  6
Continuous
 62
     6
100
AcDbLine
 10
-86.69998001827392
 20
-258.6427014628952
 30
0.0
 11
-86.69998001827432
 21
-267.1427014628952
 31
0.0
  0
LINE
  5
136
330
4A
100
AcDbEntity
  8
1
  6
Continuous
 62
     6
100
AcDbLine
 10
-338.6999800182738
 20
-275.6427014628952
 30
0.0
 11
-373.6999800182737
 21
-275.6427014628952
 31
0.0
  0
LINE
  5
137
330
4A
100
AcDbEntity
  8
1
  6
Continuous
 62
     2
100
AcDbLine
 10
-212.008129658463
 20
-253.2677014628953
 30
0.0
 11
-207.008129658463
 21
-252.0177014628953
 31
0.0
  0
LINE
  5
138
330
4A
100
AcDbEntity
  8
1
  6
Continuous
 62
     2
100
AcDbLine
 10
-212.008129658463
 20
-255.7677014628953
 30
0.0
 11
-212.008129658463
 21
-253.2677014628953
 31
0.0
  0
LINE
  5
139
330
4A
100
AcDbEntity
  8
1
  6
Continuous
 62
     2
100
AcDbLine
 10
-207.008129658463
 20
-257.0177014628953
 30
0.0
 11
-212.008129658463
 21
-255.7677014628953
 31
0.0
  0
LINE
  5
13A
330
4A
100
AcDbEntity
  8
1
  6
Continuous
 62
     2
100
AcDbLine
 10
-207.008129658463
 20
-252.0177014628953
 30
0.0
 11
-207.008129658463
 21
-257.0177014628953
 31
0.0
  0
LINE
  5
13B
330
4A
100
AcDbEntity
  8
1
  6
Continuous
 62
     7
100
AcDbLine
 10
-216.2447845450256
 20
-271.3927014628953
 30
0.0
 11
-198.0447845450256
 21
-271.3927014628952
 31
0.0
  0
LINE
  5
13C
330
4A
100
AcDbEntity
  8
1
  6
Continuous
 62
     7
100
AcDbLine
 10
-216.2447845450256
 20
-271.3927014628953
 30
0.0
 11
-216.2447845450256
 21
-275.6427014628953
 31
0.0
  0
LINE
  5
13D
330
4A
100
AcDbEntity
  8
1
  6
Continuous
 62
     7
100
AcDbLine
 10
-179.8447845450257
 20
-271.3927014628952
 30
0.0
 11
-179.8447845450257
 21
-275.6427014628953
 31
0.0
  0
LINE
  5
13E
330
4A
100
AcDbEntity
  8
1
  6
Continuous
 62
     7
100
AcDbLine
 10
-198.0447845450256
 20
-271.3927014628952
 30
0.0
 11
-198.0447845450256
 21
-275.6427014628952
 31
0.0
  0
LINE
  5
13F
330
4A
100
AcDbEntity
  8
1
  6
Continuous
 62
     6
100
AcDbLine
 10
-198.0447845450256
 20
-275.6427014628952
 30
0.0
 11
-216.2447845450256
 21
-275.6427014628953
 31
0.0
  0
LINE
  5
140
330
4A
100
AcDbEntity
  8
1
  6
Continuous
 62
     7
100
AcDbLine
 10
-198.0447845450256
 20
-271.3927014628952
 30
0.0
 11
-179.8447845450257
 21
-271.3927014628952
 31
0.0
  0
LINE
  5
141
330
4A
100
AcDbEntity
  8
1
  6
Continuous
 62
     6
100
AcDbLine
 10
-216.2447845450256
 20
-250.1427014628952
 30
0.0
 11
-86.69998001827392
 21
-250.1427014628952
 31
0.0
  0
ARC
  5
142
102
{ACAD_REACTORS
330
1AB
330
1AC
102
}
330
4A
100
AcDbEntity
  8
0
  6
Continuous
 62
     2
100
AcDbCircle
 10
-200.8531365460656
 20
-266.8222967009736
 30
0.0
 40
0.7717997786796724
100
AcDbArc
 50
321.8795802028404
 51
38.12041979715625
  0
ARC
  5
143
102
{ACAD_REACTORS
330
1AB
330
1AC
102
}
330
4A
100
AcDbEntity
  8
0
  6
Continuous
 62
     2
100
AcDbCircle
 10
-200.6533965097192
 20
-266.9790278790936
 30
0.0
 40
0.5179085730137402
100
AcDbArc
 50
218.1204197971887
 51
321.8795802028015
  0
ARC
  5
144
102
{ACAD_REACTORS
330
1AB
330
1AC
102
}
330
4A
100
AcDbEntity
  8
0
  6
Continuous
 62
     2
100
AcDbCircle
 10
-200.4536564733731
 20
-266.8222967009736
 30
0.0
 40
0.7717997786795031
100
AcDbArc
 50
141.879580202836
 51
218.1204197971674
  0
ARC
  5
145
102
{ACAD_REACTORS
330
1AB
330
1AC
102
}
330
4A
100
AcDbEntity
  8
0
  6
Continuous
 62
     2
100
AcDbCircle
 10
-200.6533965097192
 20
-266.6655655228531
 30
0.0
 40
0.5179085730133126
100
AcDbArc
 50
38.12041979715392
 51
141.8795802028558
  0
ARC
  5
146
102
{ACAD_REACTORS
330
1A3
330
1A4
102
}
330
4A
100
AcDbEntity
  8
0
  6
Continuous
 62
     2
100
AcDbCircle
 10
-203.7154106452831
 20
-268.2327630663818
 30
0.0
 40
2.227384008973468
100
AcDbArc
 50
58.06909105003972
 51
71.5519238818663
  0
ARC
  5
147
102
{ACAD_REACTORS
330
1A3
330
1A4
102
}
330
4A
100
AcDbEntity
  8
0
  6
Continuous
 62
     2
100
AcDbCircle
 10
-203.4536829443243
 20
-266.6172252716346
 30
0.0
 40
0.511580060194863
100
AcDbArc
 50
113.3722778882033
 51
151.4785267423044
  0
ARC
  5
148
102
{ACAD_REACTORS
330
1A3
330
1A4
102
}
330
4A
100
AcDbEntity
  8
0
  6
Continuous
 62
     2
100
AcDbCircle
 10
-203.076325686244
 20
-266.8222967009736
 30
0.0
 40
0.9410597353332545
100
AcDbArc
 50
151.4785267422669
 51
208.5214732577057
  0
ARC
  5
149
102
{ACAD_REACTORS
330
1A3
330
1A4
102
}
330
4A
100
AcDbEntity
  8
0
  6
Continuous
 62
     2
100
AcDbCircle
 10
-203.873283520376
 20
-263.5096157557172
 30
0.0
 40
4.85259686349811
100
AcDbArc
 50
275.158144769625
 51
285.979991258353
  0
ARC
  5
14A
102
{ACAD_REACTORS
330
1A3
330
1A4
102
}
330
4A
100
AcDbEntity
  8
0
  6
Continuous
 62
     2
100
AcDbCircle
 10
-203.5844274256401
 20
-266.7095063389388
 30
0.0
 40
1.639695123939408
100
AcDbArc
 50
195.0618917770884
 51
275.1581447696396
  0
ARC
  5
14B
102
{ACAD_REACTORS
330
1A3
330
1A4
102
}
330
4A
100
AcDbEntity
  8
0
  6
Continuous
 62
     2
100
AcDbCircle
 10
-204.0035552691029
 20
-266.8222967009736
 30
0.0
 40
1.205656168390971
100
AcDbArc
 50
164.9381082228768
 51
195.0618917770945
  0
ARC
  5
14C
102
{ACAD_REACTORS
330
1A3
330
1A4
102
}
330
4A
100
AcDbEntity
  8
0
  6
Continuous
 62
     2
100
AcDbCircle
 10
-203.5844274256401
 20
-266.9350870630085
 30
0.0
 40
1.639695123940507
100
AcDbArc
 50
84.84185523036236
 51
164.9381082228867
  0
ARC
  5
14D
102
{ACAD_REACTORS
330
1A7
330
1A8
102
}
330
4A
100
AcDbEntity
  8
0
  6
Continuous
 62
     2
100
AcDbCircle
 10
-208.414441679802
 20
-265.7884699066193
 30
0.0
 40
0.315716923076545
100
AcDbArc
 50
115.3740086783565
 51
180.0
  0
ARC
  5
14E
102
{ACAD_REACTORS
330
1A7
330
1A8
102
}
330
4A
100
AcDbEntity
  8
0
  6
Continuous
 62
     2
100
AcDbCircle
 10
-208.414441679802
 20
-263.5701867066831
 30
0.0
 40
0.315716923076792
100
AcDbArc
 50
180.0
 51
244.6259913216435
  0
ARC
  5
14F
102
{ACAD_REACTORS
330
1A7
330
1A8
102
}
330
4A
100
AcDbEntity
  8
0
  6
Continuous
 62
     2
100
AcDbCircle
 10
-208.408825544492
 20
-264.6674863657454
 30
0.0
 40
2.018561131933266
100
AcDbArc
 50
269.8110329575858
 51
90.18896704241416
  0
ARC
  5
150
102
{ACAD_REACTORS
330
1A7
330
1A8
102
}
330
4A
100
AcDbEntity
  8
0
  6
Continuous
 62
     2
100
AcDbCircle
 10
-208.414441679802
 20
-266.3703213133144
 30
0.0
 40
0.315716923076792
100
AcDbArc
 50
180.0
 51
269.811032957449
  0
ARC
  5
151
102
{ACAD_REACTORS
330
1A5
330
1A6
102
}
330
4A
100
AcDbEntity
  8
0
  6
Continuous
 62
     2
100
AcDbCircle
 10
-187.3509814650714
 20
-266.6172252716346
 30
0.0
 40
0.5115800601944048
100
AcDbArc
 50
109.3371432194823
 51
151.4785267424237
  0
ARC
  5
152
102
{ACAD_REACTORS
330
1A5
330
1A6
102
}
330
4A
100
AcDbEntity
  8
0
  6
Continuous
 62
     2
100
AcDbCircle
 10
-187.3509814650714
 20
-267.0273681303121
 30
0.0
 40
0.5115800601959967
100
AcDbArc
 50
208.5214732576881
 51
246.6277221118478
  0
ARC
  5
153
102
{ACAD_REACTORS
330
1A5
330
1A6
102
}
330
4A
100
AcDbEntity
  8
0
  6
Continuous
 62
     2
100
AcDbCircle
 10
-187.9008537898488
 20
-266.8222967009736
 30
0.0
 40
1.205656168392975
100
AcDbArc
 50
164.9381082229024
 51
195.0618917770975
  0
ARC
  5
154
102
{ACAD_REACTORS
330
1A5
330
1A6
102
}
330
4A
100
AcDbEntity
  8
0
  6
Continuous
 62
     2
100
AcDbCircle
 10
-187.4817259463872
 20
-266.9350870630085
 30
0.0
 40
1.639695123940214
100
AcDbArc
 50
90.0
 51
164.9381082228947
  0
ARC
  5
155
102
{ACAD_REACTORS
330
1A9
330
1AA
102
}
330
4A
100
AcDbEntity
  8
0
  6
Continuous
 62
     2
100
AcDbCircle
 10
-196.9087210390909
 20
-263.4631062247993
 30
0.0
 40
1.526904761905882
100
AcDbArc
 50
90.0
 51
270.0
  0
ARC
  5
156
102
{ACAD_REACTORS
330
1AD
330
1AE
102
}
330
4A
100
AcDbEntity
  8
0
  6
Continuous
 62
     2
100
AcDbCircle
 10
-203.6514117843167
 20
-262.9521711330046
 30
0.0
 40
0.3528638246710898
100
AcDbArc
 50
270.0
 51
90.0
  0
ARC
  5
157
102
{ACAD_REACTORS
330
1A7
330
1A8
102
}
330
4A
100
AcDbEntity
  8
0
  6
Continuous
 62
     2
100
AcDbCircle
 10
-210.9899903663337
 20
-262.9644739415282
 30
0.0
 40
0.3157169230761951
100
AcDbArc
 50
90.0
 51
180.0
  0
ARC
  5
158
102
{ACAD_REACTORS
330
1A7
330
1A8
102
}
330
4A
100
AcDbEntity
  8
0
  6
Continuous
 62
     2
100
AcDbCircle
 10
-208.9915726577491
 20
-264.6793283066509
 30
0.0
 40
0.9118975235576524
100
AcDbArc
 50
115.1944106485291
 51
244.8055893514861
  0
ARC
  5
159
102
{ACAD_REACTORS
330
1A7
330
1A8
102
}
330
4A
100
AcDbEntity
  8
0
  6
Continuous
 62
     2
100
AcDbCircle
 10
-209.5141571053241
 20
-265.7901580527137
 30
0.0
 40
0.315716923076593
100
AcDbArc
 50
0.0
 51
64.80558935146027
  0
ARC
  5
15A
102
{ACAD_REACTORS
330
1A7
330
1A8
102
}
330
4A
100
AcDbEntity
  8
0
  6
Continuous
 62
     2
100
AcDbCircle
 10
-211.5838850430802
 20
-267.9249568474956
 30
0.0
 40
0.4242446153828041
100
AcDbArc
 50
180.0
 51
270.0
  0
ARC
  5
15B
102
{ACAD_REACTORS
330
1A9
330
1AA
102
}
330
4A
100
AcDbEntity
  8
0
  6
Continuous
 62
     2
100
AcDbCircle
 10
-196.6924490289257
 20
-263.3063750466788
 30
0.0
 40
0.5179085730135266
100
AcDbArc
 50
38.12041979714334
 51
141.8795802028508
  0
ARC
  5
15C
102
{ACAD_REACTORS
330
1A9
330
1AA
102
}
330
4A
100
AcDbEntity
  8
0
  6
Continuous
 62
     2
100
AcDbCircle
 10
-196.4927089925794
 20
-263.4631062247993
 30
0.0
 40
0.7717997786796947
100
AcDbArc
 50
141.8795802028417
 51
218.1204197971549
  0
ARC
  5
15D
102
{ACAD_REACTORS
330
1AB
330
1AC
102
}
330
4A
100
AcDbEntity
  8
0
  6
Continuous
 62
     2
100
AcDbCircle
 10
-200.6533965097192
 20
-266.2837216906703
 30
0.0
 40
2.065479772208547
100
AcDbArc
 50
242.4518518243399
 51
297.5481481756867
  0
ARC
  5
15E
102
{ACAD_REACTORS
330
1AB
330
1AC
102
}
330
4A
100
AcDbEntity
  8
0
  6
Continuous
 62
     2
100
AcDbCircle
 10
-200.6533965097192
 20
-267.3608717112764
 30
0.0
 40
2.065479772208543
100
AcDbArc
 50
62.451851824306
 51
117.5481481756674
  0
ARC
  5
15F
102
{ACAD_REACTORS
330
1AB
330
1AC
102
}
330
4A
100
AcDbEntity
  8
0
  6
Continuous
 62
     2
100
AcDbCircle
 10
-200.9343364015525
 20
-266.8222967009736
 30
0.0
 40
1.458034083651465
100
AcDbArc
 50
117.548148175663
 51
242.451851824338
  0
ARC
  5
160
102
{ACAD_REACTORS
330
1AB
330
1AC
102
}
330
4A
100
AcDbEntity
  8
0
  6
Continuous
 62
     2
100
AcDbCircle
 10
-200.3724566178859
 20
-266.8222967009736
 30
0.0
 40
1.458034083652028
100
AcDbArc
 50
297.5481481757005
 51
62.45185182429842
  0
ARC
  5
161
102
{ACAD_REACTORS
330
1A9
330
1AA
102
}
330
4A
100
AcDbEntity
  8
0
  6
Continuous
 62
     2
100
AcDbCircle
 10
-196.6924490289257
 20
-263.6198374029197
 30
0.0
 40
0.5179085730134595
100
AcDbArc
 50
218.1204197971492
 51
321.8795802028566
  0
ARC
  5
162
102
{ACAD_REACTORS
330
1A9
330
1AA
102
}
330
4A
100
AcDbEntity
  8
0
  6
Continuous
 62
     2
100
AcDbCircle
 10
-196.8921890652719
 20
-263.4631062247993
 30
0.0
 40
0.7717997786796597
100
AcDbArc
 50
321.879580202845
 51
38.12041979715826
  0
ARC
  5
163
102
{ACAD_REACTORS
330
1A7
330
1A8
102
}
330
4A
100
AcDbEntity
  8
0
  6
Continuous
 62
     2
100
AcDbCircle
 10
-206.1105729523634
 20
-267.9249568474956
 30
0.0
 40
0.4242446153833157
100
AcDbArc
 50
270.0
 51
0.0
  0
ARC
  5
164
102
{ACAD_REACTORS
330
1A7
330
1A8
102
}
330
4A
100
AcDbEntity
  8
0
  6
Continuous
 62
     2
100
AcDbCircle
 10
-206.1105729523634
 20
-262.3604460782954
 30
0.0
 40
0.4242446153839126
100
AcDbArc
 50
0.0
 51
90.0
  0
ARC
  5
165
102
{ACAD_REACTORS
330
1A7
330
1A8
102
}
330
4A
100
AcDbEntity
  8
0
  6
Continuous
 62
     2
100
AcDbCircle
 10
-211.5838850430802
 20
-262.3604460782954
 30
0.0
 40
0.4242446153838273
100
AcDbArc
 50
90.0
 51
180.0
  0
ARC
  5
166
102
{ACAD_REACTORS
330
1A7
330
1A8
102
}
330
4A
100
AcDbEntity
  8
0
  6
Continuous
 62
     2
100
AcDbCircle
 10
-209.5141571053241
 20
-267.3209289842453
 30
0.0
 40
0.3157169230767067
100
AcDbArc
 50
270.0
 51
0.0
  0
ARC
  5
167
102
{ACAD_REACTORS
330
1A7
330
1A8
102
}
330
4A
100
AcDbEntity
  8
0
  6
Continuous
 62
     2
100
AcDbCircle
 10
-209.5141571053241
 20
-263.5684985605887
 30
0.0
 40
0.3157169230761203
100
AcDbArc
 50
295.1944106485397
 51
0.0
  0
ARC
  5
168
102
{ACAD_REACTORS
330
1A7
330
1A8
102
}
330
4A
100
AcDbEntity
  8
0
  6
Continuous
 62
     2
100
AcDbCircle
 10
-209.5141571053241
 20
-262.9644739415282
 30
0.0
 40
0.315716923076593
100
AcDbArc
 50
0.0
 51
90.0
  0
ARC
  5
169
102
{ACAD_REACTORS
330
1A7
330
1A8
102
}
330
4A
100
AcDbEntity
  8
0
  6
Continuous
 62
     2
100
AcDbCircle
 10
-210.9899903663337
 20
-267.3209289842453
 30
0.0
 40
0.315716923075712
100
AcDbArc
 50
180.0
 51
270.0
  0
ARC
  5
16A
102
{ACAD_REACTORS
330
1AD
330
1AE
102
}
330
4A
100
AcDbEntity
  8
0
  6
Continuous
 62
     2
100
AcDbCircle
 10
-203.2099392580783
 20
-262.9915671042271
 30
0.0
 40
1.055365641333708
100
AcDbArc
 50
270.0
 51
90.0
  0
ARC
  5
16B
102
{ACAD_REACTORS
330
1A5
330
1A6
102
}
330
4A
100
AcDbEntity
  8
0
  6
Continuous
 62
     2
100
AcDbCircle
 10
-187.4817259463872
 20
-266.7095063389388
 30
0.0
 40
1.639695123940421
100
AcDbArc
 50
195.0618917771015
 51
275.1581447696762
  0
ARC
  5
16C
102
{ACAD_REACTORS
330
1A5
330
1A6
102
}
330
4A
100
AcDbEntity
  8
0
  6
Continuous
 62
     2
100
AcDbCircle
 10
-187.770582041123
 20
-263.5096157557172
 30
0.0
 40
4.852596863498822
100
AcDbArc
 50
275.158144769636
 51
285.9799912583384
  0
ARC
  5
16D
102
{ACAD_REACTORS
330
1A5
330
1A6
102
}
330
4A
100
AcDbEntity
  8
0
  6
Continuous
 62
     2
100
AcDbCircle
 10
-187.6127091660302
 20
-265.4118303355655
 30
0.0
 40
2.227384008972719
100
AcDbArc
 50
288.4480761181337
 51
301.9309089499401
  0
ARC
  5
16E
102
{ACAD_REACTORS
330
1A5
330
1A6
102
}
330
4A
100
AcDbEntity
  8
0
  6
Continuous
 62
     2
100
AcDbCircle
 10
-187.1945414323683
 20
-266.6653761116021
 30
0.0
 40
0.9059297849852688
100
AcDbArc
 50
246.6277221118199
 51
288.4480761180817
  0
ARC
  5
16F
102
{ACAD_REACTORS
330
1A5
330
1A6
102
}
330
4A
100
AcDbEntity
  8
0
  6
Continuous
 62
     2
100
AcDbCircle
 10
-186.97362420699
 20
-266.8222967009736
 30
0.0
 40
0.9410597353348789
100
AcDbArc
 50
151.478526742364
 51
208.5214732576695
  0
ARC
  5
170
102
{ACAD_REACTORS
330
1A5
330
1A6
102
}
330
4A
100
AcDbEntity
  8
0
  6
Continuous
 62
     2
100
AcDbCircle
 10
-187.2043114669677
 20
-267.0351802520175
 30
0.0
 40
0.9545230068260935
100
AcDbArc
 50
90.0
 51
109.3371432194304
  0
ARC
  5
171
102
{ACAD_REACTORS
330
1A7
330
1A8
102
}
330
4A
100
AcDbEntity
  8
0
  6
Continuous
 62
     2
100
AcDbCircle
 10
-208.414441679802
 20
-262.9646514181763
 30
0.0
 40
0.3157169230760711
100
AcDbArc
 50
90.18896704255108
 51
180.0
  0
ARC
  5
172
102
{ACAD_REACTORS
330
1A7
330
1A8
102
}
330
4A
100
AcDbEntity
  8
0
  6
Continuous
 62
     2
100
AcDbCircle
 10
-208.9404843778899
 20
-264.6793283066509
 30
0.0
 40
0.9118481501444333
100
AcDbArc
 50
295.3740086781772
 51
64.62599132180748
  0
ARC
  5
173
102
{ACAD_REACTORS
330
1A3
330
1A4
102
}
330
4A
100
AcDbEntity
  8
0
  6
Continuous
 62
     2
100
AcDbCircle
 10
-203.7154106452831
 20
-265.4118303355649
 30
0.0
 40
2.227384008972773
100
AcDbArc
 50
288.4480761181333
 51
301.9309089499595
  0
ARC
  5
174
102
{ACAD_REACTORS
330
1A3
330
1A4
102
}
330
4A
100
AcDbEntity
  8
0
  6
Continuous
 62
     2
100
AcDbCircle
 10
-203.2972429116223
 20
-266.6653761116021
 30
0.0
 40
0.9059297849849192
100
AcDbArc
 50
246.627722111871
 51
288.4480761181596
  0
ARC
  5
175
102
{ACAD_REACTORS
330
1A3
330
1A4
102
}
330
4A
100
AcDbEntity
  8
0
  6
Continuous
 62
     2
100
AcDbCircle
 10
-203.4536829443243
 20
-267.0273681303121
 30
0.0
 40
0.5115800601948034
100
AcDbArc
 50
208.5214732576956
 51
246.6277221118245
  0
ARC
  5
176
102
{ACAD_REACTORS
330
1A3
330
1A4
102
}
330
4A
100
AcDbEntity
  8
0
  6
Continuous
 62
     2
100
AcDbCircle
 10
-203.2972429116223
 20
-266.9792172903452
 30
0.0
 40
0.9059297849853318
100
AcDbArc
 50
71.55192388185178
 51
113.372277888129
  0
ARC
  5
177
102
{ACAD_REACTORS
330
1A3
330
1A4
102
}
330
4A
100
AcDbEntity
  8
0
  6
Continuous
 62
     2
100
AcDbCircle
 10
-203.873283520376
 20
-270.1349776462295
 30
0.0
 40
4.852596863498095
100
AcDbArc
 50
74.02000874164747
 51
84.84185523037509
  0
CIRCLE
  5
178
102
{ACAD_REACTORS
330
1A7
330
1A8
102
}
330
4A
100
AcDbEntity
  8
0
  6
Continuous
 62
     2
100
AcDbCircle
 10
-208.9642993925627
 20
-264.6793283066509
 30
0.0
 40
0.4709789327785074
  0
CIRCLE
  5
179
330
4A
100
AcDbEntity
  8
1
  6
Continuous
 62
     2
100
AcDbCircle
 10
-203.508129658463
 20
-254.5177014628953
 30
0.0
 40
1.249999999999886
  0
CIRCLE
  5
17A
330
4A
100
AcDbEntity
  8
1
  6
Continuous
 62
     2
100
AcDbCircle
 10
-203.508129658463
 20
-254.5177014628953
 30
0.0
 40
2.5
  0
TEXT
  5
17C
330
4A
100
AcDbEntity
  8
1
 62
     7
100
AcDbText
 10
-160.8712368230118
 20
-257.3427014628953
 30
0.0
 40
2.5
  1
/
 41
0.9
  7
CONVERTER_11
100
AcDbText
  0
TEXT
  5
17E
330
4A
100
AcDbEntity
  8
1
 62
     7
100
AcDbText
 10
-158.7148723259698
 20
-257.3427014628953
 30
0.0
 40
2.5
  1
00
 41
0.81
  7
CONVERTER_12
100
AcDbText
  0
TEXT
  5
17F
330
4A
100
AcDbEntity
  8
1
 62
     3
100
AcDbText
 10
-121.1183882999527
 20
-257.3427014628953
 30
0.0
 40
2.5
  1
08.07.2015
 41
0.81
  7
CONVERTER_12
100
AcDbText
  0
MTEXT
  5
180
330
4A
100
AcDbEntity
  8
1
 62
     2
100
AcDbMText
 10
-121.1183882999527
 20
-251.1427014628953
 30
0.0
 40
1.8
 41
0.0
 71
     1
 72
     1
  1
date
  7
CONVERTER_11
 73
     1
 44
1.32052821128451
  0
MTEXT
  5
181
330
4A
100
AcDbEntity
  8
1
 62
     2
100
AcDbMText
 10
-150.9447845450256
 20
-259.6427014628953
 30
0.0
 40
1.8
 41
0.0
 71
     1
 72
     1
  1
document-type
  7
CONVERTER_11
 73
     1
 44
1.20048019207683
  0
TEXT
  5
182
330
4A
100
AcDbEntity
  8
1
 62
     3
100
AcDbText
 10
-150.9447845450256
 20
-265.8427014628953
 30
0.0
 40
2.5
  1
Customer drawing select
 41
0.81
  7
CONVERTER_12
100
AcDbText
  0
MTEXT
  5
184
330
4A
100
AcDbEntity
  8
1
 62
     2
100
AcDbMText
 10
-178.7447845450256
 20
-251.1427014628952
 30
0.0
 40
1.8
 41
0.0
 71
     1
 72
     1
  1
document-No. / RI
  7
CONVERTER_13
 73
     1
 44
1.32052821128451
  0
TEXT
  5
185
330
4A
100
AcDbEntity
  8
1
 62
     7
100
AcDbText
 10
-178.7447845450256
 20
-257.3427014628953
 30
0.0
 40
2.5
  1
00882404
 41
0.81
  7
CONVERTER_12
100
AcDbText
  0
MTEXT
  5
187
330
4A
100
AcDbEntity
  8
1
 62
     3
100
AcDbMText
 10
-91.15918415911331
 20
-257.3427014628951
 30
0.0
 40
2.5
 41
0.0
 71
     8
 72
     1
  1
2:1
  7
CONVERTER_14
 73
     1
 44
1.32052821128451
  0
MTEXT
  5
188
330
4A
100
AcDbEntity
  8
1
 62
     2
100
AcDbMText
 10
-94.5183882999529
 20
-251.1427014628952
 30
0.0
 40
1.8
 41
0.0
 71
     1
 72
     1
  1
scale
  7
CONVERTER_11
 73
     1
 44
1.20048019207683
  0
MTEXT
  5
189
330
4A
100
AcDbEntity
  8
1
 62
     2
100
AcDbMText
 10
-178.7447845450256
 20
-259.6427014628952
 30
0.0
 40
1.8
 41
0.0
 71
     1
 72
     1
  1
ident.-No.
  7
CONVERTER_11
 73
     1
 44
1.20048019207683
  0
TEXT
  5
18A
330
4A
100
AcDbEntity
  8
1
 62
     7
100
AcDbText
 10
-178.3447845450259
 20
-265.8427014628953
 30
0.0
 40
2.5
  1
0822466
 41
0.81
  7
CONVERTER_12
100
AcDbText
  0
MTEXT
  5
18B
330
4A
100
AcDbEntity
  8
1
 62
     2
100
AcDbMText
 10
-250.6827992700731
 20
-262.8927014628953
 30
0.0
 40
2.0
 41
0.0
 71
     5
 72
     1
  1
General Information\P- Simplified representation\P- Document excluded from change process\P- Linear dimensions [mm]
  7
CONVERTER_11
 73
     1
 44
1.20048019207683
  0
MTEXT
  5
18C
330
4A
100
AcDbEntity
  8
1
 62
     7
100
AcDbMText
 10
-84.19998001827662
 20
-200.6427014628933
 30
0.0
 40
3.5
 41
0.0
 71
     5
 72
     1
  1
C
  7
CONVERTER_11
 73
     1
 44
1.20048019207683
  0
MTEXT
  5
18D
330
4A
100
AcDbEntity
  8
1
 62
     7
100
AcDbMText
 10
-84.19998001827662
 20
-98.14270146289519
 30
0.0
 40
3.5
 41
0.0
 71
     5
 72
     1
  1
A
  7
CONVERTER_11
 73
     1
 44
1.20048019207683
  0
MTEXT
  5
18E
330
4A
100
AcDbEntity
  8
1
 62
     7
100
AcDbMText
 10
-84.19998001827662
 20
-150.6427014628933
 30
0.0
 40
3.5
 41
0.0
 71
     5
 72
     1
  1
B
  7
CONVERTER_11
 73
     1
 44
1.20048019207683
  0
MTEXT
  5
18F
330
4A
100
AcDbEntity
  8
1
 62
     7
100
AcDbMText
 10
-84.19998001827662
 20
-253.1427014628952
 30
0.0
 40
3.5
 41
0.0
 71
     5
 72
     1
  1
D
  7
CONVERTER_11
 73
     1
 44
1.20048019207683
  0
MTEXT
  5
190
330
4A
100
AcDbEntity
  8
1
 62
     7
100
AcDbMText
 10
-354.4499800182752
 20
-278.1427014628953
 30
0.0
 40
3.5
 41
0.0
 71
     5
 72
     1
  1
1
  7
CONVERTER_11
 73
     1
 44
1.20048019207683
  0
MTEXT
  5
191
330
4A
100
AcDbEntity
  8
1
 62
     7
100
AcDbMText
 10
-305.1999800182756
 20
-278.1427014628953
 30
0.0
 40
3.5
 41
0.0
 71
     5
 72
     1
  1
2
  7
CONVERTER_11
 73
     1
 44
1.20048019207683
  0
MTEXT
  5
192
330
4A
100
AcDbEntity
  8
1
 62
     7
100
AcDbMText
 10
-255.1999800182756
 20
-278.1427014628953
 30
0.0
 40
3.5
 41
0.0
 71
     5
 72
     1
  1
3
  7
CONVERTER_11
 73
     1
 44
1.20048019207683
  0
MTEXT
  5
193
330
4A
100
AcDbEntity
  8
1
 62
     7
100
AcDbMText
 10
-205.1999800182757
 20
-278.1427014628953
 30
0.0
 40
3.5
 41
0.0
 71
     5
 72
     1
  1
4
  7
CONVERTER_11
 73
     1
 44
1.20048019207683
  0
MTEXT
  5
194
330
4A
100
AcDbEntity
  8
1
 62
     7
100
AcDbMText
 10
-155.1999800182756
 20
-278.1427014628953
 30
0.0
 40
3.5
 41
0.0
 71
     5
 72
     1
  1
5
  7
CONVERTER_11
 73
     1
 44
1.20048019207683
  0
MTEXT
  5
195
330
4A
100
AcDbEntity
  8
1
 62
     7
100
AcDbMText
 10
-105.9499800182764
 20
-278.1427014628953
 30
0.0
 40
3.5
 41
0.0
 71
     5
 72
     1
  1
6
  7
CONVERTER_11
 73
     1
 44
1.20048019207683
  0
MTEXT
  5
196
330
4A
100
AcDbEntity
  8
1
 62
     7
100
AcDbMText
 10
-376.1999800182747
 20
-98.14270146289519
 30
0.0
 40
3.5
 41
0.0
 71
     5
 72
     1
  1
A
  7
CONVERTER_11
 73
     1
 44
1.20048019207683
  0
MTEXT
  5
197
330
4A
100
AcDbEntity
  8
1
 62
     7
100
AcDbMText
 10
-376.1999800182747
 20
-150.6427014628952
 30
0.0
 40
3.5
 41
0.0
 71
     5
 72
     1
  1
B
  7
CONVERTER_11
 73
     1
 44
1.20048019207683
  0
MTEXT
  5
198
330
4A
100
AcDbEntity
  8
1
 62
     7
100
AcDbMText
 10
-376.1999800182747
 20
-200.6427014628952
 30
0.0
 40
3.5
 41
0.0
 71
     5
 72
     1
  1
C
  7
CONVERTER_11
 73
     1
 44
1.20048019207683
  0
MTEXT
  5
199
330
4A
100
AcDbEntity
  8
1
 62
     7
100
AcDbMText
 10
-376.1999800182747
 20
-253.1427014628952
 30
0.0
 40
3.5
 41
0.0
 71
     5
 72
     1
  1
D
  7
CONVERTER_11
 73
     1
 44
1.20048019207683
  0
MTEXT
  5
19A
330
4A
100
AcDbEntity
  8
1
 62
     3
100
AcDbMText
 10
-190.0447845450257
 20
-254.5177014628952
 30
0.0
 40
2.5
 41
0.0
 71
     5
 72
     1
  1
DIN A4
  7
CONVERTER_11
 73
     1
 44
1.20048019207683
  0
MTEXT
  5
19B
330
4A
100
AcDbEntity
  8
1
 62
     2
100
AcDbMText
 10
-178.8447845450257
 20
-268.1427014628952
 30
0.0
 40
1.8
 41
0.0
 71
     1
 72
     1
  1
description
  7
CONVERTER_11
 73
     1
 44
1.20048019207683
  0
MTEXT
  5
19C
330
4A
100
AcDbEntity
  8
1
 62
     7
100
AcDbMText
 10
-133.2723822816501
 20
-272.3927014628949
 30
0.0
 40
3.0
 41
0.0
 71
     5
 72
     1
  1
PATG 3/30
  7
CONVERTER_12
 73
     1
 44
1.20048019207683
  0
TEXT
  5
19D
330
4A
100
AcDbEntity
  8
1
 62
     2
100
AcDbText
 10
-191.8094757352121
 20
-274.3927014628953
 30
0.0
 40
1.8
  1
1
 41
0.9
  7
CONVERTER_11
100
AcDbText
  0
TEXT
  5
19E
330
4A
100
AcDbEntity
  8
1
 62
     2
100
AcDbText
 10
-206.5985195746836
 20
-274.4419501166972
 30
0.0
 40
1.8
  1
1
 41
0.9
  7
CONVERTER_11
100
AcDbText
  0
TEXT
  5
19F
330
4A
100
AcDbEntity
  8
1
 62
     2
100
AcDbText
 10
-215.2447845450256
 20
-274.4017186778868
 30
0.0
 40
1.8
  1
page
 41
0.9
  7
CONVERTER_11
100
AcDbText
  0
TEXT
  5
1A0
330
4A
100
AcDbEntity
  8
1
 62
     2
100
AcDbText
 10
-197.0447845450258
 20
-274.4017186778868
 30
0.0
 40
1.8
  1
of
 41
0.9
  7
CONVERTER_11
100
AcDbText
  0
MTEXT
  5
1A1
330
4A
100
AcDbEntity
  8
1
 62
     3
100
AcDbMText
 10
-190.8418023934157
 20
-88.8513933075964
 30
0.0
 40
1.8
 41
0.0
 71
     7
 72
     1
  3
Transfer or duplication of this document as well as the utilisation or\Pcommunication of its content are not permitted unless express consen\Pis granted. Violations give rise to claims for damages. All rights reserved\Pin case of patent, utility mod
  1
el or design patent registrations.
  7
CONVERTER_11
 73
     1
 44
0.99639855942377
  0
MTEXT
  5
1A2
330
4A
100
AcDbEntity
  8
1
 62
     3
100
AcDbMText
 10
-373.6949122322038
 20
-88.8513933075964
 30
0.0
 40
1.8
 41
0.0
 71
     7
 72
     1
  3
Weitergabe sowie Vervielf\U+00e4ltigung dieses Dokuments, Verwertung und \PMitteilung seines Inhalts sind verboten, soweit nicht ausdr\U+00fccklich gestattet. \PZuwiderhandlungen verpflichten zu Schadenersatz. Alle Rechte f\U+00fcr den Fall\Pder Pat
  1
ent-, Gebrauchsmuster- oder Designeintragung vorbehalten.
  7
CONVERTER_11
 73
     1
 44
0.99639855942377
  0
HATCH
  5
1A3
330
4A
100
AcDbEntity
  8
1
  6
Continuous
 62
     2
100
AcDbHatch
 10
0.0
 20
0.0
 30
0.0
210
0.0
220
0.0
230
1.0
  2
_USER
 70
     0
 71
     1
 91
        1
 92
        1
 93
       14
 72
     2
 10
-204.0035552691029
 20
-266.8222967009736
 40
1.205656168390971
 50
164.9381082228768
 51
195.0618917770945
 73
     1
 72
     2
 10
-203.5844274256401
 20
-266.7095063389388
 40
1.639695123939408
 50
195.0618917770884
 51
275.1581447696396
 73
     1
 72
     2
 10
-203.873283520376
 20
-263.5096157557172
 40
4.85259686349811
 50
275.158144769625
 51
285.979991258353
 73
     1
 72
     1
 10
-202.5373556032582
 20
-268.174698061518
 11
-202.5373556032582
 21
-267.3021810547148
 72
     2
 10
-203.7154106452831
 20
-265.4118303355649
 40
2.227384008972773
 50
58.06909105004051
 51
71.55192388186677
 73
     0
 72
     2
 10
-203.2972429116223
 20
-266.6653761116021
 40
0.9059297849849192
 50
71.55192388184041
 51
113.372277888129
 73
     0
 72
     2
 10
-203.4536829443243
 20
-267.0273681303121
 40
0.5115800601948034
 50
113.3722778881755
 51
151.4785267423044
 73
     0
 72
     2
 10
-203.076325686244
 20
-266.8222967009736
 40
0.9410597353332545
 50
151.4785267422943
 51
208.5214732577331
 73
     0
 72
     2
 10
-203.4536829443243
 20
-266.6172252716346
 40
0.511580060194863
 50
208.5214732576956
 51
246.6277221117967
 73
     0
 72
     2
 10
-203.2972429116223
 20
-266.9792172903452
 40
0.9059297849853318
 50
246.627722111871
 51
288.4480761181483
 73
     0
 72
     2
 10
-203.7154106452831
 20
-268.2327630663818
 40
2.227384008973468
 50
288.4480761181337
 51
301.9309089499603
 73
     0
 72
     1
 10
-202.5373556032582
 20
-266.3424123472319
 11
-202.5373556032582
 21
-265.4698953404286
 72
     2
 10
-203.873283520376
 20
-270.1349776462295
 40
4.852596863498095
 50
74.02000874164747
 51
84.84185523037509
 73
     1
 72
     2
 10
-203.5844274256401
 20
-266.9350870630085
 40
1.639695123940507
 50
84.84185523036236
 51
164.9381082228867
 73
     1
 97
       14
330
177
330
90
330
146
330
176
330
147
330
148
330
175
330
174
330
173
330
91
330
149
330
14A
330
14B
330
14C
 75
     1
 76
     0
 52
45.0
 41
0.1
 77
     0
 78
     1
 53
45.0
 43
0.0
 44
0.0
 45
-0.0707106781186548
 46
0.0707106781186548
 79
     0
 98
        1
 10
0.0
 20
0.0
  0
HATCH
  5
1A4
330
4A
100
AcDbEntity
  8
1
  6
Continuous
 62
     2
100
AcDbHatch
 10
0.0
 20
0.0
 30
0.0
210
0.0
220
0.0
230
1.0
  2
_USER
 70
     0
 71
     1
 91
        1
 92
        1
 93
       14
 72
     2
 10
-204.0035552691029
 20
-266.8222967009736
 40
1.205656168390971
 50
164.9381082228768
 51
195.0618917770945
 73
     1
 72
     2
 10
-203.5844274256401
 20
-266.7095063389388
 40
1.639695123939408
 50
195.0618917770884
 51
275.1581447696396
 73
     1
 72
     2
 10
-203.873283520376
 20
-263.5096157557172
 40
4.85259686349811
 50
275.158144769625
 51
285.979991258353
 73
     1
 72
     1
 10
-202.5373556032582
 20
-268.174698061518
 11
-202.5373556032582
 21
-267.3021810547148
 72
     2
 10
-203.7154106452831
 20
-265.4118303355649
 40
2.227384008972773
 50
58.06909105004051
 51
71.55192388186677
 73
     0
 72
     2
 10
-203.2972429116223
 20
-266.6653761116021
 40
0.9059297849849192
 50
71.55192388184041
 51
113.372277888129
 73
     0
 72
     2
 10
-203.4536829443243
 20
-267.0273681303121
 40
0.5115800601948034
 50
113.3722778881755
 51
151.4785267423044
 73
     0
 72
     2
 10
-203.076325686244
 20
-266.8222967009736
 40
0.9410597353332545
 50
151.4785267422943
 51
208.5214732577331
 73
     0
 72
     2
 10
-203.4536829443243
 20
-266.6172252716346
 40
0.511580060194863
 50
208.5214732576956
 51
246.6277221117967
 73
     0
 72
     2
 10
-203.2972429116223
 20
-266.9792172903452
 40
0.9059297849853318
 50
246.627722111871
 51
288.4480761181483
 73
     0
 72
     2
 10
-203.7154106452831
 20
-268.2327630663818
 40
2.227384008973468
 50
288.4480761181337
 51
301.9309089499603
 73
     0
 72
     1
 10
-202.5373556032582
 20
-266.3424123472319
 11
-202.5373556032582
 21
-265.4698953404286
 72
     2
 10
-203.873283520376
 20
-270.1349776462295
 40
4.852596863498095
 50
74.02000874164747
 51
84.84185523037509
 73
     1
 72
     2
 10
-203.5844274256401
 20
-266.9350870630085
 40
1.639695123940507
 50
84.84185523036236
 51
164.9381082228867
 73
     1
 97
       14
330
177
330
90
330
146
330
176
330
147
330
148
330
175
330
174
330
173
330
91
330
149
330
14A
330
14B
330
14C
 75
     1
 76
     0
 52
45.0
 41
0.1
 77
     0
 78
     1
 53
45.0
 43
0.0
 44
0.0
 45
-0.0707106781186548
 46
0.0707106781186548
 79
     0
 98
        1
 10
0.0
 20
0.0
  0
HATCH
  5
1A5
330
4A
100
AcDbEntity
  8
1
  6
Continuous
 62
     2
100
AcDbHatch
 10
0.0
 20
0.0
 30
0.0
210
0.0
220
0.0
230
1.0
  2
_USER
 70
     0
 71
     1
 91
        1
 92
        1
 93
       18
 72
     2
 10
-187.4817259463872
 20
-266.9350870630085
 40
1.639695123940214
 50
90.0
 51
164.9381082228947
 73
     1
 72
     2
 10
-187.9008537898488
 20
-266.8222967009736
 40
1.205656168392975
 50
164.9381082229024
 51
195.0618917770975
 73
     1
 72
     2
 10
-187.4817259463872
 20
-266.7095063389388
 40
1.639695123940421
 50
195.0618917771015
 51
275.1581447696762
 73
     1
 72
     2
 10
-187.770582041123
 20
-263.5096157557172
 40
4.852596863498822
 50
275.158144769636
 51
285.9799912583384
 73
     1
 72
     1
 10
-186.4346541240063
 20
-268.1746980615186
 11
-186.4346541240063
 21
-267.3021810547153
 72
     2
 10
-187.6127091660302
 20
-265.4118303355655
 40
2.227384008972719
 50
58.06909105005989
 51
71.55192388186632
 73
     0
 72
     2
 10
-187.1945414323683
 20
-266.6653761116021
 40
0.9059297849852688
 50
71.55192388191827
 51
113.3722778881801
 73
     0
 72
     2
 10
-187.3509814650714
 20
-267.0273681303121
 40
0.5115800601959967
 50
113.3722778881522
 51
151.4785267423119
 73
     0
 72
     2
 10
-186.97362420699
 20
-266.8222967009736
 40
0.9410597353348789
 50
151.4785267423305
 51
208.521473257636
 73
     0
 72
     2
 10
-187.3509814650714
 20
-266.6172252716346
 40
0.5115800601944048
 50
208.5214732575762
 51
250.6628567805177
 73
     0
 72
     2
 10
-187.2043114669677
 20
-267.0351802520175
 40
0.9545230068260935
 50
250.6628567805696
 51
270.0
 73
     0
 72
     1
 10
-187.2043114669677
 20
-266.0806572451914
 11
-186.1006721673996
 21
-266.0806572451914
 72
     1
 10
-186.1006721673996
 20
-266.0806572451914
 11
-186.1006721673996
 21
-268.3492014628789
 72
     1
 10
-186.1006721673996
 20
-268.3492014628789
 11
-184.9078794652319
 21
-268.3492014628789
 72
     1
 10
-184.9078794652319
 20
-268.3492014628789
 11
-184.9078794652319
 21
-266.0806572451914
 72
     1
 10
-184.9078794652319
 20
-266.0806572451914
 11
-184.0967804277585
 21
-266.0806572451914
 72
     1
 10
-184.0967804277585
 20
-266.0806572451914
 11
-184.0967804277585
 21
-265.2953919390678
 72
     1
 10
-184.0967804277585
 20
-265.2953919390678
 11
-187.4817259463872
 21
-265.2953919390683
 97
       18
330
F6
330
F5
330
F4
330
F3
330
F8
330
92
330
170
330
151
330
16F
330
152
330
16E
330
16D
330
93
330
16C
330
16B
330
153
330
154
330
F7
 75
     1
 76
     0
 52
45.0
 41
0.1
 77
     0
 78
     1
 53
45.0
 43
0.0
 44
0.0
 45
-0.0707106781186548
 46
0.0707106781186548
 79
     0
 98
        1
 10
0.0
 20
0.0
  0
HATCH
  5
1A6
330
4A
100
AcDbEntity
  8
1
  6
Continuous
 62
     2
100
AcDbHatch
 10
0.0
 20
0.0
 30
0.0
210
0.0
220
0.0
230
1.0
  2
_USER
 70
     0
 71
     1
 91
        1
 92
        1
 93
       18
 72
     2
 10
-187.4817259463872
 20
-266.9350870630085
 40
1.639695123940214
 50
90.0
 51
164.9381082228947
 73
     1
 72
     2
 10
-187.9008537898488
 20
-266.8222967009736
 40
1.205656168392975
 50
164.9381082229024
 51
195.0618917770975
 73
     1
 72
     2
 10
-187.4817259463872
 20
-266.7095063389388
 40
1.639695123940421
 50
195.0618917771015
 51
275.1581447696762
 73
     1
 72
     2
 10
-187.770582041123
 20
-263.5096157557172
 40
4.852596863498822
 50
275.158144769636
 51
285.9799912583384
 73
     1
 72
     1
 10
-186.4346541240063
 20
-268.1746980615186
 11
-186.4346541240063
 21
-267.3021810547153
 72
     2
 10
-187.6127091660302
 20
-265.4118303355655
 40
2.227384008972719
 50
58.06909105005989
 51
71.55192388186632
 73
     0
 72
     2
 10
-187.1945414323683
 20
-266.6653761116021
 40
0.9059297849852688
 50
71.55192388191827
 51
113.3722778881801
 73
     0
 72
     2
 10
-187.3509814650714
 20
-267.0273681303121
 40
0.5115800601959967
 50
113.3722778881522
 51
151.4785267423119
 73
     0
 72
     2
 10
-186.97362420699
 20
-266.8222967009736
 40
0.9410597353348789
 50
151.4785267423305
 51
208.521473257636
 73
     0
 72
     2
 10
-187.3509814650714
 20
-266.6172252716346
 40
0.5115800601944048
 50
208.5214732575762
 51
250.6628567805177
 73
     0
 72
     2
 10
-187.2043114669677
 20
-267.0351802520175
 40
0.9545230068260935
 50
250.6628567805696
 51
270.0
 73
     0
 72
     1
 10
-187.2043114669677
 20
-266.0806572451914
 11
-186.1006721673996
 21
-266.0806572451914
 72
     1
 10
-186.1006721673996
 20
-266.0806572451914
 11
-186.1006721673996
 21
-268.3492014628789
 72
     1
 10
-186.1006721673996
 20
-268.3492014628789
 11
-184.9078794652319
 21
-268.3492014628789
 72
     1
 10
-184.9078794652319
 20
-268.3492014628789
 11
-184.9078794652319
 21
-266.0806572451914
 72
     1
 10
-184.9078794652319
 20
-266.0806572451914
 11
-184.0967804277585
 21
-266.0806572451914
 72
     1
 10
-184.0967804277585
 20
-266.0806572451914
 11
-184.0967804277585
 21
-265.2953919390678
 72
     1
 10
-184.0967804277585
 20
-265.2953919390678
 11
-187.4817259463872
 21
-265.2953919390683
 97
       18
330
F6
330
F5
330
F4
330
F3
330
F8
330
92
330
170
330
151
330
16F
330
152
330
16E
330
16D
330
93
330
16C
330
16B
330
153
330
154
330
F7
 75
     1
 76
     0
 52
45.0
 41
0.1
 77
     0
 78
     1
 53
45.0
 43
0.0
 44
0.0
 45
-0.0707106781186548
 46
0.0707106781186548
 79
     0
 98
        1
 10
0.0
 20
0.0
  0
HATCH
  5
1A7
330
4A
100
AcDbEntity
  8
1
  6
Continuous
 62
     2
100
AcDbHatch
 10
0.0
 20
0.0
 30
0.0
210
0.0
220
0.0
230
1.0
  2
_USER
 70
     0
 71
     1
 91
        4
 92
        1
 93
        8
 72
     2
 10
-211.5838850430802
 20
-262.3604460782954
 40
0.4242446153838273
 50
90.0
 51
180.0
 73
     1
 72
     1
 10
-212.008129658463
 20
-262.3604460782954
 11
-212.008129658463
 21
-267.9249568474956
 72
     2
 10
-211.5838850430802
 20
-267.9249568474956
 40
0.4242446153828041
 50
180.0
 51
270.0
 73
     1
 72
     1
 10
-211.5838850430802
 20
-268.3492014628789
 11
-206.1105729523634
 21
-268.3492014628789
 72
     2
 10
-206.1105729523634
 20
-267.9249568474956
 40
0.4242446153833157
 50
270.0
 51
360.0
 73
     1
 72
     1
 10
-205.6863283369795
 20
-267.9249568474956
 11
-205.6863283369795
 21
-262.3604460782954
 72
     2
 10
-206.1105729523634
 20
-262.3604460782954
 40
0.4242446153839126
 50
0.0
 51
90.0
 73
     1
 72
     1
 10
-206.1105729523634
 20
-261.9362014629116
 11
-211.5838850430802
 21
-261.9362014629116
 97
        8
330
164
330
C1
330
163
330
C2
330
15A
330
BF
330
165
330
C0
 92
       16
 93
        1
 72
     2
 10
-208.9642993925627
 20
-264.6793283066509
 40
0.4709789327785074
 50
0.0
 51
360.0
 73
     1
 97
        1
330
178
 92
       16
 93
        8
 72
     2
 10
-208.9404843778899
 20
-264.6793283066509
 40
0.9118481501444333
 50
295.3740086781772
 51
424.6259913218075
 73
     1
 72
     2
 10
-208.414441679802
 20
-263.5701867066831
 40
0.315716923076792
 50
115.3740086783565
 51
180.0
 73
     0
 72
     1
 10
-208.7301586028788
 20
-263.5701867066831
 11
-208.7301586028788
 21
-262.9646514181763
 72
     2
 10
-208.414441679802
 20
-262.9646514181763
 40
0.3157169230760711
 50
180.0
 51
269.8110329574489
 73
     0
 72
     2
 10
-208.408825544492
 20
-264.6674863657454
 40
2.018561131933266
 50
269.8110329575858
 51
450.1889670424142
 73
     0
 72
     2
 10
-208.414441679802
 20
-266.3703213133144
 40
0.315716923076792
 50
90.18896704255098
 51
180.0
 73
     0
 72
     1
 10
-208.7301586028788
 20
-266.3703213133144
 11
-208.7301586028788
 21
-265.7884699066193
 72
     2
 10
-208.414441679802
 20
-265.7884699066193
 40
0.315716923076545
 50
180.0
 51
244.6259913216435
 73
     0
 97
        8
330
172
330
14E
330
FA
330
171
330
14F
330
150
330
F9
330
14D
 92
       16
 93
       12
 72
     1
 10
-210.9899903663337
 20
-267.636645907322
 11
-209.5141571053241
 21
-267.636645907322
 72
     2
 10
-209.5141571053241
 20
-267.3209289842453
 40
0.3157169230767067
 50
270.0
 51
360.0
 73
     1
 72
     1
 10
-209.1984401822475
 20
-267.3209289842453
 11
-209.1984401822475
 21
-265.7901580527137
 72
     2
 10
-209.5141571053241
 20
-265.7901580527137
 40
0.315716923076593
 50
0.0
 51
64.80558935146027
 73
     1
 72
     2
 10
-208.9915726577491
 20
-264.6793283066509
 40
0.9118975235576524
 50
115.1944106485139
 51
244.8055893514709
 73
     0
 72
     2
 10
-209.5141571053241
 20
-263.5684985605887
 40
0.3157169230761203
 50
295.1944106485397
 51
360.0
 73
     1
 72
     1
 10
-209.1984401822475
 20
-263.5684985605887
 11
-209.1984401822475
 21
-262.9644739415282
 72
     2
 10
-209.5141571053241
 20
-262.9644739415282
 40
0.315716923076593
 50
0.0
 51
90.0
 73
     1
 72
     1
 10
-209.5141571053241
 20
-262.648757018452
 11
-210.9899903663337
 21
-262.648757018452
 72
     2
 10
-210.9899903663337
 20
-262.9644739415282
 40
0.3157169230761951
 50
90.0
 51
180.0
 73
     1
 72
     1
 10
-211.3057072894094
 20
-262.9644739415282
 11
-211.3057072894094
 21
-267.3209289842453
 72
     2
 10
-210.9899903663337
 20
-267.3209289842453
 40
0.315716923075712
 50
180.0
 51
270.0
 73
     1
 97
       12
330
C6
330
157
330
C5
330
168
330
C4
330
167
330
158
330
159
330
C3
330
166
330
BE
330
169
 75
     1
 76
     0
 52
45.0
 41
0.1
 77
     0
 78
     1
 53
45.0
 43
0.0
 44
0.0
 45
-0.0707106781186548
 46
0.0707106781186548
 79
     0
 98
        1
 10
0.0
 20
0.0
  0
HATCH
  5
1A8
330
4A
100
AcDbEntity
  8
1
  6
Continuous
 62
     2
100
AcDbHatch
 10
0.0
 20
0.0
 30
0.0
210
0.0
220
0.0
230
1.0
  2
_USER
 70
     0
 71
     1
 91
        4
 92
        1
 93
        8
 72
     2
 10
-211.5838850430802
 20
-262.3604460782954
 40
0.4242446153838273
 50
90.0
 51
180.0
 73
     1
 72
     1
 10
-212.008129658463
 20
-262.3604460782954
 11
-212.008129658463
 21
-267.9249568474956
 72
     2
 10
-211.5838850430802
 20
-267.9249568474956
 40
0.4242446153828041
 50
180.0
 51
270.0
 73
     1
 72
     1
 10
-211.5838850430802
 20
-268.3492014628789
 11
-206.1105729523634
 21
-268.3492014628789
 72
     2
 10
-206.1105729523634
 20
-267.9249568474956
 40
0.4242446153833157
 50
270.0
 51
360.0
 73
     1
 72
     1
 10
-205.6863283369795
 20
-267.9249568474956
 11
-205.6863283369795
 21
-262.3604460782954
 72
     2
 10
-206.1105729523634
 20
-262.3604460782954
 40
0.4242446153839126
 50
0.0
 51
90.0
 73
     1
 72
     1
 10
-206.1105729523634
 20
-261.9362014629116
 11
-211.5838850430802
 21
-261.9362014629116
 97
        8
330
164
330
C1
330
163
330
C2
330
15A
330
BF
330
165
330
C0
 92
       16
 93
        1
 72
     2
 10
-208.9642993925627
 20
-264.6793283066509
 40
0.4709789327785074
 50
0.0
 51
360.0
 73
     1
 97
        1
330
178
 92
       16
 93
        8
 72
     2
 10
-208.9404843778899
 20
-264.6793283066509
 40
0.9118481501444333
 50
295.3740086781772
 51
424.6259913218075
 73
     1
 72
     2
 10
-208.414441679802
 20
-263.5701867066831
 40
0.315716923076792
 50
115.3740086783565
 51
180.0
 73
     0
 72
     1
 10
-208.7301586028788
 20
-263.5701867066831
 11
-208.7301586028788
 21
-262.9646514181763
 72
     2
 10
-208.414441679802
 20
-262.9646514181763
 40
0.3157169230760711
 50
180.0
 51
269.8110329574489
 73
     0
 72
     2
 10
-208.408825544492
 20
-264.6674863657454
 40
2.018561131933266
 50
269.8110329575858
 51
450.1889670424142
 73
     0
 72
     2
 10
-208.414441679802
 20
-266.3703213133144
 40
0.315716923076792
 50
90.18896704255098
 51
180.0
 73
     0
 72
     1
 10
-208.7301586028788
 20
-266.3703213133144
 11
-208.7301586028788
 21
-265.7884699066193
 72
     2
 10
-208.414441679802
 20
-265.7884699066193
 40
0.315716923076545
 50
180.0
 51
244.6259913216435
 73
     0
 97
        8
330
172
330
14E
330
FA
330
171
330
14F
330
150
330
F9
330
14D
 92
       16
 93
       12
 72
     1
 10
-210.9899903663337
 20
-267.636645907322
 11
-209.5141571053241
 21
-267.636645907322
 72
     2
 10
-209.5141571053241
 20
-267.3209289842453
 40
0.3157169230767067
 50
270.0
 51
360.0
 73
     1
 72
     1
 10
-209.1984401822475
 20
-267.3209289842453
 11
-209.1984401822475
 21
-265.7901580527137
 72
     2
 10
-209.5141571053241
 20
-265.7901580527137
 40
0.315716923076593
 50
0.0
 51
64.80558935146027
 73
     1
 72
     2
 10
-208.9915726577491
 20
-264.6793283066509
 40
0.9118975235576524
 50
115.1944106485139
 51
244.8055893514709
 73
     0
 72
     2
 10
-209.5141571053241
 20
-263.5684985605887
 40
0.3157169230761203
 50
295.1944106485397
 51
360.0
 73
     1
 72
     1
 10
-209.1984401822475
 20
-263.5684985605887
 11
-209.1984401822475
 21
-262.9644739415282
 72
     2
 10
-209.5141571053241
 20
-262.9644739415282
 40
0.315716923076593
 50
0.0
 51
90.0
 73
     1
 72
     1
 10
-209.5141571053241
 20
-262.648757018452
 11
-210.9899903663337
 21
-262.648757018452
 72
     2
 10
-210.9899903663337
 20
-262.9644739415282
 40
0.3157169230761951
 50
90.0
 51
180.0
 73
     1
 72
     1
 10
-211.3057072894094
 20
-262.9644739415282
 11
-211.3057072894094
 21
-267.3209289842453
 72
     2
 10
-210.9899903663337
 20
-267.3209289842453
 40
0.315716923075712
 50
180.0
 51
270.0
 73
     1
 97
       12
330
C6
330
157
330
C5
330
168
330
C4
330
167
330
158
330
159
330
C3
330
166
330
BE
330
169
 75
     1
 76
     0
 52
45.0
 41
0.1
 77
     0
 78
     1
 53
45.0
 43
0.0
 44
0.0
 45
-0.0707106781186548
 46
0.0707106781186548
 79
     0
 98
        1
 10
0.0
 20
0.0
  0
HATCH
  5
1A9
330
4A
100
AcDbEntity
  8
1
  6
Continuous
 62
     2
100
AcDbHatch
 10
0.0
 20
0.0
 30
0.0
210
0.0
220
0.0
230
1.0
  2
_USER
 70
     0
 71
     1
 91
        2
 92
        1
 93
       12
 72
     2
 10
-196.9087210390909
 20
-263.4631062247993
 40
1.526904761905882
 50
90.0
 51
270.0
 73
     1
 72
     1
 10
-196.9087210390909
 20
-264.9900109867046
 11
-193.7584013153099
 21
-264.9900109867046
 72
     1
 10
-193.7584013153099
 20
-264.9900109867046
 11
-193.7584013153099
 21
-264.2919973812621
 72
     1
 10
-193.7584013153099
 20
-264.2919973812621
 11
-195.0943291417376
 21
-264.2919973812621
 72
     1
 10
-195.0943291417376
 20
-264.2919973812621
 11
-195.0943291417376
 21
-263.8121130275204
 72
     1
 10
-195.0943291417376
 20
-263.8121130275204
 11
-193.7584013153099
 21
-263.8121130275204
 72
     1
 10
-193.7584013153099
 20
-263.8121130275204
 11
-193.7584013153099
 21
-263.1140994220781
 72
     1
 10
-193.7584013153099
 20
-263.1140994220781
 11
-195.0943291417376
 21
-263.1140994220781
 72
     1
 10
-195.0943291417376
 20
-263.1140994220781
 11
-195.0943291417376
 21
-262.6342150683364
 72
     1
 10
-195.0943291417376
 20
-262.6342150683364
 11
-193.7584013153099
 21
-262.6342150683364
 72
     1
 10
-193.7584013153099
 20
-262.6342150683364
 11
-193.7584013153099
 21
-261.9362014628934
 72
     1
 10
-193.7584013153099
 20
-261.9362014628934
 11
-196.9087210390909
 21
-261.9362014628934
 97
       12
330
B5
330
AF
330
D6
330
D5
330
D4
330
D3
330
B0
330
B1
330
B2
330
B3
330
155
330
B4
 92
       16
 93
        4
 72
     2
 10
-196.4927089925794
 20
-263.4631062247993
 40
0.7717997786796947
 50
141.8795802028417
 51
218.1204197971549
 73
     1
 72
     2
 10
-196.6924490289257
 20
-263.6198374029197
 40
0.5179085730134595
 50
218.1204197971492
 51
321.8795802028566
 73
     1
 72
     2
 10
-196.8921890652719
 20
-263.4631062247993
 40
0.7717997786796597
 50
321.879580202845
 51
398.1204197971583
 73
     1
 72
     2
 10
-196.6924490289257
 20
-263.3063750466788
 40
0.5179085730135266
 50
38.12041979714334
 51
141.8795802028508
 73
     1
 97
        4
330
162
330
161
330
15C
330
15B
 75
     1
 76
     0
 52
45.0
 41
0.1
 77
     0
 78
     1
 53
45.0
 43
0.0
 44
0.0
 45
-0.0707106781186548
 46
0.0707106781186548
 79
     0
 98
        1
 10
0.0
 20
0.0
  0
HATCH
  5
1AA
330
4A
100
AcDbEntity
  8
1
  6
Continuous
 62
     2
100
AcDbHatch
 10
0.0
 20
0.0
 30
0.0
210
0.0
220
0.0
230
1.0
  2
_USER
 70
     0
 71
     1
 91
        2
 92
        1
 93
       12
 72
     2
 10
-196.9087210390909
 20
-263.4631062247993
 40
1.526904761905882
 50
90.0
 51
270.0
 73
     1
 72
     1
 10
-196.9087210390909
 20
-264.9900109867046
 11
-193.7584013153099
 21
-264.9900109867046
 72
     1
 10
-193.7584013153099
 20
-264.9900109867046
 11
-193.7584013153099
 21
-264.2919973812621
 72
     1
 10
-193.7584013153099
 20
-264.2919973812621
 11
-195.0943291417376
 21
-264.2919973812621
 72
     1
 10
-195.0943291417376
 20
-264.2919973812621
 11
-195.0943291417376
 21
-263.8121130275204
 72
     1
 10
-195.0943291417376
 20
-263.8121130275204
 11
-193.7584013153099
 21
-263.8121130275204
 72
     1
 10
-193.7584013153099
 20
-263.8121130275204
 11
-193.7584013153099
 21
-263.1140994220781
 72
     1
 10
-193.7584013153099
 20
-263.1140994220781
 11
-195.0943291417376
 21
-263.1140994220781
 72
     1
 10
-195.0943291417376
 20
-263.1140994220781
 11
-195.0943291417376
 21
-262.6342150683364
 72
     1
 10
-195.0943291417376
 20
-262.6342150683364
 11
-193.7584013153099
 21
-262.6342150683364
 72
     1
 10
-193.7584013153099
 20
-262.6342150683364
 11
-193.7584013153099
 21
-261.9362014628934
 72
     1
 10
-193.7584013153099
 20
-261.9362014628934
 11
-196.9087210390909
 21
-261.9362014628934
 97
       12
330
B5
330
AF
330
D6
330
D5
330
D4
330
D3
330
B0
330
B1
330
B2
330
B3
330
155
330
B4
 92
       16
 93
        4
 72
     2
 10
-196.4927089925794
 20
-263.4631062247993
 40
0.7717997786796947
 50
141.8795802028417
 51
218.1204197971549
 73
     1
 72
     2
 10
-196.6924490289257
 20
-263.6198374029197
 40
0.5179085730134595
 50
218.1204197971492
 51
321.8795802028566
 73
     1
 72
     2
 10
-196.8921890652719
 20
-263.4631062247993
 40
0.7717997786796597
 50
321.879580202845
 51
398.1204197971583
 73
     1
 72
     2
 10
-196.6924490289257
 20
-263.3063750466788
 40
0.5179085730135266
 50
38.12041979714334
 51
141.8795802028508
 73
     1
 97
        4
330
162
330
161
330
15C
330
15B
 75
     1
 76
     0
 52
45.0
 41
0.1
 77
     0
 78
     1
 53
45.0
 43
0.0
 44
0.0
 45
-0.0707106781186548
 46
0.0707106781186548
 79
     0
 98
        1
 10
0.0
 20
0.0
  0
HATCH
  5
1AB
330
4A
100
AcDbEntity
  8
1
  6
Continuous
 62
     2
100
AcDbHatch
 10
0.0
 20
0.0
 30
0.0
210
0.0
220
0.0
230
1.0
  2
_USER
 70
     0
 71
     1
 91
        2
 92
        1
 93
        4
 72
     2
 10
-200.9343364015525
 20
-266.8222967009736
 40
1.458034083651465
 50
117.548148175663
 51
242.451851824338
 73
     1
 72
     2
 10
-200.6533965097192
 20
-266.2837216906703
 40
2.065479772208547
 50
242.4518518243399
 51
297.5481481756867
 73
     1
 72
     2
 10
-200.3724566178859
 20
-266.8222967009736
 40
1.458034083652028
 50
297.5481481757005
 51
422.4518518242985
 73
     1
 72
     2
 10
-200.6533965097192
 20
-267.3608717112764
 40
2.065479772208543
 50
62.451851824306
 51
117.5481481756674
 73
     1
 97
        4
330
160
330
15D
330
15F
330
15E
 92
       16
 93
        4
 72
     2
 10
-200.6533965097192
 20
-266.6655655228531
 40
0.5179085730133126
 50
38.12041979715392
 51
141.8795802028558
 73
     1
 72
     2
 10
-200.4536564733731
 20
-266.8222967009736
 40
0.7717997786795031
 50
141.879580202836
 51
218.1204197971674
 73
     1
 72
     2
 10
-200.6533965097192
 20
-266.9790278790936
 40
0.5179085730137402
 50
218.1204197971887
 51
321.8795802028015
 73
     1
 72
     2
 10
-200.8531365460656
 20
-266.8222967009736
 40
0.7717997786796724
 50
321.8795802028404
 51
398.1204197971563
 73
     1
 97
        4
330
143
330
144
330
145
330
142
 75
     1
 76
     0
 52
45.0
 41
0.1
 77
     0
 78
     1
 53
45.0
 43
0.0
 44
0.0
 45
-0.0707106781186548
 46
0.0707106781186548
 79
     0
 98
        1
 10
0.0
 20
0.0
  0
HATCH
  5
1AC
330
4A
100
AcDbEntity
  8
1
  6
Continuous
 62
     2
100
AcDbHatch
 10
0.0
 20
0.0
 30
0.0
210
0.0
220
0.0
230
1.0
  2
_USER
 70
     0
 71
     1
 91
        2
 92
        1
 93
        4
 72
     2
 10
-200.9343364015525
 20
-266.8222967009736
 40
1.458034083651465
 50
117.548148175663
 51
242.451851824338
 73
     1
 72
     2
 10
-200.6533965097192
 20
-266.2837216906703
 40
2.065479772208547
 50
242.4518518243399
 51
297.5481481756867
 73
     1
 72
     2
 10
-200.3724566178859
 20
-266.8222967009736
 40
1.458034083652028
 50
297.5481481757005
 51
422.4518518242985
 73
     1
 72
     2
 10
-200.6533965097192
 20
-267.3608717112764
 40
2.065479772208543
 50
62.451851824306
 51
117.5481481756674
 73
     1
 97
        4
330
160
330
15D
330
15F
330
15E
 92
       16
 93
        4
 72
     2
 10
-200.6533965097192
 20
-266.6655655228531
 40
0.5179085730133126
 50
38.12041979715392
 51
141.8795802028558
 73
     1
 72
     2
 10
-200.4536564733731
 20
-266.8222967009736
 40
0.7717997786795031
 50
141.879580202836
 51
218.1204197971674
 73
     1
 72
     2
 10
-200.6533965097192
 20
-266.9790278790936
 40
0.5179085730137402
 50
218.1204197971887
 51
321.8795802028015
 73
     1
 72
     2
 10
-200.8531365460656
 20
-266.8222967009736
 40
0.7717997786796724
 50
321.8795802028404
 51
398.1204197971563
 73
     1
 97
        4
330
143
330
144
330
145
330
142
 75
     1
 76
     0
 52
45.0
 41
0.1
 77
     0
 78
     1
 53
45.0
 43
0.0
 44
0.0
 45
-0.0707106781186548
 46
0.0707106781186548
 79
     0
 98
        1
 10
0.0
 20
0.0
  0
HATCH
  5
1AD
330
4A
100
AcDbEntity
  8
1
  6
Continuous
 62
     2
100
AcDbHatch
 10
0.0
 20
0.0
 30
0.0
210
0.0
220
0.0
230
1.0
  2
_USER
 70
     0
 71
     1
 91
        2
 92
        1
 93
        6
 72
     1
 10
-205.2092112561127
 20
-261.9362014628934
 11
-205.2092112561127
 21
-264.9900109867046
 72
     1
 10
-205.2092112561127
 20
-264.9900109867046
 11
-203.9687068458586
 21
-264.9900109867046
 72
     1
 10
-203.9687068458586
 20
-264.9900109867046
 11
-203.9687068458586
 21
-264.0469327455608
 72
     1
 10
-203.9687068458586
 20
-264.0469327455608
 11
-203.2099392580783
 21
-264.0469327455608
 72
     2
 10
-203.2099392580783
 20
-262.9915671042271
 40
1.055365641333708
 50
270.0
 51
450.0
 73
     1
 72
     1
 10
-203.2099392580783
 20
-261.9362014628934
 11
-205.2092112561127
 21
-261.9362014628934
 97
        6
330
16A
330
C7
330
BD
330
BC
330
C9
330
C8
 92
       16
 93
        4
 72
     1
 10
-203.6514117843167
 20
-262.5993073083335
 11
-203.9687068458586
 21
-262.5993073083335
 72
     1
 10
-203.9687068458586
 20
-262.5993073083335
 11
-203.9687068458586
 21
-263.3050349576757
 72
     1
 10
-203.9687068458586
 20
-263.3050349576757
 11
-203.6514117843167
 21
-263.3050349576757
 72
     2
 10
-203.6514117843167
 20
-262.9521711330046
 40
0.3528638246710898
 50
270.0
 51
450.0
 73
     1
 97
        4
330
CA
330
BB
330
CB
330
156
 75
     1
 76
     0
 52
45.0
 41
0.1
 77
     0
 78
     1
 53
45.0
 43
0.0
 44
0.0
 45
-0.0707106781186548
 46
0.0707106781186548
 79
     0
 98
        1
 10
0.0
 20
0.0
  0
HATCH
  5
1AE
330
4A
100
AcDbEntity
  8
1
  6
Continuous
 62
     2
100
AcDbHatch
 10
0.0
 20
0.0
 30
0.0
210
0.0
220
0.0
230
1.0
  2
_USER
 70
     0
 71
     1
 91
        2
 92
        1
 93
        6
 72
     1
 10
-205.2092112561127
 20
-261.9362014628934
 11
-205.2092112561127
 21
-264.9900109867046
 72
     1
 10
-205.2092112561127
 20
-264.9900109867046
 11
-203.9687068458586
 21
-264.9900109867046
 72
     1
 10
-203.9687068458586
 20
-264.9900109867046
 11
-203.9687068458586
 21
-264.0469327455608
 72
     1
 10
-203.9687068458586
 20
-264.0469327455608
 11
-203.2099392580783
 21
-264.0469327455608
 72
     2
 10
-203.2099392580783
 20
-262.9915671042271
 40
1.055365641333708
 50
270.0
 51
450.0
 73
     1
 72
     1
 10
-203.2099392580783
 20
-261.9362014628934
 11
-205.2092112561127
 21
-261.9362014628934
 97
        6
330
16A
330
C7
330
BD
330
BC
330
C9
330
C8
 92
       16
 93
        4
 72
     1
 10
-203.6514117843167
 20
-262.5993073083335
 11
-203.9687068458586
 21
-262.5993073083335
 72
     1
 10
-203.9687068458586
 20
-262.5993073083335
 11
-203.9687068458586
 21
-263.3050349576757
 72
     1
 10
-203.9687068458586
 20
-263.3050349576757
 11
-203.6514117843167
 21
-263.3050349576757
 72
     2
 10
-203.6514117843167
 20
-262.9521711330046
 40
0.3528638246710898
 50
270.0
 51
450.0
 73
     1
 97
        4
330
CA
330
BB
330
CB
330
156
 75
     1
 76
     0
 52
45.0
 41
0.1
 77
     0
 78
     1
 53
45.0
 43
0.0
 44
0.0
 45
-0.0707106781186548
 46
0.0707106781186548
 79
     0
 98
        1
 10
0.0
 20
0.0
  0
HATCH
  5
1AF
330
4A
100
AcDbEntity
  8
1
  6
Continuous
 62
     2
100
AcDbHatch
 10
0.0
 20
0.0
 30
0.0
210
0.0
220
0.0
230
1.0
  2
_USER
 70
     0
 71
     1
 91
        1
 92
        1
 93
       12
 72
     1
 10
-185.5949280616795
 20
-261.9362014628934
 11
-184.1922038439323
 21
-261.9362014628934
 72
     1
 10
-184.1922038439323
 20
-261.9362014628934
 11
-185.4947334746988
 21
-263.4091519929296
 72
     1
 10
-185.4947334746988
 20
-263.4091519929296
 11
-184.0967804277585
 21
-264.9900109867046
 72
     1
 10
-184.0967804277585
 20
-264.9900109867046
 11
-185.4995046455068
 21
-264.9900109867046
 72
     1
 10
-185.4995046455068
 20
-264.9900109867046
 11
-186.1960955835723
 21
-264.2022792014109
 72
     1
 10
-186.1960955835723
 20
-264.2022792014109
 11
-186.892686521638
 21
-264.9900109867046
 72
     1
 10
-186.892686521638
 20
-264.9900109867046
 11
-188.2954107393862
 21
-264.9900109867046
 72
     1
 10
-188.2954107393862
 20
-264.9900109867046
 11
-186.8974576924459
 21
-263.4091519929296
 72
     1
 10
-186.8974576924459
 20
-263.4091519929296
 11
-188.1999873232134
 21
-261.9362014628934
 72
     1
 10
-188.1999873232134
 20
-261.9362014628934
 11
-186.7972631054641
 21
-261.9362014628934
 72
     1
 10
-186.7972631054641
 20
-261.9362014628934
 11
-186.1960955835723
 21
-262.6160247844489
 72
     1
 10
-186.1960955835723
 20
-262.6160247844489
 11
-185.5949280616795
 21
-261.9362014628934
 97
       12
330
96
330
EF
330
EE
330
ED
330
EC
330
97
330
98
330
94
330
95
330
F2
330
F1
330
F0
 75
     1
 76
     0
 52
45.0
 41
0.1
 77
     0
 78
     1
 53
45.0
 43
0.0
 44
0.0
 45
-0.0707106781186548
 46
0.0707106781186548
 79
     0
 98
        1
 10
0.0
 20
0.0
  0
HATCH
  5
1B0
330
4A
100
AcDbEntity
  8
1
  6
Continuous
 62
     2
100
AcDbHatch
 10
0.0
 20
0.0
 30
0.0
210
0.0
220
0.0
230
1.0
  2
_USER
 70
     0
 71
     1
 91
        1
 92
        1
 93
       12
 72
     1
 10
-185.5949280616795
 20
-261.9362014628934
 11
-184.1922038439323
 21
-261.9362014628934
 72
     1
 10
-184.1922038439323
 20
-261.9362014628934
 11
-185.4947334746988
 21
-263.4091519929296
 72
     1
 10
-185.4947334746988
 20
-263.4091519929296
 11
-184.0967804277585
 21
-264.9900109867046
 72
     1
 10
-184.0967804277585
 20
-264.9900109867046
 11
-185.4995046455068
 21
-264.9900109867046
 72
     1
 10
-185.4995046455068
 20
-264.9900109867046
 11
-186.1960955835723
 21
-264.2022792014109
 72
     1
 10
-186.1960955835723
 20
-264.2022792014109
 11
-186.892686521638
 21
-264.9900109867046
 72
     1
 10
-186.892686521638
 20
-264.9900109867046
 11
-188.2954107393862
 21
-264.9900109867046
 72
     1
 10
-188.2954107393862
 20
-264.9900109867046
 11
-186.8974576924459
 21
-263.4091519929296
 72
     1
 10
-186.8974576924459
 20
-263.4091519929296
 11
-188.1999873232134
 21
-261.9362014628934
 72
     1
 10
-188.1999873232134
 20
-261.9362014628934
 11
-186.7972631054641
 21
-261.9362014628934
 72
     1
 10
-186.7972631054641
 20
-261.9362014628934
 11
-186.1960955835723
 21
-262.6160247844489
 72
     1
 10
-186.1960955835723
 20
-262.6160247844489
 11
-185.5949280616795
 21
-261.9362014628934
 97
       12
330
96
330
EF
330
EE
330
ED
330
EC
330
97
330
98
330
94
330
95
330
F2
330
F1
330
F0
 75
     1
 76
     0
 52
45.0
 41
0.1
 77
     0
 78
     1
 53
45.0
 43
0.0
 44
0.0
 45
-0.0707106781186548
 46
0.0707106781186548
 79
     0
 98
        1
 10
0.0
 20
0.0
  0
HATCH
  5
1B1
330
4A
100
AcDbEntity
  8
1
  6
Continuous
 62
     2
100
AcDbHatch
 10
0.0
 20
0.0
 30
0.0
210
0.0
220
0.0
230
1.0
  2
_USER
 70
     0
 71
     1
 91
        1
 92
        1
 93
        4
 72
     1
 10
-188.4146900096031
 20
-261.9362014628934
 11
-188.4146900096031
 21
-264.9900109867046
 72
     1
 10
-188.4146900096031
 20
-264.9900109867046
 11
-189.655194419856
 21
-264.9900109867046
 72
     1
 10
-189.655194419856
 20
-264.9900109867046
 11
-189.655194419856
 21
-261.9362014628934
 72
     1
 10
-189.655194419856
 20
-261.9362014628934
 11
-188.4146900096031
 21
-261.9362014628934
 97
        4
330
EA
330
99
330
E9
330
EB
 75
     1
 76
     0
 52
45.0
 41
0.1
 77
     0
 78
     1
 53
45.0
 43
0.0
 44
0.0
 45
-0.0707106781186548
 46
0.0707106781186548
 79
     0
 98
        1
 10
0.0
 20
0.0
  0
HATCH
  5
1B2
330
4A
100
AcDbEntity
  8
1
  6
Continuous
 62
     2
100
AcDbHatch
 10
0.0
 20
0.0
 30
0.0
210
0.0
220
0.0
230
1.0
  2
_USER
 70
     0
 71
     1
 91
        1
 92
        1
 93
        4
 72
     1
 10
-188.4146900096031
 20
-261.9362014628934
 11
-188.4146900096031
 21
-264.9900109867046
 72
     1
 10
-188.4146900096031
 20
-264.9900109867046
 11
-189.655194419856
 21
-264.9900109867046
 72
     1
 10
-189.655194419856
 20
-264.9900109867046
 11
-189.655194419856
 21
-261.9362014628934
 72
     1
 10
-189.655194419856
 20
-261.9362014628934
 11
-188.4146900096031
 21
-261.9362014628934
 97
        4
330
EA
330
99
330
E9
330
EB
 75
     1
 76
     0
 52
45.0
 41
0.1
 77
     0
 78
     1
 53
45.0
 43
0.0
 44
0.0
 45
-0.0707106781186548
 46
0.0707106781186548
 79
     0
 98
        1
 10
0.0
 20
0.0
  0
HATCH
  5
1B3
330
4A
100
AcDbEntity
  8
1
  6
Continuous
 62
     2
100
AcDbHatch
 10
0.0
 20
0.0
 30
0.0
210
0.0
220
0.0
230
1.0
  2
_USER
 70
     0
 71
     1
 91
        2
 92
        1
 93
        8
 72
     1
 10
-188.8051340131351
 20
-268.3492014628789
 11
-190.045638423389
 21
-268.3492014628789
 72
     1
 10
-190.045638423389
 20
-268.3492014628789
 11
-190.2571184768648
 21
-267.808240918661
 72
     1
 10
-190.2571184768648
 20
-267.808240918661
 11
-191.3895600535386
 21
-267.808240918661
 72
     1
 10
-191.3895600535386
 20
-267.808240918661
 11
-191.6010401070144
 21
-268.3492014628789
 72
     1
 10
-191.6010401070144
 20
-268.3492014628789
 11
-192.8415445172674
 21
-268.3492014628789
 72
     1
 10
-192.8415445172674
 20
-268.3492014628789
 11
-191.4435914703281
 21
-265.2953919390678
 72
     1
 10
-191.4435914703281
 20
-265.2953919390678
 11
-190.2030870600754
 21
-265.2953919390678
 72
     1
 10
-190.2030870600754
 20
-265.2953919390678
 11
-188.8051340131351
 21
-268.3492014628789
 97
        8
330
E5
330
9F
330
E4
330
E7
330
9C
330
E6
330
9D
330
9E
 92
       16
 93
        3
 72
     1
 10
-191.1235045023936
 20
-267.1276776533544
 11
-190.5231740280111
 21
-267.1276776533544
 72
     1
 10
-190.5231740280111
 20
-267.1276776533544
 11
-190.8233392652012
 21
-266.3598626873677
 72
     1
 10
-190.8233392652012
 20
-266.3598626873677
 11
-191.1235045023936
 21
-267.1276776533544
 97
        3
330
9B
330
9A
330
E8
 75
     1
 76
     0
 52
45.0
 41
0.1
 77
     0
 78
     1
 53
45.0
 43
0.0
 44
0.0
 45
-0.0707106781186548
 46
0.0707106781186548
 79
     0
 98
        1
 10
0.0
 20
0.0
  0
HATCH
  5
1B4
330
4A
100
AcDbEntity
  8
1
  6
Continuous
 62
     2
100
AcDbHatch
 10
0.0
 20
0.0
 30
0.0
210
0.0
220
0.0
230
1.0
  2
_USER
 70
     0
 71
     1
 91
        2
 92
        1
 93
        8
 72
     1
 10
-188.8051340131351
 20
-268.3492014628789
 11
-190.045638423389
 21
-268.3492014628789
 72
     1
 10
-190.045638423389
 20
-268.3492014628789
 11
-190.2571184768648
 21
-267.808240918661
 72
     1
 10
-190.2571184768648
 20
-267.808240918661
 11
-191.3895600535386
 21
-267.808240918661
 72
     1
 10
-191.3895600535386
 20
-267.808240918661
 11
-191.6010401070144
 21
-268.3492014628789
 72
     1
 10
-191.6010401070144
 20
-268.3492014628789
 11
-192.8415445172674
 21
-268.3492014628789
 72
     1
 10
-192.8415445172674
 20
-268.3492014628789
 11
-191.4435914703281
 21
-265.2953919390678
 72
     1
 10
-191.4435914703281
 20
-265.2953919390678
 11
-190.2030870600754
 21
-265.2953919390678
 72
     1
 10
-190.2030870600754
 20
-265.2953919390678
 11
-188.8051340131351
 21
-268.3492014628789
 97
        8
330
E5
330
9F
330
E4
330
E7
330
9C
330
E6
330
9D
330
9E
 92
       16
 93
        3
 72
     1
 10
-191.1235045023936
 20
-267.1276776533544
 11
-190.5231740280111
 21
-267.1276776533544
 72
     1
 10
-190.5231740280111
 20
-267.1276776533544
 11
-190.8233392652012
 21
-266.3598626873677
 72
     1
 10
-190.8233392652012
 20
-266.3598626873677
 11
-191.1235045023936
 21
-267.1276776533544
 97
        3
330
9B
330
9A
330
E8
 75
     1
 76
     0
 52
45.0
 41
0.1
 77
     0
 78
     1
 53
45.0
 43
0.0
 44
0.0
 45
-0.0707106781186548
 46
0.0707106781186548
 79
     0
 98
        1
 10
0.0
 20
0.0
  0
HATCH
  5
1B5
330
4A
100
AcDbEntity
  8
1
  6
Continuous
 62
     2
100
AcDbHatch
 10
0.0
 20
0.0
 30
0.0
210
0.0
220
0.0
230
1.0
  2
_USER
 70
     0
 71
     1
 91
        1
 92
        1
 93
        8
 72
     1
 10
-194.9990566564496
 20
-265.2953919390678
 11
-194.9990566564496
 21
-266.0806572451914
 72
     1
 10
-194.9990566564496
 20
-266.0806572451914
 11
-194.187957618975
 21
-266.0806572451914
 72
     1
 10
-194.187957618975
 20
-266.0806572451914
 11
-194.187957618975
 21
-268.3492014628789
 72
     1
 10
-194.187957618975
 20
-268.3492014628789
 11
-192.9951649168085
 21
-268.3492014628789
 72
     1
 10
-192.9951649168085
 20
-268.3492014628789
 11
-192.9951649168085
 21
-266.0806572451914
 72
     1
 10
-192.9951649168085
 20
-266.0806572451914
 11
-192.184065879336
 21
-266.0806572451914
 72
     1
 10
-192.184065879336
 20
-266.0806572451914
 11
-192.184065879336
 21
-265.2953919390678
 72
     1
 10
-192.184065879336
 20
-265.2953919390678
 11
-194.9990566564496
 21
-265.2953919390678
 97
        8
330
E1
330
E0
330
DF
330
A0
330
A1
330
E3
330
A2
330
E2
 75
     1
 76
     0
 52
45.0
 41
0.1
 77
     0
 78
     1
 53
45.0
 43
0.0
 44
0.0
 45
-0.0707106781186548
 46
0.0707106781186548
 79
     0
 98
        1
 10
0.0
 20
0.0
  0
HATCH
  5
1B6
330
4A
100
AcDbEntity
  8
1
  6
Continuous
 62
     2
100
AcDbHatch
 10
0.0
 20
0.0
 30
0.0
210
0.0
220
0.0
230
1.0
  2
_USER
 70
     0
 71
     1
 91
        1
 92
        1
 93
        8
 72
     1
 10
-194.9990566564496
 20
-265.2953919390678
 11
-194.9990566564496
 21
-266.0806572451914
 72
     1
 10
-194.9990566564496
 20
-266.0806572451914
 11
-194.187957618975
 21
-266.0806572451914
 72
     1
 10
-194.187957618975
 20
-266.0806572451914
 11
-194.187957618975
 21
-268.3492014628789
 72
     1
 10
-194.187957618975
 20
-268.3492014628789
 11
-192.9951649168085
 21
-268.3492014628789
 72
     1
 10
-192.9951649168085
 20
-268.3492014628789
 11
-192.9951649168085
 21
-266.0806572451914
 72
     1
 10
-192.9951649168085
 20
-266.0806572451914
 11
-192.184065879336
 21
-266.0806572451914
 72
     1
 10
-192.184065879336
 20
-266.0806572451914
 11
-192.184065879336
 21
-265.2953919390678
 72
     1
 10
-192.184065879336
 20
-265.2953919390678
 11
-194.9990566564496
 21
-265.2953919390678
 97
        8
330
E1
330
E0
330
DF
330
A0
330
A1
330
E3
330
A2
330
E2
 75
     1
 76
     0
 52
45.0
 41
0.1
 77
     0
 78
     1
 53
45.0
 43
0.0
 44
0.0
 45
-0.0707106781186548
 46
0.0707106781186548
 79
     0
 98
        1
 10
0.0
 20
0.0
  0
HATCH
  5
1B7
330
4A
100
AcDbEntity
  8
1
  6
Continuous
 62
     2
100
AcDbHatch
 10
0.0
 20
0.0
 30
0.0
210
0.0
220
0.0
230
1.0
  2
_USER
 70
     0
 71
     1
 91
        1
 92
        1
 93
       10
 72
     1
 10
-192.3270500727105
 20
-261.9362014628934
 11
-193.519842774877
 21
-261.9362014628934
 72
     1
 10
-193.519842774877
 20
-261.9362014628934
 11
-193.519842774877
 21
-264.9900109867046
 72
     1
 10
-193.519842774877
 20
-264.9900109867046
 11
-192.3270500727105
 21
-264.9900109867046
 72
     1
 10
-192.3270500727105
 20
-264.9900109867046
 11
-192.3270500727105
 21
-263.6812354764999
 72
     1
 10
-192.3270500727105
 20
-263.6812354764999
 11
-191.0865456624565
 21
-264.9900109867046
 72
     1
 10
-191.0865456624565
 20
-264.9900109867046
 11
-189.8937529602899
 21
-264.9900109867046
 72
     1
 10
-189.8937529602899
 20
-264.9900109867046
 11
-189.8937529602899
 21
-261.9362014628934
 72
     1
 10
-189.8937529602899
 20
-261.9362014628934
 11
-191.0865456624565
 21
-261.9362014628934
 72
     1
 10
-191.0865456624565
 20
-261.9362014628934
 11
-191.0865456624565
 21
-263.2449769730986
 72
     1
 10
-191.0865456624565
 20
-263.2449769730986
 11
-192.3270500727105
 21
-261.9362014628934
 97
       10
330
DB
330
A5
330
A6
330
A7
330
A8
330
DE
330
A3
330
DD
330
DC
330
A4
 75
     1
 76
     0
 52
45.0
 41
0.1
 77
     0
 78
     1
 53
45.0
 43
0.0
 44
0.0
 45
-0.0707106781186548
 46
0.0707106781186548
 79
     0
 98
        1
 10
0.0
 20
0.0
  0
HATCH
  5
1B8
330
4A
100
AcDbEntity
  8
1
  6
Continuous
 62
     2
100
AcDbHatch
 10
0.0
 20
0.0
 30
0.0
210
0.0
220
0.0
230
1.0
  2
_USER
 70
     0
 71
     1
 91
        1
 92
        1
 93
       10
 72
     1
 10
-192.3270500727105
 20
-261.9362014628934
 11
-193.519842774877
 21
-261.9362014628934
 72
     1
 10
-193.519842774877
 20
-261.9362014628934
 11
-193.519842774877
 21
-264.9900109867046
 72
     1
 10
-193.519842774877
 20
-264.9900109867046
 11
-192.3270500727105
 21
-264.9900109867046
 72
     1
 10
-192.3270500727105
 20
-264.9900109867046
 11
-192.3270500727105
 21
-263.6812354764999
 72
     1
 10
-192.3270500727105
 20
-263.6812354764999
 11
-191.0865456624565
 21
-264.9900109867046
 72
     1
 10
-191.0865456624565
 20
-264.9900109867046
 11
-189.8937529602899
 21
-264.9900109867046
 72
     1
 10
-189.8937529602899
 20
-264.9900109867046
 11
-189.8937529602899
 21
-261.9362014628934
 72
     1
 10
-189.8937529602899
 20
-261.9362014628934
 11
-191.0865456624565
 21
-261.9362014628934
 72
     1
 10
-191.0865456624565
 20
-261.9362014628934
 11
-191.0865456624565
 21
-263.2449769730986
 72
     1
 10
-191.0865456624565
 20
-263.2449769730986
 11
-192.3270500727105
 21
-261.9362014628934
 97
       10
330
DB
330
A5
330
A6
330
A7
330
A8
330
DE
330
A3
330
DD
330
DC
330
A4
 75
     1
 76
     0
 52
45.0
 41
0.1
 77
     0
 78
     1
 53
45.0
 43
0.0
 44
0.0
 45
-0.0707106781186548
 46
0.0707106781186548
 79
     0
 98
        1
 10
0.0
 20
0.0
  0
HATCH
  5
1B9
330
4A
100
AcDbEntity
  8
1
  6
Continuous
 62
     2
100
AcDbHatch
 10
0.0
 20
0.0
 30
0.0
210
0.0
220
0.0
230
1.0
  2
_USER
 70
     0
 71
     1
 91
        1
 92
        1
 93
       10
 72
     1
 10
-197.5754888931291
 20
-265.2953919390678
 11
-198.7682815952967
 21
-265.2953919390678
 72
     1
 10
-198.7682815952967
 20
-265.2953919390678
 11
-198.7682815952967
 21
-268.3492014628789
 72
     1
 10
-198.7682815952967
 20
-268.3492014628789
 11
-197.5754888931291
 21
-268.3492014628789
 72
     1
 10
-197.5754888931291
 20
-268.3492014628789
 11
-197.5754888931291
 21
-267.0404259526743
 72
     1
 10
-197.5754888931291
 20
-267.0404259526743
 11
-196.3349844828762
 21
-268.3492014628789
 72
     1
 10
-196.3349844828762
 20
-268.3492014628789
 11
-195.1421917807098
 21
-268.3492014628789
 72
     1
 10
-195.1421917807098
 20
-268.3492014628789
 11
-195.1421917807098
 21
-265.2953919390678
 72
     1
 10
-195.1421917807098
 20
-265.2953919390678
 11
-196.3349844828762
 21
-265.2953919390678
 72
     1
 10
-196.3349844828762
 20
-265.2953919390678
 11
-196.3349844828762
 21
-266.6041674492729
 72
     1
 10
-196.3349844828762
 20
-266.6041674492729
 11
-197.5754888931291
 21
-265.2953919390678
 97
       10
330
AA
330
AB
330
AC
330
D8
330
AD
330
AE
330
D7
330
DA
330
D9
330
A9
 75
     1
 76
     0
 52
45.0
 41
0.1
 77
     0
 78
     1
 53
45.0
 43
0.0
 44
0.0
 45
-0.0707106781186548
 46
0.0707106781186548
 79
     0
 98
        1
 10
0.0
 20
0.0
  0
HATCH
  5
1BA
330
4A
100
AcDbEntity
  8
1
  6
Continuous
 62
     2
100
AcDbHatch
 10
0.0
 20
0.0
 30
0.0
210
0.0
220
0.0
230
1.0
  2
_USER
 70
     0
 71
     1
 91
        1
 92
        1
 93
       10
 72
     1
 10
-197.5754888931291
 20
-265.2953919390678
 11
-198.7682815952967
 21
-265.2953919390678
 72
     1
 10
-198.7682815952967
 20
-265.2953919390678
 11
-198.7682815952967
 21
-268.3492014628789
 72
     1
 10
-198.7682815952967
 20
-268.3492014628789
 11
-197.5754888931291
 21
-268.3492014628789
 72
     1
 10
-197.5754888931291
 20
-268.3492014628789
 11
-197.5754888931291
 21
-267.0404259526743
 72
     1
 10
-197.5754888931291
 20
-267.0404259526743
 11
-196.3349844828762
 21
-268.3492014628789
 72
     1
 10
-196.3349844828762
 20
-268.3492014628789
 11
-195.1421917807098
 21
-268.3492014628789
 72
     1
 10
-195.1421917807098
 20
-268.3492014628789
 11
-195.1421917807098
 21
-265.2953919390678
 72
     1
 10
-195.1421917807098
 20
-265.2953919390678
 11
-196.3349844828762
 21
-265.2953919390678
 72
     1
 10
-196.3349844828762
 20
-265.2953919390678
 11
-196.3349844828762
 21
-266.6041674492729
 72
     1
 10
-196.3349844828762
 20
-266.6041674492729
 11
-197.5754888931291
 21
-265.2953919390678
 97
       10
330
AA
330
AB
330
AC
330
D8
330
AD
330
AE
330
D7
330
DA
330
D9
330
A9
 75
     1
 76
     0
 52
45.0
 41
0.1
 77
     0
 78
     1
 53
45.0
 43
0.0
 44
0.0
 45
-0.0707106781186548
 46
0.0707106781186548
 79
     0
 98
        1
 10
0.0
 20
0.0
  0
HATCH
  5
1BB
330
4A
100
AcDbEntity
  8
1
  6
Continuous
 62
     2
100
AcDbHatch
 10
0.0
 20
0.0
 30
0.0
210
0.0
220
0.0
230
1.0
  2
_USER
 70
     0
 71
     1
 91
        1
 92
        1
 93
       12
 72
     1
 10
-198.5772838320645
 20
-261.9362014628934
 11
-198.5772838320645
 21
-264.9900109867046
 72
     1
 10
-198.5772838320645
 20
-264.9900109867046
 11
-199.7700765342309
 21
-264.9900109867046
 72
     1
 10
-199.7700765342309
 20
-264.9900109867046
 11
-199.7700765342309
 21
-263.8557388778607
 72
     1
 10
-199.7700765342309
 20
-263.8557388778607
 11
-200.8197341121384
 21
-263.8557388778607
 72
     1
 10
-200.8197341121384
 20
-263.8557388778607
 11
-200.8197341121384
 21
-264.9900109867046
 72
     1
 10
-200.8197341121384
 20
-264.9900109867046
 11
-202.012526814305
 21
-264.9900109867046
 72
     1
 10
-202.012526814305
 20
-264.9900109867046
 11
-202.012526814305
 21
-261.9362014628934
 72
     1
 10
-202.012526814305
 20
-261.9362014628934
 11
-200.8197341121384
 21
-261.9362014628934
 72
     1
 10
-200.8197341121384
 20
-261.9362014628934
 11
-200.8197341121384
 21
-263.005034796228
 72
     1
 10
-200.8197341121384
 20
-263.005034796228
 11
-199.7700765342309
 21
-263.005034796228
 72
     1
 10
-199.7700765342309
 20
-263.005034796228
 11
-199.7700765342309
 21
-261.9362014628934
 72
     1
 10
-199.7700765342309
 20
-261.9362014628934
 11
-198.5772838320645
 21
-261.9362014628934
 97
       12
330
D2
330
D1
330
D0
330
B8
330
B9
330
CF
330
BA
330
CE
330
CD
330
CC
330
B6
330
B7
 75
     1
 76
     0
 52
45.0
 41
0.1
 77
     0
 78
     1
 53
45.0
 43
0.0
 44
0.0
 45
-0.0707106781186548
 46
0.0707106781186548
 79
     0
 98
        1
 10
0.0
 20
0.0
  0
HATCH
  5
1BC
330
4A
100
AcDbEntity
  8
1
  6
Continuous
 62
     2
100
AcDbHatch
 10
0.0
 20
0.0
 30
0.0
210
0.0
220
0.0
230
1.0
  2
_USER
 70
     0
 71
     1
 91
        1
 92
        1
 93
       12
 72
     1
 10
-198.5772838320645
 20
-261.9362014628934
 11
-198.5772838320645
 21
-264.9900109867046
 72
     1
 10
-198.5772838320645
 20
-264.9900109867046
 11
-199.7700765342309
 21
-264.9900109867046
 72
     1
 10
-199.7700765342309
 20
-264.9900109867046
 11
-199.7700765342309
 21
-263.8557388778607
 72
     1
 10
-199.7700765342309
 20
-263.8557388778607
 11
-200.8197341121384
 21
-263.8557388778607
 72
     1
 10
-200.8197341121384
 20
-263.8557388778607
 11
-200.8197341121384
 21
-264.9900109867046
 72
     1
 10
-200.8197341121384
 20
-264.9900109867046
 11
-202.012526814305
 21
-264.9900109867046
 72
     1
 10
-202.012526814305
 20
-264.9900109867046
 11
-202.012526814305
 21
-261.9362014628934
 72
     1
 10
-202.012526814305
 20
-261.9362014628934
 11
-200.8197341121384
 21
-261.9362014628934
 72
     1
 10
-200.8197341121384
 20
-261.9362014628934
 11
-200.8197341121384
 21
-263.005034796228
 72
     1
 10
-200.8197341121384
 20
-263.005034796228
 11
-199.7700765342309
 21
-263.005034796228
 72
     1
 10
-199.7700765342309
 20
-263.005034796228
 11
-199.7700765342309
 21
-261.9362014628934
 72
     1
 10
-199.7700765342309
 20
-261.9362014628934
 11
-198.5772838320645
 21
-261.9362014628934
 97
       12
330
D2
330
D1
330
D0
330
B8
330
B9
330
CF
330
BA
330
CE
330
CD
330
CC
330
B6
330
B7
 75
     1
 76
     0
 52
45.0
 41
0.1
 77
     0
 78
     1
 53
45.0
 43
0.0
 44
0.0
 45
-0.0707106781186548
 46
0.0707106781186548
 79
     0
 98
        1
 10
0.0
 20
0.0
  0
ENDBLK
  5
4C
330
4A
100
AcDbEntity
  8
0
100
AcDbBlockEnd
  0
BLOCK
  5
50
330
4D
100
AcDbEntity
  8
0
100
AcDbBlockBegin
  2
A4I_CS
 70
     0
 10
-86.69998001827561
 20
-280.6427014628953
 30
0.0
  3
A4I_CS
  1

  0
INSERT
  5
4E
330
4D
100
AcDbEntity
  8
1
100
AcDbBlockReference
  2
_punkt
 10
-86.69998001827561
 20
-275.6427014628952
 30
0.0
  0
INSERT
  5
4F
330
4D
100
AcDbEntity
  8
1
100
AcDbBlockReference
  2
_rahmen
 10
-86.69998001827561
 20
-280.6427014628953
 30
0.0
  0
ENDBLK
  5
51
330
4D
100
AcDbEntity
  8
0
100
AcDbBlockEnd
  0
BLOCK
  5
53
330
52
100
AcDbEntity
  8
0
100
AcDbBlockBegin
  2
0822466_PATG_3_30-select__1
 70
     0
 10
-82.92043459449113
 20
-114.6374030401964
 30
0.0
  3
0822466_PATG_3_30-select__1
  1

  0
LINE
  5
1BD
330
52
100
AcDbEntity
  8
0
  6
Continuous
 62
     7
100
AcDbLine
 10
-55.54346238145222
 20
-112.2770442916099
 30
0.0
 11
-54.11808931442887
 21
-112.6885140535807
 31
0.0
  0
LINE
  5
1BE
330
52
100
AcDbEntity
  8
0
  6
Continuous
 62
     7
100
AcDbLine
 10
-82.23134122849498
 20
-100.3409188985659
 30
0.0
 11
-82.15791153166468
 21
-100.9986230281087
 31
0.0
  0
LINE
  5
1BF
330
52
100
AcDbEntity
  8
0
  6
Continuous
 62
     2
100
AcDbLine
 10
-56.25057911496182
 20
-107.8409188985659
 30
0.0
 11
-82.23134122849498
 21
-100.3409188985659
 31
0.0
  0
LINE
  5
1C0
330
52
100
AcDbEntity
  8
0
  6
Continuous
 62
     7
100
AcDbLine
 10
-56.00227161837282
 20
-113.7998384074694
 30
0.0
 11
-55.60507649508251
 21
-110.8883477024554
 31
0.0
  0
LINE
  5
1C1
330
52
100
AcDbEntity
  8
0
  6
Continuous
 62
     7
100
AcDbLine
 10
-55.73664201614329
 20
-113.6930755513645
 30
0.0
 11
-55.39406157338836
 21
-111.181917391772
 31
0.0
  0
LINE
  5
1C2
330
52
100
AcDbEntity
  8
0
  6
Continuous
 62
     7
100
AcDbLine
 10
-56.25057911496182
 20
-107.8409188985659
 30
0.0
 11
-56.17714941813152
 21
-108.4986230281087
 31
0.0
  0
LINE
  5
1C3
330
52
100
AcDbEntity
  8
0
  6
Continuous
 62
     7
100
AcDbLine
 10
-56.50559119577693
 20
-110.6283915000278
 30
0.0
 11
-55.60507649508251
 21
-110.8883477024554
 31
0.0
  0
LINE
  5
1C4
330
52
100
AcDbEntity
  8
0
  6
Continuous
 62
     7
100
AcDbLine
 10
-56.20597310318254
 20
-109.3397146557439
 30
0.0
 11
-54.4141450875152
 21
-109.8569708493373
 31
0.0
  0
LINE
  5
1C5
330
52
100
AcDbEntity
  8
0
  6
Continuous
 62
     2
100
AcDbLine
 10
-54.24817313615415
 20
-104.7795059021452
 30
0.0
 11
-80.22893524968728
 21
-97.27950590214513
 31
0.0
  0
LINE
  5
1C6
330
52
100
AcDbEntity
  8
0
  6
Continuous
 62
     2
100
AcDbLine
 10
-55.77104844644354
 20
-106.0983546076519
 30
0.0
 11
-81.75181055997669
 21
-98.59835460765187
 31
0.0
  0
LINE
  5
1C7
330
52
100
AcDbEntity
  8
0
  6
Continuous
 62
     2
100
AcDbLine
 10
-54.28257956645439
 20
-112.433820531245
 30
0.0
 11
-55.51626528766798
 21
-112.0776861396259
 31
0.0
  0
LINE
  5
1C8
330
52
100
AcDbEntity
  8
0
  6
Continuous
 62
     2
100
AcDbLine
 10
-56.00227161837282
 20
-113.7998384074694
 30
0.0
 11
-56.39871270406067
 21
-113.6853957236996
 31
0.0
  0
LINE
  5
1C9
330
52
100
AcDbEntity
  8
0
  6
Continuous
 62
     7
100
AcDbLine
 10
-56.34489242514903
 20
-114.6169821166906
 30
0.0
 11
-82.32565453868216
 21
-107.1169821166906
 31
0.0
  0
LINE
  5
1CA
330
52
100
AcDbEntity
  8
0
  6
Continuous
 62
     7
100
AcDbLine
 10
-56.17714941813152
 20
-108.4986230281087
 30
0.0
 11
-82.15791153166468
 21
-100.9986230281087
 31
0.0
  0
LINE
  5
1CB
330
52
100
AcDbEntity
  8
0
  6
Continuous
 62
     7
100
AcDbLine
 10
-80.03972718200018
 20
-97.26712888485093
 30
0.0
 11
-54.05896506846705
 21
-104.7671288848509
 31
0.0
  0
LINE
  5
1CC
330
52
100
AcDbEntity
  8
0
  6
Continuous
 62
     7
100
AcDbLine
 10
-54.01694996422491
 20
-112.080499420294
 30
0.0
 11
-54.4141450875152
 21
-109.8569708493373
 31
0.0
  0
LINE
  5
1CD
330
52
100
AcDbEntity
  8
0
  6
Continuous
 62
     7
100
AcDbLine
 10
-53.76864246763583
 20
-105.6914987113978
 30
0.0
 11
-53.84207216446613
 21
-106.4763868066353
 31
0.0
  0
LINE
  5
1CE
330
52
100
AcDbEntity
  8
0
  6
Continuous
 62
     7
100
AcDbLine
 10
-54.4141450875152
 20
-109.8569708493373
 30
0.0
 11
-55.60507649508251
 21
-110.8883477024554
 31
0.0
  0
LINE
  5
1CF
330
52
100
AcDbEntity
  8
0
  6
Continuous
 62
     7
100
AcDbLine
 10
-54.62516000920935
 20
-110.5160291041834
 30
0.0
 11
-55.39406157338836
 21
-111.181917391772
 31
0.0
  0
LINE
  5
1D0
330
52
100
AcDbEntity
  8
0
  6
Continuous
 62
     7
100
AcDbLine
 10
-53.97249299708226
 20
-107.0496177887914
 30
0.0
 11
-56.04672858551542
 21
-108.8459585018083
 31
0.0
  0
LINE
  5
1D1
330
52
100
AcDbEntity
  8
0
  6
Continuous
 62
     2
100
AcDbLine
 10
-53.79234516565276
 20
-111.9504147780943
 30
0.0
 11
-54.05366266681415
 21
-111.8749789132746
 31
0.0
  0
LINE
  5
1D2
330
52
100
AcDbEntity
  8
0
  6
Continuous
 62
     7
100
AcDbLine
 10
-54.28257956645439
 20
-112.433820531245
 30
0.0
 11
-54.62516000920935
 21
-110.5160291041834
 31
0.0
  0
LINE
  5
1D3
330
52
100
AcDbEntity
  8
0
  6
Continuous
 62
     2
100
AcDbLine
 10
-56.4553773715741
 20
-114.5216908491278
 30
0.0
 11
-82.43613948510725
 21
-107.0216908491278
 31
0.0
  0
SPLINE
  5
1D4
330
52
100
AcDbEntity
  8
0
  6
Continuous
 62
     7
100
AcDbSpline
210
0.0
220
0.0
230
1.0
 70
     8
 71
     3
 72
     9
 73
     5
 74
     3
 42
0.000000001
 43
0.0000000001
 44
0.00000001
 40
0.0
 40
0.0
 40
0.0
 40
0.0
 40
0.0916989934248025
 40
0.192106954552551
 40
0.192106954552551
 40
0.192106954552551
 40
0.192106954552551
 10
-80.03972718200018
 20
-97.26712888485093
 30
0.0
 10
-80.07026560369648
 20
-97.261627068714
 30
0.0
 10
-80.13424278626525
 20
-97.25010092970064
 30
0.0
 10
-80.1964313450363
 20
-97.26941241589911
 30
0.0
 10
-80.22893524968728
 20
-97.27950590214513
 30
0.0
 11
-80.03972718200018
 21
-97.26712888485093
 31
0.0
 11
-80.13093491600269
 21
-97.25764969985748
 31
0.0
 11
-80.22893524968728
 21
-97.27950590214513
 31
0.0
  0
SPLINE
  5
1D5
330
52
100
AcDbEntity
  8
0
  6
Continuous
 62
     7
100
AcDbSpline
210
0.0
220
0.0
230
1.0
 70
     8
 71
     3
 72
    13
 73
     9
 74
     7
 42
0.000000001
 43
0.0000000001
 44
0.00000001
 40
0.0
 40
0.0
 40
0.0
 40
0.0
 40
0.2775098045481486
 40
0.5863295795412311
 40
0.9126192966497717
 40
1.240789184103404
 40
1.555070268785832
 40
1.841058107272455
 40
1.841058107272455
 40
1.841058107272455
 40
1.841058107272455
 10
-82.23134122849498
 20
-100.3409188985659
 30
0.0
 10
-82.23678258482711
 20
-100.2484233734066
 30
0.0
 10
-82.24827920193293
 20
-100.0529965394192
 30
0.0
 10
-82.21250637258625
 20
-99.74958033393236
 30
0.0
 10
-82.14445559901974
 20
-99.43536404935787
 30
0.0
 10
-82.04152830451076
 20
-99.12882752387802
 30
0.0
 10
-81.91529143534137
 20
-98.84494210467561
 30
0.0
 10
-81.80456451105636
 20
-98.67792638192002
 30
0.0
 10
-81.75181055997669
 20
-98.59835460765187
 30
0.0
 11
-82.23134122849498
 21
-100.3409188985659
 31
0.0
 11
-82.23994142871388
 21
-100.0635423884015
 31
0.0
 11
-82.20846901921853
 21
-99.75633050427334
 31
0.0
 11
-82.13879656700891
 21
-99.43756612367208
 31
0.0
 11
-82.0350709096374
 21
-99.12621991134372
 31
0.0
 11
-81.90346471971148
 21
-98.84082122305149
 31
0.0
 11
-81.75181055997669
 21
-98.59835460765187
 31
0.0
  0
SPLINE
  5
1D6
330
52
100
AcDbEntity
  8
0
  6
Continuous
 62
     7
100
AcDbSpline
210
0.0
220
0.0
230
1.0
 70
     8
 71
     3
 72
     9
 73
     5
 74
     3
 42
0.000000001
 43
0.0000000001
 44
0.00000001
 40
0.0
 40
0.0
 40
0.0
 40
0.0
 40
0.0693155004165559
 40
0.1486704235414834
 40
0.1486704235414834
 40
0.1486704235414834
 40
0.1486704235414834
 10
-82.32565453868216
 20
-107.1169821166906
 30
0.0
 10
-82.34721246097155
 20
-107.1073978606405
 30
0.0
 10
-82.3934506713168
 20
-107.0868411810947
 30
0.0
 10
-82.42128338906207
 20
-107.044363770152
 30
0.0
 10
-82.43613948510725
 20
-107.0216908491278
 30
0.0
 11
-82.32565453868216
 21
-107.1169821166906
 31
0.0
 11
-82.38632738977009
 21
-107.0834643004467
 31
0.0
 11
-82.43613948510725
 21
-107.0216908491278
 31
0.0
  0
SPLINE
  5
1D7
330
52
100
AcDbEntity
  8
0
  6
Continuous
 62
     7
100
AcDbSpline
210
0.0
220
0.0
230
1.0
 70
     8
 71
     3
 72
    13
 73
     9
 74
     7
 42
0.000000001
 43
0.0000000001
 44
0.00000001
 40
0.0
 40
0.0
 40
0.0
 40
0.0
 40
0.2775098045480913
 40
0.5863295795411716
 40
0.9126192966496953
 40
1.240789184103321
 40
1.555070268785755
 40
1.841058107272429
 40
1.841058107272429
 40
1.841058107272429
 40
1.841058107272429
 10
-56.25057911496182
 20
-107.8409188985659
 30
0.0
 10
-56.25602047129397
 20
-107.7484233734066
 30
0.0
 10
-56.26751708839971
 20
-107.5529965394192
 30
0.0
 10
-56.23174425905309
 20
-107.2495803339324
 30
0.0
 10
-56.16369348548659
 20
-106.9353640493579
 30
0.0
 10
-56.06076619097763
 20
-106.6288275238781
 30
0.0
 10
-55.93452932180828
 20
-106.3449421046757
 30
0.0
 10
-55.82380239752324
 20
-106.1779263819201
 30
0.0
 10
-55.77104844644354
 20
-106.0983546076519
 30
0.0
 11
-56.25057911496182
 21
-107.8409188985659
 31
0.0
 11
-56.2591793151807
 21
-107.5635423884015
 31
0.0
 11
-56.22770690568538
 21
-107.2563305042734
 31
0.0
 11
-56.15803445347578
 21
-106.9375661236722
 31
0.0
 11
-56.05430879610428
 21
-106.6262199113438
 31
0.0
 11
-55.92270260617837
 21
-106.3408212230515
 31
0.0
 11
-55.77104844644354
 21
-106.0983546076519
 31
0.0
  0
SPLINE
  5
1D8
330
52
100
AcDbEntity
  8
0
  6
Continuous
 62
     7
100
AcDbSpline
210
0.0
220
0.0
230
1.0
 70
     8
 71
     3
 72
    11
 73
     7
 74
     5
 42
0.000000001
 43
0.0000000001
 44
0.00000001
 40
0.0
 40
0.0
 40
0.0
 40
0.0
 40
0.5983544862006661
 40
1.13837817323034
 40
1.61786764496944
 40
2.039316905699468
 40
2.039316905699468
 40
2.039316905699468
 40
2.039316905699468
 10
-55.77104844644354
 20
-106.0983546076519
 30
0.0
 10
-55.64893822863155
 20
-105.940329415361
 30
0.0
 10
-55.41662173979213
 20
-105.6396841819452
 30
0.0
 10
-55.03150529826467
 20
-105.2609462623682
 30
0.0
 10
-54.65079329325918
 20
-104.9622783162595
 30
0.0
 10
-54.3764894634132
 20
-104.8377560476632
 30
0.0
 10
-54.24817313615415
 20
-104.7795059021452
 30
0.0
 11
-55.77104844644354
 21
-106.0983546076519
 31
0.0
 11
-55.39403624666431
 21
-105.6337150799399
 31
0.0
 11
-55.00961079129887
 21
-105.2544491395302
 31
0.0
 11
-54.62518533593342
 21
-104.9678706595241
 31
0.0
 11
-54.24817313615415
 21
-104.7795059021452
 31
0.0
  0
SPLINE
  5
1D9
330
52
100
AcDbEntity
  8
0
  6
Continuous
 62
     7
100
AcDbSpline
210
0.0
220
0.0
230
1.0
 70
     8
 71
     3
 72
    11
 73
     7
 74
     5
 42
0.000000001
 43
0.0000000001
 44
0.00000001
 40
0.0
 40
0.0
 40
0.0
 40
0.0
 40
0.5983544862006682
 40
1.138378173230317
 40
1.617867644969406
 40
2.039316905699498
 40
2.039316905699498
 40
2.039316905699498
 40
2.039316905699498
 10
-81.75181055997669
 20
-98.59835460765187
 30
0.0
 10
-81.62970034216471
 20
-98.44032941536094
 30
0.0
 10
-81.39738385332531
 20
-98.13968418194514
 30
0.0
 10
-81.01226741179784
 20
-97.76094626236815
 30
0.0
 10
-80.63155540679227
 20
-97.46227831625953
 30
0.0
 10
-80.35725157694637
 20
-97.33775604766316
 30
0.0
 10
-80.22893524968728
 20
-97.27950590214513
 30
0.0
 11
-81.75181055997669
 21
-98.59835460765187
 31
0.0
 11
-81.37479836019747
 21
-98.13371507993983
 31
0.0
 11
-80.99037290483203
 21
-97.75444913953024
 31
0.0
 11
-80.60594744946657
 21
-97.46787065952408
 31
0.0
 11
-80.22893524968728
 21
-97.27950590214513
 31
0.0
  0
SPLINE
  5
1DA
330
52
100
AcDbEntity
  8
0
  6
Continuous
 62
     7
100
AcDbSpline
210
0.0
220
0.0
230
1.0
 70
     8
 71
     3
 72
     9
 73
     5
 74
     3
 42
0.000000001
 43
0.0000000001
 44
0.00000001
 40
0.0
 40
0.0
 40
0.0
 40
0.0
 40
0.0216610925565555
 40
0.0464595047094729
 40
0.0464595047094729
 40
0.0464595047094729
 40
0.0464595047094729
 10
-56.19234987118708
 20
-114.0885592091338
 30
0.0
 10
-56.19908672149086
 20
-114.0855641293012
 30
0.0
 10
-56.21353615397166
 20
-114.0791401561676
 30
0.0
 10
-56.22223388717859
 20
-114.0658659754623
 30
0.0
 10
-56.22687641694489
 20
-114.0587806880204
 30
0.0
 11
-56.19234987118708
 21
-114.0885592091338
 31
0.0
 11
-56.21131013715208
 21
-114.0780848915576
 31
0.0
 11
-56.22687641694489
 21
-114.0587806880204
 31
0.0
  0
SPLINE
  5
1DB
330
52
100
AcDbEntity
  8
0
  6
Continuous
 62
     7
100
AcDbSpline
210
0.0
220
0.0
230
1.0
 70
     8
 71
     3
 72
    13
 73
     9
 74
     7
 42
0.000000001
 43
0.0000000001
 44
0.00000001
 40
0.0
 40
0.0
 40
0.0
 40
0.0
 40
0.0778123734361054
 40
0.1558263461008102
 40
0.2278445049241419
 40
0.2887048042453333
 40
0.3357316085346889
 40
0.3715988045081813
 40
0.3715988045081813
 40
0.3715988045081813
 40
0.3715988045081813
 10
-56.00227161837282
 20
-113.7998384074694
 30
0.0
 10
-56.0068972589512
 20
-113.8254087753336
 30
0.0
 10
-56.01616052467235
 20
-113.8766157593697
 30
0.0
 10
-56.04241159694213
 20
-113.9481425030029
 30
0.0
 10
-56.07521224482161
 20
-114.0110061581743
 30
0.0
 10
-56.1122838329391
 20
-114.0574392155854
 30
0.0
 10
-56.15169763624882
 20
-114.0897419441005
 30
0.0
 10
-56.18007244519418
 20
-114.0889164126858
 30
0.0
 10
-56.19234987118708
 20
-114.0885592091338
 30
0.0
 11
-56.00227161837282
 21
-113.7998384074694
 31
0.0
 11
-56.01831548186038
 21
-113.8759787932596
 31
0.0
 11
-56.04473792680976
 21
-113.9493820247892
 31
0.0
 11
-56.07891994721677
 21
-114.0127713350898
 31
0.0
 11
-56.11747283928587
 21
-114.0598632709506
 31
0.0
 11
-56.156574879155
 21
-114.0859889518838
 31
0.0
 11
-56.19234987118708
 21
-114.0885592091338
 31
0.0
  0
SPLINE
  5
1DC
330
52
100
AcDbEntity
  8
0
  6
Continuous
 62
     7
100
AcDbSpline
210
0.0
220
0.0
230
1.0
 70
     8
 71
     3
 72
    13
 73
     9
 74
     7
 42
0.000000001
 43
0.0000000001
 44
0.00000001
 40
0.0
 40
0.0
 40
0.0
 40
0.0
 40
0.6404311945134121
 40
1.408495308905146
 40
2.292060999183311
 40
3.265201952192485
 40
4.293778028527086
 40
5.339228211299387
 40
5.339228211299387
 40
5.339228211299387
 40
5.339228211299387
 10
-56.22687641694489
 20
-114.0587806880204
 30
0.0
 10
-56.31637451284534
 20
-113.8639691202337
 30
0.0
 10
-56.51320695826696
 20
-113.4355215593204
 30
0.0
 10
-56.62558226816655
 20
-112.6715373073997
 30
0.0
 10
-56.64814680075959
 20
-111.7966149386301
 30
0.0
 10
-56.5539381190604
 20
-110.8371391314642
 30
0.0
 10
-56.36244424314057
 20
-109.8375517874139
 30
0.0
 10
-56.15253640585207
 20
-109.1782775296915
 30
0.0
 10
-56.04672858551542
 20
-108.8459585018083
 30
0.0
 11
-56.22687641694489
 21
-114.0587806880204
 31
0.0
 11
-56.4689535697783
 21
-113.4658635179951
 31
0.0
 11
-56.60547836473324
 21
-112.7100305482601
 31
0.0
 11
-56.63003312643249
 21
-111.8268061187747
 31
0.0
 11
-56.54146455428644
 21
-110.8577039969316
 31
0.0
 11
-56.34393471382987
 21
-109.8482731156484
 31
0.0
 11
-56.04672858551542
 21
-108.8459585018083
 31
0.0
  0
SPLINE
  5
1DD
330
52
100
AcDbEntity
  8
0
  6
Continuous
 62
     7
100
AcDbSpline
210
0.0
220
0.0
230
1.0
 70
     8
 71
     3
 72
    13
 73
     9
 74
     7
 42
0.000000001
 43
0.0000000001
 44
0.00000001
 40
0.0
 40
0.0
 40
0.0
 40
0.0
 40
0.7393520767147593
 40
1.630234004096173
 40
2.656748437910732
 40
3.786045783654576
 40
4.975385297862626
 40
6.176969264940647
 40
6.176969264940647
 40
6.176969264940647
 40
6.176969264940647
 10
-56.4553773715741
 20
-114.5216908491278
 30
0.0
 10
-56.55798023590871
 20
-114.2964085913611
 30
0.0
 10
-56.78421435601252
 20
-113.7996725800029
 30
0.0
 10
-56.90595552732669
 20
-112.9125094459831
 30
0.0
 10
-56.92129684362579
 20
-111.8967792277738
 30
0.0
 10
-56.79818168648691
 20
-110.7857432130584
 30
0.0
 10
-56.56089055574525
 20
-109.6340309246102
 30
0.0
 10
-56.30549910640151
 20
-108.8783822743882
 30
0.0
 10
-56.17714941813152
 20
-108.4986230281087
 30
0.0
 11
-56.4553773715741
 21
-114.5216908491278
 31
0.0
 11
-56.73201823870982
 21
-113.8360441995364
 31
0.0
 11
-56.88285696761434
 21
-112.9580246651223
 31
0.0
 11
-56.90032872000739
 21
-111.9316589310118
 31
0.0
 11
-56.78355847887495
 21
-110.8084148764516
 31
0.0
 11
-56.53840058134737
 21
-109.6446167487302
 31
0.0
 11
-56.17714941813152
 21
-108.4986230281087
 31
0.0
  0
SPLINE
  5
1DE
330
52
100
AcDbEntity
  8
0
  6
Continuous
 62
     7
100
AcDbSpline
210
0.0
220
0.0
230
1.0
 70
     8
 71
     3
 72
     9
 73
     5
 74
     3
 42
0.000000001
 43
0.0000000001
 44
0.00000001
 40
0.0
 40
0.0
 40
0.0
 40
0.0
 40
0.0693155004165621
 40
0.1486704235414762
 40
0.1486704235414762
 40
0.1486704235414762
 40
0.1486704235414762
 10
-56.34489242514903
 20
-114.6169821166906
 30
0.0
 10
-56.36645034743842
 20
-114.6073978606405
 30
0.0
 10
-56.41268855778369
 20
-114.5868411810947
 30
0.0
 10
-56.44052127552893
 20
-114.544363770152
 30
0.0
 10
-56.4553773715741
 20
-114.5216908491278
 30
0.0
 11
-56.34489242514903
 21
-114.6169821166906
 31
0.0
 11
-56.40556527623696
 21
-114.5834643004467
 31
0.0
 11
-56.4553773715741
 21
-114.5216908491278
 31
0.0
  0
SPLINE
  5
1DF
330
52
100
AcDbEntity
  8
0
  6
Continuous
 62
     7
100
AcDbSpline
210
0.0
220
0.0
230
1.0
 70
     8
 71
     3
 72
    13
 73
     9
 74
     7
 42
0.000000001
 43
0.0000000001
 44
0.00000001
 40
0.0
 40
0.0
 40
0.0
 40
0.0
 40
0.2489995730008686
 40
0.4986442864466796
 40
0.7291023943635546
 40
0.9238553499598781
 40
1.074341133147087
 40
1.189116176523585
 40
1.189116176523585
 40
1.189116176523585
 40
1.189116176523585
 10
-55.73664201614329
 20
-113.6930755513645
 30
0.0
 10
-55.7514440646866
 20
-113.7749007213021
 30
0.0
 10
-55.78108651312425
 20
-113.938763064094
 30
0.0
 10
-55.86508994929336
 20
-114.1676486323986
 30
0.0
 10
-55.97005201659964
 20
-114.3688123367828
 30
0.0
 10
-56.08868110968888
 20
-114.51739810111
 30
0.0
 10
-56.21480525159475
 20
-114.6207669017747
 30
0.0
 10
-56.30560465640546
 20
-114.6181251682189
 30
0.0
 10
-56.34489242514903
 20
-114.6169821166906
 30
0.0
 11
-55.73664201614329
 21
-113.6930755513645
 31
0.0
 11
-55.78798237930356
 21
-113.9367247858932
 31
0.0
 11
-55.87253420314155
 21
-114.1716151267879
 31
0.0
 11
-55.98191666844401
 21
-114.3744609197499
 31
0.0
 11
-56.10528592306514
 21
-114.5251551145042
 31
0.0
 11
-56.23041245064637
 21
-114.6087572934907
 31
0.0
 11
-56.34489242514903
 21
-114.6169821166906
 31
0.0
  0
SPLINE
  5
1E0
330
52
100
AcDbEntity
  8
0
  6
Continuous
 62
     7
100
AcDbSpline
210
0.0
220
0.0
230
1.0
 70
     8
 71
     3
 72
    13
 73
     9
 74
     7
 42
0.000000001
 43
0.0000000001
 44
0.00000001
 40
0.0
 40
0.0
 40
0.0
 40
0.0
 40
0.7393520767148094
 40
1.630234004096181
 40
2.65674843791074
 40
3.786045783654584
 40
4.975385297862639
 40
6.176969264940659
 40
6.176969264940659
 40
6.176969264940659
 40
6.176969264940659
 10
-82.43613948510725
 20
-107.0216908491278
 30
0.0
 10
-82.53874234944186
 20
-106.7964085913611
 30
0.0
 10
-82.7649764695457
 20
-106.299672580003
 30
0.0
 10
-82.88671764085984
 20
-105.412509445983
 30
0.0
 10
-82.90205895715899
 20
-104.3967792277739
 30
0.0
 10
-82.77894380002007
 20
-103.2857432130584
 30
0.0
 10
-82.54165266927842
 20
-102.1340309246102
 30
0.0
 10
-82.28626121993466
 20
-101.3783822743882
 30
0.0
 10
-82.15791153166468
 20
-100.9986230281087
 30
0.0
 11
-82.43613948510725
 21
-107.0216908491278
 31
0.0
 11
-82.712780352243
 21
-106.3360441995364
 31
0.0
 11
-82.86361908114752
 21
-105.4580246651223
 31
0.0
 11
-82.88109083354057
 21
-104.4316589310118
 31
0.0
 11
-82.76432059240813
 21
-103.3084148764516
 31
0.0
 11
-82.51916269488054
 21
-102.1446167487302
 31
0.0
 11
-82.15791153166468
 21
-100.9986230281087
 31
0.0
  0
SPLINE
  5
1E1
330
52
100
AcDbEntity
  8
0
  6
Continuous
 62
     7
100
AcDbSpline
210
0.0
220
0.0
230
1.0
 70
     8
 71
     3
 72
     9
 73
     5
 74
     3
 42
0.000000001
 43
0.0000000001
 44
0.00000001
 40
0.0
 40
0.0
 40
0.0
 40
0.0
 40
0.0568897533083074
 40
0.0983185793016657
 40
0.0983185793016657
 40
0.0983185793016657
 40
0.0983185793016657
 10
-54.01694996422491
 20
-112.080499420294
 30
0.0
 10
-54.01297803604631
 20
-112.10007148127
 30
0.0
 10
-54.00611361407358
 20
-112.1338964949992
 30
0.0
 10
-53.97757301366972
 20
-112.1523256131805
 30
0.0
 10
-53.96554676046692
 20
-112.1600911460239
 30
0.0
 11
-54.01694996422491
 21
-112.080499420294
 31
0.0
 11
-53.99777679269019
 21
-112.1340609160952
 31
0.0
 11
-53.96554676046692
 21
-112.1600911460239
 31
0.0
  0
SPLINE
  5
1E2
330
52
100
AcDbEntity
  8
0
  6
Continuous
 62
     7
100
AcDbSpline
210
0.0
220
0.0
230
1.0
 70
     8
 71
     3
 72
    11
 73
     7
 74
     5
 42
0.000000001
 43
0.0000000001
 44
0.00000001
 40
0.0
 40
0.0
 40
0.0
 40
0.0
 40
0.098743419134524
 40
0.18291070892944
 40
0.2542560390564101
 40
0.3176964432409096
 40
0.3176964432409096
 40
0.3176964432409096
 40
0.3176964432409096
 10
-54.28257956645439
 20
-112.433820531245
 30
0.0
 10
-54.2755891332575
 20
-112.4661124555353
 30
0.0
 10
-54.26264015579663
 20
-112.5259294889993
 30
0.0
 10
-54.22628615784738
 20
-112.602866208257
 30
0.0
 10
-54.17946995502351
 20
-112.6617783904975
 30
0.0
 10
-54.13773361123025
 20
-112.6799575611659
 30
0.0
 10
-54.11808931442887
 20
-112.6885140535807
 30
0.0
 11
-54.28257956645439
 21
-112.433820531245
 31
0.0
 11
-54.2577602074874
 21
-112.5293938618282
 31
0.0
 11
-54.22122600876428
 21
-112.605218564438
 31
0.0
 11
-54.17416070146488
 21
-112.6588377187876
 31
0.0
 11
-54.11808931442887
 21
-112.6885140535807
 31
0.0
  0
SPLINE
  5
1E3
330
52
100
AcDbEntity
  8
0
  6
Continuous
 62
     7
100
AcDbSpline
210
0.0
220
0.0
230
1.0
 70
     8
 71
     3
 72
    11
 73
     7
 74
     5
 42
0.000000001
 43
0.0000000001
 44
0.00000001
 40
0.0
 40
0.0
 40
0.0
 40
0.0
 40
0.3420208003537856
 40
0.6289623292769482
 40
0.8529564775027431
 40
1.028926856733339
 40
1.028926856733339
 40
1.028926856733339
 40
1.028926856733339
 10
-53.76864246763583
 20
-105.6914987113978
 30
0.0
 10
-53.76210193024556
 20
-105.5770368700485
 30
0.0
 10
-53.75007415266457
 20
-105.3665462040603
 30
0.0
 10
-53.79709788750193
 20
-105.0875781433981
 30
0.0
 10
-53.88694710407204
 20
-104.862803300511
 30
0.0
 10
-54.00640692728278
 20
-104.7963611137091
 30
0.0
 10
-54.05896506846705
 20
-104.7671288848509
 30
0.0
 11
-53.76864246763583
 21
-105.6914987113978
 31
0.0
 11
-53.76283097226087
 21
-105.3495272974559
 31
0.0
 11
-53.81276253604258
 21
-105.0669635333779
 31
0.0
 11
-53.91428752808916
 21
-104.8672986668237
 31
0.0
 11
-54.05896506846705
 21
-104.7671288848509
 31
0.0
  0
SPLINE
  5
1E4
330
52
100
AcDbEntity
  8
0
  6
Continuous
 62
     7
100
AcDbSpline
210
0.0
220
0.0
230
1.0
 70
     8
 71
     3
 72
     9
 73
     5
 74
     3
 42
0.000000001
 43
0.0000000001
 44
0.00000001
 40
0.0
 40
0.0
 40
0.0
 40
0.0
 40
0.0916989934247754
 40
0.192106954552547
 40
0.192106954552547
 40
0.192106954552547
 40
0.192106954552547
 10
-54.05896506846705
 20
-104.7671288848509
 30
0.0
 10
-54.08950349016337
 20
-104.761627068714
 30
0.0
 10
-54.15348067273214
 20
-104.7501009297007
 30
0.0
 10
-54.21566923150316
 20
-104.7694124158992
 30
0.0
 10
-54.24817313615415
 20
-104.7795059021452
 30
0.0
 11
-54.05896506846705
 21
-104.7671288848509
 31
0.0
 11
-54.15017280246955
 21
-104.7576496998575
 31
0.0
 11
-54.24817313615415
 21
-104.7795059021452
 31
0.0
  0
SPLINE
  5
1E5
330
52
100
AcDbEntity
  8
0
  6
Continuous
 62
     7
100
AcDbSpline
210
0.0
220
0.0
230
1.0
 70
     8
 71
     3
 72
    13
 73
     9
 74
     7
 42
0.000000001
 43
0.0000000001
 44
0.00000001
 40
0.0
 40
0.0
 40
0.0
 40
0.0
 40
1.040751929029052
 40
2.042400568964103
 40
2.968480682001022
 40
3.78897184790589
 40
4.48489296196868
 40
5.055879184916767
 40
5.055879184916767
 40
5.055879184916767
 40
5.055879184916767
 10
-53.79234516565276
 20
-111.9504147780943
 30
0.0
 10
-53.70464998903422
 20
-111.6144642584432
 30
0.0
 10
-53.53255453645781
 20
-110.9551856021692
 30
0.0
 10
-53.40001704794302
 20
-109.9725925955231
 30
0.0
 10
-53.36760950238862
 20
-109.0540793481838
 30
0.0
 10
-53.45233845445495
 20
-108.2445265685297
 30
0.0
 10
-53.62394706830216
 20
-107.558390419292
 30
0.0
 10
-53.86420874347382
 20
-107.207680346961
 30
0.0
 10
-53.97249299708226
 20
-107.0496177887914
 30
0.0
 11
-53.79234516565276
 21
-111.9504147780943
 31
0.0
 11
-53.55026801281936
 21
-110.9382076800099
 31
0.0
 11
-53.41374321786442
 21
-109.94590682892
 31
0.0
 11
-53.38918845616519
 21
-109.0201523046038
 31
0.0
 11
-53.47775702831123
 21
-108.2044554496716
 31
0.0
 11
-53.67528686876781
 21
-107.5371562880701
 31
0.0
 11
-53.97249299708226
 21
-107.0496177887914
 31
0.0
  0
SPLINE
  5
1E6
330
52
100
AcDbEntity
  8
0
  6
Continuous
 62
     7
100
AcDbSpline
210
0.0
220
0.0
230
1.0
 70
     8
 71
     3
 72
    13
 73
     9
 74
     7
 42
0.000000001
 43
0.0000000001
 44
0.00000001
 40
0.0
 40
0.0
 40
0.0
 40
0.0
 40
1.197203196073666
 40
2.346425088523746
 40
3.403197226849263
 40
4.331562281160671
 40
5.110329199877945
 40
5.743734572896614
 40
5.743734572896614
 40
5.743734572896614
 40
5.743734572896614
 10
-53.56384421102356
 20
-112.017549676206
 30
0.0
 10
-53.46328524398776
 20
-111.6309855612099
 30
0.0
 10
-53.26619749735777
 20
-110.8733499809323
 30
0.0
 10
-53.11983000379069
 20
-109.7460225714025
 30
0.0
 10
-53.09240583193237
 20
-108.6976398523134
 30
0.0
 10
-53.20387474890988
 20
-107.7837265456595
 30
0.0
 10
-53.41766994188196
 20
-107.0171609745636
 30
0.0
 10
-53.71065761957452
 20
-106.6438354757815
 30
0.0
 10
-53.84207216446613
 20
-106.4763868066353
 30
0.0
 11
-53.56384421102356
 21
-112.017549676206
 31
0.0
 11
-53.28720334388785
 21
-110.8527469892856
 31
0.0
 11
-53.13636461498333
 21
-109.7134671126599
 31
0.0
 11
-53.11889286259027
 21
-108.6568394157073
 31
0.0
 11
-53.2356631037227
 21
-107.7358473516005
 31
0.0
 11
-53.48082100125028
 21
-106.9966751582736
 31
0.0
 11
-53.84207216446613
 21
-106.4763868066353
 31
0.0
  0
SPLINE
  5
1E7
330
52
100
AcDbEntity
  8
0
  6
Continuous
 62
     7
100
AcDbSpline
210
0.0
220
0.0
230
1.0
 70
     8
 71
     3
 72
    11
 73
     7
 74
     5
 42
0.000000001
 43
0.0000000001
 44
0.00000001
 40
0.0
 40
0.0
 40
0.0
 40
0.0
 40
0.0455217662853591
 40
0.1099736191852528
 40
0.1942434097563015
 40
0.2901169583119678
 40
0.2901169583119678
 40
0.2901169583119678
 40
0.2901169583119678
 10
-53.96554676046692
 20
-112.1600911460239
 30
0.0
 10
-53.94989695012743
 20
-112.1594103569044
 30
0.0
 10
-53.91208940817212
 20
-112.1577656578187
 30
0.0
 10
-53.86523375618746
 20
-112.1062111307791
 30
0.0
 10
-53.82204701576578
 20
-112.0382425802841
 30
0.0
 10
-53.80266200403655
 20
-111.9809214741387
 30
0.0
 10
-53.79234516565276
 20
-111.9504147780943
 30
0.0
 11
-53.96554676046692
 21
-112.1600911460239
 31
0.0
 11
-53.92052997750089
 21
-112.1533294232952
 31
0.0
 11
-53.87182024200699
 21
-112.1111227375779
 31
0.0
 11
-53.82681409469597
 21
-112.0398777778589
 31
0.0
 11
-53.79234516565276
 21
-111.9504147780943
 31
0.0
  0
SPLINE
  5
1E8
330
52
100
AcDbEntity
  8
0
  6
Continuous
 62
     7
100
AcDbSpline
210
0.0
220
0.0
230
1.0
 70
     8
 71
     3
 72
    13
 73
     9
 74
     7
 42
0.000000001
 43
0.0000000001
 44
0.00000001
 40
0.0
 40
0.0
 40
0.0
 40
0.0
 40
0.093580127033459
 40
0.2089924190163215
 40
0.3546844138665011
 40
0.5289326750153432
 40
0.7246040925514763
 40
0.9316848662735147
 40
0.9316848662735147
 40
0.9316848662735147
 40
0.9316848662735147
 10
-54.11808931442887
 20
-112.6885140535807
 30
0.0
 10
-54.08630169106637
 20
-112.6910699525813
 30
0.0
 10
-54.01531042071487
 20
-112.6967780242692
 30
0.0
 10
-53.90999510603467
 20
-112.6306640463106
 30
0.0
 10
-53.80837296121014
 20
-112.5279628051343
 30
0.0
 10
-53.71230913487062
 20
-112.383911723957
 30
0.0
 10
-53.62665545010283
 20
-112.2111625708215
 30
0.0
 10
-53.58517300236559
 20
-112.0832947414148
 30
0.0
 10
-53.56384421102356
 20
-112.017549676206
 30
0.0
 11
-54.11808931442887
 21
-112.6885140535807
 31
0.0
 11
-54.0245180366578
 21
-112.6872266338688
 31
0.0
 11
-53.92222544705051
 21
-112.6337829764197
 31
0.0
 11
-53.818164476002
 21
-112.5318149846853
 31
0.0
 11
-53.71940830622027
 21
-112.3882542820172
 31
0.0
 11
-53.63266970047036
 21
-112.2128583926341
 31
0.0
 11
-53.56384421102356
 21
-112.017549676206
 31
0.0
  0
ENDBLK
  5
54
330
52
100
AcDbEntity
  8
0
100
AcDbBlockEnd
  0
BLOCK
  5
57
330
55
100
AcDbEntity
  8
0
100
AcDbBlockBegin
  2
Allg1
 70
     0
 10
-67.99999710739696
 20
-105.665705552481
 30
0.0
  3
Allg1
  1

  0
INSERT
  5
56
330
55
100
AcDbEntity
  8
0
100
AcDbBlockReference
  2
0822466_PATG_3_30-select__1
 10
-82.92043459449113
 20
-114.6374030401964
 30
0.0
  0
MTEXT
  5
1E9
330
55
100
AcDbEntity
  8
1
 62
     6
100
AcDbMText
 10
-67.99999710739706
 20
-117.7224064332848
 30
0.0
 40
2.5
 41
0.0
 71
     2
 72
     1
  1
 
  7
CONVERTER_11
 73
     1
 44
1.32052821128451
  0
ENDBLK
  5
58
330
55
100
AcDbEntity
  8
0
100
AcDbBlockEnd
  0
BLOCK
  5
5A
330
59
100
AcDbEntity
  8
0
100
AcDbBlockBegin
  2
0822466_PATG_3_30-select__2
 70
     0
 10
-147.5999952334694
 20
-96.40499022306
 30
0.0
  3
0822466_PATG_3_30-select__2
  1

  0
LINE
  5
1EA
330
59
100
AcDbEntity
  8
0
  6
Continuous
 62
     7
100
AcDbLine
 10
-147.5999952334694
 20
-88.80499022305997
 30
0.0
 11
-147.5999952334694
 21
-90.1025440423004
 31
0.0
  0
LINE
  5
1EB
330
59
100
AcDbEntity
  8
0
  6
Continuous
 62
     7
100
AcDbLine
 10
-117.5999952334694
 20
-90.1025440423004
 30
0.0
 11
-117.5999952334694
 21
-91.08211491277058
 31
0.0
  0
LINE
  5
1EC
330
59
100
AcDbEntity
  8
0
  6
Continuous
 62
     7
100
AcDbLine
 10
-147.5999952334694
 20
-90.1025440423004
 30
0.0
 11
-147.5999952334694
 21
-91.08211491277058
 31
0.0
  0
LINE
  5
1ED
330
59
100
AcDbEntity
  8
0
  6
Continuous
 62
     2
100
AcDbLine
 10
-117.5999952334694
 20
-91.08211491277058
 30
0.0
 11
-147.5999952334694
 21
-91.08211491277058
 31
0.0
  0
LINE
  5
1EE
330
59
100
AcDbEntity
  8
0
  6
Continuous
 62
     7
100
AcDbLine
 10
-147.5999952334694
 20
-90.1025440423004
 30
0.0
 11
-117.5999952334694
 21
-90.1025440423004
 31
0.0
  0
LINE
  5
1EF
330
59
100
AcDbEntity
  8
0
  6
Continuous
 62
     7
100
AcDbLine
 10
-147.5999952334694
 20
-88.80499022305997
 30
0.0
 11
-117.5999952334694
 21
-88.80499022305997
 31
0.0
  0
LINE
  5
1F0
330
59
100
AcDbEntity
  8
0
  6
Continuous
 62
     7
100
AcDbLine
 10
-117.5999952334694
 20
-95.10743640381958
 30
0.0
 11
-117.5999952334694
 21
-94.1278655333494
 31
0.0
  0
LINE
  5
1F1
330
59
100
AcDbEntity
  8
0
  6
Continuous
 62
     7
100
AcDbLine
 10
-117.5999952334694
 20
-96.40499022306
 30
0.0
 11
-117.5999952334694
 21
-95.10743640381958
 31
0.0
  0
LINE
  5
1F2
330
59
100
AcDbEntity
  8
0
  6
Continuous
 62
     7
100
AcDbLine
 10
-117.5999952334694
 20
-96.40499022306
 30
0.0
 11
-147.5999952334694
 21
-96.40499022306
 31
0.0
  0
LINE
  5
1F3
330
59
100
AcDbEntity
  8
0
  6
Continuous
 62
     2
100
AcDbLine
 10
-117.5999952334694
 20
-94.1278655333494
 30
0.0
 11
-147.5999952334694
 21
-94.1278655333494
 31
0.0
  0
LINE
  5
1F4
330
59
100
AcDbEntity
  8
0
  6
Continuous
 62
     7
100
AcDbLine
 10
-147.5999952334694
 20
-94.1278655333494
 30
0.0
 11
-147.5999952334694
 21
-91.08211491277058
 31
0.0
  0
LINE
  5
1F5
330
59
100
AcDbEntity
  8
0
  6
Continuous
 62
     7
100
AcDbLine
 10
-117.5999952334694
 20
-94.1278655333494
 30
0.0
 11
-117.5999952334694
 21
-91.08211491277058
 31
0.0
  0
LINE
  5
1F6
330
59
100
AcDbEntity
  8
0
  6
Continuous
 62
     7
100
AcDbLine
 10
-117.5999952334694
 20
-88.80499022305997
 30
0.0
 11
-117.5999952334694
 21
-90.1025440423004
 31
0.0
  0
LINE
  5
1F7
330
59
100
AcDbEntity
  8
0
  6
Continuous
 62
     7
100
AcDbLine
 10
-117.5999952334694
 20
-95.10743640381958
 30
0.0
 11
-147.5999952334694
 21
-95.10743640381958
 31
0.0
  0
LINE
  5
1F8
330
59
100
AcDbEntity
  8
0
  6
Continuous
 62
     7
100
AcDbLine
 10
-147.5999952334694
 20
-95.10743640381958
 30
0.0
 11
-147.5999952334694
 21
-94.1278655333494
 31
0.0
  0
LINE
  5
1F9
330
59
100
AcDbEntity
  8
0
  6
Continuous
 62
     7
100
AcDbLine
 10
-147.5999952334694
 20
-96.40499022306
 30
0.0
 11
-147.5999952334694
 21
-95.10743640381958
 31
0.0
  0
ENDBLK
  5
5B
330
59
100
AcDbEntity
  8
0
100
AcDbBlockEnd
  0
BLOCK
  5
5E
330
5C
100
AcDbEntity
  8
0
100
AcDbBlockBegin
  2
Drfsicht1
 70
     0
 10
-132.5999952334644
 20
-92.60500074173177
 30
0.0
  3
Drfsicht1
  1

  0
INSERT
  5
5D
330
5C
100
AcDbEntity
  8
0
100
AcDbBlockReference
  2
0822466_PATG_3_30-select__2
 10
-147.5999952334694
 20
-96.40499022306
 30
0.0
  0
MTEXT
  5
1FA
330
5C
100
AcDbEntity
  8
1
 62
     6
100
AcDbMText
 10
-132.5999952334644
 20
-98.90499800827484
 30
0.0
 40
2.5
 41
0.0
 71
     2
 72
     1
  1
 
  7
CONVERTER_11
 73
     1
 44
1.32052821128451
  0
DIMENSION
  5
205
330
5C
100
AcDbEntity
  8
1
100
AcDbDimension
  2
*D16
 10
-152.5999952334694
 20
-88.80499022305997
 30
0.0
 11
-154.3124952334694
 21
-92.60499022305999
 31
0.0
 70
    32
  1
<>
 71
     5
 42
-1.0
 53
90.0
  3
ME10_DIM_10
100
AcDbAlignedDimension
 13
-147.5999952334694
 23
-96.40499022306
 33
0.0
 14
-147.5999952334694
 24
-88.80499022305997
 34
0.0
 50
90.0
100
AcDbRotatedDimension
  0
ENDBLK
  5
5F
330
5C
100
AcDbEntity
  8
0
100
AcDbBlockEnd
  0
BLOCK
  5
61
330
60
100
AcDbEntity
  8
0
100
AcDbBlockBegin
  2
0822466_PATG_3_30-select__3
 70
     0
 10
-89.99999999998998
 20
-73.80500047793811
 30
0.0
  3
0822466_PATG_3_30-select__3
  1

  0
LINE
  5
206
330
60
100
AcDbEntity
  8
0
  6
Continuous
 62
     7
100
AcDbLine
 10
-59.99999999998998
 20
-73.45012288902575
 30
0.0
 11
-59.99999999998998
 21
-66.77351118684277
 31
0.0
  0
LINE
  5
207
330
60
100
AcDbEntity
  8
0
  6
Continuous
 62
     2
100
AcDbLine
 10
-89.99999999998998
 20
-65.94063017753496
 30
0.0
 11
-59.99999999998998
 21
-65.94063017753496
 31
0.0
  0
LINE
  5
208
330
60
100
AcDbEntity
  8
0
  6
Continuous
 62
     7
100
AcDbLine
 10
-59.99999999998998
 20
-66.77351118684277
 30
0.0
 11
-89.99999999998998
 21
-66.77351118684277
 31
0.0
  0
LINE
  5
209
330
60
100
AcDbEntity
  8
0
  6
Continuous
 62
     7
100
AcDbLine
 10
-89.99999999998998
 20
-73.45012288902575
 30
0.0
 11
-89.99999999998998
 21
-66.77351118684277
 31
0.0
  0
LINE
  5
20A
330
60
100
AcDbEntity
  8
0
  6
Continuous
 62
     7
100
AcDbLine
 10
-59.99999999998998
 20
-64.19500047793798
 30
0.0
 11
-59.99999999998998
 21
-64.40802092117457
 31
0.0
  0
LINE
  5
20B
330
60
100
AcDbEntity
  8
0
  6
Continuous
 62
     7
100
AcDbLine
 10
-59.99999999998998
 20
-65.94063017753496
 30
0.0
 11
-59.99999999998998
 21
-64.40802092117457
 31
0.0
  0
LINE
  5
20C
330
60
100
AcDbEntity
  8
0
  6
Continuous
 62
     7
100
AcDbLine
 10
-59.99999999998998
 20
-65.94063017753496
 30
0.0
 11
-59.99999999998998
 21
-66.77351118684277
 31
0.0
  0
LINE
  5
20D
330
60
100
AcDbEntity
  8
0
  6
Continuous
 62
     7
100
AcDbLine
 10
-89.99999999998998
 20
-64.19500047793798
 30
0.0
 11
-59.99999999998998
 21
-64.19500047793798
 31
0.0
  0
LINE
  5
20E
330
60
100
AcDbEntity
  8
0
  6
Continuous
 62
     7
100
AcDbLine
 10
-89.99999999998998
 20
-64.19500047793798
 30
0.0
 11
-89.99999999998998
 21
-64.40802092117457
 31
0.0
  0
LINE
  5
20F
330
60
100
AcDbEntity
  8
0
  6
Continuous
 62
     7
100
AcDbLine
 10
-89.99999999998998
 20
-65.94063017753496
 30
0.0
 11
-89.99999999998998
 21
-64.40802092117457
 31
0.0
  0
LINE
  5
210
330
60
100
AcDbEntity
  8
0
  6
Continuous
 62
     7
100
AcDbLine
 10
-89.99999999998998
 20
-65.94063017753496
 30
0.0
 11
-89.99999999998998
 21
-66.77351118684277
 31
0.0
  0
LINE
  5
211
330
60
100
AcDbEntity
  8
0
  6
Continuous
 62
     2
100
AcDbLine
 10
-89.99999999998998
 20
-64.40802092117457
 30
0.0
 11
-59.99999999998998
 21
-64.40802092117457
 31
0.0
  0
LINE
  5
212
330
60
100
AcDbEntity
  8
0
  6
Continuous
 62
     7
100
AcDbLine
 10
-89.99999999998998
 20
-73.80500047793811
 30
0.0
 11
-89.99999999998998
 21
-73.45012288902575
 31
0.0
  0
LINE
  5
213
330
60
100
AcDbEntity
  8
0
  6
Continuous
 62
     7
100
AcDbLine
 10
-59.99999999998998
 20
-73.80500047793811
 30
0.0
 11
-59.99999999998998
 21
-73.45012288902575
 31
0.0
  0
LINE
  5
214
330
60
100
AcDbEntity
  8
0
  6
Continuous
 62
     2
100
AcDbLine
 10
-89.99999999998998
 20
-73.45012288902575
 30
0.0
 11
-59.99999999998998
 21
-73.45012288902575
 31
0.0
  0
LINE
  5
215
330
60
100
AcDbEntity
  8
0
  6
Continuous
 62
     7
100
AcDbLine
 10
-59.99999999998998
 20
-73.80500047793811
 30
0.0
 11
-89.99999999998998
 21
-73.80500047793811
 31
0.0
  0
ENDBLK
  5
62
330
60
100
AcDbEntity
  8
0
100
AcDbBlockEnd
  0
BLOCK
  5
65
330
63
100
AcDbEntity
  8
0
100
AcDbBlockBegin
  2
Rckans1
 70
     0
 10
-74.999999999995
 20
-69.00000023896905
 30
0.0
  3
Rckans1
  1

  0
INSERT
  5
64
330
63
100
AcDbEntity
  8
0
100
AcDbBlockReference
  2
0822466_PATG_3_30-select__3
 10
-89.99999999998998
 20
-73.80500047793811
 30
0.0
  0
MTEXT
  5
216
330
63
100
AcDbEntity
  8
1
 62
     6
100
AcDbMText
 10
-74.999999999995
 20
-76.30500223896905
 30
0.0
 40
2.5
 41
0.0
 71
     2
 72
     1
  1
 
  7
CONVERTER_11
 73
     1
 44
1.32052821128451
  0
ENDBLK
  5
66
330
63
100
AcDbEntity
  8
0
100
AcDbBlockEnd
  0
BLOCK
  5
68
330
67
100
AcDbEntity
  8
0
100
AcDbBlockBegin
  2
0822466_PATG_3_30-select__4
 70
     0
 10
-107.600007618865
 20
-73.80500047793804
 30
0.0
  3
0822466_PATG_3_30-select__4
  1

  0
LINE
  5
217
330
67
100
AcDbEntity
  8
0
  6
Continuous
 62
     7
100
AcDbLine
 10
-106.281944266191
 20
-65.9406301775349
 30
0.0
 11
-106.1350848725303
 21
-66.77351118684271
 31
0.0
  0
LINE
  5
218
330
67
100
AcDbEntity
  8
0
  6
Continuous
 62
     7
100
AcDbLine
 10
-101.318070971539
 20
-65.94063017753507
 30
0.0
 11
-101.4649303651996
 21
-66.77351118684271
 31
0.0
  0
LINE
  5
219
330
67
100
AcDbEntity
  8
0
  6
Continuous
 62
     7
100
AcDbLine
 10
-101.8146859647171
 20
-73.06970523921365
 30
0.0
 11
-102.6090762112976
 21
-70.105000477938
 31
0.0
  0
LINE
  5
21A
330
67
100
AcDbEntity
  8
0
  6
Continuous
 62
     7
100
AcDbLine
 10
-102.3459451691761
 20
-73.21205571401998
 30
0.0
 11
-103.031106054686
 21
-70.65500047793796
 31
0.0
  0
LINE
  5
21B
330
67
100
AcDbEntity
  8
0
  6
Continuous
 62
     7
100
AcDbLine
 10
-105.7853292730129
 20
-73.06970523921365
 30
0.0
 11
-104.9909390264323
 21
-70.105000477938
 31
0.0
  0
LINE
  5
21C
330
67
100
AcDbEntity
  8
0
  6
Continuous
 62
     7
100
AcDbLine
 10
-105.2540700685537
 20
-73.21205571402004
 30
0.0
 11
-104.568909183044
 21
-70.65500047793796
 31
0.0
  0
LINE
  5
21D
330
67
100
AcDbEntity
  8
0
  6
Continuous
 62
     7
100
AcDbLine
 10
-104.9909390264323
 20
-70.105000477938
 30
0.0
 11
-102.6090762112976
 21
-70.105000477938
 31
0.0
  0
LINE
  5
21E
330
67
100
AcDbEntity
  8
0
  6
Continuous
 62
     7
100
AcDbLine
 10
-104.568909183044
 20
-70.65500047793796
 30
0.0
 11
-103.031106054686
 21
-70.65500047793796
 31
0.0
  0
LINE
  5
21F
330
67
100
AcDbEntity
  8
0
  6
Continuous
 62
     7
100
AcDbLine
 10
-105.8742432072982
 20
-67.30500047793794
 30
0.0
 11
-101.7257720304318
 21
-67.30500047793794
 31
0.0
  0
ARC
  5
220
330
67
100
AcDbEntity
  8
0
  6
Continuous
 62
     7
100
AcDbCircle
 10
-103.800007618865
 20
-69.74500047793794
 30
0.0
 40
5.549999999999976
100
AcDbArc
 50
74.07421849179644
 51
105.9257815082037
  0
ARC
  5
221
330
67
100
AcDbEntity
  8
0
  6
Continuous
 62
     7
100
AcDbCircle
 10
-102.6475614381054
 20
-65.70620513768455
 30
0.0
 40
1.349999999999947
100
AcDbArc
 50
349.9999999999925
 51
74.07421849179892
  0
ARC
  5
222
330
67
100
AcDbEntity
  8
0
  6
Continuous
 62
     7
100
AcDbCircle
 10
-106.0268107295851
 20
-73.00500047793804
 30
0.0
 40
0.8000000000000156
100
AcDbArc
 50
213.807405359762
 51
345.0000000000038
  0
ARC
  5
223
330
67
100
AcDbEntity
  8
0
  6
Continuous
 62
     7
100
AcDbCircle
 10
-101.5732045081448
 20
-73.00500047793804
 30
0.0
 40
0.800000000000031
100
AcDbArc
 50
194.9999999999939
 51
326.1925946402334
  0
ARC
  5
224
330
67
100
AcDbEntity
  8
0
  6
Continuous
 62
     7
100
AcDbCircle
 10
-104.9524537996246
 20
-65.70620513768455
 30
0.0
 40
1.349999999999993
100
AcDbArc
 50
105.9257815082011
 51
190.0000000000004
  0
ARC
  5
225
330
67
100
AcDbEntity
  8
0
  6
Continuous
 62
     7
100
AcDbCircle
 10
-106.0268107295851
 20
-73.00500047793804
 30
0.0
 40
0.2500000000000093
100
AcDbArc
 50
213.8074053597643
 51
345.0000000000005
  0
ARC
  5
226
330
67
100
AcDbEntity
  8
0
  6
Continuous
 62
     7
100
AcDbCircle
 10
-102.2272439662697
 20
-70.46070099996666
 30
0.0
 40
4.822763652595355
100
AcDbArc
 50
139.1307944396189
 51
213.8074053597613
  0
ARC
  5
227
330
67
100
AcDbEntity
  8
0
  6
Continuous
 62
     7
100
AcDbCircle
 10
-101.5732045081448
 20
-73.00500047793804
 30
0.0
 40
0.2500000000000277
100
AcDbArc
 50
194.9999999999928
 51
326.192594640223
  0
ARC
  5
228
330
67
100
AcDbEntity
  8
0
  6
Continuous
 62
     7
100
AcDbCircle
 10
-105.3727712714603
 20
-70.46070099996666
 30
0.0
 40
4.822763652595284
100
AcDbArc
 50
326.1925946402387
 51
40.86920556038127
  0
ARC
  5
229
330
67
100
AcDbEntity
  8
0
  6
Continuous
 62
     7
100
AcDbCircle
 10
-105.3727712714603
 20
-70.46070099996666
 30
0.0
 40
5.372763652595278
100
AcDbArc
 50
326.1925946402386
 51
43.33590911746562
  0
ARC
  5
22A
330
67
100
AcDbEntity
  8
0
  6
Continuous
 62
     7
100
AcDbCircle
 10
-102.2272439662697
 20
-70.46070099996666
 30
0.0
 40
5.372763652595256
100
AcDbArc
 50
136.6640908825338
 51
213.8074053597612
  0
ENDBLK
  5
69
330
67
100
AcDbEntity
  8
0
100
AcDbBlockEnd
  0
BLOCK
  5
6C
330
6A
100
AcDbEntity
  8
0
100
AcDbBlockBegin
  2
SA_Links1
 70
     0
 10
-103.7999971001932
 20
-69.000000238969
 30
0.0
  3
SA_Links1
  1

  0
INSERT
  5
6B
330
6A
100
AcDbEntity
  8
0
100
AcDbBlockReference
  2
0822466_PATG_3_30-select__4
 10
-107.600007618865
 20
-73.80500047793804
 30
0.0
  0
MTEXT
  5
22B
330
6A
100
AcDbEntity
  8
1
 62
     6
100
AcDbMText
 10
-103.7999971001932
 20
-76.30500223896905
 30
0.0
 40
2.5
 41
0.0
 71
     2
 72
     1
  1
 
  7
CONVERTER_11
 73
     1
 44
1.32052821128451
  0
ENDBLK
  5
6D
330
6A
100
AcDbEntity
  8
0
100
AcDbBlockEnd
  0
BLOCK
  5
6F
330
6E
100
AcDbEntity
  8
0
100
AcDbBlockBegin
  2
0822466_PATG_3_30-select__5
 70
     0
 10
-170.1999800182857
 20
-73.8050004779381
 30
0.0
  3
0822466_PATG_3_30-select__5
  1

  0
LINE
  5
22C
330
6E
100
AcDbEntity
  8
0
  6
Continuous
 62
     7
100
AcDbLine
 10
-164.4146583641378
 20
-73.0697052392137
 30
0.0
 11
-165.2090486107184
 21
-70.10500047793812
 31
0.0
  0
LINE
  5
22D
330
6E
100
AcDbEntity
  8
0
  6
Continuous
 62
     7
100
AcDbLine
 10
-164.9459175685968
 20
-73.21205571402004
 30
0.0
 11
-165.6310784541067
 21
-70.65500047793802
 31
0.0
  0
LINE
  5
22E
330
6E
100
AcDbEntity
  8
0
  6
Continuous
 62
     7
100
AcDbLine
 10
-168.8819166656116
 20
-65.94063017753513
 30
0.0
 11
-168.735057271951
 21
-66.77351118684277
 31
0.0
  0
LINE
  5
22F
330
6E
100
AcDbEntity
  8
0
  6
Continuous
 62
     7
100
AcDbLine
 10
-163.9180433709596
 20
-65.94063017753496
 30
0.0
 11
-164.0649027646203
 21
-66.77351118684277
 31
0.0
  0
LINE
  5
230
330
6E
100
AcDbEntity
  8
0
  6
Continuous
 62
     7
100
AcDbLine
 10
-168.3853016724335
 20
-73.0697052392137
 30
0.0
 11
-167.590911425853
 21
-70.10500047793812
 31
0.0
  0
LINE
  5
231
330
6E
100
AcDbEntity
  8
0
  6
Continuous
 62
     7
100
AcDbLine
 10
-167.8540424679745
 20
-73.21205571402004
 30
0.0
 11
-167.1688815824647
 21
-70.65500047793802
 31
0.0
  0
LINE
  5
232
330
6E
100
AcDbEntity
  8
0
  6
Continuous
 62
     7
100
AcDbLine
 10
-165.2090486107184
 20
-70.10500047793812
 30
0.0
 11
-167.590911425853
 21
-70.10500047793812
 31
0.0
  0
LINE
  5
233
330
6E
100
AcDbEntity
  8
0
  6
Continuous
 62
     7
100
AcDbLine
 10
-165.6310784541067
 20
-70.65500047793802
 30
0.0
 11
-167.1688815824647
 21
-70.65500047793802
 31
0.0
  0
LINE
  5
234
330
6E
100
AcDbEntity
  8
0
  6
Continuous
 62
     7
100
AcDbLine
 10
-164.3257444298525
 20
-67.305000477938
 30
0.0
 11
-168.4742156067188
 21
-67.305000477938
 31
0.0
  0
ARC
  5
235
330
6E
100
AcDbEntity
  8
0
  6
Continuous
 62
     7
100
AcDbCircle
 10
-167.5524261990452
 20
-65.7062051376846
 30
0.0
 40
1.350000000000029
100
AcDbArc
 50
105.9257815082063
 51
190.0000000000073
  0
ARC
  5
236
330
6E
100
AcDbEntity
  8
0
  6
Continuous
 62
     7
100
AcDbCircle
 10
-165.2475338375261
 20
-65.7062051376846
 30
0.0
 40
1.350000000000029
100
AcDbArc
 50
350.0000000000005
 51
74.07421849179485
  0
ARC
  5
237
330
6E
100
AcDbEntity
  8
0
  6
Continuous
 62
     7
100
AcDbCircle
 10
-166.3999800182857
 20
-69.74500047793799
 30
0.0
 40
5.550000000000003
100
AcDbArc
 50
74.07421849179546
 51
105.9257815082037
  0
ARC
  5
238
330
6E
100
AcDbEntity
  8
0
  6
Continuous
 62
     7
100
AcDbCircle
 10
-168.6267831290058
 20
-73.0050004779381
 30
0.0
 40
0.8000000000000156
100
AcDbArc
 50
213.807405359762
 51
345.0000000000059
  0
ARC
  5
239
330
6E
100
AcDbEntity
  8
0
  6
Continuous
 62
     7
100
AcDbCircle
 10
-164.1731769075655
 20
-73.0050004779381
 30
0.0
 40
0.8000000000000174
100
AcDbArc
 50
194.9999999999941
 51
326.1925946402379
  0
ARC
  5
23A
330
6E
100
AcDbEntity
  8
0
  6
Continuous
 62
     7
100
AcDbCircle
 10
-168.6267831290058
 20
-73.0050004779381
 30
0.0
 40
0.2500000000000211
100
AcDbArc
 50
213.8074053597624
 51
345.0000000000056
  0
ARC
  5
23B
330
6E
100
AcDbEntity
  8
0
  6
Continuous
 62
     7
100
AcDbCircle
 10
-164.8272163656903
 20
-70.46070099996672
 30
0.0
 40
4.822763652595333
100
AcDbArc
 50
139.1307944396186
 51
213.8074053597607
  0
ARC
  5
23C
330
6E
100
AcDbEntity
  8
0
  6
Continuous
 62
     7
100
AcDbCircle
 10
-164.1731769075655
 20
-73.0050004779381
 30
0.0
 40
0.2500000000000277
100
AcDbArc
 50
194.9999999999928
 51
326.1925946402375
  0
ARC
  5
23D
330
6E
100
AcDbEntity
  8
0
  6
Continuous
 62
     7
100
AcDbCircle
 10
-167.972743670881
 20
-70.46070099996672
 30
0.0
 40
4.822763652595366
100
AcDbArc
 50
326.1925946402393
 51
40.86920556038138
  0
ARC
  5
23E
330
6E
100
AcDbEntity
  8
0
  6
Continuous
 62
     7
100
AcDbCircle
 10
-167.972743670881
 20
-70.46070099996672
 30
0.0
 40
5.372763652595361
100
AcDbArc
 50
326.1925946402392
 51
43.33590911746573
  0
ARC
  5
23F
330
6E
100
AcDbEntity
  8
0
  6
Continuous
 62
     7
100
AcDbCircle
 10
-164.8272163656903
 20
-70.46070099996672
 30
0.0
 40
5.372763652595329
100
AcDbArc
 50
136.6640908825345
 51
213.8074053597608
  0
ENDBLK
  5
70
330
6E
100
AcDbEntity
  8
0
100
AcDbBlockEnd
  0
BLOCK
  5
73
330
71
100
AcDbEntity
  8
0
100
AcDbBlockBegin
  2
SA_Rechts1
 70
     0
 10
-166.3999905369574
 20
-69.00000023896905
 30
0.0
  3
SA_Rechts1
  1

  0
INSERT
  5
72
330
71
100
AcDbEntity
  8
0
100
AcDbBlockReference
  2
0822466_PATG_3_30-select__5
 10
-170.1999800182857
 20
-73.8050004779381
 30
0.0
  0
MTEXT
  5
240
330
71
100
AcDbEntity
  8
1
 62
     6
100
AcDbMText
 10
-166.3999905369575
 20
-76.30500223896905
 30
0.0
 40
2.5
 41
0.0
 71
     2
 72
     1
  1
 
  7
CONVERTER_11
 73
     1
 44
1.32052821128451
  0
ENDBLK
  5
74
330
71
100
AcDbEntity
  8
0
100
AcDbBlockEnd
  0
BLOCK
  5
76
330
75
100
AcDbEntity
  8
0
100
AcDbBlockBegin
  2
0822466_PATG_3_30-select__6
 70
     0
 10
-147.5999945330909
 20
-73.80500047793811
 30
0.0
  3
0822466_PATG_3_30-select__6
  1

  0
LINE
  5
241
330
75
100
AcDbEntity
  8
0
  6
Continuous
 62
     7
100
AcDbLine
 10
-117.5999945330909
 20
-64.40802092117457
 30
0.0
 11
-117.5999945330909
 21
-64.19500047793798
 31
0.0
  0
LINE
  5
242
330
75
100
AcDbEntity
  8
0
  6
Continuous
 62
     7
100
AcDbLine
 10
-147.5999945330909
 20
-64.40802092117457
 30
0.0
 11
-147.5999945330909
 21
-64.19500047793798
 31
0.0
  0
LINE
  5
243
330
75
100
AcDbEntity
  8
0
  6
Continuous
 62
     7
100
AcDbLine
 10
-147.5999945330909
 20
-65.94063017753513
 30
0.0
 11
-147.5999945330909
 21
-64.40802092117457
 31
0.0
  0
LINE
  5
244
330
75
100
AcDbEntity
  8
0
  6
Continuous
 62
     7
100
AcDbLine
 10
-117.5999945330909
 20
-66.77351118684277
 30
0.0
 11
-147.5999945330909
 21
-66.77351118684277
 31
0.0
  0
LINE
  5
245
330
75
100
AcDbEntity
  8
0
  6
Continuous
 62
     2
100
AcDbLine
 10
-117.5999945330909
 20
-65.94063017753513
 30
0.0
 11
-147.5999945330909
 21
-65.94063017753513
 31
0.0
  0
LINE
  5
246
330
75
100
AcDbEntity
  8
0
  6
Continuous
 62
     2
100
AcDbLine
 10
-117.5999945330909
 20
-64.40802092117457
 30
0.0
 11
-147.5999945330909
 21
-64.40802092117457
 31
0.0
  0
LINE
  5
247
330
75
100
AcDbEntity
  8
0
  6
Continuous
 62
     7
100
AcDbLine
 10
-117.5999945330909
 20
-64.19500047793798
 30
0.0
 11
-147.5999945330909
 21
-64.19500047793798
 31
0.0
  0
LINE
  5
248
330
75
100
AcDbEntity
  8
0
  6
Continuous
 62
     7
100
AcDbLine
 10
-117.5999945330909
 20
-65.94063017753513
 30
0.0
 11
-117.5999945330909
 21
-64.40802092117457
 31
0.0
  0
LINE
  5
249
330
75
100
AcDbEntity
  8
0
  6
Continuous
 62
     7
100
AcDbLine
 10
-117.5999945330909
 20
-73.45012288902575
 30
0.0
 11
-117.5999945330909
 21
-66.77351118684277
 31
0.0
  0
LINE
  5
24A
330
75
100
AcDbEntity
  8
0
  6
Continuous
 62
     7
100
AcDbLine
 10
-117.5999945330909
 20
-65.94063017753513
 30
0.0
 11
-117.5999945330909
 21
-66.77351118684277
 31
0.0
  0
LINE
  5
24B
330
75
100
AcDbEntity
  8
0
  6
Continuous
 62
     7
100
AcDbLine
 10
-147.5999945330909
 20
-65.94063017753513
 30
0.0
 11
-147.5999945330909
 21
-66.77351118684277
 31
0.0
  0
LINE
  5
24C
330
75
100
AcDbEntity
  8
0
  6
Continuous
 62
     7
100
AcDbLine
 10
-147.5999945330909
 20
-73.45012288902575
 30
0.0
 11
-147.5999945330909
 21
-66.77351118684277
 31
0.0
  0
LINE
  5
24D
330
75
100
AcDbEntity
  8
0
  6
Continuous
 62
     7
100
AcDbLine
 10
-117.5999945330909
 20
-73.80500047793811
 30
0.0
 11
-147.5999945330909
 21
-73.80500047793811
 31
0.0
  0
LINE
  5
24E
330
75
100
AcDbEntity
  8
0
  6
Continuous
 62
     7
100
AcDbLine
 10
-147.5999945330909
 20
-73.80500047793811
 30
0.0
 11
-147.5999945330909
 21
-73.45012288902575
 31
0.0
  0
LINE
  5
24F
330
75
100
AcDbEntity
  8
0
  6
Continuous
 62
     2
100
AcDbLine
 10
-117.5999945330909
 20
-73.45012288902575
 30
0.0
 11
-147.5999945330909
 21
-73.45012288902575
 31
0.0
  0
LINE
  5
250
330
75
100
AcDbEntity
  8
0
  6
Continuous
 62
     7
100
AcDbLine
 10
-117.5999945330909
 20
-73.80500047793811
 30
0.0
 11
-117.5999945330909
 21
-73.45012288902575
 31
0.0
  0
ENDBLK
  5
77
330
75
100
AcDbEntity
  8
0
100
AcDbBlockEnd
  0
BLOCK
  5
7A
330
78
100
AcDbEntity
  8
0
100
AcDbBlockBegin
  2
Vordans1
 70
     0
 10
-132.5999945330859
 20
-69.00000023896905
 30
0.0
  3
Vordans1
  1

  0
INSERT
  5
79
330
78
100
AcDbEntity
  8
0
100
AcDbBlockReference
  2
0822466_PATG_3_30-select__6
 10
-147.5999945330909
 20
-73.80500047793811
 30
0.0
  0
MTEXT
  5
251
330
78
100
AcDbEntity
  8
1
 62
     6
100
AcDbMText
 10
-132.5999945330861
 20
-76.30500223896905
 30
0.0
 40
2.5
 41
0.0
 71
     2
 72
     1
  1
 
  7
CONVERTER_11
 73
     1
 44
1.32052821128451
  0
DIMENSION
  5
25C
330
78
100
AcDbEntity
  8
1
100
AcDbDimension
  2
*D17
 10
-147.5999945330909
 20
-78.80500047793811
 30
0.0
 11
-132.5999945330909
 21
-77.18000047793811
 31
0.0
 70
    33
  1
<>
 71
     5
 42
-1.0
 53
0.00013888888889
  3
ME10_DIM_11
100
AcDbAlignedDimension
 13
-117.5999945330909
 23
-73.80500047793811
 33
0.0
 14
-147.5999945330909
 24
-73.80500047793811
 34
0.0
  0
DIMENSION
  5
267
330
78
100
AcDbEntity
  8
1
100
AcDbDimension
  2
*D18
 10
-152.5999945330909
 20
-64.19500047793798
 30
0.0
 11
-154.3124945330909
 21
-69.00000047793804
 31
0.0
 70
    32
  1
<>
 71
     5
 42
-1.0
 53
90.0
  3
ME10_DIM_12
100
AcDbAlignedDimension
 13
-147.5999945330909
 23
-73.80500047793811
 33
0.0
 14
-147.5999945330909
 24
-64.19500047793798
 34
0.0
 50
90.0
100
AcDbRotatedDimension
  0
ENDBLK
  5
7B
330
78
100
AcDbEntity
  8
0
100
AcDbBlockEnd
  0
BLOCK
  5
202
330
1FB
100
AcDbEntity
  8
0
100
AcDbBlockBegin
  2
*D16
 70
     1
 10
0.0
 20
0.0
 30
0.0
  3
*D16
  1

  0
LINE
  5
1FC
330
1FB
100
AcDbEntity
  8
1
  6
Continuous
 62
     2
100
AcDbLine
 10
-152.5999952334694
 20
-88.80499022305997
 30
0.0
 11
-152.5999952334694
 21
-96.40499022306
 31
0.0
  0
LINE
  5
1FD
330
1FB
100
AcDbEntity
  8
1
  6
Continuous
 62
     2
100
AcDbLine
 10
-147.5999952334694
 20
-88.80499022305997
 30
0.0
 11
-153.3499952334694
 21
-88.80499022305997
 31
0.0
  0
LINE
  5
1FE
330
1FB
100
AcDbEntity
  8
1
  6
Continuous
 62
     2
100
AcDbLine
 10
-147.5999952334694
 20
-96.40499022306
 30
0.0
 11
-153.3499952334694
 21
-96.40499022306
 31
0.0
  0
SOLID
  5
1FF
330
1FB
100
AcDbEntity
  8
1
 62
     2
100
AcDbTrace
 10
-152.3696033626915
 20
-90.55499022305997
 30
0.0
 11
-152.8303871042473
 21
-90.55499022305997
 31
0.0
 12
-152.5999952334694
 22
-88.80499022305997
 32
0.0
 13
-152.5999952334694
 23
-88.80499022305997
 33
0.0
  0
SOLID
  5
200
330
1FB
100
AcDbEntity
  8
1
 62
     2
100
AcDbTrace
 10
-152.8303871042473
 20
-94.65499022306
 30
0.0
 11
-152.3696033626915
 21
-94.65499022306
 31
0.0
 12
-152.5999952334694
 22
-96.40499022306
 32
0.0
 13
-152.5999952334694
 23
-96.40499022306
 33
0.0
  0
MTEXT
  5
201
330
1FB
100
AcDbEntity
  8
1
 62
     3
100
AcDbMText
 10
-153.5249952334694
 20
-94.22374022305999
 30
0.0
 40
1.75
 41
0.0
 71
     7
 72
     1
  1
7,6
  7
CONVERTER_11
 11
0.0
 21
1.0
 31
0.0
 73
     1
 44
0.60024009603842
  0
ENDBLK
  5
203
330
1FB
100
AcDbEntity
  8
0
100
AcDbBlockEnd
  0
BLOCK
  5
259
330
252
100
AcDbEntity
  8
0
100
AcDbBlockBegin
  2
*D17
 70
     1
 10
0.0
 20
0.0
 30
0.0
  3
*D17
  1

  0
LINE
  5
253
330
252
100
AcDbEntity
  8
1
  6
Continuous
 62
     2
100
AcDbLine
 10
-147.5999945330909
 20
-78.80500047793811
 30
0.0
 11
-117.5999945330909
 21
-78.80500047793811
 31
0.0
  0
LINE
  5
254
330
252
100
AcDbEntity
  8
1
  6
Continuous
 62
     2
100
AcDbLine
 10
-147.5999945330909
 20
-73.80500047793811
 30
0.0
 11
-147.5999945330909
 21
-79.55500047793811
 31
0.0
  0
LINE
  5
255
330
252
100
AcDbEntity
  8
1
  6
Continuous
 62
     2
100
AcDbLine
 10
-117.5999945330909
 20
-73.80500047793811
 30
0.0
 11
-117.5999945330909
 21
-79.55500047793811
 31
0.0
  0
SOLID
  5
256
330
252
100
AcDbEntity
  8
1
 62
     2
100
AcDbTrace
 10
-145.8499945330909
 20
-78.57460860716017
 30
0.0
 11
-145.8499945330909
 21
-79.03539234871604
 31
0.0
 12
-147.5999945330909
 22
-78.80500047793811
 32
0.0
 13
-147.5999945330909
 23
-78.80500047793811
 33
0.0
  0
SOLID
  5
257
330
252
100
AcDbEntity
  8
1
 62
     2
100
AcDbTrace
 10
-119.3499945330909
 20
-79.03539234871604
 30
0.0
 11
-119.3499945330909
 21
-78.57460860716017
 31
0.0
 12
-117.5999945330909
 22
-78.80500047793811
 32
0.0
 13
-117.5999945330909
 23
-78.80500047793811
 33
0.0
  0
MTEXT
  5
258
330
252
100
AcDbEntity
  8
1
 62
     3
100
AcDbMText
 10
-133.9124945330909
 20
-78.05500047793811
 30
0.0
 40
1.75
 41
0.0
 71
     7
 72
     1
  1
30
  7
CONVERTER_11
 11
0.9999999999970619
 21
2.424068405545306E-6
 31
0.0
 73
     1
 44
0.60024009603842
  0
ENDBLK
  5
25A
330
252
100
AcDbEntity
  8
0
100
AcDbBlockEnd
  0
BLOCK
  5
264
330
25D
100
AcDbEntity
  8
0
100
AcDbBlockBegin
  2
*D18
 70
     1
 10
0.0
 20
0.0
 30
0.0
  3
*D18
  1

  0
LINE
  5
25E
330
25D
100
AcDbEntity
  8
1
  6
Continuous
 62
     2
100
AcDbLine
 10
-152.5999945330909
 20
-64.19500047793798
 30
0.0
 11
-152.5999945330909
 21
-73.80500047793811
 31
0.0
  0
LINE
  5
25F
330
25D
100
AcDbEntity
  8
1
  6
Continuous
 62
     2
100
AcDbLine
 10
-147.5999945330909
 20
-73.80500047793811
 30
0.0
 11
-153.3499945330909
 21
-73.80500047793811
 31
0.0
  0
LINE
  5
260
330
25D
100
AcDbEntity
  8
1
  6
Continuous
 62
     2
100
AcDbLine
 10
-147.5999945330909
 20
-64.19500047793798
 30
0.0
 11
-153.3499945330909
 21
-64.19500047793798
 31
0.0
  0
SOLID
  5
261
330
25D
100
AcDbEntity
  8
1
 62
     2
100
AcDbTrace
 10
-152.369602662313
 20
-65.94500047793798
 30
0.0
 11
-152.8303864038688
 21
-65.94500047793798
 31
0.0
 12
-152.5999945330909
 22
-64.19500047793798
 32
0.0
 13
-152.5999945330909
 23
-64.19500047793798
 33
0.0
  0
SOLID
  5
262
330
25D
100
AcDbEntity
  8
1
 62
     2
100
AcDbTrace
 10
-152.8303864038688
 20
-72.05500047793811
 30
0.0
 11
-152.369602662313
 21
-72.05500047793811
 31
0.0
 12
-152.5999945330909
 22
-73.80500047793811
 32
0.0
 13
-152.5999945330909
 23
-73.80500047793811
 33
0.0
  0
MTEXT
  5
263
330
25D
100
AcDbEntity
  8
1
 62
     3
100
AcDbMText
 10
-153.5249945330909
 20
-70.61875047793805
 30
0.0
 40
1.75
 41
0.0
 71
     7
 72
     1
  1
9,6
  7
CONVERTER_11
 11
0.0
 21
1.0
 31
0.0
 73
     1
 44
0.60024009603842
  0
ENDBLK
  5
265
330
25D
100
AcDbEntity
  8
0
100
AcDbBlockEnd
  0
ENDSEC
  0
SECTION
  2
ENTITIES
  0
INSERT
  5
7C
330
1F
100
AcDbEntity
  8
0
100
AcDbBlockReference
  2
A4I_CS
 10
-86.69998001827561
 20
-280.6427014628953
 30
0.0
  0
INSERT
  5
7D
330
1F
100
AcDbEntity
  8
0
100
AcDbBlockReference
  2
Allg1
 10
-135.9999942147939
 20
-211.331411104962
 30
0.0
 41
2.0
 42
2.0
 43
2.0
  0
INSERT
  5
7E
330
1F
100
AcDbEntity
  8
0
100
AcDbBlockReference
  2
Drfsicht1
 10
-265.1999904669288
 20
-185.2100014834635
 30
0.0
 41
2.0
 42
2.0
 43
2.0
  0
INSERT
  5
7F
330
1F
100
AcDbEntity
  8
0
100
AcDbBlockReference
  2
Rckans1
 10
-149.99999999999
 20
-138.0000004779381
 30
0.0
 41
2.0
 42
2.0
 43
2.0
  0
INSERT
  5
80
330
1F
100
AcDbEntity
  8
0
100
AcDbBlockReference
  2
SA_Links1
 10
-207.5999942003864
 20
-138.000000477938
 30
0.0
 41
2.0
 42
2.0
 43
2.0
  0
INSERT
  5
81
330
1F
100
AcDbEntity
  8
0
100
AcDbBlockReference
  2
SA_Rechts1
 10
-332.7999810739148
 20
-138.0000004779381
 30
0.0
 41
2.0
 42
2.0
 43
2.0
  0
INSERT
  5
82
330
1F
100
AcDbEntity
  8
0
100
AcDbBlockReference
  2
Vordans1
 10
-265.1999890661718
 20
-138.0000004779381
 30
0.0
 41
2.0
 42
2.0
 43
2.0
  0
ENDSEC
  0
SECTION
  2
OBJECTS
  0
DICTIONARY
  5
C
330
0
100
AcDbDictionary
281
     1
  3
ACAD_GROUP
350
D
  3
ACAD_LAYOUT
350
1A
  3
ACAD_MATERIAL
350
3B
  3
ACAD_MLEADERSTYLE
350
26A
  3
ACAD_MLINESTYLE
350
17
  3
ACAD_PLOTSETTINGS
350
19
  3
ACAD_PLOTSTYLENAME
350
E
  3
ACAD_VISUALSTYLE
350
2A
  3
AcDbVariableDictionary
350
268
  0
DICTIONARY
  5
D
102
{ACAD_REACTORS
330
C
102
}
330
C
100
AcDbDictionary
281
     1
  0
DICTIONARY
  5
1A
102
{ACAD_REACTORS
330
C
102
}
330
C
100
AcDbDictionary
281
     1
  3
Layout1
350
1E
  3
Layout2
350
26
  3
Model
350
22
  0
DICTIONARY
  5
3B
102
{ACAD_REACTORS
330
C
102
}
330
C
100
AcDbDictionary
281
     1
  3
ByBlock
350
3D
  3
ByLayer
350
3C
  3
Global
350
3E
  0
DICTIONARY
  5
26A
102
{ACAD_REACTORS
330
C
102
}
330
C
100
AcDbDictionary
281
     1
  0
DICTIONARY
  5
17
102
{ACAD_REACTORS
330
C
102
}
330
C
100
AcDbDictionary
281
     1
  3
Standard
350
18
  0
DICTIONARY
  5
19
102
{ACAD_REACTORS
330
C
102
}
330
C
100
AcDbDictionary
281
     1
  0
ACDBDICTIONARYWDFLT
  5
E
102
{ACAD_REACTORS
330
C
102
}
330
C
100
AcDbDictionary
281
     1
  3
Normal
350
F
100
AcDbDictionaryWithDefault
340
F
  0
DICTIONARY
  5
2A
102
{ACAD_REACTORS
330
C
102
}
330
C
100
AcDbDictionary
281
     1
  3
2dWireframe
350
2F
  3
3D Hidden
350
31
  3
3dWireframe
350
30
  3
Basic
350
32
  3
Brighten
350
36
  3
ColorChange
350
3A
  3
Conceptual
350
34
  3
Dim
350
35
  3
Facepattern
350
39
  3
Flat
350
2B
  3
FlatWithEdges
350
2C
  3
Gouraud
350
2D
  3
GouraudWithEdges
350
2E
  3
Linepattern
350
38
  3
Realistic
350
33
  3
Thicken
350
37
  0
DICTIONARY
  5
268
102
{ACAD_REACTORS
330
C
102
}
330
C
100
AcDbDictionary
281
     1
  3
DIMASSOC
350
26B
  3
HIDETEXT
350
26C
  0
LAYOUT
  5
1E
102
{ACAD_REACTORS
330
1A
102
}
330
1A
100
AcDbPlotSettings
  1

  2
none_device
  4

  6

 40
0.0
 41
0.0
 42
0.0
 43
0.0
 44
0.0
 45
0.0
 46
0.0
 47
0.0
 48
0.0
 49
0.0
140
0.0
141
0.0
142
1.0
143
1.0
 70
   688
 72
     0
 73
     0
 74
     5
  7

 75
    16
147
1.0
148
0.0
149
0.0
100
AcDbLayout
  1
Layout1
 70
     1
 71
     1
 10
0.0
 20
0.0
 11
12.0
 21
9.0
 12
0.0
 22
0.0
 32
0.0
 14
1.00000000000000E+20
 24
1.00000000000000E+20
 34
1.00000000000000E+20
 15
-1.00000000000000E+20
 25
-1.00000000000000E+20
 35
-1.00000000000000E+20
146
0.0
 13
0.0
 23
0.0
 33
0.0
 16
1.0
 26
0.0
 36
0.0
 17
0.0
 27
1.0
 37
0.0
 76
     0
330
1B
  0
LAYOUT
  5
26
102
{ACAD_REACTORS
330
1A
102
}
330
1A
100
AcDbPlotSettings
  1

  2
none_device
  4

  6

 40
0.0
 41
0.0
 42
0.0
 43
0.0
 44
0.0
 45
0.0
 46
0.0
 47
0.0
 48
0.0
 49
0.0
140
0.0
141
0.0
142
1.0
143
1.0
 70
   688
 72
     0
 73
     0
 74
     5
  7

 75
    16
147
1.0
148
0.0
149
0.0
100
AcDbLayout
  1
Layout2
 70
     1
 71
     2
 10
0.0
 20
0.0
 11
0.0
 21
0.0
 12
0.0
 22
0.0
 32
0.0
 14
0.0
 24
0.0
 34
0.0
 15
0.0
 25
0.0
 35
0.0
146
0.0
 13
0.0
 23
0.0
 33
0.0
 16
1.0
 26
0.0
 36
0.0
 17
0.0
 27
1.0
 37
0.0
 76
     0
330
23
  0
LAYOUT
  5
22
102
{ACAD_REACTORS
330
1A
102
}
330
1A
100
AcDbPlotSettings
  1

  2
none_device
  4

  6

 40
0.0
 41
0.0
 42
0.0
 43
0.0
 44
0.0
 45
0.0
 46
0.0
 47
0.0
 48
0.0
 49
0.0
140
0.0
141
0.0
142
1.0
143
1.0
 70
  1712
 72
     0
 73
     0
 74
     0
  7

 75
     0
147
1.0
148
0.0
149
0.0
100
AcDbLayout
  1
Model
 70
     1
 71
     0
 10
0.0
 20
0.0
 11
12.0
 21
9.0
 12
0.0
 22
0.0
 32
0.0
 14
-378.6999800182747
 24
-280.6427014628953
 34
0.0
 15
-81.69998001827662
 25
-70.64270146289519
 35
0.0
146
0.0
 13
0.0
 23
0.0
 33
0.0
 16
1.0
 26
0.0
 36
0.0
 17
0.0
 27
1.0
 37
0.0
 76
     0
330
1F
331
29
  0
MATERIAL
  5
3D
102
{ACAD_REACTORS
330
3B
102
}
102
{ACAD_XDICTIONARY
360
28F
102
}
330
3B
100
AcDbMaterial
  1
ByBlock
  0
MATERIAL
  5
3C
102
{ACAD_REACTORS
330
3B
102
}
102
{ACAD_XDICTIONARY
360
28D
102
}
330
3B
100
AcDbMaterial
  1
ByLayer
  0
MATERIAL
  5
3E
102
{ACAD_REACTORS
330
3B
102
}
102
{ACAD_XDICTIONARY
360
291
102
}
330
3B
100
AcDbMaterial
  1
Global
  0
MLINESTYLE
  5
18
102
{ACAD_REACTORS
330
17
102
}
330
17
100
AcDbMlineStyle
  2
Standard
 70
     0
  3

 62
   256
 51
90.0
 52
90.0
 71
     2
 49
0.5
 62
   256
  6
BYLAYER
 49
-0.5
 62
   256
  6
BYLAYER
  0
ACDBPLACEHOLDER
  5
F
102
{ACAD_REACTORS
330
E
102
}
330
E
  0
VISUALSTYLE
  5
2F
102
{ACAD_REACTORS
330
2A
102
}
102
{ACAD_XDICTIONARY
360
275
102
}
330
2A
100
AcDbVisualStyle
  2
2dWireframe
 70
     4
 71
     0
 72
     2
 73
     0
 90
        0
 40
-0.6
 41
-30.0
 62
     5
 63
     7
 74
     1
 91
        4
 64
     7
 65
   257
 75
     1
175
     1
 42
1.0
 92
        0
 66
   257
 43
1.0
 76
     1
 77
     6
 78
     2
 67
     7
 79
     5
170
     0
171
     0
290
     0
174
     0
 93
        1
 44
0.0
173
     0
291
     0
 45
0.0
1001
ACAD
1000
AcDbSavedByObjectVersion
1070
     0
  0
VISUALSTYLE
  5
31
102
{ACAD_REACTORS
330
2A
102
}
102
{ACAD_XDICTIONARY
360
279
102
}
330
2A
100
AcDbVisualStyle
  2
3D Hidden
 70
     6
 71
     1
 72
     2
 73
     2
 90
        0
 40
-0.6
 41
-30.0
 62
     5
 63
     7
 74
     2
 91
        2
 64
     7
 65
   257
 75
     2
175
     1
 42
40.0
 92
        0
 66
   257
 43
1.0
 76
     1
 77
     6
 78
     2
 67
     7
 79
     3
170
     0
171
     0
290
     0
174
     0
 93
        1
 44
0.0
173
     0
291
     0
 45
0.0
1001
ACAD
1000
AcDbSavedByObjectVersion
1070
     0
  0
VISUALSTYLE
  5
30
102
{ACAD_REACTORS
330
2A
102
}
102
{ACAD_XDICTIONARY
360
277
102
}
330
2A
100
AcDbVisualStyle
  2
3dWireframe
 70
     5
 71
     0
 72
     2
 73
     0
 90
        0
 40
-0.6
 41
-30.0
 62
     5
 63
     7
 74
     1
 91
        4
 64
     7
 65
   257
 75
     1
175
     1
 42
1.0
 92
        0
 66
   257
 43
1.0
 76
     1
 77
     6
 78
     2
 67
     7
 79
     5
170
     0
171
     0
290
     0
174
     0
 93
        1
 44
0.0
173
     0
291
     0
 45
0.0
1001
ACAD
1000
AcDbSavedByObjectVersion
1070
     0
  0
VISUALSTYLE
  5
32
102
{ACAD_REACTORS
330
2A
102
}
102
{ACAD_XDICTIONARY
360
27B
102
}
330
2A
100
AcDbVisualStyle
  2
Basic
 70
     7
 71
     1
 72
     0
 73
     1
 90
        0
 40
-0.6
 41
-30.0
 62
     5
 63
     7
 74
     0
 91
        4
 64
     7
 65
   257
 75
     1
175
     1
 42
1.0
 92
        8
 66
     7
 43
1.0
 76
     1
 77
     6
 78
     2
 67
     7
 79
     5
170
     0
171
     0
290
     0
174
     0
 93
        1
 44
0.0
173
     0
291
     1
 45
0.0
1001
ACAD
1000
AcDbSavedByObjectVersion
1070
     0
  0
VISUALSTYLE
  5
36
102
{ACAD_REACTORS
330
2A
102
}
102
{ACAD_XDICTIONARY
360
283
102
}
330
2A
100
AcDbVisualStyle
  2
Brighten
 70
    12
 71
     2
 72
     2
 73
     0
 90
        0
 40
-0.6
 41
-30.0
 62
     5
 63
     7
 74
     1
 91
        4
 64
     7
 65
   257
 75
     1
175
     1
 42
1.0
 92
        8
 66
     7
 43
1.0
 76
     1
 77
     6
 78
     2
 67
     7
 79
     5
170
     0
171
     0
290
     0
174
     0
 93
        1
 44
50.0
173
     0
291
     1
 45
0.0
1001
ACAD
1000
AcDbSavedByObjectVersion
1070
     0
  0
VISUALSTYLE
  5
3A
102
{ACAD_REACTORS
330
2A
102
}
102
{ACAD_XDICTIONARY
360
28B
102
}
330
2A
100
AcDbVisualStyle
  2
ColorChange
 70
    16
 71
     2
 72
     2
 73
     3
 90
        0
 40
-0.6
 41
-30.0
 62
     5
 63
     8
 74
     1
 91
        4
 64
     7
 65
   257
 75
     1
175
     1
 42
1.0
 92
        8
 66
     8
 43
1.0
 76
     1
 77
     6
 78
     2
 67
     7
 79
     5
170
     0
171
     0
290
     0
174
     0
 93
        1
 44
0.0
173
     0
291
     1
 45
0.0
1001
ACAD
1000
AcDbSavedByObjectVersion
1070
     0
  0
VISUALSTYLE
  5
34
102
{ACAD_REACTORS
330
2A
102
}
102
{ACAD_XDICTIONARY
360
27F
102
}
330
2A
100
AcDbVisualStyle
  2
Conceptual
 70
     9
 71
     3
 72
     2
 73
     0
 90
        0
 40
-0.6
 41
-30.0
 62
     5
 63
     7
 74
     2
 91
        2
 64
     7
 65
   257
 75
     1
175
     1
 42
40.0
 92
        8
 66
     7
 43
1.0
 76
     1
 77
     6
 78
     2
 67
     7
 79
     3
170
     0
171
     0
290
     0
174
     0
 93
        1
 44
0.0
173
     0
291
     0
 45
0.0
1001
ACAD
1000
AcDbSavedByObjectVersion
1070
     0
  0
VISUALSTYLE
  5
35
102
{ACAD_REACTORS
330
2A
102
}
102
{ACAD_XDICTIONARY
360
281
102
}
330
2A
100
AcDbVisualStyle
  2
Dim
 70
    11
 71
     2
 72
     2
 73
     0
 90
        0
 40
-0.6
 41
-30.0
 62
     5
 63
     7
 74
     1
 91
        4
 64
     7
 65
   257
 75
     1
175
     1
 42
1.0
 92
        8
 66
     7
 43
1.0
 76
     1
 77
     6
 78
     2
 67
     7
 79
     5
170
     0
171
     0
290
     0
174
     0
 93
        1
 44
-50.0
173
     0
291
     1
 45
0.0
1001
ACAD
1000
AcDbSavedByObjectVersion
1070
     0
  0
VISUALSTYLE
  5
39
102
{ACAD_REACTORS
330
2A
102
}
102
{ACAD_XDICTIONARY
360
289
102
}
330
2A
100
AcDbVisualStyle
  2
Facepattern
 70
    15
 71
     2
 72
     2
 73
     0
 90
        0
 40
-0.6
 41
-30.0
 62
     5
 63
     7
 74
     1
 91
        4
 64
     7
 65
   257
 75
     1
175
     1
 42
1.0
 92
        8
 66
     7
 43
1.0
 76
     1
 77
     6
 78
     2
 67
     7
 79
     5
170
     0
171
     0
290
     0
174
     0
 93
        1
 44
0.0
173
     0
291
     1
 45
0.0
1001
ACAD
1000
AcDbSavedByObjectVersion
1070
     0
  0
VISUALSTYLE
  5
2B
102
{ACAD_REACTORS
330
2A
102
}
102
{ACAD_XDICTIONARY
360
26D
102
}
330
2A
100
AcDbVisualStyle
  2
Flat
 70
     0
 71
     2
 72
     1
 73
     1
 90
        2
 40
-0.6
 41
30.0
 62
     5
 63
     7
 74
     0
 91
        4
 64
     7
 65
   257
 75
     1
175
     1
 42
1.0
 92
        8
 66
     7
 43
1.0
 76
     1
 77
     6
 78
     2
 67
     7
 79
     5
170
     0
171
     0
290
     0
174
     0
 93
       13
 44
0.0
173
     0
291
     1
 45
0.0
1001
ACAD
1000
AcDbSavedByObjectVersion
1070
     0
  0
VISUALSTYLE
  5
2C
102
{ACAD_REACTORS
330
2A
102
}
102
{ACAD_XDICTIONARY
360
26F
102
}
330
2A
100
AcDbVisualStyle
  2
FlatWithEdges
 70
     1
 71
     2
 72
     1
 73
     1
 90
        2
 40
-0.6
 41
30.0
 62
     5
 63
     7
 74
     1
 91
        4
 64
     7
 65
   257
 75
     1
175
     1
 42
1.0
 92
        0
 66
   257
 43
1.0
 76
     1
 77
     6
 78
     2
 67
     7
 79
     5
170
     0
171
     0
290
     0
174
     0
 93
       13
 44
0.0
173
     0
291
     1
 45
0.0
1001
ACAD
1000
AcDbSavedByObjectVersion
1070
     0
  0
VISUALSTYLE
  5
2D
102
{ACAD_REACTORS
330
2A
102
}
102
{ACAD_XDICTIONARY
360
271
102
}
330
2A
100
AcDbVisualStyle
  2
Gouraud
 70
     2
 71
     2
 72
     2
 73
     1
 90
        2
 40
-0.6
 41
30.0
 62
     5
 63
     7
 74
     0
 91
        4
 64
     7
 65
   257
 75
     1
175
     1
 42
1.0
 92
        0
 66
     7
 43
1.0
 76
     1
 77
     6
 78
     2
 67
     7
 79
     5
170
     0
171
     0
290
     0
174
     0
 93
       13
 44
0.0
173
     0
291
     1
 45
0.0
1001
ACAD
1000
AcDbSavedByObjectVersion
1070
     0
  0
VISUALSTYLE
  5
2E
102
{ACAD_REACTORS
330
2A
102
}
102
{ACAD_XDICTIONARY
360
273
102
}
330
2A
100
AcDbVisualStyle
  2
GouraudWithEdges
 70
     3
 71
     2
 72
     2
 73
     1
 90
        2
 40
-0.6
 41
30.0
 62
     5
 63
     7
 74
     1
 91
        4
 64
     7
 65
   257
 75
     1
175
     1
 42
1.0
 92
        0
 66
   257
 43
1.0
 76
     1
 77
     6
 78
     2
 67
     7
 79
     5
170
     0
171
     0
290
     0
174
     0
 93
       13
 44
0.0
173
     0
291
     1
 45
0.0
1001
ACAD
1000
AcDbSavedByObjectVersion
1070
     0
  0
VISUALSTYLE
  5
38
102
{ACAD_REACTORS
330
2A
102
}
102
{ACAD_XDICTIONARY
360
287
102
}
330
2A
100
AcDbVisualStyle
  2
Linepattern
 70
    14
 71
     2
 72
     2
 73
     0
 90
        0
 40
-0.6
 41
-30.0
 62
     5
 63
     7
 74
     1
 91
        4
 64
     7
 65
   257
 75
     7
175
     7
 42
1.0
 92
        8
 66
     7
 43
1.0
 76
     1
 77
     6
 78
     2
 67
     7
 79
     5
170
     0
171
     0
290
     0
174
     0
 93
        1
 44
0.0
173
     0
291
     1
 45
0.0
1001
ACAD
1000
AcDbSavedByObjectVersion
1070
     0
  0
VISUALSTYLE
  5
33
102
{ACAD_REACTORS
330
2A
102
}
102
{ACAD_XDICTIONARY
360
27D
102
}
330
2A
100
AcDbVisualStyle
  2
Realistic
 70
     8
 71
     2
 72
     2
 73
     0
 90
        0
 40
-0.6
 41
-30.0
 62
     5
 63
     7
 74
     1
 91
        0
 64
     7
 65
   257
 75
     1
175
     1
 42
1.0
 92
        8
 66
     8
 43
1.0
 76
     1
 77
     6
 78
     2
 67
     7
 79
     5
170
     0
171
     0
290
     0
174
     0
 93
       13
 44
0.0
173
     0
291
     0
 45
0.0
1001
ACAD
1000
AcDbSavedByObjectVersion
1070
     0
  0
VISUALSTYLE
  5
37
102
{ACAD_REACTORS
330
2A
102
}
102
{ACAD_XDICTIONARY
360
285
102
}
330
2A
100
AcDbVisualStyle
  2
Thicken
 70
    13
 71
     2
 72
     2
 73
     0
 90
        0
 40
-0.6
 41
-30.0
 62
     5
 63
     7
 74
     1
 91
        4
 64
     7
 65
   257
 75
     1
175
     1
 42
1.0
 92
       12
 66
     7
 43
1.0
 76
     1
 77
     6
 78
     2
 67
     7
 79
     5
170
     0
171
     0
290
     0
174
     0
 93
        1
 44
0.0
173
     0
291
     1
 45
0.0
1001
ACAD
1000
AcDbSavedByObjectVersion
1070
     0
  0
DICTIONARYVAR
  5
26B
102
{ACAD_REACTORS
330
268
102
}
330
268
100
DictionaryVariables
280
     0
  1
2
  0
DICTIONARYVAR
  5
26C
102
{ACAD_REACTORS
330
268
102
}
330
268
100
DictionaryVariables
280
     0
  1
1
  0
DICTIONARY
  5
28F
330
3D
100
AcDbDictionary
280
     1
281
     1
  3
ACAD_XREC_ROUNDTRIP
360
290
  0
DICTIONARY
  5
28D
330
3C
100
AcDbDictionary
280
     1
281
     1
  3
ACAD_XREC_ROUNDTRIP
360
28E
  0
DICTIONARY
  5
291
330
3E
100
AcDbDictionary
280
     1
281
     1
  3
ACAD_XREC_ROUNDTRIP
360
292
  0
DICTIONARY
  5
275
330
2F
100
AcDbDictionary
280
     1
281
     1
  3
ACAD_XREC_ROUNDTRIP
360
276
  0
DICTIONARY
  5
279
330
31
100
AcDbDictionary
280
     1
281
     1
  3
ACAD_XREC_ROUNDTRIP
360
27A
  0
DICTIONARY
  5
277
330
30
100
AcDbDictionary
280
     1
281
     1
  3
ACAD_XREC_ROUNDTRIP
360
278
  0
DICTIONARY
  5
27B
330
32
100
AcDbDictionary
280
     1
281
     1
  3
ACAD_XREC_ROUNDTRIP
360
27C
  0
DICTIONARY
  5
283
330
36
100
AcDbDictionary
280
     1
281
     1
  3
ACAD_XREC_ROUNDTRIP
360
284
  0
DICTIONARY
  5
28B
330
3A
100
AcDbDictionary
280
     1
281
     1
  3
ACAD_XREC_ROUNDTRIP
360
28C
  0
DICTIONARY
  5
27F
330
34
100
AcDbDictionary
280
     1
281
     1
  3
ACAD_XREC_ROUNDTRIP
360
280
  0
DICTIONARY
  5
281
330
35
100
AcDbDictionary
280
     1
281
     1
  3
ACAD_XREC_ROUNDTRIP
360
282
  0
DICTIONARY
  5
289
330
39
100
AcDbDictionary
280
     1
281
     1
  3
ACAD_XREC_ROUNDTRIP
360
28A
  0
DICTIONARY
  5
26D
330
2B
100
AcDbDictionary
280
     1
281
     1
  3
ACAD_XREC_ROUNDTRIP
360
26E
  0
DICTIONARY
  5
26F
330
2C
100
AcDbDictionary
280
     1
281
     1
  3
ACAD_XREC_ROUNDTRIP
360
270
  0
DICTIONARY
  5
271
330
2D
100
AcDbDictionary
280
     1
281
     1
  3
ACAD_XREC_ROUNDTRIP
360
272
  0
DICTIONARY
  5
273
330
2E
100
AcDbDictionary
280
     1
281
     1
  3
ACAD_XREC_ROUNDTRIP
360
274
  0
DICTIONARY
  5
287
330
38
100
AcDbDictionary
280
     1
281
     1
  3
ACAD_XREC_ROUNDTRIP
360
288
  0
DICTIONARY
  5
27D
330
33
100
AcDbDictionary
280
     1
281
     1
  3
ACAD_XREC_ROUNDTRIP
360
27E
  0
DICTIONARY
  5
285
330
37
100
AcDbDictionary
280
     1
281
     1
  3
ACAD_XREC_ROUNDTRIP
360
286
  0
XRECORD
  5
290
102
{ACAD_REACTORS
330
28F
102
}
330
28F
100
AcDbXrecord
280
     1
102
MATERIAL
148
0.0
149
0.0
149
0.0
 93
        0
 94
      127
282
     0
 72
     1
 77
     1
171
     1
175
     1
179
     1
273
     0
  0
XRECORD
  5
28E
102
{ACAD_REACTORS
330
28D
102
}
330
28D
100
AcDbXrecord
280
     1
102
MATERIAL
148
0.0
149
0.0
149
0.0
 93
        0
 94
      127
282
     0
 72
     1
 77
     1
171
     1
175
     1
179
     1
273
     0
  0
XRECORD
  5
292
102
{ACAD_REACTORS
330
291
102
}
330
291
100
AcDbXrecord
280
     1
102
MATERIAL
148
0.0
149
0.0
149
0.0
 93
        0
 94
      127
282
     0
 72
     1
 77
     1
171
     1
175
     1
179
     1
273
     0
  0
XRECORD
  5
276
102
{ACAD_REACTORS
330
275
102
}
330
275
100
AcDbXrecord
280
     1
102
RTVSPropertyOp0
 70
     1
102
RTVSPropertyOp1
 70
     1
102
RTVSPropertyOp2
 70
     1
102
RTVSPropertyOp3
 70
     1
102
RTVSPropertyOp4
 70
     1
102
RTVSPropertyOp5
 70
     1
102
RTVSPropertyOp6
 70
     1
102
RTVSPropertyOp7
 70
     1
102
RTVSPropertyOp8
 70
     1
102
RTVSPropertyOp9
 70
     1
102
RTVSPropertyOp10
 70
     1
102
RTVSPropertyOp11
 70
     1
102
RTVSPropertyOp12
 70
     1
102
RTVSPropertyOp13
 70
     1
102
RTVSPropertyOp14
 70
     1
102
RTVSPropertyOp15
 70
     1
102
RTVSPropertyOp16
 70
     1
102
RTVSPropertyOp17
 70
     1
102
RTVSPropertyOp18
 70
     1
102
RTVSPropertyOp19
 70
     1
102
RTVSPropertyOp20
 70
     1
102
RTVSPropertyOp21
 70
     1
102
RTVSPropertyOp22
 70
     1
102
RTVSPropertyOp23
 70
     1
102
RTVSPropertyOp24
 70
     1
102
RTVSPropertyOp25
 70
     1
102
RTVSPropertyOp26
 70
     1
102
RTVSPropertyOp27
 70
     1
102
RTVSPropertyOp28
 70
     1
102
RTVSPropertyOp29
 70
     1
102
RTVSPropertyOp30
 70
     1
102
RTVSPropertyOp31
 70
     1
102
RTVSPropertyOp32
 70
     1
  0
XRECORD
  5
27A
102
{ACAD_REACTORS
330
279
102
}
330
279
100
AcDbXrecord
280
     1
102
RTVSPropertyOp0
 70
     1
102
RTVSPropertyOp1
 70
     1
102
RTVSPropertyOp2
 70
     1
102
RTVSPropertyOp3
 70
     1
102
RTVSPropertyOp4
 70
     1
102
RTVSPropertyOp5
 70
     1
102
RTVSPropertyOp6
 70
     1
102
RTVSPropertyOp7
 70
     1
102
RTVSPropertyOp8
 70
     1
102
RTVSPropertyOp9
 70
     1
102
RTVSPropertyOp10
 70
     1
102
RTVSPropertyOp11
 70
     1
102
RTVSPropertyOp12
 70
     1
102
RTVSPropertyOp13
 70
     1
102
RTVSPropertyOp14
 70
     1
102
RTVSPropertyOp15
 70
     1
102
RTVSPropertyOp16
 70
     1
102
RTVSPropertyOp17
 70
     1
102
RTVSPropertyOp18
 70
     1
102
RTVSPropertyOp19
 70
     1
102
RTVSPropertyOp20
 70
     1
102
RTVSPropertyOp21
 70
     1
102
RTVSPropertyOp22
 70
     1
102
RTVSPropertyOp23
 70
     1
102
RTVSPropertyOp24
 70
     1
102
RTVSPropertyOp25
 70
     1
102
RTVSPropertyOp26
 70
     1
102
RTVSPropertyOp27
 70
     1
102
RTVSPropertyOp28
 70
     1
102
RTVSPropertyOp29
 70
     1
102
RTVSPropertyOp30
 70
     1
102
RTVSPropertyOp31
 70
     1
102
RTVSPropertyOp32
 70
     1
  0
XRECORD
  5
278
102
{ACAD_REACTORS
330
277
102
}
330
277
100
AcDbXrecord
280
     1
102
RTVSPropertyOp0
 70
     1
102
RTVSPropertyOp1
 70
     1
102
RTVSPropertyOp2
 70
     1
102
RTVSPropertyOp3
 70
     1
102
RTVSPropertyOp4
 70
     1
102
RTVSPropertyOp5
 70
     1
102
RTVSPropertyOp6
 70
     1
102
RTVSPropertyOp7
 70
     1
102
RTVSPropertyOp8
 70
     1
102
RTVSPropertyOp9
 70
     1
102
RTVSPropertyOp10
 70
     1
102
RTVSPropertyOp11
 70
     1
102
RTVSPropertyOp12
 70
     1
102
RTVSPropertyOp13
 70
     1
102
RTVSPropertyOp14
 70
     1
102
RTVSPropertyOp15
 70
     1
102
RTVSPropertyOp16
 70
     1
102
RTVSPropertyOp17
 70
     1
102
RTVSPropertyOp18
 70
     1
102
RTVSPropertyOp19
 70
     1
102
RTVSPropertyOp20
 70
     1
102
RTVSPropertyOp21
 70
     1
102
RTVSPropertyOp22
 70
     1
102
RTVSPropertyOp23
 70
     1
102
RTVSPropertyOp24
 70
     1
102
RTVSPropertyOp25
 70
     1
102
RTVSPropertyOp26
 70
     1
102
RTVSPropertyOp27
 70
     1
102
RTVSPropertyOp28
 70
     1
102
RTVSPropertyOp29
 70
     1
102
RTVSPropertyOp30
 70
     1
102
RTVSPropertyOp31
 70
     1
102
RTVSPropertyOp32
 70
     1
  0
XRECORD
  5
27C
102
{ACAD_REACTORS
330
27B
102
}
330
27B
100
AcDbXrecord
280
     1
102
RTVSPropertyOp0
 70
     1
102
RTVSPropertyOp1
 70
     1
102
RTVSPropertyOp2
 70
     1
102
RTVSPropertyOp3
 70
     1
102
RTVSPropertyOp4
 70
     1
102
RTVSPropertyOp5
 70
     1
102
RTVSPropertyOp6
 70
     1
102
RTVSPropertyOp7
 70
     1
102
RTVSPropertyOp8
 70
     1
102
RTVSPropertyOp9
 70
     1
102
RTVSPropertyOp10
 70
     1
102
RTVSPropertyOp11
 70
     1
102
RTVSPropertyOp12
 70
     1
102
RTVSPropertyOp13
 70
     1
102
RTVSPropertyOp14
 70
     1
102
RTVSPropertyOp15
 70
     1
102
RTVSPropertyOp16
 70
     1
102
RTVSPropertyOp17
 70
     1
102
RTVSPropertyOp18
 70
     1
102
RTVSPropertyOp19
 70
     1
102
RTVSPropertyOp20
 70
     1
102
RTVSPropertyOp21
 70
     1
102
RTVSPropertyOp22
 70
     1
102
RTVSPropertyOp23
 70
     1
102
RTVSPropertyOp24
 70
     1
102
RTVSPropertyOp25
 70
     1
102
RTVSPropertyOp26
 70
     1
102
RTVSPropertyOp27
 70
     1
102
RTVSPropertyOp28
 70
     1
102
RTVSPropertyOp29
 70
     1
102
RTVSPropertyOp30
 70
     1
102
RTVSPropertyOp31
 70
     1
102
RTVSPropertyOp32
 70
     1
  0
XRECORD
  5
284
102
{ACAD_REACTORS
330
283
102
}
330
283
100
AcDbXrecord
280
     1
102
RTVSPropertyOp0
 70
     1
102
RTVSPropertyOp1
 70
     1
102
RTVSPropertyOp2
 70
     1
102
RTVSPropertyOp3
 70
     1
102
RTVSPropertyOp4
 70
     1
102
RTVSPropertyOp5
 70
     1
102
RTVSPropertyOp6
 70
     1
102
RTVSPropertyOp7
 70
     1
102
RTVSPropertyOp8
 70
     1
102
RTVSPropertyOp9
 70
     1
102
RTVSPropertyOp10
 70
     1
102
RTVSPropertyOp11
 70
     1
102
RTVSPropertyOp12
 70
     1
102
RTVSPropertyOp13
 70
     1
102
RTVSPropertyOp14
 70
     1
102
RTVSPropertyOp15
 70
     1
102
RTVSPropertyOp16
 70
     1
102
RTVSPropertyOp17
 70
     1
102
RTVSPropertyOp18
 70
     1
102
RTVSPropertyOp19
 70
     1
102
RTVSPropertyOp20
 70
     1
102
RTVSPropertyOp21
 70
     1
102
RTVSPropertyOp22
 70
     1
102
RTVSPropertyOp23
 70
     1
102
RTVSPropertyOp24
 70
     1
102
RTVSPropertyOp25
 70
     1
102
RTVSPropertyOp26
 70
     1
102
RTVSPropertyOp27
 70
     1
102
RTVSPropertyOp28
 70
     1
102
RTVSPropertyOp29
 70
     1
102
RTVSPropertyOp30
 70
     1
102
RTVSPropertyOp31
 70
     1
102
RTVSPropertyOp32
 70
     1
  0
XRECORD
  5
28C
102
{ACAD_REACTORS
330
28B
102
}
330
28B
100
AcDbXrecord
280
     1
102
RTVSPropertyOp0
 70
     1
102
RTVSPropertyOp1
 70
     1
102
RTVSPropertyOp2
 70
     1
102
RTVSPropertyOp3
 70
     1
102
RTVSPropertyOp4
 70
     1
102
RTVSPropertyOp5
 70
     1
102
RTVSPropertyOp6
 70
     1
102
RTVSPropertyOp7
 70
     1
102
RTVSPropertyOp8
 70
     1
102
RTVSPropertyOp9
 70
     1
102
RTVSPropertyOp10
 70
     1
102
RTVSPropertyOp11
 70
     1
102
RTVSPropertyOp12
 70
     1
102
RTVSPropertyOp13
 70
     1
102
RTVSPropertyOp14
 70
     1
102
RTVSPropertyOp15
 70
     1
102
RTVSPropertyOp16
 70
     1
102
RTVSPropertyOp17
 70
     1
102
RTVSPropertyOp18
 70
     1
102
RTVSPropertyOp19
 70
     1
102
RTVSPropertyOp20
 70
     1
102
RTVSPropertyOp21
 70
     1
102
RTVSPropertyOp22
 70
     1
102
RTVSPropertyOp23
 70
     1
102
RTVSPropertyOp24
 70
     1
102
RTVSPropertyOp25
 70
     1
102
RTVSPropertyOp26
 70
     1
102
RTVSPropertyOp27
 70
     1
102
RTVSPropertyOp28
 70
     1
102
RTVSPropertyOp29
 70
     1
102
RTVSPropertyOp30
 70
     1
102
RTVSPropertyOp31
 70
     1
102
RTVSPropertyOp32
 70
     1
  0
XRECORD
  5
280
102
{ACAD_REACTORS
330
27F
102
}
330
27F
100
AcDbXrecord
280
     1
102
RTVSPropertyOp0
 70
     1
102
RTVSPropertyOp1
 70
     1
102
RTVSPropertyOp2
 70
     1
102
RTVSPropertyOp3
 70
     1
102
RTVSPropertyOp4
 70
     1
102
RTVSPropertyOp5
 70
     1
102
RTVSPropertyOp6
 70
     1
102
RTVSPropertyOp7
 70
     1
102
RTVSPropertyOp8
 70
     1
102
RTVSPropertyOp9
 70
     1
102
RTVSPropertyOp10
 70
     1
102
RTVSPropertyOp11
 70
     1
102
RTVSPropertyOp12
 70
     1
102
RTVSPropertyOp13
 70
     1
102
RTVSPropertyOp14
 70
     1
102
RTVSPropertyOp15
 70
     1
102
RTVSPropertyOp16
 70
     1
102
RTVSPropertyOp17
 70
     1
102
RTVSPropertyOp18
 70
     1
102
RTVSPropertyOp19
 70
     1
102
RTVSPropertyOp20
 70
     1
102
RTVSPropertyOp21
 70
     1
102
RTVSPropertyOp22
 70
     1
102
RTVSPropertyOp23
 70
     1
102
RTVSPropertyOp24
 70
     1
102
RTVSPropertyOp25
 70
     1
102
RTVSPropertyOp26
 70
     1
102
RTVSPropertyOp27
 70
     1
102
RTVSPropertyOp28
 70
     1
102
RTVSPropertyOp29
 70
     1
102
RTVSPropertyOp30
 70
     1
102
RTVSPropertyOp31
 70
     1
102
RTVSPropertyOp32
 70
     1
  0
XRECORD
  5
282
102
{ACAD_REACTORS
330
281
102
}
330
281
100
AcDbXrecord
280
     1
102
RTVSPropertyOp0
 70
     1
102
RTVSPropertyOp1
 70
     1
102
RTVSPropertyOp2
 70
     1
102
RTVSPropertyOp3
 70
     1
102
RTVSPropertyOp4
 70
     1
102
RTVSPropertyOp5
 70
     1
102
RTVSPropertyOp6
 70
     1
102
RTVSPropertyOp7
 70
     1
102
RTVSPropertyOp8
 70
     1
102
RTVSPropertyOp9
 70
     1
102
RTVSPropertyOp10
 70
     1
102
RTVSPropertyOp11
 70
     1
102
RTVSPropertyOp12
 70
     1
102
RTVSPropertyOp13
 70
     1
102
RTVSPropertyOp14
 70
     1
102
RTVSPropertyOp15
 70
     1
102
RTVSPropertyOp16
 70
     1
102
RTVSPropertyOp17
 70
     1
102
RTVSPropertyOp18
 70
     1
102
RTVSPropertyOp19
 70
     1
102
RTVSPropertyOp20
 70
     1
102
RTVSPropertyOp21
 70
     1
102
RTVSPropertyOp22
 70
     1
102
RTVSPropertyOp23
 70
     1
102
RTVSPropertyOp24
 70
     1
102
RTVSPropertyOp25
 70
     1
102
RTVSPropertyOp26
 70
     1
102
RTVSPropertyOp27
 70
     1
102
RTVSPropertyOp28
 70
     1
102
RTVSPropertyOp29
 70
     1
102
RTVSPropertyOp30
 70
     1
102
RTVSPropertyOp31
 70
     1
102
RTVSPropertyOp32
 70
     1
  0
XRECORD
  5
28A
102
{ACAD_REACTORS
330
289
102
}
330
289
100
AcDbXrecord
280
     1
102
RTVSPropertyOp0
 70
     1
102
RTVSPropertyOp1
 70
     1
102
RTVSPropertyOp2
 70
     1
102
RTVSPropertyOp3
 70
     1
102
RTVSPropertyOp4
 70
     1
102
RTVSPropertyOp5
 70
     1
102
RTVSPropertyOp6
 70
     1
102
RTVSPropertyOp7
 70
     1
102
RTVSPropertyOp8
 70
     1
102
RTVSPropertyOp9
 70
     1
102
RTVSPropertyOp10
 70
     1
102
RTVSPropertyOp11
 70
     1
102
RTVSPropertyOp12
 70
     1
102
RTVSPropertyOp13
 70
     1
102
RTVSPropertyOp14
 70
     1
102
RTVSPropertyOp15
 70
     1
102
RTVSPropertyOp16
 70
     1
102
RTVSPropertyOp17
 70
     1
102
RTVSPropertyOp18
 70
     1
102
RTVSPropertyOp19
 70
     1
102
RTVSPropertyOp20
 70
     1
102
RTVSPropertyOp21
 70
     1
102
RTVSPropertyOp22
 70
     1
102
RTVSPropertyOp23
 70
     1
102
RTVSPropertyOp24
 70
     1
102
RTVSPropertyOp25
 70
     1
102
RTVSPropertyOp26
 70
     1
102
RTVSPropertyOp27
 70
     1
102
RTVSPropertyOp28
 70
     1
102
RTVSPropertyOp29
 70
     1
102
RTVSPropertyOp30
 70
     1
102
RTVSPropertyOp31
 70
     1
102
RTVSPropertyOp32
 70
     1
  0
XRECORD
  5
26E
102
{ACAD_REACTORS
330
26D
102
}
330
26D
100
AcDbXrecord
280
     1
102
RTVSPropertyOp0
 70
     1
102
RTVSPropertyOp1
 70
     1
102
RTVSPropertyOp2
 70
     1
102
RTVSPropertyOp3
 70
     1
102
RTVSPropertyOp4
 70
     1
102
RTVSPropertyOp5
 70
     1
102
RTVSPropertyOp6
 70
     1
102
RTVSPropertyOp7
 70
     1
102
RTVSPropertyOp8
 70
     1
102
RTVSPropertyOp9
 70
     1
102
RTVSPropertyOp10
 70
     1
102
RTVSPropertyOp11
 70
     1
102
RTVSPropertyOp12
 70
     1
102
RTVSPropertyOp13
 70
     1
102
RTVSPropertyOp14
 70
     1
102
RTVSPropertyOp15
 70
     1
102
RTVSPropertyOp16
 70
     1
102
RTVSPropertyOp17
 70
     1
102
RTVSPropertyOp18
 70
     1
102
RTVSPropertyOp19
 70
     1
102
RTVSPropertyOp20
 70
     1
102
RTVSPropertyOp21
 70
     1
102
RTVSPropertyOp22
 70
     1
102
RTVSPropertyOp23
 70
     1
102
RTVSPropertyOp24
 70
     1
102
RTVSPropertyOp25
 70
     1
102
RTVSPropertyOp26
 70
     1
102
RTVSPropertyOp27
 70
     1
102
RTVSPropertyOp28
 70
     1
102
RTVSPropertyOp29
 70
     1
102
RTVSPropertyOp30
 70
     1
102
RTVSPropertyOp31
 70
     1
102
RTVSPropertyOp32
 70
     1
  0
XRECORD
  5
270
102
{ACAD_REACTORS
330
26F
102
}
330
26F
100
AcDbXrecord
280
     1
102
RTVSPropertyOp0
 70
     1
102
RTVSPropertyOp1
 70
     1
102
RTVSPropertyOp2
 70
     1
102
RTVSPropertyOp3
 70
     1
102
RTVSPropertyOp4
 70
     1
102
RTVSPropertyOp5
 70
     1
102
RTVSPropertyOp6
 70
     1
102
RTVSPropertyOp7
 70
     1
102
RTVSPropertyOp8
 70
     1
102
RTVSPropertyOp9
 70
     1
102
RTVSPropertyOp10
 70
     1
102
RTVSPropertyOp11
 70
     1
102
RTVSPropertyOp12
 70
     1
102
RTVSPropertyOp13
 70
     1
102
RTVSPropertyOp14
 70
     1
102
RTVSPropertyOp15
 70
     1
102
RTVSPropertyOp16
 70
     1
102
RTVSPropertyOp17
 70
     1
102
RTVSPropertyOp18
 70
     1
102
RTVSPropertyOp19
 70
     1
102
RTVSPropertyOp20
 70
     1
102
RTVSPropertyOp21
 70
     1
102
RTVSPropertyOp22
 70
     1
102
RTVSPropertyOp23
 70
     1
102
RTVSPropertyOp24
 70
     1
102
RTVSPropertyOp25
 70
     1
102
RTVSPropertyOp26
 70
     1
102
RTVSPropertyOp27
 70
     1
102
RTVSPropertyOp28
 70
     1
102
RTVSPropertyOp29
 70
     1
102
RTVSPropertyOp30
 70
     1
102
RTVSPropertyOp31
 70
     1
102
RTVSPropertyOp32
 70
     1
  0
XRECORD
  5
272
102
{ACAD_REACTORS
330
271
102
}
330
271
100
AcDbXrecord
280
     1
102
RTVSPropertyOp0
 70
     1
102
RTVSPropertyOp1
 70
     1
102
RTVSPropertyOp2
 70
     1
102
RTVSPropertyOp3
 70
     1
102
RTVSPropertyOp4
 70
     1
102
RTVSPropertyOp5
 70
     1
102
RTVSPropertyOp6
 70
     1
102
RTVSPropertyOp7
 70
     1
102
RTVSPropertyOp8
 70
     1
102
RTVSPropertyOp9
 70
     1
102
RTVSPropertyOp10
 70
     1
102
RTVSPropertyOp11
 70
     1
102
RTVSPropertyOp12
 70
     1
102
RTVSPropertyOp13
 70
     1
102
RTVSPropertyOp14
 70
     1
102
RTVSPropertyOp15
 70
     1
102
RTVSPropertyOp16
 70
     1
102
RTVSPropertyOp17
 70
     1
102
RTVSPropertyOp18
 70
     1
102
RTVSPropertyOp19
 70
     1
102
RTVSPropertyOp20
 70
     1
102
RTVSPropertyOp21
 70
     1
102
RTVSPropertyOp22
 70
     1
102
RTVSPropertyOp23
 70
     1
102
RTVSPropertyOp24
 70
     1
102
RTVSPropertyOp25
 70
     1
102
RTVSPropertyOp26
 70
     1
102
RTVSPropertyOp27
 70
     1
102
RTVSPropertyOp28
 70
     1
102
RTVSPropertyOp29
 70
     1
102
RTVSPropertyOp30
 70
     1
102
RTVSPropertyOp31
 70
     1
102
RTVSPropertyOp32
 70
     1
  0
XRECORD
  5
274
102
{ACAD_REACTORS
330
273
102
}
330
273
100
AcDbXrecord
280
     1
102
RTVSPropertyOp0
 70
     1
102
RTVSPropertyOp1
 70
     1
102
RTVSPropertyOp2
 70
     1
102
RTVSPropertyOp3
 70
     1
102
RTVSPropertyOp4
 70
     1
102
RTVSPropertyOp5
 70
     1
102
RTVSPropertyOp6
 70
     1
102
RTVSPropertyOp7
 70
     1
102
RTVSPropertyOp8
 70
     1
102
RTVSPropertyOp9
 70
     1
102
RTVSPropertyOp10
 70
     1
102
RTVSPropertyOp11
 70
     1
102
RTVSPropertyOp12
 70
     1
102
RTVSPropertyOp13
 70
     1
102
RTVSPropertyOp14
 70
     1
102
RTVSPropertyOp15
 70
     1
102
RTVSPropertyOp16
 70
     1
102
RTVSPropertyOp17
 70
     1
102
RTVSPropertyOp18
 70
     1
102
RTVSPropertyOp19
 70
     1
102
RTVSPropertyOp20
 70
     1
102
RTVSPropertyOp21
 70
     1
102
RTVSPropertyOp22
 70
     1
102
RTVSPropertyOp23
 70
     1
102
RTVSPropertyOp24
 70
     1
102
RTVSPropertyOp25
 70
     1
102
RTVSPropertyOp26
 70
     1
102
RTVSPropertyOp27
 70
     1
102
RTVSPropertyOp28
 70
     1
102
RTVSPropertyOp29
 70
     1
102
RTVSPropertyOp30
 70
     1
102
RTVSPropertyOp31
 70
     1
102
RTVSPropertyOp32
 70
     1
  0
XRECORD
  5
288
102
{ACAD_REACTORS
330
287
102
}
330
287
100
AcDbXrecord
280
     1
102
RTVSPropertyOp0
 70
     1
102
RTVSPropertyOp1
 70
     1
102
RTVSPropertyOp2
 70
     1
102
RTVSPropertyOp3
 70
     1
102
RTVSPropertyOp4
 70
     1
102
RTVSPropertyOp5
 70
     1
102
RTVSPropertyOp6
 70
     1
102
RTVSPropertyOp7
 70
     1
102
RTVSPropertyOp8
 70
     1
102
RTVSPropertyOp9
 70
     1
102
RTVSPropertyOp10
 70
     1
102
RTVSPropertyOp11
 70
     1
102
RTVSPropertyOp12
 70
     1
102
RTVSPropertyOp13
 70
     1
102
RTVSPropertyOp14
 70
     1
102
RTVSPropertyOp15
 70
     1
102
RTVSPropertyOp16
 70
     1
102
RTVSPropertyOp17
 70
     1
102
RTVSPropertyOp18
 70
     1
102
RTVSPropertyOp19
 70
     1
102
RTVSPropertyOp20
 70
     1
102
RTVSPropertyOp21
 70
     1
102
RTVSPropertyOp22
 70
     1
102
RTVSPropertyOp23
 70
     1
102
RTVSPropertyOp24
 70
     1
102
RTVSPropertyOp25
 70
     1
102
RTVSPropertyOp26
 70
     1
102
RTVSPropertyOp27
 70
     1
102
RTVSPropertyOp28
 70
     1
102
RTVSPropertyOp29
 70
     1
102
RTVSPropertyOp30
 70
     1
102
RTVSPropertyOp31
 70
     1
102
RTVSPropertyOp32
 70
     1
  0
XRECORD
  5
27E
102
{ACAD_REACTORS
330
27D
102
}
330
27D
100
AcDbXrecord
280
     1
102
RTVSPropertyOp0
 70
     1
102
RTVSPropertyOp1
 70
     1
102
RTVSPropertyOp2
 70
     1
102
RTVSPropertyOp3
 70
     1
102
RTVSPropertyOp4
 70
     1
102
RTVSPropertyOp5
 70
     1
102
RTVSPropertyOp6
 70
     1
102
RTVSPropertyOp7
 70
     1
102
RTVSPropertyOp8
 70
     1
102
RTVSPropertyOp9
 70
     1
102
RTVSPropertyOp10
 70
     1
102
RTVSPropertyOp11
 70
     1
102
RTVSPropertyOp12
 70
     1
102
RTVSPropertyOp13
 70
     1
102
RTVSPropertyOp14
 70
     1
102
RTVSPropertyOp15
 70
     1
102
RTVSPropertyOp16
 70
     1
102
RTVSPropertyOp17
 70
     1
102
RTVSPropertyOp18
 70
     1
102
RTVSPropertyOp19
 70
     1
102
RTVSPropertyOp20
 70
     1
102
RTVSPropertyOp21
 70
     1
102
RTVSPropertyOp22
 70
     1
102
RTVSPropertyOp23
 70
     1
102
RTVSPropertyOp24
 70
     1
102
RTVSPropertyOp25
 70
     1
102
RTVSPropertyOp26
 70
     1
102
RTVSPropertyOp27
 70
     1
102
RTVSPropertyOp28
 70
     1
102
RTVSPropertyOp29
 70
     1
102
RTVSPropertyOp30
 70
     1
102
RTVSPropertyOp31
 70
     1
102
RTVSPropertyOp32
 70
     1
  0
XRECORD
  5
286
102
{ACAD_REACTORS
330
285
102
}
330
285
100
AcDbXrecord
280
     1
102
RTVSPropertyOp0
 70
     1
102
RTVSPropertyOp1
 70
     1
102
RTVSPropertyOp2
 70
     1
102
RTVSPropertyOp3
 70
     1
102
RTVSPropertyOp4
 70
     1
102
RTVSPropertyOp5
 70
     1
102
RTVSPropertyOp6
 70
     1
102
RTVSPropertyOp7
 70
     1
102
RTVSPropertyOp8
 70
     1
102
RTVSPropertyOp9
 70
     1
102
RTVSPropertyOp10
 70
     1
102
RTVSPropertyOp11
 70
     1
102
RTVSPropertyOp12
 70
     1
102
RTVSPropertyOp13
 70
     1
102
RTVSPropertyOp14
 70
     1
102
RTVSPropertyOp15
 70
     1
102
RTVSPropertyOp16
 70
     1
102
RTVSPropertyOp17
 70
     1
102
RTVSPropertyOp18
 70
     1
102
RTVSPropertyOp19
 70
     1
102
RTVSPropertyOp20
 70
     1
102
RTVSPropertyOp21
 70
     1
102
RTVSPropertyOp22
 70
     1
102
RTVSPropertyOp23
 70
     1
102
RTVSPropertyOp24
 70
     1
102
RTVSPropertyOp25
 70
     1
102
RTVSPropertyOp26
 70
     1
102
RTVSPropertyOp27
 70
     1
102
RTVSPropertyOp28
 70
     1
102
RTVSPropertyOp29
 70
     1
102
RTVSPropertyOp30
 70
     1
102
RTVSPropertyOp31
 70
     1
102
RTVSPropertyOp32
 70
     1
  0
ENDSEC
  0
EOF
