  0
SECTION
  2
HEADER
  9
$ACADVER
  1
AC1015
  9
$ACADMAINTVER
 70
     6
  9
$DWGCODEPAGE
  3
ANSI_1252
  9
$INSBASE
 10
0.0
 20
0.0
 30
0.0
  9
$EXTMIN
 10
-402.1000024518878
 20
-247.3019134212867
 30
0.0
  9
$EXTMAX
 10
-105.1000024518897
 20
-37.3019134212866
 30
0.0
  9
$LIMMIN
 10
0.0
 20
0.0
  9
$LIMMAX
 10
12.0
 20
9.0
  9
$ORTHOMODE
 70
     0
  9
$REGENMODE
 70
     1
  9
$FILLMODE
 70
     1
  9
$QTEXTMODE
 70
     0
  9
$MIRRTEXT
 70
     1
  9
$LTSCALE
 40
1.0
  9
$ATTMODE
 70
     1
  9
$TEXTSIZE
 40
0.2
  9
$TRACEWID
 40
0.05
  9
$TEXTSTYLE
  7
Standard
  9
$CLAYER
  8
0
  9
$CELTYPE
  6
ByLayer
  9
$CECOLOR
 62
   256
  9
$CELTSCALE
 40
1.0
  9
$DISPSILH
 70
     0
  9
$DIMSCALE
 40
1.0
  9
$DIMASZ
 40
0.18
  9
$DIMEXO
 40
0.0625
  9
$DIMDLI
 40
0.38
  9
$DIMRND
 40
0.0
  9
$DIMDLE
 40
0.0
  9
$DIMEXE
 40
0.18
  9
$DIMTP
 40
0.0
  9
$DIMTM
 40
0.0
  9
$DIMTXT
 40
0.18
  9
$DIMCEN
 40
0.09
  9
$DIMTSZ
 40
0.0
  9
$DIMTOL
 70
     0
  9
$DIMLIM
 70
     0
  9
$DIMTIH
 70
     1
  9
$DIMTOH
 70
     1
  9
$DIMSE1
 70
     0
  9
$DIMSE2
 70
     0
  9
$DIMTAD
 70
     0
  9
$DIMZIN
 70
     0
  9
$DIMBLK
  1

  9
$DIMASO
 70
     1
  9
$DIMSHO
 70
     1
  9
$DIMPOST
  1

  9
$DIMAPOST
  1

  9
$DIMALT
 70
     0
  9
$DIMALTD
 70
     2
  9
$DIMALTF
 40
25.4
  9
$DIMLFAC
 40
1.0
  9
$DIMTOFL
 70
     0
  9
$DIMTVP
 40
0.0
  9
$DIMTIX
 70
     0
  9
$DIMSOXD
 70
     0
  9
$DIMSAH
 70
     0
  9
$DIMBLK1
  1

  9
$DIMBLK2
  1

  9
$DIMSTYLE
  2
Standard
  9
$DIMCLRD
 70
     0
  9
$DIMCLRE
 70
     0
  9
$DIMCLRT
 70
     0
  9
$DIMTFAC
 40
1.0
  9
$DIMGAP
 40
0.09
  9
$DIMJUST
 70
     0
  9
$DIMSD1
 70
     0
  9
$DIMSD2
 70
     0
  9
$DIMTOLJ
 70
     1
  9
$DIMTZIN
 70
     0
  9
$DIMALTZ
 70
     0
  9
$DIMALTTZ
 70
     0
  9
$DIMUPT
 70
     0
  9
$DIMDEC
 70
     4
  9
$DIMTDEC
 70
     4
  9
$DIMALTU
 70
     2
  9
$DIMALTTD
 70
     2
  9
$DIMTXSTY
  7
Standard
  9
$DIMAUNIT
 70
     0
  9
$DIMADEC
 70
     0
  9
$DIMALTRND
 40
0.0
  9
$DIMAZIN
 70
     0
  9
$DIMDSEP
 70
    46
  9
$DIMATFIT
 70
     3
  9
$DIMFRAC
 70
     0
  9
$DIMLDRBLK
  1

  9
$DIMLUNIT
 70
     2
  9
$DIMLWD
 70
    -2
  9
$DIMLWE
 70
    -2
  9
$DIMTMOVE
 70
     0
  9
$LUNITS
 70
     2
  9
$LUPREC
 70
     4
  9
$SKETCHINC
 40
0.1
  9
$FILLETRAD
 40
0.5
  9
$AUNITS
 70
     0
  9
$AUPREC
 70
     0
  9
$MENU
  1
.
  9
$ELEVATION
 40
0.0
  9
$PELEVATION
 40
0.0
  9
$THICKNESS
 40
0.0
  9
$LIMCHECK
 70
     0
  9
$CHAMFERA
 40
0.5
  9
$CHAMFERB
 40
0.5
  9
$CHAMFERC
 40
1.0
  9
$CHAMFERD
 40
0.0
  9
$SKPOLY
 70
     0
  9
$TDCREATE
 40
2457212.363252291
  9
$TDUCREATE
 40
2457212.279918958
  9
$TDUPDATE
 40
2457212.363253252
  9
$TDUUPDATE
 40
2457212.279919919
  9
$TDINDWG
 40
0.0000000116
  9
$TDUSRTIMER
 40
0.0000000116
  9
$USRTIMER
 70
     1
  9
$ANGBASE
 50
0.0
  9
$ANGDIR
 70
     0
  9
$PDMODE
 70
     0
  9
$PDSIZE
 40
0.0
  9
$PLINEWID
 40
0.0
  9
$SPLFRAME
 70
     0
  9
$SPLINETYPE
 70
     6
  9
$SPLINESEGS
 70
     8
  9
$HANDSEED
  5
281
  9
$SURFTAB1
 70
     6
  9
$SURFTAB2
 70
     6
  9
$SURFTYPE
 70
     6
  9
$SURFU
 70
     6
  9
$SURFV
 70
     6
  9
$UCSBASE
  2

  9
$UCSNAME
  2

  9
$UCSORG
 10
0.0
 20
0.0
 30
0.0
  9
$UCSXDIR
 10
1.0
 20
0.0
 30
0.0
  9
$UCSYDIR
 10
0.0
 20
1.0
 30
0.0
  9
$UCSORTHOREF
  2

  9
$UCSORTHOVIEW
 70
     0
  9
$UCSORGTOP
 10
0.0
 20
0.0
 30
0.0
  9
$UCSORGBOTTOM
 10
0.0
 20
0.0
 30
0.0
  9
$UCSORGLEFT
 10
0.0
 20
0.0
 30
0.0
  9
$UCSORGRIGHT
 10
0.0
 20
0.0
 30
0.0
  9
$UCSORGFRONT
 10
0.0
 20
0.0
 30
0.0
  9
$UCSORGBACK
 10
0.0
 20
0.0
 30
0.0
  9
$PUCSBASE
  2

  9
$PUCSNAME
  2

  9
$PUCSORG
 10
0.0
 20
0.0
 30
0.0
  9
$PUCSXDIR
 10
1.0
 20
0.0
 30
0.0
  9
$PUCSYDIR
 10
0.0
 20
1.0
 30
0.0
  9
$PUCSORTHOREF
  2

  9
$PUCSORTHOVIEW
 70
     0
  9
$PUCSORGTOP
 10
0.0
 20
0.0
 30
0.0
  9
$PUCSORGBOTTOM
 10
0.0
 20
0.0
 30
0.0
  9
$PUCSORGLEFT
 10
0.0
 20
0.0
 30
0.0
  9
$PUCSORGRIGHT
 10
0.0
 20
0.0
 30
0.0
  9
$PUCSORGFRONT
 10
0.0
 20
0.0
 30
0.0
  9
$PUCSORGBACK
 10
0.0
 20
0.0
 30
0.0
  9
$USERI1
 70
     0
  9
$USERI2
 70
     0
  9
$USERI3
 70
     0
  9
$USERI4
 70
     0
  9
$USERI5
 70
     0
  9
$USERR1
 40
18.1
  9
$USERR2
 40
0.0
  9
$USERR3
 40
0.0
  9
$USERR4
 40
0.0
  9
$USERR5
 40
0.0
  9
$WORLDVIEW
 70
     1
  9
$SHADEDGE
 70
     3
  9
$SHADEDIF
 70
    70
  9
$TILEMODE
 70
     1
  9
$MAXACTVP
 70
    64
  9
$PINSBASE
 10
0.0
 20
0.0
 30
0.0
  9
$PLIMCHECK
 70
     0
  9
$PEXTMIN
 10
1.00000000000000E+20
 20
1.00000000000000E+20
 30
1.00000000000000E+20
  9
$PEXTMAX
 10
-1.00000000000000E+20
 20
-1.00000000000000E+20
 30
-1.00000000000000E+20
  9
$PLIMMIN
 10
0.0
 20
0.0
  9
$PLIMMAX
 10
12.0
 20
9.0
  9
$UNITMODE
 70
     0
  9
$VISRETAIN
 70
     1
  9
$PLINEGEN
 70
     0
  9
$PSLTSCALE
 70
     1
  9
$TREEDEPTH
 70
  3020
  9
$CMLSTYLE
  2
Standard
  9
$CMLJUST
 70
     0
  9
$CMLSCALE
 40
1.0
  9
$PROXYGRAPHICS
 70
     1
  9
$MEASUREMENT
 70
     1
  9
$CELWEIGHT
370
    -1
  9
$ENDCAPS
280
     0
  9
$JOINSTYLE
280
     0
  9
$LWDISPLAY
290
     0
  9
$INSUNITS
 70
     4
  9
$HYPERLINKBASE
  1

  9
$STYLESHEET
  1

  9
$XEDIT
290
     1
  9
$CEPSNTYPE
380
     0
  9
$PSTYLEMODE
290
     1
  9
$FINGERPRINTGUID
  2
{13742E68-4763-45D1-8C3B-5572E3D776C3}
  9
$VERSIONGUID
  2
{FAEB1C32-E019-11D5-929B-00C0DF256EC4}
  9
$EXTNAMES
290
     1
  9
$PSVPSCALE
 40
0.0
  9
$OLESTARTUP
290
     0
  0
ENDSEC
  0
SECTION
  2
CLASSES
  0
CLASS
  1
ACDBDICTIONARYWDFLT
  2
AcDbDictionaryWithDefault
  3
ObjectDBX Classes
 90
        0
280
     0
281
     0
  0
CLASS
  1
VISUALSTYLE
  2
AcDbVisualStyle
  3
ObjectDBX Classes
 90
     4095
280
     0
281
     0
  0
CLASS
  1
MATERIAL
  2
AcDbMaterial
  3
ObjectDBX Classes
 90
     1153
280
     0
281
     0
  0
CLASS
  1
DICTIONARYVAR
  2
AcDbDictionaryVar
  3
ObjectDBX Classes
 90
        0
280
     0
281
     0
  0
CLASS
  1
ACDBPLACEHOLDER
  2
AcDbPlaceHolder
  3
ObjectDBX Classes
 90
        0
280
     0
281
     0
  0
CLASS
  1
LAYOUT
  2
AcDbLayout
  3
ObjectDBX Classes
 90
        0
280
     0
281
     0
  0
ENDSEC
  0
SECTION
  2
TABLES
  0
TABLE
  2
VPORT
  5
8
330
0
100
AcDbSymbolTable
 70
     1
  0
VPORT
  5
29
330
8
100
AcDbSymbolTableRecord
100
AcDbViewportTableRecord
  2
*Active
 70
     0
 10
0.0
 20
0.0
 11
1.0
 21
1.0
 12
-253.6000024518887
 22
-142.3019134212867
 13
0.0
 23
0.0
 14
0.5
 24
0.5
 15
0.5
 25
0.5
 16
0.0
 26
0.0
 36
1.0
 17
0.0
 27
0.0
 37
0.0
 40
231.0000000000001
 41
1.60267857142857
 42
50.0
 43
0.0
 44
0.0
 50
0.0
 51
0.0
 71
     0
 72
   100
 73
     1
 74
     3
 75
     0
 76
     0
 77
     0
 78
     0
281
     0
 65
     1
110
0.0
120
0.0
130
0.0
111
1.0
121
0.0
131
0.0
112
0.0
122
1.0
132
0.0
 79
     0
146
0.0
  0
ENDTAB
  0
TABLE
  2
LTYPE
  5
5
330
0
100
AcDbSymbolTable
 70
     8
  0
LTYPE
  5
14
330
5
100
AcDbSymbolTableRecord
100
AcDbLinetypeTableRecord
  2
ByBlock
 70
     0
  3

 72
    65
 73
     0
 40
0.0
  0
LTYPE
  5
15
330
5
100
AcDbSymbolTableRecord
100
AcDbLinetypeTableRecord
  2
ByLayer
 70
     0
  3

 72
    65
 73
     0
 40
0.0
  0
LTYPE
  5
16
330
5
100
AcDbSymbolTableRecord
100
AcDbLinetypeTableRecord
  2
Continuous
 70
     0
  3
Solid line
 72
    65
 73
     0
 40
0.0
  0
LTYPE
  5
3F
330
5
100
AcDbSymbolTableRecord
100
AcDbLinetypeTableRecord
  2
DASHED
 70
     0
  3
Dashed
 72
    65
 73
     2
 40
15.0
 49
7.0
 74
     0
 49
-8.0
 74
     0
  0
LTYPE
  5
40
330
5
100
AcDbSymbolTableRecord
100
AcDbLinetypeTableRecord
  2
DOTTED
 70
     0
  3
Dotted
 72
    65
 73
     2
 40
1.0
 49
0.0
 74
     0
 49
-1.0
 74
     0
  0
LTYPE
  5
41
330
5
100
AcDbSymbolTableRecord
100
AcDbLinetypeTableRecord
  2
DOT_CENTER
 70
     0
  3
Dot_Center
 72
    65
 73
     4
 40
14.0
 49
12.0
 74
     0
 49
-1.0
 74
     0
 49
0.0
 74
     0
 49
-1.0
 74
     0
  0
LTYPE
  5
42
330
5
100
AcDbSymbolTableRecord
100
AcDbLinetypeTableRecord
  2
LONG_DASHED
 70
     0
  3
Long_Dashed
 72
    65
 73
     2
 40
15.0
 49
10.0
 74
     0
 49
-5.0
 74
     0
  0
LTYPE
  5
43
330
5
100
AcDbSymbolTableRecord
100
AcDbLinetypeTableRecord
  2
DASH_CENTER
 70
     0
  3
Dash_Center
 72
    65
 73
     4
 40
14.0
 49
11.0
 74
     0
 49
-1.0
 74
     0
 49
1.0
 74
     0
 49
-1.0
 74
     0
  0
LTYPE
  5
44
330
5
100
AcDbSymbolTableRecord
100
AcDbLinetypeTableRecord
  2
PHANTOM
 70
     0
  3
Phantom
 72
    65
 73
     6
 40
13.0
 49
10.0
 74
     0
 49
-1.0
 74
     0
 49
0.0
 74
     0
 49
-1.0
 74
     0
 49
0.0
 74
     0
 49
-1.0
 74
     0
  0
LTYPE
  5
45
330
5
100
AcDbSymbolTableRecord
100
AcDbLinetypeTableRecord
  2
CENTER_DASH_DASH
 70
     0
  3
Center_Dash_Dash
 72
    65
 73
     6
 40
14.0
 49
9.0
 74
     0
 49
-1.0
 74
     0
 49
1.0
 74
     0
 49
-1.0
 74
     0
 49
1.0
 74
     0
 49
-1.0
 74
     0
  0
ENDTAB
  0
TABLE
  2
LAYER
  5
2
330
0
100
AcDbSymbolTable
 70
     2
  0
LAYER
  5
10
330
2
100
AcDbSymbolTableRecord
100
AcDbLayerTableRecord
  2
0
 70
     0
 62
     7
  6
Continuous
370
    -3
390
F
  0
LAYER
  5
46
330
2
100
AcDbSymbolTableRecord
100
AcDbLayerTableRecord
  2
1
 70
     0
 62
     7
  6
Continuous
370
    -3
390
F
  0
ENDTAB
  0
TABLE
  2
STYLE
  5
3
330
0
100
AcDbSymbolTable
 70
     5
  0
STYLE
  5
11
330
3
100
AcDbSymbolTableRecord
100
AcDbTextStyleTableRecord
  2
Standard
 70
     0
 40
0.0
 41
1.0
 50
0.0
 71
     0
 42
0.2
  3
txt
  4

  0
STYLE
  5
AB
330
3
100
AcDbSymbolTableRecord
100
AcDbTextStyleTableRecord
  2
CONVERTER_11
 70
     0
 40
0.0
 41
0.9
 50
0.0
 71
     0
 42
0.2
  3
txt.shx
  4

  0
STYLE
  5
216
330
3
100
AcDbSymbolTableRecord
100
AcDbTextStyleTableRecord
  2
CONVERTER_12
 70
     0
 40
0.0
 41
0.81
 50
0.0
 71
     0
 42
0.2
  3
txt.shx
  4

  0
STYLE
  5
21C
330
3
100
AcDbSymbolTableRecord
100
AcDbTextStyleTableRecord
  2
CONVERTER_13
 70
     0
 40
0.0
 41
0.855
 50
0.0
 71
     0
 42
0.2
  3
txt.shx
  4

  0
STYLE
  5
21F
330
3
100
AcDbSymbolTableRecord
100
AcDbTextStyleTableRecord
  2
CONVERTER_14
 70
     0
 40
0.0
 41
0.72
 50
0.0
 71
     0
 42
0.2
  3
txt.shx
  4

  0
ENDTAB
  0
TABLE
  2
VIEW
  5
6
330
0
100
AcDbSymbolTable
 70
     0
  0
ENDTAB
  0
TABLE
  2
UCS
  5
7
330
0
100
AcDbSymbolTable
 70
     0
  0
ENDTAB
  0
TABLE
  2
APPID
  5
9
330
0
100
AcDbSymbolTable
 70
     1
  0
APPID
  5
12
330
9
100
AcDbSymbolTableRecord
100
AcDbRegAppTableRecord
  2
ACAD
 70
     0
  0
ENDTAB
  0
TABLE
  2
DIMSTYLE
  5
A
330
0
100
AcDbSymbolTable
 70
     4
100
AcDbDimStyleTable
  0
DIMSTYLE
105
27
330
A
100
AcDbSymbolTableRecord
100
AcDbDimStyleTableRecord
  2
Standard
 70
     0
178
     0
340
11
  0
DIMSTYLE
105
C3
102
{ACAD_REACTORS
330
C4
102
}
330
A
100
AcDbSymbolTableRecord
100
AcDbDimStyleTableRecord
  2
ME10_DIM_10
 70
     0
 41
1.75
 42
0.0
 44
0.75
 73
     0
 74
     0
 77
     1
 78
     8
140
1.75
147
0.75
172
     1
173
     1
174
     1
175
     1
176
     2
177
     2
271
     1
178
     3
271
     1
340
AB
  0
DIMSTYLE
105
110
102
{ACAD_REACTORS
330
111
102
}
330
A
100
AcDbSymbolTableRecord
100
AcDbDimStyleTableRecord
  2
ME10_DIM_11
 70
     0
 41
1.75
 42
0.0
 44
0.75
 73
     0
 74
     0
 77
     1
 78
     8
140
1.75
147
0.75
172
     1
173
     1
174
     1
175
     1
176
     2
177
     2
271
     1
178
     3
271
     1
340
AB
  0
DIMSTYLE
105
11B
102
{ACAD_REACTORS
330
11C
102
}
330
A
100
AcDbSymbolTableRecord
100
AcDbDimStyleTableRecord
  2
ME10_DIM_12
 70
     0
 41
1.75
 42
0.0
 44
0.75
 73
     0
 74
     0
 77
     1
 78
     8
140
1.75
147
0.75
172
     1
173
     1
174
     1
175
     1
176
     2
177
     2
271
     1
178
     3
271
     1
340
AB
  0
ENDTAB
  0
TABLE
  2
BLOCK_RECORD
  5
1
330
0
100
AcDbSymbolTable
 70
    19
  0
BLOCK_RECORD
  5
1F
330
1
100
AcDbSymbolTableRecord
100
AcDbBlockTableRecord
  2
*Model_Space
340
22
  0
BLOCK_RECORD
  5
1B
330
1
100
AcDbSymbolTableRecord
100
AcDbBlockTableRecord
  2
*Paper_Space
340
1E
  0
BLOCK_RECORD
  5
23
330
1
100
AcDbSymbolTableRecord
100
AcDbBlockTableRecord
  2
*Paper_Space0
340
26
  0
BLOCK_RECORD
  5
47
330
1
100
AcDbSymbolTableRecord
100
AcDbBlockTableRecord
  2
0820523_PATG_2_18-select__1
340
0
102
{BLKREFS
331
4B
102
}
  0
BLOCK_RECORD
  5
4A
330
1
100
AcDbSymbolTableRecord
100
AcDbBlockTableRecord
  2
Allg1
340
0
102
{BLKREFS
331
7C
102
}
  0
BLOCK_RECORD
  5
4E
330
1
100
AcDbSymbolTableRecord
100
AcDbBlockTableRecord
  2
0820523_PATG_2_18-select__2
340
0
102
{BLKREFS
331
52
102
}
  0
BLOCK_RECORD
  5
51
330
1
100
AcDbSymbolTableRecord
100
AcDbBlockTableRecord
  2
Drfsicht1
340
0
102
{BLKREFS
331
7D
102
}
  0
BLOCK_RECORD
  5
55
330
1
100
AcDbSymbolTableRecord
100
AcDbBlockTableRecord
  2
0820523_PATG_2_18-select__3
340
0
102
{BLKREFS
331
59
102
}
  0
BLOCK_RECORD
  5
58
330
1
100
AcDbSymbolTableRecord
100
AcDbBlockTableRecord
  2
Rckans1
340
0
102
{BLKREFS
331
7E
102
}
  0
BLOCK_RECORD
  5
5C
330
1
100
AcDbSymbolTableRecord
100
AcDbBlockTableRecord
  2
0820523_PATG_2_18-select__4
340
0
102
{BLKREFS
331
60
102
}
  0
BLOCK_RECORD
  5
5F
330
1
100
AcDbSymbolTableRecord
100
AcDbBlockTableRecord
  2
SA_Links1
340
0
102
{BLKREFS
331
7F
102
}
  0
BLOCK_RECORD
  5
63
330
1
100
AcDbSymbolTableRecord
100
AcDbBlockTableRecord
  2
0820523_PATG_2_18-select__5
340
0
102
{BLKREFS
331
67
102
}
  0
BLOCK_RECORD
  5
66
330
1
100
AcDbSymbolTableRecord
100
AcDbBlockTableRecord
  2
SA_Rechts1
340
0
102
{BLKREFS
331
80
102
}
  0
BLOCK_RECORD
  5
6A
330
1
100
AcDbSymbolTableRecord
100
AcDbBlockTableRecord
  2
0820523_PATG_2_18-select__6
340
0
102
{BLKREFS
331
6E
102
}
  0
BLOCK_RECORD
  5
6D
330
1
100
AcDbSymbolTableRecord
100
AcDbBlockTableRecord
  2
Vordans1
340
0
102
{BLKREFS
331
81
102
}
  0
BLOCK_RECORD
  5
71
330
1
100
AcDbSymbolTableRecord
100
AcDbBlockTableRecord
  2
_punkt
340
0
102
{BLKREFS
331
78
102
}
  0
BLOCK_RECORD
  5
74
330
1
100
AcDbSymbolTableRecord
100
AcDbBlockTableRecord
  2
_rahmen
340
0
102
{BLKREFS
331
79
102
}
  0
BLOCK_RECORD
  5
77
330
1
100
AcDbSymbolTableRecord
100
AcDbBlockTableRecord
  2
A4I_CS
340
0
102
{BLKREFS
331
82
102
}
  0
BLOCK_RECORD
  5
B8
330
1
100
AcDbSymbolTableRecord
100
AcDbBlockTableRecord
  2
*D16
340
0
  0
BLOCK_RECORD
  5
107
330
1
100
AcDbSymbolTableRecord
100
AcDbBlockTableRecord
  2
*D17
340
0
  0
BLOCK_RECORD
  5
112
330
1
100
AcDbSymbolTableRecord
100
AcDbBlockTableRecord
  2
*D18
340
0
  0
ENDTAB
  0
ENDSEC
  0
SECTION
  2
BLOCKS
  0
BLOCK
  5
20
330
1F
100
AcDbEntity
  8
0
100
AcDbBlockBegin
  2
*Model_Space
 70
     0
 10
0.0
 20
0.0
 30
0.0
  3
*Model_Space
  1

  0
ENDBLK
  5
21
330
1F
100
AcDbEntity
  8
0
100
AcDbBlockEnd
  0
BLOCK
  5
1C
330
1B
100
AcDbEntity
 67
     1
  8
0
100
AcDbBlockBegin
  2
*Paper_Space
 70
     0
 10
0.0
 20
0.0
 30
0.0
  3
*Paper_Space
  1

  0
ENDBLK
  5
1D
330
1B
100
AcDbEntity
 67
     1
  8
0
100
AcDbBlockEnd
  0
BLOCK
  5
24
330
23
100
AcDbEntity
  8
0
100
AcDbBlockBegin
  2
*Paper_Space0
 70
     0
 10
0.0
 20
0.0
 30
0.0
  3
*Paper_Space0
  1

  0
ENDBLK
  5
25
330
23
100
AcDbEntity
  8
0
100
AcDbBlockEnd
  0
BLOCK
  5
48
330
47
100
AcDbEntity
  8
0
100
AcDbBlockBegin
  2
0820523_PATG_2_18-select__1
 70
     0
 10
-90.49423163623399
 20
-93.16025885793738
 30
0.0
  3
0820523_PATG_2_18-select__1
  1

  0
LINE
  5
83
330
47
100
AcDbEntity
  8
0
  6
Continuous
 62
     7
100
AcDbLine
 10
-90.49423163623399
 20
-88.21667379383952
 30
0.0
 11
-90.49423163623399
 21
-84.06197316408604
 31
0.0
  0
LINE
  5
84
330
47
100
AcDbEntity
  8
0
  6
Continuous
 62
     2
100
AcDbLine
 10
-90.49423163623399
 20
-88.21667379383952
 30
0.0
 11
-74.9057743681141
 21
-92.71667379383955
 31
0.0
  0
LINE
  5
85
330
47
100
AcDbEntity
  8
0
  6
Continuous
 62
     2
100
AcDbLine
 10
-74.0383822573076
 20
-91.23268031975714
 30
0.0
 11
-73.29971558133022
 21
-91.44591502186564
 31
0.0
  0
LINE
  5
86
330
47
100
AcDbEntity
  8
0
  6
Continuous
 62
     7
100
AcDbLine
 10
-74.9057743681141
 20
-92.71667379383955
 30
0.0
 11
-74.9057743681141
 21
-88.56197316408604
 31
0.0
  0
LINE
  5
87
330
47
100
AcDbEntity
  8
0
  6
Continuous
 62
     7
100
AcDbLine
 10
-74.6557743681141
 20
-92.50016744289341
 30
0.0
 11
-74.6557743681141
 21
-89.81548869116163
 31
0.0
  0
LINE
  5
88
330
47
100
AcDbEntity
  8
0
  6
Continuous
 62
     7
100
AcDbLine
 10
-74.6557743681141
 20
-90.28340865420283
 30
0.0
 11
-74.23600446814243
 21
-90.4045857865761
 31
0.0
  0
LINE
  5
89
330
47
100
AcDbEntity
  8
0
  6
Continuous
 62
     7
100
AcDbLine
 10
-74.00054474298909
 20
-89.24804319049119
 30
0.0
 11
-73.17554426808573
 21
-89.48620031362466
 31
0.0
  0
LINE
  5
8A
330
47
100
AcDbEntity
  8
0
  6
Continuous
 62
     7
100
AcDbLine
 10
-73.17554426808573
 20
-89.48620031362466
 30
0.0
 11
-74.23600446814243
 21
-90.4045857865761
 31
0.0
  0
LINE
  5
8B
330
47
100
AcDbEntity
  8
0
  6
Continuous
 62
     7
100
AcDbLine
 10
-72.75577436811409
 20
-88.1700404239712
 30
0.0
 11
-74.6557743681141
 21
-89.81548869116163
 31
0.0
  0
LINE
  5
8C
330
47
100
AcDbEntity
  8
0
  6
Continuous
 62
     7
100
AcDbLine
 10
-74.05615869227466
 20
-91.48520203644433
 30
0.0
 11
-73.12765444660417
 21
-91.75323812453496
 31
0.0
  0
LINE
  5
8D
330
47
100
AcDbEntity
  8
0
  6
Continuous
 62
     2
100
AcDbLine
 10
-74.6557743681141
 20
-92.20142916452212
 30
0.0
 11
-74.35804641315804
 21
-92.28737582199172
 31
0.0
  0
LINE
  5
8E
330
47
100
AcDbEntity
  8
0
  6
Continuous
 62
     2
100
AcDbLine
 10
-89.91298163623391
 20
-82.29286673575591
 30
0.0
 11
-74.32452436811411
 21
-86.79286673575598
 31
0.0
  0
LINE
  5
8F
330
47
100
AcDbEntity
  8
0
  6
Continuous
 62
     2
100
AcDbLine
 10
-88.67548163623398
 20
-81.22116029857268
 30
0.0
 11
-73.0870243681141
 21
-85.72116029857273
 31
0.0
  0
LINE
  5
90
330
47
100
AcDbEntity
  8
0
  6
Continuous
 62
     7
100
AcDbLine
 10
-88.42820648906503
 20
-81.19187786359583
 30
0.0
 11
-72.83974922094515
 21
-85.6918778635958
 31
0.0
  0
LINE
  5
91
330
47
100
AcDbEntity
  8
0
  6
Continuous
 62
     7
100
AcDbLine
 10
-74.72765444660419
 20
-93.13887877059015
 30
0.0
 11
-90.31611171472407
 21
-88.63887877059015
 31
0.0
  0
LINE
  5
92
330
47
100
AcDbEntity
  8
0
  6
Continuous
 62
     2
100
AcDbLine
 10
-73.0942408934985
 20
-90.75701230593178
 30
0.0
 11
-72.75577436811409
 21
-90.85471917570297
 31
0.0
  0
LINE
  5
93
330
47
100
AcDbEntity
  8
0
  6
Continuous
 62
     7
100
AcDbLine
 10
-72.75577436811409
 20
-90.85471917570297
 30
0.0
 11
-72.75577436811409
 21
-88.1700404239712
 31
0.0
  0
LINE
  5
94
330
47
100
AcDbEntity
  8
0
  6
Continuous
 62
     7
100
AcDbLine
 10
-72.50577436811409
 20
-90.63821282475686
 30
0.0
 11
-72.50577436811406
 21
-86.48351219500336
 31
0.0
  0
LINE
  5
95
330
47
100
AcDbEntity
  8
0
  6
Continuous
 62
     2
100
AcDbLine
 10
-90.49423163623399
 20
-84.06197316408604
 30
0.0
 11
-74.9057743681141
 21
-88.56197316408604
 31
0.0
  0
SPLINE
  5
96
330
47
100
AcDbEntity
  8
0
  6
Continuous
 62
     7
100
AcDbSpline
210
0.0
220
0.0
230
1.0
 70
     8
 71
     3
 72
    11
 73
     7
 74
     5
 42
0.000000001
 43
0.0000000001
 44
0.00000001
 40
0.0
 40
0.0
 40
0.0
 40
0.0
 40
0.0876171749546658
 40
0.193737319112238
 40
0.3263369713389004
 40
0.4849064323492243
 40
0.4849064323492243
 40
0.4849064323492243
 40
0.4849064323492243
 10
-90.31611171472407
 20
-88.63887877059015
 30
0.0
 10
-90.34272988234251
 20
-88.62544461371475
 30
0.0
 10
-90.40158742596518
 20
-88.5957392660527
 30
0.0
 10
-90.45489698301097
 20
-88.49505221947065
 30
0.0
 10
-90.48889039383349
 20
-88.3672127957398
 30
0.0
 10
-90.49234841612315
 20
-88.2697510479273
 30
0.0
 10
-90.49423163623399
 20
-88.21667379383952
 30
0.0
 11
-90.31611171472407
 21
-88.63887877059015
 31
0.0
 11
-90.39040120221748
 21
-88.59242619153481
 31
0.0
 11
-90.44690147574116
 21
-88.50259743287772
 31
0.0
 11
-90.48221863738567
 21
-88.37478754813169
 31
0.0
 11
-90.49423163623399
 21
-88.21667379383952
 31
0.0
  0
SPLINE
  5
97
330
47
100
AcDbEntity
  8
0
  6
Continuous
 62
     7
100
AcDbSpline
210
0.0
220
0.0
230
1.0
 70
     8
 71
     3
 72
    11
 73
     7
 74
     5
 42
0.000000001
 43
0.0000000001
 44
0.00000001
 40
0.0
 40
0.0
 40
0.0
 40
0.0
 40
0.0328564380903508
 40
0.0726514868662351
 40
0.1223763546252997
 40
0.1818399074850429
 40
0.1818399074850429
 40
0.1818399074850429
 40
0.1818399074850429
 10
-74.58897939754789
 20
-92.65849430917494
 30
0.0
 10
-74.59896120963994
 20
-92.65345650073269
 30
0.0
 10
-74.62103278087062
 20
-92.64231698866871
 30
0.0
 10
-74.64102386905125
 20
-92.60455935527406
 30
0.0
 10
-74.65377139738384
 20
-92.556619570596
 30
0.0
 10
-74.65506816051338
 20
-92.52007141484356
 30
0.0
 10
-74.6557743681141
 20
-92.50016744289341
 30
0.0
 11
-74.58897939754789
 21
-92.65849430917494
 31
0.0
 11
-74.61683795535792
 21
-92.64107459202918
 31
0.0
 11
-74.63802555792931
 21
-92.60738880753276
 31
0.0
 11
-74.65126949354598
 21
-92.55946010075297
 31
0.0
 11
-74.6557743681141
 21
-92.50016744289341
 31
0.0
  0
SPLINE
  5
98
330
47
100
AcDbEntity
  8
0
  6
Continuous
 62
     7
100
AcDbSpline
210
0.0
220
0.0
230
1.0
 70
     8
 71
     3
 72
    13
 73
     9
 74
     7
 42
0.000000001
 43
0.0000000001
 44
0.00000001
 40
0.0
 40
0.0
 40
0.0
 40
0.0
 40
0.3053251225412426
 40
0.6320065269505659
 40
0.967160784502965
 40
1.297220957827819
 40
1.609027613594334
 40
1.890970011381818
 40
1.890970011381818
 40
1.890970011381818
 40
1.890970011381818
 10
-74.9057743681141
 20
-88.56197316408604
 30
0.0
 10
-74.90184082562078
 20
-88.46016557734363
 30
0.0
 10
-74.89369858996712
 20
-88.24942936771549
 30
0.0
 10
-74.83578101624805
 20
-87.93135133395009
 30
0.0
 10
-74.74862912603157
 20
-87.61198137671937
 30
0.0
 10
-74.63131199674113
 20
-87.30780002972679
 30
0.0
 10
-74.49461254080774
 20
-87.03059287396053
 30
0.0
 10
-74.37928688829419
 20
-86.869406337612
 30
0.0
 10
-74.32452436811411
 20
-86.79286673575598
 30
0.0
 11
-74.9057743681141
 21
-88.56197316408604
 31
0.0
 11
-74.88704090956563
 21
-88.25722328664185
 31
0.0
 11
-74.83177667856373
 21
-87.93525029890691
 31
0.0
 11
-74.74274215086459
 21
-87.61213850734114
 31
0.0
 11
-74.6243853647361
 21
-87.30402912648154
 31
0.0
 11
-74.48261869945947
 21
-87.02631415690713
 31
0.0
 11
-74.32452436811411
 21
-86.79286673575598
 31
0.0
  0
SPLINE
  5
99
330
47
100
AcDbEntity
  8
0
  6
Continuous
 62
     7
100
AcDbSpline
210
0.0
220
0.0
230
1.0
 70
     8
 71
     3
 72
     9
 73
     5
 74
     3
 42
0.000000001
 43
0.0000000001
 44
0.00000001
 40
0.0
 40
0.0
 40
0.0
 40
0.0
 40
0.3901132556181647
 40
0.790344041636688
 40
0.790344041636688
 40
0.790344041636688
 40
0.790344041636688
 10
-73.40708001135128
 20
-90.12746632054441
 30
0.0
 10
-73.50726577564855
 20
-90.21039508457724
 30
0.0
 10
-73.710235594457
 20
-90.37840337326568
 30
0.0
 10
-73.90555693017589
 20
-90.55524706402817
 30
0.0
 10
-74.00446778711962
 20
-90.64480084268847
 30
0.0
 11
-73.40708001135128
 21
-90.12746632054441
 31
0.0
 11
-73.70577381959887
 21
-90.37840527973353
 31
0.0
 11
-74.00446778711962
 21
-90.64480084268847
 31
0.0
  0
SPLINE
  5
9A
330
47
100
AcDbEntity
  8
0
  6
Continuous
 62
     7
100
AcDbSpline
210
0.0
220
0.0
230
1.0
 70
     8
 71
     3
 72
     9
 73
     5
 74
     3
 42
0.000000001
 43
0.0000000001
 44
0.00000001
 40
0.0
 40
0.0
 40
0.0
 40
0.0
 40
0.9331010995075407
 40
1.886940076187554
 40
1.886940076187554
 40
1.886940076187554
 40
1.886940076187554
 10
-74.23600446814243
 20
-90.4045857865761
 30
0.0
 10
-74.24933755824762
 20
-90.71537404450267
 30
0.0
 10
-74.27630008213983
 20
-91.34385773006872
 30
0.0
 10
-74.33059871155889
 20
-91.97057387676321
 30
0.0
 10
-74.35804641315804
 20
-92.28737582199172
 30
0.0
 11
-74.23600446814243
 21
-90.4045857865761
 31
0.0
 11
-74.28268838521512
 21
-91.33651833459653
 31
0.0
 11
-74.35804641315804
 21
-92.28737582199172
 31
0.0
  0
SPLINE
  5
9B
330
47
100
AcDbEntity
  8
0
  6
Continuous
 62
     7
100
AcDbSpline
210
0.0
220
0.0
230
1.0
 70
     8
 71
     3
 72
     9
 73
     5
 74
     3
 42
0.000000001
 43
0.0000000001
 44
0.00000001
 40
0.0
 40
0.0
 40
0.0
 40
0.0
 40
0.747937297193597
 40
1.508348340379799
 40
1.508348340379799
 40
1.508348340379799
 40
1.508348340379799
 10
-74.00446778711962
 20
-90.64480084268847
 30
0.0
 10
-74.01805025475524
 20
-90.89376216013459
 30
0.0
 10
-74.04544173198116
 20
-91.39583685331888
 30
0.0
 10
-74.08958099951849
 20
-91.89671786987168
 30
0.0
 10
-74.11183315489797
 20
-92.14922947143512
 30
0.0
 11
-74.00446778711962
 21
-90.64480084268847
 31
0.0
 11
-74.04933318328844
 21
-91.39139129060914
 31
0.0
 11
-74.11183315489797
 21
-92.14922947143512
 31
0.0
  0
SPLINE
  5
9C
330
47
100
AcDbEntity
  8
0
  6
Continuous
 62
     7
100
AcDbSpline
210
0.0
220
0.0
230
1.0
 70
     8
 71
     3
 72
     9
 73
     5
 74
     3
 42
0.000000001
 43
0.0000000001
 44
0.00000001
 40
0.0
 40
0.0
 40
0.0
 40
0.0
 40
0.852353045672293
 40
1.676140622832859
 40
1.676140622832859
 40
1.676140622832859
 40
1.676140622832859
 10
-73.17554426808573
 20
-89.48620031362466
 30
0.0
 10
-73.16263466388187
 20
-89.77008598095365
 30
0.0
 10
-73.13724808357654
 20
-90.32834326714566
 30
0.0
 10
-73.08109860906131
 20
-90.88434462289472
 30
0.0
 10
-73.05350232307012
 20
-91.15760749961875
 30
0.0
 11
-73.17554426808573
 21
-89.48620031362466
 31
0.0
 11
-73.12886035101303
 21
-90.33727394537887
 31
0.0
 11
-73.05350232307012
 21
-91.15760749961875
 31
0.0
  0
SPLINE
  5
9D
330
47
100
AcDbEntity
  8
0
  6
Continuous
 62
     7
100
AcDbSpline
210
0.0
220
0.0
230
1.0
 70
     8
 71
     3
 72
    11
 73
     7
 74
     5
 42
0.000000001
 43
0.0000000001
 44
0.00000001
 40
0.0
 40
0.0
 40
0.0
 40
0.0
 40
0.0440990383881065
 40
0.0813129516245911
 40
0.1121762015966707
 40
0.1389609352775635
 40
0.1389609352775635
 40
0.1389609352775635
 40
0.1389609352775635
 10
-73.05350232307012
 20
-91.15760749961875
 30
0.0
 10
-73.05134221524942
 20
-91.17220867300387
 30
0.0
 10
-73.0473592432202
 20
-91.19913135510043
 30
0.0
 10
-73.03366262391884
 20
-91.23402589562203
 30
0.0
 10
-73.01497809433707
 20
-91.26095767874156
 30
0.0
 10
-72.99722701045756
 20
-91.26907988394234
 30
0.0
 10
-72.9889793975479
 20
-91.27285366311969
 30
0.0
 11
-73.05350232307012
 21
-91.15760749961875
 31
0.0
 11
-73.04527331655058
 21
-91.20093195205546
 31
0.0
 11
-73.0313642355972
 21
-91.23544880386055
 31
0.0
 11
-73.0123413980241
 21
-91.25975255320121
 31
0.0
 11
-72.9889793975479
 21
-91.27285366311969
 31
0.0
  0
SPLINE
  5
9E
330
47
100
AcDbEntity
  8
0
  6
Continuous
 62
     7
100
AcDbSpline
210
0.0
220
0.0
230
1.0
 70
     8
 71
     3
 72
     9
 73
     5
 74
     3
 42
0.000000001
 43
0.0000000001
 44
0.00000001
 40
0.0
 40
0.0
 40
0.0
 40
0.0
 40
0.6703752263488422
 40
1.322951466455927
 40
1.322951466455927
 40
1.322951466455927
 40
1.322951466455927
 10
-73.40708001135128
 20
-90.12746632054441
 30
0.0
 10
-73.39375820583673
 20
-90.35055705031654
 30
0.0
 10
-73.36746827921202
 20
-90.7908152751252
 30
0.0
 10
-73.32209634252833
 20
-91.22951586581013
 30
0.0
 10
-73.29971558133022
 20
-91.44591502186564
 30
0.0
 11
-73.40708001135128
 21
-90.12746632054441
 31
0.0
 11
-73.36221485387622
 21
-90.79633855194666
 31
0.0
 11
-73.29971558133022
 21
-91.44591502186564
 31
0.0
  0
SPLINE
  5
9F
330
47
100
AcDbEntity
  8
0
  6
Continuous
 62
     7
100
AcDbSpline
210
0.0
220
0.0
230
1.0
 70
     8
 71
     3
 72
    13
 73
     9
 74
     7
 42
0.000000001
 43
0.0000000001
 44
0.00000001
 40
0.0
 40
0.0
 40
0.0
 40
0.0
 40
0.0963196232427873
 40
0.1948220355243404
 40
0.2869009720752516
 40
0.3651403808471225
 40
0.4253533557355589
 40
0.4705658650756896
 40
0.4705658650756896
 40
0.4705658650756896
 40
0.4705658650756896
 10
-74.35804641315804
 20
-92.28737582199172
 30
0.0
 10
-74.36258283711689
 20
-92.31922736149949
 30
0.0
 10
-74.37175848995214
 20
-92.38365225758221
 30
0.0
 10
-74.40240876086466
 20
-92.4746056270761
 30
0.0
 10
-74.442160909793
 20
-92.55580867979225
 30
0.0
 10
-74.48813442039412
 20
-92.61638448763986
 30
0.0
 10
-74.53734441309777
 20
-92.65927955350043
 30
0.0
 10
-74.57348166470099
 20
-92.6587299969732
 30
0.0
 10
-74.58897939754789
 20
-92.65849430917494
 30
0.0
 11
-74.35804641315804
 21
-92.28737582199172
 31
0.0
 11
-74.37450026016823
 21
-92.38227966181843
 31
0.0
 11
-74.40518458484499
 21
-92.47588093069635
 31
0.0
 11
-74.44677353403797
 21
-92.55803255783414
 31
0.0
 11
-74.49475833740789
 21
-92.61982951227425
 31
0.0
 11
-74.54393735429142
 21
-92.65457180843336
 31
0.0
 11
-74.58897939754789
 21
-92.65849430917494
 31
0.0
  0
SPLINE
  5
A0
330
47
100
AcDbEntity
  8
0
  6
Continuous
 62
     7
100
AcDbSpline
210
0.0
220
0.0
230
1.0
 70
     8
 71
     3
 72
    11
 73
     7
 74
     5
 42
0.000000001
 43
0.0000000001
 44
0.00000001
 40
0.0
 40
0.0
 40
0.0
 40
0.0
 40
0.0876171749546236
 40
0.193737319112211
 40
0.3263369713388795
 40
0.4849064323492175
 40
0.4849064323492175
 40
0.4849064323492175
 40
0.4849064323492175
 10
-74.72765444660419
 20
-93.13887877059015
 30
0.0
 10
-74.75427261422264
 20
-93.1254446137148
 30
0.0
 10
-74.81313015784526
 20
-93.0957392660527
 30
0.0
 10
-74.86643971489114
 20
-92.99505221947072
 30
0.0
 10
-74.90043312571359
 20
-92.86721279573983
 30
0.0
 10
-74.90389114800325
 20
-92.76975104792731
 30
0.0
 10
-74.9057743681141
 20
-92.71667379383955
 30
0.0
 11
-74.72765444660419
 21
-93.13887877059015
 31
0.0
 11
-74.80194393409758
 21
-93.09242619153487
 31
0.0
 11
-74.85844420762129
 21
-93.00259743287778
 31
0.0
 11
-74.89376136926577
 21
-92.87478754813174
 31
0.0
 11
-74.9057743681141
 21
-92.71667379383955
 31
0.0
  0
SPLINE
  5
A1
330
47
100
AcDbEntity
  8
0
  6
Continuous
 62
     7
100
AcDbSpline
210
0.0
220
0.0
230
1.0
 70
     8
 71
     3
 72
    13
 73
     9
 74
     7
 42
0.000000001
 43
0.0000000001
 44
0.00000001
 40
0.0
 40
0.0
 40
0.0
 40
0.0
 40
0.2568523119811458
 40
0.5195254121696478
 40
0.7650692427911547
 40
0.9737076645590135
 40
1.134275604502544
 40
1.254842308461329
 40
1.254842308461329
 40
1.254842308461329
 40
1.254842308461329
 10
-74.11183315489797
 20
-92.14922947143512
 30
0.0
 10
-74.12393028467002
 20
-92.23416690461119
 30
0.0
 10
-74.14839869019423
 20
-92.40596662299212
 30
0.0
 10
-74.23013275088051
 20
-92.64850893294653
 30
0.0
 10
-74.33613847653369
 20
-92.86505041287694
 30
0.0
 10
-74.45873451409659
 20
-93.02658588537244
 30
0.0
 10
-74.58996113782632
 20
-93.1409727803451
 30
0.0
 10
-74.68632715476718
 20
-93.1395072714501
 30
0.0
 10
-74.72765444660419
 20
-93.13887877059015
 30
0.0
 11
-74.11183315489797
 21
-92.14922947143512
 31
0.0
 11
-74.15571008025854
 21
-92.40230637763963
 31
0.0
 11
-74.23753494606319
 21
-92.65190976131407
 31
0.0
 11
-74.34843881057782
 21
-92.87098076701477
 31
0.0
 11
-74.4763982862309
 21
-93.03577264552169
 31
0.0
 11
-74.6075423312536
 21
-93.12841876861266
 31
0.0
 11
-74.72765444660419
 21
-93.13887877059015
 31
0.0
  0
SPLINE
  5
A2
330
47
100
AcDbEntity
  8
0
  6
Continuous
 62
     7
100
AcDbSpline
210
0.0
220
0.0
230
1.0
 70
     8
 71
     3
 72
     9
 73
     5
 74
     3
 42
0.000000001
 43
0.0000000001
 44
0.00000001
 40
0.0
 40
0.0
 40
0.0
 40
0.0
 40
0.1191421197577637
 40
0.2531709216620558
 40
0.2531709216620558
 40
0.2531709216620558
 40
0.2531709216620558
 10
-72.83974922094515
 20
-85.6918778635958
 30
0.0
 10
-72.87971316419414
 20
-85.68553926174968
 30
0.0
 10
-72.96463450313561
 20
-85.67207007596798
 30
0.0
 10
-73.04465923848508
 20
-85.70416775988133
 30
0.0
 10
-73.0870243681141
 20
-85.72116029857273
 30
0.0
 11
-72.83974922094515
 21
-85.6918778635958
 31
0.0
 11
-72.95855663060071
 21
-85.68295348447718
 31
0.0
 11
-73.0870243681141
 21
-85.72116029857273
 31
0.0
  0
SPLINE
  5
A3
330
47
100
AcDbEntity
  8
0
  6
Continuous
 62
     7
100
AcDbSpline
210
0.0
220
0.0
230
1.0
 70
     8
 71
     3
 72
     9
 73
     5
 74
     3
 42
0.000000001
 43
0.0000000001
 44
0.00000001
 40
0.0
 40
0.0
 40
0.0
 40
0.0
 40
0.7443229123638307
 40
1.647537417221207
 40
1.647537417221207
 40
1.647537417221207
 40
1.647537417221207
 10
-73.0870243681141
 20
-85.72116029857273
 30
0.0
 10
-73.30147033244344
 20
-85.8493906995904
 30
0.0
 10
-73.77614031170691
 20
-86.13322503031088
 30
0.0
 10
-74.13034302988282
 20
-86.55928934847155
 30
0.0
 10
-74.32452436811411
 20
-86.79286673575598
 30
0.0
 11
-73.0870243681141
 21
-85.72116029857273
 31
0.0
 11
-73.70577436811406
 21
-86.13488126378235
 31
0.0
 11
-74.32452436811411
 21
-86.79286673575598
 31
0.0
  0
SPLINE
  5
A4
330
47
100
AcDbEntity
  8
0
  6
Continuous
 62
     7
100
AcDbSpline
210
0.0
220
0.0
230
1.0
 70
     8
 71
     3
 72
     9
 73
     5
 74
     3
 42
0.000000001
 43
0.0000000001
 44
0.00000001
 40
0.0
 40
0.0
 40
0.0
 40
0.0
 40
0.7443229123638347
 40
1.647537417221121
 40
1.647537417221121
 40
1.647537417221121
 40
1.647537417221121
 10
-88.67548163623398
 20
-81.22116029857268
 30
0.0
 10
-88.88992760056331
 20
-81.34939069959034
 30
0.0
 10
-89.36459757982675
 20
-81.63322503031088
 30
0.0
 10
-89.71880029800268
 20
-82.05928934847151
 30
0.0
 10
-89.91298163623391
 20
-82.29286673575591
 30
0.0
 11
-88.67548163623398
 21
-81.22116029857268
 31
0.0
 11
-89.29423163623393
 21
-81.63488126378233
 31
0.0
 11
-89.91298163623391
 21
-82.29286673575591
 31
0.0
  0
SPLINE
  5
A5
330
47
100
AcDbEntity
  8
0
  6
Continuous
 62
     7
100
AcDbSpline
210
0.0
220
0.0
230
1.0
 70
     8
 71
     3
 72
    13
 73
     9
 74
     7
 42
0.000000001
 43
0.0000000001
 44
0.00000001
 40
0.0
 40
0.0
 40
0.0
 40
0.0
 40
0.3053251225413134
 40
0.6320065269505972
 40
0.9671607845029926
 40
1.297220957827852
 40
1.609027613594348
 40
1.890970011381931
 40
1.890970011381931
 40
1.890970011381931
 40
1.890970011381931
 10
-90.49423163623399
 20
-84.06197316408604
 30
0.0
 10
-90.49029809374069
 20
-83.96016557734363
 30
0.0
 10
-90.48215585808703
 20
-83.74942936771544
 30
0.0
 10
-90.42423828436795
 20
-83.43135133395009
 30
0.0
 10
-90.3370863941515
 20
-83.11198137671934
 30
0.0
 10
-90.21976926486101
 20
-82.80780002972674
 30
0.0
 10
-90.0830698089276
 20
-82.53059287396053
 30
0.0
 10
-89.96774415641401
 20
-82.36940633761192
 30
0.0
 10
-89.91298163623391
 20
-82.29286673575591
 30
0.0
 11
-90.49423163623399
 21
-84.06197316408604
 31
0.0
 11
-90.47549817768552
 21
-83.75722328664177
 31
0.0
 11
-90.42023394668361
 21
-83.43525029890688
 31
0.0
 11
-90.33119941898448
 21
-83.11213850734111
 31
0.0
 11
-90.21284263285598
 21
-82.80402912648151
 31
0.0
 11
-90.07107596757933
 21
-82.52631415690713
 31
0.0
 11
-89.91298163623391
 21
-82.29286673575591
 31
0.0
  0
SPLINE
  5
A6
330
47
100
AcDbEntity
  8
0
  6
Continuous
 62
     7
100
AcDbSpline
210
0.0
220
0.0
230
1.0
 70
     8
 71
     3
 72
     9
 73
     5
 74
     3
 42
0.000000001
 43
0.0000000001
 44
0.00000001
 40
0.0
 40
0.0
 40
0.0
 40
0.0
 40
0.1191421197577778
 40
0.2531709216620361
 40
0.2531709216620361
 40
0.2531709216620361
 40
0.2531709216620361
 10
-88.42820648906503
 20
-81.19187786359583
 30
0.0
 10
-88.46817043231403
 20
-81.18553926174968
 30
0.0
 10
-88.5530917712555
 20
-81.17207007596804
 30
0.0
 10
-88.63311650660495
 20
-81.2041677598813
 30
0.0
 10
-88.67548163623398
 20
-81.22116029857268
 30
0.0
 11
-88.42820648906503
 21
-81.19187786359583
 31
0.0
 11
-88.5470138987206
 21
-81.18295348447721
 31
0.0
 11
-88.67548163623398
 21
-81.22116029857268
 31
0.0
  0
SPLINE
  5
A7
330
47
100
AcDbEntity
  8
0
  6
Continuous
 62
     7
100
AcDbSpline
210
0.0
220
0.0
230
1.0
 70
     8
 71
     3
 72
    13
 73
     9
 74
     7
 42
0.000000001
 43
0.0000000001
 44
0.00000001
 40
0.0
 40
0.0
 40
0.0
 40
0.0
 40
0.0496078617089664
 40
0.117681498977397
 40
0.2065792358686889
 40
0.3097595627254313
 40
0.4170163763135359
 40
0.5172705700615083
 40
0.5172705700615083
 40
0.5172705700615083
 40
0.5172705700615083
 10
-72.9889793975479
 20
-91.27285366311969
 30
0.0
 10
-72.97194279927564
 20
-91.27263964949985
 30
0.0
 10
-72.93152799109806
 20
-91.27213194404274
 30
0.0
 10
-72.87874814029135
 20
-91.22056997650085
 30
0.0
 10
-72.83010947210634
 20
-91.15009262211538
 30
0.0
 10
-72.79026733831029
 20
-91.05758105699681
 30
0.0
 10
-72.76214186098076
 20
-90.9573855275643
 30
0.0
 10
-72.75784857156287
 20
-90.88816263308857
 30
0.0
 10
-72.75577436811409
 20
-90.85471917570297
 30
0.0
 11
-72.9889793975479
 21
-91.27285366311969
 31
0.0
 11
-72.93970839690256
 21
-91.2670822532623
 31
0.0
 11
-72.88609173703375
 21
-91.22513854784529
 31
0.0
 11
-72.83499580654609
 21
-91.15239232216499
 31
0.0
 11
-72.79296391943569
 21
-91.05816122162662
 31
0.0
 11
-72.76537952216161
 21
-90.95451217336858
 31
0.0
 11
-72.75577436811409
 21
-90.85471917570297
 31
0.0
  0
SPLINE
  5
A8
330
47
100
AcDbEntity
  8
0
  6
Continuous
 62
     7
100
AcDbSpline
210
0.0
220
0.0
230
1.0
 70
     8
 71
     3
 72
    11
 73
     7
 74
     5
 42
0.000000001
 43
0.0000000001
 44
0.00000001
 40
0.0
 40
0.0
 40
0.0
 40
0.0
 40
0.1175974270182941
 40
0.2168345346506385
 40
0.2991365449042462
 40
0.37056250726655
 40
0.37056250726655
 40
0.37056250726655
 40
0.37056250726655
 10
-73.29971558133022
 20
-91.44591502186564
 30
0.0
 10
-73.2939552942336
 20
-91.4848514813508
 30
0.0
 10
-73.28333405429494
 20
-91.55664530357916
 30
0.0
 10
-73.2468097303236
 20
-91.64969741005109
 30
0.0
 10
-73.19698432395077
 20
-91.72151551775018
 30
0.0
 10
-73.14964808284054
 20
-91.74317471256695
 30
0.0
 10
-73.12765444660417
 20
-91.75323812453496
 30
0.0
 11
-73.29971558133022
 21
-91.44591502186564
 31
0.0
 11
-73.27777156394473
 21
-91.56144689503029
 31
0.0
 11
-73.24068068140238
 21
-91.65349183317724
 31
0.0
 11
-73.18995311454077
 21
-91.71830183141905
 31
0.0
 11
-73.12765444660417
 21
-91.75323812453496
 31
0.0
  0
SPLINE
  5
A9
330
47
100
AcDbEntity
  8
0
  6
Continuous
 62
     7
100
AcDbSpline
210
0.0
220
0.0
230
1.0
 70
     8
 71
     3
 72
    15
 73
    11
 74
     9
 42
0.000000001
 43
0.0000000001
 44
0.00000001
 40
0.0
 40
0.0
 40
0.0
 40
0.0
 40
0.0967801679890886
 40
0.2172887526513931
 40
0.370156700237211
 40
0.5528866788525828
 40
0.7571870196919747
 40
0.9717570307887047
 40
1.184059885065646
 40
1.381823419046021
 40
1.381823419046021
 40
1.381823419046021
 40
1.381823419046021
 10
-73.12765444660417
 20
-91.75323812453496
 30
0.0
 10
-73.09473340306278
 20
-91.75562947487794
 30
0.0
 10
-73.020819786174
 20
-91.76099847358498
 30
0.0
 10
-72.91214947049573
 20
-91.68962337888736
 30
0.0
 10
-72.80776907277237
 20
-91.5801954887356
 30
0.0
 10
-72.70961135151629
 20
-91.42763602263223
 30
0.0
 10
-72.624629334144
 20
-91.24563012303307
 30
0.0
 10
-72.55931545610115
 20
-91.04523477541117
 30
0.0
 10
-72.51522788182268
 20
-90.84089743293762
 30
0.0
 10
-72.50885016245164
 20
-90.70415828579195
 30
0.0
 10
-72.50577436811409
 20
-90.63821282475686
 30
0.0
 11
-73.12765444660417
 21
-91.75323812453496
 31
0.0
 11
-73.03089934317637
 21
-91.7510352385332
 31
0.0
 11
-72.92508800412988
 21
-91.69336133298403
 31
0.0
 11
-72.81787876816178
 21
-91.58438982856316
 31
0.0
 11
-72.71703119790126
 21
-91.43200868639903
 31
0.0
 11
-72.62984462323983
 21
-91.2472463244342
 31
0.0
 11
-72.56262915972184
 21
-91.04347593606859
 31
0.0
 11
-72.5202501190339
 21
-90.83544584449214
 31
0.0
 11
-72.50577436811409
 21
-90.63821282475686
 31
0.0
  0
SPLINE
  5
AA
330
47
100
AcDbEntity
  8
0
  6
Continuous
 62
     7
100
AcDbSpline
210
0.0
220
0.0
230
1.0
 70
     8
 71
     3
 72
    11
 73
     7
 74
     5
 42
0.000000001
 43
0.0000000001
 44
0.00000001
 40
0.0
 40
0.0
 40
0.0
 40
0.0
 40
0.2973177324212048
 40
0.545942082902558
 40
0.7449173605945463
 40
0.9091995671592554
 40
0.9091995671592554
 40
0.9091995671592554
 40
0.9091995671592554
 10
-72.50577436811406
 20
-86.48351219500336
 30
0.0
 10
-72.50930540573907
 20
-86.38399234592288
 30
0.0
 10
-72.51578919085293
 20
-86.20125156922629
 30
0.0
 10
-72.57952683716123
 20
-85.9615526508214
 30
0.0
 10
-72.67948225061834
 20
-85.77276442577698
 30
0.0
 10
-72.78984015558973
 20
-85.71706690827757
 30
0.0
 10
-72.83974922094515
 20
-85.6918778635958
 30
0.0
 11
-72.50577436811406
 21
-86.48351219500336
 31
0.0
 11
-72.52829874095467
 21
-86.18704890570545
 31
0.0
 11
-72.5945184190381
 21
-85.94740537180661
 31
0.0
 11
-72.70045643189502
 21
-85.77897644932455
 31
0.0
 11
-72.83974922094515
 21
-85.6918778635958
 31
0.0
  0
ENDBLK
  5
49
330
47
100
AcDbEntity
  8
0
100
AcDbBlockEnd
  0
BLOCK
  5
4C
330
4A
100
AcDbEntity
  8
0
100
AcDbBlockBegin
  2
Allg1
 70
     0
 10
-81.50000092170598
 20
-87.00000079821598
 30
0.0
  3
Allg1
  1

  0
INSERT
  5
4B
330
4A
100
AcDbEntity
  8
0
100
AcDbBlockReference
  2
0820523_PATG_2_18-select__1
 10
-90.49423163623399
 20
-93.16025885793738
 30
0.0
  0
MTEXT
  5
AC
330
4A
100
AcDbEntity
  8
1
 62
     6
100
AcDbMText
 10
-81.50000092170598
 20
-97.39894632731762
 30
0.0
 40
2.5
 41
0.0
 71
     2
 72
     1
  1
 
  7
CONVERTER_11
 73
     1
 44
1.32052821128451
  0
ENDBLK
  5
4D
330
4A
100
AcDbEntity
  8
0
100
AcDbBlockEnd
  0
BLOCK
  5
4F
330
4E
100
AcDbEntity
  8
0
100
AcDbBlockBegin
  2
0820523_PATG_2_18-select__2
 70
     0
 10
-153.2999989525779
 20
-77.89079294483116
 30
0.0
  3
0820523_PATG_2_18-select__2
  1

  0
LINE
  5
AD
330
4E
100
AcDbEntity
  8
0
  6
Continuous
 62
     7
100
AcDbLine
 10
-153.2999989525779
 20
-74.25329294483114
 30
0.0
 11
-153.2999989525779
 21
-76.72829294483117
 31
0.0
  0
LINE
  5
AE
330
4E
100
AcDbEntity
  8
0
  6
Continuous
 62
     7
100
AcDbLine
 10
-153.2999989525779
 20
-73.09079294483115
 30
0.0
 11
-153.2999989525779
 21
-74.25329294483114
 31
0.0
  0
LINE
  5
AF
330
4E
100
AcDbEntity
  8
0
  6
Continuous
 62
     7
100
AcDbLine
 10
-153.2999989525779
 20
-77.89079294483116
 30
0.0
 11
-153.2999989525779
 21
-76.72829294483117
 31
0.0
  0
LINE
  5
B0
330
4E
100
AcDbEntity
  8
0
  6
Continuous
 62
     7
100
AcDbLine
 10
-135.2999989525779
 20
-77.89079294483116
 30
0.0
 11
-135.2999989525779
 21
-76.72829294483117
 31
0.0
  0
LINE
  5
B1
330
4E
100
AcDbEntity
  8
0
  6
Continuous
 62
     2
100
AcDbLine
 10
-153.2999989525779
 20
-76.72829294483117
 30
0.0
 11
-135.2999989525779
 21
-76.72829294483117
 31
0.0
  0
LINE
  5
B2
330
4E
100
AcDbEntity
  8
0
  6
Continuous
 62
     7
100
AcDbLine
 10
-153.2999989525779
 20
-73.09079294483115
 30
0.0
 11
-135.2999989525779
 21
-73.09079294483115
 31
0.0
  0
LINE
  5
B3
330
4E
100
AcDbEntity
  8
0
  6
Continuous
 62
     2
100
AcDbLine
 10
-153.2999989525779
 20
-74.25329294483114
 30
0.0
 11
-135.2999989525779
 21
-74.25329294483114
 31
0.0
  0
LINE
  5
B4
330
4E
100
AcDbEntity
  8
0
  6
Continuous
 62
     7
100
AcDbLine
 10
-135.2999989525779
 20
-74.25329294483114
 30
0.0
 11
-135.2999989525779
 21
-76.72829294483117
 31
0.0
  0
LINE
  5
B5
330
4E
100
AcDbEntity
  8
0
  6
Continuous
 62
     7
100
AcDbLine
 10
-135.2999989525779
 20
-73.09079294483115
 30
0.0
 11
-135.2999989525779
 21
-74.25329294483114
 31
0.0
  0
LINE
  5
B6
330
4E
100
AcDbEntity
  8
0
  6
Continuous
 62
     7
100
AcDbLine
 10
-135.2999989525779
 20
-77.89079294483116
 30
0.0
 11
-153.2999989525779
 21
-77.89079294483116
 31
0.0
  0
ENDBLK
  5
50
330
4E
100
AcDbEntity
  8
0
100
AcDbBlockEnd
  0
BLOCK
  5
53
330
51
100
AcDbEntity
  8
0
100
AcDbBlockBegin
  2
Drfsicht1
 70
     0
 10
-144.2999989525729
 20
-75.49078878390367
 30
0.0
  3
Drfsicht1
  1

  0
INSERT
  5
52
330
51
100
AcDbEntity
  8
0
100
AcDbBlockReference
  2
0820523_PATG_2_18-select__2
 10
-153.2999989525779
 20
-77.89079294483116
 30
0.0
  0
MTEXT
  5
B7
330
51
100
AcDbEntity
  8
1
 62
     6
100
AcDbMText
 10
-144.2999989525729
 20
-80.39078846637938
 30
0.0
 40
2.5
 41
0.0
 71
     2
 72
     1
  1
 
  7
CONVERTER_11
 73
     1
 44
1.32052821128451
  0
DIMENSION
  5
C4
330
51
100
AcDbEntity
  8
1
100
AcDbDimension
  2
*D16
 10
-158.2999989525779
 20
-73.09079294483115
 30
0.0
 11
-160.0124989525779
 21
-75.49079294483116
 31
0.0
 70
    32
  1
<>
 71
     5
 42
-1.0
 53
90.0
  3
ME10_DIM_10
100
AcDbAlignedDimension
 13
-153.2999989525779
 23
-77.89079294483116
 33
0.0
 14
-153.2999989525779
 24
-73.09079294483115
 34
0.0
 50
90.0
100
AcDbRotatedDimension
  0
ENDBLK
  5
54
330
51
100
AcDbEntity
  8
0
100
AcDbBlockEnd
  0
BLOCK
  5
56
330
55
100
AcDbEntity
  8
0
100
AcDbBlockBegin
  2
0820523_PATG_2_18-select__3
 70
     0
 10
-98.49999999998249
 20
-58.10296709396899
 30
0.0
  3
0820523_PATG_2_18-select__3
  1

  0
LINE
  5
C5
330
55
100
AcDbEntity
  8
0
  6
Continuous
 62
     7
100
AcDbLine
 10
-80.49999999998249
 20
-51.04399389474515
 30
0.0
 11
-80.49999999998249
 21
-50.90296709396905
 31
0.0
  0
LINE
  5
C6
330
55
100
AcDbEntity
  8
0
  6
Continuous
 62
     7
100
AcDbLine
 10
-98.49999999998249
 20
-51.04399389474515
 30
0.0
 11
-98.49999999998249
 21
-50.90296709396905
 31
0.0
  0
LINE
  5
C7
330
55
100
AcDbEntity
  8
0
  6
Continuous
 62
     2
100
AcDbLine
 10
-80.49999999998249
 20
-51.04399389474515
 30
0.0
 11
-98.49999999998249
 21
-51.04399389474515
 31
0.0
  0
LINE
  5
C8
330
55
100
AcDbEntity
  8
0
  6
Continuous
 62
     7
100
AcDbLine
 10
-80.49999999998249
 20
-50.90296709396905
 30
0.0
 11
-98.49999999998249
 21
-50.90296709396905
 31
0.0
  0
LINE
  5
C9
330
55
100
AcDbEntity
  8
0
  6
Continuous
 62
     7
100
AcDbLine
 10
-80.49999999998249
 20
-57.30296709396902
 30
0.0
 11
-80.49999999998249
 21
-52.50553203998806
 31
0.0
  0
LINE
  5
CA
330
55
100
AcDbEntity
  8
0
  6
Continuous
 62
     7
100
AcDbLine
 10
-80.49999999998249
 20
-58.10296709396899
 30
0.0
 11
-80.49999999998249
 21
-57.30296709396902
 31
0.0
  0
LINE
  5
CB
330
55
100
AcDbEntity
  8
0
  6
Continuous
 62
     7
100
AcDbLine
 10
-80.49999999998249
 20
-58.10296709396899
 30
0.0
 11
-98.49999999998249
 21
-58.10296709396899
 31
0.0
  0
LINE
  5
CC
330
55
100
AcDbEntity
  8
0
  6
Continuous
 62
     7
100
AcDbLine
 10
-98.49999999998249
 20
-57.30296709396902
 30
0.0
 11
-98.49999999998249
 21
-52.50553203998806
 31
0.0
  0
LINE
  5
CD
330
55
100
AcDbEntity
  8
0
  6
Continuous
 62
     7
100
AcDbLine
 10
-80.49999999998249
 20
-52.50553203998806
 30
0.0
 11
-80.49999999998249
 21
-51.04399389474515
 31
0.0
  0
LINE
  5
CE
330
55
100
AcDbEntity
  8
0
  6
Continuous
 62
     2
100
AcDbLine
 10
-80.49999999998249
 20
-52.50553203998806
 30
0.0
 11
-98.49999999998249
 21
-52.50553203998806
 31
0.0
  0
LINE
  5
CF
330
55
100
AcDbEntity
  8
0
  6
Continuous
 62
     7
100
AcDbLine
 10
-98.49999999998249
 20
-52.50553203998806
 30
0.0
 11
-98.49999999998249
 21
-51.04399389474515
 31
0.0
  0
LINE
  5
D0
330
55
100
AcDbEntity
  8
0
  6
Continuous
 62
     7
100
AcDbLine
 10
-98.49999999998249
 20
-58.10296709396899
 30
0.0
 11
-98.49999999998249
 21
-57.30296709396902
 31
0.0
  0
LINE
  5
D1
330
55
100
AcDbEntity
  8
0
  6
Continuous
 62
     2
100
AcDbLine
 10
-80.49999999998249
 20
-57.30296709396902
 30
0.0
 11
-98.49999999998249
 21
-57.30296709396902
 31
0.0
  0
ENDBLK
  5
57
330
55
100
AcDbEntity
  8
0
100
AcDbBlockEnd
  0
BLOCK
  5
5A
330
58
100
AcDbEntity
  8
0
100
AcDbBlockBegin
  2
Rckans1
 70
     0
 10
-89.4999999999875
 20
-54.49999999999995
 30
0.0
  3
Rckans1
  1

  0
INSERT
  5
59
330
58
100
AcDbEntity
  8
0
100
AcDbBlockReference
  2
0820523_PATG_2_18-select__3
 10
-98.49999999998249
 20
-58.10296709396899
 30
0.0
  0
MTEXT
  5
D2
330
58
100
AcDbEntity
  8
1
 62
     6
100
AcDbMText
 10
-89.4999999999875
 20
-60.59078979492188
 30
0.0
 40
2.5
 41
0.0
 71
     2
 72
     1
  1
 
  7
CONVERTER_11
 73
     1
 44
1.32052821128451
  0
ENDBLK
  5
5B
330
58
100
AcDbEntity
  8
0
100
AcDbBlockEnd
  0
BLOCK
  5
5D
330
5C
100
AcDbEntity
  8
0
100
AcDbBlockBegin
  2
0820523_PATG_2_18-select__4
 70
     0
 10
-119.2999959130408
 20
-58.10296709396909
 30
0.0
  3
0820523_PATG_2_18-select__4
  1

  0
LINE
  5
D3
330
5C
100
AcDbEntity
  8
0
  6
Continuous
 62
     7
100
AcDbLine
 10
-119.2999959130408
 20
-57.30296709396907
 30
0.0
 11
-119.2999959130408
 21
-52.50553203998811
 31
0.0
  0
LINE
  5
D4
330
5C
100
AcDbEntity
  8
0
  6
Continuous
 62
     7
100
AcDbLine
 10
-118.7999959130408
 20
-57.30296709396907
 30
0.0
 11
-118.7999959130408
 21
-54.20296709396905
 31
0.0
  0
LINE
  5
D5
330
5C
100
AcDbEntity
  8
0
  6
Continuous
 62
     7
100
AcDbLine
 10
-114.9999959130408
 20
-57.30296709396907
 30
0.0
 11
-114.9999959130408
 21
-54.20296709396905
 31
0.0
  0
LINE
  5
D6
330
5C
100
AcDbEntity
  8
0
  6
Continuous
 62
     7
100
AcDbLine
 10
-114.4999959130408
 20
-57.30296709396907
 30
0.0
 11
-114.4999959130408
 21
-52.50553203998811
 31
0.0
  0
LINE
  5
D7
330
5C
100
AcDbEntity
  8
0
  6
Continuous
 62
     7
100
AcDbLine
 10
-118.7999959130408
 20
-54.20296709396905
 30
0.0
 11
-114.9999959130408
 21
-54.20296709396905
 31
0.0
  0
LINE
  5
D8
330
5C
100
AcDbEntity
  8
0
  6
Continuous
 62
     7
100
AcDbLine
 10
-117.9604561130975
 20
-55.30296772717361
 30
0.0
 11
-115.8395357129841
 21
-55.30296772717361
 31
0.0
  0
ARC
  5
D9
330
5C
100
AcDbEntity
  8
0
  6
Continuous
 62
     7
100
AcDbCircle
 10
-117.7999959130408
 20
-52.50553203998811
 30
0.0
 40
1.500000000000028
100
AcDbArc
 50
103.0028781629134
 51
180.0
  0
ARC
  5
DA
330
5C
100
AcDbEntity
  8
0
  6
Continuous
 62
     7
100
AcDbCircle
 10
-118.4999959130408
 20
-57.30296709396907
 30
0.0
 40
0.2999999999999972
100
AcDbArc
 50
180.0
 51
350.0149513557613
  0
ARC
  5
DB
330
5C
100
AcDbEntity
  8
0
  6
Continuous
 62
     7
100
AcDbCircle
 10
-118.4999959130408
 20
-57.30296709396907
 30
0.0
 40
0.7999999999999972
100
AcDbArc
 50
180.0
 51
350.0149513557708
  0
ARC
  5
DC
330
5C
100
AcDbEntity
  8
0
  6
Continuous
 62
     7
100
AcDbCircle
 10
-136.4243211143755
 20
-54.1472475125114
 30
0.0
 40
18.49999999999993
100
AcDbArc
 50
350.0149513557735
 51
356.4183222959552
  0
ARC
  5
DD
330
5C
100
AcDbEntity
  8
0
  6
Continuous
 62
     7
100
AcDbCircle
 10
-136.4243211143755
 20
-54.1472475125114
 30
0.0
 40
18.99999999999993
100
AcDbArc
 50
350.0149513557735
 51
354.9736772513968
  0
ARC
  5
DE
330
5C
100
AcDbEntity
  8
0
  6
Continuous
 62
     7
100
AcDbCircle
 10
-97.37567071170602
 20
-54.1472475125114
 30
0.0
 40
18.50000000000001
100
AcDbArc
 50
183.5816777040448
 51
189.9850486442265
  0
ARC
  5
DF
330
5C
100
AcDbEntity
  8
0
  6
Continuous
 62
     7
100
AcDbCircle
 10
-97.37567071170602
 20
-54.1472475125114
 30
0.0
 40
19.0
100
AcDbArc
 50
185.0262581948227
 51
189.9850486442264
  0
ARC
  5
E0
330
5C
100
AcDbEntity
  8
0
  6
Continuous
 62
     7
100
AcDbCircle
 10
-115.2999959130408
 20
-57.30296709396907
 30
0.0
 40
0.2999999999999929
100
AcDbArc
 50
189.9850486442392
 51
0.0
  0
ARC
  5
E1
330
5C
100
AcDbEntity
  8
0
  6
Continuous
 62
     7
100
AcDbCircle
 10
-115.2999959130408
 20
-57.30296709396907
 30
0.0
 40
0.7999999999999999
100
AcDbArc
 50
189.9850486442293
 51
0.0
  0
ARC
  5
E2
330
5C
100
AcDbEntity
  8
0
  6
Continuous
 62
     7
100
AcDbCircle
 10
-116.8996400471855
 20
-75.80296772717361
 30
0.0
 40
20.00000000000001
100
AcDbArc
 50
88.28937812854704
 51
91.71266711813226
  0
ARC
  5
E3
330
5C
100
AcDbEntity
  8
0
  6
Continuous
 62
     7
100
AcDbCircle
 10
-116.8999959130408
 20
-56.4029670939691
 30
0.0
 40
5.500000000000007
100
AcDbArc
 50
76.99712183708611
 51
103.0028781629139
  0
ARC
  5
E4
330
5C
100
AcDbEntity
  8
0
  6
Continuous
 62
     7
100
AcDbCircle
 10
-115.9999959130408
 20
-52.50553203998811
 30
0.0
 40
1.5
100
AcDbArc
 50
0.0
 51
76.99712183708611
  0
ENDBLK
  5
5E
330
5C
100
AcDbEntity
  8
0
100
AcDbBlockEnd
  0
BLOCK
  5
61
330
5F
100
AcDbEntity
  8
0
100
AcDbBlockBegin
  2
SA_Links1
 70
     0
 10
-116.9000000739683
 20
-54.5
 30
0.0
  3
SA_Links1
  1

  0
INSERT
  5
60
330
5F
100
AcDbEntity
  8
0
100
AcDbBlockReference
  2
0820523_PATG_2_18-select__4
 10
-119.2999959130408
 20
-58.10296709396909
 30
0.0
  0
MTEXT
  5
E5
330
5F
100
AcDbEntity
  8
1
 62
     6
100
AcDbMText
 10
-116.9000000739683
 20
-60.59078979492188
 30
0.0
 40
2.5
 41
0.0
 71
     2
 72
     1
  1
 
  7
CONVERTER_11
 73
     1
 44
1.32052821128451
  0
ENDBLK
  5
62
330
5F
100
AcDbEntity
  8
0
100
AcDbBlockEnd
  0
BLOCK
  5
64
330
63
100
AcDbEntity
  8
0
100
AcDbBlockBegin
  2
0820523_PATG_2_18-select__5
 70
     0
 10
-179.1000024519063
 20
-58.10296709396904
 30
0.0
  3
0820523_PATG_2_18-select__5
  1

  0
LINE
  5
E6
330
63
100
AcDbEntity
  8
0
  6
Continuous
 62
     7
100
AcDbLine
 10
-174.8000024519063
 20
-57.30296709396902
 30
0.0
 11
-174.8000024519063
 21
-54.202967093969
 31
0.0
  0
LINE
  5
E7
330
63
100
AcDbEntity
  8
0
  6
Continuous
 62
     7
100
AcDbLine
 10
-174.3000024519063
 20
-57.30296709396902
 30
0.0
 11
-174.3000024519063
 21
-52.50553203998806
 31
0.0
  0
LINE
  5
E8
330
63
100
AcDbEntity
  8
0
  6
Continuous
 62
     7
100
AcDbLine
 10
-175.6395422518496
 20
-55.30296772717356
 30
0.0
 11
-177.760462651963
 21
-55.30296772717356
 31
0.0
  0
LINE
  5
E9
330
63
100
AcDbEntity
  8
0
  6
Continuous
 62
     7
100
AcDbLine
 10
-174.8000024519063
 20
-54.202967093969
 30
0.0
 11
-178.6000024519063
 21
-54.202967093969
 31
0.0
  0
LINE
  5
EA
330
63
100
AcDbEntity
  8
0
  6
Continuous
 62
     7
100
AcDbLine
 10
-178.6000024519063
 20
-57.30296709396902
 30
0.0
 11
-178.6000024519063
 21
-54.202967093969
 31
0.0
  0
LINE
  5
EB
330
63
100
AcDbEntity
  8
0
  6
Continuous
 62
     7
100
AcDbLine
 10
-179.1000024519063
 20
-57.30296709396902
 30
0.0
 11
-179.1000024519063
 21
-52.50553203998806
 31
0.0
  0
ARC
  5
EC
330
63
100
AcDbEntity
  8
0
  6
Continuous
 62
     7
100
AcDbCircle
 10
-176.7000024519063
 20
-56.40296709396905
 30
0.0
 40
5.50000000000001
100
AcDbArc
 50
76.99712183708596
 51
103.002878162914
  0
ARC
  5
ED
330
63
100
AcDbEntity
  8
0
  6
Continuous
 62
     7
100
AcDbCircle
 10
-176.7003583177615
 20
-75.80296772717355
 30
0.0
 40
20.00000000000001
100
AcDbArc
 50
88.28733288186778
 51
91.7106218714532
  0
ARC
  5
EE
330
63
100
AcDbEntity
  8
0
  6
Continuous
 62
     7
100
AcDbCircle
 10
-175.1000024519063
 20
-57.30296709396902
 30
0.0
 40
0.3000000000000044
100
AcDbArc
 50
189.9850486442361
 51
0.0
  0
ARC
  5
EF
330
63
100
AcDbEntity
  8
0
  6
Continuous
 62
     7
100
AcDbCircle
 10
-175.1000024519063
 20
-57.30296709396902
 30
0.0
 40
0.8000000000000139
100
AcDbArc
 50
189.9850486442292
 51
0.0
  0
ARC
  5
F0
330
63
100
AcDbEntity
  8
0
  6
Continuous
 62
     7
100
AcDbCircle
 10
-177.6000024519063
 20
-52.50553203998806
 30
0.0
 40
1.500000000000032
100
AcDbArc
 50
103.0028781629139
 51
180.0
  0
ARC
  5
F1
330
63
100
AcDbEntity
  8
0
  6
Continuous
 62
     7
100
AcDbCircle
 10
-178.3000024519063
 20
-57.30296709396902
 30
0.0
 40
0.3000000000000114
100
AcDbArc
 50
180.0
 51
350.0149513557639
  0
ARC
  5
F2
330
63
100
AcDbEntity
  8
0
  6
Continuous
 62
     7
100
AcDbCircle
 10
-178.3000024519063
 20
-57.30296709396902
 30
0.0
 40
0.8000000000000114
100
AcDbArc
 50
180.0
 51
350.0149513557708
  0
ARC
  5
F3
330
63
100
AcDbEntity
  8
0
  6
Continuous
 62
     7
100
AcDbCircle
 10
-196.224327653241
 20
-54.14724751251135
 30
0.0
 40
18.49999999999995
100
AcDbArc
 50
350.0149513557735
 51
356.4183222959552
  0
ARC
  5
F4
330
63
100
AcDbEntity
  8
0
  6
Continuous
 62
     7
100
AcDbCircle
 10
-196.224327653241
 20
-54.14724751251135
 30
0.0
 40
18.99999999999996
100
AcDbArc
 50
350.0149513557736
 51
354.9737418051773
  0
ARC
  5
F5
330
63
100
AcDbEntity
  8
0
  6
Continuous
 62
     7
100
AcDbCircle
 10
-157.1756772505715
 20
-54.14724751251135
 30
0.0
 40
18.50000000000002
100
AcDbArc
 50
183.5816777040448
 51
189.9850486442264
  0
ARC
  5
F6
330
63
100
AcDbEntity
  8
0
  6
Continuous
 62
     7
100
AcDbCircle
 10
-157.1756772505715
 20
-54.14724751251135
 30
0.0
 40
19.00000000000001
100
AcDbArc
 50
185.0263227486032
 51
189.9850486442264
  0
ARC
  5
F7
330
63
100
AcDbEntity
  8
0
  6
Continuous
 62
     7
100
AcDbCircle
 10
-175.8000024519063
 20
-52.50553203998806
 30
0.0
 40
1.5
100
AcDbArc
 50
0.0
 51
76.99712183708611
  0
ENDBLK
  5
65
330
63
100
AcDbEntity
  8
0
100
AcDbBlockEnd
  0
BLOCK
  5
68
330
66
100
AcDbEntity
  8
0
100
AcDbBlockBegin
  2
SA_Rechts1
 70
     0
 10
-176.6999982909788
 20
-54.49999999999995
 30
0.0
  3
SA_Rechts1
  1

  0
INSERT
  5
67
330
66
100
AcDbEntity
  8
0
100
AcDbBlockReference
  2
0820523_PATG_2_18-select__5
 10
-179.1000024519063
 20
-58.10296709396904
 30
0.0
  0
MTEXT
  5
F8
330
66
100
AcDbEntity
  8
1
 62
     6
100
AcDbMText
 10
-176.6999982909788
 20
-60.59078979492188
 30
0.0
 40
2.5
 41
0.0
 71
     2
 72
     1
  1
 
  7
CONVERTER_11
 73
     1
 44
1.32052821128451
  0
ENDBLK
  5
69
330
66
100
AcDbEntity
  8
0
100
AcDbBlockEnd
  0
BLOCK
  5
6B
330
6A
100
AcDbEntity
  8
0
100
AcDbBlockBegin
  2
0820523_PATG_2_18-select__6
 70
     0
 10
-153.2999995000049
 20
-58.10296709396899
 30
0.0
  3
0820523_PATG_2_18-select__6
  1

  0
LINE
  5
F9
330
6A
100
AcDbEntity
  8
0
  6
Continuous
 62
     7
100
AcDbLine
 10
-153.2999995000049
 20
-57.30296709396902
 30
0.0
 11
-153.2999995000049
 21
-58.10296709396899
 31
0.0
  0
LINE
  5
FA
330
6A
100
AcDbEntity
  8
0
  6
Continuous
 62
     7
100
AcDbLine
 10
-135.2999995000049
 20
-57.30296709396902
 30
0.0
 11
-135.2999995000049
 21
-58.10296709396899
 31
0.0
  0
LINE
  5
FB
330
6A
100
AcDbEntity
  8
0
  6
Continuous
 62
     7
100
AcDbLine
 10
-153.2999995000049
 20
-58.10296709396899
 30
0.0
 11
-135.2999995000049
 21
-58.10296709396899
 31
0.0
  0
LINE
  5
FC
330
6A
100
AcDbEntity
  8
0
  6
Continuous
 62
     7
100
AcDbLine
 10
-135.2999995000049
 20
-50.90296709396905
 30
0.0
 11
-135.2999995000049
 21
-51.04399389474515
 31
0.0
  0
LINE
  5
FD
330
6A
100
AcDbEntity
  8
0
  6
Continuous
 62
     7
100
AcDbLine
 10
-135.2999995000049
 20
-52.50553203998806
 30
0.0
 11
-135.2999995000049
 21
-51.04399389474515
 31
0.0
  0
LINE
  5
FE
330
6A
100
AcDbEntity
  8
0
  6
Continuous
 62
     7
100
AcDbLine
 10
-135.2999995000049
 20
-57.30296709396902
 30
0.0
 11
-135.2999995000049
 21
-52.50553203998806
 31
0.0
  0
LINE
  5
FF
330
6A
100
AcDbEntity
  8
0
  6
Continuous
 62
     2
100
AcDbLine
 10
-153.2999995000049
 20
-57.30296709396902
 30
0.0
 11
-135.2999995000049
 21
-57.30296709396902
 31
0.0
  0
LINE
  5
100
330
6A
100
AcDbEntity
  8
0
  6
Continuous
 62
     7
100
AcDbLine
 10
-153.2999995000049
 20
-57.30296709396902
 30
0.0
 11
-153.2999995000049
 21
-52.50553203998806
 31
0.0
  0
LINE
  5
101
330
6A
100
AcDbEntity
  8
0
  6
Continuous
 62
     7
100
AcDbLine
 10
-153.2999995000049
 20
-50.90296709396905
 30
0.0
 11
-153.2999995000049
 21
-51.04399389474515
 31
0.0
  0
LINE
  5
102
330
6A
100
AcDbEntity
  8
0
  6
Continuous
 62
     7
100
AcDbLine
 10
-153.2999995000049
 20
-52.50553203998806
 30
0.0
 11
-153.2999995000049
 21
-51.04399389474515
 31
0.0
  0
LINE
  5
103
330
6A
100
AcDbEntity
  8
0
  6
Continuous
 62
     7
100
AcDbLine
 10
-153.2999995000049
 20
-50.90296709396905
 30
0.0
 11
-135.2999995000049
 21
-50.90296709396905
 31
0.0
  0
LINE
  5
104
330
6A
100
AcDbEntity
  8
0
  6
Continuous
 62
     2
100
AcDbLine
 10
-153.2999995000049
 20
-52.50553203998806
 30
0.0
 11
-135.2999995000049
 21
-52.50553203998806
 31
0.0
  0
LINE
  5
105
330
6A
100
AcDbEntity
  8
0
  6
Continuous
 62
     2
100
AcDbLine
 10
-153.2999995000049
 20
-51.04399389474515
 30
0.0
 11
-135.2999995000049
 21
-51.04399389474515
 31
0.0
  0
ENDBLK
  5
6C
330
6A
100
AcDbEntity
  8
0
100
AcDbBlockEnd
  0
BLOCK
  5
6F
330
6D
100
AcDbEntity
  8
0
100
AcDbBlockBegin
  2
Vordans1
 70
     0
 10
-144.2999994999999
 20
-54.49999999999995
 30
0.0
  3
Vordans1
  1

  0
INSERT
  5
6E
330
6D
100
AcDbEntity
  8
0
100
AcDbBlockReference
  2
0820523_PATG_2_18-select__6
 10
-153.2999995000049
 20
-58.10296709396899
 30
0.0
  0
MTEXT
  5
106
330
6D
100
AcDbEntity
  8
1
 62
     6
100
AcDbMText
 10
-144.2999995
 20
-60.59078979492188
 30
0.0
 40
2.5
 41
0.0
 71
     2
 72
     1
  1
 
  7
CONVERTER_11
 73
     1
 44
1.32052821128451
  0
DIMENSION
  5
111
330
6D
100
AcDbEntity
  8
1
100
AcDbDimension
  2
*D17
 10
-153.2999995000049
 20
-63.10296709396899
 30
0.0
 11
-144.2999995000049
 21
-61.47796709396899
 31
0.0
 70
    33
  1
<>
 71
     5
 42
-1.0
 53
0.00013888888889
  3
ME10_DIM_11
100
AcDbAlignedDimension
 13
-135.2999995000049
 23
-58.10296709396899
 33
0.0
 14
-153.2999995000049
 24
-58.10296709396899
 34
0.0
  0
DIMENSION
  5
11C
330
6D
100
AcDbEntity
  8
1
100
AcDbDimension
  2
*D18
 10
-158.2999995000049
 20
-58.10296709396899
 30
0.0
 11
-160.0124995000049
 21
-54.50296709396902
 31
0.0
 70
    32
  1
<>
 71
     5
 42
-1.0
 53
90.0
  3
ME10_DIM_12
100
AcDbAlignedDimension
 13
-153.2999995000049
 23
-50.90296709396905
 33
0.0
 14
-153.2999995000049
 24
-58.10296709396899
 34
0.0
 50
90.0
100
AcDbRotatedDimension
  0
ENDBLK
  5
70
330
6D
100
AcDbEntity
  8
0
100
AcDbBlockEnd
  0
BLOCK
  5
72
330
71
100
AcDbEntity
  8
0
100
AcDbBlockBegin
  2
_punkt
 70
     0
 10
-110.1000024518887
 20
-242.3019134212866
 30
0.0
  3
_punkt
  1

  0
LINE
  5
11D
330
71
100
AcDbEntity
  8
1
  6
Continuous
 62
     2
100
AcDbLine
 10
-110.1000024518887
 20
-242.3019134212866
 30
0.0
 11
-110.1000024518887
 21
-247.3019134212867
 31
0.0
  0
LINE
  5
11E
330
71
100
AcDbEntity
  8
1
  6
Continuous
 62
     2
100
AcDbLine
 10
-110.1000024518887
 20
-242.3019134212866
 30
0.0
 11
-105.1000024518897
 21
-242.3019134212866
 31
0.0
  0
ENDBLK
  5
73
330
71
100
AcDbEntity
  8
0
100
AcDbBlockEnd
  0
BLOCK
  5
75
330
74
100
AcDbEntity
  8
0
100
AcDbBlockBegin
  2
_rahmen
 70
     0
 10
-110.1000024518887
 20
-247.3019134212867
 30
0.0
  3
_rahmen
  1

  0
LINE
  5
11F
330
74
100
AcDbEntity
  8
1
  6
DOT_CENTER
 62
     2
100
AcDbLine
 10
-235.6581520920761
 20
-221.1769134212867
 30
0.0
 11
-230.1581520920761
 21
-221.1769134212867
 31
0.0
  0
LINE
  5
120
330
74
100
AcDbEntity
  8
1
  6
PHANTOM
 62
     2
100
AcDbLine
 10
-226.9081520920761
 20
-218.4269134212867
 30
0.0
 11
-226.9081520920761
 21
-223.9269134212867
 31
0.0
  0
LINE
  5
121
330
74
100
AcDbEntity
  8
1
  6
PHANTOM
 62
     2
100
AcDbLine
 10
-224.1581520920761
 20
-221.1769134212867
 30
0.0
 11
-229.6581520920761
 21
-221.1769134212867
 31
0.0
  0
LINE
  5
122
330
74
100
AcDbEntity
  8
1
  6
Continuous
 62
     7
100
AcDbLine
 10
-175.3448069786387
 20
-233.8019134212867
 30
0.0
 11
-175.3448069786387
 21
-225.3019134212866
 31
0.0
  0
LINE
  5
123
330
74
100
AcDbEntity
  8
1
  6
Continuous
 62
     6
100
AcDbLine
 10
-203.2448069786388
 20
-225.3019134212866
 30
0.0
 11
-110.100002451887
 21
-225.3019134212866
 31
0.0
  0
LINE
  5
124
330
74
100
AcDbEntity
  8
1
  6
Continuous
 62
     7
100
AcDbLine
 10
-239.6448069786387
 20
-225.3019134212866
 30
0.0
 11
-239.6448069786387
 21
-216.8019134212866
 31
0.0
  0
LINE
  5
125
330
74
100
AcDbEntity
  8
1
  6
Continuous
 62
     7
100
AcDbLine
 10
-203.2448069786388
 20
-225.3019134212866
 30
0.0
 11
-203.2448069786388
 21
-216.8019134212866
 31
0.0
  0
LINE
  5
126
330
74
100
AcDbEntity
  8
1
  6
Continuous
 62
     7
100
AcDbLine
 10
-145.5184107335658
 20
-216.8019134212866
 30
0.0
 11
-145.5184107335658
 21
-225.3019134212866
 31
0.0
  0
LINE
  5
127
330
74
100
AcDbEntity
  8
1
  6
Continuous
 62
     7
100
AcDbLine
 10
-119.0184107335662
 20
-216.8019134212866
 30
0.0
 11
-119.0184107335662
 21
-225.3019134212866
 31
0.0
  0
LINE
  5
128
330
74
100
AcDbEntity
  8
1
  6
Continuous
 62
     6
100
AcDbLine
 10
-308.6448069786387
 20
-242.3019134212866
 30
0.0
 11
-353.6000024518887
 21
-242.3019134212866
 31
0.0
  0
LINE
  5
129
330
74
100
AcDbEntity
  8
1
  6
Continuous
 62
     7
100
AcDbLine
 10
-110.1000024518874
 20
-233.8019134212866
 30
0.0
 11
-203.2448069786388
 21
-233.8019134212866
 31
0.0
  0
LINE
  5
12A
102
{ACAD_REACTORS
330
23C
330
23D
102
}
330
74
100
AcDbEntity
  8
0
  6
Continuous
 62
     2
100
AcDbLine
 10
-225.9373780368713
 20
-233.0016243056233
 30
0.0
 11
-225.9373780368713
 21
-232.12910729882
 31
0.0
  0
LINE
  5
12B
102
{ACAD_REACTORS
330
23C
330
23D
102
}
330
74
100
AcDbEntity
  8
0
  6
Continuous
 62
     2
100
AcDbLine
 10
-225.9373780368713
 20
-233.9613930131062
 30
0.0
 11
-225.9373780368713
 21
-234.8339100199094
 31
0.0
  0
LINE
  5
12C
102
{ACAD_REACTORS
330
23E
330
23F
102
}
330
74
100
AcDbEntity
  8
0
  6
Continuous
 62
     2
100
AcDbLine
 10
-210.6043339005808
 20
-232.7398692035828
 30
0.0
 11
-209.5006946010127
 21
-232.7398692035828
 31
0.0
  0
LINE
  5
12D
102
{ACAD_REACTORS
330
23E
330
23F
102
}
330
74
100
AcDbEntity
  8
0
  6
Continuous
 62
     2
100
AcDbLine
 10
-209.8346765576194
 20
-233.9613930131067
 30
0.0
 11
-209.8346765576194
 21
-234.83391001991
 31
0.0
  0
LINE
  5
12E
102
{ACAD_REACTORS
330
248
330
249
102
}
330
74
100
AcDbEntity
  8
0
  6
Continuous
 62
     2
100
AcDbLine
 10
-211.6954331729993
 20
-231.649222945096
 30
0.0
 11
-210.297480126059
 21
-230.068363951321
 31
0.0
  0
LINE
  5
12F
102
{ACAD_REACTORS
330
248
330
249
102
}
330
74
100
AcDbEntity
  8
0
  6
Continuous
 62
     2
100
AcDbLine
 10
-211.6000097568265
 20
-228.5954134212848
 30
0.0
 11
-210.297480126059
 21
-230.068363951321
 31
0.0
  0
LINE
  5
130
102
{ACAD_REACTORS
330
248
330
249
102
}
330
74
100
AcDbEntity
  8
0
  6
Continuous
 62
     2
100
AcDbLine
 10
-208.9949504952926
 20
-228.5954134212848
 30
0.0
 11
-207.5922262775454
 21
-228.5954134212848
 31
0.0
  0
LINE
  5
131
102
{ACAD_REACTORS
330
248
330
249
102
}
330
74
100
AcDbEntity
  8
0
  6
Continuous
 62
     2
100
AcDbLine
 10
-210.2927089552511
 20
-231.649222945096
 30
0.0
 11
-209.5961180171854
 21
-230.8614911598023
 31
0.0
  0
LINE
  5
132
102
{ACAD_REACTORS
330
248
330
249
102
}
330
74
100
AcDbEntity
  8
0
  6
Continuous
 62
     2
100
AcDbLine
 10
-210.2927089552511
 20
-231.649222945096
 30
0.0
 11
-211.6954331729993
 21
-231.649222945096
 31
0.0
  0
LINE
  5
133
102
{ACAD_REACTORS
330
24A
330
24B
102
}
330
74
100
AcDbEntity
  8
0
  6
Continuous
 62
     2
100
AcDbLine
 10
-211.8147124432162
 20
-231.649222945096
 30
0.0
 11
-213.0552168534691
 21
-231.649222945096
 31
0.0
  0
LINE
  5
134
102
{ACAD_REACTORS
330
24C
330
24D
102
}
330
74
100
AcDbEntity
  8
0
  6
Continuous
 62
     2
100
AcDbLine
 10
-213.9231964616242
 20
-233.7868896117458
 30
0.0
 11
-214.2233616988143
 21
-233.0190746457591
 31
0.0
  0
LINE
  5
135
102
{ACAD_REACTORS
330
24C
330
24D
102
}
330
74
100
AcDbEntity
  8
0
  6
Continuous
 62
     2
100
AcDbLine
 10
-214.5235269360067
 20
-233.7868896117458
 30
0.0
 11
-213.9231964616242
 21
-233.7868896117458
 31
0.0
  0
LINE
  5
136
102
{ACAD_REACTORS
330
24C
330
24D
102
}
330
74
100
AcDbEntity
  8
0
  6
Continuous
 62
     2
100
AcDbLine
 10
-216.2415669508805
 20
-235.0084134212703
 30
0.0
 11
-215.0010625406275
 21
-235.0084134212703
 31
0.0
  0
LINE
  5
137
102
{ACAD_REACTORS
330
24C
330
24D
102
}
330
74
100
AcDbEntity
  8
0
  6
Continuous
 62
     2
100
AcDbLine
 10
-214.8436139039412
 20
-231.9546038974592
 30
0.0
 11
-213.6031094936885
 21
-231.9546038974592
 31
0.0
  0
LINE
  5
138
102
{ACAD_REACTORS
330
24C
330
24D
102
}
330
74
100
AcDbEntity
  8
0
  6
Continuous
 62
     2
100
AcDbLine
 10
-213.6031094936885
 20
-231.9546038974592
 30
0.0
 11
-212.2051564467482
 21
-235.0084134212703
 31
0.0
  0
LINE
  5
139
102
{ACAD_REACTORS
330
24C
330
24D
102
}
330
74
100
AcDbEntity
  8
0
  6
Continuous
 62
     2
100
AcDbLine
 10
-213.4456608570021
 20
-235.0084134212703
 30
0.0
 11
-213.6571409104779
 21
-234.4674528770524
 31
0.0
  0
LINE
  5
13A
102
{ACAD_REACTORS
330
24E
330
24F
102
}
330
74
100
AcDbEntity
  8
0
  6
Continuous
 62
     2
100
AcDbLine
 10
-217.5879800525881
 20
-235.0084134212703
 30
0.0
 11
-216.3951873504216
 21
-235.0084134212703
 31
0.0
  0
LINE
  5
13B
102
{ACAD_REACTORS
330
24E
330
24F
102
}
330
74
100
AcDbEntity
  8
0
  6
Continuous
 62
     2
100
AcDbLine
 10
-217.5879800525881
 20
-232.7398692035828
 30
0.0
 11
-217.5879800525881
 21
-235.0084134212703
 31
0.0
  0
LINE
  5
13C
102
{ACAD_REACTORS
330
24E
330
24F
102
}
330
74
100
AcDbEntity
  8
0
  6
Continuous
 62
     2
100
AcDbLine
 10
-218.3990790900627
 20
-231.9546038974592
 30
0.0
 11
-218.3990790900627
 21
-232.7398692035828
 31
0.0
  0
LINE
  5
13D
102
{ACAD_REACTORS
330
250
330
251
102
}
330
74
100
AcDbEntity
  8
0
  6
Continuous
 62
     2
100
AcDbLine
 10
-216.9198652084901
 20
-231.649222945096
 30
0.0
 11
-215.7270725063236
 21
-231.649222945096
 31
0.0
  0
LINE
  5
13E
102
{ACAD_REACTORS
330
250
330
251
102
}
330
74
100
AcDbEntity
  8
0
  6
Continuous
 62
     2
100
AcDbLine
 10
-214.4865680960696
 20
-229.90418893149
 30
0.0
 11
-215.7270725063236
 21
-228.5954134212848
 31
0.0
  0
LINE
  5
13F
102
{ACAD_REACTORS
330
250
330
251
102
}
330
74
100
AcDbEntity
  8
0
  6
Continuous
 62
     2
100
AcDbLine
 10
-213.293775393903
 20
-228.5954134212848
 30
0.0
 11
-214.4865680960696
 21
-228.5954134212848
 31
0.0
  0
LINE
  5
140
102
{ACAD_REACTORS
330
250
330
251
102
}
330
74
100
AcDbEntity
  8
0
  6
Continuous
 62
     2
100
AcDbLine
 10
-213.293775393903
 20
-231.649222945096
 30
0.0
 11
-213.293775393903
 21
-228.5954134212848
 31
0.0
  0
LINE
  5
141
102
{ACAD_REACTORS
330
250
330
251
102
}
330
74
100
AcDbEntity
  8
0
  6
Continuous
 62
     2
100
AcDbLine
 10
-214.4865680960696
 20
-231.649222945096
 30
0.0
 11
-213.293775393903
 21
-231.649222945096
 31
0.0
  0
LINE
  5
142
102
{ACAD_REACTORS
330
250
330
251
102
}
330
74
100
AcDbEntity
  8
0
  6
Continuous
 62
     2
100
AcDbLine
 10
-215.7270725063236
 20
-230.3404474348913
 30
0.0
 11
-214.4865680960696
 21
-231.649222945096
 31
0.0
  0
LINE
  5
143
102
{ACAD_REACTORS
330
252
330
253
102
}
330
74
100
AcDbEntity
  8
0
  6
Continuous
 62
     2
100
AcDbLine
 10
-219.7350069164893
 20
-233.2633794076643
 30
0.0
 11
-220.9755113267422
 21
-231.9546038974592
 31
0.0
  0
LINE
  5
144
102
{ACAD_REACTORS
330
252
330
253
102
}
330
74
100
AcDbEntity
  8
0
  6
Continuous
 62
     2
100
AcDbLine
 10
-219.7350069164893
 20
-231.9546038974592
 30
0.0
 11
-219.7350069164893
 21
-233.2633794076643
 31
0.0
  0
LINE
  5
145
102
{ACAD_REACTORS
330
252
330
253
102
}
330
74
100
AcDbEntity
  8
0
  6
Continuous
 62
     2
100
AcDbLine
 10
-218.5422142143229
 20
-231.9546038974592
 30
0.0
 11
-219.7350069164893
 21
-231.9546038974592
 31
0.0
  0
LINE
  5
146
102
{ACAD_REACTORS
330
252
330
253
102
}
330
74
100
AcDbEntity
  8
0
  6
Continuous
 62
     2
100
AcDbLine
 10
-218.5422142143229
 20
-235.0084134212703
 30
0.0
 11
-218.5422142143229
 21
-231.9546038974592
 31
0.0
  0
LINE
  5
147
102
{ACAD_REACTORS
330
252
330
253
102
}
330
74
100
AcDbEntity
  8
0
  6
Continuous
 62
     2
100
AcDbLine
 10
-220.9755113267422
 20
-233.6996379110657
 30
0.0
 11
-219.7350069164893
 21
-235.0084134212703
 31
0.0
  0
LINE
  5
148
102
{ACAD_REACTORS
330
252
330
253
102
}
330
74
100
AcDbEntity
  8
0
  6
Continuous
 62
     2
100
AcDbLine
 10
-220.9755113267422
 20
-235.0084134212703
 30
0.0
 11
-220.9755113267422
 21
-233.6996379110657
 31
0.0
  0
LINE
  5
149
102
{ACAD_REACTORS
330
242
330
243
102
}
330
74
100
AcDbEntity
  8
0
  6
Continuous
 62
     2
100
AcDbLine
 10
-218.4943515753507
 20
-229.2934270267278
 30
0.0
 11
-217.158423748923
 21
-229.2934270267278
 31
0.0
  0
LINE
  5
14A
102
{ACAD_REACTORS
330
242
330
243
102
}
330
74
100
AcDbEntity
  8
0
  6
Continuous
 62
     2
100
AcDbLine
 10
-218.4943515753507
 20
-230.9512093396535
 30
0.0
 11
-218.4943515753507
 21
-230.4713249859118
 31
0.0
  0
LINE
  5
14B
102
{ACAD_REACTORS
330
242
330
243
102
}
330
74
100
AcDbEntity
  8
0
  6
Continuous
 62
     2
100
AcDbLine
 10
-217.158423748923
 20
-230.9512093396535
 30
0.0
 11
-218.4943515753507
 21
-230.9512093396535
 31
0.0
  0
LINE
  5
14C
102
{ACAD_REACTORS
330
242
330
243
102
}
330
74
100
AcDbEntity
  8
0
  6
Continuous
 62
     2
100
AcDbLine
 10
-217.158423748923
 20
-231.649222945096
 30
0.0
 11
-217.158423748923
 21
-230.9512093396535
 31
0.0
  0
LINE
  5
14D
102
{ACAD_REACTORS
330
242
330
243
102
}
330
74
100
AcDbEntity
  8
0
  6
Continuous
 62
     2
100
AcDbLine
 10
-220.308743472704
 20
-231.649222945096
 30
0.0
 11
-217.158423748923
 21
-231.649222945096
 31
0.0
  0
LINE
  5
14E
102
{ACAD_REACTORS
330
242
330
243
102
}
330
74
100
AcDbEntity
  8
0
  6
Continuous
 62
     2
100
AcDbLine
 10
-220.308743472704
 20
-228.5954134212848
 30
0.0
 11
-217.158423748923
 21
-228.5954134212848
 31
0.0
  0
LINE
  5
14F
102
{ACAD_REACTORS
330
242
330
243
102
}
330
74
100
AcDbEntity
  8
0
  6
Continuous
 62
     2
100
AcDbLine
 10
-217.158423748923
 20
-229.2934270267278
 30
0.0
 11
-217.158423748923
 21
-228.5954134212848
 31
0.0
  0
LINE
  5
150
102
{ACAD_REACTORS
330
254
330
255
102
}
330
74
100
AcDbEntity
  8
0
  6
Continuous
 62
     2
100
AcDbLine
 10
-223.170098967844
 20
-229.6642467546194
 30
0.0
 11
-223.170098967844
 21
-228.5954134212848
 31
0.0
  0
LINE
  5
151
102
{ACAD_REACTORS
330
254
330
255
102
}
330
74
100
AcDbEntity
  8
0
  6
Continuous
 62
     2
100
AcDbLine
 10
-223.170098967844
 20
-228.5954134212848
 30
0.0
 11
-221.9773062656776
 21
-228.5954134212848
 31
0.0
  0
LINE
  5
152
102
{ACAD_REACTORS
330
254
330
255
102
}
330
74
100
AcDbEntity
  8
0
  6
Continuous
 62
     2
100
AcDbLine
 10
-223.170098967844
 20
-230.5149508362522
 30
0.0
 11
-224.2197565457515
 21
-230.5149508362522
 31
0.0
  0
LINE
  5
153
102
{ACAD_REACTORS
330
254
330
255
102
}
330
74
100
AcDbEntity
  8
0
  6
Continuous
 62
     2
100
AcDbLine
 10
-224.2197565457515
 20
-230.5149508362522
 30
0.0
 11
-224.2197565457515
 21
-231.649222945096
 31
0.0
  0
LINE
  5
154
102
{ACAD_REACTORS
330
254
330
255
102
}
330
74
100
AcDbEntity
  8
0
  6
Continuous
 62
     2
100
AcDbLine
 10
-225.4125492479181
 20
-228.5954134212848
 30
0.0
 11
-225.4125492479181
 21
-231.649222945096
 31
0.0
  0
LINE
  5
155
102
{ACAD_REACTORS
330
246
330
247
102
}
330
74
100
AcDbEntity
  8
0
  6
Continuous
 62
     2
100
AcDbLine
 10
-227.3687292794717
 20
-229.9642469160671
 30
0.0
 11
-227.3687292794717
 21
-229.2585192667249
 31
0.0
  0
LINE
  5
156
102
{ACAD_REACTORS
330
246
330
247
102
}
330
74
100
AcDbEntity
  8
0
  6
Continuous
 62
     2
100
AcDbLine
 10
-228.6092336897258
 20
-231.649222945096
 30
0.0
 11
-227.3687292794717
 21
-231.649222945096
 31
0.0
  0
LINE
  5
157
102
{ACAD_REACTORS
330
246
330
247
102
}
330
74
100
AcDbEntity
  8
0
  6
Continuous
 62
     2
100
AcDbLine
 10
-227.3687292794717
 20
-231.649222945096
 30
0.0
 11
-227.3687292794717
 21
-230.7061447039522
 31
0.0
  0
LINE
  5
158
102
{ACAD_REACTORS
330
240
330
241
102
}
330
74
100
AcDbEntity
  8
0
  6
Continuous
 62
     2
100
AcDbLine
 10
-232.9141795389372
 20
-234.2958578657134
 30
0.0
 11
-234.3900127999469
 21
-234.2958578657134
 31
0.0
  0
LINE
  5
159
102
{ACAD_REACTORS
330
240
330
241
102
}
330
74
100
AcDbEntity
  8
0
  6
Continuous
 62
     2
100
AcDbLine
 10
-235.4081520920761
 20
-229.0196580366868
 30
0.0
 11
-235.4081520920761
 21
-234.584168805887
 31
0.0
  0
LINE
  5
15A
102
{ACAD_REACTORS
330
240
330
241
102
}
330
74
100
AcDbEntity
  8
0
  6
Continuous
 62
     2
100
AcDbLine
 10
-234.9839074766933
 20
-228.595413421303
 30
0.0
 11
-229.5105953859765
 21
-228.595413421303
 31
0.0
  0
LINE
  5
15B
102
{ACAD_REACTORS
330
240
330
241
102
}
330
74
100
AcDbEntity
  8
0
  6
Continuous
 62
     2
100
AcDbLine
 10
-229.0863507705927
 20
-229.0196580366868
 30
0.0
 11
-229.0863507705927
 21
-234.584168805887
 31
0.0
  0
LINE
  5
15C
102
{ACAD_REACTORS
330
240
330
241
102
}
330
74
100
AcDbEntity
  8
0
  6
Continuous
 62
     2
100
AcDbLine
 10
-229.5105953859765
 20
-235.0084134212703
 30
0.0
 11
-234.9839074766933
 21
-235.0084134212703
 31
0.0
  0
LINE
  5
15D
102
{ACAD_REACTORS
330
240
330
241
102
}
330
74
100
AcDbEntity
  8
0
  6
Continuous
 62
     2
100
AcDbLine
 10
-232.5984626158606
 20
-233.9801409426367
 30
0.0
 11
-232.5984626158606
 21
-232.4493700111051
 31
0.0
  0
LINE
  5
15E
102
{ACAD_REACTORS
330
240
330
241
102
}
330
74
100
AcDbEntity
  8
0
  6
Continuous
 62
     2
100
AcDbLine
 10
-232.5984626158606
 20
-230.2277105189801
 30
0.0
 11
-232.5984626158606
 21
-229.6236858999196
 31
0.0
  0
LINE
  5
15F
102
{ACAD_REACTORS
330
240
330
241
102
}
330
74
100
AcDbEntity
  8
0
  6
Continuous
 62
     2
100
AcDbLine
 10
-234.3900127999469
 20
-229.3079689768434
 30
0.0
 11
-232.9141795389372
 21
-229.3079689768434
 31
0.0
  0
LINE
  5
160
102
{ACAD_REACTORS
330
240
330
241
102
}
330
74
100
AcDbEntity
  8
0
  6
Continuous
 62
     2
100
AcDbLine
 10
-234.7057297230225
 20
-229.6236858999196
 30
0.0
 11
-234.7057297230225
 21
-233.9801409426367
 31
0.0
  0
LINE
  5
161
102
{ACAD_REACTORS
330
246
330
247
102
}
330
74
100
AcDbEntity
  8
0
  6
Continuous
 62
     2
100
AcDbLine
 10
-227.3687292794717
 20
-230.7061447039522
 30
0.0
 11
-226.6099616916914
 21
-230.7061447039522
 31
0.0
  0
LINE
  5
162
102
{ACAD_REACTORS
330
246
330
247
102
}
330
74
100
AcDbEntity
  8
0
  6
Continuous
 62
     2
100
AcDbLine
 10
-228.6092336897258
 20
-228.5954134212848
 30
0.0
 11
-226.6099616916914
 21
-228.5954134212848
 31
0.0
  0
LINE
  5
163
102
{ACAD_REACTORS
330
246
330
247
102
}
330
74
100
AcDbEntity
  8
0
  6
Continuous
 62
     2
100
AcDbLine
 10
-228.6092336897258
 20
-228.5954134212848
 30
0.0
 11
-228.6092336897258
 21
-231.649222945096
 31
0.0
  0
LINE
  5
164
102
{ACAD_REACTORS
330
246
330
247
102
}
330
74
100
AcDbEntity
  8
0
  6
Continuous
 62
     2
100
AcDbLine
 10
-227.3687292794717
 20
-229.9642469160671
 30
0.0
 11
-227.0514342179298
 21
-229.9642469160671
 31
0.0
  0
LINE
  5
165
102
{ACAD_REACTORS
330
246
330
247
102
}
330
74
100
AcDbEntity
  8
0
  6
Continuous
 62
     2
100
AcDbLine
 10
-227.3687292794717
 20
-229.2585192667249
 30
0.0
 11
-227.0514342179298
 21
-229.2585192667249
 31
0.0
  0
LINE
  5
166
102
{ACAD_REACTORS
330
254
330
255
102
}
330
74
100
AcDbEntity
  8
0
  6
Continuous
 62
     2
100
AcDbLine
 10
-224.2197565457515
 20
-229.6642467546194
 30
0.0
 11
-223.170098967844
 21
-229.6642467546194
 31
0.0
  0
LINE
  5
167
102
{ACAD_REACTORS
330
254
330
255
102
}
330
74
100
AcDbEntity
  8
0
  6
Continuous
 62
     2
100
AcDbLine
 10
-224.2197565457515
 20
-228.5954134212848
 30
0.0
 11
-224.2197565457515
 21
-229.6642467546194
 31
0.0
  0
LINE
  5
168
102
{ACAD_REACTORS
330
254
330
255
102
}
330
74
100
AcDbEntity
  8
0
  6
Continuous
 62
     2
100
AcDbLine
 10
-225.4125492479181
 20
-228.5954134212848
 30
0.0
 11
-224.2197565457515
 21
-228.5954134212848
 31
0.0
  0
LINE
  5
169
102
{ACAD_REACTORS
330
254
330
255
102
}
330
74
100
AcDbEntity
  8
0
  6
Continuous
 62
     2
100
AcDbLine
 10
-224.2197565457515
 20
-231.649222945096
 30
0.0
 11
-225.4125492479181
 21
-231.649222945096
 31
0.0
  0
LINE
  5
16A
102
{ACAD_REACTORS
330
254
330
255
102
}
330
74
100
AcDbEntity
  8
0
  6
Continuous
 62
     2
100
AcDbLine
 10
-223.170098967844
 20
-231.649222945096
 30
0.0
 11
-223.170098967844
 21
-230.5149508362522
 31
0.0
  0
LINE
  5
16B
102
{ACAD_REACTORS
330
254
330
255
102
}
330
74
100
AcDbEntity
  8
0
  6
Continuous
 62
     2
100
AcDbLine
 10
-221.9773062656776
 20
-231.649222945096
 30
0.0
 11
-223.170098967844
 21
-231.649222945096
 31
0.0
  0
LINE
  5
16C
102
{ACAD_REACTORS
330
254
330
255
102
}
330
74
100
AcDbEntity
  8
0
  6
Continuous
 62
     2
100
AcDbLine
 10
-221.9773062656776
 20
-228.5954134212848
 30
0.0
 11
-221.9773062656776
 21
-231.649222945096
 31
0.0
  0
LINE
  5
16D
102
{ACAD_REACTORS
330
242
330
243
102
}
330
74
100
AcDbEntity
  8
0
  6
Continuous
 62
     2
100
AcDbLine
 10
-218.4943515753507
 20
-230.4713249859118
 30
0.0
 11
-217.158423748923
 21
-230.4713249859118
 31
0.0
  0
LINE
  5
16E
102
{ACAD_REACTORS
330
242
330
243
102
}
330
74
100
AcDbEntity
  8
0
  6
Continuous
 62
     2
100
AcDbLine
 10
-217.158423748923
 20
-230.4713249859118
 30
0.0
 11
-217.158423748923
 21
-229.7733113804695
 31
0.0
  0
LINE
  5
16F
102
{ACAD_REACTORS
330
242
330
243
102
}
330
74
100
AcDbEntity
  8
0
  6
Continuous
 62
     2
100
AcDbLine
 10
-217.158423748923
 20
-229.7733113804695
 30
0.0
 11
-218.4943515753507
 21
-229.7733113804695
 31
0.0
  0
LINE
  5
170
102
{ACAD_REACTORS
330
242
330
243
102
}
330
74
100
AcDbEntity
  8
0
  6
Continuous
 62
     2
100
AcDbLine
 10
-218.4943515753507
 20
-229.7733113804695
 30
0.0
 11
-218.4943515753507
 21
-229.2934270267278
 31
0.0
  0
LINE
  5
171
102
{ACAD_REACTORS
330
252
330
253
102
}
330
74
100
AcDbEntity
  8
0
  6
Continuous
 62
     2
100
AcDbLine
 10
-222.1683040289098
 20
-235.0084134212703
 30
0.0
 11
-220.9755113267422
 21
-235.0084134212703
 31
0.0
  0
LINE
  5
172
102
{ACAD_REACTORS
330
252
330
253
102
}
330
74
100
AcDbEntity
  8
0
  6
Continuous
 62
     2
100
AcDbLine
 10
-219.7350069164893
 20
-235.0084134212703
 30
0.0
 11
-218.5422142143229
 21
-235.0084134212703
 31
0.0
  0
LINE
  5
173
102
{ACAD_REACTORS
330
252
330
253
102
}
330
74
100
AcDbEntity
  8
0
  6
Continuous
 62
     2
100
AcDbLine
 10
-220.9755113267422
 20
-231.9546038974592
 30
0.0
 11
-222.1683040289098
 21
-231.9546038974592
 31
0.0
  0
LINE
  5
174
102
{ACAD_REACTORS
330
252
330
253
102
}
330
74
100
AcDbEntity
  8
0
  6
Continuous
 62
     2
100
AcDbLine
 10
-222.1683040289098
 20
-231.9546038974592
 30
0.0
 11
-222.1683040289098
 21
-235.0084134212703
 31
0.0
  0
LINE
  5
175
102
{ACAD_REACTORS
330
250
330
251
102
}
330
74
100
AcDbEntity
  8
0
  6
Continuous
 62
     2
100
AcDbLine
 10
-214.4865680960696
 20
-228.5954134212848
 30
0.0
 11
-214.4865680960696
 21
-229.90418893149
 31
0.0
  0
LINE
  5
176
102
{ACAD_REACTORS
330
250
330
251
102
}
330
74
100
AcDbEntity
  8
0
  6
Continuous
 62
     2
100
AcDbLine
 10
-215.7270725063236
 20
-228.5954134212848
 30
0.0
 11
-216.9198652084901
 21
-228.5954134212848
 31
0.0
  0
LINE
  5
177
102
{ACAD_REACTORS
330
250
330
251
102
}
330
74
100
AcDbEntity
  8
0
  6
Continuous
 62
     2
100
AcDbLine
 10
-216.9198652084901
 20
-228.5954134212848
 30
0.0
 11
-216.9198652084901
 21
-231.649222945096
 31
0.0
  0
LINE
  5
178
102
{ACAD_REACTORS
330
250
330
251
102
}
330
74
100
AcDbEntity
  8
0
  6
Continuous
 62
     2
100
AcDbLine
 10
-215.7270725063236
 20
-231.649222945096
 30
0.0
 11
-215.7270725063236
 21
-230.3404474348913
 31
0.0
  0
LINE
  5
179
102
{ACAD_REACTORS
330
24E
330
24F
102
}
330
74
100
AcDbEntity
  8
0
  6
Continuous
 62
     2
100
AcDbLine
 10
-216.3951873504216
 20
-235.0084134212703
 30
0.0
 11
-216.3951873504216
 21
-232.7398692035828
 31
0.0
  0
LINE
  5
17A
102
{ACAD_REACTORS
330
24E
330
24F
102
}
330
74
100
AcDbEntity
  8
0
  6
Continuous
 62
     2
100
AcDbLine
 10
-216.3951873504216
 20
-232.7398692035828
 30
0.0
 11
-215.5840883129491
 21
-232.7398692035828
 31
0.0
  0
LINE
  5
17B
102
{ACAD_REACTORS
330
24E
330
24F
102
}
330
74
100
AcDbEntity
  8
0
  6
Continuous
 62
     2
100
AcDbLine
 10
-215.5840883129491
 20
-232.7398692035828
 30
0.0
 11
-215.5840883129491
 21
-231.9546038974592
 31
0.0
  0
LINE
  5
17C
102
{ACAD_REACTORS
330
24E
330
24F
102
}
330
74
100
AcDbEntity
  8
0
  6
Continuous
 62
     2
100
AcDbLine
 10
-215.5840883129491
 20
-231.9546038974592
 30
0.0
 11
-218.3990790900627
 21
-231.9546038974592
 31
0.0
  0
LINE
  5
17D
102
{ACAD_REACTORS
330
24E
330
24F
102
}
330
74
100
AcDbEntity
  8
0
  6
Continuous
 62
     2
100
AcDbLine
 10
-218.3990790900627
 20
-232.7398692035828
 30
0.0
 11
-217.5879800525881
 21
-232.7398692035828
 31
0.0
  0
LINE
  5
17E
102
{ACAD_REACTORS
330
24C
330
24D
102
}
330
74
100
AcDbEntity
  8
0
  6
Continuous
 62
     2
100
AcDbLine
 10
-214.7895824871517
 20
-234.4674528770524
 30
0.0
 11
-213.6571409104779
 21
-234.4674528770524
 31
0.0
  0
LINE
  5
17F
102
{ACAD_REACTORS
330
24C
330
24D
102
}
330
74
100
AcDbEntity
  8
0
  6
Continuous
 62
     2
100
AcDbLine
 10
-212.2051564467482
 20
-235.0084134212703
 30
0.0
 11
-213.4456608570021
 21
-235.0084134212703
 31
0.0
  0
LINE
  5
180
102
{ACAD_REACTORS
330
24C
330
24D
102
}
330
74
100
AcDbEntity
  8
0
  6
Continuous
 62
     2
100
AcDbLine
 10
-214.8436139039412
 20
-231.9546038974592
 30
0.0
 11
-216.2415669508805
 21
-235.0084134212703
 31
0.0
  0
LINE
  5
181
102
{ACAD_REACTORS
330
24C
330
24D
102
}
330
74
100
AcDbEntity
  8
0
  6
Continuous
 62
     2
100
AcDbLine
 10
-215.0010625406275
 20
-235.0084134212703
 30
0.0
 11
-214.7895824871517
 21
-234.4674528770524
 31
0.0
  0
LINE
  5
182
102
{ACAD_REACTORS
330
24C
330
24D
102
}
330
74
100
AcDbEntity
  8
0
  6
Continuous
 62
     2
100
AcDbLine
 10
-214.5235269360067
 20
-233.7868896117458
 30
0.0
 11
-214.2233616988143
 21
-233.0190746457591
 31
0.0
  0
LINE
  5
183
102
{ACAD_REACTORS
330
24A
330
24B
102
}
330
74
100
AcDbEntity
  8
0
  6
Continuous
 62
     2
100
AcDbLine
 10
-213.0552168534691
 20
-231.649222945096
 30
0.0
 11
-213.0552168534691
 21
-228.5954134212848
 31
0.0
  0
LINE
  5
184
102
{ACAD_REACTORS
330
24A
330
24B
102
}
330
74
100
AcDbEntity
  8
0
  6
Continuous
 62
     2
100
AcDbLine
 10
-211.8147124432162
 20
-228.5954134212848
 30
0.0
 11
-211.8147124432162
 21
-231.649222945096
 31
0.0
  0
LINE
  5
185
102
{ACAD_REACTORS
330
24A
330
24B
102
}
330
74
100
AcDbEntity
  8
0
  6
Continuous
 62
     2
100
AcDbLine
 10
-213.0552168534691
 20
-228.5954134212848
 30
0.0
 11
-211.8147124432162
 21
-228.5954134212848
 31
0.0
  0
LINE
  5
186
102
{ACAD_REACTORS
330
248
330
249
102
}
330
74
100
AcDbEntity
  8
0
  6
Continuous
 62
     2
100
AcDbLine
 10
-209.5961180171854
 20
-230.8614911598023
 30
0.0
 11
-208.8995270791199
 21
-231.649222945096
 31
0.0
  0
LINE
  5
187
102
{ACAD_REACTORS
330
248
330
249
102
}
330
74
100
AcDbEntity
  8
0
  6
Continuous
 62
     2
100
AcDbLine
 10
-208.8995270791199
 20
-231.649222945096
 30
0.0
 11
-207.4968028613716
 21
-231.649222945096
 31
0.0
  0
LINE
  5
188
102
{ACAD_REACTORS
330
248
330
249
102
}
330
74
100
AcDbEntity
  8
0
  6
Continuous
 62
     2
100
AcDbLine
 10
-208.8947559083119
 20
-230.068363951321
 30
0.0
 11
-207.4968028613716
 21
-231.649222945096
 31
0.0
  0
LINE
  5
189
102
{ACAD_REACTORS
330
248
330
249
102
}
330
74
100
AcDbEntity
  8
0
  6
Continuous
 62
     2
100
AcDbLine
 10
-208.8947559083119
 20
-230.068363951321
 30
0.0
 11
-207.5922262775454
 21
-228.5954134212848
 31
0.0
  0
LINE
  5
18A
102
{ACAD_REACTORS
330
248
330
249
102
}
330
74
100
AcDbEntity
  8
0
  6
Continuous
 62
     2
100
AcDbLine
 10
-209.5961180171854
 20
-229.2752367428403
 30
0.0
 11
-208.9949504952926
 21
-228.5954134212848
 31
0.0
  0
LINE
  5
18B
102
{ACAD_REACTORS
330
248
330
249
102
}
330
74
100
AcDbEntity
  8
0
  6
Continuous
 62
     2
100
AcDbLine
 10
-210.1972855390772
 20
-228.5954134212848
 30
0.0
 11
-209.5961180171854
 21
-229.2752367428403
 31
0.0
  0
LINE
  5
18C
102
{ACAD_REACTORS
330
248
330
249
102
}
330
74
100
AcDbEntity
  8
0
  6
Continuous
 62
     2
100
AcDbLine
 10
-210.1972855390772
 20
-228.5954134212848
 30
0.0
 11
-211.6000097568265
 21
-228.5954134212848
 31
0.0
  0
LINE
  5
18D
102
{ACAD_REACTORS
330
23E
330
23F
102
}
330
74
100
AcDbEntity
  8
0
  6
Continuous
 62
     2
100
AcDbLine
 10
-209.5006946010127
 20
-235.0084134212703
 30
0.0
 11
-208.307901898845
 21
-235.0084134212703
 31
0.0
  0
LINE
  5
18E
102
{ACAD_REACTORS
330
23E
330
23F
102
}
330
74
100
AcDbEntity
  8
0
  6
Continuous
 62
     2
100
AcDbLine
 10
-208.307901898845
 20
-235.0084134212703
 30
0.0
 11
-208.307901898845
 21
-232.7398692035828
 31
0.0
  0
LINE
  5
18F
102
{ACAD_REACTORS
330
23E
330
23F
102
}
330
74
100
AcDbEntity
  8
0
  6
Continuous
 62
     2
100
AcDbLine
 10
-208.307901898845
 20
-232.7398692035828
 30
0.0
 11
-207.4968028613716
 21
-232.7398692035828
 31
0.0
  0
LINE
  5
190
102
{ACAD_REACTORS
330
23E
330
23F
102
}
330
74
100
AcDbEntity
  8
0
  6
Continuous
 62
     2
100
AcDbLine
 10
-207.4968028613716
 20
-232.7398692035828
 30
0.0
 11
-207.4968028613716
 21
-231.9546038974592
 31
0.0
  0
LINE
  5
191
102
{ACAD_REACTORS
330
23E
330
23F
102
}
330
74
100
AcDbEntity
  8
0
  6
Continuous
 62
     2
100
AcDbLine
 10
-210.8817483800003
 20
-231.9546038974597
 30
0.0
 11
-207.4968028613716
 21
-231.9546038974592
 31
0.0
  0
LINE
  5
192
102
{ACAD_REACTORS
330
23E
330
23F
102
}
330
74
100
AcDbEntity
  8
0
  6
Continuous
 62
     2
100
AcDbLine
 10
-209.5006946010127
 20
-232.7398692035828
 30
0.0
 11
-209.5006946010127
 21
-235.0084134212703
 31
0.0
  0
LINE
  5
193
102
{ACAD_REACTORS
330
240
330
241
102
}
330
74
100
AcDbEntity
  8
0
  6
Continuous
 62
     2
100
AcDbLine
 10
-232.1301810364919
 20
-233.0295332717058
 30
0.0
 11
-232.1301810364919
 21
-232.4476818650107
 31
0.0
  0
LINE
  5
194
102
{ACAD_REACTORS
330
240
330
241
102
}
330
74
100
AcDbEntity
  8
0
  6
Continuous
 62
     2
100
AcDbLine
 10
-232.1301810364919
 20
-230.2293986650745
 30
0.0
 11
-232.1301810364919
 21
-229.6238633765677
 31
0.0
  0
LINE
  5
195
330
74
100
AcDbEntity
  8
1
  6
Continuous
 62
     6
100
AcDbLine
 10
-253.6000024518887
 20
-242.3019134212866
 30
0.0
 11
-239.6448069786387
 21
-242.3019134212867
 31
0.0
  0
LINE
  5
196
330
74
100
AcDbEntity
  8
1
  6
Continuous
 62
     6
100
AcDbLine
 10
-303.6000024518889
 20
-242.3019134212866
 30
0.0
 11
-308.6448069786387
 21
-242.3019134212866
 31
0.0
  0
LINE
  5
197
330
74
100
AcDbEntity
  8
1
  6
Continuous
 62
     6
100
AcDbLine
 10
-153.6000024518887
 20
-242.3019134212866
 30
0.0
 11
-110.1000024518887
 21
-242.3019134212866
 31
0.0
  0
LINE
  5
198
330
74
100
AcDbEntity
  8
1
  6
Continuous
 62
     6
100
AcDbLine
 10
-203.6000024518887
 20
-242.3019134212866
 30
0.0
 11
-221.4448069786387
 21
-242.3019134212866
 31
0.0
  0
LINE
  5
199
330
74
100
AcDbEntity
  8
1
  6
Continuous
 62
     2
100
AcDbLine
 10
-110.1000024518887
 20
-242.3019134212866
 30
0.0
 11
-105.1000024518897
 21
-242.3019134212866
 31
0.0
  0
LINE
  5
19A
330
74
100
AcDbEntity
  8
1
  6
Continuous
 62
     2
100
AcDbLine
 10
-110.1000024518887
 20
-242.3019134212866
 30
0.0
 11
-110.1000024518887
 21
-247.3019134212867
 31
0.0
  0
LINE
  5
19B
330
74
100
AcDbEntity
  8
1
  6
Continuous
 62
     6
100
AcDbLine
 10
-239.6448069786387
 20
-225.3019134212866
 30
0.0
 11
-203.2448069786388
 21
-225.3019134212866
 31
0.0
  0
LINE
  5
19C
330
74
100
AcDbEntity
  8
1
  6
Continuous
 62
     2
100
AcDbLine
 10
-105.1000024518897
 20
-247.3019134212867
 30
0.0
 11
-105.1000024518897
 21
-242.3019134212866
 31
0.0
  0
LINE
  5
19D
330
74
100
AcDbEntity
  8
1
  6
Continuous
 62
     2
100
AcDbLine
 10
-105.1000024518897
 20
-247.3019134212867
 30
0.0
 11
-110.1000024518887
 21
-247.3019134212867
 31
0.0
  0
LINE
  5
19E
330
74
100
AcDbEntity
  8
1
  6
Continuous
 62
     2
100
AcDbLine
 10
-110.1000024518887
 20
-247.3019134212867
 30
0.0
 11
-153.6000024518887
 21
-247.3019134212867
 31
0.0
  0
LINE
  5
19F
330
74
100
AcDbEntity
  8
1
  6
Continuous
 62
     6
100
AcDbLine
 10
-110.100002451887
 20
-225.3019134212866
 30
0.0
 11
-110.1000024518878
 21
-192.3019134212865
 31
0.0
  0
LINE
  5
1A0
330
74
100
AcDbEntity
  8
1
  6
Continuous
 62
     2
100
AcDbLine
 10
-105.1000024518897
 20
-37.3019134212866
 30
0.0
 11
-253.6000024518887
 21
-37.3019134212866
 31
0.0
  0
LINE
  5
1A1
330
74
100
AcDbEntity
  8
1
  6
Continuous
 62
     6
100
AcDbLine
 10
-110.1000024518897
 20
-57.3019134212866
 30
0.0
 11
-397.1000024518878
 21
-57.3019134212866
 31
0.0
  0
LINE
  5
1A2
330
74
100
AcDbEntity
  8
1
  6
Continuous
 62
     2
100
AcDbLine
 10
-110.1000024518878
 20
-192.3019134212865
 30
0.0
 11
-105.1000024518897
 21
-192.3019134212865
 31
0.0
  0
LINE
  5
1A3
330
74
100
AcDbEntity
  8
1
  6
Continuous
 62
     6
100
AcDbLine
 10
-110.1000024518878
 20
-192.3019134212865
 30
0.0
 11
-110.1000024518883
 21
-142.3019134212867
 31
0.0
  0
LINE
  5
1A4
330
74
100
AcDbEntity
  8
1
  6
Continuous
 62
     2
100
AcDbLine
 10
-105.1000024518897
 20
-192.3019134212865
 30
0.0
 11
-105.1000024518897
 21
-142.3019134212867
 31
0.0
  0
LINE
  5
1A5
330
74
100
AcDbEntity
  8
1
  6
Continuous
 62
     2
100
AcDbLine
 10
-110.1000024518883
 20
-142.3019134212867
 30
0.0
 11
-105.1000024518897
 21
-142.3019134212867
 31
0.0
  0
LINE
  5
1A6
330
74
100
AcDbEntity
  8
1
  6
Continuous
 62
     6
100
AcDbLine
 10
-110.1000024518883
 20
-142.3019134212867
 30
0.0
 11
-110.1000024518895
 21
-92.3019134212866
 31
0.0
  0
LINE
  5
1A7
330
74
100
AcDbEntity
  8
1
  6
Continuous
 62
     2
100
AcDbLine
 10
-105.1000024518897
 20
-142.3019134212867
 30
0.0
 11
-105.1000024518897
 21
-92.3019134212866
 31
0.0
  0
LINE
  5
1A8
330
74
100
AcDbEntity
  8
1
  6
Continuous
 62
     2
100
AcDbLine
 10
-110.1000024518895
 20
-92.3019134212866
 30
0.0
 11
-105.1000024518897
 21
-92.3019134212866
 31
0.0
  0
LINE
  5
1A9
330
74
100
AcDbEntity
  8
1
  6
Continuous
 62
     6
100
AcDbLine
 10
-110.1000024518895
 20
-92.3019134212866
 30
0.0
 11
-110.1000024518897
 21
-57.3019134212866
 31
0.0
  0
LINE
  5
1AA
330
74
100
AcDbEntity
  8
1
  6
Continuous
 62
     2
100
AcDbLine
 10
-105.1000024518897
 20
-92.3019134212866
 30
0.0
 11
-105.1000024518897
 21
-37.3019134212866
 31
0.0
  0
LINE
  5
1AB
330
74
100
AcDbEntity
  8
1
  6
Continuous
 62
     2
100
AcDbLine
 10
-105.1000024518897
 20
-242.3019134212866
 30
0.0
 11
-105.1000024518897
 21
-192.3019134212865
 31
0.0
  0
LINE
  5
1AC
330
74
100
AcDbEntity
  8
1
  6
Continuous
 62
     2
100
AcDbLine
 10
-253.6000024518887
 20
-37.3019134212866
 30
0.0
 11
-402.1000024518878
 21
-37.3019134212866
 31
0.0
  0
LINE
  5
1AD
330
74
100
AcDbEntity
  8
1
  6
Continuous
 62
     2
100
AcDbLine
 10
-253.6000024518887
 20
-37.3019134212866
 30
0.0
 11
-253.6000024518887
 21
-46.51060526598792
 31
0.0
  0
LINE
  5
1AE
330
74
100
AcDbEntity
  8
1
  6
Continuous
 62
     2
100
AcDbLine
 10
-402.1000024518878
 20
-247.3019134212867
 30
0.0
 11
-397.1000024518868
 21
-247.3019134212867
 31
0.0
  0
LINE
  5
1AF
330
74
100
AcDbEntity
  8
1
  6
Continuous
 62
     2
100
AcDbLine
 10
-402.1000024518878
 20
-37.3019134212866
 30
0.0
 11
-402.1000024518878
 21
-92.3019134212866
 31
0.0
  0
LINE
  5
1B0
330
74
100
AcDbEntity
  8
1
  6
Continuous
 62
     6
100
AcDbLine
 10
-397.1000024518878
 20
-57.3019134212866
 30
0.0
 11
-397.1000024518878
 21
-92.3019134212866
 31
0.0
  0
LINE
  5
1B1
330
74
100
AcDbEntity
  8
1
  6
Continuous
 62
     2
100
AcDbLine
 10
-402.1000024518878
 20
-92.3019134212866
 30
0.0
 11
-397.1000024518878
 21
-92.3019134212866
 31
0.0
  0
LINE
  5
1B2
330
74
100
AcDbEntity
  8
1
  6
Continuous
 62
     2
100
AcDbLine
 10
-402.1000024518878
 20
-92.3019134212866
 30
0.0
 11
-402.1000024518878
 21
-142.3019134212867
 31
0.0
  0
LINE
  5
1B3
330
74
100
AcDbEntity
  8
1
  6
Continuous
 62
     6
100
AcDbLine
 10
-397.1000024518878
 20
-92.3019134212866
 30
0.0
 11
-397.1000024518872
 21
-142.3019134212867
 31
0.0
  0
LINE
  5
1B4
330
74
100
AcDbEntity
  8
1
  6
Continuous
 62
     2
100
AcDbLine
 10
-402.1000024518878
 20
-142.3019134212867
 30
0.0
 11
-397.1000024518872
 21
-142.3019134212867
 31
0.0
  0
LINE
  5
1B5
330
74
100
AcDbEntity
  8
1
  6
Continuous
 62
     2
100
AcDbLine
 10
-402.1000024518878
 20
-142.3019134212867
 30
0.0
 11
-402.1000024518878
 21
-192.3019134212865
 31
0.0
  0
LINE
  5
1B6
330
74
100
AcDbEntity
  8
1
  6
Continuous
 62
     6
100
AcDbLine
 10
-397.1000024518872
 20
-142.3019134212867
 30
0.0
 11
-397.100002451887
 21
-192.3019134212865
 31
0.0
  0
LINE
  5
1B7
330
74
100
AcDbEntity
  8
1
  6
Continuous
 62
     2
100
AcDbLine
 10
-402.1000024518878
 20
-192.3019134212865
 30
0.0
 11
-397.100002451887
 21
-192.3019134212865
 31
0.0
  0
LINE
  5
1B8
330
74
100
AcDbEntity
  8
1
  6
Continuous
 62
     2
100
AcDbLine
 10
-402.1000024518878
 20
-192.3019134212865
 30
0.0
 11
-402.1000024518878
 21
-242.3019134212866
 31
0.0
  0
LINE
  5
1B9
330
74
100
AcDbEntity
  8
1
  6
Continuous
 62
     6
100
AcDbLine
 10
-397.100002451887
 20
-192.3019134212865
 30
0.0
 11
-397.1000024518868
 21
-242.3019134212866
 31
0.0
  0
LINE
  5
1BA
330
74
100
AcDbEntity
  8
1
  6
Continuous
 62
     2
100
AcDbLine
 10
-353.6000024518887
 20
-247.3019134212867
 30
0.0
 11
-353.6000024518887
 21
-242.3019134212866
 31
0.0
  0
LINE
  5
1BB
330
74
100
AcDbEntity
  8
1
  6
Continuous
 62
     2
100
AcDbLine
 10
-353.6000024518887
 20
-247.3019134212867
 30
0.0
 11
-303.6000024518889
 21
-247.3019134212867
 31
0.0
  0
LINE
  5
1BC
330
74
100
AcDbEntity
  8
1
  6
Continuous
 62
     2
100
AcDbLine
 10
-303.6000024518889
 20
-247.3019134212867
 30
0.0
 11
-303.6000024518889
 21
-242.3019134212866
 31
0.0
  0
LINE
  5
1BD
330
74
100
AcDbEntity
  8
1
  6
Continuous
 62
     2
100
AcDbLine
 10
-303.6000024518889
 20
-247.3019134212867
 30
0.0
 11
-253.6000024518887
 21
-247.3019134212867
 31
0.0
  0
LINE
  5
1BE
330
74
100
AcDbEntity
  8
1
  6
Continuous
 62
     2
100
AcDbLine
 10
-253.6000024518887
 20
-247.3019134212867
 30
0.0
 11
-253.6000024518887
 21
-242.3019134212866
 31
0.0
  0
LINE
  5
1BF
330
74
100
AcDbEntity
  8
1
  6
Continuous
 62
     2
100
AcDbLine
 10
-253.6000024518887
 20
-247.3019134212867
 30
0.0
 11
-203.6000024518887
 21
-247.3019134212867
 31
0.0
  0
LINE
  5
1C0
330
74
100
AcDbEntity
  8
1
  6
Continuous
 62
     2
100
AcDbLine
 10
-203.6000024518887
 20
-247.3019134212867
 30
0.0
 11
-203.6000024518887
 21
-242.3019134212866
 31
0.0
  0
LINE
  5
1C1
330
74
100
AcDbEntity
  8
1
  6
Continuous
 62
     2
100
AcDbLine
 10
-153.6000024518887
 20
-247.3019134212867
 30
0.0
 11
-153.6000024518887
 21
-242.3019134212866
 31
0.0
  0
LINE
  5
1C2
330
74
100
AcDbEntity
  8
1
  6
Continuous
 62
     2
100
AcDbLine
 10
-153.6000024518887
 20
-247.3019134212867
 30
0.0
 11
-203.6000024518887
 21
-247.3019134212867
 31
0.0
  0
LINE
  5
1C3
330
74
100
AcDbEntity
  8
1
  6
Continuous
 62
     2
100
AcDbLine
 10
-397.1000024518868
 20
-242.3019134212866
 30
0.0
 11
-397.1000024518868
 21
-247.3019134212867
 31
0.0
  0
LINE
  5
1C4
330
74
100
AcDbEntity
  8
1
  6
Continuous
 62
     2
100
AcDbLine
 10
-397.1000024518868
 20
-247.3019134212867
 30
0.0
 11
-353.6000024518887
 21
-247.3019134212867
 31
0.0
  0
LINE
  5
1C5
330
74
100
AcDbEntity
  8
1
  6
Continuous
 62
     2
100
AcDbLine
 10
-397.1000024518868
 20
-242.3019134212866
 30
0.0
 11
-402.1000024518878
 21
-242.3019134212866
 31
0.0
  0
LINE
  5
1C6
330
74
100
AcDbEntity
  8
1
  6
Continuous
 62
     2
100
AcDbLine
 10
-402.1000024518878
 20
-242.3019134212866
 30
0.0
 11
-402.1000024518878
 21
-247.3019134212867
 31
0.0
  0
LINE
  5
1C7
330
74
100
AcDbEntity
  8
1
  6
Continuous
 62
     6
100
AcDbLine
 10
-110.1000024518887
 20
-242.3019134212866
 30
0.0
 11
-110.1000024518874
 21
-233.8019134212866
 31
0.0
  0
LINE
  5
1C8
330
74
100
AcDbEntity
  8
1
  6
Continuous
 62
     6
100
AcDbLine
 10
-203.2448069786388
 20
-242.3019134212867
 30
0.0
 11
-153.6000024518887
 21
-242.3019134212866
 31
0.0
  0
LINE
  5
1C9
330
74
100
AcDbEntity
  8
1
  6
Continuous
 62
     6
100
AcDbLine
 10
-355.900002451889
 20
-242.3019134212867
 30
0.0
 11
-353.6000024518887
 21
-242.3019134212866
 31
0.0
  0
LINE
  5
1CA
330
74
100
AcDbEntity
  8
1
  6
Continuous
 62
     6
100
AcDbLine
 10
-253.6000024518887
 20
-242.3019134212866
 30
0.0
 11
-303.6000024518889
 21
-242.3019134212866
 31
0.0
  0
LINE
  5
1CB
330
74
100
AcDbEntity
  8
1
  6
Continuous
 62
     7
100
AcDbLine
 10
-239.6448069786387
 20
-225.3019134212866
 30
0.0
 11
-239.6448069786387
 21
-238.0519134212867
 31
0.0
  0
LINE
  5
1CC
330
74
100
AcDbEntity
  8
1
  6
Continuous
 62
     7
100
AcDbLine
 10
-203.2448069786388
 20
-225.3019134212866
 30
0.0
 11
-203.2448069786388
 21
-238.0519134212866
 31
0.0
  0
LINE
  5
1CD
330
74
100
AcDbEntity
  8
1
  6
Continuous
 62
     6
100
AcDbLine
 10
-355.900002451889
 20
-242.3019134212867
 30
0.0
 11
-362.100002451887
 21
-242.3019134212866
 31
0.0
  0
LINE
  5
1CE
330
74
100
AcDbEntity
  8
1
  6
Continuous
 62
     6
100
AcDbLine
 10
-203.2448069786388
 20
-242.3019134212867
 30
0.0
 11
-203.6000024518887
 21
-242.3019134212866
 31
0.0
  0
LINE
  5
1CF
330
74
100
AcDbEntity
  8
1
  6
Continuous
 62
     6
100
AcDbLine
 10
-110.100002451887
 20
-225.3019134212866
 30
0.0
 11
-110.1000024518874
 21
-233.8019134212866
 31
0.0
  0
LINE
  5
1D0
330
74
100
AcDbEntity
  8
1
  6
Continuous
 62
     6
100
AcDbLine
 10
-362.100002451887
 20
-242.3019134212866
 30
0.0
 11
-397.1000024518868
 21
-242.3019134212866
 31
0.0
  0
LINE
  5
1D1
330
74
100
AcDbEntity
  8
1
  6
Continuous
 62
     2
100
AcDbLine
 10
-235.4081520920761
 20
-219.9269134212867
 30
0.0
 11
-230.4081520920761
 21
-218.6769134212867
 31
0.0
  0
LINE
  5
1D2
330
74
100
AcDbEntity
  8
1
  6
Continuous
 62
     2
100
AcDbLine
 10
-235.4081520920761
 20
-222.4269134212867
 30
0.0
 11
-235.4081520920761
 21
-219.9269134212867
 31
0.0
  0
LINE
  5
1D3
330
74
100
AcDbEntity
  8
1
  6
Continuous
 62
     2
100
AcDbLine
 10
-230.4081520920761
 20
-223.6769134212867
 30
0.0
 11
-235.4081520920761
 21
-222.4269134212867
 31
0.0
  0
LINE
  5
1D4
330
74
100
AcDbEntity
  8
1
  6
Continuous
 62
     2
100
AcDbLine
 10
-230.4081520920761
 20
-218.6769134212867
 30
0.0
 11
-230.4081520920761
 21
-223.6769134212867
 31
0.0
  0
LINE
  5
1D5
330
74
100
AcDbEntity
  8
1
  6
Continuous
 62
     7
100
AcDbLine
 10
-239.6448069786387
 20
-238.0519134212867
 30
0.0
 11
-221.4448069786387
 21
-238.0519134212866
 31
0.0
  0
LINE
  5
1D6
330
74
100
AcDbEntity
  8
1
  6
Continuous
 62
     7
100
AcDbLine
 10
-239.6448069786387
 20
-238.0519134212867
 30
0.0
 11
-239.6448069786387
 21
-242.3019134212867
 31
0.0
  0
LINE
  5
1D7
330
74
100
AcDbEntity
  8
1
  6
Continuous
 62
     7
100
AcDbLine
 10
-203.2448069786388
 20
-238.0519134212866
 30
0.0
 11
-203.2448069786388
 21
-242.3019134212867
 31
0.0
  0
LINE
  5
1D8
330
74
100
AcDbEntity
  8
1
  6
Continuous
 62
     7
100
AcDbLine
 10
-221.4448069786387
 20
-238.0519134212866
 30
0.0
 11
-221.4448069786387
 21
-242.3019134212866
 31
0.0
  0
LINE
  5
1D9
330
74
100
AcDbEntity
  8
1
  6
Continuous
 62
     6
100
AcDbLine
 10
-221.4448069786387
 20
-242.3019134212866
 30
0.0
 11
-239.6448069786387
 21
-242.3019134212867
 31
0.0
  0
LINE
  5
1DA
330
74
100
AcDbEntity
  8
1
  6
Continuous
 62
     7
100
AcDbLine
 10
-221.4448069786387
 20
-238.0519134212866
 30
0.0
 11
-203.2448069786388
 21
-238.0519134212866
 31
0.0
  0
LINE
  5
1DB
330
74
100
AcDbEntity
  8
1
  6
Continuous
 62
     6
100
AcDbLine
 10
-239.6448069786387
 20
-216.8019134212866
 30
0.0
 11
-110.100002451887
 21
-216.8019134212866
 31
0.0
  0
ARC
  5
1DC
102
{ACAD_REACTORS
330
244
330
245
102
}
330
74
100
AcDbEntity
  8
0
  6
Continuous
 62
     2
100
AcDbCircle
 10
-224.2531589796787
 20
-233.481508659365
 30
0.0
 40
0.77179977867969
100
AcDbArc
 50
321.8795802028388
 51
38.12041979715458
  0
ARC
  5
1DD
102
{ACAD_REACTORS
330
244
330
245
102
}
330
74
100
AcDbEntity
  8
0
  6
Continuous
 62
     2
100
AcDbCircle
 10
-224.0534189433323
 20
-233.638239837485
 30
0.0
 40
0.5179085730137529
100
AcDbArc
 50
218.1204197971956
 51
321.8795802027985
  0
ARC
  5
1DE
102
{ACAD_REACTORS
330
244
330
245
102
}
330
74
100
AcDbEntity
  8
0
  6
Continuous
 62
     2
100
AcDbCircle
 10
-223.8536789069862
 20
-233.481508659365
 30
0.0
 40
0.7717997786794633
100
AcDbArc
 50
141.8795802028363
 51
218.1204197971703
  0
ARC
  5
1DF
102
{ACAD_REACTORS
330
244
330
245
102
}
330
74
100
AcDbEntity
  8
0
  6
Continuous
 62
     2
100
AcDbCircle
 10
-224.0534189433323
 20
-233.3247774812445
 30
0.0
 40
0.5179085730132998
100
AcDbArc
 50
38.12041979714704
 51
141.8795802028588
  0
ARC
  5
1E0
102
{ACAD_REACTORS
330
23C
330
23D
102
}
330
74
100
AcDbEntity
  8
0
  6
Continuous
 62
     2
100
AcDbCircle
 10
-227.1154330788962
 20
-234.8919750247732
 30
0.0
 40
2.227384008973478
100
AcDbArc
 50
58.06909105004071
 51
71.55192388186653
  0
ARC
  5
1E1
102
{ACAD_REACTORS
330
23C
330
23D
102
}
330
74
100
AcDbEntity
  8
0
  6
Continuous
 62
     2
100
AcDbCircle
 10
-226.8537053779374
 20
-233.276437230026
 30
0.0
 40
0.5115800601948891
100
AcDbArc
 50
113.3722778882021
 51
151.4785267423044
  0
ARC
  5
1E2
102
{ACAD_REACTORS
330
23C
330
23D
102
}
330
74
100
AcDbEntity
  8
0
  6
Continuous
 62
     2
100
AcDbCircle
 10
-226.4763481198571
 20
-233.481508659365
 30
0.0
 40
0.9410597353332295
100
AcDbArc
 50
151.4785267422661
 51
208.5214732577066
  0
ARC
  5
1E3
102
{ACAD_REACTORS
330
23C
330
23D
102
}
330
74
100
AcDbEntity
  8
0
  6
Continuous
 62
     2
100
AcDbCircle
 10
-227.2733059539891
 20
-230.1688277141086
 30
0.0
 40
4.852596863498141
100
AcDbArc
 50
275.1581447696253
 51
285.9799912583529
  0
ARC
  5
1E4
102
{ACAD_REACTORS
330
23C
330
23D
102
}
330
74
100
AcDbEntity
  8
0
  6
Continuous
 62
     2
100
AcDbCircle
 10
-226.9844498592532
 20
-233.3687182973302
 30
0.0
 40
1.639695123939387
100
AcDbArc
 50
195.0618917770896
 51
275.1581447696406
  0
ARC
  5
1E5
102
{ACAD_REACTORS
330
23C
330
23D
102
}
330
74
100
AcDbEntity
  8
0
  6
Continuous
 62
     2
100
AcDbCircle
 10
-227.403577702716
 20
-233.481508659365
 30
0.0
 40
1.205656168390937
100
AcDbArc
 50
164.9381082228778
 51
195.0618917770948
  0
ARC
  5
1E6
102
{ACAD_REACTORS
330
23C
330
23D
102
}
330
74
100
AcDbEntity
  8
0
  6
Continuous
 62
     2
100
AcDbCircle
 10
-226.9844498592532
 20
-233.5942990213999
 30
0.0
 40
1.639695123940509
100
AcDbArc
 50
84.84185523036136
 51
164.9381082228874
  0
ARC
  5
1E7
102
{ACAD_REACTORS
330
240
330
241
102
}
330
74
100
AcDbEntity
  8
0
  6
Continuous
 62
     2
100
AcDbCircle
 10
-231.8144641134151
 20
-232.4476818650107
 30
0.0
 40
0.3157169230765328
100
AcDbArc
 50
115.3740086783519
 51
180.0
  0
ARC
  5
1E8
102
{ACAD_REACTORS
330
240
330
241
102
}
330
74
100
AcDbEntity
  8
0
  6
Continuous
 62
     2
100
AcDbCircle
 10
-231.8144641134151
 20
-230.2293986650745
 30
0.0
 40
0.315716923076792
100
AcDbArc
 50
180.0
 51
244.6259913216459
  0
ARC
  5
1E9
102
{ACAD_REACTORS
330
240
330
241
102
}
330
74
100
AcDbEntity
  8
0
  6
Continuous
 62
     2
100
AcDbCircle
 10
-231.8088479781051
 20
-231.3266983241368
 30
0.0
 40
2.018561131933266
100
AcDbArc
 50
269.8110329575858
 51
90.18896704241416
  0
ARC
  5
1EA
102
{ACAD_REACTORS
330
240
330
241
102
}
330
74
100
AcDbEntity
  8
0
  6
Continuous
 62
     2
100
AcDbCircle
 10
-231.8144641134151
 20
-233.0295332717058
 30
0.0
 40
0.315716923076792
100
AcDbArc
 50
180.0
 51
269.8110329574542
  0
ARC
  5
1EB
102
{ACAD_REACTORS
330
23E
330
23F
102
}
330
74
100
AcDbEntity
  8
0
  6
Continuous
 62
     2
100
AcDbCircle
 10
-210.7510038986845
 20
-233.276437230026
 30
0.0
 40
0.5115800601944143
100
AcDbArc
 50
109.3371432194853
 51
151.4785267424225
  0
ARC
  5
1EC
102
{ACAD_REACTORS
330
23E
330
23F
102
}
330
74
100
AcDbEntity
  8
0
  6
Continuous
 62
     2
100
AcDbCircle
 10
-210.7510038986845
 20
-233.6865800887035
 30
0.0
 40
0.5115800601960215
100
AcDbArc
 50
208.5214732576866
 51
246.6277221118449
  0
ARC
  5
1ED
102
{ACAD_REACTORS
330
23E
330
23F
102
}
330
74
100
AcDbEntity
  8
0
  6
Continuous
 62
     2
100
AcDbCircle
 10
-211.3008762234619
 20
-233.481508659365
 30
0.0
 40
1.205656168392995
100
AcDbArc
 50
164.9381082229041
 51
195.0618917770959
  0
ARC
  5
1EE
102
{ACAD_REACTORS
330
23E
330
23F
102
}
330
74
100
AcDbEntity
  8
0
  6
Continuous
 62
     2
100
AcDbCircle
 10
-210.8817483800003
 20
-233.5942990213999
 30
0.0
 40
1.639695123940214
100
AcDbArc
 50
90.0
 51
164.9381082228959
  0
ARC
  5
1EF
102
{ACAD_REACTORS
330
242
330
243
102
}
330
74
100
AcDbEntity
  8
0
  6
Continuous
 62
     2
100
AcDbCircle
 10
-220.308743472704
 20
-230.1223181831907
 30
0.0
 40
1.526904761905911
100
AcDbArc
 50
90.0
 51
270.0
  0
ARC
  5
1F0
102
{ACAD_REACTORS
330
246
330
247
102
}
330
74
100
AcDbEntity
  8
0
  6
Continuous
 62
     2
100
AcDbCircle
 10
-227.0514342179298
 20
-229.611383091396
 30
0.0
 40
0.3528638246711182
100
AcDbArc
 50
270.0
 51
90.0
  0
ARC
  5
1F1
102
{ACAD_REACTORS
330
240
330
241
102
}
330
74
100
AcDbEntity
  8
0
  6
Continuous
 62
     2
100
AcDbCircle
 10
-234.3900127999469
 20
-229.6236858999196
 30
0.0
 40
0.3157169230761951
100
AcDbArc
 50
90.0
 51
180.0
  0
ARC
  5
1F2
102
{ACAD_REACTORS
330
240
330
241
102
}
330
74
100
AcDbEntity
  8
0
  6
Continuous
 62
     2
100
AcDbCircle
 10
-232.3915950913622
 20
-231.3385402650423
 30
0.0
 40
0.9118975235575889
100
AcDbArc
 50
115.194410648529
 51
244.8055893514878
  0
ARC
  5
1F3
102
{ACAD_REACTORS
330
240
330
241
102
}
330
74
100
AcDbEntity
  8
0
  6
Continuous
 62
     2
100
AcDbCircle
 10
-232.9141795389372
 20
-232.4493700111051
 30
0.0
 40
0.315716923076593
100
AcDbArc
 50
0.0
 51
64.80558935146027
  0
ARC
  5
1F4
102
{ACAD_REACTORS
330
240
330
241
102
}
330
74
100
AcDbEntity
  8
0
  6
Continuous
 62
     2
100
AcDbCircle
 10
-234.9839074766933
 20
-234.584168805887
 30
0.0
 40
0.4242446153828041
100
AcDbArc
 50
180.0
 51
270.0
  0
ARC
  5
1F5
102
{ACAD_REACTORS
330
242
330
243
102
}
330
74
100
AcDbEntity
  8
0
  6
Continuous
 62
     2
100
AcDbCircle
 10
-220.0924714625388
 20
-229.9655870050702
 30
0.0
 40
0.5179085730135266
100
AcDbArc
 50
38.12041979714334
 51
141.8795802028489
  0
ARC
  5
1F6
102
{ACAD_REACTORS
330
242
330
243
102
}
330
74
100
AcDbEntity
  8
0
  6
Continuous
 62
     2
100
AcDbCircle
 10
-219.8927314261925
 20
-230.1223181831907
 30
0.0
 40
0.77179977867969
100
AcDbArc
 50
141.8795802028388
 51
218.1204197971546
  0
ARC
  5
1F7
102
{ACAD_REACTORS
330
244
330
245
102
}
330
74
100
AcDbEntity
  8
0
  6
Continuous
 62
     2
100
AcDbCircle
 10
-224.0534189433323
 20
-232.9429336490617
 30
0.0
 40
2.065479772208509
100
AcDbArc
 50
242.4518518243402
 51
297.5481481756871
  0
ARC
  5
1F8
102
{ACAD_REACTORS
330
244
330
245
102
}
330
74
100
AcDbEntity
  8
0
  6
Continuous
 62
     2
100
AcDbCircle
 10
-224.0534189433323
 20
-234.0200836696678
 30
0.0
 40
2.065479772208568
100
AcDbArc
 50
62.45185182430637
 51
117.5481481756664
  0
ARC
  5
1F9
102
{ACAD_REACTORS
330
244
330
245
102
}
330
74
100
AcDbEntity
  8
0
  6
Continuous
 62
     2
100
AcDbCircle
 10
-224.3343588351656
 20
-233.481508659365
 30
0.0
 40
1.45803408365149
100
AcDbArc
 50
117.5481481756624
 51
242.4518518243375
  0
ARC
  5
1FA
102
{ACAD_REACTORS
330
244
330
245
102
}
330
74
100
AcDbEntity
  8
0
  6
Continuous
 62
     2
100
AcDbCircle
 10
-223.772479051499
 20
-233.481508659365
 30
0.0
 40
1.458034083652003
100
AcDbArc
 50
297.548148175701
 51
62.45185182429896
  0
ARC
  5
1FB
102
{ACAD_REACTORS
330
242
330
243
102
}
330
74
100
AcDbEntity
  8
0
  6
Continuous
 62
     2
100
AcDbCircle
 10
-220.0924714625388
 20
-230.2790493613111
 30
0.0
 40
0.5179085730134372
100
AcDbArc
 50
218.1204197971511
 51
321.8795802028566
  0
ARC
  5
1FC
102
{ACAD_REACTORS
330
242
330
243
102
}
330
74
100
AcDbEntity
  8
0
  6
Continuous
 62
     2
100
AcDbCircle
 10
-220.292211498885
 20
-230.1223181831907
 30
0.0
 40
0.7717997786796198
100
AcDbArc
 50
321.8795802028454
 51
38.12041979716123
  0
ARC
  5
1FD
102
{ACAD_REACTORS
330
240
330
241
102
}
330
74
100
AcDbEntity
  8
0
  6
Continuous
 62
     2
100
AcDbCircle
 10
-229.5105953859765
 20
-234.584168805887
 30
0.0
 40
0.4242446153832873
100
AcDbArc
 50
270.0
 51
0.0
  0
ARC
  5
1FE
102
{ACAD_REACTORS
330
240
330
241
102
}
330
74
100
AcDbEntity
  8
0
  6
Continuous
 62
     2
100
AcDbCircle
 10
-229.5105953859765
 20
-229.0196580366868
 30
0.0
 40
0.4242446153837989
100
AcDbArc
 50
0.0
 51
90.0
  0
ARC
  5
1FF
102
{ACAD_REACTORS
330
240
330
241
102
}
330
74
100
AcDbEntity
  8
0
  6
Continuous
 62
     2
100
AcDbCircle
 10
-234.9839074766933
 20
-229.0196580366868
 30
0.0
 40
0.4242446153837989
100
AcDbArc
 50
90.0
 51
180.0
  0
ARC
  5
200
102
{ACAD_REACTORS
330
240
330
241
102
}
330
74
100
AcDbEntity
  8
0
  6
Continuous
 62
     2
100
AcDbCircle
 10
-232.9141795389372
 20
-233.9801409426367
 30
0.0
 40
0.3157169230767067
100
AcDbArc
 50
270.0
 51
0.0
  0
ARC
  5
201
102
{ACAD_REACTORS
330
240
330
241
102
}
330
74
100
AcDbEntity
  8
0
  6
Continuous
 62
     2
100
AcDbCircle
 10
-232.9141795389372
 20
-230.2277105189801
 30
0.0
 40
0.315716923076146
100
AcDbArc
 50
295.1944106485375
 51
0.0
  0
ARC
  5
202
102
{ACAD_REACTORS
330
240
330
241
102
}
330
74
100
AcDbEntity
  8
0
  6
Continuous
 62
     2
100
AcDbCircle
 10
-232.9141795389372
 20
-229.6236858999196
 30
0.0
 40
0.315716923076593
100
AcDbArc
 50
0.0
 51
90.0
  0
ARC
  5
203
102
{ACAD_REACTORS
330
240
330
241
102
}
330
74
100
AcDbEntity
  8
0
  6
Continuous
 62
     2
100
AcDbCircle
 10
-234.3900127999469
 20
-233.9801409426367
 30
0.0
 40
0.3157169230755983
100
AcDbArc
 50
180.0
 51
270.0
  0
ARC
  5
204
102
{ACAD_REACTORS
330
246
330
247
102
}
330
74
100
AcDbEntity
  8
0
  6
Continuous
 62
     2
100
AcDbCircle
 10
-226.6099616916914
 20
-229.6507790626185
 30
0.0
 40
1.05536564133368
100
AcDbArc
 50
270.0
 51
90.0
  0
ARC
  5
205
102
{ACAD_REACTORS
330
23E
330
23F
102
}
330
74
100
AcDbEntity
  8
0
  6
Continuous
 62
     2
100
AcDbCircle
 10
-210.8817483800003
 20
-233.3687182973302
 30
0.0
 40
1.639695123940448
100
AcDbArc
 50
195.0618917771012
 51
275.1581447696762
  0
ARC
  5
206
102
{ACAD_REACTORS
330
23E
330
23F
102
}
330
74
100
AcDbEntity
  8
0
  6
Continuous
 62
     2
100
AcDbCircle
 10
-211.1706044747361
 20
-230.1688277141086
 30
0.0
 40
4.852596863498825
100
AcDbArc
 50
275.1581447696364
 51
285.9799912583387
  0
ARC
  5
207
102
{ACAD_REACTORS
330
23E
330
23F
102
}
330
74
100
AcDbEntity
  8
0
  6
Continuous
 62
     2
100
AcDbCircle
 10
-211.0127315996433
 20
-232.0710422939569
 30
0.0
 40
2.227384008972746
100
AcDbArc
 50
288.4480761181335
 51
301.9309089499397
  0
ARC
  5
208
102
{ACAD_REACTORS
330
23E
330
23F
102
}
330
74
100
AcDbEntity
  8
0
  6
Continuous
 62
     2
100
AcDbCircle
 10
-210.5945638659814
 20
-233.3245880699935
 30
0.0
 40
0.9059297849852801
100
AcDbArc
 50
246.6277221118183
 51
288.4480761180817
  0
ARC
  5
209
102
{ACAD_REACTORS
330
23E
330
23F
102
}
330
74
100
AcDbEntity
  8
0
  6
Continuous
 62
     2
100
AcDbCircle
 10
-210.3736466406031
 20
-233.481508659365
 30
0.0
 40
0.9410597353348924
100
AcDbArc
 50
151.4785267423624
 51
208.5214732576695
  0
ARC
  5
20A
102
{ACAD_REACTORS
330
23E
330
23F
102
}
330
74
100
AcDbEntity
  8
0
  6
Continuous
 62
     2
100
AcDbCircle
 10
-210.6043339005808
 20
-233.6943922104089
 30
0.0
 40
0.9545230068260935
100
AcDbArc
 50
90.0
 51
109.337143219432
  0
ARC
  5
20B
102
{ACAD_REACTORS
330
240
330
241
102
}
330
74
100
AcDbEntity
  8
0
  6
Continuous
 62
     2
100
AcDbCircle
 10
-231.8144641134151
 20
-229.6238633765677
 30
0.0
 40
0.3157169230760711
100
AcDbArc
 50
90.18896704254594
 51
180.0
  0
ARC
  5
20C
102
{ACAD_REACTORS
330
240
330
241
102
}
330
74
100
AcDbEntity
  8
0
  6
Continuous
 62
     2
100
AcDbCircle
 10
-232.340506811503
 20
-231.3385402650423
 30
0.0
 40
0.911848150144459
100
AcDbArc
 50
295.3740086781764
 51
64.62599132180748
  0
ARC
  5
20D
102
{ACAD_REACTORS
330
23C
330
23D
102
}
330
74
100
AcDbEntity
  8
0
  6
Continuous
 62
     2
100
AcDbCircle
 10
-227.1154330788962
 20
-232.0710422939563
 30
0.0
 40
2.227384008972746
100
AcDbArc
 50
288.4480761181335
 51
301.9309089499593
  0
ARC
  5
20E
102
{ACAD_REACTORS
330
23C
330
23D
102
}
330
74
100
AcDbEntity
  8
0
  6
Continuous
 62
     2
100
AcDbCircle
 10
-226.6972653452354
 20
-233.3245880699935
 30
0.0
 40
0.9059297849849192
100
AcDbArc
 50
246.627722111871
 51
288.4480761181601
  0
ARC
  5
20F
102
{ACAD_REACTORS
330
23C
330
23D
102
}
330
74
100
AcDbEntity
  8
0
  6
Continuous
 62
     2
100
AcDbCircle
 10
-226.8537053779374
 20
-233.6865800887035
 30
0.0
 40
0.5115800601948034
100
AcDbArc
 50
208.5214732576956
 51
246.6277221118245
  0
ARC
  5
210
102
{ACAD_REACTORS
330
23C
330
23D
102
}
330
74
100
AcDbEntity
  8
0
  6
Continuous
 62
     2
100
AcDbCircle
 10
-226.6972653452354
 20
-233.6384292487366
 30
0.0
 40
0.9059297849853318
100
AcDbArc
 50
71.55192388185178
 51
113.372277888129
  0
ARC
  5
211
102
{ACAD_REACTORS
330
23C
330
23D
102
}
330
74
100
AcDbEntity
  8
0
  6
Continuous
 62
     2
100
AcDbCircle
 10
-227.2733059539891
 20
-236.7941896046209
 30
0.0
 40
4.852596863498068
100
AcDbArc
 50
74.02000874164739
 51
84.84185523037472
  0
CIRCLE
  5
212
102
{ACAD_REACTORS
330
240
330
241
102
}
330
74
100
AcDbEntity
  8
0
  6
Continuous
 62
     2
100
AcDbCircle
 10
-232.3643218261758
 20
-231.3385402650423
 30
0.0
 40
0.4709789327785074
  0
CIRCLE
  5
213
330
74
100
AcDbEntity
  8
1
  6
Continuous
 62
     2
100
AcDbCircle
 10
-226.9081520920761
 20
-221.1769134212867
 30
0.0
 40
1.249999999999915
  0
CIRCLE
  5
214
330
74
100
AcDbEntity
  8
1
  6
Continuous
 62
     2
100
AcDbCircle
 10
-226.9081520920761
 20
-221.1769134212867
 30
0.0
 40
2.5
  0
TEXT
  5
215
330
74
100
AcDbEntity
  8
1
 62
     7
100
AcDbText
 10
-184.2712592566249
 20
-224.0019134212867
 30
0.0
 40
2.5
  1
/
 41
0.9
  7
CONVERTER_11
100
AcDbText
  0
TEXT
  5
217
330
74
100
AcDbEntity
  8
1
 62
     7
100
AcDbText
 10
-182.1148947595829
 20
-224.0019134212867
 30
0.0
 40
2.5
  1
00
 41
0.81
  7
CONVERTER_12
100
AcDbText
  0
TEXT
  5
218
330
74
100
AcDbEntity
  8
1
 62
     3
100
AcDbText
 10
-144.5184107335658
 20
-224.0019134212867
 30
0.0
 40
2.5
  1
07.07.2015
 41
0.81
  7
CONVERTER_12
100
AcDbText
  0
MTEXT
  5
219
330
74
100
AcDbEntity
  8
1
 62
     2
100
AcDbMText
 10
-144.5184107335658
 20
-217.8019134212867
 30
0.0
 40
1.8
 41
0.0
 71
     1
 72
     1
  1
date
  7
CONVERTER_11
 73
     1
 44
1.32052821128451
  0
MTEXT
  5
21A
330
74
100
AcDbEntity
  8
1
 62
     2
100
AcDbMText
 10
-174.3448069786387
 20
-226.3019134212867
 30
0.0
 40
1.8
 41
0.0
 71
     1
 72
     1
  1
document-type
  7
CONVERTER_11
 73
     1
 44
1.20048019207683
  0
TEXT
  5
21B
330
74
100
AcDbEntity
  8
1
 62
     3
100
AcDbText
 10
-174.3448069786387
 20
-232.5019134212867
 30
0.0
 40
2.5
  1
Customer drawing select
 41
0.81
  7
CONVERTER_12
100
AcDbText
  0
MTEXT
  5
21D
330
74
100
AcDbEntity
  8
1
 62
     2
100
AcDbMText
 10
-202.1448069786387
 20
-217.8019134212866
 30
0.0
 40
1.8
 41
0.0
 71
     1
 72
     1
  1
document-No. / RI
  7
CONVERTER_13
 73
     1
 44
1.32052821128451
  0
TEXT
  5
21E
330
74
100
AcDbEntity
  8
1
 62
     7
100
AcDbText
 10
-202.1448069786387
 20
-224.0019134212867
 30
0.0
 40
2.5
  1
00882381
 41
0.81
  7
CONVERTER_12
100
AcDbText
  0
MTEXT
  5
220
330
74
100
AcDbEntity
  8
1
 62
     3
100
AcDbMText
 10
-114.5592065927264
 20
-224.0019134212865
 30
0.0
 40
2.5
 41
0.0
 71
     8
 72
     1
  1
2:1
  7
CONVERTER_14
 73
     1
 44
1.32052821128451
  0
MTEXT
  5
221
330
74
100
AcDbEntity
  8
1
 62
     2
100
AcDbMText
 10
-117.918410733566
 20
-217.8019134212866
 30
0.0
 40
1.8
 41
0.0
 71
     1
 72
     1
  1
scale
  7
CONVERTER_11
 73
     1
 44
1.20048019207683
  0
MTEXT
  5
222
330
74
100
AcDbEntity
  8
1
 62
     2
100
AcDbMText
 10
-202.1448069786387
 20
-226.3019134212866
 30
0.0
 40
1.8
 41
0.0
 71
     1
 72
     1
  1
ident.-No.
  7
CONVERTER_11
 73
     1
 44
1.20048019207683
  0
TEXT
  5
223
330
74
100
AcDbEntity
  8
1
 62
     7
100
AcDbText
 10
-201.744806978639
 20
-232.5019134212867
 30
0.0
 40
2.5
  1
0820523
 41
0.81
  7
CONVERTER_12
100
AcDbText
  0
MTEXT
  5
224
330
74
100
AcDbEntity
  8
1
 62
     2
100
AcDbMText
 10
-274.0828217036863
 20
-229.5519134212867
 30
0.0
 40
2.0
 41
0.0
 71
     5
 72
     1
  1
General Information\P- Simplified representation\P- Document excluded from change process\P- Linear dimensions [mm]
  7
CONVERTER_11
 73
     1
 44
1.20048019207683
  0
MTEXT
  5
225
330
74
100
AcDbEntity
  8
1
 62
     7
100
AcDbMText
 10
-107.6000024518897
 20
-167.3019134212847
 30
0.0
 40
3.5
 41
0.0
 71
     5
 72
     1
  1
C
  7
CONVERTER_11
 73
     1
 44
1.20048019207683
  0
MTEXT
  5
226
330
74
100
AcDbEntity
  8
1
 62
     7
100
AcDbMText
 10
-107.6000024518897
 20
-64.8019134212866
 30
0.0
 40
3.5
 41
0.0
 71
     5
 72
     1
  1
A
  7
CONVERTER_11
 73
     1
 44
1.20048019207683
  0
MTEXT
  5
227
330
74
100
AcDbEntity
  8
1
 62
     7
100
AcDbMText
 10
-107.6000024518897
 20
-117.3019134212847
 30
0.0
 40
3.5
 41
0.0
 71
     5
 72
     1
  1
B
  7
CONVERTER_11
 73
     1
 44
1.20048019207683
  0
MTEXT
  5
228
330
74
100
AcDbEntity
  8
1
 62
     7
100
AcDbMText
 10
-107.6000024518897
 20
-219.8019134212866
 30
0.0
 40
3.5
 41
0.0
 71
     5
 72
     1
  1
D
  7
CONVERTER_11
 73
     1
 44
1.20048019207683
  0
MTEXT
  5
229
330
74
100
AcDbEntity
  8
1
 62
     7
100
AcDbMText
 10
-377.8500024518883
 20
-244.8019134212867
 30
0.0
 40
3.5
 41
0.0
 71
     5
 72
     1
  1
1
  7
CONVERTER_11
 73
     1
 44
1.20048019207683
  0
MTEXT
  5
22A
330
74
100
AcDbEntity
  8
1
 62
     7
100
AcDbMText
 10
-328.6000024518887
 20
-244.8019134212867
 30
0.0
 40
3.5
 41
0.0
 71
     5
 72
     1
  1
2
  7
CONVERTER_11
 73
     1
 44
1.20048019207683
  0
MTEXT
  5
22B
330
74
100
AcDbEntity
  8
1
 62
     7
100
AcDbMText
 10
-278.6000024518887
 20
-244.8019134212867
 30
0.0
 40
3.5
 41
0.0
 71
     5
 72
     1
  1
3
  7
CONVERTER_11
 73
     1
 44
1.20048019207683
  0
MTEXT
  5
22C
330
74
100
AcDbEntity
  8
1
 62
     7
100
AcDbMText
 10
-228.6000024518888
 20
-244.8019134212867
 30
0.0
 40
3.5
 41
0.0
 71
     5
 72
     1
  1
4
  7
CONVERTER_11
 73
     1
 44
1.20048019207683
  0
MTEXT
  5
22D
330
74
100
AcDbEntity
  8
1
 62
     7
100
AcDbMText
 10
-178.6000024518887
 20
-244.8019134212867
 30
0.0
 40
3.5
 41
0.0
 71
     5
 72
     1
  1
5
  7
CONVERTER_11
 73
     1
 44
1.20048019207683
  0
MTEXT
  5
22E
330
74
100
AcDbEntity
  8
1
 62
     7
100
AcDbMText
 10
-129.3500024518895
 20
-244.8019134212867
 30
0.0
 40
3.5
 41
0.0
 71
     5
 72
     1
  1
6
  7
CONVERTER_11
 73
     1
 44
1.20048019207683
  0
MTEXT
  5
22F
330
74
100
AcDbEntity
  8
1
 62
     7
100
AcDbMText
 10
-399.6000024518878
 20
-64.8019134212866
 30
0.0
 40
3.5
 41
0.0
 71
     5
 72
     1
  1
A
  7
CONVERTER_11
 73
     1
 44
1.20048019207683
  0
MTEXT
  5
230
330
74
100
AcDbEntity
  8
1
 62
     7
100
AcDbMText
 10
-399.6000024518878
 20
-117.3019134212866
 30
0.0
 40
3.5
 41
0.0
 71
     5
 72
     1
  1
B
  7
CONVERTER_11
 73
     1
 44
1.20048019207683
  0
MTEXT
  5
231
330
74
100
AcDbEntity
  8
1
 62
     7
100
AcDbMText
 10
-399.6000024518878
 20
-167.3019134212866
 30
0.0
 40
3.5
 41
0.0
 71
     5
 72
     1
  1
C
  7
CONVERTER_11
 73
     1
 44
1.20048019207683
  0
MTEXT
  5
232
330
74
100
AcDbEntity
  8
1
 62
     7
100
AcDbMText
 10
-399.6000024518878
 20
-219.8019134212866
 30
0.0
 40
3.5
 41
0.0
 71
     5
 72
     1
  1
D
  7
CONVERTER_11
 73
     1
 44
1.20048019207683
  0
MTEXT
  5
233
330
74
100
AcDbEntity
  8
1
 62
     3
100
AcDbMText
 10
-213.4448069786388
 20
-221.1769134212866
 30
0.0
 40
2.5
 41
0.0
 71
     5
 72
     1
  1
DIN A4
  7
CONVERTER_11
 73
     1
 44
1.20048019207683
  0
MTEXT
  5
234
330
74
100
AcDbEntity
  8
1
 62
     2
100
AcDbMText
 10
-202.2448069786388
 20
-234.8019134212866
 30
0.0
 40
1.8
 41
0.0
 71
     1
 72
     1
  1
description
  7
CONVERTER_11
 73
     1
 44
1.20048019207683
  0
MTEXT
  5
235
330
74
100
AcDbEntity
  8
1
 62
     7
100
AcDbMText
 10
-156.6724047152632
 20
-239.0519134212864
 30
0.0
 40
3.0
 41
0.0
 71
     5
 72
     1
  1
PATG 2/18
  7
CONVERTER_12
 73
     1
 44
1.20048019207683
  0
TEXT
  5
236
330
74
100
AcDbEntity
  8
1
 62
     2
100
AcDbText
 10
-215.2094981688252
 20
-241.0519134212867
 30
0.0
 40
1.8
  1
1
 41
0.9
  7
CONVERTER_11
100
AcDbText
  0
TEXT
  5
237
330
74
100
AcDbEntity
  8
1
 62
     2
100
AcDbText
 10
-229.9985420082967
 20
-241.1011620750886
 30
0.0
 40
1.8
  1
1
 41
0.9
  7
CONVERTER_11
100
AcDbText
  0
TEXT
  5
238
330
74
100
AcDbEntity
  8
1
 62
     2
100
AcDbText
 10
-238.6448069786387
 20
-241.0609306362783
 30
0.0
 40
1.8
  1
page
 41
0.9
  7
CONVERTER_11
100
AcDbText
  0
TEXT
  5
239
330
74
100
AcDbEntity
  8
1
 62
     2
100
AcDbText
 10
-220.4448069786389
 20
-241.0609306362782
 30
0.0
 40
1.8
  1
of
 41
0.9
  7
CONVERTER_11
100
AcDbText
  0
MTEXT
  5
23A
330
74
100
AcDbEntity
  8
1
 62
     3
100
AcDbMText
 10
-214.2418248270288
 20
-55.51060526598781
 30
0.0
 40
1.8
 41
0.0
 71
     7
 72
     1
  3
Transfer or duplication of this document as well as the utilisation or\Pcommunication of its content are not permitted unless express consen\Pis granted. Violations give rise to claims for damages. All rights reserved\Pin case of patent, utility mod
  1
el or design patent registrations.
  7
CONVERTER_11
 73
     1
 44
0.99639855942377
  0
MTEXT
  5
23B
330
74
100
AcDbEntity
  8
1
 62
     3
100
AcDbMText
 10
-397.0949346658169
 20
-55.51060526598781
 30
0.0
 40
1.8
 41
0.0
 71
     7
 72
     1
  3
Weitergabe sowie Vervielf\U+00e4ltigung dieses Dokuments, Verwertung und \PMitteilung seines Inhalts sind verboten, soweit nicht ausdr\U+00fccklich gestattet. \PZuwiderhandlungen verpflichten zu Schadenersatz. Alle Rechte f\U+00fcr den Fall\Pder Pat
  1
ent-, Gebrauchsmuster- oder Designeintragung vorbehalten.
  7
CONVERTER_11
 73
     1
 44
0.99639855942377
  0
HATCH
  5
23C
330
74
100
AcDbEntity
  8
1
  6
Continuous
 62
     2
100
AcDbHatch
 10
0.0
 20
0.0
 30
0.0
210
0.0
220
0.0
230
1.0
  2
_USER
 70
     0
 71
     1
 91
        1
 92
        1
 93
       14
 72
     2
 10
-227.403577702716
 20
-233.481508659365
 40
1.205656168390937
 50
164.9381082228778
 51
195.0618917770948
 73
     1
 72
     2
 10
-226.9844498592532
 20
-233.3687182973302
 40
1.639695123939387
 50
195.0618917770896
 51
275.1581447696406
 73
     1
 72
     2
 10
-227.2733059539891
 20
-230.1688277141086
 40
4.852596863498141
 50
275.1581447696253
 51
285.9799912583529
 73
     1
 72
     1
 10
-225.9373780368713
 20
-234.8339100199094
 11
-225.9373780368713
 21
-233.9613930131062
 72
     2
 10
-227.1154330788962
 20
-232.0710422939563
 40
2.227384008972746
 50
58.0690910500407
 51
71.55192388186651
 73
     0
 72
     2
 10
-226.6972653452354
 20
-233.3245880699935
 40
0.9059297849849192
 50
71.55192388183985
 51
113.372277888129
 73
     0
 72
     2
 10
-226.8537053779374
 20
-233.6865800887035
 40
0.5115800601948034
 50
113.3722778881755
 51
151.4785267423044
 73
     0
 72
     2
 10
-226.4763481198571
 20
-233.481508659365
 40
0.9410597353332295
 50
151.4785267422934
 51
208.5214732577339
 73
     0
 72
     2
 10
-226.8537053779374
 20
-233.276437230026
 40
0.5115800601948891
 50
208.5214732576956
 51
246.627722111798
 73
     0
 72
     2
 10
-226.6972653452354
 20
-233.6384292487366
 40
0.9059297849853318
 50
246.627722111871
 51
288.4480761181483
 73
     0
 72
     2
 10
-227.1154330788962
 20
-234.8919750247732
 40
2.227384008973478
 50
288.4480761181335
 51
301.9309089499593
 73
     0
 72
     1
 10
-225.9373780368713
 20
-233.0016243056233
 11
-225.9373780368713
 21
-232.12910729882
 72
     2
 10
-227.2733059539891
 20
-236.7941896046209
 40
4.852596863498068
 50
74.02000874164739
 51
84.84185523037472
 73
     1
 72
     2
 10
-226.9844498592532
 20
-233.5942990213999
 40
1.639695123940509
 50
84.84185523036136
 51
164.9381082228874
 73
     1
 97
       14
330
211
330
12A
330
1E0
330
210
330
1E1
330
1E2
330
20F
330
20E
330
20D
330
12B
330
1E3
330
1E4
330
1E5
330
1E6
 75
     1
 76
     0
 52
45.0
 41
0.1
 77
     0
 78
     1
 53
45.0
 43
0.0
 44
0.0
 45
-0.0707106781186548
 46
0.0707106781186548
 79
     0
 98
        1
 10
0.0
 20
0.0
  0
HATCH
  5
23D
330
74
100
AcDbEntity
  8
1
  6
Continuous
 62
     2
100
AcDbHatch
 10
0.0
 20
0.0
 30
0.0
210
0.0
220
0.0
230
1.0
  2
_USER
 70
     0
 71
     1
 91
        1
 92
        1
 93
       14
 72
     2
 10
-227.403577702716
 20
-233.481508659365
 40
1.205656168390937
 50
164.9381082228778
 51
195.0618917770948
 73
     1
 72
     2
 10
-226.9844498592532
 20
-233.3687182973302
 40
1.639695123939387
 50
195.0618917770896
 51
275.1581447696406
 73
     1
 72
     2
 10
-227.2733059539891
 20
-230.1688277141086
 40
4.852596863498141
 50
275.1581447696253
 51
285.9799912583529
 73
     1
 72
     1
 10
-225.9373780368713
 20
-234.8339100199094
 11
-225.9373780368713
 21
-233.9613930131062
 72
     2
 10
-227.1154330788962
 20
-232.0710422939563
 40
2.227384008972746
 50
58.0690910500407
 51
71.55192388186651
 73
     0
 72
     2
 10
-226.6972653452354
 20
-233.3245880699935
 40
0.9059297849849192
 50
71.55192388183985
 51
113.372277888129
 73
     0
 72
     2
 10
-226.8537053779374
 20
-233.6865800887035
 40
0.5115800601948034
 50
113.3722778881755
 51
151.4785267423044
 73
     0
 72
     2
 10
-226.4763481198571
 20
-233.481508659365
 40
0.9410597353332295
 50
151.4785267422934
 51
208.5214732577339
 73
     0
 72
     2
 10
-226.8537053779374
 20
-233.276437230026
 40
0.5115800601948891
 50
208.5214732576956
 51
246.627722111798
 73
     0
 72
     2
 10
-226.6972653452354
 20
-233.6384292487366
 40
0.9059297849853318
 50
246.627722111871
 51
288.4480761181483
 73
     0
 72
     2
 10
-227.1154330788962
 20
-234.8919750247732
 40
2.227384008973478
 50
288.4480761181335
 51
301.9309089499593
 73
     0
 72
     1
 10
-225.9373780368713
 20
-233.0016243056233
 11
-225.9373780368713
 21
-232.12910729882
 72
     2
 10
-227.2733059539891
 20
-236.7941896046209
 40
4.852596863498068
 50
74.02000874164739
 51
84.84185523037472
 73
     1
 72
     2
 10
-226.9844498592532
 20
-233.5942990213999
 40
1.639695123940509
 50
84.84185523036136
 51
164.9381082228874
 73
     1
 97
       14
330
211
330
12A
330
1E0
330
210
330
1E1
330
1E2
330
20F
330
20E
330
20D
330
12B
330
1E3
330
1E4
330
1E5
330
1E6
 75
     1
 76
     0
 52
45.0
 41
0.1
 77
     0
 78
     1
 53
45.0
 43
0.0
 44
0.0
 45
-0.0707106781186548
 46
0.0707106781186548
 79
     0
 98
        1
 10
0.0
 20
0.0
  0
HATCH
  5
23E
330
74
100
AcDbEntity
  8
1
  6
Continuous
 62
     2
100
AcDbHatch
 10
0.0
 20
0.0
 30
0.0
210
0.0
220
0.0
230
1.0
  2
_USER
 70
     0
 71
     1
 91
        1
 92
        1
 93
       18
 72
     2
 10
-210.8817483800003
 20
-233.5942990213999
 40
1.639695123940214
 50
90.0
 51
164.9381082228959
 73
     1
 72
     2
 10
-211.3008762234619
 20
-233.481508659365
 40
1.205656168392995
 50
164.9381082229041
 51
195.0618917770959
 73
     1
 72
     2
 10
-210.8817483800003
 20
-233.3687182973302
 40
1.639695123940448
 50
195.0618917771012
 51
275.1581447696762
 73
     1
 72
     2
 10
-211.1706044747361
 20
-230.1688277141086
 40
4.852596863498825
 50
275.1581447696364
 51
285.9799912583387
 73
     1
 72
     1
 10
-209.8346765576194
 20
-234.83391001991
 11
-209.8346765576194
 21
-233.9613930131067
 72
     2
 10
-211.0127315996433
 20
-232.0710422939569
 40
2.227384008972746
 50
58.06909105006029
 51
71.55192388186651
 73
     0
 72
     2
 10
-210.5945638659814
 20
-233.3245880699935
 40
0.9059297849852801
 50
71.55192388191827
 51
113.3722778881817
 73
     0
 72
     2
 10
-210.7510038986845
 20
-233.6865800887035
 40
0.5115800601960215
 50
113.3722778881551
 51
151.4785267423134
 73
     0
 72
     2
 10
-210.3736466406031
 20
-233.481508659365
 40
0.9410597353348924
 50
151.4785267423305
 51
208.5214732576376
 73
     0
 72
     2
 10
-210.7510038986845
 20
-233.276437230026
 40
0.5115800601944143
 50
208.5214732575775
 51
250.6628567805147
 73
     0
 72
     2
 10
-210.6043339005808
 20
-233.6943922104089
 40
0.9545230068260935
 50
250.662856780568
 51
270.0
 73
     0
 72
     1
 10
-210.6043339005808
 20
-232.7398692035828
 11
-209.5006946010127
 21
-232.7398692035828
 72
     1
 10
-209.5006946010127
 20
-232.7398692035828
 11
-209.5006946010127
 21
-235.0084134212703
 72
     1
 10
-209.5006946010127
 20
-235.0084134212703
 11
-208.307901898845
 21
-235.0084134212703
 72
     1
 10
-208.307901898845
 20
-235.0084134212703
 11
-208.307901898845
 21
-232.7398692035828
 72
     1
 10
-208.307901898845
 20
-232.7398692035828
 11
-207.4968028613716
 21
-232.7398692035828
 72
     1
 10
-207.4968028613716
 20
-232.7398692035828
 11
-207.4968028613716
 21
-231.9546038974592
 72
     1
 10
-207.4968028613716
 20
-231.9546038974592
 11
-210.8817483800003
 21
-231.9546038974597
 97
       18
330
190
330
18F
330
18E
330
18D
330
192
330
12C
330
20A
330
1EB
330
209
330
1EC
330
208
330
207
330
12D
330
206
330
205
330
1ED
330
1EE
330
191
 75
     1
 76
     0
 52
45.0
 41
0.1
 77
     0
 78
     1
 53
45.0
 43
0.0
 44
0.0
 45
-0.0707106781186548
 46
0.0707106781186548
 79
     0
 98
        1
 10
0.0
 20
0.0
  0
HATCH
  5
23F
330
74
100
AcDbEntity
  8
1
  6
Continuous
 62
     2
100
AcDbHatch
 10
0.0
 20
0.0
 30
0.0
210
0.0
220
0.0
230
1.0
  2
_USER
 70
     0
 71
     1
 91
        1
 92
        1
 93
       18
 72
     2
 10
-210.8817483800003
 20
-233.5942990213999
 40
1.639695123940214
 50
90.0
 51
164.9381082228959
 73
     1
 72
     2
 10
-211.3008762234619
 20
-233.481508659365
 40
1.205656168392995
 50
164.9381082229041
 51
195.0618917770959
 73
     1
 72
     2
 10
-210.8817483800003
 20
-233.3687182973302
 40
1.639695123940448
 50
195.0618917771012
 51
275.1581447696762
 73
     1
 72
     2
 10
-211.1706044747361
 20
-230.1688277141086
 40
4.852596863498825
 50
275.1581447696364
 51
285.9799912583387
 73
     1
 72
     1
 10
-209.8346765576194
 20
-234.83391001991
 11
-209.8346765576194
 21
-233.9613930131067
 72
     2
 10
-211.0127315996433
 20
-232.0710422939569
 40
2.227384008972746
 50
58.06909105006029
 51
71.55192388186651
 73
     0
 72
     2
 10
-210.5945638659814
 20
-233.3245880699935
 40
0.9059297849852801
 50
71.55192388191827
 51
113.3722778881817
 73
     0
 72
     2
 10
-210.7510038986845
 20
-233.6865800887035
 40
0.5115800601960215
 50
113.3722778881551
 51
151.4785267423134
 73
     0
 72
     2
 10
-210.3736466406031
 20
-233.481508659365
 40
0.9410597353348924
 50
151.4785267423305
 51
208.5214732576376
 73
     0
 72
     2
 10
-210.7510038986845
 20
-233.276437230026
 40
0.5115800601944143
 50
208.5214732575775
 51
250.6628567805147
 73
     0
 72
     2
 10
-210.6043339005808
 20
-233.6943922104089
 40
0.9545230068260935
 50
250.662856780568
 51
270.0
 73
     0
 72
     1
 10
-210.6043339005808
 20
-232.7398692035828
 11
-209.5006946010127
 21
-232.7398692035828
 72
     1
 10
-209.5006946010127
 20
-232.7398692035828
 11
-209.5006946010127
 21
-235.0084134212703
 72
     1
 10
-209.5006946010127
 20
-235.0084134212703
 11
-208.307901898845
 21
-235.0084134212703
 72
     1
 10
-208.307901898845
 20
-235.0084134212703
 11
-208.307901898845
 21
-232.7398692035828
 72
     1
 10
-208.307901898845
 20
-232.7398692035828
 11
-207.4968028613716
 21
-232.7398692035828
 72
     1
 10
-207.4968028613716
 20
-232.7398692035828
 11
-207.4968028613716
 21
-231.9546038974592
 72
     1
 10
-207.4968028613716
 20
-231.9546038974592
 11
-210.8817483800003
 21
-231.9546038974597
 97
       18
330
190
330
18F
330
18E
330
18D
330
192
330
12C
330
20A
330
1EB
330
209
330
1EC
330
208
330
207
330
12D
330
206
330
205
330
1ED
330
1EE
330
191
 75
     1
 76
     0
 52
45.0
 41
0.1
 77
     0
 78
     1
 53
45.0
 43
0.0
 44
0.0
 45
-0.0707106781186548
 46
0.0707106781186548
 79
     0
 98
        1
 10
0.0
 20
0.0
  0
HATCH
  5
240
330
74
100
AcDbEntity
  8
1
  6
Continuous
 62
     2
100
AcDbHatch
 10
0.0
 20
0.0
 30
0.0
210
0.0
220
0.0
230
1.0
  2
_USER
 70
     0
 71
     1
 91
        4
 92
        1
 93
        8
 72
     2
 10
-234.9839074766933
 20
-229.0196580366868
 40
0.4242446153837989
 50
90.0
 51
180.0
 73
     1
 72
     1
 10
-235.4081520920761
 20
-229.0196580366868
 11
-235.4081520920761
 21
-234.584168805887
 72
     2
 10
-234.9839074766933
 20
-234.584168805887
 40
0.4242446153828041
 50
180.0
 51
270.0
 73
     1
 72
     1
 10
-234.9839074766933
 20
-235.0084134212703
 11
-229.5105953859765
 21
-235.0084134212703
 72
     2
 10
-229.5105953859765
 20
-234.584168805887
 40
0.4242446153832873
 50
270.0
 51
360.0
 73
     1
 72
     1
 10
-229.0863507705927
 20
-234.584168805887
 11
-229.0863507705927
 21
-229.0196580366868
 72
     2
 10
-229.5105953859765
 20
-229.0196580366868
 40
0.4242446153837989
 50
0.0
 51
90.0
 73
     1
 72
     1
 10
-229.5105953859765
 20
-228.595413421303
 11
-234.9839074766933
 21
-228.595413421303
 97
        8
330
1FE
330
15B
330
1FD
330
15C
330
1F4
330
159
330
1FF
330
15A
 92
       16
 93
        1
 72
     2
 10
-232.3643218261758
 20
-231.3385402650423
 40
0.4709789327785074
 50
0.0
 51
360.0
 73
     1
 97
        1
330
212
 92
       16
 93
        8
 72
     2
 10
-232.340506811503
 20
-231.3385402650423
 40
0.911848150144459
 50
295.3740086781764
 51
424.6259913218075
 73
     1
 72
     2
 10
-231.8144641134151
 20
-230.2293986650745
 40
0.315716923076792
 50
115.3740086783541
 51
180.0
 73
     0
 72
     1
 10
-232.1301810364919
 20
-230.2293986650745
 11
-232.1301810364919
 21
-229.6238633765677
 72
     2
 10
-231.8144641134151
 20
-229.6238633765677
 40
0.3157169230760711
 50
180.0
 51
269.8110329574541
 73
     0
 72
     2
 10
-231.8088479781051
 20
-231.3266983241368
 40
2.018561131933266
 50
269.8110329575858
 51
450.1889670424142
 73
     0
 72
     2
 10
-231.8144641134151
 20
-233.0295332717058
 40
0.315716923076792
 50
90.18896704254585
 51
180.0
 73
     0
 72
     1
 10
-232.1301810364919
 20
-233.0295332717058
 11
-232.1301810364919
 21
-232.4476818650107
 72
     2
 10
-231.8144641134151
 20
-232.4476818650107
 40
0.3157169230765328
 50
180.0
 51
244.6259913216482
 73
     0
 97
        8
330
20C
330
1E8
330
194
330
20B
330
1E9
330
1EA
330
193
330
1E7
 92
       16
 93
       12
 72
     1
 10
-234.3900127999469
 20
-234.2958578657134
 11
-232.9141795389372
 21
-234.2958578657134
 72
     2
 10
-232.9141795389372
 20
-233.9801409426367
 40
0.3157169230767067
 50
270.0
 51
360.0
 73
     1
 72
     1
 10
-232.5984626158606
 20
-233.9801409426367
 11
-232.5984626158606
 21
-232.4493700111051
 72
     2
 10
-232.9141795389372
 20
-232.4493700111051
 40
0.315716923076593
 50
0.0
 51
64.80558935146027
 73
     1
 72
     2
 10
-232.3915950913622
 20
-231.3385402650423
 40
0.9118975235575889
 50
115.1944106485122
 51
244.805589351471
 73
     0
 72
     2
 10
-232.9141795389372
 20
-230.2277105189801
 40
0.315716923076146
 50
295.1944106485375
 51
360.0
 73
     1
 72
     1
 10
-232.5984626158606
 20
-230.2277105189801
 11
-232.5984626158606
 21
-229.6236858999196
 72
     2
 10
-232.9141795389372
 20
-229.6236858999196
 40
0.315716923076593
 50
0.0
 51
90.0
 73
     1
 72
     1
 10
-232.9141795389372
 20
-229.3079689768434
 11
-234.3900127999469
 21
-229.3079689768434
 72
     2
 10
-234.3900127999469
 20
-229.6236858999196
 40
0.3157169230761951
 50
90.0
 51
180.0
 73
     1
 72
     1
 10
-234.7057297230225
 20
-229.6236858999196
 11
-234.7057297230225
 21
-233.9801409426367
 72
     2
 10
-234.3900127999469
 20
-233.9801409426367
 40
0.3157169230755983
 50
180.0
 51
270.0
 73
     1
 97
       12
330
160
330
1F1
330
15F
330
202
330
15E
330
201
330
1F2
330
1F3
330
15D
330
200
330
158
330
203
 75
     1
 76
     0
 52
45.0
 41
0.1
 77
     0
 78
     1
 53
45.0
 43
0.0
 44
0.0
 45
-0.0707106781186548
 46
0.0707106781186548
 79
     0
 98
        1
 10
0.0
 20
0.0
  0
HATCH
  5
241
330
74
100
AcDbEntity
  8
1
  6
Continuous
 62
     2
100
AcDbHatch
 10
0.0
 20
0.0
 30
0.0
210
0.0
220
0.0
230
1.0
  2
_USER
 70
     0
 71
     1
 91
        4
 92
        1
 93
        8
 72
     2
 10
-234.9839074766933
 20
-229.0196580366868
 40
0.4242446153837989
 50
90.0
 51
180.0
 73
     1
 72
     1
 10
-235.4081520920761
 20
-229.0196580366868
 11
-235.4081520920761
 21
-234.584168805887
 72
     2
 10
-234.9839074766933
 20
-234.584168805887
 40
0.4242446153828041
 50
180.0
 51
270.0
 73
     1
 72
     1
 10
-234.9839074766933
 20
-235.0084134212703
 11
-229.5105953859765
 21
-235.0084134212703
 72
     2
 10
-229.5105953859765
 20
-234.584168805887
 40
0.4242446153832873
 50
270.0
 51
360.0
 73
     1
 72
     1
 10
-229.0863507705927
 20
-234.584168805887
 11
-229.0863507705927
 21
-229.0196580366868
 72
     2
 10
-229.5105953859765
 20
-229.0196580366868
 40
0.4242446153837989
 50
0.0
 51
90.0
 73
     1
 72
     1
 10
-229.5105953859765
 20
-228.595413421303
 11
-234.9839074766933
 21
-228.595413421303
 97
        8
330
1FE
330
15B
330
1FD
330
15C
330
1F4
330
159
330
1FF
330
15A
 92
       16
 93
        1
 72
     2
 10
-232.3643218261758
 20
-231.3385402650423
 40
0.4709789327785074
 50
0.0
 51
360.0
 73
     1
 97
        1
330
212
 92
       16
 93
        8
 72
     2
 10
-232.340506811503
 20
-231.3385402650423
 40
0.911848150144459
 50
295.3740086781764
 51
424.6259913218075
 73
     1
 72
     2
 10
-231.8144641134151
 20
-230.2293986650745
 40
0.315716923076792
 50
115.3740086783541
 51
180.0
 73
     0
 72
     1
 10
-232.1301810364919
 20
-230.2293986650745
 11
-232.1301810364919
 21
-229.6238633765677
 72
     2
 10
-231.8144641134151
 20
-229.6238633765677
 40
0.3157169230760711
 50
180.0
 51
269.8110329574541
 73
     0
 72
     2
 10
-231.8088479781051
 20
-231.3266983241368
 40
2.018561131933266
 50
269.8110329575858
 51
450.1889670424142
 73
     0
 72
     2
 10
-231.8144641134151
 20
-233.0295332717058
 40
0.315716923076792
 50
90.18896704254585
 51
180.0
 73
     0
 72
     1
 10
-232.1301810364919
 20
-233.0295332717058
 11
-232.1301810364919
 21
-232.4476818650107
 72
     2
 10
-231.8144641134151
 20
-232.4476818650107
 40
0.3157169230765328
 50
180.0
 51
244.6259913216482
 73
     0
 97
        8
330
20C
330
1E8
330
194
330
20B
330
1E9
330
1EA
330
193
330
1E7
 92
       16
 93
       12
 72
     1
 10
-234.3900127999469
 20
-234.2958578657134
 11
-232.9141795389372
 21
-234.2958578657134
 72
     2
 10
-232.9141795389372
 20
-233.9801409426367
 40
0.3157169230767067
 50
270.0
 51
360.0
 73
     1
 72
     1
 10
-232.5984626158606
 20
-233.9801409426367
 11
-232.5984626158606
 21
-232.4493700111051
 72
     2
 10
-232.9141795389372
 20
-232.4493700111051
 40
0.315716923076593
 50
0.0
 51
64.80558935146027
 73
     1
 72
     2
 10
-232.3915950913622
 20
-231.3385402650423
 40
0.9118975235575889
 50
115.1944106485122
 51
244.805589351471
 73
     0
 72
     2
 10
-232.9141795389372
 20
-230.2277105189801
 40
0.315716923076146
 50
295.1944106485375
 51
360.0
 73
     1
 72
     1
 10
-232.5984626158606
 20
-230.2277105189801
 11
-232.5984626158606
 21
-229.6236858999196
 72
     2
 10
-232.9141795389372
 20
-229.6236858999196
 40
0.315716923076593
 50
0.0
 51
90.0
 73
     1
 72
     1
 10
-232.9141795389372
 20
-229.3079689768434
 11
-234.3900127999469
 21
-229.3079689768434
 72
     2
 10
-234.3900127999469
 20
-229.6236858999196
 40
0.3157169230761951
 50
90.0
 51
180.0
 73
     1
 72
     1
 10
-234.7057297230225
 20
-229.6236858999196
 11
-234.7057297230225
 21
-233.9801409426367
 72
     2
 10
-234.3900127999469
 20
-233.9801409426367
 40
0.3157169230755983
 50
180.0
 51
270.0
 73
     1
 97
       12
330
160
330
1F1
330
15F
330
202
330
15E
330
201
330
1F2
330
1F3
330
15D
330
200
330
158
330
203
 75
     1
 76
     0
 52
45.0
 41
0.1
 77
     0
 78
     1
 53
45.0
 43
0.0
 44
0.0
 45
-0.0707106781186548
 46
0.0707106781186548
 79
     0
 98
        1
 10
0.0
 20
0.0
  0
HATCH
  5
242
330
74
100
AcDbEntity
  8
1
  6
Continuous
 62
     2
100
AcDbHatch
 10
0.0
 20
0.0
 30
0.0
210
0.0
220
0.0
230
1.0
  2
_USER
 70
     0
 71
     1
 91
        2
 92
        1
 93
       12
 72
     2
 10
-220.308743472704
 20
-230.1223181831907
 40
1.526904761905911
 50
90.0
 51
270.0
 73
     1
 72
     1
 10
-220.308743472704
 20
-231.649222945096
 11
-217.158423748923
 21
-231.649222945096
 72
     1
 10
-217.158423748923
 20
-231.649222945096
 11
-217.158423748923
 21
-230.9512093396535
 72
     1
 10
-217.158423748923
 20
-230.9512093396535
 11
-218.4943515753507
 21
-230.9512093396535
 72
     1
 10
-218.4943515753507
 20
-230.9512093396535
 11
-218.4943515753507
 21
-230.4713249859118
 72
     1
 10
-218.4943515753507
 20
-230.4713249859118
 11
-217.158423748923
 21
-230.4713249859118
 72
     1
 10
-217.158423748923
 20
-230.4713249859118
 11
-217.158423748923
 21
-229.7733113804695
 72
     1
 10
-217.158423748923
 20
-229.7733113804695
 11
-218.4943515753507
 21
-229.7733113804695
 72
     1
 10
-218.4943515753507
 20
-229.7733113804695
 11
-218.4943515753507
 21
-229.2934270267278
 72
     1
 10
-218.4943515753507
 20
-229.2934270267278
 11
-217.158423748923
 21
-229.2934270267278
 72
     1
 10
-217.158423748923
 20
-229.2934270267278
 11
-217.158423748923
 21
-228.5954134212848
 72
     1
 10
-217.158423748923
 20
-228.5954134212848
 11
-220.308743472704
 21
-228.5954134212848
 97
       12
330
14F
330
149
330
170
330
16F
330
16E
330
16D
330
14A
330
14B
330
14C
330
14D
330
1EF
330
14E
 92
       16
 93
        4
 72
     2
 10
-219.8927314261925
 20
-230.1223181831907
 40
0.77179977867969
 50
141.8795802028388
 51
218.1204197971546
 73
     1
 72
     2
 10
-220.0924714625388
 20
-230.2790493613111
 40
0.5179085730134372
 50
218.1204197971511
 51
321.8795802028566
 73
     1
 72
     2
 10
-220.292211498885
 20
-230.1223181831907
 40
0.7717997786796198
 50
321.8795802028454
 51
398.1204197971612
 73
     1
 72
     2
 10
-220.0924714625388
 20
-229.9655870050702
 40
0.5179085730135266
 50
38.12041979714334
 51
141.8795802028489
 73
     1
 97
        4
330
1FC
330
1FB
330
1F6
330
1F5
 75
     1
 76
     0
 52
45.0
 41
0.1
 77
     0
 78
     1
 53
45.0
 43
0.0
 44
0.0
 45
-0.0707106781186548
 46
0.0707106781186548
 79
     0
 98
        1
 10
0.0
 20
0.0
  0
HATCH
  5
243
330
74
100
AcDbEntity
  8
1
  6
Continuous
 62
     2
100
AcDbHatch
 10
0.0
 20
0.0
 30
0.0
210
0.0
220
0.0
230
1.0
  2
_USER
 70
     0
 71
     1
 91
        2
 92
        1
 93
       12
 72
     2
 10
-220.308743472704
 20
-230.1223181831907
 40
1.526904761905911
 50
90.0
 51
270.0
 73
     1
 72
     1
 10
-220.308743472704
 20
-231.649222945096
 11
-217.158423748923
 21
-231.649222945096
 72
     1
 10
-217.158423748923
 20
-231.649222945096
 11
-217.158423748923
 21
-230.9512093396535
 72
     1
 10
-217.158423748923
 20
-230.9512093396535
 11
-218.4943515753507
 21
-230.9512093396535
 72
     1
 10
-218.4943515753507
 20
-230.9512093396535
 11
-218.4943515753507
 21
-230.4713249859118
 72
     1
 10
-218.4943515753507
 20
-230.4713249859118
 11
-217.158423748923
 21
-230.4713249859118
 72
     1
 10
-217.158423748923
 20
-230.4713249859118
 11
-217.158423748923
 21
-229.7733113804695
 72
     1
 10
-217.158423748923
 20
-229.7733113804695
 11
-218.4943515753507
 21
-229.7733113804695
 72
     1
 10
-218.4943515753507
 20
-229.7733113804695
 11
-218.4943515753507
 21
-229.2934270267278
 72
     1
 10
-218.4943515753507
 20
-229.2934270267278
 11
-217.158423748923
 21
-229.2934270267278
 72
     1
 10
-217.158423748923
 20
-229.2934270267278
 11
-217.158423748923
 21
-228.5954134212848
 72
     1
 10
-217.158423748923
 20
-228.5954134212848
 11
-220.308743472704
 21
-228.5954134212848
 97
       12
330
14F
330
149
330
170
330
16F
330
16E
330
16D
330
14A
330
14B
330
14C
330
14D
330
1EF
330
14E
 92
       16
 93
        4
 72
     2
 10
-219.8927314261925
 20
-230.1223181831907
 40
0.77179977867969
 50
141.8795802028388
 51
218.1204197971546
 73
     1
 72
     2
 10
-220.0924714625388
 20
-230.2790493613111
 40
0.5179085730134372
 50
218.1204197971511
 51
321.8795802028566
 73
     1
 72
     2
 10
-220.292211498885
 20
-230.1223181831907
 40
0.7717997786796198
 50
321.8795802028454
 51
398.1204197971612
 73
     1
 72
     2
 10
-220.0924714625388
 20
-229.9655870050702
 40
0.5179085730135266
 50
38.12041979714334
 51
141.8795802028489
 73
     1
 97
        4
330
1FC
330
1FB
330
1F6
330
1F5
 75
     1
 76
     0
 52
45.0
 41
0.1
 77
     0
 78
     1
 53
45.0
 43
0.0
 44
0.0
 45
-0.0707106781186548
 46
0.0707106781186548
 79
     0
 98
        1
 10
0.0
 20
0.0
  0
HATCH
  5
244
330
74
100
AcDbEntity
  8
1
  6
Continuous
 62
     2
100
AcDbHatch
 10
0.0
 20
0.0
 30
0.0
210
0.0
220
0.0
230
1.0
  2
_USER
 70
     0
 71
     1
 91
        2
 92
        1
 93
        4
 72
     2
 10
-224.3343588351656
 20
-233.481508659365
 40
1.45803408365149
 50
117.5481481756624
 51
242.4518518243375
 73
     1
 72
     2
 10
-224.0534189433323
 20
-232.9429336490617
 40
2.065479772208509
 50
242.4518518243402
 51
297.5481481756871
 73
     1
 72
     2
 10
-223.772479051499
 20
-233.481508659365
 40
1.458034083652003
 50
297.548148175701
 51
422.451851824299
 73
     1
 72
     2
 10
-224.0534189433323
 20
-234.0200836696678
 40
2.065479772208568
 50
62.45185182430637
 51
117.5481481756664
 73
     1
 97
        4
330
1FA
330
1F7
330
1F9
330
1F8
 92
       16
 93
        4
 72
     2
 10
-224.0534189433323
 20
-233.3247774812445
 40
0.5179085730132998
 50
38.12041979714704
 51
141.8795802028588
 73
     1
 72
     2
 10
-223.8536789069862
 20
-233.481508659365
 40
0.7717997786794633
 50
141.8795802028363
 51
218.1204197971703
 73
     1
 72
     2
 10
-224.0534189433323
 20
-233.638239837485
 40
0.5179085730137529
 50
218.1204197971956
 51
321.8795802027985
 73
     1
 72
     2
 10
-224.2531589796787
 20
-233.481508659365
 40
0.77179977867969
 50
321.8795802028388
 51
398.1204197971546
 73
     1
 97
        4
330
1DD
330
1DE
330
1DF
330
1DC
 75
     1
 76
     0
 52
45.0
 41
0.1
 77
     0
 78
     1
 53
45.0
 43
0.0
 44
0.0
 45
-0.0707106781186548
 46
0.0707106781186548
 79
     0
 98
        1
 10
0.0
 20
0.0
  0
HATCH
  5
245
330
74
100
AcDbEntity
  8
1
  6
Continuous
 62
     2
100
AcDbHatch
 10
0.0
 20
0.0
 30
0.0
210
0.0
220
0.0
230
1.0
  2
_USER
 70
     0
 71
     1
 91
        2
 92
        1
 93
        4
 72
     2
 10
-224.3343588351656
 20
-233.481508659365
 40
1.45803408365149
 50
117.5481481756624
 51
242.4518518243375
 73
     1
 72
     2
 10
-224.0534189433323
 20
-232.9429336490617
 40
2.065479772208509
 50
242.4518518243402
 51
297.5481481756871
 73
     1
 72
     2
 10
-223.772479051499
 20
-233.481508659365
 40
1.458034083652003
 50
297.548148175701
 51
422.451851824299
 73
     1
 72
     2
 10
-224.0534189433323
 20
-234.0200836696678
 40
2.065479772208568
 50
62.45185182430637
 51
117.5481481756664
 73
     1
 97
        4
330
1FA
330
1F7
330
1F9
330
1F8
 92
       16
 93
        4
 72
     2
 10
-224.0534189433323
 20
-233.3247774812445
 40
0.5179085730132998
 50
38.12041979714704
 51
141.8795802028588
 73
     1
 72
     2
 10
-223.8536789069862
 20
-233.481508659365
 40
0.7717997786794633
 50
141.8795802028363
 51
218.1204197971703
 73
     1
 72
     2
 10
-224.0534189433323
 20
-233.638239837485
 40
0.5179085730137529
 50
218.1204197971956
 51
321.8795802027985
 73
     1
 72
     2
 10
-224.2531589796787
 20
-233.481508659365
 40
0.77179977867969
 50
321.8795802028388
 51
398.1204197971546
 73
     1
 97
        4
330
1DD
330
1DE
330
1DF
330
1DC
 75
     1
 76
     0
 52
45.0
 41
0.1
 77
     0
 78
     1
 53
45.0
 43
0.0
 44
0.0
 45
-0.0707106781186548
 46
0.0707106781186548
 79
     0
 98
        1
 10
0.0
 20
0.0
  0
HATCH
  5
246
330
74
100
AcDbEntity
  8
1
  6
Continuous
 62
     2
100
AcDbHatch
 10
0.0
 20
0.0
 30
0.0
210
0.0
220
0.0
230
1.0
  2
_USER
 70
     0
 71
     1
 91
        2
 92
        1
 93
        6
 72
     1
 10
-228.6092336897258
 20
-228.5954134212848
 11
-228.6092336897258
 21
-231.649222945096
 72
     1
 10
-228.6092336897258
 20
-231.649222945096
 11
-227.3687292794717
 21
-231.649222945096
 72
     1
 10
-227.3687292794717
 20
-231.649222945096
 11
-227.3687292794717
 21
-230.7061447039522
 72
     1
 10
-227.3687292794717
 20
-230.7061447039522
 11
-226.6099616916914
 21
-230.7061447039522
 72
     2
 10
-226.6099616916914
 20
-229.6507790626185
 40
1.05536564133368
 50
270.0
 51
450.0
 73
     1
 72
     1
 10
-226.6099616916914
 20
-228.5954134212848
 11
-228.6092336897258
 21
-228.5954134212848
 97
        6
330
204
330
161
330
157
330
156
330
163
330
162
 92
       16
 93
        4
 72
     1
 10
-227.0514342179298
 20
-229.2585192667249
 11
-227.3687292794717
 21
-229.2585192667249
 72
     1
 10
-227.3687292794717
 20
-229.2585192667249
 11
-227.3687292794717
 21
-229.9642469160671
 72
     1
 10
-227.3687292794717
 20
-229.9642469160671
 11
-227.0514342179298
 21
-229.9642469160671
 72
     2
 10
-227.0514342179298
 20
-229.611383091396
 40
0.3528638246711182
 50
270.0
 51
450.0
 73
     1
 97
        4
330
164
330
155
330
165
330
1F0
 75
     1
 76
     0
 52
45.0
 41
0.1
 77
     0
 78
     1
 53
45.0
 43
0.0
 44
0.0
 45
-0.0707106781186548
 46
0.0707106781186548
 79
     0
 98
        1
 10
0.0
 20
0.0
  0
HATCH
  5
247
330
74
100
AcDbEntity
  8
1
  6
Continuous
 62
     2
100
AcDbHatch
 10
0.0
 20
0.0
 30
0.0
210
0.0
220
0.0
230
1.0
  2
_USER
 70
     0
 71
     1
 91
        2
 92
        1
 93
        6
 72
     1
 10
-228.6092336897258
 20
-228.5954134212848
 11
-228.6092336897258
 21
-231.649222945096
 72
     1
 10
-228.6092336897258
 20
-231.649222945096
 11
-227.3687292794717
 21
-231.649222945096
 72
     1
 10
-227.3687292794717
 20
-231.649222945096
 11
-227.3687292794717
 21
-230.7061447039522
 72
     1
 10
-227.3687292794717
 20
-230.7061447039522
 11
-226.6099616916914
 21
-230.7061447039522
 72
     2
 10
-226.6099616916914
 20
-229.6507790626185
 40
1.05536564133368
 50
270.0
 51
450.0
 73
     1
 72
     1
 10
-226.6099616916914
 20
-228.5954134212848
 11
-228.6092336897258
 21
-228.5954134212848
 97
        6
330
204
330
161
330
157
330
156
330
163
330
162
 92
       16
 93
        4
 72
     1
 10
-227.0514342179298
 20
-229.2585192667249
 11
-227.3687292794717
 21
-229.2585192667249
 72
     1
 10
-227.3687292794717
 20
-229.2585192667249
 11
-227.3687292794717
 21
-229.9642469160671
 72
     1
 10
-227.3687292794717
 20
-229.9642469160671
 11
-227.0514342179298
 21
-229.9642469160671
 72
     2
 10
-227.0514342179298
 20
-229.611383091396
 40
0.3528638246711182
 50
270.0
 51
450.0
 73
     1
 97
        4
330
164
330
155
330
165
330
1F0
 75
     1
 76
     0
 52
45.0
 41
0.1
 77
     0
 78
     1
 53
45.0
 43
0.0
 44
0.0
 45
-0.0707106781186548
 46
0.0707106781186548
 79
     0
 98
        1
 10
0.0
 20
0.0
  0
HATCH
  5
248
330
74
100
AcDbEntity
  8
1
  6
Continuous
 62
     2
100
AcDbHatch
 10
0.0
 20
0.0
 30
0.0
210
0.0
220
0.0
230
1.0
  2
_USER
 70
     0
 71
     1
 91
        1
 92
        1
 93
       12
 72
     1
 10
-208.9949504952926
 20
-228.5954134212848
 11
-207.5922262775454
 21
-228.5954134212848
 72
     1
 10
-207.5922262775454
 20
-228.5954134212848
 11
-208.8947559083119
 21
-230.068363951321
 72
     1
 10
-208.8947559083119
 20
-230.068363951321
 11
-207.4968028613716
 21
-231.649222945096
 72
     1
 10
-207.4968028613716
 20
-231.649222945096
 11
-208.8995270791199
 21
-231.649222945096
 72
     1
 10
-208.8995270791199
 20
-231.649222945096
 11
-209.5961180171854
 21
-230.8614911598023
 72
     1
 10
-209.5961180171854
 20
-230.8614911598023
 11
-210.2927089552511
 21
-231.649222945096
 72
     1
 10
-210.2927089552511
 20
-231.649222945096
 11
-211.6954331729993
 21
-231.649222945096
 72
     1
 10
-211.6954331729993
 20
-231.649222945096
 11
-210.297480126059
 21
-230.068363951321
 72
     1
 10
-210.297480126059
 20
-230.068363951321
 11
-211.6000097568265
 21
-228.5954134212848
 72
     1
 10
-211.6000097568265
 20
-228.5954134212848
 11
-210.1972855390772
 21
-228.5954134212848
 72
     1
 10
-210.1972855390772
 20
-228.5954134212848
 11
-209.5961180171854
 21
-229.2752367428403
 72
     1
 10
-209.5961180171854
 20
-229.2752367428403
 11
-208.9949504952926
 21
-228.5954134212848
 97
       12
330
130
330
189
330
188
330
187
330
186
330
131
330
132
330
12E
330
12F
330
18C
330
18B
330
18A
 75
     1
 76
     0
 52
45.0
 41
0.1
 77
     0
 78
     1
 53
45.0
 43
0.0
 44
0.0
 45
-0.0707106781186548
 46
0.0707106781186548
 79
     0
 98
        1
 10
0.0
 20
0.0
  0
HATCH
  5
249
330
74
100
AcDbEntity
  8
1
  6
Continuous
 62
     2
100
AcDbHatch
 10
0.0
 20
0.0
 30
0.0
210
0.0
220
0.0
230
1.0
  2
_USER
 70
     0
 71
     1
 91
        1
 92
        1
 93
       12
 72
     1
 10
-208.9949504952926
 20
-228.5954134212848
 11
-207.5922262775454
 21
-228.5954134212848
 72
     1
 10
-207.5922262775454
 20
-228.5954134212848
 11
-208.8947559083119
 21
-230.068363951321
 72
     1
 10
-208.8947559083119
 20
-230.068363951321
 11
-207.4968028613716
 21
-231.649222945096
 72
     1
 10
-207.4968028613716
 20
-231.649222945096
 11
-208.8995270791199
 21
-231.649222945096
 72
     1
 10
-208.8995270791199
 20
-231.649222945096
 11
-209.5961180171854
 21
-230.8614911598023
 72
     1
 10
-209.5961180171854
 20
-230.8614911598023
 11
-210.2927089552511
 21
-231.649222945096
 72
     1
 10
-210.2927089552511
 20
-231.649222945096
 11
-211.6954331729993
 21
-231.649222945096
 72
     1
 10
-211.6954331729993
 20
-231.649222945096
 11
-210.297480126059
 21
-230.068363951321
 72
     1
 10
-210.297480126059
 20
-230.068363951321
 11
-211.6000097568265
 21
-228.5954134212848
 72
     1
 10
-211.6000097568265
 20
-228.5954134212848
 11
-210.1972855390772
 21
-228.5954134212848
 72
     1
 10
-210.1972855390772
 20
-228.5954134212848
 11
-209.5961180171854
 21
-229.2752367428403
 72
     1
 10
-209.5961180171854
 20
-229.2752367428403
 11
-208.9949504952926
 21
-228.5954134212848
 97
       12
330
130
330
189
330
188
330
187
330
186
330
131
330
132
330
12E
330
12F
330
18C
330
18B
330
18A
 75
     1
 76
     0
 52
45.0
 41
0.1
 77
     0
 78
     1
 53
45.0
 43
0.0
 44
0.0
 45
-0.0707106781186548
 46
0.0707106781186548
 79
     0
 98
        1
 10
0.0
 20
0.0
  0
HATCH
  5
24A
330
74
100
AcDbEntity
  8
1
  6
Continuous
 62
     2
100
AcDbHatch
 10
0.0
 20
0.0
 30
0.0
210
0.0
220
0.0
230
1.0
  2
_USER
 70
     0
 71
     1
 91
        1
 92
        1
 93
        4
 72
     1
 10
-211.8147124432162
 20
-228.5954134212848
 11
-211.8147124432162
 21
-231.649222945096
 72
     1
 10
-211.8147124432162
 20
-231.649222945096
 11
-213.0552168534691
 21
-231.649222945096
 72
     1
 10
-213.0552168534691
 20
-231.649222945096
 11
-213.0552168534691
 21
-228.5954134212848
 72
     1
 10
-213.0552168534691
 20
-228.5954134212848
 11
-211.8147124432162
 21
-228.5954134212848
 97
        4
330
184
330
133
330
183
330
185
 75
     1
 76
     0
 52
45.0
 41
0.1
 77
     0
 78
     1
 53
45.0
 43
0.0
 44
0.0
 45
-0.0707106781186548
 46
0.0707106781186548
 79
     0
 98
        1
 10
0.0
 20
0.0
  0
HATCH
  5
24B
330
74
100
AcDbEntity
  8
1
  6
Continuous
 62
     2
100
AcDbHatch
 10
0.0
 20
0.0
 30
0.0
210
0.0
220
0.0
230
1.0
  2
_USER
 70
     0
 71
     1
 91
        1
 92
        1
 93
        4
 72
     1
 10
-211.8147124432162
 20
-228.5954134212848
 11
-211.8147124432162
 21
-231.649222945096
 72
     1
 10
-211.8147124432162
 20
-231.649222945096
 11
-213.0552168534691
 21
-231.649222945096
 72
     1
 10
-213.0552168534691
 20
-231.649222945096
 11
-213.0552168534691
 21
-228.5954134212848
 72
     1
 10
-213.0552168534691
 20
-228.5954134212848
 11
-211.8147124432162
 21
-228.5954134212848
 97
        4
330
184
330
133
330
183
330
185
 75
     1
 76
     0
 52
45.0
 41
0.1
 77
     0
 78
     1
 53
45.0
 43
0.0
 44
0.0
 45
-0.0707106781186548
 46
0.0707106781186548
 79
     0
 98
        1
 10
0.0
 20
0.0
  0
HATCH
  5
24C
330
74
100
AcDbEntity
  8
1
  6
Continuous
 62
     2
100
AcDbHatch
 10
0.0
 20
0.0
 30
0.0
210
0.0
220
0.0
230
1.0
  2
_USER
 70
     0
 71
     1
 91
        2
 92
        1
 93
        8
 72
     1
 10
-212.2051564467482
 20
-235.0084134212703
 11
-213.4456608570021
 21
-235.0084134212703
 72
     1
 10
-213.4456608570021
 20
-235.0084134212703
 11
-213.6571409104779
 21
-234.4674528770524
 72
     1
 10
-213.6571409104779
 20
-234.4674528770524
 11
-214.7895824871517
 21
-234.4674528770524
 72
     1
 10
-214.7895824871517
 20
-234.4674528770524
 11
-215.0010625406275
 21
-235.0084134212703
 72
     1
 10
-215.0010625406275
 20
-235.0084134212703
 11
-216.2415669508805
 21
-235.0084134212703
 72
     1
 10
-216.2415669508805
 20
-235.0084134212703
 11
-214.8436139039412
 21
-231.9546038974592
 72
     1
 10
-214.8436139039412
 20
-231.9546038974592
 11
-213.6031094936885
 21
-231.9546038974592
 72
     1
 10
-213.6031094936885
 20
-231.9546038974592
 11
-212.2051564467482
 21
-235.0084134212703
 97
        8
330
17F
330
139
330
17E
330
181
330
136
330
180
330
137
330
138
 92
       16
 93
        3
 72
     1
 10
-214.5235269360067
 20
-233.7868896117458
 11
-213.9231964616242
 21
-233.7868896117458
 72
     1
 10
-213.9231964616242
 20
-233.7868896117458
 11
-214.2233616988143
 21
-233.0190746457591
 72
     1
 10
-214.2233616988143
 20
-233.0190746457591
 11
-214.5235269360067
 21
-233.7868896117458
 97
        3
330
135
330
134
330
182
 75
     1
 76
     0
 52
45.0
 41
0.1
 77
     0
 78
     1
 53
45.0
 43
0.0
 44
0.0
 45
-0.0707106781186548
 46
0.0707106781186548
 79
     0
 98
        1
 10
0.0
 20
0.0
  0
HATCH
  5
24D
330
74
100
AcDbEntity
  8
1
  6
Continuous
 62
     2
100
AcDbHatch
 10
0.0
 20
0.0
 30
0.0
210
0.0
220
0.0
230
1.0
  2
_USER
 70
     0
 71
     1
 91
        2
 92
        1
 93
        8
 72
     1
 10
-212.2051564467482
 20
-235.0084134212703
 11
-213.4456608570021
 21
-235.0084134212703
 72
     1
 10
-213.4456608570021
 20
-235.0084134212703
 11
-213.6571409104779
 21
-234.4674528770524
 72
     1
 10
-213.6571409104779
 20
-234.4674528770524
 11
-214.7895824871517
 21
-234.4674528770524
 72
     1
 10
-214.7895824871517
 20
-234.4674528770524
 11
-215.0010625406275
 21
-235.0084134212703
 72
     1
 10
-215.0010625406275
 20
-235.0084134212703
 11
-216.2415669508805
 21
-235.0084134212703
 72
     1
 10
-216.2415669508805
 20
-235.0084134212703
 11
-214.8436139039412
 21
-231.9546038974592
 72
     1
 10
-214.8436139039412
 20
-231.9546038974592
 11
-213.6031094936885
 21
-231.9546038974592
 72
     1
 10
-213.6031094936885
 20
-231.9546038974592
 11
-212.2051564467482
 21
-235.0084134212703
 97
        8
330
17F
330
139
330
17E
330
181
330
136
330
180
330
137
330
138
 92
       16
 93
        3
 72
     1
 10
-214.5235269360067
 20
-233.7868896117458
 11
-213.9231964616242
 21
-233.7868896117458
 72
     1
 10
-213.9231964616242
 20
-233.7868896117458
 11
-214.2233616988143
 21
-233.0190746457591
 72
     1
 10
-214.2233616988143
 20
-233.0190746457591
 11
-214.5235269360067
 21
-233.7868896117458
 97
        3
330
135
330
134
330
182
 75
     1
 76
     0
 52
45.0
 41
0.1
 77
     0
 78
     1
 53
45.0
 43
0.0
 44
0.0
 45
-0.0707106781186548
 46
0.0707106781186548
 79
     0
 98
        1
 10
0.0
 20
0.0
  0
HATCH
  5
24E
330
74
100
AcDbEntity
  8
1
  6
Continuous
 62
     2
100
AcDbHatch
 10
0.0
 20
0.0
 30
0.0
210
0.0
220
0.0
230
1.0
  2
_USER
 70
     0
 71
     1
 91
        1
 92
        1
 93
        8
 72
     1
 10
-218.3990790900627
 20
-231.9546038974592
 11
-218.3990790900627
 21
-232.7398692035828
 72
     1
 10
-218.3990790900627
 20
-232.7398692035828
 11
-217.5879800525881
 21
-232.7398692035828
 72
     1
 10
-217.5879800525881
 20
-232.7398692035828
 11
-217.5879800525881
 21
-235.0084134212703
 72
     1
 10
-217.5879800525881
 20
-235.0084134212703
 11
-216.3951873504216
 21
-235.0084134212703
 72
     1
 10
-216.3951873504216
 20
-235.0084134212703
 11
-216.3951873504216
 21
-232.7398692035828
 72
     1
 10
-216.3951873504216
 20
-232.7398692035828
 11
-215.5840883129491
 21
-232.7398692035828
 72
     1
 10
-215.5840883129491
 20
-232.7398692035828
 11
-215.5840883129491
 21
-231.9546038974592
 72
     1
 10
-215.5840883129491
 20
-231.9546038974592
 11
-218.3990790900627
 21
-231.9546038974592
 97
        8
330
17B
330
17A
330
179
330
13A
330
13B
330
17D
330
13C
330
17C
 75
     1
 76
     0
 52
45.0
 41
0.1
 77
     0
 78
     1
 53
45.0
 43
0.0
 44
0.0
 45
-0.0707106781186548
 46
0.0707106781186548
 79
     0
 98
        1
 10
0.0
 20
0.0
  0
HATCH
  5
24F
330
74
100
AcDbEntity
  8
1
  6
Continuous
 62
     2
100
AcDbHatch
 10
0.0
 20
0.0
 30
0.0
210
0.0
220
0.0
230
1.0
  2
_USER
 70
     0
 71
     1
 91
        1
 92
        1
 93
        8
 72
     1
 10
-218.3990790900627
 20
-231.9546038974592
 11
-218.3990790900627
 21
-232.7398692035828
 72
     1
 10
-218.3990790900627
 20
-232.7398692035828
 11
-217.5879800525881
 21
-232.7398692035828
 72
     1
 10
-217.5879800525881
 20
-232.7398692035828
 11
-217.5879800525881
 21
-235.0084134212703
 72
     1
 10
-217.5879800525881
 20
-235.0084134212703
 11
-216.3951873504216
 21
-235.0084134212703
 72
     1
 10
-216.3951873504216
 20
-235.0084134212703
 11
-216.3951873504216
 21
-232.7398692035828
 72
     1
 10
-216.3951873504216
 20
-232.7398692035828
 11
-215.5840883129491
 21
-232.7398692035828
 72
     1
 10
-215.5840883129491
 20
-232.7398692035828
 11
-215.5840883129491
 21
-231.9546038974592
 72
     1
 10
-215.5840883129491
 20
-231.9546038974592
 11
-218.3990790900627
 21
-231.9546038974592
 97
        8
330
17B
330
17A
330
179
330
13A
330
13B
330
17D
330
13C
330
17C
 75
     1
 76
     0
 52
45.0
 41
0.1
 77
     0
 78
     1
 53
45.0
 43
0.0
 44
0.0
 45
-0.0707106781186548
 46
0.0707106781186548
 79
     0
 98
        1
 10
0.0
 20
0.0
  0
HATCH
  5
250
330
74
100
AcDbEntity
  8
1
  6
Continuous
 62
     2
100
AcDbHatch
 10
0.0
 20
0.0
 30
0.0
210
0.0
220
0.0
230
1.0
  2
_USER
 70
     0
 71
     1
 91
        1
 92
        1
 93
       10
 72
     1
 10
-215.7270725063236
 20
-228.5954134212848
 11
-216.9198652084901
 21
-228.5954134212848
 72
     1
 10
-216.9198652084901
 20
-228.5954134212848
 11
-216.9198652084901
 21
-231.649222945096
 72
     1
 10
-216.9198652084901
 20
-231.649222945096
 11
-215.7270725063236
 21
-231.649222945096
 72
     1
 10
-215.7270725063236
 20
-231.649222945096
 11
-215.7270725063236
 21
-230.3404474348913
 72
     1
 10
-215.7270725063236
 20
-230.3404474348913
 11
-214.4865680960696
 21
-231.649222945096
 72
     1
 10
-214.4865680960696
 20
-231.649222945096
 11
-213.293775393903
 21
-231.649222945096
 72
     1
 10
-213.293775393903
 20
-231.649222945096
 11
-213.293775393903
 21
-228.5954134212848
 72
     1
 10
-213.293775393903
 20
-228.5954134212848
 11
-214.4865680960696
 21
-228.5954134212848
 72
     1
 10
-214.4865680960696
 20
-228.5954134212848
 11
-214.4865680960696
 21
-229.90418893149
 72
     1
 10
-214.4865680960696
 20
-229.90418893149
 11
-215.7270725063236
 21
-228.5954134212848
 97
       10
330
175
330
13F
330
140
330
141
330
142
330
178
330
13D
330
177
330
176
330
13E
 75
     1
 76
     0
 52
45.0
 41
0.1
 77
     0
 78
     1
 53
45.0
 43
0.0
 44
0.0
 45
-0.0707106781186548
 46
0.0707106781186548
 79
     0
 98
        1
 10
0.0
 20
0.0
  0
HATCH
  5
251
330
74
100
AcDbEntity
  8
1
  6
Continuous
 62
     2
100
AcDbHatch
 10
0.0
 20
0.0
 30
0.0
210
0.0
220
0.0
230
1.0
  2
_USER
 70
     0
 71
     1
 91
        1
 92
        1
 93
       10
 72
     1
 10
-215.7270725063236
 20
-228.5954134212848
 11
-216.9198652084901
 21
-228.5954134212848
 72
     1
 10
-216.9198652084901
 20
-228.5954134212848
 11
-216.9198652084901
 21
-231.649222945096
 72
     1
 10
-216.9198652084901
 20
-231.649222945096
 11
-215.7270725063236
 21
-231.649222945096
 72
     1
 10
-215.7270725063236
 20
-231.649222945096
 11
-215.7270725063236
 21
-230.3404474348913
 72
     1
 10
-215.7270725063236
 20
-230.3404474348913
 11
-214.4865680960696
 21
-231.649222945096
 72
     1
 10
-214.4865680960696
 20
-231.649222945096
 11
-213.293775393903
 21
-231.649222945096
 72
     1
 10
-213.293775393903
 20
-231.649222945096
 11
-213.293775393903
 21
-228.5954134212848
 72
     1
 10
-213.293775393903
 20
-228.5954134212848
 11
-214.4865680960696
 21
-228.5954134212848
 72
     1
 10
-214.4865680960696
 20
-228.5954134212848
 11
-214.4865680960696
 21
-229.90418893149
 72
     1
 10
-214.4865680960696
 20
-229.90418893149
 11
-215.7270725063236
 21
-228.5954134212848
 97
       10
330
175
330
13F
330
140
330
141
330
142
330
178
330
13D
330
177
330
176
330
13E
 75
     1
 76
     0
 52
45.0
 41
0.1
 77
     0
 78
     1
 53
45.0
 43
0.0
 44
0.0
 45
-0.0707106781186548
 46
0.0707106781186548
 79
     0
 98
        1
 10
0.0
 20
0.0
  0
HATCH
  5
252
330
74
100
AcDbEntity
  8
1
  6
Continuous
 62
     2
100
AcDbHatch
 10
0.0
 20
0.0
 30
0.0
210
0.0
220
0.0
230
1.0
  2
_USER
 70
     0
 71
     1
 91
        1
 92
        1
 93
       10
 72
     1
 10
-220.9755113267422
 20
-231.9546038974592
 11
-222.1683040289098
 21
-231.9546038974592
 72
     1
 10
-222.1683040289098
 20
-231.9546038974592
 11
-222.1683040289098
 21
-235.0084134212703
 72
     1
 10
-222.1683040289098
 20
-235.0084134212703
 11
-220.9755113267422
 21
-235.0084134212703
 72
     1
 10
-220.9755113267422
 20
-235.0084134212703
 11
-220.9755113267422
 21
-233.6996379110657
 72
     1
 10
-220.9755113267422
 20
-233.6996379110657
 11
-219.7350069164893
 21
-235.0084134212703
 72
     1
 10
-219.7350069164893
 20
-235.0084134212703
 11
-218.5422142143229
 21
-235.0084134212703
 72
     1
 10
-218.5422142143229
 20
-235.0084134212703
 11
-218.5422142143229
 21
-231.9546038974592
 72
     1
 10
-218.5422142143229
 20
-231.9546038974592
 11
-219.7350069164893
 21
-231.9546038974592
 72
     1
 10
-219.7350069164893
 20
-231.9546038974592
 11
-219.7350069164893
 21
-233.2633794076643
 72
     1
 10
-219.7350069164893
 20
-233.2633794076643
 11
-220.9755113267422
 21
-231.9546038974592
 97
       10
330
144
330
145
330
146
330
172
330
147
330
148
330
171
330
174
330
173
330
143
 75
     1
 76
     0
 52
45.0
 41
0.1
 77
     0
 78
     1
 53
45.0
 43
0.0
 44
0.0
 45
-0.0707106781186548
 46
0.0707106781186548
 79
     0
 98
        1
 10
0.0
 20
0.0
  0
HATCH
  5
253
330
74
100
AcDbEntity
  8
1
  6
Continuous
 62
     2
100
AcDbHatch
 10
0.0
 20
0.0
 30
0.0
210
0.0
220
0.0
230
1.0
  2
_USER
 70
     0
 71
     1
 91
        1
 92
        1
 93
       10
 72
     1
 10
-220.9755113267422
 20
-231.9546038974592
 11
-222.1683040289098
 21
-231.9546038974592
 72
     1
 10
-222.1683040289098
 20
-231.9546038974592
 11
-222.1683040289098
 21
-235.0084134212703
 72
     1
 10
-222.1683040289098
 20
-235.0084134212703
 11
-220.9755113267422
 21
-235.0084134212703
 72
     1
 10
-220.9755113267422
 20
-235.0084134212703
 11
-220.9755113267422
 21
-233.6996379110657
 72
     1
 10
-220.9755113267422
 20
-233.6996379110657
 11
-219.7350069164893
 21
-235.0084134212703
 72
     1
 10
-219.7350069164893
 20
-235.0084134212703
 11
-218.5422142143229
 21
-235.0084134212703
 72
     1
 10
-218.5422142143229
 20
-235.0084134212703
 11
-218.5422142143229
 21
-231.9546038974592
 72
     1
 10
-218.5422142143229
 20
-231.9546038974592
 11
-219.7350069164893
 21
-231.9546038974592
 72
     1
 10
-219.7350069164893
 20
-231.9546038974592
 11
-219.7350069164893
 21
-233.2633794076643
 72
     1
 10
-219.7350069164893
 20
-233.2633794076643
 11
-220.9755113267422
 21
-231.9546038974592
 97
       10
330
144
330
145
330
146
330
172
330
147
330
148
330
171
330
174
330
173
330
143
 75
     1
 76
     0
 52
45.0
 41
0.1
 77
     0
 78
     1
 53
45.0
 43
0.0
 44
0.0
 45
-0.0707106781186548
 46
0.0707106781186548
 79
     0
 98
        1
 10
0.0
 20
0.0
  0
HATCH
  5
254
330
74
100
AcDbEntity
  8
1
  6
Continuous
 62
     2
100
AcDbHatch
 10
0.0
 20
0.0
 30
0.0
210
0.0
220
0.0
230
1.0
  2
_USER
 70
     0
 71
     1
 91
        1
 92
        1
 93
       12
 72
     1
 10
-221.9773062656776
 20
-228.5954134212848
 11
-221.9773062656776
 21
-231.649222945096
 72
     1
 10
-221.9773062656776
 20
-231.649222945096
 11
-223.170098967844
 21
-231.649222945096
 72
     1
 10
-223.170098967844
 20
-231.649222945096
 11
-223.170098967844
 21
-230.5149508362522
 72
     1
 10
-223.170098967844
 20
-230.5149508362522
 11
-224.2197565457515
 21
-230.5149508362522
 72
     1
 10
-224.2197565457515
 20
-230.5149508362522
 11
-224.2197565457515
 21
-231.649222945096
 72
     1
 10
-224.2197565457515
 20
-231.649222945096
 11
-225.4125492479181
 21
-231.649222945096
 72
     1
 10
-225.4125492479181
 20
-231.649222945096
 11
-225.4125492479181
 21
-228.5954134212848
 72
     1
 10
-225.4125492479181
 20
-228.5954134212848
 11
-224.2197565457515
 21
-228.5954134212848
 72
     1
 10
-224.2197565457515
 20
-228.5954134212848
 11
-224.2197565457515
 21
-229.6642467546194
 72
     1
 10
-224.2197565457515
 20
-229.6642467546194
 11
-223.170098967844
 21
-229.6642467546194
 72
     1
 10
-223.170098967844
 20
-229.6642467546194
 11
-223.170098967844
 21
-228.5954134212848
 72
     1
 10
-223.170098967844
 20
-228.5954134212848
 11
-221.9773062656776
 21
-228.5954134212848
 97
       12
330
16C
330
16B
330
16A
330
152
330
153
330
169
330
154
330
168
330
167
330
166
330
150
330
151
 75
     1
 76
     0
 52
45.0
 41
0.1
 77
     0
 78
     1
 53
45.0
 43
0.0
 44
0.0
 45
-0.0707106781186548
 46
0.0707106781186548
 79
     0
 98
        1
 10
0.0
 20
0.0
  0
HATCH
  5
255
330
74
100
AcDbEntity
  8
1
  6
Continuous
 62
     2
100
AcDbHatch
 10
0.0
 20
0.0
 30
0.0
210
0.0
220
0.0
230
1.0
  2
_USER
 70
     0
 71
     1
 91
        1
 92
        1
 93
       12
 72
     1
 10
-221.9773062656776
 20
-228.5954134212848
 11
-221.9773062656776
 21
-231.649222945096
 72
     1
 10
-221.9773062656776
 20
-231.649222945096
 11
-223.170098967844
 21
-231.649222945096
 72
     1
 10
-223.170098967844
 20
-231.649222945096
 11
-223.170098967844
 21
-230.5149508362522
 72
     1
 10
-223.170098967844
 20
-230.5149508362522
 11
-224.2197565457515
 21
-230.5149508362522
 72
     1
 10
-224.2197565457515
 20
-230.5149508362522
 11
-224.2197565457515
 21
-231.649222945096
 72
     1
 10
-224.2197565457515
 20
-231.649222945096
 11
-225.4125492479181
 21
-231.649222945096
 72
     1
 10
-225.4125492479181
 20
-231.649222945096
 11
-225.4125492479181
 21
-228.5954134212848
 72
     1
 10
-225.4125492479181
 20
-228.5954134212848
 11
-224.2197565457515
 21
-228.5954134212848
 72
     1
 10
-224.2197565457515
 20
-228.5954134212848
 11
-224.2197565457515
 21
-229.6642467546194
 72
     1
 10
-224.2197565457515
 20
-229.6642467546194
 11
-223.170098967844
 21
-229.6642467546194
 72
     1
 10
-223.170098967844
 20
-229.6642467546194
 11
-223.170098967844
 21
-228.5954134212848
 72
     1
 10
-223.170098967844
 20
-228.5954134212848
 11
-221.9773062656776
 21
-228.5954134212848
 97
       12
330
16C
330
16B
330
16A
330
152
330
153
330
169
330
154
330
168
330
167
330
166
330
150
330
151
 75
     1
 76
     0
 52
45.0
 41
0.1
 77
     0
 78
     1
 53
45.0
 43
0.0
 44
0.0
 45
-0.0707106781186548
 46
0.0707106781186548
 79
     0
 98
        1
 10
0.0
 20
0.0
  0
ENDBLK
  5
76
330
74
100
AcDbEntity
  8
0
100
AcDbBlockEnd
  0
BLOCK
  5
7A
330
77
100
AcDbEntity
  8
0
100
AcDbBlockBegin
  2
A4I_CS
 70
     0
 10
-110.1000024518887
 20
-247.3019134212867
 30
0.0
  3
A4I_CS
  1

  0
INSERT
  5
78
330
77
100
AcDbEntity
  8
1
100
AcDbBlockReference
  2
_punkt
 10
-110.1000024518887
 20
-242.3019134212866
 30
0.0
  0
INSERT
  5
79
330
77
100
AcDbEntity
  8
1
100
AcDbBlockReference
  2
_rahmen
 10
-110.1000024518887
 20
-247.3019134212867
 30
0.0
  0
ENDBLK
  5
7B
330
77
100
AcDbEntity
  8
0
100
AcDbBlockEnd
  0
BLOCK
  5
C1
330
B8
100
AcDbEntity
  8
0
100
AcDbBlockBegin
  2
*D16
 70
     1
 10
0.0
 20
0.0
 30
0.0
  3
*D16
  1

  0
LINE
  5
B9
330
B8
100
AcDbEntity
  8
1
  6
Continuous
 62
     2
100
AcDbLine
 10
-158.2999989525779
 20
-69.59079294483115
 30
0.0
 11
-158.2999989525779
 21
-73.09079294483115
 31
0.0
  0
LINE
  5
BA
330
B8
100
AcDbEntity
  8
1
  6
Continuous
 62
     2
100
AcDbLine
 10
-158.2999989525779
 20
-73.09079294483115
 30
0.0
 11
-158.2999989525779
 21
-77.89079294483116
 31
0.0
  0
LINE
  5
BB
330
B8
100
AcDbEntity
  8
1
  6
Continuous
 62
     2
100
AcDbLine
 10
-158.2999989525779
 20
-77.89079294483116
 30
0.0
 11
-158.2999989525779
 21
-81.39079294483116
 31
0.0
  0
LINE
  5
BC
330
B8
100
AcDbEntity
  8
1
  6
Continuous
 62
     2
100
AcDbLine
 10
-153.2999989525779
 20
-73.09079294483115
 30
0.0
 11
-159.0499989525779
 21
-73.09079294483115
 31
0.0
  0
LINE
  5
BD
330
B8
100
AcDbEntity
  8
1
  6
Continuous
 62
     2
100
AcDbLine
 10
-153.2999989525779
 20
-77.89079294483116
 30
0.0
 11
-159.0499989525779
 21
-77.89079294483116
 31
0.0
  0
SOLID
  5
BE
330
B8
100
AcDbEntity
  8
1
 62
     2
100
AcDbTrace
 10
-158.5303908233558
 20
-71.34079294483115
 30
0.0
 11
-158.0696070817999
 21
-71.34079294483115
 31
0.0
 12
-158.2999989525779
 22
-73.09079294483115
 32
0.0
 13
-158.2999989525779
 23
-73.09079294483115
 33
0.0
  0
SOLID
  5
BF
330
B8
100
AcDbEntity
  8
1
 62
     2
100
AcDbTrace
 10
-158.0696070817999
 20
-79.64079294483116
 30
0.0
 11
-158.5303908233558
 21
-79.64079294483116
 31
0.0
 12
-158.2999989525779
 22
-77.89079294483116
 32
0.0
 13
-158.2999989525779
 23
-77.89079294483116
 33
0.0
  0
MTEXT
  5
C0
330
B8
100
AcDbEntity
  8
1
 62
     3
100
AcDbMText
 10
-159.2249989525779
 20
-77.10954294483116
 30
0.0
 40
1.75
 41
0.0
 71
     7
 72
     1
  1
4,8
  7
CONVERTER_11
 11
0.0
 21
1.0
 31
0.0
 73
     1
 44
0.60024009603842
  0
ENDBLK
  5
C2
330
B8
100
AcDbEntity
  8
0
100
AcDbBlockEnd
  0
BLOCK
  5
10E
330
107
100
AcDbEntity
  8
0
100
AcDbBlockBegin
  2
*D17
 70
     1
 10
0.0
 20
0.0
 30
0.0
  3
*D17
  1

  0
LINE
  5
108
330
107
100
AcDbEntity
  8
1
  6
Continuous
 62
     2
100
AcDbLine
 10
-153.2999995000049
 20
-63.10296709396899
 30
0.0
 11
-135.2999995000049
 21
-63.10296709396899
 31
0.0
  0
LINE
  5
109
330
107
100
AcDbEntity
  8
1
  6
Continuous
 62
     2
100
AcDbLine
 10
-153.2999995000049
 20
-58.10296709396899
 30
0.0
 11
-153.2999995000049
 21
-63.85296709396899
 31
0.0
  0
LINE
  5
10A
330
107
100
AcDbEntity
  8
1
  6
Continuous
 62
     2
100
AcDbLine
 10
-135.2999995000049
 20
-58.10296709396899
 30
0.0
 11
-135.2999995000049
 21
-63.85296709396899
 31
0.0
  0
SOLID
  5
10B
330
107
100
AcDbEntity
  8
1
 62
     2
100
AcDbTrace
 10
-151.5499995000049
 20
-62.87257522319105
 30
0.0
 11
-151.5499995000049
 21
-63.33335896474694
 31
0.0
 12
-153.2999995000049
 22
-63.10296709396899
 32
0.0
 13
-153.2999995000049
 23
-63.10296709396899
 33
0.0
  0
SOLID
  5
10C
330
107
100
AcDbEntity
  8
1
 62
     2
100
AcDbTrace
 10
-137.0499995000049
 20
-63.33335896474694
 30
0.0
 11
-137.0499995000049
 21
-62.87257522319105
 31
0.0
 12
-135.2999995000049
 22
-63.10296709396899
 32
0.0
 13
-135.2999995000049
 23
-63.10296709396899
 33
0.0
  0
MTEXT
  5
10D
330
107
100
AcDbEntity
  8
1
 62
     3
100
AcDbMText
 10
-145.3499995000049
 20
-62.35296709396899
 30
0.0
 40
1.75
 41
0.0
 71
     7
 72
     1
  1
18
  7
CONVERTER_11
 11
0.9999999999970619
 21
2.424068405545306E-6
 31
0.0
 73
     1
 44
0.60024009603842
  0
ENDBLK
  5
10F
330
107
100
AcDbEntity
  8
0
100
AcDbBlockEnd
  0
BLOCK
  5
119
330
112
100
AcDbEntity
  8
0
100
AcDbBlockBegin
  2
*D18
 70
     1
 10
0.0
 20
0.0
 30
0.0
  3
*D18
  1

  0
LINE
  5
113
330
112
100
AcDbEntity
  8
1
  6
Continuous
 62
     2
100
AcDbLine
 10
-158.2999995000049
 20
-58.10296709396899
 30
0.0
 11
-158.2999995000049
 21
-50.90296709396905
 31
0.0
  0
LINE
  5
114
330
112
100
AcDbEntity
  8
1
  6
Continuous
 62
     2
100
AcDbLine
 10
-153.2999995000049
 20
-58.10296709396899
 30
0.0
 11
-159.0499995000049
 21
-58.10296709396899
 31
0.0
  0
LINE
  5
115
330
112
100
AcDbEntity
  8
1
  6
Continuous
 62
     2
100
AcDbLine
 10
-153.2999995000049
 20
-50.90296709396905
 30
0.0
 11
-159.0499995000049
 21
-50.90296709396905
 31
0.0
  0
SOLID
  5
116
330
112
100
AcDbEntity
  8
1
 62
     2
100
AcDbTrace
 10
-158.5303913707828
 20
-56.35296709396899
 30
0.0
 11
-158.069607629227
 21
-56.35296709396899
 31
0.0
 12
-158.2999995000049
 22
-58.10296709396899
 32
0.0
 13
-158.2999995000049
 23
-58.10296709396899
 33
0.0
  0
SOLID
  5
117
330
112
100
AcDbEntity
  8
1
 62
     2
100
AcDbTrace
 10
-158.069607629227
 20
-52.65296709396905
 30
0.0
 11
-158.5303913707828
 21
-52.65296709396905
 31
0.0
 12
-158.2999995000049
 22
-50.90296709396905
 32
0.0
 13
-158.2999995000049
 23
-50.90296709396905
 33
0.0
  0
MTEXT
  5
118
330
112
100
AcDbEntity
  8
1
 62
     3
100
AcDbMText
 10
-159.2249995000049
 20
-56.12171709396902
 30
0.0
 40
1.75
 41
0.0
 71
     7
 72
     1
  1
7,2
  7
CONVERTER_11
 11
0.0
 21
1.0
 31
0.0
 73
     1
 44
0.60024009603842
  0
ENDBLK
  5
11A
330
112
100
AcDbEntity
  8
0
100
AcDbBlockEnd
  0
ENDSEC
  0
SECTION
  2
ENTITIES
  0
INSERT
  5
7C
330
1F
100
AcDbEntity
  8
0
100
AcDbBlockReference
  2
Allg1
 10
-163.000001843412
 20
-174.000001596432
 30
0.0
 41
2.0
 42
2.0
 43
2.0
  0
INSERT
  5
7D
330
1F
100
AcDbEntity
  8
0
100
AcDbBlockReference
  2
Drfsicht1
 10
-288.5999979051458
 20
-150.9815775678073
 30
0.0
 41
2.0
 42
2.0
 43
2.0
  0
INSERT
  5
7E
330
1F
100
AcDbEntity
  8
0
100
AcDbBlockReference
  2
Rckans1
 10
-178.999999999975
 20
-108.9999999999999
 30
0.0
 41
2.0
 42
2.0
 43
2.0
  0
INSERT
  5
7F
330
1F
100
AcDbEntity
  8
0
100
AcDbBlockReference
  2
SA_Links1
 10
-233.8000001479366
 20
-109.0
 30
0.0
 41
2.0
 42
2.0
 43
2.0
  0
INSERT
  5
80
330
1F
100
AcDbEntity
  8
0
100
AcDbBlockReference
  2
SA_Rechts1
 10
-353.3999965819576
 20
-108.9999999999999
 30
0.0
 41
2.0
 42
2.0
 43
2.0
  0
INSERT
  5
81
330
1F
100
AcDbEntity
  8
0
100
AcDbBlockReference
  2
Vordans1
 10
-288.5999989999998
 20
-108.9999999999999
 30
0.0
 41
2.0
 42
2.0
 43
2.0
  0
INSERT
  5
82
330
1F
100
AcDbEntity
  8
0
100
AcDbBlockReference
  2
A4I_CS
 10
-110.1000024518887
 20
-247.3019134212867
 30
0.0
  0
ENDSEC
  0
SECTION
  2
OBJECTS
  0
DICTIONARY
  5
C
330
0
100
AcDbDictionary
281
     1
  3
ACAD_GROUP
350
D
  3
ACAD_LAYOUT
350
1A
  3
ACAD_MATERIAL
350
3B
  3
ACAD_MLEADERSTYLE
350
258
  3
ACAD_MLINESTYLE
350
17
  3
ACAD_PLOTSETTINGS
350
19
  3
ACAD_PLOTSTYLENAME
350
E
  3
ACAD_VISUALSTYLE
350
2A
  3
AcDbVariableDictionary
350
256
  0
DICTIONARY
  5
D
102
{ACAD_REACTORS
330
C
102
}
330
C
100
AcDbDictionary
281
     1
  0
DICTIONARY
  5
1A
102
{ACAD_REACTORS
330
C
102
}
330
C
100
AcDbDictionary
281
     1
  3
Layout1
350
1E
  3
Layout2
350
26
  3
Model
350
22
  0
DICTIONARY
  5
3B
102
{ACAD_REACTORS
330
C
102
}
330
C
100
AcDbDictionary
281
     1
  3
ByBlock
350
3D
  3
ByLayer
350
3C
  3
Global
350
3E
  0
DICTIONARY
  5
258
102
{ACAD_REACTORS
330
C
102
}
330
C
100
AcDbDictionary
281
     1
  0
DICTIONARY
  5
17
102
{ACAD_REACTORS
330
C
102
}
330
C
100
AcDbDictionary
281
     1
  3
Standard
350
18
  0
DICTIONARY
  5
19
102
{ACAD_REACTORS
330
C
102
}
330
C
100
AcDbDictionary
281
     1
  0
ACDBDICTIONARYWDFLT
  5
E
102
{ACAD_REACTORS
330
C
102
}
330
C
100
AcDbDictionary
281
     1
  3
Normal
350
F
100
AcDbDictionaryWithDefault
340
F
  0
DICTIONARY
  5
2A
102
{ACAD_REACTORS
330
C
102
}
330
C
100
AcDbDictionary
281
     1
  3
2dWireframe
350
2F
  3
3D Hidden
350
31
  3
3dWireframe
350
30
  3
Basic
350
32
  3
Brighten
350
36
  3
ColorChange
350
3A
  3
Conceptual
350
34
  3
Dim
350
35
  3
Facepattern
350
39
  3
Flat
350
2B
  3
FlatWithEdges
350
2C
  3
Gouraud
350
2D
  3
GouraudWithEdges
350
2E
  3
Linepattern
350
38
  3
Realistic
350
33
  3
Thicken
350
37
  0
DICTIONARY
  5
256
102
{ACAD_REACTORS
330
C
102
}
330
C
100
AcDbDictionary
281
     1
  3
DIMASSOC
350
259
  3
HIDETEXT
350
25A
  0
LAYOUT
  5
1E
102
{ACAD_REACTORS
330
1A
102
}
330
1A
100
AcDbPlotSettings
  1

  2
none_device
  4

  6

 40
0.0
 41
0.0
 42
0.0
 43
0.0
 44
0.0
 45
0.0
 46
0.0
 47
0.0
 48
0.0
 49
0.0
140
0.0
141
0.0
142
1.0
143
1.0
 70
   688
 72
     0
 73
     0
 74
     5
  7

 75
    16
147
1.0
148
0.0
149
0.0
100
AcDbLayout
  1
Layout1
 70
     1
 71
     1
 10
0.0
 20
0.0
 11
12.0
 21
9.0
 12
0.0
 22
0.0
 32
0.0
 14
1.00000000000000E+20
 24
1.00000000000000E+20
 34
1.00000000000000E+20
 15
-1.00000000000000E+20
 25
-1.00000000000000E+20
 35
-1.00000000000000E+20
146
0.0
 13
0.0
 23
0.0
 33
0.0
 16
1.0
 26
0.0
 36
0.0
 17
0.0
 27
1.0
 37
0.0
 76
     0
330
1B
  0
LAYOUT
  5
26
102
{ACAD_REACTORS
330
1A
102
}
330
1A
100
AcDbPlotSettings
  1

  2
none_device
  4

  6

 40
0.0
 41
0.0
 42
0.0
 43
0.0
 44
0.0
 45
0.0
 46
0.0
 47
0.0
 48
0.0
 49
0.0
140
0.0
141
0.0
142
1.0
143
1.0
 70
   688
 72
     0
 73
     0
 74
     5
  7

 75
    16
147
1.0
148
0.0
149
0.0
100
AcDbLayout
  1
Layout2
 70
     1
 71
     2
 10
0.0
 20
0.0
 11
0.0
 21
0.0
 12
0.0
 22
0.0
 32
0.0
 14
0.0
 24
0.0
 34
0.0
 15
0.0
 25
0.0
 35
0.0
146
0.0
 13
0.0
 23
0.0
 33
0.0
 16
1.0
 26
0.0
 36
0.0
 17
0.0
 27
1.0
 37
0.0
 76
     0
330
23
  0
LAYOUT
  5
22
102
{ACAD_REACTORS
330
1A
102
}
330
1A
100
AcDbPlotSettings
  1

  2
none_device
  4

  6

 40
0.0
 41
0.0
 42
0.0
 43
0.0
 44
0.0
 45
0.0
 46
0.0
 47
0.0
 48
0.0
 49
0.0
140
0.0
141
0.0
142
1.0
143
1.0
 70
  1712
 72
     0
 73
     0
 74
     0
  7

 75
     0
147
1.0
148
0.0
149
0.0
100
AcDbLayout
  1
Model
 70
     1
 71
     0
 10
0.0
 20
0.0
 11
12.0
 21
9.0
 12
0.0
 22
0.0
 32
0.0
 14
-402.1000024518878
 24
-247.3019134212867
 34
0.0
 15
-105.1000024518897
 25
-37.3019134212866
 35
0.0
146
0.0
 13
0.0
 23
0.0
 33
0.0
 16
1.0
 26
0.0
 36
0.0
 17
0.0
 27
1.0
 37
0.0
 76
     0
330
1F
331
29
  0
MATERIAL
  5
3D
102
{ACAD_REACTORS
330
3B
102
}
102
{ACAD_XDICTIONARY
360
27D
102
}
330
3B
100
AcDbMaterial
  1
ByBlock
  0
MATERIAL
  5
3C
102
{ACAD_REACTORS
330
3B
102
}
102
{ACAD_XDICTIONARY
360
27B
102
}
330
3B
100
AcDbMaterial
  1
ByLayer
  0
MATERIAL
  5
3E
102
{ACAD_REACTORS
330
3B
102
}
102
{ACAD_XDICTIONARY
360
27F
102
}
330
3B
100
AcDbMaterial
  1
Global
  0
MLINESTYLE
  5
18
102
{ACAD_REACTORS
330
17
102
}
330
17
100
AcDbMlineStyle
  2
Standard
 70
     0
  3

 62
   256
 51
90.0
 52
90.0
 71
     2
 49
0.5
 62
   256
  6
BYLAYER
 49
-0.5
 62
   256
  6
BYLAYER
  0
ACDBPLACEHOLDER
  5
F
102
{ACAD_REACTORS
330
E
102
}
330
E
  0
VISUALSTYLE
  5
2F
102
{ACAD_REACTORS
330
2A
102
}
102
{ACAD_XDICTIONARY
360
263
102
}
330
2A
100
AcDbVisualStyle
  2
2dWireframe
 70
     4
 71
     0
 72
     2
 73
     0
 90
        0
 40
-0.6
 41
-30.0
 62
     5
 63
     7
 74
     1
 91
        4
 64
     7
 65
   257
 75
     1
175
     1
 42
1.0
 92
        0
 66
   257
 43
1.0
 76
     1
 77
     6
 78
     2
 67
     7
 79
     5
170
     0
171
     0
290
     0
174
     0
 93
        1
 44
0.0
173
     0
291
     0
 45
0.0
1001
ACAD
1000
AcDbSavedByObjectVersion
1070
     0
  0
VISUALSTYLE
  5
31
102
{ACAD_REACTORS
330
2A
102
}
102
{ACAD_XDICTIONARY
360
267
102
}
330
2A
100
AcDbVisualStyle
  2
3D Hidden
 70
     6
 71
     1
 72
     2
 73
     2
 90
        0
 40
-0.6
 41
-30.0
 62
     5
 63
     7
 74
     2
 91
        2
 64
     7
 65
   257
 75
     2
175
     1
 42
40.0
 92
        0
 66
   257
 43
1.0
 76
     1
 77
     6
 78
     2
 67
     7
 79
     3
170
     0
171
     0
290
     0
174
     0
 93
        1
 44
0.0
173
     0
291
     0
 45
0.0
1001
ACAD
1000
AcDbSavedByObjectVersion
1070
     0
  0
VISUALSTYLE
  5
30
102
{ACAD_REACTORS
330
2A
102
}
102
{ACAD_XDICTIONARY
360
265
102
}
330
2A
100
AcDbVisualStyle
  2
3dWireframe
 70
     5
 71
     0
 72
     2
 73
     0
 90
        0
 40
-0.6
 41
-30.0
 62
     5
 63
     7
 74
     1
 91
        4
 64
     7
 65
   257
 75
     1
175
     1
 42
1.0
 92
        0
 66
   257
 43
1.0
 76
     1
 77
     6
 78
     2
 67
     7
 79
     5
170
     0
171
     0
290
     0
174
     0
 93
        1
 44
0.0
173
     0
291
     0
 45
0.0
1001
ACAD
1000
AcDbSavedByObjectVersion
1070
     0
  0
VISUALSTYLE
  5
32
102
{ACAD_REACTORS
330
2A
102
}
102
{ACAD_XDICTIONARY
360
269
102
}
330
2A
100
AcDbVisualStyle
  2
Basic
 70
     7
 71
     1
 72
     0
 73
     1
 90
        0
 40
-0.6
 41
-30.0
 62
     5
 63
     7
 74
     0
 91
        4
 64
     7
 65
   257
 75
     1
175
     1
 42
1.0
 92
        8
 66
     7
 43
1.0
 76
     1
 77
     6
 78
     2
 67
     7
 79
     5
170
     0
171
     0
290
     0
174
     0
 93
        1
 44
0.0
173
     0
291
     1
 45
0.0
1001
ACAD
1000
AcDbSavedByObjectVersion
1070
     0
  0
VISUALSTYLE
  5
36
102
{ACAD_REACTORS
330
2A
102
}
102
{ACAD_XDICTIONARY
360
271
102
}
330
2A
100
AcDbVisualStyle
  2
Brighten
 70
    12
 71
     2
 72
     2
 73
     0
 90
        0
 40
-0.6
 41
-30.0
 62
     5
 63
     7
 74
     1
 91
        4
 64
     7
 65
   257
 75
     1
175
     1
 42
1.0
 92
        8
 66
     7
 43
1.0
 76
     1
 77
     6
 78
     2
 67
     7
 79
     5
170
     0
171
     0
290
     0
174
     0
 93
        1
 44
50.0
173
     0
291
     1
 45
0.0
1001
ACAD
1000
AcDbSavedByObjectVersion
1070
     0
  0
VISUALSTYLE
  5
3A
102
{ACAD_REACTORS
330
2A
102
}
102
{ACAD_XDICTIONARY
360
279
102
}
330
2A
100
AcDbVisualStyle
  2
ColorChange
 70
    16
 71
     2
 72
     2
 73
     3
 90
        0
 40
-0.6
 41
-30.0
 62
     5
 63
     8
 74
     1
 91
        4
 64
     7
 65
   257
 75
     1
175
     1
 42
1.0
 92
        8
 66
     8
 43
1.0
 76
     1
 77
     6
 78
     2
 67
     7
 79
     5
170
     0
171
     0
290
     0
174
     0
 93
        1
 44
0.0
173
     0
291
     1
 45
0.0
1001
ACAD
1000
AcDbSavedByObjectVersion
1070
     0
  0
VISUALSTYLE
  5
34
102
{ACAD_REACTORS
330
2A
102
}
102
{ACAD_XDICTIONARY
360
26D
102
}
330
2A
100
AcDbVisualStyle
  2
Conceptual
 70
     9
 71
     3
 72
     2
 73
     0
 90
        0
 40
-0.6
 41
-30.0
 62
     5
 63
     7
 74
     2
 91
        2
 64
     7
 65
   257
 75
     1
175
     1
 42
40.0
 92
        8
 66
     7
 43
1.0
 76
     1
 77
     6
 78
     2
 67
     7
 79
     3
170
     0
171
     0
290
     0
174
     0
 93
        1
 44
0.0
173
     0
291
     0
 45
0.0
1001
ACAD
1000
AcDbSavedByObjectVersion
1070
     0
  0
VISUALSTYLE
  5
35
102
{ACAD_REACTORS
330
2A
102
}
102
{ACAD_XDICTIONARY
360
26F
102
}
330
2A
100
AcDbVisualStyle
  2
Dim
 70
    11
 71
     2
 72
     2
 73
     0
 90
        0
 40
-0.6
 41
-30.0
 62
     5
 63
     7
 74
     1
 91
        4
 64
     7
 65
   257
 75
     1
175
     1
 42
1.0
 92
        8
 66
     7
 43
1.0
 76
     1
 77
     6
 78
     2
 67
     7
 79
     5
170
     0
171
     0
290
     0
174
     0
 93
        1
 44
-50.0
173
     0
291
     1
 45
0.0
1001
ACAD
1000
AcDbSavedByObjectVersion
1070
     0
  0
VISUALSTYLE
  5
39
102
{ACAD_REACTORS
330
2A
102
}
102
{ACAD_XDICTIONARY
360
277
102
}
330
2A
100
AcDbVisualStyle
  2
Facepattern
 70
    15
 71
     2
 72
     2
 73
     0
 90
        0
 40
-0.6
 41
-30.0
 62
     5
 63
     7
 74
     1
 91
        4
 64
     7
 65
   257
 75
     1
175
     1
 42
1.0
 92
        8
 66
     7
 43
1.0
 76
     1
 77
     6
 78
     2
 67
     7
 79
     5
170
     0
171
     0
290
     0
174
     0
 93
        1
 44
0.0
173
     0
291
     1
 45
0.0
1001
ACAD
1000
AcDbSavedByObjectVersion
1070
     0
  0
VISUALSTYLE
  5
2B
102
{ACAD_REACTORS
330
2A
102
}
102
{ACAD_XDICTIONARY
360
25B
102
}
330
2A
100
AcDbVisualStyle
  2
Flat
 70
     0
 71
     2
 72
     1
 73
     1
 90
        2
 40
-0.6
 41
30.0
 62
     5
 63
     7
 74
     0
 91
        4
 64
     7
 65
   257
 75
     1
175
     1
 42
1.0
 92
        8
 66
     7
 43
1.0
 76
     1
 77
     6
 78
     2
 67
     7
 79
     5
170
     0
171
     0
290
     0
174
     0
 93
       13
 44
0.0
173
     0
291
     1
 45
0.0
1001
ACAD
1000
AcDbSavedByObjectVersion
1070
     0
  0
VISUALSTYLE
  5
2C
102
{ACAD_REACTORS
330
2A
102
}
102
{ACAD_XDICTIONARY
360
25D
102
}
330
2A
100
AcDbVisualStyle
  2
FlatWithEdges
 70
     1
 71
     2
 72
     1
 73
     1
 90
        2
 40
-0.6
 41
30.0
 62
     5
 63
     7
 74
     1
 91
        4
 64
     7
 65
   257
 75
     1
175
     1
 42
1.0
 92
        0
 66
   257
 43
1.0
 76
     1
 77
     6
 78
     2
 67
     7
 79
     5
170
     0
171
     0
290
     0
174
     0
 93
       13
 44
0.0
173
     0
291
     1
 45
0.0
1001
ACAD
1000
AcDbSavedByObjectVersion
1070
     0
  0
VISUALSTYLE
  5
2D
102
{ACAD_REACTORS
330
2A
102
}
102
{ACAD_XDICTIONARY
360
25F
102
}
330
2A
100
AcDbVisualStyle
  2
Gouraud
 70
     2
 71
     2
 72
     2
 73
     1
 90
        2
 40
-0.6
 41
30.0
 62
     5
 63
     7
 74
     0
 91
        4
 64
     7
 65
   257
 75
     1
175
     1
 42
1.0
 92
        0
 66
     7
 43
1.0
 76
     1
 77
     6
 78
     2
 67
     7
 79
     5
170
     0
171
     0
290
     0
174
     0
 93
       13
 44
0.0
173
     0
291
     1
 45
0.0
1001
ACAD
1000
AcDbSavedByObjectVersion
1070
     0
  0
VISUALSTYLE
  5
2E
102
{ACAD_REACTORS
330
2A
102
}
102
{ACAD_XDICTIONARY
360
261
102
}
330
2A
100
AcDbVisualStyle
  2
GouraudWithEdges
 70
     3
 71
     2
 72
     2
 73
     1
 90
        2
 40
-0.6
 41
30.0
 62
     5
 63
     7
 74
     1
 91
        4
 64
     7
 65
   257
 75
     1
175
     1
 42
1.0
 92
        0
 66
   257
 43
1.0
 76
     1
 77
     6
 78
     2
 67
     7
 79
     5
170
     0
171
     0
290
     0
174
     0
 93
       13
 44
0.0
173
     0
291
     1
 45
0.0
1001
ACAD
1000
AcDbSavedByObjectVersion
1070
     0
  0
VISUALSTYLE
  5
38
102
{ACAD_REACTORS
330
2A
102
}
102
{ACAD_XDICTIONARY
360
275
102
}
330
2A
100
AcDbVisualStyle
  2
Linepattern
 70
    14
 71
     2
 72
     2
 73
     0
 90
        0
 40
-0.6
 41
-30.0
 62
     5
 63
     7
 74
     1
 91
        4
 64
     7
 65
   257
 75
     7
175
     7
 42
1.0
 92
        8
 66
     7
 43
1.0
 76
     1
 77
     6
 78
     2
 67
     7
 79
     5
170
     0
171
     0
290
     0
174
     0
 93
        1
 44
0.0
173
     0
291
     1
 45
0.0
1001
ACAD
1000
AcDbSavedByObjectVersion
1070
     0
  0
VISUALSTYLE
  5
33
102
{ACAD_REACTORS
330
2A
102
}
102
{ACAD_XDICTIONARY
360
26B
102
}
330
2A
100
AcDbVisualStyle
  2
Realistic
 70
     8
 71
     2
 72
     2
 73
     0
 90
        0
 40
-0.6
 41
-30.0
 62
     5
 63
     7
 74
     1
 91
        0
 64
     7
 65
   257
 75
     1
175
     1
 42
1.0
 92
        8
 66
     8
 43
1.0
 76
     1
 77
     6
 78
     2
 67
     7
 79
     5
170
     0
171
     0
290
     0
174
     0
 93
       13
 44
0.0
173
     0
291
     0
 45
0.0
1001
ACAD
1000
AcDbSavedByObjectVersion
1070
     0
  0
VISUALSTYLE
  5
37
102
{ACAD_REACTORS
330
2A
102
}
102
{ACAD_XDICTIONARY
360
273
102
}
330
2A
100
AcDbVisualStyle
  2
Thicken
 70
    13
 71
     2
 72
     2
 73
     0
 90
        0
 40
-0.6
 41
-30.0
 62
     5
 63
     7
 74
     1
 91
        4
 64
     7
 65
   257
 75
     1
175
     1
 42
1.0
 92
       12
 66
     7
 43
1.0
 76
     1
 77
     6
 78
     2
 67
     7
 79
     5
170
     0
171
     0
290
     0
174
     0
 93
        1
 44
0.0
173
     0
291
     1
 45
0.0
1001
ACAD
1000
AcDbSavedByObjectVersion
1070
     0
  0
DICTIONARYVAR
  5
259
102
{ACAD_REACTORS
330
256
102
}
330
256
100
DictionaryVariables
280
     0
  1
2
  0
DICTIONARYVAR
  5
25A
102
{ACAD_REACTORS
330
256
102
}
330
256
100
DictionaryVariables
280
     0
  1
1
  0
DICTIONARY
  5
27D
330
3D
100
AcDbDictionary
280
     1
281
     1
  3
ACAD_XREC_ROUNDTRIP
360
27E
  0
DICTIONARY
  5
27B
330
3C
100
AcDbDictionary
280
     1
281
     1
  3
ACAD_XREC_ROUNDTRIP
360
27C
  0
DICTIONARY
  5
27F
330
3E
100
AcDbDictionary
280
     1
281
     1
  3
ACAD_XREC_ROUNDTRIP
360
280
  0
DICTIONARY
  5
263
330
2F
100
AcDbDictionary
280
     1
281
     1
  3
ACAD_XREC_ROUNDTRIP
360
264
  0
DICTIONARY
  5
267
330
31
100
AcDbDictionary
280
     1
281
     1
  3
ACAD_XREC_ROUNDTRIP
360
268
  0
DICTIONARY
  5
265
330
30
100
AcDbDictionary
280
     1
281
     1
  3
ACAD_XREC_ROUNDTRIP
360
266
  0
DICTIONARY
  5
269
330
32
100
AcDbDictionary
280
     1
281
     1
  3
ACAD_XREC_ROUNDTRIP
360
26A
  0
DICTIONARY
  5
271
330
36
100
AcDbDictionary
280
     1
281
     1
  3
ACAD_XREC_ROUNDTRIP
360
272
  0
DICTIONARY
  5
279
330
3A
100
AcDbDictionary
280
     1
281
     1
  3
ACAD_XREC_ROUNDTRIP
360
27A
  0
DICTIONARY
  5
26D
330
34
100
AcDbDictionary
280
     1
281
     1
  3
ACAD_XREC_ROUNDTRIP
360
26E
  0
DICTIONARY
  5
26F
330
35
100
AcDbDictionary
280
     1
281
     1
  3
ACAD_XREC_ROUNDTRIP
360
270
  0
DICTIONARY
  5
277
330
39
100
AcDbDictionary
280
     1
281
     1
  3
ACAD_XREC_ROUNDTRIP
360
278
  0
DICTIONARY
  5
25B
330
2B
100
AcDbDictionary
280
     1
281
     1
  3
ACAD_XREC_ROUNDTRIP
360
25C
  0
DICTIONARY
  5
25D
330
2C
100
AcDbDictionary
280
     1
281
     1
  3
ACAD_XREC_ROUNDTRIP
360
25E
  0
DICTIONARY
  5
25F
330
2D
100
AcDbDictionary
280
     1
281
     1
  3
ACAD_XREC_ROUNDTRIP
360
260
  0
DICTIONARY
  5
261
330
2E
100
AcDbDictionary
280
     1
281
     1
  3
ACAD_XREC_ROUNDTRIP
360
262
  0
DICTIONARY
  5
275
330
38
100
AcDbDictionary
280
     1
281
     1
  3
ACAD_XREC_ROUNDTRIP
360
276
  0
DICTIONARY
  5
26B
330
33
100
AcDbDictionary
280
     1
281
     1
  3
ACAD_XREC_ROUNDTRIP
360
26C
  0
DICTIONARY
  5
273
330
37
100
AcDbDictionary
280
     1
281
     1
  3
ACAD_XREC_ROUNDTRIP
360
274
  0
XRECORD
  5
27E
102
{ACAD_REACTORS
330
27D
102
}
330
27D
100
AcDbXrecord
280
     1
102
MATERIAL
148
0.0
149
0.0
149
0.0
 93
        0
 94
      127
282
     0
 72
     1
 77
     1
171
     1
175
     1
179
     1
273
     0
  0
XRECORD
  5
27C
102
{ACAD_REACTORS
330
27B
102
}
330
27B
100
AcDbXrecord
280
     1
102
MATERIAL
148
0.0
149
0.0
149
0.0
 93
        0
 94
      127
282
     0
 72
     1
 77
     1
171
     1
175
     1
179
     1
273
     0
  0
XRECORD
  5
280
102
{ACAD_REACTORS
330
27F
102
}
330
27F
100
AcDbXrecord
280
     1
102
MATERIAL
148
0.0
149
0.0
149
0.0
 93
        0
 94
      127
282
     0
 72
     1
 77
     1
171
     1
175
     1
179
     1
273
     0
  0
XRECORD
  5
264
102
{ACAD_REACTORS
330
263
102
}
330
263
100
AcDbXrecord
280
     1
102
RTVSPropertyOp0
 70
     1
102
RTVSPropertyOp1
 70
     1
102
RTVSPropertyOp2
 70
     1
102
RTVSPropertyOp3
 70
     1
102
RTVSPropertyOp4
 70
     1
102
RTVSPropertyOp5
 70
     1
102
RTVSPropertyOp6
 70
     1
102
RTVSPropertyOp7
 70
     1
102
RTVSPropertyOp8
 70
     1
102
RTVSPropertyOp9
 70
     1
102
RTVSPropertyOp10
 70
     1
102
RTVSPropertyOp11
 70
     1
102
RTVSPropertyOp12
 70
     1
102
RTVSPropertyOp13
 70
     1
102
RTVSPropertyOp14
 70
     1
102
RTVSPropertyOp15
 70
     1
102
RTVSPropertyOp16
 70
     1
102
RTVSPropertyOp17
 70
     1
102
RTVSPropertyOp18
 70
     1
102
RTVSPropertyOp19
 70
     1
102
RTVSPropertyOp20
 70
     1
102
RTVSPropertyOp21
 70
     1
102
RTVSPropertyOp22
 70
     1
102
RTVSPropertyOp23
 70
     1
102
RTVSPropertyOp24
 70
     1
102
RTVSPropertyOp25
 70
     1
102
RTVSPropertyOp26
 70
     1
102
RTVSPropertyOp27
 70
     1
102
RTVSPropertyOp28
 70
     1
102
RTVSPropertyOp29
 70
     1
102
RTVSPropertyOp30
 70
     1
102
RTVSPropertyOp31
 70
     1
102
RTVSPropertyOp32
 70
     1
  0
XRECORD
  5
268
102
{ACAD_REACTORS
330
267
102
}
330
267
100
AcDbXrecord
280
     1
102
RTVSPropertyOp0
 70
     1
102
RTVSPropertyOp1
 70
     1
102
RTVSPropertyOp2
 70
     1
102
RTVSPropertyOp3
 70
     1
102
RTVSPropertyOp4
 70
     1
102
RTVSPropertyOp5
 70
     1
102
RTVSPropertyOp6
 70
     1
102
RTVSPropertyOp7
 70
     1
102
RTVSPropertyOp8
 70
     1
102
RTVSPropertyOp9
 70
     1
102
RTVSPropertyOp10
 70
     1
102
RTVSPropertyOp11
 70
     1
102
RTVSPropertyOp12
 70
     1
102
RTVSPropertyOp13
 70
     1
102
RTVSPropertyOp14
 70
     1
102
RTVSPropertyOp15
 70
     1
102
RTVSPropertyOp16
 70
     1
102
RTVSPropertyOp17
 70
     1
102
RTVSPropertyOp18
 70
     1
102
RTVSPropertyOp19
 70
     1
102
RTVSPropertyOp20
 70
     1
102
RTVSPropertyOp21
 70
     1
102
RTVSPropertyOp22
 70
     1
102
RTVSPropertyOp23
 70
     1
102
RTVSPropertyOp24
 70
     1
102
RTVSPropertyOp25
 70
     1
102
RTVSPropertyOp26
 70
     1
102
RTVSPropertyOp27
 70
     1
102
RTVSPropertyOp28
 70
     1
102
RTVSPropertyOp29
 70
     1
102
RTVSPropertyOp30
 70
     1
102
RTVSPropertyOp31
 70
     1
102
RTVSPropertyOp32
 70
     1
  0
XRECORD
  5
266
102
{ACAD_REACTORS
330
265
102
}
330
265
100
AcDbXrecord
280
     1
102
RTVSPropertyOp0
 70
     1
102
RTVSPropertyOp1
 70
     1
102
RTVSPropertyOp2
 70
     1
102
RTVSPropertyOp3
 70
     1
102
RTVSPropertyOp4
 70
     1
102
RTVSPropertyOp5
 70
     1
102
RTVSPropertyOp6
 70
     1
102
RTVSPropertyOp7
 70
     1
102
RTVSPropertyOp8
 70
     1
102
RTVSPropertyOp9
 70
     1
102
RTVSPropertyOp10
 70
     1
102
RTVSPropertyOp11
 70
     1
102
RTVSPropertyOp12
 70
     1
102
RTVSPropertyOp13
 70
     1
102
RTVSPropertyOp14
 70
     1
102
RTVSPropertyOp15
 70
     1
102
RTVSPropertyOp16
 70
     1
102
RTVSPropertyOp17
 70
     1
102
RTVSPropertyOp18
 70
     1
102
RTVSPropertyOp19
 70
     1
102
RTVSPropertyOp20
 70
     1
102
RTVSPropertyOp21
 70
     1
102
RTVSPropertyOp22
 70
     1
102
RTVSPropertyOp23
 70
     1
102
RTVSPropertyOp24
 70
     1
102
RTVSPropertyOp25
 70
     1
102
RTVSPropertyOp26
 70
     1
102
RTVSPropertyOp27
 70
     1
102
RTVSPropertyOp28
 70
     1
102
RTVSPropertyOp29
 70
     1
102
RTVSPropertyOp30
 70
     1
102
RTVSPropertyOp31
 70
     1
102
RTVSPropertyOp32
 70
     1
  0
XRECORD
  5
26A
102
{ACAD_REACTORS
330
269
102
}
330
269
100
AcDbXrecord
280
     1
102
RTVSPropertyOp0
 70
     1
102
RTVSPropertyOp1
 70
     1
102
RTVSPropertyOp2
 70
     1
102
RTVSPropertyOp3
 70
     1
102
RTVSPropertyOp4
 70
     1
102
RTVSPropertyOp5
 70
     1
102
RTVSPropertyOp6
 70
     1
102
RTVSPropertyOp7
 70
     1
102
RTVSPropertyOp8
 70
     1
102
RTVSPropertyOp9
 70
     1
102
RTVSPropertyOp10
 70
     1
102
RTVSPropertyOp11
 70
     1
102
RTVSPropertyOp12
 70
     1
102
RTVSPropertyOp13
 70
     1
102
RTVSPropertyOp14
 70
     1
102
RTVSPropertyOp15
 70
     1
102
RTVSPropertyOp16
 70
     1
102
RTVSPropertyOp17
 70
     1
102
RTVSPropertyOp18
 70
     1
102
RTVSPropertyOp19
 70
     1
102
RTVSPropertyOp20
 70
     1
102
RTVSPropertyOp21
 70
     1
102
RTVSPropertyOp22
 70
     1
102
RTVSPropertyOp23
 70
     1
102
RTVSPropertyOp24
 70
     1
102
RTVSPropertyOp25
 70
     1
102
RTVSPropertyOp26
 70
     1
102
RTVSPropertyOp27
 70
     1
102
RTVSPropertyOp28
 70
     1
102
RTVSPropertyOp29
 70
     1
102
RTVSPropertyOp30
 70
     1
102
RTVSPropertyOp31
 70
     1
102
RTVSPropertyOp32
 70
     1
  0
XRECORD
  5
272
102
{ACAD_REACTORS
330
271
102
}
330
271
100
AcDbXrecord
280
     1
102
RTVSPropertyOp0
 70
     1
102
RTVSPropertyOp1
 70
     1
102
RTVSPropertyOp2
 70
     1
102
RTVSPropertyOp3
 70
     1
102
RTVSPropertyOp4
 70
     1
102
RTVSPropertyOp5
 70
     1
102
RTVSPropertyOp6
 70
     1
102
RTVSPropertyOp7
 70
     1
102
RTVSPropertyOp8
 70
     1
102
RTVSPropertyOp9
 70
     1
102
RTVSPropertyOp10
 70
     1
102
RTVSPropertyOp11
 70
     1
102
RTVSPropertyOp12
 70
     1
102
RTVSPropertyOp13
 70
     1
102
RTVSPropertyOp14
 70
     1
102
RTVSPropertyOp15
 70
     1
102
RTVSPropertyOp16
 70
     1
102
RTVSPropertyOp17
 70
     1
102
RTVSPropertyOp18
 70
     1
102
RTVSPropertyOp19
 70
     1
102
RTVSPropertyOp20
 70
     1
102
RTVSPropertyOp21
 70
     1
102
RTVSPropertyOp22
 70
     1
102
RTVSPropertyOp23
 70
     1
102
RTVSPropertyOp24
 70
     1
102
RTVSPropertyOp25
 70
     1
102
RTVSPropertyOp26
 70
     1
102
RTVSPropertyOp27
 70
     1
102
RTVSPropertyOp28
 70
     1
102
RTVSPropertyOp29
 70
     1
102
RTVSPropertyOp30
 70
     1
102
RTVSPropertyOp31
 70
     1
102
RTVSPropertyOp32
 70
     1
  0
XRECORD
  5
27A
102
{ACAD_REACTORS
330
279
102
}
330
279
100
AcDbXrecord
280
     1
102
RTVSPropertyOp0
 70
     1
102
RTVSPropertyOp1
 70
     1
102
RTVSPropertyOp2
 70
     1
102
RTVSPropertyOp3
 70
     1
102
RTVSPropertyOp4
 70
     1
102
RTVSPropertyOp5
 70
     1
102
RTVSPropertyOp6
 70
     1
102
RTVSPropertyOp7
 70
     1
102
RTVSPropertyOp8
 70
     1
102
RTVSPropertyOp9
 70
     1
102
RTVSPropertyOp10
 70
     1
102
RTVSPropertyOp11
 70
     1
102
RTVSPropertyOp12
 70
     1
102
RTVSPropertyOp13
 70
     1
102
RTVSPropertyOp14
 70
     1
102
RTVSPropertyOp15
 70
     1
102
RTVSPropertyOp16
 70
     1
102
RTVSPropertyOp17
 70
     1
102
RTVSPropertyOp18
 70
     1
102
RTVSPropertyOp19
 70
     1
102
RTVSPropertyOp20
 70
     1
102
RTVSPropertyOp21
 70
     1
102
RTVSPropertyOp22
 70
     1
102
RTVSPropertyOp23
 70
     1
102
RTVSPropertyOp24
 70
     1
102
RTVSPropertyOp25
 70
     1
102
RTVSPropertyOp26
 70
     1
102
RTVSPropertyOp27
 70
     1
102
RTVSPropertyOp28
 70
     1
102
RTVSPropertyOp29
 70
     1
102
RTVSPropertyOp30
 70
     1
102
RTVSPropertyOp31
 70
     1
102
RTVSPropertyOp32
 70
     1
  0
XRECORD
  5
26E
102
{ACAD_REACTORS
330
26D
102
}
330
26D
100
AcDbXrecord
280
     1
102
RTVSPropertyOp0
 70
     1
102
RTVSPropertyOp1
 70
     1
102
RTVSPropertyOp2
 70
     1
102
RTVSPropertyOp3
 70
     1
102
RTVSPropertyOp4
 70
     1
102
RTVSPropertyOp5
 70
     1
102
RTVSPropertyOp6
 70
     1
102
RTVSPropertyOp7
 70
     1
102
RTVSPropertyOp8
 70
     1
102
RTVSPropertyOp9
 70
     1
102
RTVSPropertyOp10
 70
     1
102
RTVSPropertyOp11
 70
     1
102
RTVSPropertyOp12
 70
     1
102
RTVSPropertyOp13
 70
     1
102
RTVSPropertyOp14
 70
     1
102
RTVSPropertyOp15
 70
     1
102
RTVSPropertyOp16
 70
     1
102
RTVSPropertyOp17
 70
     1
102
RTVSPropertyOp18
 70
     1
102
RTVSPropertyOp19
 70
     1
102
RTVSPropertyOp20
 70
     1
102
RTVSPropertyOp21
 70
     1
102
RTVSPropertyOp22
 70
     1
102
RTVSPropertyOp23
 70
     1
102
RTVSPropertyOp24
 70
     1
102
RTVSPropertyOp25
 70
     1
102
RTVSPropertyOp26
 70
     1
102
RTVSPropertyOp27
 70
     1
102
RTVSPropertyOp28
 70
     1
102
RTVSPropertyOp29
 70
     1
102
RTVSPropertyOp30
 70
     1
102
RTVSPropertyOp31
 70
     1
102
RTVSPropertyOp32
 70
     1
  0
XRECORD
  5
270
102
{ACAD_REACTORS
330
26F
102
}
330
26F
100
AcDbXrecord
280
     1
102
RTVSPropertyOp0
 70
     1
102
RTVSPropertyOp1
 70
     1
102
RTVSPropertyOp2
 70
     1
102
RTVSPropertyOp3
 70
     1
102
RTVSPropertyOp4
 70
     1
102
RTVSPropertyOp5
 70
     1
102
RTVSPropertyOp6
 70
     1
102
RTVSPropertyOp7
 70
     1
102
RTVSPropertyOp8
 70
     1
102
RTVSPropertyOp9
 70
     1
102
RTVSPropertyOp10
 70
     1
102
RTVSPropertyOp11
 70
     1
102
RTVSPropertyOp12
 70
     1
102
RTVSPropertyOp13
 70
     1
102
RTVSPropertyOp14
 70
     1
102
RTVSPropertyOp15
 70
     1
102
RTVSPropertyOp16
 70
     1
102
RTVSPropertyOp17
 70
     1
102
RTVSPropertyOp18
 70
     1
102
RTVSPropertyOp19
 70
     1
102
RTVSPropertyOp20
 70
     1
102
RTVSPropertyOp21
 70
     1
102
RTVSPropertyOp22
 70
     1
102
RTVSPropertyOp23
 70
     1
102
RTVSPropertyOp24
 70
     1
102
RTVSPropertyOp25
 70
     1
102
RTVSPropertyOp26
 70
     1
102
RTVSPropertyOp27
 70
     1
102
RTVSPropertyOp28
 70
     1
102
RTVSPropertyOp29
 70
     1
102
RTVSPropertyOp30
 70
     1
102
RTVSPropertyOp31
 70
     1
102
RTVSPropertyOp32
 70
     1
  0
XRECORD
  5
278
102
{ACAD_REACTORS
330
277
102
}
330
277
100
AcDbXrecord
280
     1
102
RTVSPropertyOp0
 70
     1
102
RTVSPropertyOp1
 70
     1
102
RTVSPropertyOp2
 70
     1
102
RTVSPropertyOp3
 70
     1
102
RTVSPropertyOp4
 70
     1
102
RTVSPropertyOp5
 70
     1
102
RTVSPropertyOp6
 70
     1
102
RTVSPropertyOp7
 70
     1
102
RTVSPropertyOp8
 70
     1
102
RTVSPropertyOp9
 70
     1
102
RTVSPropertyOp10
 70
     1
102
RTVSPropertyOp11
 70
     1
102
RTVSPropertyOp12
 70
     1
102
RTVSPropertyOp13
 70
     1
102
RTVSPropertyOp14
 70
     1
102
RTVSPropertyOp15
 70
     1
102
RTVSPropertyOp16
 70
     1
102
RTVSPropertyOp17
 70
     1
102
RTVSPropertyOp18
 70
     1
102
RTVSPropertyOp19
 70
     1
102
RTVSPropertyOp20
 70
     1
102
RTVSPropertyOp21
 70
     1
102
RTVSPropertyOp22
 70
     1
102
RTVSPropertyOp23
 70
     1
102
RTVSPropertyOp24
 70
     1
102
RTVSPropertyOp25
 70
     1
102
RTVSPropertyOp26
 70
     1
102
RTVSPropertyOp27
 70
     1
102
RTVSPropertyOp28
 70
     1
102
RTVSPropertyOp29
 70
     1
102
RTVSPropertyOp30
 70
     1
102
RTVSPropertyOp31
 70
     1
102
RTVSPropertyOp32
 70
     1
  0
XRECORD
  5
25C
102
{ACAD_REACTORS
330
25B
102
}
330
25B
100
AcDbXrecord
280
     1
102
RTVSPropertyOp0
 70
     1
102
RTVSPropertyOp1
 70
     1
102
RTVSPropertyOp2
 70
     1
102
RTVSPropertyOp3
 70
     1
102
RTVSPropertyOp4
 70
     1
102
RTVSPropertyOp5
 70
     1
102
RTVSPropertyOp6
 70
     1
102
RTVSPropertyOp7
 70
     1
102
RTVSPropertyOp8
 70
     1
102
RTVSPropertyOp9
 70
     1
102
RTVSPropertyOp10
 70
     1
102
RTVSPropertyOp11
 70
     1
102
RTVSPropertyOp12
 70
     1
102
RTVSPropertyOp13
 70
     1
102
RTVSPropertyOp14
 70
     1
102
RTVSPropertyOp15
 70
     1
102
RTVSPropertyOp16
 70
     1
102
RTVSPropertyOp17
 70
     1
102
RTVSPropertyOp18
 70
     1
102
RTVSPropertyOp19
 70
     1
102
RTVSPropertyOp20
 70
     1
102
RTVSPropertyOp21
 70
     1
102
RTVSPropertyOp22
 70
     1
102
RTVSPropertyOp23
 70
     1
102
RTVSPropertyOp24
 70
     1
102
RTVSPropertyOp25
 70
     1
102
RTVSPropertyOp26
 70
     1
102
RTVSPropertyOp27
 70
     1
102
RTVSPropertyOp28
 70
     1
102
RTVSPropertyOp29
 70
     1
102
RTVSPropertyOp30
 70
     1
102
RTVSPropertyOp31
 70
     1
102
RTVSPropertyOp32
 70
     1
  0
XRECORD
  5
25E
102
{ACAD_REACTORS
330
25D
102
}
330
25D
100
AcDbXrecord
280
     1
102
RTVSPropertyOp0
 70
     1
102
RTVSPropertyOp1
 70
     1
102
RTVSPropertyOp2
 70
     1
102
RTVSPropertyOp3
 70
     1
102
RTVSPropertyOp4
 70
     1
102
RTVSPropertyOp5
 70
     1
102
RTVSPropertyOp6
 70
     1
102
RTVSPropertyOp7
 70
     1
102
RTVSPropertyOp8
 70
     1
102
RTVSPropertyOp9
 70
     1
102
RTVSPropertyOp10
 70
     1
102
RTVSPropertyOp11
 70
     1
102
RTVSPropertyOp12
 70
     1
102
RTVSPropertyOp13
 70
     1
102
RTVSPropertyOp14
 70
     1
102
RTVSPropertyOp15
 70
     1
102
RTVSPropertyOp16
 70
     1
102
RTVSPropertyOp17
 70
     1
102
RTVSPropertyOp18
 70
     1
102
RTVSPropertyOp19
 70
     1
102
RTVSPropertyOp20
 70
     1
102
RTVSPropertyOp21
 70
     1
102
RTVSPropertyOp22
 70
     1
102
RTVSPropertyOp23
 70
     1
102
RTVSPropertyOp24
 70
     1
102
RTVSPropertyOp25
 70
     1
102
RTVSPropertyOp26
 70
     1
102
RTVSPropertyOp27
 70
     1
102
RTVSPropertyOp28
 70
     1
102
RTVSPropertyOp29
 70
     1
102
RTVSPropertyOp30
 70
     1
102
RTVSPropertyOp31
 70
     1
102
RTVSPropertyOp32
 70
     1
  0
XRECORD
  5
260
102
{ACAD_REACTORS
330
25F
102
}
330
25F
100
AcDbXrecord
280
     1
102
RTVSPropertyOp0
 70
     1
102
RTVSPropertyOp1
 70
     1
102
RTVSPropertyOp2
 70
     1
102
RTVSPropertyOp3
 70
     1
102
RTVSPropertyOp4
 70
     1
102
RTVSPropertyOp5
 70
     1
102
RTVSPropertyOp6
 70
     1
102
RTVSPropertyOp7
 70
     1
102
RTVSPropertyOp8
 70
     1
102
RTVSPropertyOp9
 70
     1
102
RTVSPropertyOp10
 70
     1
102
RTVSPropertyOp11
 70
     1
102
RTVSPropertyOp12
 70
     1
102
RTVSPropertyOp13
 70
     1
102
RTVSPropertyOp14
 70
     1
102
RTVSPropertyOp15
 70
     1
102
RTVSPropertyOp16
 70
     1
102
RTVSPropertyOp17
 70
     1
102
RTVSPropertyOp18
 70
     1
102
RTVSPropertyOp19
 70
     1
102
RTVSPropertyOp20
 70
     1
102
RTVSPropertyOp21
 70
     1
102
RTVSPropertyOp22
 70
     1
102
RTVSPropertyOp23
 70
     1
102
RTVSPropertyOp24
 70
     1
102
RTVSPropertyOp25
 70
     1
102
RTVSPropertyOp26
 70
     1
102
RTVSPropertyOp27
 70
     1
102
RTVSPropertyOp28
 70
     1
102
RTVSPropertyOp29
 70
     1
102
RTVSPropertyOp30
 70
     1
102
RTVSPropertyOp31
 70
     1
102
RTVSPropertyOp32
 70
     1
  0
XRECORD
  5
262
102
{ACAD_REACTORS
330
261
102
}
330
261
100
AcDbXrecord
280
     1
102
RTVSPropertyOp0
 70
     1
102
RTVSPropertyOp1
 70
     1
102
RTVSPropertyOp2
 70
     1
102
RTVSPropertyOp3
 70
     1
102
RTVSPropertyOp4
 70
     1
102
RTVSPropertyOp5
 70
     1
102
RTVSPropertyOp6
 70
     1
102
RTVSPropertyOp7
 70
     1
102
RTVSPropertyOp8
 70
     1
102
RTVSPropertyOp9
 70
     1
102
RTVSPropertyOp10
 70
     1
102
RTVSPropertyOp11
 70
     1
102
RTVSPropertyOp12
 70
     1
102
RTVSPropertyOp13
 70
     1
102
RTVSPropertyOp14
 70
     1
102
RTVSPropertyOp15
 70
     1
102
RTVSPropertyOp16
 70
     1
102
RTVSPropertyOp17
 70
     1
102
RTVSPropertyOp18
 70
     1
102
RTVSPropertyOp19
 70
     1
102
RTVSPropertyOp20
 70
     1
102
RTVSPropertyOp21
 70
     1
102
RTVSPropertyOp22
 70
     1
102
RTVSPropertyOp23
 70
     1
102
RTVSPropertyOp24
 70
     1
102
RTVSPropertyOp25
 70
     1
102
RTVSPropertyOp26
 70
     1
102
RTVSPropertyOp27
 70
     1
102
RTVSPropertyOp28
 70
     1
102
RTVSPropertyOp29
 70
     1
102
RTVSPropertyOp30
 70
     1
102
RTVSPropertyOp31
 70
     1
102
RTVSPropertyOp32
 70
     1
  0
XRECORD
  5
276
102
{ACAD_REACTORS
330
275
102
}
330
275
100
AcDbXrecord
280
     1
102
RTVSPropertyOp0
 70
     1
102
RTVSPropertyOp1
 70
     1
102
RTVSPropertyOp2
 70
     1
102
RTVSPropertyOp3
 70
     1
102
RTVSPropertyOp4
 70
     1
102
RTVSPropertyOp5
 70
     1
102
RTVSPropertyOp6
 70
     1
102
RTVSPropertyOp7
 70
     1
102
RTVSPropertyOp8
 70
     1
102
RTVSPropertyOp9
 70
     1
102
RTVSPropertyOp10
 70
     1
102
RTVSPropertyOp11
 70
     1
102
RTVSPropertyOp12
 70
     1
102
RTVSPropertyOp13
 70
     1
102
RTVSPropertyOp14
 70
     1
102
RTVSPropertyOp15
 70
     1
102
RTVSPropertyOp16
 70
     1
102
RTVSPropertyOp17
 70
     1
102
RTVSPropertyOp18
 70
     1
102
RTVSPropertyOp19
 70
     1
102
RTVSPropertyOp20
 70
     1
102
RTVSPropertyOp21
 70
     1
102
RTVSPropertyOp22
 70
     1
102
RTVSPropertyOp23
 70
     1
102
RTVSPropertyOp24
 70
     1
102
RTVSPropertyOp25
 70
     1
102
RTVSPropertyOp26
 70
     1
102
RTVSPropertyOp27
 70
     1
102
RTVSPropertyOp28
 70
     1
102
RTVSPropertyOp29
 70
     1
102
RTVSPropertyOp30
 70
     1
102
RTVSPropertyOp31
 70
     1
102
RTVSPropertyOp32
 70
     1
  0
XRECORD
  5
26C
102
{ACAD_REACTORS
330
26B
102
}
330
26B
100
AcDbXrecord
280
     1
102
RTVSPropertyOp0
 70
     1
102
RTVSPropertyOp1
 70
     1
102
RTVSPropertyOp2
 70
     1
102
RTVSPropertyOp3
 70
     1
102
RTVSPropertyOp4
 70
     1
102
RTVSPropertyOp5
 70
     1
102
RTVSPropertyOp6
 70
     1
102
RTVSPropertyOp7
 70
     1
102
RTVSPropertyOp8
 70
     1
102
RTVSPropertyOp9
 70
     1
102
RTVSPropertyOp10
 70
     1
102
RTVSPropertyOp11
 70
     1
102
RTVSPropertyOp12
 70
     1
102
RTVSPropertyOp13
 70
     1
102
RTVSPropertyOp14
 70
     1
102
RTVSPropertyOp15
 70
     1
102
RTVSPropertyOp16
 70
     1
102
RTVSPropertyOp17
 70
     1
102
RTVSPropertyOp18
 70
     1
102
RTVSPropertyOp19
 70
     1
102
RTVSPropertyOp20
 70
     1
102
RTVSPropertyOp21
 70
     1
102
RTVSPropertyOp22
 70
     1
102
RTVSPropertyOp23
 70
     1
102
RTVSPropertyOp24
 70
     1
102
RTVSPropertyOp25
 70
     1
102
RTVSPropertyOp26
 70
     1
102
RTVSPropertyOp27
 70
     1
102
RTVSPropertyOp28
 70
     1
102
RTVSPropertyOp29
 70
     1
102
RTVSPropertyOp30
 70
     1
102
RTVSPropertyOp31
 70
     1
102
RTVSPropertyOp32
 70
     1
  0
XRECORD
  5
274
102
{ACAD_REACTORS
330
273
102
}
330
273
100
AcDbXrecord
280
     1
102
RTVSPropertyOp0
 70
     1
102
RTVSPropertyOp1
 70
     1
102
RTVSPropertyOp2
 70
     1
102
RTVSPropertyOp3
 70
     1
102
RTVSPropertyOp4
 70
     1
102
RTVSPropertyOp5
 70
     1
102
RTVSPropertyOp6
 70
     1
102
RTVSPropertyOp7
 70
     1
102
RTVSPropertyOp8
 70
     1
102
RTVSPropertyOp9
 70
     1
102
RTVSPropertyOp10
 70
     1
102
RTVSPropertyOp11
 70
     1
102
RTVSPropertyOp12
 70
     1
102
RTVSPropertyOp13
 70
     1
102
RTVSPropertyOp14
 70
     1
102
RTVSPropertyOp15
 70
     1
102
RTVSPropertyOp16
 70
     1
102
RTVSPropertyOp17
 70
     1
102
RTVSPropertyOp18
 70
     1
102
RTVSPropertyOp19
 70
     1
102
RTVSPropertyOp20
 70
     1
102
RTVSPropertyOp21
 70
     1
102
RTVSPropertyOp22
 70
     1
102
RTVSPropertyOp23
 70
     1
102
RTVSPropertyOp24
 70
     1
102
RTVSPropertyOp25
 70
     1
102
RTVSPropertyOp26
 70
     1
102
RTVSPropertyOp27
 70
     1
102
RTVSPropertyOp28
 70
     1
102
RTVSPropertyOp29
 70
     1
102
RTVSPropertyOp30
 70
     1
102
RTVSPropertyOp31
 70
     1
102
RTVSPropertyOp32
 70
     1
  0
ENDSEC
  0
EOF
