  0
SECTION
  2
HEADER
  9
$ACADVER
  1
AC1015
  9
$ACADMAINTVER
 70
     6
  9
$DWGCODEPAGE
  3
ANSI_1252
  9
$INSBASE
 10
0.0
 20
0.0
 30
0.0
  9
$EXTMIN
 10
-386.2999976179023
 20
-259.4904193750556
 30
0.0
  9
$EXTMAX
 10
-89.29999761790424
 20
-49.49041937505544
 30
0.0
  9
$LIMMIN
 10
0.0
 20
0.0
  9
$LIMMAX
 10
12.0
 20
9.0
  9
$ORTHOMODE
 70
     0
  9
$REGENMODE
 70
     1
  9
$FILLMODE
 70
     1
  9
$QTEXTMODE
 70
     0
  9
$MIRRTEXT
 70
     1
  9
$LTSCALE
 40
1.0
  9
$ATTMODE
 70
     1
  9
$TEXTSIZE
 40
0.2
  9
$TRACEWID
 40
0.05
  9
$TEXTSTYLE
  7
Standard
  9
$CLAYER
  8
0
  9
$CELTYPE
  6
ByLayer
  9
$CECOLOR
 62
   256
  9
$CELTSCALE
 40
1.0
  9
$DISPSILH
 70
     0
  9
$DIMSCALE
 40
1.0
  9
$DIMASZ
 40
0.18
  9
$DIMEXO
 40
0.0625
  9
$DIMDLI
 40
0.38
  9
$DIMRND
 40
0.0
  9
$DIMDLE
 40
0.0
  9
$DIMEXE
 40
0.18
  9
$DIMTP
 40
0.0
  9
$DIMTM
 40
0.0
  9
$DIMTXT
 40
0.18
  9
$DIMCEN
 40
0.09
  9
$DIMTSZ
 40
0.0
  9
$DIMTOL
 70
     0
  9
$DIMLIM
 70
     0
  9
$DIMTIH
 70
     1
  9
$DIMTOH
 70
     1
  9
$DIMSE1
 70
     0
  9
$DIMSE2
 70
     0
  9
$DIMTAD
 70
     0
  9
$DIMZIN
 70
     0
  9
$DIMBLK
  1

  9
$DIMASO
 70
     1
  9
$DIMSHO
 70
     1
  9
$DIMPOST
  1

  9
$DIMAPOST
  1

  9
$DIMALT
 70
     0
  9
$DIMALTD
 70
     2
  9
$DIMALTF
 40
25.4
  9
$DIMLFAC
 40
1.0
  9
$DIMTOFL
 70
     0
  9
$DIMTVP
 40
0.0
  9
$DIMTIX
 70
     0
  9
$DIMSOXD
 70
     0
  9
$DIMSAH
 70
     0
  9
$DIMBLK1
  1

  9
$DIMBLK2
  1

  9
$DIMSTYLE
  2
Standard
  9
$DIMCLRD
 70
     0
  9
$DIMCLRE
 70
     0
  9
$DIMCLRT
 70
     0
  9
$DIMTFAC
 40
1.0
  9
$DIMGAP
 40
0.09
  9
$DIMJUST
 70
     0
  9
$DIMSD1
 70
     0
  9
$DIMSD2
 70
     0
  9
$DIMTOLJ
 70
     1
  9
$DIMTZIN
 70
     0
  9
$DIMALTZ
 70
     0
  9
$DIMALTTZ
 70
     0
  9
$DIMUPT
 70
     0
  9
$DIMDEC
 70
     4
  9
$DIMTDEC
 70
     4
  9
$DIMALTU
 70
     2
  9
$DIMALTTD
 70
     2
  9
$DIMTXSTY
  7
Standard
  9
$DIMAUNIT
 70
     0
  9
$DIMADEC
 70
     0
  9
$DIMALTRND
 40
0.0
  9
$DIMAZIN
 70
     0
  9
$DIMDSEP
 70
    46
  9
$DIMATFIT
 70
     3
  9
$DIMFRAC
 70
     0
  9
$DIMLDRBLK
  1

  9
$DIMLUNIT
 70
     2
  9
$DIMLWD
 70
    -2
  9
$DIMLWE
 70
    -2
  9
$DIMTMOVE
 70
     0
  9
$LUNITS
 70
     2
  9
$LUPREC
 70
     4
  9
$SKETCHINC
 40
0.1
  9
$FILLETRAD
 40
0.5
  9
$AUNITS
 70
     0
  9
$AUPREC
 70
     0
  9
$MENU
  1
.
  9
$ELEVATION
 40
0.0
  9
$PELEVATION
 40
0.0
  9
$THICKNESS
 40
0.0
  9
$LIMCHECK
 70
     0
  9
$CHAMFERA
 40
0.5
  9
$CHAMFERB
 40
0.5
  9
$CHAMFERC
 40
1.0
  9
$CHAMFERD
 40
0.0
  9
$SKPOLY
 70
     0
  9
$TDCREATE
 40
2457212.362829317
  9
$TDUCREATE
 40
2457212.279495984
  9
$TDUPDATE
 40
2457212.362830243
  9
$TDUUPDATE
 40
2457212.27949691
  9
$TDINDWG
 40
0.0000000116
  9
$TDUSRTIMER
 40
0.0000000116
  9
$USRTIMER
 70
     1
  9
$ANGBASE
 50
0.0
  9
$ANGDIR
 70
     0
  9
$PDMODE
 70
     0
  9
$PDSIZE
 40
0.0
  9
$PLINEWID
 40
0.0
  9
$SPLFRAME
 70
     0
  9
$SPLINETYPE
 70
     6
  9
$SPLINESEGS
 70
     8
  9
$HANDSEED
  5
299
  9
$SURFTAB1
 70
     6
  9
$SURFTAB2
 70
     6
  9
$SURFTYPE
 70
     6
  9
$SURFU
 70
     6
  9
$SURFV
 70
     6
  9
$UCSBASE
  2

  9
$UCSNAME
  2

  9
$UCSORG
 10
0.0
 20
0.0
 30
0.0
  9
$UCSXDIR
 10
1.0
 20
0.0
 30
0.0
  9
$UCSYDIR
 10
0.0
 20
1.0
 30
0.0
  9
$UCSORTHOREF
  2

  9
$UCSORTHOVIEW
 70
     0
  9
$UCSORGTOP
 10
0.0
 20
0.0
 30
0.0
  9
$UCSORGBOTTOM
 10
0.0
 20
0.0
 30
0.0
  9
$UCSORGLEFT
 10
0.0
 20
0.0
 30
0.0
  9
$UCSORGRIGHT
 10
0.0
 20
0.0
 30
0.0
  9
$UCSORGFRONT
 10
0.0
 20
0.0
 30
0.0
  9
$UCSORGBACK
 10
0.0
 20
0.0
 30
0.0
  9
$PUCSBASE
  2

  9
$PUCSNAME
  2

  9
$PUCSORG
 10
0.0
 20
0.0
 30
0.0
  9
$PUCSXDIR
 10
1.0
 20
0.0
 30
0.0
  9
$PUCSYDIR
 10
0.0
 20
1.0
 30
0.0
  9
$PUCSORTHOREF
  2

  9
$PUCSORTHOVIEW
 70
     0
  9
$PUCSORGTOP
 10
0.0
 20
0.0
 30
0.0
  9
$PUCSORGBOTTOM
 10
0.0
 20
0.0
 30
0.0
  9
$PUCSORGLEFT
 10
0.0
 20
0.0
 30
0.0
  9
$PUCSORGRIGHT
 10
0.0
 20
0.0
 30
0.0
  9
$PUCSORGFRONT
 10
0.0
 20
0.0
 30
0.0
  9
$PUCSORGBACK
 10
0.0
 20
0.0
 30
0.0
  9
$USERI1
 70
     0
  9
$USERI2
 70
     0
  9
$USERI3
 70
     0
  9
$USERI4
 70
     0
  9
$USERI5
 70
     0
  9
$USERR1
 40
18.1
  9
$USERR2
 40
0.0
  9
$USERR3
 40
0.0
  9
$USERR4
 40
0.0
  9
$USERR5
 40
0.0
  9
$WORLDVIEW
 70
     1
  9
$SHADEDGE
 70
     3
  9
$SHADEDIF
 70
    70
  9
$TILEMODE
 70
     1
  9
$MAXACTVP
 70
    64
  9
$PINSBASE
 10
0.0
 20
0.0
 30
0.0
  9
$PLIMCHECK
 70
     0
  9
$PEXTMIN
 10
1.00000000000000E+20
 20
1.00000000000000E+20
 30
1.00000000000000E+20
  9
$PEXTMAX
 10
-1.00000000000000E+20
 20
-1.00000000000000E+20
 30
-1.00000000000000E+20
  9
$PLIMMIN
 10
0.0
 20
0.0
  9
$PLIMMAX
 10
12.0
 20
9.0
  9
$UNITMODE
 70
     0
  9
$VISRETAIN
 70
     1
  9
$PLINEGEN
 70
     0
  9
$PSLTSCALE
 70
     1
  9
$TREEDEPTH
 70
  3020
  9
$CMLSTYLE
  2
Standard
  9
$CMLJUST
 70
     0
  9
$CMLSCALE
 40
1.0
  9
$PROXYGRAPHICS
 70
     1
  9
$MEASUREMENT
 70
     1
  9
$CELWEIGHT
370
    -1
  9
$ENDCAPS
280
     0
  9
$JOINSTYLE
280
     0
  9
$LWDISPLAY
290
     0
  9
$INSUNITS
 70
     4
  9
$HYPERLINKBASE
  1

  9
$STYLESHEET
  1

  9
$XEDIT
290
     1
  9
$CEPSNTYPE
380
     0
  9
$PSTYLEMODE
290
     1
  9
$FINGERPRINTGUID
  2
{367BA811-D86A-43ED-ADCD-5016BAF4C769}
  9
$VERSIONGUID
  2
{FAEB1C32-E019-11D5-929B-00C0DF256EC4}
  9
$EXTNAMES
290
     1
  9
$PSVPSCALE
 40
0.0
  9
$OLESTARTUP
290
     0
  0
ENDSEC
  0
SECTION
  2
CLASSES
  0
CLASS
  1
ACDBDICTIONARYWDFLT
  2
AcDbDictionaryWithDefault
  3
ObjectDBX Classes
 90
        0
280
     0
281
     0
  0
CLASS
  1
VISUALSTYLE
  2
AcDbVisualStyle
  3
ObjectDBX Classes
 90
     4095
280
     0
281
     0
  0
CLASS
  1
MATERIAL
  2
AcDbMaterial
  3
ObjectDBX Classes
 90
     1153
280
     0
281
     0
  0
CLASS
  1
DICTIONARYVAR
  2
AcDbDictionaryVar
  3
ObjectDBX Classes
 90
        0
280
     0
281
     0
  0
CLASS
  1
ACDBPLACEHOLDER
  2
AcDbPlaceHolder
  3
ObjectDBX Classes
 90
        0
280
     0
281
     0
  0
CLASS
  1
LAYOUT
  2
AcDbLayout
  3
ObjectDBX Classes
 90
        0
280
     0
281
     0
  0
ENDSEC
  0
SECTION
  2
TABLES
  0
TABLE
  2
VPORT
  5
8
330
0
100
AcDbSymbolTable
 70
     1
  0
VPORT
  5
29
330
8
100
AcDbSymbolTableRecord
100
AcDbViewportTableRecord
  2
*Active
 70
     0
 10
0.0
 20
0.0
 11
1.0
 21
1.0
 12
-237.7999976179033
 22
-154.4904193750555
 13
0.0
 23
0.0
 14
0.5
 24
0.5
 15
0.5
 25
0.5
 16
0.0
 26
0.0
 36
1.0
 17
0.0
 27
0.0
 37
0.0
 40
231.0000000000002
 41
1.60267857142857
 42
50.0
 43
0.0
 44
0.0
 50
0.0
 51
0.0
 71
     0
 72
   100
 73
     1
 74
     3
 75
     0
 76
     0
 77
     0
 78
     0
281
     0
 65
     1
110
0.0
120
0.0
130
0.0
111
1.0
121
0.0
131
0.0
112
0.0
122
1.0
132
0.0
 79
     0
146
0.0
  0
ENDTAB
  0
TABLE
  2
LTYPE
  5
5
330
0
100
AcDbSymbolTable
 70
     8
  0
LTYPE
  5
14
330
5
100
AcDbSymbolTableRecord
100
AcDbLinetypeTableRecord
  2
ByBlock
 70
     0
  3

 72
    65
 73
     0
 40
0.0
  0
LTYPE
  5
15
330
5
100
AcDbSymbolTableRecord
100
AcDbLinetypeTableRecord
  2
ByLayer
 70
     0
  3

 72
    65
 73
     0
 40
0.0
  0
LTYPE
  5
16
330
5
100
AcDbSymbolTableRecord
100
AcDbLinetypeTableRecord
  2
Continuous
 70
     0
  3
Solid line
 72
    65
 73
     0
 40
0.0
  0
LTYPE
  5
3F
330
5
100
AcDbSymbolTableRecord
100
AcDbLinetypeTableRecord
  2
DASHED
 70
     0
  3
Dashed
 72
    65
 73
     2
 40
15.0
 49
7.0
 74
     0
 49
-8.0
 74
     0
  0
LTYPE
  5
40
330
5
100
AcDbSymbolTableRecord
100
AcDbLinetypeTableRecord
  2
DOTTED
 70
     0
  3
Dotted
 72
    65
 73
     2
 40
1.0
 49
0.0
 74
     0
 49
-1.0
 74
     0
  0
LTYPE
  5
41
330
5
100
AcDbSymbolTableRecord
100
AcDbLinetypeTableRecord
  2
DOT_CENTER
 70
     0
  3
Dot_Center
 72
    65
 73
     4
 40
14.0
 49
12.0
 74
     0
 49
-1.0
 74
     0
 49
0.0
 74
     0
 49
-1.0
 74
     0
  0
LTYPE
  5
42
330
5
100
AcDbSymbolTableRecord
100
AcDbLinetypeTableRecord
  2
LONG_DASHED
 70
     0
  3
Long_Dashed
 72
    65
 73
     2
 40
15.0
 49
10.0
 74
     0
 49
-5.0
 74
     0
  0
LTYPE
  5
43
330
5
100
AcDbSymbolTableRecord
100
AcDbLinetypeTableRecord
  2
DASH_CENTER
 70
     0
  3
Dash_Center
 72
    65
 73
     4
 40
14.0
 49
11.0
 74
     0
 49
-1.0
 74
     0
 49
1.0
 74
     0
 49
-1.0
 74
     0
  0
LTYPE
  5
44
330
5
100
AcDbSymbolTableRecord
100
AcDbLinetypeTableRecord
  2
PHANTOM
 70
     0
  3
Phantom
 72
    65
 73
     6
 40
13.0
 49
10.0
 74
     0
 49
-1.0
 74
     0
 49
0.0
 74
     0
 49
-1.0
 74
     0
 49
0.0
 74
     0
 49
-1.0
 74
     0
  0
LTYPE
  5
45
330
5
100
AcDbSymbolTableRecord
100
AcDbLinetypeTableRecord
  2
CENTER_DASH_DASH
 70
     0
  3
Center_Dash_Dash
 72
    65
 73
     6
 40
14.0
 49
9.0
 74
     0
 49
-1.0
 74
     0
 49
1.0
 74
     0
 49
-1.0
 74
     0
 49
1.0
 74
     0
 49
-1.0
 74
     0
  0
ENDTAB
  0
TABLE
  2
LAYER
  5
2
330
0
100
AcDbSymbolTable
 70
     2
  0
LAYER
  5
10
330
2
100
AcDbSymbolTableRecord
100
AcDbLayerTableRecord
  2
0
 70
     0
 62
     7
  6
Continuous
370
    -3
390
F
  0
LAYER
  5
46
330
2
100
AcDbSymbolTableRecord
100
AcDbLayerTableRecord
  2
1
 70
     0
 62
     7
  6
Continuous
370
    -3
390
F
  0
ENDTAB
  0
TABLE
  2
STYLE
  5
3
330
0
100
AcDbSymbolTable
 70
     5
  0
STYLE
  5
11
330
3
100
AcDbSymbolTableRecord
100
AcDbTextStyleTableRecord
  2
Standard
 70
     0
 40
0.0
 41
1.0
 50
0.0
 71
     0
 42
0.2
  3
txt
  4

  0
STYLE
  5
AF
330
3
100
AcDbSymbolTableRecord
100
AcDbTextStyleTableRecord
  2
CONVERTER_11
 70
     0
 40
0.0
 41
0.9
 50
0.0
 71
     0
 42
0.2
  3
txt.shx
  4

  0
STYLE
  5
22E
330
3
100
AcDbSymbolTableRecord
100
AcDbTextStyleTableRecord
  2
CONVERTER_12
 70
     0
 40
0.0
 41
0.81
 50
0.0
 71
     0
 42
0.2
  3
txt.shx
  4

  0
STYLE
  5
234
330
3
100
AcDbSymbolTableRecord
100
AcDbTextStyleTableRecord
  2
CONVERTER_13
 70
     0
 40
0.0
 41
0.855
 50
0.0
 71
     0
 42
0.2
  3
txt.shx
  4

  0
STYLE
  5
237
330
3
100
AcDbSymbolTableRecord
100
AcDbTextStyleTableRecord
  2
CONVERTER_14
 70
     0
 40
0.0
 41
0.72
 50
0.0
 71
     0
 42
0.2
  3
txt.shx
  4

  0
ENDTAB
  0
TABLE
  2
VIEW
  5
6
330
0
100
AcDbSymbolTable
 70
     0
  0
ENDTAB
  0
TABLE
  2
UCS
  5
7
330
0
100
AcDbSymbolTable
 70
     0
  0
ENDTAB
  0
TABLE
  2
APPID
  5
9
330
0
100
AcDbSymbolTable
 70
     1
  0
APPID
  5
12
330
9
100
AcDbSymbolTableRecord
100
AcDbRegAppTableRecord
  2
ACAD
 70
     0
  0
ENDTAB
  0
TABLE
  2
DIMSTYLE
  5
A
330
0
100
AcDbSymbolTable
 70
     4
100
AcDbDimStyleTable
  0
DIMSTYLE
105
27
330
A
100
AcDbSymbolTableRecord
100
AcDbDimStyleTableRecord
  2
Standard
 70
     0
178
     0
340
11
  0
DIMSTYLE
105
D1
102
{ACAD_REACTORS
330
D2
102
}
330
A
100
AcDbSymbolTableRecord
100
AcDbDimStyleTableRecord
  2
ME10_DIM_10
 70
     0
 41
1.75
 42
0.0
 44
0.75
 73
     0
 74
     0
 77
     1
 78
     8
140
1.75
147
0.75
172
     1
173
     1
174
     1
175
     1
176
     2
177
     2
271
     1
178
     3
271
     1
340
AF
  0
DIMSTYLE
105
128
102
{ACAD_REACTORS
330
129
102
}
330
A
100
AcDbSymbolTableRecord
100
AcDbDimStyleTableRecord
  2
ME10_DIM_11
 70
     0
 41
1.75
 42
0.0
 44
0.75
 73
     0
 74
     0
 77
     1
 78
     8
140
1.75
147
0.75
172
     1
173
     1
174
     1
175
     1
176
     2
177
     2
271
     1
178
     3
271
     1
340
AF
  0
DIMSTYLE
105
133
102
{ACAD_REACTORS
330
134
102
}
330
A
100
AcDbSymbolTableRecord
100
AcDbDimStyleTableRecord
  2
ME10_DIM_12
 70
     0
 41
1.75
 42
0.0
 44
0.75
 73
     0
 74
     0
 77
     1
 78
     8
140
1.75
147
0.75
172
     1
173
     1
174
     1
175
     1
176
     2
177
     2
271
     1
178
     3
271
     1
340
AF
  0
ENDTAB
  0
TABLE
  2
BLOCK_RECORD
  5
1
330
0
100
AcDbSymbolTable
 70
    19
  0
BLOCK_RECORD
  5
1F
330
1
100
AcDbSymbolTableRecord
100
AcDbBlockTableRecord
  2
*Model_Space
340
22
  0
BLOCK_RECORD
  5
1B
330
1
100
AcDbSymbolTableRecord
100
AcDbBlockTableRecord
  2
*Paper_Space
340
1E
  0
BLOCK_RECORD
  5
23
330
1
100
AcDbSymbolTableRecord
100
AcDbBlockTableRecord
  2
*Paper_Space0
340
26
  0
BLOCK_RECORD
  5
47
330
1
100
AcDbSymbolTableRecord
100
AcDbBlockTableRecord
  2
0820510_PATG_1_18-select__1
340
0
102
{BLKREFS
331
4B
102
}
  0
BLOCK_RECORD
  5
4A
330
1
100
AcDbSymbolTableRecord
100
AcDbBlockTableRecord
  2
Allg1
340
0
102
{BLKREFS
331
7C
102
}
  0
BLOCK_RECORD
  5
4E
330
1
100
AcDbSymbolTableRecord
100
AcDbBlockTableRecord
  2
0820510_PATG_1_18-select__2
340
0
102
{BLKREFS
331
52
102
}
  0
BLOCK_RECORD
  5
51
330
1
100
AcDbSymbolTableRecord
100
AcDbBlockTableRecord
  2
Drfsicht1
340
0
102
{BLKREFS
331
7D
102
}
  0
BLOCK_RECORD
  5
55
330
1
100
AcDbSymbolTableRecord
100
AcDbBlockTableRecord
  2
0820510_PATG_1_18-select__3
340
0
102
{BLKREFS
331
59
102
}
  0
BLOCK_RECORD
  5
58
330
1
100
AcDbSymbolTableRecord
100
AcDbBlockTableRecord
  2
Rckans1
340
0
102
{BLKREFS
331
7E
102
}
  0
BLOCK_RECORD
  5
5C
330
1
100
AcDbSymbolTableRecord
100
AcDbBlockTableRecord
  2
0820510_PATG_1_18-select__4
340
0
102
{BLKREFS
331
60
102
}
  0
BLOCK_RECORD
  5
5F
330
1
100
AcDbSymbolTableRecord
100
AcDbBlockTableRecord
  2
SA_Links1
340
0
102
{BLKREFS
331
7F
102
}
  0
BLOCK_RECORD
  5
63
330
1
100
AcDbSymbolTableRecord
100
AcDbBlockTableRecord
  2
0820510_PATG_1_18-select__5
340
0
102
{BLKREFS
331
67
102
}
  0
BLOCK_RECORD
  5
66
330
1
100
AcDbSymbolTableRecord
100
AcDbBlockTableRecord
  2
SA_Rechts1
340
0
102
{BLKREFS
331
80
102
}
  0
BLOCK_RECORD
  5
6A
330
1
100
AcDbSymbolTableRecord
100
AcDbBlockTableRecord
  2
0820510_PATG_1_18-select__6
340
0
102
{BLKREFS
331
6E
102
}
  0
BLOCK_RECORD
  5
6D
330
1
100
AcDbSymbolTableRecord
100
AcDbBlockTableRecord
  2
Vordans1
340
0
102
{BLKREFS
331
81
102
}
  0
BLOCK_RECORD
  5
71
330
1
100
AcDbSymbolTableRecord
100
AcDbBlockTableRecord
  2
_punkt
340
0
102
{BLKREFS
331
78
102
}
  0
BLOCK_RECORD
  5
74
330
1
100
AcDbSymbolTableRecord
100
AcDbBlockTableRecord
  2
_rahmen
340
0
102
{BLKREFS
331
79
102
}
  0
BLOCK_RECORD
  5
77
330
1
100
AcDbSymbolTableRecord
100
AcDbBlockTableRecord
  2
A4I_CS
340
0
102
{BLKREFS
331
82
102
}
  0
BLOCK_RECORD
  5
C8
330
1
100
AcDbSymbolTableRecord
100
AcDbBlockTableRecord
  2
*D16
340
0
  0
BLOCK_RECORD
  5
11F
330
1
100
AcDbSymbolTableRecord
100
AcDbBlockTableRecord
  2
*D17
340
0
  0
BLOCK_RECORD
  5
12A
330
1
100
AcDbSymbolTableRecord
100
AcDbBlockTableRecord
  2
*D18
340
0
  0
ENDTAB
  0
ENDSEC
  0
SECTION
  2
BLOCKS
  0
BLOCK
  5
20
330
1F
100
AcDbEntity
  8
0
100
AcDbBlockBegin
  2
*Model_Space
 70
     0
 10
0.0
 20
0.0
 30
0.0
  3
*Model_Space
  1

  0
ENDBLK
  5
21
330
1F
100
AcDbEntity
  8
0
100
AcDbBlockEnd
  0
BLOCK
  5
1C
330
1B
100
AcDbEntity
 67
     1
  8
0
100
AcDbBlockBegin
  2
*Paper_Space
 70
     0
 10
0.0
 20
0.0
 30
0.0
  3
*Paper_Space
  1

  0
ENDBLK
  5
1D
330
1B
100
AcDbEntity
 67
     1
  8
0
100
AcDbBlockEnd
  0
BLOCK
  5
24
330
23
100
AcDbEntity
  8
0
100
AcDbBlockBegin
  2
*Paper_Space0
 70
     0
 10
0.0
 20
0.0
 30
0.0
  3
*Paper_Space0
  1

  0
ENDBLK
  5
25
330
23
100
AcDbEntity
  8
0
100
AcDbBlockEnd
  0
BLOCK
  5
48
330
47
100
AcDbEntity
  8
0
100
AcDbBlockBegin
  2
0820510_PATG_1_18-select__1
 70
     0
 10
-84.15646343884687
 20
-100.7606151263697
 30
0.0
  3
0820510_PATG_1_18-select__1
  1

  0
LINE
  5
83
330
47
100
AcDbEntity
  8
0
  6
Continuous
 62
     7
100
AcDbLine
 10
-67.6118199448402
 20
-98.64087999817033
 30
0.0
 11
-68.27295966757185
 21
-98.45002539972478
 31
0.0
  0
LINE
  5
84
330
47
100
AcDbEntity
  8
0
  6
Continuous
 62
     7
100
AcDbLine
 10
-66.79972105474714
 20
-97.93758172896456
 30
0.0
 11
-67.69972105474709
 21
-97.67777410782922
 31
0.0
  0
LINE
  5
85
330
47
100
AcDbEntity
  8
0
  6
Continuous
 62
     7
100
AcDbLine
 10
-67.6118199448402
 20
-98.64087999817033
 30
0.0
 11
-66.79972105474714
 21
-97.93758172896456
 31
0.0
  0
LINE
  5
86
330
47
100
AcDbEntity
  8
0
  6
Continuous
 62
     7
100
AcDbLine
 10
-66.18172181896112
 20
-96.36314820671322
 30
0.0
 11
-68.22981918062624
 21
-98.13685255133908
 31
0.0
  0
LINE
  5
87
330
47
100
AcDbEntity
  8
0
  6
Continuous
 62
     2
100
AcDbLine
 10
-68.53523392844232
 20
-98.75459485532106
 30
0.0
 11
-84.12369119656222
 21
-94.25459485532106
 31
0.0
  0
LINE
  5
88
330
47
100
AcDbEntity
  8
0
  6
Continuous
 62
     7
100
AcDbLine
 10
-67.43648186921112
 20
-98.9220454723171
 30
0.0
 11
-66.97505913037622
 21
-98.5224416586023
 31
0.0
  0
LINE
  5
89
330
47
100
AcDbEntity
  8
0
  6
Continuous
 62
     2
100
AcDbLine
 10
-66.81406431794697
 20
-99.2242422333753
 30
0.0
 11
-67.45663142145848
 21
-99.03874908828291
 31
0.0
  0
LINE
  5
8A
330
47
100
AcDbEntity
  8
0
  6
Continuous
 62
     2
100
AcDbLine
 10
-67.83633922707591
 20
-99.98175352808175
 30
0.0
 11
-68.20272001597107
 21
-99.87598850453449
 31
0.0
  0
LINE
  5
8B
330
47
100
AcDbEntity
  8
0
  6
Continuous
 62
     7
100
AcDbLine
 10
-67.48500245230078
 20
-99.20575464284018
 30
0.0
 11
-66.66378307337814
 21
-99.44282025758257
 31
0.0
  0
LINE
  5
8C
330
47
100
AcDbEntity
  8
0
  6
Continuous
 62
     2
100
AcDbLine
 10
-68.26940686343005
 20
-100.6489488583909
 30
0.0
 11
-83.85786413154993
 21
-96.14894885839092
 31
0.0
  0
LINE
  5
8D
330
47
100
AcDbEntity
  8
0
  6
Continuous
 62
     7
100
AcDbLine
 10
-68.16378307337814
 20
-100.7418583632592
 30
0.0
 11
-83.75224034149804
 21
-96.24185836325924
 31
0.0
  0
LINE
  5
8E
330
47
100
AcDbEntity
  8
0
  6
Continuous
 62
     2
100
AcDbLine
 10
-67.92764549979367
 20
-95.27091499509615
 30
0.0
 11
-83.51610276791358
 21
-90.77091499509615
 31
0.0
  0
LINE
  5
8F
330
47
100
AcDbEntity
  8
0
  6
Continuous
 62
     7
100
AcDbLine
 10
-81.85320262074464
 20
-89.50341961304967
 30
0.0
 11
-66.26474535262476
 21
-94.00341961304964
 31
0.0
  0
LINE
  5
90
330
47
100
AcDbEntity
  8
0
  6
Continuous
 62
     2
100
AcDbLine
 10
-66.48389549979368
 20
-94.02059081838236
 30
0.0
 11
-82.07235276791357
 21
-89.52059081838237
 31
0.0
  0
LINE
  5
91
330
47
100
AcDbEntity
  8
0
  6
Continuous
 62
     2
100
AcDbLine
 10
-66.35122504524821
 20
-98.75038792223809
 30
0.0
 11
-66.62224990367223
 21
-98.67214978475398
 31
0.0
  0
LINE
  5
92
330
47
100
AcDbEntity
  8
0
  6
Continuous
 62
     2
100
AcDbLine
 10
-68.48022104464177
 20
-97.05265849805285
 30
0.0
 11
-84.06867831276166
 21
-92.55265849805285
 31
0.0
  0
SPLINE
  5
93
330
47
100
AcDbEntity
  8
0
  6
Continuous
 62
     7
100
AcDbSpline
210
0.0
220
0.0
230
1.0
 70
     8
 71
     3
 72
     9
 73
     5
 74
     3
 42
0.000000001
 43
0.0000000001
 44
0.00000001
 40
0.0
 40
0.0
 40
0.0
 40
0.0
 40
0.0666784002408377
 40
0.1434386157022766
 40
0.1434386157022766
 40
0.1434386157022766
 40
0.1434386157022766
 10
-83.75224034149804
 20
-96.24185836325924
 30
0.0
 10
-83.77295183017776
 20
-96.23254340966126
 30
0.0
 10
-83.81750638649102
 20
-96.21250505961376
 30
0.0
 10
-83.84379562750671
 20
-96.17110423822878
 30
0.0
 10
-83.85786413154993
 20
-96.14894885839092
 30
0.0
 11
-83.75224034149804
 21
-96.24185836325924
 31
0.0
 11
-83.8104278200796
 21
-96.20929724140652
 31
0.0
 11
-83.85786413154993
 21
-96.14894885839092
 31
0.0
  0
SPLINE
  5
94
330
47
100
AcDbEntity
  8
0
  6
Continuous
 62
     7
100
AcDbSpline
210
0.0
220
0.0
230
1.0
 70
     8
 71
     3
 72
    11
 73
     7
 74
     5
 42
0.000000001
 43
0.0000000001
 44
0.00000001
 40
0.0
 40
0.0
 40
0.0
 40
0.0
 40
0.3900653876381802
 40
0.8464000332349052
 40
1.365126423326563
 40
1.93658573357817
 40
1.93658573357817
 40
1.93658573357817
 40
1.93658573357817
 10
-83.85786413154993
 20
-96.14894885839092
 30
0.0
 10
-83.91272272753334
 20
-96.03058712818782
 30
0.0
 10
-84.03175997958434
 20
-95.77375486916014
 30
0.0
 10
-84.11605551641699
 20
-95.32290789224842
 30
0.0
 10
-84.15596144087098
 20
-94.808274331576
 30
0.0
 10
-84.13478931898605
 20
-94.44501175510271
 30
0.0
 10
-84.12369119656222
 20
-94.25459485532106
 30
0.0
 11
-83.85786413154993
 21
-96.14894885839092
 31
0.0
 11
-84.00825841141474
 21
-95.78904252557669
 31
0.0
 11
-84.10452607922502
 21
-95.34297767874719
 31
0.0
 11
-84.14343858137488
 21
-94.8257128657928
 31
0.0
 11
-84.12369119656222
 21
-94.25459485532106
 31
0.0
  0
SPLINE
  5
95
330
47
100
AcDbEntity
  8
0
  6
Continuous
 62
     7
100
AcDbSpline
210
0.0
220
0.0
230
1.0
 70
     8
 71
     3
 72
     9
 73
     5
 74
     3
 42
0.000000001
 43
0.0000000001
 44
0.00000001
 40
0.0
 40
0.0
 40
0.0
 40
0.0
 40
0.8334365752876596
 40
1.703410385716146
 40
1.703410385716146
 40
1.703410385716146
 40
1.703410385716146
 10
-84.06867831276166
 20
-92.55265849805285
 30
0.0
 10
-84.06665357562564
 20
-92.83057955584674
 30
0.0
 10
-84.06251535838838
 20
-93.39860552205849
 30
0.0
 10
-84.10300971631465
 20
-93.96521392949977
 30
0.0
 10
-84.12369119656222
 20
-94.25459485532106
 30
0.0
 11
-84.06867831276166
 21
-92.55265849805285
 31
0.0
 11
-84.07328871599998
 21
-93.38608232159413
 31
0.0
 11
-84.12369119656222
 21
-94.25459485532106
 31
0.0
  0
SPLINE
  5
96
330
47
100
AcDbEntity
  8
0
  6
Continuous
 62
     7
100
AcDbSpline
210
0.0
220
0.0
230
1.0
 70
     8
 71
     3
 72
    13
 73
     9
 74
     7
 42
0.000000001
 43
0.0000000001
 44
0.00000001
 40
0.0
 40
0.0
 40
0.0
 40
0.0
 40
0.3004102021076577
 40
0.6242178829212583
 40
0.9587809427315901
 40
1.290583265785045
 40
1.606328761133391
 40
1.894062070567783
 40
1.894062070567783
 40
1.894062070567783
 40
1.894062070567783
 10
-68.48022104464177
 20
-97.05265849805285
 30
0.0
 10
-68.47844152388284
 20
-96.9524249091294
 30
0.0
 10
-68.47474386920366
 20
-96.74415102879195
 30
0.0
 10
-68.42266240539973
 20
-96.42785548291096
 30
0.0
 10
-68.3409073531954
 20
-96.10767204421174
 30
0.0
 10
-68.22814480728357
 20
-95.79994983655719
 30
0.0
 10
-68.09487442869082
 20
-95.51691555303987
 30
0.0
 10
-67.98163639155716
 20
-95.35033778478079
 30
0.0
 10
-67.92764549979367
 20
-95.27091499509615
 30
0.0
 11
-68.48022104464177
 21
-97.05265849805285
 31
0.0
 11
-68.46788550511057
 21
-96.75250166576154
 31
0.0
 11
-68.41874823765426
 21
-96.43244394684342
 31
0.0
 11
-68.33526222449737
 21
-96.10846473861037
 31
0.0
 11
-68.22159592763296
 21
-95.79673928935642
 31
0.0
 11
-68.08342413171468
 21
-95.51283125223598
 31
0.0
 11
-67.92764549979367
 21
-95.27091499509615
 31
0.0
  0
SPLINE
  5
97
330
47
100
AcDbEntity
  8
0
  6
Continuous
 62
     7
100
AcDbSpline
210
0.0
220
0.0
230
1.0
 70
     8
 71
     3
 72
     9
 73
     5
 74
     3
 42
0.000000001
 43
0.0000000001
 44
0.00000001
 40
0.0
 40
0.0
 40
0.0
 40
0.0
 40
0.0525783261994979
 40
0.0916123828068371
 40
0.0916123828068371
 40
0.0916123828068371
 40
0.0916123828068371
 10
-66.57520177251143
 20
-98.8895764547649
 30
0.0
 10
-66.57091255644367
 20
-98.9074802720008
 30
0.0
 10
-66.56343901768948
 20
-98.9386758416221
 30
0.0
 10
-66.53656041972997
 20
-98.95533688964632
 30
0.0
 10
-66.52510802432184
 20
-98.9624357961673
 30
0.0
 11
-66.57520177251143
 21
-98.8895764547649
 31
0.0
 11
-66.55594235856276
 21
-98.93850043292068
 31
0.0
 11
-66.52510802432184
 21
-98.9624357961673
 31
0.0
  0
SPLINE
  5
98
330
47
100
AcDbEntity
  8
0
  6
Continuous
 62
     7
100
AcDbSpline
210
0.0
220
0.0
230
1.0
 70
     8
 71
     3
 72
     9
 73
     5
 74
     3
 42
0.000000001
 43
0.0000000001
 44
0.00000001
 40
0.0
 40
0.0
 40
0.0
 40
0.0
 40
0.4944679594433178
 40
0.9781837687862838
 40
0.9781837687862838
 40
0.9781837687862838
 40
0.9781837687862838
 10
-66.57520177251143
 20
-98.8895764547649
 30
0.0
 10
-66.610126435252
 20
-98.72848073151837
 30
0.0
 10
-66.67921634736643
 20
-98.4097922978655
 30
0.0
 10
-66.75984824656383
 20
-98.0938275605205
 30
0.0
 10
-66.79972105474714
 20
-97.93758172896456
 30
0.0
 11
-66.57520177251143
 21
-98.8895764547649
 31
0.0
 11
-66.68292505060225
 21
-98.4069852629749
 31
0.0
 11
-66.79972105474714
 21
-97.93758172896456
 31
0.0
  0
SPLINE
  5
99
330
47
100
AcDbEntity
  8
0
  6
Continuous
 62
     7
100
AcDbSpline
210
0.0
220
0.0
230
1.0
 70
     8
 71
     3
 72
    11
 73
     7
 74
     5
 42
0.000000001
 43
0.0000000001
 44
0.00000001
 40
0.0
 40
0.0
 40
0.0
 40
0.0
 40
0.0853337688702191
 40
0.1584779257111497
 40
0.2211127077026755
 40
0.2773789726879641
 40
0.2773789726879641
 40
0.2773789726879641
 40
0.2773789726879641
 10
-66.81406431794697
 20
-99.2242422333753
 30
0.0
 10
-66.80715104789358
 20
-99.2519420647245
 30
0.0
 10
-66.79431203012652
 20
-99.3033849052535
 30
0.0
 10
-66.76058824672681
 20
-99.36929980869365
 30
0.0
 10
-66.71814357768054
 20
-99.4196398435673
 30
0.0
 10
-66.68124445299424
 20
-99.43537437872595
 30
0.0
 10
-66.66378307337814
 20
-99.44282025758257
 30
0.0
 11
-66.81406431794697
 21
-99.2242422333753
 31
0.0
 11
-66.79003899076515
 21
-99.30612407045692
 31
0.0
 11
-66.75628647168983
 21
-99.3710150218631
 31
0.0
 11
-66.713788932551
 21
-99.41702671248626
 31
0.0
 11
-66.66378307337814
 21
-99.44282025758257
 31
0.0
  0
SPLINE
  5
9A
330
47
100
AcDbEntity
  8
0
  6
Continuous
 62
     7
100
AcDbSpline
210
0.0
220
0.0
230
1.0
 70
     8
 71
     3
 72
     9
 73
     5
 74
     3
 42
0.000000001
 43
0.0000000001
 44
0.00000001
 40
0.0
 40
0.0
 40
0.0
 40
0.0
 40
0.0222261321072834
 40
0.047812869288061
 40
0.047812869288061
 40
0.047812869288061
 40
0.047812869288061
 10
-68.02510802432181
 20
-100.2614739018439
 30
0.0
 10
-68.03201185347596
 20
-100.2583689174938
 30
0.0
 10
-68.04686336416738
 20
-100.2516894570927
 30
0.0
 10
-68.05562645323079
 20
-100.2378891931235
 30
0.0
 10
-68.06031595433912
 20
-100.2305040668879
 30
0.0
 11
-68.02510802432181
 21
-100.2614739018439
 31
0.0
 11
-68.04450385051568
 21
-100.2506201945597
 31
0.0
 11
-68.06031595433912
 21
-100.2305040668879
 31
0.0
  0
SPLINE
  5
9B
330
47
100
AcDbEntity
  8
0
  6
Continuous
 62
     7
100
AcDbSpline
210
0.0
220
0.0
230
1.0
 70
     8
 71
     3
 72
    11
 73
     7
 74
     5
 42
0.000000001
 43
0.0000000001
 44
0.00000001
 40
0.0
 40
0.0
 40
0.0
 40
0.0
 40
0.4176527219742524
 40
0.9202000247751667
 40
1.498124519169953
 40
2.132595873501904
 40
2.132595873501904
 40
2.132595873501904
 40
2.132595873501904
 10
-68.06031595433912
 20
-100.2305040668879
 30
0.0
 10
-68.1167468439496
 20
-100.1025615988192
 30
0.0
 10
-68.24107908741557
 20
-99.820670308704
 30
0.0
 10
-68.30524549536396
 20
-99.32015129052975
 30
0.0
 10
-68.31294847987857
 20
-98.7478794374951
 30
0.0
 10
-68.25837736164908
 20
-98.34676426267343
 30
0.0
 10
-68.22981918062624
 20
-98.13685255133908
 30
0.0
 11
-68.06031595433912
 21
-100.2305040668879
 31
0.0
 11
-68.21211534654594
 21
-99.84141443434157
 31
0.0
 11
-68.29305539131084
 21
-99.34542803882363
 31
0.0
 11
-68.29905726442905
 21
-98.76753470869936
 31
0.0
 11
-68.22981918062624
 21
-98.13685255133908
 31
0.0
  0
SPLINE
  5
9C
330
47
100
AcDbEntity
  8
0
  6
Continuous
 62
     7
100
AcDbSpline
210
0.0
220
0.0
230
1.0
 70
     8
 71
     3
 72
     9
 73
     5
 74
     3
 42
0.000000001
 43
0.0000000001
 44
0.00000001
 40
0.0
 40
0.0
 40
0.0
 40
0.0
 40
0.8334365752876738
 40
1.703410385716146
 40
1.703410385716146
 40
1.703410385716146
 40
1.703410385716146
 10
-68.48022104464177
 20
-97.05265849805285
 30
0.0
 10
-68.47819630750573
 20
-97.33057955584674
 30
0.0
 10
-68.4740580902685
 20
-97.89860552205855
 30
0.0
 10
-68.51455244819473
 20
-98.46521392949974
 30
0.0
 10
-68.53523392844232
 20
-98.75459485532106
 30
0.0
 11
-68.48022104464177
 21
-97.05265849805285
 31
0.0
 11
-68.48483144788008
 21
-97.88608232159415
 31
0.0
 11
-68.53523392844232
 21
-98.75459485532106
 31
0.0
  0
SPLINE
  5
9D
330
47
100
AcDbEntity
  8
0
  6
Continuous
 62
     7
100
AcDbSpline
210
0.0
220
0.0
230
1.0
 70
     8
 71
     3
 72
    11
 73
     7
 74
     5
 42
0.000000001
 43
0.0000000001
 44
0.00000001
 40
0.0
 40
0.0
 40
0.0
 40
0.0
 40
0.3900653876381299
 40
0.8464000332348718
 40
1.365126423326542
 40
1.936585733578133
 40
1.936585733578133
 40
1.936585733578133
 40
1.936585733578133
 10
-68.26940686343005
 20
-100.6489488583909
 30
0.0
 10
-68.32426545941345
 20
-100.5305871281878
 30
0.0
 10
-68.44330271146443
 20
-100.2737548691601
 30
0.0
 10
-68.52759824829711
 20
-99.82290789224842
 30
0.0
 10
-68.56750417275096
 20
-99.30827433157597
 30
0.0
 10
-68.54633205086617
 20
-98.94501175510273
 30
0.0
 10
-68.53523392844232
 20
-98.75459485532106
 30
0.0
 11
-68.26940686343005
 21
-100.6489488583909
 31
0.0
 11
-68.41980114329483
 21
-100.2890425255767
 31
0.0
 11
-68.51606881110513
 21
-99.84297767874719
 31
0.0
 11
-68.55498131325496
 21
-99.32571286579278
 31
0.0
 11
-68.53523392844232
 21
-98.75459485532106
 31
0.0
  0
SPLINE
  5
9E
330
47
100
AcDbEntity
  8
0
  6
Continuous
 62
     7
100
AcDbSpline
210
0.0
220
0.0
230
1.0
 70
     8
 71
     3
 72
     9
 73
     5
 74
     3
 42
0.000000001
 43
0.0000000001
 44
0.00000001
 40
0.0
 40
0.0
 40
0.0
 40
0.0
 40
0.6777885514962646
 40
1.359567397160549
 40
1.359567397160549
 40
1.359567397160549
 40
1.359567397160549
 10
-67.83633922707591
 20
-99.98175352808175
 30
0.0
 10
-67.80112851138959
 20
-99.75857903232927
 30
0.0
 10
-67.73049976685198
 20
-99.31091616544131
 30
0.0
 10
-67.65145722135819
 20
-98.8646619675386
 30
0.0
 10
-67.6118199448402
 20
-98.64087999817033
 30
0.0
 11
-67.83633922707591
 21
-99.98175352808175
 31
0.0
 11
-67.7286159489851
 21
-99.31258014548062
 31
0.0
 11
-67.6118199448402
 21
-98.64087999817033
 31
0.0
  0
SPLINE
  5
9F
330
47
100
AcDbEntity
  8
0
  6
Continuous
 62
     7
100
AcDbSpline
210
0.0
220
0.0
230
1.0
 70
     8
 71
     3
 72
     9
 73
     5
 74
     3
 42
0.000000001
 43
0.0000000001
 44
0.00000001
 40
0.0
 40
0.0
 40
0.0
 40
0.0
 40
0.4957766498283395
 40
0.9937902352970985
 40
0.9937902352970985
 40
0.9937902352970985
 40
0.9937902352970985
 10
-67.59747668164039
 20
-99.90269724197263
 30
0.0
 10
-67.5718549649903
 20
-99.73943433143356
 30
0.0
 10
-67.52049590720603
 20
-99.4121718741295
 30
0.0
 10
-67.46452854769115
 20
-99.08566591735503
 30
0.0
 10
-67.43648186921112
 20
-98.9220454723171
 30
0.0
 11
-67.59747668164039
 21
-99.90269724197263
 31
0.0
 11
-67.51946462703329
 21
-99.41309678660357
 31
0.0
 11
-67.43648186921112
 21
-98.9220454723171
 31
0.0
  0
SPLINE
  5
A0
330
47
100
AcDbEntity
  8
0
  6
Continuous
 62
     7
100
AcDbSpline
210
0.0
220
0.0
230
1.0
 70
     8
 71
     3
 72
    13
 73
     9
 74
     7
 42
0.000000001
 43
0.0000000001
 44
0.00000001
 40
0.0
 40
0.0
 40
0.0
 40
0.0
 40
0.0765994869014512
 40
0.1527844493832378
 40
0.2227610232605906
 40
0.2817757425328162
 40
0.3274706850919649
 40
0.3625618585036537
 40
0.3625618585036537
 40
0.3625618585036537
 40
0.3625618585036537
 10
-67.83633922707591
 20
-99.98175352808175
 30
0.0
 10
-67.84129087071514
 20
-100.0068479059175
 30
0.0
 10
-67.85116736187861
 20
-100.0569008609737
 30
0.0
 10
-67.87765056399468
 20
-100.1265151877772
 30
0.0
 10
-67.91025324175767
 20
-100.1872984476012
 30
0.0
 10
-67.94676481107712
 20
-100.2320078059433
 30
0.0
 10
-67.9854701287419
 20
-100.2628641717976
 30
0.0
 10
-68.013104460998
 20
-100.2618949224642
 30
0.0
 10
-68.02510802432181
 20
-100.2614739018439
 30
0.0
 11
-67.83633922707591
 21
-99.98175352808175
 31
0.0
 11
-67.85327728019456
 21
-100.0564568226471
 31
0.0
 11
-67.87997765813306
 21
-100.1278097370021
 31
0.0
 11
-67.91389740181417
 21
-100.1890157159409
 31
0.0
 11
-67.95180549502012
 21
-100.2342452797068
 31
0.0
 11
-67.99009126003526
 21
-100.2591897855905
 31
0.0
 11
-68.02510802432181
 21
-100.2614739018439
 31
0.0
  0
SPLINE
  5
A1
330
47
100
AcDbEntity
  8
0
  6
Continuous
 62
     7
100
AcDbSpline
210
0.0
220
0.0
230
1.0
 70
     8
 71
     3
 72
     9
 73
     5
 74
     3
 42
0.000000001
 43
0.0000000001
 44
0.00000001
 40
0.0
 40
0.0
 40
0.0
 40
0.0
 40
0.0666784002408223
 40
0.1434386157022947
 40
0.1434386157022947
 40
0.1434386157022947
 40
0.1434386157022947
 10
-68.16378307337814
 20
-100.7418583632592
 30
0.0
 10
-68.18449456205786
 20
-100.7325434096612
 30
0.0
 10
-68.22904911837117
 20
-100.7125050596138
 30
0.0
 10
-68.25533835938684
 20
-100.6711042382288
 30
0.0
 10
-68.26940686343005
 20
-100.6489488583909
 30
0.0
 11
-68.16378307337814
 21
-100.7418583632592
 31
0.0
 11
-68.22197055195971
 21
-100.7092972414065
 31
0.0
 11
-68.26940686343005
 21
-100.6489488583909
 31
0.0
  0
SPLINE
  5
A2
330
47
100
AcDbEntity
  8
0
  6
Continuous
 62
     7
100
AcDbSpline
210
0.0
220
0.0
230
1.0
 70
     8
 71
     3
 72
    13
 73
     9
 74
     7
 42
0.000000001
 43
0.0000000001
 44
0.00000001
 40
0.0
 40
0.0
 40
0.0
 40
0.0
 40
0.229798440714592
 40
0.4583533289561836
 40
0.6682830502687134
 40
0.8453272060211829
 40
0.9824120424763039
 40
1.087685577437324
 40
1.087685577437324
 40
1.087685577437324
 40
1.087685577437324
 10
-67.59747668164039
 20
-99.90269724197263
 30
0.0
 10
-67.61233161126584
 20
-99.97798036893126
 30
0.0
 10
-67.64196108329227
 20
-100.1281392284659
 30
0.0
 10
-67.72141069355929
 20
-100.3369821986497
 30
0.0
 10
-67.8192187216406
 20
-100.5193319851921
 30
0.0
 10
-67.9287534392366
 20
-100.6534600428524
 30
0.0
 10
-68.0448693670966
 20
-100.7460292034563
 30
0.0
 10
-68.1277723783694
 20
-100.7431214252966
 30
0.0
 10
-68.16378307337814
 20
-100.7418583632592
 30
0.0
 11
-67.59747668164039
 21
-99.90269724197263
 31
0.0
 11
-67.64829084099631
 21
-100.1268071256686
 31
0.0
 11
-67.72839197481184
 21
-100.3408658687335
 31
0.0
 11
-67.83015120585516
 21
-100.52448380555
 31
0.0
 11
-67.94387548547307
 21
-100.6601724968476
 31
0.0
 11
-68.05873278051845
 21
-100.7350060144989
 31
0.0
 11
-68.16378307337814
 21
-100.7418583632592
 31
0.0
  0
SPLINE
  5
A3
330
47
100
AcDbEntity
  8
0
  6
Continuous
 62
     7
100
AcDbSpline
210
0.0
220
0.0
230
1.0
 70
     8
 71
     3
 72
     9
 73
     5
 74
     3
 42
0.000000001
 43
0.0000000001
 44
0.00000001
 40
0.0
 40
0.0
 40
0.0
 40
0.0
 40
0.10604470646739
 40
0.2229026689548585
 40
0.2229026689548585
 40
0.2229026689548585
 40
0.2229026689548585
 10
-81.85320262074464
 20
-89.50341961304967
 30
0.0
 10
-81.88858120206297
 20
-89.4972269080192
 30
0.0
 10
-81.96294587812793
 20
-89.48421005457155
 30
0.0
 10
-82.03472314073561
 20
-89.5080779378453
 30
0.0
 10
-82.07235276791357
 20
-89.52059081838237
 30
0.0
 11
-81.85320262074464
 21
-89.50341961304967
 31
0.0
 11
-81.95875274933239
 21
-89.49318973149211
 31
0.0
 11
-82.07235276791357
 21
-89.52059081838237
 31
0.0
  0
SPLINE
  5
A4
330
47
100
AcDbEntity
  8
0
  6
Continuous
 62
     7
100
AcDbSpline
210
0.0
220
0.0
230
1.0
 70
     8
 71
     3
 72
    11
 73
     7
 74
     5
 42
0.000000001
 43
0.0000000001
 44
0.00000001
 40
0.0
 40
0.0
 40
0.0
 40
0.0
 40
0.5631206460486291
 40
1.073282405241799
 40
1.528646643601877
 40
1.931251237828684
 40
1.931251237828684
 40
1.931251237828684
 40
1.931251237828684
 10
-83.51610276791358
 20
-90.77091499509615
 30
0.0
 10
-83.4000761716115
 20
-90.62308144379904
 30
0.0
 10
-83.17893473155868
 20
-90.34131741092983
 30
0.0
 10
-82.81403500127189
 20
-89.98453473628558
 30
0.0
 10
-82.4533108190309
 20
-89.7006123016516
 30
0.0
 10
-82.19402395437162
 20
-89.57808645426239
 30
0.0
 10
-82.07235276791357
 20
-89.52059081838237
 30
0.0
 11
-83.51610276791358
 21
-90.77091499509615
 31
0.0
 11
-83.15837183617403
 21
-90.33602024787356
 31
0.0
 11
-82.79422776791358
 21
-89.9787190869159
 31
0.0
 11
-82.43008369965312
 21
-89.70530422037163
 31
0.0
 11
-82.07235276791357
 21
-89.52059081838237
 31
0.0
  0
SPLINE
  5
A5
330
47
100
AcDbEntity
  8
0
  6
Continuous
 62
     7
100
AcDbSpline
210
0.0
220
0.0
230
1.0
 70
     8
 71
     3
 72
    13
 73
     9
 74
     7
 42
0.000000001
 43
0.0000000001
 44
0.00000001
 40
0.0
 40
0.0
 40
0.0
 40
0.0
 40
0.3004102021076862
 40
0.6242178829212586
 40
0.9587809427316178
 40
1.290583265785073
 40
1.606328761133406
 40
1.894062070567778
 40
1.894062070567778
 40
1.894062070567778
 40
1.894062070567778
 10
-84.06867831276166
 20
-92.55265849805285
 30
0.0
 10
-84.06689879200273
 20
-92.4524249091294
 30
0.0
 10
-84.06320113732355
 20
-92.24415102879192
 30
0.0
 10
-84.01111967351964
 20
-91.92785548291096
 30
0.0
 10
-83.9293646213153
 20
-91.60767204421168
 30
0.0
 10
-83.81660207540347
 20
-91.29994983655719
 30
0.0
 10
-83.68333169681068
 20
-91.01691555303984
 30
0.0
 10
-83.57009365967704
 20
-90.85033778478075
 30
0.0
 10
-83.51610276791358
 20
-90.77091499509615
 30
0.0
 11
-84.06867831276166
 21
-92.55265849805285
 31
0.0
 11
-84.05634277323047
 21
-92.25250166576151
 31
0.0
 11
-84.00720550577415
 21
-91.93244394684342
 31
0.0
 11
-83.92371949261727
 21
-91.60846473861034
 31
0.0
 11
-83.81005319575286
 21
-91.2967392893564
 31
0.0
 11
-83.67188139983458
 21
-91.01283125223597
 31
0.0
 11
-83.51610276791358
 21
-90.77091499509615
 31
0.0
  0
SPLINE
  5
A6
330
47
100
AcDbEntity
  8
0
  6
Continuous
 62
     7
100
AcDbSpline
210
0.0
220
0.0
230
1.0
 70
     8
 71
     3
 72
    11
 73
     7
 74
     5
 42
0.000000001
 43
0.0000000001
 44
0.00000001
 40
0.0
 40
0.0
 40
0.0
 40
0.0
 40
0.5631206460486311
 40
1.073282405241801
 40
1.528646643601876
 40
1.931251237828684
 40
1.931251237828684
 40
1.931251237828684
 40
1.931251237828684
 10
-67.92764549979367
 20
-95.27091499509615
 30
0.0
 10
-67.8116189034916
 20
-95.12308144379902
 30
0.0
 10
-67.59047746343882
 20
-94.84131741092982
 30
0.0
 10
-67.22557773315197
 20
-94.4845347362856
 30
0.0
 10
-66.86485355091101
 20
-94.20061230165157
 30
0.0
 10
-66.60556668625172
 20
-94.07808645426236
 30
0.0
 10
-66.48389549979368
 20
-94.02059081838236
 30
0.0
 11
-67.92764549979367
 21
-95.27091499509615
 31
0.0
 11
-67.56991456805413
 21
-94.83602024787355
 31
0.0
 11
-67.20577049979367
 21
-94.4787190869159
 31
0.0
 11
-66.84162643153323
 21
-94.20530422037162
 31
0.0
 11
-66.48389549979368
 21
-94.02059081838236
 31
0.0
  0
SPLINE
  5
A7
330
47
100
AcDbEntity
  8
0
  6
Continuous
 62
     7
100
AcDbSpline
210
0.0
220
0.0
230
1.0
 70
     8
 71
     3
 72
     9
 73
     5
 74
     3
 42
0.000000001
 43
0.0000000001
 44
0.00000001
 40
0.0
 40
0.0
 40
0.0
 40
0.0
 40
0.1060447064673617
 40
0.2229026689548474
 40
0.2229026689548474
 40
0.2229026689548474
 40
0.2229026689548474
 10
-66.26474535262476
 20
-94.00341961304964
 30
0.0
 10
-66.30012393394308
 20
-93.99722690801919
 30
0.0
 10
-66.37448861000804
 20
-93.98421005457152
 30
0.0
 10
-66.44626587261568
 20
-94.00807793784527
 30
0.0
 10
-66.48389549979368
 20
-94.02059081838236
 30
0.0
 11
-66.26474535262476
 21
-94.00341961304964
 31
0.0
 11
-66.37029548121248
 21
-93.99318973149208
 31
0.0
 11
-66.48389549979368
 21
-94.02059081838236
 31
0.0
  0
SPLINE
  5
A8
330
47
100
AcDbEntity
  8
0
  6
Continuous
 62
     7
100
AcDbSpline
210
0.0
220
0.0
230
1.0
 70
     8
 71
     3
 72
    11
 73
     7
 74
     5
 42
0.000000001
 43
0.0000000001
 44
0.00000001
 40
0.0
 40
0.0
 40
0.0
 40
0.0
 40
0.0458447496249724
 40
0.1109025091299557
 40
0.195957182837936
 40
0.2925581044074155
 40
0.2925581044074155
 40
0.2925581044074155
 40
0.2925581044074155
 10
-66.52510802432184
 20
-98.9624357961673
 30
0.0
 10
-66.509347077816
 20
-98.96171295436285
 30
0.0
 10
-66.47121995682103
 20
-98.95996431923366
 30
0.0
 10
-66.42415407115188
 20
-98.9077386709199
 30
0.0
 10
-66.38082050150143
 20
-98.83904995436379
 30
0.0
 10
-66.36149955105817
 20
-98.78116827681416
 30
0.0
 10
-66.35122504524821
 20
-98.75038792223809
 30
0.0
 11
-66.52510802432184
 21
-98.9624357961673
 31
0.0
 11
-66.47978862619374
 21
-98.95551527147079
 31
0.0
 11
-66.43077679300677
 21
-98.91273263949857
 31
0.0
 11
-66.38560766517276
 21
-98.8406628997464
 31
0.0
 11
-66.35122504524821
 21
-98.75038792223809
 31
0.0
  0
SPLINE
  5
A9
330
47
100
AcDbEntity
  8
0
  6
Continuous
 62
     7
100
AcDbSpline
210
0.0
220
0.0
230
1.0
 70
     8
 71
     3
 72
     9
 73
     5
 74
     3
 42
0.000000001
 43
0.0000000001
 44
0.00000001
 40
0.0
 40
0.0
 40
0.0
 40
0.0
 40
0.362962362737563
 40
0.7200589720592776
 40
0.7200589720592776
 40
0.7200589720592776
 40
0.7200589720592776
 10
-66.81406431794697
 20
-99.2242422333753
 30
0.0
 10
-66.83953621996845
 20
-99.10596025270824
 30
0.0
 10
-66.89006839782306
 20
-98.87130782434792
 30
0.0
 10
-66.94688315478201
 20
-98.63809711768282
 30
0.0
 10
-66.97505913037622
 20
-98.5224416586023
 30
0.0
 11
-66.81406431794697
 21
-99.2242422333753
 31
0.0
 11
-66.89207637255407
 21
-98.8697626201886
 31
0.0
 11
-66.97505913037622
 21
-98.5224416586023
 31
0.0
  0
SPLINE
  5
AA
330
47
100
AcDbEntity
  8
0
  6
Continuous
 62
     7
100
AcDbSpline
210
0.0
220
0.0
230
1.0
 70
     8
 71
     3
 72
    13
 73
     9
 74
     7
 42
0.000000001
 43
0.0000000001
 44
0.00000001
 40
0.0
 40
0.0
 40
0.0
 40
0.0
 40
0.0883181449565389
 40
0.1974460961085802
 40
0.3353408380419764
 40
0.50025118630036
 40
0.6852841378122915
 40
0.8808214707354636
 40
0.8808214707354636
 40
0.8808214707354636
 40
0.8808214707354636
 10
-66.66378307337814
 20
-99.44282025758257
 30
0.0
 10
-66.63377427883866
 20
-99.44518757545282
 30
0.0
 10
-66.56668592300895
 20
-99.45047999088055
 30
0.0
 10
-66.46733447577856
 20
-99.38754357456232
 30
0.0
 10
-66.37154205596158
 20
-99.29003782703093
 30
0.0
 10
-66.28113264015349
 20
-99.15342007789525
 30
0.0
 10
-66.20073268082506
 20
-98.98982252810438
 30
0.0
 10
-66.16202313409097
 20
-98.86883838868103
 30
0.0
 10
-66.14213413615731
 20
-98.80667663579493
 30
0.0
 11
-66.66378307337814
 21
-99.44282025758257
 31
0.0
 11
-66.57547556654583
 21
-99.44144905596079
 31
0.0
 11
-66.47892944444041
 21
-99.39057905283185
 31
0.0
 11
-66.38078940002835
 21
-99.29371063060933
 31
0.0
 11
-66.28780987597257
 21
-99.15751139793093
 31
0.0
 11
-66.20639029944572
 21
-98.99135470742742
 31
0.0
 11
-66.14213413615731
 21
-98.80667663579493
 31
0.0
  0
SPLINE
  5
AB
330
47
100
AcDbEntity
  8
0
  6
Continuous
 62
     7
100
AcDbSpline
210
0.0
220
0.0
230
1.0
 70
     8
 71
     3
 72
    11
 73
     7
 74
     5
 42
0.000000001
 43
0.0000000001
 44
0.00000001
 40
0.0
 40
0.0
 40
0.0
 40
0.0
 40
0.6694513964500001
 40
1.310758330475759
 40
1.899077823340259
 40
2.414507673162959
 40
2.414507673162959
 40
2.414507673162959
 40
2.414507673162959
 10
-66.35122504524821
 20
-98.75038792223809
 30
0.0
 10
-66.29579682270463
 20
-98.53397758417661
 30
0.0
 10
-66.18727065468397
 20
-98.11025503007245
 30
0.0
 10
-66.11048886385235
 20
-97.4808923918499
 30
0.0
 10
-66.09283363188545
 20
-96.8966422723547
 30
0.0
 10
-66.15342622756503
 20
-96.53297423114768
 30
0.0
 10
-66.18172181896112
 20
-96.36314820671322
 30
0.0
 11
-66.35122504524821
 21
-98.75038792223809
 31
0.0
 11
-66.1994256530414
 21
-98.0983740298315
 31
0.0
 11
-66.1184856082765
 21
-97.46219536441387
 31
0.0
 11
-66.1124837351583
 21
-96.87390648510834
 31
0.0
 11
-66.18172181896112
 21
-96.36314820671322
 31
0.0
  0
SPLINE
  5
AC
330
47
100
AcDbEntity
  8
0
  6
Continuous
 62
     7
100
AcDbSpline
210
0.0
220
0.0
230
1.0
 70
     8
 71
     3
 72
    11
 73
     7
 74
     5
 42
0.000000001
 43
0.0000000001
 44
0.00000001
 40
0.0
 40
0.0
 40
0.0
 40
0.0
 40
0.6383656567513625
 40
1.258686417146607
 40
1.844643147606812
 40
2.38192070913977
 40
2.38192070913977
 40
2.38192070913977
 40
2.38192070913977
 10
-66.14213413615731
 20
-98.80667663579493
 30
0.0
 10
-66.08833243744104
 20
-98.60065450718093
 30
0.0
 10
-65.98224988523249
 20
-98.1944339432367
 30
0.0
 10
-65.88951772774142
 20
-97.58582726829539
 30
0.0
 10
-65.84385524176638
 20
-97.00502477550731
 30
0.0
 10
-65.86580690642647
 20
-96.6308675677355
 30
0.0
 10
-65.87630707114502
 20
-96.45189665009684
 30
0.0
 11
-66.14213413615731
 21
-98.80667663579493
 31
0.0
 11
-65.99173985629251
 21
-98.18627976908715
 31
0.0
 11
-65.89547218848222
 21
-97.57347443048405
 31
0.0
 11
-65.85655968633237
 21
-96.98881118675648
 31
0.0
 11
-65.87630707114502
 21
-96.45189665009684
 31
0.0
  0
SPLINE
  5
AD
330
47
100
AcDbEntity
  8
0
  6
Continuous
 62
     7
100
AcDbSpline
210
0.0
220
0.0
230
1.0
 70
     8
 71
     3
 72
     9
 73
     5
 74
     3
 42
0.000000001
 43
0.0000000001
 44
0.00000001
 40
0.0
 40
0.0
 40
0.0
 40
0.0
 40
0.8254512459669693
 40
1.608288373406738
 40
1.608288373406738
 40
1.608288373406738
 40
1.608288373406738
 10
-65.9313199549456
 20
-94.84524540264213
 30
0.0
 10
-65.93393496984513
 20
-95.12053692878744
 30
0.0
 10
-65.93902997887885
 20
-95.65690798960071
 30
0.0
 10
-65.89684210225646
 20
-96.19162313525227
 30
0.0
 10
-65.87630707114502
 20
-96.45189665009684
 30
0.0
 11
-65.9313199549456
 21
-94.84524540264213
 31
0.0
 11
-65.92670955170726
 21
-95.67068377353124
 31
0.0
 11
-65.87630707114502
 21
-96.45189665009684
 31
0.0
  0
SPLINE
  5
AE
330
47
100
AcDbEntity
  8
0
  6
Continuous
 62
     7
100
AcDbSpline
210
0.0
220
0.0
230
1.0
 70
     8
 71
     3
 72
    11
 73
     7
 74
     5
 42
0.000000001
 43
0.0000000001
 44
0.00000001
 40
0.0
 40
0.0
 40
0.0
 40
0.0
 40
0.3150902633243819
 40
0.578507243560444
 40
0.7879813668561932
 40
0.9590396019574912
 40
0.9590396019574912
 40
0.9590396019574912
 40
0.9590396019574912
 10
-65.9313199549456
 20
-94.84524540264213
 30
0.0
 10
-65.93277952494581
 20
-94.73970234762605
 30
0.0
 10
-65.93545930925887
 20
-94.54592479046588
 30
0.0
 10
-65.99723449019584
 20
-94.29116399339048
 30
0.0
 10
-66.09774386160892
 20
-94.08953183486851
 30
0.0
 10
-66.21295516234122
 20
-94.03012456905061
 30
0.0
 10
-66.26474535262476
 20
-94.00341961304964
 30
0.0
 11
-65.9313199549456
 21
-94.84524540264213
 31
0.0
 11
-65.94835793601302
 21
-94.53061613517835
 31
0.0
 11
-66.01286248580453
 21
-94.27521905234914
 31
0.0
 11
-66.12065375263695
 21
-94.09560709602745
 31
0.0
 11
-66.26474535262476
 21
-94.00341961304964
 31
0.0
  0
ENDBLK
  5
49
330
47
100
AcDbEntity
  8
0
100
AcDbBlockEnd
  0
BLOCK
  5
4C
330
4A
100
AcDbEntity
  8
0
100
AcDbBlockBegin
  2
Allg1
 70
     0
 10
-74.99999991746313
 20
-95.00000049308602
 30
0.0
  3
Allg1
  1

  0
INSERT
  5
4B
330
4A
100
AcDbEntity
  8
0
100
AcDbBlockReference
  2
0820510_PATG_1_18-select__1
 10
-84.15646343884687
 20
-100.7606151263697
 30
0.0
  0
MTEXT
  5
B0
330
4A
100
AcDbEntity
  8
1
 62
     6
100
AcDbMText
 10
-74.99999991746307
 20
-105.1904180712352
 30
0.0
 40
2.5
 41
0.0
 71
     2
 72
     1
  1
 
  7
CONVERTER_11
 73
     1
 44
1.32052821128451
  0
ENDBLK
  5
4D
330
4A
100
AcDbEntity
  8
0
100
AcDbBlockEnd
  0
BLOCK
  5
4F
330
4E
100
AcDbEntity
  8
0
100
AcDbBlockBegin
  2
0820510_PATG_1_18-select__2
 70
     0
 10
-145.4000012064449
 20
-82.60000190621271
 30
0.0
  3
0820510_PATG_1_18-select__2
  1

  0
LINE
  5
B1
330
4E
100
AcDbEntity
  8
0
  6
Continuous
 62
     2
100
AcDbLine
 10
-127.4000012064449
 20
-78.45625190621271
 30
0.0
 11
-145.4000012064449
 21
-78.45625190621271
 31
0.0
  0
LINE
  5
B2
330
4E
100
AcDbEntity
  8
0
  6
Continuous
 62
     7
100
AcDbLine
 10
-145.4000012064449
 20
-77.35000190621273
 30
0.0
 11
-145.4000012064449
 21
-77.2410750489154
 31
0.0
  0
LINE
  5
B3
330
4E
100
AcDbEntity
  8
0
  6
Continuous
 62
     7
100
AcDbLine
 10
-145.4000012064449
 20
-81.34375190621272
 30
0.0
 11
-145.4000012064449
 21
-78.45625190621271
 31
0.0
  0
LINE
  5
B4
330
4E
100
AcDbEntity
  8
0
  6
Continuous
 62
     7
100
AcDbLine
 10
-145.4000012064449
 20
-77.35000190621273
 30
0.0
 11
-145.4000012064449
 21
-78.45625190621271
 31
0.0
  0
LINE
  5
B5
330
4E
100
AcDbEntity
  8
0
  6
Continuous
 62
     7
100
AcDbLine
 10
-145.4000012064449
 20
-82.45000190621272
 30
0.0
 11
-145.4000012064449
 21
-81.34375190621272
 31
0.0
  0
LINE
  5
B6
330
4E
100
AcDbEntity
  8
0
  6
Continuous
 62
     7
100
AcDbLine
 10
-127.4000012064449
 20
-82.60000190621271
 30
0.0
 11
-127.4000012064449
 21
-82.55892876351002
 31
0.0
  0
LINE
  5
B7
330
4E
100
AcDbEntity
  8
0
  6
Continuous
 62
     7
100
AcDbLine
 10
-145.4000012064449
 20
-82.60000190621271
 30
0.0
 11
-145.4000012064449
 21
-82.55892876351002
 31
0.0
  0
LINE
  5
B8
330
4E
100
AcDbEntity
  8
0
  6
Continuous
 62
     2
100
AcDbLine
 10
-127.4000012064449
 20
-82.55892876351002
 30
0.0
 11
-145.4000012064449
 21
-82.55892876351002
 31
0.0
  0
LINE
  5
B9
330
4E
100
AcDbEntity
  8
0
  6
Continuous
 62
     7
100
AcDbLine
 10
-127.4000012064449
 20
-82.60000190621271
 30
0.0
 11
-145.4000012064449
 21
-82.60000190621271
 31
0.0
  0
LINE
  5
BA
330
4E
100
AcDbEntity
  8
0
  6
Continuous
 62
     7
100
AcDbLine
 10
-145.4000012064449
 20
-82.45000190621272
 30
0.0
 11
-145.4000012064449
 21
-82.55892876351002
 31
0.0
  0
LINE
  5
BB
330
4E
100
AcDbEntity
  8
0
  6
Continuous
 62
     7
100
AcDbLine
 10
-127.4000012064449
 20
-82.45000190621272
 30
0.0
 11
-127.4000012064449
 21
-82.55892876351002
 31
0.0
  0
LINE
  5
BC
330
4E
100
AcDbEntity
  8
0
  6
Continuous
 62
     7
100
AcDbLine
 10
-127.4000012064449
 20
-77.35000190621273
 30
0.0
 11
-127.4000012064449
 21
-77.2410750489154
 31
0.0
  0
LINE
  5
BD
330
4E
100
AcDbEntity
  8
0
  6
Continuous
 62
     7
100
AcDbLine
 10
-127.4000012064449
 20
-77.20000190621272
 30
0.0
 11
-127.4000012064449
 21
-77.2410750489154
 31
0.0
  0
LINE
  5
BE
330
4E
100
AcDbEntity
  8
0
  6
Continuous
 62
     7
100
AcDbLine
 10
-145.4000012064449
 20
-77.35000190621273
 30
0.0
 11
-127.4000012064449
 21
-77.35000190621273
 31
0.0
  0
LINE
  5
BF
330
4E
100
AcDbEntity
  8
0
  6
Continuous
 62
     7
100
AcDbLine
 10
-145.4000012064449
 20
-77.20000190621272
 30
0.0
 11
-145.4000012064449
 21
-77.2410750489154
 31
0.0
  0
LINE
  5
C0
330
4E
100
AcDbEntity
  8
0
  6
Continuous
 62
     2
100
AcDbLine
 10
-127.4000012064449
 20
-77.2410750489154
 30
0.0
 11
-145.4000012064449
 21
-77.2410750489154
 31
0.0
  0
LINE
  5
C1
330
4E
100
AcDbEntity
  8
0
  6
Continuous
 62
     7
100
AcDbLine
 10
-145.4000012064449
 20
-77.20000190621272
 30
0.0
 11
-127.4000012064449
 21
-77.20000190621272
 31
0.0
  0
LINE
  5
C2
330
4E
100
AcDbEntity
  8
0
  6
Continuous
 62
     7
100
AcDbLine
 10
-127.4000012064449
 20
-81.34375190621272
 30
0.0
 11
-127.4000012064449
 21
-78.45625190621271
 31
0.0
  0
LINE
  5
C3
330
4E
100
AcDbEntity
  8
0
  6
Continuous
 62
     7
100
AcDbLine
 10
-127.4000012064449
 20
-77.35000190621273
 30
0.0
 11
-127.4000012064449
 21
-78.45625190621271
 31
0.0
  0
LINE
  5
C4
330
4E
100
AcDbEntity
  8
0
  6
Continuous
 62
     7
100
AcDbLine
 10
-127.4000012064449
 20
-82.45000190621272
 30
0.0
 11
-127.4000012064449
 21
-81.34375190621272
 31
0.0
  0
LINE
  5
C5
330
4E
100
AcDbEntity
  8
0
  6
Continuous
 62
     2
100
AcDbLine
 10
-127.4000012064449
 20
-81.34375190621272
 30
0.0
 11
-145.4000012064449
 21
-81.34375190621272
 31
0.0
  0
LINE
  5
C6
330
4E
100
AcDbEntity
  8
0
  6
Continuous
 62
     7
100
AcDbLine
 10
-127.4000012064449
 20
-82.45000190621272
 30
0.0
 11
-145.4000012064449
 21
-82.45000190621272
 31
0.0
  0
ENDBLK
  5
50
330
4E
100
AcDbEntity
  8
0
100
AcDbBlockEnd
  0
BLOCK
  5
53
330
51
100
AcDbEntity
  8
0
100
AcDbBlockBegin
  2
Drfsicht1
 70
     0
 10
-136.4000012064399
 20
-79.90000347344039
 30
0.0
  3
Drfsicht1
  1

  0
INSERT
  5
52
330
51
100
AcDbEntity
  8
0
100
AcDbBlockReference
  2
0820510_PATG_1_18-select__2
 10
-145.4000012064449
 20
-82.60000190621271
 30
0.0
  0
MTEXT
  5
C7
330
51
100
AcDbEntity
  8
1
 62
     6
100
AcDbMText
 10
-136.4000012064399
 20
-85.10000407129633
 30
0.0
 40
2.5
 41
0.0
 71
     2
 72
     1
  1
 
  7
CONVERTER_11
 73
     1
 44
1.32052821128451
  0
DIMENSION
  5
D2
330
51
100
AcDbEntity
  8
1
100
AcDbDimension
  2
*D16
 10
-150.4000012064449
 20
-82.60000190621271
 30
0.0
 11
-152.1125012064449
 21
-79.90000190621271
 31
0.0
 70
    32
  1
<>
 71
     5
 42
-1.0
 53
90.00000000000001
  3
ME10_DIM_10
100
AcDbAlignedDimension
 13
-145.4000012064449
 23
-77.20000190621272
 33
0.0
 14
-145.4000012064449
 24
-82.60000190621271
 34
0.0
 50
90.00000000000001
100
AcDbRotatedDimension
  0
ENDBLK
  5
54
330
51
100
AcDbEntity
  8
0
100
AcDbBlockEnd
  0
BLOCK
  5
56
330
55
100
AcDbEntity
  8
0
100
AcDbBlockBegin
  2
0820510_PATG_1_18-select__3
 70
     0
 10
-89.99999999998998
 20
-62.20000130382032
 30
0.0
  3
0820510_PATG_1_18-select__3
  1

  0
LINE
  5
D3
330
55
100
AcDbEntity
  8
0
  6
Continuous
 62
     7
100
AcDbLine
 10
-71.99999999998998
 20
-62.20000130382032
 30
0.0
 11
-71.99999999998998
 21
-61.86113257922982
 31
0.0
  0
LINE
  5
D4
330
55
100
AcDbEntity
  8
0
  6
Continuous
 62
     7
100
AcDbLine
 10
-89.99999999998998
 20
-62.20000130382032
 30
0.0
 11
-89.99999999998998
 21
-61.86113257922982
 31
0.0
  0
LINE
  5
D5
330
55
100
AcDbEntity
  8
0
  6
Continuous
 62
     7
100
AcDbLine
 10
-71.99999999998998
 20
-62.20000130382032
 30
0.0
 11
-89.99999999998998
 21
-62.20000130382032
 31
0.0
  0
LINE
  5
D6
330
55
100
AcDbEntity
  8
0
  6
Continuous
 62
     7
100
AcDbLine
 10
-71.99999999998998
 20
-61.86113257922982
 30
0.0
 11
-71.99999999998998
 21
-59.40789392699188
 31
0.0
  0
LINE
  5
D7
330
55
100
AcDbEntity
  8
0
  6
Continuous
 62
     7
100
AcDbLine
 10
-89.99999999998998
 20
-61.86113257922982
 30
0.0
 11
-89.99999999998998
 21
-59.40789392699188
 31
0.0
  0
LINE
  5
D8
330
55
100
AcDbEntity
  8
0
  6
Continuous
 62
     2
100
AcDbLine
 10
-89.99999999998998
 20
-59.40789392699188
 30
0.0
 11
-71.99999999998998
 21
-59.40789392699188
 31
0.0
  0
LINE
  5
D9
330
55
100
AcDbEntity
  8
0
  6
Continuous
 62
     2
100
AcDbLine
 10
-89.99999999998998
 20
-61.86113257922982
 30
0.0
 11
-71.99999999998998
 21
-61.86113257922982
 31
0.0
  0
LINE
  5
DA
330
55
100
AcDbEntity
  8
0
  6
Continuous
 62
     7
100
AcDbLine
 10
-71.99999999998998
 20
-57.49767998276763
 30
0.0
 11
-71.99999999998998
 21
-59.40789392699188
 31
0.0
  0
LINE
  5
DB
330
55
100
AcDbEntity
  8
0
  6
Continuous
 62
     7
100
AcDbLine
 10
-89.99999999998998
 20
-57.49767998276763
 30
0.0
 11
-89.99999999998998
 21
-59.40789392699188
 31
0.0
  0
LINE
  5
DC
330
55
100
AcDbEntity
  8
0
  6
Continuous
 62
     7
100
AcDbLine
 10
-71.99999999998998
 20
-55.80000130382032
 30
0.0
 11
-89.99999999998998
 21
-55.80000130382032
 31
0.0
  0
LINE
  5
DD
330
55
100
AcDbEntity
  8
0
  6
Continuous
 62
     7
100
AcDbLine
 10
-71.99999999998998
 20
-55.80000130382032
 30
0.0
 11
-71.99999999998998
 21
-55.99287534549787
 31
0.0
  0
LINE
  5
DE
330
55
100
AcDbEntity
  8
0
  6
Continuous
 62
     7
100
AcDbLine
 10
-89.99999999998998
 20
-55.80000130382032
 30
0.0
 11
-89.99999999998998
 21
-55.99287534549787
 31
0.0
  0
LINE
  5
DF
330
55
100
AcDbEntity
  8
0
  6
Continuous
 62
     2
100
AcDbLine
 10
-89.99999999998998
 20
-57.49767998276763
 30
0.0
 11
-71.99999999998998
 21
-57.49767998276763
 31
0.0
  0
LINE
  5
E0
330
55
100
AcDbEntity
  8
0
  6
Continuous
 62
     7
100
AcDbLine
 10
-71.99999999998998
 20
-57.49767998276763
 30
0.0
 11
-71.99999999998998
 21
-55.99287534549787
 31
0.0
  0
LINE
  5
E1
330
55
100
AcDbEntity
  8
0
  6
Continuous
 62
     7
100
AcDbLine
 10
-89.99999999998998
 20
-57.49767998276763
 30
0.0
 11
-89.99999999998998
 21
-55.99287534549787
 31
0.0
  0
LINE
  5
E2
330
55
100
AcDbEntity
  8
0
  6
Continuous
 62
     2
100
AcDbLine
 10
-89.99999999998998
 20
-55.99287534549787
 30
0.0
 11
-71.99999999998998
 21
-55.99287534549787
 31
0.0
  0
ENDBLK
  5
57
330
55
100
AcDbEntity
  8
0
100
AcDbBlockEnd
  0
BLOCK
  5
5A
330
58
100
AcDbEntity
  8
0
100
AcDbBlockBegin
  2
Rckans1
 70
     0
 10
-80.999999999995
 20
-59.00000065191006
 30
0.0
  3
Rckans1
  1

  0
INSERT
  5
59
330
58
100
AcDbEntity
  8
0
100
AcDbBlockReference
  2
0820510_PATG_1_18-select__3
 10
-89.99999999998998
 20
-62.20000130382032
 30
0.0
  0
MTEXT
  5
E3
330
58
100
AcDbEntity
  8
1
 62
     6
100
AcDbMText
 10
-80.999999999995
 20
-64.70000265190998
 30
0.0
 40
2.5
 41
0.0
 71
     2
 72
     1
  1
 
  7
CONVERTER_11
 73
     1
 44
1.32052821128451
  0
ENDBLK
  5
5B
330
58
100
AcDbEntity
  8
0
100
AcDbBlockEnd
  0
BLOCK
  5
5D
330
5C
100
AcDbEntity
  8
0
100
AcDbBlockBegin
  2
0820510_PATG_1_18-select__4
 70
     0
 10
-111.4000050777877
 20
-62.20000130382063
 30
0.0
  3
0820510_PATG_1_18-select__4
  1

  0
LINE
  5
E4
330
5C
100
AcDbEntity
  8
0
  6
Continuous
 62
     7
100
AcDbLine
 10
-110.7481024394528
 20
-59.00000130382063
 30
0.0
 11
-106.6519077161226
 21
-59.00000130382063
 31
0.0
  0
LINE
  5
E5
330
5C
100
AcDbEntity
  8
0
  6
Continuous
 62
     7
100
AcDbLine
 10
-107.8879061876946
 20
-60.20000130382061
 30
0.0
 11
-109.5121039678808
 21
-60.20000130382061
 31
0.0
  0
LINE
  5
E6
330
5C
100
AcDbEntity
  8
0
  6
Continuous
 62
     7
100
AcDbLine
 10
-108.2385823389528
 20
-60.70000130382061
 30
0.0
 11
-109.1614278166226
 21
-60.70000130382061
 31
0.0
  0
ARC
  5
E7
330
5C
100
AcDbEntity
  8
0
  6
Continuous
 62
     7
100
AcDbCircle
 10
-108.7000050777877
 20
-61.30000130382061
 30
0.0
 40
5.499999999999992
100
AcDbArc
 50
74.78154484222983
 51
105.2184551577703
  0
ARC
  5
E8
330
5C
100
AcDbEntity
  8
0
  6
Continuous
 62
     7
100
AcDbCircle
 10
-107.6500050777877
 20
-57.44027333413155
 30
0.0
 40
1.500000000000029
100
AcDbArc
 50
357.8066919077414
 51
74.78154484222979
  0
ARC
  5
E9
330
5C
100
AcDbEntity
  8
0
  6
Continuous
 62
     7
100
AcDbCircle
 10
-107.9000050777877
 20
-59.94251996065248
 30
0.0
 40
2.999999999999967
100
AcDbArc
 50
161.6891111179881
 51
213.2419025352673
  0
ARC
  5
EA
330
5C
100
AcDbEntity
  8
0
  6
Continuous
 62
     7
100
AcDbCircle
 10
-109.5000050777877
 20
-59.94251996065248
 30
0.0
 40
2.999999999999999
100
AcDbArc
 50
326.7580974647327
 51
18.31088888201183
  0
ARC
  5
EB
330
5C
100
AcDbEntity
  8
0
  6
Continuous
 62
     7
100
AcDbCircle
 10
-109.5000050777877
 20
-59.94251996065248
 30
0.0
 40
3.499999999999992
100
AcDbArc
 50
326.7580974647326
 51
8.78634399305526
  0
ARC
  5
EC
330
5C
100
AcDbEntity
  8
0
  6
Continuous
 62
     7
100
AcDbCircle
 10
-96.15843005678377
 20
-57.88039097367698
 30
0.0
 40
9.99999999999999
100
AcDbArc
 50
177.8066919077418
 51
188.7863439930551
  0
ARC
  5
ED
330
5C
100
AcDbEntity
  8
0
  6
Continuous
 62
     7
100
AcDbCircle
 10
-131.8028472576463
 20
-69.05017608292749
 30
0.0
 40
25.50000000000005
100
AcDbArc
 50
17.16667728070062
 51
20.30794351445736
  0
ARC
  5
EE
330
5C
100
AcDbEntity
  8
0
  6
Continuous
 62
     7
100
AcDbCircle
 10
-131.8028472576463
 20
-69.05017608292749
 30
0.0
 40
24.99999999999999
100
AcDbArc
 50
17.16667728070066
 51
19.51216490706224
  0
ARC
  5
EF
330
5C
100
AcDbEntity
  8
0
  6
Continuous
 62
     7
100
AcDbCircle
 10
-107.2000050777877
 20
-61.45000130382061
 30
0.0
 40
0.2499999999999909
100
AcDbArc
 50
197.1666772807022
 51
326.7580974647279
  0
ARC
  5
F0
330
5C
100
AcDbEntity
  8
0
  6
Continuous
 62
     7
100
AcDbCircle
 10
-107.2000050777877
 20
-61.45000130382061
 30
0.0
 40
0.7500000000000521
100
AcDbArc
 50
197.1666772806998
 51
326.7580974647305
  0
ARC
  5
F1
330
5C
100
AcDbEntity
  8
0
  6
Continuous
 62
     7
100
AcDbCircle
 10
-110.2000050777877
 20
-61.45000130382061
 30
0.0
 40
0.2500000000000027
100
AcDbArc
 50
213.2419025352703
 51
342.8333227192968
  0
ARC
  5
F2
330
5C
100
AcDbEntity
  8
0
  6
Continuous
 62
     7
100
AcDbCircle
 10
-110.2000050777877
 20
-61.45000130382061
 30
0.0
 40
0.7499999999999966
100
AcDbArc
 50
213.2419025352689
 51
342.8333227192999
  0
ARC
  5
F3
330
5C
100
AcDbEntity
  8
0
  6
Continuous
 62
     7
100
AcDbCircle
 10
-121.2415800987916
 20
-57.88039097367698
 30
0.0
 40
10.00000000000001
100
AcDbArc
 50
351.213656006945
 51
2.19330809225817
  0
ARC
  5
F4
330
5C
100
AcDbEntity
  8
0
  6
Continuous
 62
     7
100
AcDbCircle
 10
-107.9000050777877
 20
-59.94251996065248
 30
0.0
 40
3.499999999999992
100
AcDbArc
 50
171.2136560069447
 51
213.2419025352674
  0
ARC
  5
F5
330
5C
100
AcDbEntity
  8
0
  6
Continuous
 62
     7
100
AcDbCircle
 10
-85.59716289792912
 20
-69.05017608292749
 30
0.0
 40
25.50000000000002
100
AcDbArc
 50
159.6920564855426
 51
162.8333227192994
  0
ARC
  5
F6
330
5C
100
AcDbEntity
  8
0
  6
Continuous
 62
     7
100
AcDbCircle
 10
-85.59716289792912
 20
-69.05017608292749
 30
0.0
 40
25.00000000000002
100
AcDbArc
 50
160.4878350929378
 51
162.8333227192994
  0
ARC
  5
F7
330
5C
100
AcDbEntity
  8
0
  6
Continuous
 62
     7
100
AcDbCircle
 10
-109.7500050777877
 20
-57.44027333413155
 30
0.0
 40
1.499999999999988
100
AcDbArc
 50
105.2184551577702
 51
182.1933080922586
  0
ENDBLK
  5
5E
330
5C
100
AcDbEntity
  8
0
100
AcDbBlockEnd
  0
BLOCK
  5
61
330
5F
100
AcDbEntity
  8
0
100
AcDbBlockBegin
  2
SA_Links1
 70
     0
 10
-108.70000351056
 20
-59.00000065191034
 30
0.0
  3
SA_Links1
  1

  0
INSERT
  5
60
330
5F
100
AcDbEntity
  8
0
100
AcDbBlockReference
  2
0820510_PATG_1_18-select__4
 10
-111.4000050777877
 20
-62.20000130382063
 30
0.0
  0
MTEXT
  5
F8
330
5F
100
AcDbEntity
  8
1
 62
     6
100
AcDbMText
 10
-108.7000035105599
 20
-64.70000265191027
 30
0.0
 40
2.5
 41
0.0
 71
     2
 72
     1
  1
 
  7
CONVERTER_11
 73
     1
 44
1.32052821128451
  0
ENDBLK
  5
62
330
5F
100
AcDbEntity
  8
0
100
AcDbBlockEnd
  0
BLOCK
  5
64
330
63
100
AcDbEntity
  8
0
100
AcDbBlockBegin
  2
0820510_PATG_1_18-select__5
 70
     0
 10
-171.7999976179133
 20
-62.20000130382066
 30
0.0
  3
0820510_PATG_1_18-select__5
  1

  0
LINE
  5
F9
330
63
100
AcDbEntity
  8
0
  6
Continuous
 62
     7
100
AcDbLine
 10
-167.0519002562482
 20
-59.00000130382067
 30
0.0
 11
-171.1480949795784
 21
-59.00000130382067
 31
0.0
  0
LINE
  5
FA
330
63
100
AcDbEntity
  8
0
  6
Continuous
 62
     7
100
AcDbLine
 10
-169.9120965080064
 20
-60.20000130382066
 30
0.0
 11
-168.2878987278202
 21
-60.20000130382066
 31
0.0
  0
LINE
  5
FB
330
63
100
AcDbEntity
  8
0
  6
Continuous
 62
     7
100
AcDbLine
 10
-169.5614203567482
 20
-60.70000130382066
 30
0.0
 11
-168.6385748790784
 21
-60.70000130382066
 31
0.0
  0
ARC
  5
FC
330
63
100
AcDbEntity
  8
0
  6
Continuous
 62
     7
100
AcDbCircle
 10
-169.0999976179133
 20
-61.30000130382067
 30
0.0
 40
5.500000000000005
100
AcDbArc
 50
74.78154484222988
 51
105.2184551577704
  0
ARC
  5
FD
330
63
100
AcDbEntity
  8
0
  6
Continuous
 62
     7
100
AcDbCircle
 10
-168.0499976179133
 20
-57.44027333413159
 30
0.0
 40
1.500000000000043
100
AcDbArc
 50
357.8066919077411
 51
74.7815448422292
  0
ARC
  5
FE
330
63
100
AcDbEntity
  8
0
  6
Continuous
 62
     7
100
AcDbCircle
 10
-167.5999976179133
 20
-61.45000130382066
 30
0.0
 40
0.2500000000000066
100
AcDbArc
 50
197.1666772807028
 51
326.7580974647294
  0
ARC
  5
FF
330
63
100
AcDbEntity
  8
0
  6
Continuous
 62
     7
100
AcDbCircle
 10
-167.5999976179133
 20
-61.45000130382066
 30
0.0
 40
0.749999999999957
100
AcDbArc
 50
197.166677280702
 51
326.7580974647314
  0
ARC
  5
100
330
63
100
AcDbEntity
  8
0
  6
Continuous
 62
     7
100
AcDbCircle
 10
-169.8999976179133
 20
-59.94251996065252
 30
0.0
 40
3.000000000000003
100
AcDbArc
 50
326.7580974647326
 51
18.31088888201183
  0
ARC
  5
101
330
63
100
AcDbEntity
  8
0
  6
Continuous
 62
     7
100
AcDbCircle
 10
-169.8999976179133
 20
-59.94251996065252
 30
0.0
 40
3.499999999999992
100
AcDbArc
 50
326.7580974647326
 51
8.78634399305477
  0
ARC
  5
102
330
63
100
AcDbEntity
  8
0
  6
Continuous
 62
     7
100
AcDbCircle
 10
-156.5584225969094
 20
-57.88039097367703
 30
0.0
 40
9.999999999999961
100
AcDbArc
 50
177.8066919077418
 51
188.7863439930551
  0
ARC
  5
103
330
63
100
AcDbEntity
  8
0
  6
Continuous
 62
     7
100
AcDbCircle
 10
-168.2999976179133
 20
-59.94251996065252
 30
0.0
 40
2.999999999999954
100
AcDbArc
 50
161.689111117988
 51
213.2419025352674
  0
ARC
  5
104
330
63
100
AcDbEntity
  8
0
  6
Continuous
 62
     7
100
AcDbCircle
 10
-181.6415726389172
 20
-57.88039097367703
 30
0.0
 40
10.00000000000002
100
AcDbArc
 50
351.2136560069449
 51
2.19330809225817
  0
ARC
  5
105
330
63
100
AcDbEntity
  8
0
  6
Continuous
 62
     7
100
AcDbCircle
 10
-168.2999976179133
 20
-59.94251996065252
 30
0.0
 40
3.499999999999974
100
AcDbArc
 50
171.2136560069452
 51
213.2419025352674
  0
ARC
  5
106
330
63
100
AcDbEntity
  8
0
  6
Continuous
 62
     7
100
AcDbCircle
 10
-170.5999976179133
 20
-61.45000130382066
 30
0.0
 40
0.2500000000000107
100
AcDbArc
 50
213.2419025352671
 51
342.833322719301
  0
ARC
  5
107
330
63
100
AcDbEntity
  8
0
  6
Continuous
 62
     7
100
AcDbCircle
 10
-170.5999976179133
 20
-61.45000130382066
 30
0.0
 40
0.7500000000000007
100
AcDbArc
 50
213.2419025352674
 51
342.8333227192999
  0
ARC
  5
108
330
63
100
AcDbEntity
  8
0
  6
Continuous
 62
     7
100
AcDbCircle
 10
-145.9971554380547
 20
-69.05017608292755
 30
0.0
 40
25.50000000000005
100
AcDbArc
 50
159.6920564855426
 51
162.8333227192993
  0
ARC
  5
109
330
63
100
AcDbEntity
  8
0
  6
Continuous
 62
     7
100
AcDbCircle
 10
-145.9971554380547
 20
-69.05017608292755
 30
0.0
 40
25.00000000000002
100
AcDbArc
 50
160.4878350929377
 51
162.8333227192993
  0
ARC
  5
10A
330
63
100
AcDbEntity
  8
0
  6
Continuous
 62
     7
100
AcDbCircle
 10
-192.2028397977718
 20
-69.05017608292755
 30
0.0
 40
25.49999999999993
100
AcDbArc
 50
17.1666772807007
 51
20.30794351445747
  0
ARC
  5
10B
330
63
100
AcDbEntity
  8
0
  6
Continuous
 62
     7
100
AcDbCircle
 10
-192.2028397977718
 20
-69.05017608292755
 30
0.0
 40
24.99999999999998
100
AcDbArc
 50
17.16667728070068
 51
19.51216490706234
  0
ARC
  5
10C
330
63
100
AcDbEntity
  8
0
  6
Continuous
 62
     7
100
AcDbCircle
 10
-170.1499976179133
 20
-57.44027333413159
 30
0.0
 40
1.499999999999984
100
AcDbArc
 50
105.2184551577708
 51
182.1933080922589
  0
ENDBLK
  5
65
330
63
100
AcDbEntity
  8
0
100
AcDbBlockEnd
  0
BLOCK
  5
68
330
66
100
AcDbEntity
  8
0
100
AcDbBlockBegin
  2
SA_Rechts1
 70
     0
 10
-169.099999185141
 20
-59.0000006519104
 30
0.0
  3
SA_Rechts1
  1

  0
INSERT
  5
67
330
66
100
AcDbEntity
  8
0
100
AcDbBlockReference
  2
0820510_PATG_1_18-select__5
 10
-171.7999976179133
 20
-62.20000130382066
 30
0.0
  0
MTEXT
  5
10D
330
66
100
AcDbEntity
  8
1
 62
     6
100
AcDbMText
 10
-169.099999185141
 20
-64.70000265191027
 30
0.0
 40
2.5
 41
0.0
 71
     2
 72
     1
  1
 
  7
CONVERTER_11
 73
     1
 44
1.32052821128451
  0
ENDBLK
  5
69
330
66
100
AcDbEntity
  8
0
100
AcDbBlockEnd
  0
BLOCK
  5
6B
330
6A
100
AcDbEntity
  8
0
100
AcDbBlockBegin
  2
0820510_PATG_1_18-select__6
 70
     0
 10
-145.400001500005
 20
-62.20000130382031
 30
0.0
  3
0820510_PATG_1_18-select__6
  1

  0
LINE
  5
10E
330
6A
100
AcDbEntity
  8
0
  6
Continuous
 62
     7
100
AcDbLine
 10
-127.400001500005
 20
-55.99287534549786
 30
0.0
 11
-127.400001500005
 21
-55.80000130382031
 31
0.0
  0
LINE
  5
10F
330
6A
100
AcDbEntity
  8
0
  6
Continuous
 62
     7
100
AcDbLine
 10
-145.400001500005
 20
-55.99287534549786
 30
0.0
 11
-145.400001500005
 21
-55.80000130382031
 31
0.0
  0
LINE
  5
110
330
6A
100
AcDbEntity
  8
0
  6
Continuous
 62
     2
100
AcDbLine
 10
-127.400001500005
 20
-57.49767998276762
 30
0.0
 11
-145.400001500005
 21
-57.49767998276762
 31
0.0
  0
LINE
  5
111
330
6A
100
AcDbEntity
  8
0
  6
Continuous
 62
     7
100
AcDbLine
 10
-145.400001500005
 20
-57.49767998276762
 30
0.0
 11
-145.400001500005
 21
-55.99287534549786
 31
0.0
  0
LINE
  5
112
330
6A
100
AcDbEntity
  8
0
  6
Continuous
 62
     7
100
AcDbLine
 10
-127.400001500005
 20
-57.49767998276762
 30
0.0
 11
-127.400001500005
 21
-55.99287534549786
 31
0.0
  0
LINE
  5
113
330
6A
100
AcDbEntity
  8
0
  6
Continuous
 62
     7
100
AcDbLine
 10
-145.400001500005
 20
-55.80000130382031
 30
0.0
 11
-127.400001500005
 21
-55.80000130382031
 31
0.0
  0
LINE
  5
114
330
6A
100
AcDbEntity
  8
0
  6
Continuous
 62
     7
100
AcDbLine
 10
-145.400001500005
 20
-62.20000130382031
 30
0.0
 11
-145.400001500005
 21
-61.8611325792298
 31
0.0
  0
LINE
  5
115
330
6A
100
AcDbEntity
  8
0
  6
Continuous
 62
     7
100
AcDbLine
 10
-127.400001500005
 20
-62.20000130382031
 30
0.0
 11
-127.400001500005
 21
-61.8611325792298
 31
0.0
  0
LINE
  5
116
330
6A
100
AcDbEntity
  8
0
  6
Continuous
 62
     2
100
AcDbLine
 10
-127.400001500005
 20
-61.8611325792298
 30
0.0
 11
-145.400001500005
 21
-61.8611325792298
 31
0.0
  0
LINE
  5
117
330
6A
100
AcDbEntity
  8
0
  6
Continuous
 62
     7
100
AcDbLine
 10
-127.400001500005
 20
-62.20000130382031
 30
0.0
 11
-145.400001500005
 21
-62.20000130382031
 31
0.0
  0
LINE
  5
118
330
6A
100
AcDbEntity
  8
0
  6
Continuous
 62
     7
100
AcDbLine
 10
-145.400001500005
 20
-61.8611325792298
 30
0.0
 11
-145.400001500005
 21
-59.40789392699186
 31
0.0
  0
LINE
  5
119
330
6A
100
AcDbEntity
  8
0
  6
Continuous
 62
     7
100
AcDbLine
 10
-127.400001500005
 20
-61.8611325792298
 30
0.0
 11
-127.400001500005
 21
-59.40789392699186
 31
0.0
  0
LINE
  5
11A
330
6A
100
AcDbEntity
  8
0
  6
Continuous
 62
     7
100
AcDbLine
 10
-145.400001500005
 20
-57.49767998276762
 30
0.0
 11
-145.400001500005
 21
-59.40789392699186
 31
0.0
  0
LINE
  5
11B
330
6A
100
AcDbEntity
  8
0
  6
Continuous
 62
     7
100
AcDbLine
 10
-127.400001500005
 20
-57.49767998276762
 30
0.0
 11
-127.400001500005
 21
-59.40789392699186
 31
0.0
  0
LINE
  5
11C
330
6A
100
AcDbEntity
  8
0
  6
Continuous
 62
     2
100
AcDbLine
 10
-127.400001500005
 20
-59.40789392699186
 30
0.0
 11
-145.400001500005
 21
-59.40789392699186
 31
0.0
  0
LINE
  5
11D
330
6A
100
AcDbEntity
  8
0
  6
Continuous
 62
     2
100
AcDbLine
 10
-127.400001500005
 20
-55.99287534549786
 30
0.0
 11
-145.400001500005
 21
-55.99287534549786
 31
0.0
  0
ENDBLK
  5
6C
330
6A
100
AcDbEntity
  8
0
100
AcDbBlockEnd
  0
BLOCK
  5
6F
330
6D
100
AcDbEntity
  8
0
100
AcDbBlockBegin
  2
Vordans1
 70
     0
 10
-136.4000015
 20
-59.00000065191004
 30
0.0
  3
Vordans1
  1

  0
INSERT
  5
6E
330
6D
100
AcDbEntity
  8
0
100
AcDbBlockReference
  2
0820510_PATG_1_18-select__6
 10
-145.400001500005
 20
-62.20000130382031
 30
0.0
  0
MTEXT
  5
11E
330
6D
100
AcDbEntity
  8
1
 62
     6
100
AcDbMText
 10
-136.4000014999999
 20
-64.70000265190998
 30
0.0
 40
2.5
 41
0.0
 71
     2
 72
     1
  1
 
  7
CONVERTER_11
 73
     1
 44
1.32052821128451
  0
DIMENSION
  5
129
330
6D
100
AcDbEntity
  8
1
100
AcDbDimension
  2
*D17
 10
-145.400001500005
 20
-67.2000013038203
 30
0.0
 11
-136.400001500005
 21
-65.5750013038203
 31
0.0
 70
    33
  1
<>
 71
     5
 42
-1.0
 53
0.00013888888889
  3
ME10_DIM_11
100
AcDbAlignedDimension
 13
-127.400001500005
 23
-62.20000130382031
 33
0.0
 14
-145.400001500005
 24
-62.20000130382031
 34
0.0
  0
DIMENSION
  5
134
330
6D
100
AcDbEntity
  8
1
100
AcDbDimension
  2
*D18
 10
-150.400001500005
 20
-62.20000130382031
 30
0.0
 11
-152.112501500005
 21
-59.00000130382031
 31
0.0
 70
    32
  1
<>
 71
     5
 42
-1.0
 53
90.0
  3
ME10_DIM_12
100
AcDbAlignedDimension
 13
-145.400001500005
 23
-55.80000130382031
 33
0.0
 14
-145.400001500005
 24
-62.20000130382031
 34
0.0
 50
90.0
100
AcDbRotatedDimension
  0
ENDBLK
  5
70
330
6D
100
AcDbEntity
  8
0
100
AcDbBlockEnd
  0
BLOCK
  5
72
330
71
100
AcDbEntity
  8
0
100
AcDbBlockBegin
  2
_punkt
 70
     0
 10
-94.29999761790323
 20
-254.4904193750554
 30
0.0
  3
_punkt
  1

  0
LINE
  5
135
330
71
100
AcDbEntity
  8
1
  6
Continuous
 62
     2
100
AcDbLine
 10
-94.29999761790323
 20
-254.4904193750554
 30
0.0
 11
-94.29999761790323
 21
-259.4904193750556
 31
0.0
  0
LINE
  5
136
330
71
100
AcDbEntity
  8
1
  6
Continuous
 62
     2
100
AcDbLine
 10
-94.29999761790323
 20
-254.4904193750554
 30
0.0
 11
-89.29999761790424
 21
-254.4904193750554
 31
0.0
  0
ENDBLK
  5
73
330
71
100
AcDbEntity
  8
0
100
AcDbBlockEnd
  0
BLOCK
  5
75
330
74
100
AcDbEntity
  8
0
100
AcDbBlockBegin
  2
_rahmen
 70
     0
 10
-94.29999761790323
 20
-259.4904193750556
 30
0.0
  3
_rahmen
  1

  0
LINE
  5
137
330
74
100
AcDbEntity
  8
1
  6
DOT_CENTER
 62
     2
100
AcDbLine
 10
-219.8581472580906
 20
-233.3654193750555
 30
0.0
 11
-214.3581472580906
 21
-233.3654193750555
 31
0.0
  0
LINE
  5
138
330
74
100
AcDbEntity
  8
1
  6
PHANTOM
 62
     2
100
AcDbLine
 10
-211.1081472580906
 20
-230.6154193750555
 30
0.0
 11
-211.1081472580906
 21
-236.1154193750555
 31
0.0
  0
LINE
  5
139
330
74
100
AcDbEntity
  8
1
  6
PHANTOM
 62
     2
100
AcDbLine
 10
-208.3581472580906
 20
-233.3654193750555
 30
0.0
 11
-213.8581472580906
 21
-233.3654193750555
 31
0.0
  0
LINE
  5
13A
330
74
100
AcDbEntity
  8
1
  6
Continuous
 62
     7
100
AcDbLine
 10
-159.5448021446532
 20
-245.9904193750555
 30
0.0
 11
-159.5448021446532
 21
-237.4904193750554
 31
0.0
  0
LINE
  5
13B
330
74
100
AcDbEntity
  8
1
  6
Continuous
 62
     6
100
AcDbLine
 10
-187.4448021446533
 20
-237.4904193750554
 30
0.0
 11
-94.29999761790154
 21
-237.4904193750554
 31
0.0
  0
LINE
  5
13C
330
74
100
AcDbEntity
  8
1
  6
Continuous
 62
     7
100
AcDbLine
 10
-223.8448021446532
 20
-237.4904193750554
 30
0.0
 11
-223.8448021446532
 21
-228.9904193750554
 31
0.0
  0
LINE
  5
13D
330
74
100
AcDbEntity
  8
1
  6
Continuous
 62
     7
100
AcDbLine
 10
-187.4448021446533
 20
-237.4904193750554
 30
0.0
 11
-187.4448021446533
 21
-228.9904193750554
 31
0.0
  0
LINE
  5
13E
330
74
100
AcDbEntity
  8
1
  6
Continuous
 62
     7
100
AcDbLine
 10
-129.7184058995804
 20
-228.9904193750554
 30
0.0
 11
-129.7184058995804
 21
-237.4904193750554
 31
0.0
  0
LINE
  5
13F
330
74
100
AcDbEntity
  8
1
  6
Continuous
 62
     7
100
AcDbLine
 10
-103.2184058995807
 20
-228.9904193750554
 30
0.0
 11
-103.2184058995807
 21
-237.4904193750554
 31
0.0
  0
LINE
  5
140
330
74
100
AcDbEntity
  8
1
  6
Continuous
 62
     6
100
AcDbLine
 10
-292.8448021446532
 20
-254.4904193750554
 30
0.0
 11
-337.7999976179032
 21
-254.4904193750554
 31
0.0
  0
LINE
  5
141
330
74
100
AcDbEntity
  8
1
  6
Continuous
 62
     7
100
AcDbLine
 10
-94.29999761790194
 20
-245.9904193750554
 30
0.0
 11
-187.4448021446533
 21
-245.9904193750554
 31
0.0
  0
LINE
  5
142
102
{ACAD_REACTORS
330
254
330
255
102
}
330
74
100
AcDbEntity
  8
0
  6
Continuous
 62
     2
100
AcDbLine
 10
-210.1373732028858
 20
-245.1901302593921
 30
0.0
 11
-210.1373732028858
 21
-244.3176132525888
 31
0.0
  0
LINE
  5
143
102
{ACAD_REACTORS
330
254
330
255
102
}
330
74
100
AcDbEntity
  8
0
  6
Continuous
 62
     2
100
AcDbLine
 10
-210.1373732028858
 20
-246.149898966875
 30
0.0
 11
-210.1373732028858
 21
-247.0224159736783
 31
0.0
  0
LINE
  5
144
102
{ACAD_REACTORS
330
256
330
257
102
}
330
74
100
AcDbEntity
  8
0
  6
Continuous
 62
     2
100
AcDbLine
 10
-194.8043290665953
 20
-244.9283751573516
 30
0.0
 11
-193.7006897670272
 21
-244.9283751573516
 31
0.0
  0
LINE
  5
145
102
{ACAD_REACTORS
330
256
330
257
102
}
330
74
100
AcDbEntity
  8
0
  6
Continuous
 62
     2
100
AcDbLine
 10
-194.0346717236339
 20
-246.1498989668755
 30
0.0
 11
-194.0346717236339
 21
-247.0224159736789
 31
0.0
  0
LINE
  5
146
102
{ACAD_REACTORS
330
260
330
261
102
}
330
74
100
AcDbEntity
  8
0
  6
Continuous
 62
     2
100
AcDbLine
 10
-195.8954283390139
 20
-243.8377288988648
 30
0.0
 11
-194.4974752920736
 21
-242.2568699050898
 31
0.0
  0
LINE
  5
147
102
{ACAD_REACTORS
330
260
330
261
102
}
330
74
100
AcDbEntity
  8
0
  6
Continuous
 62
     2
100
AcDbLine
 10
-195.800004922841
 20
-240.7839193750536
 30
0.0
 11
-194.4974752920736
 21
-242.2568699050898
 31
0.0
  0
LINE
  5
148
102
{ACAD_REACTORS
330
260
330
261
102
}
330
74
100
AcDbEntity
  8
0
  6
Continuous
 62
     2
100
AcDbLine
 10
-193.1949456613071
 20
-240.7839193750536
 30
0.0
 11
-191.7922214435599
 21
-240.7839193750536
 31
0.0
  0
LINE
  5
149
102
{ACAD_REACTORS
330
260
330
261
102
}
330
74
100
AcDbEntity
  8
0
  6
Continuous
 62
     2
100
AcDbLine
 10
-194.4927041212656
 20
-243.8377288988648
 30
0.0
 11
-193.7961131831999
 21
-243.0499971135711
 31
0.0
  0
LINE
  5
14A
102
{ACAD_REACTORS
330
260
330
261
102
}
330
74
100
AcDbEntity
  8
0
  6
Continuous
 62
     2
100
AcDbLine
 10
-194.4927041212656
 20
-243.8377288988648
 30
0.0
 11
-195.8954283390139
 21
-243.8377288988648
 31
0.0
  0
LINE
  5
14B
102
{ACAD_REACTORS
330
262
330
263
102
}
330
74
100
AcDbEntity
  8
0
  6
Continuous
 62
     2
100
AcDbLine
 10
-196.0147076092307
 20
-243.8377288988648
 30
0.0
 11
-197.2552120194836
 21
-243.8377288988648
 31
0.0
  0
LINE
  5
14C
102
{ACAD_REACTORS
330
264
330
265
102
}
330
74
100
AcDbEntity
  8
0
  6
Continuous
 62
     2
100
AcDbLine
 10
-198.1231916276387
 20
-245.9753955655147
 30
0.0
 11
-198.4233568648288
 21
-245.2075805995279
 31
0.0
  0
LINE
  5
14D
102
{ACAD_REACTORS
330
264
330
265
102
}
330
74
100
AcDbEntity
  8
0
  6
Continuous
 62
     2
100
AcDbLine
 10
-198.7235221020212
 20
-245.9753955655147
 30
0.0
 11
-198.1231916276387
 21
-245.9753955655147
 31
0.0
  0
LINE
  5
14E
102
{ACAD_REACTORS
330
264
330
265
102
}
330
74
100
AcDbEntity
  8
0
  6
Continuous
 62
     2
100
AcDbLine
 10
-200.441562116895
 20
-247.1969193750391
 30
0.0
 11
-199.2010577066421
 21
-247.1969193750391
 31
0.0
  0
LINE
  5
14F
102
{ACAD_REACTORS
330
264
330
265
102
}
330
74
100
AcDbEntity
  8
0
  6
Continuous
 62
     2
100
AcDbLine
 10
-199.0436090699557
 20
-244.1431098512281
 30
0.0
 11
-197.803104659703
 21
-244.1431098512281
 31
0.0
  0
LINE
  5
150
102
{ACAD_REACTORS
330
264
330
265
102
}
330
74
100
AcDbEntity
  8
0
  6
Continuous
 62
     2
100
AcDbLine
 10
-197.803104659703
 20
-244.1431098512281
 30
0.0
 11
-196.4051516127627
 21
-247.1969193750391
 31
0.0
  0
LINE
  5
151
102
{ACAD_REACTORS
330
264
330
265
102
}
330
74
100
AcDbEntity
  8
0
  6
Continuous
 62
     2
100
AcDbLine
 10
-197.6456560230166
 20
-247.1969193750391
 30
0.0
 11
-197.8571360764924
 21
-246.6559588308213
 31
0.0
  0
LINE
  5
152
102
{ACAD_REACTORS
330
266
330
267
102
}
330
74
100
AcDbEntity
  8
0
  6
Continuous
 62
     2
100
AcDbLine
 10
-201.7879752186026
 20
-247.1969193750391
 30
0.0
 11
-200.5951825164361
 21
-247.1969193750391
 31
0.0
  0
LINE
  5
153
102
{ACAD_REACTORS
330
266
330
267
102
}
330
74
100
AcDbEntity
  8
0
  6
Continuous
 62
     2
100
AcDbLine
 10
-201.7879752186026
 20
-244.9283751573516
 30
0.0
 11
-201.7879752186026
 21
-247.1969193750391
 31
0.0
  0
LINE
  5
154
102
{ACAD_REACTORS
330
266
330
267
102
}
330
74
100
AcDbEntity
  8
0
  6
Continuous
 62
     2
100
AcDbLine
 10
-202.5990742560772
 20
-244.1431098512281
 30
0.0
 11
-202.5990742560772
 21
-244.9283751573516
 31
0.0
  0
LINE
  5
155
102
{ACAD_REACTORS
330
268
330
269
102
}
330
74
100
AcDbEntity
  8
0
  6
Continuous
 62
     2
100
AcDbLine
 10
-201.1198603745046
 20
-243.8377288988648
 30
0.0
 11
-199.9270676723381
 21
-243.8377288988648
 31
0.0
  0
LINE
  5
156
102
{ACAD_REACTORS
330
268
330
269
102
}
330
74
100
AcDbEntity
  8
0
  6
Continuous
 62
     2
100
AcDbLine
 10
-198.6865632620841
 20
-242.0926948852588
 30
0.0
 11
-199.9270676723381
 21
-240.7839193750536
 31
0.0
  0
LINE
  5
157
102
{ACAD_REACTORS
330
268
330
269
102
}
330
74
100
AcDbEntity
  8
0
  6
Continuous
 62
     2
100
AcDbLine
 10
-197.4937705599175
 20
-240.7839193750536
 30
0.0
 11
-198.6865632620841
 21
-240.7839193750536
 31
0.0
  0
LINE
  5
158
102
{ACAD_REACTORS
330
268
330
269
102
}
330
74
100
AcDbEntity
  8
0
  6
Continuous
 62
     2
100
AcDbLine
 10
-197.4937705599175
 20
-243.8377288988648
 30
0.0
 11
-197.4937705599175
 21
-240.7839193750536
 31
0.0
  0
LINE
  5
159
102
{ACAD_REACTORS
330
268
330
269
102
}
330
74
100
AcDbEntity
  8
0
  6
Continuous
 62
     2
100
AcDbLine
 10
-198.6865632620841
 20
-243.8377288988648
 30
0.0
 11
-197.4937705599175
 21
-243.8377288988648
 31
0.0
  0
LINE
  5
15A
102
{ACAD_REACTORS
330
268
330
269
102
}
330
74
100
AcDbEntity
  8
0
  6
Continuous
 62
     2
100
AcDbLine
 10
-199.9270676723381
 20
-242.5289533886601
 30
0.0
 11
-198.6865632620841
 21
-243.8377288988648
 31
0.0
  0
LINE
  5
15B
102
{ACAD_REACTORS
330
26A
330
26B
102
}
330
74
100
AcDbEntity
  8
0
  6
Continuous
 62
     2
100
AcDbLine
 10
-203.9350020825038
 20
-245.4518853614331
 30
0.0
 11
-205.1755064927567
 21
-244.1431098512281
 31
0.0
  0
LINE
  5
15C
102
{ACAD_REACTORS
330
26A
330
26B
102
}
330
74
100
AcDbEntity
  8
0
  6
Continuous
 62
     2
100
AcDbLine
 10
-203.9350020825038
 20
-244.1431098512281
 30
0.0
 11
-203.9350020825038
 21
-245.4518853614331
 31
0.0
  0
LINE
  5
15D
102
{ACAD_REACTORS
330
26A
330
26B
102
}
330
74
100
AcDbEntity
  8
0
  6
Continuous
 62
     2
100
AcDbLine
 10
-202.7422093803374
 20
-244.1431098512281
 30
0.0
 11
-203.9350020825038
 21
-244.1431098512281
 31
0.0
  0
LINE
  5
15E
102
{ACAD_REACTORS
330
26A
330
26B
102
}
330
74
100
AcDbEntity
  8
0
  6
Continuous
 62
     2
100
AcDbLine
 10
-202.7422093803374
 20
-247.1969193750391
 30
0.0
 11
-202.7422093803374
 21
-244.1431098512281
 31
0.0
  0
LINE
  5
15F
102
{ACAD_REACTORS
330
26A
330
26B
102
}
330
74
100
AcDbEntity
  8
0
  6
Continuous
 62
     2
100
AcDbLine
 10
-205.1755064927567
 20
-245.8881438648346
 30
0.0
 11
-203.9350020825038
 21
-247.1969193750391
 31
0.0
  0
LINE
  5
160
102
{ACAD_REACTORS
330
26A
330
26B
102
}
330
74
100
AcDbEntity
  8
0
  6
Continuous
 62
     2
100
AcDbLine
 10
-205.1755064927567
 20
-247.1969193750391
 30
0.0
 11
-205.1755064927567
 21
-245.8881438648346
 31
0.0
  0
LINE
  5
161
102
{ACAD_REACTORS
330
25A
330
25B
102
}
330
74
100
AcDbEntity
  8
0
  6
Continuous
 62
     2
100
AcDbLine
 10
-202.6943467413652
 20
-241.4819329804966
 30
0.0
 11
-201.3584189149375
 21
-241.4819329804966
 31
0.0
  0
LINE
  5
162
102
{ACAD_REACTORS
330
25A
330
25B
102
}
330
74
100
AcDbEntity
  8
0
  6
Continuous
 62
     2
100
AcDbLine
 10
-202.6943467413652
 20
-243.1397152934223
 30
0.0
 11
-202.6943467413652
 21
-242.6598309396806
 31
0.0
  0
LINE
  5
163
102
{ACAD_REACTORS
330
25A
330
25B
102
}
330
74
100
AcDbEntity
  8
0
  6
Continuous
 62
     2
100
AcDbLine
 10
-201.3584189149375
 20
-243.1397152934223
 30
0.0
 11
-202.6943467413652
 21
-243.1397152934223
 31
0.0
  0
LINE
  5
164
102
{ACAD_REACTORS
330
25A
330
25B
102
}
330
74
100
AcDbEntity
  8
0
  6
Continuous
 62
     2
100
AcDbLine
 10
-201.3584189149375
 20
-243.8377288988648
 30
0.0
 11
-201.3584189149375
 21
-243.1397152934223
 31
0.0
  0
LINE
  5
165
102
{ACAD_REACTORS
330
25A
330
25B
102
}
330
74
100
AcDbEntity
  8
0
  6
Continuous
 62
     2
100
AcDbLine
 10
-204.5087386387185
 20
-243.8377288988648
 30
0.0
 11
-201.3584189149375
 21
-243.8377288988648
 31
0.0
  0
LINE
  5
166
102
{ACAD_REACTORS
330
25A
330
25B
102
}
330
74
100
AcDbEntity
  8
0
  6
Continuous
 62
     2
100
AcDbLine
 10
-204.5087386387185
 20
-240.7839193750536
 30
0.0
 11
-201.3584189149375
 21
-240.7839193750536
 31
0.0
  0
LINE
  5
167
102
{ACAD_REACTORS
330
25A
330
25B
102
}
330
74
100
AcDbEntity
  8
0
  6
Continuous
 62
     2
100
AcDbLine
 10
-201.3584189149375
 20
-241.4819329804966
 30
0.0
 11
-201.3584189149375
 21
-240.7839193750536
 31
0.0
  0
LINE
  5
168
102
{ACAD_REACTORS
330
26C
330
26D
102
}
330
74
100
AcDbEntity
  8
0
  6
Continuous
 62
     2
100
AcDbLine
 10
-207.3700941338585
 20
-241.8527527083882
 30
0.0
 11
-207.3700941338585
 21
-240.7839193750536
 31
0.0
  0
LINE
  5
169
102
{ACAD_REACTORS
330
26C
330
26D
102
}
330
74
100
AcDbEntity
  8
0
  6
Continuous
 62
     2
100
AcDbLine
 10
-207.3700941338585
 20
-240.7839193750536
 30
0.0
 11
-206.1773014316921
 21
-240.7839193750536
 31
0.0
  0
LINE
  5
16A
102
{ACAD_REACTORS
330
26C
330
26D
102
}
330
74
100
AcDbEntity
  8
0
  6
Continuous
 62
     2
100
AcDbLine
 10
-207.3700941338585
 20
-242.703456790021
 30
0.0
 11
-208.419751711766
 21
-242.703456790021
 31
0.0
  0
LINE
  5
16B
102
{ACAD_REACTORS
330
26C
330
26D
102
}
330
74
100
AcDbEntity
  8
0
  6
Continuous
 62
     2
100
AcDbLine
 10
-208.419751711766
 20
-242.703456790021
 30
0.0
 11
-208.419751711766
 21
-243.8377288988648
 31
0.0
  0
LINE
  5
16C
102
{ACAD_REACTORS
330
26C
330
26D
102
}
330
74
100
AcDbEntity
  8
0
  6
Continuous
 62
     2
100
AcDbLine
 10
-209.6125444139326
 20
-240.7839193750536
 30
0.0
 11
-209.6125444139326
 21
-243.8377288988648
 31
0.0
  0
LINE
  5
16D
102
{ACAD_REACTORS
330
25E
330
25F
102
}
330
74
100
AcDbEntity
  8
0
  6
Continuous
 62
     2
100
AcDbLine
 10
-211.5687244454862
 20
-242.152752869836
 30
0.0
 11
-211.5687244454862
 21
-241.4470252204937
 31
0.0
  0
LINE
  5
16E
102
{ACAD_REACTORS
330
25E
330
25F
102
}
330
74
100
AcDbEntity
  8
0
  6
Continuous
 62
     2
100
AcDbLine
 10
-212.8092288557403
 20
-243.8377288988648
 30
0.0
 11
-211.5687244454862
 21
-243.8377288988648
 31
0.0
  0
LINE
  5
16F
102
{ACAD_REACTORS
330
25E
330
25F
102
}
330
74
100
AcDbEntity
  8
0
  6
Continuous
 62
     2
100
AcDbLine
 10
-211.5687244454862
 20
-243.8377288988648
 30
0.0
 11
-211.5687244454862
 21
-242.894650657721
 31
0.0
  0
LINE
  5
170
102
{ACAD_REACTORS
330
258
330
259
102
}
330
74
100
AcDbEntity
  8
0
  6
Continuous
 62
     2
100
AcDbLine
 10
-217.1141747049517
 20
-246.4843638194822
 30
0.0
 11
-218.5900079659614
 21
-246.4843638194822
 31
0.0
  0
LINE
  5
171
102
{ACAD_REACTORS
330
258
330
259
102
}
330
74
100
AcDbEntity
  8
0
  6
Continuous
 62
     2
100
AcDbLine
 10
-219.6081472580906
 20
-241.2081639904556
 30
0.0
 11
-219.6081472580906
 21
-246.7726747596558
 31
0.0
  0
LINE
  5
172
102
{ACAD_REACTORS
330
258
330
259
102
}
330
74
100
AcDbEntity
  8
0
  6
Continuous
 62
     2
100
AcDbLine
 10
-219.1839026427078
 20
-240.7839193750718
 30
0.0
 11
-213.710590551991
 21
-240.7839193750718
 31
0.0
  0
LINE
  5
173
102
{ACAD_REACTORS
330
258
330
259
102
}
330
74
100
AcDbEntity
  8
0
  6
Continuous
 62
     2
100
AcDbLine
 10
-213.2863459366072
 20
-241.2081639904556
 30
0.0
 11
-213.2863459366072
 21
-246.7726747596558
 31
0.0
  0
LINE
  5
174
102
{ACAD_REACTORS
330
258
330
259
102
}
330
74
100
AcDbEntity
  8
0
  6
Continuous
 62
     2
100
AcDbLine
 10
-213.710590551991
 20
-247.1969193750391
 30
0.0
 11
-219.1839026427078
 21
-247.1969193750391
 31
0.0
  0
LINE
  5
175
102
{ACAD_REACTORS
330
258
330
259
102
}
330
74
100
AcDbEntity
  8
0
  6
Continuous
 62
     2
100
AcDbLine
 10
-216.7984577818751
 20
-246.1686468964055
 30
0.0
 11
-216.7984577818751
 21
-244.6378759648739
 31
0.0
  0
LINE
  5
176
102
{ACAD_REACTORS
330
258
330
259
102
}
330
74
100
AcDbEntity
  8
0
  6
Continuous
 62
     2
100
AcDbLine
 10
-216.7984577818751
 20
-242.4162164727489
 30
0.0
 11
-216.7984577818751
 21
-241.8121918536884
 31
0.0
  0
LINE
  5
177
102
{ACAD_REACTORS
330
258
330
259
102
}
330
74
100
AcDbEntity
  8
0
  6
Continuous
 62
     2
100
AcDbLine
 10
-218.5900079659614
 20
-241.4964749306122
 30
0.0
 11
-217.1141747049517
 21
-241.4964749306122
 31
0.0
  0
LINE
  5
178
102
{ACAD_REACTORS
330
258
330
259
102
}
330
74
100
AcDbEntity
  8
0
  6
Continuous
 62
     2
100
AcDbLine
 10
-218.905724889037
 20
-241.8121918536884
 30
0.0
 11
-218.905724889037
 21
-246.1686468964055
 31
0.0
  0
LINE
  5
179
102
{ACAD_REACTORS
330
25E
330
25F
102
}
330
74
100
AcDbEntity
  8
0
  6
Continuous
 62
     2
100
AcDbLine
 10
-211.5687244454862
 20
-242.894650657721
 30
0.0
 11
-210.8099568577059
 21
-242.894650657721
 31
0.0
  0
LINE
  5
17A
102
{ACAD_REACTORS
330
25E
330
25F
102
}
330
74
100
AcDbEntity
  8
0
  6
Continuous
 62
     2
100
AcDbLine
 10
-212.8092288557403
 20
-240.7839193750536
 30
0.0
 11
-210.8099568577059
 21
-240.7839193750536
 31
0.0
  0
LINE
  5
17B
102
{ACAD_REACTORS
330
25E
330
25F
102
}
330
74
100
AcDbEntity
  8
0
  6
Continuous
 62
     2
100
AcDbLine
 10
-212.8092288557403
 20
-240.7839193750536
 30
0.0
 11
-212.8092288557403
 21
-243.8377288988648
 31
0.0
  0
LINE
  5
17C
102
{ACAD_REACTORS
330
25E
330
25F
102
}
330
74
100
AcDbEntity
  8
0
  6
Continuous
 62
     2
100
AcDbLine
 10
-211.5687244454862
 20
-242.152752869836
 30
0.0
 11
-211.2514293839443
 21
-242.152752869836
 31
0.0
  0
LINE
  5
17D
102
{ACAD_REACTORS
330
25E
330
25F
102
}
330
74
100
AcDbEntity
  8
0
  6
Continuous
 62
     2
100
AcDbLine
 10
-211.5687244454862
 20
-241.4470252204937
 30
0.0
 11
-211.2514293839443
 21
-241.4470252204937
 31
0.0
  0
LINE
  5
17E
102
{ACAD_REACTORS
330
26C
330
26D
102
}
330
74
100
AcDbEntity
  8
0
  6
Continuous
 62
     2
100
AcDbLine
 10
-208.419751711766
 20
-241.8527527083882
 30
0.0
 11
-207.3700941338585
 21
-241.8527527083882
 31
0.0
  0
LINE
  5
17F
102
{ACAD_REACTORS
330
26C
330
26D
102
}
330
74
100
AcDbEntity
  8
0
  6
Continuous
 62
     2
100
AcDbLine
 10
-208.419751711766
 20
-240.7839193750536
 30
0.0
 11
-208.419751711766
 21
-241.8527527083882
 31
0.0
  0
LINE
  5
180
102
{ACAD_REACTORS
330
26C
330
26D
102
}
330
74
100
AcDbEntity
  8
0
  6
Continuous
 62
     2
100
AcDbLine
 10
-209.6125444139326
 20
-240.7839193750536
 30
0.0
 11
-208.419751711766
 21
-240.7839193750536
 31
0.0
  0
LINE
  5
181
102
{ACAD_REACTORS
330
26C
330
26D
102
}
330
74
100
AcDbEntity
  8
0
  6
Continuous
 62
     2
100
AcDbLine
 10
-208.419751711766
 20
-243.8377288988648
 30
0.0
 11
-209.6125444139326
 21
-243.8377288988648
 31
0.0
  0
LINE
  5
182
102
{ACAD_REACTORS
330
26C
330
26D
102
}
330
74
100
AcDbEntity
  8
0
  6
Continuous
 62
     2
100
AcDbLine
 10
-207.3700941338585
 20
-243.8377288988648
 30
0.0
 11
-207.3700941338585
 21
-242.703456790021
 31
0.0
  0
LINE
  5
183
102
{ACAD_REACTORS
330
26C
330
26D
102
}
330
74
100
AcDbEntity
  8
0
  6
Continuous
 62
     2
100
AcDbLine
 10
-206.1773014316921
 20
-243.8377288988648
 30
0.0
 11
-207.3700941338585
 21
-243.8377288988648
 31
0.0
  0
LINE
  5
184
102
{ACAD_REACTORS
330
26C
330
26D
102
}
330
74
100
AcDbEntity
  8
0
  6
Continuous
 62
     2
100
AcDbLine
 10
-206.1773014316921
 20
-240.7839193750536
 30
0.0
 11
-206.1773014316921
 21
-243.8377288988648
 31
0.0
  0
LINE
  5
185
102
{ACAD_REACTORS
330
25A
330
25B
102
}
330
74
100
AcDbEntity
  8
0
  6
Continuous
 62
     2
100
AcDbLine
 10
-202.6943467413652
 20
-242.6598309396806
 30
0.0
 11
-201.3584189149375
 21
-242.6598309396806
 31
0.0
  0
LINE
  5
186
102
{ACAD_REACTORS
330
25A
330
25B
102
}
330
74
100
AcDbEntity
  8
0
  6
Continuous
 62
     2
100
AcDbLine
 10
-201.3584189149375
 20
-242.6598309396806
 30
0.0
 11
-201.3584189149375
 21
-241.9618173342383
 31
0.0
  0
LINE
  5
187
102
{ACAD_REACTORS
330
25A
330
25B
102
}
330
74
100
AcDbEntity
  8
0
  6
Continuous
 62
     2
100
AcDbLine
 10
-201.3584189149375
 20
-241.9618173342383
 30
0.0
 11
-202.6943467413652
 21
-241.9618173342383
 31
0.0
  0
LINE
  5
188
102
{ACAD_REACTORS
330
25A
330
25B
102
}
330
74
100
AcDbEntity
  8
0
  6
Continuous
 62
     2
100
AcDbLine
 10
-202.6943467413652
 20
-241.9618173342383
 30
0.0
 11
-202.6943467413652
 21
-241.4819329804966
 31
0.0
  0
LINE
  5
189
102
{ACAD_REACTORS
330
26A
330
26B
102
}
330
74
100
AcDbEntity
  8
0
  6
Continuous
 62
     2
100
AcDbLine
 10
-206.3682991949243
 20
-247.1969193750391
 30
0.0
 11
-205.1755064927567
 21
-247.1969193750391
 31
0.0
  0
LINE
  5
18A
102
{ACAD_REACTORS
330
26A
330
26B
102
}
330
74
100
AcDbEntity
  8
0
  6
Continuous
 62
     2
100
AcDbLine
 10
-203.9350020825038
 20
-247.1969193750391
 30
0.0
 11
-202.7422093803374
 21
-247.1969193750391
 31
0.0
  0
LINE
  5
18B
102
{ACAD_REACTORS
330
26A
330
26B
102
}
330
74
100
AcDbEntity
  8
0
  6
Continuous
 62
     2
100
AcDbLine
 10
-205.1755064927567
 20
-244.1431098512281
 30
0.0
 11
-206.3682991949243
 21
-244.1431098512281
 31
0.0
  0
LINE
  5
18C
102
{ACAD_REACTORS
330
26A
330
26B
102
}
330
74
100
AcDbEntity
  8
0
  6
Continuous
 62
     2
100
AcDbLine
 10
-206.3682991949243
 20
-244.1431098512281
 30
0.0
 11
-206.3682991949243
 21
-247.1969193750391
 31
0.0
  0
LINE
  5
18D
102
{ACAD_REACTORS
330
268
330
269
102
}
330
74
100
AcDbEntity
  8
0
  6
Continuous
 62
     2
100
AcDbLine
 10
-198.6865632620841
 20
-240.7839193750536
 30
0.0
 11
-198.6865632620841
 21
-242.0926948852588
 31
0.0
  0
LINE
  5
18E
102
{ACAD_REACTORS
330
268
330
269
102
}
330
74
100
AcDbEntity
  8
0
  6
Continuous
 62
     2
100
AcDbLine
 10
-199.9270676723381
 20
-240.7839193750536
 30
0.0
 11
-201.1198603745046
 21
-240.7839193750536
 31
0.0
  0
LINE
  5
18F
102
{ACAD_REACTORS
330
268
330
269
102
}
330
74
100
AcDbEntity
  8
0
  6
Continuous
 62
     2
100
AcDbLine
 10
-201.1198603745046
 20
-240.7839193750536
 30
0.0
 11
-201.1198603745046
 21
-243.8377288988648
 31
0.0
  0
LINE
  5
190
102
{ACAD_REACTORS
330
268
330
269
102
}
330
74
100
AcDbEntity
  8
0
  6
Continuous
 62
     2
100
AcDbLine
 10
-199.9270676723381
 20
-243.8377288988648
 30
0.0
 11
-199.9270676723381
 21
-242.5289533886601
 31
0.0
  0
LINE
  5
191
102
{ACAD_REACTORS
330
266
330
267
102
}
330
74
100
AcDbEntity
  8
0
  6
Continuous
 62
     2
100
AcDbLine
 10
-200.5951825164361
 20
-247.1969193750391
 30
0.0
 11
-200.5951825164361
 21
-244.9283751573516
 31
0.0
  0
LINE
  5
192
102
{ACAD_REACTORS
330
266
330
267
102
}
330
74
100
AcDbEntity
  8
0
  6
Continuous
 62
     2
100
AcDbLine
 10
-200.5951825164361
 20
-244.9283751573516
 30
0.0
 11
-199.7840834789636
 21
-244.9283751573516
 31
0.0
  0
LINE
  5
193
102
{ACAD_REACTORS
330
266
330
267
102
}
330
74
100
AcDbEntity
  8
0
  6
Continuous
 62
     2
100
AcDbLine
 10
-199.7840834789636
 20
-244.9283751573516
 30
0.0
 11
-199.7840834789636
 21
-244.1431098512281
 31
0.0
  0
LINE
  5
194
102
{ACAD_REACTORS
330
266
330
267
102
}
330
74
100
AcDbEntity
  8
0
  6
Continuous
 62
     2
100
AcDbLine
 10
-199.7840834789636
 20
-244.1431098512281
 30
0.0
 11
-202.5990742560772
 21
-244.1431098512281
 31
0.0
  0
LINE
  5
195
102
{ACAD_REACTORS
330
266
330
267
102
}
330
74
100
AcDbEntity
  8
0
  6
Continuous
 62
     2
100
AcDbLine
 10
-202.5990742560772
 20
-244.9283751573516
 30
0.0
 11
-201.7879752186026
 21
-244.9283751573516
 31
0.0
  0
LINE
  5
196
102
{ACAD_REACTORS
330
264
330
265
102
}
330
74
100
AcDbEntity
  8
0
  6
Continuous
 62
     2
100
AcDbLine
 10
-198.9895776531662
 20
-246.6559588308213
 30
0.0
 11
-197.8571360764924
 21
-246.6559588308213
 31
0.0
  0
LINE
  5
197
102
{ACAD_REACTORS
330
264
330
265
102
}
330
74
100
AcDbEntity
  8
0
  6
Continuous
 62
     2
100
AcDbLine
 10
-196.4051516127627
 20
-247.1969193750391
 30
0.0
 11
-197.6456560230166
 21
-247.1969193750391
 31
0.0
  0
LINE
  5
198
102
{ACAD_REACTORS
330
264
330
265
102
}
330
74
100
AcDbEntity
  8
0
  6
Continuous
 62
     2
100
AcDbLine
 10
-199.0436090699557
 20
-244.1431098512281
 30
0.0
 11
-200.441562116895
 21
-247.1969193750391
 31
0.0
  0
LINE
  5
199
102
{ACAD_REACTORS
330
264
330
265
102
}
330
74
100
AcDbEntity
  8
0
  6
Continuous
 62
     2
100
AcDbLine
 10
-199.2010577066421
 20
-247.1969193750391
 30
0.0
 11
-198.9895776531662
 21
-246.6559588308213
 31
0.0
  0
LINE
  5
19A
102
{ACAD_REACTORS
330
264
330
265
102
}
330
74
100
AcDbEntity
  8
0
  6
Continuous
 62
     2
100
AcDbLine
 10
-198.7235221020212
 20
-245.9753955655147
 30
0.0
 11
-198.4233568648288
 21
-245.2075805995279
 31
0.0
  0
LINE
  5
19B
102
{ACAD_REACTORS
330
262
330
263
102
}
330
74
100
AcDbEntity
  8
0
  6
Continuous
 62
     2
100
AcDbLine
 10
-197.2552120194836
 20
-243.8377288988648
 30
0.0
 11
-197.2552120194836
 21
-240.7839193750536
 31
0.0
  0
LINE
  5
19C
102
{ACAD_REACTORS
330
262
330
263
102
}
330
74
100
AcDbEntity
  8
0
  6
Continuous
 62
     2
100
AcDbLine
 10
-196.0147076092307
 20
-240.7839193750536
 30
0.0
 11
-196.0147076092307
 21
-243.8377288988648
 31
0.0
  0
LINE
  5
19D
102
{ACAD_REACTORS
330
262
330
263
102
}
330
74
100
AcDbEntity
  8
0
  6
Continuous
 62
     2
100
AcDbLine
 10
-197.2552120194836
 20
-240.7839193750536
 30
0.0
 11
-196.0147076092307
 21
-240.7839193750536
 31
0.0
  0
LINE
  5
19E
102
{ACAD_REACTORS
330
260
330
261
102
}
330
74
100
AcDbEntity
  8
0
  6
Continuous
 62
     2
100
AcDbLine
 10
-193.7961131831999
 20
-243.0499971135711
 30
0.0
 11
-193.0995222451344
 21
-243.8377288988648
 31
0.0
  0
LINE
  5
19F
102
{ACAD_REACTORS
330
260
330
261
102
}
330
74
100
AcDbEntity
  8
0
  6
Continuous
 62
     2
100
AcDbLine
 10
-193.0995222451344
 20
-243.8377288988648
 30
0.0
 11
-191.6967980273861
 21
-243.8377288988648
 31
0.0
  0
LINE
  5
1A0
102
{ACAD_REACTORS
330
260
330
261
102
}
330
74
100
AcDbEntity
  8
0
  6
Continuous
 62
     2
100
AcDbLine
 10
-193.0947510743264
 20
-242.2568699050898
 30
0.0
 11
-191.6967980273861
 21
-243.8377288988648
 31
0.0
  0
LINE
  5
1A1
102
{ACAD_REACTORS
330
260
330
261
102
}
330
74
100
AcDbEntity
  8
0
  6
Continuous
 62
     2
100
AcDbLine
 10
-193.0947510743264
 20
-242.2568699050898
 30
0.0
 11
-191.7922214435599
 21
-240.7839193750536
 31
0.0
  0
LINE
  5
1A2
102
{ACAD_REACTORS
330
260
330
261
102
}
330
74
100
AcDbEntity
  8
0
  6
Continuous
 62
     2
100
AcDbLine
 10
-193.7961131831999
 20
-241.4637426966091
 30
0.0
 11
-193.1949456613071
 21
-240.7839193750536
 31
0.0
  0
LINE
  5
1A3
102
{ACAD_REACTORS
330
260
330
261
102
}
330
74
100
AcDbEntity
  8
0
  6
Continuous
 62
     2
100
AcDbLine
 10
-194.3972807050917
 20
-240.7839193750536
 30
0.0
 11
-193.7961131831999
 21
-241.4637426966091
 31
0.0
  0
LINE
  5
1A4
102
{ACAD_REACTORS
330
260
330
261
102
}
330
74
100
AcDbEntity
  8
0
  6
Continuous
 62
     2
100
AcDbLine
 10
-194.3972807050917
 20
-240.7839193750536
 30
0.0
 11
-195.800004922841
 21
-240.7839193750536
 31
0.0
  0
LINE
  5
1A5
102
{ACAD_REACTORS
330
256
330
257
102
}
330
74
100
AcDbEntity
  8
0
  6
Continuous
 62
     2
100
AcDbLine
 10
-193.7006897670272
 20
-247.1969193750391
 30
0.0
 11
-192.5078970648595
 21
-247.1969193750391
 31
0.0
  0
LINE
  5
1A6
102
{ACAD_REACTORS
330
256
330
257
102
}
330
74
100
AcDbEntity
  8
0
  6
Continuous
 62
     2
100
AcDbLine
 10
-192.5078970648595
 20
-247.1969193750391
 30
0.0
 11
-192.5078970648595
 21
-244.9283751573516
 31
0.0
  0
LINE
  5
1A7
102
{ACAD_REACTORS
330
256
330
257
102
}
330
74
100
AcDbEntity
  8
0
  6
Continuous
 62
     2
100
AcDbLine
 10
-192.5078970648595
 20
-244.9283751573516
 30
0.0
 11
-191.6967980273861
 21
-244.9283751573516
 31
0.0
  0
LINE
  5
1A8
102
{ACAD_REACTORS
330
256
330
257
102
}
330
74
100
AcDbEntity
  8
0
  6
Continuous
 62
     2
100
AcDbLine
 10
-191.6967980273861
 20
-244.9283751573516
 30
0.0
 11
-191.6967980273861
 21
-244.1431098512281
 31
0.0
  0
LINE
  5
1A9
102
{ACAD_REACTORS
330
256
330
257
102
}
330
74
100
AcDbEntity
  8
0
  6
Continuous
 62
     2
100
AcDbLine
 10
-195.0817435460148
 20
-244.1431098512285
 30
0.0
 11
-191.6967980273861
 21
-244.1431098512281
 31
0.0
  0
LINE
  5
1AA
102
{ACAD_REACTORS
330
256
330
257
102
}
330
74
100
AcDbEntity
  8
0
  6
Continuous
 62
     2
100
AcDbLine
 10
-193.7006897670272
 20
-244.9283751573516
 30
0.0
 11
-193.7006897670272
 21
-247.1969193750391
 31
0.0
  0
LINE
  5
1AB
102
{ACAD_REACTORS
330
258
330
259
102
}
330
74
100
AcDbEntity
  8
0
  6
Continuous
 62
     2
100
AcDbLine
 10
-216.3301762025064
 20
-245.2180392254746
 30
0.0
 11
-216.3301762025064
 21
-244.6361878187796
 31
0.0
  0
LINE
  5
1AC
102
{ACAD_REACTORS
330
258
330
259
102
}
330
74
100
AcDbEntity
  8
0
  6
Continuous
 62
     2
100
AcDbLine
 10
-216.3301762025064
 20
-242.4179046188433
 30
0.0
 11
-216.3301762025064
 21
-241.8123693303365
 31
0.0
  0
LINE
  5
1AD
330
74
100
AcDbEntity
  8
1
  6
Continuous
 62
     6
100
AcDbLine
 10
-237.7999976179032
 20
-254.4904193750554
 30
0.0
 11
-223.8448021446532
 21
-254.4904193750556
 31
0.0
  0
LINE
  5
1AE
330
74
100
AcDbEntity
  8
1
  6
Continuous
 62
     6
100
AcDbLine
 10
-287.7999976179034
 20
-254.4904193750554
 30
0.0
 11
-292.8448021446532
 21
-254.4904193750554
 31
0.0
  0
LINE
  5
1AF
330
74
100
AcDbEntity
  8
1
  6
Continuous
 62
     6
100
AcDbLine
 10
-137.7999976179032
 20
-254.4904193750554
 30
0.0
 11
-94.29999761790323
 21
-254.4904193750554
 31
0.0
  0
LINE
  5
1B0
330
74
100
AcDbEntity
  8
1
  6
Continuous
 62
     6
100
AcDbLine
 10
-187.7999976179032
 20
-254.4904193750554
 30
0.0
 11
-205.6448021446532
 21
-254.4904193750554
 31
0.0
  0
LINE
  5
1B1
330
74
100
AcDbEntity
  8
1
  6
Continuous
 62
     2
100
AcDbLine
 10
-94.29999761790323
 20
-254.4904193750554
 30
0.0
 11
-89.29999761790424
 21
-254.4904193750554
 31
0.0
  0
LINE
  5
1B2
330
74
100
AcDbEntity
  8
1
  6
Continuous
 62
     2
100
AcDbLine
 10
-94.29999761790323
 20
-254.4904193750554
 30
0.0
 11
-94.29999761790323
 21
-259.4904193750556
 31
0.0
  0
LINE
  5
1B3
330
74
100
AcDbEntity
  8
1
  6
Continuous
 62
     6
100
AcDbLine
 10
-223.8448021446532
 20
-237.4904193750554
 30
0.0
 11
-187.4448021446533
 21
-237.4904193750554
 31
0.0
  0
LINE
  5
1B4
330
74
100
AcDbEntity
  8
1
  6
Continuous
 62
     2
100
AcDbLine
 10
-89.29999761790424
 20
-259.4904193750556
 30
0.0
 11
-89.29999761790424
 21
-254.4904193750554
 31
0.0
  0
LINE
  5
1B5
330
74
100
AcDbEntity
  8
1
  6
Continuous
 62
     2
100
AcDbLine
 10
-89.29999761790424
 20
-259.4904193750556
 30
0.0
 11
-94.29999761790323
 21
-259.4904193750556
 31
0.0
  0
LINE
  5
1B6
330
74
100
AcDbEntity
  8
1
  6
Continuous
 62
     2
100
AcDbLine
 10
-94.29999761790323
 20
-259.4904193750556
 30
0.0
 11
-137.7999976179032
 21
-259.4904193750556
 31
0.0
  0
LINE
  5
1B7
330
74
100
AcDbEntity
  8
1
  6
Continuous
 62
     6
100
AcDbLine
 10
-94.29999761790154
 20
-237.4904193750554
 30
0.0
 11
-94.29999761790233
 21
-204.4904193750553
 31
0.0
  0
LINE
  5
1B8
330
74
100
AcDbEntity
  8
1
  6
Continuous
 62
     2
100
AcDbLine
 10
-89.29999761790424
 20
-49.49041937505544
 30
0.0
 11
-237.7999976179032
 21
-49.49041937505544
 31
0.0
  0
LINE
  5
1B9
330
74
100
AcDbEntity
  8
1
  6
Continuous
 62
     6
100
AcDbLine
 10
-94.29999761790424
 20
-69.49041937505544
 30
0.0
 11
-381.2999976179023
 21
-69.49041937505544
 31
0.0
  0
LINE
  5
1BA
330
74
100
AcDbEntity
  8
1
  6
Continuous
 62
     2
100
AcDbLine
 10
-94.29999761790233
 20
-204.4904193750553
 30
0.0
 11
-89.29999761790424
 21
-204.4904193750553
 31
0.0
  0
LINE
  5
1BB
330
74
100
AcDbEntity
  8
1
  6
Continuous
 62
     6
100
AcDbLine
 10
-94.29999761790233
 20
-204.4904193750553
 30
0.0
 11
-94.29999761790283
 21
-154.4904193750555
 31
0.0
  0
LINE
  5
1BC
330
74
100
AcDbEntity
  8
1
  6
Continuous
 62
     2
100
AcDbLine
 10
-89.29999761790424
 20
-204.4904193750553
 30
0.0
 11
-89.29999761790424
 21
-154.4904193750555
 31
0.0
  0
LINE
  5
1BD
330
74
100
AcDbEntity
  8
1
  6
Continuous
 62
     2
100
AcDbLine
 10
-94.29999761790283
 20
-154.4904193750555
 30
0.0
 11
-89.29999761790424
 21
-154.4904193750555
 31
0.0
  0
LINE
  5
1BE
330
74
100
AcDbEntity
  8
1
  6
Continuous
 62
     6
100
AcDbLine
 10
-94.29999761790283
 20
-154.4904193750555
 30
0.0
 11
-94.29999761790404
 21
-104.4904193750554
 31
0.0
  0
LINE
  5
1BF
330
74
100
AcDbEntity
  8
1
  6
Continuous
 62
     2
100
AcDbLine
 10
-89.29999761790424
 20
-154.4904193750555
 30
0.0
 11
-89.29999761790424
 21
-104.4904193750554
 31
0.0
  0
LINE
  5
1C0
330
74
100
AcDbEntity
  8
1
  6
Continuous
 62
     2
100
AcDbLine
 10
-94.29999761790404
 20
-104.4904193750554
 30
0.0
 11
-89.29999761790424
 21
-104.4904193750554
 31
0.0
  0
LINE
  5
1C1
330
74
100
AcDbEntity
  8
1
  6
Continuous
 62
     6
100
AcDbLine
 10
-94.29999761790404
 20
-104.4904193750554
 30
0.0
 11
-94.29999761790424
 21
-69.49041937505544
 31
0.0
  0
LINE
  5
1C2
330
74
100
AcDbEntity
  8
1
  6
Continuous
 62
     2
100
AcDbLine
 10
-89.29999761790424
 20
-104.4904193750554
 30
0.0
 11
-89.29999761790424
 21
-49.49041937505544
 31
0.0
  0
LINE
  5
1C3
330
74
100
AcDbEntity
  8
1
  6
Continuous
 62
     2
100
AcDbLine
 10
-89.29999761790424
 20
-254.4904193750554
 30
0.0
 11
-89.29999761790424
 21
-204.4904193750553
 31
0.0
  0
LINE
  5
1C4
330
74
100
AcDbEntity
  8
1
  6
Continuous
 62
     2
100
AcDbLine
 10
-237.7999976179032
 20
-49.49041937505544
 30
0.0
 11
-386.2999976179023
 21
-49.49041937505544
 31
0.0
  0
LINE
  5
1C5
330
74
100
AcDbEntity
  8
1
  6
Continuous
 62
     2
100
AcDbLine
 10
-237.7999976179032
 20
-49.49041937505544
 30
0.0
 11
-237.7999976179032
 21
-58.69911121975676
 31
0.0
  0
LINE
  5
1C6
330
74
100
AcDbEntity
  8
1
  6
Continuous
 62
     2
100
AcDbLine
 10
-386.2999976179023
 20
-259.4904193750556
 30
0.0
 11
-381.2999976179013
 21
-259.4904193750556
 31
0.0
  0
LINE
  5
1C7
330
74
100
AcDbEntity
  8
1
  6
Continuous
 62
     2
100
AcDbLine
 10
-386.2999976179023
 20
-49.49041937505544
 30
0.0
 11
-386.2999976179023
 21
-104.4904193750554
 31
0.0
  0
LINE
  5
1C8
330
74
100
AcDbEntity
  8
1
  6
Continuous
 62
     6
100
AcDbLine
 10
-381.2999976179023
 20
-69.49041937505544
 30
0.0
 11
-381.2999976179023
 21
-104.4904193750554
 31
0.0
  0
LINE
  5
1C9
330
74
100
AcDbEntity
  8
1
  6
Continuous
 62
     2
100
AcDbLine
 10
-386.2999976179023
 20
-104.4904193750554
 30
0.0
 11
-381.2999976179023
 21
-104.4904193750554
 31
0.0
  0
LINE
  5
1CA
330
74
100
AcDbEntity
  8
1
  6
Continuous
 62
     2
100
AcDbLine
 10
-386.2999976179023
 20
-104.4904193750554
 30
0.0
 11
-386.2999976179023
 21
-154.4904193750555
 31
0.0
  0
LINE
  5
1CB
330
74
100
AcDbEntity
  8
1
  6
Continuous
 62
     6
100
AcDbLine
 10
-381.2999976179023
 20
-104.4904193750554
 30
0.0
 11
-381.2999976179017
 21
-154.4904193750555
 31
0.0
  0
LINE
  5
1CC
330
74
100
AcDbEntity
  8
1
  6
Continuous
 62
     2
100
AcDbLine
 10
-386.2999976179023
 20
-154.4904193750555
 30
0.0
 11
-381.2999976179017
 21
-154.4904193750555
 31
0.0
  0
LINE
  5
1CD
330
74
100
AcDbEntity
  8
1
  6
Continuous
 62
     2
100
AcDbLine
 10
-386.2999976179023
 20
-154.4904193750555
 30
0.0
 11
-386.2999976179023
 21
-204.4904193750553
 31
0.0
  0
LINE
  5
1CE
330
74
100
AcDbEntity
  8
1
  6
Continuous
 62
     6
100
AcDbLine
 10
-381.2999976179017
 20
-154.4904193750555
 30
0.0
 11
-381.2999976179015
 21
-204.4904193750553
 31
0.0
  0
LINE
  5
1CF
330
74
100
AcDbEntity
  8
1
  6
Continuous
 62
     2
100
AcDbLine
 10
-386.2999976179023
 20
-204.4904193750553
 30
0.0
 11
-381.2999976179015
 21
-204.4904193750553
 31
0.0
  0
LINE
  5
1D0
330
74
100
AcDbEntity
  8
1
  6
Continuous
 62
     2
100
AcDbLine
 10
-386.2999976179023
 20
-204.4904193750553
 30
0.0
 11
-386.2999976179023
 21
-254.4904193750554
 31
0.0
  0
LINE
  5
1D1
330
74
100
AcDbEntity
  8
1
  6
Continuous
 62
     6
100
AcDbLine
 10
-381.2999976179015
 20
-204.4904193750553
 30
0.0
 11
-381.2999976179013
 21
-254.4904193750554
 31
0.0
  0
LINE
  5
1D2
330
74
100
AcDbEntity
  8
1
  6
Continuous
 62
     2
100
AcDbLine
 10
-337.7999976179032
 20
-259.4904193750556
 30
0.0
 11
-337.7999976179032
 21
-254.4904193750554
 31
0.0
  0
LINE
  5
1D3
330
74
100
AcDbEntity
  8
1
  6
Continuous
 62
     2
100
AcDbLine
 10
-337.7999976179032
 20
-259.4904193750556
 30
0.0
 11
-287.7999976179034
 21
-259.4904193750556
 31
0.0
  0
LINE
  5
1D4
330
74
100
AcDbEntity
  8
1
  6
Continuous
 62
     2
100
AcDbLine
 10
-287.7999976179034
 20
-259.4904193750556
 30
0.0
 11
-287.7999976179034
 21
-254.4904193750554
 31
0.0
  0
LINE
  5
1D5
330
74
100
AcDbEntity
  8
1
  6
Continuous
 62
     2
100
AcDbLine
 10
-287.7999976179034
 20
-259.4904193750556
 30
0.0
 11
-237.7999976179032
 21
-259.4904193750556
 31
0.0
  0
LINE
  5
1D6
330
74
100
AcDbEntity
  8
1
  6
Continuous
 62
     2
100
AcDbLine
 10
-237.7999976179032
 20
-259.4904193750556
 30
0.0
 11
-237.7999976179032
 21
-254.4904193750554
 31
0.0
  0
LINE
  5
1D7
330
74
100
AcDbEntity
  8
1
  6
Continuous
 62
     2
100
AcDbLine
 10
-237.7999976179032
 20
-259.4904193750556
 30
0.0
 11
-187.7999976179032
 21
-259.4904193750556
 31
0.0
  0
LINE
  5
1D8
330
74
100
AcDbEntity
  8
1
  6
Continuous
 62
     2
100
AcDbLine
 10
-187.7999976179032
 20
-259.4904193750556
 30
0.0
 11
-187.7999976179032
 21
-254.4904193750554
 31
0.0
  0
LINE
  5
1D9
330
74
100
AcDbEntity
  8
1
  6
Continuous
 62
     2
100
AcDbLine
 10
-137.7999976179032
 20
-259.4904193750556
 30
0.0
 11
-137.7999976179032
 21
-254.4904193750554
 31
0.0
  0
LINE
  5
1DA
330
74
100
AcDbEntity
  8
1
  6
Continuous
 62
     2
100
AcDbLine
 10
-137.7999976179032
 20
-259.4904193750556
 30
0.0
 11
-187.7999976179032
 21
-259.4904193750556
 31
0.0
  0
LINE
  5
1DB
330
74
100
AcDbEntity
  8
1
  6
Continuous
 62
     2
100
AcDbLine
 10
-381.2999976179013
 20
-254.4904193750554
 30
0.0
 11
-381.2999976179013
 21
-259.4904193750556
 31
0.0
  0
LINE
  5
1DC
330
74
100
AcDbEntity
  8
1
  6
Continuous
 62
     2
100
AcDbLine
 10
-381.2999976179013
 20
-259.4904193750556
 30
0.0
 11
-337.7999976179032
 21
-259.4904193750556
 31
0.0
  0
LINE
  5
1DD
330
74
100
AcDbEntity
  8
1
  6
Continuous
 62
     2
100
AcDbLine
 10
-381.2999976179013
 20
-254.4904193750554
 30
0.0
 11
-386.2999976179023
 21
-254.4904193750554
 31
0.0
  0
LINE
  5
1DE
330
74
100
AcDbEntity
  8
1
  6
Continuous
 62
     2
100
AcDbLine
 10
-386.2999976179023
 20
-254.4904193750554
 30
0.0
 11
-386.2999976179023
 21
-259.4904193750556
 31
0.0
  0
LINE
  5
1DF
330
74
100
AcDbEntity
  8
1
  6
Continuous
 62
     6
100
AcDbLine
 10
-94.29999761790323
 20
-254.4904193750554
 30
0.0
 11
-94.29999761790194
 21
-245.9904193750554
 31
0.0
  0
LINE
  5
1E0
330
74
100
AcDbEntity
  8
1
  6
Continuous
 62
     6
100
AcDbLine
 10
-187.4448021446533
 20
-254.4904193750556
 30
0.0
 11
-137.7999976179032
 21
-254.4904193750554
 31
0.0
  0
LINE
  5
1E1
330
74
100
AcDbEntity
  8
1
  6
Continuous
 62
     6
100
AcDbLine
 10
-340.0999976179035
 20
-254.4904193750556
 30
0.0
 11
-337.7999976179032
 21
-254.4904193750554
 31
0.0
  0
LINE
  5
1E2
330
74
100
AcDbEntity
  8
1
  6
Continuous
 62
     6
100
AcDbLine
 10
-237.7999976179032
 20
-254.4904193750554
 30
0.0
 11
-287.7999976179034
 21
-254.4904193750554
 31
0.0
  0
LINE
  5
1E3
330
74
100
AcDbEntity
  8
1
  6
Continuous
 62
     7
100
AcDbLine
 10
-223.8448021446532
 20
-237.4904193750554
 30
0.0
 11
-223.8448021446532
 21
-250.2404193750556
 31
0.0
  0
LINE
  5
1E4
330
74
100
AcDbEntity
  8
1
  6
Continuous
 62
     7
100
AcDbLine
 10
-187.4448021446533
 20
-237.4904193750554
 30
0.0
 11
-187.4448021446533
 21
-250.2404193750554
 31
0.0
  0
LINE
  5
1E5
330
74
100
AcDbEntity
  8
1
  6
Continuous
 62
     6
100
AcDbLine
 10
-340.0999976179035
 20
-254.4904193750556
 30
0.0
 11
-346.2999976179015
 21
-254.4904193750554
 31
0.0
  0
LINE
  5
1E6
330
74
100
AcDbEntity
  8
1
  6
Continuous
 62
     6
100
AcDbLine
 10
-187.4448021446533
 20
-254.4904193750556
 30
0.0
 11
-187.7999976179032
 21
-254.4904193750554
 31
0.0
  0
LINE
  5
1E7
330
74
100
AcDbEntity
  8
1
  6
Continuous
 62
     6
100
AcDbLine
 10
-94.29999761790154
 20
-237.4904193750554
 30
0.0
 11
-94.29999761790194
 21
-245.9904193750554
 31
0.0
  0
LINE
  5
1E8
330
74
100
AcDbEntity
  8
1
  6
Continuous
 62
     6
100
AcDbLine
 10
-346.2999976179015
 20
-254.4904193750554
 30
0.0
 11
-381.2999976179013
 21
-254.4904193750554
 31
0.0
  0
LINE
  5
1E9
330
74
100
AcDbEntity
  8
1
  6
Continuous
 62
     2
100
AcDbLine
 10
-219.6081472580906
 20
-232.1154193750555
 30
0.0
 11
-214.6081472580906
 21
-230.8654193750555
 31
0.0
  0
LINE
  5
1EA
330
74
100
AcDbEntity
  8
1
  6
Continuous
 62
     2
100
AcDbLine
 10
-219.6081472580906
 20
-234.6154193750555
 30
0.0
 11
-219.6081472580906
 21
-232.1154193750555
 31
0.0
  0
LINE
  5
1EB
330
74
100
AcDbEntity
  8
1
  6
Continuous
 62
     2
100
AcDbLine
 10
-214.6081472580906
 20
-235.8654193750555
 30
0.0
 11
-219.6081472580906
 21
-234.6154193750555
 31
0.0
  0
LINE
  5
1EC
330
74
100
AcDbEntity
  8
1
  6
Continuous
 62
     2
100
AcDbLine
 10
-214.6081472580906
 20
-230.8654193750555
 30
0.0
 11
-214.6081472580906
 21
-235.8654193750555
 31
0.0
  0
LINE
  5
1ED
330
74
100
AcDbEntity
  8
1
  6
Continuous
 62
     7
100
AcDbLine
 10
-223.8448021446532
 20
-250.2404193750556
 30
0.0
 11
-205.6448021446532
 21
-250.2404193750554
 31
0.0
  0
LINE
  5
1EE
330
74
100
AcDbEntity
  8
1
  6
Continuous
 62
     7
100
AcDbLine
 10
-223.8448021446532
 20
-250.2404193750556
 30
0.0
 11
-223.8448021446532
 21
-254.4904193750556
 31
0.0
  0
LINE
  5
1EF
330
74
100
AcDbEntity
  8
1
  6
Continuous
 62
     7
100
AcDbLine
 10
-187.4448021446533
 20
-250.2404193750554
 30
0.0
 11
-187.4448021446533
 21
-254.4904193750556
 31
0.0
  0
LINE
  5
1F0
330
74
100
AcDbEntity
  8
1
  6
Continuous
 62
     7
100
AcDbLine
 10
-205.6448021446532
 20
-250.2404193750554
 30
0.0
 11
-205.6448021446532
 21
-254.4904193750554
 31
0.0
  0
LINE
  5
1F1
330
74
100
AcDbEntity
  8
1
  6
Continuous
 62
     6
100
AcDbLine
 10
-205.6448021446532
 20
-254.4904193750554
 30
0.0
 11
-223.8448021446532
 21
-254.4904193750556
 31
0.0
  0
LINE
  5
1F2
330
74
100
AcDbEntity
  8
1
  6
Continuous
 62
     7
100
AcDbLine
 10
-205.6448021446532
 20
-250.2404193750554
 30
0.0
 11
-187.4448021446533
 21
-250.2404193750554
 31
0.0
  0
LINE
  5
1F3
330
74
100
AcDbEntity
  8
1
  6
Continuous
 62
     6
100
AcDbLine
 10
-223.8448021446532
 20
-228.9904193750554
 30
0.0
 11
-94.29999761790154
 21
-228.9904193750554
 31
0.0
  0
ARC
  5
1F4
102
{ACAD_REACTORS
330
25C
330
25D
102
}
330
74
100
AcDbEntity
  8
0
  6
Continuous
 62
     2
100
AcDbCircle
 10
-208.4531541456933
 20
-245.6700146131338
 30
0.0
 40
0.7717997786797793
100
AcDbArc
 50
321.879580202844
 51
38.12041979714274
  0
ARC
  5
1F5
102
{ACAD_REACTORS
330
25C
330
25D
102
}
330
74
100
AcDbEntity
  8
0
  6
Continuous
 62
     2
100
AcDbCircle
 10
-208.2534141093468
 20
-245.8267457912538
 30
0.0
 40
0.5179085730137354
100
AcDbArc
 50
218.1204197971931
 51
321.879580202801
  0
ARC
  5
1F6
102
{ACAD_REACTORS
330
25C
330
25D
102
}
330
74
100
AcDbEntity
  8
0
  6
Continuous
 62
     2
100
AcDbCircle
 10
-208.0536740730007
 20
-245.6700146131338
 30
0.0
 40
0.7717997786793931
100
AcDbArc
 50
141.879580202843
 51
218.1204197971703
  0
ARC
  5
1F7
102
{ACAD_REACTORS
330
25C
330
25D
102
}
330
74
100
AcDbEntity
  8
0
  6
Continuous
 62
     2
100
AcDbCircle
 10
-208.2534141093468
 20
-245.5132834350133
 30
0.0
 40
0.5179085730132472
100
AcDbArc
 50
38.12041979713961
 51
141.8795802028662
  0
ARC
  5
1F8
102
{ACAD_REACTORS
330
254
330
255
102
}
330
74
100
AcDbEntity
  8
0
  6
Continuous
 62
     2
100
AcDbCircle
 10
-211.3154282449107
 20
-247.080480978542
 30
0.0
 40
2.227384008973478
100
AcDbArc
 50
58.06909105004071
 51
71.5519238818686
  0
ARC
  5
1F9
102
{ACAD_REACTORS
330
254
330
255
102
}
330
74
100
AcDbEntity
  8
0
  6
Continuous
 62
     2
100
AcDbCircle
 10
-211.053700543952
 20
-245.4649431837948
 30
0.0
 40
0.5115800601948179
100
AcDbArc
 50
113.3722778881916
 51
151.4785267423044
  0
ARC
  5
1FA
102
{ACAD_REACTORS
330
254
330
255
102
}
330
74
100
AcDbEntity
  8
0
  6
Continuous
 62
     2
100
AcDbCircle
 10
-210.6763432858716
 20
-245.6700146131338
 30
0.0
 40
0.9410597353333294
100
AcDbArc
 50
151.4785267422693
 51
208.5214732577048
  0
ARC
  5
1FB
102
{ACAD_REACTORS
330
254
330
255
102
}
330
74
100
AcDbEntity
  8
0
  6
Continuous
 62
     2
100
AcDbCircle
 10
-211.4733011200036
 20
-242.3573336678774
 30
0.0
 40
4.852596863498131
100
AcDbArc
 50
275.158144769624
 51
285.9799912583526
  0
ARC
  5
1FC
102
{ACAD_REACTORS
330
254
330
255
102
}
330
74
100
AcDbEntity
  8
0
  6
Continuous
 62
     2
100
AcDbCircle
 10
-211.1844450252677
 20
-245.557224251099
 30
0.0
 40
1.639695123939387
100
AcDbArc
 50
195.0618917770896
 51
275.1581447696365
  0
ARC
  5
1FD
102
{ACAD_REACTORS
330
254
330
255
102
}
330
74
100
AcDbEntity
  8
0
  6
Continuous
 62
     2
100
AcDbCircle
 10
-211.6035728687305
 20
-245.6700146131338
 30
0.0
 40
1.205656168390937
100
AcDbArc
 50
164.9381082228778
 51
195.0618917770962
  0
ARC
  5
1FE
102
{ACAD_REACTORS
330
254
330
255
102
}
330
74
100
AcDbEntity
  8
0
  6
Continuous
 62
     2
100
AcDbCircle
 10
-211.1844450252677
 20
-245.7828049751687
 30
0.0
 40
1.639695123940499
100
AcDbArc
 50
84.84185523036533
 51
164.9381082228874
  0
ARC
  5
1FF
102
{ACAD_REACTORS
330
258
330
259
102
}
330
74
100
AcDbEntity
  8
0
  6
Continuous
 62
     2
100
AcDbCircle
 10
-216.0144592794296
 20
-244.6361878187796
 30
0.0
 40
0.315716923076622
100
AcDbArc
 50
115.3740086783499
 51
180.0
  0
ARC
  5
200
102
{ACAD_REACTORS
330
258
330
259
102
}
330
74
100
AcDbEntity
  8
0
  6
Continuous
 62
     2
100
AcDbCircle
 10
-216.0144592794296
 20
-242.4179046188433
 30
0.0
 40
0.3157169230768204
100
AcDbArc
 50
180.0
 51
244.6259913216435
  0
ARC
  5
201
102
{ACAD_REACTORS
330
258
330
259
102
}
330
74
100
AcDbEntity
  8
0
  6
Continuous
 62
     2
100
AcDbCircle
 10
-216.0088431441196
 20
-243.5152042779056
 30
0.0
 40
2.018561131933351
100
AcDbArc
 50
269.8110329575858
 51
90.18896704241416
  0
ARC
  5
202
102
{ACAD_REACTORS
330
258
330
259
102
}
330
74
100
AcDbEntity
  8
0
  6
Continuous
 62
     2
100
AcDbCircle
 10
-216.0144592794296
 20
-245.2180392254746
 30
0.0
 40
0.3157169230768204
100
AcDbArc
 50
180.0
 51
269.811032957449
  0
ARC
  5
203
102
{ACAD_REACTORS
330
256
330
257
102
}
330
74
100
AcDbEntity
  8
0
  6
Continuous
 62
     2
100
AcDbCircle
 10
-194.950999064699
 20
-245.4649431837948
 30
0.0
 40
0.511580060194307
100
AcDbArc
 50
109.3371432194895
 51
151.4785267424253
  0
ARC
  5
204
102
{ACAD_REACTORS
330
256
330
257
102
}
330
74
100
AcDbEntity
  8
0
  6
Continuous
 62
     2
100
AcDbCircle
 10
-194.950999064699
 20
-245.8750860424723
 30
0.0
 40
0.511580060196008
100
AcDbArc
 50
208.5214732576838
 51
246.6277221118449
  0
ARC
  5
205
102
{ACAD_REACTORS
330
256
330
257
102
}
330
74
100
AcDbEntity
  8
0
  6
Continuous
 62
     2
100
AcDbCircle
 10
-195.5008713894764
 20
-245.6700146131338
 30
0.0
 40
1.205656168392968
100
AcDbArc
 50
164.9381082229037
 51
195.0618917770975
  0
ARC
  5
206
102
{ACAD_REACTORS
330
256
330
257
102
}
330
74
100
AcDbEntity
  8
0
  6
Continuous
 62
     2
100
AcDbCircle
 10
-195.0817435460148
 20
-245.7828049751687
 30
0.0
 40
1.639695123940186
100
AcDbArc
 50
90.0
 51
164.9381082228957
  0
ARC
  5
207
102
{ACAD_REACTORS
330
25A
330
25B
102
}
330
74
100
AcDbEntity
  8
0
  6
Continuous
 62
     2
100
AcDbCircle
 10
-204.5087386387185
 20
-242.3108241369595
 30
0.0
 40
1.526904761905882
100
AcDbArc
 50
90.0
 51
270.0
  0
ARC
  5
208
102
{ACAD_REACTORS
330
25E
330
25F
102
}
330
74
100
AcDbEntity
  8
0
  6
Continuous
 62
     2
100
AcDbCircle
 10
-211.2514293839443
 20
-241.7998890451648
 30
0.0
 40
0.3528638246712035
100
AcDbArc
 50
270.0
 51
90.0
  0
ARC
  5
209
102
{ACAD_REACTORS
330
258
330
259
102
}
330
74
100
AcDbEntity
  8
0
  6
Continuous
 62
     2
100
AcDbCircle
 10
-218.5900079659614
 20
-241.8121918536884
 30
0.0
 40
0.3157169230761951
100
AcDbArc
 50
90.0
 51
180.0
  0
ARC
  5
20A
102
{ACAD_REACTORS
330
258
330
259
102
}
330
74
100
AcDbEntity
  8
0
  6
Continuous
 62
     2
100
AcDbCircle
 10
-216.5915902573767
 20
-243.5270462188111
 30
0.0
 40
0.9118975235576147
100
AcDbArc
 50
115.1944106485282
 51
244.80558935149
  0
ARC
  5
20B
102
{ACAD_REACTORS
330
258
330
259
102
}
330
74
100
AcDbEntity
  8
0
  6
Continuous
 62
     2
100
AcDbCircle
 10
-217.1141747049517
 20
-244.6378759648739
 30
0.0
 40
0.315716923076593
100
AcDbArc
 50
0.0
 51
64.80558935145369
  0
ARC
  5
20C
102
{ACAD_REACTORS
330
258
330
259
102
}
330
74
100
AcDbEntity
  8
0
  6
Continuous
 62
     2
100
AcDbCircle
 10
-219.1839026427078
 20
-246.7726747596558
 30
0.0
 40
0.4242446153828041
100
AcDbArc
 50
180.0
 51
270.0
  0
ARC
  5
20D
102
{ACAD_REACTORS
330
25A
330
25B
102
}
330
74
100
AcDbEntity
  8
0
  6
Continuous
 62
     2
100
AcDbCircle
 10
-204.2924666285533
 20
-242.154092958839
 30
0.0
 40
0.5179085730134564
100
AcDbArc
 50
38.12041979713344
 51
141.8795802028588
  0
ARC
  5
20E
102
{ACAD_REACTORS
330
25A
330
25B
102
}
330
74
100
AcDbEntity
  8
0
  6
Continuous
 62
     2
100
AcDbCircle
 10
-204.092726592207
 20
-242.3108241369595
 30
0.0
 40
0.7717997786796421
100
AcDbArc
 50
141.8795802028467
 51
218.1204197971599
  0
ARC
  5
20F
102
{ACAD_REACTORS
330
25C
330
25D
102
}
330
74
100
AcDbEntity
  8
0
  6
Continuous
 62
     2
100
AcDbCircle
 10
-208.2534141093468
 20
-245.1314396028305
 30
0.0
 40
2.065479772208483
100
AcDbArc
 50
242.4518518243399
 51
297.5481481756875
  0
ARC
  5
210
102
{ACAD_REACTORS
330
25C
330
25D
102
}
330
74
100
AcDbEntity
  8
0
  6
Continuous
 62
     2
100
AcDbCircle
 10
-208.2534141093468
 20
-246.2085896234366
 30
0.0
 40
2.065479772208492
100
AcDbArc
 50
62.45185182430527
 51
117.5481481756675
  0
ARC
  5
211
102
{ACAD_REACTORS
330
25C
330
25D
102
}
330
74
100
AcDbEntity
  8
0
  6
Continuous
 62
     2
100
AcDbCircle
 10
-208.5343540011801
 20
-245.6700146131338
 30
0.0
 40
1.458034083651389
100
AcDbArc
 50
117.5481481756645
 51
242.4518518243375
  0
ARC
  5
212
102
{ACAD_REACTORS
330
25C
330
25D
102
}
330
74
100
AcDbEntity
  8
0
  6
Continuous
 62
     2
100
AcDbCircle
 10
-207.9724742175135
 20
-245.6700146131338
 30
0.0
 40
1.458034083652003
100
AcDbArc
 50
297.548148175701
 51
62.45185182429689
  0
ARC
  5
213
102
{ACAD_REACTORS
330
25A
330
25B
102
}
330
74
100
AcDbEntity
  8
0
  6
Continuous
 62
     2
100
AcDbCircle
 10
-204.2924666285533
 20
-242.46755531508
 30
0.0
 40
0.5179085730134372
100
AcDbArc
 50
218.1204197971511
 51
321.8795802028566
  0
ARC
  5
214
102
{ACAD_REACTORS
330
25A
330
25B
102
}
330
74
100
AcDbEntity
  8
0
  6
Continuous
 62
     2
100
AcDbCircle
 10
-204.4922066648995
 20
-242.3108241369595
 30
0.0
 40
0.77179977867969
100
AcDbArc
 50
321.8795802028388
 51
38.12041979715458
  0
ARC
  5
215
102
{ACAD_REACTORS
330
258
330
259
102
}
330
74
100
AcDbEntity
  8
0
  6
Continuous
 62
     2
100
AcDbCircle
 10
-213.710590551991
 20
-246.7726747596558
 30
0.0
 40
0.4242446153832873
100
AcDbArc
 50
270.0
 51
0.0
  0
ARC
  5
216
102
{ACAD_REACTORS
330
258
330
259
102
}
330
74
100
AcDbEntity
  8
0
  6
Continuous
 62
     2
100
AcDbCircle
 10
-213.710590551991
 20
-241.2081639904556
 30
0.0
 40
0.4242446153837989
100
AcDbArc
 50
0.0
 51
90.0
  0
ARC
  5
217
102
{ACAD_REACTORS
330
258
330
259
102
}
330
74
100
AcDbEntity
  8
0
  6
Continuous
 62
     2
100
AcDbCircle
 10
-219.1839026427078
 20
-241.2081639904556
 30
0.0
 40
0.4242446153837989
100
AcDbArc
 50
90.0
 51
180.0
  0
ARC
  5
218
102
{ACAD_REACTORS
330
258
330
259
102
}
330
74
100
AcDbEntity
  8
0
  6
Continuous
 62
     2
100
AcDbCircle
 10
-217.1141747049517
 20
-246.1686468964055
 30
0.0
 40
0.3157169230767067
100
AcDbArc
 50
270.0
 51
0.0
  0
ARC
  5
219
102
{ACAD_REACTORS
330
258
330
259
102
}
330
74
100
AcDbEntity
  8
0
  6
Continuous
 62
     2
100
AcDbCircle
 10
-217.1141747049517
 20
-242.4162164727489
 30
0.0
 40
0.3157169230761203
100
AcDbArc
 50
295.1944106485397
 51
0.0
  0
ARC
  5
21A
102
{ACAD_REACTORS
330
258
330
259
102
}
330
74
100
AcDbEntity
  8
0
  6
Continuous
 62
     2
100
AcDbCircle
 10
-217.1141747049517
 20
-241.8121918536884
 30
0.0
 40
0.315716923076593
100
AcDbArc
 50
0.0
 51
90.0
  0
ARC
  5
21B
102
{ACAD_REACTORS
330
258
330
259
102
}
330
74
100
AcDbEntity
  8
0
  6
Continuous
 62
     2
100
AcDbCircle
 10
-218.5900079659614
 20
-246.1686468964055
 30
0.0
 40
0.3157169230755983
100
AcDbArc
 50
180.0
 51
270.0
  0
ARC
  5
21C
102
{ACAD_REACTORS
330
25E
330
25F
102
}
330
74
100
AcDbEntity
  8
0
  6
Continuous
 62
     2
100
AcDbCircle
 10
-210.8099568577059
 20
-241.8392850163873
 30
0.0
 40
1.055365641333708
100
AcDbArc
 50
270.0
 51
90.0
  0
ARC
  5
21D
102
{ACAD_REACTORS
330
256
330
257
102
}
330
74
100
AcDbEntity
  8
0
  6
Continuous
 62
     2
100
AcDbCircle
 10
-195.0817435460148
 20
-245.557224251099
 30
0.0
 40
1.639695123940421
100
AcDbArc
 50
195.0618917771015
 51
275.1581447696762
  0
ARC
  5
21E
102
{ACAD_REACTORS
330
256
330
257
102
}
330
74
100
AcDbEntity
  8
0
  6
Continuous
 62
     2
100
AcDbCircle
 10
-195.3705996407506
 20
-242.3573336678774
 30
0.0
 40
4.852596863498825
100
AcDbArc
 50
275.1581447696364
 51
285.9799912583384
  0
ARC
  5
21F
102
{ACAD_REACTORS
330
256
330
257
102
}
330
74
100
AcDbEntity
  8
0
  6
Continuous
 62
     2
100
AcDbCircle
 10
-195.2127267656578
 20
-244.2595482477258
 30
0.0
 40
2.227384008972665
100
AcDbArc
 50
288.4480761181342
 51
301.9309089499409
  0
ARC
  5
220
102
{ACAD_REACTORS
330
256
330
257
102
}
330
74
100
AcDbEntity
  8
0
  6
Continuous
 62
     2
100
AcDbCircle
 10
-194.7945590319959
 20
-245.5130940237623
 30
0.0
 40
0.9059297849852801
100
AcDbArc
 50
246.6277221118183
 51
288.4480761180817
  0
ARC
  5
221
102
{ACAD_REACTORS
330
256
330
257
102
}
330
74
100
AcDbEntity
  8
0
  6
Continuous
 62
     2
100
AcDbCircle
 10
-194.5736418066176
 20
-245.6700146131338
 30
0.0
 40
0.9410597353349037
100
AcDbArc
 50
151.4785267423648
 51
208.5214732576687
  0
ARC
  5
222
102
{ACAD_REACTORS
330
256
330
257
102
}
330
74
100
AcDbEntity
  8
0
  6
Continuous
 62
     2
100
AcDbCircle
 10
-194.8043290665953
 20
-245.8828981641777
 30
0.0
 40
0.9545230068260935
100
AcDbArc
 50
90.0
 51
109.3371432194337
  0
ARC
  5
223
102
{ACAD_REACTORS
330
258
330
259
102
}
330
74
100
AcDbEntity
  8
0
  6
Continuous
 62
     2
100
AcDbCircle
 10
-216.0144592794296
 20
-241.8123693303365
 30
0.0
 40
0.3157169230760711
100
AcDbArc
 50
90.18896704255108
 51
180.0
  0
ARC
  5
224
102
{ACAD_REACTORS
330
258
330
259
102
}
330
74
100
AcDbEntity
  8
0
  6
Continuous
 62
     2
100
AcDbCircle
 10
-216.5405019775175
 20
-243.5270462188111
 30
0.0
 40
0.911848150144459
100
AcDbArc
 50
295.3740086781764
 51
64.62599132180748
  0
ARC
  5
225
102
{ACAD_REACTORS
330
254
330
255
102
}
330
74
100
AcDbEntity
  8
0
  6
Continuous
 62
     2
100
AcDbCircle
 10
-211.3154282449107
 20
-244.2595482477252
 30
0.0
 40
2.227384008972629
100
AcDbArc
 50
288.4480761181314
 51
301.9309089499604
  0
ARC
  5
226
102
{ACAD_REACTORS
330
254
330
255
102
}
330
74
100
AcDbEntity
  8
0
  6
Continuous
 62
     2
100
AcDbCircle
 10
-210.8972605112499
 20
-245.5130940237623
 30
0.0
 40
0.9059297849849192
100
AcDbArc
 50
246.627722111871
 51
288.4480761181533
  0
ARC
  5
227
102
{ACAD_REACTORS
330
254
330
255
102
}
330
74
100
AcDbEntity
  8
0
  6
Continuous
 62
     2
100
AcDbCircle
 10
-211.053700543952
 20
-245.8750860424723
 30
0.0
 40
0.5115800601948034
100
AcDbArc
 50
208.5214732576956
 51
246.6277221118361
  0
ARC
  5
228
102
{ACAD_REACTORS
330
254
330
255
102
}
330
74
100
AcDbEntity
  8
0
  6
Continuous
 62
     2
100
AcDbCircle
 10
-210.8972605112499
 20
-245.8269352025054
 30
0.0
 40
0.9059297849852149
100
AcDbArc
 50
71.5519238818569
 51
113.372277888129
  0
ARC
  5
229
102
{ACAD_REACTORS
330
254
330
255
102
}
330
74
100
AcDbEntity
  8
0
  6
Continuous
 62
     2
100
AcDbCircle
 10
-211.4733011200036
 20
-248.9826955583897
 30
0.0
 40
4.852596863498068
100
AcDbArc
 50
74.02000874164739
 51
84.84185523037608
  0
CIRCLE
  5
22A
102
{ACAD_REACTORS
330
258
330
259
102
}
330
74
100
AcDbEntity
  8
0
  6
Continuous
 62
     2
100
AcDbCircle
 10
-216.5643169921903
 20
-243.5270462188111
 30
0.0
 40
0.4709789327785074
  0
CIRCLE
  5
22B
330
74
100
AcDbEntity
  8
1
  6
Continuous
 62
     2
100
AcDbCircle
 10
-211.1081472580906
 20
-233.3654193750555
 30
0.0
 40
1.249999999999915
  0
CIRCLE
  5
22C
330
74
100
AcDbEntity
  8
1
  6
Continuous
 62
     2
100
AcDbCircle
 10
-211.1081472580906
 20
-233.3654193750555
 30
0.0
 40
2.5
  0
TEXT
  5
22D
330
74
100
AcDbEntity
  8
1
 62
     7
100
AcDbText
 10
-168.4712544226395
 20
-236.1904193750555
 30
0.0
 40
2.5
  1
/
 41
0.9
  7
CONVERTER_11
100
AcDbText
  0
TEXT
  5
22F
330
74
100
AcDbEntity
  8
1
 62
     7
100
AcDbText
 10
-166.3148899255974
 20
-236.1904193750555
 30
0.0
 40
2.5
  1
00
 41
0.81
  7
CONVERTER_12
100
AcDbText
  0
TEXT
  5
230
330
74
100
AcDbEntity
  8
1
 62
     3
100
AcDbText
 10
-128.7184058995804
 20
-236.1904193750555
 30
0.0
 40
2.5
  1
07.07.2015
 41
0.81
  7
CONVERTER_12
100
AcDbText
  0
MTEXT
  5
231
330
74
100
AcDbEntity
  8
1
 62
     2
100
AcDbMText
 10
-128.7184058995804
 20
-229.9904193750555
 30
0.0
 40
1.8
 41
0.0
 71
     1
 72
     1
  1
date
  7
CONVERTER_11
 73
     1
 44
1.32052821128451
  0
MTEXT
  5
232
330
74
100
AcDbEntity
  8
1
 62
     2
100
AcDbMText
 10
-158.5448021446532
 20
-238.4904193750555
 30
0.0
 40
1.8
 41
0.0
 71
     1
 72
     1
  1
document-type
  7
CONVERTER_11
 73
     1
 44
1.20048019207683
  0
TEXT
  5
233
330
74
100
AcDbEntity
  8
1
 62
     3
100
AcDbText
 10
-158.5448021446532
 20
-244.6904193750555
 30
0.0
 40
2.5
  1
Customer drawing select
 41
0.81
  7
CONVERTER_12
100
AcDbText
  0
MTEXT
  5
235
330
74
100
AcDbEntity
  8
1
 62
     2
100
AcDbMText
 10
-186.3448021446532
 20
-229.9904193750554
 30
0.0
 40
1.8
 41
0.0
 71
     1
 72
     1
  1
document-No. / RI
  7
CONVERTER_13
 73
     1
 44
1.32052821128451
  0
TEXT
  5
236
330
74
100
AcDbEntity
  8
1
 62
     7
100
AcDbText
 10
-186.3448021446532
 20
-236.1904193750555
 30
0.0
 40
2.5
  1
00882364
 41
0.81
  7
CONVERTER_12
100
AcDbText
  0
MTEXT
  5
238
330
74
100
AcDbEntity
  8
1
 62
     3
100
AcDbMText
 10
-98.75920175874093
 20
-236.1904193750553
 30
0.0
 40
2.5
 41
0.0
 71
     8
 72
     1
  1
2:1
  7
CONVERTER_14
 73
     1
 44
1.32052821128451
  0
MTEXT
  5
239
330
74
100
AcDbEntity
  8
1
 62
     2
100
AcDbMText
 10
-102.1184058995805
 20
-229.9904193750554
 30
0.0
 40
1.8
 41
0.0
 71
     1
 72
     1
  1
scale
  7
CONVERTER_11
 73
     1
 44
1.20048019207683
  0
MTEXT
  5
23A
330
74
100
AcDbEntity
  8
1
 62
     2
100
AcDbMText
 10
-186.3448021446532
 20
-238.4904193750554
 30
0.0
 40
1.8
 41
0.0
 71
     1
 72
     1
  1
ident.-No.
  7
CONVERTER_11
 73
     1
 44
1.20048019207683
  0
TEXT
  5
23B
330
74
100
AcDbEntity
  8
1
 62
     7
100
AcDbText
 10
-185.9448021446535
 20
-244.6904193750555
 30
0.0
 40
2.5
  1
0820510
 41
0.81
  7
CONVERTER_12
100
AcDbText
  0
MTEXT
  5
23C
330
74
100
AcDbEntity
  8
1
 62
     2
100
AcDbMText
 10
-258.2828168697008
 20
-241.7404193750555
 30
0.0
 40
2.0
 41
0.0
 71
     5
 72
     1
  1
General Information\P- Simplified representation\P- Document excluded from change process\P- Linear dimensions [mm]
  7
CONVERTER_11
 73
     1
 44
1.20048019207683
  0
MTEXT
  5
23D
330
74
100
AcDbEntity
  8
1
 62
     7
100
AcDbMText
 10
-91.79999761790424
 20
-179.4904193750535
 30
0.0
 40
3.5
 41
0.0
 71
     5
 72
     1
  1
C
  7
CONVERTER_11
 73
     1
 44
1.20048019207683
  0
MTEXT
  5
23E
330
74
100
AcDbEntity
  8
1
 62
     7
100
AcDbMText
 10
-91.79999761790424
 20
-76.99041937505544
 30
0.0
 40
3.5
 41
0.0
 71
     5
 72
     1
  1
A
  7
CONVERTER_11
 73
     1
 44
1.20048019207683
  0
MTEXT
  5
23F
330
74
100
AcDbEntity
  8
1
 62
     7
100
AcDbMText
 10
-91.79999761790424
 20
-129.4904193750535
 30
0.0
 40
3.5
 41
0.0
 71
     5
 72
     1
  1
B
  7
CONVERTER_11
 73
     1
 44
1.20048019207683
  0
MTEXT
  5
240
330
74
100
AcDbEntity
  8
1
 62
     7
100
AcDbMText
 10
-91.79999761790424
 20
-231.9904193750554
 30
0.0
 40
3.5
 41
0.0
 71
     5
 72
     1
  1
D
  7
CONVERTER_11
 73
     1
 44
1.20048019207683
  0
MTEXT
  5
241
330
74
100
AcDbEntity
  8
1
 62
     7
100
AcDbMText
 10
-362.0499976179028
 20
-256.9904193750556
 30
0.0
 40
3.5
 41
0.0
 71
     5
 72
     1
  1
1
  7
CONVERTER_11
 73
     1
 44
1.20048019207683
  0
MTEXT
  5
242
330
74
100
AcDbEntity
  8
1
 62
     7
100
AcDbMText
 10
-312.7999976179032
 20
-256.9904193750556
 30
0.0
 40
3.5
 41
0.0
 71
     5
 72
     1
  1
2
  7
CONVERTER_11
 73
     1
 44
1.20048019207683
  0
MTEXT
  5
243
330
74
100
AcDbEntity
  8
1
 62
     7
100
AcDbMText
 10
-262.7999976179032
 20
-256.9904193750556
 30
0.0
 40
3.5
 41
0.0
 71
     5
 72
     1
  1
3
  7
CONVERTER_11
 73
     1
 44
1.20048019207683
  0
MTEXT
  5
244
330
74
100
AcDbEntity
  8
1
 62
     7
100
AcDbMText
 10
-212.7999976179033
 20
-256.9904193750556
 30
0.0
 40
3.5
 41
0.0
 71
     5
 72
     1
  1
4
  7
CONVERTER_11
 73
     1
 44
1.20048019207683
  0
MTEXT
  5
245
330
74
100
AcDbEntity
  8
1
 62
     7
100
AcDbMText
 10
-162.7999976179032
 20
-256.9904193750556
 30
0.0
 40
3.5
 41
0.0
 71
     5
 72
     1
  1
5
  7
CONVERTER_11
 73
     1
 44
1.20048019207683
  0
MTEXT
  5
246
330
74
100
AcDbEntity
  8
1
 62
     7
100
AcDbMText
 10
-113.549997617904
 20
-256.9904193750556
 30
0.0
 40
3.5
 41
0.0
 71
     5
 72
     1
  1
6
  7
CONVERTER_11
 73
     1
 44
1.20048019207683
  0
MTEXT
  5
247
330
74
100
AcDbEntity
  8
1
 62
     7
100
AcDbMText
 10
-383.7999976179023
 20
-76.99041937505544
 30
0.0
 40
3.5
 41
0.0
 71
     5
 72
     1
  1
A
  7
CONVERTER_11
 73
     1
 44
1.20048019207683
  0
MTEXT
  5
248
330
74
100
AcDbEntity
  8
1
 62
     7
100
AcDbMText
 10
-383.7999976179023
 20
-129.4904193750554
 30
0.0
 40
3.5
 41
0.0
 71
     5
 72
     1
  1
B
  7
CONVERTER_11
 73
     1
 44
1.20048019207683
  0
MTEXT
  5
249
330
74
100
AcDbEntity
  8
1
 62
     7
100
AcDbMText
 10
-383.7999976179023
 20
-179.4904193750554
 30
0.0
 40
3.5
 41
0.0
 71
     5
 72
     1
  1
C
  7
CONVERTER_11
 73
     1
 44
1.20048019207683
  0
MTEXT
  5
24A
330
74
100
AcDbEntity
  8
1
 62
     7
100
AcDbMText
 10
-383.7999976179023
 20
-231.9904193750554
 30
0.0
 40
3.5
 41
0.0
 71
     5
 72
     1
  1
D
  7
CONVERTER_11
 73
     1
 44
1.20048019207683
  0
MTEXT
  5
24B
330
74
100
AcDbEntity
  8
1
 62
     3
100
AcDbMText
 10
-197.6448021446533
 20
-233.3654193750554
 30
0.0
 40
2.5
 41
0.0
 71
     5
 72
     1
  1
DIN A4
  7
CONVERTER_11
 73
     1
 44
1.20048019207683
  0
MTEXT
  5
24C
330
74
100
AcDbEntity
  8
1
 62
     2
100
AcDbMText
 10
-186.4448021446533
 20
-246.9904193750554
 30
0.0
 40
1.8
 41
0.0
 71
     1
 72
     1
  1
description
  7
CONVERTER_11
 73
     1
 44
1.20048019207683
  0
MTEXT
  5
24D
330
74
100
AcDbEntity
  8
1
 62
     7
100
AcDbMText
 10
-140.8723998812777
 20
-251.2404193750552
 30
0.0
 40
3.0
 41
0.0
 71
     5
 72
     1
  1
PATG 1/18
  7
CONVERTER_12
 73
     1
 44
1.20048019207683
  0
TEXT
  5
24E
330
74
100
AcDbEntity
  8
1
 62
     2
100
AcDbText
 10
-199.4094933348397
 20
-253.2404193750556
 30
0.0
 40
1.8
  1
1
 41
0.9
  7
CONVERTER_11
100
AcDbText
  0
TEXT
  5
24F
330
74
100
AcDbEntity
  8
1
 62
     2
100
AcDbText
 10
-214.1985371743112
 20
-253.2896680288575
 30
0.0
 40
1.8
  1
1
 41
0.9
  7
CONVERTER_11
100
AcDbText
  0
TEXT
  5
250
330
74
100
AcDbEntity
  8
1
 62
     2
100
AcDbText
 10
-222.8448021446532
 20
-253.2494365900471
 30
0.0
 40
1.8
  1
page
 41
0.9
  7
CONVERTER_11
100
AcDbText
  0
TEXT
  5
251
330
74
100
AcDbEntity
  8
1
 62
     2
100
AcDbText
 10
-204.6448021446534
 20
-253.2494365900471
 30
0.0
 40
1.8
  1
of
 41
0.9
  7
CONVERTER_11
100
AcDbText
  0
MTEXT
  5
252
330
74
100
AcDbEntity
  8
1
 62
     3
100
AcDbMText
 10
-198.4418199930433
 20
-67.69911121975665
 30
0.0
 40
1.8
 41
0.0
 71
     7
 72
     1
  3
Transfer or duplication of this document as well as the utilisation or\Pcommunication of its content are not permitted unless express consen\Pis granted. Violations give rise to claims for damages. All rights reserved\Pin case of patent, utility mod
  1
el or design patent registrations.
  7
CONVERTER_11
 73
     1
 44
0.99639855942377
  0
MTEXT
  5
253
330
74
100
AcDbEntity
  8
1
 62
     3
100
AcDbMText
 10
-381.2949298318314
 20
-67.69911121975665
 30
0.0
 40
1.8
 41
0.0
 71
     7
 72
     1
  3
Weitergabe sowie Vervielf\U+00e4ltigung dieses Dokuments, Verwertung und \PMitteilung seines Inhalts sind verboten, soweit nicht ausdr\U+00fccklich gestattet. \PZuwiderhandlungen verpflichten zu Schadenersatz. Alle Rechte f\U+00fcr den Fall\Pder Pat
  1
ent-, Gebrauchsmuster- oder Designeintragung vorbehalten.
  7
CONVERTER_11
 73
     1
 44
0.99639855942377
  0
HATCH
  5
254
330
74
100
AcDbEntity
  8
1
  6
Continuous
 62
     2
100
AcDbHatch
 10
0.0
 20
0.0
 30
0.0
210
0.0
220
0.0
230
1.0
  2
_USER
 70
     0
 71
     1
 91
        1
 92
        1
 93
       14
 72
     2
 10
-211.6035728687305
 20
-245.6700146131338
 40
1.205656168390937
 50
164.9381082228778
 51
195.0618917770962
 73
     1
 72
     2
 10
-211.1844450252677
 20
-245.557224251099
 40
1.639695123939387
 50
195.0618917770896
 51
275.1581447696365
 73
     1
 72
     2
 10
-211.4733011200036
 20
-242.3573336678774
 40
4.852596863498131
 50
275.158144769624
 51
285.9799912583526
 73
     1
 72
     1
 10
-210.1373732028858
 20
-247.0224159736783
 11
-210.1373732028858
 21
-246.149898966875
 72
     2
 10
-211.3154282449107
 20
-244.2595482477252
 40
2.227384008972629
 50
58.06909105003953
 51
71.5519238818686
 73
     0
 72
     2
 10
-210.8972605112499
 20
-245.5130940237623
 40
0.9059297849849192
 50
71.55192388184666
 51
113.372277888129
 73
     0
 72
     2
 10
-211.053700543952
 20
-245.8750860424723
 40
0.5115800601948034
 50
113.3722778881639
 51
151.4785267423044
 73
     0
 72
     2
 10
-210.6763432858716
 20
-245.6700146131338
 40
0.9410597353333294
 50
151.4785267422952
 51
208.5214732577306
 73
     0
 72
     2
 10
-211.053700543952
 20
-245.4649431837948
 40
0.5115800601948179
 50
208.5214732576956
 51
246.6277221118083
 73
     0
 72
     2
 10
-210.8972605112499
 20
-245.8269352025054
 40
0.9059297849852149
 50
246.627722111871
 51
288.4480761181431
 73
     0
 72
     2
 10
-211.3154282449107
 20
-247.080480978542
 40
2.227384008973478
 50
288.4480761181314
 51
301.9309089499593
 73
     0
 72
     1
 10
-210.1373732028858
 20
-245.1901302593921
 11
-210.1373732028858
 21
-244.3176132525888
 72
     2
 10
-211.4733011200036
 20
-248.9826955583897
 40
4.852596863498068
 50
74.02000874164739
 51
84.84185523037608
 73
     1
 72
     2
 10
-211.1844450252677
 20
-245.7828049751687
 40
1.639695123940499
 50
84.84185523036533
 51
164.9381082228874
 73
     1
 97
       14
330
229
330
142
330
1F8
330
228
330
1F9
330
1FA
330
227
330
226
330
225
330
143
330
1FB
330
1FC
330
1FD
330
1FE
 75
     1
 76
     0
 52
45.0
 41
0.1
 77
     0
 78
     1
 53
45.0
 43
0.0
 44
0.0
 45
-0.0707106781186548
 46
0.0707106781186548
 79
     0
 98
        1
 10
0.0
 20
0.0
  0
HATCH
  5
255
330
74
100
AcDbEntity
  8
1
  6
Continuous
 62
     2
100
AcDbHatch
 10
0.0
 20
0.0
 30
0.0
210
0.0
220
0.0
230
1.0
  2
_USER
 70
     0
 71
     1
 91
        1
 92
        1
 93
       14
 72
     2
 10
-211.6035728687305
 20
-245.6700146131338
 40
1.205656168390937
 50
164.9381082228778
 51
195.0618917770962
 73
     1
 72
     2
 10
-211.1844450252677
 20
-245.557224251099
 40
1.639695123939387
 50
195.0618917770896
 51
275.1581447696365
 73
     1
 72
     2
 10
-211.4733011200036
 20
-242.3573336678774
 40
4.852596863498131
 50
275.158144769624
 51
285.9799912583526
 73
     1
 72
     1
 10
-210.1373732028858
 20
-247.0224159736783
 11
-210.1373732028858
 21
-246.149898966875
 72
     2
 10
-211.3154282449107
 20
-244.2595482477252
 40
2.227384008972629
 50
58.06909105003953
 51
71.5519238818686
 73
     0
 72
     2
 10
-210.8972605112499
 20
-245.5130940237623
 40
0.9059297849849192
 50
71.55192388184666
 51
113.372277888129
 73
     0
 72
     2
 10
-211.053700543952
 20
-245.8750860424723
 40
0.5115800601948034
 50
113.3722778881639
 51
151.4785267423044
 73
     0
 72
     2
 10
-210.6763432858716
 20
-245.6700146131338
 40
0.9410597353333294
 50
151.4785267422952
 51
208.5214732577306
 73
     0
 72
     2
 10
-211.053700543952
 20
-245.4649431837948
 40
0.5115800601948179
 50
208.5214732576956
 51
246.6277221118083
 73
     0
 72
     2
 10
-210.8972605112499
 20
-245.8269352025054
 40
0.9059297849852149
 50
246.627722111871
 51
288.4480761181431
 73
     0
 72
     2
 10
-211.3154282449107
 20
-247.080480978542
 40
2.227384008973478
 50
288.4480761181314
 51
301.9309089499593
 73
     0
 72
     1
 10
-210.1373732028858
 20
-245.1901302593921
 11
-210.1373732028858
 21
-244.3176132525888
 72
     2
 10
-211.4733011200036
 20
-248.9826955583897
 40
4.852596863498068
 50
74.02000874164739
 51
84.84185523037608
 73
     1
 72
     2
 10
-211.1844450252677
 20
-245.7828049751687
 40
1.639695123940499
 50
84.84185523036533
 51
164.9381082228874
 73
     1
 97
       14
330
229
330
142
330
1F8
330
228
330
1F9
330
1FA
330
227
330
226
330
225
330
143
330
1FB
330
1FC
330
1FD
330
1FE
 75
     1
 76
     0
 52
45.0
 41
0.1
 77
     0
 78
     1
 53
45.0
 43
0.0
 44
0.0
 45
-0.0707106781186548
 46
0.0707106781186548
 79
     0
 98
        1
 10
0.0
 20
0.0
  0
HATCH
  5
256
330
74
100
AcDbEntity
  8
1
  6
Continuous
 62
     2
100
AcDbHatch
 10
0.0
 20
0.0
 30
0.0
210
0.0
220
0.0
230
1.0
  2
_USER
 70
     0
 71
     1
 91
        1
 92
        1
 93
       18
 72
     2
 10
-195.0817435460148
 20
-245.7828049751687
 40
1.639695123940186
 50
90.0
 51
164.9381082228957
 73
     1
 72
     2
 10
-195.5008713894764
 20
-245.6700146131338
 40
1.205656168392968
 50
164.9381082229037
 51
195.0618917770975
 73
     1
 72
     2
 10
-195.0817435460148
 20
-245.557224251099
 40
1.639695123940421
 50
195.0618917771015
 51
275.1581447696762
 73
     1
 72
     2
 10
-195.3705996407506
 20
-242.3573336678774
 40
4.852596863498825
 50
275.1581447696364
 51
285.9799912583384
 73
     1
 72
     1
 10
-194.0346717236339
 20
-247.0224159736789
 11
-194.0346717236339
 21
-246.1498989668755
 72
     2
 10
-195.2127267656578
 20
-244.2595482477258
 40
2.227384008972665
 50
58.06909105005913
 51
71.5519238818658
 73
     0
 72
     2
 10
-194.7945590319959
 20
-245.5130940237623
 40
0.9059297849852801
 50
71.55192388191827
 51
113.3722778881817
 73
     0
 72
     2
 10
-194.950999064699
 20
-245.8750860424723
 40
0.511580060196008
 50
113.3722778881551
 51
151.4785267423162
 73
     0
 72
     2
 10
-194.5736418066176
 20
-245.6700146131338
 40
0.9410597353349037
 50
151.4785267423313
 51
208.5214732576352
 73
     0
 72
     2
 10
-194.950999064699
 20
-245.4649431837948
 40
0.511580060194307
 50
208.5214732575747
 51
250.6628567805105
 73
     0
 72
     2
 10
-194.8043290665953
 20
-245.8828981641777
 40
0.9545230068260935
 50
250.6628567805663
 51
270.0
 73
     0
 72
     1
 10
-194.8043290665953
 20
-244.9283751573516
 11
-193.7006897670272
 21
-244.9283751573516
 72
     1
 10
-193.7006897670272
 20
-244.9283751573516
 11
-193.7006897670272
 21
-247.1969193750391
 72
     1
 10
-193.7006897670272
 20
-247.1969193750391
 11
-192.5078970648595
 21
-247.1969193750391
 72
     1
 10
-192.5078970648595
 20
-247.1969193750391
 11
-192.5078970648595
 21
-244.9283751573516
 72
     1
 10
-192.5078970648595
 20
-244.9283751573516
 11
-191.6967980273861
 21
-244.9283751573516
 72
     1
 10
-191.6967980273861
 20
-244.9283751573516
 11
-191.6967980273861
 21
-244.1431098512281
 72
     1
 10
-191.6967980273861
 20
-244.1431098512281
 11
-195.0817435460148
 21
-244.1431098512285
 97
       18
330
1A8
330
1A7
330
1A6
330
1A5
330
1AA
330
144
330
222
330
203
330
221
330
204
330
220
330
21F
330
145
330
21E
330
21D
330
205
330
206
330
1A9
 75
     1
 76
     0
 52
45.0
 41
0.1
 77
     0
 78
     1
 53
45.0
 43
0.0
 44
0.0
 45
-0.0707106781186548
 46
0.0707106781186548
 79
     0
 98
        1
 10
0.0
 20
0.0
  0
HATCH
  5
257
330
74
100
AcDbEntity
  8
1
  6
Continuous
 62
     2
100
AcDbHatch
 10
0.0
 20
0.0
 30
0.0
210
0.0
220
0.0
230
1.0
  2
_USER
 70
     0
 71
     1
 91
        1
 92
        1
 93
       18
 72
     2
 10
-195.0817435460148
 20
-245.7828049751687
 40
1.639695123940186
 50
90.0
 51
164.9381082228957
 73
     1
 72
     2
 10
-195.5008713894764
 20
-245.6700146131338
 40
1.205656168392968
 50
164.9381082229037
 51
195.0618917770975
 73
     1
 72
     2
 10
-195.0817435460148
 20
-245.557224251099
 40
1.639695123940421
 50
195.0618917771015
 51
275.1581447696762
 73
     1
 72
     2
 10
-195.3705996407506
 20
-242.3573336678774
 40
4.852596863498825
 50
275.1581447696364
 51
285.9799912583384
 73
     1
 72
     1
 10
-194.0346717236339
 20
-247.0224159736789
 11
-194.0346717236339
 21
-246.1498989668755
 72
     2
 10
-195.2127267656578
 20
-244.2595482477258
 40
2.227384008972665
 50
58.06909105005913
 51
71.5519238818658
 73
     0
 72
     2
 10
-194.7945590319959
 20
-245.5130940237623
 40
0.9059297849852801
 50
71.55192388191827
 51
113.3722778881817
 73
     0
 72
     2
 10
-194.950999064699
 20
-245.8750860424723
 40
0.511580060196008
 50
113.3722778881551
 51
151.4785267423162
 73
     0
 72
     2
 10
-194.5736418066176
 20
-245.6700146131338
 40
0.9410597353349037
 50
151.4785267423313
 51
208.5214732576352
 73
     0
 72
     2
 10
-194.950999064699
 20
-245.4649431837948
 40
0.511580060194307
 50
208.5214732575747
 51
250.6628567805105
 73
     0
 72
     2
 10
-194.8043290665953
 20
-245.8828981641777
 40
0.9545230068260935
 50
250.6628567805663
 51
270.0
 73
     0
 72
     1
 10
-194.8043290665953
 20
-244.9283751573516
 11
-193.7006897670272
 21
-244.9283751573516
 72
     1
 10
-193.7006897670272
 20
-244.9283751573516
 11
-193.7006897670272
 21
-247.1969193750391
 72
     1
 10
-193.7006897670272
 20
-247.1969193750391
 11
-192.5078970648595
 21
-247.1969193750391
 72
     1
 10
-192.5078970648595
 20
-247.1969193750391
 11
-192.5078970648595
 21
-244.9283751573516
 72
     1
 10
-192.5078970648595
 20
-244.9283751573516
 11
-191.6967980273861
 21
-244.9283751573516
 72
     1
 10
-191.6967980273861
 20
-244.9283751573516
 11
-191.6967980273861
 21
-244.1431098512281
 72
     1
 10
-191.6967980273861
 20
-244.1431098512281
 11
-195.0817435460148
 21
-244.1431098512285
 97
       18
330
1A8
330
1A7
330
1A6
330
1A5
330
1AA
330
144
330
222
330
203
330
221
330
204
330
220
330
21F
330
145
330
21E
330
21D
330
205
330
206
330
1A9
 75
     1
 76
     0
 52
45.0
 41
0.1
 77
     0
 78
     1
 53
45.0
 43
0.0
 44
0.0
 45
-0.0707106781186548
 46
0.0707106781186548
 79
     0
 98
        1
 10
0.0
 20
0.0
  0
HATCH
  5
258
330
74
100
AcDbEntity
  8
1
  6
Continuous
 62
     2
100
AcDbHatch
 10
0.0
 20
0.0
 30
0.0
210
0.0
220
0.0
230
1.0
  2
_USER
 70
     0
 71
     1
 91
        4
 92
        1
 93
        8
 72
     2
 10
-219.1839026427078
 20
-241.2081639904556
 40
0.4242446153837989
 50
90.0
 51
180.0
 73
     1
 72
     1
 10
-219.6081472580906
 20
-241.2081639904556
 11
-219.6081472580906
 21
-246.7726747596558
 72
     2
 10
-219.1839026427078
 20
-246.7726747596558
 40
0.4242446153828041
 50
180.0
 51
270.0
 73
     1
 72
     1
 10
-219.1839026427078
 20
-247.1969193750391
 11
-213.710590551991
 21
-247.1969193750391
 72
     2
 10
-213.710590551991
 20
-246.7726747596558
 40
0.4242446153832873
 50
270.0
 51
360.0
 73
     1
 72
     1
 10
-213.2863459366072
 20
-246.7726747596558
 11
-213.2863459366072
 21
-241.2081639904556
 72
     2
 10
-213.710590551991
 20
-241.2081639904556
 40
0.4242446153837989
 50
0.0
 51
90.0
 73
     1
 72
     1
 10
-213.710590551991
 20
-240.7839193750718
 11
-219.1839026427078
 21
-240.7839193750718
 97
        8
330
216
330
173
330
215
330
174
330
20C
330
171
330
217
330
172
 92
       16
 93
        1
 72
     2
 10
-216.5643169921903
 20
-243.5270462188111
 40
0.4709789327785074
 50
0.0
 51
360.0
 73
     1
 97
        1
330
22A
 92
       16
 93
        8
 72
     2
 10
-216.5405019775175
 20
-243.5270462188111
 40
0.911848150144459
 50
295.3740086781764
 51
424.6259913218075
 73
     1
 72
     2
 10
-216.0144592794296
 20
-242.4179046188433
 40
0.3157169230768204
 50
115.3740086783565
 51
180.0
 73
     0
 72
     1
 10
-216.3301762025064
 20
-242.4179046188433
 11
-216.3301762025064
 21
-241.8123693303365
 72
     2
 10
-216.0144592794296
 20
-241.8123693303365
 40
0.3157169230760711
 50
180.0
 51
269.8110329574489
 73
     0
 72
     2
 10
-216.0088431441196
 20
-243.5152042779056
 40
2.018561131933351
 50
269.8110329575858
 51
450.1889670424142
 73
     0
 72
     2
 10
-216.0144592794296
 20
-245.2180392254746
 40
0.3157169230768204
 50
90.18896704255098
 51
180.0
 73
     0
 72
     1
 10
-216.3301762025064
 20
-245.2180392254746
 11
-216.3301762025064
 21
-244.6361878187796
 72
     2
 10
-216.0144592794296
 20
-244.6361878187796
 40
0.315716923076622
 50
180.0
 51
244.6259913216501
 73
     0
 97
        8
330
224
330
200
330
1AC
330
223
330
201
330
202
330
1AB
330
1FF
 92
       16
 93
       12
 72
     1
 10
-218.5900079659614
 20
-246.4843638194822
 11
-217.1141747049517
 21
-246.4843638194822
 72
     2
 10
-217.1141747049517
 20
-246.1686468964055
 40
0.3157169230767067
 50
270.0
 51
360.0
 73
     1
 72
     1
 10
-216.7984577818751
 20
-246.1686468964055
 11
-216.7984577818751
 21
-244.6378759648739
 72
     2
 10
-217.1141747049517
 20
-244.6378759648739
 40
0.315716923076593
 50
0.0
 51
64.80558935145369
 73
     1
 72
     2
 10
-216.5915902573767
 20
-243.5270462188111
 40
0.9118975235576147
 50
115.19441064851
 51
244.8055893514718
 73
     0
 72
     2
 10
-217.1141747049517
 20
-242.4162164727489
 40
0.3157169230761203
 50
295.1944106485397
 51
360.0
 73
     1
 72
     1
 10
-216.7984577818751
 20
-242.4162164727489
 11
-216.7984577818751
 21
-241.8121918536884
 72
     2
 10
-217.1141747049517
 20
-241.8121918536884
 40
0.315716923076593
 50
0.0
 51
90.0
 73
     1
 72
     1
 10
-217.1141747049517
 20
-241.4964749306122
 11
-218.5900079659614
 21
-241.4964749306122
 72
     2
 10
-218.5900079659614
 20
-241.8121918536884
 40
0.3157169230761951
 50
90.0
 51
180.0
 73
     1
 72
     1
 10
-218.905724889037
 20
-241.8121918536884
 11
-218.905724889037
 21
-246.1686468964055
 72
     2
 10
-218.5900079659614
 20
-246.1686468964055
 40
0.3157169230755983
 50
180.0
 51
270.0
 73
     1
 97
       12
330
178
330
209
330
177
330
21A
330
176
330
219
330
20A
330
20B
330
175
330
218
330
170
330
21B
 75
     1
 76
     0
 52
45.0
 41
0.1
 77
     0
 78
     1
 53
45.0
 43
0.0
 44
0.0
 45
-0.0707106781186548
 46
0.0707106781186548
 79
     0
 98
        1
 10
0.0
 20
0.0
  0
HATCH
  5
259
330
74
100
AcDbEntity
  8
1
  6
Continuous
 62
     2
100
AcDbHatch
 10
0.0
 20
0.0
 30
0.0
210
0.0
220
0.0
230
1.0
  2
_USER
 70
     0
 71
     1
 91
        4
 92
        1
 93
        8
 72
     2
 10
-219.1839026427078
 20
-241.2081639904556
 40
0.4242446153837989
 50
90.0
 51
180.0
 73
     1
 72
     1
 10
-219.6081472580906
 20
-241.2081639904556
 11
-219.6081472580906
 21
-246.7726747596558
 72
     2
 10
-219.1839026427078
 20
-246.7726747596558
 40
0.4242446153828041
 50
180.0
 51
270.0
 73
     1
 72
     1
 10
-219.1839026427078
 20
-247.1969193750391
 11
-213.710590551991
 21
-247.1969193750391
 72
     2
 10
-213.710590551991
 20
-246.7726747596558
 40
0.4242446153832873
 50
270.0
 51
360.0
 73
     1
 72
     1
 10
-213.2863459366072
 20
-246.7726747596558
 11
-213.2863459366072
 21
-241.2081639904556
 72
     2
 10
-213.710590551991
 20
-241.2081639904556
 40
0.4242446153837989
 50
0.0
 51
90.0
 73
     1
 72
     1
 10
-213.710590551991
 20
-240.7839193750718
 11
-219.1839026427078
 21
-240.7839193750718
 97
        8
330
216
330
173
330
215
330
174
330
20C
330
171
330
217
330
172
 92
       16
 93
        1
 72
     2
 10
-216.5643169921903
 20
-243.5270462188111
 40
0.4709789327785074
 50
0.0
 51
360.0
 73
     1
 97
        1
330
22A
 92
       16
 93
        8
 72
     2
 10
-216.5405019775175
 20
-243.5270462188111
 40
0.911848150144459
 50
295.3740086781764
 51
424.6259913218075
 73
     1
 72
     2
 10
-216.0144592794296
 20
-242.4179046188433
 40
0.3157169230768204
 50
115.3740086783565
 51
180.0
 73
     0
 72
     1
 10
-216.3301762025064
 20
-242.4179046188433
 11
-216.3301762025064
 21
-241.8123693303365
 72
     2
 10
-216.0144592794296
 20
-241.8123693303365
 40
0.3157169230760711
 50
180.0
 51
269.8110329574489
 73
     0
 72
     2
 10
-216.0088431441196
 20
-243.5152042779056
 40
2.018561131933351
 50
269.8110329575858
 51
450.1889670424142
 73
     0
 72
     2
 10
-216.0144592794296
 20
-245.2180392254746
 40
0.3157169230768204
 50
90.18896704255098
 51
180.0
 73
     0
 72
     1
 10
-216.3301762025064
 20
-245.2180392254746
 11
-216.3301762025064
 21
-244.6361878187796
 72
     2
 10
-216.0144592794296
 20
-244.6361878187796
 40
0.315716923076622
 50
180.0
 51
244.6259913216501
 73
     0
 97
        8
330
224
330
200
330
1AC
330
223
330
201
330
202
330
1AB
330
1FF
 92
       16
 93
       12
 72
     1
 10
-218.5900079659614
 20
-246.4843638194822
 11
-217.1141747049517
 21
-246.4843638194822
 72
     2
 10
-217.1141747049517
 20
-246.1686468964055
 40
0.3157169230767067
 50
270.0
 51
360.0
 73
     1
 72
     1
 10
-216.7984577818751
 20
-246.1686468964055
 11
-216.7984577818751
 21
-244.6378759648739
 72
     2
 10
-217.1141747049517
 20
-244.6378759648739
 40
0.315716923076593
 50
0.0
 51
64.80558935145369
 73
     1
 72
     2
 10
-216.5915902573767
 20
-243.5270462188111
 40
0.9118975235576147
 50
115.19441064851
 51
244.8055893514718
 73
     0
 72
     2
 10
-217.1141747049517
 20
-242.4162164727489
 40
0.3157169230761203
 50
295.1944106485397
 51
360.0
 73
     1
 72
     1
 10
-216.7984577818751
 20
-242.4162164727489
 11
-216.7984577818751
 21
-241.8121918536884
 72
     2
 10
-217.1141747049517
 20
-241.8121918536884
 40
0.315716923076593
 50
0.0
 51
90.0
 73
     1
 72
     1
 10
-217.1141747049517
 20
-241.4964749306122
 11
-218.5900079659614
 21
-241.4964749306122
 72
     2
 10
-218.5900079659614
 20
-241.8121918536884
 40
0.3157169230761951
 50
90.0
 51
180.0
 73
     1
 72
     1
 10
-218.905724889037
 20
-241.8121918536884
 11
-218.905724889037
 21
-246.1686468964055
 72
     2
 10
-218.5900079659614
 20
-246.1686468964055
 40
0.3157169230755983
 50
180.0
 51
270.0
 73
     1
 97
       12
330
178
330
209
330
177
330
21A
330
176
330
219
330
20A
330
20B
330
175
330
218
330
170
330
21B
 75
     1
 76
     0
 52
45.0
 41
0.1
 77
     0
 78
     1
 53
45.0
 43
0.0
 44
0.0
 45
-0.0707106781186548
 46
0.0707106781186548
 79
     0
 98
        1
 10
0.0
 20
0.0
  0
HATCH
  5
25A
330
74
100
AcDbEntity
  8
1
  6
Continuous
 62
     2
100
AcDbHatch
 10
0.0
 20
0.0
 30
0.0
210
0.0
220
0.0
230
1.0
  2
_USER
 70
     0
 71
     1
 91
        2
 92
        1
 93
       12
 72
     2
 10
-204.5087386387185
 20
-242.3108241369595
 40
1.526904761905882
 50
90.0
 51
270.0
 73
     1
 72
     1
 10
-204.5087386387185
 20
-243.8377288988648
 11
-201.3584189149375
 21
-243.8377288988648
 72
     1
 10
-201.3584189149375
 20
-243.8377288988648
 11
-201.3584189149375
 21
-243.1397152934223
 72
     1
 10
-201.3584189149375
 20
-243.1397152934223
 11
-202.6943467413652
 21
-243.1397152934223
 72
     1
 10
-202.6943467413652
 20
-243.1397152934223
 11
-202.6943467413652
 21
-242.6598309396806
 72
     1
 10
-202.6943467413652
 20
-242.6598309396806
 11
-201.3584189149375
 21
-242.6598309396806
 72
     1
 10
-201.3584189149375
 20
-242.6598309396806
 11
-201.3584189149375
 21
-241.9618173342383
 72
     1
 10
-201.3584189149375
 20
-241.9618173342383
 11
-202.6943467413652
 21
-241.9618173342383
 72
     1
 10
-202.6943467413652
 20
-241.9618173342383
 11
-202.6943467413652
 21
-241.4819329804966
 72
     1
 10
-202.6943467413652
 20
-241.4819329804966
 11
-201.3584189149375
 21
-241.4819329804966
 72
     1
 10
-201.3584189149375
 20
-241.4819329804966
 11
-201.3584189149375
 21
-240.7839193750536
 72
     1
 10
-201.3584189149375
 20
-240.7839193750536
 11
-204.5087386387185
 21
-240.7839193750536
 97
       12
330
167
330
161
330
188
330
187
330
186
330
185
330
162
330
163
330
164
330
165
330
207
330
166
 92
       16
 93
        4
 72
     2
 10
-204.092726592207
 20
-242.3108241369595
 40
0.7717997786796421
 50
141.8795802028467
 51
218.1204197971599
 73
     1
 72
     2
 10
-204.2924666285533
 20
-242.46755531508
 40
0.5179085730134372
 50
218.1204197971511
 51
321.8795802028566
 73
     1
 72
     2
 10
-204.4922066648995
 20
-242.3108241369595
 40
0.77179977867969
 50
321.8795802028388
 51
398.1204197971546
 73
     1
 72
     2
 10
-204.2924666285533
 20
-242.154092958839
 40
0.5179085730134564
 50
38.12041979713344
 51
141.8795802028588
 73
     1
 97
        4
330
214
330
213
330
20E
330
20D
 75
     1
 76
     0
 52
45.0
 41
0.1
 77
     0
 78
     1
 53
45.0
 43
0.0
 44
0.0
 45
-0.0707106781186548
 46
0.0707106781186548
 79
     0
 98
        1
 10
0.0
 20
0.0
  0
HATCH
  5
25B
330
74
100
AcDbEntity
  8
1
  6
Continuous
 62
     2
100
AcDbHatch
 10
0.0
 20
0.0
 30
0.0
210
0.0
220
0.0
230
1.0
  2
_USER
 70
     0
 71
     1
 91
        2
 92
        1
 93
       12
 72
     2
 10
-204.5087386387185
 20
-242.3108241369595
 40
1.526904761905882
 50
90.0
 51
270.0
 73
     1
 72
     1
 10
-204.5087386387185
 20
-243.8377288988648
 11
-201.3584189149375
 21
-243.8377288988648
 72
     1
 10
-201.3584189149375
 20
-243.8377288988648
 11
-201.3584189149375
 21
-243.1397152934223
 72
     1
 10
-201.3584189149375
 20
-243.1397152934223
 11
-202.6943467413652
 21
-243.1397152934223
 72
     1
 10
-202.6943467413652
 20
-243.1397152934223
 11
-202.6943467413652
 21
-242.6598309396806
 72
     1
 10
-202.6943467413652
 20
-242.6598309396806
 11
-201.3584189149375
 21
-242.6598309396806
 72
     1
 10
-201.3584189149375
 20
-242.6598309396806
 11
-201.3584189149375
 21
-241.9618173342383
 72
     1
 10
-201.3584189149375
 20
-241.9618173342383
 11
-202.6943467413652
 21
-241.9618173342383
 72
     1
 10
-202.6943467413652
 20
-241.9618173342383
 11
-202.6943467413652
 21
-241.4819329804966
 72
     1
 10
-202.6943467413652
 20
-241.4819329804966
 11
-201.3584189149375
 21
-241.4819329804966
 72
     1
 10
-201.3584189149375
 20
-241.4819329804966
 11
-201.3584189149375
 21
-240.7839193750536
 72
     1
 10
-201.3584189149375
 20
-240.7839193750536
 11
-204.5087386387185
 21
-240.7839193750536
 97
       12
330
167
330
161
330
188
330
187
330
186
330
185
330
162
330
163
330
164
330
165
330
207
330
166
 92
       16
 93
        4
 72
     2
 10
-204.092726592207
 20
-242.3108241369595
 40
0.7717997786796421
 50
141.8795802028467
 51
218.1204197971599
 73
     1
 72
     2
 10
-204.2924666285533
 20
-242.46755531508
 40
0.5179085730134372
 50
218.1204197971511
 51
321.8795802028566
 73
     1
 72
     2
 10
-204.4922066648995
 20
-242.3108241369595
 40
0.77179977867969
 50
321.8795802028388
 51
398.1204197971546
 73
     1
 72
     2
 10
-204.2924666285533
 20
-242.154092958839
 40
0.5179085730134564
 50
38.12041979713344
 51
141.8795802028588
 73
     1
 97
        4
330
214
330
213
330
20E
330
20D
 75
     1
 76
     0
 52
45.0
 41
0.1
 77
     0
 78
     1
 53
45.0
 43
0.0
 44
0.0
 45
-0.0707106781186548
 46
0.0707106781186548
 79
     0
 98
        1
 10
0.0
 20
0.0
  0
HATCH
  5
25C
330
74
100
AcDbEntity
  8
1
  6
Continuous
 62
     2
100
AcDbHatch
 10
0.0
 20
0.0
 30
0.0
210
0.0
220
0.0
230
1.0
  2
_USER
 70
     0
 71
     1
 91
        2
 92
        1
 93
        4
 72
     2
 10
-208.5343540011801
 20
-245.6700146131338
 40
1.458034083651389
 50
117.5481481756645
 51
242.4518518243375
 73
     1
 72
     2
 10
-208.2534141093468
 20
-245.1314396028305
 40
2.065479772208483
 50
242.4518518243399
 51
297.5481481756875
 73
     1
 72
     2
 10
-207.9724742175135
 20
-245.6700146131338
 40
1.458034083652003
 50
297.548148175701
 51
422.4518518242969
 73
     1
 72
     2
 10
-208.2534141093468
 20
-246.2085896234366
 40
2.065479772208492
 50
62.45185182430527
 51
117.5481481756675
 73
     1
 97
        4
330
212
330
20F
330
211
330
210
 92
       16
 93
        4
 72
     2
 10
-208.2534141093468
 20
-245.5132834350133
 40
0.5179085730132472
 50
38.12041979713961
 51
141.8795802028662
 73
     1
 72
     2
 10
-208.0536740730007
 20
-245.6700146131338
 40
0.7717997786793931
 50
141.879580202843
 51
218.1204197971703
 73
     1
 72
     2
 10
-208.2534141093468
 20
-245.8267457912538
 40
0.5179085730137354
 50
218.1204197971931
 51
321.879580202801
 73
     1
 72
     2
 10
-208.4531541456933
 20
-245.6700146131338
 40
0.7717997786797793
 50
321.879580202844
 51
398.1204197971427
 73
     1
 97
        4
330
1F5
330
1F6
330
1F7
330
1F4
 75
     1
 76
     0
 52
45.0
 41
0.1
 77
     0
 78
     1
 53
45.0
 43
0.0
 44
0.0
 45
-0.0707106781186548
 46
0.0707106781186548
 79
     0
 98
        1
 10
0.0
 20
0.0
  0
HATCH
  5
25D
330
74
100
AcDbEntity
  8
1
  6
Continuous
 62
     2
100
AcDbHatch
 10
0.0
 20
0.0
 30
0.0
210
0.0
220
0.0
230
1.0
  2
_USER
 70
     0
 71
     1
 91
        2
 92
        1
 93
        4
 72
     2
 10
-208.5343540011801
 20
-245.6700146131338
 40
1.458034083651389
 50
117.5481481756645
 51
242.4518518243375
 73
     1
 72
     2
 10
-208.2534141093468
 20
-245.1314396028305
 40
2.065479772208483
 50
242.4518518243399
 51
297.5481481756875
 73
     1
 72
     2
 10
-207.9724742175135
 20
-245.6700146131338
 40
1.458034083652003
 50
297.548148175701
 51
422.4518518242969
 73
     1
 72
     2
 10
-208.2534141093468
 20
-246.2085896234366
 40
2.065479772208492
 50
62.45185182430527
 51
117.5481481756675
 73
     1
 97
        4
330
212
330
20F
330
211
330
210
 92
       16
 93
        4
 72
     2
 10
-208.2534141093468
 20
-245.5132834350133
 40
0.5179085730132472
 50
38.12041979713961
 51
141.8795802028662
 73
     1
 72
     2
 10
-208.0536740730007
 20
-245.6700146131338
 40
0.7717997786793931
 50
141.879580202843
 51
218.1204197971703
 73
     1
 72
     2
 10
-208.2534141093468
 20
-245.8267457912538
 40
0.5179085730137354
 50
218.1204197971931
 51
321.879580202801
 73
     1
 72
     2
 10
-208.4531541456933
 20
-245.6700146131338
 40
0.7717997786797793
 50
321.879580202844
 51
398.1204197971427
 73
     1
 97
        4
330
1F5
330
1F6
330
1F7
330
1F4
 75
     1
 76
     0
 52
45.0
 41
0.1
 77
     0
 78
     1
 53
45.0
 43
0.0
 44
0.0
 45
-0.0707106781186548
 46
0.0707106781186548
 79
     0
 98
        1
 10
0.0
 20
0.0
  0
HATCH
  5
25E
330
74
100
AcDbEntity
  8
1
  6
Continuous
 62
     2
100
AcDbHatch
 10
0.0
 20
0.0
 30
0.0
210
0.0
220
0.0
230
1.0
  2
_USER
 70
     0
 71
     1
 91
        2
 92
        1
 93
        6
 72
     1
 10
-212.8092288557403
 20
-240.7839193750536
 11
-212.8092288557403
 21
-243.8377288988648
 72
     1
 10
-212.8092288557403
 20
-243.8377288988648
 11
-211.5687244454862
 21
-243.8377288988648
 72
     1
 10
-211.5687244454862
 20
-243.8377288988648
 11
-211.5687244454862
 21
-242.894650657721
 72
     1
 10
-211.5687244454862
 20
-242.894650657721
 11
-210.8099568577059
 21
-242.894650657721
 72
     2
 10
-210.8099568577059
 20
-241.8392850163873
 40
1.055365641333708
 50
270.0
 51
450.0
 73
     1
 72
     1
 10
-210.8099568577059
 20
-240.7839193750536
 11
-212.8092288557403
 21
-240.7839193750536
 97
        6
330
21C
330
179
330
16F
330
16E
330
17B
330
17A
 92
       16
 93
        4
 72
     1
 10
-211.2514293839443
 20
-241.4470252204937
 11
-211.5687244454862
 21
-241.4470252204937
 72
     1
 10
-211.5687244454862
 20
-241.4470252204937
 11
-211.5687244454862
 21
-242.152752869836
 72
     1
 10
-211.5687244454862
 20
-242.152752869836
 11
-211.2514293839443
 21
-242.152752869836
 72
     2
 10
-211.2514293839443
 20
-241.7998890451648
 40
0.3528638246712035
 50
270.0
 51
450.0
 73
     1
 97
        4
330
17C
330
16D
330
17D
330
208
 75
     1
 76
     0
 52
45.0
 41
0.1
 77
     0
 78
     1
 53
45.0
 43
0.0
 44
0.0
 45
-0.0707106781186548
 46
0.0707106781186548
 79
     0
 98
        1
 10
0.0
 20
0.0
  0
HATCH
  5
25F
330
74
100
AcDbEntity
  8
1
  6
Continuous
 62
     2
100
AcDbHatch
 10
0.0
 20
0.0
 30
0.0
210
0.0
220
0.0
230
1.0
  2
_USER
 70
     0
 71
     1
 91
        2
 92
        1
 93
        6
 72
     1
 10
-212.8092288557403
 20
-240.7839193750536
 11
-212.8092288557403
 21
-243.8377288988648
 72
     1
 10
-212.8092288557403
 20
-243.8377288988648
 11
-211.5687244454862
 21
-243.8377288988648
 72
     1
 10
-211.5687244454862
 20
-243.8377288988648
 11
-211.5687244454862
 21
-242.894650657721
 72
     1
 10
-211.5687244454862
 20
-242.894650657721
 11
-210.8099568577059
 21
-242.894650657721
 72
     2
 10
-210.8099568577059
 20
-241.8392850163873
 40
1.055365641333708
 50
270.0
 51
450.0
 73
     1
 72
     1
 10
-210.8099568577059
 20
-240.7839193750536
 11
-212.8092288557403
 21
-240.7839193750536
 97
        6
330
21C
330
179
330
16F
330
16E
330
17B
330
17A
 92
       16
 93
        4
 72
     1
 10
-211.2514293839443
 20
-241.4470252204937
 11
-211.5687244454862
 21
-241.4470252204937
 72
     1
 10
-211.5687244454862
 20
-241.4470252204937
 11
-211.5687244454862
 21
-242.152752869836
 72
     1
 10
-211.5687244454862
 20
-242.152752869836
 11
-211.2514293839443
 21
-242.152752869836
 72
     2
 10
-211.2514293839443
 20
-241.7998890451648
 40
0.3528638246712035
 50
270.0
 51
450.0
 73
     1
 97
        4
330
17C
330
16D
330
17D
330
208
 75
     1
 76
     0
 52
45.0
 41
0.1
 77
     0
 78
     1
 53
45.0
 43
0.0
 44
0.0
 45
-0.0707106781186548
 46
0.0707106781186548
 79
     0
 98
        1
 10
0.0
 20
0.0
  0
HATCH
  5
260
330
74
100
AcDbEntity
  8
1
  6
Continuous
 62
     2
100
AcDbHatch
 10
0.0
 20
0.0
 30
0.0
210
0.0
220
0.0
230
1.0
  2
_USER
 70
     0
 71
     1
 91
        1
 92
        1
 93
       12
 72
     1
 10
-193.1949456613071
 20
-240.7839193750536
 11
-191.7922214435599
 21
-240.7839193750536
 72
     1
 10
-191.7922214435599
 20
-240.7839193750536
 11
-193.0947510743264
 21
-242.2568699050898
 72
     1
 10
-193.0947510743264
 20
-242.2568699050898
 11
-191.6967980273861
 21
-243.8377288988648
 72
     1
 10
-191.6967980273861
 20
-243.8377288988648
 11
-193.0995222451344
 21
-243.8377288988648
 72
     1
 10
-193.0995222451344
 20
-243.8377288988648
 11
-193.7961131831999
 21
-243.0499971135711
 72
     1
 10
-193.7961131831999
 20
-243.0499971135711
 11
-194.4927041212656
 21
-243.8377288988648
 72
     1
 10
-194.4927041212656
 20
-243.8377288988648
 11
-195.8954283390139
 21
-243.8377288988648
 72
     1
 10
-195.8954283390139
 20
-243.8377288988648
 11
-194.4974752920736
 21
-242.2568699050898
 72
     1
 10
-194.4974752920736
 20
-242.2568699050898
 11
-195.800004922841
 21
-240.7839193750536
 72
     1
 10
-195.800004922841
 20
-240.7839193750536
 11
-194.3972807050917
 21
-240.7839193750536
 72
     1
 10
-194.3972807050917
 20
-240.7839193750536
 11
-193.7961131831999
 21
-241.4637426966091
 72
     1
 10
-193.7961131831999
 20
-241.4637426966091
 11
-193.1949456613071
 21
-240.7839193750536
 97
       12
330
148
330
1A1
330
1A0
330
19F
330
19E
330
149
330
14A
330
146
330
147
330
1A4
330
1A3
330
1A2
 75
     1
 76
     0
 52
45.0
 41
0.1
 77
     0
 78
     1
 53
45.0
 43
0.0
 44
0.0
 45
-0.0707106781186548
 46
0.0707106781186548
 79
     0
 98
        1
 10
0.0
 20
0.0
  0
HATCH
  5
261
330
74
100
AcDbEntity
  8
1
  6
Continuous
 62
     2
100
AcDbHatch
 10
0.0
 20
0.0
 30
0.0
210
0.0
220
0.0
230
1.0
  2
_USER
 70
     0
 71
     1
 91
        1
 92
        1
 93
       12
 72
     1
 10
-193.1949456613071
 20
-240.7839193750536
 11
-191.7922214435599
 21
-240.7839193750536
 72
     1
 10
-191.7922214435599
 20
-240.7839193750536
 11
-193.0947510743264
 21
-242.2568699050898
 72
     1
 10
-193.0947510743264
 20
-242.2568699050898
 11
-191.6967980273861
 21
-243.8377288988648
 72
     1
 10
-191.6967980273861
 20
-243.8377288988648
 11
-193.0995222451344
 21
-243.8377288988648
 72
     1
 10
-193.0995222451344
 20
-243.8377288988648
 11
-193.7961131831999
 21
-243.0499971135711
 72
     1
 10
-193.7961131831999
 20
-243.0499971135711
 11
-194.4927041212656
 21
-243.8377288988648
 72
     1
 10
-194.4927041212656
 20
-243.8377288988648
 11
-195.8954283390139
 21
-243.8377288988648
 72
     1
 10
-195.8954283390139
 20
-243.8377288988648
 11
-194.4974752920736
 21
-242.2568699050898
 72
     1
 10
-194.4974752920736
 20
-242.2568699050898
 11
-195.800004922841
 21
-240.7839193750536
 72
     1
 10
-195.800004922841
 20
-240.7839193750536
 11
-194.3972807050917
 21
-240.7839193750536
 72
     1
 10
-194.3972807050917
 20
-240.7839193750536
 11
-193.7961131831999
 21
-241.4637426966091
 72
     1
 10
-193.7961131831999
 20
-241.4637426966091
 11
-193.1949456613071
 21
-240.7839193750536
 97
       12
330
148
330
1A1
330
1A0
330
19F
330
19E
330
149
330
14A
330
146
330
147
330
1A4
330
1A3
330
1A2
 75
     1
 76
     0
 52
45.0
 41
0.1
 77
     0
 78
     1
 53
45.0
 43
0.0
 44
0.0
 45
-0.0707106781186548
 46
0.0707106781186548
 79
     0
 98
        1
 10
0.0
 20
0.0
  0
HATCH
  5
262
330
74
100
AcDbEntity
  8
1
  6
Continuous
 62
     2
100
AcDbHatch
 10
0.0
 20
0.0
 30
0.0
210
0.0
220
0.0
230
1.0
  2
_USER
 70
     0
 71
     1
 91
        1
 92
        1
 93
        4
 72
     1
 10
-196.0147076092307
 20
-240.7839193750536
 11
-196.0147076092307
 21
-243.8377288988648
 72
     1
 10
-196.0147076092307
 20
-243.8377288988648
 11
-197.2552120194836
 21
-243.8377288988648
 72
     1
 10
-197.2552120194836
 20
-243.8377288988648
 11
-197.2552120194836
 21
-240.7839193750536
 72
     1
 10
-197.2552120194836
 20
-240.7839193750536
 11
-196.0147076092307
 21
-240.7839193750536
 97
        4
330
19C
330
14B
330
19B
330
19D
 75
     1
 76
     0
 52
45.0
 41
0.1
 77
     0
 78
     1
 53
45.0
 43
0.0
 44
0.0
 45
-0.0707106781186548
 46
0.0707106781186548
 79
     0
 98
        1
 10
0.0
 20
0.0
  0
HATCH
  5
263
330
74
100
AcDbEntity
  8
1
  6
Continuous
 62
     2
100
AcDbHatch
 10
0.0
 20
0.0
 30
0.0
210
0.0
220
0.0
230
1.0
  2
_USER
 70
     0
 71
     1
 91
        1
 92
        1
 93
        4
 72
     1
 10
-196.0147076092307
 20
-240.7839193750536
 11
-196.0147076092307
 21
-243.8377288988648
 72
     1
 10
-196.0147076092307
 20
-243.8377288988648
 11
-197.2552120194836
 21
-243.8377288988648
 72
     1
 10
-197.2552120194836
 20
-243.8377288988648
 11
-197.2552120194836
 21
-240.7839193750536
 72
     1
 10
-197.2552120194836
 20
-240.7839193750536
 11
-196.0147076092307
 21
-240.7839193750536
 97
        4
330
19C
330
14B
330
19B
330
19D
 75
     1
 76
     0
 52
45.0
 41
0.1
 77
     0
 78
     1
 53
45.0
 43
0.0
 44
0.0
 45
-0.0707106781186548
 46
0.0707106781186548
 79
     0
 98
        1
 10
0.0
 20
0.0
  0
HATCH
  5
264
330
74
100
AcDbEntity
  8
1
  6
Continuous
 62
     2
100
AcDbHatch
 10
0.0
 20
0.0
 30
0.0
210
0.0
220
0.0
230
1.0
  2
_USER
 70
     0
 71
     1
 91
        2
 92
        1
 93
        8
 72
     1
 10
-196.4051516127627
 20
-247.1969193750391
 11
-197.6456560230166
 21
-247.1969193750391
 72
     1
 10
-197.6456560230166
 20
-247.1969193750391
 11
-197.8571360764924
 21
-246.6559588308213
 72
     1
 10
-197.8571360764924
 20
-246.6559588308213
 11
-198.9895776531662
 21
-246.6559588308213
 72
     1
 10
-198.9895776531662
 20
-246.6559588308213
 11
-199.2010577066421
 21
-247.1969193750391
 72
     1
 10
-199.2010577066421
 20
-247.1969193750391
 11
-200.441562116895
 21
-247.1969193750391
 72
     1
 10
-200.441562116895
 20
-247.1969193750391
 11
-199.0436090699557
 21
-244.1431098512281
 72
     1
 10
-199.0436090699557
 20
-244.1431098512281
 11
-197.803104659703
 21
-244.1431098512281
 72
     1
 10
-197.803104659703
 20
-244.1431098512281
 11
-196.4051516127627
 21
-247.1969193750391
 97
        8
330
197
330
151
330
196
330
199
330
14E
330
198
330
14F
330
150
 92
       16
 93
        3
 72
     1
 10
-198.7235221020212
 20
-245.9753955655147
 11
-198.1231916276387
 21
-245.9753955655147
 72
     1
 10
-198.1231916276387
 20
-245.9753955655147
 11
-198.4233568648288
 21
-245.2075805995279
 72
     1
 10
-198.4233568648288
 20
-245.2075805995279
 11
-198.7235221020212
 21
-245.9753955655147
 97
        3
330
14D
330
14C
330
19A
 75
     1
 76
     0
 52
45.0
 41
0.1
 77
     0
 78
     1
 53
45.0
 43
0.0
 44
0.0
 45
-0.0707106781186548
 46
0.0707106781186548
 79
     0
 98
        1
 10
0.0
 20
0.0
  0
HATCH
  5
265
330
74
100
AcDbEntity
  8
1
  6
Continuous
 62
     2
100
AcDbHatch
 10
0.0
 20
0.0
 30
0.0
210
0.0
220
0.0
230
1.0
  2
_USER
 70
     0
 71
     1
 91
        2
 92
        1
 93
        8
 72
     1
 10
-196.4051516127627
 20
-247.1969193750391
 11
-197.6456560230166
 21
-247.1969193750391
 72
     1
 10
-197.6456560230166
 20
-247.1969193750391
 11
-197.8571360764924
 21
-246.6559588308213
 72
     1
 10
-197.8571360764924
 20
-246.6559588308213
 11
-198.9895776531662
 21
-246.6559588308213
 72
     1
 10
-198.9895776531662
 20
-246.6559588308213
 11
-199.2010577066421
 21
-247.1969193750391
 72
     1
 10
-199.2010577066421
 20
-247.1969193750391
 11
-200.441562116895
 21
-247.1969193750391
 72
     1
 10
-200.441562116895
 20
-247.1969193750391
 11
-199.0436090699557
 21
-244.1431098512281
 72
     1
 10
-199.0436090699557
 20
-244.1431098512281
 11
-197.803104659703
 21
-244.1431098512281
 72
     1
 10
-197.803104659703
 20
-244.1431098512281
 11
-196.4051516127627
 21
-247.1969193750391
 97
        8
330
197
330
151
330
196
330
199
330
14E
330
198
330
14F
330
150
 92
       16
 93
        3
 72
     1
 10
-198.7235221020212
 20
-245.9753955655147
 11
-198.1231916276387
 21
-245.9753955655147
 72
     1
 10
-198.1231916276387
 20
-245.9753955655147
 11
-198.4233568648288
 21
-245.2075805995279
 72
     1
 10
-198.4233568648288
 20
-245.2075805995279
 11
-198.7235221020212
 21
-245.9753955655147
 97
        3
330
14D
330
14C
330
19A
 75
     1
 76
     0
 52
45.0
 41
0.1
 77
     0
 78
     1
 53
45.0
 43
0.0
 44
0.0
 45
-0.0707106781186548
 46
0.0707106781186548
 79
     0
 98
        1
 10
0.0
 20
0.0
  0
HATCH
  5
266
330
74
100
AcDbEntity
  8
1
  6
Continuous
 62
     2
100
AcDbHatch
 10
0.0
 20
0.0
 30
0.0
210
0.0
220
0.0
230
1.0
  2
_USER
 70
     0
 71
     1
 91
        1
 92
        1
 93
        8
 72
     1
 10
-202.5990742560772
 20
-244.1431098512281
 11
-202.5990742560772
 21
-244.9283751573516
 72
     1
 10
-202.5990742560772
 20
-244.9283751573516
 11
-201.7879752186026
 21
-244.9283751573516
 72
     1
 10
-201.7879752186026
 20
-244.9283751573516
 11
-201.7879752186026
 21
-247.1969193750391
 72
     1
 10
-201.7879752186026
 20
-247.1969193750391
 11
-200.5951825164361
 21
-247.1969193750391
 72
     1
 10
-200.5951825164361
 20
-247.1969193750391
 11
-200.5951825164361
 21
-244.9283751573516
 72
     1
 10
-200.5951825164361
 20
-244.9283751573516
 11
-199.7840834789636
 21
-244.9283751573516
 72
     1
 10
-199.7840834789636
 20
-244.9283751573516
 11
-199.7840834789636
 21
-244.1431098512281
 72
     1
 10
-199.7840834789636
 20
-244.1431098512281
 11
-202.5990742560772
 21
-244.1431098512281
 97
        8
330
193
330
192
330
191
330
152
330
153
330
195
330
154
330
194
 75
     1
 76
     0
 52
45.0
 41
0.1
 77
     0
 78
     1
 53
45.0
 43
0.0
 44
0.0
 45
-0.0707106781186548
 46
0.0707106781186548
 79
     0
 98
        1
 10
0.0
 20
0.0
  0
HATCH
  5
267
330
74
100
AcDbEntity
  8
1
  6
Continuous
 62
     2
100
AcDbHatch
 10
0.0
 20
0.0
 30
0.0
210
0.0
220
0.0
230
1.0
  2
_USER
 70
     0
 71
     1
 91
        1
 92
        1
 93
        8
 72
     1
 10
-202.5990742560772
 20
-244.1431098512281
 11
-202.5990742560772
 21
-244.9283751573516
 72
     1
 10
-202.5990742560772
 20
-244.9283751573516
 11
-201.7879752186026
 21
-244.9283751573516
 72
     1
 10
-201.7879752186026
 20
-244.9283751573516
 11
-201.7879752186026
 21
-247.1969193750391
 72
     1
 10
-201.7879752186026
 20
-247.1969193750391
 11
-200.5951825164361
 21
-247.1969193750391
 72
     1
 10
-200.5951825164361
 20
-247.1969193750391
 11
-200.5951825164361
 21
-244.9283751573516
 72
     1
 10
-200.5951825164361
 20
-244.9283751573516
 11
-199.7840834789636
 21
-244.9283751573516
 72
     1
 10
-199.7840834789636
 20
-244.9283751573516
 11
-199.7840834789636
 21
-244.1431098512281
 72
     1
 10
-199.7840834789636
 20
-244.1431098512281
 11
-202.5990742560772
 21
-244.1431098512281
 97
        8
330
193
330
192
330
191
330
152
330
153
330
195
330
154
330
194
 75
     1
 76
     0
 52
45.0
 41
0.1
 77
     0
 78
     1
 53
45.0
 43
0.0
 44
0.0
 45
-0.0707106781186548
 46
0.0707106781186548
 79
     0
 98
        1
 10
0.0
 20
0.0
  0
HATCH
  5
268
330
74
100
AcDbEntity
  8
1
  6
Continuous
 62
     2
100
AcDbHatch
 10
0.0
 20
0.0
 30
0.0
210
0.0
220
0.0
230
1.0
  2
_USER
 70
     0
 71
     1
 91
        1
 92
        1
 93
       10
 72
     1
 10
-199.9270676723381
 20
-240.7839193750536
 11
-201.1198603745046
 21
-240.7839193750536
 72
     1
 10
-201.1198603745046
 20
-240.7839193750536
 11
-201.1198603745046
 21
-243.8377288988648
 72
     1
 10
-201.1198603745046
 20
-243.8377288988648
 11
-199.9270676723381
 21
-243.8377288988648
 72
     1
 10
-199.9270676723381
 20
-243.8377288988648
 11
-199.9270676723381
 21
-242.5289533886601
 72
     1
 10
-199.9270676723381
 20
-242.5289533886601
 11
-198.6865632620841
 21
-243.8377288988648
 72
     1
 10
-198.6865632620841
 20
-243.8377288988648
 11
-197.4937705599175
 21
-243.8377288988648
 72
     1
 10
-197.4937705599175
 20
-243.8377288988648
 11
-197.4937705599175
 21
-240.7839193750536
 72
     1
 10
-197.4937705599175
 20
-240.7839193750536
 11
-198.6865632620841
 21
-240.7839193750536
 72
     1
 10
-198.6865632620841
 20
-240.7839193750536
 11
-198.6865632620841
 21
-242.0926948852588
 72
     1
 10
-198.6865632620841
 20
-242.0926948852588
 11
-199.9270676723381
 21
-240.7839193750536
 97
       10
330
18D
330
157
330
158
330
159
330
15A
330
190
330
155
330
18F
330
18E
330
156
 75
     1
 76
     0
 52
45.0
 41
0.1
 77
     0
 78
     1
 53
45.0
 43
0.0
 44
0.0
 45
-0.0707106781186548
 46
0.0707106781186548
 79
     0
 98
        1
 10
0.0
 20
0.0
  0
HATCH
  5
269
330
74
100
AcDbEntity
  8
1
  6
Continuous
 62
     2
100
AcDbHatch
 10
0.0
 20
0.0
 30
0.0
210
0.0
220
0.0
230
1.0
  2
_USER
 70
     0
 71
     1
 91
        1
 92
        1
 93
       10
 72
     1
 10
-199.9270676723381
 20
-240.7839193750536
 11
-201.1198603745046
 21
-240.7839193750536
 72
     1
 10
-201.1198603745046
 20
-240.7839193750536
 11
-201.1198603745046
 21
-243.8377288988648
 72
     1
 10
-201.1198603745046
 20
-243.8377288988648
 11
-199.9270676723381
 21
-243.8377288988648
 72
     1
 10
-199.9270676723381
 20
-243.8377288988648
 11
-199.9270676723381
 21
-242.5289533886601
 72
     1
 10
-199.9270676723381
 20
-242.5289533886601
 11
-198.6865632620841
 21
-243.8377288988648
 72
     1
 10
-198.6865632620841
 20
-243.8377288988648
 11
-197.4937705599175
 21
-243.8377288988648
 72
     1
 10
-197.4937705599175
 20
-243.8377288988648
 11
-197.4937705599175
 21
-240.7839193750536
 72
     1
 10
-197.4937705599175
 20
-240.7839193750536
 11
-198.6865632620841
 21
-240.7839193750536
 72
     1
 10
-198.6865632620841
 20
-240.7839193750536
 11
-198.6865632620841
 21
-242.0926948852588
 72
     1
 10
-198.6865632620841
 20
-242.0926948852588
 11
-199.9270676723381
 21
-240.7839193750536
 97
       10
330
18D
330
157
330
158
330
159
330
15A
330
190
330
155
330
18F
330
18E
330
156
 75
     1
 76
     0
 52
45.0
 41
0.1
 77
     0
 78
     1
 53
45.0
 43
0.0
 44
0.0
 45
-0.0707106781186548
 46
0.0707106781186548
 79
     0
 98
        1
 10
0.0
 20
0.0
  0
HATCH
  5
26A
330
74
100
AcDbEntity
  8
1
  6
Continuous
 62
     2
100
AcDbHatch
 10
0.0
 20
0.0
 30
0.0
210
0.0
220
0.0
230
1.0
  2
_USER
 70
     0
 71
     1
 91
        1
 92
        1
 93
       10
 72
     1
 10
-205.1755064927567
 20
-244.1431098512281
 11
-206.3682991949243
 21
-244.1431098512281
 72
     1
 10
-206.3682991949243
 20
-244.1431098512281
 11
-206.3682991949243
 21
-247.1969193750391
 72
     1
 10
-206.3682991949243
 20
-247.1969193750391
 11
-205.1755064927567
 21
-247.1969193750391
 72
     1
 10
-205.1755064927567
 20
-247.1969193750391
 11
-205.1755064927567
 21
-245.8881438648346
 72
     1
 10
-205.1755064927567
 20
-245.8881438648346
 11
-203.9350020825038
 21
-247.1969193750391
 72
     1
 10
-203.9350020825038
 20
-247.1969193750391
 11
-202.7422093803374
 21
-247.1969193750391
 72
     1
 10
-202.7422093803374
 20
-247.1969193750391
 11
-202.7422093803374
 21
-244.1431098512281
 72
     1
 10
-202.7422093803374
 20
-244.1431098512281
 11
-203.9350020825038
 21
-244.1431098512281
 72
     1
 10
-203.9350020825038
 20
-244.1431098512281
 11
-203.9350020825038
 21
-245.4518853614331
 72
     1
 10
-203.9350020825038
 20
-245.4518853614331
 11
-205.1755064927567
 21
-244.1431098512281
 97
       10
330
15C
330
15D
330
15E
330
18A
330
15F
330
160
330
189
330
18C
330
18B
330
15B
 75
     1
 76
     0
 52
45.0
 41
0.1
 77
     0
 78
     1
 53
45.0
 43
0.0
 44
0.0
 45
-0.0707106781186548
 46
0.0707106781186548
 79
     0
 98
        1
 10
0.0
 20
0.0
  0
HATCH
  5
26B
330
74
100
AcDbEntity
  8
1
  6
Continuous
 62
     2
100
AcDbHatch
 10
0.0
 20
0.0
 30
0.0
210
0.0
220
0.0
230
1.0
  2
_USER
 70
     0
 71
     1
 91
        1
 92
        1
 93
       10
 72
     1
 10
-205.1755064927567
 20
-244.1431098512281
 11
-206.3682991949243
 21
-244.1431098512281
 72
     1
 10
-206.3682991949243
 20
-244.1431098512281
 11
-206.3682991949243
 21
-247.1969193750391
 72
     1
 10
-206.3682991949243
 20
-247.1969193750391
 11
-205.1755064927567
 21
-247.1969193750391
 72
     1
 10
-205.1755064927567
 20
-247.1969193750391
 11
-205.1755064927567
 21
-245.8881438648346
 72
     1
 10
-205.1755064927567
 20
-245.8881438648346
 11
-203.9350020825038
 21
-247.1969193750391
 72
     1
 10
-203.9350020825038
 20
-247.1969193750391
 11
-202.7422093803374
 21
-247.1969193750391
 72
     1
 10
-202.7422093803374
 20
-247.1969193750391
 11
-202.7422093803374
 21
-244.1431098512281
 72
     1
 10
-202.7422093803374
 20
-244.1431098512281
 11
-203.9350020825038
 21
-244.1431098512281
 72
     1
 10
-203.9350020825038
 20
-244.1431098512281
 11
-203.9350020825038
 21
-245.4518853614331
 72
     1
 10
-203.9350020825038
 20
-245.4518853614331
 11
-205.1755064927567
 21
-244.1431098512281
 97
       10
330
15C
330
15D
330
15E
330
18A
330
15F
330
160
330
189
330
18C
330
18B
330
15B
 75
     1
 76
     0
 52
45.0
 41
0.1
 77
     0
 78
     1
 53
45.0
 43
0.0
 44
0.0
 45
-0.0707106781186548
 46
0.0707106781186548
 79
     0
 98
        1
 10
0.0
 20
0.0
  0
HATCH
  5
26C
330
74
100
AcDbEntity
  8
1
  6
Continuous
 62
     2
100
AcDbHatch
 10
0.0
 20
0.0
 30
0.0
210
0.0
220
0.0
230
1.0
  2
_USER
 70
     0
 71
     1
 91
        1
 92
        1
 93
       12
 72
     1
 10
-206.1773014316921
 20
-240.7839193750536
 11
-206.1773014316921
 21
-243.8377288988648
 72
     1
 10
-206.1773014316921
 20
-243.8377288988648
 11
-207.3700941338585
 21
-243.8377288988648
 72
     1
 10
-207.3700941338585
 20
-243.8377288988648
 11
-207.3700941338585
 21
-242.703456790021
 72
     1
 10
-207.3700941338585
 20
-242.703456790021
 11
-208.419751711766
 21
-242.703456790021
 72
     1
 10
-208.419751711766
 20
-242.703456790021
 11
-208.419751711766
 21
-243.8377288988648
 72
     1
 10
-208.419751711766
 20
-243.8377288988648
 11
-209.6125444139326
 21
-243.8377288988648
 72
     1
 10
-209.6125444139326
 20
-243.8377288988648
 11
-209.6125444139326
 21
-240.7839193750536
 72
     1
 10
-209.6125444139326
 20
-240.7839193750536
 11
-208.419751711766
 21
-240.7839193750536
 72
     1
 10
-208.419751711766
 20
-240.7839193750536
 11
-208.419751711766
 21
-241.8527527083882
 72
     1
 10
-208.419751711766
 20
-241.8527527083882
 11
-207.3700941338585
 21
-241.8527527083882
 72
     1
 10
-207.3700941338585
 20
-241.8527527083882
 11
-207.3700941338585
 21
-240.7839193750536
 72
     1
 10
-207.3700941338585
 20
-240.7839193750536
 11
-206.1773014316921
 21
-240.7839193750536
 97
       12
330
184
330
183
330
182
330
16A
330
16B
330
181
330
16C
330
180
330
17F
330
17E
330
168
330
169
 75
     1
 76
     0
 52
45.0
 41
0.1
 77
     0
 78
     1
 53
45.0
 43
0.0
 44
0.0
 45
-0.0707106781186548
 46
0.0707106781186548
 79
     0
 98
        1
 10
0.0
 20
0.0
  0
HATCH
  5
26D
330
74
100
AcDbEntity
  8
1
  6
Continuous
 62
     2
100
AcDbHatch
 10
0.0
 20
0.0
 30
0.0
210
0.0
220
0.0
230
1.0
  2
_USER
 70
     0
 71
     1
 91
        1
 92
        1
 93
       12
 72
     1
 10
-206.1773014316921
 20
-240.7839193750536
 11
-206.1773014316921
 21
-243.8377288988648
 72
     1
 10
-206.1773014316921
 20
-243.8377288988648
 11
-207.3700941338585
 21
-243.8377288988648
 72
     1
 10
-207.3700941338585
 20
-243.8377288988648
 11
-207.3700941338585
 21
-242.703456790021
 72
     1
 10
-207.3700941338585
 20
-242.703456790021
 11
-208.419751711766
 21
-242.703456790021
 72
     1
 10
-208.419751711766
 20
-242.703456790021
 11
-208.419751711766
 21
-243.8377288988648
 72
     1
 10
-208.419751711766
 20
-243.8377288988648
 11
-209.6125444139326
 21
-243.8377288988648
 72
     1
 10
-209.6125444139326
 20
-243.8377288988648
 11
-209.6125444139326
 21
-240.7839193750536
 72
     1
 10
-209.6125444139326
 20
-240.7839193750536
 11
-208.419751711766
 21
-240.7839193750536
 72
     1
 10
-208.419751711766
 20
-240.7839193750536
 11
-208.419751711766
 21
-241.8527527083882
 72
     1
 10
-208.419751711766
 20
-241.8527527083882
 11
-207.3700941338585
 21
-241.8527527083882
 72
     1
 10
-207.3700941338585
 20
-241.8527527083882
 11
-207.3700941338585
 21
-240.7839193750536
 72
     1
 10
-207.3700941338585
 20
-240.7839193750536
 11
-206.1773014316921
 21
-240.7839193750536
 97
       12
330
184
330
183
330
182
330
16A
330
16B
330
181
330
16C
330
180
330
17F
330
17E
330
168
330
169
 75
     1
 76
     0
 52
45.0
 41
0.1
 77
     0
 78
     1
 53
45.0
 43
0.0
 44
0.0
 45
-0.0707106781186548
 46
0.0707106781186548
 79
     0
 98
        1
 10
0.0
 20
0.0
  0
ENDBLK
  5
76
330
74
100
AcDbEntity
  8
0
100
AcDbBlockEnd
  0
BLOCK
  5
7A
330
77
100
AcDbEntity
  8
0
100
AcDbBlockBegin
  2
A4I_CS
 70
     0
 10
-94.29999761790323
 20
-259.4904193750556
 30
0.0
  3
A4I_CS
  1

  0
INSERT
  5
78
330
77
100
AcDbEntity
  8
1
100
AcDbBlockReference
  2
_punkt
 10
-94.29999761790323
 20
-254.4904193750554
 30
0.0
  0
INSERT
  5
79
330
77
100
AcDbEntity
  8
1
100
AcDbBlockReference
  2
_rahmen
 10
-94.29999761790323
 20
-259.4904193750556
 30
0.0
  0
ENDBLK
  5
7B
330
77
100
AcDbEntity
  8
0
100
AcDbBlockEnd
  0
BLOCK
  5
CF
330
C8
100
AcDbEntity
  8
0
100
AcDbBlockBegin
  2
*D16
 70
     1
 10
0.0
 20
0.0
 30
0.0
  3
*D16
  1

  0
LINE
  5
C9
330
C8
100
AcDbEntity
  8
1
  6
Continuous
 62
     2
100
AcDbLine
 10
-150.4000012064449
 20
-82.60000190621271
 30
0.0
 11
-150.4000012064449
 21
-77.20000190621272
 31
0.0
  0
LINE
  5
CA
330
C8
100
AcDbEntity
  8
1
  6
Continuous
 62
     2
100
AcDbLine
 10
-145.4000012064449
 20
-82.60000190621271
 30
0.0
 11
-151.1500012064449
 21
-82.60000190621271
 31
0.0
  0
LINE
  5
CB
330
C8
100
AcDbEntity
  8
1
  6
Continuous
 62
     2
100
AcDbLine
 10
-145.4000012064449
 20
-77.20000190621272
 30
0.0
 11
-151.1500012064449
 21
-77.20000190621272
 31
0.0
  0
SOLID
  5
CC
330
C8
100
AcDbEntity
  8
1
 62
     2
100
AcDbTrace
 10
-150.6303930772228
 20
-80.85000190621271
 30
0.0
 11
-150.169609335667
 21
-80.85000190621271
 31
0.0
 12
-150.4000012064449
 22
-82.60000190621271
 32
0.0
 13
-150.4000012064449
 23
-82.60000190621271
 33
0.0
  0
SOLID
  5
CD
330
C8
100
AcDbEntity
  8
1
 62
     2
100
AcDbTrace
 10
-150.169609335667
 20
-78.95000190621272
 30
0.0
 11
-150.6303930772228
 21
-78.95000190621272
 31
0.0
 12
-150.4000012064449
 22
-77.20000190621272
 32
0.0
 13
-150.4000012064449
 23
-77.20000190621272
 33
0.0
  0
MTEXT
  5
CE
330
C8
100
AcDbEntity
  8
1
 62
     3
100
AcDbMText
 10
-151.3250012064449
 20
-81.51875190621271
 30
0.0
 40
1.75
 41
0.0
 71
     7
 72
     1
  1
5,4
  7
CONVERTER_11
 11
0.0
 21
1.0
 31
0.0
 73
     1
 44
0.60024009603842
  0
ENDBLK
  5
D0
330
C8
100
AcDbEntity
  8
0
100
AcDbBlockEnd
  0
BLOCK
  5
126
330
11F
100
AcDbEntity
  8
0
100
AcDbBlockBegin
  2
*D17
 70
     1
 10
0.0
 20
0.0
 30
0.0
  3
*D17
  1

  0
LINE
  5
120
330
11F
100
AcDbEntity
  8
1
  6
Continuous
 62
     2
100
AcDbLine
 10
-145.400001500005
 20
-67.2000013038203
 30
0.0
 11
-127.400001500005
 21
-67.2000013038203
 31
0.0
  0
LINE
  5
121
330
11F
100
AcDbEntity
  8
1
  6
Continuous
 62
     2
100
AcDbLine
 10
-145.400001500005
 20
-62.20000130382031
 30
0.0
 11
-145.400001500005
 21
-67.9500013038203
 31
0.0
  0
LINE
  5
122
330
11F
100
AcDbEntity
  8
1
  6
Continuous
 62
     2
100
AcDbLine
 10
-127.400001500005
 20
-62.20000130382031
 30
0.0
 11
-127.400001500005
 21
-67.9500013038203
 31
0.0
  0
SOLID
  5
123
330
11F
100
AcDbEntity
  8
1
 62
     2
100
AcDbTrace
 10
-143.650001500005
 20
-66.96960943304236
 30
0.0
 11
-143.650001500005
 21
-67.43039317459824
 31
0.0
 12
-145.400001500005
 22
-67.2000013038203
 32
0.0
 13
-145.400001500005
 23
-67.2000013038203
 33
0.0
  0
SOLID
  5
124
330
11F
100
AcDbEntity
  8
1
 62
     2
100
AcDbTrace
 10
-129.150001500005
 20
-67.43039317459824
 30
0.0
 11
-129.150001500005
 21
-66.96960943304236
 31
0.0
 12
-127.400001500005
 22
-67.2000013038203
 32
0.0
 13
-127.400001500005
 23
-67.2000013038203
 33
0.0
  0
MTEXT
  5
125
330
11F
100
AcDbEntity
  8
1
 62
     3
100
AcDbMText
 10
-137.450001500005
 20
-66.4500013038203
 30
0.0
 40
1.75
 41
0.0
 71
     7
 72
     1
  1
18
  7
CONVERTER_11
 11
0.9999999999970619
 21
2.424068405545306E-6
 31
0.0
 73
     1
 44
0.60024009603842
  0
ENDBLK
  5
127
330
11F
100
AcDbEntity
  8
0
100
AcDbBlockEnd
  0
BLOCK
  5
131
330
12A
100
AcDbEntity
  8
0
100
AcDbBlockBegin
  2
*D18
 70
     1
 10
0.0
 20
0.0
 30
0.0
  3
*D18
  1

  0
LINE
  5
12B
330
12A
100
AcDbEntity
  8
1
  6
Continuous
 62
     2
100
AcDbLine
 10
-150.400001500005
 20
-62.20000130382031
 30
0.0
 11
-150.400001500005
 21
-55.80000130382031
 31
0.0
  0
LINE
  5
12C
330
12A
100
AcDbEntity
  8
1
  6
Continuous
 62
     2
100
AcDbLine
 10
-145.400001500005
 20
-62.20000130382031
 30
0.0
 11
-151.150001500005
 21
-62.20000130382031
 31
0.0
  0
LINE
  5
12D
330
12A
100
AcDbEntity
  8
1
  6
Continuous
 62
     2
100
AcDbLine
 10
-145.400001500005
 20
-55.80000130382031
 30
0.0
 11
-151.150001500005
 21
-55.80000130382031
 31
0.0
  0
SOLID
  5
12E
330
12A
100
AcDbEntity
  8
1
 62
     2
100
AcDbTrace
 10
-150.6303933707829
 20
-60.45000130382031
 30
0.0
 11
-150.1696096292271
 21
-60.45000130382031
 31
0.0
 12
-150.400001500005
 22
-62.20000130382031
 32
0.0
 13
-150.400001500005
 23
-62.20000130382031
 33
0.0
  0
SOLID
  5
12F
330
12A
100
AcDbEntity
  8
1
 62
     2
100
AcDbTrace
 10
-150.1696096292271
 20
-57.55000130382031
 30
0.0
 11
-150.6303933707829
 21
-57.55000130382031
 31
0.0
 12
-150.400001500005
 22
-55.80000130382031
 32
0.0
 13
-150.400001500005
 23
-55.80000130382031
 33
0.0
  0
MTEXT
  5
130
330
12A
100
AcDbEntity
  8
1
 62
     3
100
AcDbMText
 10
-151.325001500005
 20
-60.61875130382031
 30
0.0
 40
1.75
 41
0.0
 71
     7
 72
     1
  1
6,4
  7
CONVERTER_11
 11
0.0
 21
1.0
 31
0.0
 73
     1
 44
0.60024009603842
  0
ENDBLK
  5
132
330
12A
100
AcDbEntity
  8
0
100
AcDbBlockEnd
  0
ENDSEC
  0
SECTION
  2
ENTITIES
  0
INSERT
  5
7C
330
1F
100
AcDbEntity
  8
0
100
AcDbBlockReference
  2
Allg1
 10
-149.9999998349263
 20
-190.000000986172
 30
0.0
 41
2.0
 42
2.0
 43
2.0
  0
INSERT
  5
7D
330
1F
100
AcDbEntity
  8
0
100
AcDbBlockReference
  2
Drfsicht1
 10
-272.8000024128798
 20
-159.8000069468808
 30
0.0
 41
2.0
 42
2.0
 43
2.0
  0
INSERT
  5
7E
330
1F
100
AcDbEntity
  8
0
100
AcDbBlockReference
  2
Rckans1
 10
-161.99999999999
 20
-118.0000013038201
 30
0.0
 41
2.0
 42
2.0
 43
2.0
  0
INSERT
  5
7F
330
1F
100
AcDbEntity
  8
0
100
AcDbBlockReference
  2
SA_Links1
 10
-217.40000702112
 20
-118.0000013038207
 30
0.0
 41
2.0
 42
2.0
 43
2.0
  0
INSERT
  5
80
330
1F
100
AcDbEntity
  8
0
100
AcDbBlockReference
  2
SA_Rechts1
 10
-338.199998370282
 20
-118.0000013038208
 30
0.0
 41
2.0
 42
2.0
 43
2.0
  0
INSERT
  5
81
330
1F
100
AcDbEntity
  8
0
100
AcDbBlockReference
  2
Vordans1
 10
-272.800003
 20
-118.0000013038201
 30
0.0
 41
2.0
 42
2.0
 43
2.0
  0
INSERT
  5
82
330
1F
100
AcDbEntity
  8
0
100
AcDbBlockReference
  2
A4I_CS
 10
-94.29999761790323
 20
-259.4904193750556
 30
0.0
  0
ENDSEC
  0
SECTION
  2
OBJECTS
  0
DICTIONARY
  5
C
330
0
100
AcDbDictionary
281
     1
  3
ACAD_GROUP
350
D
  3
ACAD_LAYOUT
350
1A
  3
ACAD_MATERIAL
350
3B
  3
ACAD_MLEADERSTYLE
350
270
  3
ACAD_MLINESTYLE
350
17
  3
ACAD_PLOTSETTINGS
350
19
  3
ACAD_PLOTSTYLENAME
350
E
  3
ACAD_VISUALSTYLE
350
2A
  3
AcDbVariableDictionary
350
26E
  0
DICTIONARY
  5
D
102
{ACAD_REACTORS
330
C
102
}
330
C
100
AcDbDictionary
281
     1
  0
DICTIONARY
  5
1A
102
{ACAD_REACTORS
330
C
102
}
330
C
100
AcDbDictionary
281
     1
  3
Layout1
350
1E
  3
Layout2
350
26
  3
Model
350
22
  0
DICTIONARY
  5
3B
102
{ACAD_REACTORS
330
C
102
}
330
C
100
AcDbDictionary
281
     1
  3
ByBlock
350
3D
  3
ByLayer
350
3C
  3
Global
350
3E
  0
DICTIONARY
  5
270
102
{ACAD_REACTORS
330
C
102
}
330
C
100
AcDbDictionary
281
     1
  0
DICTIONARY
  5
17
102
{ACAD_REACTORS
330
C
102
}
330
C
100
AcDbDictionary
281
     1
  3
Standard
350
18
  0
DICTIONARY
  5
19
102
{ACAD_REACTORS
330
C
102
}
330
C
100
AcDbDictionary
281
     1
  0
ACDBDICTIONARYWDFLT
  5
E
102
{ACAD_REACTORS
330
C
102
}
330
C
100
AcDbDictionary
281
     1
  3
Normal
350
F
100
AcDbDictionaryWithDefault
340
F
  0
DICTIONARY
  5
2A
102
{ACAD_REACTORS
330
C
102
}
330
C
100
AcDbDictionary
281
     1
  3
2dWireframe
350
2F
  3
3D Hidden
350
31
  3
3dWireframe
350
30
  3
Basic
350
32
  3
Brighten
350
36
  3
ColorChange
350
3A
  3
Conceptual
350
34
  3
Dim
350
35
  3
Facepattern
350
39
  3
Flat
350
2B
  3
FlatWithEdges
350
2C
  3
Gouraud
350
2D
  3
GouraudWithEdges
350
2E
  3
Linepattern
350
38
  3
Realistic
350
33
  3
Thicken
350
37
  0
DICTIONARY
  5
26E
102
{ACAD_REACTORS
330
C
102
}
330
C
100
AcDbDictionary
281
     1
  3
DIMASSOC
350
271
  3
HIDETEXT
350
272
  0
LAYOUT
  5
1E
102
{ACAD_REACTORS
330
1A
102
}
330
1A
100
AcDbPlotSettings
  1

  2
none_device
  4

  6

 40
0.0
 41
0.0
 42
0.0
 43
0.0
 44
0.0
 45
0.0
 46
0.0
 47
0.0
 48
0.0
 49
0.0
140
0.0
141
0.0
142
1.0
143
1.0
 70
   688
 72
     0
 73
     0
 74
     5
  7

 75
    16
147
1.0
148
0.0
149
0.0
100
AcDbLayout
  1
Layout1
 70
     1
 71
     1
 10
0.0
 20
0.0
 11
12.0
 21
9.0
 12
0.0
 22
0.0
 32
0.0
 14
1.00000000000000E+20
 24
1.00000000000000E+20
 34
1.00000000000000E+20
 15
-1.00000000000000E+20
 25
-1.00000000000000E+20
 35
-1.00000000000000E+20
146
0.0
 13
0.0
 23
0.0
 33
0.0
 16
1.0
 26
0.0
 36
0.0
 17
0.0
 27
1.0
 37
0.0
 76
     0
330
1B
  0
LAYOUT
  5
26
102
{ACAD_REACTORS
330
1A
102
}
330
1A
100
AcDbPlotSettings
  1

  2
none_device
  4

  6

 40
0.0
 41
0.0
 42
0.0
 43
0.0
 44
0.0
 45
0.0
 46
0.0
 47
0.0
 48
0.0
 49
0.0
140
0.0
141
0.0
142
1.0
143
1.0
 70
   688
 72
     0
 73
     0
 74
     5
  7

 75
    16
147
1.0
148
0.0
149
0.0
100
AcDbLayout
  1
Layout2
 70
     1
 71
     2
 10
0.0
 20
0.0
 11
0.0
 21
0.0
 12
0.0
 22
0.0
 32
0.0
 14
0.0
 24
0.0
 34
0.0
 15
0.0
 25
0.0
 35
0.0
146
0.0
 13
0.0
 23
0.0
 33
0.0
 16
1.0
 26
0.0
 36
0.0
 17
0.0
 27
1.0
 37
0.0
 76
     0
330
23
  0
LAYOUT
  5
22
102
{ACAD_REACTORS
330
1A
102
}
330
1A
100
AcDbPlotSettings
  1

  2
none_device
  4

  6

 40
0.0
 41
0.0
 42
0.0
 43
0.0
 44
0.0
 45
0.0
 46
0.0
 47
0.0
 48
0.0
 49
0.0
140
0.0
141
0.0
142
1.0
143
1.0
 70
  1712
 72
     0
 73
     0
 74
     0
  7

 75
     0
147
1.0
148
0.0
149
0.0
100
AcDbLayout
  1
Model
 70
     1
 71
     0
 10
0.0
 20
0.0
 11
12.0
 21
9.0
 12
0.0
 22
0.0
 32
0.0
 14
-386.2999976179023
 24
-259.4904193750556
 34
0.0
 15
-89.29999761790424
 25
-49.49041937505544
 35
0.0
146
0.0
 13
0.0
 23
0.0
 33
0.0
 16
1.0
 26
0.0
 36
0.0
 17
0.0
 27
1.0
 37
0.0
 76
     0
330
1F
331
29
  0
MATERIAL
  5
3D
102
{ACAD_REACTORS
330
3B
102
}
102
{ACAD_XDICTIONARY
360
295
102
}
330
3B
100
AcDbMaterial
  1
ByBlock
  0
MATERIAL
  5
3C
102
{ACAD_REACTORS
330
3B
102
}
102
{ACAD_XDICTIONARY
360
293
102
}
330
3B
100
AcDbMaterial
  1
ByLayer
  0
MATERIAL
  5
3E
102
{ACAD_REACTORS
330
3B
102
}
102
{ACAD_XDICTIONARY
360
297
102
}
330
3B
100
AcDbMaterial
  1
Global
  0
MLINESTYLE
  5
18
102
{ACAD_REACTORS
330
17
102
}
330
17
100
AcDbMlineStyle
  2
Standard
 70
     0
  3

 62
   256
 51
90.0
 52
90.0
 71
     2
 49
0.5
 62
   256
  6
BYLAYER
 49
-0.5
 62
   256
  6
BYLAYER
  0
ACDBPLACEHOLDER
  5
F
102
{ACAD_REACTORS
330
E
102
}
330
E
  0
VISUALSTYLE
  5
2F
102
{ACAD_REACTORS
330
2A
102
}
102
{ACAD_XDICTIONARY
360
27B
102
}
330
2A
100
AcDbVisualStyle
  2
2dWireframe
 70
     4
 71
     0
 72
     2
 73
     0
 90
        0
 40
-0.6
 41
-30.0
 62
     5
 63
     7
 74
     1
 91
        4
 64
     7
 65
   257
 75
     1
175
     1
 42
1.0
 92
        0
 66
   257
 43
1.0
 76
     1
 77
     6
 78
     2
 67
     7
 79
     5
170
     0
171
     0
290
     0
174
     0
 93
        1
 44
0.0
173
     0
291
     0
 45
0.0
1001
ACAD
1000
AcDbSavedByObjectVersion
1070
     0
  0
VISUALSTYLE
  5
31
102
{ACAD_REACTORS
330
2A
102
}
102
{ACAD_XDICTIONARY
360
27F
102
}
330
2A
100
AcDbVisualStyle
  2
3D Hidden
 70
     6
 71
     1
 72
     2
 73
     2
 90
        0
 40
-0.6
 41
-30.0
 62
     5
 63
     7
 74
     2
 91
        2
 64
     7
 65
   257
 75
     2
175
     1
 42
40.0
 92
        0
 66
   257
 43
1.0
 76
     1
 77
     6
 78
     2
 67
     7
 79
     3
170
     0
171
     0
290
     0
174
     0
 93
        1
 44
0.0
173
     0
291
     0
 45
0.0
1001
ACAD
1000
AcDbSavedByObjectVersion
1070
     0
  0
VISUALSTYLE
  5
30
102
{ACAD_REACTORS
330
2A
102
}
102
{ACAD_XDICTIONARY
360
27D
102
}
330
2A
100
AcDbVisualStyle
  2
3dWireframe
 70
     5
 71
     0
 72
     2
 73
     0
 90
        0
 40
-0.6
 41
-30.0
 62
     5
 63
     7
 74
     1
 91
        4
 64
     7
 65
   257
 75
     1
175
     1
 42
1.0
 92
        0
 66
   257
 43
1.0
 76
     1
 77
     6
 78
     2
 67
     7
 79
     5
170
     0
171
     0
290
     0
174
     0
 93
        1
 44
0.0
173
     0
291
     0
 45
0.0
1001
ACAD
1000
AcDbSavedByObjectVersion
1070
     0
  0
VISUALSTYLE
  5
32
102
{ACAD_REACTORS
330
2A
102
}
102
{ACAD_XDICTIONARY
360
281
102
}
330
2A
100
AcDbVisualStyle
  2
Basic
 70
     7
 71
     1
 72
     0
 73
     1
 90
        0
 40
-0.6
 41
-30.0
 62
     5
 63
     7
 74
     0
 91
        4
 64
     7
 65
   257
 75
     1
175
     1
 42
1.0
 92
        8
 66
     7
 43
1.0
 76
     1
 77
     6
 78
     2
 67
     7
 79
     5
170
     0
171
     0
290
     0
174
     0
 93
        1
 44
0.0
173
     0
291
     1
 45
0.0
1001
ACAD
1000
AcDbSavedByObjectVersion
1070
     0
  0
VISUALSTYLE
  5
36
102
{ACAD_REACTORS
330
2A
102
}
102
{ACAD_XDICTIONARY
360
289
102
}
330
2A
100
AcDbVisualStyle
  2
Brighten
 70
    12
 71
     2
 72
     2
 73
     0
 90
        0
 40
-0.6
 41
-30.0
 62
     5
 63
     7
 74
     1
 91
        4
 64
     7
 65
   257
 75
     1
175
     1
 42
1.0
 92
        8
 66
     7
 43
1.0
 76
     1
 77
     6
 78
     2
 67
     7
 79
     5
170
     0
171
     0
290
     0
174
     0
 93
        1
 44
50.0
173
     0
291
     1
 45
0.0
1001
ACAD
1000
AcDbSavedByObjectVersion
1070
     0
  0
VISUALSTYLE
  5
3A
102
{ACAD_REACTORS
330
2A
102
}
102
{ACAD_XDICTIONARY
360
291
102
}
330
2A
100
AcDbVisualStyle
  2
ColorChange
 70
    16
 71
     2
 72
     2
 73
     3
 90
        0
 40
-0.6
 41
-30.0
 62
     5
 63
     8
 74
     1
 91
        4
 64
     7
 65
   257
 75
     1
175
     1
 42
1.0
 92
        8
 66
     8
 43
1.0
 76
     1
 77
     6
 78
     2
 67
     7
 79
     5
170
     0
171
     0
290
     0
174
     0
 93
        1
 44
0.0
173
     0
291
     1
 45
0.0
1001
ACAD
1000
AcDbSavedByObjectVersion
1070
     0
  0
VISUALSTYLE
  5
34
102
{ACAD_REACTORS
330
2A
102
}
102
{ACAD_XDICTIONARY
360
285
102
}
330
2A
100
AcDbVisualStyle
  2
Conceptual
 70
     9
 71
     3
 72
     2
 73
     0
 90
        0
 40
-0.6
 41
-30.0
 62
     5
 63
     7
 74
     2
 91
        2
 64
     7
 65
   257
 75
     1
175
     1
 42
40.0
 92
        8
 66
     7
 43
1.0
 76
     1
 77
     6
 78
     2
 67
     7
 79
     3
170
     0
171
     0
290
     0
174
     0
 93
        1
 44
0.0
173
     0
291
     0
 45
0.0
1001
ACAD
1000
AcDbSavedByObjectVersion
1070
     0
  0
VISUALSTYLE
  5
35
102
{ACAD_REACTORS
330
2A
102
}
102
{ACAD_XDICTIONARY
360
287
102
}
330
2A
100
AcDbVisualStyle
  2
Dim
 70
    11
 71
     2
 72
     2
 73
     0
 90
        0
 40
-0.6
 41
-30.0
 62
     5
 63
     7
 74
     1
 91
        4
 64
     7
 65
   257
 75
     1
175
     1
 42
1.0
 92
        8
 66
     7
 43
1.0
 76
     1
 77
     6
 78
     2
 67
     7
 79
     5
170
     0
171
     0
290
     0
174
     0
 93
        1
 44
-50.0
173
     0
291
     1
 45
0.0
1001
ACAD
1000
AcDbSavedByObjectVersion
1070
     0
  0
VISUALSTYLE
  5
39
102
{ACAD_REACTORS
330
2A
102
}
102
{ACAD_XDICTIONARY
360
28F
102
}
330
2A
100
AcDbVisualStyle
  2
Facepattern
 70
    15
 71
     2
 72
     2
 73
     0
 90
        0
 40
-0.6
 41
-30.0
 62
     5
 63
     7
 74
     1
 91
        4
 64
     7
 65
   257
 75
     1
175
     1
 42
1.0
 92
        8
 66
     7
 43
1.0
 76
     1
 77
     6
 78
     2
 67
     7
 79
     5
170
     0
171
     0
290
     0
174
     0
 93
        1
 44
0.0
173
     0
291
     1
 45
0.0
1001
ACAD
1000
AcDbSavedByObjectVersion
1070
     0
  0
VISUALSTYLE
  5
2B
102
{ACAD_REACTORS
330
2A
102
}
102
{ACAD_XDICTIONARY
360
273
102
}
330
2A
100
AcDbVisualStyle
  2
Flat
 70
     0
 71
     2
 72
     1
 73
     1
 90
        2
 40
-0.6
 41
30.0
 62
     5
 63
     7
 74
     0
 91
        4
 64
     7
 65
   257
 75
     1
175
     1
 42
1.0
 92
        8
 66
     7
 43
1.0
 76
     1
 77
     6
 78
     2
 67
     7
 79
     5
170
     0
171
     0
290
     0
174
     0
 93
       13
 44
0.0
173
     0
291
     1
 45
0.0
1001
ACAD
1000
AcDbSavedByObjectVersion
1070
     0
  0
VISUALSTYLE
  5
2C
102
{ACAD_REACTORS
330
2A
102
}
102
{ACAD_XDICTIONARY
360
275
102
}
330
2A
100
AcDbVisualStyle
  2
FlatWithEdges
 70
     1
 71
     2
 72
     1
 73
     1
 90
        2
 40
-0.6
 41
30.0
 62
     5
 63
     7
 74
     1
 91
        4
 64
     7
 65
   257
 75
     1
175
     1
 42
1.0
 92
        0
 66
   257
 43
1.0
 76
     1
 77
     6
 78
     2
 67
     7
 79
     5
170
     0
171
     0
290
     0
174
     0
 93
       13
 44
0.0
173
     0
291
     1
 45
0.0
1001
ACAD
1000
AcDbSavedByObjectVersion
1070
     0
  0
VISUALSTYLE
  5
2D
102
{ACAD_REACTORS
330
2A
102
}
102
{ACAD_XDICTIONARY
360
277
102
}
330
2A
100
AcDbVisualStyle
  2
Gouraud
 70
     2
 71
     2
 72
     2
 73
     1
 90
        2
 40
-0.6
 41
30.0
 62
     5
 63
     7
 74
     0
 91
        4
 64
     7
 65
   257
 75
     1
175
     1
 42
1.0
 92
        0
 66
     7
 43
1.0
 76
     1
 77
     6
 78
     2
 67
     7
 79
     5
170
     0
171
     0
290
     0
174
     0
 93
       13
 44
0.0
173
     0
291
     1
 45
0.0
1001
ACAD
1000
AcDbSavedByObjectVersion
1070
     0
  0
VISUALSTYLE
  5
2E
102
{ACAD_REACTORS
330
2A
102
}
102
{ACAD_XDICTIONARY
360
279
102
}
330
2A
100
AcDbVisualStyle
  2
GouraudWithEdges
 70
     3
 71
     2
 72
     2
 73
     1
 90
        2
 40
-0.6
 41
30.0
 62
     5
 63
     7
 74
     1
 91
        4
 64
     7
 65
   257
 75
     1
175
     1
 42
1.0
 92
        0
 66
   257
 43
1.0
 76
     1
 77
     6
 78
     2
 67
     7
 79
     5
170
     0
171
     0
290
     0
174
     0
 93
       13
 44
0.0
173
     0
291
     1
 45
0.0
1001
ACAD
1000
AcDbSavedByObjectVersion
1070
     0
  0
VISUALSTYLE
  5
38
102
{ACAD_REACTORS
330
2A
102
}
102
{ACAD_XDICTIONARY
360
28D
102
}
330
2A
100
AcDbVisualStyle
  2
Linepattern
 70
    14
 71
     2
 72
     2
 73
     0
 90
        0
 40
-0.6
 41
-30.0
 62
     5
 63
     7
 74
     1
 91
        4
 64
     7
 65
   257
 75
     7
175
     7
 42
1.0
 92
        8
 66
     7
 43
1.0
 76
     1
 77
     6
 78
     2
 67
     7
 79
     5
170
     0
171
     0
290
     0
174
     0
 93
        1
 44
0.0
173
     0
291
     1
 45
0.0
1001
ACAD
1000
AcDbSavedByObjectVersion
1070
     0
  0
VISUALSTYLE
  5
33
102
{ACAD_REACTORS
330
2A
102
}
102
{ACAD_XDICTIONARY
360
283
102
}
330
2A
100
AcDbVisualStyle
  2
Realistic
 70
     8
 71
     2
 72
     2
 73
     0
 90
        0
 40
-0.6
 41
-30.0
 62
     5
 63
     7
 74
     1
 91
        0
 64
     7
 65
   257
 75
     1
175
     1
 42
1.0
 92
        8
 66
     8
 43
1.0
 76
     1
 77
     6
 78
     2
 67
     7
 79
     5
170
     0
171
     0
290
     0
174
     0
 93
       13
 44
0.0
173
     0
291
     0
 45
0.0
1001
ACAD
1000
AcDbSavedByObjectVersion
1070
     0
  0
VISUALSTYLE
  5
37
102
{ACAD_REACTORS
330
2A
102
}
102
{ACAD_XDICTIONARY
360
28B
102
}
330
2A
100
AcDbVisualStyle
  2
Thicken
 70
    13
 71
     2
 72
     2
 73
     0
 90
        0
 40
-0.6
 41
-30.0
 62
     5
 63
     7
 74
     1
 91
        4
 64
     7
 65
   257
 75
     1
175
     1
 42
1.0
 92
       12
 66
     7
 43
1.0
 76
     1
 77
     6
 78
     2
 67
     7
 79
     5
170
     0
171
     0
290
     0
174
     0
 93
        1
 44
0.0
173
     0
291
     1
 45
0.0
1001
ACAD
1000
AcDbSavedByObjectVersion
1070
     0
  0
DICTIONARYVAR
  5
271
102
{ACAD_REACTORS
330
26E
102
}
330
26E
100
DictionaryVariables
280
     0
  1
2
  0
DICTIONARYVAR
  5
272
102
{ACAD_REACTORS
330
26E
102
}
330
26E
100
DictionaryVariables
280
     0
  1
1
  0
DICTIONARY
  5
295
330
3D
100
AcDbDictionary
280
     1
281
     1
  3
ACAD_XREC_ROUNDTRIP
360
296
  0
DICTIONARY
  5
293
330
3C
100
AcDbDictionary
280
     1
281
     1
  3
ACAD_XREC_ROUNDTRIP
360
294
  0
DICTIONARY
  5
297
330
3E
100
AcDbDictionary
280
     1
281
     1
  3
ACAD_XREC_ROUNDTRIP
360
298
  0
DICTIONARY
  5
27B
330
2F
100
AcDbDictionary
280
     1
281
     1
  3
ACAD_XREC_ROUNDTRIP
360
27C
  0
DICTIONARY
  5
27F
330
31
100
AcDbDictionary
280
     1
281
     1
  3
ACAD_XREC_ROUNDTRIP
360
280
  0
DICTIONARY
  5
27D
330
30
100
AcDbDictionary
280
     1
281
     1
  3
ACAD_XREC_ROUNDTRIP
360
27E
  0
DICTIONARY
  5
281
330
32
100
AcDbDictionary
280
     1
281
     1
  3
ACAD_XREC_ROUNDTRIP
360
282
  0
DICTIONARY
  5
289
330
36
100
AcDbDictionary
280
     1
281
     1
  3
ACAD_XREC_ROUNDTRIP
360
28A
  0
DICTIONARY
  5
291
330
3A
100
AcDbDictionary
280
     1
281
     1
  3
ACAD_XREC_ROUNDTRIP
360
292
  0
DICTIONARY
  5
285
330
34
100
AcDbDictionary
280
     1
281
     1
  3
ACAD_XREC_ROUNDTRIP
360
286
  0
DICTIONARY
  5
287
330
35
100
AcDbDictionary
280
     1
281
     1
  3
ACAD_XREC_ROUNDTRIP
360
288
  0
DICTIONARY
  5
28F
330
39
100
AcDbDictionary
280
     1
281
     1
  3
ACAD_XREC_ROUNDTRIP
360
290
  0
DICTIONARY
  5
273
330
2B
100
AcDbDictionary
280
     1
281
     1
  3
ACAD_XREC_ROUNDTRIP
360
274
  0
DICTIONARY
  5
275
330
2C
100
AcDbDictionary
280
     1
281
     1
  3
ACAD_XREC_ROUNDTRIP
360
276
  0
DICTIONARY
  5
277
330
2D
100
AcDbDictionary
280
     1
281
     1
  3
ACAD_XREC_ROUNDTRIP
360
278
  0
DICTIONARY
  5
279
330
2E
100
AcDbDictionary
280
     1
281
     1
  3
ACAD_XREC_ROUNDTRIP
360
27A
  0
DICTIONARY
  5
28D
330
38
100
AcDbDictionary
280
     1
281
     1
  3
ACAD_XREC_ROUNDTRIP
360
28E
  0
DICTIONARY
  5
283
330
33
100
AcDbDictionary
280
     1
281
     1
  3
ACAD_XREC_ROUNDTRIP
360
284
  0
DICTIONARY
  5
28B
330
37
100
AcDbDictionary
280
     1
281
     1
  3
ACAD_XREC_ROUNDTRIP
360
28C
  0
XRECORD
  5
296
102
{ACAD_REACTORS
330
295
102
}
330
295
100
AcDbXrecord
280
     1
102
MATERIAL
148
0.0
149
0.0
149
0.0
 93
        0
 94
      127
282
     0
 72
     1
 77
     1
171
     1
175
     1
179
     1
273
     0
  0
XRECORD
  5
294
102
{ACAD_REACTORS
330
293
102
}
330
293
100
AcDbXrecord
280
     1
102
MATERIAL
148
0.0
149
0.0
149
0.0
 93
        0
 94
      127
282
     0
 72
     1
 77
     1
171
     1
175
     1
179
     1
273
     0
  0
XRECORD
  5
298
102
{ACAD_REACTORS
330
297
102
}
330
297
100
AcDbXrecord
280
     1
102
MATERIAL
148
0.0
149
0.0
149
0.0
 93
        0
 94
      127
282
     0
 72
     1
 77
     1
171
     1
175
     1
179
     1
273
     0
  0
XRECORD
  5
27C
102
{ACAD_REACTORS
330
27B
102
}
330
27B
100
AcDbXrecord
280
     1
102
RTVSPropertyOp0
 70
     1
102
RTVSPropertyOp1
 70
     1
102
RTVSPropertyOp2
 70
     1
102
RTVSPropertyOp3
 70
     1
102
RTVSPropertyOp4
 70
     1
102
RTVSPropertyOp5
 70
     1
102
RTVSPropertyOp6
 70
     1
102
RTVSPropertyOp7
 70
     1
102
RTVSPropertyOp8
 70
     1
102
RTVSPropertyOp9
 70
     1
102
RTVSPropertyOp10
 70
     1
102
RTVSPropertyOp11
 70
     1
102
RTVSPropertyOp12
 70
     1
102
RTVSPropertyOp13
 70
     1
102
RTVSPropertyOp14
 70
     1
102
RTVSPropertyOp15
 70
     1
102
RTVSPropertyOp16
 70
     1
102
RTVSPropertyOp17
 70
     1
102
RTVSPropertyOp18
 70
     1
102
RTVSPropertyOp19
 70
     1
102
RTVSPropertyOp20
 70
     1
102
RTVSPropertyOp21
 70
     1
102
RTVSPropertyOp22
 70
     1
102
RTVSPropertyOp23
 70
     1
102
RTVSPropertyOp24
 70
     1
102
RTVSPropertyOp25
 70
     1
102
RTVSPropertyOp26
 70
     1
102
RTVSPropertyOp27
 70
     1
102
RTVSPropertyOp28
 70
     1
102
RTVSPropertyOp29
 70
     1
102
RTVSPropertyOp30
 70
     1
102
RTVSPropertyOp31
 70
     1
102
RTVSPropertyOp32
 70
     1
  0
XRECORD
  5
280
102
{ACAD_REACTORS
330
27F
102
}
330
27F
100
AcDbXrecord
280
     1
102
RTVSPropertyOp0
 70
     1
102
RTVSPropertyOp1
 70
     1
102
RTVSPropertyOp2
 70
     1
102
RTVSPropertyOp3
 70
     1
102
RTVSPropertyOp4
 70
     1
102
RTVSPropertyOp5
 70
     1
102
RTVSPropertyOp6
 70
     1
102
RTVSPropertyOp7
 70
     1
102
RTVSPropertyOp8
 70
     1
102
RTVSPropertyOp9
 70
     1
102
RTVSPropertyOp10
 70
     1
102
RTVSPropertyOp11
 70
     1
102
RTVSPropertyOp12
 70
     1
102
RTVSPropertyOp13
 70
     1
102
RTVSPropertyOp14
 70
     1
102
RTVSPropertyOp15
 70
     1
102
RTVSPropertyOp16
 70
     1
102
RTVSPropertyOp17
 70
     1
102
RTVSPropertyOp18
 70
     1
102
RTVSPropertyOp19
 70
     1
102
RTVSPropertyOp20
 70
     1
102
RTVSPropertyOp21
 70
     1
102
RTVSPropertyOp22
 70
     1
102
RTVSPropertyOp23
 70
     1
102
RTVSPropertyOp24
 70
     1
102
RTVSPropertyOp25
 70
     1
102
RTVSPropertyOp26
 70
     1
102
RTVSPropertyOp27
 70
     1
102
RTVSPropertyOp28
 70
     1
102
RTVSPropertyOp29
 70
     1
102
RTVSPropertyOp30
 70
     1
102
RTVSPropertyOp31
 70
     1
102
RTVSPropertyOp32
 70
     1
  0
XRECORD
  5
27E
102
{ACAD_REACTORS
330
27D
102
}
330
27D
100
AcDbXrecord
280
     1
102
RTVSPropertyOp0
 70
     1
102
RTVSPropertyOp1
 70
     1
102
RTVSPropertyOp2
 70
     1
102
RTVSPropertyOp3
 70
     1
102
RTVSPropertyOp4
 70
     1
102
RTVSPropertyOp5
 70
     1
102
RTVSPropertyOp6
 70
     1
102
RTVSPropertyOp7
 70
     1
102
RTVSPropertyOp8
 70
     1
102
RTVSPropertyOp9
 70
     1
102
RTVSPropertyOp10
 70
     1
102
RTVSPropertyOp11
 70
     1
102
RTVSPropertyOp12
 70
     1
102
RTVSPropertyOp13
 70
     1
102
RTVSPropertyOp14
 70
     1
102
RTVSPropertyOp15
 70
     1
102
RTVSPropertyOp16
 70
     1
102
RTVSPropertyOp17
 70
     1
102
RTVSPropertyOp18
 70
     1
102
RTVSPropertyOp19
 70
     1
102
RTVSPropertyOp20
 70
     1
102
RTVSPropertyOp21
 70
     1
102
RTVSPropertyOp22
 70
     1
102
RTVSPropertyOp23
 70
     1
102
RTVSPropertyOp24
 70
     1
102
RTVSPropertyOp25
 70
     1
102
RTVSPropertyOp26
 70
     1
102
RTVSPropertyOp27
 70
     1
102
RTVSPropertyOp28
 70
     1
102
RTVSPropertyOp29
 70
     1
102
RTVSPropertyOp30
 70
     1
102
RTVSPropertyOp31
 70
     1
102
RTVSPropertyOp32
 70
     1
  0
XRECORD
  5
282
102
{ACAD_REACTORS
330
281
102
}
330
281
100
AcDbXrecord
280
     1
102
RTVSPropertyOp0
 70
     1
102
RTVSPropertyOp1
 70
     1
102
RTVSPropertyOp2
 70
     1
102
RTVSPropertyOp3
 70
     1
102
RTVSPropertyOp4
 70
     1
102
RTVSPropertyOp5
 70
     1
102
RTVSPropertyOp6
 70
     1
102
RTVSPropertyOp7
 70
     1
102
RTVSPropertyOp8
 70
     1
102
RTVSPropertyOp9
 70
     1
102
RTVSPropertyOp10
 70
     1
102
RTVSPropertyOp11
 70
     1
102
RTVSPropertyOp12
 70
     1
102
RTVSPropertyOp13
 70
     1
102
RTVSPropertyOp14
 70
     1
102
RTVSPropertyOp15
 70
     1
102
RTVSPropertyOp16
 70
     1
102
RTVSPropertyOp17
 70
     1
102
RTVSPropertyOp18
 70
     1
102
RTVSPropertyOp19
 70
     1
102
RTVSPropertyOp20
 70
     1
102
RTVSPropertyOp21
 70
     1
102
RTVSPropertyOp22
 70
     1
102
RTVSPropertyOp23
 70
     1
102
RTVSPropertyOp24
 70
     1
102
RTVSPropertyOp25
 70
     1
102
RTVSPropertyOp26
 70
     1
102
RTVSPropertyOp27
 70
     1
102
RTVSPropertyOp28
 70
     1
102
RTVSPropertyOp29
 70
     1
102
RTVSPropertyOp30
 70
     1
102
RTVSPropertyOp31
 70
     1
102
RTVSPropertyOp32
 70
     1
  0
XRECORD
  5
28A
102
{ACAD_REACTORS
330
289
102
}
330
289
100
AcDbXrecord
280
     1
102
RTVSPropertyOp0
 70
     1
102
RTVSPropertyOp1
 70
     1
102
RTVSPropertyOp2
 70
     1
102
RTVSPropertyOp3
 70
     1
102
RTVSPropertyOp4
 70
     1
102
RTVSPropertyOp5
 70
     1
102
RTVSPropertyOp6
 70
     1
102
RTVSPropertyOp7
 70
     1
102
RTVSPropertyOp8
 70
     1
102
RTVSPropertyOp9
 70
     1
102
RTVSPropertyOp10
 70
     1
102
RTVSPropertyOp11
 70
     1
102
RTVSPropertyOp12
 70
     1
102
RTVSPropertyOp13
 70
     1
102
RTVSPropertyOp14
 70
     1
102
RTVSPropertyOp15
 70
     1
102
RTVSPropertyOp16
 70
     1
102
RTVSPropertyOp17
 70
     1
102
RTVSPropertyOp18
 70
     1
102
RTVSPropertyOp19
 70
     1
102
RTVSPropertyOp20
 70
     1
102
RTVSPropertyOp21
 70
     1
102
RTVSPropertyOp22
 70
     1
102
RTVSPropertyOp23
 70
     1
102
RTVSPropertyOp24
 70
     1
102
RTVSPropertyOp25
 70
     1
102
RTVSPropertyOp26
 70
     1
102
RTVSPropertyOp27
 70
     1
102
RTVSPropertyOp28
 70
     1
102
RTVSPropertyOp29
 70
     1
102
RTVSPropertyOp30
 70
     1
102
RTVSPropertyOp31
 70
     1
102
RTVSPropertyOp32
 70
     1
  0
XRECORD
  5
292
102
{ACAD_REACTORS
330
291
102
}
330
291
100
AcDbXrecord
280
     1
102
RTVSPropertyOp0
 70
     1
102
RTVSPropertyOp1
 70
     1
102
RTVSPropertyOp2
 70
     1
102
RTVSPropertyOp3
 70
     1
102
RTVSPropertyOp4
 70
     1
102
RTVSPropertyOp5
 70
     1
102
RTVSPropertyOp6
 70
     1
102
RTVSPropertyOp7
 70
     1
102
RTVSPropertyOp8
 70
     1
102
RTVSPropertyOp9
 70
     1
102
RTVSPropertyOp10
 70
     1
102
RTVSPropertyOp11
 70
     1
102
RTVSPropertyOp12
 70
     1
102
RTVSPropertyOp13
 70
     1
102
RTVSPropertyOp14
 70
     1
102
RTVSPropertyOp15
 70
     1
102
RTVSPropertyOp16
 70
     1
102
RTVSPropertyOp17
 70
     1
102
RTVSPropertyOp18
 70
     1
102
RTVSPropertyOp19
 70
     1
102
RTVSPropertyOp20
 70
     1
102
RTVSPropertyOp21
 70
     1
102
RTVSPropertyOp22
 70
     1
102
RTVSPropertyOp23
 70
     1
102
RTVSPropertyOp24
 70
     1
102
RTVSPropertyOp25
 70
     1
102
RTVSPropertyOp26
 70
     1
102
RTVSPropertyOp27
 70
     1
102
RTVSPropertyOp28
 70
     1
102
RTVSPropertyOp29
 70
     1
102
RTVSPropertyOp30
 70
     1
102
RTVSPropertyOp31
 70
     1
102
RTVSPropertyOp32
 70
     1
  0
XRECORD
  5
286
102
{ACAD_REACTORS
330
285
102
}
330
285
100
AcDbXrecord
280
     1
102
RTVSPropertyOp0
 70
     1
102
RTVSPropertyOp1
 70
     1
102
RTVSPropertyOp2
 70
     1
102
RTVSPropertyOp3
 70
     1
102
RTVSPropertyOp4
 70
     1
102
RTVSPropertyOp5
 70
     1
102
RTVSPropertyOp6
 70
     1
102
RTVSPropertyOp7
 70
     1
102
RTVSPropertyOp8
 70
     1
102
RTVSPropertyOp9
 70
     1
102
RTVSPropertyOp10
 70
     1
102
RTVSPropertyOp11
 70
     1
102
RTVSPropertyOp12
 70
     1
102
RTVSPropertyOp13
 70
     1
102
RTVSPropertyOp14
 70
     1
102
RTVSPropertyOp15
 70
     1
102
RTVSPropertyOp16
 70
     1
102
RTVSPropertyOp17
 70
     1
102
RTVSPropertyOp18
 70
     1
102
RTVSPropertyOp19
 70
     1
102
RTVSPropertyOp20
 70
     1
102
RTVSPropertyOp21
 70
     1
102
RTVSPropertyOp22
 70
     1
102
RTVSPropertyOp23
 70
     1
102
RTVSPropertyOp24
 70
     1
102
RTVSPropertyOp25
 70
     1
102
RTVSPropertyOp26
 70
     1
102
RTVSPropertyOp27
 70
     1
102
RTVSPropertyOp28
 70
     1
102
RTVSPropertyOp29
 70
     1
102
RTVSPropertyOp30
 70
     1
102
RTVSPropertyOp31
 70
     1
102
RTVSPropertyOp32
 70
     1
  0
XRECORD
  5
288
102
{ACAD_REACTORS
330
287
102
}
330
287
100
AcDbXrecord
280
     1
102
RTVSPropertyOp0
 70
     1
102
RTVSPropertyOp1
 70
     1
102
RTVSPropertyOp2
 70
     1
102
RTVSPropertyOp3
 70
     1
102
RTVSPropertyOp4
 70
     1
102
RTVSPropertyOp5
 70
     1
102
RTVSPropertyOp6
 70
     1
102
RTVSPropertyOp7
 70
     1
102
RTVSPropertyOp8
 70
     1
102
RTVSPropertyOp9
 70
     1
102
RTVSPropertyOp10
 70
     1
102
RTVSPropertyOp11
 70
     1
102
RTVSPropertyOp12
 70
     1
102
RTVSPropertyOp13
 70
     1
102
RTVSPropertyOp14
 70
     1
102
RTVSPropertyOp15
 70
     1
102
RTVSPropertyOp16
 70
     1
102
RTVSPropertyOp17
 70
     1
102
RTVSPropertyOp18
 70
     1
102
RTVSPropertyOp19
 70
     1
102
RTVSPropertyOp20
 70
     1
102
RTVSPropertyOp21
 70
     1
102
RTVSPropertyOp22
 70
     1
102
RTVSPropertyOp23
 70
     1
102
RTVSPropertyOp24
 70
     1
102
RTVSPropertyOp25
 70
     1
102
RTVSPropertyOp26
 70
     1
102
RTVSPropertyOp27
 70
     1
102
RTVSPropertyOp28
 70
     1
102
RTVSPropertyOp29
 70
     1
102
RTVSPropertyOp30
 70
     1
102
RTVSPropertyOp31
 70
     1
102
RTVSPropertyOp32
 70
     1
  0
XRECORD
  5
290
102
{ACAD_REACTORS
330
28F
102
}
330
28F
100
AcDbXrecord
280
     1
102
RTVSPropertyOp0
 70
     1
102
RTVSPropertyOp1
 70
     1
102
RTVSPropertyOp2
 70
     1
102
RTVSPropertyOp3
 70
     1
102
RTVSPropertyOp4
 70
     1
102
RTVSPropertyOp5
 70
     1
102
RTVSPropertyOp6
 70
     1
102
RTVSPropertyOp7
 70
     1
102
RTVSPropertyOp8
 70
     1
102
RTVSPropertyOp9
 70
     1
102
RTVSPropertyOp10
 70
     1
102
RTVSPropertyOp11
 70
     1
102
RTVSPropertyOp12
 70
     1
102
RTVSPropertyOp13
 70
     1
102
RTVSPropertyOp14
 70
     1
102
RTVSPropertyOp15
 70
     1
102
RTVSPropertyOp16
 70
     1
102
RTVSPropertyOp17
 70
     1
102
RTVSPropertyOp18
 70
     1
102
RTVSPropertyOp19
 70
     1
102
RTVSPropertyOp20
 70
     1
102
RTVSPropertyOp21
 70
     1
102
RTVSPropertyOp22
 70
     1
102
RTVSPropertyOp23
 70
     1
102
RTVSPropertyOp24
 70
     1
102
RTVSPropertyOp25
 70
     1
102
RTVSPropertyOp26
 70
     1
102
RTVSPropertyOp27
 70
     1
102
RTVSPropertyOp28
 70
     1
102
RTVSPropertyOp29
 70
     1
102
RTVSPropertyOp30
 70
     1
102
RTVSPropertyOp31
 70
     1
102
RTVSPropertyOp32
 70
     1
  0
XRECORD
  5
274
102
{ACAD_REACTORS
330
273
102
}
330
273
100
AcDbXrecord
280
     1
102
RTVSPropertyOp0
 70
     1
102
RTVSPropertyOp1
 70
     1
102
RTVSPropertyOp2
 70
     1
102
RTVSPropertyOp3
 70
     1
102
RTVSPropertyOp4
 70
     1
102
RTVSPropertyOp5
 70
     1
102
RTVSPropertyOp6
 70
     1
102
RTVSPropertyOp7
 70
     1
102
RTVSPropertyOp8
 70
     1
102
RTVSPropertyOp9
 70
     1
102
RTVSPropertyOp10
 70
     1
102
RTVSPropertyOp11
 70
     1
102
RTVSPropertyOp12
 70
     1
102
RTVSPropertyOp13
 70
     1
102
RTVSPropertyOp14
 70
     1
102
RTVSPropertyOp15
 70
     1
102
RTVSPropertyOp16
 70
     1
102
RTVSPropertyOp17
 70
     1
102
RTVSPropertyOp18
 70
     1
102
RTVSPropertyOp19
 70
     1
102
RTVSPropertyOp20
 70
     1
102
RTVSPropertyOp21
 70
     1
102
RTVSPropertyOp22
 70
     1
102
RTVSPropertyOp23
 70
     1
102
RTVSPropertyOp24
 70
     1
102
RTVSPropertyOp25
 70
     1
102
RTVSPropertyOp26
 70
     1
102
RTVSPropertyOp27
 70
     1
102
RTVSPropertyOp28
 70
     1
102
RTVSPropertyOp29
 70
     1
102
RTVSPropertyOp30
 70
     1
102
RTVSPropertyOp31
 70
     1
102
RTVSPropertyOp32
 70
     1
  0
XRECORD
  5
276
102
{ACAD_REACTORS
330
275
102
}
330
275
100
AcDbXrecord
280
     1
102
RTVSPropertyOp0
 70
     1
102
RTVSPropertyOp1
 70
     1
102
RTVSPropertyOp2
 70
     1
102
RTVSPropertyOp3
 70
     1
102
RTVSPropertyOp4
 70
     1
102
RTVSPropertyOp5
 70
     1
102
RTVSPropertyOp6
 70
     1
102
RTVSPropertyOp7
 70
     1
102
RTVSPropertyOp8
 70
     1
102
RTVSPropertyOp9
 70
     1
102
RTVSPropertyOp10
 70
     1
102
RTVSPropertyOp11
 70
     1
102
RTVSPropertyOp12
 70
     1
102
RTVSPropertyOp13
 70
     1
102
RTVSPropertyOp14
 70
     1
102
RTVSPropertyOp15
 70
     1
102
RTVSPropertyOp16
 70
     1
102
RTVSPropertyOp17
 70
     1
102
RTVSPropertyOp18
 70
     1
102
RTVSPropertyOp19
 70
     1
102
RTVSPropertyOp20
 70
     1
102
RTVSPropertyOp21
 70
     1
102
RTVSPropertyOp22
 70
     1
102
RTVSPropertyOp23
 70
     1
102
RTVSPropertyOp24
 70
     1
102
RTVSPropertyOp25
 70
     1
102
RTVSPropertyOp26
 70
     1
102
RTVSPropertyOp27
 70
     1
102
RTVSPropertyOp28
 70
     1
102
RTVSPropertyOp29
 70
     1
102
RTVSPropertyOp30
 70
     1
102
RTVSPropertyOp31
 70
     1
102
RTVSPropertyOp32
 70
     1
  0
XRECORD
  5
278
102
{ACAD_REACTORS
330
277
102
}
330
277
100
AcDbXrecord
280
     1
102
RTVSPropertyOp0
 70
     1
102
RTVSPropertyOp1
 70
     1
102
RTVSPropertyOp2
 70
     1
102
RTVSPropertyOp3
 70
     1
102
RTVSPropertyOp4
 70
     1
102
RTVSPropertyOp5
 70
     1
102
RTVSPropertyOp6
 70
     1
102
RTVSPropertyOp7
 70
     1
102
RTVSPropertyOp8
 70
     1
102
RTVSPropertyOp9
 70
     1
102
RTVSPropertyOp10
 70
     1
102
RTVSPropertyOp11
 70
     1
102
RTVSPropertyOp12
 70
     1
102
RTVSPropertyOp13
 70
     1
102
RTVSPropertyOp14
 70
     1
102
RTVSPropertyOp15
 70
     1
102
RTVSPropertyOp16
 70
     1
102
RTVSPropertyOp17
 70
     1
102
RTVSPropertyOp18
 70
     1
102
RTVSPropertyOp19
 70
     1
102
RTVSPropertyOp20
 70
     1
102
RTVSPropertyOp21
 70
     1
102
RTVSPropertyOp22
 70
     1
102
RTVSPropertyOp23
 70
     1
102
RTVSPropertyOp24
 70
     1
102
RTVSPropertyOp25
 70
     1
102
RTVSPropertyOp26
 70
     1
102
RTVSPropertyOp27
 70
     1
102
RTVSPropertyOp28
 70
     1
102
RTVSPropertyOp29
 70
     1
102
RTVSPropertyOp30
 70
     1
102
RTVSPropertyOp31
 70
     1
102
RTVSPropertyOp32
 70
     1
  0
XRECORD
  5
27A
102
{ACAD_REACTORS
330
279
102
}
330
279
100
AcDbXrecord
280
     1
102
RTVSPropertyOp0
 70
     1
102
RTVSPropertyOp1
 70
     1
102
RTVSPropertyOp2
 70
     1
102
RTVSPropertyOp3
 70
     1
102
RTVSPropertyOp4
 70
     1
102
RTVSPropertyOp5
 70
     1
102
RTVSPropertyOp6
 70
     1
102
RTVSPropertyOp7
 70
     1
102
RTVSPropertyOp8
 70
     1
102
RTVSPropertyOp9
 70
     1
102
RTVSPropertyOp10
 70
     1
102
RTVSPropertyOp11
 70
     1
102
RTVSPropertyOp12
 70
     1
102
RTVSPropertyOp13
 70
     1
102
RTVSPropertyOp14
 70
     1
102
RTVSPropertyOp15
 70
     1
102
RTVSPropertyOp16
 70
     1
102
RTVSPropertyOp17
 70
     1
102
RTVSPropertyOp18
 70
     1
102
RTVSPropertyOp19
 70
     1
102
RTVSPropertyOp20
 70
     1
102
RTVSPropertyOp21
 70
     1
102
RTVSPropertyOp22
 70
     1
102
RTVSPropertyOp23
 70
     1
102
RTVSPropertyOp24
 70
     1
102
RTVSPropertyOp25
 70
     1
102
RTVSPropertyOp26
 70
     1
102
RTVSPropertyOp27
 70
     1
102
RTVSPropertyOp28
 70
     1
102
RTVSPropertyOp29
 70
     1
102
RTVSPropertyOp30
 70
     1
102
RTVSPropertyOp31
 70
     1
102
RTVSPropertyOp32
 70
     1
  0
XRECORD
  5
28E
102
{ACAD_REACTORS
330
28D
102
}
330
28D
100
AcDbXrecord
280
     1
102
RTVSPropertyOp0
 70
     1
102
RTVSPropertyOp1
 70
     1
102
RTVSPropertyOp2
 70
     1
102
RTVSPropertyOp3
 70
     1
102
RTVSPropertyOp4
 70
     1
102
RTVSPropertyOp5
 70
     1
102
RTVSPropertyOp6
 70
     1
102
RTVSPropertyOp7
 70
     1
102
RTVSPropertyOp8
 70
     1
102
RTVSPropertyOp9
 70
     1
102
RTVSPropertyOp10
 70
     1
102
RTVSPropertyOp11
 70
     1
102
RTVSPropertyOp12
 70
     1
102
RTVSPropertyOp13
 70
     1
102
RTVSPropertyOp14
 70
     1
102
RTVSPropertyOp15
 70
     1
102
RTVSPropertyOp16
 70
     1
102
RTVSPropertyOp17
 70
     1
102
RTVSPropertyOp18
 70
     1
102
RTVSPropertyOp19
 70
     1
102
RTVSPropertyOp20
 70
     1
102
RTVSPropertyOp21
 70
     1
102
RTVSPropertyOp22
 70
     1
102
RTVSPropertyOp23
 70
     1
102
RTVSPropertyOp24
 70
     1
102
RTVSPropertyOp25
 70
     1
102
RTVSPropertyOp26
 70
     1
102
RTVSPropertyOp27
 70
     1
102
RTVSPropertyOp28
 70
     1
102
RTVSPropertyOp29
 70
     1
102
RTVSPropertyOp30
 70
     1
102
RTVSPropertyOp31
 70
     1
102
RTVSPropertyOp32
 70
     1
  0
XRECORD
  5
284
102
{ACAD_REACTORS
330
283
102
}
330
283
100
AcDbXrecord
280
     1
102
RTVSPropertyOp0
 70
     1
102
RTVSPropertyOp1
 70
     1
102
RTVSPropertyOp2
 70
     1
102
RTVSPropertyOp3
 70
     1
102
RTVSPropertyOp4
 70
     1
102
RTVSPropertyOp5
 70
     1
102
RTVSPropertyOp6
 70
     1
102
RTVSPropertyOp7
 70
     1
102
RTVSPropertyOp8
 70
     1
102
RTVSPropertyOp9
 70
     1
102
RTVSPropertyOp10
 70
     1
102
RTVSPropertyOp11
 70
     1
102
RTVSPropertyOp12
 70
     1
102
RTVSPropertyOp13
 70
     1
102
RTVSPropertyOp14
 70
     1
102
RTVSPropertyOp15
 70
     1
102
RTVSPropertyOp16
 70
     1
102
RTVSPropertyOp17
 70
     1
102
RTVSPropertyOp18
 70
     1
102
RTVSPropertyOp19
 70
     1
102
RTVSPropertyOp20
 70
     1
102
RTVSPropertyOp21
 70
     1
102
RTVSPropertyOp22
 70
     1
102
RTVSPropertyOp23
 70
     1
102
RTVSPropertyOp24
 70
     1
102
RTVSPropertyOp25
 70
     1
102
RTVSPropertyOp26
 70
     1
102
RTVSPropertyOp27
 70
     1
102
RTVSPropertyOp28
 70
     1
102
RTVSPropertyOp29
 70
     1
102
RTVSPropertyOp30
 70
     1
102
RTVSPropertyOp31
 70
     1
102
RTVSPropertyOp32
 70
     1
  0
XRECORD
  5
28C
102
{ACAD_REACTORS
330
28B
102
}
330
28B
100
AcDbXrecord
280
     1
102
RTVSPropertyOp0
 70
     1
102
RTVSPropertyOp1
 70
     1
102
RTVSPropertyOp2
 70
     1
102
RTVSPropertyOp3
 70
     1
102
RTVSPropertyOp4
 70
     1
102
RTVSPropertyOp5
 70
     1
102
RTVSPropertyOp6
 70
     1
102
RTVSPropertyOp7
 70
     1
102
RTVSPropertyOp8
 70
     1
102
RTVSPropertyOp9
 70
     1
102
RTVSPropertyOp10
 70
     1
102
RTVSPropertyOp11
 70
     1
102
RTVSPropertyOp12
 70
     1
102
RTVSPropertyOp13
 70
     1
102
RTVSPropertyOp14
 70
     1
102
RTVSPropertyOp15
 70
     1
102
RTVSPropertyOp16
 70
     1
102
RTVSPropertyOp17
 70
     1
102
RTVSPropertyOp18
 70
     1
102
RTVSPropertyOp19
 70
     1
102
RTVSPropertyOp20
 70
     1
102
RTVSPropertyOp21
 70
     1
102
RTVSPropertyOp22
 70
     1
102
RTVSPropertyOp23
 70
     1
102
RTVSPropertyOp24
 70
     1
102
RTVSPropertyOp25
 70
     1
102
RTVSPropertyOp26
 70
     1
102
RTVSPropertyOp27
 70
     1
102
RTVSPropertyOp28
 70
     1
102
RTVSPropertyOp29
 70
     1
102
RTVSPropertyOp30
 70
     1
102
RTVSPropertyOp31
 70
     1
102
RTVSPropertyOp32
 70
     1
  0
ENDSEC
  0
EOF
